  0
SECTION
  2
HEADER
  9
$ACADVER
  1
AC1014
  9
$DWGCODEPAGE
  3
ANSI_932
  9
$LTSCALE
 40
20.0
  9
$FILLMODE
 70
     1
  9
$CLAYER
  8
0
  9
$PDMODE
 70
     0
  9
$SPLFRAME
 70
     0
  9
$SPLINETYPE
 70
     6
  9
$SPLINESEGS
 70
     8
  9
$DIMASZ
 40
2.000000
  9
$DIMEXE
 40
2.000000
  9
$DIMEXO
 40
0.800000
  9
$DIMTAD
 70
     1
  9
$DIMTIH
 70
     0
  9
$DIMTOH
 70
     0
  9
$DIMTVP
 40
0.500000
  9
$DIMTXT
 40
3.100000
  9
$EXTMIN
 10
0.000000
 20
0.000000
 30
0.000000
  9
$EXTMAX
 10
420.000000
 20
594.000000
 30
0.000000
  9
$MEASUREMENT
 70
  1
  9
$LIMMIN
 10
0.000000
 20
0.000000
  9
$LIMMAX
 10
420.000000
 20
594.000000
  9
$HANDLING
 70
     1
  9
$HANDSEED
  5
482
  9
$DIMBLK
  1
_OPEN
  9
$DIMDEC
 70
     3
  9
$DIMAUNIT
 70
     1
  9
$DIMZIN
 70
     8
  9
$DIMTOFL
 70
     1
  0
ENDSEC
  0
SECTION
  2
CLASSES
  0
ENDSEC
  0
SECTION
  2
TABLES
  0
TABLE
  2
VPORT
  5
431
100
AcDbSymbolTable
 70
     1
  0
VPORT
  5
432
100
AcDbSymbolTableRecord
100
AcDbViewportTableRecord
  2
*ACTIVE
 70
     0
 12
704.520218
 22
497.522093
 40
995.044185
 41
1.416058
  0
ENDTAB
  0
TABLE
  2
LTYPE
  5
433
100
AcDbSymbolTable
 70
     4
  0
LTYPE
  5
434
100
AcDbSymbolTableRecord
100
AcDbLinetypeTableRecord
  2
BYBLOCK
 70
     0
  3

 72
    65
 73
     0
 40
0.0
  0
LTYPE
  5
435
100
AcDbSymbolTableRecord
100
AcDbLinetypeTableRecord
  2
BYLAYER
 70
     0
  3

 72
    65
 73
     0
 40
0.0
  0
LTYPE
  5
436
100
AcDbSymbolTableRecord
100
AcDbLinetypeTableRecord
  2
CONTINUOUS
 70
     0
  3
Solid line (NEC CAE2D for Win R12.1 : 2014.02.18)
 72
    65
 73
     0
 40
0.0
  0
LTYPE
  5
437
100
AcDbSymbolTableRecord
100
AcDbLinetypeTableRecord
  2
DASHED
 70
     0
  3
__ __ __ __ __ __ __ __ __ __ __ __ __ _
 72
    65
 73
     2
 40
0.75
 49
0.5
 74
     0
 49
-0.25
 74
     0
  0
LTYPE
  5
438
100
AcDbSymbolTableRecord
100
AcDbLinetypeTableRecord
  2
HIDDEN
 70
     0
  3
__ __ __ __ __ __ __ __ __ __ __ __ __ __
 72
    65
 73
     2
 40
0.375
 49
0.25
 74
     0
 49
-0.125
 74
     0
  0
LTYPE
  5
439
100
AcDbSymbolTableRecord
100
AcDbLinetypeTableRecord
  2
CENTER
 70
     0
  3
____ _ ____ _ ____ _ ____ _ ____ _ ____
 72
    65
 73
     4
 40
2.0
 49
1.25
 74
     0
 49
-0.25
 74
     0
 49
0.25
 74
     0
 49
-0.25
 74
     0
  0
ENDTAB
  0
TABLE
  2
LAYER
  5
43A
100
AcDbSymbolTable
 70
    11
  0
LAYER
  5
43B
100
AcDbSymbolTableRecord
100
AcDbLayerTableRecord
  2
0
 70
     0
 62
     7
  6
CONTINUOUS
  0
LAYER
  5
43C
100
AcDbSymbolTableRecord
100
AcDbLayerTableRecord
  2
MAIN0
 70
     0
 62
     7
  6
CONTINUOUS
  0
LAYER
  5
43D
100
AcDbSymbolTableRecord
100
AcDbLayerTableRecord
  2
MAIN1
 70
     0
 62
     7
  6
CONTINUOUS
  0
LAYER
  5
43E
100
AcDbSymbolTableRecord
100
AcDbLayerTableRecord
  2
MAIN2
 70
     0
 62
     7
  6
CONTINUOUS
  0
LAYER
  5
43F
100
AcDbSymbolTableRecord
100
AcDbLayerTableRecord
  2
MAIN3
 70
     0
 62
     7
  6
CONTINUOUS
  0
LAYER
  5
440
100
AcDbSymbolTableRecord
100
AcDbLayerTableRecord
  2
MAIN5
 70
     0
 62
     7
  6
CONTINUOUS
  0
LAYER
  5
441
100
AcDbSymbolTableRecord
100
AcDbLayerTableRecord
  2
MAIN6
 70
     0
 62
     7
  6
CONTINUOUS
  0
LAYER
  5
442
100
AcDbSymbolTableRecord
100
AcDbLayerTableRecord
  2
MAIN10
 70
     0
 62
     7
  6
CONTINUOUS
  0
LAYER
  5
443
100
AcDbSymbolTableRecord
100
AcDbLayerTableRecord
  2
MAIN1023
 70
     0
 62
    16
  6
CONTINUOUS
  0
LAYER
  5
444
100
AcDbSymbolTableRecord
100
AcDbLayerTableRecord
  2
WAKU0
 70
     0
 62
     7
  6
CONTINUOUS
  0
LAYER
  5
445
100
AcDbSymbolTableRecord
100
AcDbLayerTableRecord
  2
WAKU1023
 70
     0
 62
    16
  6
CONTINUOUS
  0
ENDTAB
  0
TABLE
  2
STYLE
  5
446
100
AcDbSymbolTable
 70
     4
  0
STYLE
  5
447
100
AcDbSymbolTableRecord
100
AcDbTextStyleTableRecord
  2
STANDARD
 70
    64
 40
0.0
 41
1.0
 50
0.0
 71
     0
 42
3.099999904632568
  3
TXT
  4

  0
STYLE
  5
448
100
AcDbSymbolTableRecord
100
AcDbTextStyleTableRecord
  2
ANKTATE
 70
    68
 40
0.0
 41
1.0
 50
0.0
 71
     0
 42
3.099999904632568
  3
TXT
  4

  0
STYLE
  5
C7
100
AcDbSymbolTableRecord
100
AcDbTextStyleTableRecord
  2
KNJYOKO
 70
    64
 40
0.0
 41
1.0
 50
0.0
 71
     0
 42
3.099999904632568
  3
TXT
  4
BIGFONT
  0
STYLE
  5
449
100
AcDbSymbolTableRecord
100
AcDbTextStyleTableRecord
  2
KNJTATE
 70
    68
 40
0.0
 41
1.0
 50
0.0
 71
     0
 42
3.099999904632568
  3
TXT
  4
BIGFONT
  0
ENDTAB
  0
TABLE
  2
VIEW
  5
44A
100
AcDbSymbolTable
 70
     0
  0
ENDTAB
  0
TABLE
  2
UCS
  5
44B
100
AcDbSymbolTable
 70
     0
  0
ENDTAB
  0
TABLE
  2
APPID
  5
44C
100
AcDbSymbolTable
 70
     1
  0
APPID
  5
44D
100
AcDbSymbolTableRecord
100
AcDbRegAppTableRecord
  2
ACAD
 70
     0
  0
ENDTAB
  0
TABLE
  2
DIMSTYLE
  5
44E
100
AcDbSymbolTable
 70
     1
  0
DIMSTYLE
105
44F
100
AcDbSymbolTableRecord
100
AcDbDimStyleTableRecord
  2
STANDARD
 70
     0
 41
2.000000
 44
2.000000
 42
0.800000
145
0.661290
140
3.100000
144
1.000000
146
0.903226
340
447
  0
DIMSTYLE
105
450
100
AcDbSymbolTableRecord
100
AcDbDimStyleTableRecord
  2
MAIN001
 70
     0
 41
5.000000
 44
5.000000
 42
2.000000
145
0.564516
140
7.750000
144
1.000000
146
0.903226
 77
     1
 73
     0
 74
     0
271
     3
275
     1
 78
     8
172
     1
340
447
  0
DIMSTYLE
105
451
100
AcDbSymbolTableRecord
100
AcDbDimStyleTableRecord
  2
WAKU002
 70
     0
 41
2.000000
 44
2.000000
 42
0.800000
145
0.661290
140
3.100000
144
1.000000
146
0.903226
 77
     1
 73
     0
 74
     0
271
     3
275
     1
 78
     8
172
     1
340
447
  0
ENDTAB
  0
TABLE
  2
BLOCK_RECORD
  5
452
100
AcDbSymbolTable
 70
    49
  0
BLOCK_RECORD
  5
453
100
AcDbSymbolTableRecord
100
AcDbBlockTableRecord
  2
*MODEL_SPACE
  0
BLOCK_RECORD
  5
454
100
AcDbSymbolTableRecord
100
AcDbBlockTableRecord
  2
*PAPER_SPACE
  0
BLOCK_RECORD
  5
1
100
AcDbSymbolTableRecord
100
AcDbBlockTableRecord
  2
_NONE
  0
BLOCK_RECORD
  5
4
100
AcDbSymbolTableRecord
100
AcDbBlockTableRecord
  2
_CLOSED
  0
BLOCK_RECORD
  5
B
100
AcDbSymbolTableRecord
100
AcDbBlockTableRecord
  2
_DOT
  0
BLOCK_RECORD
  5
13
100
AcDbSymbolTableRecord
100
AcDbBlockTableRecord
  2
_OPEN
  0
BLOCK_RECORD
  5
19
100
AcDbSymbolTableRecord
100
AcDbBlockTableRecord
  2
_ORIGIN
  0
BLOCK_RECORD
  5
1E
100
AcDbSymbolTableRecord
100
AcDbBlockTableRecord
  2
_OPEN30
  0
BLOCK_RECORD
  5
24
100
AcDbSymbolTableRecord
100
AcDbBlockTableRecord
  2
_BOXFILLED
  0
BLOCK_RECORD
  5
29
100
AcDbSymbolTableRecord
100
AcDbBlockTableRecord
  2
_BOXBLANK
  0
BLOCK_RECORD
  5
31
100
AcDbSymbolTableRecord
100
AcDbBlockTableRecord
  2
_OBLIQUE
  0
BLOCK_RECORD
  5
35
100
AcDbSymbolTableRecord
100
AcDbBlockTableRecord
  2
_OPEN90
  0
BLOCK_RECORD
  5
3B
100
AcDbSymbolTableRecord
100
AcDbBlockTableRecord
  2
_CLOSEDBLANK
  0
BLOCK_RECORD
  5
41
100
AcDbSymbolTableRecord
100
AcDbBlockTableRecord
  2
_DOTBLANK
  0
BLOCK_RECORD
  5
455
100
AcDbSymbolTableRecord
100
AcDbBlockTableRecord
  2
*D0
  0
BLOCK_RECORD
  5
456
100
AcDbSymbolTableRecord
100
AcDbBlockTableRecord
  2
*D1
  0
BLOCK_RECORD
  5
457
100
AcDbSymbolTableRecord
100
AcDbBlockTableRecord
  2
*D2
  0
BLOCK_RECORD
  5
458
100
AcDbSymbolTableRecord
100
AcDbBlockTableRecord
  2
*D3
  0
BLOCK_RECORD
  5
459
100
AcDbSymbolTableRecord
100
AcDbBlockTableRecord
  2
*D4
  0
BLOCK_RECORD
  5
45A
100
AcDbSymbolTableRecord
100
AcDbBlockTableRecord
  2
*D5
  0
BLOCK_RECORD
  5
45B
100
AcDbSymbolTableRecord
100
AcDbBlockTableRecord
  2
*D6
  0
BLOCK_RECORD
  5
45C
100
AcDbSymbolTableRecord
100
AcDbBlockTableRecord
  2
*D7
  0
BLOCK_RECORD
  5
45D
100
AcDbSymbolTableRecord
100
AcDbBlockTableRecord
  2
*D8
  0
BLOCK_RECORD
  5
45E
100
AcDbSymbolTableRecord
100
AcDbBlockTableRecord
  2
*D9
  0
BLOCK_RECORD
  5
45F
100
AcDbSymbolTableRecord
100
AcDbBlockTableRecord
  2
*D10
  0
BLOCK_RECORD
  5
460
100
AcDbSymbolTableRecord
100
AcDbBlockTableRecord
  2
*D11
  0
BLOCK_RECORD
  5
461
100
AcDbSymbolTableRecord
100
AcDbBlockTableRecord
  2
*D12
  0
BLOCK_RECORD
  5
462
100
AcDbSymbolTableRecord
100
AcDbBlockTableRecord
  2
*D13
  0
BLOCK_RECORD
  5
463
100
AcDbSymbolTableRecord
100
AcDbBlockTableRecord
  2
*D14
  0
BLOCK_RECORD
  5
464
100
AcDbSymbolTableRecord
100
AcDbBlockTableRecord
  2
*D15
  0
BLOCK_RECORD
  5
465
100
AcDbSymbolTableRecord
100
AcDbBlockTableRecord
  2
*D16
  0
BLOCK_RECORD
  5
466
100
AcDbSymbolTableRecord
100
AcDbBlockTableRecord
  2
*D17
  0
BLOCK_RECORD
  5
467
100
AcDbSymbolTableRecord
100
AcDbBlockTableRecord
  2
*D18
  0
BLOCK_RECORD
  5
468
100
AcDbSymbolTableRecord
100
AcDbBlockTableRecord
  2
*D19
  0
BLOCK_RECORD
  5
469
100
AcDbSymbolTableRecord
100
AcDbBlockTableRecord
  2
*D20
  0
BLOCK_RECORD
  5
46A
100
AcDbSymbolTableRecord
100
AcDbBlockTableRecord
  2
*D21
  0
BLOCK_RECORD
  5
46B
100
AcDbSymbolTableRecord
100
AcDbBlockTableRecord
  2
*D22
  0
BLOCK_RECORD
  5
46C
100
AcDbSymbolTableRecord
100
AcDbBlockTableRecord
  2
*D23
  0
BLOCK_RECORD
  5
46D
100
AcDbSymbolTableRecord
100
AcDbBlockTableRecord
  2
*D24
  0
BLOCK_RECORD
  5
46E
100
AcDbSymbolTableRecord
100
AcDbBlockTableRecord
  2
*D25
  0
BLOCK_RECORD
  5
46F
100
AcDbSymbolTableRecord
100
AcDbBlockTableRecord
  2
*D26
  0
BLOCK_RECORD
  5
470
100
AcDbSymbolTableRecord
100
AcDbBlockTableRecord
  2
*D27
  0
BLOCK_RECORD
  5
471
100
AcDbSymbolTableRecord
100
AcDbBlockTableRecord
  2
*D28
  0
BLOCK_RECORD
  5
472
100
AcDbSymbolTableRecord
100
AcDbBlockTableRecord
  2
*D29
  0
BLOCK_RECORD
  5
473
100
AcDbSymbolTableRecord
100
AcDbBlockTableRecord
  2
*D30
  0
BLOCK_RECORD
  5
474
100
AcDbSymbolTableRecord
100
AcDbBlockTableRecord
  2
*D31
  0
BLOCK_RECORD
  5
475
100
AcDbSymbolTableRecord
100
AcDbBlockTableRecord
  2
*D32
  0
BLOCK_RECORD
  5
476
100
AcDbSymbolTableRecord
100
AcDbBlockTableRecord
  2
*D33
  0
BLOCK_RECORD
  5
477
100
AcDbSymbolTableRecord
100
AcDbBlockTableRecord
  2
M0
  0
BLOCK_RECORD
  5
478
100
AcDbSymbolTableRecord
100
AcDbBlockTableRecord
  2
M1
  0
BLOCK_RECORD
  5
479
100
AcDbSymbolTableRecord
100
AcDbBlockTableRecord
  2
M2
  0
ENDTAB
  0
ENDSEC
  0
SECTION
  2
BLOCKS
  0
BLOCK
  5
47A
100
AcDbEntity
  8
0
100
AcDbBlockBegin
  2
*MODEL_SPACE
 70
     0
 10
0.0
 20
0.0
 30
0.0
  3
*MODEL_SPACE
  1

  0
ENDBLK
  5
47B
100
AcDbEntity
  8
0
100
AcDbBlockEnd
  0
BLOCK
  5
47C
100
AcDbEntity
  8
0
100
AcDbBlockBegin
  2
*PAPER_SPACE
 70
     0
 10
0.0
 20
0.0
 30
0.0
  3
*PAPER_SPACE
  1

  0
ENDBLK
  5
47D
100
AcDbEntity
  8
0
100
AcDbBlockEnd
  0
BLOCK
  5
2
100
AcDbEntity
  8
0
100
AcDbBlockBegin
  2
_NONE
 70
     0
 10
0.0
 20
0.0
 30
0.0
  3
_NONE
  1

  0
ENDBLK
  5
3
100
AcDbEntity
  8
0
100
AcDbBlockEnd
  0
BLOCK
  5
5
100
AcDbEntity
  8
0
100
AcDbBlockBegin
  2
_CLOSED
 70
     0
 10
0.0
 20
0.0
 30
0.0
  3
_CLOSED
  1

  0
LINE
  5
6
100
AcDbEntity
  8
0
  6
BYBLOCK
 62
     0
100
AcDbLine
 10
-1.0
 20
0.166667
 30
0.0
 11
0.0
 21
0.0
 31
0.0
  0
LINE
  5
7
100
AcDbEntity
  8
0
  6
BYBLOCK
 62
     0
100
AcDbLine
 10
0.0
 20
0.0
 30
0.0
 11
-1.0
 21
-0.166667
 31
0.0
  0
LINE
  5
8
100
AcDbEntity
  8
0
  6
BYBLOCK
 62
     0
100
AcDbLine
 10
-1.0
 20
0.166667
 30
0.0
 11
-1.0
 21
-0.166667
 31
0.0
  0
LINE
  5
9
100
AcDbEntity
  8
0
  6
BYBLOCK
 62
     0
100
AcDbLine
 10
0.0
 20
0.0
 30
0.0
 11
-1.0
 21
0.0
 31
0.0
  0
ENDBLK
  5
A
100
AcDbEntity
  8
0
100
AcDbBlockEnd
  0
BLOCK
  5
C
100
AcDbEntity
  8
0
100
AcDbBlockBegin
  2
_DOT
 70
     0
 10
0.0
 20
0.0
 30
0.0
  3
_DOT
  1

  0
POLYLINE
  5
D
100
AcDbEntity
  8
0
  6
BYBLOCK
 62
     0
100
AcDb2dPolyline
 66
     1
 10
0.0
 20
0.0
 30
0.0
 70
     1
 40
0.5
 41
0.5
  0
VERTEX
  5
E
100
AcDbEntity
  8
0
  6
BYBLOCK
 62
     0
100
AcDbVertex
100
AcDb2dVertex
 10
-0.25
 20
0.0
 30
0.0
 42
1.0
  0
VERTEX
  5
F
100
AcDbEntity
  8
0
  6
BYBLOCK
 62
     0
100
AcDbVertex
100
AcDb2dVertex
 10
0.25
 20
0.0
 30
0.0
 42
1.0
  0
SEQEND
  5
10
100
AcDbEntity
  8
0
  6
BYBLOCK
 62
     0
  0
LINE
  5
11
100
AcDbEntity
  8
0
  6
BYBLOCK
 62
     0
100
AcDbLine
 10
-0.5
 20
0.0
 30
0.0
 11
-1.0
 21
0.0
 31
0.0
  0
ENDBLK
  5
12
100
AcDbEntity
  8
0
100
AcDbBlockEnd
  0
BLOCK
  5
14
100
AcDbEntity
  8
0
100
AcDbBlockBegin
  2
_OPEN
 70
     0
 10
0.0
 20
0.0
 30
0.0
  3
_OPEN
  1

  0
LINE
  5
15
100
AcDbEntity
  8
0
  6
BYBLOCK
 62
     0
100
AcDbLine
 10
-1.0
 20
0.166667
 30
0.0
 11
0.0
 21
0.0
 31
0.0
  0
LINE
  5
16
100
AcDbEntity
  8
0
  6
BYBLOCK
 62
     0
100
AcDbLine
 10
0.0
 20
0.0
 30
0.0
 11
-1.0
 21
-0.166667
 31
0.0
  0
LINE
  5
17
100
AcDbEntity
  8
0
  6
BYBLOCK
 62
     0
100
AcDbLine
 10
0.0
 20
0.0
 30
0.0
 11
-1.0
 21
0.0
 31
0.0
  0
ENDBLK
  5
18
100
AcDbEntity
  8
0
100
AcDbBlockEnd
  0
BLOCK
  5
1A
100
AcDbEntity
  8
0
100
AcDbBlockBegin
  2
_ORIGIN
 70
     0
 10
0.0
 20
0.0
 30
0.0
  3
_ORIGIN
  1

  0
CIRCLE
  5
1B
100
AcDbEntity
  8
0
  6
BYBLOCK
 62
     0
100
AcDbCircle
 10
0.0
 20
0.0
 30
0.0
 40
0.5
  0
LINE
  5
1C
100
AcDbEntity
  8
0
  6
BYBLOCK
 62
     0
100
AcDbLine
 10
0.0
 20
0.0
 30
0.0
 11
-1.0
 21
0.0
 31
0.0
  0
ENDBLK
  5
1D
100
AcDbEntity
  8
0
100
AcDbBlockEnd
  0
BLOCK
  5
1F
100
AcDbEntity
  8
0
100
AcDbBlockBegin
  2
_OPEN30
 70
     0
 10
0.0
 20
0.0
 30
0.0
  3
_OPEN30
  1

  0
LINE
  5
20
100
AcDbEntity
  8
0
  6
BYBLOCK
 62
     0
100
AcDbLine
 10
-1.0
 20
0.267949
 30
0.0
 11
0.0
 21
0.0
 31
0.0
  0
LINE
  5
21
100
AcDbEntity
  8
0
  6
BYBLOCK
 62
     0
100
AcDbLine
 10
0.0
 20
0.0
 30
0.0
 11
-1.0
 21
-0.267949
 31
0.0
  0
LINE
  5
22
100
AcDbEntity
  8
0
  6
BYBLOCK
 62
     0
100
AcDbLine
 10
0.0
 20
0.0
 30
0.0
 11
-1.0
 21
0.0
 31
0.0
  0
ENDBLK
  5
23
100
AcDbEntity
  8
0
100
AcDbBlockEnd
  0
BLOCK
  5
25
100
AcDbEntity
  8
0
100
AcDbBlockBegin
  2
_BOXFILLED
 70
     0
 10
0.0
 20
0.0
 30
0.0
  3
_BOXFILLED
  1

  0
SOLID
  5
26
100
AcDbEntity
  8
0
  6
BYBLOCK
 62
     0
100
AcDbTrace
 10
-0.5
 20
0.5
 30
0.0
 11
0.5
 21
0.5
 31
0.0
 12
-0.5
 22
-0.5
 32
0.0
 13
0.5
 23
-0.5
 33
0.0
  0
LINE
  5
27
100
AcDbEntity
  8
0
  6
BYBLOCK
 62
     0
100
AcDbLine
 10
-0.5
 20
0.0
 30
0.0
 11
-1.0
 21
0.0
 31
0.0
  0
ENDBLK
  5
28
100
AcDbEntity
  8
0
100
AcDbBlockEnd
  0
BLOCK
  5
2A
100
AcDbEntity
  8
0
100
AcDbBlockBegin
  2
_BOXBLANK
 70
     0
 10
0.0
 20
0.0
 30
0.0
  3
_BOXBLANK
  1

  0
LINE
  5
2B
100
AcDbEntity
  8
0
  6
BYBLOCK
 62
     0
100
AcDbLine
 10
-0.5
 20
-0.5
 30
0.0
 11
0.5
 21
-0.5
 31
0.0
  0
LINE
  5
2C
100
AcDbEntity
  8
0
  6
BYBLOCK
 62
     0
100
AcDbLine
 10
0.5
 20
-0.5
 30
0.0
 11
0.5
 21
0.5
 31
0.0
  0
LINE
  5
2D
100
AcDbEntity
  8
0
  6
BYBLOCK
 62
     0
100
AcDbLine
 10
0.5
 20
0.5
 30
0.0
 11
-0.5
 21
0.5
 31
0.0
  0
LINE
  5
2E
100
AcDbEntity
  8
0
  6
BYBLOCK
 62
     0
100
AcDbLine
 10
-0.5
 20
0.5
 30
0.0
 11
-0.5
 21
-0.5
 31
0.0
  0
LINE
  5
2F
100
AcDbEntity
  8
0
  6
BYBLOCK
 62
     0
100
AcDbLine
 10
-0.5
 20
0.0
 30
0.0
 11
-1.0
 21
0.0
 31
0.0
  0
ENDBLK
  5
30
100
AcDbEntity
  8
0
100
AcDbBlockEnd
  0
BLOCK
  5
32
100
AcDbEntity
  8
0
100
AcDbBlockBegin
  2
_OBLIQUE
 70
     0
 10
0.0
 20
0.0
 30
0.0
  3
_OBLIQUE
  1

  0
LINE
  5
33
100
AcDbEntity
  8
0
  6
BYBLOCK
 62
     0
100
AcDbLine
 10
-0.5
 20
-0.5
 30
0.0
 11
0.5
 21
0.5
 31
0.0
  0
ENDBLK
  5
34
100
AcDbEntity
  8
0
100
AcDbBlockEnd
  0
BLOCK
  5
36
100
AcDbEntity
  8
0
100
AcDbBlockBegin
  2
_OPEN90
 70
     0
 10
0.0
 20
0.0
 30
0.0
  3
_OPEN90
  1

  0
LINE
  5
37
100
AcDbEntity
  8
0
  6
BYBLOCK
 62
     0
100
AcDbLine
 10
-0.5
 20
0.5
 30
0.0
 11
0.0
 21
0.0
 31
0.0
  0
LINE
  5
38
100
AcDbEntity
  8
0
  6
BYBLOCK
 62
     0
100
AcDbLine
 10
0.0
 20
0.0
 30
0.0
 11
-0.5
 21
-0.5
 31
0.0
  0
LINE
  5
39
100
AcDbEntity
  8
0
  6
BYBLOCK
 62
     0
100
AcDbLine
 10
0.0
 20
0.0
 30
0.0
 11
-1.0
 21
0.0
 31
0.0
  0
ENDBLK
  5
3A
100
AcDbEntity
  8
0
100
AcDbBlockEnd
  0
BLOCK
  5
3C
100
AcDbEntity
  8
0
100
AcDbBlockBegin
  2
_CLOSEDBLANK
 70
     0
 10
0.0
 20
0.0
 30
0.0
  3
_CLOSEDBLANK
  1

  0
LINE
  5
3D
100
AcDbEntity
  8
0
  6
BYBLOCK
 62
     0
100
AcDbLine
 10
-1.0
 20
0.1666666666666666
 30
0.0
 11
0.0
 21
0.0
 31
0.0
  0
LINE
  5
3E
100
AcDbEntity
  8
0
  6
BYBLOCK
 62
     0
100
AcDbLine
 10
0.0
 20
0.0
 30
0.0
 11
-1.0
 21
-0.1666666666666666
 31
0.0
  0
LINE
  5
3F
100
AcDbEntity
  8
0
  6
BYBLOCK
 62
     0
100
AcDbLine
 10
-1.0
 20
0.1666666666666666
 30
0.0
 11
-1.0
 21
-0.1666666666666666
 31
0.0
  0
ENDBLK
  5
40
100
AcDbEntity
  8
0
100
AcDbBlockEnd
  0
BLOCK
  5
42
100
AcDbEntity
  8
0
100
AcDbBlockBegin
  2
_DOTBLANK
 70
     0
 10
0.0
 20
0.0
 30
0.0
  3
_DOTBLANK
  1

  0
CIRCLE
  5
43
100
AcDbEntity
  8
0
  6
BYBLOCK
 62
     0
100
AcDbCircle
 10
0.0
 20
0.0
 30
0.0
 40
0.5
  0
LINE
  5
44
100
AcDbEntity
  8
0
  6
BYBLOCK
 62
     0
100
AcDbLine
 10
-0.5
 20
0.0
 30
0.0
 11
-1.0
 21
0.0
 31
0.0
  0
ENDBLK
  5
45
100
AcDbEntity
  8
0
100
AcDbBlockEnd
  0
BLOCK
  5
B5
100
AcDbEntity
  8
MAIN10
  6
CONTINUOUS
 62
3
100
AcDbBlockBegin
  2
*D0
 70
    65
 10
0.0
 20
0.0
 30
0.0
  0
LINE
  5
B6
100
AcDbEntity
  8
MAIN10
  6
BYBLOCK
 62
0
100
AcDbLine
 10
387.3254354924637
 20
944.4911889829536
 30
0.0000000000000000
 11
156.3254355222659
 21
944.4911889829536
 31
0.0000000000000000
  0
LINE
  5
B7
100
AcDbEntity
  8
MAIN10
  6
BYBLOCK
 62
0
100
AcDbLine
 10
161.3254355222659
 20
939.4911889829536
 30
0.0000000000000000
 11
161.3254355222659
 21
419.4911889829609
 31
0.0000000000000000
  0
INSERT
  5
B8
100
AcDbEntity
  8
MAIN10
  6
BYBLOCK
 62
0
100
AcDbBlockReference
  2
_OPEN
 10
161.3254355222659
 20
944.4911889829536
 30
0.0000000000000000
 41
5.000000000000000
 42
5.000000000000000
 43
5.000000000000000
 50
90.00000000000000
  0
INSERT
  5
B9
100
AcDbEntity
  8
MAIN10
  6
BYBLOCK
 62
0
100
AcDbBlockReference
  2
_OPEN
 10
161.3254355222659
 20
414.4911889829609
 30
0.0000000000000000
 41
5.000000000000000
 42
5.000000000000000
 43
5.000000000000000
 50
270.0000000000000
  0
LINE
  5
BA
100
AcDbEntity
  8
MAIN10
  6
BYBLOCK
 62
0
100
AcDbLine
 10
387.3254354924635
 20
414.4911889829609
 30
0.0000000000000000
 11
156.3254355222659
 21
414.4911889829609
 31
0.0000000000000000
  0
MTEXT
  5
BB
100
AcDbEntity
  8
MAIN10
  6
BYBLOCK
 62
0
100
AcDbMText
 10
156.9504356414752
 20
679.4911889829573
 30
0.0000000000000000
 40
7.749999761581421
 41
0.0000000000000000
 71
     5
 72
     1
  1
\A1;\U+2205530
 11
6.123233995736766e-017
 21
1.000000000000000
 31
0.0000000000000000
  7
STANDARD
  0
ENDBLK
  5
BC
100
AcDbEntity
  8
MAIN10
  6
CONTINUOUS
 62
3
100
AcDbBlockEnd
  0
BLOCK
  5
BE
100
AcDbEntity
  8
MAIN10
  6
CONTINUOUS
 62
3
100
AcDbBlockBegin
  2
*D1
 70
    65
 10
0.0
 20
0.0
 30
0.0
  0
LINE
  5
BF
100
AcDbEntity
  8
MAIN10
  6
BYBLOCK
 62
0
100
AcDbLine
 10
384.3254354924637
 20
869.4911889829572
 30
0.0000000000000000
 11
196.3254355222659
 21
869.4911889829572
 31
0.0000000000000000
  0
LINE
  5
C0
100
AcDbEntity
  8
MAIN10
  6
BYBLOCK
 62
0
100
AcDbLine
 10
201.3254355222659
 20
864.4911889829572
 30
0.0000000000000000
 11
201.3254355222659
 21
494.4911889829573
 31
0.0000000000000000
  0
INSERT
  5
C1
100
AcDbEntity
  8
MAIN10
  6
BYBLOCK
 62
0
100
AcDbBlockReference
  2
_OPEN
 10
201.3254355222659
 20
869.4911889829572
 30
0.0000000000000000
 41
5.000000000000000
 42
5.000000000000000
 43
5.000000000000000
 50
90.00000000000000
  0
INSERT
  5
C2
100
AcDbEntity
  8
MAIN10
  6
BYBLOCK
 62
0
100
AcDbBlockReference
  2
_OPEN
 10
201.3254355222659
 20
489.4911889829573
 30
0.0000000000000000
 41
5.000000000000000
 42
5.000000000000000
 43
5.000000000000000
 50
270.0000000000000
  0
LINE
  5
C3
100
AcDbEntity
  8
MAIN10
  6
BYBLOCK
 62
0
100
AcDbLine
 10
384.3254354924636
 20
489.4911889829573
 30
0.0000000000000000
 11
196.3254355222659
 21
489.4911889829573
 31
0.0000000000000000
  0
MTEXT
  5
C4
100
AcDbEntity
  8
MAIN10
  6
BYBLOCK
 62
0
100
AcDbMText
 10
196.9504356414752
 20
679.4911889643308
 30
0.0000000000000000
 40
7.749999761581421
 41
0.0000000000000000
 71
     5
 72
     1
  1
\A1;\U+2205380H6\H0.903226x;\S＋0.036^ 　0;
 11
6.123233995736766e-017
 21
1.000000000000000
 31
0.0000000000000000
  7
KNJYOKO
  0
ENDBLK
  5
C5
100
AcDbEntity
  8
MAIN10
  6
CONTINUOUS
 62
3
100
AcDbBlockEnd
  0
BLOCK
  5
C8
100
AcDbEntity
  8
MAIN10
  6
CONTINUOUS
 62
3
100
AcDbBlockBegin
  2
*D2
 70
    65
 10
0.0
 20
0.0
 30
0.0
  0
LINE
  5
C9
100
AcDbEntity
  8
MAIN10
  6
BYBLOCK
 62
0
100
AcDbLine
 10
275.3254355222659
 20
696.4911890127596
 30
0.0000000000000000
 11
275.3254355222659
 21
774.4911889829573
 31
0.0000000000000000
  0
LINE
  5
CA
100
AcDbEntity
  8
MAIN10
  6
BYBLOCK
 62
0
100
AcDbLine
 10
280.3254355222659
 20
769.4911889829573
 30
0.0000000000000000
 11
325.3254355222659
 21
769.4911889829573
 31
0.0000000000000000
  0
INSERT
  5
CB
100
AcDbEntity
  8
MAIN10
  6
BYBLOCK
 62
0
100
AcDbBlockReference
  2
_OPEN
 10
275.3254355222659
 20
769.4911889829573
 30
0.0000000000000000
 41
5.000000000000000
 42
5.000000000000000
 43
5.000000000000000
 50
180.0000000000000
  0
INSERT
  5
CC
100
AcDbEntity
  8
MAIN10
  6
BYBLOCK
 62
0
100
AcDbBlockReference
  2
_OPEN
 10
330.3254355222659
 20
769.4911889829573
 30
0.0000000000000000
 41
5.000000000000000
 42
5.000000000000000
 43
5.000000000000000
 50
0.0000000000000000
  0
LINE
  5
CD
100
AcDbEntity
  8
MAIN10
  6
BYBLOCK
 62
0
100
AcDbLine
 10
330.3254355222659
 20
706.9911890127596
 30
0.0000000000000000
 11
330.3254355222659
 21
774.4911889829573
 31
0.0000000000000000
  0
MTEXT
  5
CE
100
AcDbEntity
  8
MAIN10
  6
BYBLOCK
 62
0
100
AcDbMText
 10
302.8254355222659
 20
773.8661888637480
 30
0.0000000000000000
 40
7.749999761581421
 41
0.0000000000000000
 71
     5
 72
     1
  1
\A1;55
 11
1.000000000000000
 21
0.0000000000000000
 31
0.0000000000000000
  7
STANDARD
  0
ENDBLK
  5
CF
100
AcDbEntity
  8
MAIN10
  6
CONTINUOUS
 62
3
100
AcDbBlockEnd
  0
BLOCK
  5
D1
100
AcDbEntity
  8
MAIN10
  6
CONTINUOUS
 62
3
100
AcDbBlockBegin
  2
*D3
 70
    65
 10
0.0
 20
0.0
 30
0.0
  0
LINE
  5
D2
100
AcDbEntity
  8
MAIN10
  6
BYBLOCK
 62
0
100
AcDbLine
 10
330.3254355222659
 20
706.9911890127596
 30
0.0000000000000000
 11
330.3254355222659
 21
774.4911889829573
 31
0.0000000000000000
  0
LINE
  5
D3
100
AcDbEntity
  8
MAIN10
  6
BYBLOCK
 62
0
100
AcDbLine
 10
335.3254355222659
 20
769.4911889829573
 30
0.0000000000000000
 11
387.3254355222659
 21
769.4911889829573
 31
0.0000000000000000
  0
INSERT
  5
D4
100
AcDbEntity
  8
MAIN10
  6
BYBLOCK
 62
0
100
AcDbBlockReference
  2
_OPEN
 10
330.3254355222659
 20
769.4911889829573
 30
0.0000000000000000
 41
5.000000000000000
 42
5.000000000000000
 43
5.000000000000000
 50
180.0000000000000
  0
INSERT
  5
D5
100
AcDbEntity
  8
MAIN10
  6
BYBLOCK
 62
0
100
AcDbBlockReference
  2
_OPEN
 10
392.3254355222659
 20
769.4911889829573
 30
0.0000000000000000
 41
5.000000000000000
 42
5.000000000000000
 43
5.000000000000000
 50
0.0000000000000000
  0
MTEXT
  5
D6
100
AcDbEntity
  8
MAIN10
  6
BYBLOCK
 62
0
100
AcDbMText
 10
361.3254355222659
 20
773.8661888637480
 30
0.0000000000000000
 40
7.749999761581421
 41
0.0000000000000000
 71
     5
 72
     1
  1
\A1;MIN 62
 11
1.000000000000000
 21
0.0000000000000000
 31
0.0000000000000000
  7
STANDARD
  0
ENDBLK
  5
D7
100
AcDbEntity
  8
MAIN10
  6
CONTINUOUS
 62
3
100
AcDbBlockEnd
  0
BLOCK
  5
D9
100
AcDbEntity
  8
MAIN10
  6
CONTINUOUS
 62
3
100
AcDbBlockBegin
  2
*D4
 70
    65
 10
0.0
 20
0.0
 30
0.0
  0
LINE
  5
DA
100
AcDbEntity
  8
MAIN10
  6
BYBLOCK
 62
0
100
AcDbLine
 10
365.3254355222660
 20
710.4911890127594
 30
0.0000000000000000
 11
365.3254355222660
 21
744.4911889829573
 31
0.0000000000000000
  0
LINE
  5
DB
100
AcDbEntity
  8
MAIN10
  6
BYBLOCK
 62
0
100
AcDbLine
 10
360.3254355222660
 20
739.4911889829573
 30
0.0000000000000000
 11
335.3254355222659
 21
739.4911889829573
 31
0.0000000000000000
  0
INSERT
  5
DC
100
AcDbEntity
  8
MAIN10
  6
BYBLOCK
 62
0
100
AcDbBlockReference
  2
_OPEN
 10
365.3254355222660
 20
739.4911889829573
 30
0.0000000000000000
 41
5.000000000000000
 42
5.000000000000000
 43
5.000000000000000
 50
360.0000000000000
  0
INSERT
  5
DD
100
AcDbEntity
  8
MAIN10
  6
BYBLOCK
 62
0
100
AcDbBlockReference
  2
_OPEN
 10
330.3254355222659
 20
739.4911889829573
 30
0.0000000000000000
 41
5.000000000000000
 42
5.000000000000000
 43
5.000000000000000
 50
180.0000000000000
  0
LINE
  5
DE
100
AcDbEntity
  8
MAIN10
  6
BYBLOCK
 62
0
100
AcDbLine
 10
330.3254355222659
 20
706.9911890127596
 30
0.0000000000000000
 11
330.3254355222659
 21
744.4911889829573
 31
0.0000000000000000
  0
MTEXT
  5
DF
100
AcDbEntity
  8
MAIN10
  6
BYBLOCK
 62
0
100
AcDbMText
 10
347.8254355222659
 20
743.8661888637480
 30
0.0000000000000000
 40
7.749999761581421
 41
0.0000000000000000
 71
     5
 72
     1
  1
\A1;35
 11
1.000000000000000
 21
0.0000000000000000
 31
0.0000000000000000
  7
STANDARD
  0
ENDBLK
  5
E0
100
AcDbEntity
  8
MAIN10
  6
CONTINUOUS
 62
3
100
AcDbBlockEnd
  0
BLOCK
  5
E2
100
AcDbEntity
  8
MAIN10
  6
CONTINUOUS
 62
3
100
AcDbBlockBegin
  2
*D5
 70
    65
 10
0.0
 20
0.0
 30
0.0
  0
LINE
  5
E3
100
AcDbEntity
  8
MAIN10
  6
BYBLOCK
 62
0
100
AcDbLine
 10
471.3254355222659
 20
687.9911889829573
 30
0.0000000000000000
 11
471.3254355222659
 21
670.9911889829573
 31
0.0000000000000000
  0
INSERT
  5
E4
100
AcDbEntity
  8
MAIN10
  6
BYBLOCK
 62
0
100
AcDbBlockReference
  2
_OPEN
 10
471.3254355222659
 20
692.9911889829573
 30
0.0000000000000000
 41
5.000000000000000
 42
5.000000000000000
 43
5.000000000000000
 50
90.00000000000000
  0
INSERT
  5
E5
100
AcDbEntity
  8
MAIN10
  6
BYBLOCK
 62
0
100
AcDbBlockReference
  2
_OPEN
 10
471.3254355222659
 20
665.9911889829573
 30
0.0000000000000000
 41
5.000000000000000
 42
5.000000000000000
 43
5.000000000000000
 50
270.0000000000000
  0
MTEXT
  5
E6
100
AcDbEntity
  8
MAIN10
  6
BYBLOCK
 62
0
100
AcDbMText
 10
466.9504356414752
 20
679.4911889829573
 30
0.0000000000000000
 40
7.749999761581421
 41
0.0000000000000000
 71
     5
 72
     1
  1
\A1;\U+220527
 11
6.123233995736766e-017
 21
1.000000000000000
 31
0.0000000000000000
  7
STANDARD
  0
ENDBLK
  5
E7
100
AcDbEntity
  8
MAIN10
  6
CONTINUOUS
 62
3
100
AcDbBlockEnd
  0
BLOCK
  5
E9
100
AcDbEntity
  8
MAIN10
  6
CONTINUOUS
 62
3
100
AcDbBlockBegin
  2
*D6
 70
    65
 10
0.0
 20
0.0
 30
0.0
  0
LINE
  5
EA
100
AcDbEntity
  8
MAIN10
  6
BYBLOCK
 62
0
100
AcDbLine
 10
394.3254354924637
 20
718.4911889829571
 30
0.0000000000000000
 11
386.3254355222659
 21
718.4911889829571
 31
0.0000000000000000
  0
LINE
  5
EB
100
AcDbEntity
  8
MAIN10
  6
BYBLOCK
 62
0
100
AcDbLine
 10
391.3254355222659
 20
713.4911889829571
 30
0.0000000000000000
 11
391.3254355222659
 21
645.4911889829574
 31
0.0000000000000000
  0
INSERT
  5
EC
100
AcDbEntity
  8
MAIN10
  6
BYBLOCK
 62
0
100
AcDbBlockReference
  2
_OPEN
 10
391.3254355222659
 20
718.4911889829571
 30
0.0000000000000000
 41
5.000000000000000
 42
5.000000000000000
 43
5.000000000000000
 50
90.00000000000000
  0
INSERT
  5
ED
100
AcDbEntity
  8
MAIN10
  6
BYBLOCK
 62
0
100
AcDbBlockReference
  2
_OPEN
 10
391.3254355222659
 20
640.4911889829574
 30
0.0000000000000000
 41
5.000000000000000
 42
5.000000000000000
 43
5.000000000000000
 50
270.0000000000000
  0
LINE
  5
EE
100
AcDbEntity
  8
MAIN10
  6
BYBLOCK
 62
0
100
AcDbLine
 10
394.3254354924636
 20
640.4911889829574
 30
0.0000000000000000
 11
386.3254355222659
 21
640.4911889829574
 31
0.0000000000000000
  0
MTEXT
  5
EF
100
AcDbEntity
  8
MAIN10
  6
BYBLOCK
 62
0
100
AcDbMText
 10
386.9504356414752
 20
679.4911889829573
 30
0.0000000000000000
 40
7.749999761581421
 41
0.0000000000000000
 71
     5
 72
     1
  1
\A1;\U+220578
 11
6.123233995736766e-017
 21
1.000000000000000
 31
0.0000000000000000
  7
STANDARD
  0
ENDBLK
  5
F0
100
AcDbEntity
  8
MAIN10
  6
CONTINUOUS
 62
3
100
AcDbBlockEnd
  0
BLOCK
  5
F2
100
AcDbEntity
  8
MAIN10
  6
CONTINUOUS
 62
3
100
AcDbBlockBegin
  2
*D7
 70
    65
 10
0.0
 20
0.0
 30
0.0
  0
LINE
  5
F3
100
AcDbEntity
  8
MAIN10
  6
BYBLOCK
 62
0
100
AcDbLine
 10
364.3254354924636
 20
709.4911889829571
 30
0.0000000000000000
 11
351.3254355221745
 21
709.4911889829571
 31
0.0000000000000000
  0
LINE
  5
F4
100
AcDbEntity
  8
MAIN10
  6
BYBLOCK
 62
0
100
AcDbLine
 10
356.3254355221745
 20
704.4911889829571
 30
0.0000000000000000
 11
356.3254355221745
 21
654.4911889829573
 31
0.0000000000000000
  0
INSERT
  5
F5
100
AcDbEntity
  8
MAIN10
  6
BYBLOCK
 62
0
100
AcDbBlockReference
  2
_OPEN
 10
356.3254355221745
 20
709.4911889829571
 30
0.0000000000000000
 41
5.000000000000000
 42
5.000000000000000
 43
5.000000000000000
 50
90.00000000000000
  0
INSERT
  5
F6
100
AcDbEntity
  8
MAIN10
  6
BYBLOCK
 62
0
100
AcDbBlockReference
  2
_OPEN
 10
356.3254355221745
 20
649.4911889829573
 30
0.0000000000000000
 41
5.000000000000000
 42
5.000000000000000
 43
5.000000000000000
 50
270.0000000000000
  0
LINE
  5
F7
100
AcDbEntity
  8
MAIN10
  6
BYBLOCK
 62
0
100
AcDbLine
 10
364.3254354924636
 20
649.4911889829573
 30
0.0000000000000000
 11
351.3254355221745
 21
649.4911889829573
 31
0.0000000000000000
  0
MTEXT
  5
F8
100
AcDbEntity
  8
MAIN10
  6
BYBLOCK
 62
0
100
AcDbMText
 10
351.9504356413838
 20
679.4911889829572
 30
0.0000000000000000
 40
7.749999761581421
 41
0.0000000000000000
 71
     5
 72
     1
  1
\A1;\U+220560
 11
6.123233995736766e-017
 21
1.000000000000000
 31
0.0000000000000000
  7
STANDARD
  0
ENDBLK
  5
F9
100
AcDbEntity
  8
MAIN10
  6
CONTINUOUS
 62
3
100
AcDbBlockEnd
  0
BLOCK
  5
FB
100
AcDbEntity
  8
MAIN10
  6
CONTINUOUS
 62
3
100
AcDbBlockBegin
  2
*D8
 70
    65
 10
0.0
 20
0.0
 30
0.0
  0
LINE
  5
FC
100
AcDbEntity
  8
MAIN10
  6
BYBLOCK
 62
0
100
AcDbLine
 10
330.3254354924636
 20
706.9911889829573
 30
0.0000000000000000
 11
316.3254355222659
 21
706.9911889829573
 31
0.0000000000000000
  0
LINE
  5
FD
100
AcDbEntity
  8
MAIN10
  6
BYBLOCK
 62
0
100
AcDbLine
 10
321.3254355222659
 20
701.9911889829573
 30
0.0000000000000000
 11
321.3254355222659
 21
656.9911889829575
 31
0.0000000000000000
  0
INSERT
  5
FE
100
AcDbEntity
  8
MAIN10
  6
BYBLOCK
 62
0
100
AcDbBlockReference
  2
_OPEN
 10
321.3254355222659
 20
706.9911889829573
 30
0.0000000000000000
 41
5.000000000000000
 42
5.000000000000000
 43
5.000000000000000
 50
90.00000000000000
  0
INSERT
  5
FF
100
AcDbEntity
  8
MAIN10
  6
BYBLOCK
 62
0
100
AcDbBlockReference
  2
_OPEN
 10
321.3254355222659
 20
651.9911889829575
 30
0.0000000000000000
 41
5.000000000000000
 42
5.000000000000000
 43
5.000000000000000
 50
270.0000000000000
  0
LINE
  5
100
100
AcDbEntity
  8
MAIN10
  6
BYBLOCK
 62
0
100
AcDbLine
 10
330.3254354924636
 20
651.9911889829575
 30
0.0000000000000000
 11
316.3254355222659
 21
651.9911889829575
 31
0.0000000000000000
  0
MTEXT
  5
101
100
AcDbEntity
  8
MAIN10
  6
BYBLOCK
 62
0
100
AcDbMText
 10
316.9504356414752
 20
679.4911889829574
 30
0.0000000000000000
 40
7.749999761581421
 41
0.0000000000000000
 71
     5
 72
     1
  1
\A1;\U+220555
 11
6.123233995736766e-017
 21
1.000000000000000
 31
0.0000000000000000
  7
STANDARD
  0
ENDBLK
  5
102
100
AcDbEntity
  8
MAIN10
  6
CONTINUOUS
 62
3
100
AcDbBlockEnd
  0
BLOCK
  5
109
100
AcDbEntity
  8
MAIN10
  6
CONTINUOUS
 62
3
100
AcDbBlockBegin
  2
*D9
 70
    65
 10
0.0
 20
0.0
 30
0.0
  0
LINE
  5
10A
100
AcDbEntity
  8
MAIN10
  6
BYBLOCK
 62
0
100
AcDbLine
 10
397.3254355222658
 20
619.4911889829573
 30
0.0000000000000000
 11
422.3254355222658
 21
619.4911889829573
 31
0.0000000000000000
  0
INSERT
  5
10B
100
AcDbEntity
  8
MAIN10
  6
BYBLOCK
 62
0
100
AcDbBlockReference
  2
_OPEN
 10
392.3254355222658
 20
619.4911889829573
 30
0.0000000000000000
 41
5.000000000000000
 42
5.000000000000000
 43
5.000000000000000
 50
180.0000000000000
  0
INSERT
  5
10C
100
AcDbEntity
  8
MAIN10
  6
BYBLOCK
 62
0
100
AcDbBlockReference
  2
_OPEN
 10
427.3254355222658
 20
619.4911889829573
 30
0.0000000000000000
 41
5.000000000000000
 42
5.000000000000000
 43
5.000000000000000
 50
0.0000000000000000
  0
MTEXT
  5
10D
100
AcDbEntity
  8
MAIN10
  6
BYBLOCK
 62
0
100
AcDbMText
 10
409.8254355222658
 20
623.8661888637480
 30
0.0000000000000000
 40
7.749999761581421
 41
0.0000000000000000
 71
     5
 72
     1
  1
\A1;35
 11
1.000000000000000
 21
0.0000000000000000
 31
0.0000000000000000
  7
STANDARD
  0
ENDBLK
  5
10E
100
AcDbEntity
  8
MAIN10
  6
CONTINUOUS
 62
3
100
AcDbBlockEnd
  0
BLOCK
  5
110
100
AcDbEntity
  8
MAIN10
  6
CONTINUOUS
 62
3
100
AcDbBlockBegin
  2
*D10
 70
    65
 10
0.0
 20
0.0
 30
0.0
  0
LINE
  5
111
100
AcDbEntity
  8
MAIN10
  6
BYBLOCK
 62
0
100
AcDbLine
 10
584.3254355520681
 20
943.9911889829536
 30
0.0000000000000000
 11
706.3254355222659
 21
943.9911889829536
 31
0.0000000000000000
  0
LINE
  5
112
100
AcDbEntity
  8
MAIN10
  6
BYBLOCK
 62
0
100
AcDbLine
 10
701.3254355222659
 20
938.9911889829536
 30
0.0000000000000000
 11
701.3254355222659
 21
768.9911889829571
 31
0.0000000000000000
  0
INSERT
  5
113
100
AcDbEntity
  8
MAIN10
  6
BYBLOCK
 62
0
100
AcDbBlockReference
  2
_OPEN
 10
701.3254355222659
 20
943.9911889829536
 30
0.0000000000000000
 41
5.000000000000000
 42
5.000000000000000
 43
5.000000000000000
 50
90.00000000000000
  0
INSERT
  5
114
100
AcDbEntity
  8
MAIN10
  6
BYBLOCK
 62
0
100
AcDbBlockReference
  2
_OPEN
 10
701.3254355222659
 20
763.9911889829571
 30
0.0000000000000000
 41
5.000000000000000
 42
5.000000000000000
 43
5.000000000000000
 50
270.0000000000000
  0
LINE
  5
115
100
AcDbEntity
  8
MAIN10
  6
BYBLOCK
 62
0
100
AcDbLine
 10
584.3254355520681
 20
763.9911889829571
 30
0.0000000000000000
 11
706.3254355222659
 21
763.9911889829571
 31
0.0000000000000000
  0
MTEXT
  5
116
100
AcDbEntity
  8
MAIN10
  6
BYBLOCK
 62
0
100
AcDbMText
 10
696.9504356414752
 20
853.9911889829554
 30
0.0000000000000000
 40
7.749999761581421
 41
0.0000000000000000
 71
     5
 72
     1
  1
\A1;180
 11
6.123233995736766e-017
 21
1.000000000000000
 31
0.0000000000000000
  7
STANDARD
  0
ENDBLK
  5
117
100
AcDbEntity
  8
MAIN10
  6
CONTINUOUS
 62
3
100
AcDbBlockEnd
  0
BLOCK
  5
119
100
AcDbEntity
  8
MAIN10
  6
CONTINUOUS
 62
3
100
AcDbBlockBegin
  2
*D11
 70
    65
 10
0.0
 20
0.0
 30
0.0
  0
LINE
  5
11A
100
AcDbEntity
  8
MAIN10
  6
BYBLOCK
 62
0
100
AcDbLine
 10
589.2093394865467
 20
903.9911889829571
 30
0.0000000000000000
 11
666.3254355222659
 21
903.9911889829571
 31
0.0000000000000000
  0
LINE
  5
11B
100
AcDbEntity
  8
MAIN10
  6
BYBLOCK
 62
0
100
AcDbLine
 10
661.3254355222659
 20
898.9911889829571
 30
0.0000000000000000
 11
661.3254355222659
 21
848.9911889829571
 31
0.0000000000000000
  0
INSERT
  5
11C
100
AcDbEntity
  8
MAIN10
  6
BYBLOCK
 62
0
100
AcDbBlockReference
  2
_OPEN
 10
661.3254355222659
 20
903.9911889829571
 30
0.0000000000000000
 41
5.000000000000000
 42
5.000000000000000
 43
5.000000000000000
 50
90.00000000000000
  0
INSERT
  5
11D
100
AcDbEntity
  8
MAIN10
  6
BYBLOCK
 62
0
100
AcDbBlockReference
  2
_OPEN
 10
661.3254355222659
 20
843.9911889829571
 30
0.0000000000000000
 41
5.000000000000000
 42
5.000000000000000
 43
5.000000000000000
 50
270.0000000000000
  0
LINE
  5
11E
100
AcDbEntity
  8
MAIN10
  6
BYBLOCK
 62
0
100
AcDbLine
 10
590.5732589566990
 20
843.9911889829571
 30
0.0000000000000000
 11
666.3254355222659
 21
843.9911889829571
 31
0.0000000000000000
  0
MTEXT
  5
11F
100
AcDbEntity
  8
MAIN10
  6
BYBLOCK
 62
0
100
AcDbMText
 10
656.9504356414752
 20
873.9911889829571
 30
0.0000000000000000
 40
7.749999761581421
 41
0.0000000000000000
 71
     5
 72
     1
  1
\A1;60
 11
6.123233995736766e-017
 21
1.000000000000000
 31
0.0000000000000000
  7
STANDARD
  0
ENDBLK
  5
120
100
AcDbEntity
  8
MAIN10
  6
CONTINUOUS
 62
3
100
AcDbBlockEnd
  0
BLOCK
  5
122
100
AcDbEntity
  8
MAIN10
  6
CONTINUOUS
 62
3
100
AcDbBlockBegin
  2
*D12
 70
    65
 10
0.0
 20
0.0
 30
0.0
  0
LINE
  5
123
100
AcDbEntity
  8
MAIN10
  6
BYBLOCK
 62
0
100
AcDbLine
 10
590.5732589566990
 20
843.9911889829571
 30
0.0000000000000000
 11
666.3254355222659
 21
843.9911889829571
 31
0.0000000000000000
  0
LINE
  5
124
100
AcDbEntity
  8
MAIN10
  6
BYBLOCK
 62
0
100
AcDbLine
 10
661.3254355222659
 20
838.9911889829571
 30
0.0000000000000000
 11
661.3254355222659
 21
768.9911889829571
 31
0.0000000000000000
  0
INSERT
  5
125
100
AcDbEntity
  8
MAIN10
  6
BYBLOCK
 62
0
100
AcDbBlockReference
  2
_OPEN
 10
661.3254355222659
 20
843.9911889829571
 30
0.0000000000000000
 41
5.000000000000000
 42
5.000000000000000
 43
5.000000000000000
 50
90.00000000000000
  0
INSERT
  5
126
100
AcDbEntity
  8
MAIN10
  6
BYBLOCK
 62
0
100
AcDbBlockReference
  2
_OPEN
 10
661.3254355222659
 20
763.9911889829571
 30
0.0000000000000000
 41
5.000000000000000
 42
5.000000000000000
 43
5.000000000000000
 50
270.0000000000000
  0
LINE
  5
127
100
AcDbEntity
  8
MAIN10
  6
BYBLOCK
 62
0
100
AcDbLine
 10
584.3254355520681
 20
763.9911889829571
 30
0.0000000000000000
 11
666.3254355222659
 21
763.9911889829571
 31
0.0000000000000000
  0
MTEXT
  5
128
100
AcDbEntity
  8
MAIN10
  6
BYBLOCK
 62
0
100
AcDbMText
 10
656.9504356414752
 20
803.9911889829571
 30
0.0000000000000000
 40
7.749999761581421
 41
0.0000000000000000
 71
     5
 72
     1
  1
\A1;80
 11
6.123233995736766e-017
 21
1.000000000000000
 31
0.0000000000000000
  7
STANDARD
  0
ENDBLK
  5
129
100
AcDbEntity
  8
MAIN10
  6
CONTINUOUS
 62
3
100
AcDbBlockEnd
  0
BLOCK
  5
12B
100
AcDbEntity
  8
MAIN10
  6
CONTINUOUS
 62
3
100
AcDbBlockBegin
  2
*D13
 70
    65
 10
0.0
 20
0.0
 30
0.0
  0
LINE
  5
12C
100
AcDbEntity
  8
MAIN10
  6
BYBLOCK
 62
0
100
AcDbLine
 10
590.5732589566990
 20
843.9911889829571
 30
0.0000000000000000
 11
626.3254355222659
 21
843.9911889829571
 31
0.0000000000000000
  0
LINE
  5
12D
100
AcDbEntity
  8
MAIN10
  6
BYBLOCK
 62
0
100
AcDbLine
 10
621.3254355222659
 20
838.9911889829571
 30
0.0000000000000000
 11
621.3254355222659
 21
770.4911889829573
 31
0.0000000000000000
  0
INSERT
  5
12E
100
AcDbEntity
  8
MAIN10
  6
BYBLOCK
 62
0
100
AcDbBlockReference
  2
_OPEN
 10
621.3254355222659
 20
843.9911889829571
 30
0.0000000000000000
 41
5.000000000000000
 42
5.000000000000000
 43
5.000000000000000
 50
90.00000000000000
  0
INSERT
  5
12F
100
AcDbEntity
  8
MAIN10
  6
BYBLOCK
 62
0
100
AcDbBlockReference
  2
_OPEN
 10
621.3254355222659
 20
765.4911889829573
 30
0.0000000000000000
 41
5.000000000000000
 42
5.000000000000000
 43
5.000000000000000
 50
270.0000000000000
  0
LINE
  5
130
100
AcDbEntity
  8
MAIN10
  6
BYBLOCK
 62
0
100
AcDbLine
 10
514.3254355520683
 20
765.4911889829573
 30
0.0000000000000000
 11
626.3254355222659
 21
765.4911889829573
 31
0.0000000000000000
  0
MTEXT
  5
131
100
AcDbEntity
  8
MAIN10
  6
BYBLOCK
 62
0
100
AcDbMText
 10
616.9504356414752
 20
804.7411889829572
 30
0.0000000000000000
 40
7.749999761581421
 41
0.0000000000000000
 71
     5
 72
     1
  1
\A1;MAX 93.5
 11
6.123233995736766e-017
 21
1.000000000000000
 31
0.0000000000000000
  7
STANDARD
  0
ENDBLK
  5
132
100
AcDbEntity
  8
MAIN10
  6
CONTINUOUS
 62
3
100
AcDbBlockEnd
  0
BLOCK
  5
134
100
AcDbEntity
  8
MAIN10
  6
CONTINUOUS
 62
3
100
AcDbBlockBegin
  2
*D14
 70
    65
 10
0.0
 20
0.0
 30
0.0
  0
LINE
  5
135
100
AcDbEntity
  8
MAIN10
  6
BYBLOCK
 62
0
100
AcDbLine
 10
514.3254355520683
 20
765.4911889829573
 30
0.0000000000000000
 11
626.3254355222659
 21
765.4911889829573
 31
0.0000000000000000
  0
LINE
  5
136
100
AcDbEntity
  8
MAIN10
  6
BYBLOCK
 62
0
100
AcDbLine
 10
621.3254355222659
 20
760.4911889829573
 30
0.0000000000000000
 11
621.3254355222659
 21
684.4911889829573
 31
0.0000000000000000
  0
INSERT
  5
137
100
AcDbEntity
  8
MAIN10
  6
BYBLOCK
 62
0
100
AcDbBlockReference
  2
_OPEN
 10
621.3254355222659
 20
765.4911889829573
 30
0.0000000000000000
 41
5.000000000000000
 42
5.000000000000000
 43
5.000000000000000
 50
90.00000000000000
  0
INSERT
  5
138
100
AcDbEntity
  8
MAIN10
  6
BYBLOCK
 62
0
100
AcDbBlockReference
  2
_OPEN
 10
621.3254355222659
 20
679.4911889829573
 30
0.0000000000000000
 41
5.000000000000000
 42
5.000000000000000
 43
5.000000000000000
 50
270.0000000000000
  0
LINE
  5
139
100
AcDbEntity
  8
MAIN10
  6
BYBLOCK
 62
0
100
AcDbLine
 10
546.6427711466046
 20
679.4911889829573
 30
0.0000000000000000
 11
626.3254355222659
 21
679.4911889829573
 31
0.0000000000000000
  0
MTEXT
  5
13A
100
AcDbEntity
  8
MAIN10
  6
BYBLOCK
 62
0
100
AcDbMText
 10
616.9504356414752
 20
722.4911889829573
 30
0.0000000000000000
 40
7.749999761581421
 41
0.0000000000000000
 71
     5
 72
     1
  1
\A1;MAX 86
 11
6.123233995736766e-017
 21
1.000000000000000
 31
0.0000000000000000
  7
STANDARD
  0
ENDBLK
  5
13B
100
AcDbEntity
  8
MAIN10
  6
CONTINUOUS
 62
3
100
AcDbBlockEnd
  0
BLOCK
  5
13D
100
AcDbEntity
  8
MAIN10
  6
CONTINUOUS
 62
3
100
AcDbBlockBegin
  2
*D15
 70
    65
 10
0.0
 20
0.0
 30
0.0
  0
LINE
  5
13E
100
AcDbEntity
  8
MAIN10
  6
BYBLOCK
 62
0
100
AcDbLine
 10
582.3254355222659
 20
945.9911890127560
 30
0.0000000000000000
 11
582.3254355222659
 21
984.4911889829573
 31
0.0000000000000000
  0
LINE
  5
13F
100
AcDbEntity
  8
MAIN10
  6
BYBLOCK
 62
0
100
AcDbLine
 10
577.3254355222659
 20
979.4911889829573
 30
0.0000000000000000
 11
516.3254355222659
 21
979.4911889829573
 31
0.0000000000000000
  0
INSERT
  5
140
100
AcDbEntity
  8
MAIN10
  6
BYBLOCK
 62
0
100
AcDbBlockReference
  2
_OPEN
 10
582.3254355222659
 20
979.4911889829573
 30
0.0000000000000000
 41
5.000000000000000
 42
5.000000000000000
 43
5.000000000000000
 50
360.0000000000000
  0
INSERT
  5
141
100
AcDbEntity
  8
MAIN10
  6
BYBLOCK
 62
0
100
AcDbBlockReference
  2
_OPEN
 10
511.3254355222659
 20
979.4911889829573
 30
0.0000000000000000
 41
5.000000000000000
 42
5.000000000000000
 43
5.000000000000000
 50
180.0000000000000
  0
LINE
  5
142
100
AcDbEntity
  8
MAIN10
  6
BYBLOCK
 62
0
100
AcDbLine
 10
511.3254355222659
 20
943.4911890127560
 30
0.0000000000000000
 11
511.3254355222659
 21
984.4911889829573
 31
0.0000000000000000
  0
MTEXT
  5
143
100
AcDbEntity
  8
MAIN10
  6
BYBLOCK
 62
0
100
AcDbMText
 10
546.8254355222659
 20
983.8661888637480
 30
0.0000000000000000
 40
7.749999761581421
 41
0.0000000000000000
 71
     5
 72
     1
  1
\A1;71
 11
1.000000000000000
 21
0.0000000000000000
 31
0.0000000000000000
  7
STANDARD
  0
ENDBLK
  5
144
100
AcDbEntity
  8
MAIN10
  6
CONTINUOUS
 62
3
100
AcDbBlockEnd
  0
BLOCK
  5
148
100
AcDbEntity
  8
MAIN10
  6
CONTINUOUS
 62
3
100
AcDbBlockBegin
  2
*D16
 70
    65
 10
0.0
 20
0.0
 30
0.0
  0
LINE
  5
149
100
AcDbEntity
  8
MAIN10
  6
BYBLOCK
 62
0
100
AcDbLine
 10
513.3254355520681
 20
532.3911889829575
 30
0.0000000000000000
 11
566.3254355222659
 21
532.3911889829575
 31
0.0000000000000000
  0
LINE
  5
14A
100
AcDbEntity
  8
MAIN10
  6
BYBLOCK
 62
0
100
AcDbLine
 10
561.3254355222659
 20
527.3911889829575
 30
0.0000000000000000
 11
561.3254355222659
 21
501.3911889829574
 31
0.0000000000000000
  0
INSERT
  5
14B
100
AcDbEntity
  8
MAIN10
  6
BYBLOCK
 62
0
100
AcDbBlockReference
  2
_OPEN
 10
561.3254355222659
 20
532.3911889829575
 30
0.0000000000000000
 41
5.000000000000000
 42
5.000000000000000
 43
5.000000000000000
 50
90.00000000000000
  0
INSERT
  5
14C
100
AcDbEntity
  8
MAIN10
  6
BYBLOCK
 62
0
100
AcDbBlockReference
  2
_OPEN
 10
561.3254355222659
 20
496.3911889829574
 30
0.0000000000000000
 41
5.000000000000000
 42
5.000000000000000
 43
5.000000000000000
 50
270.0000000000000
  0
LINE
  5
14D
100
AcDbEntity
  8
MAIN10
  6
BYBLOCK
 62
0
100
AcDbLine
 10
513.3254355520681
 20
496.3911889829574
 30
0.0000000000000000
 11
566.3254355222659
 21
496.3911889829574
 31
0.0000000000000000
  0
MTEXT
  5
14E
100
AcDbEntity
  8
MAIN10
  6
BYBLOCK
 62
0
100
AcDbMText
 10
556.9504356414752
 20
514.3911889829574
 30
0.0000000000000000
 40
7.749999761581421
 41
0.0000000000000000
 71
     5
 72
     1
  1
\A1;\U+220536
 11
6.123233995736766e-017
 21
1.000000000000000
 31
0.0000000000000000
  7
STANDARD
  0
ENDBLK
  5
14F
100
AcDbEntity
  8
MAIN10
  6
CONTINUOUS
 62
3
100
AcDbBlockEnd
  0
BLOCK
  5
151
100
AcDbEntity
  8
MAIN10
  6
CONTINUOUS
 62
3
100
AcDbBlockBegin
  2
*D17
 70
    65
 10
0.0
 20
0.0
 30
0.0
  0
LINE
  5
152
100
AcDbEntity
  8
MAIN10
  6
BYBLOCK
 62
0
100
AcDbLine
 10
481.3254355222659
 20
494.3911889531551
 30
0.0000000000000000
 11
481.3254355222659
 21
474.4911889829573
 31
0.0000000000000000
  0
LINE
  5
153
100
AcDbEntity
  8
MAIN10
  6
BYBLOCK
 62
0
100
AcDbLine
 10
486.3254355222659
 20
479.4911889829573
 30
0.0000000000000000
 11
506.3254355222658
 21
479.4911889829573
 31
0.0000000000000000
  0
INSERT
  5
154
100
AcDbEntity
  8
MAIN10
  6
BYBLOCK
 62
0
100
AcDbBlockReference
  2
_OPEN
 10
481.3254355222659
 20
479.4911889829573
 30
0.0000000000000000
 41
5.000000000000000
 42
5.000000000000000
 43
5.000000000000000
 50
180.0000000000000
  0
INSERT
  5
155
100
AcDbEntity
  8
MAIN10
  6
BYBLOCK
 62
0
100
AcDbBlockReference
  2
_OPEN
 10
511.3254355222658
 20
479.4911889829573
 30
0.0000000000000000
 41
5.000000000000000
 42
5.000000000000000
 43
5.000000000000000
 50
0.0000000000000000
  0
MTEXT
  5
156
100
AcDbEntity
  8
MAIN10
  6
BYBLOCK
 62
0
100
AcDbMText
 10
496.3254355222658
 20
483.8661888637480
 30
0.0000000000000000
 40
7.749999761581421
 41
0.0000000000000000
 71
     5
 72
     1
  1
\A1;30
 11
1.000000000000000
 21
0.0000000000000000
 31
0.0000000000000000
  7
STANDARD
  0
ENDBLK
  5
157
100
AcDbEntity
  8
MAIN10
  6
CONTINUOUS
 62
3
100
AcDbBlockEnd
  0
BLOCK
  5
159
100
AcDbEntity
  8
MAIN10
  6
CONTINUOUS
 62
3
100
AcDbBlockBegin
  2
*D18
 70
    65
 10
0.0
 20
0.0
 30
0.0
  0
LINE
  5
15A
100
AcDbEntity
  8
MAIN10
  6
BYBLOCK
 62
0
100
AcDbLine
 10
361.3254355222661
 20
501.3911889531561
 30
0.0000000000000000
 11
361.3254355222661
 21
464.4911889829573
 31
0.0000000000000000
  0
LINE
  5
15B
100
AcDbEntity
  8
MAIN10
  6
BYBLOCK
 62
0
100
AcDbLine
 10
366.3254355222661
 20
469.4911889829573
 30
0.0000000000000000
 11
387.3254355222658
 21
469.4911889829573
 31
0.0000000000000000
  0
INSERT
  5
15C
100
AcDbEntity
  8
MAIN10
  6
BYBLOCK
 62
0
100
AcDbBlockReference
  2
_OPEN
 10
361.3254355222661
 20
469.4911889829573
 30
0.0000000000000000
 41
5.000000000000000
 42
5.000000000000000
 43
5.000000000000000
 50
180.0000000000000
  0
INSERT
  5
15D
100
AcDbEntity
  8
MAIN10
  6
BYBLOCK
 62
0
100
AcDbBlockReference
  2
_OPEN
 10
392.3254355222658
 20
469.4911889829573
 30
0.0000000000000000
 41
5.000000000000000
 42
5.000000000000000
 43
5.000000000000000
 50
0.0000000000000000
  0
LINE
  5
15E
100
AcDbEntity
  8
MAIN10
  6
BYBLOCK
 62
0
100
AcDbLine
 10
392.3254355222658
 20
487.4911889531550
 30
0.0000000000000000
 11
392.3254355222658
 21
464.4911889829573
 31
0.0000000000000000
  0
MTEXT
  5
15F
100
AcDbEntity
  8
MAIN10
  6
BYBLOCK
 62
0
100
AcDbMText
 10
376.8254355222659
 20
473.8661888637480
 30
0.0000000000000000
 40
7.749999761581421
 41
0.0000000000000000
 71
     5
 72
     1
  1
\A1;31
 11
1.000000000000000
 21
0.0000000000000000
 31
0.0000000000000000
  7
STANDARD
  0
ENDBLK
  5
160
100
AcDbEntity
  8
MAIN10
  6
CONTINUOUS
 62
3
100
AcDbBlockEnd
  0
BLOCK
  5
162
100
AcDbEntity
  8
MAIN10
  6
CONTINUOUS
 62
3
100
AcDbBlockBegin
  2
*D19
 70
    65
 10
0.0
 20
0.0
 30
0.0
  0
LINE
  5
163
100
AcDbEntity
  8
MAIN10
  6
BYBLOCK
 62
0
100
AcDbLine
 10
386.3254355222659
 20
439.4911889829573
 30
0.0000000000000000
 11
392.3254355222658
 21
439.4911889829573
 31
0.0000000000000000
  0
INSERT
  5
164
100
AcDbEntity
  8
MAIN10
  6
BYBLOCK
 62
0
100
AcDbBlockReference
  2
_OPEN
 10
386.3254355222659
 20
439.4911889829573
 30
0.0000000000000000
 41
5.000000000000000
 42
5.000000000000000
 43
5.000000000000000
 50
0.0000000000000000
  0
INSERT
  5
165
100
AcDbEntity
  8
MAIN10
  6
BYBLOCK
 62
0
100
AcDbBlockReference
  2
_OPEN
 10
392.3254355222658
 20
439.4911889829573
 30
0.0000000000000000
 41
5.000000000000000
 42
5.000000000000000
 43
5.000000000000000
 50
180.0000000000000
  0
LINE
  5
166
100
AcDbEntity
  8
MAIN10
  6
BYBLOCK
 62
0
100
AcDbLine
 10
381.3254355222659
 20
439.4911889829573
 30
0.0000000000000000
 11
375.3194446404483
 21
439.4911889829573
 31
0.0000000000000000
  0
LINE
  5
167
100
AcDbEntity
  8
MAIN10
  6
BYBLOCK
 62
0
100
AcDbLine
 10
397.3254355222658
 20
439.4911889829573
 30
0.0000000000000000
 11
399.8254355222658
 21
439.4911889829573
 31
0.0000000000000000
  0
LINE
  5
168
100
AcDbEntity
  8
MAIN10
  6
BYBLOCK
 62
0
100
AcDbLine
 10
392.3254355222658
 20
487.4911889531550
 30
0.0000000000000000
 11
392.3254355222658
 21
434.4911889829573
 31
0.0000000000000000
  0
MTEXT
  5
169
100
AcDbEntity
  8
MAIN10
  6
BYBLOCK
 62
0
100
AcDbMText
 10
377.8194446404483
 20
444.6161888637480
 30
0.0000000000000000
 40
7.749999761581421
 41
0.0000000000000000
 71
     5
 72
     1
  1
\A1;6
 11
1.000000000000000
 21
0.0000000000000000
 31
0.0000000000000000
  7
STANDARD
  0
ENDBLK
  5
16A
100
AcDbEntity
  8
MAIN10
  6
CONTINUOUS
 62
3
100
AcDbBlockEnd
  0
BLOCK
  5
16E
100
AcDbEntity
  8
MAIN10
  6
CONTINUOUS
 62
3
100
AcDbBlockBegin
  2
*D20
 70
    65
 10
0.0
 20
0.0
 30
0.0
  0
LINE
  5
16F
100
AcDbEntity
  8
MAIN10
  6
BYBLOCK
 62
0
100
AcDbLine
 10
511.3254355222658
 20
415.4911889531586
 30
0.0000000000000000
 11
511.3254355222658
 21
374.4911889829573
 31
0.0000000000000000
  0
LINE
  5
170
100
AcDbEntity
  8
MAIN10
  6
BYBLOCK
 62
0
100
AcDbLine
 10
506.3254355222658
 20
379.4911889829573
 30
0.0000000000000000
 11
456.3254355222658
 21
379.4911889829573
 31
0.0000000000000000
  0
INSERT
  5
171
100
AcDbEntity
  8
MAIN10
  6
BYBLOCK
 62
0
100
AcDbBlockReference
  2
_OPEN
 10
511.3254355222658
 20
379.4911889829573
 30
0.0000000000000000
 41
5.000000000000000
 42
5.000000000000000
 43
5.000000000000000
 50
360.0000000000000
  0
INSERT
  5
172
100
AcDbEntity
  8
MAIN10
  6
BYBLOCK
 62
0
100
AcDbBlockReference
  2
_OPEN
 10
451.3254355222658
 20
379.4911889829573
 30
0.0000000000000000
 41
5.000000000000000
 42
5.000000000000000
 43
5.000000000000000
 50
180.0000000000000
  0
LINE
  5
173
100
AcDbEntity
  8
MAIN10
  6
BYBLOCK
 62
0
100
AcDbLine
 10
451.3254355222658
 20
406.1913709740593
 30
0.0000000000000000
 11
451.3254355222658
 21
374.4911889829573
 31
0.0000000000000000
  0
MTEXT
  5
174
100
AcDbEntity
  8
MAIN10
  6
BYBLOCK
 62
0
100
AcDbMText
 10
481.3254355222658
 20
383.8661888637480
 30
0.0000000000000000
 40
7.749999761581421
 41
0.0000000000000000
 71
     5
 72
     1
  1
\A1;60
 11
1.000000000000000
 21
0.0000000000000000
 31
0.0000000000000000
  7
STANDARD
  0
ENDBLK
  5
175
100
AcDbEntity
  8
MAIN10
  6
CONTINUOUS
 62
3
100
AcDbBlockEnd
  0
BLOCK
  5
177
100
AcDbEntity
  8
MAIN10
  6
CONTINUOUS
 62
3
100
AcDbBlockBegin
  2
*D21
 70
    65
 10
0.0
 20
0.0
 30
0.0
  0
LINE
  5
178
100
AcDbEntity
  8
MAIN10
  6
BYBLOCK
 62
0
100
AcDbLine
 10
511.3254355222658
 20
415.4911889531586
 30
0.0000000000000000
 11
511.3254355222658
 21
344.4911889829573
 31
0.0000000000000000
  0
LINE
  5
179
100
AcDbEntity
  8
MAIN10
  6
BYBLOCK
 62
0
100
AcDbLine
 10
506.3254355222658
 20
349.4911889829573
 30
0.0000000000000000
 11
391.3254355222659
 21
349.4911889829573
 31
0.0000000000000000
  0
INSERT
  5
17A
100
AcDbEntity
  8
MAIN10
  6
BYBLOCK
 62
0
100
AcDbBlockReference
  2
_OPEN
 10
511.3254355222658
 20
349.4911889829573
 30
0.0000000000000000
 41
5.000000000000000
 42
5.000000000000000
 43
5.000000000000000
 50
360.0000000000000
  0
INSERT
  5
17B
100
AcDbEntity
  8
MAIN10
  6
BYBLOCK
 62
0
100
AcDbBlockReference
  2
_OPEN
 10
386.3254355222659
 20
349.4911889829573
 30
0.0000000000000000
 41
5.000000000000000
 42
5.000000000000000
 43
5.000000000000000
 50
180.0000000000000
  0
LINE
  5
17C
100
AcDbEntity
  8
MAIN10
  6
BYBLOCK
 62
0
100
AcDbLine
 10
386.3254355222659
 20
415.4911889531586
 30
0.0000000000000000
 11
386.3254355222659
 21
344.4911889829573
 31
0.0000000000000000
  0
MTEXT
  5
17D
100
AcDbEntity
  8
MAIN10
  6
BYBLOCK
 62
0
100
AcDbMText
 10
448.8254355222658
 20
353.8661888637480
 30
0.0000000000000000
 40
7.749999761581421
 41
0.0000000000000000
 71
     5
 72
     1
  1
\A1;125
 11
1.000000000000000
 21
0.0000000000000000
 31
0.0000000000000000
  7
STANDARD
  0
ENDBLK
  5
17E
100
AcDbEntity
  8
MAIN10
  6
CONTINUOUS
 62
3
100
AcDbBlockEnd
  0
BLOCK
  5
182
100
AcDbEntity
  8
MAIN10
  6
CONTINUOUS
 62
3
100
AcDbBlockBegin
  2
*D22
 70
    65
 10
0.0
 20
0.0
 30
0.0
  0
LINE
  5
183
100
AcDbEntity
  8
MAIN10
  6
BYBLOCK
 62
0
100
AcDbLine
 10
514.5933847444989
 20
303.4311212226612
 30
0.0000000000000000
 11
586.3254355222659
 21
303.4311212226612
 31
0.0000000000000000
  0
LINE
  5
184
100
AcDbEntity
  8
MAIN10
  6
BYBLOCK
 62
0
100
AcDbLine
 10
581.3254355222659
 20
298.4311212226612
 30
0.0000000000000000
 11
581.3254355222659
 21
243.4311212226612
 31
0.0000000000000000
  0
INSERT
  5
185
100
AcDbEntity
  8
MAIN10
  6
BYBLOCK
 62
0
100
AcDbBlockReference
  2
_OPEN
 10
581.3254355222659
 20
303.4311212226612
 30
0.0000000000000000
 41
5.000000000000000
 42
5.000000000000000
 43
5.000000000000000
 50
90.00000000000000
  0
INSERT
  5
186
100
AcDbEntity
  8
MAIN10
  6
BYBLOCK
 62
0
100
AcDbBlockReference
  2
_OPEN
 10
581.3254355222659
 20
238.4311212226612
 30
0.0000000000000000
 41
5.000000000000000
 42
5.000000000000000
 43
5.000000000000000
 50
270.0000000000000
  0
LINE
  5
187
100
AcDbEntity
  8
MAIN10
  6
BYBLOCK
 62
0
100
AcDbLine
 10
514.5933847444978
 20
238.4311212226612
 30
0.0000000000000000
 11
586.3254355222659
 21
238.4311212226612
 31
0.0000000000000000
  0
MTEXT
  5
188
100
AcDbEntity
  8
MAIN10
  6
BYBLOCK
 62
0
100
AcDbMText
 10
576.9504356414752
 20
270.9311212226612
 30
0.0000000000000000
 40
7.749999761581421
 41
0.0000000000000000
 71
     5
 72
     1
  1
\A1;65
 11
6.123233995736766e-017
 21
1.000000000000000
 31
0.0000000000000000
  7
STANDARD
  0
ENDBLK
  5
189
100
AcDbEntity
  8
MAIN10
  6
CONTINUOUS
 62
3
100
AcDbBlockEnd
  0
BLOCK
  5
18B
100
AcDbEntity
  8
MAIN10
  6
CONTINUOUS
 62
3
100
AcDbBlockBegin
  2
*D23
 70
    65
 10
0.0
 20
0.0
 30
0.0
  0
LINE
  5
18C
100
AcDbEntity
  8
MAIN10
  6
BYBLOCK
 62
0
100
AcDbLine
 10
522.3254355520680
 20
283.4311212226612
 30
0.0000000000000000
 11
556.3254355222659
 21
283.4311212226612
 31
0.0000000000000000
  0
LINE
  5
18D
100
AcDbEntity
  8
MAIN10
  6
BYBLOCK
 62
0
100
AcDbLine
 10
551.3254355222659
 20
278.4311212226612
 30
0.0000000000000000
 11
551.3254355222659
 21
263.4311212226612
 31
0.0000000000000000
  0
INSERT
  5
18E
100
AcDbEntity
  8
MAIN10
  6
BYBLOCK
 62
0
100
AcDbBlockReference
  2
_OPEN
 10
551.3254355222659
 20
283.4311212226612
 30
0.0000000000000000
 41
5.000000000000000
 42
5.000000000000000
 43
5.000000000000000
 50
90.00000000000000
  0
INSERT
  5
18F
100
AcDbEntity
  8
MAIN10
  6
BYBLOCK
 62
0
100
AcDbBlockReference
  2
_OPEN
 10
551.3254355222659
 20
258.4311212226612
 30
0.0000000000000000
 41
5.000000000000000
 42
5.000000000000000
 43
5.000000000000000
 50
270.0000000000000
  0
LINE
  5
190
100
AcDbEntity
  8
MAIN10
  6
BYBLOCK
 62
0
100
AcDbLine
 10
522.3254355520680
 20
258.4311212226612
 30
0.0000000000000000
 11
556.3254355222659
 21
258.4311212226612
 31
0.0000000000000000
  0
MTEXT
  5
191
100
AcDbEntity
  8
MAIN10
  6
BYBLOCK
 62
0
100
AcDbMText
 10
546.9504356414752
 20
270.9311212226612
 30
0.0000000000000000
 40
7.749999761581421
 41
0.0000000000000000
 71
     5
 72
     1
  1
\A1;25
 11
6.123233995736766e-017
 21
1.000000000000000
 31
0.0000000000000000
  7
STANDARD
  0
ENDBLK
  5
192
100
AcDbEntity
  8
MAIN10
  6
CONTINUOUS
 62
3
100
AcDbBlockEnd
  0
BLOCK
  5
194
100
AcDbEntity
  8
MAIN10
  6
CONTINUOUS
 62
3
100
AcDbBlockBegin
  2
*D24
 70
    65
 10
0.0
 20
0.0
 30
0.0
  0
LINE
  5
195
100
AcDbEntity
  8
MAIN10
  6
BYBLOCK
 62
0
100
AcDbLine
 10
520.3254355222657
 20
256.4311211928589
 30
0.0000000000000000
 11
520.3254355222657
 21
194.4911889829573
 31
0.0000000000000000
  0
LINE
  5
196
100
AcDbEntity
  8
MAIN10
  6
BYBLOCK
 62
0
100
AcDbLine
 10
520.3254355222657
 20
199.4911889829573
 30
0.0000000000000000
 11
515.3254355222657
 21
199.4911889829573
 31
0.0000000000000000
  0
INSERT
  5
197
100
AcDbEntity
  8
MAIN10
  6
BYBLOCK
 62
0
100
AcDbBlockReference
  2
_OPEN
 10
520.3254355222657
 20
199.4911889829573
 30
0.0000000000000000
 41
5.000000000000000
 42
5.000000000000000
 43
5.000000000000000
 50
180.0000000000000
  0
INSERT
  5
198
100
AcDbEntity
  8
MAIN10
  6
BYBLOCK
 62
0
100
AcDbBlockReference
  2
_DOT
 10
514.3254355222657
 20
199.4911889829573
 30
0.0000000000000000
 41
2.500000000000000
 42
2.500000000000000
 43
2.500000000000000
 50
180.0000000000000
  0
LINE
  5
199
100
AcDbEntity
  8
MAIN10
  6
BYBLOCK
 62
0
100
AcDbLine
 10
525.3254355222657
 20
199.4911889829573
 30
0.0000000000000000
 11
529.2581913474505
 21
199.4911889829573
 31
0.0000000000000000
  0
LINE
  5
19A
100
AcDbEntity
  8
MAIN10
  6
BYBLOCK
 62
0
100
AcDbLine
 10
514.3254355222657
 20
237.4311211928625
 30
0.0000000000000000
 11
514.3254355222657
 21
194.4911889829573
 31
0.0000000000000000
  0
MTEXT
  5
19B
100
AcDbEntity
  8
MAIN10
  6
BYBLOCK
 62
0
100
AcDbMText
 10
526.7581913474505
 20
204.6161888637480
 30
0.0000000000000000
 40
7.749999761581421
 41
0.0000000000000000
 71
     5
 72
     1
  1
\A1;6
 11
1.000000000000000
 21
0.0000000000000000
 31
0.0000000000000000
  7
STANDARD
  0
ENDBLK
  5
19C
100
AcDbEntity
  8
MAIN10
  6
CONTINUOUS
 62
3
100
AcDbBlockEnd
  0
BLOCK
  5
19E
100
AcDbEntity
  8
MAIN10
  6
CONTINUOUS
 62
3
100
AcDbBlockBegin
  2
*D25
 70
    65
 10
0.0
 20
0.0
 30
0.0
  0
LINE
  5
19F
100
AcDbEntity
  8
MAIN10
  6
BYBLOCK
 62
0
100
AcDbLine
 10
514.3254355222657
 20
237.4311211928625
 30
0.0000000000000000
 11
514.3254355222657
 21
194.4911889829573
 31
0.0000000000000000
  0
LINE
  5
1A0
100
AcDbEntity
  8
MAIN10
  6
BYBLOCK
 62
0
100
AcDbLine
 10
513.3254355222657
 20
199.4911889829573
 30
0.0000000000000000
 11
511.3254355222657
 21
199.4911889829573
 31
0.0000000000000000
  0
INSERT
  5
1A1
100
AcDbEntity
  8
MAIN10
  6
BYBLOCK
 62
0
100
AcDbBlockReference
  2
_DOT
 10
514.3254355222657
 20
199.4911889829573
 30
0.0000000000000000
 41
2.500000000000000
 42
2.500000000000000
 43
2.500000000000000
 50
360.0000000000000
  0
INSERT
  5
1A2
100
AcDbEntity
  8
MAIN10
  6
BYBLOCK
 62
0
100
AcDbBlockReference
  2
_OPEN
 10
511.3254355222657
 20
199.4911889829573
 30
0.0000000000000000
 41
5.000000000000000
 42
5.000000000000000
 43
5.000000000000000
 50
360.0000000000000
  0
LINE
  5
1A3
100
AcDbEntity
  8
MAIN10
  6
BYBLOCK
 62
0
100
AcDbLine
 10
506.3254355222657
 20
199.4911889829573
 30
0.0000000000000000
 11
504.4290437763272
 21
199.4911889829573
 31
0.0000000000000000
  0
LINE
  5
1A4
100
AcDbEntity
  8
MAIN10
  6
BYBLOCK
 62
0
100
AcDbLine
 10
511.3254355222657
 20
222.7470905649507
 30
0.0000000000000000
 11
511.3254355222657
 21
194.4911889829573
 31
0.0000000000000000
  0
MTEXT
  5
1A5
100
AcDbEntity
  8
MAIN10
  6
BYBLOCK
 62
0
100
AcDbMText
 10
506.9290437763272
 20
204.6161888637480
 30
0.0000000000000000
 40
7.749999761581421
 41
0.0000000000000000
 71
     5
 72
     1
  1
\A1;3
 11
1.000000000000000
 21
0.0000000000000000
 31
0.0000000000000000
  7
STANDARD
  0
ENDBLK
  5
1A6
100
AcDbEntity
  8
MAIN10
  6
CONTINUOUS
 62
3
100
AcDbBlockEnd
  0
BLOCK
  5
1A8
100
AcDbEntity
  8
MAIN10
  6
CONTINUOUS
 62
3
100
AcDbBlockBegin
  2
*D26
 70
    65
 10
0.0
 20
0.0
 30
0.0
  0
LINE
  5
1A9
100
AcDbEntity
  8
MAIN10
  6
BYBLOCK
 62
0
100
AcDbLine
 10
1282.682842368361
 20
540.1434251694498
 30
0.0000000000000000
 11
1314.123437714227
 21
521.9911889830316
 31
0.0000000000000000
  0
LINE
  5
1AA
100
AcDbEntity
  8
MAIN10
  6
BYBLOCK
 62
0
100
AcDbLine
 10
1324.623409929870
 20
679.4911889829573
 30
0.0000000000000000
 11
1356.325435522109
 21
679.4911889829573
 31
0.0000000000000000
  0
ARC
  5
1AB
100
AcDbEntity
  8
MAIN10
  6
BYBLOCK
 62
0
100
AcDbCircle
 10
1041.325435522258
 20
679.4911889829573
 30
0.0000000000000000
 40
309.9999999998510
100
AcDbArc
 50
330.9241254760179
 51
359.0758745239821
  0
INSERT
  5
1AC
100
AcDbEntity
  8
MAIN10
  6
BYBLOCK
 62
0
100
AcDbBlockReference
  2
_OPEN
 10
1309.793310695305
 20
524.4911889830316
 30
0.0000000000000000
 41
5.000000000000000
 42
5.000000000000000
 43
5.000000000000000
 50
240.0000000000000
  0
INSERT
  5
1AD
100
AcDbEntity
  8
MAIN10
  6
BYBLOCK
 62
0
100
AcDbBlockReference
  2
_OPEN
 10
1351.325435522109
 20
679.4911889829572
 30
0.0000000000000000
 41
5.000000000000000
 42
5.000000000000000
 43
5.000000000000000
 50
90.00000000000000
  0
MTEXT
  5
1AE
100
AcDbEntity
  8
MAIN10
  6
BYBLOCK
 62
0
100
AcDbMText
 10
1336.536516296858
 20
600.3896182926844
 30
0.0000000000000000
 40
7.749999761581421
 41
0.0000000000000000
 71
     5
 72
     1
  1
\A1;30\U+00B0
 11
0.2588190451025205
 21
0.9659258262890683
 31
0.0000000000000000
  7
STANDARD
  0
ENDBLK
  5
1AF
100
AcDbEntity
  8
MAIN10
  6
CONTINUOUS
 62
3
100
AcDbBlockEnd
  0
BLOCK
  5
1B1
100
AcDbEntity
  8
MAIN10
  6
CONTINUOUS
 62
3
100
AcDbBlockBegin
  2
*D27
 70
    65
 10
0.0
 20
0.0
 30
0.0
  0
LINE
  5
1B2
100
AcDbEntity
  8
MAIN10
  6
BYBLOCK
 62
0
100
AcDbLine
 10
1324.623409929870
 20
679.4911889829573
 30
0.0000000000000000
 11
1356.325435522109
 21
679.4911889829573
 31
0.0000000000000000
  0
LINE
  5
1B3
100
AcDbEntity
  8
MAIN10
  6
BYBLOCK
 62
0
100
AcDbLine
 10
1169.315252048666
 20
807.4810055093589
 30
0.0000000000000000
 11
1264.064071595920
 21
902.2298250566091
 31
0.0000000000000000
  0
ARC
  5
1B4
100
AcDbEntity
  8
MAIN10
  6
BYBLOCK
 62
0
100
AcDbCircle
 10
1041.325435522258
 20
679.4911889829573
 30
0.0000000000000000
 40
309.9999999998510
100
AcDbArc
 50
0.9241254760179012
 51
44.07587452398074
  0
INSERT
  5
1B5
100
AcDbEntity
  8
MAIN10
  6
BYBLOCK
 62
0
100
AcDbBlockReference
  2
_OPEN
 10
1351.325435522109
 20
679.4911889829573
 30
0.0000000000000000
 41
5.000000000000000
 42
5.000000000000000
 43
5.000000000000000
 50
270.0000000000000
  0
INSERT
  5
1B6
100
AcDbEntity
  8
MAIN10
  6
BYBLOCK
 62
0
100
AcDbBlockReference
  2
_OPEN
 10
1260.528537689988
 20
898.6942911506765
 30
0.0000000000000000
 41
5.000000000000000
 42
5.000000000000000
 43
5.000000000000000
 50
134.9999999999986
  0
MTEXT
  5
1B7
100
AcDbEntity
  8
MAIN10
  6
BYBLOCK
 62
0
100
AcDbMText
 10
1323.686117756019
 20
796.4488130450969
 30
0.0000000000000000
 40
7.749999761581421
 41
0.0000000000000000
 71
     5
 72
     1
  1
\A1;45\U+00B0
 11
-0.3826834323650786
 21
0.9238795325112914
 31
0.0000000000000000
  7
STANDARD
  0
ENDBLK
  5
1B8
100
AcDbEntity
  8
MAIN10
  6
CONTINUOUS
 62
3
100
AcDbBlockEnd
  0
BLOCK
  5
1BA
100
AcDbEntity
  8
MAIN10
  6
CONTINUOUS
 62
3
100
AcDbBlockBegin
  2
*D28
 70
    65
 10
0.0
 20
0.0
 30
0.0
  0
LINE
  5
1BB
100
AcDbEntity
  8
MAIN10
  6
BYBLOCK
 62
0
100
AcDbLine
 10
1169.315252048666
 20
807.4810055093589
 30
0.0000000000000000
 11
1264.064071595920
 21
902.2298250566091
 31
0.0000000000000000
  0
LINE
  5
1BC
100
AcDbEntity
  8
MAIN10
  6
BYBLOCK
 62
0
100
AcDbLine
 10
1161.545041730366
 20
887.7176550013151
 30
0.0000000000000000
 11
1198.825435522188
 21
952.2891911749235
 31
0.0000000000000000
  0
ARC
  5
1BD
100
AcDbEntity
  8
MAIN10
  6
BYBLOCK
 62
0
100
AcDbCircle
 10
1041.325435522258
 20
679.4911889829573
 30
0.0000000000000000
 40
309.9999999998510
100
AcDbArc
 50
45.92412547601654
 51
59.07587452398109
  0
INSERT
  5
1BE
100
AcDbEntity
  8
MAIN10
  6
BYBLOCK
 62
0
100
AcDbBlockReference
  2
_OPEN
 10
1260.528537689988
 20
898.6942911506765
 30
0.0000000000000000
 41
5.000000000000000
 42
5.000000000000000
 43
5.000000000000000
 50
314.9999999999986
  0
INSERT
  5
1BF
100
AcDbEntity
  8
MAIN10
  6
BYBLOCK
 62
0
100
AcDbBlockReference
  2
_OPEN
 10
1196.325435522188
 20
947.9590641560014
 30
0.0000000000000000
 41
5.000000000000000
 42
5.000000000000000
 43
5.000000000000000
 50
149.9999999999990
  0
MTEXT
  5
1C0
100
AcDbEntity
  8
MAIN10
  6
BYBLOCK
 62
0
100
AcDbMText
 10
1232.704809694219
 20
928.9016452423170
 30
0.0000000000000000
 40
7.749999761581421
 41
0.0000000000000000
 71
     5
 72
     1
  1
\A1;15\U+00B0
 11
0.7933533402912225
 21
-0.6087614290087371
 31
0.0000000000000000
  7
STANDARD
  0
ENDBLK
  5
1C1
100
AcDbEntity
  8
MAIN10
  6
CONTINUOUS
 62
3
100
AcDbBlockEnd
  0
BLOCK
  5
1C3
100
AcDbEntity
  8
MAIN10
  6
CONTINUOUS
 62
3
100
AcDbBlockBegin
  2
*D29
 70
    65
 10
0.0
 20
0.0
 30
0.0
  0
LINE
  5
1C4
100
AcDbEntity
  8
MAIN10
  6
BYBLOCK
 62
0
100
AcDbLine
 10
1161.545041730366
 20
887.7176550013151
 30
0.0000000000000000
 11
1198.825435522188
 21
952.2891911749235
 31
0.0000000000000000
  0
LINE
  5
1C5
100
AcDbEntity
  8
MAIN10
  6
BYBLOCK
 62
0
100
AcDbLine
 10
1041.325435522264
 20
955.8181143229967
 30
0.0000000000000000
 11
1041.325435522265
 21
994.4911889828084
 31
0.0000000000000000
  0
ARC
  5
1C6
100
AcDbEntity
  8
MAIN10
  6
BYBLOCK
 62
0
100
AcDbCircle
 10
1041.325435522258
 20
679.4911889829573
 30
0.0000000000000000
 40
309.9999999998510
100
AcDbArc
 50
60.92412547601689
 51
89.07587452398079
  0
INSERT
  5
1C7
100
AcDbEntity
  8
MAIN10
  6
BYBLOCK
 62
0
100
AcDbBlockReference
  2
_OPEN
 10
1196.325435522188
 20
947.9590641560014
 30
0.0000000000000000
 41
5.000000000000000
 42
5.000000000000000
 43
5.000000000000000
 50
329.9999999999990
  0
INSERT
  5
1C8
100
AcDbEntity
  8
MAIN10
  6
BYBLOCK
 62
0
100
AcDbBlockReference
  2
_OPEN
 10
1041.325435522265
 20
989.4911889828082
 30
0.0000000000000000
 41
5.000000000000000
 42
5.000000000000000
 43
5.000000000000000
 50
179.9999999999987
  0
MTEXT
  5
1C9
100
AcDbEntity
  8
MAIN10
  6
BYBLOCK
 62
0
100
AcDbMText
 10
1122.691672795477
 20
983.1541205072904
 30
0.0000000000000000
 40
7.749999761581421
 41
0.0000000000000000
 71
     5
 72
     1
  1
\A1;30\U+00B0
 11
0.9659258262890630
 21
-0.2588190451025405
 31
0.0000000000000000
  7
STANDARD
  0
ENDBLK
  5
1CA
100
AcDbEntity
  8
MAIN10
  6
CONTINUOUS
 62
3
100
AcDbBlockEnd
  0
BLOCK
  5
1CC
100
AcDbEntity
  8
MAIN10
  6
CONTINUOUS
 62
3
100
AcDbBlockBegin
  2
*D30
 70
    65
 10
0.0
 20
0.0
 30
0.0
  0
LINE
  5
1CD
100
AcDbEntity
  8
MAIN10
  6
BYBLOCK
 62
0
100
AcDbLine
 10
1041.325435522264
 20
955.8181143229967
 30
0.0000000000000000
 11
1041.325435522265
 21
994.4911889828084
 31
0.0000000000000000
  0
LINE
  5
1CE
100
AcDbEntity
  8
MAIN10
  6
BYBLOCK
 62
0
100
AcDbLine
 10
935.5463317930412
 20
934.8645358217137
 30
0.0000000000000000
 11
920.7801543273160
 21
970.5132417238767
 31
0.0000000000000000
  0
ARC
  5
1CF
100
AcDbEntity
  8
MAIN10
  6
BYBLOCK
 62
0
100
AcDbCircle
 10
1041.325435522258
 20
679.4911889829573
 30
0.0000000000000000
 40
309.9999999998510
100
AcDbArc
 50
90.92412547601658
 51
111.5758745239812
  0
INSERT
  5
1D0
100
AcDbEntity
  8
MAIN10
  6
BYBLOCK
 62
0
100
AcDbBlockReference
  2
_OPEN
 10
1041.325435522265
 20
989.4911889828082
 30
0.0000000000000000
 41
5.000000000000000
 42
5.000000000000000
 43
5.000000000000000
 50
359.9999999999987
  0
INSERT
  5
1D1
100
AcDbEntity
  8
MAIN10
  6
BYBLOCK
 62
0
100
AcDbBlockReference
  2
_OPEN
 10
922.6935714891415
 20
965.8938440613202
 30
0.0000000000000000
 41
5.000000000000000
 42
5.000000000000000
 43
5.000000000000000
 50
202.4999999999991
  0
MTEXT
  5
1D2
100
AcDbEntity
  8
MAIN10
  6
BYBLOCK
 62
0
100
AcDbMText
 10
979.9939155617291
 20
987.8255613926591
 30
0.0000000000000000
 40
7.749999761581421
 41
0.0000000000000000
 71
     5
 72
     1
  1
\A1;22\U+00B030′
 11
0.9807852804032341
 21
0.1950903220161098
 31
0.0000000000000000
  7
KNJYOKO
  0
ENDBLK
  5
1D3
100
AcDbEntity
  8
MAIN10
  6
CONTINUOUS
 62
3
100
AcDbBlockEnd
  0
BLOCK
  5
1D6
100
AcDbEntity
  8
MAIN10
  6
CONTINUOUS
 62
3
100
AcDbBlockBegin
  2
*D31
 70
    65
 10
0.0
 20
0.0
 30
0.0
  0
LINE
  5
1D7
100
AcDbEntity
  8
MAIN10
  6
BYBLOCK
 62
0
100
AcDbLine
 10
1008.825435522262
 20
945.9911890127560
 30
0.0000000000000000
 11
1008.825435522262
 21
964.4911889829573
 31
0.0000000000000000
  0
LINE
  5
1D8
100
AcDbEntity
  8
MAIN10
  6
BYBLOCK
 62
0
100
AcDbLine
 10
1013.825435522262
 20
959.4911889829573
 30
0.0000000000000000
 11
1068.825435522264
 21
959.4911889829573
 31
0.0000000000000000
  0
INSERT
  5
1D9
100
AcDbEntity
  8
MAIN10
  6
BYBLOCK
 62
0
100
AcDbBlockReference
  2
_OPEN
 10
1008.825435522262
 20
959.4911889829573
 30
0.0000000000000000
 41
5.000000000000000
 42
5.000000000000000
 43
5.000000000000000
 50
180.0000000000000
  0
INSERT
  5
1DA
100
AcDbEntity
  8
MAIN10
  6
BYBLOCK
 62
0
100
AcDbBlockReference
  2
_OPEN
 10
1073.825435522264
 20
959.4911889829573
 30
0.0000000000000000
 41
5.000000000000000
 42
5.000000000000000
 43
5.000000000000000
 50
0.0000000000000000
  0
LINE
  5
1DB
100
AcDbEntity
  8
MAIN10
  6
BYBLOCK
 62
0
100
AcDbLine
 10
1073.825435522264
 20
945.9911890127560
 30
0.0000000000000000
 11
1073.825435522264
 21
964.4911889829573
 31
0.0000000000000000
  0
MTEXT
  5
1DC
100
AcDbEntity
  8
MAIN10
  6
BYBLOCK
 62
0
100
AcDbMText
 10
1031.757457657293
 20
964.6161888637480
 30
0.0000000000000000
 40
7.749999761581421
 41
0.0000000000000000
 71
     5
 72
     1
  1
\A1;65
 11
1.000000000000000
 21
0.0000000000000000
 31
0.0000000000000000
  7
STANDARD
  0
ENDBLK
  5
1DD
100
AcDbEntity
  8
MAIN10
  6
CONTINUOUS
 62
3
100
AcDbBlockEnd
  0
BLOCK
  5
1DF
100
AcDbEntity
  8
MAIN10
  6
CONTINUOUS
 62
3
100
AcDbBlockBegin
  2
*D32
 70
    65
 10
0.0
 20
0.0
 30
0.0
  0
LINE
  5
1E0
100
AcDbEntity
  8
MAIN10
  6
BYBLOCK
 62
0
100
AcDbLine
 10
1198.965193530774
 20
651.5319920163339
 30
0.0000000000000000
 11
878.7625120544003
 21
708.3235651178075
 31
0.0000000000000000
  0
INSERT
  5
1E1
100
AcDbEntity
  8
MAIN10
  6
BYBLOCK
 62
0
100
AcDbBlockReference
  2
_OPEN
 10
1203.888358990128
 20
650.6588128481071
 30
0.0000000000000000
 41
5.000000000000000
 42
5.000000000000000
 43
5.000000000000000
 50
349.9425334205102
  0
MTEXT
  5
1E2
100
AcDbEntity
  8
MAIN10
  6
BYBLOCK
 62
0
100
AcDbMText
 10
1157.637817161066
 20
664.0668548067371
 30
0.0000000000000000
 40
7.749999761581421
 41
0.0000000000000000
 71
     5
 72
     1
  1
\A1;\U+2205330.2
 11
0.9846330918707674
 21
-0.1746358336453685
 31
0.0000000000000000
  7
STANDARD
  0
ENDBLK
  5
1E3
100
AcDbEntity
  8
MAIN10
  6
CONTINUOUS
 62
3
100
AcDbBlockEnd
  0
BLOCK
  5
1E5
100
AcDbEntity
  8
MAIN10
  6
CONTINUOUS
 62
3
100
AcDbBlockBegin
  2
*D33
 70
    65
 10
0.0
 20
0.0
 30
0.0
  0
LINE
  5
1E6
100
AcDbEntity
  8
MAIN10
  6
BYBLOCK
 62
0
100
AcDbLine
 10
1162.196492940911
 20
784.4778427942781
 30
0.0000000000000000
 11
916.6795168475695
 21
571.2257514798400
 31
0.0000000000000000
  0
INSERT
  5
1E7
100
AcDbEntity
  8
MAIN10
  6
BYBLOCK
 62
0
100
AcDbBlockReference
  2
_OPEN
 10
1165.971354196959
 20
787.7566264860745
 30
0.0000000000000000
 41
5.000000000000000
 42
5.000000000000000
 43
5.000000000000000
 50
40.97705479821838
  0
MTEXT
  5
1E8
100
AcDbEntity
  8
MAIN10
  6
BYBLOCK
 62
0
100
AcDbMText
 10
1078.876163702552
 20
718.8954755215037
 30
0.0000000000000000
 40
7.749999761581421
 41
0.0000000000000000
 71
     5
 72
     1
  1
\A1;\U+2205330.2\H0.903226x;\U+00B10.2
 11
0.7549722512095376
 21
0.6557567383592812
 31
0.0000000000000000
  7
STANDARD
  0
ENDBLK
  5
1E9
100
AcDbEntity
  8
MAIN10
  6
CONTINUOUS
 62
3
100
AcDbBlockEnd
  0
BLOCK
  5
212
100
AcDbEntity
  8
MAIN0
  6
BYBLOCK
 62
3
100
AcDbBlockBegin
  2
M0
 70
    64
 10
0.0
 20
0.0
 30
0.0
  0
MTEXT
  5
213
100
AcDbEntity
  8
MAIN0
  6
BYBLOCK
 62
0
100
AcDbMText
 10
672.2271545467423
 20
187.8351789063478
 30
0.0000000000000000
 40
7.750000953674316
 41
0.0000000000000000
 71
     1
 72
     1
  1
{\H0.95x;上記仕様は標準ソフトジョー付で許容最大入力時の場合\Pまた最大静的把握力、および許容最高回転速度については\Pソフトジョーの面上高さの１／２での実測値を示す}
 11
1.000000000000000
 21
0.0000000000000000
 31
0.0000000000000000
  7
KNJYOKO
  0
CIRCLE
  5
214
100
AcDbEntity
  8
MAIN0
  6
BYBLOCK
 62
0
100
AcDbCircle
 10
666.9688295103117
 20
183.7835972317109
 30
0.0000000000000000
 40
2.500000000000000
  0
ENDBLK
  5
215
100
AcDbEntity
  8
MAIN0
  6
BYBLOCK
 62
3
100
AcDbBlockEnd
  0
BLOCK
  5
217
100
AcDbEntity
  8
MAIN0
  6
BYBLOCK
 62
3
100
AcDbBlockBegin
  2
M1
 70
    64
 10
0.0
 20
0.0
 30
0.0
  0
LINE
  5
218
100
AcDbEntity
  8
MAIN0
  6
BYBLOCK
 62
0
100
AcDbLine
 10
662.6020805712460
 20
429.8214349091076
 30
0.0000000000000000
 11
855.1020805712460
 21
429.8214349091076
 31
0.0000000000000000
  0
LINE
  5
219
100
AcDbEntity
  8
MAIN0
  6
BYBLOCK
 62
0
100
AcDbLine
 10
662.6020805712460
 20
404.8214349091076
 30
0.0000000000000000
 11
855.1020805712460
 21
404.8214349091076
 31
0.0000000000000000
  0
LINE
  5
21A
100
AcDbEntity
  8
MAIN0
  6
BYBLOCK
 62
0
100
AcDbLine
 10
662.6020805712460
 20
192.3214349091076
 30
0.0000000000000000
 11
662.6020805712460
 21
429.8214349091076
 31
0.0000000000000000
  0
LINE
  5
21B
100
AcDbEntity
  8
MAIN0
  6
BYBLOCK
 62
0
100
AcDbLine
 10
662.6020805712460
 20
387.3214349091081
 30
0.0000000000000000
 11
855.1020805712456
 21
387.3214349091081
 31
0.0000000000000000
  0
LINE
  5
21C
100
AcDbEntity
  8
MAIN0
  6
BYBLOCK
 62
0
100
AcDbLine
 10
662.6020805712460
 20
369.8214349091081
 30
0.0000000000000000
 11
855.1020805712456
 21
369.8214349091081
 31
0.0000000000000000
  0
LINE
  5
21D
100
AcDbEntity
  8
MAIN0
  6
BYBLOCK
 62
0
100
AcDbLine
 10
662.6020805712460
 20
344.8214349091078
 30
0.0000000000000000
 11
855.1020805712456
 21
344.8214349091078
 31
0.0000000000000000
  0
LINE
  5
21E
100
AcDbEntity
  8
MAIN0
  6
BYBLOCK
 62
0
100
AcDbLine
 10
662.6020805712460
 20
319.8214349091077
 30
0.0000000000000000
 11
855.1020805712456
 21
319.8214349091077
 31
0.0000000000000000
  0
LINE
  5
21F
100
AcDbEntity
  8
MAIN0
  6
BYBLOCK
 62
0
100
AcDbLine
 10
662.6020805712460
 20
302.3214349091077
 30
0.0000000000000000
 11
855.1020805712456
 21
302.3214349091077
 31
0.0000000000000000
  0
LINE
  5
220
100
AcDbEntity
  8
MAIN0
  6
BYBLOCK
 62
0
100
AcDbLine
 10
662.6020805712460
 20
284.8214349091077
 30
0.0000000000000000
 11
855.1020805712456
 21
284.8214349091077
 31
0.0000000000000000
  0
LINE
  5
221
100
AcDbEntity
  8
MAIN0
  6
BYBLOCK
 62
0
100
AcDbLine
 10
662.6020805712460
 20
259.8214349091078
 30
0.0000000000000000
 11
855.1020805712456
 21
259.8214349091078
 31
0.0000000000000000
  0
LINE
  5
222
100
AcDbEntity
  8
MAIN0
  6
BYBLOCK
 62
0
100
AcDbLine
 10
662.6020805712460
 20
234.8214349091077
 30
0.0000000000000000
 11
855.1020805712456
 21
234.8214349091077
 31
0.0000000000000000
  0
LINE
  5
223
100
AcDbEntity
  8
MAIN0
  6
BYBLOCK
 62
0
100
AcDbLine
 10
662.6020805712460
 20
217.3214349091077
 30
0.0000000000000000
 11
855.1020805712456
 21
217.3214349091077
 31
0.0000000000000000
  0
LINE
  5
224
100
AcDbEntity
  8
MAIN0
  6
BYBLOCK
 62
0
100
AcDbLine
 10
662.6020805712459
 20
192.3214349091075
 30
0.0000000000000000
 11
855.1020805712460
 21
192.3214349091069
 31
0.0000000000000000
  0
LINE
  5
225
100
AcDbEntity
  8
MAIN0
  6
BYBLOCK
 62
0
100
AcDbLine
 10
780.1020805712456
 20
192.3214349091070
 30
0.0000000000000000
 11
780.1020805712456
 21
404.8214349091077
 31
0.0000000000000000
  0
LINE
  5
226
100
AcDbEntity
  8
MAIN0
  6
BYBLOCK
 62
0
100
AcDbLine
 10
855.1020805712456
 20
192.3214349091068
 30
0.0000000000000000
 11
855.1020805712456
 21
429.8214349091076
 31
0.0000000000000000
  0
MTEXT
  5
227
100
AcDbEntity
  8
MAIN0
  6
BYBLOCK
 62
0
100
AcDbMText
 10
670.2858517065340
 20
395.4796710591282
 30
0.0000000000000000
 40
5.999999046325684
 41
0.0000000000000000
 71
     1
 72
     1
  1
{\H0.93x;プランジャストロ－ク}
 11
1.000000000000000
 21
0.0000000000000000
 31
0.0000000000000000
  7
KNJYOKO
  0
MTEXT
  5
228
100
AcDbEntity
  8
MAIN0
  6
BYBLOCK
 62
0
100
AcDbMText
 10
670.2858517065340
 20
377.9796710591288
 30
0.0000000000000000
 40
5.999999046325684
 41
0.0000000000000000
 71
     1
 72
     1
  1
{\H0.94x;ジョーストローク(直径で)}
 11
1.000000000000000
 21
0.0000000000000000
 31
0.0000000000000000
  7
KNJYOKO
  0
MTEXT
  5
229
100
AcDbEntity
  8
MAIN0
  6
BYBLOCK
 62
0
100
AcDbMText
 10
670.2858517065340
 20
355.4796710591288
 30
0.0000000000000000
 40
5.999999046325684
 41
0.0000000000000000
 71
     1
 72
     1
  1
{\H0.93x;許容最大入力　}
 11
1.000000000000000
 21
0.0000000000000000
 31
0.0000000000000000
  7
KNJYOKO
  0
MTEXT
  5
22A
100
AcDbEntity
  8
MAIN0
  6
BYBLOCK
 62
0
100
AcDbMText
 10
670.2858517065340
 20
335.4796710591285
 30
0.0000000000000000
 40
5.999999046325684
 41
0.0000000000000000
 71
     1
 72
     1
  1
{\H0.93x;最大静的把握力　　}
 11
1.000000000000000
 21
0.0000000000000000
 31
0.0000000000000000
  7
KNJYOKO
  0
MTEXT
  5
22B
100
AcDbEntity
  8
MAIN0
  6
BYBLOCK
 62
0
100
AcDbMText
 10
670.2858517065340
 20
310.4796710591285
 30
0.0000000000000000
 40
5.999999046325684
 41
0.0000000000000000
 71
     1
 72
     1
  1
{\H0.93x;許容最高回転速度　}
 11
1.000000000000000
 21
0.0000000000000000
 31
0.0000000000000000
  7
KNJYOKO
  0
MTEXT
  5
22C
100
AcDbEntity
  8
MAIN0
  6
BYBLOCK
 62
0
100
AcDbMText
 10
670.2858517065339
 20
292.9796710591285
 30
0.0000000000000000
 40
5.999999046325684
 41
0.0000000000000000
 71
     1
 72
     1
  1
{\H0.89x;質量\P}
 11
1.000000000000000
 21
0.0000000000000000
 31
0.0000000000000000
  7
KNJYOKO
  0
MTEXT
  5
22D
100
AcDbEntity
  8
MAIN0
  6
BYBLOCK
 62
0
100
AcDbMText
 10
670.4709409357929
 20
278.0937127306587
 30
0.0000000000000000
 40
6.249997615814209
 41
0.0000000000000000
 71
     1
 72
     1
  1
{\H0.75x;MOMENT OF INERTIA\P慣性モーメント}
 11
1.000000000000000
 21
0.0000000000000000
 31
0.0000000000000000
  7
KNJYOKO
  0
MTEXT
  5
22E
100
AcDbEntity
  8
MAIN0
  6
BYBLOCK
 62
0
100
AcDbMText
 10
670.2858517065339
 20
242.9796710591284
 30
0.0000000000000000
 40
5.999999046325684
 41
0.0000000000000000
 71
     1
 72
     1
  1
{\H0.94x;最高回転時の動的把握力}
 11
1.000000000000000
 21
0.0000000000000000
 31
0.0000000000000000
  7
KNJYOKO
  0
MTEXT
  5
22F
100
AcDbEntity
  8
MAIN0
  6
BYBLOCK
 62
0
100
AcDbMText
 10
670.2858517065339
 20
225.4796710591284
 30
0.0000000000000000
 40
5.999999046325684
 41
0.0000000000000000
 71
     1
 72
     1
  1
{\H0.93x;使用シリンダ}
 11
1.000000000000000
 21
0.0000000000000000
 31
0.0000000000000000
  7
KNJYOKO
  0
MTEXT
  5
230
100
AcDbEntity
  8
MAIN0
  6
BYBLOCK
 62
0
100
AcDbMText
 10
669.8110175954067
 20
203.2726599048217
 30
0.0000000000000000
 40
5.999999046325684
 41
0.0000000000000000
 71
     1
 72
     1
  1
{\H0.93x;許容最大油圧力}
 11
1.000000000000000
 21
0.0000000000000000
 31
0.0000000000000000
  7
KNJYOKO
  0
MTEXT
  5
231
100
AcDbEntity
  8
MAIN0
  6
BYBLOCK
 62
0
100
AcDbMText
 10
817.6020805712460
 20
396.8214330017589
 30
0.0000000000000000
 40
6.999998092651367
 41
0.0000000000000000
 71
     1
 72
     1
  1
{\H0.58x;　　　　ｍｍ}
 11
1.000000000000000
 21
0.0000000000000000
 31
0.0000000000000000
  7
KNJYOKO
  0
MTEXT
  5
232
100
AcDbEntity
  8
MAIN0
  6
BYBLOCK
 62
0
100
AcDbMText
 10
817.6020805712460
 20
379.3214330017589
 30
0.0000000000000000
 40
6.999998092651367
 41
0.0000000000000000
 71
     1
 72
     1
  1
{\H0.58x;　　　　ｍｍ}
 11
1.000000000000000
 21
0.0000000000000000
 31
0.0000000000000000
  7
KNJYOKO
  0
MTEXT
  5
233
100
AcDbEntity
  8
MAIN0
  6
BYBLOCK
 62
0
100
AcDbMText
 10
817.6020805712460
 20
294.3214330017586
 30
0.0000000000000000
 40
6.999998092651367
 41
0.0000000000000000
 71
     1
 72
     1
  1
{\H0.58x;　　　　ｋｇ}
 11
1.000000000000000
 21
0.0000000000000000
 31
0.0000000000000000
  7
KNJYOKO
  0
MTEXT
  5
234
100
AcDbEntity
  8
MAIN0
  6
BYBLOCK
 62
0
100
AcDbMText
 10
817.6020805712460
 20
311.8214330017586
 30
0.0000000000000000
 40
6.999998092651367
 41
0.0000000000000000
 71
     1
 72
     1
  1
{\H0.58x;　　ｍｉｎ}
 11
1.000000000000000
 21
0.0000000000000000
 31
0.0000000000000000
  7
KNJYOKO
  0
MTEXT
  5
235
100
AcDbEntity
  8
MAIN0
  6
BYBLOCK
 62
0
100
AcDbMText
 10
729.7806823111690
 20
415.6104075218921
 30
0.0000000000000000
 40
7.750000953674316
 41
0.0000000000000000
 71
     1
 72
     1
  1
{\H0.93x;仕　　　様}
 11
1.000000000000000
 21
0.0000000000000000
 31
0.0000000000000000
  7
KNJYOKO
  0
MTEXT
  5
236
100
AcDbEntity
  8
MAIN0
  6
BYBLOCK
 62
0
100
AcDbMText
 10
815.1020805712460
 20
353.0714330017586
 30
0.0000000000000000
 40
6.999998092651367
 41
0.0000000000000000
 71
     1
 72
     1
  1
{\H0.60x;　　　ｋｇｆ)}
 11
1.000000000000000
 21
0.0000000000000000
 31
0.0000000000000000
  7
KNJYOKO
  0
MTEXT
  5
237
100
AcDbEntity
  8
MAIN0
  6
BYBLOCK
 62
0
100
AcDbMText
 10
785.1020805712460
 20
353.0714330017586
 30
0.0000000000000000
 40
6.999998092651367
 41
0.0000000000000000
 71
     1
 72
     1
  1
{\H0.60x;(}
 11
1.000000000000000
 21
0.0000000000000000
 31
0.0000000000000000
  7
STANDARD
  0
MTEXT
  5
238
100
AcDbEntity
  8
MAIN0
  6
BYBLOCK
 62
0
100
AcDbMText
 10
817.6020805712460
 20
363.0714330017589
 30
0.0000000000000000
 40
6.999998092651367
 41
0.0000000000000000
 71
     1
 72
     1
  1
{\H0.58x;　　　　ｋＮ}
 11
1.000000000000000
 21
0.0000000000000000
 31
0.0000000000000000
  7
KNJYOKO
  0
MTEXT
  5
239
100
AcDbEntity
  8
MAIN0
  6
BYBLOCK
 62
0
100
AcDbMText
 10
815.1020805712460
 20
328.0714330017586
 30
0.0000000000000000
 40
6.999998092651367
 41
0.0000000000000000
 71
     1
 72
     1
  1
{\H0.60x;　　　ｋｇｆ)}
 11
1.000000000000000
 21
0.0000000000000000
 31
0.0000000000000000
  7
KNJYOKO
  0
MTEXT
  5
23A
100
AcDbEntity
  8
MAIN0
  6
BYBLOCK
 62
0
100
AcDbMText
 10
785.1020805712460
 20
328.0714330017586
 30
0.0000000000000000
 40
6.999998092651367
 41
0.0000000000000000
 71
     1
 72
     1
  1
{\H0.60x;(}
 11
1.000000000000000
 21
0.0000000000000000
 31
0.0000000000000000
  7
STANDARD
  0
MTEXT
  5
23B
100
AcDbEntity
  8
MAIN0
  6
BYBLOCK
 62
0
100
AcDbMText
 10
817.0511858343966
 20
268.7484942169037
 30
0.0000000000000000
 40
6.999998092651367
 41
0.0000000000000000
 71
     7
 72
     1
  1
　　ｋｇ・ｍ
 11
1.000000000000000
 21
0.0000000000000000
 31
0.0000000000000000
  7
KNJYOKO
  0
MTEXT
  5
23C
100
AcDbEntity
  8
MAIN0
  6
BYBLOCK
 62
0
100
AcDbMText
 10
847.0511858343966
 20
272.2484932632294
 30
0.0000000000000000
 40
3.499999046325684
 41
0.0000000000000000
 71
     7
 72
     1
  1
2
 11
1.000000000000000
 21
0.0000000000000000
 31
0.0000000000000000
  7
STANDARD
  0
MTEXT
  5
23D
100
AcDbEntity
  8
MAIN0
  6
BYBLOCK
 62
0
100
AcDbMText
 10
815.1020805712460
 20
243.0714330017586
 30
0.0000000000000000
 40
6.999998092651367
 41
0.0000000000000000
 71
     1
 72
     1
  1
{\H0.60x;　　　ｋｇｆ)}
 11
1.000000000000000
 21
0.0000000000000000
 31
0.0000000000000000
  7
KNJYOKO
  0
MTEXT
  5
23E
100
AcDbEntity
  8
MAIN0
  6
BYBLOCK
 62
0
100
AcDbMText
 10
785.1020805712460
 20
243.0714330017586
 30
0.0000000000000000
 40
6.999998092651367
 41
0.0000000000000000
 71
     1
 72
     1
  1
{\H0.60x;(}
 11
1.000000000000000
 21
0.0000000000000000
 31
0.0000000000000000
  7
STANDARD
  0
MTEXT
  5
23F
100
AcDbEntity
  8
MAIN0
  6
BYBLOCK
 62
0
100
AcDbMText
 10
815.1020805712460
 20
200.5714330017582
 30
0.0000000000000000
 40
6.999998092651367
 41
0.0000000000000000
 71
     1
 72
     1
  1
{\H0.62x;ｋｇｆ／ｃｍ )}
 11
1.000000000000000
 21
0.0000000000000000
 31
0.0000000000000000
  7
KNJYOKO
  0
MTEXT
  5
240
100
AcDbEntity
  8
MAIN0
  6
BYBLOCK
 62
0
100
AcDbMText
 10
845.2353201546603
 20
201.5974449796631
 30
0.0000000000000000
 40
5.000000000000000
 41
0.0000000000000000
 71
     1
 72
     1
  1
{\H0.81x;2}
 11
1.000000000000000
 21
0.0000000000000000
 31
0.0000000000000000
  7
STANDARD
  0
MTEXT
  5
241
100
AcDbEntity
  8
MAIN0
  6
BYBLOCK
 62
0
100
AcDbMText
 10
785.1020805712460
 20
200.5714330017582
 30
0.0000000000000000
 40
6.999998092651367
 41
0.0000000000000000
 71
     1
 72
     1
  1
{\H0.60x;(}
 11
1.000000000000000
 21
0.0000000000000000
 31
0.0000000000000000
  7
STANDARD
  0
MTEXT
  5
242
100
AcDbEntity
  8
MAIN0
  6
BYBLOCK
 62
0
100
AcDbMText
 10
817.6020805712460
 20
210.5714330017582
 30
0.0000000000000000
 40
6.999998092651367
 41
0.0000000000000000
 71
     1
 72
     1
  1
{\H0.58x;　　　ＭＰａ}
 11
1.000000000000000
 21
0.0000000000000000
 31
0.0000000000000000
  7
KNJYOKO
  0
MTEXT
  5
243
100
AcDbEntity
  8
MAIN0
  6
BYBLOCK
 62
0
100
AcDbMText
 10
817.6020805712460
 20
338.0714330017586
 30
0.0000000000000000
 40
6.999998092651367
 41
0.0000000000000000
 71
     1
 72
     1
  1
{\H0.58x;　　　　ｋＮ}
 11
1.000000000000000
 21
0.0000000000000000
 31
0.0000000000000000
  7
KNJYOKO
  0
MTEXT
  5
244
100
AcDbEntity
  8
MAIN0
  6
BYBLOCK
 62
0
100
AcDbMText
 10
817.6020805712460
 20
253.0714330017586
 30
0.0000000000000000
 40
6.999998092651367
 41
0.0000000000000000
 71
     1
 72
     1
  1
{\H0.58x;　　　　ｋＮ}
 11
1.000000000000000
 21
0.0000000000000000
 31
0.0000000000000000
  7
KNJYOKO
  0
MTEXT
  5
245
100
AcDbEntity
  8
MAIN0
  6
BYBLOCK
 62
0
100
AcDbMText
 10
842.9887511920458
 20
313.4952943839955
 30
0.0000000000000000
 40
5.000000000000000
 41
0.0000000000000000
 71
     1
 72
     1
  1
{\H0.88x;-1}
 11
1.000000000000000
 21
0.0000000000000000
 31
0.0000000000000000
  7
STANDARD
  0
MTEXT
  5
246
100
AcDbEntity
  8
MAIN0
  6
BYBLOCK
 62
0
100
AcDbMText
 10
670.2858517065340
 20
403.2296696286168
 30
0.0000000000000000
 40
6.249997615814209
 41
0.0000000000000000
 71
     1
 72
     1
  1
{\H0.75x;PLUNGER STROKE}
 11
1.000000000000000
 21
0.0000000000000000
 31
0.0000000000000000
  7
STANDARD
  0
MTEXT
  5
247
100
AcDbEntity
  8
MAIN0
  6
BYBLOCK
 62
0
100
AcDbMText
 10
670.2858517065340
 20
385.7296696286173
 30
0.0000000000000000
 40
6.249997615814209
 41
0.0000000000000000
 71
     1
 72
     1
  1
{\H0.75x;JAW STROKE (IN DIA)}
 11
1.000000000000000
 21
0.0000000000000000
 31
0.0000000000000000
  7
STANDARD
  0
MTEXT
  5
248
100
AcDbEntity
  8
MAIN0
  6
BYBLOCK
 62
0
100
AcDbMText
 10
670.2858517065340
 20
363.2296720128031
 30
0.0000000000000000
 40
6.250000000000000
 41
0.0000000000000000
 71
     1
 72
     1
  1
{\H0.63x;MAX PERMISSIBLE INPUT FORCE}
 11
1.000000000000000
 21
0.0000000000000000
 31
0.0000000000000000
  7
STANDARD
  0
MTEXT
  5
249
100
AcDbEntity
  8
MAIN0
  6
BYBLOCK
 62
0
100
AcDbMText
 10
670.2858517065340
 20
343.2296720128028
 30
0.0000000000000000
 40
6.250000000000000
 41
0.0000000000000000
 71
     1
 72
     1
  1
{\H0.63x;MAX STATIC GRIPPING FORCE}
 11
1.000000000000000
 21
0.0000000000000000
 31
0.0000000000000000
  7
STANDARD
  0
MTEXT
  5
24A
100
AcDbEntity
  8
MAIN0
  6
BYBLOCK
 62
0
100
AcDbMText
 10
670.2858517065340
 20
318.2296696286171
 30
0.0000000000000000
 40
6.249997615814209
 41
0.0000000000000000
 71
     1
 72
     1
  1
{\H0.75x;MAX PERMISSIBLE SPEED}
 11
1.000000000000000
 21
0.0000000000000000
 31
0.0000000000000000
  7
STANDARD
  0
MTEXT
  5
24B
100
AcDbEntity
  8
MAIN0
  6
BYBLOCK
 62
0
100
AcDbMText
 10
670.2858517065339
 20
300.7296696286171
 30
0.0000000000000000
 40
6.249997615814209
 41
0.0000000000000000
 71
     1
 72
     1
  1
{\H0.73x;MASS}
 11
1.000000000000000
 21
0.0000000000000000
 31
0.0000000000000000
  7
STANDARD
  0
MTEXT
  5
24C
100
AcDbEntity
  8
MAIN0
  6
BYBLOCK
 62
0
100
AcDbMText
 10
670.4709409357929
 20
234.5389358960494
 30
0.0000000000000000
 40
6.249997615814209
 41
0.0000000000000000
 71
     1
 72
     1
  1
{\H0.75x;OPERATING CYLINDER}
 11
1.000000000000000
 21
0.0000000000000000
 31
0.0000000000000000
  7
STANDARD
  0
MTEXT
  5
24D
100
AcDbEntity
  8
MAIN0
  6
BYBLOCK
 62
0
100
AcDbMText
 10
669.4810559252136
 20
212.4315881927374
 30
0.0000000000000000
 40
6.250000000000000
 41
0.0000000000000000
 71
     1
 72
     1
  1
{\H0.63x;MAX PERMISSIBLE OIL PRESS}
 11
1.000000000000000
 21
0.0000000000000000
 31
0.0000000000000000
  7
STANDARD
  0
MTEXT
  5
24E
100
AcDbEntity
  8
MAIN0
  6
BYBLOCK
 62
0
100
AcDbMText
 10
670.1409792655999
 20
256.9762437444306
 30
0.0000000000000000
 40
6.250000000000000
 41
0.0000000000000000
 71
     1
 72
     1
  1
{\H0.63x;DYNAMIC GRIPPING FORCE}
 11
1.000000000000000
 21
0.0000000000000000
 31
0.0000000000000000
  7
STANDARD
  0
MTEXT
  5
24F
100
AcDbEntity
  8
MAIN0
  6
BYBLOCK
 62
0
100
AcDbMText
 10
647.1738944366895
 20
250.2668102636513
 30
0.0000000000000000
 40
6.249997615814209
 41
0.0000000000000000
 71
     1
 72
     1
  1
{\H0.75x;            AT MAX SPEED}
 11
1.000000000000000
 21
0.0000000000000000
 31
0.0000000000000000
  7
STANDARD
  0
MTEXT
  5
250
100
AcDbEntity
  8
MAIN0
  6
BYBLOCK
 62
0
100
AcDbMText
 10
705.2726995886103
 20
425.7217462905629
 30
0.0000000000000000
 40
7.750000953674316
 41
0.0000000000000000
 71
     1
 72
     1
  1
{\H0.94x;SPECIFICATIONS}
 11
1.000000000000000
 21
0.0000000000000000
 31
0.0000000000000000
  7
STANDARD
  0
ENDBLK
  5
251
100
AcDbEntity
  8
MAIN0
  6
BYBLOCK
 62
3
100
AcDbBlockEnd
  0
BLOCK
  5
253
100
AcDbEntity
  8
MAIN0
  6
BYBLOCK
 62
3
100
AcDbBlockBegin
  2
M2
 70
    64
 10
0.0
 20
0.0
 30
0.0
  0
MTEXT
  5
254
100
AcDbEntity
  8
MAIN0
  6
BYBLOCK
 62
0
100
AcDbMText
 10
604.5710242788115
 20
124.3640481607596
 30
0.0000000000000000
 40
7.749999761581421
 41
0.0000000000000000
 71
     1
 72
     1
  3
{\H0.93x;ABOVE SPECS : WITH STD SOFT BLANK TOP JAWS\P              AT MAX PERMISSBLE INPUT FORCE.\P              MAX. STATIC GRIPPING FORCE AND\P              MAX. PERMISSIBLE SPEED ARE\P              ACTUAL VALUE AT 1/2 HEIGHT\P              OF STD 
  1
SOFT BLANK TOP JAWS\P              FROM CHUCK SURFACE.}
 11
1.000000000000000
 21
0.0000000000000000
 31
0.0000000000000000
  7
STANDARD
  0
ENDBLK
  5
255
100
AcDbEntity
  8
MAIN0
  6
BYBLOCK
 62
3
100
AcDbBlockEnd
  0
ENDSEC
  0
SECTION
  2
ENTITIES
  0
LINE
  5
46
100
AcDbEntity
  8
MAIN0
  6
CONTINUOUS
 62
3
100
AcDbLine
 10
511.3254355222657
 20
317.5395814934755
 30
0.0000000000000000
 11
511.3254355222657
 21
303.4311212226612
 31
0.0000000000000000
  0
LINE
  5
47
100
AcDbEntity
  8
MAIN0
  6
CONTINUOUS
 62
3
100
AcDbLine
 10
511.3254355222657
 20
238.4311212226612
 30
0.0000000000000000
 11
511.3254355222657
 21
224.7470905947530
 31
0.0000000000000000
  0
LINE
  5
48
100
AcDbEntity
  8
MAIN0
  6
CONTINUOUS
 62
3
100
AcDbLine
 10
514.3254355222659
 20
926.9911889829571
 30
0.0000000000000000
 11
520.3254355222659
 21
926.9911889829571
 31
0.0000000000000000
  0
LINE
  5
49
100
AcDbEntity
  8
MAIN0
  6
CONTINUOUS
 62
3
100
AcDbLine
 10
514.3254355222659
 20
880.9911889829571
 30
0.0000000000000000
 11
520.3254355222659
 21
880.9911889829571
 31
0.0000000000000000
  0
LINE
  5
4A
100
AcDbEntity
  8
MAIN0
  6
CONTINUOUS
 62
3
100
AcDbLine
 10
514.3254355222659
 20
941.3364884445776
 30
0.0000000000000000
 11
512.3254355222658
 21
942.4911889829568
 31
0.0000000000000000
  0
LINE
  5
4B
100
AcDbEntity
  8
MAIN0
  6
CONTINUOUS
 62
3
100
AcDbLine
 10
514.3254355222659
 20
943.9911889829569
 30
0.0000000000000000
 11
512.3254355222659
 21
942.4911889829568
 31
0.0000000000000000
  0
LINE
  5
4C
100
AcDbEntity
  8
MAIN0
  6
CONTINUOUS
 62
3
100
AcDbLine
 10
514.3254355222659
 20
763.9911889829569
 30
0.0000000000000000
 11
512.3254355222659
 21
765.4911889829571
 31
0.0000000000000000
  0
LINE
  5
4D
100
AcDbEntity
  8
MAIN0
  6
CONTINUOUS
 62
3
100
AcDbLine
 10
514.3254355222658
 20
766.6458895213364
 30
0.0000000000000000
 11
512.3254355222658
 21
765.4911889829572
 31
0.0000000000000000
  0
LINE
  5
4E
100
AcDbEntity
  8
MAIN0
  6
CONTINUOUS
 62
3
100
AcDbLine
 10
1275.340116717572
 20
558.8165065302627
 30
0.0000000000000000
 11
1122.053620247728
 21
647.3165065302619
 31
0.0000000000000000
  0
LINE
  5
4F
100
AcDbEntity
  8
MAIN0
  6
CONTINUOUS
 62
3
100
AcDbLine
 10
1262.840116717572
 20
537.1658714356519
 30
0.0000000000000000
 11
1109.553620247728
 21
625.6658714356511
 31
0.0000000000000000
  0
LINE
  5
50
100
AcDbEntity
  8
MAIN0
  6
CONTINUOUS
 62
3
100
AcDbLine
 10
1252.840116717572
 20
519.8453633599629
 30
0.0000000000000000
 11
1285.340116717568
 21
576.1370146059435
 31
0.0000000000000000
  0
LINE
  5
51
100
AcDbEntity
  8
MAIN0
  6
CONTINUOUS
 62
3
100
AcDbLine
 10
1099.553620247726
 20
608.3453633599631
 30
0.0000000000000000
 11
1109.553620247726
 21
625.6658714356521
 31
0.0000000000000000
  0
LINE
  5
52
100
AcDbEntity
  8
MAIN0
  6
CONTINUOUS
 62
3
100
AcDbLine
 10
1122.053620247726
 20
647.3165065302608
 30
0.0000000000000000
 11
1132.053620247727
 21
664.6370146059494
 31
0.0000000000000000
  0
LINE
  5
53
100
AcDbEntity
  8
MAIN0
  6
CENTER
 62
12
100
AcDbLine
 10
1196.159491050031
 20
618.6716398989889
 30
0.0000000000000000
 11
1171.777460497589
 21
576.4407241904632
 31
0.0000000000000000
  0
LINE
  5
54
100
AcDbEntity
  8
MAIN0
  6
CONTINUOUS
 62
3
100
AcDbLine
 10
966.1255629603163
 20
720.2411889829567
 30
0.0000000000000000
 11
964.9708624219371
 21
722.2411889829566
 31
0.0000000000000000
  0
LINE
  5
55
100
AcDbEntity
  8
MAIN0
  6
CONTINUOUS
 62
3
100
AcDbLine
 10
968.4349640370740
 20
724.2411889829569
 30
0.0000000000000000
 11
966.1255629603140
 21
724.2411889829569
 31
0.0000000000000000
  0
LINE
  5
56
100
AcDbEntity
  8
MAIN0
  6
CONTINUOUS
 62
3
100
AcDbLine
 10
964.9708624219361
 20
722.2411889829579
 30
0.0000000000000000
 11
966.1255629603143
 21
724.2411889829560
 31
0.0000000000000000
  0
LINE
  5
57
100
AcDbEntity
  8
MAIN0
  6
CONTINUOUS
 62
3
100
AcDbLine
 10
969.5896645754542
 20
722.2411889829567
 30
0.0000000000000000
 11
968.4349640370751
 21
724.2411889829566
 31
0.0000000000000000
  0
LINE
  5
58
100
AcDbEntity
  8
MAIN0
  6
CONTINUOUS
 62
3
100
AcDbLine
 10
968.4349640370739
 20
720.2411889829571
 30
0.0000000000000000
 11
966.1255629603139
 21
720.2411889829571
 31
0.0000000000000000
  0
LINE
  5
59
100
AcDbEntity
  8
MAIN0
  6
CONTINUOUS
 62
3
100
AcDbLine
 10
969.5896645754538
 20
722.2411889829558
 30
0.0000000000000000
 11
968.4349640370738
 21
720.2411889829546
 31
0.0000000000000000
  0
LINE
  5
5A
100
AcDbEntity
  8
MAIN0
  6
CONTINUOUS
 62
3
100
AcDbLine
 10
1043.634836599023
 20
593.9911889829581
 30
0.0000000000000000
 11
1042.480136060644
 21
591.9911889829582
 31
0.0000000000000000
  0
LINE
  5
5B
100
AcDbEntity
  8
MAIN0
  6
CONTINUOUS
 62
3
100
AcDbLine
 10
1039.016034445507
 20
593.9911889829591
 30
0.0000000000000000
 11
1040.170734983886
 21
591.9911889829579
 31
0.0000000000000000
  0
LINE
  5
5C
100
AcDbEntity
  8
MAIN0
  6
CONTINUOUS
 62
3
100
AcDbLine
 10
1042.480136060644
 20
591.9911889829574
 30
0.0000000000000000
 11
1040.170734983886
 21
591.9911889829574
 31
0.0000000000000000
  0
LINE
  5
5D
100
AcDbEntity
  8
MAIN0
  6
CONTINUOUS
 62
3
100
AcDbLine
 10
1040.170734983887
 20
595.9911889829573
 30
0.0000000000000000
 11
1039.016034445508
 21
593.9911889829574
 31
0.0000000000000000
  0
LINE
  5
5E
100
AcDbEntity
  8
MAIN0
  6
CONTINUOUS
 62
3
100
AcDbLine
 10
1042.480136060643
 20
595.9911889829573
 30
0.0000000000000000
 11
1043.634836599021
 21
593.9911889829592
 31
0.0000000000000000
  0
LINE
  5
5F
100
AcDbEntity
  8
MAIN0
  6
CONTINUOUS
 62
3
100
AcDbLine
 10
1040.170734983885
 20
595.9911889829573
 30
0.0000000000000000
 11
1042.480136060645
 21
595.9911889829573
 31
0.0000000000000000
  0
LINE
  5
60
100
AcDbEntity
  8
MAIN0
  6
CENTER
 62
12
100
AcDbLine
 10
859.9722498024705
 20
544.6041207641181
 30
0.0000000000000000
 11
834.8822045170575
 21
588.0613539626575
 31
0.0000000000000000
  0
LINE
  5
61
100
AcDbEntity
  8
MAIN0
  6
CENTER
 62
12
100
AcDbLine
 10
1248.817656101683
 20
589.8782572017985
 30
0.0000000000000000
 11
1223.727610816269
 21
546.4210240032577
 31
0.0000000000000000
  0
LINE
  5
62
100
AcDbEntity
  8
MAIN0
  6
CENTER
 62
12
100
AcDbLine
 10
385.0716990009220
 20
593.7661889829575
 30
0.0000000000000000
 11
415.5597923554838
 21
593.7661889829575
 31
0.0000000000000000
  0
LINE
  5
63
100
AcDbEntity
  8
MAIN0
  6
CENTER
 62
12
100
AcDbLine
 10
359.3369257101339
 20
514.3911889829574
 30
0.0000000000000000
 11
524.9325345848805
 21
514.3911889829574
 31
0.0000000000000000
  0
LINE
  5
64
100
AcDbEntity
  8
MAIN0
  6
CENTER
 62
12
100
AcDbLine
 10
380.2022500048244
 20
454.4911889829575
 30
0.0000000000000000
 11
479.5358584657731
 21
454.4911889829575
 31
0.0000000000000000
  0
LINE
  5
65
100
AcDbEntity
  8
MAIN0
  6
CONTINUOUS
 62
3
100
AcDbLine
 10
386.3254355222659
 20
479.4911889829575
 30
0.0000000000000000
 11
456.3254355222655
 21
479.4911889829575
 31
0.0000000000000000
  0
LINE
  5
66
100
AcDbEntity
  8
MAIN0
  6
CONTINUOUS
 62
3
100
AcDbLine
 10
386.3254355222659
 20
429.4911889829575
 30
0.0000000000000000
 11
456.3254355222653
 21
429.4911889829575
 31
0.0000000000000000
  0
LINE
  5
67
100
AcDbEntity
  8
MAIN0
  6
CONTINUOUS
 62
3
100
AcDbLine
 10
456.3254355222659
 20
429.4911889829576
 30
0.0000000000000000
 11
456.3254355222659
 21
479.4911889829576
 31
0.0000000000000000
  0
LINE
  5
68
100
AcDbEntity
  8
MAIN0
  6
CONTINUOUS
 62
3
100
AcDbLine
 10
456.3254355222661
 20
479.4911889829564
 30
0.0000000000000000
 11
470.7591922520059
 21
454.4911889829576
 31
0.0000000000000000
  0
LINE
  5
69
100
AcDbEntity
  8
MAIN0
  6
CONTINUOUS
 62
3
100
AcDbLine
 10
456.3254355222658
 20
429.4911889829588
 30
0.0000000000000000
 11
470.7591922520059
 21
454.4911889829576
 31
0.0000000000000000
  0
LINE
  5
6A
100
AcDbEntity
  8
MAIN0
  6
CONTINUOUS
 62
3
100
AcDbLine
 10
392.3254355222659
 20
581.2661889829576
 30
0.0000000000000000
 11
410.3254355222659
 21
581.2661889829576
 31
0.0000000000000000
  0
LINE
  5
6B
100
AcDbEntity
  8
MAIN0
  6
CONTINUOUS
 62
3
100
AcDbLine
 10
392.3254355222660
 20
577.9911889829575
 30
0.0000000000000000
 11
414.3254355222658
 21
577.9911889829575
 31
0.0000000000000000
  0
LINE
  5
6C
100
AcDbEntity
  8
MAIN0
  6
CONTINUOUS
 62
3
100
AcDbLine
 10
392.3254355222659
 20
545.9911889829576
 30
0.0000000000000000
 11
414.3254355222658
 21
545.9911889829576
 31
0.0000000000000000
  0
LINE
  5
6D
100
AcDbEntity
  8
MAIN0
  6
CONTINUOUS
 62
3
100
AcDbLine
 10
414.3254355222658
 20
545.9911889829576
 30
0.0000000000000000
 11
414.3254355222658
 21
577.9911889829575
 31
0.0000000000000000
  0
LINE
  5
6E
100
AcDbEntity
  8
MAIN0
  6
CONTINUOUS
 62
3
100
AcDbLine
 10
414.3254355222657
 20
545.9911889829575
 30
0.0000000000000000
 11
423.5630398292997
 21
561.9911889829575
 31
0.0000000000000000
  0
LINE
  5
6F
100
AcDbEntity
  8
MAIN0
  6
CONTINUOUS
 62
3
100
AcDbLine
 10
414.3254355222655
 20
577.9911889829576
 30
0.0000000000000000
 11
423.5630398292995
 21
561.9911889829576
 31
0.0000000000000000
  0
LINE
  5
70
100
AcDbEntity
  8
MAIN0
  6
CONTINUOUS
 62
3
100
AcDbLine
 10
481.3254355222659
 20
532.3911889829575
 30
0.0000000000000000
 11
511.3254355222658
 21
532.3911889829575
 31
0.0000000000000000
  0
LINE
  5
71
100
AcDbEntity
  8
MAIN0
  6
CONTINUOUS
 62
3
100
AcDbLine
 10
481.3254355222659
 20
496.3911889829574
 30
0.0000000000000000
 11
511.3254355222658
 21
496.3911889829574
 31
0.0000000000000000
  0
LINE
  5
72
100
AcDbEntity
  8
MAIN0
  6
CONTINUOUS
 62
3
100
AcDbLine
 10
481.3254355222659
 20
532.3911889829575
 30
0.0000000000000000
 11
481.3254355222659
 21
496.3911889829574
 31
0.0000000000000000
  0
LINE
  5
73
100
AcDbEntity
  8
MAIN0
  6
CONTINUOUS
 62
3
100
AcDbLine
 10
392.3254355222658
 20
526.3911889829574
 30
0.0000000000000000
 11
481.3254355222659
 21
526.3911889829574
 31
0.0000000000000000
  0
LINE
  5
74
100
AcDbEntity
  8
MAIN0
  6
CONTINUOUS
 62
3
100
AcDbLine
 10
481.3254355222659
 20
502.3911889829575
 30
0.0000000000000000
 11
392.3254355222658
 21
502.3911889829575
 31
0.0000000000000000
  0
LINE
  5
75
100
AcDbEntity
  8
MAIN0
  6
CENTER
 62
12
100
AcDbLine
 10
944.6412207157894
 20
512.0292166482400
 30
0.0000000000000000
 11
970.5323426431421
 21
556.8739552913759
 31
0.0000000000000000
  0
LINE
  5
76
100
AcDbEntity
  8
MAIN0
  6
CENTER
 62
12
100
AcDbLine
 10
1110.180556961756
 20
798.7517576774827
 30
0.0000000000000000
 11
1135.145630035376
 21
841.9925326556612
 31
0.0000000000000000
  0
LINE
  5
77
100
AcDbEntity
  8
MAIN0
  6
CENTER
 62
12
100
AcDbLine
 10
1140.132998328300
 20
508.3514700308473
 30
0.0000000000000000
 11
1109.846151893390
 21
560.8098268571483
 31
0.0000000000000000
  0
LINE
  5
78
100
AcDbEntity
  8
MAIN0
  6
CENTER
 62
12
100
AcDbLine
 10
946.3850137317422
 20
843.9328232161595
 30
0.0000000000000000
 11
971.4852386154082
 21
800.4579584362448
 31
0.0000000000000000
  0
LINE
  5
79
100
AcDbEntity
  8
MAIN0
  6
CONTINUOUS
 62
12
100
AcDbLine
 10
395.3254355222661
 20
709.7411889829571
 30
0.0000000000000000
 11
405.3254355222655
 21
709.7411889829571
 31
0.0000000000000000
  0
LINE
  5
7A
100
AcDbEntity
  8
MAIN0
  6
CONTINUOUS
 62
12
100
AcDbLine
 10
405.3254355222654
 20
709.7411889829572
 30
0.0000000000000000
 11
407.4904990317264
 21
708.4911889829573
 31
0.0000000000000000
  0
LINE
  5
7B
100
AcDbEntity
  8
MAIN0
  6
CONTINUOUS
 62
12
100
AcDbLine
 10
407.4904990317262
 20
650.4911889829571
 30
0.0000000000000000
 11
405.3254355222653
 21
649.2411889829572
 31
0.0000000000000000
  0
LINE
  5
7C
100
AcDbEntity
  8
MAIN0
  6
CONTINUOUS
 62
3
100
AcDbLine
 10
396.3254355222661
 20
718.4911889829572
 30
0.0000000000000000
 11
395.3254355222661
 21
717.4911889829572
 31
0.0000000000000000
  0
LINE
  5
7D
100
AcDbEntity
  8
MAIN0
  6
CONTINUOUS
 62
3
100
AcDbLine
 10
396.3254355222661
 20
640.4911889829574
 30
0.0000000000000000
 11
395.3254355222661
 21
641.4911889829574
 31
0.0000000000000000
  0
LINE
  5
7E
100
AcDbEntity
  8
MAIN0
  6
CONTINUOUS
 62
3
100
AcDbLine
 10
395.3254355222659
 20
641.4911889829574
 30
0.0000000000000000
 11
395.3254355222660
 21
649.4911889829573
 31
0.0000000000000000
  0
LINE
  5
7F
100
AcDbEntity
  8
MAIN0
  6
CONTINUOUS
 62
3
100
AcDbLine
 10
395.3254355222660
 20
709.4911889829571
 30
0.0000000000000000
 11
395.3254355222660
 21
717.4911889829571
 31
0.0000000000000000
  0
LINE
  5
80
100
AcDbEntity
  8
MAIN0
  6
CONTINUOUS
 62
12
100
AcDbLine
 10
395.3254355222661
 20
649.2411889829573
 30
0.0000000000000000
 11
400.0754355222662
 21
649.2411889829573
 31
0.0000000000000000
  0
LINE
  5
81
100
AcDbEntity
  8
MAIN0
  6
CONTINUOUS
 62
3
100
AcDbLine
 10
403.5754355222659
 20
649.2411889829573
 30
0.0000000000000000
 11
405.3254355222655
 21
649.2411889829573
 31
0.0000000000000000
  0
LINE
  5
82
100
AcDbEntity
  8
MAIN0
  6
CENTER
 62
12
100
AcDbLine
 10
936.3116986691762
 20
933.0167767291573
 30
0.0000000000000000
 11
959.5847791915892
 21
876.8305900937462
 31
0.0000000000000000
  0
LINE
  5
83
100
AcDbEntity
  8
MAIN0
  6
CENTER
 62
12
100
AcDbLine
 10
1124.458262059470
 20
478.7907916784188
 30
0.0000000000000000
 11
1146.259303695916
 21
426.1584212858494
 31
0.0000000000000000
  0
LINE
  5
84
100
AcDbEntity
  8
MAIN0
  6
CONTINUOUS
 62
3
100
AcDbLine
 10
392.3254355222658
 20
489.4911889829573
 30
0.0000000000000000
 11
392.3254355222658
 21
504.7441889829575
 31
0.0000000000000000
  0
LINE
  5
85
100
AcDbEntity
  8
MAIN0
  6
CONTINUOUS
 62
3
100
AcDbLine
 10
392.3254355222658
 20
524.0381889829574
 30
0.0000000000000000
 11
392.3254355222658
 21
631.4411889829571
 31
0.0000000000000000
  0
LINE
  5
86
100
AcDbEntity
  8
MAIN0
  6
CENTER
 62
12
100
AcDbLine
 10
1041.325435522264
 20
397.8085416224430
 30
0.0000000000000000
 11
1041.325435522264
 21
953.8181142931944
 31
0.0000000000000000
  0
LINE
  5
87
100
AcDbEntity
  8
MAIN0
  6
CENTER
 62
12
100
AcDbLine
 10
1149.004734667685
 20
787.1704881283788
 30
0.0000000000000000
 11
1167.901038465219
 21
806.0667919259124
 31
0.0000000000000000
  0
LINE
  5
88
100
AcDbEntity
  8
MAIN0
  6
CENTER
 62
12
100
AcDbLine
 10
894.2327774279142
 20
718.9045479318860
 30
0.0000000000000000
 11
868.4199464028569
 21
725.8210751594112
 31
0.0000000000000000
  0
LINE
  5
89
100
AcDbEntity
  8
MAIN0
  6
CENTER
 62
12
100
AcDbLine
 10
1080.738794471192
 20
532.3985308886104
 30
0.0000000000000000
 11
1087.655321698718
 21
506.5856998635494
 31
0.0000000000000000
  0
LINE
  5
8A
100
AcDbEntity
  8
MAIN0
  6
CONTINUOUS
 62
3
100
AcDbLine
 10
511.3254355222658
 20
417.4911889829609
 30
0.0000000000000000
 11
511.3254355222659
 21
941.4911889829536
 31
0.0000000000000000
  0
LINE
  5
8B
100
AcDbEntity
  8
MAIN0
  6
CONTINUOUS
 62
3
100
AcDbLine
 10
413.3254355222662
 20
855.0911889829571
 30
0.0000000000000000
 11
418.3254355222661
 21
855.0911889829571
 31
0.0000000000000000
  0
LINE
  5
8C
100
AcDbEntity
  8
MAIN0
  6
CONTINUOUS
 62
3
100
AcDbLine
 10
413.3254355222661
 20
834.0911889829571
 30
0.0000000000000000
 11
418.3254355222660
 21
834.0911889829571
 31
0.0000000000000000
  0
LINE
  5
8D
100
AcDbEntity
  8
MAIN0
  6
CONTINUOUS
 62
3
100
AcDbLine
 10
418.3254355222660
 20
834.0911889829571
 30
0.0000000000000000
 11
418.3254355222661
 21
835.5911889829571
 31
0.0000000000000000
  0
LINE
  5
8E
100
AcDbEntity
  8
MAIN0
  6
CONTINUOUS
 62
3
100
AcDbLine
 10
418.3254355222661
 20
853.5911889829571
 30
0.0000000000000000
 11
418.3254355222660
 21
855.0911889829571
 31
0.0000000000000000
  0
ARC
  5
8F
100
AcDbEntity
  8
MAIN0
  6
CONTINUOUS
 62
3
100
AcDbCircle
 10
846.9027323726575
 20
567.2411889829580
 30
0.0000000000000000
 40
22.99999999999977
100
AcDbArc
 50
177.0792654719099
 51
242.9207345280892
  0
ARC
  5
90
100
AcDbEntity
  8
MAIN0
  6
CONTINUOUS
 62
3
100
AcDbCircle
 10
846.9027323726575
 20
567.2411889829580
 30
0.0000000000000000
 40
22.99999999999977
100
AcDbArc
 50
357.0792654719106
 51
422.9207345280896
  0
ARC
  5
91
100
AcDbEntity
  8
MAIN0
  6
CONTINUOUS
 62
3
100
AcDbCircle
 10
1183.786614444804
 20
597.2411889829571
 30
0.0000000000000000
 40
22.99999999999977
100
AcDbArc
 50
297.0792654719102
 51
362.9207345280892
  0
ARC
  5
92
100
AcDbEntity
  8
MAIN0
  6
CONTINUOUS
 62
3
100
AcDbCircle
 10
1183.786614444804
 20
597.2411889829571
 30
0.0000000000000000
 40
22.99999999999977
100
AcDbArc
 50
117.0792654719104
 51
182.9207345280893
  0
ARC
  5
93
100
AcDbEntity
  8
MAIN0
  6
CONTINUOUS
 62
3
100
AcDbCircle
 10
1235.748138671871
 20
567.2411889829571
 30
0.0000000000000000
 40
22.99999999999977
100
AcDbArc
 50
297.0792654719100
 51
362.9207345280892
  0
ARC
  5
94
100
AcDbEntity
  8
MAIN0
  6
CONTINUOUS
 62
3
100
AcDbCircle
 10
1235.748138671871
 20
567.2411889829571
 30
0.0000000000000000
 40
22.99999999999977
100
AcDbArc
 50
117.0792654719104
 51
182.9207345280897
  0
CIRCLE
  5
95
100
AcDbEntity
  8
MAIN0
  6
CONTINUOUS
 62
12
100
AcDbCircle
 10
1183.786614444804
 20
597.2411889829571
 30
0.0000000000000000
 40
9.999999999999998
  0
CIRCLE
  5
96
100
AcDbEntity
  8
MAIN0
  6
CONTINUOUS
 62
3
100
AcDbCircle
 10
1183.786614444804
 20
597.2411889829571
 30
0.0000000000000000
 40
8.749999999999996
  0
CIRCLE
  5
97
100
AcDbEntity
  8
MAIN0
  6
CONTINUOUS
 62
12
100
AcDbCircle
 10
1235.748138671871
 20
567.2411889829571
 30
0.0000000000000000
 40
9.999999999999998
  0
CIRCLE
  5
98
100
AcDbEntity
  8
MAIN0
  6
CONTINUOUS
 62
3
100
AcDbCircle
 10
1235.748138671871
 20
567.2411889829571
 30
0.0000000000000000
 40
8.749999999999996
  0
CIRCLE
  5
99
100
AcDbEntity
  8
MAIN0
  6
CONTINUOUS
 62
3
100
AcDbCircle
 10
967.2802634986936
 20
722.2411889829569
 30
0.0000000000000000
 40
5.249999999999996
  0
CIRCLE
  5
9A
100
AcDbEntity
  8
MAIN0
  6
CONTINUOUS
 62
3
100
AcDbCircle
 10
1041.325435522266
 20
593.9911889829573
 30
0.0000000000000000
 40
5.249999999999996
  0
CIRCLE
  5
9B
100
AcDbEntity
  8
MAIN0
  6
CONTINUOUS
 62
3
100
AcDbCircle
 10
1123.875435522265
 20
822.4719831477680
 30
0.0000000000000000
 40
12.00000000000000
  0
CIRCLE
  5
9C
100
AcDbEntity
  8
MAIN0
  6
CONTINUOUS
 62
3
100
AcDbCircle
 10
1123.875435522265
 20
822.4719831477680
 30
0.0000000000000000
 40
17.99999999999977
  0
CIRCLE
  5
9D
100
AcDbEntity
  8
MAIN0
  6
CONTINUOUS
 62
3
100
AcDbCircle
 10
1206.425435522265
 20
679.4911889829573
 30
0.0000000000000000
 40
12.00000000000000
  0
CIRCLE
  5
9E
100
AcDbEntity
  8
MAIN0
  6
CONTINUOUS
 62
3
100
AcDbCircle
 10
1206.425435522265
 20
679.4911889829573
 30
0.0000000000000000
 40
17.99999999999977
  0
CIRCLE
  5
9F
100
AcDbEntity
  8
MAIN0
  6
CONTINUOUS
 62
3
100
AcDbCircle
 10
1123.875435522265
 20
536.5103948181463
 30
0.0000000000000000
 40
12.00000000000000
  0
CIRCLE
  5
A0
100
AcDbEntity
  8
MAIN0
  6
CONTINUOUS
 62
3
100
AcDbCircle
 10
1123.875435522265
 20
536.5103948181463
 30
0.0000000000000000
 40
17.99999999999977
  0
CIRCLE
  5
A1
100
AcDbEntity
  8
MAIN0
  6
CONTINUOUS
 62
3
100
AcDbCircle
 10
958.7754355222630
 20
536.5103948181466
 30
0.0000000000000000
 40
12.00000000000000
  0
CIRCLE
  5
A2
100
AcDbEntity
  8
MAIN0
  6
CONTINUOUS
 62
3
100
AcDbCircle
 10
958.7754355222630
 20
536.5103948181466
 30
0.0000000000000000
 40
17.99999999999977
  0
CIRCLE
  5
A3
100
AcDbEntity
  8
MAIN0
  6
CONTINUOUS
 62
3
100
AcDbCircle
 10
876.2254355222638
 20
679.4911889829574
 30
0.0000000000000000
 40
12.00000000000000
  0
CIRCLE
  5
A4
100
AcDbEntity
  8
MAIN0
  6
CONTINUOUS
 62
3
100
AcDbCircle
 10
876.2254355222638
 20
679.4911889829574
 30
0.0000000000000000
 40
17.99999999999977
  0
CIRCLE
  5
A5
100
AcDbEntity
  8
MAIN0
  6
CONTINUOUS
 62
3
100
AcDbCircle
 10
958.7754355222630
 20
822.4719831477681
 30
0.0000000000000000
 40
12.00000000000000
  0
CIRCLE
  5
A6
100
AcDbEntity
  8
MAIN0
  6
CONTINUOUS
 62
3
100
AcDbCircle
 10
958.7754355222630
 20
822.4719831477681
 30
0.0000000000000000
 40
17.99999999999977
  0
ARC
  5
A7
100
AcDbEntity
  8
MAIN0
  6
CENTER
 62
12
100
AcDbCircle
 10
1041.325435522264
 20
679.4911889829573
 30
0.0000000000000000
 40
165.1000000000000
100
AcDbArc
 50
110.2412973163750
 51
139.1753778403781
  0
ARC
  5
A8
100
AcDbEntity
  8
MAIN0
  6
CENTER
 62
12
100
AcDbCircle
 10
1041.325435522264
 20
679.4911889829573
 30
0.0000000000000000
 40
165.1000000000000
100
AcDbArc
 50
160.7588754649113
 51
189.5147696958230
  0
ARC
  5
A9
100
AcDbEntity
  8
MAIN0
  6
CENTER
 62
12
100
AcDbCircle
 10
1041.325435522264
 20
679.4911889829573
 30
0.0000000000000000
 40
165.1000000000000
100
AcDbArc
 50
39.71925272174811
 51
68.00741471611852
  0
ARC
  5
AA
100
AcDbEntity
  8
MAIN0
  6
CENTER
 62
12
100
AcDbCircle
 10
1041.325435522264
 20
679.4911889829573
 30
0.0000000000000000
 40
165.1000000000000
100
AcDbArc
 50
346.8110583056404
 51
381.2423915706111
  0
ARC
  5
AB
100
AcDbEntity
  8
MAIN0
  6
CENTER
 62
12
100
AcDbCircle
 10
1041.325435522264
 20
679.4911889829573
 30
0.0000000000000000
 40
165.1000000000000
100
AcDbArc
 50
230.2508445384417
 51
258.9440690539250
  0
ARC
  5
AC
100
AcDbEntity
  8
MAIN0
  6
CENTER
 62
12
100
AcDbCircle
 10
1041.325435522264
 20
679.4911889829573
 30
0.0000000000000000
 40
165.1000000000000
100
AcDbArc
 50
280.9243536592186
 51
308.6927509071535
  0
ARC
  5
AD
100
AcDbEntity
  8
MAIN0
  6
CONTINUOUS
 62
3
100
AcDbCircle
 10
1041.325435522264
 20
679.4911889829573
 30
0.0000000000000000
 40
120.0000000000000
100
AcDbArc
 50
225.7138609880015
 51
314.2861389519914
  0
ARC
  5
AE
100
AcDbEntity
  8
MAIN0
  6
CONTINUOUS
 62
3
100
AcDbCircle
 10
1041.325435522264
 20
679.4911889829573
 30
0.0000000000000000
 40
120.0000000000000
100
AcDbArc
 50
105.7138610480077
 51
194.2861389519915
  0
MTEXT
  5
AF
100
AcDbEntity
  8
MAIN0
  6
CONTINUOUS
 62
4
100
AcDbMText
 10
622.4509213822324
 20
707.0324700951073
 30
0.0000000000000000
 40
7.749999761581421
 41
0.0000000000000000
 71
     1
 72
     1
  1
{\H0.70x;{MIN 78}}
 11
6.123233995736766e-017
 21
1.000000000000000
 31
0.0000000000000000
  7
STANDARD
  0
MTEXT
  5
B0
100
AcDbEntity
  8
MAIN0
  6
CONTINUOUS
 62
4
100
AcDbMText
 10
555.7132525761593
 20
254.2302423367788
 30
0.0000000000000000
 40
7.749999761581421
 41
0.0000000000000000
 71
     1
 72
     1
  1
{\H0.70x;{Ｈ８／ｈ８}}
 11
6.123233995736766e-017
 21
1.000000000000000
 31
0.0000000000000000
  7
KNJYOKO
  0
MTEXT
  5
B1
100
AcDbEntity
  8
MAIN0
  6
CONTINUOUS
 62
4
100
AcDbMText
 10
393.4222544827279
 20
617.8434793837783
 30
0.0000000000000000
 40
7.749999761581421
 41
0.0000000000000000
 71
     1
 72
     1
  1
{\H0.70x;{ストロ―ク\PSTROKE}}
 11
1.000000000000000
 21
0.0000000000000000
 31
0.0000000000000000
  7
KNJYOKO
  0
MTEXT
  5
B2
100
AcDbEntity
  8
MAIN0
  6
CONTINUOUS
 62
4
100
AcDbMText
 10
623.3386893769629
 20
783.9131736975676
 30
0.0000000000000000
 40
7.749999761581421
 41
0.0000000000000000
 71
     1
 72
     1
  1
{\H0.70x;{MIN 27.5}}
 11
6.123233995736766e-017
 21
1.000000000000000
 31
0.0000000000000000
  7
STANDARD
  0
MTEXT
  5
B3
100
AcDbEntity
  8
MAIN0
  6
CONTINUOUS
 62
4
100
AcDbMText
 10
345.5409112438224
 20
767.7021231736909
 30
0.0000000000000000
 40
7.749999761581421
 41
0.0000000000000000
 71
     1
 72
     1
  1
{\H0.70x;{MAX 97}}
 11
1.000000000000000
 21
0.0000000000000000
 31
0.0000000000000000
  7
STANDARD
  0
SPLINE
  5
B4
100
AcDbEntity
  8
MAIN0
  6
CONTINUOUS
 62
12
100
AcDbSpline
210
0.0000000000000000
220
0.0000000000000000
230
1.000000000000000
 70
     8
 71
     3
 72
    19
 73
    15
 74
     0
 42
1.000000000000000e-007
 43
1.000000000000000e-007
 12
-1.007772561642128
 22
0.01982493714544376
 32
0.0000000000000000
 13
-0.8553373450408657
 23
0.5198123431995043
 33
0.0000000000000000
 40
0.0000000000000000
 40
0.0000000000000000
 40
0.0000000000000000
 40
0.0000000000000000
 40
10.32114087097522
 40
32.32083410314181
 40
56.70753295542056
 40
73.52627201304853
 40
101.3690633904341
 40
136.2848713643980
 40
160.1276880837940
 40
189.8871621564970
 40
218.2915869985467
 40
250.1417955434925
 40
271.1028925381397
 40
282.4103552964152
 40
282.4103552964152
 40
282.4103552964152
 40
282.4103552964152
 10
501.9385634201722
 20
697.2980655668430
 30
0.0000000000000000
 10
498.4714425619682
 20
697.3662708898551
 30
0.0000000000000000
 10
487.6140926357905
 20
697.5798570580491
 30
0.0000000000000000
 10
470.2846120644711
 20
705.4127380144528
 30
0.0000000000000000
 10
446.6748577630443
 20
703.4317988590728
 30
0.0000000000000000
 10
433.1897143858034
 20
725.3937235623963
 30
0.0000000000000000
 10
435.4203642436912
 20
752.1598671225117
 30
0.0000000000000000
 10
438.3843377923681
 20
781.4771543436029
 30
0.0000000000000000
 10
425.8542543319674
 20
809.2988073427357
 30
0.0000000000000000
 10
430.0445191522125
 20
837.0602051364224
 30
0.0000000000000000
 10
435.6545617668893
 20
866.9188040873385
 30
0.0000000000000000
 10
419.9539738080759
 20
893.8037717532749
 30
0.0000000000000000
 10
398.8594838069700
 20
899.7864380838337
 30
0.0000000000000000
 10
389.6593157311829
 20
905.3776366361143
 30
0.0000000000000000
 10
386.4354173395790
 20
907.3368895401210
 30
0.0000000000000000
  0
DIMENSION
  5
BD
100
AcDbEntity
  8
MAIN10
  6
CONTINUOUS
 62
3
100
AcDbDimension
  2
*D0
 10
161.3254355222659
 20
944.4911889829536
 30
0.0000000000000000
 11
160.8254355222659
 21
679.4911889829573
 31
0.0000000000000000
 70
32
  1
\A1;\U+2205530
  3
MAIN001
100
AcDbAlignedDimension
 13
389.3254355222658
 23
414.4911889829609
 33
0.0000000000000000
 14
389.3254355222660
 24
944.4911889829536
 34
0.0000000000000000
 50
90.00000000000000
100
AcDbRotatedDimension
1001
ACAD
1000
DSTYLE
1002
{
1070
   173
1070
     1
1070
     6
1000
_OPEN
1070
     7
1000
_OPEN
1070
    41
1040
5.000000
1002
}
  0
DIMENSION
  5
C6
100
AcDbEntity
  8
MAIN10
  6
CONTINUOUS
 62
3
100
AcDbDimension
  2
*D1
 10
201.3254355222659
 20
869.4911889829572
 30
0.0000000000000000
 11
200.8254355222659
 21
672.4161888458666
 31
0.0000000000000000
 70
32
  1
\A1;\U+2205380H6\H0.903226x;\S＋0.036^ 　0;
  3
MAIN001
100
AcDbAlignedDimension
 13
386.3254355222659
 23
489.4911889829573
 33
0.0000000000000000
 14
386.3254355222661
 24
869.4911889829572
 34
0.0000000000000000
 50
90.00000000000000
100
AcDbRotatedDimension
1001
ACAD
1000
DSTYLE
1002
{
1070
   173
1070
     1
1070
     6
1000
_OPEN
1070
     7
1000
_OPEN
1070
    41
1040
5.000000
1070
   272
1070
     3
1070
    47
1040
0.036000
1070
    48
1040
0.000000
1070
    71
1070
     1
1070
   340
1005
C7
1002
}
  0
DIMENSION
  5
D0
100
AcDbEntity
  8
MAIN10
  6
CONTINUOUS
 62
3
100
AcDbDimension
  2
*D2
 10
275.3254355222659
 20
769.4911889829573
 30
0.0000000000000000
 11
302.8254355222659
 21
769.9911889829573
 31
0.0000000000000000
 70
32
  3
MAIN001
100
AcDbAlignedDimension
 13
330.3254355222659
 23
704.9911889829573
 33
0.0000000000000000
 14
275.3254355222659
 24
694.4911889829573
 34
0.0000000000000000
100
AcDbRotatedDimension
1001
ACAD
1000
DSTYLE
1002
{
1070
   173
1070
     1
1070
     6
1000
_OPEN
1070
     7
1000
_OPEN
1070
    41
1040
5.000000
1002
}
  0
DIMENSION
  5
D8
100
AcDbEntity
  8
MAIN10
  6
CONTINUOUS
 62
3
100
AcDbDimension
  2
*D3
 10
330.3254355222659
 20
769.4911889829573
 30
0.0000000000000000
 11
361.3254355222659
 21
769.9911889829573
 31
0.0000000000000000
 70
32
  1
\A1;MIN 62
  3
MAIN001
100
AcDbAlignedDimension
 13
392.3254355222659
 23
727.5411889829568
 33
0.0000000000000000
 14
330.3254355222659
 24
704.9911889829573
 34
0.0000000000000000
100
AcDbRotatedDimension
1001
ACAD
1000
DSTYLE
1002
{
1070
   173
1070
     1
1070
     6
1000
_OPEN
1070
     7
1000
_OPEN
1070
    41
1040
5.000000
1002
}
  0
DIMENSION
  5
E1
100
AcDbEntity
  8
MAIN10
  6
CONTINUOUS
 62
3
100
AcDbDimension
  2
*D4
 10
365.3254355222660
 20
739.4911889829573
 30
0.0000000000000000
 11
347.8254355222659
 21
739.9911889829573
 31
0.0000000000000000
 70
32
  3
MAIN001
100
AcDbAlignedDimension
 13
330.3254355222659
 23
704.9911889829573
 33
0.0000000000000000
 14
365.3254355222660
 24
708.4911889829571
 34
0.0000000000000000
100
AcDbRotatedDimension
1001
ACAD
1000
DSTYLE
1002
{
1070
   173
1070
     1
1070
     6
1000
_OPEN
1070
     7
1000
_OPEN
1070
    41
1040
5.000000
1002
}
  0
DIMENSION
  5
E8
100
AcDbEntity
  8
MAIN10
  6
CONTINUOUS
 62
3
100
AcDbDimension
  2
*D5
 10
471.3254355222659
 20
692.9911889829573
 30
0.0000000000000000
 11
470.8254355222659
 21
679.4911889829573
 31
0.0000000000000000
 70
32
  1
\A1;\U+220527
  3
MAIN001
100
AcDbAlignedDimension
 13
435.3254355222661
 23
665.9911889829573
 33
0.0000000000000000
 14
435.3254355222661
 24
692.9911889829573
 34
0.0000000000000000
 50
90.00000000000000
100
AcDbRotatedDimension
1001
ACAD
1000
DSTYLE
1002
{
1070
   173
1070
     1
1070
     6
1000
_OPEN
1070
     7
1000
_OPEN
1070
    41
1040
5.000000
1002
}
  0
DIMENSION
  5
F1
100
AcDbEntity
  8
MAIN10
  6
CONTINUOUS
 62
3
100
AcDbDimension
  2
*D6
 10
391.3254355222659
 20
718.4911889829571
 30
0.0000000000000000
 11
390.8254355222659
 21
679.4911889829573
 31
0.0000000000000000
 70
32
  1
\A1;\U+220578
  3
MAIN001
100
AcDbAlignedDimension
 13
396.3254355222659
 23
640.4911889829575
 33
0.0000000000000000
 14
396.3254355222661
 24
718.4911889829571
 34
0.0000000000000000
 50
90.00000000000000
100
AcDbRotatedDimension
1001
ACAD
1000
DSTYLE
1002
{
1070
   173
1070
     1
1070
     6
1000
_OPEN
1070
     7
1000
_OPEN
1070
    41
1040
5.000000
1002
}
  0
DIMENSION
  5
FA
100
AcDbEntity
  8
MAIN10
  6
CONTINUOUS
 62
3
100
AcDbDimension
  2
*D7
 10
356.3254355221745
 20
709.4911889829571
 30
0.0000000000000000
 11
355.8254355221745
 21
679.4911889829572
 31
0.0000000000000000
 70
32
  1
\A1;\U+220560
  3
MAIN001
100
AcDbAlignedDimension
 13
366.3254355222659
 23
649.4911889829573
 33
0.0000000000000000
 14
366.3254355222659
 24
709.4911889829571
 34
0.0000000000000000
 50
90.00000000000000
100
AcDbRotatedDimension
1001
ACAD
1000
DSTYLE
1002
{
1070
   173
1070
     1
1070
     6
1000
_OPEN
1070
     7
1000
_OPEN
1070
    41
1040
5.000000
1002
}
  0
DIMENSION
  5
103
100
AcDbEntity
  8
MAIN10
  6
CONTINUOUS
 62
3
100
AcDbDimension
  2
*D8
 10
321.3254355222659
 20
706.9911889829573
 30
0.0000000000000000
 11
320.8254355222659
 21
679.4911889829574
 31
0.0000000000000000
 70
32
  1
\A1;\U+220555
  3
MAIN001
100
AcDbAlignedDimension
 13
332.3254355222659
 23
651.9911889829575
 33
0.0000000000000000
 14
332.3254355222659
 24
706.9911889829573
 34
0.0000000000000000
 50
90.00000000000000
100
AcDbRotatedDimension
1001
ACAD
1000
DSTYLE
1002
{
1070
   173
1070
     1
1070
     6
1000
_OPEN
1070
     7
1000
_OPEN
1070
    41
1040
5.000000
1002
}
  0
LINE
  5
104
100
AcDbEntity
  8
MAIN0
  6
CENTER
 62
12
100
AcDbLine
 10
473.8254355222659
 20
679.4911889829573
 30
0.0000000000000000
 11
544.6427711168022
 21
679.4911889829573
 31
0.0000000000000000
  0
LINE
  5
105
100
AcDbEntity
  8
MAIN0
  6
CENTER
 62
12
100
AcDbLine
 10
393.8254355222659
 20
679.4911889829573
 30
0.0000000000000000
 11
458.5754357606845
 21
679.4911889829573
 31
0.0000000000000000
  0
LINE
  5
106
100
AcDbEntity
  8
MAIN0
  6
CENTER
 62
12
100
AcDbLine
 10
358.8254355221745
 20
679.4911889829573
 30
0.0000000000000000
 11
378.5754357606845
 21
679.4911889829573
 31
0.0000000000000000
  0
LINE
  5
107
100
AcDbEntity
  8
MAIN0
  6
CENTER
 62
12
100
AcDbLine
 10
268.5850916817803
 20
679.4911889829573
 30
0.0000000000000000
 11
308.5754357606845
 21
679.4911889829573
 31
0.0000000000000000
  0
LINE
  5
108
100
AcDbEntity
  8
MAIN0
  6
CENTER
 62
12
100
AcDbLine
 10
323.8254355222659
 20
679.4911889829573
 30
0.0000000000000000
 11
343.5754357605931
 21
679.4911889829573
 31
0.0000000000000000
  0
DIMENSION
  5
10F
100
AcDbEntity
  8
MAIN10
  6
CONTINUOUS
 62
3
100
AcDbDimension
  2
*D9
 10
392.3254355222658
 20
619.4911889829573
 30
0.0000000000000000
 11
409.8254355222658
 21
619.9911889829573
 31
0.0000000000000000
 70
32
  3
MAIN001
100
AcDbAlignedDimension
 13
427.3254355222658
 23
630.4911889829575
 33
0.0000000000000000
 14
392.3254355222658
 24
631.4411889829571
 34
0.0000000000000000
100
AcDbRotatedDimension
1001
ACAD
1000
DSTYLE
1002
{
1070
   173
1070
     1
1070
     6
1000
_OPEN
1070
     7
1000
_OPEN
1070
    41
1040
5.000000
1002
}
  0
DIMENSION
  5
118
100
AcDbEntity
  8
MAIN10
  6
CONTINUOUS
 62
3
100
AcDbDimension
  2
*D10
 10
701.3254355222659
 20
943.9911889829536
 30
0.0000000000000000
 11
700.8254355222659
 21
853.9911889829554
 31
0.0000000000000000
 70
32
  3
MAIN001
100
AcDbAlignedDimension
 13
582.3254355222658
 23
763.9911889829571
 33
0.0000000000000000
 14
582.3254355222658
 24
943.9911889829536
 34
0.0000000000000000
 50
90.00000000000000
100
AcDbRotatedDimension
1001
ACAD
1000
DSTYLE
1002
{
1070
   173
1070
     1
1070
     6
1000
_OPEN
1070
     7
1000
_OPEN
1070
    41
1040
5.000000
1002
}
  0
DIMENSION
  5
121
100
AcDbEntity
  8
MAIN10
  6
CONTINUOUS
 62
3
100
AcDbDimension
  2
*D11
 10
661.3254355222659
 20
903.9911889829571
 30
0.0000000000000000
 11
660.8254355222659
 21
873.9911889829571
 31
0.0000000000000000
 70
32
  3
MAIN001
100
AcDbAlignedDimension
 13
588.5732589268966
 23
843.9911889829571
 33
0.0000000000000000
 14
587.2093394567444
 24
903.9911889829571
 34
0.0000000000000000
 50
90.00000000000000
100
AcDbRotatedDimension
1001
ACAD
1000
DSTYLE
1002
{
1070
   173
1070
     1
1070
     6
1000
_OPEN
1070
     7
1000
_OPEN
1070
    41
1040
5.000000
1002
}
  0
DIMENSION
  5
12A
100
AcDbEntity
  8
MAIN10
  6
CONTINUOUS
 62
3
100
AcDbDimension
  2
*D12
 10
661.3254355222659
 20
843.9911889829571
 30
0.0000000000000000
 11
660.8254355222659
 21
803.9911889829571
 31
0.0000000000000000
 70
32
  3
MAIN001
100
AcDbAlignedDimension
 13
582.3254355222658
 23
763.9911889829571
 33
0.0000000000000000
 14
588.5732589268966
 24
843.9911889829571
 34
0.0000000000000000
 50
90.00000000000000
100
AcDbRotatedDimension
1001
ACAD
1000
DSTYLE
1002
{
1070
   173
1070
     1
1070
     6
1000
_OPEN
1070
     7
1000
_OPEN
1070
    41
1040
5.000000
1002
}
  0
DIMENSION
  5
133
100
AcDbEntity
  8
MAIN10
  6
CONTINUOUS
 62
3
100
AcDbDimension
  2
*D13
 10
621.3254355222659
 20
843.9911889829571
 30
0.0000000000000000
 11
620.8254355222659
 21
804.7411889829572
 31
0.0000000000000000
 70
32
  1
\A1;MAX 93.5
  3
MAIN001
100
AcDbAlignedDimension
 13
512.3254355222659
 23
765.4911889829573
 33
0.0000000000000000
 14
588.5732589268966
 24
843.9911889829571
 34
0.0000000000000000
 50
90.00000000000000
100
AcDbRotatedDimension
1001
ACAD
1000
DSTYLE
1002
{
1070
   173
1070
     1
1070
     6
1000
_OPEN
1070
     7
1000
_OPEN
1070
    41
1040
5.000000
1002
}
  0
DIMENSION
  5
13C
100
AcDbEntity
  8
MAIN10
  6
CONTINUOUS
 62
3
100
AcDbDimension
  2
*D14
 10
621.3254355222659
 20
765.4911889829573
 30
0.0000000000000000
 11
620.8254355222659
 21
722.4911889829573
 31
0.0000000000000000
 70
32
  1
\A1;MAX 86
  3
MAIN001
100
AcDbAlignedDimension
 13
544.6427711168022
 23
679.4911889829573
 33
0.0000000000000000
 14
512.3254355222659
 24
765.4911889829573
 34
0.0000000000000000
 50
90.00000000000000
100
AcDbRotatedDimension
1001
ACAD
1000
DSTYLE
1002
{
1070
   173
1070
     1
1070
     6
1000
_OPEN
1070
     7
1000
_OPEN
1070
    41
1040
5.000000
1002
}
  0
DIMENSION
  5
145
100
AcDbEntity
  8
MAIN10
  6
CONTINUOUS
 62
3
100
AcDbDimension
  2
*D15
 10
582.3254355222659
 20
979.4911889829573
 30
0.0000000000000000
 11
546.8254355222659
 21
979.9911889829573
 31
0.0000000000000000
 70
32
  3
MAIN001
100
AcDbAlignedDimension
 13
511.3254355222659
 23
941.4911889829536
 33
0.0000000000000000
 14
582.3254355222659
 24
943.9911889829536
 34
0.0000000000000000
100
AcDbRotatedDimension
1001
ACAD
1000
DSTYLE
1002
{
1070
   173
1070
     1
1070
     6
1000
_OPEN
1070
     7
1000
_OPEN
1070
    41
1040
5.000000
1002
}
  0
LEADER
  5
146
100
AcDbEntity
  8
MAIN0
  6
CONTINUOUS
 62
3
100
AcDbLeader
  3
MAIN001
 73
     0
 74
     0
 75
     1
 40
7.749999761581421
 41
128.5635037550927
 76
     3
 10
514.3254355222659
 20
921.4412321625246
 30
0.0000000000000000
 10
611.3254355222659
 20
979.4911889829573
 30
0.0000000000000000
 10
616.1394353827910
 20
979.4911889829573
 30
0.0000000000000000
340
147
213
-0.001000000000090040
223
-1.250000000000000
233
0.0000000000000000
1001
ACAD
1000
DSTYLE
1002
{
1070
   147
1040
0.0
1070
    77
1070
     1
1070
   173
1070
     1
1070
     6
1000
_OPEN
1070
     7
1000
_OPEN
1002
}
  0
MTEXT
  5
147
102
{ACAD_REACTORS
330
146
102
}
100
AcDbEntity
  8
MAIN0
  6
CONTINUOUS
 62
3
100
AcDbMText
 10
616.1404353827911
 20
988.4911887445387
 30
0.0000000000000000
 40
7.749999761581421
 41
0.0000000000000000
 71
     1
 72
     1
  1
{\H0.91x;{セレーションピッチ　３．０\PSERRATION PITCH 3.0}}
 11
1.000000000000000
 21
0.0000000000000000
 31
0.0000000000000000
  7
KNJYOKO
  0
DIMENSION
  5
150
100
AcDbEntity
  8
MAIN10
  6
CONTINUOUS
 62
3
100
AcDbDimension
  2
*D16
 10
561.3254355222659
 20
532.3911889829575
 30
0.0000000000000000
 11
560.8254355222659
 21
514.3911889829574
 31
0.0000000000000000
 70
32
  1
\A1;\U+220536
  3
MAIN001
100
AcDbAlignedDimension
 13
511.3254355222658
 23
496.3911889829574
 33
0.0000000000000000
 14
511.3254355222658
 24
532.3911889829575
 34
0.0000000000000000
 50
90.00000000000000
100
AcDbRotatedDimension
1001
ACAD
1000
DSTYLE
1002
{
1070
   173
1070
     1
1070
     6
1000
_OPEN
1070
     7
1000
_OPEN
1070
    41
1040
5.000000
1002
}
  0
DIMENSION
  5
158
100
AcDbEntity
  8
MAIN10
  6
CONTINUOUS
 62
3
100
AcDbDimension
  2
*D17
 10
481.3254355222659
 20
479.4911889829573
 30
0.0000000000000000
 11
496.3254355222658
 21
479.9911889829573
 31
0.0000000000000000
 70
32
  3
MAIN001
100
AcDbAlignedDimension
 13
511.3254355222658
 23
417.4911889829609
 33
0.0000000000000000
 14
481.3254355222659
 24
496.3911889829574
 34
0.0000000000000000
100
AcDbRotatedDimension
1001
ACAD
1000
DSTYLE
1002
{
1070
   173
1070
     1
1070
     6
1000
_OPEN
1070
     7
1000
_OPEN
1070
    41
1040
5.000000
1002
}
  0
DIMENSION
  5
161
100
AcDbEntity
  8
MAIN10
  6
CONTINUOUS
 62
3
100
AcDbDimension
  2
*D18
 10
361.3254355222661
 20
469.4911889829573
 30
0.0000000000000000
 11
376.8254355222659
 21
469.9911889829573
 31
0.0000000000000000
 70
32
  3
MAIN001
100
AcDbAlignedDimension
 13
392.3254355222658
 23
489.4911889829573
 33
0.0000000000000000
 14
361.3254355222661
 24
503.3911889829584
 34
0.0000000000000000
100
AcDbRotatedDimension
1001
ACAD
1000
DSTYLE
1002
{
1070
   173
1070
     1
1070
     6
1000
_OPEN
1070
     7
1000
_OPEN
1070
    41
1040
5.000000
1002
}
  0
DIMENSION
  5
16B
100
AcDbEntity
  8
MAIN10
  6
CONTINUOUS
 62
3
100
AcDbDimension
  2
*D19
 10
386.3254355222659
 20
439.4911889829573
 30
0.0000000000000000
 11
377.8194446404483
 21
440.7411889829573
 31
0.0000000000000000
 70
160
  3
MAIN001
100
AcDbAlignedDimension
 13
392.3254355222658
 23
489.4911889829573
 33
0.0000000000000000
 14
386.3254355222659
 24
503.3911889829585
 34
0.0000000000000000
100
AcDbRotatedDimension
1001
ACAD
1000
DSTYLE
1002
{
1070
   173
1070
     1
1070
     6
1000
_OPEN
1070
     7
1000
_OPEN
1070
    41
1040
5.000000
1070
   287
1070
     0
1002
}
  0
LEADER
  5
16C
100
AcDbEntity
  8
MAIN0
  6
CONTINUOUS
 62
3
100
AcDbLeader
  3
MAIN001
 73
     0
 75
     1
 40
7.749999761581421
 41
33.92400102519986
 76
     3
 10
373.6001275230782
 20
503.3911889829584
 30
0.0000000000000000
 10
341.3254355222659
 20
469.4911889829573
 30
0.0000000000000000
 10
336.5094356617408
 20
469.4911889829573
 30
0.0000000000000000
340
16D
213
0.0000000000000000
223
-1.250000000000000
233
0.0000000000000000
1001
ACAD
1000
DSTYLE
1002
{
1070
   147
1040
0.0
1070
    77
1070
     1
1070
   173
1070
     1
1070
     6
1000
_OPEN
1070
     7
1000
_OPEN
1002
}
  0
MTEXT
  5
16D
102
{ACAD_REACTORS
330
16C
102
}
100
AcDbEntity
  8
MAIN0
  6
CONTINUOUS
 62
3
100
AcDbMText
 10
302.5854346365409
 20
478.4911887445387
 30
0.0000000000000000
 40
7.749999761581421
 41
0.0000000000000000
 71
     1
 72
     1
  1
{\H0.92x;{6-M22}}
 11
1.000000000000000
 21
0.0000000000000000
 31
0.0000000000000000
  7
STANDARD
  0
DIMENSION
  5
176
100
AcDbEntity
  8
MAIN10
  6
CONTINUOUS
 62
3
100
AcDbDimension
  2
*D20
 10
511.3254355222658
 20
379.4911889829573
 30
0.0000000000000000
 11
481.3254355222658
 21
379.9911889829573
 31
0.0000000000000000
 70
32
  3
MAIN001
100
AcDbAlignedDimension
 13
451.3254355222658
 23
408.1913710038616
 33
0.0000000000000000
 14
511.3254355222658
 24
417.4911889829609
 34
0.0000000000000000
100
AcDbRotatedDimension
1001
ACAD
1000
DSTYLE
1002
{
1070
   173
1070
     1
1070
     6
1000
_OPEN
1070
     7
1000
_OPEN
1070
    41
1040
5.000000
1002
}
  0
DIMENSION
  5
17F
100
AcDbEntity
  8
MAIN10
  6
CONTINUOUS
 62
3
100
AcDbDimension
  2
*D21
 10
511.3254355222658
 20
349.4911889829573
 30
0.0000000000000000
 11
448.8254355222658
 21
349.9911889829573
 31
0.0000000000000000
 70
32
  3
MAIN001
100
AcDbAlignedDimension
 13
386.3254355222659
 23
417.4911889829609
 33
0.0000000000000000
 14
511.3254355222658
 24
417.4911889829609
 34
0.0000000000000000
100
AcDbRotatedDimension
1001
ACAD
1000
DSTYLE
1002
{
1070
   173
1070
     1
1070
     6
1000
_OPEN
1070
     7
1000
_OPEN
1070
    41
1040
5.000000
1002
}
  0
LEADER
  5
180
100
AcDbEntity
  8
MAIN0
  6
CONTINUOUS
 62
3
100
AcDbLeader
  3
MAIN001
 73
     0
 75
     1
 40
7.749999761581421
 41
73.24900004842874
 76
     3
 10
443.3254355222662
 20
422.7142145252155
 30
0.0000000000000000
 10
371.3254355222659
 20
379.4911889829573
 30
0.0000000000000000
 10
366.8594356539177
 20
379.4911889829573
 30
0.0000000000000000
340
181
213
0.0000000000000000
223
-1.250000000000000
233
0.0000000000000000
1001
ACAD
1000
DSTYLE
1002
{
1070
   147
1040
0.0
1070
    77
1070
     1
1070
   173
1070
     1
1070
     6
1000
_OPEN
1070
     7
1000
_OPEN
1002
}
  0
MTEXT
  5
181
102
{ACAD_REACTORS
330
180
102
}
100
AcDbEntity
  8
MAIN0
  6
CONTINUOUS
 62
3
100
AcDbMText
 10
293.6104356054889
 20
388.4911887445387
 30
0.0000000000000000
 40
7.749999761581421
 41
0.0000000000000000
 71
     1
 72
     1
  1
{\H0.71x;{２－Ｍ１６　ねじ深３０\P2-M16 DEPTH 30}}
 11
1.000000000000000
 21
0.0000000000000000
 31
0.0000000000000000
  7
KNJYOKO
  0
DIMENSION
  5
18A
100
AcDbEntity
  8
MAIN10
  6
CONTINUOUS
 62
3
100
AcDbDimension
  2
*D22
 10
581.3254355222659
 20
303.4311212226612
 30
0.0000000000000000
 11
580.8254355222659
 21
270.9311212226612
 31
0.0000000000000000
 70
32
  3
MAIN001
100
AcDbAlignedDimension
 13
512.5933847146955
 23
238.4311212226612
 33
0.0000000000000000
 14
512.5933847146965
 24
303.4311212226612
 34
0.0000000000000000
 50
90.00000000000000
100
AcDbRotatedDimension
1001
ACAD
1000
DSTYLE
1002
{
1070
   173
1070
     1
1070
     6
1000
_OPEN
1070
     7
1000
_OPEN
1070
    41
1040
5.000000
1002
}
  0
DIMENSION
  5
193
100
AcDbEntity
  8
MAIN10
  6
CONTINUOUS
 62
3
100
AcDbDimension
  2
*D23
 10
551.3254355222659
 20
283.4311212226612
 30
0.0000000000000000
 11
550.8254355222659
 21
270.9311212226612
 31
0.0000000000000000
 70
32
  3
MAIN001
100
AcDbAlignedDimension
 13
520.3254355222657
 23
258.4311212226612
 33
0.0000000000000000
 14
520.3254355222657
 24
283.4311212226612
 34
0.0000000000000000
 50
90.00000000000000
100
AcDbRotatedDimension
1001
ACAD
1000
DSTYLE
1002
{
1070
   173
1070
     1
1070
     6
1000
_OPEN
1070
     7
1000
_OPEN
1070
    41
1040
5.000000
1002
}
  0
DIMENSION
  5
19D
100
AcDbEntity
  8
MAIN10
  6
CONTINUOUS
 62
3
100
AcDbDimension
  2
*D24
 10
520.3254355222657
 20
199.4911889829573
 30
0.0000000000000000
 11
526.7581913474505
 21
200.7411889829573
 31
0.0000000000000000
 70
160
  3
MAIN001
100
AcDbAlignedDimension
 13
514.3254355222657
 23
239.4311212226648
 33
0.0000000000000000
 14
520.3254355222657
 24
258.4311212226612
 34
0.0000000000000000
100
AcDbRotatedDimension
1001
ACAD
1000
DSTYLE
1002
{
1070
   173
1070
     1
1070
     6
1000
_DOT
1070
     7
1000
_OPEN
1070
    41
1040
5.000000
1070
   287
1070
     0
1002
}
  0
DIMENSION
  5
1A7
100
AcDbEntity
  8
MAIN10
  6
CONTINUOUS
 62
3
100
AcDbDimension
  2
*D25
 10
514.3254355222657
 20
199.4911889829573
 30
0.0000000000000000
 11
506.9290437763272
 21
200.7411889829573
 31
0.0000000000000000
 70
160
  3
MAIN001
100
AcDbAlignedDimension
 13
511.3254355222657
 23
224.7470905947530
 33
0.0000000000000000
 14
514.3254355222657
 24
239.4311212226648
 34
0.0000000000000000
100
AcDbRotatedDimension
1001
ACAD
1000
DSTYLE
1002
{
1070
   173
1070
     1
1070
     6
1000
_OPEN
1070
     7
1000
_DOT
1070
    41
1040
5.000000
1070
   287
1070
     0
1002
}
  0
DIMENSION
  5
1B0
100
AcDbEntity
  8
MAIN10
  6
CONTINUOUS
 62
3
100
AcDbDimension
  2
*D26
 10
1322.623409900067
 20
679.4911889829573
 30
0.0000000000000000
 11
1340.279478758581
 21
599.3866945237658
 31
0.0000000000000000
 70
162
  3
MAIN001
100
AcDb2LineAngularDimension
 13
1280.950791534982
 23
541.1434251843509
 33
0.0000000000000000
 14
1280.084766131198
 24
541.6434251843509
 34
0.0000000000000000
 15
1321.623409900067
 25
679.4911889829573
 35
0.0000000000000000
 16
1340.762441671725
 26
599.2572850012144
 36
0.0000000000000000
1001
ACAD
1000
DSTYLE
1002
{
1070
   173
1070
     1
1070
     6
1000
_OPEN
1070
     7
1000
_OPEN
1070
    41
1040
5.000000
1002
}
  0
DIMENSION
  5
1B9
100
AcDbEntity
  8
MAIN10
  6
CONTINUOUS
 62
3
100
AcDbDimension
  2
*D27
 10
1167.901038465219
 20
806.0667919259124
 30
0.0000000000000000
 11
1327.266150834365
 21
797.9317112998922
 31
0.0000000000000000
 70
162
  3
MAIN001
100
AcDb2LineAngularDimension
 13
1322.623409900067
 23
679.4911889829573
 33
0.0000000000000000
 14
1321.623409900067
 24
679.4911889829573
 34
0.0000000000000000
 15
1167.193931684033
 25
805.3596851447259
 35
0.0000000000000000
 16
1327.728090600620
 26
798.1230530160747
 36
0.0000000000000000
1001
ACAD
1000
DSTYLE
1002
{
1070
   173
1070
     1
1070
     6
1000
_OPEN
1070
     7
1000
_OPEN
1070
    41
1040
5.000000
1002
}
  0
DIMENSION
  5
1C2
100
AcDbEntity
  8
MAIN10
  6
CONTINUOUS
 62
3
100
AcDbDimension
  2
*D28
 10
1160.545041715465
 20
885.9856041679367
 30
0.0000000000000000
 11
1230.345859229380
 21
925.8274011432636
 31
0.0000000000000000
 70
162
  3
MAIN001
100
AcDb2LineAngularDimension
 13
1167.901038465219
 23
806.0667919259124
 33
0.0000000000000000
 14
1167.193931684033
 24
805.3596851447259
 34
0.0000000000000000
 15
1160.045041715465
 25
885.1195787641523
 35
0.0000000000000000
 16
1230.041478514876
 26
925.4307244731181
 36
0.0000000000000000
1001
ACAD
1000
DSTYLE
1002
{
1070
   173
1070
     1
1070
     6
1000
_OPEN
1070
     7
1000
_OPEN
1070
    41
1040
5.000000
1002
}
  0
DIMENSION
  5
1CB
100
AcDbEntity
  8
MAIN10
  6
CONTINUOUS
 62
3
100
AcDbDimension
  2
*D29
 10
1041.325435522264
 20
953.8181142931944
 30
0.0000000000000000
 11
1121.688749026558
 21
979.4111580455675
 31
0.0000000000000000
 70
162
  3
MAIN001
100
AcDb2LineAngularDimension
 13
1160.545041715465
 23
885.9856041679367
 33
0.0000000000000000
 14
1160.045041715465
 24
885.1195787641523
 34
0.0000000000000000
 15
1041.325435522264
 25
952.8181142931944
 35
0.0000000000000000
 16
1121.559339504007
 26
978.9281951324230
 36
0.0000000000000000
1001
ACAD
1000
DSTYLE
1002
{
1070
   173
1070
     1
1070
     6
1000
_OPEN
1070
     7
1000
_OPEN
1070
    41
1040
5.000000
1002
}
  0
DIMENSION
  5
1D4
100
AcDbEntity
  8
MAIN10
  6
CONTINUOUS
 62
3
100
AcDbDimension
  2
*D30
 10
936.3116986691762
 20
933.0167767291573
 30
0.0000000000000000
 11
980.7498905362850
 21
984.0250185480153
 31
0.0000000000000000
 70
162
  3
MAIN001
100
AcDb2LineAngularDimension
 13
1041.325435522264
 23
953.8181142931944
 33
0.0000000000000000
 14
1041.325435522264
 24
952.8181142931944
 34
0.0000000000000000
 15
936.6943821015414
 25
932.0928971966461
 35
0.0000000000000000
 16
980.8474356972929
 26
983.5346259078137
 36
0.0000000000000000
1001
ACAD
1000
DSTYLE
1002
{
1070
   173
1070
     1
1070
     6
1000
_OPEN
1070
     7
1000
_OPEN
1070
    41
1040
5.000000
1070
   340
1005
C7
1002
}
  0
CIRCLE
  5
1D5
100
AcDbEntity
  8
MAIN0
  6
CONTINUOUS
 62
3
100
AcDbCircle
 10
1150.075435522263
 20
867.8517143060733
 30
0.0000000000000000
 40
30.00000000000000
  0
DIMENSION
  5
1DE
100
AcDbEntity
  8
MAIN10
  6
CONTINUOUS
 62
3
100
AcDbDimension
  2
*D31
 10
1008.825435522262
 20
959.4911889829573
 30
0.0000000000000000
 11
1031.757457657293
 21
960.7411889829573
 31
0.0000000000000000
 70
160
  3
MAIN001
100
AcDbAlignedDimension
 13
1073.825435522264
 23
943.9911889829536
 33
0.0000000000000000
 14
1008.825435522262
 24
943.9911889829536
 34
0.0000000000000000
100
AcDbRotatedDimension
1001
ACAD
1000
DSTYLE
1002
{
1070
   173
1070
     1
1070
     6
1000
_OPEN
1070
     7
1000
_OPEN
1070
    41
1040
5.000000
1002
}
  0
DIMENSION
  5
1E4
100
AcDbEntity
  8
MAIN10
  6
CONTINUOUS
 62
3
100
AcDbDimension
  2
*D32
 10
1203.888358990128
 20
650.6588128481071
 30
0.0000000000000000
 11
1156.961103326508
 21
660.2514016931153
 31
0.0000000000000000
 70
163
  3
MAIN001
100
AcDbDiametricDimension
 15
878.7625120544003
 25
708.3235651178075
 35
0.0000000000000000
1001
ACAD
1000
DSTYLE
1002
{
1070
   287
1070
     2
1070
   173
1070
     1
1070
     6
1000
_OPEN
1070
     7
1000
_NONE
1070
    41
1040
5.000000
1002
}
  0
DIMENSION
  5
1EA
100
AcDbEntity
  8
MAIN10
  6
CONTINUOUS
 62
3
100
AcDbDimension
  2
*D33
 10
1165.971354196959
 20
787.7566264860745
 30
0.0000000000000000
 11
1075.424628655765
 21
710.7648889528317
 31
0.0000000000000000
 70
163
  3
MAIN001
100
AcDbDiametricDimension
 15
916.6795168475695
 25
571.2257514798400
 35
0.0000000000000000
1001
ACAD
1000
DSTYLE
1002
{
1070
   287
1070
     2
1070
   173
1070
     1
1070
     6
1000
_OPEN
1070
     7
1000
_NONE
1070
    41
1040
5.000000
1070
   272
1070
     1
1070
    47
1040
0.200000
1070
    48
1040
0.200000
1070
    71
1070
     1
1002
}
  0
LEADER
  5
1EB
100
AcDbEntity
  8
MAIN0
  6
CONTINUOUS
 62
3
100
AcDbLeader
  3
MAIN001
 73
     0
 74
     0
 75
     1
 40
7.749999761581421
 41
73.25100004842852
 76
     3
 10
1163.352042022334
 20
799.0782810155364
 30
0.0000000000000000
 10
1331.325435522266
 20
889.4911889829573
 30
0.0000000000000000
 10
1335.789435390615
 20
889.4911889829573
 30
0.0000000000000000
340
1EC
213
0.0000000000000000
223
-1.250000000000000
233
0.0000000000000000
1001
ACAD
1000
DSTYLE
1002
{
1070
   147
1040
0.0
1070
    77
1070
     1
1070
   173
1070
     1
1070
     6
1000
_OPEN
1070
     7
1000
_OPEN
1002
}
  0
MTEXT
  5
1EC
102
{ACAD_REACTORS
330
1EB
102
}
100
AcDbEntity
  8
MAIN0
  6
CONTINUOUS
 62
3
100
AcDbMText
 10
1335.790435390614
 20
898.4911887445387
 30
0.0000000000000000
 40
7.749999761581421
 41
0.0000000000000000
 71
     1
 72
     1
  1
{\H0.71x;{３－Ｍ１２　ねじ深３０\P3-M12 DEPTH 30}}
 11
1.000000000000000
 21
0.0000000000000000
 31
0.0000000000000000
  7
KNJYOKO
  0
CIRCLE
  5
1ED
100
AcDbEntity
  8
MAIN0
  6
CONTINUOUS
 62
3
100
AcDbCircle
 10
1125.075435522263
 20
867.8517143060733
 30
0.0000000000000000
 40
4.000000000000000
  0
LINE
  5
1EE
100
AcDbEntity
  8
MAIN0
  6
CONTINUOUS
 62
3
100
AcDbLine
 10
1122.950398704427
 20
868.4211162052987
 30
0.0000000000000000
 11
1127.200472340099
 21
867.2823124068477
 31
0.0000000000000000
  0
LINE
  5
1EF
100
AcDbEntity
  8
MAIN0
  6
CONTINUOUS
 62
3
100
AcDbLine
 10
1125.644837421489
 20
869.9767511239091
 30
0.0000000000000000
 11
1124.506033623038
 21
865.7266774882373
 31
0.0000000000000000
  0
CIRCLE
  5
1F0
100
AcDbEntity
  8
MAIN0
  6
CONTINUOUS
 62
3
100
AcDbCircle
 10
1162.575435522263
 20
846.2010792114623
 30
0.0000000000000000
 40
4.000000000000000
  0
LINE
  5
1F1
100
AcDbEntity
  8
MAIN0
  6
CONTINUOUS
 62
3
100
AcDbLine
 10
1163.144837421489
 20
844.0760423936263
 30
0.0000000000000000
 11
1162.006033623037
 21
848.3261160292982
 31
0.0000000000000000
  0
LINE
  5
1F2
100
AcDbEntity
  8
MAIN0
  6
CONTINUOUS
 62
3
100
AcDbLine
 10
1160.450398704427
 20
845.6316773122367
 30
0.0000000000000000
 11
1164.700472340099
 21
846.7704811106878
 31
0.0000000000000000
  0
LINE
  5
1F3
100
AcDbEntity
  8
MAIN0
  6
CENTER
 62
3
100
AcDbLine
 10
1117.871277998853
 20
867.8517143062660
 30
0.0000000000000000
 11
1134.453633308306
 21
867.8517143062643
 31
0.0000000000000000
  0
LINE
  5
1F4
100
AcDbEntity
  8
MAIN0
  6
CENTER
 62
3
100
AcDbLine
 10
1167.149018402706
 20
838.2794012902944
 30
0.0000000000000000
 11
1158.524632848081
 21
853.2172752549644
 31
0.0000000000000000
  0
ARC
  5
1F5
100
AcDbEntity
  8
MAIN0
  6
CENTER
 62
3
100
AcDbCircle
 10
1150.075435522263
 20
867.8517143060733
 30
0.0000000000000000
 40
25.00000000000000
100
AcDbArc
 50
280.2515500041411
 51
317.1233385878065
  0
ARC
  5
1F6
100
AcDbEntity
  8
MAIN0
  6
CENTER
 62
3
100
AcDbCircle
 10
1150.075435522263
 20
867.8517143060733
 30
0.0000000000000000
 40
25.00000000000000
100
AcDbArc
 50
41.15385562478816
 51
80.76721588147925
  0
ARC
  5
1F7
100
AcDbEntity
  8
MAIN0
  6
CENTER
 62
3
100
AcDbCircle
 10
1150.075435522263
 20
867.8517143060733
 30
0.0000000000000000
 40
25.00000000000000
100
AcDbArc
 50
160.8905867950809
 51
200.1985005567729
  0
ARC
  5
1F8
100
AcDbEntity
  8
MAIN0
  6
CONTINUOUS
 62
3
100
AcDbCircle
 10
1041.325435522264
 20
679.4911889829573
 30
0.0000000000000000
 40
120.0000000000000
100
AcDbArc
 50
345.7138609880013
 51
348.7487849833691
  0
ARC
  5
1F9
100
AcDbEntity
  8
MAIN0
  6
CONTINUOUS
 62
3
100
AcDbCircle
 10
1041.325435522264
 20
679.4911889829573
 30
0.0000000000000000
 40
120.0000000000000
100
AcDbArc
 50
356.0417224875575
 51
434.2861389519919
  0
LEADER
  5
1FA
100
AcDbEntity
  8
MAIN0
  6
CONTINUOUS
 62
3
100
AcDbLeader
  3
MAIN001
 73
     0
 75
     1
 40
7.749999761581421
 41
19.97400061988833
 76
     3
 10
306.5767601804179
 20
664.4911889829573
 30
0.0000000000000000
 10
281.3254355222659
 20
609.4911889829573
 30
0.0000000000000000
 10
276.5094356617408
 20
609.4911889829573
 30
0.0000000000000000
340
1FB
213
0.0000000000000000
223
-1.250000000000000
233
0.0000000000000000
1001
ACAD
1000
DSTYLE
1002
{
1070
   147
1040
0.0
1070
    77
1070
     1
1070
   173
1070
     1
1070
     6
1000
_OPEN
1070
     7
1000
_OPEN
1002
}
  0
MTEXT
  5
1FB
102
{ACAD_REACTORS
330
1FA
102
}
100
AcDbEntity
  8
MAIN0
  6
CONTINUOUS
 62
3
100
AcDbMText
 10
256.5354350418525
 20
618.4911887445387
 30
0.0000000000000000
 40
7.749999761581421
 41
0.0000000000000000
 71
     1
 72
     1
  1
{\H0.90x;{M30}}
 11
1.000000000000000
 21
0.0000000000000000
 31
0.0000000000000000
  7
STANDARD
  0
LINE
  5
1FC
100
AcDbEntity
  8
MAIN0
  6
HIDDEN
 62
3
100
AcDbLine
 10
1278.715116717571
 20
564.6621780058044
 30
0.0000000000000000
 11
1137.769482251653
 21
646.0371780058047
 31
0.0000000000000000
  0
LINE
  5
1FD
100
AcDbEntity
  8
MAIN0
  6
HIDDEN
 62
3
100
AcDbLine
 10
1259.465116717571
 20
531.3201999601037
 30
0.0000000000000000
 11
1118.519482251653
 21
612.6951999601038
 31
0.0000000000000000
  0
LINE
  5
1FE
100
AcDbEntity
  8
MAIN0
  6
HIDDEN
 62
3
100
AcDbLine
 10
1275.490116717571
 20
559.0763141513949
 30
0.0000000000000000
 11
1128.958618397244
 21
643.6763141513950
 31
0.0000000000000000
  0
LINE
  5
1FF
100
AcDbEntity
  8
MAIN0
  6
HIDDEN
 62
3
100
AcDbLine
 10
1262.690116717571
 20
536.9060638145134
 30
0.0000000000000000
 11
1116.158618397244
 21
621.5060638145134
 31
0.0000000000000000
  0
ARC
  5
200
100
AcDbEntity
  8
MAIN0
  6
HIDDEN
 62
3
100
AcDbCircle
 10
1128.144482251653
 20
629.3661889829541
 30
0.0000000000000000
 40
19.25000000000008
100
AcDbArc
 50
59.99999999999978
 51
107.7535461558574
  0
ARC
  5
201
100
AcDbEntity
  8
MAIN0
  6
HIDDEN
 62
3
100
AcDbCircle
 10
1122.558618397244
 20
632.5911889829541
 30
0.0000000000000000
 40
12.80000000000003
100
AcDbArc
 50
60.00000000000019
 51
72.42925713245408
  0
ARC
  5
202
100
AcDbEntity
  8
MAIN0
  6
CONTINUOUS
 62
3
100
AcDbCircle
 10
1122.558618397244
 20
632.5911889829541
 30
0.0000000000000000
 40
12.80000000000003
100
AcDbArc
 50
72.42925713245408
 51
227.5707428674045
  0
ARC
  5
203
100
AcDbEntity
  8
MAIN0
  6
HIDDEN
 62
3
100
AcDbCircle
 10
1122.558618397244
 20
632.5911889829541
 30
0.0000000000000000
 40
12.80000000000003
100
AcDbArc
 50
227.5707428674045
 51
240.0000000000001
  0
ARC
  5
204
100
AcDbEntity
  8
MAIN0
  6
CONTINUOUS
 62
3
100
AcDbCircle
 10
1128.144482251653
 20
629.3661889829541
 30
0.0000000000000000
 40
19.25000000000008
100
AcDbArc
 50
107.7535461558574
 51
192.2464538441376
  0
ARC
  5
205
100
AcDbEntity
  8
MAIN0
  6
HIDDEN
 62
3
100
AcDbCircle
 10
1128.144482251653
 20
629.3661889829541
 30
0.0000000000000000
 40
19.25000000000008
100
AcDbArc
 50
192.2464538441376
 51
239.9999999999998
  0
LINE
  5
206
100
AcDbEntity
  8
MAIN0
  6
HIDDEN
 62
3
100
AcDbLine
 10
803.9357543269575
 20
564.6621780058044
 30
0.0000000000000000
 11
944.8813887928750
 21
646.0371780058047
 31
0.0000000000000000
  0
LINE
  5
207
100
AcDbEntity
  8
MAIN0
  6
HIDDEN
 62
3
100
AcDbLine
 10
807.1607543269575
 20
559.0763141513949
 30
0.0000000000000000
 11
953.6922526472847
 21
643.6763141513950
 31
0.0000000000000000
  0
LINE
  5
208
100
AcDbEntity
  8
MAIN0
  6
HIDDEN
 62
3
100
AcDbLine
 10
819.9607543269576
 20
536.9060638145134
 30
0.0000000000000000
 11
966.4922526472847
 21
621.5060638145134
 31
0.0000000000000000
  0
LINE
  5
209
100
AcDbEntity
  8
MAIN0
  6
HIDDEN
 62
3
100
AcDbLine
 10
823.1857543269576
 20
531.3201999601037
 30
0.0000000000000000
 11
964.1313887928751
 21
612.6951999601038
 31
0.0000000000000000
  0
ARC
  5
20A
100
AcDbEntity
  8
MAIN0
  6
HIDDEN
 62
3
100
AcDbCircle
 10
954.5063887928751
 20
629.3661889829541
 30
0.0000000000000000
 40
19.25000000000008
100
AcDbArc
 50
72.24645384414261
 51
120.0000000000002
  0
ARC
  5
20B
100
AcDbEntity
  8
MAIN0
  6
HIDDEN
 62
3
100
AcDbCircle
 10
960.0922526472847
 20
632.5911889829541
 30
0.0000000000000000
 40
12.80000000000003
100
AcDbArc
 50
107.5707428675459
 51
119.9999999999998
  0
ARC
  5
20C
100
AcDbEntity
  8
MAIN0
  6
CONTINUOUS
 62
3
100
AcDbCircle
 10
960.0922526472847
 20
632.5911889829541
 30
0.0000000000000000
 40
12.80000000000003
100
AcDbArc
 50
312.4292571325955
 51
467.5707428675460
  0
ARC
  5
20D
100
AcDbEntity
  8
MAIN0
  6
CONTINUOUS
 62
3
100
AcDbCircle
 10
954.5063887928751
 20
629.3661889829541
 30
0.0000000000000000
 40
19.25000000000008
100
AcDbArc
 50
347.7535461558625
 51
432.2464538441426
  0
ARC
  5
20E
100
AcDbEntity
  8
MAIN0
  6
HIDDEN
 62
3
100
AcDbCircle
 10
960.0922526472847
 20
632.5911889829541
 30
0.0000000000000000
 40
12.80000000000003
100
AcDbArc
 50
299.9999999999998
 51
312.4292571325955
  0
ARC
  5
20F
100
AcDbEntity
  8
MAIN0
  6
HIDDEN
 62
3
100
AcDbCircle
 10
954.5063887928751
 20
629.3661889829541
 30
0.0000000000000000
 40
19.25000000000008
100
AcDbArc
 50
300.0000000000002
 51
347.7535461558625
  0
ARC
  5
210
100
AcDbEntity
  8
MAIN0
  6
CONTINUOUS
 62
3
100
AcDbCircle
 10
1041.325435522267
 20
773.2911889829569
 30
0.0000000000000000
 40
12.80000000000003
100
AcDbArc
 50
226.5989850801725
 51
313.4010149198276
  0
ARC
  5
211
100
AcDbEntity
  8
MAIN0
  6
CONTINUOUS
 62
3
100
AcDbCircle
 10
1041.325435522267
 20
779.7411889829569
 30
0.0000000000000000
 40
19.25000000000008
100
AcDbArc
 50
234.9031987724154
 51
305.0968012275846
  0
INSERT
  5
216
100
AcDbEntity
  8
MAIN0
  6
CONTINUOUS
 62
3
100
AcDbBlockReference
  2
M0
 10
0.0000000000000000
 20
0.0000000000000000
 30
0.0000000000000000
 50
0.0000000000000000
  0
INSERT
  5
252
100
AcDbEntity
  8
MAIN0
  6
CONTINUOUS
 62
3
100
AcDbBlockReference
  2
M1
 10
0.0000000000000000
 20
0.0000000000000000
 30
0.0000000000000000
 50
0.0000000000000000
  0
INSERT
  5
256
100
AcDbEntity
  8
MAIN0
  6
CONTINUOUS
 62
3
100
AcDbBlockReference
  2
M2
 10
0.0000000000000000
 20
0.0000000000000000
 30
0.0000000000000000
 50
0.0000000000000000
  0
MTEXT
  5
257
100
AcDbEntity
  8
MAIN0
  6
CONTINUOUS
 62
3
100
AcDbMText
 10
785.1020805712456
 20
400.0714346706895
 30
0.0000000000000000
 40
7.749999761581421
 41
0.0000000000000000
 71
     1
 72
     1
  1
{\H0.88x;{35}}
 11
1.000000000000000
 21
0.0000000000000000
 31
0.0000000000000000
  7
STANDARD
  0
MTEXT
  5
258
100
AcDbEntity
  8
MAIN0
  6
CONTINUOUS
 62
3
100
AcDbMText
 10
785.1020805712456
 20
382.5714346706899
 30
0.0000000000000000
 40
7.749999761581421
 41
0.0000000000000000
 71
     1
 72
     1
  1
{\H0.88x;{16}}
 11
1.000000000000000
 21
0.0000000000000000
 31
0.0000000000000000
  7
STANDARD
  0
MTEXT
  5
259
100
AcDbEntity
  8
MAIN0
  6
CONTINUOUS
 62
3
100
AcDbMText
 10
785.1020805712456
 20
366.3214346706899
 30
0.0000000000000000
 40
7.749999761581421
 41
0.0000000000000000
 71
     1
 72
     1
  1
{\H0.88x;{82}}
 11
1.000000000000000
 21
0.0000000000000000
 31
0.0000000000000000
  7
STANDARD
  0
MTEXT
  5
25A
100
AcDbEntity
  8
MAIN0
  6
CONTINUOUS
 62
3
100
AcDbMText
 10
792.6020805712456
 20
355.0714346706899
 30
0.0000000000000000
 40
7.749999761581421
 41
0.0000000000000000
 71
     1
 72
     1
  1
{\H0.91x;{8362}}
 11
1.000000000000000
 21
0.0000000000000000
 31
0.0000000000000000
  7
STANDARD
  0
MTEXT
  5
25B
100
AcDbEntity
  8
MAIN0
  6
CONTINUOUS
 62
3
100
AcDbMText
 10
785.1020805712456
 20
341.3214346706895
 30
0.0000000000000000
 40
7.749999761581421
 41
0.0000000000000000
 71
     1
 72
     1
  1
{\H0.90x;{273}}
 11
1.000000000000000
 21
0.0000000000000000
 31
0.0000000000000000
  7
STANDARD
  0
MTEXT
  5
25C
100
AcDbEntity
  8
MAIN0
  6
CONTINUOUS
 62
3
100
AcDbMText
 10
792.6020805712456
 20
330.0714346706895
 30
0.0000000000000000
 40
7.749999761581421
 41
0.0000000000000000
 71
     1
 72
     1
  1
{\H0.92x;{27838}}
 11
1.000000000000000
 21
0.0000000000000000
 31
0.0000000000000000
  7
STANDARD
  0
MTEXT
  5
25D
100
AcDbEntity
  8
MAIN0
  6
CONTINUOUS
 62
3
100
AcDbMText
 10
785.1020805712456
 20
315.0714346706895
 30
0.0000000000000000
 40
7.749999761581421
 41
0.0000000000000000
 71
     1
 72
     1
  1
{\H0.91x;{1940}}
 11
1.000000000000000
 21
0.0000000000000000
 31
0.0000000000000000
  7
STANDARD
  0
MTEXT
  5
25E
100
AcDbEntity
  8
MAIN0
  6
CONTINUOUS
 62
3
100
AcDbMText
 10
785.1020805712456
 20
297.5714346706895
 30
0.0000000000000000
 40
7.749999761581421
 41
0.0000000000000000
 71
     1
 72
     1
  1
{\H0.90x;{198}}
 11
1.000000000000000
 21
0.0000000000000000
 31
0.0000000000000000
  7
STANDARD
  0
MTEXT
  5
25F
100
AcDbEntity
  8
MAIN0
  6
CONTINUOUS
 62
3
100
AcDbMText
 10
785.1020805712456
 20
279.3214346706895
 30
0.0000000000000000
 40
7.749999761581421
 41
0.0000000000000000
 71
     1
 72
     1
  1
{\H0.90x;{7.1}}
 11
1.000000000000000
 21
0.0000000000000000
 31
0.0000000000000000
  7
STANDARD
  0
MTEXT
  5
260
100
AcDbEntity
  8
MAIN0
  6
CONTINUOUS
 62
3
100
AcDbMText
 10
785.1020805712456
 20
256.3214346706895
 30
0.0000000000000000
 40
7.749999761581421
 41
0.0000000000000000
 71
     1
 72
     1
  1
{\H0.88x;{91}}
 11
1.000000000000000
 21
0.0000000000000000
 31
0.0000000000000000
  7
STANDARD
  0
MTEXT
  5
261
100
AcDbEntity
  8
MAIN0
  6
CONTINUOUS
 62
3
100
AcDbMText
 10
792.6020805712456
 20
245.0714346706895
 30
0.0000000000000000
 40
7.749999761581421
 41
0.0000000000000000
 71
     1
 72
     1
  1
{\H0.91x;{9279}}
 11
1.000000000000000
 21
0.0000000000000000
 31
0.0000000000000000
  7
STANDARD
  0
MTEXT
  5
262
100
AcDbEntity
  8
MAIN0
  6
CONTINUOUS
 62
3
100
AcDbMText
 10
785.1020805712456
 20
230.0714346706895
 30
0.0000000000000000
 40
7.749999761581421
 41
0.0000000000000000
 71
     1
 72
     1
  1
{\H0.92x;{Y2035R}}
 11
1.000000000000000
 21
0.0000000000000000
 31
0.0000000000000000
  7
STANDARD
  0
MTEXT
  5
263
100
AcDbEntity
  8
MAIN0
  6
CONTINUOUS
 62
3
100
AcDbMText
 10
785.1020805712456
 20
213.8214346706892
 30
0.0000000000000000
 40
7.749999761581421
 41
0.0000000000000000
 71
     1
 72
     1
  1
{\H0.90x;{3.2}}
 11
1.000000000000000
 21
0.0000000000000000
 31
0.0000000000000000
  7
STANDARD
  0
MTEXT
  5
264
100
AcDbEntity
  8
MAIN0
  6
CONTINUOUS
 62
3
100
AcDbMText
 10
792.6020805712456
 20
202.3214349091078
 30
0.0000000000000000
 40
7.500000000000000
 41
0.0000000000000000
 71
     1
 72
     1
  1
{\H0.63x;{32.6}}
 11
1.000000000000000
 21
0.0000000000000000
 31
0.0000000000000000
  7
STANDARD
  0
LINE
  5
265
100
AcDbEntity
  8
MAIN0
  6
CONTINUOUS
 62
3
100
AcDbLine
 10
520.3254355222659
 20
880.9911889829571
 30
0.0000000000000000
 11
520.3254355222659
 21
893.9911947162904
 31
0.0000000000000000
  0
LINE
  5
266
100
AcDbEntity
  8
MAIN0
  6
CONTINUOUS
 62
3
100
AcDbLine
 10
520.3254355222659
 20
913.9911724996238
 30
0.0000000000000000
 11
520.3254355222659
 21
926.9911889829571
 31
0.0000000000000000
  0
LINE
  5
267
100
AcDbEntity
  8
MAIN0
  6
CONTINUOUS
 62
3
100
AcDbLine
 10
467.3461614644295
 20
274.4311212226612
 30
0.0000000000000000
 11
463.3047095801021
 21
274.4311212226612
 31
0.0000000000000000
  0
LINE
  5
268
100
AcDbEntity
  8
MAIN0
  6
CONTINUOUS
 62
3
100
AcDbLine
 10
463.3047095801020
 20
267.4311212226612
 30
0.0000000000000000
 11
467.3461614644294
 21
267.4311212226612
 31
0.0000000000000000
  0
LINE
  5
269
100
AcDbEntity
  8
MAIN0
  6
CONTINUOUS
 62
3
100
AcDbLine
 10
469.3668874065918
 20
270.9311212226631
 30
0.0000000000000000
 11
467.3461614644277
 21
274.4311212226638
 31
0.0000000000000000
  0
LINE
  5
26A
100
AcDbEntity
  8
MAIN0
  6
CONTINUOUS
 62
3
100
AcDbLine
 10
463.3047095801030
 20
274.4311212226629
 30
0.0000000000000000
 11
461.2839836379390
 21
270.9311212226623
 31
0.0000000000000000
  0
LINE
  5
26B
100
AcDbEntity
  8
MAIN0
  6
CONTINUOUS
 62
3
100
AcDbLine
 10
461.2839836379370
 20
270.9311212226633
 30
0.0000000000000000
 11
463.3047095801011
 21
267.4311212226626
 31
0.0000000000000000
  0
LINE
  5
26C
100
AcDbEntity
  8
MAIN0
  6
CONTINUOUS
 62
3
100
AcDbLine
 10
467.3461614644306
 20
267.4311212226631
 30
0.0000000000000000
 11
469.3668874065946
 21
270.9311212226638
 31
0.0000000000000000
  0
CIRCLE
  5
26D
100
AcDbEntity
  8
MAIN0
  6
CONTINUOUS
 62
3
100
AcDbCircle
 10
465.3254355222657
 20
270.9311212226612
 30
0.0000000000000000
 40
2.154065922853398
  0
CIRCLE
  5
26E
100
AcDbEntity
  8
MAIN0
  6
CONTINUOUS
 62
3
100
AcDbCircle
 10
465.3254355222657
 20
270.9311212226612
 30
0.0000000000000000
 40
3.299999999999997
  0
CIRCLE
  5
26F
100
AcDbEntity
  8
MAIN0
  6
CONTINUOUS
 62
3
100
AcDbCircle
 10
465.3254355222657
 20
270.9311212226612
 30
0.0000000000000000
 40
0.9914283891267653
  0
LINE
  5
270
100
AcDbEntity
  8
MAIN0
  6
CONTINUOUS
 62
3
100
AcDbLine
 10
537.3254505222658
 20
918.9911889829571
 30
0.0000000000000000
 11
556.3254655222659
 21
918.9911739829570
 31
0.0000000000000000
  0
LINE
  5
271
100
AcDbEntity
  8
MAIN0
  6
CONTINUOUS
 62
3
100
AcDbLine
 10
556.3255115222657
 20
888.9911819829570
 30
0.0000000000000000
 11
537.3254205222657
 21
888.9911889829569
 31
0.0000000000000000
  0
LINE
  5
272
100
AcDbEntity
  8
MAIN0
  6
CONTINUOUS
 62
3
100
AcDbLine
 10
556.3254425222658
 20
918.9911739829570
 30
0.0000000000000000
 11
556.3254275222657
 21
888.9911819829571
 31
0.0000000000000000
  0
LINE
  5
273
100
AcDbEntity
  8
MAIN0
  6
CONTINUOUS
 62
3
100
AcDbLine
 10
557.3254815222658
 20
917.2591339829570
 30
0.0000000000000000
 11
556.3254425222659
 21
918.9911739829570
 31
0.0000000000000000
  0
LINE
  5
274
100
AcDbEntity
  8
MAIN0
  6
CONTINUOUS
 62
3
100
AcDbLine
 10
557.3254655222659
 20
890.7234199829570
 30
0.0000000000000000
 11
556.3254275222658
 21
888.9911819829570
 31
0.0000000000000000
  0
LINE
  5
275
100
AcDbEntity
  8
MAIN0
  6
CONTINUOUS
 62
3
100
AcDbLine
 10
557.3254355222658
 20
890.7233680177917
 30
0.0000000000000000
 11
557.3254355222658
 21
917.2592136536897
 31
0.0000000000000000
  0
LINE
  5
276
100
AcDbEntity
  8
MAIN0
  6
CONTINUOUS
 62
3
100
AcDbLine
 10
523.3254355222658
 20
893.9911889829571
 30
0.0000000000000000
 11
523.3254355222659
 21
913.9911889829571
 31
0.0000000000000000
  0
LINE
  5
277
100
AcDbEntity
  8
MAIN0
  6
CONTINUOUS
 62
3
100
AcDbLine
 10
514.3254355222659
 20
913.9911747996238
 30
0.0000000000000000
 11
537.3254355222657
 21
913.9911659829571
 31
0.0000000000000000
  0
LINE
  5
278
100
AcDbEntity
  8
MAIN0
  6
CONTINUOUS
 62
12
100
AcDbLine
 10
514.3254355222659
 20
912.9911889829571
 30
0.0000000000000000
 11
523.3254355222659
 21
912.9911889829571
 31
0.0000000000000000
  0
LINE
  5
279
100
AcDbEntity
  8
MAIN0
  6
CONTINUOUS
 62
12
100
AcDbLine
 10
514.3254355222659
 20
894.9911889829571
 30
0.0000000000000000
 11
523.3254355222659
 21
894.9911889829571
 31
0.0000000000000000
  0
LINE
  5
27A
100
AcDbEntity
  8
MAIN0
  6
CONTINUOUS
 62
3
100
AcDbLine
 10
514.3254355222659
 20
893.9911939162903
 30
0.0000000000000000
 11
537.3254355222657
 21
893.9911969829570
 31
0.0000000000000000
  0
LINE
  5
27B
100
AcDbEntity
  8
MAIN0
  6
CONTINUOUS
 62
3
100
AcDbLine
 10
537.3254505222658
 20
858.9911889829571
 30
0.0000000000000000
 11
556.3254655222657
 21
858.9911739829571
 31
0.0000000000000000
  0
LINE
  5
27C
100
AcDbEntity
  8
MAIN0
  6
CONTINUOUS
 62
3
100
AcDbLine
 10
556.3255115222657
 20
828.9911819829570
 30
0.0000000000000000
 11
537.3254205222656
 21
828.9911889829571
 31
0.0000000000000000
  0
LINE
  5
27D
100
AcDbEntity
  8
MAIN0
  6
CONTINUOUS
 62
3
100
AcDbLine
 10
556.3254425222658
 20
858.9911739829570
 30
0.0000000000000000
 11
556.3254275222658
 21
828.9911819829570
 31
0.0000000000000000
  0
LINE
  5
27E
100
AcDbEntity
  8
MAIN0
  6
CONTINUOUS
 62
3
100
AcDbLine
 10
557.3254815222658
 20
857.2591339829570
 30
0.0000000000000000
 11
556.3254425222659
 21
858.9911739829570
 31
0.0000000000000000
  0
LINE
  5
27F
100
AcDbEntity
  8
MAIN0
  6
CONTINUOUS
 62
3
100
AcDbLine
 10
557.3254655222659
 20
830.7234199829570
 30
0.0000000000000000
 11
556.3254275222658
 21
828.9911819829570
 31
0.0000000000000000
  0
LINE
  5
280
100
AcDbEntity
  8
MAIN0
  6
CONTINUOUS
 62
3
100
AcDbLine
 10
557.3254355222658
 20
830.7233680177917
 30
0.0000000000000000
 11
557.3254355222658
 21
857.2592136536897
 31
0.0000000000000000
  0
LINE
  5
281
100
AcDbEntity
  8
MAIN0
  6
CONTINUOUS
 62
3
100
AcDbLine
 10
523.3254355222658
 20
833.9911889829571
 30
0.0000000000000000
 11
523.3254355222659
 21
853.9911889829571
 31
0.0000000000000000
  0
LINE
  5
282
100
AcDbEntity
  8
MAIN0
  6
CONTINUOUS
 62
3
100
AcDbLine
 10
514.3254355222659
 20
853.9911747996237
 30
0.0000000000000000
 11
537.3254355222658
 21
853.9911659829570
 31
0.0000000000000000
  0
LINE
  5
283
100
AcDbEntity
  8
MAIN0
  6
CONTINUOUS
 62
12
100
AcDbLine
 10
514.3254355222659
 20
852.9911889829571
 30
0.0000000000000000
 11
523.3254355222659
 21
852.9911889829571
 31
0.0000000000000000
  0
LINE
  5
284
100
AcDbEntity
  8
MAIN0
  6
CONTINUOUS
 62
12
100
AcDbLine
 10
514.3254355222659
 20
834.9911889829571
 30
0.0000000000000000
 11
523.3254355222659
 21
834.9911889829571
 31
0.0000000000000000
  0
LINE
  5
285
100
AcDbEntity
  8
MAIN0
  6
CONTINUOUS
 62
3
100
AcDbLine
 10
514.3254355222659
 20
833.9911939162903
 30
0.0000000000000000
 11
537.3254355222658
 21
833.9911969829570
 31
0.0000000000000000
  0
LINE
  5
286
100
AcDbEntity
  8
MAIN0
  6
CONTINUOUS
 62
3
100
AcDbLine
 10
506.8254355222659
 20
590.9911889829577
 30
0.0000000000000000
 11
494.8254355222662
 21
590.9911889829577
 31
0.0000000000000000
  0
LINE
  5
287
100
AcDbEntity
  8
MAIN0
  6
CONTINUOUS
 62
3
100
AcDbLine
 10
506.8254355222659
 20
596.9911889829575
 30
0.0000000000000000
 11
494.8254355222662
 21
596.9911889829575
 31
0.0000000000000000
  0
LINE
  5
288
100
AcDbEntity
  8
MAIN0
  6
CONTINUOUS
 62
3
100
AcDbLine
 10
511.0254355222659
 20
591.9911889829574
 30
0.0000000000000000
 11
511.0254355222659
 21
595.9911889829582
 31
0.0000000000000000
  0
LINE
  5
289
100
AcDbEntity
  8
MAIN0
  6
CONTINUOUS
 62
3
100
AcDbLine
 10
494.8254355222661
 20
590.9911889829579
 30
0.0000000000000000
 11
494.8254355222661
 21
596.9911889829576
 31
0.0000000000000000
  0
LINE
  5
28A
100
AcDbEntity
  8
MAIN0
  6
CONTINUOUS
 62
3
100
AcDbLine
 10
504.8254355222659
 20
596.9911889829575
 30
0.0000000000000000
 11
504.8254355222659
 21
590.9911889829577
 31
0.0000000000000000
  0
LINE
  5
28B
100
AcDbEntity
  8
MAIN0
  6
CONTINUOUS
 62
12
100
AcDbLine
 10
504.8254355222659
 20
591.9911889829577
 30
0.0000000000000000
 11
494.8254355222661
 21
591.9911889829579
 31
0.0000000000000000
  0
LINE
  5
28C
100
AcDbEntity
  8
MAIN0
  6
CONTINUOUS
 62
12
100
AcDbLine
 10
504.8254355222659
 20
595.9911889829575
 30
0.0000000000000000
 11
494.8254355222662
 21
595.9911889829575
 31
0.0000000000000000
  0
LINE
  5
28D
100
AcDbEntity
  8
MAIN0
  6
CONTINUOUS
 62
3
100
AcDbLine
 10
506.8254355222659
 20
588.7411889829577
 30
0.0000000000000000
 11
506.8254355222659
 21
599.2411889829579
 31
0.0000000000000000
  0
ARC
  5
28E
100
AcDbEntity
  8
MAIN0
  6
CONTINUOUS
 62
3
100
AcDbCircle
 10
506.1203759984564
 20
593.9911889829577
 30
0.0000000000000000
 40
5.297132142217585
100
AcDbArc
 50
277.6488890354127
 51
337.8172021529632
  0
ARC
  5
28F
100
AcDbEntity
  8
MAIN0
  6
CONTINUOUS
 62
3
100
AcDbCircle
 10
506.1203759984564
 20
593.9911889829577
 30
0.0000000000000000
 40
5.297132142217585
100
AcDbArc
 50
22.18279784703669
 51
82.35111096458650
  0
LINE
  5
290
100
AcDbEntity
  8
MAIN0
  6
CONTINUOUS
 62
3
100
AcDbLine
 10
1041.325435522264
 20
913.8061459829564
 30
0.0000000000000000
 11
1032.825435522264
 21
908.8986669829563
 31
0.0000000000000000
  0
LINE
  5
291
100
AcDbEntity
  8
MAIN0
  6
CONTINUOUS
 62
3
100
AcDbLine
 10
1032.825435522264
 20
908.8986669829568
 30
0.0000000000000000
 11
1032.825435522264
 21
899.0837029829568
 31
0.0000000000000000
  0
LINE
  5
292
100
AcDbEntity
  8
MAIN0
  6
CONTINUOUS
 62
3
100
AcDbLine
 10
1032.825435522261
 20
899.0837029829565
 30
0.0000000000000000
 11
1041.325435522262
 21
894.1762319829560
 31
0.0000000000000000
  0
LINE
  5
293
100
AcDbEntity
  8
MAIN0
  6
CONTINUOUS
 62
3
100
AcDbLine
 10
1041.325435522264
 20
894.1762319829563
 30
0.0000000000000000
 11
1049.825435522265
 21
899.0837179829565
 31
0.0000000000000000
  0
LINE
  5
294
100
AcDbEntity
  8
MAIN0
  6
CONTINUOUS
 62
3
100
AcDbLine
 10
1049.825435522264
 20
899.0837179829568
 30
0.0000000000000000
 11
1049.825435522264
 21
908.8986669829568
 31
0.0000000000000000
  0
LINE
  5
295
100
AcDbEntity
  8
MAIN0
  6
CONTINUOUS
 62
3
100
AcDbLine
 10
1049.825435522262
 20
908.8986669829552
 30
0.0000000000000000
 11
1041.325435522261
 21
913.8061459829553
 31
0.0000000000000000
  0
CIRCLE
  5
296
100
AcDbEntity
  8
MAIN0
  6
CONTINUOUS
 62
3
100
AcDbCircle
 10
1041.325435522264
 20
903.9911889829568
 30
0.0000000000000000
 40
15.00000000000000
  0
LINE
  5
297
100
AcDbEntity
  8
MAIN0
  6
CONTINUOUS
 62
3
100
AcDbLine
 10
1041.325435522264
 20
853.8061459829560
 30
0.0000000000000000
 11
1032.825435522265
 21
848.8986669829569
 31
0.0000000000000000
  0
LINE
  5
298
100
AcDbEntity
  8
MAIN0
  6
CONTINUOUS
 62
3
100
AcDbLine
 10
1032.825435522264
 20
848.8986669829568
 30
0.0000000000000000
 11
1032.825435522264
 21
839.0837029829568
 31
0.0000000000000000
  0
LINE
  5
299
100
AcDbEntity
  8
MAIN0
  6
CONTINUOUS
 62
3
100
AcDbLine
 10
1032.825435522264
 20
839.0837029829565
 30
0.0000000000000000
 11
1041.325435522262
 21
834.1762319829578
 31
0.0000000000000000
  0
LINE
  5
29A
100
AcDbEntity
  8
MAIN0
  6
CONTINUOUS
 62
3
100
AcDbLine
 10
1041.325435522265
 20
834.1762319829564
 30
0.0000000000000000
 11
1049.825435522265
 21
839.0837179829566
 31
0.0000000000000000
  0
LINE
  5
29B
100
AcDbEntity
  8
MAIN0
  6
CONTINUOUS
 62
3
100
AcDbLine
 10
1049.825435522264
 20
839.0837179829568
 30
0.0000000000000000
 11
1049.825435522264
 21
848.8986669829568
 31
0.0000000000000000
  0
LINE
  5
29C
100
AcDbEntity
  8
MAIN0
  6
CONTINUOUS
 62
3
100
AcDbLine
 10
1049.825435522261
 20
848.8986669829566
 30
0.0000000000000000
 11
1041.325435522264
 21
853.8061459829548
 31
0.0000000000000000
  0
CIRCLE
  5
29D
100
AcDbEntity
  8
MAIN0
  6
CONTINUOUS
 62
3
100
AcDbCircle
 10
1041.325435522264
 20
843.9911889829568
 30
0.0000000000000000
 40
15.00000000000000
  0
CIRCLE
  5
29E
100
AcDbEntity
  8
MAIN0
  6
CONTINUOUS
 62
12
100
AcDbCircle
 10
846.9027323726575
 20
567.2411889829580
 30
0.0000000000000000
 40
9.999999999999998
  0
CIRCLE
  5
29F
100
AcDbEntity
  8
MAIN0
  6
CONTINUOUS
 62
3
100
AcDbCircle
 10
846.9027323726575
 20
567.2411889829580
 30
0.0000000000000000
 40
8.749999999999996
  0
LINE
  5
2A0
100
AcDbEntity
  8
MAIN0
  6
CONTINUOUS
 62
3
100
AcDbLine
 10
1114.215907007455
 20
724.2411889829574
 30
0.0000000000000000
 11
1116.525308084213
 21
724.2411889829574
 31
0.0000000000000000
  0
LINE
  5
2A1
100
AcDbEntity
  8
MAIN0
  6
CONTINUOUS
 62
3
100
AcDbLine
 10
1116.525308084214
 20
720.2411889829572
 30
0.0000000000000000
 11
1117.680008622592
 21
722.2411889829552
 31
0.0000000000000000
  0
LINE
  5
2A2
100
AcDbEntity
  8
MAIN0
  6
CONTINUOUS
 62
3
100
AcDbLine
 10
1116.525308084213
 20
724.2411889829604
 30
0.0000000000000000
 11
1117.680008622593
 21
722.2411889829591
 31
0.0000000000000000
  0
LINE
  5
2A3
100
AcDbEntity
  8
MAIN0
  6
CONTINUOUS
 62
3
100
AcDbLine
 10
1114.215907007455
 20
720.2411889829575
 30
0.0000000000000000
 11
1116.525308084213
 21
720.2411889829575
 31
0.0000000000000000
  0
LINE
  5
2A4
100
AcDbEntity
  8
MAIN0
  6
CONTINUOUS
 62
3
100
AcDbLine
 10
1113.061206469075
 20
722.2411889829564
 30
0.0000000000000000
 11
1114.215907007455
 21
724.2411889829576
 31
0.0000000000000000
  0
LINE
  5
2A5
100
AcDbEntity
  8
MAIN0
  6
CONTINUOUS
 62
3
100
AcDbLine
 10
1114.215907007455
 20
720.2411889829590
 30
0.0000000000000000
 11
1113.061206469075
 21
722.2411889829602
 31
0.0000000000000000
  0
CIRCLE
  5
2A6
100
AcDbEntity
  8
MAIN0
  6
CONTINUOUS
 62
3
100
AcDbCircle
 10
1115.370607545835
 20
722.2411889829575
 30
0.0000000000000000
 40
5.249999999999996
  0
LINE
  5
2A7
100
AcDbEntity
  8
MAIN0
  6
CONTINUOUS
 62
3
100
AcDbLine
 10
389.3254355222658
 20
414.4911889829609
 30
0.0000000000000000
 11
508.3254355222658
 21
414.4911889829609
 31
0.0000000000000000
  0
LINE
  5
2A8
100
AcDbEntity
  8
MAIN0
  6
CONTINUOUS
 62
3
100
AcDbLine
 10
502.3254355222658
 20
765.4911889829573
 30
0.0000000000000000
 11
512.3254355222659
 21
765.4911889829573
 31
0.0000000000000000
  0
LINE
  5
2A9
100
AcDbEntity
  8
MAIN0
  6
CONTINUOUS
 62
3
100
AcDbLine
 10
392.3254355222659
 20
727.5411889829568
 30
0.0000000000000000
 11
392.3254355222659
 21
869.4911889829572
 31
0.0000000000000000
  0
LINE
  5
2AA
100
AcDbEntity
  8
MAIN0
  6
CONTINUOUS
 62
3
100
AcDbLine
 10
386.3254355222661
 20
869.4911889829572
 30
0.0000000000000000
 11
392.3254355222659
 21
869.4911889829572
 31
0.0000000000000000
  0
LINE
  5
2AB
100
AcDbEntity
  8
MAIN0
  6
CONTINUOUS
 62
3
100
AcDbLine
 10
386.3254355222659
 20
489.4911889829573
 30
0.0000000000000000
 11
392.3254355222658
 21
489.4911889829573
 31
0.0000000000000000
  0
LINE
  5
2AC
100
AcDbEntity
  8
MAIN0
  6
CENTER
 62
12
100
AcDbLine
 10
384.5840814032287
 20
561.9911889829575
 30
0.0000000000000000
 11
432.7479364943250
 21
561.9911889829575
 31
0.0000000000000000
  0
LINE
  5
2AD
100
AcDbEntity
  8
MAIN0
  6
CENTER
 62
12
100
AcDbLine
 10
386.8329287992343
 20
844.5911889829571
 30
0.0000000000000000
 11
435.2062939382051
 21
844.5911889829571
 31
0.0000000000000000
  0
LINE
  5
2AE
100
AcDbEntity
  8
MAIN0
  6
CONTINUOUS
 62
3
100
AcDbLine
 10
389.3254355222660
 20
944.4911889829536
 30
0.0000000000000000
 11
508.3254355222659
 21
944.4911889829536
 31
0.0000000000000000
  0
LINE
  5
2AF
100
AcDbEntity
  8
MAIN0
  6
CONTINUOUS
 62
3
100
AcDbLine
 10
386.3254355222660
 20
709.4911889829564
 30
0.0000000000000000
 11
386.3254355222660
 21
941.4911889829536
 31
0.0000000000000000
  0
LINE
  5
2B0
100
AcDbEntity
  8
MAIN0
  6
CENTER
 62
12
100
AcDbLine
 10
754.9311958271810
 20
679.4911889829573
 30
0.0000000000000000
 11
1322.623409900067
 21
679.4911889829573
 31
0.0000000000000000
  0
LINE
  5
2B1
100
AcDbEntity
  8
MAIN0
  6
CONTINUOUS
 62
3
100
AcDbLine
 10
389.3254355222679
 20
944.4911889829550
 30
0.0000000000000000
 11
386.3254355222680
 21
941.4911889829550
 31
0.0000000000000000
  0
LINE
  5
2B2
100
AcDbEntity
  8
MAIN0
  6
CONTINUOUS
 62
3
100
AcDbLine
 10
508.3254355222658
 20
414.4911889829576
 30
0.0000000000000000
 11
511.3254355222658
 21
417.4911889829576
 31
0.0000000000000000
  0
LINE
  5
2B3
100
AcDbEntity
  8
MAIN0
  6
CONTINUOUS
 62
3
100
AcDbLine
 10
389.3254355222678
 20
414.4911889829596
 30
0.0000000000000000
 11
386.3254355222678
 21
417.4911889829596
 31
0.0000000000000000
  0
LINE
  5
2B4
100
AcDbEntity
  8
MAIN0
  6
CONTINUOUS
 62
3
100
AcDbLine
 10
508.3254355222659
 20
944.4911889829569
 30
0.0000000000000000
 11
510.3254355222659
 21
942.4911889829568
 31
0.0000000000000000
  0
LINE
  5
2B5
100
AcDbEntity
  8
MAIN0
  6
DASHED
 62
3
100
AcDbLine
 10
510.3254355222659
 20
942.4911889829569
 30
0.0000000000000000
 11
511.3254355222659
 21
941.4911889829571
 31
0.0000000000000000
  0
LINE
  5
2B6
100
AcDbEntity
  8
MAIN0
  6
CENTER
 62
12
100
AcDbLine
 10
1280.950791534982
 20
541.1434251843510
 30
0.0000000000000000
 11
1097.360945303189
 21
647.1390723267587
 31
0.0000000000000000
  0
LINE
  5
2B7
100
AcDbEntity
  8
MAIN0
  6
CONTINUOUS
 62
3
100
AcDbLine
 10
1252.840116717572
 20
519.8453633599631
 30
0.0000000000000000
 11
1087.326378911775
 21
615.4047644367215
 31
0.0000000000000000
  0
LINE
  5
2B8
100
AcDbEntity
  8
MAIN0
  6
CONTINUOUS
 62
3
100
AcDbLine
 10
1285.340116717568
 20
576.1370146059439
 30
0.0000000000000000
 11
1119.826378833389
 21
671.6964155469416
 31
0.0000000000000000
  0
LINE
  5
2B9
100
AcDbEntity
  8
MAIN0
  6
CENTER
 62
12
100
AcDbLine
 10
451.3254355222658
 20
408.1913710038616
 30
0.0000000000000000
 11
451.3254355222658
 21
459.3276664953435
 31
0.0000000000000000
  0
LINE
  5
2BA
100
AcDbEntity
  8
MAIN0
  6
CENTER
 62
12
100
AcDbLine
 10
1138.398854932530
 20
847.6272834659832
 30
0.0000000000000000
 11
1160.545041715465
 21
885.9856041679367
 31
0.0000000000000000
  0
LINE
  5
2BB
100
AcDbEntity
  8
MAIN0
  6
CONTINUOUS
 62
3
100
AcDbLine
 10
386.3254355222659
 20
417.4911889829609
 30
0.0000000000000000
 11
386.3254355222659
 21
503.3911889829585
 31
0.0000000000000000
  0
LINE
  5
2BC
100
AcDbEntity
  8
MAIN0
  6
CONTINUOUS
 62
3
100
AcDbLine
 10
386.3254355222659
 20
525.3911889829585
 30
0.0000000000000000
 11
386.3254355222659
 21
649.4911889829575
 31
0.0000000000000000
  0
ARC
  5
2BD
100
AcDbEntity
  8
MAIN0
  6
CONTINUOUS
 62
3
100
AcDbCircle
 10
1041.325435522264
 20
679.4911889829573
 30
0.0000000000000000
 40
145.0000000000000
100
AcDbArc
 50
102.9521905958739
 51
197.0478094041253
  0
ARC
  5
2BE
100
AcDbEntity
  8
MAIN0
  6
CONTINUOUS
 62
3
100
AcDbCircle
 10
1041.325435522264
 20
679.4911889829573
 30
0.0000000000000000
 40
145.0000000000000
100
AcDbArc
 50
222.9521905554000
 51
317.0478094041256
  0
ARC
  5
2BF
100
AcDbEntity
  8
MAIN0
  6
CONTINUOUS
 62
3
100
AcDbCircle
 10
1041.325435522264
 20
679.4911889829573
 30
0.0000000000000000
 40
145.0000000000000
100
AcDbArc
 50
342.9521905554001
 51
437.0478094041259
  0
ARC
  5
2C0
100
AcDbEntity
  8
MAIN0
  6
CENTER
 62
12
100
AcDbCircle
 10
1041.325435522264
 20
679.4911889829573
 30
0.0000000000000000
 40
217.5000000000000
100
AcDbArc
 50
48.59968861268700
 51
71.99050740876295
  0
ARC
  5
2C1
100
AcDbEntity
  8
MAIN0
  6
CONTINUOUS
 62
3
100
AcDbCircle
 10
1041.325435522264
 20
679.4911889829573
 30
0.0000000000000000
 40
170.0000000000000
100
AcDbArc
 50
65.92613616505339
 51
78.97855036448270
  0
ARC
  5
2C2
100
AcDbEntity
  8
MAIN0
  6
CONTINUOUS
 62
3
100
AcDbCircle
 10
1041.325435522264
 20
679.4911889829573
 30
0.0000000000000000
 40
170.0000000000000
100
AcDbArc
 50
341.0214496084381
 51
354.0738638349457
  0
ARC
  5
2C3
100
AcDbEntity
  8
MAIN0
  6
CONTINUOUS
 62
3
100
AcDbCircle
 10
1041.325435522264
 20
679.4911889829573
 30
0.0000000000000000
 40
170.0000000000000
100
AcDbArc
 50
5.926136165054174
 51
54.07386383494578
  0
ARC
  5
2C4
100
AcDbEntity
  8
MAIN0
  6
CONTINUOUS
 62
3
100
AcDbCircle
 10
1041.325435522264
 20
679.4911889829573
 30
0.0000000000000000
 40
170.0000000000000
100
AcDbArc
 50
305.9261361650539
 51
318.9785503644828
  0
ARC
  5
2C5
100
AcDbEntity
  8
MAIN0
  6
CONTINUOUS
 62
3
100
AcDbCircle
 10
1041.325435522264
 20
679.4911889829573
 30
0.0000000000000000
 40
170.0000000000000
100
AcDbArc
 50
221.0214496084380
 51
234.0738638349457
  0
ARC
  5
2C6
100
AcDbEntity
  8
MAIN0
  6
CONTINUOUS
 62
3
100
AcDbCircle
 10
1041.325435522264
 20
679.4911889829573
 30
0.0000000000000000
 40
170.0000000000000
100
AcDbArc
 50
245.9261361650540
 51
294.0738638349456
  0
ARC
  5
2C7
100
AcDbEntity
  8
MAIN0
  6
CONTINUOUS
 62
3
100
AcDbCircle
 10
1041.325435522264
 20
679.4911889829573
 30
0.0000000000000000
 40
170.0000000000000
100
AcDbArc
 50
185.9261361650541
 51
198.9785503644826
  0
ARC
  5
2C8
100
AcDbEntity
  8
MAIN0
  6
CONTINUOUS
 62
3
100
AcDbCircle
 10
1041.325435522264
 20
679.4911889829573
 30
0.0000000000000000
 40
170.0000000000000
100
AcDbArc
 50
101.0214496355167
 51
114.0738638349452
  0
ARC
  5
2C9
100
AcDbEntity
  8
MAIN0
  6
CONTINUOUS
 62
3
100
AcDbCircle
 10
1041.325435522264
 20
679.4911889829573
 30
0.0000000000000000
 40
170.0000000000000
100
AcDbArc
 50
125.9261361650541
 51
174.0738638349455
  0
LINE
  5
2CA
100
AcDbEntity
  8
MAIN0
  6
CONTINUOUS
 62
3
100
AcDbLine
 10
426.9222535290536
 20
601.4911889829577
 30
0.0000000000000000
 11
502.3254355222658
 21
601.4911889829577
 31
0.0000000000000000
  0
LINE
  5
2CB
100
AcDbEntity
  8
MAIN0
  6
CONTINUOUS
 62
3
100
AcDbLine
 10
410.3254355222659
 20
581.2661889829575
 30
0.0000000000000000
 11
410.3254355222659
 21
598.8434796221969
 31
0.0000000000000000
  0
ARC
  5
2CC
100
AcDbEntity
  8
MAIN0
  6
CONTINUOUS
 62
3
100
AcDbCircle
 10
1041.325435522264
 20
679.4911889829573
 30
0.0000000000000000
 40
265.0000000000000
100
AcDbArc
 50
97.04457623674588
 51
305.5325427440659
  0
ARC
  5
2CD
100
AcDbEntity
  8
MAIN0
  6
CONTINUOUS
 62
3
100
AcDbCircle
 10
1041.325435522264
 20
679.4911889829573
 30
0.0000000000000000
 40
265.0000000000000
100
AcDbArc
 50
306.4331826553303
 51
442.9554237632539
  0
LINE
  5
2CE
100
AcDbEntity
  8
MAIN0
  6
CONTINUOUS
 62
3
100
AcDbLine
 10
502.3254355222658
 20
755.9911889829573
 30
0.0000000000000000
 11
503.3254355222659
 21
755.9911889829573
 31
0.0000000000000000
  0
LINE
  5
2CF
100
AcDbEntity
  8
MAIN0
  6
CONTINUOUS
 62
3
100
AcDbLine
 10
503.3254355222653
 20
755.9911889829572
 30
0.0000000000000000
 11
511.3254355222660
 21
751.3723868294397
 31
0.0000000000000000
  0
LINE
  5
2D0
100
AcDbEntity
  8
MAIN0
  6
CENTER
 62
12
100
AcDbLine
 10
493.7664380294611
 20
593.9911889829577
 30
0.0000000000000000
 11
511.8635211972938
 21
593.9911889829577
 31
0.0000000000000000
  0
LINE
  5
2D1
100
AcDbEntity
  8
MAIN0
  6
CONTINUOUS
 62
3
100
AcDbLine
 10
502.3254355222658
 20
586.4911889829577
 30
0.0000000000000000
 11
511.3254355222658
 21
586.4911889829577
 31
0.0000000000000000
  0
LINE
  5
2D2
100
AcDbEntity
  8
MAIN0
  6
CONTINUOUS
 62
3
100
AcDbLine
 10
502.3254355222658
 20
586.4911889829577
 30
0.0000000000000000
 11
502.3254355222658
 21
590.9911889829579
 31
0.0000000000000000
  0
LINE
  5
2D3
100
AcDbEntity
  8
MAIN0
  6
CONTINUOUS
 62
3
100
AcDbLine
 10
502.3254355222658
 20
596.9911889829576
 30
0.0000000000000000
 11
502.3254355222658
 21
765.4911889829573
 31
0.0000000000000000
  0
LINE
  5
2D4
100
AcDbEntity
  8
MAIN0
  6
CONTINUOUS
 62
3
100
AcDbLine
 10
506.8254355222659
 20
588.4911889829579
 30
0.0000000000000000
 11
506.8254355222659
 21
599.4911889829579
 31
0.0000000000000000
  0
LINE
  5
2D5
100
AcDbEntity
  8
MAIN0
  6
CONTINUOUS
 62
3
100
AcDbLine
 10
506.8254355222659
 20
599.4911889829577
 30
0.0000000000000000
 11
511.3254355222658
 21
599.4911889829577
 31
0.0000000000000000
  0
LINE
  5
2D6
100
AcDbEntity
  8
MAIN0
  6
CONTINUOUS
 62
3
100
AcDbLine
 10
506.8254355222659
 20
588.4911889829577
 30
0.0000000000000000
 11
511.3254355222658
 21
588.4911889829577
 31
0.0000000000000000
  0
LINE
  5
2D7
100
AcDbEntity
  8
MAIN0
  6
CONTINUOUS
 62
3
100
AcDbLine
 10
502.3254355222658
 20
597.2911889829577
 30
0.0000000000000000
 11
506.8254355222658
 21
597.2911889829577
 31
0.0000000000000000
  0
LINE
  5
2D8
100
AcDbEntity
  8
MAIN0
  6
CONTINUOUS
 62
3
100
AcDbLine
 10
502.3254355222658
 20
590.6911889829578
 30
0.0000000000000000
 11
506.8254355222658
 21
590.6911889829578
 31
0.0000000000000000
  0
LINE
  5
2D9
100
AcDbEntity
  8
MAIN0
  6
CONTINUOUS
 62
3
100
AcDbLine
 10
1073.825435522264
 20
755.9911889829573
 30
0.0000000000000000
 11
1008.825435522262
 21
755.9911889829573
 31
0.0000000000000000
  0
LINE
  5
2DA
100
AcDbEntity
  8
MAIN0
  6
CONTINUOUS
 62
3
100
AcDbLine
 10
1073.825435522264
 20
751.3723868294396
 30
0.0000000000000000
 11
1008.825435522262
 21
751.3723868294396
 31
0.0000000000000000
  0
LINE
  5
2DB
100
AcDbEntity
  8
MAIN0
  6
CONTINUOUS
 62
3
100
AcDbLine
 10
958.8244921327552
 20
669.3870146059503
 30
0.0000000000000000
 11
991.3244921327549
 21
613.0953633599621
 31
0.0000000000000000
  0
LINE
  5
2DC
100
AcDbEntity
  8
MAIN0
  6
CONTINUOUS
 62
3
100
AcDbLine
 10
962.8244921327547
 20
671.6964156827082
 30
0.0000000000000000
 11
995.3244921327544
 21
615.4047644367203
 31
0.0000000000000000
  0
LINE
  5
2DD
100
AcDbEntity
  8
MAIN0
  6
CONTINUOUS
 62
3
100
AcDbLine
 10
1091.326378911775
 20
613.0953633599640
 30
0.0000000000000000
 11
1123.826378911774
 21
669.3870146059518
 31
0.0000000000000000
  0
LINE
  5
2DE
100
AcDbEntity
  8
MAIN0
  6
CONTINUOUS
 62
3
100
AcDbLine
 10
1087.326378911775
 20
615.4047644367226
 30
0.0000000000000000
 11
1119.826378911775
 21
671.6964156827104
 31
0.0000000000000000
  0
LINE
  5
2DF
100
AcDbEntity
  8
MAIN0
  6
CENTER
 62
12
100
AcDbLine
 10
1105.820859896466
 20
716.7276396069018
 30
0.0000000000000000
 11
1127.756968932231
 21
729.3924580636744
 31
0.0000000000000000
  0
LINE
  5
2E0
100
AcDbEntity
  8
MAIN0
  6
CENTER
 62
12
100
AcDbLine
 10
960.7850729703118
 20
725.9911889829566
 30
0.0000000000000000
 11
976.7619671500718
 21
716.7669248274581
 31
0.0000000000000000
  0
ARC
  5
2E1
100
AcDbEntity
  8
MAIN0
  6
CONTINUOUS
 62
3
100
AcDbCircle
 10
1041.325435522264
 20
679.4911889829573
 30
0.0000000000000000
 40
92.99999999999994
100
AcDbArc
 50
110.4544345254902
 51
189.5455654745091
  0
ARC
  5
2E2
100
AcDbEntity
  8
MAIN0
  6
CONTINUOUS
 62
3
100
AcDbCircle
 10
1041.325435522264
 20
679.4911889829573
 30
0.0000000000000000
 40
92.99999999999994
100
AcDbArc
 50
230.4544344306346
 51
309.5455654745093
  0
ARC
  5
2E3
100
AcDbEntity
  8
MAIN0
  6
CONTINUOUS
 62
3
100
AcDbCircle
 10
1041.325435522264
 20
679.4911889829573
 30
0.0000000000000000
 40
92.99999999999994
100
AcDbArc
 50
350.4544344306345
 51
429.5455654745098
  0
ARC
  5
2E4
100
AcDbEntity
  8
MAIN0
  6
CENTER
 62
12
100
AcDbCircle
 10
1041.325435522264
 20
679.4911889829573
 30
0.0000000000000000
 40
85.49999999999994
100
AcDbArc
 50
21.99044973935580
 51
38.86479085617872
  0
CIRCLE
  5
2E5
100
AcDbEntity
  8
MAIN0
  6
CONTINUOUS
 62
3
100
AcDbCircle
 10
1115.370607545835
 20
722.2411889829575
 30
0.0000000000000000
 40
5.499999999999996
  0
ARC
  5
2E6
100
AcDbEntity
  8
MAIN0
  6
CENTER
 62
12
100
AcDbCircle
 10
1041.325435522264
 20
679.4911889829573
 30
0.0000000000000000
 40
85.49999999999994
100
AcDbArc
 50
142.8515826093008
 51
158.8647908561783
  0
CIRCLE
  5
2E7
100
AcDbEntity
  8
MAIN0
  6
CONTINUOUS
 62
3
100
AcDbCircle
 10
967.2802634986936
 20
722.2411889829569
 30
0.0000000000000000
 40
5.499999999999996
  0
ARC
  5
2E8
100
AcDbEntity
  8
MAIN0
  6
CENTER
 62
12
100
AcDbCircle
 10
1041.325435522264
 20
679.4911889829573
 30
0.0000000000000000
 40
85.49999999999994
100
AcDbArc
 50
261.2184752841881
 51
278.8647908561786
  0
CIRCLE
  5
2E9
100
AcDbEntity
  8
MAIN0
  6
CONTINUOUS
 62
3
100
AcDbCircle
 10
1041.325435522266
 20
593.9911889829573
 30
0.0000000000000000
 40
5.499999999999996
  0
LINE
  5
2EA
100
AcDbEntity
  8
MAIN0
  6
CENTER
 62
12
100
AcDbLine
 10
436.5796509327162
 20
270.9311212226612
 30
0.0000000000000000
 11
522.8202755215140
 21
270.9311212226612
 31
0.0000000000000000
  0
LINE
  5
2EB
100
AcDbEntity
  8
MAIN0
  6
CONTINUOUS
 62
3
100
AcDbLine
 10
483.3254355222659
 20
238.4311212226612
 30
0.0000000000000000
 11
512.5933847146955
 21
238.4311212226612
 31
0.0000000000000000
  0
LINE
  5
2EC
100
AcDbEntity
  8
MAIN0
  6
CONTINUOUS
 62
3
100
AcDbLine
 10
483.3254355222659
 20
303.4311212226612
 30
0.0000000000000000
 11
512.5933847146965
 21
303.4311212226612
 31
0.0000000000000000
  0
LINE
  5
2ED
100
AcDbEntity
  8
MAIN0
  6
CONTINUOUS
 62
3
100
AcDbLine
 10
440.3254355222658
 20
296.9311212226613
 30
0.0000000000000000
 11
440.3254355222658
 21
244.9311212226613
 31
0.0000000000000000
  0
LINE
  5
2EE
100
AcDbEntity
  8
MAIN0
  6
CONTINUOUS
 62
3
100
AcDbLine
 10
440.3254355222657
 20
244.9311212226612
 30
0.0000000000000000
 11
455.3254355222658
 21
244.9311212226612
 31
0.0000000000000000
  0
LINE
  5
2EF
100
AcDbEntity
  8
MAIN0
  6
CONTINUOUS
 62
3
100
AcDbLine
 10
440.3254355222658
 20
296.9311212226612
 30
0.0000000000000000
 11
455.3254355222659
 21
296.9311212226612
 31
0.0000000000000000
  0
LINE
  5
2F0
100
AcDbEntity
  8
MAIN0
  6
CONTINUOUS
 62
3
100
AcDbLine
 10
455.3254355222657
 20
223.4311212226612
 30
0.0000000000000000
 11
483.3254355222657
 21
223.4311212226612
 31
0.0000000000000000
  0
LINE
  5
2F1
100
AcDbEntity
  8
MAIN0
  6
CONTINUOUS
 62
3
100
AcDbLine
 10
455.3254355222659
 20
318.4311212226611
 30
0.0000000000000000
 11
483.3254355222658
 21
318.4311212226612
 31
0.0000000000000000
  0
LINE
  5
2F2
100
AcDbEntity
  8
MAIN0
  6
CONTINUOUS
 62
3
100
AcDbLine
 10
455.3254355222659
 20
318.4311212226613
 30
0.0000000000000000
 11
455.3254355222658
 21
296.9311212226613
 31
0.0000000000000000
  0
LINE
  5
2F3
100
AcDbEntity
  8
MAIN0
  6
CONTINUOUS
 62
3
100
AcDbLine
 10
455.3254355222657
 20
244.9311212226613
 30
0.0000000000000000
 11
455.3254355222657
 21
223.4311212226613
 31
0.0000000000000000
  0
LINE
  5
2F4
100
AcDbEntity
  8
MAIN0
  6
CONTINUOUS
 62
3
100
AcDbLine
 10
483.3254355222659
 20
318.4311212226613
 30
0.0000000000000000
 11
483.3254355222659
 21
303.4311212226613
 31
0.0000000000000000
  0
LINE
  5
2F5
100
AcDbEntity
  8
MAIN0
  6
CONTINUOUS
 62
3
100
AcDbLine
 10
483.3254355222658
 20
238.4311212226613
 30
0.0000000000000000
 11
483.3254355222658
 21
223.4311212226613
 31
0.0000000000000000
  0
LINE
  5
2F6
100
AcDbEntity
  8
MAIN0
  6
CONTINUOUS
 62
3
100
AcDbLine
 10
514.3254355222657
 20
283.4311212226612
 30
0.0000000000000000
 11
514.3254355222657
 21
302.4311212226612
 31
0.0000000000000000
  0
LINE
  5
2F7
100
AcDbEntity
  8
MAIN0
  6
CONTINUOUS
 62
3
100
AcDbLine
 10
514.3254355222657
 20
239.4311212226648
 30
0.0000000000000000
 11
514.3254355222657
 21
258.4311212226612
 31
0.0000000000000000
  0
LINE
  5
2F8
100
AcDbEntity
  8
MAIN0
  6
CONTINUOUS
 62
12
100
AcDbLine
 10
512.3254355222657
 20
303.4311212226612
 30
0.0000000000000000
 11
512.3254355222657
 21
283.4311212226612
 31
0.0000000000000000
  0
LINE
  5
2F9
100
AcDbEntity
  8
MAIN0
  6
CONTINUOUS
 62
12
100
AcDbLine
 10
512.3254355222657
 20
258.4311212226612
 30
0.0000000000000000
 11
512.3254355222657
 21
238.4311212226612
 31
0.0000000000000000
  0
LINE
  5
2FA
100
AcDbEntity
  8
MAIN0
  6
CONTINUOUS
 62
3
100
AcDbLine
 10
494.3254355222658
 20
283.8311212226627
 30
0.0000000000000000
 11
494.3254355222658
 21
288.3811212226619
 31
0.0000000000000000
  0
LINE
  5
2FB
100
AcDbEntity
  8
MAIN0
  6
CONTINUOUS
 62
3
100
AcDbLine
 10
494.3254355222658
 20
253.4811212226641
 30
0.0000000000000000
 11
494.3254355222658
 21
258.0311212226634
 31
0.0000000000000000
  0
LINE
  5
2FC
100
AcDbEntity
  8
MAIN0
  6
CENTER
 62
12
100
AcDbLine
 10
465.3254355222657
 20
284.6811212226612
 30
0.0000000000000000
 11
465.3254355222657
 21
257.1811212226612
 31
0.0000000000000000
  0
LINE
  5
2FD
100
AcDbEntity
  8
MAIN0
  6
CONTINUOUS
 62
12
100
AcDbLine
 10
512.3254355222659
 20
765.4911889829571
 30
0.0000000000000000
 11
512.3254355222659
 21
942.4911889829536
 31
0.0000000000000000
  0
LINE
  5
2FE
100
AcDbEntity
  8
MAIN0
  6
CONTINUOUS
 62
3
100
AcDbLine
 10
514.3254355222659
 20
766.6458895213364
 30
0.0000000000000000
 11
514.3254355222659
 21
941.3364884445773
 31
0.0000000000000000
  0
LINE
  5
2FF
100
AcDbEntity
  8
MAIN0
  6
CONTINUOUS
 62
3
100
AcDbLine
 10
510.3254355222659
 20
942.4911889829536
 30
0.0000000000000000
 11
512.3254355222659
 21
942.4911889829536
 31
0.0000000000000000
  0
LINE
  5
300
100
AcDbEntity
  8
MAIN0
  6
CONTINUOUS
 62
3
100
AcDbLine
 10
512.5933847146972
 20
303.4311212226625
 30
0.0000000000000000
 11
514.3254355222664
 21
302.4311212226622
 31
0.0000000000000000
  0
LINE
  5
301
100
AcDbEntity
  8
MAIN0
  6
CONTINUOUS
 62
3
100
AcDbLine
 10
514.3254355222655
 20
239.4311212226618
 30
0.0000000000000000
 11
512.5933847146953
 21
238.4311212226609
 31
0.0000000000000000
  0
LINE
  5
302
100
AcDbEntity
  8
MAIN0
  6
CENTER
 62
12
100
AcDbLine
 10
801.7000795095449
 20
541.1434251843571
 30
0.0000000000000000
 11
985.2899257413344
 21
647.1390723267626
 31
0.0000000000000000
  0
LINE
  5
303
100
AcDbEntity
  8
MAIN0
  6
CONTINUOUS
 62
3
100
AcDbLine
 10
797.3107543269579
 20
576.1370146059517
 30
0.0000000000000000
 11
962.8244921327540
 21
671.6964156827091
 31
0.0000000000000000
  0
LINE
  5
304
100
AcDbEntity
  8
MAIN0
  6
CONTINUOUS
 62
3
100
AcDbLine
 10
829.8107543269530
 20
519.8453633599713
 30
0.0000000000000000
 11
995.3244920543677
 21
615.4047645724895
 31
0.0000000000000000
  0
LINE
  5
305
100
AcDbEntity
  8
MAIN0
  6
CONTINUOUS
 62
3
100
AcDbLine
 10
819.8107543269563
 20
537.1658714356545
 30
0.0000000000000000
 11
973.0972507968010
 21
625.6658714356538
 31
0.0000000000000000
  0
LINE
  5
306
100
AcDbEntity
  8
MAIN0
  6
CONTINUOUS
 62
3
100
AcDbLine
 10
807.3107543269578
 20
558.8165065302629
 30
0.0000000000000000
 11
960.5972507968024
 21
647.3165065302621
 31
0.0000000000000000
  0
LINE
  5
307
100
AcDbEntity
  8
MAIN0
  6
CONTINUOUS
 62
3
100
AcDbLine
 10
797.3107543269580
 20
576.1370146059517
 30
0.0000000000000000
 11
829.8107543269529
 21
519.8453633599718
 31
0.0000000000000000
  0
LINE
  5
308
100
AcDbEntity
  8
MAIN0
  6
CONTINUOUS
 62
3
100
AcDbLine
 10
950.5972507968013
 20
664.6370146059504
 30
0.0000000000000000
 11
960.5972507968015
 21
647.3165065302618
 31
0.0000000000000000
  0
LINE
  5
309
100
AcDbEntity
  8
MAIN0
  6
CONTINUOUS
 62
3
100
AcDbLine
 10
973.0972507967987
 20
625.6658714356533
 30
0.0000000000000000
 11
983.0972507967986
 21
608.3453633599644
 31
0.0000000000000000
  0
CIRCLE
  5
30A
100
AcDbEntity
  8
MAIN0
  6
CONTINUOUS
 62
3
100
AcDbCircle
 10
465.3254355222657
 20
270.9311212226612
 30
0.0000000000000000
 40
7.500000000000000
  0
LINE
  5
30B
100
AcDbEntity
  8
MAIN0
  6
CONTINUOUS
 62
3
100
AcDbLine
 10
425.0224307558974
 20
722.1071256708136
 30
0.0000000000000000
 11
437.8755046551914
 21
719.1397597492804
 31
0.0000000000000000
  0
LINE
  5
30C
100
AcDbEntity
  8
MAIN0
  6
CONTINUOUS
 62
3
100
AcDbLine
 10
424.6476315207344
 20
721.6805028383742
 30
0.0000000000000000
 11
438.1345497941981
 21
718.5668024127214
 31
0.0000000000000000
  0
LINE
  5
30D
100
AcDbEntity
  8
MAIN0
  6
CONTINUOUS
 62
3
100
AcDbLine
 10
427.3254355222659
 20
745.1804296054967
 30
0.0000000000000000
 11
434.7740608983752
 21
743.4607789385423
 31
0.0000000000000000
  0
LINE
  5
30E
100
AcDbEntity
  8
MAIN0
  6
CONTINUOUS
 62
3
100
AcDbLine
 10
435.3254355222661
 20
692.9911889829573
 30
0.0000000000000000
 11
501.3254355222658
 21
692.9911889829573
 31
0.0000000000000000
  0
LINE
  5
30F
100
AcDbEntity
  8
MAIN0
  6
CONTINUOUS
 62
3
100
AcDbLine
 10
435.3254355222661
 20
665.9911889829573
 30
0.0000000000000000
 11
501.3254355222658
 21
665.9911889829573
 31
0.0000000000000000
  0
LINE
  5
310
100
AcDbEntity
  8
MAIN0
  6
CONTINUOUS
 62
3
100
AcDbLine
 10
435.3254355222660
 20
648.9911889829575
 30
0.0000000000000000
 11
435.3254355222660
 21
709.9911889829571
 31
0.0000000000000000
  0
LINE
  5
311
100
AcDbEntity
  8
MAIN0
  6
CONTINUOUS
 62
3
100
AcDbLine
 10
427.3254355222658
 20
609.7661889829576
 30
0.0000000000000000
 11
427.3254355222658
 21
630.4911889829575
 31
0.0000000000000000
  0
LINE
  5
312
100
AcDbEntity
  8
MAIN0
  6
CONTINUOUS
 62
3
100
AcDbLine
 10
427.3254355222658
 20
728.4911889829571
 30
0.0000000000000000
 11
427.3254355222658
 21
755.9911889829568
 31
0.0000000000000000
  0
LINE
  5
313
100
AcDbEntity
  8
MAIN0
  6
CONTINUOUS
 62
3
100
AcDbLine
 10
392.3254355222661
 20
757.4911889829568
 30
0.0000000000000000
 11
435.9780008613503
 21
757.4911889829568
 31
0.0000000000000000
  0
LINE
  5
314
100
AcDbEntity
  8
MAIN0
  6
CONTINUOUS
 62
3
100
AcDbLine
 10
501.3254355222658
 20
602.9911889829577
 30
0.0000000000000000
 11
501.3254355222658
 21
697.3746292303035
 31
0.0000000000000000
  0
LINE
  5
315
100
AcDbEntity
  8
MAIN0
  6
CONTINUOUS
 62
3
100
AcDbLine
 10
428.3254355222658
 20
608.7661889829576
 30
0.0000000000000000
 11
444.3254355222658
 21
608.7661889829576
 31
0.0000000000000000
  0
LINE
  5
316
100
AcDbEntity
  8
MAIN0
  6
CONTINUOUS
 62
3
100
AcDbLine
 10
445.3254355222658
 20
602.9911889829577
 30
0.0000000000000000
 11
445.3254355222658
 21
607.7661889829576
 31
0.0000000000000000
  0
LINE
  5
317
100
AcDbEntity
  8
MAIN0
  6
CONTINUOUS
 62
3
100
AcDbLine
 10
430.3254355222660
 20
709.9911889829571
 30
0.0000000000000000
 11
435.3254355222661
 21
709.9911889829571
 31
0.0000000000000000
  0
LINE
  5
318
100
AcDbEntity
  8
MAIN0
  6
CONTINUOUS
 62
3
100
AcDbLine
 10
430.3254355222660
 20
648.9911889829573
 30
0.0000000000000000
 11
435.3254355222660
 21
648.9911889829573
 31
0.0000000000000000
  0
LINE
  5
319
100
AcDbEntity
  8
MAIN0
  6
CONTINUOUS
 62
3
100
AcDbLine
 10
430.3254355222659
 20
648.9911889829575
 30
0.0000000000000000
 11
430.3254355222659
 21
650.4911889829575
 31
0.0000000000000000
  0
LINE
  5
31A
100
AcDbEntity
  8
MAIN0
  6
CONTINUOUS
 62
3
100
AcDbLine
 10
430.3254355222659
 20
708.4911889829571
 30
0.0000000000000000
 11
430.3254355222659
 21
709.9911889829571
 31
0.0000000000000000
  0
LINE
  5
31B
100
AcDbEntity
  8
MAIN0
  6
CONTINUOUS
 62
3
100
AcDbLine
 10
417.3254355222658
 20
718.4911889829571
 30
0.0000000000000000
 11
396.3254355222661
 21
718.4911889829571
 31
0.0000000000000000
  0
LINE
  5
31C
100
AcDbEntity
  8
MAIN0
  6
CONTINUOUS
 62
3
100
AcDbLine
 10
417.3254355222659
 20
640.4911889829574
 30
0.0000000000000000
 11
396.3254355222659
 21
640.4911889829575
 31
0.0000000000000000
  0
LINE
  5
31D
100
AcDbEntity
  8
MAIN0
  6
CENTER
 62
12
100
AcDbLine
 10
401.8254355222661
 20
639.0194748051661
 30
0.0000000000000000
 11
401.8254355222661
 21
651.3416219512333
 31
0.0000000000000000
  0
LINE
  5
31E
100
AcDbEntity
  8
MAIN0
  6
CONTINUOUS
 62
3
100
AcDbLine
 10
428.3254355222658
 20
608.7661889829576
 30
0.0000000000000000
 11
427.3254355222658
 21
609.7661889829576
 31
0.0000000000000000
  0
ARC
  5
31F
100
AcDbEntity
  8
MAIN0
  6
CONTINUOUS
 62
3
100
AcDbCircle
 10
417.3254355222658
 20
728.4911889829571
 30
0.0000000000000000
 40
9.999999999999998
100
AcDbArc
 50
269.9999999999999
 51
359.9999999999998
  0
ARC
  5
320
100
AcDbEntity
  8
MAIN0
  6
CONTINUOUS
 62
3
100
AcDbCircle
 10
417.3254355222658
 20
630.4911889829574
 30
0.0000000000000000
 40
9.999999999999998
100
AcDbArc
 50
0.0000000000000000
 51
89.99999999999970
  0
ARC
  5
321
100
AcDbEntity
  8
MAIN0
  6
CONTINUOUS
 62
3
100
AcDbCircle
 10
428.8254355222658
 20
755.9911889829568
 30
0.0000000000000000
 40
1.499999999999986
100
AcDbArc
 50
89.99999999999970
 51
179.9999999999998
  0
ARC
  5
322
100
AcDbEntity
  8
MAIN0
  6
CONTINUOUS
 62
3
100
AcDbCircle
 10
446.8254355222658
 20
602.9911889829577
 30
0.0000000000000000
 40
1.499999999999986
100
AcDbArc
 50
179.9999999999998
 51
269.9999999999999
  0
ARC
  5
323
100
AcDbEntity
  8
MAIN0
  6
CONTINUOUS
 62
3
100
AcDbCircle
 10
499.8254355222658
 20
602.9911889829577
 30
0.0000000000000000
 40
1.499999999999986
100
AcDbArc
 50
269.9999999999999
 51
359.9999999999998
  0
ARC
  5
324
100
AcDbEntity
  8
MAIN0
  6
CONTINUOUS
 62
3
100
AcDbCircle
 10
444.3254355222658
 20
607.7661889829576
 30
0.0000000000000000
 40
0.9999999999999999
100
AcDbArc
 50
0.0000000000000000
 51
89.99999999999970
  0
LINE
  5
325
100
AcDbEntity
  8
MAIN0
  6
CONTINUOUS
 62
3
100
AcDbLine
 10
494.7254355222658
 20
258.4311212226612
 30
0.0000000000000000
 11
520.3254355222657
 21
258.4311212226612
 31
0.0000000000000000
  0
LINE
  5
326
100
AcDbEntity
  8
MAIN0
  6
CONTINUOUS
 62
3
100
AcDbLine
 10
494.7254355222658
 20
283.4311212226612
 30
0.0000000000000000
 11
520.3254355222657
 21
283.4311212226612
 31
0.0000000000000000
  0
LINE
  5
327
100
AcDbEntity
  8
MAIN0
  6
CONTINUOUS
 62
3
100
AcDbLine
 10
520.3254355222657
 20
283.4311212226612
 30
0.0000000000000000
 11
520.3254355222657
 21
258.4311212226612
 31
0.0000000000000000
  0
LINE
  5
328
100
AcDbEntity
  8
MAIN0
  6
CENTER
 62
12
100
AcDbLine
 10
493.4363677469044
 20
843.9911889829571
 30
0.0000000000000000
 11
588.5732589268966
 21
843.9911889829571
 31
0.0000000000000000
  0
LINE
  5
329
100
AcDbEntity
  8
MAIN0
  6
CONTINUOUS
 62
3
100
AcDbLine
 10
514.3254355222659
 20
866.9911889829571
 30
0.0000000000000000
 11
520.3254355222659
 21
866.9911889829571
 31
0.0000000000000000
  0
LINE
  5
32A
100
AcDbEntity
  8
MAIN0
  6
CONTINUOUS
 62
3
100
AcDbLine
 10
514.3254355222659
 20
820.9911889829571
 30
0.0000000000000000
 11
520.3254355222659
 21
820.9911889829571
 31
0.0000000000000000
  0
LINE
  5
32B
100
AcDbEntity
  8
MAIN0
  6
CONTINUOUS
 62
3
100
AcDbLine
 10
475.3254355222658
 20
258.6811212226612
 30
0.0000000000000000
 11
475.3254355222658
 21
283.1811212226612
 31
0.0000000000000000
  0
LINE
  5
32C
100
AcDbEntity
  8
MAIN0
  6
CONTINUOUS
 62
3
100
AcDbLine
 10
481.8254355222657
 20
289.6811212226612
 30
0.0000000000000000
 11
492.8254355222657
 21
289.6811212226612
 31
0.0000000000000000
  0
LINE
  5
32D
100
AcDbEntity
  8
MAIN0
  6
CONTINUOUS
 62
3
100
AcDbLine
 10
481.8254355222657
 20
252.1811212226612
 30
0.0000000000000000
 11
492.8254355222657
 21
252.1811212226612
 31
0.0000000000000000
  0
LINE
  5
32E
100
AcDbEntity
  8
MAIN0
  6
CONTINUOUS
 62
3
100
AcDbLine
 10
492.8254355222662
 20
289.6811212226633
 30
0.0000000000000000
 11
494.3254355222652
 21
288.1811212226643
 31
0.0000000000000000
  0
LINE
  5
32F
100
AcDbEntity
  8
MAIN0
  6
CONTINUOUS
 62
3
100
AcDbLine
 10
492.8254355222641
 20
252.1811212226633
 30
0.0000000000000000
 11
494.3254355222656
 21
253.6811212226648
 31
0.0000000000000000
  0
LINE
  5
330
100
AcDbEntity
  8
MAIN0
  6
CONTINUOUS
 62
3
100
AcDbLine
 10
481.8254355222675
 20
289.6811212226630
 30
0.0000000000000000
 11
475.3254355222677
 21
283.1811212226632
 31
0.0000000000000000
  0
LINE
  5
331
100
AcDbEntity
  8
MAIN0
  6
CONTINUOUS
 62
3
100
AcDbLine
 10
481.8254355222666
 20
252.1811212226633
 30
0.0000000000000000
 11
475.3254355222667
 21
258.6811212226630
 31
0.0000000000000000
  0
LINE
  5
332
100
AcDbEntity
  8
MAIN0
  6
CENTER
 62
12
100
AcDbLine
 10
911.0552718759436
 20
576.1257311286961
 30
0.0000000000000000
 11
886.6732413235029
 21
618.3566468372201
 31
0.0000000000000000
  0
ARC
  5
333
100
AcDbEntity
  8
MAIN0
  6
CONTINUOUS
 62
3
100
AcDbCircle
 10
494.7254355222658
 20
283.8311212226627
 30
0.0000000000000000
 40
0.3999999999999999
100
AcDbArc
 50
179.9999999999998
 51
269.9999999999999
  0
ARC
  5
334
100
AcDbEntity
  8
MAIN0
  6
CONTINUOUS
 62
3
100
AcDbCircle
 10
494.7254355222658
 20
258.0311212226634
 30
0.0000000000000000
 40
0.3999999999999999
100
AcDbArc
 50
89.99999999999970
 51
179.9999999999998
  0
ARC
  5
335
100
AcDbEntity
  8
MAIN0
  6
CONTINUOUS
 62
3
100
AcDbCircle
 10
898.6823952707189
 20
597.5561820447269
 30
0.0000000000000000
 40
22.99999999999977
100
AcDbArc
 50
177.0792654719099
 51
242.9207345280892
  0
ARC
  5
336
100
AcDbEntity
  8
MAIN0
  6
CONTINUOUS
 62
3
100
AcDbCircle
 10
898.6823952707189
 20
597.5561820447269
 30
0.0000000000000000
 40
22.99999999999977
100
AcDbArc
 50
357.0792654719103
 51
422.9207345280896
  0
LINE
  5
337
100
AcDbEntity
  8
MAIN0
  6
CONTINUOUS
 62
3
100
AcDbLine
 10
520.3254355222659
 20
820.9911889829569
 30
0.0000000000000000
 11
520.3254355222659
 21
833.9911947162904
 31
0.0000000000000000
  0
LINE
  5
338
100
AcDbEntity
  8
MAIN0
  6
CONTINUOUS
 62
3
100
AcDbLine
 10
520.3254355222659
 20
853.9911724996236
 30
0.0000000000000000
 11
520.3254355222659
 21
866.9911889829571
 31
0.0000000000000000
  0
LINE
  5
339
100
AcDbEntity
  8
MAIN0
  6
CONTINUOUS
 62
3
100
AcDbLine
 10
400.3254355222659
 20
655.9911889829575
 30
0.0000000000000000
 11
400.3254355222659
 21
702.9911889829571
 31
0.0000000000000000
  0
LINE
  5
33A
100
AcDbEntity
  8
MAIN0
  6
CONTINUOUS
 62
3
100
AcDbLine
 10
400.3254355222660
 20
702.9911889829571
 30
0.0000000000000000
 11
435.3254355222661
 21
702.9911889829571
 31
0.0000000000000000
  0
LINE
  5
33B
100
AcDbEntity
  8
MAIN0
  6
CONTINUOUS
 62
3
100
AcDbLine
 10
400.3254355222660
 20
655.9911889829573
 30
0.0000000000000000
 11
435.3254355222661
 21
655.9911889829573
 31
0.0000000000000000
  0
LINE
  5
33C
100
AcDbEntity
  8
MAIN0
  6
CONTINUOUS
 62
3
100
AcDbLine
 10
365.3254355222659
 20
693.4911889829573
 30
0.0000000000000000
 11
365.3254355222660
 21
708.4911889829571
 31
0.0000000000000000
  0
LINE
  5
33D
100
AcDbEntity
  8
MAIN0
  6
CONTINUOUS
 62
12
100
AcDbLine
 10
400.3254355222658
 20
708.4911889829571
 30
0.0000000000000000
 11
434.8254355222661
 21
708.4911889829571
 31
0.0000000000000000
  0
LINE
  5
33E
100
AcDbEntity
  8
MAIN0
  6
CONTINUOUS
 62
12
100
AcDbLine
 10
400.3254355222658
 20
650.4911889829573
 30
0.0000000000000000
 11
434.8254355222661
 21
650.4911889829573
 31
0.0000000000000000
  0
LINE
  5
33F
100
AcDbEntity
  8
MAIN0
  6
CONTINUOUS
 62
12
100
AcDbLine
 10
400.3254355222656
 20
708.4911889829573
 30
0.0000000000000000
 11
398.5933847146966
 21
709.4911889829574
 31
0.0000000000000000
  0
LINE
  5
340
100
AcDbEntity
  8
MAIN0
  6
CONTINUOUS
 62
12
100
AcDbLine
 10
400.3254355222657
 20
650.4911889829573
 30
0.0000000000000000
 11
398.5933847146965
 21
649.4911889829572
 31
0.0000000000000000
  0
LINE
  5
341
100
AcDbEntity
  8
MAIN0
  6
CONTINUOUS
 62
3
100
AcDbLine
 10
366.3254355222661
 20
709.4911889829573
 30
0.0000000000000000
 11
365.3254355222661
 21
708.4911889829573
 31
0.0000000000000000
  0
LINE
  5
342
100
AcDbEntity
  8
MAIN0
  6
CONTINUOUS
 62
3
100
AcDbLine
 10
366.3254355222660
 20
649.4911889829573
 30
0.0000000000000000
 11
365.3254355222661
 21
650.4911889829573
 31
0.0000000000000000
  0
LINE
  5
343
100
AcDbEntity
  8
MAIN0
  6
CONTINUOUS
 62
3
100
AcDbLine
 10
433.8254355222661
 20
709.4911889829573
 30
0.0000000000000000
 11
435.3254355222661
 21
707.9911889829573
 31
0.0000000000000000
  0
LINE
  5
344
100
AcDbEntity
  8
MAIN0
  6
CONTINUOUS
 62
3
100
AcDbLine
 10
433.8254355222661
 20
649.4911889829573
 30
0.0000000000000000
 11
435.3254355222661
 21
650.9911889829573
 31
0.0000000000000000
  0
LINE
  5
345
100
AcDbEntity
  8
MAIN0
  6
CENTER
 62
12
100
AcDbLine
 10
384.0795578405400
 20
657.4911889829573
 30
0.0000000000000000
 11
362.3339726983163
 21
657.4911889829573
 31
0.0000000000000000
  0
LINE
  5
346
100
AcDbEntity
  8
MAIN0
  6
CONTINUOUS
 62
3
100
AcDbLine
 10
365.3254355222658
 20
659.9911889829573
 30
0.0000000000000000
 11
380.3254355222660
 21
659.9911889829573
 31
0.0000000000000000
  0
LINE
  5
347
100
AcDbEntity
  8
MAIN0
  6
CONTINUOUS
 62
3
100
AcDbLine
 10
365.3254355222656
 20
654.9911889829573
 30
0.0000000000000000
 11
380.3254355222659
 21
654.9911889829573
 31
0.0000000000000000
  0
LINE
  5
348
100
AcDbEntity
  8
MAIN0
  6
CONTINUOUS
 62
3
100
AcDbLine
 10
365.3254355222659
 20
650.4911889829573
 30
0.0000000000000000
 11
365.3254355222659
 21
654.9911889829573
 31
0.0000000000000000
  0
LINE
  5
349
100
AcDbEntity
  8
MAIN0
  6
CONTINUOUS
 62
3
100
AcDbLine
 10
365.3254355222660
 20
659.9911889829574
 30
0.0000000000000000
 11
365.3254355222659
 21
665.4911889829573
 31
0.0000000000000000
  0
LINE
  5
34A
100
AcDbEntity
  8
MAIN0
  6
CONTINUOUS
 62
3
100
AcDbLine
 10
380.3254355222659
 20
659.9911889829572
 30
0.0000000000000000
 11
381.7688111952400
 21
657.4911889829573
 31
0.0000000000000000
  0
LINE
  5
34B
100
AcDbEntity
  8
MAIN0
  6
CONTINUOUS
 62
3
100
AcDbLine
 10
380.3254355222661
 20
654.9911889829575
 30
0.0000000000000000
 11
381.7688111952400
 21
657.4911889829573
 31
0.0000000000000000
  0
LINE
  5
34C
100
AcDbEntity
  8
MAIN0
  6
CONTINUOUS
 62
3
100
AcDbLine
 10
363.8820598492916
 20
657.4911889829572
 30
0.0000000000000000
 11
365.3254355222658
 21
659.9911889829572
 31
0.0000000000000000
  0
LINE
  5
34D
100
AcDbEntity
  8
MAIN0
  6
CONTINUOUS
 62
3
100
AcDbLine
 10
363.8820598492916
 20
657.4911889829571
 30
0.0000000000000000
 11
365.3254355222656
 21
654.9911889829574
 31
0.0000000000000000
  0
LINE
  5
34E
100
AcDbEntity
  8
MAIN0
  6
CONTINUOUS
 62
3
100
AcDbLine
 10
405.7584482241576
 20
709.4911889829571
 30
0.0000000000000000
 11
433.8254355222660
 21
709.4911889829571
 31
0.0000000000000000
  0
LINE
  5
34F
100
AcDbEntity
  8
MAIN0
  6
CONTINUOUS
 62
3
100
AcDbLine
 10
366.3254355222659
 20
709.4911889829571
 30
0.0000000000000000
 11
395.3254355222661
 21
709.4911889829571
 31
0.0000000000000000
  0
LINE
  5
350
100
AcDbEntity
  8
MAIN0
  6
CONTINUOUS
 62
12
100
AcDbLine
 10
395.3254355222661
 20
709.4911889829571
 30
0.0000000000000000
 11
405.7584482241576
 21
709.4911889829571
 31
0.0000000000000000
  0
LINE
  5
351
100
AcDbEntity
  8
MAIN0
  6
CONTINUOUS
 62
3
100
AcDbLine
 10
405.7584482241577
 20
649.4911889829573
 30
0.0000000000000000
 11
433.8254355222660
 21
649.4911889829573
 31
0.0000000000000000
  0
LINE
  5
352
100
AcDbEntity
  8
MAIN0
  6
CONTINUOUS
 62
3
100
AcDbLine
 10
366.3254355222659
 20
649.4911889829573
 30
0.0000000000000000
 11
395.3254355222660
 21
649.4911889829573
 31
0.0000000000000000
  0
LINE
  5
353
100
AcDbEntity
  8
MAIN0
  6
CONTINUOUS
 62
12
100
AcDbLine
 10
395.3254355222660
 20
649.4911889829573
 30
0.0000000000000000
 11
405.7584482241578
 21
649.4911889829573
 31
0.0000000000000000
  0
LINE
  5
354
100
AcDbEntity
  8
MAIN0
  6
CONTINUOUS
 62
3
100
AcDbLine
 10
332.3254355222659
 20
706.9911889829573
 30
0.0000000000000000
 11
365.3254355222660
 21
706.9911889829573
 31
0.0000000000000000
  0
LINE
  5
355
100
AcDbEntity
  8
MAIN0
  6
CONTINUOUS
 62
3
100
AcDbLine
 10
332.3254355222659
 20
651.9911889829575
 30
0.0000000000000000
 11
365.3254355222659
 21
651.9911889829575
 31
0.0000000000000000
  0
LINE
  5
356
100
AcDbEntity
  8
MAIN0
  6
CONTINUOUS
 62
3
100
AcDbLine
 10
330.3254355222659
 20
653.9911889829575
 30
0.0000000000000000
 11
330.3254355222659
 21
665.4911889829573
 31
0.0000000000000000
  0
LINE
  5
357
100
AcDbEntity
  8
MAIN0
  6
CONTINUOUS
 62
3
100
AcDbLine
 10
330.3254355222659
 20
693.4911889829573
 30
0.0000000000000000
 11
330.3254355222659
 21
704.9911889829573
 31
0.0000000000000000
  0
LINE
  5
358
100
AcDbEntity
  8
MAIN0
  6
CONTINUOUS
 62
3
100
AcDbLine
 10
332.3254355222660
 20
706.9911889829573
 30
0.0000000000000000
 11
330.3254355222660
 21
704.9911889829573
 31
0.0000000000000000
  0
LINE
  5
359
100
AcDbEntity
  8
MAIN0
  6
CONTINUOUS
 62
3
100
AcDbLine
 10
332.3254355222660
 20
651.9911889829573
 30
0.0000000000000000
 11
330.3254355222660
 21
653.9911889829573
 31
0.0000000000000000
  0
LINE
  5
35A
100
AcDbEntity
  8
MAIN0
  6
CENTER
 62
12
100
AcDbLine
 10
345.3254355222659
 20
647.0544993619653
 30
0.0000000000000000
 11
345.3254355222659
 21
668.4425808779257
 31
0.0000000000000000
  0
LINE
  5
35B
100
AcDbEntity
  8
MAIN0
  6
CONTINUOUS
 62
3
100
AcDbLine
 10
400.3254355222660
 20
701.9911889829573
 30
0.0000000000000000
 11
430.3254355222659
 21
701.9911889829573
 31
0.0000000000000000
  0
LINE
  5
35C
100
AcDbEntity
  8
MAIN0
  6
CONTINUOUS
 62
3
100
AcDbLine
 10
400.3254355222659
 20
656.9911889829575
 30
0.0000000000000000
 11
430.3254355222659
 21
656.9911889829575
 31
0.0000000000000000
  0
LINE
  5
35D
100
AcDbEntity
  8
MAIN0
  6
CONTINUOUS
 62
3
100
AcDbLine
 10
275.3254355222659
 20
694.4911889829573
 30
0.0000000000000000
 11
400.3254355222660
 21
694.4911889829573
 31
0.0000000000000000
  0
LINE
  5
35E
100
AcDbEntity
  8
MAIN0
  6
CONTINUOUS
 62
3
100
AcDbLine
 10
275.3254355222659
 20
664.4911889829573
 30
0.0000000000000000
 11
400.3254355222660
 21
664.4911889829573
 31
0.0000000000000000
  0
LINE
  5
35F
100
AcDbEntity
  8
MAIN0
  6
CONTINUOUS
 62
3
100
AcDbLine
 10
275.3254355222659
 20
664.4911889829573
 30
0.0000000000000000
 11
275.3254355222659
 21
694.4911889829573
 31
0.0000000000000000
  0
LINE
  5
360
100
AcDbEntity
  8
MAIN0
  6
CONTINUOUS
 62
3
100
AcDbLine
 10
375.3254355222659
 20
664.4911889829573
 30
0.0000000000000000
 11
375.3254355222659
 21
694.4911889829573
 31
0.0000000000000000
  0
LINE
  5
361
100
AcDbEntity
  8
MAIN0
  6
CONTINUOUS
 62
12
100
AcDbLine
 10
275.3254355222662
 20
693.4911889829573
 30
0.0000000000000000
 11
375.3254355222660
 21
693.4911889829573
 31
0.0000000000000000
  0
LINE
  5
362
100
AcDbEntity
  8
MAIN0
  6
CONTINUOUS
 62
12
100
AcDbLine
 10
275.3254355222662
 20
665.4911889829573
 30
0.0000000000000000
 11
375.3254355222660
 21
665.4911889829573
 31
0.0000000000000000
  0
LINE
  5
363
100
AcDbEntity
  8
MAIN0
  6
CONTINUOUS
 62
3
100
AcDbLine
 10
430.3254355222659
 20
656.9911889829575
 30
0.0000000000000000
 11
430.3254355222659
 21
701.9911889829573
 31
0.0000000000000000
  0
LINE
  5
364
100
AcDbEntity
  8
MAIN0
  6
CONTINUOUS
 62
3
100
AcDbLine
 10
514.3254355222659
 20
943.9911889829536
 30
0.0000000000000000
 11
582.3254355222658
 21
943.9911889829536
 31
0.0000000000000000
  0
LINE
  5
365
100
AcDbEntity
  8
MAIN0
  6
CONTINUOUS
 62
3
100
AcDbLine
 10
582.3254355222659
 20
763.9911889829571
 30
0.0000000000000000
 11
582.3254355222659
 21
943.9911889829536
 31
0.0000000000000000
  0
LINE
  5
366
100
AcDbEntity
  8
MAIN0
  6
CENTER
 62
12
100
AcDbLine
 10
493.4363677469044
 20
903.9911889829571
 30
0.0000000000000000
 11
587.2093394567444
 21
903.9911889829571
 31
0.0000000000000000
  0
LINE
  5
367
100
AcDbEntity
  8
MAIN0
  6
CONTINUOUS
 62
3
100
AcDbLine
 10
514.3254355222659
 20
763.9911889829571
 30
0.0000000000000000
 11
582.3254355222658
 21
763.9911889829571
 31
0.0000000000000000
  0
LINE
  5
368
100
AcDbEntity
  8
MAIN0
  6
CONTINUOUS
 62
3
100
AcDbLine
 10
537.3254355222657
 20
919.9911889829571
 30
0.0000000000000000
 11
582.3254355222658
 21
919.9911889829571
 31
0.0000000000000000
  0
LINE
  5
369
100
AcDbEntity
  8
MAIN0
  6
CONTINUOUS
 62
3
100
AcDbLine
 10
537.3254355222657
 20
887.9911889829571
 30
0.0000000000000000
 11
582.3254355222658
 21
887.9911889829571
 31
0.0000000000000000
  0
LINE
  5
36A
100
AcDbEntity
  8
MAIN0
  6
CONTINUOUS
 62
3
100
AcDbLine
 10
537.3254355222657
 20
859.9911889829571
 30
0.0000000000000000
 11
582.3254355222658
 21
859.9911889829571
 31
0.0000000000000000
  0
LINE
  5
36B
100
AcDbEntity
  8
MAIN0
  6
CONTINUOUS
 62
3
100
AcDbLine
 10
537.3254355222657
 20
827.9911889829571
 30
0.0000000000000000
 11
582.3254355222658
 21
827.9911889829571
 31
0.0000000000000000
  0
LINE
  5
36C
100
AcDbEntity
  8
MAIN0
  6
CONTINUOUS
 62
3
100
AcDbLine
 10
537.3254355222657
 20
827.9911889829568
 30
0.0000000000000000
 11
537.3254355222657
 21
859.9911889829569
 31
0.0000000000000000
  0
LINE
  5
36D
100
AcDbEntity
  8
MAIN0
  6
CONTINUOUS
 62
3
100
AcDbLine
 10
537.3254355222657
 20
887.9911889829571
 30
0.0000000000000000
 11
537.3254355222657
 21
919.9911889829569
 31
0.0000000000000000
  0
LINE
  5
36E
100
AcDbEntity
  8
MAIN0
  6
CONTINUOUS
 62
3
100
AcDbLine
 10
521.3254355222659
 20
914.4911889829571
 30
0.0000000000000000
 11
537.3254355222657
 21
914.4911889829571
 31
0.0000000000000000
  0
LINE
  5
36F
100
AcDbEntity
  8
MAIN0
  6
CONTINUOUS
 62
3
100
AcDbLine
 10
521.3254355222659
 20
893.4911889829571
 30
0.0000000000000000
 11
537.3254355222657
 21
893.4911889829571
 31
0.0000000000000000
  0
LINE
  5
370
100
AcDbEntity
  8
MAIN0
  6
CONTINUOUS
 62
3
100
AcDbLine
 10
521.3254355222659
 20
854.4911889829571
 30
0.0000000000000000
 11
537.3254355222657
 21
854.4911889829571
 31
0.0000000000000000
  0
LINE
  5
371
100
AcDbEntity
  8
MAIN0
  6
CONTINUOUS
 62
3
100
AcDbLine
 10
521.3254355222659
 20
833.4911889829571
 30
0.0000000000000000
 11
537.3254355222657
 21
833.4911889829571
 31
0.0000000000000000
  0
LINE
  5
372
100
AcDbEntity
  8
MAIN0
  6
CONTINUOUS
 62
3
100
AcDbLine
 10
1073.825435522264
 20
751.3723868294396
 30
0.0000000000000000
 11
1073.825435522264
 21
943.9911889829536
 31
0.0000000000000000
  0
LINE
  5
373
100
AcDbEntity
  8
MAIN0
  6
CONTINUOUS
 62
3
100
AcDbLine
 10
1008.825435522262
 20
751.3723868294395
 30
0.0000000000000000
 11
1008.825435522262
 21
943.9911889829536
 31
0.0000000000000000
  0
LINE
  5
374
100
AcDbEntity
  8
MAIN0
  6
CONTINUOUS
 62
3
100
AcDbLine
 10
1073.825435522264
 20
943.9911889829536
 30
0.0000000000000000
 11
1008.825435522262
 21
943.9911889829536
 31
0.0000000000000000
  0
LINE
  5
375
100
AcDbEntity
  8
MAIN0
  6
CONTINUOUS
 62
3
100
AcDbLine
 10
1073.825435522264
 20
763.9911889829568
 30
0.0000000000000000
 11
1008.825435522262
 21
763.9911889829568
 31
0.0000000000000000
  0
LINE
  5
376
100
AcDbEntity
  8
MAIN0
  6
CENTER
 62
12
100
AcDbLine
 10
1016.579682311813
 20
843.9911889829568
 30
0.0000000000000000
 11
1065.343743416698
 21
843.9911889829568
 31
0.0000000000000000
  0
LINE
  5
377
100
AcDbEntity
  8
MAIN0
  6
CENTER
 62
12
100
AcDbLine
 10
1015.186400662641
 20
903.9911889829568
 30
0.0000000000000000
 11
1065.366491233469
 21
903.9911889829568
 31
0.0000000000000000
  0
CIRCLE
  5
378
100
AcDbEntity
  8
MAIN0
  6
CONTINUOUS
 62
3
100
AcDbCircle
 10
1041.325435522264
 20
903.9911889829568
 30
0.0000000000000000
 40
16.00000000000000
  0
CIRCLE
  5
379
100
AcDbEntity
  8
MAIN0
  6
CONTINUOUS
 62
3
100
AcDbCircle
 10
1041.325435522264
 20
843.9911889829568
 30
0.0000000000000000
 40
16.00000000000000
  0
LINE
  5
37A
100
AcDbEntity
  8
MAIN0
  6
CONTINUOUS
 62
3
100
AcDbLine
 10
521.3254355222659
 20
913.9911721162904
 30
0.0000000000000000
 11
521.3254355222659
 21
943.9911889829536
 31
0.0000000000000000
  0
LINE
  5
37B
100
AcDbEntity
  8
MAIN0
  6
CONTINUOUS
 62
3
100
AcDbLine
 10
521.3254355222659
 20
763.9911889829571
 30
0.0000000000000000
 11
521.3254355222659
 21
833.9911948496238
 31
0.0000000000000000
  0
LINE
  5
37C
100
AcDbEntity
  8
MAIN0
  6
CONTINUOUS
 62
3
100
AcDbLine
 10
521.3254355222659
 20
853.9911721162904
 30
0.0000000000000000
 11
521.3254355222659
 21
893.9911948496236
 31
0.0000000000000000
  0
LINE
  5
37D
100
AcDbEntity
  8
MAIN0
  6
CONTINUOUS
 62
3
100
AcDbLine
 10
380.3254355222659
 20
654.9911889829573
 30
0.0000000000000000
 11
380.3254355222659
 21
659.9911889829573
 31
0.0000000000000000
  0
LINE
  5
37E
100
AcDbEntity
  8
MAIN0
  6
CONTINUOUS
 62
3
100
AcDbLine
 10
378.9388128019667
 20
654.9911889829575
 30
0.0000000000000000
 11
380.3254355222658
 21
659.9911889829574
 31
0.0000000000000000
  0
LINE
  5
37F
100
AcDbEntity
  8
MAIN0
  6
CONTINUOUS
 62
3
100
AcDbLine
 10
377.5521900816673
 20
659.9911889829572
 30
0.0000000000000000
 11
378.9388128019664
 21
654.9911889829573
 31
0.0000000000000000
  0
LINE
  5
380
100
AcDbEntity
  8
MAIN0
  6
CONTINUOUS
 62
3
100
AcDbLine
 10
376.1655673613678
 20
654.9911889829575
 30
0.0000000000000000
 11
377.5521900816671
 21
659.9911889829574
 31
0.0000000000000000
  0
LINE
  5
381
100
AcDbEntity
  8
MAIN0
  6
CONTINUOUS
 62
3
100
AcDbLine
 10
374.7789446410685
 20
659.9911889829572
 30
0.0000000000000000
 11
376.1655673613676
 21
654.9911889829573
 31
0.0000000000000000
  0
LINE
  5
382
100
AcDbEntity
  8
MAIN0
  6
CONTINUOUS
 62
3
100
AcDbLine
 10
373.3923219207692
 20
654.9911889829575
 30
0.0000000000000000
 11
374.7789446410683
 21
659.9911889829574
 31
0.0000000000000000
  0
LINE
  5
383
100
AcDbEntity
  8
MAIN0
  6
CONTINUOUS
 62
3
100
AcDbLine
 10
372.0056992004696
 20
659.9911889829573
 30
0.0000000000000000
 11
373.3923219207689
 21
654.9911889829573
 31
0.0000000000000000
  0
LINE
  5
384
100
AcDbEntity
  8
MAIN0
  6
CONTINUOUS
 62
3
100
AcDbLine
 10
370.6190764801703
 20
654.9911889829575
 30
0.0000000000000000
 11
372.0056992004695
 21
659.9911889829575
 31
0.0000000000000000
  0
LINE
  5
385
100
AcDbEntity
  8
MAIN0
  6
CONTINUOUS
 62
3
100
AcDbLine
 10
369.2324537598709
 20
659.9911889829572
 30
0.0000000000000000
 11
370.6190764801700
 21
654.9911889829573
 31
0.0000000000000000
  0
LINE
  5
386
100
AcDbEntity
  8
MAIN0
  6
CONTINUOUS
 62
3
100
AcDbLine
 10
369.2324537598706
 20
654.9911889829575
 30
0.0000000000000000
 11
369.2324537598706
 21
659.9911889829575
 31
0.0000000000000000
  0
CIRCLE
  5
387
100
AcDbEntity
  8
MAIN0
  6
CONTINUOUS
 62
3
100
AcDbCircle
 10
366.7688111952398
 20
657.4911889829573
 30
0.0000000000000000
 40
2.500000000000000
  0
LINE
  5
388
100
AcDbEntity
  8
MAIN0
  6
CONTINUOUS
 62
3
100
AcDbLine
 10
393.5254355222660
 20
860.5911889829570
 30
0.0000000000000000
 11
413.3254355222661
 21
860.5911889829570
 31
0.0000000000000000
  0
LINE
  5
389
100
AcDbEntity
  8
MAIN0
  6
CONTINUOUS
 62
3
100
AcDbLine
 10
393.5254355222660
 20
828.5911889829570
 30
0.0000000000000000
 11
413.3254355222659
 21
828.5911889829570
 31
0.0000000000000000
  0
LINE
  5
38A
100
AcDbEntity
  8
MAIN0
  6
CONTINUOUS
 62
3
100
AcDbLine
 10
413.3254355222661
 20
860.5911889829570
 30
0.0000000000000000
 11
413.3254355222659
 21
828.5911889829570
 31
0.0000000000000000
  0
LINE
  5
38B
100
AcDbEntity
  8
MAIN0
  6
CONTINUOUS
 62
3
100
AcDbLine
 10
392.3254355222659
 20
861.7911889829569
 30
0.0000000000000000
 11
393.5254355222659
 21
860.5911889829569
 31
0.0000000000000000
  0
LINE
  5
38C
100
AcDbEntity
  8
MAIN0
  6
CONTINUOUS
 62
3
100
AcDbLine
 10
392.3254355222659
 20
827.3911889829569
 30
0.0000000000000000
 11
393.5254355222659
 21
828.5911889829570
 31
0.0000000000000000
  0
LINE
  5
38D
100
AcDbEntity
  8
MAIN0
  6
CONTINUOUS
 62
3
100
AcDbLine
 10
413.3254355222661
 20
854.5911809829571
 30
0.0000000000000000
 11
432.9284132170160
 21
854.5911809829571
 31
0.0000000000000000
  0
LINE
  5
38E
100
AcDbEntity
  8
MAIN0
  6
CONTINUOUS
 62
3
100
AcDbLine
 10
413.3254355222661
 20
834.5912119829571
 30
0.0000000000000000
 11
430.0112081199506
 21
834.5912119829571
 31
0.0000000000000000
  0
LINE
  5
38F
100
AcDbEntity
  8
MAIN0
  6
CONTINUOUS
 62
12
100
AcDbLine
 10
413.3254355222661
 20
853.5911889829571
 30
0.0000000000000000
 11
432.6400392622343
 21
853.5911889829571
 31
0.0000000000000000
  0
LINE
  5
390
100
AcDbEntity
  8
MAIN0
  6
CONTINUOUS
 62
12
100
AcDbLine
 10
413.3254355222661
 20
835.5911889829571
 30
0.0000000000000000
 11
430.0112059619088
 21
835.5911889829571
 31
0.0000000000000000
  0
LINE
  5
391
100
AcDbEntity
  8
MAIN0
  6
CONTINUOUS
 62
3
100
AcDbLine
 10
413.3254205222660
 20
829.5911889829572
 30
0.0000000000000000
 11
394.3254055222660
 21
829.5912039829572
 31
0.0000000000000000
  0
LINE
  5
392
100
AcDbEntity
  8
MAIN0
  6
CONTINUOUS
 62
3
100
AcDbLine
 10
394.3253595222660
 20
859.5911959829571
 30
0.0000000000000000
 11
413.3254505222661
 21
859.5911889829571
 31
0.0000000000000000
  0
LINE
  5
393
100
AcDbEntity
  8
MAIN0
  6
CONTINUOUS
 62
3
100
AcDbLine
 10
394.3254285222660
 20
829.5912039829570
 30
0.0000000000000000
 11
394.3254435222660
 21
859.5911959829571
 31
0.0000000000000000
  0
LINE
  5
394
100
AcDbEntity
  8
MAIN0
  6
CONTINUOUS
 62
3
100
AcDbLine
 10
393.3253895222662
 20
831.3232439829571
 30
0.0000000000000000
 11
394.3254285222662
 21
829.5912039829573
 31
0.0000000000000000
  0
LINE
  5
395
100
AcDbEntity
  8
MAIN0
  6
CONTINUOUS
 62
3
100
AcDbLine
 10
393.3254055222660
 20
857.8589579829570
 30
0.0000000000000000
 11
394.3254435222659
 21
859.5911959829571
 31
0.0000000000000000
  0
LINE
  5
396
100
AcDbEntity
  8
MAIN0
  6
CONTINUOUS
 62
3
100
AcDbLine
 10
393.3254355222660
 20
857.8590099481224
 30
0.0000000000000000
 11
393.3254355222660
 21
831.3231643122244
 31
0.0000000000000000
  0
LINE
  5
397
100
AcDbEntity
  8
MAIN0
  6
CONTINUOUS
 62
3
100
AcDbLine
 10
361.3254355222661
 20
525.3911889829584
 30
0.0000000000000000
 11
481.3254355222662
 21
525.3911889829584
 31
0.0000000000000000
  0
LINE
  5
398
100
AcDbEntity
  8
MAIN0
  6
CONTINUOUS
 62
3
100
AcDbLine
 10
361.3254355222661
 20
503.3911889829584
 30
0.0000000000000000
 11
481.3254355222662
 21
503.3911889829584
 31
0.0000000000000000
  0
LINE
  5
399
100
AcDbEntity
  8
MAIN0
  6
CONTINUOUS
 62
3
100
AcDbLine
 10
503.3254355222659
 20
499.6232397905296
 30
0.0000000000000000
 11
503.3254355222659
 21
529.1591381753873
 31
0.0000000000000000
  0
LINE
  5
39A
100
AcDbEntity
  8
MAIN0
  6
CONTINUOUS
 62
3
100
AcDbLine
 10
481.3254355222663
 20
530.8911889829575
 30
0.0000000000000000
 11
502.3254355222659
 21
530.8911889829576
 31
0.0000000000000000
  0
LINE
  5
39B
100
AcDbEntity
  8
MAIN0
  6
CONTINUOUS
 62
3
100
AcDbLine
 10
502.3254355222659
 20
497.8911889829593
 30
0.0000000000000000
 11
502.3254355222659
 21
530.8911889829576
 31
0.0000000000000000
  0
LINE
  5
39C
100
AcDbEntity
  8
MAIN0
  6
CONTINUOUS
 62
3
100
AcDbLine
 10
502.3254355222651
 20
530.8911889829576
 30
0.0000000000000000
 11
503.3254355222659
 21
529.1591381753874
 31
0.0000000000000000
  0
LINE
  5
39D
100
AcDbEntity
  8
MAIN0
  6
CONTINUOUS
 62
3
100
AcDbLine
 10
481.3254355222661
 20
497.8911889829594
 30
0.0000000000000000
 11
502.3254355222659
 21
497.8911889829593
 31
0.0000000000000000
  0
LINE
  5
39E
100
AcDbEntity
  8
MAIN0
  6
CONTINUOUS
 62
3
100
AcDbLine
 10
502.3254355222651
 20
497.8911889829593
 30
0.0000000000000000
 11
503.3254355222659
 21
499.6232397905295
 31
0.0000000000000000
  0
LINE
  5
39F
100
AcDbEntity
  8
MAIN0
  6
CONTINUOUS
 62
3
100
AcDbLine
 10
361.3254355222661
 20
503.3911889829584
 30
0.0000000000000000
 11
361.3254355222661
 21
525.3911889829584
 31
0.0000000000000000
  0
LINE
  5
3A0
100
AcDbEntity
  8
MAIN0
  6
CONTINUOUS
 62
3
100
AcDbLine
 10
406.3254355222661
 20
503.3911889829585
 30
0.0000000000000000
 11
406.3254355222661
 21
525.3911889829586
 31
0.0000000000000000
  0
LINE
  5
3A1
100
AcDbEntity
  8
MAIN0
  6
CONTINUOUS
 62
12
100
AcDbLine
 10
361.3254355222661
 20
524.3911889829584
 30
0.0000000000000000
 11
406.3254355222663
 21
524.3911889829584
 31
0.0000000000000000
  0
LINE
  5
3A2
100
AcDbEntity
  8
MAIN0
  6
CONTINUOUS
 62
12
100
AcDbLine
 10
361.3254355222661
 20
504.3911889829584
 30
0.0000000000000000
 11
406.3254355222662
 21
504.3911889829584
 31
0.0000000000000000
  0
CIRCLE
  5
3A3
100
AcDbEntity
  8
MAIN0
  6
HIDDEN
 62
12
100
AcDbCircle
 10
1158.068765096163
 20
796.2345185568563
 30
0.0000000000000000
 40
5.999999999999996
  0
CIRCLE
  5
3A4
100
AcDbEntity
  8
MAIN0
  6
HIDDEN
 62
12
100
AcDbCircle
 10
1158.068765096163
 20
796.2345185568563
 30
0.0000000000000000
 40
5.099999999999998
  0
CIRCLE
  5
3A5
100
AcDbEntity
  8
MAIN0
  6
HIDDEN
 62
12
100
AcDbCircle
 10
881.8510816019395
 20
722.2222133293833
 30
0.0000000000000000
 40
5.999999999999996
  0
CIRCLE
  5
3A6
100
AcDbEntity
  8
MAIN0
  6
HIDDEN
 62
12
100
AcDbCircle
 10
881.8510816019395
 20
722.2222133293833
 30
0.0000000000000000
 40
5.099999999999998
  0
CIRCLE
  5
3A7
100
AcDbEntity
  8
MAIN0
  6
HIDDEN
 62
12
100
AcDbCircle
 10
1084.056459868691
 20
520.0168350626323
 30
0.0000000000000000
 40
5.999999999999996
  0
CIRCLE
  5
3A8
100
AcDbEntity
  8
MAIN0
  6
HIDDEN
 62
12
100
AcDbCircle
 10
1084.056459868691
 20
520.0168350626323
 30
0.0000000000000000
 40
5.099999999999998
  0
CIRCLE
  5
3A9
100
AcDbEntity
  8
MAIN0
  6
CONTINUOUS
 62
3
100
AcDbCircle
 10
1162.575435522263
 20
889.5023494006842
 30
0.0000000000000000
 40
4.000000000000000
  0
LINE
  5
3AA
100
AcDbEntity
  8
MAIN0
  6
CONTINUOUS
 62
3
100
AcDbLine
 10
1164.131070440873
 20
891.0579843192946
 30
0.0000000000000000
 11
1161.019800603653
 21
887.9467144820738
 31
0.0000000000000000
  0
LINE
  5
3AB
100
AcDbEntity
  8
MAIN0
  6
CONTINUOUS
 62
3
100
AcDbLine
 10
1164.131070440873
 20
887.9467144820737
 30
0.0000000000000000
 11
1161.019800603653
 21
891.0579843192945
 31
0.0000000000000000
  0
ARC
  5
3AC
100
AcDbEntity
  8
MAIN0
  6
CONTINUOUS
 62
3
100
AcDbCircle
 10
492.5254355222656
 20
288.3811212226613
 30
0.0000000000000000
 40
1.799999999999997
100
AcDbArc
 50
359.9999999999997
 51
449.9999999999998
  0
LINE
  5
3AD
100
AcDbEntity
  8
MAIN0
  6
CONTINUOUS
 62
3
100
AcDbLine
 10
480.8239636596900
 20
290.1811212226613
 30
0.0000000000000000
 11
492.5254355222657
 21
290.1811212226613
 31
0.0000000000000000
  0
LINE
  5
3AE
100
AcDbEntity
  8
MAIN0
  6
CONTINUOUS
 62
3
100
AcDbLine
 10
480.5754355222661
 20
290.1811212226613
 30
0.0000000000000000
 11
475.0011714535538
 21
284.6068571539490
 31
0.0000000000000000
  0
ARC
  5
3AF
100
AcDbEntity
  8
MAIN0
  6
CONTINUOUS
 62
3
100
AcDbCircle
 10
480.8239636596901
 20
289.5811212226613
 30
0.0000000000000000
 40
0.6000000000000000
100
AcDbArc
 50
89.99999999999980
 51
135.0000000000009
  0
ARC
  5
3B0
100
AcDbEntity
  8
MAIN0
  6
CONTINUOUS
 62
3
100
AcDbCircle
 10
475.4254355222657
 20
284.1825930852369
 30
0.0000000000000000
 40
0.6000000000000000
100
AcDbArc
 50
135.0000000000001
 51
179.9999999999999
  0
LINE
  5
3B1
100
AcDbEntity
  8
MAIN0
  6
CONTINUOUS
 62
3
100
AcDbLine
 10
474.8254355222658
 20
284.1825930852369
 30
0.0000000000000000
 11
474.8254355222658
 21
257.6796493600854
 31
0.0000000000000000
  0
ARC
  5
3B2
100
AcDbEntity
  8
MAIN0
  6
CONTINUOUS
 62
3
100
AcDbCircle
 10
475.4254355222657
 20
257.6796493600856
 30
0.0000000000000000
 40
0.6000000000000000
100
AcDbArc
 50
179.9999999999999
 51
225.0000000000053
  0
LINE
  5
3B3
100
AcDbEntity
  8
MAIN0
  6
CONTINUOUS
 62
3
100
AcDbLine
 10
475.0011714535538
 20
257.2553852913737
 30
0.0000000000000000
 11
480.3996995909780
 21
251.8568571539495
 31
0.0000000000000000
  0
ARC
  5
3B4
100
AcDbEntity
  8
MAIN0
  6
CONTINUOUS
 62
3
100
AcDbCircle
 10
480.8239636596900
 20
252.2811212226613
 30
0.0000000000000000
 40
0.6000000000000000
100
AcDbArc
 50
225.0000000000028
 51
269.9999999999998
  0
LINE
  5
3B5
100
AcDbEntity
  8
MAIN0
  6
CONTINUOUS
 62
3
100
AcDbLine
 10
480.8239636596900
 20
251.6811212226613
 30
0.0000000000000000
 11
492.5254355222657
 21
251.6811212226613
 31
0.0000000000000000
  0
ARC
  5
3B6
100
AcDbEntity
  8
MAIN0
  6
CONTINUOUS
 62
3
100
AcDbCircle
 10
492.5254355222656
 20
253.4811212226613
 30
0.0000000000000000
 40
1.799999999999997
100
AcDbArc
 50
269.9999999999998
 51
359.9999999999999
  0
LINE
  5
3B7
100
AcDbEntity
  8
MAIN0
  6
CONTINUOUS
 62
3
100
AcDbLine
 10
494.3254355222657
 20
257.3811212224272
 30
0.0000000000000000
 11
494.3254355222657
 21
253.4811212226613
 31
0.0000000000000000
  0
LINE
  5
3B8
100
AcDbEntity
  8
MAIN0
  6
CONTINUOUS
 62
3
100
AcDbLine
 10
495.0754355224992
 20
258.1311212226613
 30
0.0000000000000000
 11
494.3254355222657
 21
257.3811212224272
 31
0.0000000000000000
  0
LINE
  5
3B9
100
AcDbEntity
  8
MAIN0
  6
CONTINUOUS
 62
3
100
AcDbLine
 10
506.3254355222657
 20
258.1311212226613
 30
0.0000000000000000
 11
495.0754355224990
 21
258.1311212226613
 31
0.0000000000000000
  0
LINE
  5
3BA
100
AcDbEntity
  8
MAIN0
  6
CONTINUOUS
 62
3
100
AcDbLine
 10
506.3254355222657
 20
258.1311212226613
 30
0.0000000000000000
 11
506.3254355222657
 21
258.4311212226613
 31
0.0000000000000000
  0
LINE
  5
3BB
100
AcDbEntity
  8
MAIN0
  6
CONTINUOUS
 62
3
100
AcDbLine
 10
494.3254355222657
 20
288.3811212226613
 30
0.0000000000000000
 11
494.3254355222657
 21
284.4811212228954
 31
0.0000000000000000
  0
LINE
  5
3BC
100
AcDbEntity
  8
MAIN0
  6
CONTINUOUS
 62
3
100
AcDbLine
 10
506.3254355222657
 20
283.7311212226613
 30
0.0000000000000000
 11
495.0754355224990
 21
283.7311212226613
 31
0.0000000000000000
  0
LINE
  5
3BD
100
AcDbEntity
  8
MAIN0
  6
CONTINUOUS
 62
3
100
AcDbLine
 10
495.0754355224992
 20
283.7311212226613
 30
0.0000000000000000
 11
494.3254355222656
 21
284.4811212228954
 31
0.0000000000000000
  0
LINE
  5
3BE
100
AcDbEntity
  8
MAIN0
  6
CONTINUOUS
 62
3
100
AcDbLine
 10
506.3254355222657
 20
283.7311212226613
 30
0.0000000000000000
 11
506.3254355222657
 21
283.4311212226612
 31
0.0000000000000000
  0
LINE
  5
3BF
100
AcDbEntity
  8
MAIN0
  6
HIDDEN
 62
12
100
AcDbLine
 10
958.7858651765569
 20
899.6643465820290
 30
0.0000000000000000
 11
947.5349722650232
 21
926.8264048378607
 31
0.0000000000000000
  0
LINE
  5
3C0
100
AcDbEntity
  8
MAIN0
  6
HIDDEN
 62
12
100
AcDbLine
 10
944.0037926563763
 20
893.5414116641874
 30
0.0000000000000000
 11
932.7528997448427
 21
920.7034699200192
 31
0.0000000000000000
  0
LINE
  5
3C1
100
AcDbEntity
  8
MAIN0
  6
HIDDEN
 62
12
100
AcDbLine
 10
946.9937761648780
 20
925.5198418729833
 30
0.0000000000000000
 11
947.7865052453758
 21
927.4336591704082
 31
0.0000000000000000
  0
LINE
  5
3C2
100
AcDbEntity
  8
MAIN0
  6
HIDDEN
 62
12
100
AcDbLine
 10
932.1456454122952
 20
920.9550029003710
 30
0.0000000000000000
 11
934.0594627097200
 21
920.1622738198732
 31
0.0000000000000000
  0
LINE
  5
3C3
100
AcDbEntity
  8
MAIN0
  6
HIDDEN
 62
12
100
AcDbLine
 10
960.5407696706013
 20
892.8145064220848
 30
0.0000000000000000
 11
946.9937761648771
 21
925.5198418729846
 31
0.0000000000000000
  0
LINE
  5
3C4
100
AcDbEntity
  8
MAIN0
  6
HIDDEN
 62
12
100
AcDbLine
 10
947.6064562154434
 20
887.4569383689736
 30
0.0000000000000000
 11
934.0594627097191
 21
920.1622738198731
 31
0.0000000000000000
  0
LINE
  5
3C5
100
AcDbEntity
  8
MAIN0
  6
HIDDEN
 62
12
100
AcDbLine
 10
958.7858651765569
 20
899.6643465820289
 30
0.0000000000000000
 11
944.0037926563763
 21
893.5414116641875
 31
0.0000000000000000
  0
LINE
  5
3C6
100
AcDbEntity
  8
MAIN0
  6
HIDDEN
 62
12
100
AcDbLine
 10
960.5407696706013
 20
892.8145064220848
 30
0.0000000000000000
 11
947.6064562154433
 21
887.4569383689736
 31
0.0000000000000000
  0
LINE
  5
3C7
100
AcDbEntity
  8
MAIN0
  6
HIDDEN
 62
12
100
AcDbLine
 10
955.6202096218569
 20
886.4019077179698
 30
0.0000000000000000
 11
960.5407696706041
 21
892.8145064220857
 31
0.0000000000000000
  0
LINE
  5
3C8
100
AcDbEntity
  8
MAIN0
  6
HIDDEN
 62
12
100
AcDbLine
 10
955.6202096218574
 20
886.4019077179689
 30
0.0000000000000000
 11
947.6064562154442
 21
887.4569383689727
 31
0.0000000000000000
  0
LINE
  5
3C9
100
AcDbEntity
  8
MAIN0
  6
HIDDEN
 62
12
100
AcDbLine
 10
946.9937761648796
 20
925.5198418729856
 30
0.0000000000000000
 11
934.0594627097217
 21
920.1622738198741
 31
0.0000000000000000
  0
LINE
  5
3CA
100
AcDbEntity
  8
MAIN0
  6
HIDDEN
 62
12
100
AcDbLine
 10
1123.865005867968
 20
459.3180313838857
 30
0.0000000000000000
 11
1135.115898779502
 21
432.1559731280525
 31
0.0000000000000000
  0
LINE
  5
3CB
100
AcDbEntity
  8
MAIN0
  6
HIDDEN
 62
12
100
AcDbLine
 10
1138.647078388148
 20
465.4409663017266
 30
0.0000000000000000
 11
1149.897971299683
 21
438.2789080458934
 31
0.0000000000000000
  0
LINE
  5
3CC
100
AcDbEntity
  8
MAIN0
  6
HIDDEN
 62
12
100
AcDbLine
 10
1135.657094879651
 20
433.4625360929291
 30
0.0000000000000000
 11
1134.864365799154
 21
431.5487187955063
 31
0.0000000000000000
  0
LINE
  5
3CD
100
AcDbEntity
  8
MAIN0
  6
HIDDEN
 62
12
100
AcDbLine
 10
1150.505225632232
 20
438.0273750655431
 30
0.0000000000000000
 11
1148.591408334809
 21
438.8201041460401
 31
0.0000000000000000
  0
LINE
  5
3CE
100
AcDbEntity
  8
MAIN0
  6
HIDDEN
 62
12
100
AcDbLine
 10
1122.110101373926
 20
466.1678715438301
 30
0.0000000000000000
 11
1135.657094879651
 21
433.4625360929292
 31
0.0000000000000000
  0
LINE
  5
3CF
100
AcDbEntity
  8
MAIN0
  6
HIDDEN
 62
12
100
AcDbLine
 10
1135.044414829083
 20
471.5254395969388
 30
0.0000000000000000
 11
1148.591408334807
 21
438.8201041460413
 31
0.0000000000000000
  0
LINE
  5
3D0
100
AcDbEntity
  8
MAIN0
  6
HIDDEN
 62
12
100
AcDbLine
 10
1123.865005867971
 20
459.3180313838857
 30
0.0000000000000000
 11
1138.647078388151
 21
465.4409663017271
 31
0.0000000000000000
  0
LINE
  5
3D1
100
AcDbEntity
  8
MAIN0
  6
HIDDEN
 62
12
100
AcDbLine
 10
1122.110101373923
 20
466.1678715438290
 30
0.0000000000000000
 11
1135.044414829081
 21
471.5254395969403
 31
0.0000000000000000
  0
LINE
  5
3D2
100
AcDbEntity
  8
MAIN0
  6
HIDDEN
 62
12
100
AcDbLine
 10
1127.030661422673
 20
472.5804702479437
 30
0.0000000000000000
 11
1122.110101373927
 21
466.1678715438288
 31
0.0000000000000000
  0
LINE
  5
3D3
100
AcDbEntity
  8
MAIN0
  6
HIDDEN
 62
12
100
AcDbLine
 10
1127.030661422673
 20
472.5804702479435
 30
0.0000000000000000
 11
1135.044414829085
 21
471.5254395969398
 31
0.0000000000000000
  0
LINE
  5
3D4
100
AcDbEntity
  8
MAIN0
  6
HIDDEN
 62
12
100
AcDbLine
 10
1135.657094879649
 20
433.4625360929306
 30
0.0000000000000000
 11
1148.591408334807
 21
438.8201041460420
 31
0.0000000000000000
  0
LINE
  5
3D5
100
AcDbEntity
  8
MAIN0
  6
HIDDEN
 62
12
100
AcDbLine
 10
443.3254355222662
 20
444.4911889829575
 30
0.0000000000000000
 11
443.3254355222662
 21
415.0911889829595
 31
0.0000000000000000
  0
LINE
  5
3D6
100
AcDbEntity
  8
MAIN0
  6
HIDDEN
 62
12
100
AcDbLine
 10
459.3254355222662
 20
444.4911889829575
 30
0.0000000000000000
 11
459.3254355222661
 21
415.0911889829595
 31
0.0000000000000000
  0
LINE
  5
3D7
100
AcDbEntity
  8
MAIN0
  6
HIDDEN
 62
12
100
AcDbLine
 10
444.3254355222661
 20
416.0911889829574
 30
0.0000000000000000
 11
442.7254355222657
 21
414.4911889829576
 31
0.0000000000000000
  0
LINE
  5
3D8
100
AcDbEntity
  8
MAIN0
  6
HIDDEN
 62
12
100
AcDbLine
 10
458.3254355222661
 20
416.0911889829575
 30
0.0000000000000000
 11
459.9254355222657
 21
414.4911889829575
 31
0.0000000000000000
  0
LINE
  5
3D9
100
AcDbEntity
  8
MAIN0
  6
HIDDEN
 62
12
100
AcDbLine
 10
444.3254355222661
 20
451.4911889829575
 30
0.0000000000000000
 11
444.3254355222661
 21
416.0911889829595
 31
0.0000000000000000
  0
LINE
  5
3DA
100
AcDbEntity
  8
MAIN0
  6
HIDDEN
 62
12
100
AcDbLine
 10
458.3254355222661
 20
451.4911889829575
 30
0.0000000000000000
 11
458.3254355222661
 21
416.0911889829595
 31
0.0000000000000000
  0
LINE
  5
3DB
100
AcDbEntity
  8
MAIN0
  6
HIDDEN
 62
12
100
AcDbLine
 10
443.3254355222662
 20
444.4911889829575
 30
0.0000000000000000
 11
459.3254355222662
 21
444.4911889829575
 31
0.0000000000000000
  0
LINE
  5
3DC
100
AcDbEntity
  8
MAIN0
  6
HIDDEN
 62
12
100
AcDbLine
 10
444.3254355222661
 20
451.4911889829576
 30
0.0000000000000000
 11
458.3254355222662
 21
451.4911889829575
 31
0.0000000000000000
  0
LINE
  5
3DD
100
AcDbEntity
  8
MAIN0
  6
HIDDEN
 62
12
100
AcDbLine
 10
451.3254355222661
 20
455.5326408672849
 30
0.0000000000000000
 11
444.3254355222661
 21
451.4911889829576
 31
0.0000000000000000
  0
LINE
  5
3DE
100
AcDbEntity
  8
MAIN0
  6
HIDDEN
 62
12
100
AcDbLine
 10
451.3254355222662
 20
455.5326408672848
 30
0.0000000000000000
 11
458.3254355222661
 21
451.4911889829575
 31
0.0000000000000000
  0
LINE
  5
3DF
100
AcDbEntity
  8
MAIN0
  6
HIDDEN
 62
12
100
AcDbLine
 10
444.3254355222661
 20
416.0911889829587
 30
0.0000000000000000
 11
458.3254355222661
 21
416.0911889829588
 31
0.0000000000000000
  0
LINE
  5
3E0
100
AcDbEntity
  8
MAIN0
  6
CONTINUOUS
 62
3
100
AcDbLine
 10
398.8254355222661
 20
640.4911889829575
 30
0.0000000000000000
 11
398.8254355222661
 21
649.2411889829575
 31
0.0000000000000000
  0
LINE
  5
3E1
100
AcDbEntity
  8
MAIN0
  6
CONTINUOUS
 62
3
100
AcDbLine
 10
404.8254355222661
 20
640.4410633540236
 30
0.0000000000000000
 11
404.8254355222661
 21
649.2411889829575
 31
0.0000000000000000
  0
LINE
  5
3E2
100
AcDbEntity
  8
MAIN0
  6
CONTINUOUS
 62
12
100
AcDbLine
 10
399.3669355222660
 20
640.4911889829575
 30
0.0000000000000000
 11
399.3669355222660
 21
649.2411889829575
 31
0.0000000000000000
  0
LINE
  5
3E3
100
AcDbEntity
  8
MAIN0
  6
CONTINUOUS
 62
12
100
AcDbLine
 10
404.2839355222661
 20
640.4806723404690
 30
0.0000000000000000
 11
404.2839355222661
 21
649.2411889829575
 31
0.0000000000000000
  0
LINE
  5
3E4
100
AcDbEntity
  8
MAIN0
  6
CONTINUOUS
 62
12
100
AcDbLine
 10
400.3254355222661
 20
649.4911889829573
 30
0.0000000000000000
 11
403.3254355222659
 21
649.4911889829573
 31
0.0000000000000000
  0
LINE
  5
3E5
100
AcDbEntity
  8
MAIN0
  6
CONTINUOUS
 62
3
100
AcDbLine
 10
399.6914609260504
 20
641.4911889829573
 30
0.0000000000000000
 11
403.9594101184817
 21
641.4911889829573
 31
0.0000000000000000
  0
LINE
  5
3E6
100
AcDbEntity
  8
MAIN0
  6
CONTINUOUS
 62
3
100
AcDbLine
 10
398.8254355222661
 20
647.9911889829574
 30
0.0000000000000000
 11
404.8254355222660
 21
647.9911889829574
 31
0.0000000000000000
  0
LINE
  5
3E7
100
AcDbEntity
  8
MAIN0
  6
CONTINUOUS
 62
3
100
AcDbLine
 10
398.8254355222659
 20
641.9911889829573
 30
0.0000000000000000
 11
404.8254355222661
 21
641.9911889829573
 31
0.0000000000000000
  0
LINE
  5
3E8
100
AcDbEntity
  8
MAIN0
  6
CONTINUOUS
 62
3
100
AcDbLine
 10
398.8254355222661
 20
647.9911889829571
 30
0.0000000000000000
 11
400.3254355222662
 21
649.4911889829572
 31
0.0000000000000000
  0
LINE
  5
3E9
100
AcDbEntity
  8
MAIN0
  6
CONTINUOUS
 62
3
100
AcDbLine
 10
403.3254355222660
 20
649.4911889829572
 30
0.0000000000000000
 11
404.8254355222661
 21
647.9911889829571
 31
0.0000000000000000
  0
LINE
  5
3EA
100
AcDbEntity
  8
MAIN0
  6
CONTINUOUS
 62
3
100
AcDbLine
 10
399.6914609260504
 20
641.4911889829573
 30
0.0000000000000000
 11
398.8254355222661
 21
641.9911889829572
 31
0.0000000000000000
  0
LINE
  5
3EB
100
AcDbEntity
  8
MAIN0
  6
CONTINUOUS
 62
3
100
AcDbLine
 10
404.8254355222661
 20
641.9911889829572
 30
0.0000000000000000
 11
403.9594101184818
 21
641.4911889829573
 31
0.0000000000000000
  0
CIRCLE
  5
3EC
100
AcDbEntity
  8
MAIN0
  6
CONTINUOUS
 62
12
100
AcDbCircle
 10
898.6823952707189
 20
597.5561820447269
 30
0.0000000000000000
 40
9.999999999999998
  0
CIRCLE
  5
3ED
100
AcDbEntity
  8
MAIN0
  6
CONTINUOUS
 62
3
100
AcDbCircle
 10
898.6823952707189
 20
597.5561820447269
 30
0.0000000000000000
 40
8.749999999999996
  0
LINE
  5
3EE
100
AcDbEntity
  8
MAIN0
  6
CONTINUOUS
 62
3
100
AcDbLine
 10
341.3254355222659
 20
651.9911889829575
 30
0.0000000000000000
 11
341.3254355222659
 21
665.4911889829573
 31
0.0000000000000000
  0
LINE
  5
3EF
100
AcDbEntity
  8
MAIN0
  6
CONTINUOUS
 62
3
100
AcDbLine
 10
349.3254355222659
 20
651.9911889829575
 30
0.0000000000000000
 11
349.3254355222659
 21
665.4911889829573
 31
0.0000000000000000
  0
LINE
  5
3F0
100
AcDbEntity
  8
MAIN0
  6
CONTINUOUS
 62
12
100
AcDbLine
 10
342.0019355222660
 20
651.9911889829575
 30
0.0000000000000000
 11
342.0019355222660
 21
665.4911889829573
 31
0.0000000000000000
  0
LINE
  5
3F1
100
AcDbEntity
  8
MAIN0
  6
CONTINUOUS
 62
12
100
AcDbLine
 10
348.6489355222660
 20
651.9911889829575
 30
0.0000000000000000
 11
348.6489355222660
 21
665.4911889829573
 31
0.0000000000000000
  0
LINE
  5
3F2
100
AcDbEntity
  8
MAIN0
  6
CONTINUOUS
 62
3
100
AcDbLine
 10
342.8254355222661
 20
664.4911889829573
 30
0.0000000000000000
 11
347.8254355222659
 21
664.4911889829573
 31
0.0000000000000000
  0
LINE
  5
3F3
100
AcDbEntity
  8
MAIN0
  6
CONTINUOUS
 62
3
100
AcDbLine
 10
342.3646660068072
 20
652.4911889829574
 30
0.0000000000000000
 11
348.2862050377247
 21
652.4911889829574
 31
0.0000000000000000
  0
LINE
  5
3F4
100
AcDbEntity
  8
MAIN0
  6
CONTINUOUS
 62
3
100
AcDbLine
 10
349.3254355222659
 20
662.9911889829574
 30
0.0000000000000000
 11
341.3254355222661
 21
662.9911889829574
 31
0.0000000000000000
  0
LINE
  5
3F5
100
AcDbEntity
  8
MAIN0
  6
CONTINUOUS
 62
3
100
AcDbLine
 10
341.3254355222659
 20
653.0911889829573
 30
0.0000000000000000
 11
349.3254355222661
 21
653.0911889829573
 31
0.0000000000000000
  0
LINE
  5
3F6
100
AcDbEntity
  8
MAIN0
  6
CONTINUOUS
 62
3
100
AcDbLine
 10
341.3254355222661
 20
662.9911889829572
 30
0.0000000000000000
 11
342.8254355222661
 21
664.4911889829573
 31
0.0000000000000000
  0
LINE
  5
3F7
100
AcDbEntity
  8
MAIN0
  6
CONTINUOUS
 62
3
100
AcDbLine
 10
347.8254355222659
 20
664.4911889829573
 30
0.0000000000000000
 11
349.3254355222660
 21
662.9911889829572
 31
0.0000000000000000
  0
LINE
  5
3F8
100
AcDbEntity
  8
MAIN0
  6
CONTINUOUS
 62
3
100
AcDbLine
 10
342.3646660068072
 20
652.4911889829573
 30
0.0000000000000000
 11
341.3254355222659
 21
653.0911889829572
 31
0.0000000000000000
  0
LINE
  5
3F9
100
AcDbEntity
  8
MAIN0
  6
CONTINUOUS
 62
3
100
AcDbLine
 10
349.3254355222660
 20
653.0911889829572
 30
0.0000000000000000
 11
348.2862050377247
 21
652.4911889829572
 31
0.0000000000000000
  0
LINE
  5
3FA
100
AcDbEntity
  8
WAKU0
  6
CONTINUOUS
 62
3
100
AcDbLine
 10
412.0000000000000
 20
51.00000000000000
 30
0.0000000000000000
 11
582.0000000000000
 21
51.00000000000000
 31
0.0000000000000000
  0
LINE
  5
3FB
100
AcDbEntity
  8
WAKU0
  6
CONTINUOUS
 62
3
100
AcDbLine
 10
412.0000000000000
 20
51.00000000000000
 30
0.0000000000000000
 11
412.0000000000000
 21
12.00000000000000
 31
0.0000000000000000
  0
LINE
  5
3FC
100
AcDbEntity
  8
WAKU0
  6
CONTINUOUS
 62
3
100
AcDbLine
 10
484.0000000000000
 20
51.00000000000000
 30
0.0000000000000000
 11
484.0000000000000
 21
12.00000000000000
 31
0.0000000000000000
  0
LINE
  5
3FD
100
AcDbEntity
  8
WAKU0
  6
CONTINUOUS
 62
3
100
AcDbLine
 10
504.0000000000000
 20
51.00000000000000
 30
0.0000000000000000
 11
504.0000000000000
 21
12.00000000000000
 31
0.0000000000000000
  0
LINE
  5
3FE
100
AcDbEntity
  8
WAKU0
  6
CONTINUOUS
 62
3
100
AcDbLine
 10
516.0000000000000
 20
51.00000000000000
 30
0.0000000000000000
 11
516.0000000000000
 21
12.00000000000000
 31
0.0000000000000000
  0
LINE
  5
3FF
100
AcDbEntity
  8
WAKU0
  6
CONTINUOUS
 62
3
100
AcDbLine
 10
516.0000000000000
 20
37.00000000000000
 30
0.0000000000000000
 11
582.0000000000000
 21
37.00000000000000
 31
0.0000000000000000
  0
LINE
  5
400
100
AcDbEntity
  8
WAKU0
  6
CONTINUOUS
 62
3
100
AcDbLine
 10
504.0000000000000
 20
23.00000000000000
 30
0.0000000000000000
 11
582.0000000000000
 21
23.00000000000000
 31
0.0000000000000000
  0
LINE
  5
401
100
AcDbEntity
  8
WAKU0
  6
CONTINUOUS
 62
3
100
AcDbLine
 10
547.0000000000000
 20
51.00000000000000
 30
0.0000000000000000
 11
547.0000000000000
 21
44.00000000000000
 31
0.0000000000000000
  0
LINE
  5
402
100
AcDbEntity
  8
WAKU0
  6
CONTINUOUS
 62
3
100
AcDbLine
 10
559.0000000000000
 20
51.00000000000000
 30
0.0000000000000000
 11
559.0000000000000
 21
44.00000000000000
 31
0.0000000000000000
  0
LINE
  5
403
100
AcDbEntity
  8
WAKU0
  6
CONTINUOUS
 62
3
100
AcDbLine
 10
484.0000000000000
 20
31.50000000000000
 30
0.0000000000000000
 11
504.0000000000000
 21
31.50000000000000
 31
0.0000000000000000
  0
LINE
  5
404
100
AcDbEntity
  8
WAKU0
  6
CONTINUOUS
 62
3
100
AcDbLine
 10
504.0000000000000
 20
44.00000000000000
 30
0.0000000000000000
 11
582.0000000000000
 21
44.00000000000000
 31
0.0000000000000000
  0
LINE
  5
405
100
AcDbEntity
  8
WAKU0
  6
CONTINUOUS
 62
3
100
AcDbLine
 10
412.0000000000000
 20
37.00000000000000
 30
0.0000000000000000
 11
484.0000000000000
 21
37.00000000000000
 31
0.0000000000000000
  0
LINE
  5
406
100
AcDbEntity
  8
WAKU0
  6
CONTINUOUS
 62
3
100
AcDbLine
 10
412.0000000000000
 20
23.00000000000000
 30
0.0000000000000000
 11
484.0000000000000
 21
23.00000000000000
 31
0.0000000000000000
  0
LINE
  5
407
100
AcDbEntity
  8
WAKU0
  6
CONTINUOUS
 62
3
100
AcDbLine
 10
460.0000000000000
 20
37.00000000000000
 30
0.0000000000000000
 11
460.0000000000000
 21
12.00000000000000
 31
0.0000000000000000
  0
LINE
  5
408
100
AcDbEntity
  8
WAKU0
  6
CONTINUOUS
 62
3
100
AcDbLine
 10
436.0000000000000
 20
37.00000000000000
 30
0.0000000000000000
 11
436.0000000000000
 21
23.00000000000000
 31
0.0000000000000000
  0
LINE
  5
409
100
AcDbEntity
  8
WAKU0
  6
CONTINUOUS
 62
3
100
AcDbLine
 10
472.0000000000000
 20
26.00000000000000
 30
0.0000000000000000
 11
472.0000000000000
 21
23.00000000000000
 31
0.0000000000000000
  0
LINE
  5
40A
100
AcDbEntity
  8
WAKU0
  6
CONTINUOUS
 62
3
100
AcDbLine
 10
448.0000000000000
 20
26.00000000000000
 30
0.0000000000000000
 11
448.0000000000000
 21
23.00000000000000
 31
0.0000000000000000
  0
LINE
  5
40B
100
AcDbEntity
  8
WAKU0
  6
CONTINUOUS
 62
3
100
AcDbLine
 10
424.0000000000000
 20
26.00000000000000
 30
0.0000000000000000
 11
424.0000000000000
 21
23.00000000000000
 31
0.0000000000000000
  0
LINE
  5
40C
100
AcDbEntity
  8
WAKU0
  6
CONTINUOUS
 62
3
100
AcDbLine
 10
430.0000000000000
 20
51.00000000000000
 30
0.0000000000000000
 11
430.0000000000000
 21
37.00000000000000
 31
0.0000000000000000
  0
LINE
  5
40D
100
AcDbEntity
  8
WAKU0
  6
CONTINUOUS
 62
3
100
AcDbLine
 10
412.0000000000000
 20
45.00000000000000
 30
0.0000000000000000
 11
484.0000000000000
 21
45.00000000000000
 31
0.0000000000000000
  0
LINE
  5
40E
100
AcDbEntity
  8
WAKU0
  6
HIDDEN
 62
3
100
AcDbLine
 10
532.5000000000000
 20
23.00000000000000
 30
0.0000000000000000
 11
532.5000000000000
 21
12.00000000000000
 31
0.0000000000000000
  0
LINE
  5
40F
100
AcDbEntity
  8
WAKU0
  6
HIDDEN
 62
3
100
AcDbLine
 10
544.9000000000000
 20
23.00000000000000
 30
0.0000000000000000
 11
544.9000000000000
 21
12.00000000000000
 31
0.0000000000000000
  0
MTEXT
  5
410
100
AcDbEntity
  8
WAKU0
  6
CONTINUOUS
 62
3
100
AcDbMText
 10
516.4820000243485
 20
49.04999995231628
 30
0.0000000000000000
 40
3.099999904632568
 41
0.0000000000000000
 71
     1
 72
     1
  1
{\H0.91x;{N-21}}
 11
1.000000000000000
 21
0.0000000000000000
 31
0.0000000000000000
  7
STANDARD
  0
MTEXT
  5
411
100
AcDbEntity
  8
WAKU0
  6
CONTINUOUS
 62
3
100
AcDbMText
 10
516.4659999916852
 20
43.50000000000000
 30
0.0000000000000000
 40
3.000000000000000
 41
0.0000000000000000
 71
     1
 72
     1
  1
{\H0.94x;{パワーチャック　２１\PＰＯＷＥＲ　ＣＨＵＣＫ　２１}}
 11
1.000000000000000
 21
0.0000000000000000
 31
0.0000000000000000
  7
KNJYOKO
  0
MTEXT
  5
412
100
AcDbEntity
  8
WAKU0
  6
CONTINUOUS
 62
3
100
AcDbMText
 10
516.4820000243485
 20
34.23333326975504
 30
0.0000000000000000
 40
3.099999904632568
 41
0.0000000000000000
 71
     1
 72
     1
  1
{\H0.94x;{Ｎ－２１　ガイケイ\PＮ－２１　ＯＵＴＳＩＤＥ　ＶＩＥＷ}}
 11
1.000000000000000
 21
0.0000000000000000
 31
0.0000000000000000
  7
KNJYOKO
  0
MTEXT
  5
413
100
AcDbEntity
  8
WAKU0
  6
CONTINUOUS
 62
3
100
AcDbMText
 10
490.0049998760223
 20
39.29999995231628
 30
0.0000000000000000
 40
3.099999904632568
 41
0.0000000000000000
 71
     1
 72
     1
  1
{\H0.90x;{2:5}}
 11
1.000000000000000
 21
0.0000000000000000
 31
0.0000000000000000
  7
STANDARD
  0
MTEXT
  5
414
100
AcDbEntity
  8
WAKU0
  6
CONTINUOUS
 62
3
100
AcDbMText
 10
546.4000001549721
 20
20.15000009536743
 30
0.0000000000000000
 40
5.300000190734863
 41
0.0000000000000000
 71
     1
 72
     1
  1
{\H0.90x;{6408}}
 11
1.000000000000000
 21
0.0000000000000000
 31
0.0000000000000000
  7
STANDARD
  0
MTEXT
  5
415
100
AcDbEntity
  8
WAKU0
  6
CONTINUOUS
 62
3
100
AcDbMText
 10
534.3000000834466
 20
20.15000009536743
 30
0.0000000000000000
 40
5.300000190734863
 41
0.0000000000000000
 71
     1
 72
     1
  1
{\H0.87x;{21}}
 11
1.000000000000000
 21
0.0000000000000000
 31
0.0000000000000000
  7
STANDARD
  0
MTEXT
  5
416
100
AcDbEntity
  8
WAKU0
  6
CONTINUOUS
 62
3
100
AcDbMText
 10
517.5000001192093
 20
20.15000009536743
 30
0.0000000000000000
 40
5.300000190734863
 41
0.0000000000000000
 71
     1
 72
     1
  1
{\H0.89x;{61P}}
 11
1.000000000000000
 21
0.0000000000000000
 31
0.0000000000000000
  7
STANDARD
  0
MTEXT
  5
417
100
AcDbEntity
  8
WAKU0
  6
CONTINUOUS
 62
3
100
AcDbMText
 10
572.0000000476837
 20
20.15000009536743
 30
0.0000000000000000
 40
5.300000190734863
 41
0.0000000000000000
 71
     1
 72
     1
  1
{\H0.81x;{5}}
 11
1.000000000000000
 21
0.0000000000000000
 31
0.0000000000000000
  7
STANDARD
  0
MTEXT
  5
418
100
AcDbEntity
  8
WAKU0
  6
CONTINUOUS
 62
3
100
AcDbMText
 10
572.0000000819564
 20
44.84999990463257
 30
0.0000000000000000
 40
5.300000190734863
 41
0.0000000000000000
 71
     7
 72
     1
  1
{\H0.81x;{ }}
 11
1.000000000000000
 21
0.0000000000000000
 31
0.0000000000000000
  7
STANDARD
  0
MTEXT
  5
419
100
AcDbEntity
  8
WAKU0
  6
CONTINUOUS
 62
3
100
AcDbMText
 10
461.3850002884865
 20
33.00000000000000
 30
0.0000000000000000
 40
3.000000000000000
 41
0.0000000000000000
 71
     7
 72
     1
  1
{\H0.93x;{DRAWN BY}}
 11
1.000000000000000
 21
0.0000000000000000
 31
0.0000000000000000
  7
STANDARD
  0
MTEXT
  5
41A
100
AcDbEntity
  8
WAKU0
  6
CONTINUOUS
 62
3
100
AcDbMText
 10
441.2149997949600
 20
32.95000004768372
 30
0.0000000000000000
 40
3.099999904632568
 41
0.0000000000000000
 71
     7
 72
     1
  1
{\H0.92x;{CHIEF}}
 11
1.000000000000000
 21
0.0000000000000000
 31
0.0000000000000000
  7
STANDARD
  0
MTEXT
  5
41B
100
AcDbEntity
  8
WAKU0
  6
CONTINUOUS
 62
3
100
AcDbMText
 10
414.4249997138977
 20
32.95000004768372
 30
0.0000000000000000
 40
3.099999904632568
 41
0.0000000000000000
 71
     7
 72
     1
  1
{\H0.92x;{MANAGER}}
 11
1.000000000000000
 21
0.0000000000000000
 31
0.0000000000000000
  7
STANDARD
  0
MTEXT
  5
41C
100
AcDbEntity
  8
WAKU0
  6
CONTINUOUS
 62
3
100
AcDbMText
 10
416.6599994301796
 20
18.13333336512248
 30
0.0000000000000000
 40
3.099999904632568
 41
0.0000000000000000
 71
     7
 72
     1
  1
{\H0.93x;{KITAGAWA IRON\PWORKS CO.,LTD.}}
 11
1.000000000000000
 21
0.0000000000000000
 31
0.0000000000000000
  7
STANDARD
  0
MTEXT
  5
41D
100
AcDbEntity
  8
WAKU0
  6
CONTINUOUS
 62
3
100
AcDbMText
 10
413.0850002169609
 20
46.50000000000000
 30
0.0000000000000000
 40
3.000000000000000
 41
0.0000000000000000
 71
     7
 72
     1
  1
{\H0.92x;{CAREER}}
 11
1.000000000000000
 21
0.0000000000000000
 31
0.0000000000000000
  7
STANDARD
  0
MTEXT
  5
41E
100
AcDbEntity
  8
WAKU0
  6
CONTINUOUS
 62
3
100
AcDbMText
 10
466.6099998354912
 20
18.95000004768372
 30
0.0000000000000000
 40
3.099999904632568
 41
0.0000000000000000
 71
     7
 72
     1
  1
{\H0.91x;{DATE}}
 11
1.000000000000000
 21
0.0000000000000000
 31
0.0000000000000000
  7
STANDARD
  0
MTEXT
  5
41F
100
AcDbEntity
  8
WAKU0
  6
CONTINUOUS
 62
3
100
AcDbMText
 10
485.9000002145767
 20
26.50000000000000
 30
0.0000000000000000
 40
3.000000000000000
 41
0.0000000000000000
 71
     7
 72
     1
  1
{\H0.63x;{3RD ANGLE}}
 11
1.000000000000000
 21
0.0000000000000000
 31
0.0000000000000000
  7
STANDARD
  0
MTEXT
  5
420
100
AcDbEntity
  8
WAKU0
  6
CONTINUOUS
 62
3
100
AcDbMText
 10
487.2149997949600
 20
45.95000004768372
 30
0.0000000000000000
 40
3.099999904632568
 41
0.0000000000000000
 71
     7
 72
     1
  1
{\H0.92x;{SCALE}}
 11
1.000000000000000
 21
0.0000000000000000
 31
0.0000000000000000
  7
STANDARD
  0
MTEXT
  5
421
100
AcDbEntity
  8
WAKU0
  6
CONTINUOUS
 62
3
100
AcDbMText
 10
577.7000000476837
 20
46.00000000000000
 30
0.0000000000000000
 40
3.000000000000000
 41
0.0000000000000000
 71
     7
 72
     1
  1
{\H0.63x;{kg}}
 11
1.000000000000000
 21
0.0000000000000000
 31
0.0000000000000000
  7
STANDARD
  0
MTEXT
  5
422
100
AcDbEntity
  8
WAKU0
  6
CONTINUOUS
 62
3
100
AcDbMText
 10
547.6000001430512
 20
46.00000000000000
 30
0.0000000000000000
 40
3.000000000000000
 41
0.0000000000000000
 71
     7
 72
     1
  1
{\H0.63x;{WEIGHT}}
 11
1.000000000000000
 21
0.0000000000000000
 31
0.0000000000000000
  7
STANDARD
  0
MTEXT
  5
423
100
AcDbEntity
  8
WAKU0
  6
CONTINUOUS
 62
3
100
AcDbMText
 10
506.0049998760223
 20
18.13333336512248
 30
0.0000000000000000
 40
3.099999904632568
 41
0.0000000000000000
 71
     7
 72
     1
  1
{\H0.90x;{DRW\PNO.}}
 11
1.000000000000000
 21
0.0000000000000000
 31
0.0000000000000000
  7
STANDARD
  0
MTEXT
  5
424
100
AcDbEntity
  8
WAKU0
  6
CONTINUOUS
 62
3
100
AcDbMText
 10
504.6099998354912
 20
31.95000004768372
 30
0.0000000000000000
 40
3.099999904632568
 41
0.0000000000000000
 71
     7
 72
     1
  1
{\H0.91x;{NAME}}
 11
1.000000000000000
 21
0.0000000000000000
 31
0.0000000000000000
  7
STANDARD
  0
MTEXT
  5
425
100
AcDbEntity
  8
WAKU0
  6
CONTINUOUS
 62
3
100
AcDbMText
 10
504.6099998354912
 20
45.95000004768372
 30
0.0000000000000000
 40
3.099999904632568
 41
0.0000000000000000
 71
     7
 72
     1
  1
{\H0.91x;{TYPE}}
 11
1.000000000000000
 21
0.0000000000000000
 31
0.0000000000000000
  7
STANDARD
  0
LINE
  5
426
100
AcDbEntity
  8
WAKU0
  6
HIDDEN
 62
3
100
AcDbLine
 10
579.1599564743885
 20
13.84999990463257
 30
0.0000000000000000
 11
568.9400436209789
 21
13.84999990463257
 31
0.0000000000000000
  0
LINE
  5
427
100
AcDbEntity
  8
WAKU0
  6
HIDDEN
 62
3
100
AcDbLine
 10
579.1599564743885
 20
13.84999990463250
 30
0.0000000000000000
 11
574.0500000476851
 21
22.70070406014901
 31
0.0000000000000000
  0
LINE
  5
428
100
AcDbEntity
  8
WAKU0
  6
HIDDEN
 62
3
100
AcDbLine
 10
574.0500000476851
 20
22.70070406014902
 30
0.0000000000000000
 11
568.9400436209789
 21
13.84999990463248
 31
0.0000000000000000
  0
LINE
  5
429
100
AcDbEntity
  8
WAKU0
  6
CONTINUOUS
 62
3
100
AcDbLine
 10
502.4713877753800
 20
15.78041421262812
 30
0.0000000000000000
 11
502.4713877753800
 21
21.78041421262815
 31
0.0000000000000000
  0
LINE
  5
42A
100
AcDbEntity
  8
WAKU0
  6
CONTINUOUS
 62
3
100
AcDbLine
 10
495.9336941228225
 20
17.28041421262811
 30
0.0000000000000000
 11
495.9336941228225
 21
20.28041421262824
 31
0.0000000000000000
  0
LINE
  5
42B
100
AcDbEntity
  8
WAKU0
  6
CENTER
 62
12
100
AcDbLine
 10
485.4321805514995
 20
18.78041421262813
 30
0.0000000000000000
 11
503.2765788964694
 21
18.78041421262813
 31
0.0000000000000000
  0
LINE
  5
42C
100
AcDbEntity
  8
WAKU0
  6
CENTER
 62
12
100
AcDbLine
 10
489.4474565857986
 20
14.55921662918448
 30
0.0000000000000000
 11
489.4474565857986
 21
22.89865102149943
 31
0.0000000000000000
  0
LINE
  5
42D
100
AcDbEntity
  8
WAKU0
  6
CONTINUOUS
 62
3
100
AcDbLine
 10
495.9336941228225
 20
20.28041421262797
 30
0.0000000000000000
 11
502.4713877753800
 21
21.78041421262795
 31
0.0000000000000000
  0
LINE
  5
42E
100
AcDbEntity
  8
WAKU0
  6
CONTINUOUS
 62
3
100
AcDbLine
 10
495.9336941228225
 20
17.28041421262811
 30
0.0000000000000000
 11
502.4713877753799
 21
15.78041421262812
 31
0.0000000000000000
  0
CIRCLE
  5
42F
100
AcDbEntity
  8
WAKU0
  6
CONTINUOUS
 62
3
100
AcDbCircle
 10
489.4474565857986
 20
18.78041421262813
 30
0.0000000000000000
 40
1.499999999999972
  0
CIRCLE
  5
430
100
AcDbEntity
  8
WAKU0
  6
CONTINUOUS
 62
3
100
AcDbCircle
 10
489.4474565857986
 20
18.78041421262813
 30
0.0000000000000000
 40
2.999999999999979
  0
ENDSEC
  0
SECTION
  2
OBJECTS
  0
DICTIONARY
  5
47E
100
AcDbDictionary
  3
ACAD_GROUP
350
47F
  3
ACAD_MLINESTYLE
350
480
  0
DICTIONARY
  5
47F
102
{ACAD_REACTORS
330
47E
102
}
100
AcDbDictionary
  0
DICTIONARY
  5
480
102
{ACAD_REACTORS
330
47E
102
}
100
AcDbDictionary
  3
STANDARD
350
481
  0
MLINESTYLE
  5
481
102
{ACAD_REACTORS
330
480
102
}
100
AcDbMlineStyle
  2
STANDARD
 70
     0
  3

 62
   256
 51
90.00
 52
90.00
 71
     2
 49
0.50
 62
   256
  6
BYLAYER
 49
-0.50
 62
   256
  6
BYLAYER
  0
ENDSEC
  0
EOF
