  0
SECTION
  2
HEADER
  9
$ACADVER
  1
AC1014
  9
$DWGCODEPAGE
  3
ANSI_932
  9
$LTSCALE
 40
20.0
  9
$FILLMODE
 70
     1
  9
$CLAYER
  8
0
  9
$PDMODE
 70
     0
  9
$SPLFRAME
 70
     0
  9
$SPLINETYPE
 70
     6
  9
$SPLINESEGS
 70
     8
  9
$DIMASZ
 40
2.000000
  9
$DIMEXE
 40
0.700000
  9
$DIMEXO
 40
0.800000
  9
$DIMTAD
 70
     1
  9
$DIMTIH
 70
     0
  9
$DIMTOH
 70
     0
  9
$DIMTVP
 40
0.500000
  9
$DIMTXT
 40
3.100000
  9
$EXTMIN
 10
0.000000
 20
0.000000
 30
0.000000
  9
$EXTMAX
 10
420.000000
 20
594.000000
 30
0.000000
  9
$MEASUREMENT
 70
  1
  9
$LIMMIN
 10
0.000000
 20
0.000000
  9
$LIMMAX
 10
420.000000
 20
594.000000
  9
$HANDLING
 70
     1
  9
$HANDSEED
  5
491
  9
$DIMBLK
  1
_OPEN
  9
$DIMDEC
 70
     3
  9
$DIMAUNIT
 70
     1
  9
$DIMZIN
 70
     8
  9
$DIMTOFL
 70
     1
  0
ENDSEC
  0
SECTION
  2
CLASSES
  0
ENDSEC
  0
SECTION
  2
TABLES
  0
TABLE
  2
VPORT
  5
43A
100
AcDbSymbolTable
 70
     1
  0
VPORT
  5
43B
100
AcDbSymbolTableRecord
100
AcDbViewportTableRecord
  2
*ACTIVE
 70
     0
 12
297.000000
 22
210.000000
 40
420.000000
 41
1.414286
  0
ENDTAB
  0
TABLE
  2
LTYPE
  5
43C
100
AcDbSymbolTable
 70
     5
  0
LTYPE
  5
43D
100
AcDbSymbolTableRecord
100
AcDbLinetypeTableRecord
  2
BYBLOCK
 70
     0
  3

 72
    65
 73
     0
 40
0.0
  0
LTYPE
  5
43E
100
AcDbSymbolTableRecord
100
AcDbLinetypeTableRecord
  2
BYLAYER
 70
     0
  3

 72
    65
 73
     0
 40
0.0
  0
LTYPE
  5
43F
100
AcDbSymbolTableRecord
100
AcDbLinetypeTableRecord
  2
CONTINUOUS
 70
     0
  3
Solid line (NEC CAE2D for Win R14.2 : 2021.09.23)
 72
    65
 73
     0
 40
0.0
  0
LTYPE
  5
440
100
AcDbSymbolTableRecord
100
AcDbLinetypeTableRecord
  2
DASHED
 70
     0
  3
__ __ __ __ __ __ __ __ __ __ __ __ __ _
 72
    65
 73
     2
 40
0.75
 49
0.5
 74
     0
 49
-0.25
 74
     0
  0
LTYPE
  5
441
100
AcDbSymbolTableRecord
100
AcDbLinetypeTableRecord
  2
HIDDEN
 70
     0
  3
__ __ __ __ __ __ __ __ __ __ __ __ __ __
 72
    65
 73
     2
 40
0.375
 49
0.25
 74
     0
 49
-0.125
 74
     0
  0
LTYPE
  5
442
100
AcDbSymbolTableRecord
100
AcDbLinetypeTableRecord
  2
CENTER
 70
     0
  3
____ _ ____ _ ____ _ ____ _ ____ _ ____
 72
    65
 73
     4
 40
2.0
 49
1.25
 74
     0
 49
-0.25
 74
     0
 49
0.25
 74
     0
 49
-0.25
 74
     0
  0
LTYPE
  5
443
100
AcDbSymbolTableRecord
100
AcDbLinetypeTableRecord
  2
PHANTOM
 70
     0
  3
______  __  __  ______  __  __  ______ 
 72
    65
 73
     6
 40
2.5
 49
1.25
 74
     0
 49
-0.25
 74
     0
 49
0.25
 74
     0
 49
-0.25
 74
     0
 49
0.25
 74
     0
 49
-0.25
 74
     0
  0
ENDTAB
  0
TABLE
  2
LAYER
  5
444
100
AcDbSymbolTable
 70
    15
  0
LAYER
  5
445
100
AcDbSymbolTableRecord
100
AcDbLayerTableRecord
  2
0
 70
     0
 62
     7
  6
CONTINUOUS
  0
LAYER
  5
446
100
AcDbSymbolTableRecord
100
AcDbLayerTableRecord
  2
MAIN0
 70
     0
 62
     7
  6
CONTINUOUS
  0
LAYER
  5
447
100
AcDbSymbolTableRecord
100
AcDbLayerTableRecord
  2
MAIN1
 70
     0
 62
     7
  6
CONTINUOUS
  0
LAYER
  5
448
100
AcDbSymbolTableRecord
100
AcDbLayerTableRecord
  2
MAIN2
 70
     0
 62
     5
  6
CONTINUOUS
  0
LAYER
  5
449
100
AcDbSymbolTableRecord
100
AcDbLayerTableRecord
  2
MAIN3
 70
     0
 62
    14
  6
CONTINUOUS
  0
LAYER
  5
44A
100
AcDbSymbolTableRecord
100
AcDbLayerTableRecord
  2
MAIN4
 70
     0
 62
     9
  6
CONTINUOUS
  0
LAYER
  5
44B
100
AcDbSymbolTableRecord
100
AcDbLayerTableRecord
  2
MAIN5
 70
     0
 62
     9
  6
CONTINUOUS
  0
LAYER
  5
44C
100
AcDbSymbolTableRecord
100
AcDbLayerTableRecord
  2
MAIN6
 70
     0
 62
    10
  6
CONTINUOUS
  0
LAYER
  5
44D
100
AcDbSymbolTableRecord
100
AcDbLayerTableRecord
  2
MAIN7
 70
     0
 62
     7
  6
CONTINUOUS
  0
LAYER
  5
44E
100
AcDbSymbolTableRecord
100
AcDbLayerTableRecord
  2
MAIN8
 70
     0
 62
    12
  6
CONTINUOUS
  0
LAYER
  5
44F
100
AcDbSymbolTableRecord
100
AcDbLayerTableRecord
  2
MAIN9
 70
     0
 62
     8
  6
CONTINUOUS
  0
LAYER
  5
450
100
AcDbSymbolTableRecord
100
AcDbLayerTableRecord
  2
MAIN10
 70
     0
 62
     7
  6
CONTINUOUS
  0
LAYER
  5
451
100
AcDbSymbolTableRecord
100
AcDbLayerTableRecord
  2
MAIN1023
 70
     0
 62
    16
  6
CONTINUOUS
  0
LAYER
  5
452
100
AcDbSymbolTableRecord
100
AcDbLayerTableRecord
  2
WAKU0
 70
     0
 62
     7
  6
CONTINUOUS
  0
LAYER
  5
453
100
AcDbSymbolTableRecord
100
AcDbLayerTableRecord
  2
WAKU1023
 70
     0
 62
    16
  6
CONTINUOUS
  0
ENDTAB
  0
TABLE
  2
STYLE
  5
454
100
AcDbSymbolTable
 70
     4
  0
STYLE
  5
455
100
AcDbSymbolTableRecord
100
AcDbTextStyleTableRecord
  2
STANDARD
 70
    64
 40
0.0
 41
1.0
 50
0.0
 71
     0
 42
3.099999904632568
  3
TXT
  4

  0
STYLE
  5
456
100
AcDbSymbolTableRecord
100
AcDbTextStyleTableRecord
  2
ANKTATE
 70
    68
 40
0.0
 41
1.0
 50
0.0
 71
     0
 42
3.099999904632568
  3
TXT
  4

  0
STYLE
  5
1A2
100
AcDbSymbolTableRecord
100
AcDbTextStyleTableRecord
  2
KNJYOKO
 70
    64
 40
0.0
 41
1.0
 50
0.0
 71
     0
 42
3.099999904632568
  3
TXT
  4
BIGFONT
  0
STYLE
  5
457
100
AcDbSymbolTableRecord
100
AcDbTextStyleTableRecord
  2
KNJTATE
 70
    68
 40
0.0
 41
1.0
 50
0.0
 71
     0
 42
3.099999904632568
  3
TXT
  4
BIGFONT
  0
ENDTAB
  0
TABLE
  2
VIEW
  5
458
100
AcDbSymbolTable
 70
     0
  0
ENDTAB
  0
TABLE
  2
UCS
  5
459
100
AcDbSymbolTable
 70
     0
  0
ENDTAB
  0
TABLE
  2
APPID
  5
45A
100
AcDbSymbolTable
 70
     1
  0
APPID
  5
45B
100
AcDbSymbolTableRecord
100
AcDbRegAppTableRecord
  2
ACAD
 70
     0
  0
ENDTAB
  0
TABLE
  2
DIMSTYLE
  5
45C
100
AcDbSymbolTable
 70
     1
  0
DIMSTYLE
105
45D
100
AcDbSymbolTableRecord
100
AcDbDimStyleTableRecord
  2
STANDARD
 70
     0
 41
2.000000
 44
0.700000
 42
0.800000
145
0.661290
140
3.100000
144
1.000000
146
0.903226
340
455
  0
DIMSTYLE
105
45E
100
AcDbSymbolTableRecord
100
AcDbDimStyleTableRecord
  2
MAIN001
 70
     0
 41
2.000000
 44
0.700000
 42
0.800000
145
0.661290
140
3.100000
144
1.000000
146
0.903226
 77
     1
 73
     0
 74
     0
271
     3
275
     1
 78
     8
172
     1
340
455
  0
DIMSTYLE
105
45F
100
AcDbSymbolTableRecord
100
AcDbDimStyleTableRecord
  2
WAKU002
 70
     0
 41
2.000000
 44
0.700000
 42
0.800000
145
0.661290
140
3.100000
144
1.000000
146
0.903226
 77
     1
 73
     0
 74
     0
271
     3
275
     1
 78
     8
172
     1
340
455
  0
ENDTAB
  0
TABLE
  2
BLOCK_RECORD
  5
460
100
AcDbSymbolTable
 70
    49
  0
BLOCK_RECORD
  5
461
100
AcDbSymbolTableRecord
100
AcDbBlockTableRecord
  2
*MODEL_SPACE
  0
BLOCK_RECORD
  5
462
100
AcDbSymbolTableRecord
100
AcDbBlockTableRecord
  2
*PAPER_SPACE
  0
BLOCK_RECORD
  5
1
100
AcDbSymbolTableRecord
100
AcDbBlockTableRecord
  2
_NONE
  0
BLOCK_RECORD
  5
4
100
AcDbSymbolTableRecord
100
AcDbBlockTableRecord
  2
_CLOSED
  0
BLOCK_RECORD
  5
B
100
AcDbSymbolTableRecord
100
AcDbBlockTableRecord
  2
_DOT
  0
BLOCK_RECORD
  5
13
100
AcDbSymbolTableRecord
100
AcDbBlockTableRecord
  2
_OPEN
  0
BLOCK_RECORD
  5
19
100
AcDbSymbolTableRecord
100
AcDbBlockTableRecord
  2
_ORIGIN
  0
BLOCK_RECORD
  5
1E
100
AcDbSymbolTableRecord
100
AcDbBlockTableRecord
  2
_OPEN30
  0
BLOCK_RECORD
  5
24
100
AcDbSymbolTableRecord
100
AcDbBlockTableRecord
  2
_BOXFILLED
  0
BLOCK_RECORD
  5
29
100
AcDbSymbolTableRecord
100
AcDbBlockTableRecord
  2
_BOXBLANK
  0
BLOCK_RECORD
  5
31
100
AcDbSymbolTableRecord
100
AcDbBlockTableRecord
  2
_OBLIQUE
  0
BLOCK_RECORD
  5
35
100
AcDbSymbolTableRecord
100
AcDbBlockTableRecord
  2
_OPEN90
  0
BLOCK_RECORD
  5
3B
100
AcDbSymbolTableRecord
100
AcDbBlockTableRecord
  2
_CLOSEDBLANK
  0
BLOCK_RECORD
  5
41
100
AcDbSymbolTableRecord
100
AcDbBlockTableRecord
  2
_DOTBLANK
  0
BLOCK_RECORD
  5
463
100
AcDbSymbolTableRecord
100
AcDbBlockTableRecord
  2
*D0
  0
BLOCK_RECORD
  5
464
100
AcDbSymbolTableRecord
100
AcDbBlockTableRecord
  2
*D1
  0
BLOCK_RECORD
  5
465
100
AcDbSymbolTableRecord
100
AcDbBlockTableRecord
  2
*D2
  0
BLOCK_RECORD
  5
466
100
AcDbSymbolTableRecord
100
AcDbBlockTableRecord
  2
*D3
  0
BLOCK_RECORD
  5
467
100
AcDbSymbolTableRecord
100
AcDbBlockTableRecord
  2
*D4
  0
BLOCK_RECORD
  5
468
100
AcDbSymbolTableRecord
100
AcDbBlockTableRecord
  2
*D5
  0
BLOCK_RECORD
  5
469
100
AcDbSymbolTableRecord
100
AcDbBlockTableRecord
  2
*D6
  0
BLOCK_RECORD
  5
46A
100
AcDbSymbolTableRecord
100
AcDbBlockTableRecord
  2
*D7
  0
BLOCK_RECORD
  5
46B
100
AcDbSymbolTableRecord
100
AcDbBlockTableRecord
  2
*D8
  0
BLOCK_RECORD
  5
46C
100
AcDbSymbolTableRecord
100
AcDbBlockTableRecord
  2
*D9
  0
BLOCK_RECORD
  5
46D
100
AcDbSymbolTableRecord
100
AcDbBlockTableRecord
  2
*D10
  0
BLOCK_RECORD
  5
46E
100
AcDbSymbolTableRecord
100
AcDbBlockTableRecord
  2
*D11
  0
BLOCK_RECORD
  5
46F
100
AcDbSymbolTableRecord
100
AcDbBlockTableRecord
  2
*D12
  0
BLOCK_RECORD
  5
470
100
AcDbSymbolTableRecord
100
AcDbBlockTableRecord
  2
*D13
  0
BLOCK_RECORD
  5
471
100
AcDbSymbolTableRecord
100
AcDbBlockTableRecord
  2
*D14
  0
BLOCK_RECORD
  5
472
100
AcDbSymbolTableRecord
100
AcDbBlockTableRecord
  2
*D15
  0
BLOCK_RECORD
  5
473
100
AcDbSymbolTableRecord
100
AcDbBlockTableRecord
  2
*D16
  0
BLOCK_RECORD
  5
474
100
AcDbSymbolTableRecord
100
AcDbBlockTableRecord
  2
*D17
  0
BLOCK_RECORD
  5
475
100
AcDbSymbolTableRecord
100
AcDbBlockTableRecord
  2
*D18
  0
BLOCK_RECORD
  5
476
100
AcDbSymbolTableRecord
100
AcDbBlockTableRecord
  2
*D19
  0
BLOCK_RECORD
  5
477
100
AcDbSymbolTableRecord
100
AcDbBlockTableRecord
  2
*D20
  0
BLOCK_RECORD
  5
478
100
AcDbSymbolTableRecord
100
AcDbBlockTableRecord
  2
*D21
  0
BLOCK_RECORD
  5
479
100
AcDbSymbolTableRecord
100
AcDbBlockTableRecord
  2
*D22
  0
BLOCK_RECORD
  5
47A
100
AcDbSymbolTableRecord
100
AcDbBlockTableRecord
  2
*D23
  0
BLOCK_RECORD
  5
47B
100
AcDbSymbolTableRecord
100
AcDbBlockTableRecord
  2
*D24
  0
BLOCK_RECORD
  5
47C
100
AcDbSymbolTableRecord
100
AcDbBlockTableRecord
  2
*D25
  0
BLOCK_RECORD
  5
47D
100
AcDbSymbolTableRecord
100
AcDbBlockTableRecord
  2
*D26
  0
BLOCK_RECORD
  5
47E
100
AcDbSymbolTableRecord
100
AcDbBlockTableRecord
  2
*D27
  0
BLOCK_RECORD
  5
47F
100
AcDbSymbolTableRecord
100
AcDbBlockTableRecord
  2
*D28
  0
BLOCK_RECORD
  5
480
100
AcDbSymbolTableRecord
100
AcDbBlockTableRecord
  2
*D29
  0
BLOCK_RECORD
  5
481
100
AcDbSymbolTableRecord
100
AcDbBlockTableRecord
  2
*D30
  0
BLOCK_RECORD
  5
482
100
AcDbSymbolTableRecord
100
AcDbBlockTableRecord
  2
*D31
  0
BLOCK_RECORD
  5
483
100
AcDbSymbolTableRecord
100
AcDbBlockTableRecord
  2
*D32
  0
BLOCK_RECORD
  5
484
100
AcDbSymbolTableRecord
100
AcDbBlockTableRecord
  2
*D33
  0
BLOCK_RECORD
  5
485
100
AcDbSymbolTableRecord
100
AcDbBlockTableRecord
  2
*D34
  0
BLOCK_RECORD
  5
486
100
AcDbSymbolTableRecord
100
AcDbBlockTableRecord
  2
*D35
  0
BLOCK_RECORD
  5
487
100
AcDbSymbolTableRecord
100
AcDbBlockTableRecord
  2
*D36
  0
ENDTAB
  0
ENDSEC
  0
SECTION
  2
BLOCKS
  0
BLOCK
  5
488
100
AcDbEntity
  8
0
100
AcDbBlockBegin
  2
*MODEL_SPACE
 70
     0
 10
0.0
 20
0.0
 30
0.0
  3
*MODEL_SPACE
  1

  0
ENDBLK
  5
489
100
AcDbEntity
  8
0
100
AcDbBlockEnd
  0
BLOCK
  5
48A
100
AcDbEntity
  8
0
100
AcDbBlockBegin
  2
*PAPER_SPACE
 70
     0
 10
0.0
 20
0.0
 30
0.0
  3
*PAPER_SPACE
  1

  0
ENDBLK
  5
48B
100
AcDbEntity
  8
0
100
AcDbBlockEnd
  0
BLOCK
  5
2
100
AcDbEntity
  8
0
100
AcDbBlockBegin
  2
_NONE
 70
     0
 10
0.0
 20
0.0
 30
0.0
  3
_NONE
  1

  0
ENDBLK
  5
3
100
AcDbEntity
  8
0
100
AcDbBlockEnd
  0
BLOCK
  5
5
100
AcDbEntity
  8
0
100
AcDbBlockBegin
  2
_CLOSED
 70
     0
 10
0.0
 20
0.0
 30
0.0
  3
_CLOSED
  1

  0
LINE
  5
6
100
AcDbEntity
  8
0
  6
BYBLOCK
 62
     0
100
AcDbLine
 10
-1.0
 20
0.166667
 30
0.0
 11
0.0
 21
0.0
 31
0.0
  0
LINE
  5
7
100
AcDbEntity
  8
0
  6
BYBLOCK
 62
     0
100
AcDbLine
 10
0.0
 20
0.0
 30
0.0
 11
-1.0
 21
-0.166667
 31
0.0
  0
LINE
  5
8
100
AcDbEntity
  8
0
  6
BYBLOCK
 62
     0
100
AcDbLine
 10
-1.0
 20
0.166667
 30
0.0
 11
-1.0
 21
-0.166667
 31
0.0
  0
LINE
  5
9
100
AcDbEntity
  8
0
  6
BYBLOCK
 62
     0
100
AcDbLine
 10
0.0
 20
0.0
 30
0.0
 11
-1.0
 21
0.0
 31
0.0
  0
ENDBLK
  5
A
100
AcDbEntity
  8
0
100
AcDbBlockEnd
  0
BLOCK
  5
C
100
AcDbEntity
  8
0
100
AcDbBlockBegin
  2
_DOT
 70
     0
 10
0.0
 20
0.0
 30
0.0
  3
_DOT
  1

  0
POLYLINE
  5
D
100
AcDbEntity
  8
0
  6
BYBLOCK
 62
     0
100
AcDb2dPolyline
 66
     1
 10
0.0
 20
0.0
 30
0.0
 70
     1
 40
0.5
 41
0.5
  0
VERTEX
  5
E
100
AcDbEntity
  8
0
  6
BYBLOCK
 62
     0
100
AcDbVertex
100
AcDb2dVertex
 10
-0.25
 20
0.0
 30
0.0
 42
1.0
  0
VERTEX
  5
F
100
AcDbEntity
  8
0
  6
BYBLOCK
 62
     0
100
AcDbVertex
100
AcDb2dVertex
 10
0.25
 20
0.0
 30
0.0
 42
1.0
  0
SEQEND
  5
10
100
AcDbEntity
  8
0
  6
BYBLOCK
 62
     0
  0
LINE
  5
11
100
AcDbEntity
  8
0
  6
BYBLOCK
 62
     0
100
AcDbLine
 10
-0.5
 20
0.0
 30
0.0
 11
-1.0
 21
0.0
 31
0.0
  0
ENDBLK
  5
12
100
AcDbEntity
  8
0
100
AcDbBlockEnd
  0
BLOCK
  5
14
100
AcDbEntity
  8
0
100
AcDbBlockBegin
  2
_OPEN
 70
     0
 10
0.0
 20
0.0
 30
0.0
  3
_OPEN
  1

  0
LINE
  5
15
100
AcDbEntity
  8
0
  6
BYBLOCK
 62
     0
100
AcDbLine
 10
-1.0
 20
0.166667
 30
0.0
 11
0.0
 21
0.0
 31
0.0
  0
LINE
  5
16
100
AcDbEntity
  8
0
  6
BYBLOCK
 62
     0
100
AcDbLine
 10
0.0
 20
0.0
 30
0.0
 11
-1.0
 21
-0.166667
 31
0.0
  0
LINE
  5
17
100
AcDbEntity
  8
0
  6
BYBLOCK
 62
     0
100
AcDbLine
 10
0.0
 20
0.0
 30
0.0
 11
-1.0
 21
0.0
 31
0.0
  0
ENDBLK
  5
18
100
AcDbEntity
  8
0
100
AcDbBlockEnd
  0
BLOCK
  5
1A
100
AcDbEntity
  8
0
100
AcDbBlockBegin
  2
_ORIGIN
 70
     0
 10
0.0
 20
0.0
 30
0.0
  3
_ORIGIN
  1

  0
CIRCLE
  5
1B
100
AcDbEntity
  8
0
  6
BYBLOCK
 62
     0
100
AcDbCircle
 10
0.0
 20
0.0
 30
0.0
 40
0.5
  0
LINE
  5
1C
100
AcDbEntity
  8
0
  6
BYBLOCK
 62
     0
100
AcDbLine
 10
0.0
 20
0.0
 30
0.0
 11
-1.0
 21
0.0
 31
0.0
  0
ENDBLK
  5
1D
100
AcDbEntity
  8
0
100
AcDbBlockEnd
  0
BLOCK
  5
1F
100
AcDbEntity
  8
0
100
AcDbBlockBegin
  2
_OPEN30
 70
     0
 10
0.0
 20
0.0
 30
0.0
  3
_OPEN30
  1

  0
LINE
  5
20
100
AcDbEntity
  8
0
  6
BYBLOCK
 62
     0
100
AcDbLine
 10
-1.0
 20
0.267949
 30
0.0
 11
0.0
 21
0.0
 31
0.0
  0
LINE
  5
21
100
AcDbEntity
  8
0
  6
BYBLOCK
 62
     0
100
AcDbLine
 10
0.0
 20
0.0
 30
0.0
 11
-1.0
 21
-0.267949
 31
0.0
  0
LINE
  5
22
100
AcDbEntity
  8
0
  6
BYBLOCK
 62
     0
100
AcDbLine
 10
0.0
 20
0.0
 30
0.0
 11
-1.0
 21
0.0
 31
0.0
  0
ENDBLK
  5
23
100
AcDbEntity
  8
0
100
AcDbBlockEnd
  0
BLOCK
  5
25
100
AcDbEntity
  8
0
100
AcDbBlockBegin
  2
_BOXFILLED
 70
     0
 10
0.0
 20
0.0
 30
0.0
  3
_BOXFILLED
  1

  0
SOLID
  5
26
100
AcDbEntity
  8
0
  6
BYBLOCK
 62
     0
100
AcDbTrace
 10
-0.5
 20
0.5
 30
0.0
 11
0.5
 21
0.5
 31
0.0
 12
-0.5
 22
-0.5
 32
0.0
 13
0.5
 23
-0.5
 33
0.0
  0
LINE
  5
27
100
AcDbEntity
  8
0
  6
BYBLOCK
 62
     0
100
AcDbLine
 10
-0.5
 20
0.0
 30
0.0
 11
-1.0
 21
0.0
 31
0.0
  0
ENDBLK
  5
28
100
AcDbEntity
  8
0
100
AcDbBlockEnd
  0
BLOCK
  5
2A
100
AcDbEntity
  8
0
100
AcDbBlockBegin
  2
_BOXBLANK
 70
     0
 10
0.0
 20
0.0
 30
0.0
  3
_BOXBLANK
  1

  0
LINE
  5
2B
100
AcDbEntity
  8
0
  6
BYBLOCK
 62
     0
100
AcDbLine
 10
-0.5
 20
-0.5
 30
0.0
 11
0.5
 21
-0.5
 31
0.0
  0
LINE
  5
2C
100
AcDbEntity
  8
0
  6
BYBLOCK
 62
     0
100
AcDbLine
 10
0.5
 20
-0.5
 30
0.0
 11
0.5
 21
0.5
 31
0.0
  0
LINE
  5
2D
100
AcDbEntity
  8
0
  6
BYBLOCK
 62
     0
100
AcDbLine
 10
0.5
 20
0.5
 30
0.0
 11
-0.5
 21
0.5
 31
0.0
  0
LINE
  5
2E
100
AcDbEntity
  8
0
  6
BYBLOCK
 62
     0
100
AcDbLine
 10
-0.5
 20
0.5
 30
0.0
 11
-0.5
 21
-0.5
 31
0.0
  0
LINE
  5
2F
100
AcDbEntity
  8
0
  6
BYBLOCK
 62
     0
100
AcDbLine
 10
-0.5
 20
0.0
 30
0.0
 11
-1.0
 21
0.0
 31
0.0
  0
ENDBLK
  5
30
100
AcDbEntity
  8
0
100
AcDbBlockEnd
  0
BLOCK
  5
32
100
AcDbEntity
  8
0
100
AcDbBlockBegin
  2
_OBLIQUE
 70
     0
 10
0.0
 20
0.0
 30
0.0
  3
_OBLIQUE
  1

  0
LINE
  5
33
100
AcDbEntity
  8
0
  6
BYBLOCK
 62
     0
100
AcDbLine
 10
-0.5
 20
-0.5
 30
0.0
 11
0.5
 21
0.5
 31
0.0
  0
ENDBLK
  5
34
100
AcDbEntity
  8
0
100
AcDbBlockEnd
  0
BLOCK
  5
36
100
AcDbEntity
  8
0
100
AcDbBlockBegin
  2
_OPEN90
 70
     0
 10
0.0
 20
0.0
 30
0.0
  3
_OPEN90
  1

  0
LINE
  5
37
100
AcDbEntity
  8
0
  6
BYBLOCK
 62
     0
100
AcDbLine
 10
-0.5
 20
0.5
 30
0.0
 11
0.0
 21
0.0
 31
0.0
  0
LINE
  5
38
100
AcDbEntity
  8
0
  6
BYBLOCK
 62
     0
100
AcDbLine
 10
0.0
 20
0.0
 30
0.0
 11
-0.5
 21
-0.5
 31
0.0
  0
LINE
  5
39
100
AcDbEntity
  8
0
  6
BYBLOCK
 62
     0
100
AcDbLine
 10
0.0
 20
0.0
 30
0.0
 11
-1.0
 21
0.0
 31
0.0
  0
ENDBLK
  5
3A
100
AcDbEntity
  8
0
100
AcDbBlockEnd
  0
BLOCK
  5
3C
100
AcDbEntity
  8
0
100
AcDbBlockBegin
  2
_CLOSEDBLANK
 70
     0
 10
0.0
 20
0.0
 30
0.0
  3
_CLOSEDBLANK
  1

  0
LINE
  5
3D
100
AcDbEntity
  8
0
  6
BYBLOCK
 62
     0
100
AcDbLine
 10
-1.0
 20
0.1666666666666666
 30
0.0
 11
0.0
 21
0.0
 31
0.0
  0
LINE
  5
3E
100
AcDbEntity
  8
0
  6
BYBLOCK
 62
     0
100
AcDbLine
 10
0.0
 20
0.0
 30
0.0
 11
-1.0
 21
-0.1666666666666666
 31
0.0
  0
LINE
  5
3F
100
AcDbEntity
  8
0
  6
BYBLOCK
 62
     0
100
AcDbLine
 10
-1.0
 20
0.1666666666666666
 30
0.0
 11
-1.0
 21
-0.1666666666666666
 31
0.0
  0
ENDBLK
  5
40
100
AcDbEntity
  8
0
100
AcDbBlockEnd
  0
BLOCK
  5
42
100
AcDbEntity
  8
0
100
AcDbBlockBegin
  2
_DOTBLANK
 70
     0
 10
0.0
 20
0.0
 30
0.0
  3
_DOTBLANK
  1

  0
CIRCLE
  5
43
100
AcDbEntity
  8
0
  6
BYBLOCK
 62
     0
100
AcDbCircle
 10
0.0
 20
0.0
 30
0.0
 40
0.5
  0
LINE
  5
44
100
AcDbEntity
  8
0
  6
BYBLOCK
 62
     0
100
AcDbLine
 10
-0.5
 20
0.0
 30
0.0
 11
-1.0
 21
0.0
 31
0.0
  0
ENDBLK
  5
45
100
AcDbEntity
  8
0
100
AcDbBlockEnd
  0
BLOCK
  5
D8
100
AcDbEntity
  8
MAIN10
  6
CONTINUOUS
 62
12
100
AcDbBlockBegin
  2
*D0
 70
    65
 10
0.0
 20
0.0
 30
0.0
  0
LINE
  5
D9
100
AcDbEntity
  8
MAIN10
  6
BYBLOCK
 62
0
100
AcDbLine
 10
235.9721296847865
 20
362.9592584399361
 30
0.0000000000000000
 11
235.9721296847865
 21
390.5563583026593
 31
0.0000000000000000
  0
LINE
  5
DA
100
AcDbEntity
  8
MAIN10
  6
BYBLOCK
 62
0
100
AcDbLine
 10
237.8828018725916
 20
388.5563583026593
 30
0.0000000000000000
 11
257.3914574969812
 21
388.5563583026593
 31
0.0000000000000000
  0
INSERT
  5
DB
100
AcDbEntity
  8
MAIN10
  6
BYBLOCK
 62
0
100
AcDbBlockReference
  2
_OPEN
 10
235.9721296847865
 20
388.5563583026593
 30
0.0000000000000000
 41
1.910672187805176
 42
1.910672187805176
 43
1.910672187805176
 50
180.0000000000000
  0
INSERT
  5
DC
100
AcDbEntity
  8
MAIN10
  6
BYBLOCK
 62
0
100
AcDbBlockReference
  2
_OPEN
 10
259.3021296847864
 20
388.5563583026593
 30
0.0000000000000000
 41
1.910672187805176
 42
1.910672187805176
 43
1.910672187805176
 50
0.0000000000000000
  0
LINE
  5
DD
100
AcDbEntity
  8
MAIN10
  6
BYBLOCK
 62
0
100
AcDbLine
 10
259.3021296847864
 20
352.5592584399362
 30
0.0000000000000000
 11
259.3021296847864
 21
390.5563583026593
 31
0.0000000000000000
  0
MTEXT
  5
DE
100
AcDbEntity
  8
MAIN10
  6
BYBLOCK
 62
0
100
AcDbMText
 10
247.6371296847864
 20
390.6063582549756
 30
0.0000000000000000
 40
3.099999904632568
 41
0.0000000000000000
 71
     5
 72
     1
  1
\A1;23.33
 11
1.000000000000000
 21
0.0000000000000000
 31
0.0000000000000000
  7
STANDARD
  0
ENDBLK
  5
DF
100
AcDbEntity
  8
MAIN10
  6
CONTINUOUS
 62
12
100
AcDbBlockEnd
  0
BLOCK
  5
E1
100
AcDbEntity
  8
MAIN10
  6
CONTINUOUS
 62
12
100
AcDbBlockBegin
  2
*D1
 70
    65
 10
0.0
 20
0.0
 30
0.0
  0
LINE
  5
E2
100
AcDbEntity
  8
MAIN10
  6
BYBLOCK
 62
0
100
AcDbLine
 10
259.3021296847864
 20
352.5592584399362
 30
0.0000000000000000
 11
259.3021296847864
 21
390.5563583026593
 31
0.0000000000000000
  0
LINE
  5
E3
100
AcDbEntity
  8
MAIN10
  6
BYBLOCK
 62
0
100
AcDbLine
 10
261.2128018725916
 20
388.5563583026593
 30
0.0000000000000000
 11
311.5614574969813
 21
388.5563583026593
 31
0.0000000000000000
  0
INSERT
  5
E4
100
AcDbEntity
  8
MAIN10
  6
BYBLOCK
 62
0
100
AcDbBlockReference
  2
_OPEN
 10
259.3021296847864
 20
388.5563583026593
 30
0.0000000000000000
 41
1.910672187805176
 42
1.910672187805176
 43
1.910672187805176
 50
180.0000000000000
  0
INSERT
  5
E5
100
AcDbEntity
  8
MAIN10
  6
BYBLOCK
 62
0
100
AcDbBlockReference
  2
_OPEN
 10
313.4721296847865
 20
388.5563583026593
 30
0.0000000000000000
 41
1.910672187805176
 42
1.910672187805176
 43
1.910672187805176
 50
0.0000000000000000
  0
LINE
  5
E6
100
AcDbEntity
  8
MAIN10
  6
BYBLOCK
 62
0
100
AcDbLine
 10
313.4721296847865
 20
352.8592584399362
 30
0.0000000000000000
 11
313.4721296847865
 21
390.5563583026593
 31
0.0000000000000000
  0
MTEXT
  5
E7
100
AcDbEntity
  8
MAIN10
  6
BYBLOCK
 62
0
100
AcDbMText
 10
286.3871296847864
 20
390.6063582549756
 30
0.0000000000000000
 40
3.099999904632568
 41
0.0000000000000000
 71
     5
 72
     1
  1
\A1;54.17
 11
1.000000000000000
 21
0.0000000000000000
 31
0.0000000000000000
  7
STANDARD
  0
ENDBLK
  5
E8
100
AcDbEntity
  8
MAIN10
  6
CONTINUOUS
 62
12
100
AcDbBlockEnd
  0
BLOCK
  5
EA
100
AcDbEntity
  8
MAIN10
  6
CONTINUOUS
 62
12
100
AcDbBlockBegin
  2
*D2
 70
    65
 10
0.0
 20
0.0
 30
0.0
  0
LINE
  5
EB
100
AcDbEntity
  8
MAIN10
  6
BYBLOCK
 62
0
100
AcDbLine
 10
219.9721296847865
 20
207.4842584280153
 30
0.0000000000000000
 11
219.9721296847865
 21
216.1466903551759
 31
0.0000000000000000
  0
LINE
  5
EC
100
AcDbEntity
  8
MAIN10
  6
BYBLOCK
 62
0
100
AcDbLine
 10
221.8828018725916
 20
214.1466903551759
 30
0.0000000000000000
 11
234.0614574969813
 21
214.1466903551759
 31
0.0000000000000000
  0
INSERT
  5
ED
100
AcDbEntity
  8
MAIN10
  6
BYBLOCK
 62
0
100
AcDbBlockReference
  2
_OPEN
 10
219.9721296847865
 20
214.1466903551759
 30
0.0000000000000000
 41
1.910672187805176
 42
1.910672187805176
 43
1.910672187805176
 50
180.0000000000000
  0
INSERT
  5
EE
100
AcDbEntity
  8
MAIN10
  6
BYBLOCK
 62
0
100
AcDbBlockReference
  2
_OPEN
 10
235.9721296847865
 20
214.1466903551759
 30
0.0000000000000000
 41
1.910672187805176
 42
1.910672187805176
 43
1.910672187805176
 50
0.0000000000000000
  0
MTEXT
  5
EF
100
AcDbEntity
  8
MAIN10
  6
BYBLOCK
 62
0
100
AcDbMText
 10
227.9721296847865
 20
216.1966903074922
 30
0.0000000000000000
 40
3.099999904632568
 41
0.0000000000000000
 71
     5
 72
     1
  1
\A1;16
 11
1.000000000000000
 21
0.0000000000000000
 31
0.0000000000000000
  7
STANDARD
  0
ENDBLK
  5
F0
100
AcDbEntity
  8
MAIN10
  6
CONTINUOUS
 62
12
100
AcDbBlockEnd
  0
BLOCK
  5
F2
100
AcDbEntity
  8
MAIN10
  6
CONTINUOUS
 62
12
100
AcDbBlockBegin
  2
*D3
 70
    65
 10
0.0
 20
0.0
 30
0.0
  0
LINE
  5
F3
100
AcDbEntity
  8
MAIN10
  6
BYBLOCK
 62
0
100
AcDbLine
 10
312.4721296847865
 20
279.0592584280151
 30
0.0000000000000000
 11
339.3021232461879
 21
279.0592584280151
 31
0.0000000000000000
  0
LINE
  5
F4
100
AcDbEntity
  8
MAIN10
  6
BYBLOCK
 62
0
100
AcDbLine
 10
337.3021232461879
 20
280.9699306158203
 30
0.0000000000000000
 11
337.3021232461879
 21
351.1485862402101
 31
0.0000000000000000
  0
INSERT
  5
F5
100
AcDbEntity
  8
MAIN10
  6
BYBLOCK
 62
0
100
AcDbBlockReference
  2
_OPEN
 10
337.3021232461879
 20
279.0592584280151
 30
0.0000000000000000
 41
1.910672187805176
 42
1.910672187805176
 43
1.910672187805176
 50
270.0000000000000
  0
INSERT
  5
F6
100
AcDbEntity
  8
MAIN10
  6
BYBLOCK
 62
0
100
AcDbBlockReference
  2
_OPEN
 10
337.3021232461879
 20
353.0592584280153
 30
0.0000000000000000
 41
1.910672187805176
 42
1.910672187805176
 43
1.910672187805176
 50
90.00000000000000
  0
LINE
  5
F7
100
AcDbEntity
  8
MAIN10
  6
BYBLOCK
 62
0
100
AcDbLine
 10
313.2721296967074
 20
353.0592584280153
 30
0.0000000000000000
 11
339.3021232461879
 21
353.0592584280153
 31
0.0000000000000000
  0
MTEXT
  5
F8
100
AcDbEntity
  8
MAIN10
  6
BYBLOCK
 62
0
100
AcDbMText
 10
335.2521232938717
 20
316.0592584280152
 30
0.0000000000000000
 40
3.099999904632568
 41
0.0000000000000000
 71
     5
 72
     1
  1
\A1;74
 11
6.123233995736766e-017
 21
1.000000000000000
 31
0.0000000000000000
  7
STANDARD
  0
ENDBLK
  5
F9
100
AcDbEntity
  8
MAIN10
  6
CONTINUOUS
 62
12
100
AcDbBlockEnd
  0
BLOCK
  5
FB
100
AcDbEntity
  8
MAIN10
  6
CONTINUOUS
 62
12
100
AcDbBlockBegin
  2
*D4
 70
    65
 10
0.0
 20
0.0
 30
0.0
  0
LINE
  5
FC
100
AcDbEntity
  8
MAIN10
  6
BYBLOCK
 62
0
100
AcDbLine
 10
126.2241783344203
 20
248.2592584280154
 30
0.0000000000000000
 11
82.48385094038540
 21
248.2592584280154
 31
0.0000000000000000
  0
LINE
  5
FD
100
AcDbEntity
  8
MAIN10
  6
BYBLOCK
 62
0
100
AcDbLine
 10
84.48385094038540
 20
250.1699306158206
 30
0.0000000000000000
 11
84.48385094038540
 21
278.1485862402102
 31
0.0000000000000000
  0
INSERT
  5
FE
100
AcDbEntity
  8
MAIN10
  6
BYBLOCK
 62
0
100
AcDbBlockReference
  2
_OPEN
 10
84.48385094038540
 20
248.2592584280154
 30
0.0000000000000000
 41
1.910672187805176
 42
1.910672187805176
 43
1.910672187805176
 50
270.0000000000000
  0
INSERT
  5
FF
100
AcDbEntity
  8
MAIN10
  6
BYBLOCK
 62
0
100
AcDbBlockReference
  2
_OPEN
 10
84.48385094038540
 20
280.0592584280154
 30
0.0000000000000000
 41
1.910672187805176
 42
1.910672187805176
 43
1.910672187805176
 50
90.00000000000000
  0
LINE
  5
100
100
AcDbEntity
  8
MAIN10
  6
BYBLOCK
 62
0
100
AcDbLine
 10
126.2241783344203
 20
280.0592584280154
 30
0.0000000000000000
 11
82.48385094038540
 21
280.0592584280154
 31
0.0000000000000000
  0
MTEXT
  5
101
100
AcDbEntity
  8
MAIN10
  6
BYBLOCK
 62
0
100
AcDbMText
 10
82.43385098806911
 20
264.1592584280154
 30
0.0000000000000000
 40
3.099999904632568
 41
0.0000000000000000
 71
     5
 72
     1
  1
\A1;\U+220531.8
 11
6.123233995736766e-017
 21
1.000000000000000
 31
0.0000000000000000
  7
STANDARD
  0
ENDBLK
  5
102
100
AcDbEntity
  8
MAIN10
  6
CONTINUOUS
 62
12
100
AcDbBlockEnd
  0
BLOCK
  5
104
100
AcDbEntity
  8
MAIN10
  6
CONTINUOUS
 62
12
100
AcDbBlockBegin
  2
*D5
 70
    65
 10
0.0
 20
0.0
 30
0.0
  0
LINE
  5
105
100
AcDbEntity
  8
MAIN10
  6
BYBLOCK
 62
0
100
AcDbLine
 10
235.3721296847864
 20
187.4842584280153
 30
0.0000000000000000
 11
255.5973928300638
 21
187.4842584280153
 31
0.0000000000000000
  0
LINE
  5
106
100
AcDbEntity
  8
MAIN10
  6
BYBLOCK
 62
0
100
AcDbLine
 10
253.5973928300638
 20
189.3949306158205
 30
0.0000000000000000
 11
253.5973928300638
 21
205.5735862402103
 31
0.0000000000000000
  0
INSERT
  5
107
100
AcDbEntity
  8
MAIN10
  6
BYBLOCK
 62
0
100
AcDbBlockReference
  2
_OPEN
 10
253.5973928300638
 20
187.4842584280153
 30
0.0000000000000000
 41
1.910672187805176
 42
1.910672187805176
 43
1.910672187805176
 50
270.0000000000000
  0
INSERT
  5
108
100
AcDbEntity
  8
MAIN10
  6
BYBLOCK
 62
0
100
AcDbBlockReference
  2
_OPEN
 10
253.5973928300638
 20
207.4842584280154
 30
0.0000000000000000
 41
1.910672187805176
 42
1.910672187805176
 43
1.910672187805176
 50
90.00000000000000
  0
LINE
  5
109
100
AcDbEntity
  8
MAIN10
  6
BYBLOCK
 62
0
100
AcDbLine
 10
235.3721296847865
 20
207.4842584280154
 30
0.0000000000000000
 11
255.5973928300638
 21
207.4842584280154
 31
0.0000000000000000
  0
MTEXT
  5
10A
100
AcDbEntity
  8
MAIN10
  6
BYBLOCK
 62
0
100
AcDbMText
 10
251.5473928777475
 20
197.4842584280154
 30
0.0000000000000000
 40
3.099999904632568
 41
0.0000000000000000
 71
     5
 72
     1
  1
\A1;\U+220520
 11
6.123233995736766e-017
 21
1.000000000000000
 31
0.0000000000000000
  7
STANDARD
  0
ENDBLK
  5
10B
100
AcDbEntity
  8
MAIN10
  6
CONTINUOUS
 62
12
100
AcDbBlockEnd
  0
BLOCK
  5
10D
100
AcDbEntity
  8
MAIN10
  6
CONTINUOUS
 62
12
100
AcDbBlockBegin
  2
*D6
 70
    65
 10
0.0
 20
0.0
 30
0.0
  0
LINE
  5
10E
100
AcDbEntity
  8
MAIN10
  6
BYBLOCK
 62
0
100
AcDbLine
 10
148.1721296728654
 20
164.1592584280153
 30
0.0000000000000000
 11
46.69461344587597
 21
164.1592584280153
 31
0.0000000000000000
  0
LINE
  5
10F
100
AcDbEntity
  8
MAIN10
  6
BYBLOCK
 62
0
100
AcDbLine
 10
48.69461344587597
 20
166.0699306158205
 30
0.0000000000000000
 11
48.69461344587597
 21
362.2485862402101
 31
0.0000000000000000
  0
INSERT
  5
110
100
AcDbEntity
  8
MAIN10
  6
BYBLOCK
 62
0
100
AcDbBlockReference
  2
_OPEN
 10
48.69461344587597
 20
164.1592584280153
 30
0.0000000000000000
 41
1.910672187805176
 42
1.910672187805176
 43
1.910672187805176
 50
270.0000000000000
  0
INSERT
  5
111
100
AcDbEntity
  8
MAIN10
  6
BYBLOCK
 62
0
100
AcDbBlockReference
  2
_OPEN
 10
48.69461344587597
 20
364.1592584280152
 30
0.0000000000000000
 41
1.910672187805176
 42
1.910672187805176
 43
1.910672187805176
 50
90.00000000000000
  0
LINE
  5
112
100
AcDbEntity
  8
MAIN10
  6
BYBLOCK
 62
0
100
AcDbLine
 10
148.1721296728654
 20
364.1592584280152
 30
0.0000000000000000
 11
46.69461344587595
 21
364.1592584280152
 31
0.0000000000000000
  0
MTEXT
  5
113
100
AcDbEntity
  8
MAIN10
  6
BYBLOCK
 62
0
100
AcDbMText
 10
46.64461349355969
 20
264.1592584280153
 30
0.0000000000000000
 40
3.099999904632568
 41
0.0000000000000000
 71
     5
 72
     1
  1
\A1;\U+2205200
 11
6.123233995736766e-017
 21
1.000000000000000
 31
0.0000000000000000
  7
STANDARD
  0
ENDBLK
  5
114
100
AcDbEntity
  8
MAIN10
  6
CONTINUOUS
 62
12
100
AcDbBlockEnd
  0
BLOCK
  5
116
100
AcDbEntity
  8
MAIN10
  6
CONTINUOUS
 62
12
100
AcDbBlockBegin
  2
*D7
 70
    65
 10
0.0
 20
0.0
 30
0.0
  0
LINE
  5
117
100
AcDbEntity
  8
MAIN10
  6
BYBLOCK
 62
0
100
AcDbLine
 10
195.9062707033254
 20
192.6449306158205
 30
0.0000000000000000
 11
195.9062707033254
 21
202.3235862402102
 31
0.0000000000000000
  0
INSERT
  5
118
100
AcDbEntity
  8
MAIN10
  6
BYBLOCK
 62
0
100
AcDbBlockReference
  2
_OPEN
 10
195.9062707033254
 20
190.7342584280154
 30
0.0000000000000000
 41
1.910672187805176
 42
1.910672187805176
 43
1.910672187805176
 50
270.0000000000000
  0
INSERT
  5
119
100
AcDbEntity
  8
MAIN10
  6
BYBLOCK
 62
0
100
AcDbBlockReference
  2
_OPEN
 10
195.9062707033254
 20
204.2342584280154
 30
0.0000000000000000
 41
1.910672187805176
 42
1.910672187805176
 43
1.910672187805176
 50
90.00000000000000
  0
LINE
  5
11A
100
AcDbEntity
  8
MAIN10
  6
BYBLOCK
 62
0
100
AcDbLine
 10
195.9062707033254
 20
204.2342584280154
 30
0.0000000000000000
 11
195.9062707033254
 21
215.7407786993167
 31
0.0000000000000000
  0
MTEXT
  5
11B
100
AcDbEntity
  8
MAIN10
  6
BYBLOCK
 62
0
100
AcDbMText
 10
193.8562707510091
 20
210.7407791664274
 30
0.0000000000000000
 40
3.099999904632568
 41
0.0000000000000000
 71
     5
 72
     1
  1
\A1;\U+220513.5
 11
6.123233995736766e-017
 21
1.000000000000000
 31
0.0000000000000000
  7
STANDARD
  0
ENDBLK
  5
11C
100
AcDbEntity
  8
MAIN10
  6
CONTINUOUS
 62
12
100
AcDbBlockEnd
  0
BLOCK
  5
11E
100
AcDbEntity
  8
MAIN10
  6
CONTINUOUS
 62
12
100
AcDbBlockBegin
  2
*D8
 70
    65
 10
0.0
 20
0.0
 30
0.0
  0
LINE
  5
11F
100
AcDbEntity
  8
MAIN10
  6
BYBLOCK
 62
0
100
AcDbLine
 10
414.4475040864900
 20
352.0592584280152
 30
0.0000000000000000
 11
414.4475040864900
 21
390.5563583026593
 31
0.0000000000000000
  0
LINE
  5
120
100
AcDbEntity
  8
MAIN10
  6
BYBLOCK
 62
0
100
AcDbLine
 10
416.3581762742952
 20
388.5563583026593
 30
0.0000000000000000
 11
469.5368318986848
 21
388.5563583026593
 31
0.0000000000000000
  0
INSERT
  5
121
100
AcDbEntity
  8
MAIN10
  6
BYBLOCK
 62
0
100
AcDbBlockReference
  2
_OPEN
 10
414.4475040864900
 20
388.5563583026593
 30
0.0000000000000000
 41
1.910672187805176
 42
1.910672187805176
 43
1.910672187805176
 50
180.0000000000000
  0
INSERT
  5
122
100
AcDbEntity
  8
MAIN10
  6
BYBLOCK
 62
0
100
AcDbBlockReference
  2
_OPEN
 10
471.4475040864900
 20
388.5563583026593
 30
0.0000000000000000
 41
1.910672187805176
 42
1.910672187805176
 43
1.910672187805176
 50
0.0000000000000000
  0
LINE
  5
123
100
AcDbEntity
  8
MAIN10
  6
BYBLOCK
 62
0
100
AcDbLine
 10
471.4475040864900
 20
352.0592584280153
 30
0.0000000000000000
 11
471.4475040864900
 21
390.5563583026593
 31
0.0000000000000000
  0
MTEXT
  5
124
100
AcDbEntity
  8
MAIN10
  6
BYBLOCK
 62
0
100
AcDbMText
 10
442.9475040864900
 20
390.6063582549756
 30
0.0000000000000000
 40
3.099999904632568
 41
0.0000000000000000
 71
     5
 72
     1
  1
\A1;57
 11
1.000000000000000
 21
0.0000000000000000
 31
0.0000000000000000
  7
STANDARD
  0
ENDBLK
  5
125
100
AcDbEntity
  8
MAIN10
  6
CONTINUOUS
 62
12
100
AcDbBlockEnd
  0
BLOCK
  5
127
100
AcDbEntity
  8
MAIN10
  6
CONTINUOUS
 62
12
100
AcDbBlockBegin
  2
*D9
 70
    65
 10
0.0
 20
0.0
 30
0.0
  0
LINE
  5
128
100
AcDbEntity
  8
MAIN10
  6
BYBLOCK
 62
0
100
AcDbLine
 10
259.3021296847865
 20
351.7592584280152
 30
0.0000000000000000
 11
259.3021296847864
 21
379.7710485631672
 31
0.0000000000000000
  0
LINE
  5
129
100
AcDbEntity
  8
MAIN10
  6
BYBLOCK
 62
0
100
AcDbLine
 10
261.2128018725916
 20
377.7710485631672
 30
0.0000000000000000
 11
286.7914574969812
 21
377.7710485631672
 31
0.0000000000000000
  0
INSERT
  5
12A
100
AcDbEntity
  8
MAIN10
  6
BYBLOCK
 62
0
100
AcDbBlockReference
  2
_OPEN
 10
259.3021296847864
 20
377.7710485631672
 30
0.0000000000000000
 41
1.910672187805176
 42
1.910672187805176
 43
1.910672187805176
 50
180.0000000000000
  0
INSERT
  5
12B
100
AcDbEntity
  8
MAIN10
  6
BYBLOCK
 62
0
100
AcDbBlockReference
  2
_OPEN
 10
288.7021296847864
 20
377.7710485631672
 30
0.0000000000000000
 41
1.910672187805176
 42
1.910672187805176
 43
1.910672187805176
 50
0.0000000000000000
  0
LINE
  5
12C
100
AcDbEntity
  8
MAIN10
  6
BYBLOCK
 62
0
100
AcDbLine
 10
288.7021296847863
 20
324.3092584280150
 30
0.0000000000000000
 11
288.7021296847864
 21
379.7710485631672
 31
0.0000000000000000
  0
MTEXT
  5
12D
100
AcDbEntity
  8
MAIN10
  6
BYBLOCK
 62
0
100
AcDbMText
 10
274.0021296847864
 20
379.8210485154835
 30
0.0000000000000000
 40
3.099999904632568
 41
0.0000000000000000
 71
     5
 72
     1
  1
\A1;29.4
 11
1.000000000000000
 21
0.0000000000000000
 31
0.0000000000000000
  7
STANDARD
  0
ENDBLK
  5
12E
100
AcDbEntity
  8
MAIN10
  6
CONTINUOUS
 62
12
100
AcDbBlockEnd
  0
BLOCK
  5
130
100
AcDbEntity
  8
MAIN10
  6
CONTINUOUS
 62
12
100
AcDbBlockBegin
  2
*D10
 70
    65
 10
0.0
 20
0.0
 30
0.0
  0
LINE
  5
131
100
AcDbEntity
  8
MAIN10
  6
BYBLOCK
 62
0
100
AcDbLine
 10
138.6721296728654
 20
289.1592584280151
 30
0.0000000000000000
 11
70.44156389967057
 21
289.1592584280151
 31
0.0000000000000000
  0
LINE
  5
132
100
AcDbEntity
  8
MAIN10
  6
BYBLOCK
 62
0
100
AcDbLine
 10
72.44156389967057
 20
287.2485862402099
 30
0.0000000000000000
 11
72.44156389967057
 21
241.0699306158207
 31
0.0000000000000000
  0
INSERT
  5
133
100
AcDbEntity
  8
MAIN10
  6
BYBLOCK
 62
0
100
AcDbBlockReference
  2
_OPEN
 10
72.44156389967057
 20
289.1592584280151
 30
0.0000000000000000
 41
1.910672187805176
 42
1.910672187805176
 43
1.910672187805176
 50
90.00000000000000
  0
INSERT
  5
134
100
AcDbEntity
  8
MAIN10
  6
BYBLOCK
 62
0
100
AcDbBlockReference
  2
_OPEN
 10
72.44156389967057
 20
239.1592584280155
 30
0.0000000000000000
 41
1.910672187805176
 42
1.910672187805176
 43
1.910672187805176
 50
270.0000000000000
  0
LINE
  5
135
100
AcDbEntity
  8
MAIN10
  6
BYBLOCK
 62
0
100
AcDbLine
 10
138.6721296728654
 20
239.1592584280155
 30
0.0000000000000000
 11
70.44156389967057
 21
239.1592584280155
 31
0.0000000000000000
  0
MTEXT
  5
136
100
AcDbEntity
  8
MAIN10
  6
BYBLOCK
 62
0
100
AcDbMText
 10
70.39156394735429
 20
264.1592584280153
 30
0.0000000000000000
 40
3.099999904632568
 41
0.0000000000000000
 71
     5
 72
     1
  1
\A1;\U+220550
 11
6.123233995736766e-017
 21
1.000000000000000
 31
0.0000000000000000
  7
STANDARD
  0
ENDBLK
  5
137
100
AcDbEntity
  8
MAIN10
  6
CONTINUOUS
 62
12
100
AcDbBlockEnd
  0
BLOCK
  5
139
100
AcDbEntity
  8
MAIN10
  6
CONTINUOUS
 62
12
100
AcDbBlockBegin
  2
*D11
 70
    65
 10
0.0
 20
0.0
 30
0.0
  0
LINE
  5
13A
100
AcDbEntity
  8
MAIN10
  6
BYBLOCK
 62
0
100
AcDbLine
 10
125.0241783463413
 20
249.4139589663940
 30
0.0000000000000000
 11
125.0241783463413
 21
136.6375357339368
 31
0.0000000000000000
  0
LINE
  5
13B
100
AcDbEntity
  8
MAIN10
  6
BYBLOCK
 62
0
100
AcDbLine
 10
126.9348505341465
 20
138.6375357339368
 30
0.0000000000000000
 11
146.0614574969812
 21
138.6375357339368
 31
0.0000000000000000
  0
INSERT
  5
13C
100
AcDbEntity
  8
MAIN10
  6
BYBLOCK
 62
0
100
AcDbBlockReference
  2
_OPEN
 10
125.0241783463413
 20
138.6375357339368
 30
0.0000000000000000
 41
1.910672187805176
 42
1.910672187805176
 43
1.910672187805176
 50
180.0000000000000
  0
INSERT
  5
13D
100
AcDbEntity
  8
MAIN10
  6
BYBLOCK
 62
0
100
AcDbBlockReference
  2
_OPEN
 10
147.9721296847864
 20
138.6375357339368
 30
0.0000000000000000
 41
1.910672187805176
 42
1.910672187805176
 43
1.910672187805176
 50
0.0000000000000000
  0
LINE
  5
13E
100
AcDbEntity
  8
MAIN10
  6
BYBLOCK
 62
0
100
AcDbLine
 10
147.9721296847864
 20
165.1592584280153
 30
0.0000000000000000
 11
147.9721296847864
 21
136.6375357339368
 31
0.0000000000000000
  0
MTEXT
  5
13F
100
AcDbEntity
  8
MAIN10
  6
BYBLOCK
 62
0
100
AcDbMText
 10
136.4981540155638
 20
140.6875356862531
 30
0.0000000000000000
 40
3.099999904632568
 41
0.0000000000000000
 71
     5
 72
     1
  1
\A1;MAX 29.3
 11
1.000000000000000
 21
0.0000000000000000
 31
0.0000000000000000
  7
STANDARD
  0
ENDBLK
  5
140
100
AcDbEntity
  8
MAIN10
  6
CONTINUOUS
 62
12
100
AcDbBlockEnd
  0
BLOCK
  5
142
100
AcDbEntity
  8
MAIN10
  6
CONTINUOUS
 62
12
100
AcDbBlockBegin
  2
*D12
 70
    65
 10
0.0
 20
0.0
 30
0.0
  0
LINE
  5
143
100
AcDbEntity
  8
MAIN10
  6
BYBLOCK
 62
0
100
AcDbLine
 10
147.9721296847864
 20
165.1592584280153
 30
0.0000000000000000
 11
147.9721296847864
 21
136.6375357339368
 31
0.0000000000000000
  0
LINE
  5
144
100
AcDbEntity
  8
MAIN10
  6
BYBLOCK
 62
0
100
AcDbLine
 10
149.8828018725915
 20
138.6375357339368
 30
0.0000000000000000
 11
234.0614574969813
 21
138.6375357339368
 31
0.0000000000000000
  0
INSERT
  5
145
100
AcDbEntity
  8
MAIN10
  6
BYBLOCK
 62
0
100
AcDbBlockReference
  2
_OPEN
 10
147.9721296847864
 20
138.6375357339368
 30
0.0000000000000000
 41
1.910672187805176
 42
1.910672187805176
 43
1.910672187805176
 50
180.0000000000000
  0
INSERT
  5
146
100
AcDbEntity
  8
MAIN10
  6
BYBLOCK
 62
0
100
AcDbBlockReference
  2
_OPEN
 10
235.9721296847865
 20
138.6375357339368
 30
0.0000000000000000
 41
1.910672187805176
 42
1.910672187805176
 43
1.910672187805176
 50
0.0000000000000000
  0
LINE
  5
147
100
AcDbEntity
  8
MAIN10
  6
BYBLOCK
 62
0
100
AcDbLine
 10
235.9721296847865
 20
166.1592584280153
 30
0.0000000000000000
 11
235.9721296847865
 21
136.6375357339368
 31
0.0000000000000000
  0
MTEXT
  5
148
100
AcDbEntity
  8
MAIN10
  6
BYBLOCK
 62
0
100
AcDbMText
 10
191.9721296847864
 20
140.6875356862531
 30
0.0000000000000000
 40
3.099999904632568
 41
0.0000000000000000
 71
     5
 72
     1
  1
\A1;88
 11
1.000000000000000
 21
0.0000000000000000
 31
0.0000000000000000
  7
STANDARD
  0
ENDBLK
  5
149
100
AcDbEntity
  8
MAIN10
  6
CONTINUOUS
 62
12
100
AcDbBlockEnd
  0
BLOCK
  5
14B
100
AcDbEntity
  8
MAIN10
  6
CONTINUOUS
 62
12
100
AcDbBlockBegin
  2
*D13
 70
    65
 10
0.0
 20
0.0
 30
0.0
  0
LINE
  5
14C
100
AcDbEntity
  8
MAIN10
  6
BYBLOCK
 62
0
100
AcDbLine
 10
138.4721296847864
 20
288.9592584399360
 30
0.0000000000000000
 11
138.4721296847864
 21
306.4893802397851
 31
0.0000000000000000
  0
LINE
  5
14D
100
AcDbEntity
  8
MAIN10
  6
BYBLOCK
 62
0
100
AcDbLine
 10
140.3828018725915
 20
304.4893802397851
 30
0.0000000000000000
 11
151.0614574969812
 21
304.4893802397851
 31
0.0000000000000000
  0
INSERT
  5
14E
100
AcDbEntity
  8
MAIN10
  6
BYBLOCK
 62
0
100
AcDbBlockReference
  2
_OPEN
 10
138.4721296847864
 20
304.4893802397851
 30
0.0000000000000000
 41
1.910672187805176
 42
1.910672187805176
 43
1.910672187805176
 50
180.0000000000000
  0
INSERT
  5
14F
100
AcDbEntity
  8
MAIN10
  6
BYBLOCK
 62
0
100
AcDbBlockReference
  2
_OPEN
 10
152.9721296847864
 20
304.4893802397851
 30
0.0000000000000000
 41
1.910672187805176
 42
1.910672187805176
 43
1.910672187805176
 50
0.0000000000000000
  0
MTEXT
  5
150
100
AcDbEntity
  8
MAIN10
  6
BYBLOCK
 62
0
100
AcDbMText
 10
142.9080026726105
 20
306.5393801921014
 30
0.0000000000000000
 40
3.099999904632568
 41
0.0000000000000000
 71
     5
 72
     1
  1
\A1;14.5
 11
1.000000000000000
 21
0.0000000000000000
 31
0.0000000000000000
  7
STANDARD
  0
ENDBLK
  5
151
100
AcDbEntity
  8
MAIN10
  6
CONTINUOUS
 62
12
100
AcDbBlockEnd
  0
BLOCK
  5
153
100
AcDbEntity
  8
MAIN10
  6
CONTINUOUS
 62
12
100
AcDbBlockBegin
  2
*D14
 70
    65
 10
0.0
 20
0.0
 30
0.0
  0
LINE
  5
154
100
AcDbEntity
  8
MAIN10
  6
BYBLOCK
 62
0
100
AcDbLine
 10
134.9721296847865
 20
203.4842584280152
 30
0.0000000000000000
 11
134.9721296847865
 21
216.1466903551759
 31
0.0000000000000000
  0
LINE
  5
155
100
AcDbEntity
  8
MAIN10
  6
BYBLOCK
 62
0
100
AcDbLine
 10
136.8828018725916
 20
214.1466903551759
 30
0.0000000000000000
 11
151.0614574969812
 21
214.1466903551759
 31
0.0000000000000000
  0
INSERT
  5
156
100
AcDbEntity
  8
MAIN10
  6
BYBLOCK
 62
0
100
AcDbBlockReference
  2
_OPEN
 10
134.9721296847865
 20
214.1466903551759
 30
0.0000000000000000
 41
1.910672187805176
 42
1.910672187805176
 43
1.910672187805176
 50
180.0000000000000
  0
INSERT
  5
157
100
AcDbEntity
  8
MAIN10
  6
BYBLOCK
 62
0
100
AcDbBlockReference
  2
_OPEN
 10
152.9721296847864
 20
214.1466903551759
 30
0.0000000000000000
 41
1.910672187805176
 42
1.910672187805176
 43
1.910672187805176
 50
0.0000000000000000
  0
MTEXT
  5
158
100
AcDbEntity
  8
MAIN10
  6
BYBLOCK
 62
0
100
AcDbMText
 10
143.9721296847864
 20
216.1966903074922
 30
0.0000000000000000
 40
3.099999904632568
 41
0.0000000000000000
 71
     5
 72
     1
  1
\A1;18
 11
1.000000000000000
 21
0.0000000000000000
 31
0.0000000000000000
  7
STANDARD
  0
ENDBLK
  5
159
100
AcDbEntity
  8
MAIN10
  6
CONTINUOUS
 62
12
100
AcDbBlockEnd
  0
BLOCK
  5
15B
100
AcDbEntity
  8
MAIN10
  6
CONTINUOUS
 62
12
100
AcDbBlockBegin
  2
*D15
 70
    65
 10
0.0
 20
0.0
 30
0.0
  0
LINE
  5
15C
100
AcDbEntity
  8
MAIN10
  6
BYBLOCK
 62
0
100
AcDbLine
 10
95.80417834634127
 20
256.6548159769755
 30
0.0000000000000000
 11
95.80417834634127
 21
226.4412382409938
 31
0.0000000000000000
  0
LINE
  5
15D
100
AcDbEntity
  8
MAIN10
  6
BYBLOCK
 62
0
100
AcDbLine
 10
97.71485053414645
 20
228.4412382409938
 30
0.0000000000000000
 11
123.1135061585361
 21
228.4412382409938
 31
0.0000000000000000
  0
INSERT
  5
15E
100
AcDbEntity
  8
MAIN10
  6
BYBLOCK
 62
0
100
AcDbBlockReference
  2
_OPEN
 10
95.80417834634127
 20
228.4412382409938
 30
0.0000000000000000
 41
1.910672187805176
 42
1.910672187805176
 43
1.910672187805176
 50
180.0000000000000
  0
INSERT
  5
15F
100
AcDbEntity
  8
MAIN10
  6
BYBLOCK
 62
0
100
AcDbBlockReference
  2
_OPEN
 10
125.0241783463413
 20
228.4412382409938
 30
0.0000000000000000
 41
1.910672187805176
 42
1.910672187805176
 43
1.910672187805176
 50
0.0000000000000000
  0
LINE
  5
160
100
AcDbEntity
  8
MAIN10
  6
BYBLOCK
 62
0
100
AcDbLine
 10
125.0241783463413
 20
249.4139589663940
 30
0.0000000000000000
 11
125.0241783463413
 21
226.4412382409938
 31
0.0000000000000000
  0
MTEXT
  5
161
100
AcDbEntity
  8
MAIN10
  6
BYBLOCK
 62
0
100
AcDbMText
 10
110.4141783463413
 20
230.4912381933101
 30
0.0000000000000000
 40
3.099999904632568
 41
0.0000000000000000
 71
     5
 72
     1
  1
\A1;29.2
 11
1.000000000000000
 21
0.0000000000000000
 31
0.0000000000000000
  7
STANDARD
  0
ENDBLK
  5
162
100
AcDbEntity
  8
MAIN10
  6
CONTINUOUS
 62
12
100
AcDbBlockEnd
  0
BLOCK
  5
170
100
AcDbEntity
  8
MAIN0
  6
CONTINUOUS
 62
3
100
AcDbBlockBegin
  2
*D16
 70
    65
 10
0.0
 20
0.0
 30
0.0
  0
LINE
  5
171
100
AcDbEntity
  8
MAIN0
  6
BYBLOCK
 62
0
100
AcDbLine
 10
442.9475040864880
 20
155.0563893808966
 30
0.0000000000000000
 11
442.9475040864718
 21
148.5474682928638
 31
0.0000000000000000
  0
LINE
  5
172
100
AcDbEntity
  8
MAIN0
  6
BYBLOCK
 62
0
100
AcDbLine
 10
514.7391622453838
 20
222.7103252644073
 30
0.0000000000000000
 11
543.0702513205188
 21
206.3533633604268
 31
0.0000000000000000
  0
ARC
  5
173
100
AcDbEntity
  8
MAIN0
  6
BYBLOCK
 62
0
100
AcDbCircle
 10
442.9475040864900
 20
264.1592584280146
 30
0.0000000000000000
 40
113.6117901351509
100
AcDbArc
 50
271.0086238311102
 51
328.9913761688763
  0
INSERT
  5
174
100
AcDbEntity
  8
MAIN0
  6
BYBLOCK
 62
0
100
AcDbBlockReference
  2
_OPEN
 10
442.9475040864767
 20
150.5474682928638
 30
0.0000000000000000
 41
2.000000000000000
 42
2.000000000000000
 43
2.000000000000000
 50
179.9999999999934
  0
INSERT
  5
175
100
AcDbEntity
  8
MAIN0
  6
BYBLOCK
 62
0
100
AcDbBlockReference
  2
_OPEN
 10
541.3382005129502
 20
207.3533633604276
 30
0.0000000000000000
 41
2.000000000000000
 42
2.000000000000000
 43
2.000000000000000
 50
59.99999999999324
  0
MTEXT
  5
176
100
AcDbEntity
  8
MAIN0
  6
BYBLOCK
 62
0
100
AcDbMText
 10
498.7283991778960
 20
167.5439140380039
 30
0.0000000000000000
 40
3.099999904632568
 41
0.0000000000000000
 71
     5
 72
     1
  1
\A1;60\U+00B0
 11
0.8660254037844971
 21
0.4999999999998987
 31
0.0000000000000000
  7
STANDARD
  0
ENDBLK
  5
177
100
AcDbEntity
  8
MAIN0
  6
CONTINUOUS
 62
3
100
AcDbBlockEnd
  0
BLOCK
  5
179
100
AcDbEntity
  8
MAIN0
  6
CONTINUOUS
 62
3
100
AcDbBlockBegin
  2
*D17
 70
    65
 10
0.0
 20
0.0
 30
0.0
  0
LINE
  5
17A
100
AcDbEntity
  8
MAIN0
  6
BYBLOCK
 62
0
100
AcDbLine
 10
514.7391622453838
 20
222.7103252644073
 30
0.0000000000000000
 11
543.0702513205188
 21
206.3533633604268
 31
0.0000000000000000
  0
ARC
  5
17B
100
AcDbEntity
  8
MAIN0
  6
BYBLOCK
 62
0
100
AcDbCircle
 10
442.9475040864888
 20
264.1592584280153
 30
0.0000000000000000
 40
113.6117901351522
100
AcDbArc
 50
331.0086238311102
 51
358.9913761688765
  0
INSERT
  5
17C
100
AcDbEntity
  8
MAIN0
  6
BYBLOCK
 62
0
100
AcDbBlockReference
  2
_OPEN
 10
541.3382005129503
 20
207.3533633604277
 30
0.0000000000000000
 41
2.000000000000000
 42
2.000000000000000
 43
2.000000000000000
 50
239.9999999999933
  0
INSERT
  5
17D
100
AcDbEntity
  8
MAIN0
  6
BYBLOCK
 62
0
100
AcDbBlockReference
  2
_OPEN
 10
556.5592942216410
 20
264.1592584280020
 30
0.0000000000000000
 41
2.000000000000000
 42
2.000000000000000
 43
2.000000000000000
 50
89.99999999999335
  0
MTEXT
  5
17E
100
AcDbEntity
  8
MAIN0
  6
BYBLOCK
 62
0
100
AcDbMText
 10
550.7079184511290
 20
235.2849424229533
 30
0.0000000000000000
 40
3.099999904632568
 41
0.0000000000000000
 71
     5
 72
     1
  1
\A1;30\U+00B0
 11
0.2588190451026338
 21
0.9659258262890380
 31
0.0000000000000000
  7
STANDARD
  0
ENDBLK
  5
17F
100
AcDbEntity
  8
MAIN0
  6
CONTINUOUS
 62
3
100
AcDbBlockEnd
  0
BLOCK
  5
181
100
AcDbEntity
  8
MAIN0
  6
CONTINUOUS
 62
3
100
AcDbBlockBegin
  2
*D18
 70
    65
 10
0.0
 20
0.0
 30
0.0
  0
LINE
  5
182
100
AcDbEntity
  8
MAIN0
  6
BYBLOCK
 62
0
100
AcDbLine
 10
523.0771130709939
 20
285.6299224452347
 30
0.0000000000000000
 11
554.6199180015442
 21
294.0817915533881
 31
0.0000000000000000
  0
ARC
  5
183
100
AcDbEntity
  8
MAIN0
  6
BYBLOCK
 62
0
100
AcDbCircle
 10
442.9475040864900
 20
264.1592584280153
 30
0.0000000000000000
 40
113.6117901351511
100
AcDbArc
 50
1.008623831116894
 51
13.99137616888312
  0
INSERT
  5
184
100
AcDbEntity
  8
MAIN0
  6
BYBLOCK
 62
0
100
AcDbBlockReference
  2
_OPEN
 10
556.5592942216410
 20
264.1592584280153
 30
0.0000000000000000
 41
2.000000000000000
 42
2.000000000000000
 43
2.000000000000000
 50
270.0000000000000
  0
INSERT
  5
185
100
AcDbEntity
  8
MAIN0
  6
BYBLOCK
 62
0
100
AcDbBlockReference
  2
_OPEN
 10
552.6880663489660
 20
293.5641534631831
 30
0.0000000000000000
 41
2.000000000000000
 42
2.000000000000000
 43
2.000000000000000
 50
105.0000000000000
  0
MTEXT
  5
186
100
AcDbEntity
  8
MAIN0
  6
BYBLOCK
 62
0
100
AcDbMText
 10
553.5548676889248
 20
278.7209940978331
 30
0.0000000000000000
 40
3.099999904632568
 41
0.0000000000000000
 71
     5
 72
     1
  1
\A1;15\U+00B0
 11
-0.1305261922200516
 21
0.9914448613738104
 31
0.0000000000000000
  7
STANDARD
  0
ENDBLK
  5
187
100
AcDbEntity
  8
MAIN0
  6
CONTINUOUS
 62
3
100
AcDbBlockEnd
  0
BLOCK
  5
189
100
AcDbEntity
  8
MAIN0
  6
CONTINUOUS
 62
3
100
AcDbBlockBegin
  2
*D19
 70
    65
 10
0.0
 20
0.0
 30
0.0
  0
LINE
  5
18A
100
AcDbEntity
  8
MAIN0
  6
BYBLOCK
 62
0
100
AcDbLine
 10
523.0771130709939
 20
285.6299224452347
 30
0.0000000000000000
 11
554.6199180015442
 21
294.0817915533881
 31
0.0000000000000000
  0
LINE
  5
18B
100
AcDbEntity
  8
MAIN0
  6
BYBLOCK
 62
0
100
AcDbLine
 10
514.7391622453840
 20
305.6081915916230
 30
0.0000000000000000
 11
543.0702513205256
 21
321.9651534955912
 31
0.0000000000000000
  0
ARC
  5
18C
100
AcDbEntity
  8
MAIN0
  6
BYBLOCK
 62
0
100
AcDbCircle
 10
442.9475040864880
 20
264.1592584280148
 30
0.0000000000000000
 40
113.6117901351528
100
AcDbArc
 50
16.00862383111690
 51
28.99137616888311
  0
INSERT
  5
18D
100
AcDbEntity
  8
MAIN0
  6
BYBLOCK
 62
0
100
AcDbBlockReference
  2
_OPEN
 10
552.6880663489657
 20
293.5641534631831
 30
0.0000000000000000
 41
2.000000000000000
 42
2.000000000000000
 43
2.000000000000000
 50
285.0000000000000
  0
INSERT
  5
18E
100
AcDbEntity
  8
MAIN0
  6
BYBLOCK
 62
0
100
AcDbBlockReference
  2
_OPEN
 10
541.3382005129566
 20
320.9651534955912
 30
0.0000000000000000
 41
2.000000000000000
 42
2.000000000000000
 43
2.000000000000000
 50
120.0000000000000
  0
MTEXT
  5
18F
100
AcDbEntity
  8
MAIN0
  6
BYBLOCK
 62
0
100
AcDbMText
 10
546.0171586467293
 20
306.8521072159766
 30
0.0000000000000000
 40
3.099999904632568
 41
0.0000000000000000
 71
     5
 72
     1
  1
\A1;15\U+00B0
 11
-0.3826834323650897
 21
0.9238795325112867
 31
0.0000000000000000
  7
STANDARD
  0
ENDBLK
  5
190
100
AcDbEntity
  8
MAIN0
  6
CONTINUOUS
 62
3
100
AcDbBlockEnd
  0
BLOCK
  5
192
100
AcDbEntity
  8
MAIN0
  6
CONTINUOUS
 62
3
100
AcDbBlockBegin
  2
*D20
 70
    65
 10
0.0
 20
0.0
 30
0.0
  0
LINE
  5
193
100
AcDbEntity
  8
MAIN0
  6
BYBLOCK
 62
0
100
AcDbLine
 10
514.7391622453840
 20
305.6081915916230
 30
0.0000000000000000
 11
543.0702513205256
 21
321.9651534955912
 31
0.0000000000000000
  0
LINE
  5
194
100
AcDbEntity
  8
MAIN0
  6
BYBLOCK
 62
0
100
AcDbLine
 10
442.9475040864900
 20
369.5036924718212
 30
0.0000000000000000
 11
442.9475040864900
 21
379.7710485631672
 31
0.0000000000000000
  0
ARC
  5
195
100
AcDbEntity
  8
MAIN0
  6
BYBLOCK
 62
0
100
AcDbCircle
 10
442.9475040864901
 20
264.1592584280160
 30
0.0000000000000000
 40
113.6117901351512
100
AcDbArc
 50
31.00862383111692
 51
88.99137616888315
  0
INSERT
  5
196
100
AcDbEntity
  8
MAIN0
  6
BYBLOCK
 62
0
100
AcDbBlockReference
  2
_OPEN
 10
541.3382005129573
 20
320.9651534955916
 30
0.0000000000000000
 41
2.000000000000000
 42
2.000000000000000
 43
2.000000000000000
 50
300.0000000000000
  0
INSERT
  5
197
100
AcDbEntity
  8
MAIN0
  6
BYBLOCK
 62
0
100
AcDbBlockReference
  2
_OPEN
 10
442.9475040864900
 20
377.7710485631672
 30
0.0000000000000000
 41
2.000000000000000
 42
2.000000000000000
 43
2.000000000000000
 50
180.0000000000000
  0
MTEXT
  5
198
100
AcDbEntity
  8
MAIN0
  6
BYBLOCK
 62
0
100
AcDbMText
 10
500.7783991302238
 20
364.3253068909460
 30
0.0000000000000000
 40
3.099999904632568
 41
0.0000000000000000
 71
     5
 72
     1
  1
\A1;60\U+00B0
 11
0.8660254037844388
 21
-0.4999999999999997
 31
0.0000000000000000
  7
STANDARD
  0
ENDBLK
  5
199
100
AcDbEntity
  8
MAIN0
  6
CONTINUOUS
 62
3
100
AcDbBlockEnd
  0
BLOCK
  5
19B
100
AcDbEntity
  8
MAIN0
  6
CONTINUOUS
 62
3
100
AcDbBlockBegin
  2
*D21
 70
    65
 10
0.0
 20
0.0
 30
0.0
  0
LINE
  5
19C
100
AcDbEntity
  8
MAIN0
  6
BYBLOCK
 62
0
100
AcDbLine
 10
442.9475040864900
 20
264.1592584280153
 30
0.0000000000000000
 11
490.4569909455714
 21
308.0421056850787
 31
0.0000000000000000
  0
INSERT
  5
19D
100
AcDbEntity
  8
MAIN0
  6
BYBLOCK
 62
0
100
AcDbBlockReference
  2
_OPEN
 10
491.9261671916969
 20
309.3991322720772
 30
0.0000000000000000
 41
2.000000000000000
 42
2.000000000000000
 43
2.000000000000000
 50
42.72757550695210
  0
LINE
  5
19E
100
AcDbEntity
  8
MAIN0
  6
BYBLOCK
 62
0
100
AcDbLine
 10
491.9261671916969
 20
309.3991322720772
 30
0.0000000000000000
 11
510.5967618374540
 21
326.6445059269959
 31
0.0000000000000000
  0
MTEXT
  5
19F
100
AcDbEntity
  8
MAIN0
  6
BYBLOCK
 62
0
100
AcDbMText
 10
500.3356585311838
 20
319.9573639861811
 30
0.0000000000000000
 40
3.099999904632568
 41
0.0000000000000000
 71
     5
 72
     1
  1
\A1;Ｒ66.675\H0.903226x;\U+00B10.152
 11
0.7345881230627210
 21
0.6785132934992421
 31
0.0000000000000000
  7
KNJYOKO
  0
ENDBLK
  5
1A0
100
AcDbEntity
  8
MAIN0
  6
CONTINUOUS
 62
3
100
AcDbBlockEnd
  0
BLOCK
  5
1A3
100
AcDbEntity
  8
MAIN0
  6
CONTINUOUS
 62
3
100
AcDbBlockBegin
  2
*D22
 70
    65
 10
0.0
 20
0.0
 30
0.0
  0
LINE
  5
1A4
100
AcDbEntity
  8
MAIN0
  6
BYBLOCK
 62
0
100
AcDbLine
 10
442.9475040864900
 20
264.1592584280153
 30
0.0000000000000000
 11
515.1725417361809
 21
274.7679311301365
 31
0.0000000000000000
  0
INSERT
  5
1A5
100
AcDbEntity
  8
MAIN0
  6
BYBLOCK
 62
0
100
AcDbBlockReference
  2
_OPEN
 10
517.1513098909669
 20
275.0585796973179
 30
0.0000000000000000
 41
2.000000000000000
 42
2.000000000000000
 43
2.000000000000000
 50
8.356058179431871
  0
MTEXT
  5
1A6
100
AcDbEntity
  8
MAIN0
  6
BYBLOCK
 62
0
100
AcDbMText
 10
489.0149376557365
 20
272.9988152113363
 30
0.0000000000000000
 40
3.099999904632568
 41
0.0000000000000000
 71
     5
 72
     1
  1
\A1;Ｒ75\H0.903226x;\U+00B10.1
 11
0.9893840773930260
 21
0.1453242835907017
 31
0.0000000000000000
  7
KNJYOKO
  0
ENDBLK
  5
1A7
100
AcDbEntity
  8
MAIN0
  6
CONTINUOUS
 62
3
100
AcDbBlockEnd
  0
BLOCK
  5
1B0
100
AcDbEntity
  8
MAIN0
  6
CONTINUOUS
 62
3
100
AcDbBlockBegin
  2
*D23
 70
    65
 10
0.0
 20
0.0
 30
0.0
  0
LINE
  5
1B1
100
AcDbEntity
  8
MAIN0
  6
BYBLOCK
 62
0
100
AcDbLine
 10
210.9723910407308
 20
175.7943537563388
 30
0.0000000000000000
 11
210.9723910407308
 21
151.7856800923439
 31
0.0000000000000000
  0
LINE
  5
1B2
100
AcDbEntity
  8
MAIN0
  6
BYBLOCK
 62
0
100
AcDbLine
 10
212.9723910407308
 20
153.7856800923439
 30
0.0000000000000000
 11
233.9721296847865
 21
153.7856800923439
 31
0.0000000000000000
  0
INSERT
  5
1B3
100
AcDbEntity
  8
MAIN0
  6
BYBLOCK
 62
0
100
AcDbBlockReference
  2
_OPEN
 10
210.9723910407308
 20
153.7856800923439
 30
0.0000000000000000
 41
2.000000000000000
 42
2.000000000000000
 43
2.000000000000000
 50
180.0000000000000
  0
INSERT
  5
1B4
100
AcDbEntity
  8
MAIN0
  6
BYBLOCK
 62
0
100
AcDbBlockReference
  2
_OPEN
 10
235.9721296847865
 20
153.7856800923439
 30
0.0000000000000000
 41
2.000000000000000
 42
2.000000000000000
 43
2.000000000000000
 50
0.0000000000000000
  0
LINE
  5
1B5
100
AcDbEntity
  8
MAIN0
  6
BYBLOCK
 62
0
100
AcDbLine
 10
235.9721296847865
 20
165.3592584160944
 30
0.0000000000000000
 11
235.9721296847865
 21
151.7856800923439
 31
0.0000000000000000
  0
MTEXT
  5
1B6
100
AcDbEntity
  8
MAIN0
  6
BYBLOCK
 62
0
100
AcDbMText
 10
223.4722603627586
 20
155.8356800446601
 30
0.0000000000000000
 40
3.099999904632568
 41
0.0000000000000000
 71
     5
 72
     1
  1
\A1;25
 11
1.000000000000000
 21
0.0000000000000000
 31
0.0000000000000000
  7
STANDARD
  0
ENDBLK
  5
1B7
100
AcDbEntity
  8
MAIN0
  6
CONTINUOUS
 62
3
100
AcDbBlockEnd
  0
BLOCK
  5
1C1
100
AcDbEntity
  8
MAIN0
  6
CONTINUOUS
 62
3
100
AcDbBlockBegin
  2
*D24
 70
    65
 10
0.0
 20
0.0
 30
0.0
  0
LINE
  5
1C2
100
AcDbEntity
  8
MAIN0
  6
BYBLOCK
 62
0
100
AcDbLine
 10
148.1721296728654
 20
349.1592584280152
 30
0.0000000000000000
 11
58.62434747565834
 21
349.1592584280152
 31
0.0000000000000000
  0
LINE
  5
1C3
100
AcDbEntity
  8
MAIN0
  6
BYBLOCK
 62
0
100
AcDbLine
 10
60.62434747565834
 20
347.1592584280152
 30
0.0000000000000000
 11
60.62434747565834
 21
181.1592584280153
 31
0.0000000000000000
  0
INSERT
  5
1C4
100
AcDbEntity
  8
MAIN0
  6
BYBLOCK
 62
0
100
AcDbBlockReference
  2
_OPEN
 10
60.62434747565834
 20
349.1592584280152
 30
0.0000000000000000
 41
2.000000000000000
 42
2.000000000000000
 43
2.000000000000000
 50
90.00000000000000
  0
INSERT
  5
1C5
100
AcDbEntity
  8
MAIN0
  6
BYBLOCK
 62
0
100
AcDbBlockReference
  2
_OPEN
 10
60.62434747565834
 20
179.1592584280153
 30
0.0000000000000000
 41
2.000000000000000
 42
2.000000000000000
 43
2.000000000000000
 50
270.0000000000000
  0
LINE
  5
1C6
100
AcDbEntity
  8
MAIN0
  6
BYBLOCK
 62
0
100
AcDbLine
 10
148.1721296728654
 20
179.1592584280153
 30
0.0000000000000000
 11
58.62434747565834
 21
179.1592584280153
 31
0.0000000000000000
  0
MTEXT
  5
1C7
100
AcDbEntity
  8
MAIN0
  6
BYBLOCK
 62
0
100
AcDbMText
 10
58.57434752334206
 20
264.1592584280153
 30
0.0000000000000000
 40
3.099999904632568
 41
0.0000000000000000
 71
     5
 72
     1
  1
\A1;\U+2205170H6
 11
6.123233995736766e-017
 21
1.000000000000000
 31
0.0000000000000000
  7
STANDARD
  0
ENDBLK
  5
1C8
100
AcDbEntity
  8
MAIN0
  6
CONTINUOUS
 62
3
100
AcDbBlockEnd
  0
BLOCK
  5
1CE
100
AcDbEntity
  8
MAIN0
  6
CONTINUOUS
 62
3
100
AcDbBlockBegin
  2
*D25
 70
    65
 10
0.0
 20
0.0
 30
0.0
  0
LINE
  5
1CF
100
AcDbEntity
  8
MAIN0
  6
BYBLOCK
 62
0
100
AcDbLine
 10
231.6721296847864
 20
279.8592584399362
 30
0.0000000000000000
 11
231.6721296847863
 21
297.2594752027371
 31
0.0000000000000000
  0
LINE
  5
1D0
100
AcDbEntity
  8
MAIN0
  6
BYBLOCK
 62
0
100
AcDbLine
 10
231.6721296847863
 20
295.2594752027371
 30
0.0000000000000000
 11
235.9721296847865
 21
295.2594752027371
 31
0.0000000000000000
  0
INSERT
  5
1D1
100
AcDbEntity
  8
MAIN0
  6
BYBLOCK
 62
0
100
AcDbBlockReference
  2
_OPEN
 10
231.6721296847863
 20
295.2594752027371
 30
0.0000000000000000
 41
2.000000000000000
 42
2.000000000000000
 43
2.000000000000000
 50
0.0000000000000000
  0
INSERT
  5
1D2
100
AcDbEntity
  8
MAIN0
  6
BYBLOCK
 62
0
100
AcDbBlockReference
  2
_OPEN
 10
235.9721296847865
 20
295.2594752027371
 30
0.0000000000000000
 41
2.000000000000000
 42
2.000000000000000
 43
2.000000000000000
 50
180.0000000000000
  0
LINE
  5
1D3
100
AcDbEntity
  8
MAIN0
  6
BYBLOCK
 62
0
100
AcDbLine
 10
229.6721296847863
 20
295.2594752027371
 30
0.0000000000000000
 11
214.9205122531457
 21
295.2594752027371
 31
0.0000000000000000
  0
LINE
  5
1D4
100
AcDbEntity
  8
MAIN0
  6
BYBLOCK
 62
0
100
AcDbLine
 10
237.9721296847865
 20
295.2594752027371
 30
0.0000000000000000
 11
238.9721296847865
 21
295.2594752027371
 31
0.0000000000000000
  0
MTEXT
  5
1D5
100
AcDbEntity
  8
MAIN0
  6
BYBLOCK
 62
0
100
AcDbMText
 10
221.7705117725481
 20
297.3094751550534
 30
0.0000000000000000
 40
3.099999904632568
 41
0.0000000000000000
 71
     5
 72
     1
  1
\A1;MIN 4.3
 11
1.000000000000000
 21
0.0000000000000000
 31
0.0000000000000000
  7
STANDARD
  0
ENDBLK
  5
1D6
100
AcDbEntity
  8
MAIN0
  6
CONTINUOUS
 62
3
100
AcDbBlockEnd
  0
BLOCK
  5
1D8
100
AcDbEntity
  8
MAIN0
  6
CONTINUOUS
 62
3
100
AcDbBlockBegin
  2
*D26
 70
    65
 10
0.0
 20
0.0
 30
0.0
  0
LINE
  5
1D9
100
AcDbEntity
  8
MAIN0
  6
BYBLOCK
 62
0
100
AcDbLine
 10
236.7721296967073
 20
280.0592584280153
 30
0.0000000000000000
 11
251.5081164620258
 21
280.0592584280153
 31
0.0000000000000000
  0
LINE
  5
1DA
100
AcDbEntity
  8
MAIN0
  6
BYBLOCK
 62
0
100
AcDbLine
 10
249.5081164620258
 20
278.0592584280153
 30
0.0000000000000000
 11
249.5081164620258
 21
250.2592584280152
 31
0.0000000000000000
  0
INSERT
  5
1DB
100
AcDbEntity
  8
MAIN0
  6
BYBLOCK
 62
0
100
AcDbBlockReference
  2
_OPEN
 10
249.5081164620258
 20
280.0592584280153
 30
0.0000000000000000
 41
2.000000000000000
 42
2.000000000000000
 43
2.000000000000000
 50
90.00000000000000
  0
INSERT
  5
1DC
100
AcDbEntity
  8
MAIN0
  6
BYBLOCK
 62
0
100
AcDbBlockReference
  2
_OPEN
 10
249.5081164620258
 20
248.2592584280152
 30
0.0000000000000000
 41
2.000000000000000
 42
2.000000000000000
 43
2.000000000000000
 50
270.0000000000000
  0
LINE
  5
1DD
100
AcDbEntity
  8
MAIN0
  6
BYBLOCK
 62
0
100
AcDbLine
 10
235.7721296967074
 20
248.2592584280152
 30
0.0000000000000000
 11
251.5081164620258
 21
248.2592584280152
 31
0.0000000000000000
  0
MTEXT
  5
1DE
100
AcDbEntity
  8
MAIN0
  6
BYBLOCK
 62
0
100
AcDbMText
 10
247.4581165097095
 20
264.1592585174222
 30
0.0000000000000000
 40
3.099999904632568
 41
0.0000000000000000
 71
     5
 72
     1
  1
\A1;\U+220531.8\H0.903226x;\S＋0.02^  0;
 11
6.123233995736766e-017
 21
1.000000000000000
 31
0.0000000000000000
  7
KNJYOKO
  0
ENDBLK
  5
1DF
100
AcDbEntity
  8
MAIN0
  6
CONTINUOUS
 62
3
100
AcDbBlockEnd
  0
BLOCK
  5
1E8
100
AcDbEntity
  8
MAIN0
  6
CONTINUOUS
 62
3
100
AcDbBlockBegin
  2
*D27
 70
    65
 10
0.0
 20
0.0
 30
0.0
  0
LINE
  5
1E9
100
AcDbEntity
  8
MAIN0
  6
BYBLOCK
 62
0
100
AcDbLine
 10
409.0828567999703
 20
200.4186845410394
 30
0.0000000000000000
 11
476.8121513730062
 21
213.5998323149976
 31
0.0000000000000000
  0
INSERT
  5
1EA
100
AcDbEntity
  8
MAIN0
  6
BYBLOCK
 62
0
100
AcDbBlockReference
  2
_OPEN
 10
407.1196888413315
 20
200.0366222867218
 30
0.0000000000000000
 41
2.000000000000000
 42
2.000000000000000
 43
2.000000000000000
 50
191.0129657102678
  0
INSERT
  5
1EB
100
AcDbEntity
  8
MAIN0
  6
BYBLOCK
 62
0
100
AcDbBlockReference
  2
_OPEN
 10
478.7753193316449
 20
213.9818945693152
 30
0.0000000000000000
 41
2.000000000000000
 42
2.000000000000000
 43
2.000000000000000
 50
11.01296571026781
  0
MTEXT
  5
1EC
100
AcDbEntity
  8
MAIN0
  6
BYBLOCK
 62
0
100
AcDbMText
 10
457.9080540368436
 20
212.0102881673714
 30
0.0000000000000000
 40
3.099999904632568
 41
0.0000000000000000
 71
     5
 72
     1
  1
\A1;\U+220573
 11
0.9815839793193615
 21
0.1910311271588150
 31
0.0000000000000000
  7
STANDARD
  0
ENDBLK
  5
1ED
100
AcDbEntity
  8
MAIN0
  6
CONTINUOUS
 62
3
100
AcDbBlockEnd
  0
BLOCK
  5
1EF
100
AcDbEntity
  8
MAIN0
  6
CONTINUOUS
 62
3
100
AcDbBlockBegin
  2
*D28
 70
    65
 10
0.0
 20
0.0
 30
0.0
  0
LINE
  5
1F0
100
AcDbEntity
  8
MAIN0
  6
BYBLOCK
 62
0
100
AcDbLine
 10
423.1233258402856
 20
266.8053795255308
 30
0.0000000000000000
 11
447.0031802604568
 21
263.6179088620791
 31
0.0000000000000000
  0
INSERT
  5
1F1
100
AcDbEntity
  8
MAIN0
  6
BYBLOCK
 62
0
100
AcDbBlockReference
  2
_OPEN
 10
421.1409080156651
 20
267.0699916352824
 30
0.0000000000000000
 41
2.000000000000000
 42
2.000000000000000
 43
2.000000000000000
 50
172.3971291990110
  0
MTEXT
  5
1F2
100
AcDbEntity
  8
MAIN0
  6
BYBLOCK
 62
0
100
AcDbMText
 10
434.5358491040331
 20
267.3512321872581
 30
0.0000000000000000
 40
3.099999904632568
 41
0.0000000000000000
 71
     5
 72
     1
  1
\A1;\U+220544
 11
0.9912089123102189
 21
-0.1323060548757794
 31
0.0000000000000000
  7
STANDARD
  0
ENDBLK
  5
1F3
100
AcDbEntity
  8
MAIN0
  6
CONTINUOUS
 62
3
100
AcDbBlockEnd
  0
BLOCK
  5
1F5
100
AcDbEntity
  8
MAIN3
  6
CONTINUOUS
 62
3
100
AcDbBlockBegin
  2
*D29
 70
    65
 10
0.0
 20
0.0
 30
0.0
  0
LINE
  5
1F6
100
AcDbEntity
  8
MAIN3
  6
BYBLOCK
 62
0
100
AcDbLine
 10
265.1021296967072
 20
117.5316556507022
 30
0.0000000000000000
 11
300.1869438786833
 21
117.5316556507022
 31
0.0000000000000000
  0
LINE
  5
1F7
100
AcDbEntity
  8
MAIN3
  6
BYBLOCK
 62
0
100
AcDbLine
 10
298.1869438786833
 20
115.5316556507022
 30
0.0000000000000000
 11
298.1869438786833
 21
75.08165565070209
 31
0.0000000000000000
  0
INSERT
  5
1F8
100
AcDbEntity
  8
MAIN3
  6
BYBLOCK
 62
0
100
AcDbBlockReference
  2
_OPEN
 10
298.1869438786833
 20
117.5316556507022
 30
0.0000000000000000
 41
2.000000000000000
 42
2.000000000000000
 43
2.000000000000000
 50
90.00000000000000
  0
INSERT
  5
1F9
100
AcDbEntity
  8
MAIN3
  6
BYBLOCK
 62
0
100
AcDbBlockReference
  2
_OPEN
 10
298.1869438786833
 20
73.08165565070209
 30
0.0000000000000000
 41
2.000000000000000
 42
2.000000000000000
 43
2.000000000000000
 50
270.0000000000000
  0
LINE
  5
1FA
100
AcDbEntity
  8
MAIN3
  6
BYBLOCK
 62
0
100
AcDbLine
 10
265.1021296967074
 20
73.08165565070209
 30
0.0000000000000000
 11
300.1869438786833
 21
73.08165565070209
 31
0.0000000000000000
  0
MTEXT
  5
1FB
100
AcDbEntity
  8
MAIN3
  6
BYBLOCK
 62
0
100
AcDbMText
 10
296.1369439263670
 20
95.30665565070211
 30
0.0000000000000000
 40
3.099999904632568
 41
0.0000000000000000
 71
     5
 72
     1
  1
\A1;44.45h7
 11
6.123233995736766e-017
 21
1.000000000000000
 31
0.0000000000000000
  7
STANDARD
  0
ENDBLK
  5
1FC
100
AcDbEntity
  8
MAIN3
  6
CONTINUOUS
 62
3
100
AcDbBlockEnd
  0
BLOCK
  5
207
100
AcDbEntity
  8
MAIN3
  6
CONTINUOUS
 62
3
100
AcDbBlockBegin
  2
*D30
 70
    65
 10
0.0
 20
0.0
 30
0.0
  0
LINE
  5
208
100
AcDbEntity
  8
MAIN3
  6
BYBLOCK
 62
0
100
AcDbLine
 10
235.9721296847865
 20
165.3592584160944
 30
0.0000000000000000
 11
235.9721296847865
 21
144.2116079134722
 31
0.0000000000000000
  0
LINE
  5
209
100
AcDbEntity
  8
MAIN3
  6
BYBLOCK
 62
0
100
AcDbLine
 10
233.9721296847865
 20
146.2116079134722
 30
0.0000000000000000
 11
207.9721296847865
 21
146.2116079134722
 31
0.0000000000000000
  0
INSERT
  5
20A
100
AcDbEntity
  8
MAIN3
  6
BYBLOCK
 62
0
100
AcDbBlockReference
  2
_OPEN
 10
235.9721296847865
 20
146.2116079134722
 30
0.0000000000000000
 41
2.000000000000000
 42
2.000000000000000
 43
2.000000000000000
 50
360.0000000000000
  0
INSERT
  5
20B
100
AcDbEntity
  8
MAIN3
  6
BYBLOCK
 62
0
100
AcDbBlockReference
  2
_OPEN
 10
205.9721296847865
 20
146.2116079134722
 30
0.0000000000000000
 41
2.000000000000000
 42
2.000000000000000
 43
2.000000000000000
 50
180.0000000000000
  0
LINE
  5
20C
100
AcDbEntity
  8
MAIN3
  6
BYBLOCK
 62
0
100
AcDbLine
 10
205.9721296847865
 20
157.9046108670061
 30
0.0000000000000000
 11
205.9721296847865
 21
144.2116079134722
 31
0.0000000000000000
  0
MTEXT
  5
20D
100
AcDbEntity
  8
MAIN3
  6
BYBLOCK
 62
0
100
AcDbMText
 10
220.9721296847865
 20
148.2616078657885
 30
0.0000000000000000
 40
3.099999904632568
 41
0.0000000000000000
 71
     5
 72
     1
  1
\A1;30
 11
1.000000000000000
 21
0.0000000000000000
 31
0.0000000000000000
  7
STANDARD
  0
ENDBLK
  5
20E
100
AcDbEntity
  8
MAIN3
  6
CONTINUOUS
 62
3
100
AcDbBlockEnd
  0
BLOCK
  5
24D
100
AcDbEntity
  8
MAIN3
  6
CONTINUOUS
 62
3
100
AcDbBlockBegin
  2
*D31
 70
    65
 10
0.0
 20
0.0
 30
0.0
  0
LINE
  5
24E
100
AcDbEntity
  8
MAIN3
  6
BYBLOCK
 62
0
100
AcDbLine
 10
152.9721296847864
 20
222.6692893591593
 30
0.0000000000000000
 11
147.9721296847864
 21
222.6692893591593
 31
0.0000000000000000
  0
INSERT
  5
24F
100
AcDbEntity
  8
MAIN3
  6
BYBLOCK
 62
0
100
AcDbBlockReference
  2
_OPEN
 10
152.9721296847864
 20
222.6692893591593
 30
0.0000000000000000
 41
2.000000000000000
 42
2.000000000000000
 43
2.000000000000000
 50
180.0000000000000
  0
INSERT
  5
250
100
AcDbEntity
  8
MAIN3
  6
BYBLOCK
 62
0
100
AcDbBlockReference
  2
_OPEN
 10
147.9721296847864
 20
222.6692893591593
 30
0.0000000000000000
 41
2.000000000000000
 42
2.000000000000000
 43
2.000000000000000
 50
360.0000000000000
  0
LINE
  5
251
100
AcDbEntity
  8
MAIN3
  6
BYBLOCK
 62
0
100
AcDbLine
 10
154.9721296847864
 20
222.6692893591593
 30
0.0000000000000000
 11
155.9721296847864
 21
222.6692893591593
 31
0.0000000000000000
  0
LINE
  5
252
100
AcDbEntity
  8
MAIN3
  6
BYBLOCK
 62
0
100
AcDbLine
 10
145.9721296847864
 20
222.6692893591593
 30
0.0000000000000000
 11
144.9721296847864
 21
222.6692893591593
 31
0.0000000000000000
  0
MTEXT
  5
253
100
AcDbEntity
  8
MAIN3
  6
BYBLOCK
 62
0
100
AcDbMText
 10
150.4721296847864
 20
224.7192893114756
 30
0.0000000000000000
 40
3.099999904632568
 41
0.0000000000000000
 71
     5
 72
     1
  1
\A1;5
 11
1.000000000000000
 21
0.0000000000000000
 31
0.0000000000000000
  7
STANDARD
  0
ENDBLK
  5
254
100
AcDbEntity
  8
MAIN3
  6
CONTINUOUS
 62
3
100
AcDbBlockEnd
  0
BLOCK
  5
256
100
AcDbEntity
  8
MAIN3
  6
CONTINUOUS
 62
3
100
AcDbBlockBegin
  2
*D32
 70
    65
 10
0.0
 20
0.0
 30
0.0
  0
LINE
  5
257
100
AcDbEntity
  8
MAIN3
  6
BYBLOCK
 62
0
100
AcDbLine
 10
303.1758094842242
 20
351.0592584280153
 30
0.0000000000000000
 11
303.1758094842242
 21
323.3092584280150
 31
0.0000000000000000
  0
INSERT
  5
258
100
AcDbEntity
  8
MAIN3
  6
BYBLOCK
 62
0
100
AcDbBlockReference
  2
_OPEN
 10
303.1758094842242
 20
353.0592584280153
 30
0.0000000000000000
 41
2.000000000000000
 42
2.000000000000000
 43
2.000000000000000
 50
90.00000000000000
  0
INSERT
  5
259
100
AcDbEntity
  8
MAIN3
  6
BYBLOCK
 62
0
100
AcDbBlockReference
  2
_OPEN
 10
303.1758094842242
 20
321.3092584280150
 30
0.0000000000000000
 41
2.000000000000000
 42
2.000000000000000
 43
2.000000000000000
 50
270.0000000000000
  0
LINE
  5
25A
100
AcDbEntity
  8
MAIN3
  6
BYBLOCK
 62
0
100
AcDbLine
 10
292.5021296967071
 20
321.3092584280150
 30
0.0000000000000000
 11
305.1758094842242
 21
321.3092584280150
 31
0.0000000000000000
  0
MTEXT
  5
25B
100
AcDbEntity
  8
MAIN3
  6
BYBLOCK
 62
0
100
AcDbMText
 10
301.1258095319079
 20
337.1842584280151
 30
0.0000000000000000
 40
3.099999904632568
 41
0.0000000000000000
 71
     5
 72
     1
  1
\A1;31.75
 11
6.123233995736766e-017
 21
1.000000000000000
 31
0.0000000000000000
  7
STANDARD
  0
ENDBLK
  5
25C
100
AcDbEntity
  8
MAIN3
  6
CONTINUOUS
 62
3
100
AcDbBlockEnd
  0
BLOCK
  5
25E
100
AcDbEntity
  8
MAIN3
  6
CONTINUOUS
 62
3
100
AcDbBlockBegin
  2
*D33
 70
    65
 10
0.0
 20
0.0
 30
0.0
  0
LINE
  5
25F
100
AcDbEntity
  8
MAIN3
  6
BYBLOCK
 62
0
100
AcDbLine
 10
292.5021296967071
 20
321.3092584280150
 30
0.0000000000000000
 11
305.1758094842242
 21
321.3092584280150
 31
0.0000000000000000
  0
LINE
  5
260
100
AcDbEntity
  8
MAIN3
  6
BYBLOCK
 62
0
100
AcDbLine
 10
303.1758094842242
 20
319.3092584280150
 30
0.0000000000000000
 11
303.1758094842242
 21
266.1592584280153
 31
0.0000000000000000
  0
INSERT
  5
261
100
AcDbEntity
  8
MAIN3
  6
BYBLOCK
 62
0
100
AcDbBlockReference
  2
_OPEN
 10
303.1758094842242
 20
321.3092584280150
 30
0.0000000000000000
 41
2.000000000000000
 42
2.000000000000000
 43
2.000000000000000
 50
90.00000000000000
  0
INSERT
  5
262
100
AcDbEntity
  8
MAIN3
  6
BYBLOCK
 62
0
100
AcDbBlockReference
  2
_OPEN
 10
303.1758094842242
 20
264.1592584280153
 30
0.0000000000000000
 41
2.000000000000000
 42
2.000000000000000
 43
2.000000000000000
 50
270.0000000000000
  0
LINE
  5
263
100
AcDbEntity
  8
MAIN3
  6
BYBLOCK
 62
0
100
AcDbLine
 10
242.1382698001127
 20
264.1592584280153
 30
0.0000000000000000
 11
305.1758094842242
 21
264.1592584280153
 31
0.0000000000000000
  0
MTEXT
  5
264
100
AcDbEntity
  8
MAIN3
  6
BYBLOCK
 62
0
100
AcDbMText
 10
301.1258095319079
 20
286.9637536310740
 30
0.0000000000000000
 40
3.099999904632568
 41
0.0000000000000000
 71
     5
 72
     1
  1
\A1;57.15
 11
6.123233995736766e-017
 21
1.000000000000000
 31
0.0000000000000000
  7
STANDARD
  0
ENDBLK
  5
265
100
AcDbEntity
  8
MAIN3
  6
CONTINUOUS
 62
3
100
AcDbBlockEnd
  0
BLOCK
  5
267
100
AcDbEntity
  8
MAIN3
  6
CONTINUOUS
 62
3
100
AcDbBlockBegin
  2
*D34
 70
    65
 10
0.0
 20
0.0
 30
0.0
  0
LINE
  5
268
100
AcDbEntity
  8
MAIN3
  6
BYBLOCK
 62
0
100
AcDbLine
 10
313.2721296967074
 20
353.0592584280153
 30
0.0000000000000000
 11
330.3446033178308
 21
353.0592584280153
 31
0.0000000000000000
  0
LINE
  5
269
100
AcDbEntity
  8
MAIN3
  6
BYBLOCK
 62
0
100
AcDbLine
 10
328.3446033178308
 20
351.0592584280153
 30
0.0000000000000000
 11
328.3446033178308
 21
340.0592584280151
 31
0.0000000000000000
  0
INSERT
  5
26A
100
AcDbEntity
  8
MAIN3
  6
BYBLOCK
 62
0
100
AcDbBlockReference
  2
_OPEN
 10
328.3446033178308
 20
353.0592584280153
 30
0.0000000000000000
 41
2.000000000000000
 42
2.000000000000000
 43
2.000000000000000
 50
90.00000000000000
  0
INSERT
  5
26B
100
AcDbEntity
  8
MAIN3
  6
BYBLOCK
 62
0
100
AcDbBlockReference
  2
_OPEN
 10
328.3446033178308
 20
338.0592584280151
 30
0.0000000000000000
 41
2.000000000000000
 42
2.000000000000000
 43
2.000000000000000
 50
270.0000000000000
  0
LINE
  5
26C
100
AcDbEntity
  8
MAIN3
  6
BYBLOCK
 62
0
100
AcDbLine
 10
318.9527292268924
 20
338.0592584280151
 30
0.0000000000000000
 11
330.3446033178308
 21
338.0592584280151
 31
0.0000000000000000
  0
MTEXT
  5
26D
100
AcDbEntity
  8
MAIN3
  6
BYBLOCK
 62
0
100
AcDbMText
 10
326.2946033655145
 20
345.5592584280152
 30
0.0000000000000000
 40
3.099999904632568
 41
0.0000000000000000
 71
     5
 72
     1
  1
\A1;15
 11
6.123233995736766e-017
 21
1.000000000000000
 31
0.0000000000000000
  7
STANDARD
  0
ENDBLK
  5
26E
100
AcDbEntity
  8
MAIN3
  6
CONTINUOUS
 62
3
100
AcDbBlockEnd
  0
BLOCK
  5
270
100
AcDbEntity
  8
MAIN3
  6
CONTINUOUS
 62
3
100
AcDbBlockBegin
  2
*D35
 70
    65
 10
0.0
 20
0.0
 30
0.0
  0
LINE
  5
271
100
AcDbEntity
  8
MAIN3
  6
BYBLOCK
 62
0
100
AcDbLine
 10
318.9527292268924
 20
338.0592584280151
 30
0.0000000000000000
 11
330.3446033178308
 21
338.0592584280151
 31
0.0000000000000000
  0
LINE
  5
272
100
AcDbEntity
  8
MAIN3
  6
BYBLOCK
 62
0
100
AcDbLine
 10
328.3446033178308
 20
336.0592584280151
 30
0.0000000000000000
 11
328.3446033178308
 21
305.9192584280152
 31
0.0000000000000000
  0
INSERT
  5
273
100
AcDbEntity
  8
MAIN3
  6
BYBLOCK
 62
0
100
AcDbBlockReference
  2
_OPEN
 10
328.3446033178308
 20
338.0592584280151
 30
0.0000000000000000
 41
2.000000000000000
 42
2.000000000000000
 43
2.000000000000000
 50
90.00000000000000
  0
INSERT
  5
274
100
AcDbEntity
  8
MAIN3
  6
BYBLOCK
 62
0
100
AcDbBlockReference
  2
_OPEN
 10
328.3446033178308
 20
303.9192584280152
 30
0.0000000000000000
 41
2.000000000000000
 42
2.000000000000000
 43
2.000000000000000
 50
270.0000000000000
  0
LINE
  5
275
100
AcDbEntity
  8
MAIN3
  6
BYBLOCK
 62
0
100
AcDbLine
 10
319.6658246006548
 20
303.9192584280152
 30
0.0000000000000000
 11
330.3446033178308
 21
303.9192584280152
 31
0.0000000000000000
  0
MTEXT
  5
276
100
AcDbEntity
  8
MAIN3
  6
BYBLOCK
 62
0
100
AcDbMText
 10
326.2946033655145
 20
320.9892584280152
 30
0.0000000000000000
 40
3.099999904632568
 41
0.0000000000000000
 71
     5
 72
     1
  1
\A1;34.14
 11
6.123233995736766e-017
 21
1.000000000000000
 31
0.0000000000000000
  7
STANDARD
  0
ENDBLK
  5
277
100
AcDbEntity
  8
MAIN3
  6
CONTINUOUS
 62
3
100
AcDbBlockEnd
  0
BLOCK
  5
281
100
AcDbEntity
  8
MAIN3
  6
CONTINUOUS
 62
3
100
AcDbBlockBegin
  2
*D36
 70
    65
 10
0.0
 20
0.0
 30
0.0
  0
LINE
  5
282
100
AcDbEntity
  8
MAIN3
  6
BYBLOCK
 62
0
100
AcDbLine
 10
265.1021296967072
 20
102.4266556507021
 30
0.0000000000000000
 11
285.5683380800295
 21
102.4266556507021
 31
0.0000000000000000
  0
LINE
  5
283
100
AcDbEntity
  8
MAIN3
  6
BYBLOCK
 62
0
100
AcDbLine
 10
283.5683380800295
 20
100.4266556507021
 30
0.0000000000000000
 11
283.5683380800295
 21
90.18665565070208
 31
0.0000000000000000
  0
INSERT
  5
284
100
AcDbEntity
  8
MAIN3
  6
BYBLOCK
 62
0
100
AcDbBlockReference
  2
_OPEN
 10
283.5683380800295
 20
102.4266556507021
 30
0.0000000000000000
 41
2.000000000000000
 42
2.000000000000000
 43
2.000000000000000
 50
90.00000000000000
  0
INSERT
  5
285
100
AcDbEntity
  8
MAIN3
  6
BYBLOCK
 62
0
100
AcDbBlockReference
  2
_OPEN
 10
283.5683380800295
 20
88.18665565070208
 30
0.0000000000000000
 41
2.000000000000000
 42
2.000000000000000
 43
2.000000000000000
 50
270.0000000000000
  0
LINE
  5
286
100
AcDbEntity
  8
MAIN3
  6
BYBLOCK
 62
0
100
AcDbLine
 10
265.1021296967074
 20
88.18665565070208
 30
0.0000000000000000
 11
285.5683380800295
 21
88.18665565070208
 31
0.0000000000000000
  0
MTEXT
  5
287
100
AcDbEntity
  8
MAIN3
  6
BYBLOCK
 62
0
100
AcDbMText
 10
281.5183381277132
 20
95.30665565070208
 30
0.0000000000000000
 40
3.099999904632568
 41
0.0000000000000000
 71
     5
 72
     1
  1
\A1;14.24
 11
6.123233995736766e-017
 21
1.000000000000000
 31
0.0000000000000000
  7
STANDARD
  0
ENDBLK
  5
288
100
AcDbEntity
  8
MAIN3
  6
CONTINUOUS
 62
3
100
AcDbBlockEnd
  0
ENDSEC
  0
SECTION
  2
ENTITIES
  0
LINE
  5
46
100
AcDbEntity
  8
MAIN0
  6
CONTINUOUS
 62
3
100
AcDbLine
 10
465.1725040864900
 20
353.0592584280153
 30
0.0000000000000000
 11
420.7225040864900
 21
353.0592584280153
 31
0.0000000000000000
  0
LINE
  5
47
100
AcDbEntity
  8
MAIN0
  6
CONTINUOUS
 62
3
100
AcDbLine
 10
420.7225040864900
 20
169.4315466695220
 30
0.0000000000000000
 11
420.7225040864897
 21
233.0092929584657
 31
0.0000000000000000
  0
LINE
  5
48
100
AcDbEntity
  8
MAIN0
  6
CONTINUOUS
 62
3
100
AcDbLine
 10
420.7225040864900
 20
175.2592584280172
 30
0.0000000000000000
 11
435.8275040864900
 21
175.2592584280173
 31
0.0000000000000000
  0
LINE
  5
49
100
AcDbEntity
  8
MAIN0
  6
CONTINUOUS
 62
3
100
AcDbLine
 10
450.0675040864900
 20
175.2592584280171
 30
0.0000000000000000
 11
465.1725040864900
 21
175.2592584280172
 31
0.0000000000000000
  0
LINE
  5
4A
100
AcDbEntity
  8
MAIN0
  6
CENTER
 62
12
100
AcDbLine
 10
415.6746429058005
 20
279.9052521722576
 30
0.0000000000000000
 11
430.5704818075219
 21
271.3051355725435
 31
0.0000000000000000
  0
LINE
  5
4B
100
AcDbEntity
  8
MAIN0
  6
CENTER
 62
12
100
AcDbLine
 10
455.1318482726444
 20
271.1938928237906
 30
0.0000000000000000
 11
471.5207509505336
 21
280.6560301965926
 31
0.0000000000000000
  0
LINE
  5
4C
100
AcDbEntity
  8
MAIN0
  6
CENTER
 62
12
100
AcDbLine
 10
244.9618520455740
 20
242.1592584280155
 30
0.0000000000000000
 11
220.4970068002953
 21
242.1592584280155
 31
0.0000000000000000
  0
LINE
  5
4D
100
AcDbEntity
  8
MAIN0
  6
CONTINUOUS
 62
3
100
AcDbLine
 10
459.5000629697477
 20
276.6026341009894
 30
0.0000000000000000
 11
459.5000629697477
 21
273.7158827550412
 31
0.0000000000000000
  0
LINE
  5
4E
100
AcDbEntity
  8
MAIN0
  6
CONTINUOUS
 62
3
100
AcDbLine
 10
462.0000629697476
 20
272.2725070820672
 30
0.0000000000000000
 11
459.5000629697477
 21
273.7158827550412
 31
0.0000000000000000
  0
LINE
  5
4F
100
AcDbEntity
  8
MAIN0
  6
CONTINUOUS
 62
3
100
AcDbLine
 10
462.0000629697475
 20
278.0460097739634
 30
0.0000000000000000
 11
459.5000629697477
 21
276.6026341009894
 31
0.0000000000000000
  0
LINE
  5
50
100
AcDbEntity
  8
MAIN0
  6
CONTINUOUS
 62
3
100
AcDbLine
 10
464.5000629697476
 20
273.7158827550412
 30
0.0000000000000000
 11
464.5000629697476
 21
276.6026341009894
 31
0.0000000000000000
  0
LINE
  5
51
100
AcDbEntity
  8
MAIN0
  6
CONTINUOUS
 62
3
100
AcDbLine
 10
464.5000629697476
 20
276.6026341009893
 30
0.0000000000000000
 11
462.0000629697476
 21
278.0460097739634
 31
0.0000000000000000
  0
LINE
  5
52
100
AcDbEntity
  8
MAIN0
  6
CONTINUOUS
 62
3
100
AcDbLine
 10
464.5000629697474
 20
273.7158827550412
 30
0.0000000000000000
 11
462.0000629697476
 21
272.2725070820672
 31
0.0000000000000000
  0
LINE
  5
53
100
AcDbEntity
  8
MAIN0
  6
CONTINUOUS
 62
3
100
AcDbLine
 10
423.8949452032322
 20
272.2725070820672
 30
0.0000000000000000
 11
426.3949452032322
 21
273.7158827550413
 31
0.0000000000000000
  0
LINE
  5
54
100
AcDbEntity
  8
MAIN0
  6
CONTINUOUS
 62
3
100
AcDbLine
 10
426.3949452032323
 20
276.6026341009894
 30
0.0000000000000000
 11
426.3949452032323
 21
273.7158827550413
 31
0.0000000000000000
  0
LINE
  5
55
100
AcDbEntity
  8
MAIN0
  6
CONTINUOUS
 62
3
100
AcDbLine
 10
421.3949452032324
 20
273.7158827550412
 30
0.0000000000000000
 11
423.8949452032322
 21
272.2725070820672
 31
0.0000000000000000
  0
LINE
  5
56
100
AcDbEntity
  8
MAIN0
  6
CONTINUOUS
 62
3
100
AcDbLine
 10
423.8949452032324
 20
278.0460097739634
 30
0.0000000000000000
 11
421.3949452032323
 21
276.6026341009893
 31
0.0000000000000000
  0
LINE
  5
57
100
AcDbEntity
  8
MAIN0
  6
CONTINUOUS
 62
3
100
AcDbLine
 10
421.3949452032324
 20
276.6026341009893
 30
0.0000000000000000
 11
421.3949452032324
 21
273.7158827550412
 31
0.0000000000000000
  0
LINE
  5
58
100
AcDbEntity
  8
MAIN0
  6
CONTINUOUS
 62
3
100
AcDbLine
 10
423.8949452032323
 20
278.0460097739634
 30
0.0000000000000000
 11
426.3949452032322
 21
276.6026341009894
 31
0.0000000000000000
  0
LINE
  5
59
100
AcDbEntity
  8
MAIN0
  6
CONTINUOUS
 62
3
100
AcDbLine
 10
258.2714223861251
 20
294.3642270348385
 30
0.0000000000000000
 11
246.1714223861253
 21
294.3642270348386
 31
0.0000000000000000
  0
LINE
  5
5A
100
AcDbEntity
  8
MAIN0
  6
CONTINUOUS
 62
3
100
AcDbLine
 10
245.7714223861254
 20
347.5642270348387
 30
0.0000000000000000
 11
258.6714223861252
 21
347.5642270348387
 31
0.0000000000000000
  0
LINE
  5
5B
100
AcDbEntity
  8
MAIN0
  6
DASHED
 62
4
100
AcDbLine
 10
258.6714223861252
 20
297.8592584280152
 30
0.0000000000000000
 11
245.7714223861253
 21
297.8592584280152
 31
0.0000000000000000
  0
LINE
  5
5C
100
AcDbEntity
  8
MAIN0
  6
DASHED
 62
4
100
AcDbLine
 10
246.9714223861253
 20
298.7592584280152
 30
0.0000000000000000
 11
257.4714223861251
 21
298.7592584280152
 31
0.0000000000000000
  0
LINE
  5
5D
100
AcDbEntity
  8
MAIN0
  6
DASHED
 62
4
100
AcDbLine
 10
246.9714223861253
 20
308.9691956416624
 30
0.0000000000000000
 11
257.4714223861251
 21
308.9691956416624
 31
0.0000000000000000
  0
LINE
  5
5E
100
AcDbEntity
  8
MAIN0
  6
DASHED
 62
4
100
AcDbLine
 10
258.6714223861253
 20
344.0691956416624
 30
0.0000000000000000
 11
245.7714223861254
 21
344.0691956416624
 31
0.0000000000000000
  0
LINE
  5
5F
100
AcDbEntity
  8
MAIN0
  6
DASHED
 62
4
100
AcDbLine
 10
246.9714223861253
 20
343.1691956416624
 30
0.0000000000000000
 11
257.4714223861251
 21
343.1691956416624
 31
0.0000000000000000
  0
LINE
  5
60
100
AcDbEntity
  8
MAIN0
  6
DASHED
 62
4
100
AcDbLine
 10
258.6714223861253
 20
332.0592584280151
 30
0.0000000000000000
 11
245.7714223861254
 21
332.0592584280151
 31
0.0000000000000000
  0
LINE
  5
61
100
AcDbEntity
  8
MAIN0
  6
DASHED
 62
4
100
AcDbLine
 10
246.9714223861253
 20
332.9592584280152
 30
0.0000000000000000
 11
257.4714223861253
 21
332.9592584280152
 31
0.0000000000000000
  0
LINE
  5
62
100
AcDbEntity
  8
MAIN0
  6
CONTINUOUS
 62
3
100
AcDbLine
 10
245.7714223861254
 20
347.5642270348387
 30
0.0000000000000000
 11
245.7714223861253
 21
294.7642270348387
 31
0.0000000000000000
  0
LINE
  5
63
100
AcDbEntity
  8
MAIN0
  6
DASHED
 62
4
100
AcDbLine
 10
245.7714223861253
 20
309.8691956416624
 30
0.0000000000000000
 11
258.6714223861252
 21
309.8691956416624
 31
0.0000000000000000
  0
LINE
  5
64
100
AcDbEntity
  8
MAIN0
  6
CONTINUOUS
 62
3
100
AcDbLine
 10
258.6714223861252
 20
294.7642270348387
 30
0.0000000000000000
 11
258.2714223861252
 21
294.3642270348387
 31
0.0000000000000000
  0
LINE
  5
65
100
AcDbEntity
  8
MAIN0
  6
HIDDEN
 62
4
100
AcDbLine
 10
251.2021296847865
 20
294.3642270348386
 30
0.0000000000000000
 11
251.2021296847865
 21
347.5642270348387
 31
0.0000000000000000
  0
LINE
  5
66
100
AcDbEntity
  8
MAIN0
  6
CONTINUOUS
 62
3
100
AcDbLine
 10
258.6714223861254
 20
344.3691956416624
 30
0.0000000000000000
 11
257.4714223861254
 21
343.1691956416623
 31
0.0000000000000000
  0
LINE
  5
67
100
AcDbEntity
  8
MAIN0
  6
CONTINUOUS
 62
3
100
AcDbLine
 10
245.7714223861252
 20
294.7642270348387
 30
0.0000000000000000
 11
246.1714223861252
 21
294.3642270348387
 31
0.0000000000000000
  0
LINE
  5
68
100
AcDbEntity
  8
MAIN0
  6
CONTINUOUS
 62
3
100
AcDbLine
 10
258.6714223861254
 20
331.7592584280151
 30
0.0000000000000000
 11
257.4714223861254
 21
332.9592584280151
 31
0.0000000000000000
  0
LINE
  5
69
100
AcDbEntity
  8
MAIN0
  6
CONTINUOUS
 62
3
100
AcDbLine
 10
245.7714223861254
 20
331.7592584280151
 30
0.0000000000000000
 11
246.9714223861254
 21
332.9592584280151
 31
0.0000000000000000
  0
LINE
  5
6A
100
AcDbEntity
  8
MAIN0
  6
CONTINUOUS
 62
3
100
AcDbLine
 10
245.7714223861254
 20
344.3691956416624
 30
0.0000000000000000
 11
246.9714223861253
 21
343.1691956416624
 31
0.0000000000000000
  0
LINE
  5
6B
100
AcDbEntity
  8
MAIN0
  6
CONTINUOUS
 62
3
100
AcDbLine
 10
245.7714223861253
 20
310.1691956416624
 30
0.0000000000000000
 11
246.9714223861253
 21
308.9691956416624
 31
0.0000000000000000
  0
LINE
  5
6C
100
AcDbEntity
  8
MAIN0
  6
CONTINUOUS
 62
3
100
AcDbLine
 10
245.7714223861254
 20
297.5592584280150
 30
0.0000000000000000
 11
246.9714223861254
 21
298.7592584280151
 31
0.0000000000000000
  0
LINE
  5
6D
100
AcDbEntity
  8
MAIN0
  6
CONTINUOUS
 62
3
100
AcDbLine
 10
258.6714223861252
 20
297.5592584280151
 30
0.0000000000000000
 11
257.4714223861252
 21
298.7592584280151
 31
0.0000000000000000
  0
LINE
  5
6E
100
AcDbEntity
  8
MAIN0
  6
CONTINUOUS
 62
3
100
AcDbLine
 10
258.6714223861253
 20
310.1691956416623
 30
0.0000000000000000
 11
257.4714223861253
 21
308.9691956416623
 31
0.0000000000000000
  0
LINE
  5
6F
100
AcDbEntity
  8
MAIN0
  6
CENTER
 62
12
100
AcDbLine
 10
214.7453167810411
 20
321.3092584280151
 30
0.0000000000000000
 11
266.6011842775224
 21
321.3092584280151
 31
0.0000000000000000
  0
LINE
  5
70
100
AcDbEntity
  8
MAIN0
  6
CENTER
 62
12
100
AcDbLine
 10
276.7950386051950
 20
95.30665565070208
 30
0.0000000000000000
 11
215.8280926434306
 21
95.30665565070217
 31
0.0000000000000000
  0
LINE
  5
71
100
AcDbEntity
  8
MAIN0
  6
CONTINUOUS
 62
3
100
AcDbLine
 10
251.2021296847865
 20
88.29109810174188
 30
0.0000000000000000
 11
258.2021296847865
 21
88.29109810174188
 31
0.0000000000000000
  0
LINE
  5
72
100
AcDbEntity
  8
MAIN0
  6
CONTINUOUS
 62
3
100
AcDbLine
 10
258.6021296847864
 20
95.41109810174189
 30
0.0000000000000000
 11
258.6021296847863
 21
88.69109810174189
 31
0.0000000000000000
  0
LINE
  5
73
100
AcDbEntity
  8
MAIN0
  6
CONTINUOUS
 62
3
100
AcDbLine
 10
245.7021296847865
 20
95.41109810174191
 30
0.0000000000000000
 11
245.7021296847865
 21
87.36109810174193
 31
0.0000000000000000
  0
LINE
  5
74
100
AcDbEntity
  8
MAIN0
  6
DASHED
 62
4
100
AcDbLine
 10
258.6021296847864
 20
89.40612949491839
 30
0.0000000000000000
 11
245.7021296847865
 21
89.40612949491842
 31
0.0000000000000000
  0
LINE
  5
75
100
AcDbEntity
  8
MAIN0
  6
DASHED
 62
4
100
AcDbLine
 10
258.6021296847864
 20
90.30612949491837
 30
0.0000000000000000
 11
245.7021296847865
 21
90.30612949491840
 31
0.0000000000000000
  0
LINE
  5
76
100
AcDbEntity
  8
MAIN0
  6
DASHED
 62
4
100
AcDbLine
 10
258.6021296847864
 20
100.5160667085656
 30
0.0000000000000000
 11
245.7021296847865
 21
100.5160667085656
 31
0.0000000000000000
  0
LINE
  5
77
100
AcDbEntity
  8
MAIN0
  6
DASHED
 62
4
100
AcDbLine
 10
245.7021296847865
 20
101.4160667085656
 30
0.0000000000000000
 11
258.6021296847864
 21
101.4160667085656
 31
0.0000000000000000
  0
LINE
  5
78
100
AcDbEntity
  8
MAIN0
  6
CONTINUOUS
 62
3
100
AcDbLine
 10
258.6021296847864
 20
95.41109810174191
 30
0.0000000000000000
 11
258.6021296847864
 21
101.9710981017420
 31
0.0000000000000000
  0
LINE
  5
79
100
AcDbEntity
  8
MAIN0
  6
CONTINUOUS
 62
3
100
AcDbLine
 10
245.7021296847865
 20
95.41109810174194
 30
0.0000000000000000
 11
245.7021296847865
 21
103.4610981017419
 31
0.0000000000000000
  0
LINE
  5
7A
100
AcDbEntity
  8
MAIN0
  6
CONTINUOUS
 62
3
100
AcDbLine
 10
258.6021296847865
 20
88.69109810174192
 30
0.0000000000000000
 11
258.2021296847865
 21
88.29109810174191
 31
0.0000000000000000
  0
LINE
  5
7B
100
AcDbEntity
  8
MAIN0
  6
CONTINUOUS
 62
3
100
AcDbLine
 10
251.2021296847865
 20
102.3710981017421
 30
0.0000000000000000
 11
251.2021296847865
 21
103.4610981017419
 31
0.0000000000000000
  0
LINE
  5
7C
100
AcDbEntity
  8
MAIN0
  6
CONTINUOUS
 62
3
100
AcDbLine
 10
251.2021296847865
 20
87.36109810174190
 30
0.0000000000000000
 11
251.2021296847865
 21
88.29109810174194
 31
0.0000000000000000
  0
LINE
  5
7D
100
AcDbEntity
  8
MAIN0
  6
CONTINUOUS
 62
3
100
AcDbLine
 10
259.3021296847865
 20
76.08165565070209
 30
0.0000000000000000
 11
240.3121296847865
 21
76.08165565070209
 31
0.0000000000000000
  0
LINE
  5
7E
100
AcDbEntity
  8
MAIN0
  6
CONTINUOUS
 62
3
100
AcDbLine
 10
259.3021296847863
 20
114.5316556507022
 30
0.0000000000000000
 11
240.3121296847865
 21
114.5316556507021
 31
0.0000000000000000
  0
LINE
  5
7F
100
AcDbEntity
  8
MAIN0
  6
CONTINUOUS
 62
3
100
AcDbLine
 10
240.3121296847865
 20
95.30665565071814
 30
0.0000000000000000
 11
240.3121296847865
 21
73.48165565070210
 31
0.0000000000000000
  0
LINE
  5
80
100
AcDbEntity
  8
MAIN0
  6
CONTINUOUS
 62
3
100
AcDbLine
 10
240.3121296847865
 20
95.30665565068611
 30
0.0000000000000000
 11
240.3121296847865
 21
117.1316556507021
 31
0.0000000000000000
  0
LINE
  5
81
100
AcDbEntity
  8
MAIN0
  6
CONTINUOUS
 62
3
100
AcDbLine
 10
251.2021296847865
 20
102.3710981017419
 30
0.0000000000000000
 11
258.2021296847864
 21
102.3710981017420
 31
0.0000000000000000
  0
LINE
  5
82
100
AcDbEntity
  8
MAIN0
  6
CONTINUOUS
 62
3
100
AcDbLine
 10
258.2021296847865
 20
102.3710981017420
 30
0.0000000000000000
 11
258.6021296847865
 21
101.9710981017420
 31
0.0000000000000000
  0
LINE
  5
83
100
AcDbEntity
  8
MAIN0
  6
CENTER
 62
4
100
AcDbLine
 10
331.1661444522470
 20
264.1592584280153
 30
0.0000000000000000
 11
559.3462903436421
 21
264.1592584280153
 31
0.0000000000000000
  0
LINE
  5
84
100
AcDbEntity
  8
MAIN0
  6
CENTER
 62
4
100
AcDbLine
 10
442.9475040864900
 20
155.8563893928176
 30
0.0000000000000000
 11
442.9475040864900
 21
368.7036924599003
 31
0.0000000000000000
  0
LINE
  5
85
100
AcDbEntity
  8
MAIN0
  6
CENTER
 62
12
100
AcDbLine
 10
456.1824039193883
 20
303.9192584280152
 30
0.0000000000000000
 11
427.9479609561195
 21
303.9192584280152
 31
0.0000000000000000
  0
LINE
  5
86
100
AcDbEntity
  8
MAIN0
  6
CENTER
 62
12
100
AcDbLine
 10
426.6874764239727
 20
338.0592584280152
 30
0.0000000000000000
 11
456.4344958190272
 21
338.0592584280152
 31
0.0000000000000000
  0
LINE
  5
87
100
AcDbEntity
  8
MAIN0
  6
CENTER
 62
12
100
AcDbLine
 10
433.6221960016058
 20
224.3992584280154
 30
0.0000000000000000
 11
451.7258640586529
 21
224.3992584280154
 31
0.0000000000000000
  0
LINE
  5
88
100
AcDbEntity
  8
MAIN0
  6
CENTER
 62
12
100
AcDbLine
 10
434.5452104064821
 20
190.2592584280154
 30
0.0000000000000000
 11
452.3056170978513
 21
190.2592584280155
 31
0.0000000000000000
  0
LINE
  5
89
100
AcDbEntity
  8
MAIN0
  6
HIDDEN
 62
4
100
AcDbLine
 10
465.1725040864900
 20
280.8494975001532
 30
0.0000000000000000
 11
465.1725040864900
 21
353.0592584280153
 31
0.0000000000000000
  0
LINE
  5
8A
100
AcDbEntity
  8
MAIN0
  6
CONTINUOUS
 62
3
100
AcDbLine
 10
465.1725040864899
 20
353.0592584280153
 30
0.0000000000000000
 11
465.1725040864899
 21
358.8869701865076
 31
0.0000000000000000
  0
LINE
  5
8B
100
AcDbEntity
  8
MAIN0
  6
HIDDEN
 62
4
100
AcDbLine
 10
420.7225040864900
 20
280.7190193558726
 30
0.0000000000000000
 11
420.7225040864900
 21
353.0592584280153
 31
0.0000000000000000
  0
LINE
  5
8C
100
AcDbEntity
  8
MAIN0
  6
CONTINUOUS
 62
3
100
AcDbLine
 10
420.7225040864900
 20
353.0592584280153
 30
0.0000000000000000
 11
420.7225040864900
 21
358.8869701865076
 31
0.0000000000000000
  0
LINE
  5
8D
100
AcDbEntity
  8
MAIN0
  6
CONTINUOUS
 62
3
100
AcDbLine
 10
450.0675040864900
 20
180.7592584280170
 30
0.0000000000000000
 11
435.8275040864900
 21
180.7592584280169
 31
0.0000000000000000
  0
LINE
  5
8E
100
AcDbEntity
  8
MAIN0
  6
CONTINUOUS
 62
3
100
AcDbLine
 10
450.0675040864900
 20
233.9592584280153
 30
0.0000000000000000
 11
435.8275040864900
 21
233.9592584280153
 31
0.0000000000000000
  0
LINE
  5
8F
100
AcDbEntity
  8
MAIN0
  6
CENTER
 62
4
100
AcDbLine
 10
92.44091332981338
 20
264.1592584280153
 30
0.0000000000000000
 11
241.3382697881918
 21
264.1592584280153
 31
0.0000000000000000
  0
LINE
  5
90
100
AcDbEntity
  8
MAIN0
  6
CONTINUOUS
 62
3
100
AcDbLine
 10
459.9475040864895
 20
242.0592584280144
 30
0.0000000000000000
 11
425.9475040864896
 21
242.0592584280145
 31
0.0000000000000000
  0
LINE
  5
91
100
AcDbEntity
  8
MAIN0
  6
CONTINUOUS
 62
3
100
AcDbLine
 10
258.6714223861253
 20
343.0592584280152
 30
0.0000000000000000
 11
258.6714223861253
 21
347.5642270348387
 31
0.0000000000000000
  0
LINE
  5
92
100
AcDbEntity
  8
MAIN0
  6
CONTINUOUS
 62
3
100
AcDbLine
 10
259.3021296847865
 20
343.0592584280152
 30
0.0000000000000000
 11
259.3021296847865
 21
351.7592584280152
 31
0.0000000000000000
  0
LINE
  5
93
100
AcDbEntity
  8
MAIN0
  6
CONTINUOUS
 62
3
100
AcDbLine
 10
259.3021296847864
 20
287.2592584280106
 30
0.0000000000000000
 11
259.3021296847864
 21
298.9192584280152
 31
0.0000000000000000
  0
LINE
  5
94
100
AcDbEntity
  8
MAIN0
  6
CONTINUOUS
 62
3
100
AcDbLine
 10
259.3021296847864
 20
308.9192584280152
 30
0.0000000000000000
 11
259.3021296847864
 21
333.0592584280152
 31
0.0000000000000000
  0
LINE
  5
95
100
AcDbEntity
  8
MAIN0
  6
CONTINUOUS
 62
3
100
AcDbLine
 10
258.6714223861251
 20
294.7642270348387
 30
0.0000000000000000
 11
258.6714223861251
 21
298.9192584280152
 31
0.0000000000000000
  0
LINE
  5
96
100
AcDbEntity
  8
MAIN0
  6
CONTINUOUS
 62
3
100
AcDbLine
 10
258.6714223861252
 20
308.9192584280152
 30
0.0000000000000000
 11
258.6714223861252
 21
333.0592584280151
 31
0.0000000000000000
  0
LINE
  5
97
100
AcDbEntity
  8
MAIN0
  6
CONTINUOUS
 62
3
100
AcDbLine
 10
288.7021296847863
 20
318.3092584280150
 30
0.0000000000000000
 11
288.7021296847863
 21
324.3092584280150
 31
0.0000000000000000
  0
LINE
  5
98
100
AcDbEntity
  8
MAIN0
  6
CONTINUOUS
 62
3
100
AcDbLine
 10
291.7021296847861
 20
321.3092584280150
 30
0.0000000000000000
 11
285.7021296847869
 21
321.3092584280150
 31
0.0000000000000000
  0
LINE
  5
99
100
AcDbEntity
  8
MAIN0
  6
CONTINUOUS
 62
3
100
AcDbLine
 10
290.8234500283462
 20
323.4305787715750
 30
0.0000000000000000
 11
286.5808093412266
 21
319.1879380844554
 31
0.0000000000000000
  0
LINE
  5
9A
100
AcDbEntity
  8
MAIN0
  6
CONTINUOUS
 62
3
100
AcDbLine
 10
290.8234500283450
 20
319.1879380844563
 30
0.0000000000000000
 11
286.5808093412278
 21
323.4305787715735
 31
0.0000000000000000
  0
LINE
  5
9B
100
AcDbEntity
  8
MAIN0
  6
PHANTOM
 62
12
100
AcDbLine
 10
97.40417834634130
 20
273.2637008790551
 30
0.0000000000000000
 11
95.80417834634130
 21
271.6637008790551
 31
0.0000000000000000
  0
LINE
  5
9C
100
AcDbEntity
  8
MAIN0
  6
PHANTOM
 62
12
100
AcDbLine
 10
97.29973589530155
 20
273.1592584280153
 30
0.0000000000000000
 11
205.8041783463415
 21
273.1592584280153
 31
0.0000000000000000
  0
LINE
  5
9D
100
AcDbEntity
  8
MAIN0
  6
CONTINUOUS
 62
3
100
AcDbLine
 10
205.8041783463413
 20
273.6592584280153
 30
0.0000000000000000
 11
125.0241783463413
 21
273.6592584280153
 31
0.0000000000000000
  0
LINE
  5
9E
100
AcDbEntity
  8
MAIN0
  6
PHANTOM
 62
12
100
AcDbLine
 10
96.29973589530158
 20
272.1592584280153
 30
0.0000000000000000
 11
135.8041783463413
 21
272.1592584280153
 31
0.0000000000000000
  0
LINE
  5
9F
100
AcDbEntity
  8
MAIN0
  6
PHANTOM
 62
12
100
AcDbLine
 10
205.8041783463415
 20
277.6592584280152
 30
0.0000000000000000
 11
222.4041783463413
 21
277.6592584280152
 31
0.0000000000000000
  0
LINE
  5
A0
100
AcDbEntity
  8
MAIN0
  6
PHANTOM
 62
12
100
AcDbLine
 10
222.4041783463414
 20
277.6592584280151
 30
0.0000000000000000
 11
223.8041783463414
 21
276.2592584280151
 31
0.0000000000000000
  0
LINE
  5
A1
100
AcDbEntity
  8
MAIN0
  6
PHANTOM
 62
12
100
AcDbLine
 10
97.29973589530155
 20
255.1592584280153
 30
0.0000000000000000
 11
205.8041783463415
 21
255.1592584280153
 31
0.0000000000000000
  0
LINE
  5
A2
100
AcDbEntity
  8
MAIN0
  6
CONTINUOUS
 62
3
100
AcDbLine
 10
205.8041783463413
 20
254.6592584280153
 30
0.0000000000000000
 11
125.0241783463413
 21
254.6592584280153
 31
0.0000000000000000
  0
LINE
  5
A3
100
AcDbEntity
  8
MAIN0
  6
PHANTOM
 62
12
100
AcDbLine
 10
205.8041783463415
 20
250.6592584280153
 30
0.0000000000000000
 11
222.4041783463413
 21
250.6592584280153
 31
0.0000000000000000
  0
LINE
  5
A4
100
AcDbEntity
  8
MAIN0
  6
PHANTOM
 62
12
100
AcDbLine
 10
222.4041783463414
 20
250.6592584280155
 30
0.0000000000000000
 11
223.8041783463414
 21
252.0592584280154
 31
0.0000000000000000
  0
LINE
  5
A5
100
AcDbEntity
  8
MAIN0
  6
PHANTOM
 62
12
100
AcDbLine
 10
222.4041783463411
 20
251.1592584280153
 30
0.0000000000000000
 11
222.4041783463411
 21
277.1592584280152
 31
0.0000000000000000
  0
LINE
  5
A6
100
AcDbEntity
  8
MAIN0
  6
CONTINUOUS
 62
3
100
AcDbLine
 10
205.8041783463415
 20
249.9092584280153
 30
0.0000000000000000
 11
205.8041783463415
 21
278.4092584280153
 31
0.0000000000000000
  0
LINE
  5
A7
100
AcDbEntity
  8
MAIN0
  6
PHANTOM
 62
12
100
AcDbLine
 10
97.40417834634130
 20
255.0548159769755
 30
0.0000000000000000
 11
95.80417834634130
 21
256.6548159769755
 31
0.0000000000000000
  0
LINE
  5
A8
100
AcDbEntity
  8
MAIN0
  6
PHANTOM
 62
12
100
AcDbLine
 10
96.29973589530158
 20
256.1592584280153
 30
0.0000000000000000
 11
135.8041783463413
 21
256.1592584280153
 31
0.0000000000000000
  0
LINE
  5
A9
100
AcDbEntity
  8
MAIN0
  6
PHANTOM
 62
12
100
AcDbLine
 10
135.8041783463413
 20
255.0548159769755
 30
0.0000000000000000
 11
135.8041783463413
 21
273.2637008790550
 31
0.0000000000000000
  0
LINE
  5
AA
100
AcDbEntity
  8
MAIN0
  6
PHANTOM
 62
12
100
AcDbLine
 10
95.80417834634127
 20
256.6548159769755
 30
0.0000000000000000
 11
95.80417834634127
 21
271.6637008790551
 31
0.0000000000000000
  0
LINE
  5
AB
100
AcDbEntity
  8
MAIN0
  6
CONTINUOUS
 62
3
100
AcDbLine
 10
125.0241783463413
 20
249.4139589663940
 30
0.0000000000000000
 11
125.0241783463413
 21
278.9045578896361
 31
0.0000000000000000
  0
LINE
  5
AC
100
AcDbEntity
  8
MAIN0
  6
CONTINUOUS
 62
3
100
AcDbLine
 10
147.9721296847864
 20
165.1592584280153
 30
0.0000000000000000
 11
147.9721296847864
 21
235.3628543602712
 31
0.0000000000000000
  0
LINE
  5
AD
100
AcDbEntity
  8
MAIN0
  6
CONTINUOUS
 62
3
100
AcDbLine
 10
152.9721296847864
 20
181.1592584280153
 30
0.0000000000000000
 11
152.9721296847864
 21
235.6787038130955
 31
0.0000000000000000
  0
LINE
  5
AE
100
AcDbEntity
  8
MAIN0
  6
CONTINUOUS
 62
3
100
AcDbLine
 10
139.4721296847864
 20
239.1592584280154
 30
0.0000000000000000
 11
151.3721296847864
 21
239.1592584280154
 31
0.0000000000000000
  0
LINE
  5
AF
100
AcDbEntity
  8
MAIN0
  6
CONTINUOUS
 62
3
100
AcDbLine
 10
139.4721296847864
 20
239.1592584280153
 30
0.0000000000000000
 11
138.4721296847864
 21
240.1592584280153
 31
0.0000000000000000
  0
LINE
  5
B0
100
AcDbEntity
  8
MAIN0
  6
CONTINUOUS
 62
3
100
AcDbLine
 10
148.9721296847863
 20
164.1592584280153
 30
0.0000000000000000
 11
147.9721296847863
 21
165.1592584280153
 31
0.0000000000000000
  0
LINE
  5
B1
100
AcDbEntity
  8
MAIN0
  6
CONTINUOUS
 62
3
100
AcDbLine
 10
153.3721296847864
 20
230.1234100146274
 30
0.0000000000000000
 11
153.3721296847864
 21
237.1592584280155
 31
0.0000000000000000
  0
LINE
  5
B2
100
AcDbEntity
  8
MAIN0
  6
CONTINUOUS
 62
3
100
AcDbLine
 10
152.9721296847865
 20
229.1592584280156
 30
0.0000000000000000
 11
153.2817383513291
 21
229.7540111427994
 31
0.0000000000000000
  0
LINE
  5
B3
100
AcDbEntity
  8
MAIN0
  6
CONTINUOUS
 62
3
100
AcDbLine
 10
147.9721296847864
 20
363.1592584280152
 30
0.0000000000000000
 11
147.9721296847864
 21
292.9556624957594
 31
0.0000000000000000
  0
LINE
  5
B4
100
AcDbEntity
  8
MAIN0
  6
CONTINUOUS
 62
3
100
AcDbLine
 10
152.9721296847864
 20
347.1592584280152
 30
0.0000000000000000
 11
152.9721296847864
 21
292.6398130429351
 31
0.0000000000000000
  0
LINE
  5
B5
100
AcDbEntity
  8
MAIN0
  6
CONTINUOUS
 62
3
100
AcDbLine
 10
148.9721296847864
 20
349.1592584280152
 30
0.0000000000000000
 11
151.3721296847863
 21
349.1592584280152
 31
0.0000000000000000
  0
LINE
  5
B6
100
AcDbEntity
  8
MAIN0
  6
CONTINUOUS
 62
3
100
AcDbLine
 10
139.4721296847864
 20
289.1592584280152
 30
0.0000000000000000
 11
151.3721296847864
 21
289.1592584280152
 31
0.0000000000000000
  0
LINE
  5
B7
100
AcDbEntity
  8
MAIN0
  6
CONTINUOUS
 62
3
100
AcDbLine
 10
148.9721296847864
 20
349.1592584280152
 30
0.0000000000000000
 11
147.9721296847863
 21
350.1592584280153
 31
0.0000000000000000
  0
LINE
  5
B8
100
AcDbEntity
  8
MAIN0
  6
CONTINUOUS
 62
3
100
AcDbLine
 10
139.4721296847864
 20
289.1592584280153
 30
0.0000000000000000
 11
138.4721296847864
 21
288.1592584280153
 31
0.0000000000000000
  0
LINE
  5
B9
100
AcDbEntity
  8
MAIN0
  6
CONTINUOUS
 62
3
100
AcDbLine
 10
148.9721296847863
 20
364.1592584280153
 30
0.0000000000000000
 11
147.9721296847863
 21
363.1592584280153
 31
0.0000000000000000
  0
LINE
  5
BA
100
AcDbEntity
  8
MAIN0
  6
CONTINUOUS
 62
3
100
AcDbLine
 10
153.3721296847864
 20
298.1951068414031
 30
0.0000000000000000
 11
153.3721296847864
 21
291.1592584280151
 31
0.0000000000000000
  0
LINE
  5
BB
100
AcDbEntity
  8
MAIN0
  6
CONTINUOUS
 62
3
100
AcDbLine
 10
152.9721296847865
 20
299.1592584280149
 30
0.0000000000000000
 11
153.2817383513291
 21
298.5645057132312
 31
0.0000000000000000
  0
LINE
  5
BC
100
AcDbEntity
  8
MAIN0
  6
CONTINUOUS
 62
3
100
AcDbLine
 10
152.3326207482719
 20
349.6592584280152
 30
0.0000000000000000
 11
152.5721296847864
 21
349.6592584280153
 31
0.0000000000000000
  0
LINE
  5
BD
100
AcDbEntity
  8
MAIN0
  6
CONTINUOUS
 62
3
100
AcDbLine
 10
153.2817383513289
 20
347.7540111427988
 30
0.0000000000000000
 11
152.9721296847863
 21
347.1592584280152
 31
0.0000000000000000
  0
LINE
  5
BE
100
AcDbEntity
  8
MAIN0
  6
CONTINUOUS
 62
3
100
AcDbLine
 10
152.3326207482720
 20
349.6592584280153
 30
0.0000000000000000
 11
151.3721296847864
 21
349.1592584280152
 31
0.0000000000000000
  0
LINE
  5
BF
100
AcDbEntity
  8
MAIN0
  6
CONTINUOUS
 62
3
100
AcDbLine
 10
153.3721296847864
 20
348.1234100333869
 30
0.0000000000000000
 11
153.3721296847863
 21
348.8592584280153
 31
0.0000000000000000
  0
LINE
  5
C0
100
AcDbEntity
  8
MAIN0
  6
CENTER
 62
12
100
AcDbLine
 10
150.5127968605652
 20
339.1592584280153
 30
0.0000000000000000
 11
162.4403888965704
 21
339.1592584280153
 31
0.0000000000000000
  0
ARC
  5
C1
100
AcDbEntity
  8
MAIN0
  6
CONTINUOUS
 62
3
100
AcDbCircle
 10
442.9475040864900
 20
264.1592584280153
 30
0.0000000000000000
 40
97.29999999999996
100
AcDbArc
 50
76.82366578211256
 51
103.1763342178860
  0
ARC
  5
C2
100
AcDbEntity
  8
MAIN0
  6
CONTINUOUS
 62
3
100
AcDbCircle
 10
442.9475040864895
 20
264.1592584280144
 30
0.0000000000000000
 40
97.29999999999996
100
AcDbArc
 50
256.8236657821135
 51
283.1763342178869
  0
ARC
  5
C3
100
AcDbEntity
  8
MAIN0
  6
CENTER
 62
12
100
AcDbCircle
 10
442.9475040864900
 20
264.1592584280153
 30
0.0000000000000000
 40
22.00000000000000
100
AcDbArc
 50
5.738370373552464
 51
47.40854021611948
  0
ARC
  5
C4
100
AcDbEntity
  8
MAIN0
  6
CENTER
 62
12
100
AcDbCircle
 10
442.9475040864900
 20
264.1592584280153
 30
0.0000000000000000
 40
22.00000000000000
100
AcDbArc
 50
129.0612462214805
 51
174.9874073083122
  0
ARC
  5
C5
100
AcDbEntity
  8
MAIN0
  6
CONTINUOUS
 62
3
100
AcDbCircle
 10
462.0000629697476
 20
275.1592584280153
 30
0.0000000000000000
 40
7.000000000000000
100
AcDbArc
 50
147.6714199869901
 51
419.3441637677619
  0
ARC
  5
C6
100
AcDbEntity
  8
MAIN0
  6
CONTINUOUS
 62
3
100
AcDbCircle
 10
423.8949452032323
 20
275.1592584280153
 30
0.0000000000000000
 40
7.000000000000000
100
AcDbArc
 50
120.6558362322275
 51
392.3285800130097
  0
ARC
  5
C7
100
AcDbEntity
  8
MAIN0
  6
CONTINUOUS
 62
3
100
AcDbCircle
 10
248.4521296847865
 20
87.36109810174190
 30
0.0000000000000000
 40
2.750000000000000
100
AcDbArc
 50
179.9999999999998
 51
359.9999999999998
  0
ARC
  5
C8
100
AcDbEntity
  8
MAIN0
  6
CONTINUOUS
 62
3
100
AcDbCircle
 10
248.4521296847865
 20
103.4610981017419
 30
0.0000000000000000
 40
2.750000000000000
100
AcDbArc
 50
6.462887112733866e-012
 51
180.0000000000066
  0
CIRCLE
  5
C9
100
AcDbEntity
  8
MAIN0
  6
CONTINUOUS
 62
3
100
AcDbCircle
 10
442.9475040864900
 20
303.9192584280152
 30
0.0000000000000000
 40
10.00000000000000
  0
CIRCLE
  5
CA
100
AcDbEntity
  8
MAIN0
  6
CONTINUOUS
 62
3
100
AcDbCircle
 10
442.9475040864900
 20
338.0592584280151
 30
0.0000000000000000
 40
10.00000000000000
  0
CIRCLE
  5
CB
100
AcDbEntity
  8
MAIN0
  6
CONTINUOUS
 62
12
100
AcDbCircle
 10
442.9475040864878
 20
190.2592584280184
 30
0.0000000000000000
 40
6.000000000000000
  0
CIRCLE
  5
CC
100
AcDbEntity
  8
MAIN0
  6
CONTINUOUS
 62
12
100
AcDbCircle
 10
442.9475040864896
 20
224.3992584280153
 30
0.0000000000000000
 40
6.000000000000000
  0
CIRCLE
  5
CD
100
AcDbEntity
  8
MAIN0
  6
CONTINUOUS
 62
3
100
AcDbCircle
 10
442.9475040864878
 20
190.2592584280184
 30
0.0000000000000000
 40
5.000000000000000
  0
CIRCLE
  5
CE
100
AcDbEntity
  8
MAIN0
  6
CONTINUOUS
 62
3
100
AcDbCircle
 10
442.9475040864896
 20
224.3992584280153
 30
0.0000000000000000
 40
5.000000000000000
  0
ARC
  5
CF
100
AcDbEntity
  8
MAIN0
  6
CONTINUOUS
 62
3
100
AcDbCircle
 10
469.9113254754634
 20
193.8581240243461
 30
0.0000000000000000
 40
5.500000000000000
100
AcDbArc
 50
210.5028527719699
 51
509.4971472280310
  0
ARC
  5
D0
100
AcDbEntity
  8
MAIN0
  6
CONTINUOUS
 62
3
100
AcDbCircle
 10
469.9113254754635
 20
193.8581240243461
 30
0.0000000000000000
 40
4.999999999999996
100
AcDbArc
 50
201.7339412926619
 51
521.3992577300922
  0
ARC
  5
D1
100
AcDbEntity
  8
MAIN0
  6
CONTINUOUS
 62
3
100
AcDbCircle
 10
415.9836826975148
 20
220.1603928316878
 30
0.0000000000000000
 40
5.500000000000000
100
AcDbArc
 50
30.50285277197415
 51
329.4971472280250
  0
ARC
  5
D2
100
AcDbEntity
  8
MAIN0
  6
CONTINUOUS
 62
3
100
AcDbCircle
 10
152.5721296847864
 20
230.1234100333875
 30
0.0000000000000000
 40
0.7999999999999999
100
AcDbArc
 50
332.5000000000006
 51
359.9999999999998
  0
ARC
  5
D3
100
AcDbEntity
  8
MAIN0
  6
CONTINUOUS
 62
3
100
AcDbCircle
 10
151.3721296847864
 20
237.1592584280155
 30
0.0000000000000000
 40
2.000000000000000
100
AcDbArc
 50
0.0000000000000000
 51
89.99999999999970
  0
ARC
  5
D4
100
AcDbEntity
  8
MAIN0
  6
CONTINUOUS
 62
3
100
AcDbCircle
 10
152.5721296847864
 20
298.1951068226431
 30
0.0000000000000000
 40
0.7999999999999999
100
AcDbArc
 50
359.9999999999998
 51
387.4999999999992
  0
ARC
  5
D5
100
AcDbEntity
  8
MAIN0
  6
CONTINUOUS
 62
3
100
AcDbCircle
 10
152.5721296847863
 20
348.8592584280153
 30
0.0000000000000000
 40
0.7999999999999999
100
AcDbArc
 50
359.9999999999998
 51
449.9999999999999
  0
ARC
  5
D6
100
AcDbEntity
  8
MAIN0
  6
CONTINUOUS
 62
3
100
AcDbCircle
 10
152.5721296847863
 20
348.1234100333869
 30
0.0000000000000000
 40
0.7999999999999999
100
AcDbArc
 50
332.4999999999981
 51
359.9999999999998
  0
ARC
  5
D7
100
AcDbEntity
  8
MAIN0
  6
CONTINUOUS
 62
3
100
AcDbCircle
 10
151.3721296847864
 20
291.1592584280151
 30
0.0000000000000000
 40
2.000000000000000
100
AcDbArc
 50
269.9999999999999
 51
359.9999999999998
  0
DIMENSION
  5
E0
100
AcDbEntity
  8
MAIN10
  6
CONTINUOUS
 62
12
100
AcDbDimension
  2
*D0
 10
235.9721296847865
 20
388.5563583026593
 30
0.0000000000000000
 11
247.6371296847864
 21
389.0563583026593
 31
0.0000000000000000
 70
32
  3
MAIN001
100
AcDbAlignedDimension
 13
259.3021296847864
 23
352.5592584399362
 33
0.0000000000000000
 14
235.9721296847865
 24
362.9592584399361
 34
0.0000000000000000
100
AcDbRotatedDimension
1001
ACAD
1000
DSTYLE
1002
{
1070
   173
1070
     1
1070
     6
1000
_OPEN
1070
     7
1000
_OPEN
1070
    41
1040
1.910672
1002
}
  0
DIMENSION
  5
E9
100
AcDbEntity
  8
MAIN10
  6
CONTINUOUS
 62
12
100
AcDbDimension
  2
*D1
 10
259.3021296847864
 20
388.5563583026593
 30
0.0000000000000000
 11
286.3871296847864
 21
389.0563583026593
 31
0.0000000000000000
 70
32
  3
MAIN001
100
AcDbAlignedDimension
 13
313.4721296847865
 23
352.8592584399362
 33
0.0000000000000000
 14
259.3021296847864
 24
352.5592584399362
 34
0.0000000000000000
100
AcDbRotatedDimension
1001
ACAD
1000
DSTYLE
1002
{
1070
   173
1070
     1
1070
     6
1000
_OPEN
1070
     7
1000
_OPEN
1070
    41
1040
1.910672
1002
}
  0
DIMENSION
  5
F1
100
AcDbEntity
  8
MAIN10
  6
CONTINUOUS
 62
12
100
AcDbDimension
  2
*D2
 10
219.9721296847865
 20
214.1466903551759
 30
0.0000000000000000
 11
227.9721296847865
 21
214.6466903551759
 31
0.0000000000000000
 70
32
  3
MAIN001
100
AcDbAlignedDimension
 13
235.9721296847865
 23
166.1592584280153
 33
0.0000000000000000
 14
219.9721296847865
 24
207.4842584280153
 34
0.0000000000000000
100
AcDbRotatedDimension
1001
ACAD
1000
DSTYLE
1002
{
1070
   173
1070
     1
1070
     6
1000
_OPEN
1070
     7
1000
_OPEN
1070
    41
1040
1.910672
1002
}
  0
DIMENSION
  5
FA
100
AcDbEntity
  8
MAIN10
  6
CONTINUOUS
 62
12
100
AcDbDimension
  2
*D3
 10
337.3021232461879
 20
279.0592584280151
 30
0.0000000000000000
 11
336.8021232461879
 21
316.0592584280152
 31
0.0000000000000000
 70
32
  3
MAIN001
100
AcDbAlignedDimension
 13
313.2721296967074
 23
353.0592584280153
 33
0.0000000000000000
 14
312.4721296847865
 24
279.0592584280151
 34
0.0000000000000000
 50
90.00000000000000
100
AcDbRotatedDimension
1001
ACAD
1000
DSTYLE
1002
{
1070
   173
1070
     1
1070
     6
1000
_OPEN
1070
     7
1000
_OPEN
1070
    41
1040
1.910672
1002
}
  0
DIMENSION
  5
103
100
AcDbEntity
  8
MAIN10
  6
CONTINUOUS
 62
12
100
AcDbDimension
  2
*D4
 10
84.48385094038540
 20
248.2592584280154
 30
0.0000000000000000
 11
83.98385094038540
 21
264.1592584280154
 31
0.0000000000000000
 70
32
  1
\A1;\U+220531.8
  3
MAIN001
100
AcDbAlignedDimension
 13
126.2241783344203
 23
280.0592584280154
 33
0.0000000000000000
 14
126.2241783344203
 24
248.2592584280154
 34
0.0000000000000000
 50
90.00000000000000
100
AcDbRotatedDimension
1001
ACAD
1000
DSTYLE
1002
{
1070
   173
1070
     1
1070
     6
1000
_OPEN
1070
     7
1000
_OPEN
1070
    41
1040
1.910672
1002
}
  0
DIMENSION
  5
10C
100
AcDbEntity
  8
MAIN10
  6
CONTINUOUS
 62
12
100
AcDbDimension
  2
*D5
 10
253.5973928300638
 20
187.4842584280153
 30
0.0000000000000000
 11
253.0973928300638
 21
197.4842584280154
 31
0.0000000000000000
 70
32
  1
\A1;\U+220520
  3
MAIN001
100
AcDbAlignedDimension
 13
235.3721296847865
 23
207.4842584280154
 33
0.0000000000000000
 14
235.3721296847864
 24
187.4842584280153
 34
0.0000000000000000
 50
90.00000000000000
100
AcDbRotatedDimension
1001
ACAD
1000
DSTYLE
1002
{
1070
   173
1070
     1
1070
     6
1000
_OPEN
1070
     7
1000
_OPEN
1070
    41
1040
1.910672
1002
}
  0
DIMENSION
  5
115
100
AcDbEntity
  8
MAIN10
  6
CONTINUOUS
 62
12
100
AcDbDimension
  2
*D6
 10
48.69461344587597
 20
164.1592584280153
 30
0.0000000000000000
 11
48.19461344587597
 21
264.1592584280153
 31
0.0000000000000000
 70
32
  1
\A1;\U+2205200
  3
MAIN001
100
AcDbAlignedDimension
 13
148.1721296728654
 23
364.1592584280152
 33
0.0000000000000000
 14
148.1721296728654
 24
164.1592584280153
 34
0.0000000000000000
 50
90.00000000000000
100
AcDbRotatedDimension
1001
ACAD
1000
DSTYLE
1002
{
1070
   173
1070
     1
1070
     6
1000
_OPEN
1070
     7
1000
_OPEN
1070
    41
1040
1.910672
1002
}
  0
DIMENSION
  5
11D
100
AcDbEntity
  8
MAIN10
  6
CONTINUOUS
 62
12
100
AcDbDimension
  2
*D7
 10
195.9062707033254
 20
190.7342584280154
 30
0.0000000000000000
 11
195.4062707033254
 21
210.7407791664274
 31
0.0000000000000000
 70
160
  1
\A1;\U+220513.5
  3
MAIN001
100
AcDbAlignedDimension
 13
166.5721296847865
 23
204.2342584280154
 33
0.0000000000000000
 14
166.5721296847865
 24
190.7342584280154
 34
0.0000000000000000
 50
90.00000000000000
100
AcDbRotatedDimension
1001
ACAD
1000
DSTYLE
1002
{
1070
   173
1070
     1
1070
     6
1000
_OPEN
1070
     7
1000
_OPEN
1070
    41
1040
1.910672
1002
}
  0
DIMENSION
  5
126
100
AcDbEntity
  8
MAIN10
  6
CONTINUOUS
 62
12
100
AcDbDimension
  2
*D8
 10
414.4475040864900
 20
388.5563583026593
 30
0.0000000000000000
 11
442.9475040864900
 21
389.0563583026593
 31
0.0000000000000000
 70
32
  3
MAIN001
100
AcDbAlignedDimension
 13
471.4475040864900
 23
352.0592584280153
 33
0.0000000000000000
 14
414.4475040864900
 24
352.0592584280152
 34
0.0000000000000000
100
AcDbRotatedDimension
1001
ACAD
1000
DSTYLE
1002
{
1070
   173
1070
     1
1070
     6
1000
_OPEN
1070
     7
1000
_OPEN
1070
    41
1040
1.910672
1002
}
  0
DIMENSION
  5
12F
100
AcDbEntity
  8
MAIN10
  6
CONTINUOUS
 62
12
100
AcDbDimension
  2
*D9
 10
259.3021296847864
 20
377.7710485631672
 30
0.0000000000000000
 11
274.0021296847864
 21
378.2710485631672
 31
0.0000000000000000
 70
32
  3
MAIN001
100
AcDbAlignedDimension
 13
288.7021296847863
 23
324.3092584280150
 33
0.0000000000000000
 14
259.3021296847865
 24
351.7592584280152
 34
0.0000000000000000
100
AcDbRotatedDimension
1001
ACAD
1000
DSTYLE
1002
{
1070
   173
1070
     1
1070
     6
1000
_OPEN
1070
     7
1000
_OPEN
1070
    41
1040
1.910672
1002
}
  0
DIMENSION
  5
138
100
AcDbEntity
  8
MAIN10
  6
CONTINUOUS
 62
12
100
AcDbDimension
  2
*D10
 10
72.44156389967057
 20
289.1592584280151
 30
0.0000000000000000
 11
71.94156389967057
 21
264.1592584280153
 31
0.0000000000000000
 70
32
  1
\A1;\U+220550
  3
MAIN001
100
AcDbAlignedDimension
 13
138.6721296728654
 23
239.1592584280155
 33
0.0000000000000000
 14
138.6721296728654
 24
289.1592584280151
 34
0.0000000000000000
 50
90.00000000000000
100
AcDbRotatedDimension
1001
ACAD
1000
DSTYLE
1002
{
1070
   173
1070
     1
1070
     6
1000
_OPEN
1070
     7
1000
_OPEN
1070
    41
1040
1.910672
1002
}
  0
DIMENSION
  5
141
100
AcDbEntity
  8
MAIN10
  6
CONTINUOUS
 62
12
100
AcDbDimension
  2
*D11
 10
125.0241783463413
 20
138.6375357339368
 30
0.0000000000000000
 11
136.4981540155638
 21
139.1375357339368
 31
0.0000000000000000
 70
32
  1
\A1;MAX 29.3
  3
MAIN001
100
AcDbAlignedDimension
 13
147.9721296847864
 23
165.1592584280153
 33
0.0000000000000000
 14
125.0241783463413
 24
249.4139589663940
 34
0.0000000000000000
100
AcDbRotatedDimension
1001
ACAD
1000
DSTYLE
1002
{
1070
   173
1070
     1
1070
     6
1000
_OPEN
1070
     7
1000
_OPEN
1070
    41
1040
1.910672
1002
}
  0
DIMENSION
  5
14A
100
AcDbEntity
  8
MAIN10
  6
CONTINUOUS
 62
12
100
AcDbDimension
  2
*D12
 10
147.9721296847864
 20
138.6375357339368
 30
0.0000000000000000
 11
191.9721296847864
 21
139.1375357339368
 31
0.0000000000000000
 70
32
  3
MAIN001
100
AcDbAlignedDimension
 13
235.9721296847865
 23
166.1592584280153
 33
0.0000000000000000
 14
147.9721296847864
 24
165.1592584280153
 34
0.0000000000000000
100
AcDbRotatedDimension
1001
ACAD
1000
DSTYLE
1002
{
1070
   173
1070
     1
1070
     6
1000
_OPEN
1070
     7
1000
_OPEN
1070
    41
1040
1.910672
1002
}
  0
DIMENSION
  5
152
100
AcDbEntity
  8
MAIN10
  6
CONTINUOUS
 62
12
100
AcDbDimension
  2
*D13
 10
138.4721296847864
 20
304.4893802397851
 30
0.0000000000000000
 11
142.9080026726105
 21
304.9893802397851
 31
0.0000000000000000
 70
160
  3
MAIN001
100
AcDbAlignedDimension
 13
152.9721296847864
 23
347.1592584280152
 33
0.0000000000000000
 14
138.4721296847864
 24
288.9592584399360
 34
0.0000000000000000
100
AcDbRotatedDimension
1001
ACAD
1000
DSTYLE
1002
{
1070
   173
1070
     1
1070
     6
1000
_OPEN
1070
     7
1000
_OPEN
1070
    41
1040
1.910672
1002
}
  0
DIMENSION
  5
15A
100
AcDbEntity
  8
MAIN10
  6
CONTINUOUS
 62
12
100
AcDbDimension
  2
*D14
 10
134.9721296847865
 20
214.1466903551759
 30
0.0000000000000000
 11
143.9721296847864
 21
214.6466903551759
 31
0.0000000000000000
 70
32
  3
MAIN001
100
AcDbAlignedDimension
 13
152.9721296847864
 23
181.1592584280153
 33
0.0000000000000000
 14
134.9721296847865
 24
203.4842584280152
 34
0.0000000000000000
100
AcDbRotatedDimension
1001
ACAD
1000
DSTYLE
1002
{
1070
   173
1070
     1
1070
     6
1000
_OPEN
1070
     7
1000
_OPEN
1070
    41
1040
1.910672
1002
}
  0
DIMENSION
  5
163
100
AcDbEntity
  8
MAIN10
  6
CONTINUOUS
 62
12
100
AcDbDimension
  2
*D15
 10
95.80417834634127
 20
228.4412382409938
 30
0.0000000000000000
 11
110.4141783463413
 21
228.9412382409938
 31
0.0000000000000000
 70
32
  1
\A1;29.2
  3
MAIN001
100
AcDbAlignedDimension
 13
125.0241783463413
 23
249.4139589663940
 33
0.0000000000000000
 14
95.80417834634127
 24
256.6548159769755
 34
0.0000000000000000
100
AcDbRotatedDimension
1001
ACAD
1000
DSTYLE
1002
{
1070
   173
1070
     1
1070
     6
1000
_OPEN
1070
     7
1000
_OPEN
1070
    41
1040
1.910672
1002
}
  0
LINE
  5
164
100
AcDbEntity
  8
MAIN0
  6
CONTINUOUS
 62
3
100
AcDbLine
 10
425.9475040864895
 20
242.0592584280145
 30
0.0000000000000000
 11
420.7225040864896
 21
233.0092929584657
 31
0.0000000000000000
  0
LINE
  5
165
100
AcDbEntity
  8
MAIN0
  6
CONTINUOUS
 62
3
100
AcDbLine
 10
459.9475040864894
 20
242.0592584280145
 30
0.0000000000000000
 11
465.1725040864895
 21
233.0092929584670
 31
0.0000000000000000
  0
LINE
  5
166
100
AcDbEntity
  8
MAIN0
  6
CONTINUOUS
 62
3
100
AcDbLine
 10
205.8041783463415
 20
278.4092584280153
 30
0.0000000000000000
 11
223.8041783463413
 21
278.4092584280153
 31
0.0000000000000000
  0
LINE
  5
167
100
AcDbEntity
  8
MAIN0
  6
CONTINUOUS
 62
3
100
AcDbLine
 10
205.8041783463415
 20
249.9092584280153
 30
0.0000000000000000
 11
223.8041783463413
 21
249.9092584280153
 31
0.0000000000000000
  0
LINE
  5
168
100
AcDbEntity
  8
MAIN0
  6
PHANTOM
 62
3
100
AcDbLine
 10
97.29973589530155
 20
273.1592584280153
 30
0.0000000000000000
 11
97.29973589530155
 21
255.1592584280153
 31
0.0000000000000000
  0
SPLINE
  5
169
100
AcDbEntity
  8
MAIN0
  6
CONTINUOUS
 62
3
100
AcDbSpline
210
0.0000000000000000
220
0.0000000000000000
230
1.000000000000000
 70
     8
 71
     3
 72
    10
 73
     6
 74
     0
 42
1.000000000000000e-007
 43
1.000000000000000e-007
 12
-0.9993382122327716
 22
0.2828704327612002
 32
0.0000000000000000
 13
-0.9852968944044278
 23
0.3643311476589020
 33
0.0000000000000000
 40
0.0000000000000000
 40
0.0000000000000000
 40
0.0000000000000000
 40
0.0000000000000000
 40
1.943140460894019
 40
2.951086676732846
 40
4.820870317950067
 40
4.820870317950067
 40
4.820870317950067
 40
4.820870317950067
 10
235.9721296847865
 20
125.1383727014964
 30
0.0000000000000000
 10
235.3248448466842
 20
125.3215916958593
 30
0.0000000000000000
 10
234.3418002854608
 20
125.5998500843137
 30
0.0000000000000000
 10
232.7934592464081
 20
124.9371946201508
 30
0.0000000000000000
 10
231.8483198160441
 20
125.2866768273086
 30
0.0000000000000000
 10
231.2342224777443
 20
125.5137503006015
 30
0.0000000000000000
  0
SPLINE
  5
16A
100
AcDbEntity
  8
MAIN0
  6
CONTINUOUS
 62
3
100
AcDbSpline
210
0.0000000000000000
220
0.0000000000000000
230
1.000000000000000
 70
     8
 71
     3
 72
    10
 73
     6
 74
     0
 42
1.000000000000000e-007
 43
1.000000000000000e-007
 12
-0.8167422477728223
 22
0.7204153414811430
 32
0.0000000000000000
 13
-0.8417526766299943
 23
0.6692209078611313
 33
0.0000000000000000
 40
0.0000000000000000
 40
0.0000000000000000
 40
0.0000000000000000
 40
0.0000000000000000
 40
1.674382815911985
 40
3.524083478314776
 40
5.055641206232103
 40
5.055641206232103
 40
5.055641206232103
 40
5.055641206232103
 10
235.9721296847865
 20
62.68398506143853
 30
0.0000000000000000
 10
235.5162832898864
 20
63.08606875080366
 30
0.0000000000000000
 10
234.5568606694137
 20
63.93233668494966
 30
0.0000000000000000
 10
232.7349133019479
 20
62.93531044522513
 30
0.0000000000000000
 10
231.7861855351380
 20
63.68958004845280
 30
0.0000000000000000
 10
231.3564545961755
 20
64.03123019949231
 30
0.0000000000000000
  0
LINE
  5
16B
100
AcDbEntity
  8
MAIN0
  6
CENTER
 62
12
100
AcDbLine
 10
371.8486662609462
 20
223.1103252703674
 30
0.0000000000000000
 11
399.8641851399880
 21
239.2850926366692
 31
0.0000000000000000
  0
LINE
  5
16C
100
AcDbEntity
  8
MAIN0
  6
CENTER
 62
12
100
AcDbLine
 10
514.0463419120326
 20
223.1103252703680
 30
0.0000000000000000
 11
486.0308230329919
 21
239.2850926366692
 31
0.0000000000000000
  0
CIRCLE
  5
16D
100
AcDbEntity
  8
MAIN0
  6
CONTINUOUS
 62
3
100
AcDbCircle
 10
500.6897478838154
 20
230.8217584280154
 30
0.0000000000000000
 40
6.750000000000000
  0
CIRCLE
  5
16E
100
AcDbEntity
  8
MAIN0
  6
CONTINUOUS
 62
3
100
AcDbCircle
 10
500.6897478838154
 20
230.8217584280154
 30
0.0000000000000000
 40
10.00000000000000
  0
ARC
  5
16F
100
AcDbEntity
  8
MAIN0
  6
CENTER
 62
12
100
AcDbCircle
 10
442.9475040864899
 20
264.1592584280153
 30
0.0000000000000000
 40
66.67499999999996
100
AcDbArc
 50
317.3080069559233
 51
343.2670039494045
  0
DIMENSION
  5
178
100
AcDbEntity
  8
MAIN0
  6
CONTINUOUS
 62
3
100
AcDbDimension
  2
*D16
 10
514.0463419120326
 20
223.1103252703680
 30
0.0000000000000000
 11
499.5033991540540
 21
166.2015747034333
 31
0.0000000000000000
 70
162
  3
MAIN001
100
AcDb2LineAngularDimension
 13
442.9475040864900
 23
155.8563893928176
 33
0.0000000000000000
 14
442.9475040864900
 24
156.8563893928176
 34
0.0000000000000000
 15
513.1803165082483
 25
223.6103252703680
 35
0.0000000000000000
 16
499.7533991540539
 26
165.7685620015410
 36
0.0000000000000000
1001
ACAD
1000
DSTYLE
1002
{
1070
   173
1070
     1
1070
     6
1000
_OPEN
1070
     7
1000
_OPEN
1070
    41
1040
2.000000
1002
}
  0
DIMENSION
  5
180
100
AcDbEntity
  8
MAIN0
  6
CONTINUOUS
 62
3
100
AcDbDimension
  2
*D17
 10
556.5592942216410
 20
264.1592584280020
 30
0.0000000000000000
 11
552.2051034358181
 21
234.8837729153857
 31
0.0000000000000000
 70
162
  3
MAIN001
100
AcDb2LineAngularDimension
 13
514.0463419120326
 23
223.1103252703680
 33
0.0000000000000000
 14
513.1803165082483
 24
223.6103252703680
 34
0.0000000000000000
 15
442.9475040864900
 25
264.1592584280146
 35
0.0000000000000000
 16
552.6880663489625
 26
234.7543633928344
 36
0.0000000000000000
1001
ACAD
1000
DSTYLE
1002
{
1070
   173
1070
     1
1070
     6
1000
_OPEN
1070
     7
1000
_OPEN
1070
    41
1040
2.000000
1002
}
  0
DIMENSION
  5
188
100
AcDbEntity
  8
MAIN0
  6
CONTINUOUS
 62
3
100
AcDbDimension
  2
*D18
 10
522.3043723984479
 20
285.4228672060674
 30
0.0000000000000000
 11
555.0916071767783
 21
278.9233096895501
 31
0.0000000000000000
 70
162
  3
MAIN001
100
AcDb2LineAngularDimension
 13
556.5592942216410
 23
264.1592584280020
 33
0.0000000000000000
 14
442.9475040864900
 24
264.1592584280146
 34
0.0000000000000000
 15
521.3384465721588
 25
285.1640481609649
 35
0.0000000000000000
 16
555.5873296074653
 26
278.9885727856602
 36
0.0000000000000000
1001
ACAD
1000
DSTYLE
1002
{
1070
   173
1070
     1
1070
     6
1000
_OPEN
1070
     7
1000
_OPEN
1070
    41
1040
2.000000
1002
}
  0
DIMENSION
  5
191
100
AcDbEntity
  8
MAIN0
  6
CONTINUOUS
 62
3
100
AcDbDimension
  2
*D19
 10
514.0463419120326
 20
305.2081915856626
 30
0.0000000000000000
 11
547.4491718780678
 21
307.4452665178948
 31
0.0000000000000000
 70
162
  3
MAIN001
100
AcDb2LineAngularDimension
 13
522.3043723984479
 23
285.4228672060674
 33
0.0000000000000000
 14
521.3384465721588
 24
285.1640481609649
 34
0.0000000000000000
 15
513.1803165082481
 25
304.7081915856626
 35
0.0000000000000000
 16
547.9111116443235
 26
307.6366082340773
 36
0.0000000000000000
1001
ACAD
1000
DSTYLE
1002
{
1070
   173
1070
     1
1070
     6
1000
_OPEN
1070
     7
1000
_OPEN
1070
    41
1040
2.000000
1002
}
  0
DIMENSION
  5
19A
100
AcDbEntity
  8
MAIN0
  6
CONTINUOUS
 62
3
100
AcDbDimension
  2
*D20
 10
442.9475040864900
 20
368.7036924599003
 30
0.0000000000000000
 11
500.0033991540656
 21
362.9829675563755
 31
0.0000000000000000
 70
162
  3
MAIN001
100
AcDb2LineAngularDimension
 13
514.0463419120326
 23
305.2081915856626
 33
0.0000000000000000
 14
513.1803165082482
 24
304.7081915856626
 34
0.0000000000000000
 15
442.9475040864900
 25
367.7036924599003
 35
0.0000000000000000
 16
499.7533991540656
 26
362.5499548544833
 36
0.0000000000000000
1001
ACAD
1000
DSTYLE
1002
{
1070
   173
1070
     1
1070
     6
1000
_OPEN
1070
     7
1000
_OPEN
1070
    41
1040
2.000000
1002
}
  0
DIMENSION
  5
1A1
100
AcDbEntity
  8
MAIN0
  6
CONTINUOUS
 62
3
100
AcDbDimension
  2
*D21
 10
442.9475040864900
 20
264.1592584280153
 30
0.0000000000000000
 11
497.7327781397956
 21
315.4431487475304
 31
0.0000000000000000
 70
164
  3
MAIN001
100
AcDbRadialDimension
 15
491.9261671916969
 25
309.3991322720772
 35
0.0000000000000000
1001
ACAD
1000
DSTYLE
1002
{
1070
   173
1070
     1
1070
     6
1000
_OPEN
1070
     7
1000
_OPEN
1070
    41
1040
2.000000
1070
   272
1070
     3
1070
    47
1040
0.152000
1070
    48
1040
0.152000
1070
    71
1070
     1
1070
   340
1005
1A2
1002
}
  0
DIMENSION
  5
1A8
100
AcDbEntity
  8
MAIN0
  6
CONTINUOUS
 62
3
100
AcDbDimension
  2
*D22
 10
442.9475040864900
 20
264.1592584280153
 30
0.0000000000000000
 11
486.0988957516118
 21
271.0038653247822
 31
0.0000000000000000
 70
164
  3
MAIN001
100
AcDbRadialDimension
 15
517.1513098909669
 25
275.0585796973179
 35
0.0000000000000000
1001
ACAD
1000
DSTYLE
1002
{
1070
   173
1070
     1
1070
     6
1000
_OPEN
1070
     7
1000
_OPEN
1070
    41
1040
2.000000
1070
   272
1070
     1
1070
    47
1040
0.100000
1070
    48
1040
0.100000
1070
    71
1070
     1
1070
   340
1005
1A2
1002
}
  0
LINE
  5
1A9
100
AcDbEntity
  8
MAIN0
  6
CONTINUOUS
 62
3
100
AcDbLine
 10
465.1725040864900
 20
169.4315466695226
 30
0.0000000000000000
 11
465.1725040864895
 21
233.0092929584670
 31
0.0000000000000000
  0
LINE
  5
1AA
100
AcDbEntity
  8
MAIN0
  6
CONTINUOUS
 62
3
100
AcDbLine
 10
479.4166691441112
 20
205.5092584280154
 30
0.0000000000000000
 11
465.1725040864903
 21
205.5092584280154
 31
0.0000000000000000
  0
LINE
  5
1AB
100
AcDbEntity
  8
MAIN0
  6
CONTINUOUS
 62
3
100
AcDbLine
 10
479.4475040864919
 20
207.0092584280153
 30
0.0000000000000000
 11
465.1725040864897
 21
207.0092584280153
 31
0.0000000000000000
  0
LINE
  5
1AC
100
AcDbEntity
  8
MAIN0
  6
CONTINUOUS
 62
3
100
AcDbLine
 10
479.4166691441110
 20
208.5092584280154
 30
0.0000000000000000
 11
465.1725040864902
 21
208.5092584280154
 31
0.0000000000000000
  0
LINE
  5
1AD
100
AcDbEntity
  8
MAIN0
  6
CENTER
 62
12
100
AcDbLine
 10
239.1541702396287
 20
176.5943537682597
 30
0.0000000000000000
 11
206.5602840473101
 21
176.5943537682598
 31
0.0000000000000000
  0
SPLINE
  5
1AE
100
AcDbEntity
  8
MAIN0
  6
CONTINUOUS
 62
4
100
AcDbSpline
210
0.0000000000000000
220
0.0000000000000000
230
1.000000000000000
 70
     8
 71
     3
 72
    17
 73
    13
 74
     0
 42
1.000000000000000e-007
 43
1.000000000000000e-007
 12
0.9201010535892813
 22
0.4008032635659973
 32
0.0000000000000000
 13
1.000034625073141
 23
-0.06127670522536732
 33
0.0000000000000000
 40
0.0000000000000000
 40
0.0000000000000000
 40
0.0000000000000000
 40
0.0000000000000000
 40
12.98679134158377
 40
19.33622747108871
 40
24.12502619459929
 40
35.72468226422552
 40
59.91899018646427
 40
63.72262588912940
 40
71.35769460650829
 40
85.10735853994953
 40
95.41024228390779
 40
104.1888204443971
 40
104.1888204443971
 40
104.1888204443971
 40
104.1888204443971
 10
138.4721296847865
 20
243.5426124428008
 30
0.0000000000000000
 10
142.4551831501650
 20
245.2776618937866
 30
0.0000000000000000
 10
148.3856109063621
 20
247.8610029189421
 30
0.0000000000000000
 10
156.2019715392916
 20
249.7329860170761
 30
0.0000000000000000
 10
163.6917564724478
 20
251.2731060823536
 30
0.0000000000000000
 10
176.9594736202291
 20
249.0605184991254
 30
0.0000000000000000
 10
192.0356776023696
 20
255.4020727742987
 30
0.0000000000000000
 10
201.2379738387412
 20
247.4282090330047
 30
0.0000000000000000
 10
206.8602837405899
 20
241.2670847880066
 30
0.0000000000000000
 10
216.0573240223679
 20
235.5384183759003
 30
0.0000000000000000
 10
226.6851281111657
 20
232.5556016500769
 30
0.0000000000000000
 10
233.0458356449864
 20
232.1658519446147
 30
0.0000000000000000
 10
235.9721296847865
 20
231.9865444958687
 30
0.0000000000000000
  0
SPLINE
  5
1AF
100
AcDbEntity
  8
MAIN0
  6
CONTINUOUS
 62
4
100
AcDbSpline
210
0.0000000000000000
220
0.0000000000000000
230
1.000000000000000
 70
     8
 71
     3
 72
    16
 73
    12
 74
     0
 42
1.000000000000000e-007
 43
1.000000000000000e-007
 12
0.9255478320733204
 22
-0.3850051684151481
 32
0.0000000000000000
 13
0.9807028215837832
 23
0.2037743483848686
 33
0.0000000000000000
 40
0.0000000000000000
 40
0.0000000000000000
 40
0.0000000000000000
 40
0.0000000000000000
 40
12.94503637262989
 40
18.26525972287050
 40
23.47214795572495
 40
34.77385900779166
 40
57.36925392880812
 40
63.53991469729567
 40
73.74602849894467
 40
88.21930614978322
 40
99.88839695169196
 40
99.88839695169196
 40
99.88839695169196
 40
99.88839695169196
 10
138.4721296847865
 20
284.6596895696274
 30
0.0000000000000000
 10
142.4658798017192
 20
282.9983876000325
 30
0.0000000000000000
 10
148.1010036479723
 20
280.6543144681158
 30
0.0000000000000000
 10
155.6463472164041
 20
278.6231052218438
 30
0.0000000000000000
 10
162.7091533817526
 20
276.6289391426404
 30
0.0000000000000000
 10
175.7223377292576
 20
277.8837911549777
 30
0.0000000000000000
 10
189.9572381121664
 20
274.0746955451365
 30
0.0000000000000000
 10
201.2755067601814
 20
281.0747832306523
 30
0.0000000000000000
 10
211.5703598429222
 20
282.7590311534635
 30
0.0000000000000000
 10
223.6115280917059
 20
283.7360658217978
 30
0.0000000000000000
 10
232.1574929265367
 20
285.5117805206961
 30
0.0000000000000000
 10
235.9721296847865
 20
286.3044009788304
 30
0.0000000000000000
  0
DIMENSION
  5
1B8
100
AcDbEntity
  8
MAIN0
  6
CONTINUOUS
 62
3
100
AcDbDimension
  2
*D23
 10
210.9723910407308
 20
153.7856800923439
 30
0.0000000000000000
 11
223.4722603627586
 21
154.2856800923439
 31
0.0000000000000000
 70
32
  3
MAIN001
100
AcDbAlignedDimension
 13
235.9721296847865
 23
166.1592584280153
 33
0.0000000000000000
 14
210.9723910407308
 24
176.5943537682597
 34
0.0000000000000000
100
AcDbRotatedDimension
1001
ACAD
1000
DSTYLE
1002
{
1070
   173
1070
     1
1070
     6
1000
_OPEN
1070
     7
1000
_OPEN
1070
    41
1040
2.000000
1002
}
  0
LINE
  5
1B9
100
AcDbEntity
  8
MAIN0
  6
CONTINUOUS
 62
3
100
AcDbLine
 10
148.9721296847864
 20
179.1592584280153
 30
0.0000000000000000
 11
151.3721296847863
 21
179.1592584280153
 31
0.0000000000000000
  0
LINE
  5
1BA
100
AcDbEntity
  8
MAIN0
  6
CONTINUOUS
 62
3
100
AcDbLine
 10
148.9721296847864
 20
179.1592584280153
 30
0.0000000000000000
 11
147.9721296847864
 21
178.1592584280153
 31
0.0000000000000000
  0
LINE
  5
1BB
100
AcDbEntity
  8
MAIN0
  6
CONTINUOUS
 62
3
100
AcDbLine
 10
152.3326207482719
 20
178.6592584280153
 30
0.0000000000000000
 11
152.5721296847864
 21
178.6592584280153
 31
0.0000000000000000
  0
LINE
  5
1BC
100
AcDbEntity
  8
MAIN0
  6
CONTINUOUS
 62
3
100
AcDbLine
 10
153.2817383513289
 20
180.5645057132318
 30
0.0000000000000000
 11
152.9721296847863
 21
181.1592584280154
 31
0.0000000000000000
  0
LINE
  5
1BD
100
AcDbEntity
  8
MAIN0
  6
CONTINUOUS
 62
3
100
AcDbLine
 10
152.3326207482720
 20
178.6592584280153
 30
0.0000000000000000
 11
151.3721296847864
 21
179.1592584280153
 31
0.0000000000000000
  0
LINE
  5
1BE
100
AcDbEntity
  8
MAIN0
  6
CONTINUOUS
 62
3
100
AcDbLine
 10
153.3721296847864
 20
180.1951068226437
 30
0.0000000000000000
 11
153.3721296847863
 21
179.4592584280153
 31
0.0000000000000000
  0
ARC
  5
1BF
100
AcDbEntity
  8
MAIN0
  6
CONTINUOUS
 62
3
100
AcDbCircle
 10
152.5721296847863
 20
179.4592584280153
 30
0.0000000000000000
 40
0.7999999999999999
100
AcDbArc
 50
269.9999999999868
 51
359.9999999999868
  0
ARC
  5
1C0
100
AcDbEntity
  8
MAIN0
  6
CONTINUOUS
 62
3
100
AcDbCircle
 10
152.5721296847863
 20
180.1951068226437
 30
0.0000000000000000
 40
0.7999999999999999
100
AcDbArc
 50
359.9999999999868
 51
387.4999999999885
  0
DIMENSION
  5
1C9
100
AcDbEntity
  8
MAIN0
  6
CONTINUOUS
 62
3
100
AcDbDimension
  2
*D24
 10
60.62434747565834
 20
349.1592584280152
 30
0.0000000000000000
 11
60.12434747565834
 21
264.1592584280153
 31
0.0000000000000000
 70
32
  1
\A1;\U+2205170H6
  3
MAIN001
100
AcDbAlignedDimension
 13
148.9721296847864
 23
179.1592584280153
 33
0.0000000000000000
 14
148.9721296847864
 24
349.1592584280152
 34
0.0000000000000000
 50
90.00000000000000
100
AcDbRotatedDimension
1001
ACAD
1000
DSTYLE
1002
{
1070
   173
1070
     1
1070
     6
1000
_OPEN
1070
     7
1000
_OPEN
1070
    41
1040
2.000000
1002
}
  0
LINE
  5
1CA
100
AcDbEntity
  8
MAIN0
  6
CONTINUOUS
 62
3
100
AcDbLine
 10
153.5721296847864
 20
204.2342584280153
 30
0.0000000000000000
 11
219.9721296847865
 21
204.2342584280154
 31
0.0000000000000000
  0
LINE
  5
1CB
100
AcDbEntity
  8
MAIN0
  6
CONTINUOUS
 62
3
100
AcDbLine
 10
153.5721296847864
 20
190.7342584280153
 30
0.0000000000000000
 11
219.9721296847865
 21
190.7342584280154
 31
0.0000000000000000
  0
CIRCLE
  5
1CC
100
AcDbEntity
  8
MAIN0
  6
HIDDEN
 62
3
100
AcDbCircle
 10
442.9475040864899
 20
264.1592584280153
 30
0.0000000000000000
 40
15.90000000000012
  0
LINE
  5
1CD
100
AcDbEntity
  8
MAIN0
  6
CENTER
 62
12
100
AcDbLine
 10
453.5504670244593
 20
258.0376349215707
 30
0.0000000000000000
 11
471.4353040094699
 21
247.7118194738621
 31
0.0000000000000000
  0
DIMENSION
  5
1D7
100
AcDbEntity
  8
MAIN0
  6
CONTINUOUS
 62
3
100
AcDbDimension
  2
*D25
 10
231.6721296847863
 20
295.2594752027371
 30
0.0000000000000000
 11
221.7705117725481
 21
295.7594752027371
 31
0.0000000000000000
 70
160
  1
\A1;MIN 4.3
  3
MAIN001
100
AcDbAlignedDimension
 13
235.9721296847865
 23
245.4826759280156
 33
0.0000000000000000
 14
231.6721296847864
 24
279.0592584280153
 34
0.0000000000000000
100
AcDbRotatedDimension
1001
ACAD
1000
DSTYLE
1002
{
1070
   173
1070
     1
1070
     6
1000
_OPEN
1070
     7
1000
_OPEN
1070
    41
1040
2.000000
1070
   287
1070
     0
1002
}
  0
DIMENSION
  5
1E0
100
AcDbEntity
  8
MAIN0
  6
CONTINUOUS
 62
3
100
AcDbDimension
  2
*D26
 10
249.5081164620258
 20
280.0592584280153
 30
0.0000000000000000
 11
249.0081164620258
 21
260.0842583170016
 31
0.0000000000000000
 70
32
  1
\A1;\U+220531.8\H0.903226x;\S＋0.02^  0;
  3
MAIN001
100
AcDbAlignedDimension
 13
234.9721296847865
 23
248.2592584280152
 33
0.0000000000000000
 14
235.9721296847864
 24
280.0592584280153
 34
0.0000000000000000
 50
90.00000000000000
100
AcDbRotatedDimension
1001
ACAD
1000
DSTYLE
1002
{
1070
   173
1070
     1
1070
     6
1000
_OPEN
1070
     7
1000
_OPEN
1070
    41
1040
2.000000
1070
   272
1070
     2
1070
    47
1040
0.020000
1070
    48
1040
0.000000
1070
    71
1070
     1
1070
   340
1005
1A2
1002
}
  0
LINE
  5
1E1
100
AcDbEntity
  8
MAIN0
  6
HIDDEN
 62
3
100
AcDbLine
 10
459.9475040864902
 20
286.2592584280161
 30
0.0000000000000000
 11
465.1725040864902
 21
295.3092238975649
 31
0.0000000000000000
  0
LINE
  5
1E2
100
AcDbEntity
  8
MAIN0
  6
HIDDEN
 62
4
100
AcDbLine
 10
425.9475040864904
 20
286.2592584280161
 30
0.0000000000000000
 11
459.9475040864902
 21
286.2592584280160
 31
0.0000000000000000
  0
LINE
  5
1E3
100
AcDbEntity
  8
MAIN0
  6
HIDDEN
 62
3
100
AcDbLine
 10
425.9475040864904
 20
286.2592584280161
 30
0.0000000000000000
 11
420.7225040864904
 21
295.3092238975635
 31
0.0000000000000000
  0
LINE
  5
1E4
100
AcDbEntity
  8
MAIN0
  6
CONTINUOUS
 62
3
100
AcDbLine
 10
257.0021296847864
 20
280.7190193558726
 30
0.0000000000000000
 11
259.3021296847864
 21
280.7190193558726
 31
0.0000000000000000
  0
LINE
  5
1E5
100
AcDbEntity
  8
MAIN0
  6
CONTINUOUS
 62
3
100
AcDbLine
 10
256.0021296847864
 20
281.7190193558726
 30
0.0000000000000000
 11
257.0021296847864
 21
280.7190193558726
 31
0.0000000000000000
  0
LINE
  5
1E6
100
AcDbEntity
  8
MAIN0
  6
CONTINUOUS
 62
3
100
AcDbLine
 10
148.9721296847864
 20
364.1592584280152
 30
0.0000000000000000
 11
233.9721296847865
 21
364.1592584280152
 31
0.0000000000000000
  0
LINE
  5
1E7
100
AcDbEntity
  8
MAIN0
  6
CONTINUOUS
 62
3
100
AcDbLine
 10
148.9721296847863
 20
164.1592584280153
 30
0.0000000000000000
 11
233.9721296847865
 21
164.1592584280153
 31
0.0000000000000000
  0
DIMENSION
  5
1EE
100
AcDbEntity
  8
MAIN0
  6
CONTINUOUS
 62
3
100
AcDbDimension
  2
*D27
 10
407.1196888413315
 20
200.0366222867218
 30
0.0000000000000000
 11
458.2041522748307
 21
210.4888330462319
 31
0.0000000000000000
 70
163
  3
MAIN001
100
AcDbDiametricDimension
 15
478.7753193316449
 25
213.9818945693152
 35
0.0000000000000000
1001
ACAD
1000
DSTYLE
1002
{
1070
   287
1070
     2
1070
   173
1070
     1
1070
     6
1000
_OPEN
1070
     7
1000
_OPEN
1070
    41
1040
2.000000
1002
}
  0
DIMENSION
  5
1F4
100
AcDbEntity
  8
MAIN0
  6
CONTINUOUS
 62
3
100
AcDbDimension
  2
*D28
 10
421.1409080156651
 20
267.0699916352824
 30
0.0000000000000000
 11
434.3307747252844
 21
265.8148584204418
 31
0.0000000000000000
 70
163
  3
MAIN001
100
AcDbDiametricDimension
 15
464.7541001573147
 25
261.2485252207482
 35
0.0000000000000000
1001
ACAD
1000
DSTYLE
1002
{
1070
   287
1070
     2
1070
   173
1070
     1
1070
     6
1000
_OPEN
1070
     7
1000
_NONE
1070
    41
1040
2.000000
1002
}
  0
DIMENSION
  5
1FD
100
AcDbEntity
  8
MAIN3
  6
CONTINUOUS
 62
3
100
AcDbDimension
  2
*D29
 10
298.1869438786833
 20
117.5316556507022
 30
0.0000000000000000
 11
297.6869438786833
 21
95.30665565070211
 31
0.0000000000000000
 70
32
  1
\A1;44.45h7
  3
MAIN001
100
AcDbAlignedDimension
 13
264.3021296847865
 23
73.08165565070209
 33
0.0000000000000000
 14
264.3021296847863
 24
117.5316556507022
 34
0.0000000000000000
 50
90.00000000000000
100
AcDbRotatedDimension
1001
ACAD
1000
DSTYLE
1002
{
1070
   173
1070
     1
1070
     6
1000
_OPEN
1070
     7
1000
_OPEN
1070
    41
1040
2.000000
1002
}
  0
LEADER
  5
1FE
100
AcDbEntity
  8
MAIN0
  6
CONTINUOUS
 62
3
100
AcDbLeader
  3
MAIN001
 73
     0
 75
     1
 40
3.099999904632568
 41
63.78900186920168
 76
     3
 10
354.6922263595399
 20
259.1592584280155
 30
0.0000000000000000
 10
340.5743436057384
 20
231.8143798492081
 30
0.0000000000000000
 10
338.6473436615283
 20
231.8143798492081
 30
0.0000000000000000
340
1FF
213
0.0000000000000000
223
-0.5000000000000000
233
0.0000000000000000
1001
ACAD
1000
DSTYLE
1002
{
1070
   147
1040
0.0
1070
    77
1070
     1
1070
   173
1070
     1
1070
     6
1000
_OPEN
1070
     7
1000
_OPEN
1002
}
  0
MTEXT
  5
1FF
102
{ACAD_REACTORS
330
1FE
102
}
100
AcDbEntity
  8
MAIN0
  6
CONTINUOUS
 62
3
100
AcDbMText
 10
274.8583417923267
 20
235.4143797538407
 30
0.0000000000000000
 40
3.099999904632568
 41
0.0000000000000000
 71
     1
 72
     1
  1
{\H0.94x;{2-M10 ネジ深23 アイボルト用\P2-M10 DEPTH 23 EYE BOLT}}
 11
1.000000000000000
 21
0.0000000000000000
 31
0.0000000000000000
  7
KNJYOKO
  0
LEADER
  5
200
100
AcDbEntity
  8
MAIN0
  6
CONTINUOUS
 62
3
100
AcDbLeader
  3
MAIN001
 73
     0
 74
     0
 75
     1
 40
3.099999904632568
 41
35.89100105857835
 76
     3
 10
516.2221446108663
 20
286.4535260467857
 30
0.0000000000000000
 10
534.9019547891994
 20
351.3182083644700
 30
0.0000000000000000
 10
536.8269547334095
 20
351.3182083644699
 30
0.0000000000000000
340
201
213
0.0000000000000000
223
-0.5000000000000000
233
0.0000000000000000
1001
ACAD
1000
DSTYLE
1002
{
1070
   147
1040
0.0
1070
    77
1070
     1
1070
   173
1070
     1
1070
     6
1000
_OPEN
1070
     7
1000
_OPEN
1002
}
  0
MTEXT
  5
201
102
{ACAD_REACTORS
330
200
102
}
100
AcDbEntity
  8
MAIN0
  6
CONTINUOUS
 62
3
100
AcDbMText
 10
536.8279547334095
 20
354.9182082691025
 30
0.0000000000000000
 40
3.099999904632568
 41
0.0000000000000000
 71
     1
 72
     1
  1
{\H0.93x;{3-M6 ネジ深10\P3等配\P3-M6 DEPTH 10\P3 EQUI-SPACED}}
 11
1.000000000000000
 21
0.0000000000000000
 31
0.0000000000000000
  7
KNJYOKO
  0
LEADER
  5
202
100
AcDbEntity
  8
MAIN0
  6
CONTINUOUS
 62
3
100
AcDbLeader
  3
MAIN001
 73
     0
 75
     1
 40
3.099999904632568
 41
35.88900105857849
 76
     3
 10
230.0301138020561
 20
238.1592584280159
 30
0.0000000000000000
 10
222.6648249377694
 20
226.9451202221023
 30
0.0000000000000000
 10
220.7378249935593
 20
226.9451202221023
 30
0.0000000000000000
340
203
213
0.0000000000000000
223
-0.5000000000000000
233
0.0000000000000000
1001
ACAD
1000
DSTYLE
1002
{
1070
   147
1040
0.0
1070
    77
1070
     1
1070
   173
1070
     1
1070
     6
1000
_OPEN
1070
     7
1000
_OPEN
1002
}
  0
MTEXT
  5
203
102
{ACAD_REACTORS
330
202
102
}
100
AcDbEntity
  8
MAIN0
  6
CONTINUOUS
 62
3
100
AcDbMText
 10
184.8488239349809
 20
230.5451201267349
 30
0.0000000000000000
 40
3.099999904632568
 41
0.0000000000000000
 71
     1
 72
     1
  1
{\H0.93x;{4-M8 ネジ深14\P4-M8 DEPTH 14}}
 11
1.000000000000000
 21
0.0000000000000000
 31
0.0000000000000000
  7
KNJYOKO
  0
LEADER
  5
204
100
AcDbEntity
  8
MAIN0
  6
CONTINUOUS
 62
3
100
AcDbLeader
  3
MAIN001
 73
     0
 74
     0
 75
     1
 40
3.099999904632568
 41
49.84100146389008
 76
     3
 10
226.4041726974005
 20
156.1378772201337
 30
0.0000000000000000
 10
242.7136187992143
 20
162.6464273310652
 30
0.0000000000000000
 10
244.6386187434244
 20
162.6464273310652
 30
0.0000000000000000
340
205
213
-0.001000000000004775
223
-0.5000000000000000
233
0.0000000000000000
1001
ACAD
1000
DSTYLE
1002
{
1070
   147
1040
0.0
1070
    77
1070
     1
1070
   173
1070
     1
1070
     6
1000
_OPEN
1070
     7
1000
_OPEN
1002
}
  0
MTEXT
  5
205
102
{ACAD_REACTORS
330
204
102
}
100
AcDbEntity
  8
MAIN0
  6
CONTINUOUS
 62
3
100
AcDbMText
 10
244.6396187434244
 20
166.2464272356977
 30
0.0000000000000000
 40
3.099999904632568
 41
0.0000000000000000
 71
     1
 72
     1
  1
{\H0.94x;{表面追加加工深さ限度\PPOSSIBLE DEPTH FOR\PTAPPING OR BORING}}
 11
1.000000000000000
 21
0.0000000000000000
 31
0.0000000000000000
  7
KNJYOKO
  0
LINE
  5
206
100
AcDbEntity
  8
MAIN0
  6
CENTER
 62
3
100
AcDbLine
 10
205.9721296847865
 20
158.7046108789270
 30
0.0000000000000000
 11
205.9721296847865
 21
189.2342584280153
 31
0.0000000000000000
  0
DIMENSION
  5
20F
100
AcDbEntity
  8
MAIN3
  6
CONTINUOUS
 62
3
100
AcDbDimension
  2
*D30
 10
235.9721296847865
 20
146.2116079134722
 30
0.0000000000000000
 11
220.9721296847865
 21
146.7116079134722
 31
0.0000000000000000
 70
32
  3
MAIN001
100
AcDbAlignedDimension
 13
205.9721296847865
 23
158.7046108789270
 33
0.0000000000000000
 14
235.9721296847865
 24
166.1592584280153
 34
0.0000000000000000
100
AcDbRotatedDimension
1001
ACAD
1000
DSTYLE
1002
{
1070
   173
1070
     1
1070
     6
1000
_OPEN
1070
     7
1000
_OPEN
1070
    41
1040
2.000000
1002
}
  0
LINE
  5
210
100
AcDbEntity
  8
MAIN0
  6
CONTINUOUS
 62
3
100
AcDbLine
 10
318.5459142663232
 20
53.19230737907785
 30
0.0000000000000000
 11
318.5459142663255
 21
145.1923073796129
 31
0.0000000000000000
  0
LINE
  5
211
100
AcDbEntity
  8
MAIN0
  6
CONTINUOUS
 62
3
100
AcDbLine
 10
365.5459142663254
 20
53.19230737893051
 30
0.0000000000000000
 11
365.5459142663254
 21
135.1923073796131
 31
0.0000000000000000
  0
LINE
  5
212
100
AcDbEntity
  8
MAIN0
  6
CONTINUOUS
 62
3
100
AcDbLine
 10
395.5459142663235
 20
53.19230737883666
 30
0.0000000000000000
 11
395.5459142663256
 21
145.1923073796132
 31
0.0000000000000000
  0
LINE
  5
213
100
AcDbEntity
  8
MAIN0
  6
CONTINUOUS
 62
3
100
AcDbLine
 10
395.5459142663259
 20
145.1923073796131
 30
0.0000000000000000
 11
318.5459142663254
 21
145.1923073796131
 31
0.0000000000000000
  0
LINE
  5
214
100
AcDbEntity
  8
MAIN0
  6
CONTINUOUS
 62
3
100
AcDbLine
 10
395.5459142663257
 20
135.1923073796131
 30
0.0000000000000000
 11
318.5459142663251
 21
135.1923073796131
 31
0.0000000000000000
  0
LINE
  5
215
100
AcDbEntity
  8
MAIN0
  6
CONTINUOUS
 62
3
100
AcDbLine
 10
395.5459142663254
 20
128.1923073796131
 30
0.0000000000000000
 11
318.5459142663250
 21
128.1923073796131
 31
0.0000000000000000
  0
LINE
  5
216
100
AcDbEntity
  8
MAIN0
  6
CONTINUOUS
 62
3
100
AcDbLine
 10
395.5459142663253
 20
121.1923073790701
 30
0.0000000000000000
 11
318.5459142663250
 21
121.1923073789494
 31
0.0000000000000000
  0
LINE
  5
217
100
AcDbEntity
  8
MAIN0
  6
CONTINUOUS
 62
3
100
AcDbLine
 10
395.5459142663249
 20
111.1923073782934
 30
0.0000000000000000
 11
318.5459142663244
 21
111.1923073784141
 31
0.0000000000000000
  0
LINE
  5
218
100
AcDbEntity
  8
MAIN0
  6
CONTINUOUS
 62
3
100
AcDbLine
 10
395.5459142663248
 20
101.1923073796131
 30
0.0000000000000000
 11
318.5459142663243
 21
101.1923073796131
 31
0.0000000000000000
  0
LINE
  5
219
100
AcDbEntity
  8
MAIN0
  6
CONTINUOUS
 62
3
100
AcDbLine
 10
395.5459142663245
 20
94.19230737961308
 30
0.0000000000000000
 11
318.5459142663242
 21
94.19230737961308
 31
0.0000000000000000
  0
LINE
  5
21A
100
AcDbEntity
  8
MAIN0
  6
CONTINUOUS
 62
3
100
AcDbLine
 10
395.5459142663243
 20
87.19230737775044
 30
0.0000000000000000
 11
318.5459142663240
 21
87.19230737775044
 31
0.0000000000000000
  0
LINE
  5
21B
100
AcDbEntity
  8
MAIN0
  6
CONTINUOUS
 62
3
100
AcDbLine
 10
395.5459142663243
 20
80.19230737961308
 30
0.0000000000000000
 11
318.5459142663239
 21
80.19230737961308
 31
0.0000000000000000
  0
LINE
  5
21C
100
AcDbEntity
  8
MAIN0
  6
CONTINUOUS
 62
3
100
AcDbLine
 10
395.5459142663239
 20
70.19230737775044
 30
0.0000000000000000
 11
318.5459142663236
 21
70.19230737775044
 31
0.0000000000000000
  0
LINE
  5
21D
100
AcDbEntity
  8
MAIN0
  6
CONTINUOUS
 62
3
100
AcDbLine
 10
395.5459142663239
 20
63.19230737961308
 30
0.0000000000000000
 11
318.5459142663234
 21
63.19230737961308
 31
0.0000000000000000
  0
LINE
  5
21E
100
AcDbEntity
  8
MAIN0
  6
CONTINUOUS
 62
3
100
AcDbLine
 10
395.5459142663236
 20
53.19230737883655
 30
0.0000000000000000
 11
318.5459142663232
 21
53.19230737907802
 31
0.0000000000000000
  0
MTEXT
  5
21F
100
AcDbEntity
  8
MAIN0
  6
CONTINUOUS
 62
3
100
AcDbMText
 10
335.6141618732711
 20
143.5524319319281
 30
0.0000000000000000
 40
3.100000381469727
 41
0.0000000000000000
 71
     1
 72
     1
  1
{\H0.94x;{SPECIFICATIONS}}
 11
1.000000000000000
 21
0.0000000000000000
 31
0.0000000000000000
  7
STANDARD
  0
MTEXT
  5
220
100
AcDbEntity
  8
MAIN0
  6
CONTINUOUS
 62
3
100
AcDbMText
 10
345.4173549622946
 20
139.5078964244599
 30
0.0000000000000000
 40
3.100000381469727
 41
0.0000000000000000
 71
     1
 72
     1
  1
{\H0.93x;{仕　　　様}}
 11
1.000000000000000
 21
0.0000000000000000
 31
0.0000000000000000
  7
KNJYOKO
  0
MTEXT
  5
221
100
AcDbEntity
  8
MAIN0
  6
CONTINUOUS
 62
3
100
AcDbMText
 10
321.6194227204405
 20
134.5556012671497
 30
0.0000000000000000
 40
2.499999046325684
 41
0.0000000000000000
 71
     1
 72
     1
  1
{\H0.75x;{PLUNGER STROKE}}
 11
1.000000000000000
 21
0.0000000000000000
 31
0.0000000000000000
  7
STANDARD
  0
MTEXT
  5
222
100
AcDbEntity
  8
MAIN0
  6
CONTINUOUS
 62
3
100
AcDbMText
 10
321.6194227204405
 20
131.4556018393543
 30
0.0000000000000000
 40
2.399999618530273
 41
0.0000000000000000
 71
     1
 72
     1
  1
{\H0.93x;{プランジャストロ－ク}}
 11
1.000000000000000
 21
0.0000000000000000
 31
0.0000000000000000
  7
KNJYOKO
  0
MTEXT
  5
223
100
AcDbEntity
  8
MAIN0
  6
CONTINUOUS
 62
3
100
AcDbMText
 10
321.6194227204405
 20
127.5556012671499
 30
0.0000000000000000
 40
2.499999046325684
 41
0.0000000000000000
 71
     1
 72
     1
  1
{\H0.75x;{JAW STROKE (IN DIA)}}
 11
1.000000000000000
 21
0.0000000000000000
 31
0.0000000000000000
  7
STANDARD
  0
MTEXT
  5
224
100
AcDbEntity
  8
MAIN0
  6
CONTINUOUS
 62
3
100
AcDbMText
 10
321.6194227204405
 20
124.4556018393544
 30
0.0000000000000000
 40
2.399999618530273
 41
0.0000000000000000
 71
     1
 72
     1
  1
{\H0.94x;{ジョーストローク(直径で)}}
 11
1.000000000000000
 21
0.0000000000000000
 31
0.0000000000000000
  7
KNJYOKO
  0
MTEXT
  5
225
100
AcDbEntity
  8
MAIN0
  6
CONTINUOUS
 62
3
100
AcDbMText
 10
321.6194227204405
 20
118.5556022208242
 30
0.0000000000000000
 40
2.500000000000000
 41
0.0000000000000000
 71
     1
 72
     1
  1
{\H0.63x;{MAX PERMISSIBLE INPUT FORCE}}
 11
1.000000000000000
 21
0.0000000000000000
 31
0.0000000000000000
  7
STANDARD
  0
MTEXT
  5
226
100
AcDbEntity
  8
MAIN0
  6
CONTINUOUS
 62
3
100
AcDbMText
 10
321.6194227204405
 20
115.4556018393544
 30
0.0000000000000000
 40
2.399999618530273
 41
0.0000000000000000
 71
     1
 72
     1
  1
{\H0.93x;{許容最大入力　}}
 11
1.000000000000000
 21
0.0000000000000000
 31
0.0000000000000000
  7
KNJYOKO
  0
MTEXT
  5
227
100
AcDbEntity
  8
MAIN0
  6
CONTINUOUS
 62
3
100
AcDbMText
 10
321.6194227204402
 20
108.5556022202891
 30
0.0000000000000000
 40
2.500000000000000
 41
0.0000000000000000
 71
     1
 72
     1
  1
{\H0.63x;{MAX STATIC GRIPPING FORCE}}
 11
1.000000000000000
 21
0.0000000000000000
 31
0.0000000000000000
  7
STANDARD
  0
MTEXT
  5
228
100
AcDbEntity
  8
MAIN0
  6
CONTINUOUS
 62
3
100
AcDbMText
 10
321.6194227204402
 20
105.4556018388193
 30
0.0000000000000000
 40
2.399999618530273
 41
0.0000000000000000
 71
     1
 72
     1
  1
{\H0.93x;{最大静的把握力　　}}
 11
1.000000000000000
 21
0.0000000000000000
 31
0.0000000000000000
  7
KNJYOKO
  0
MTEXT
  5
229
100
AcDbEntity
  8
MAIN0
  6
CONTINUOUS
 62
3
100
AcDbMText
 10
321.6194227204405
 20
100.5556012671497
 30
0.0000000000000000
 40
2.499999046325684
 41
0.0000000000000000
 71
     1
 72
     1
  1
{\H0.75x;{MAX PERMISSIBLE SPEED}}
 11
1.000000000000000
 21
0.0000000000000000
 31
0.0000000000000000
  7
STANDARD
  0
MTEXT
  5
22A
100
AcDbEntity
  8
MAIN0
  6
CONTINUOUS
 62
3
100
AcDbMText
 10
321.6194227204405
 20
97.45560183935433
 30
0.0000000000000000
 40
2.399999618530273
 41
0.0000000000000000
 71
     1
 72
     1
  1
{\H0.93x;{許容最高回転速度　}}
 11
1.000000000000000
 21
0.0000000000000000
 31
0.0000000000000000
  7
KNJYOKO
  0
MTEXT
  5
22B
100
AcDbEntity
  8
MAIN0
  6
CONTINUOUS
 62
3
100
AcDbMText
 10
321.6194227204405
 20
93.55560126714974
 30
0.0000000000000000
 40
2.499999046325684
 41
0.0000000000000000
 71
     1
 72
     1
  1
{\H0.73x;{MASS}}
 11
1.000000000000000
 21
0.0000000000000000
 31
0.0000000000000000
  7
STANDARD
  0
MTEXT
  5
22C
100
AcDbEntity
  8
MAIN0
  6
CONTINUOUS
 62
3
100
AcDbMText
 10
321.6194227204405
 20
90.45560183935433
 30
0.0000000000000000
 40
2.399999618530273
 41
0.0000000000000000
 71
     1
 72
     1
  1
{\H0.89x;{質量\P}
 11
1.000000000000000
 21
0.0000000000000000
 31
0.0000000000000000
  7
KNJYOKO
  0
MTEXT
  5
22D
100
AcDbEntity
  8
MAIN0
  6
CONTINUOUS
 62
3
100
AcDbMText
 10
321.6934584121442
 20
69.57930777412273
 30
0.0000000000000000
 40
2.499999046325684
 41
0.0000000000000000
 71
     1
 72
     1
  1
{\H0.75x;{OPERATING CYLINDER}}
 11
1.000000000000000
 21
0.0000000000000000
 31
0.0000000000000000
  7
STANDARD
  0
MTEXT
  5
22E
100
AcDbEntity
  8
MAIN0
  6
CONTINUOUS
 62
3
100
AcDbMText
 10
321.6194227204406
 20
66.45560183935433
 30
0.0000000000000000
 40
2.399999618530273
 41
0.0000000000000000
 71
     1
 72
     1
  1
{\H0.93x;{適合シリンダ}}
 11
1.000000000000000
 21
0.0000000000000000
 31
0.0000000000000000
  7
KNJYOKO
  0
MTEXT
  5
22F
100
AcDbEntity
  8
MAIN0
  6
CONTINUOUS
 62
3
100
AcDbMText
 10
321.2975044079125
 20
61.23636869279787
 30
0.0000000000000000
 40
2.500000000000000
 41
0.0000000000000000
 71
     1
 72
     1
  1
{\H0.63x;{MAX PERMISSIBLE OIL PRESS}}
 11
1.000000000000000
 21
0.0000000000000000
 31
0.0000000000000000
  7
STANDARD
  0
MTEXT
  5
230
100
AcDbEntity
  8
MAIN0
  6
CONTINUOUS
 62
3
100
AcDbMText
 10
321.4294890759898
 20
57.57279737763165
 30
0.0000000000000000
 40
2.399999618530273
 41
0.0000000000000000
 71
     1
 72
     1
  1
{\H0.93x;{許容最大油圧力}}
 11
1.000000000000000
 21
0.0000000000000000
 31
0.0000000000000000
  7
KNJYOKO
  0
MTEXT
  5
231
100
AcDbEntity
  8
MAIN0
  6
CONTINUOUS
 62
3
100
AcDbMText
 10
380.5459142663254
 20
131.9923066164065
 30
0.0000000000000000
 40
2.799999237060547
 41
0.0000000000000000
 71
     1
 72
     1
  1
{\H0.58x;{　　　　ｍｍ}}
 11
1.000000000000000
 21
0.0000000000000000
 31
0.0000000000000000
  7
KNJYOKO
  0
MTEXT
  5
232
100
AcDbEntity
  8
MAIN0
  6
CONTINUOUS
 62
3
100
AcDbMText
 10
380.5459142663254
 20
124.9923066164065
 30
0.0000000000000000
 40
2.799999237060547
 41
0.0000000000000000
 71
     1
 72
     1
  1
{\H0.58x;{　　　　ｍｍ}}
 11
1.000000000000000
 21
0.0000000000000000
 31
0.0000000000000000
  7
KNJYOKO
  0
MTEXT
  5
233
100
AcDbEntity
  8
MAIN0
  6
CONTINUOUS
 62
3
100
AcDbMText
 10
380.5459142663254
 20
118.4923066164065
 30
0.0000000000000000
 40
2.799999237060547
 41
0.0000000000000000
 71
     1
 72
     1
  1
{\H0.58x;{　　　　ｋＮ}}
 11
1.000000000000000
 21
0.0000000000000000
 31
0.0000000000000000
  7
KNJYOKO
  0
MTEXT
  5
234
100
AcDbEntity
  8
MAIN0
  6
CONTINUOUS
 62
3
100
AcDbMText
 10
379.5459142663254
 20
114.4923066164065
 30
0.0000000000000000
 40
2.799999237060547
 41
0.0000000000000000
 71
     1
 72
     1
  1
{\H0.60x;{　　　ｋｇｆ)}}
 11
1.000000000000000
 21
0.0000000000000000
 31
0.0000000000000000
  7
KNJYOKO
  0
MTEXT
  5
235
100
AcDbEntity
  8
MAIN0
  6
CONTINUOUS
 62
3
100
AcDbMText
 10
367.5459142663254
 20
114.4923066164065
 30
0.0000000000000000
 40
2.799999237060547
 41
0.0000000000000000
 71
     1
 72
     1
  1
{\H0.60x;{(}}
 11
1.000000000000000
 21
0.0000000000000000
 31
0.0000000000000000
  7
STANDARD
  0
MTEXT
  5
236
100
AcDbEntity
  8
MAIN0
  6
CONTINUOUS
 62
3
100
AcDbMText
 10
380.5459142663254
 20
108.4923066164065
 30
0.0000000000000000
 40
2.799999237060547
 41
0.0000000000000000
 71
     1
 72
     1
  1
{\H0.58x;{　　　　ｋＮ}}
 11
1.000000000000000
 21
0.0000000000000000
 31
0.0000000000000000
  7
KNJYOKO
  0
MTEXT
  5
237
100
AcDbEntity
  8
MAIN0
  6
CONTINUOUS
 62
3
100
AcDbMText
 10
367.5459142663254
 20
104.4923066164065
 30
0.0000000000000000
 40
2.799999237060547
 41
0.0000000000000000
 71
     1
 72
     1
  1
{\H0.60x;{(}}
 11
1.000000000000000
 21
0.0000000000000000
 31
0.0000000000000000
  7
STANDARD
  0
MTEXT
  5
238
100
AcDbEntity
  8
MAIN0
  6
CONTINUOUS
 62
3
100
AcDbMText
 10
379.5459142663254
 20
104.4923066164065
 30
0.0000000000000000
 40
2.799999237060547
 41
0.0000000000000000
 71
     1
 72
     1
  1
{\H0.60x;{　　　ｋｇｆ)}}
 11
1.000000000000000
 21
0.0000000000000000
 31
0.0000000000000000
  7
KNJYOKO
  0
MTEXT
  5
239
100
AcDbEntity
  8
MAIN0
  6
CONTINUOUS
 62
3
100
AcDbMText
 10
390.7005825146454
 20
98.66185116930112
 30
0.0000000000000000
 40
2.000000000000000
 41
0.0000000000000000
 71
     1
 72
     1
  1
{\H0.88x;{-1}}
 11
1.000000000000000
 21
0.0000000000000000
 31
0.0000000000000000
  7
STANDARD
  0
MTEXT
  5
23A
100
AcDbEntity
  8
MAIN0
  6
CONTINUOUS
 62
3
100
AcDbMText
 10
380.5459142663254
 20
97.99230661640647
 30
0.0000000000000000
 40
2.799999237060547
 41
0.0000000000000000
 71
     1
 72
     1
  1
{\H0.58x;{　　ｍｉｎ}}
 11
1.000000000000000
 21
0.0000000000000000
 31
0.0000000000000000
  7
KNJYOKO
  0
MTEXT
  5
23B
100
AcDbEntity
  8
MAIN0
  6
CONTINUOUS
 62
3
100
AcDbMText
 10
380.5459142663254
 20
90.99230661640647
 30
0.0000000000000000
 40
2.799999237060547
 41
0.0000000000000000
 71
     1
 72
     1
  1
{\H0.58x;{　　　　ｋｇ}}
 11
1.000000000000000
 21
0.0000000000000000
 31
0.0000000000000000
  7
KNJYOKO
  0
MTEXT
  5
23C
100
AcDbEntity
  8
MAIN0
  6
CONTINUOUS
 62
3
100
AcDbMText
 10
380.5459142663254
 20
60.49230661640624
 30
0.0000000000000000
 40
2.799999237060547
 41
0.0000000000000000
 71
     1
 72
     1
  1
{\H0.58x;{　　　ＭＰａ}}
 11
1.000000000000000
 21
0.0000000000000000
 31
0.0000000000000000
  7
KNJYOKO
  0
MTEXT
  5
23D
100
AcDbEntity
  8
MAIN0
  6
CONTINUOUS
 62
3
100
AcDbMText
 10
391.5992100996913
 20
56.90271140756815
 30
0.0000000000000000
 40
2.000000000000000
 41
0.0000000000000000
 71
     1
 72
     1
  1
{\H0.81x;{2}}
 11
1.000000000000000
 21
0.0000000000000000
 31
0.0000000000000000
  7
STANDARD
  0
MTEXT
  5
23E
100
AcDbEntity
  8
MAIN0
  6
CONTINUOUS
 62
3
100
AcDbMText
 10
367.5459142663254
 20
56.49230661640624
 30
0.0000000000000000
 40
2.799999237060547
 41
0.0000000000000000
 71
     1
 72
     1
  1
{\H0.60x;{(}}
 11
1.000000000000000
 21
0.0000000000000000
 31
0.0000000000000000
  7
STANDARD
  0
MTEXT
  5
23F
100
AcDbEntity
  8
MAIN0
  6
CONTINUOUS
 62
3
100
AcDbMText
 10
379.5459142663254
 20
56.49230661640624
 30
0.0000000000000000
 40
2.799999237060547
 41
0.0000000000000000
 71
     1
 72
     1
  1
{\H0.62x;{ｋｇｆ／ｃｍ )}}
 11
1.000000000000000
 21
0.0000000000000000
 31
0.0000000000000000
  7
KNJYOKO
  0
MTEXT
  5
240
100
AcDbEntity
  8
MAIN0
  6
CONTINUOUS
 62
3
100
AcDbMText
 10
321.6194227204406
 20
83.45560184121698
 30
0.0000000000000000
 40
2.399999618530273
 41
0.0000000000000000
 71
     1
 72
     1
  1
{\H0.93x;{慣性モーメント}}
 11
1.000000000000000
 21
0.0000000000000000
 31
0.0000000000000000
  7
KNJYOKO
  0
MTEXT
  5
241
100
AcDbEntity
  8
MAIN0
  6
CONTINUOUS
 62
4
100
AcDbMText
 10
385.1612932807190
 20
84.26434782118437
 30
0.0000000000000000
 40
2.799999237060547
 41
0.0000000000000000
 71
     1
 72
     1
  1
{\H0.57x;{ｋｇ・ｍ}}
 11
1.000000000000000
 21
0.0000000000000000
 31
0.0000000000000000
  7
KNJYOKO
  0
MTEXT
  5
242
100
AcDbEntity
  8
MAIN0
  6
CONTINUOUS
 62
4
100
AcDbMText
 10
393.0927144408119
 20
85.64463102447118
 30
0.0000000000000000
 40
1.714285731315613
 41
0.0000000000000000
 71
     1
 72
     1
  1
{\H0.81x;{2}}
 11
1.000000000000000
 21
0.0000000000000000
 31
0.0000000000000000
  7
STANDARD
  0
MTEXT
  5
243
100
AcDbEntity
  8
MAIN0
  6
CONTINUOUS
 62
3
100
AcDbMText
 10
321.6194227204406
 20
86.55560126901239
 30
0.0000000000000000
 40
2.499999046325684
 41
0.0000000000000000
 71
     1
 72
     1
  1
{\H0.75x;{MOMENT OF INERTIA}}
 11
1.000000000000000
 21
0.0000000000000000
 31
0.0000000000000000
  7
STANDARD
  0
MTEXT
  5
244
100
AcDbEntity
  8
MAIN0
  6
CONTINUOUS
 62
3
100
AcDbMText
 10
367.5459142663254
 20
133.2923072839787
 30
0.0000000000000000
 40
3.099999904632568
 41
0.0000000000000000
 71
     1
 72
     1
  1
{\H0.81x;{14.2}}
 11
1.000000000000000
 21
0.0000000000000000
 31
0.0000000000000000
  7
STANDARD
  0
MTEXT
  5
245
100
AcDbEntity
  8
MAIN0
  6
CONTINUOUS
 62
3
100
AcDbMText
 10
367.5459142663254
 20
126.2923072839787
 30
0.0000000000000000
 40
3.099999904632568
 41
0.0000000000000000
 71
     1
 72
     1
  1
{\H0.76x;{9.5}}
 11
1.000000000000000
 21
0.0000000000000000
 31
0.0000000000000000
  7
STANDARD
  0
MTEXT
  5
246
100
AcDbEntity
  8
MAIN0
  6
CONTINUOUS
 62
3
100
AcDbMText
 10
367.5459142663254
 20
99.29230728584159
 30
0.0000000000000000
 40
3.099999904632568
 41
0.0000000000000000
 71
     1
 72
     1
  1
{\H0.91x;{3700}}
 11
1.000000000000000
 21
0.0000000000000000
 31
0.0000000000000000
  7
STANDARD
  0
MTEXT
  5
247
100
AcDbEntity
  8
MAIN0
  6
CONTINUOUS
 62
3
100
AcDbMText
 10
367.5459142663254
 20
92.29230728397894
 30
0.0000000000000000
 40
3.099999904632568
 41
0.0000000000000000
 71
     1
 72
     1
  1
{\H0.88x;{24}}
 11
1.000000000000000
 21
0.0000000000000000
 31
0.0000000000000000
  7
STANDARD
  0
MTEXT
  5
248
100
AcDbEntity
  8
MAIN0
  6
CONTINUOUS
 62
3
100
AcDbMText
 10
367.5459142663254
 20
85.29230728584159
 30
0.0000000000000000
 40
3.099999904632568
 41
0.0000000000000000
 71
     1
 72
     1
  1
{\H0.84x;{0.120}}
 11
1.000000000000000
 21
0.0000000000000000
 31
0.0000000000000000
  7
STANDARD
  0
MTEXT
  5
249
100
AcDbEntity
  8
MAIN0
  6
CONTINUOUS
 62
3
100
AcDbMText
 10
367.5459142663254
 20
67.87277474651827
 30
0.0000000000000000
 40
2.680467367172241
 41
0.0000000000000000
 71
     1
 72
     1
  1
{\H0.93x;{Y1225R / RE}}
 11
1.000000000000000
 21
0.0000000000000000
 31
0.0000000000000000
  7
STANDARD
  0
MTEXT
  5
24A
100
AcDbEntity
  8
MAIN0
  6
CONTINUOUS
 62
3
100
AcDbMText
 10
128.6481541106797
 20
138.1375356385694
 30
0.0000000000000000
 40
3.099999904632568
 41
0.0000000000000000
 71
     1
 72
     1
  1
{\H0.66x;{MIN 15.1}}
 11
1.000000000000000
 21
0.0000000000000000
 31
0.0000000000000000
  7
STANDARD
  0
LEADER
  5
24B
100
AcDbEntity
  8
MAIN0
  6
CONTINUOUS
 62
3
100
AcDbLeader
  3
MAIN001
 73
     0
 75
     1
 40
3.099999904632568
 41
13.56900041007995
 76
     3
 10
142.2616142980059
 20
203.4842578277047
 30
0.0000000000000000
 10
117.1269632719798
 20
218.1749711712807
 30
0.0000000000000000
 10
115.1999633277697
 20
218.1749711712807
 30
0.0000000000000000
340
24C
213
0.0000000000000000
223
-0.5000000000000000
233
0.0000000000000000
1001
ACAD
1000
DSTYLE
1002
{
1070
   147
1040
0.0
1070
    77
1070
     1
1070
   173
1070
     1
1070
     6
1000
_OPEN
1070
     7
1000
_OPEN
1002
}
  0
MTEXT
  5
24C
102
{ACAD_REACTORS
330
24B
102
}
100
AcDbEntity
  8
MAIN0
  6
CONTINUOUS
 62
3
100
AcDbMText
 10
101.6309629176898
 20
221.7749710759133
 30
0.0000000000000000
 40
3.099999904632568
 41
0.0000000000000000
 71
     1
 72
     1
  1
{\H0.92x;{4-M12}}
 11
1.000000000000000
 21
0.0000000000000000
 31
0.0000000000000000
  7
STANDARD
  0
DIMENSION
  5
255
100
AcDbEntity
  8
MAIN3
  6
CONTINUOUS
 62
3
100
AcDbDimension
  2
*D31
 10
152.9721296847864
 20
222.6692893591593
 30
0.0000000000000000
 11
150.4721296847864
 21
223.1692893591593
 31
0.0000000000000000
 70
32
  3
MAIN001
100
AcDbAlignedDimension
 13
147.9721296847864
 23
235.3628543602712
 33
0.0000000000000000
 14
152.9721296847864
 24
235.6787038130955
 34
0.0000000000000000
100
AcDbRotatedDimension
1001
ACAD
1000
DSTYLE
1002
{
1070
   173
1070
     1
1070
     6
1000
_OPEN
1070
     7
1000
_OPEN
1070
    41
1040
2.000000
1070
   287
1070
     0
1002
}
  0
DIMENSION
  5
25D
100
AcDbEntity
  8
MAIN3
  6
CONTINUOUS
 62
3
100
AcDbDimension
  2
*D32
 10
303.1758094842242
 20
353.0592584280153
 30
0.0000000000000000
 11
302.6758094842242
 21
337.1842584280151
 31
0.0000000000000000
 70
32
  3
MAIN001
100
AcDbAlignedDimension
 13
291.7021296847861
 23
321.3092584280150
 33
0.0000000000000000
 14
312.4721296847865
 24
353.0592584280153
 34
0.0000000000000000
 50
90.00000000000000
100
AcDbRotatedDimension
1001
ACAD
1000
DSTYLE
1002
{
1070
   173
1070
     1
1070
     6
1000
_OPEN
1070
     7
1000
_OPEN
1070
    41
1040
2.000000
1002
}
  0
DIMENSION
  5
266
100
AcDbEntity
  8
MAIN3
  6
CONTINUOUS
 62
3
100
AcDbDimension
  2
*D33
 10
303.1758094842242
 20
321.3092584280150
 30
0.0000000000000000
 11
302.6758094842242
 21
286.9637536310740
 31
0.0000000000000000
 70
160
  3
MAIN001
100
AcDbAlignedDimension
 13
241.3382697881918
 23
264.1592584280153
 33
0.0000000000000000
 14
291.7021296847861
 24
321.3092584280150
 34
0.0000000000000000
 50
90.00000000000000
100
AcDbRotatedDimension
1001
ACAD
1000
DSTYLE
1002
{
1070
   173
1070
     1
1070
     6
1000
_OPEN
1070
     7
1000
_OPEN
1070
    41
1040
2.000000
1002
}
  0
DIMENSION
  5
26F
100
AcDbEntity
  8
MAIN3
  6
CONTINUOUS
 62
3
100
AcDbDimension
  2
*D34
 10
328.3446033178308
 20
353.0592584280153
 30
0.0000000000000000
 11
327.8446033178308
 21
345.5592584280152
 31
0.0000000000000000
 70
32
  3
MAIN001
100
AcDbAlignedDimension
 13
318.1527292149715
 23
338.0592584280151
 33
0.0000000000000000
 14
312.4721296847865
 24
353.0592584280153
 34
0.0000000000000000
 50
90.00000000000000
100
AcDbRotatedDimension
1001
ACAD
1000
DSTYLE
1002
{
1070
   173
1070
     1
1070
     6
1000
_OPEN
1070
     7
1000
_OPEN
1070
    41
1040
2.000000
1002
}
  0
DIMENSION
  5
278
100
AcDbEntity
  8
MAIN3
  6
CONTINUOUS
 62
3
100
AcDbDimension
  2
*D35
 10
328.3446033178308
 20
338.0592584280151
 30
0.0000000000000000
 11
327.8446033178308
 21
320.9892584280152
 31
0.0000000000000000
 70
32
  3
MAIN001
100
AcDbAlignedDimension
 13
318.8658245887339
 23
303.9192584280152
 33
0.0000000000000000
 14
318.1527292149715
 24
338.0592584280151
 34
0.0000000000000000
 50
90.00000000000000
100
AcDbRotatedDimension
1001
ACAD
1000
DSTYLE
1002
{
1070
   173
1070
     1
1070
     6
1000
_OPEN
1070
     7
1000
_OPEN
1070
    41
1040
2.000000
1002
}
  0
LEADER
  5
279
100
AcDbEntity
  8
MAIN0
  6
CONTINUOUS
 62
3
100
AcDbLeader
  3
MAIN001
 73
     0
 75
     1
 40
3.099999904632568
 41
7.989000247955318
 76
     3
 10
107.7517676819479
 20
273.1592584280153
 30
0.0000000000000000
 10
90.08976029850135
 20
301.5544942211220
 30
0.0000000000000000
 10
88.16276035429129
 20
301.5544942211220
 30
0.0000000000000000
340
27A
213
0.0000000000000000
223
-0.5000000000000000
233
0.0000000000000000
1001
ACAD
1000
DSTYLE
1002
{
1070
   147
1040
0.0
1070
    77
1070
     1
1070
   173
1070
     1
1070
     6
1000
_OPEN
1070
     7
1000
_OPEN
1002
}
  0
MTEXT
  5
27A
102
{ACAD_REACTORS
330
279
102
}
100
AcDbEntity
  8
MAIN0
  6
CONTINUOUS
 62
3
100
AcDbMText
 10
80.17376010633598
 20
305.1544941257545
 30
0.0000000000000000
 40
3.099999904632568
 41
0.0000000000000000
 71
     1
 72
     1
  1
{\H0.90x;{M18}}
 11
1.000000000000000
 21
0.0000000000000000
 31
0.0000000000000000
  7
STANDARD
  0
LINE
  5
27B
100
AcDbEntity
  8
MAIN0
  6
CONTINUOUS
 62
3
100
AcDbLine
 10
450.0675040864900
 20
167.1201137491788
 30
0.0000000000000000
 11
450.0675040864900
 21
242.0592584280145
 31
0.0000000000000000
  0
LINE
  5
27C
100
AcDbEntity
  8
MAIN0
  6
CONTINUOUS
 62
3
100
AcDbLine
 10
435.8275040864900
 20
167.1201137491787
 30
0.0000000000000000
 11
435.8275040864900
 21
242.0592584280145
 31
0.0000000000000000
  0
LINE
  5
27D
100
AcDbEntity
  8
MAIN0
  6
CONTINUOUS
 62
3
100
AcDbLine
 10
435.8275040864900
 20
353.0592584280153
 30
0.0000000000000000
 11
435.8275040864900
 21
361.1984031068510
 31
0.0000000000000000
  0
LINE
  5
27E
100
AcDbEntity
  8
MAIN0
  6
CONTINUOUS
 62
3
100
AcDbLine
 10
450.0675040864900
 20
353.0592584280153
 30
0.0000000000000000
 11
450.0675040864900
 21
361.1984031068510
 31
0.0000000000000000
  0
LINE
  5
27F
100
AcDbEntity
  8
MAIN0
  6
CONTINUOUS
 62
3
100
AcDbLine
 10
264.3021296847863
 20
102.4266556507021
 30
0.0000000000000000
 11
251.2021296847865
 21
102.4266556507021
 31
0.0000000000000000
  0
LINE
  5
280
100
AcDbEntity
  8
MAIN0
  6
CONTINUOUS
 62
3
100
AcDbLine
 10
264.3021296847865
 20
88.18665565070208
 30
0.0000000000000000
 11
251.2021296847865
 21
88.18665565070211
 31
0.0000000000000000
  0
DIMENSION
  5
289
100
AcDbEntity
  8
MAIN3
  6
CONTINUOUS
 62
3
100
AcDbDimension
  2
*D36
 10
283.5683380800295
 20
102.4266556507021
 30
0.0000000000000000
 11
283.0683380800295
 21
95.30665565070208
 31
0.0000000000000000
 70
32
  3
MAIN001
100
AcDbAlignedDimension
 13
264.3021296847865
 23
88.18665565070208
 33
0.0000000000000000
 14
264.3021296847863
 24
102.4266556507021
 34
0.0000000000000000
 50
90.00000000000000
100
AcDbRotatedDimension
1001
ACAD
1000
DSTYLE
1002
{
1070
   173
1070
     1
1070
     6
1000
_OPEN
1070
     7
1000
_OPEN
1070
    41
1040
2.000000
1002
}
  0
LINE
  5
28A
100
AcDbEntity
  8
MAIN0
  6
CENTER
 62
3
100
AcDbLine
 10
219.5721296847866
 20
315.8144785991991
 30
0.0000000000000000
 11
219.5721296847866
 21
327.7686409133758
 31
0.0000000000000000
  0
MTEXT
  5
28B
100
AcDbEntity
  8
MAIN0
  6
CONTINUOUS
 62
3
100
AcDbMText
 10
367.5459142663254
 20
119.7923072839787
 30
0.0000000000000000
 40
3.099999904632568
 41
0.0000000000000000
 71
     1
 72
     1
  1
{\H0.81x;{19.3}}
 11
1.000000000000000
 21
0.0000000000000000
 31
0.0000000000000000
  7
STANDARD
  0
MTEXT
  5
28C
100
AcDbEntity
  8
MAIN0
  6
CONTINUOUS
 62
3
100
AcDbMText
 10
370.5459142663254
 20
114.9923073316624
 30
0.0000000000000000
 40
2.799999952316284
 41
0.0000000000000000
 71
     1
 72
     1
  1
{\H0.91x;{1973}}
 11
1.000000000000000
 21
0.0000000000000000
 31
0.0000000000000000
  7
STANDARD
  0
MTEXT
  5
28D
100
AcDbEntity
  8
MAIN0
  6
CONTINUOUS
 62
3
100
AcDbMText
 10
367.5459142663254
 20
109.7923072839787
 30
0.0000000000000000
 40
3.099999904632568
 41
0.0000000000000000
 71
     1
 72
     1
  1
{\H0.88x;{58}}
 11
1.000000000000000
 21
0.0000000000000000
 31
0.0000000000000000
  7
STANDARD
  0
MTEXT
  5
28E
100
AcDbEntity
  8
MAIN0
  6
CONTINUOUS
 62
3
100
AcDbMText
 10
370.5459142663254
 20
104.9923073316624
 30
0.0000000000000000
 40
2.799999952316284
 41
0.0000000000000000
 71
     1
 72
     1
  1
{\H0.91x;{5918}}
 11
1.000000000000000
 21
0.0000000000000000
 31
0.0000000000000000
  7
STANDARD
  0
MTEXT
  5
28F
100
AcDbEntity
  8
MAIN0
  6
CONTINUOUS
 62
3
100
AcDbMText
 10
367.5459142663254
 20
61.79230728397837
 30
0.0000000000000000
 40
3.099999904632568
 41
0.0000000000000000
 71
     1
 72
     1
  1
{\H0.81x;{1.98}}
 11
1.000000000000000
 21
0.0000000000000000
 31
0.0000000000000000
  7
STANDARD
  0
MTEXT
  5
290
100
AcDbEntity
  8
MAIN0
  6
CONTINUOUS
 62
3
100
AcDbMText
 10
370.5459142663254
 20
56.99230733166209
 30
0.0000000000000000
 40
2.799999952316284
 41
0.0000000000000000
 71
     1
 72
     1
  1
{\H0.58x;{20.2}}
 11
1.000000000000000
 21
0.0000000000000000
 31
0.0000000000000000
  7
STANDARD
  0
LINE
  5
291
100
AcDbEntity
  8
MAIN0
  6
CONTINUOUS
 62
3
100
AcDbLine
 10
209.0721296847864
 20
280.0592584280153
 30
0.0000000000000000
 11
235.9721296847864
 21
280.0592584280153
 31
0.0000000000000000
  0
LINE
  5
292
100
AcDbEntity
  8
MAIN0
  6
CENTER
 62
12
100
AcDbLine
 10
129.5730106196272
 20
197.4842584280154
 30
0.0000000000000000
 11
240.2650256358991
 21
197.4842584280154
 31
0.0000000000000000
  0
LINE
  5
293
100
AcDbEntity
  8
MAIN0
  6
CONTINUOUS
 62
3
100
AcDbLine
 10
234.9721296847865
 20
248.2592584280152
 30
0.0000000000000000
 11
209.0721296847864
 21
248.2592584280152
 31
0.0000000000000000
  0
LINE
  5
294
100
AcDbEntity
  8
MAIN0
  6
CENTER
 62
12
100
AcDbLine
 10
514.0463419120326
 20
305.2081915856625
 30
0.0000000000000000
 11
486.0308230329919
 21
289.0334242193613
 31
0.0000000000000000
  0
LINE
  5
295
100
AcDbEntity
  8
MAIN0
  6
CONTINUOUS
 62
3
100
AcDbLine
 10
233.9721296847865
 20
164.1592584280154
 30
0.0000000000000000
 11
235.9721296847865
 21
166.1592584280154
 31
0.0000000000000000
  0
LINE
  5
296
100
AcDbEntity
  8
MAIN0
  6
CONTINUOUS
 62
3
100
AcDbLine
 10
233.9721296847865
 20
364.1592584280152
 30
0.0000000000000000
 11
235.9721296847865
 21
362.1592584280152
 31
0.0000000000000000
  0
LINE
  5
297
100
AcDbEntity
  8
MAIN0
  6
CONTINUOUS
 62
3
100
AcDbLine
 10
234.9721296847865
 20
248.2592584280152
 30
0.0000000000000000
 11
235.9721296847865
 21
247.2592584280152
 31
0.0000000000000000
  0
LINE
  5
298
100
AcDbEntity
  8
MAIN0
  6
CENTER
 62
12
100
AcDbLine
 10
432.3445411485208
 20
258.0376349215706
 30
0.0000000000000000
 11
414.4597041635101
 21
247.7118194738621
 31
0.0000000000000000
  0
LINE
  5
299
100
AcDbEntity
  8
MAIN0
  6
CENTER
 62
12
100
AcDbLine
 10
371.8486662609462
 20
305.2081915856631
 30
0.0000000000000000
 11
399.8641851399880
 21
289.0334242193613
 31
0.0000000000000000
  0
LINE
  5
29A
100
AcDbEntity
  8
MAIN0
  6
CONTINUOUS
 62
3
100
AcDbLine
 10
235.9721296847865
 20
62.68398506143853
 30
0.0000000000000000
 11
235.9721296847865
 21
125.1383727014964
 31
0.0000000000000000
  0
LINE
  5
29B
100
AcDbEntity
  8
MAIN0
  6
CONTINUOUS
 62
3
100
AcDbLine
 10
235.9721296847865
 20
166.1592584280153
 30
0.0000000000000000
 11
235.9721296847865
 21
238.8358409280156
 31
0.0000000000000000
  0
CIRCLE
  5
29C
100
AcDbEntity
  8
MAIN0
  6
CONTINUOUS
 62
3
100
AcDbCircle
 10
385.2052602891627
 20
230.8217584280151
 30
0.0000000000000000
 40
10.00000000000000
  0
CIRCLE
  5
29D
100
AcDbEntity
  8
MAIN0
  6
CONTINUOUS
 62
3
100
AcDbCircle
 10
385.2052602891627
 20
230.8217584280151
 30
0.0000000000000000
 40
6.750000000000000
  0
ARC
  5
29E
100
AcDbEntity
  8
MAIN0
  6
CENTER
 62
12
100
AcDbCircle
 10
442.9475040864899
 20
264.1592584280153
 30
0.0000000000000000
 40
66.67499999999996
100
AcDbArc
 50
196.5159306497255
 51
224.0582213725872
  0
ARC
  5
29F
100
AcDbEntity
  8
MAIN0
  6
CENTER
 62
12
100
AcDbCircle
 10
442.9475040864899
 20
264.1592584280153
 30
0.0000000000000000
 40
66.67499999999996
100
AcDbArc
 50
16.73299605059556
 51
44.92924315928550
  0
CIRCLE
  5
2A0
100
AcDbEntity
  8
MAIN0
  6
CONTINUOUS
 62
3
100
AcDbCircle
 10
500.6897478838154
 20
297.4967584280151
 30
0.0000000000000000
 40
10.00000000000000
  0
CIRCLE
  5
2A1
100
AcDbEntity
  8
MAIN0
  6
CONTINUOUS
 62
3
100
AcDbCircle
 10
500.6897478838154
 20
297.4967584280151
 30
0.0000000000000000
 40
6.750000000000000
  0
CIRCLE
  5
2A2
100
AcDbEntity
  8
MAIN0
  6
CONTINUOUS
 62
3
100
AcDbCircle
 10
442.9475040864900
 20
264.1592584280153
 30
0.0000000000000000
 40
99.99999999999989
  0
ARC
  5
2A3
100
AcDbEntity
  8
MAIN0
  6
CENTER
 62
12
100
AcDbCircle
 10
442.9475040864900
 20
264.1592584280153
 30
0.0000000000000000
 40
66.67499999999996
100
AcDbArc
 50
137.3080069559230
 51
165.9422944899279
  0
CIRCLE
  5
2A4
100
AcDbEntity
  8
MAIN0
  6
CONTINUOUS
 62
3
100
AcDbCircle
 10
385.2052602891625
 20
297.4967584280151
 30
0.0000000000000000
 40
10.00000000000000
  0
CIRCLE
  5
2A5
100
AcDbEntity
  8
MAIN0
  6
CONTINUOUS
 62
3
100
AcDbCircle
 10
385.2052602891625
 20
297.4967584280151
 30
0.0000000000000000
 40
6.750000000000000
  0
LINE
  5
2A6
100
AcDbEntity
  8
MAIN0
  6
CENTER
 62
12
100
AcDbLine
 10
479.4475040864900
 20
321.3092584280151
 30
0.0000000000000000
 11
485.3748200543290
 21
321.3092584280151
 31
0.0000000000000000
  0
LINE
  5
2A7
100
AcDbEntity
  8
MAIN0
  6
CONTINUOUS
 62
3
100
AcDbLine
 10
471.3822650143499
 20
321.3092584280151
 30
0.0000000000000000
 11
479.4475040864900
 21
321.3092584280151
 31
0.0000000000000000
  0
LINE
  5
2A8
100
AcDbEntity
  8
MAIN0
  6
CENTER
 62
12
100
AcDbLine
 10
414.3822650143499
 20
321.3092584280151
 30
0.0000000000000000
 11
471.3822650143499
 21
321.3092584280151
 31
0.0000000000000000
  0
LINE
  5
2A9
100
AcDbEntity
  8
MAIN0
  6
CENTER
 62
12
100
AcDbLine
 10
402.2942071370868
 20
321.3092584280151
 30
0.0000000000000000
 11
406.4475040864900
 21
321.3092584280151
 31
0.0000000000000000
  0
LINE
  5
2AA
100
AcDbEntity
  8
MAIN0
  6
CONTINUOUS
 62
3
100
AcDbLine
 10
406.4475040864900
 20
321.3092584280151
 30
0.0000000000000000
 11
414.3822650143499
 21
321.3092584280151
 31
0.0000000000000000
  0
LINE
  5
2AB
100
AcDbEntity
  8
MAIN0
  6
CENTER
 62
12
100
AcDbLine
 10
400.5201881186509
 20
207.0092584280153
 30
0.0000000000000000
 11
406.4475040864882
 21
207.0092584280153
 31
0.0000000000000000
  0
LINE
  5
2AC
100
AcDbEntity
  8
MAIN0
  6
CONTINUOUS
 62
3
100
AcDbLine
 10
406.4475040864882
 20
207.0092584280153
 30
0.0000000000000000
 11
420.7225040864898
 21
207.0092584280153
 31
0.0000000000000000
  0
LINE
  5
2AD
100
AcDbEntity
  8
MAIN0
  6
CENTER
 62
12
100
AcDbLine
 10
420.7225040864898
 20
207.0092584280153
 30
0.0000000000000000
 11
465.1725040864897
 21
207.0092584280154
 31
0.0000000000000000
  0
LINE
  5
2AE
100
AcDbEntity
  8
MAIN0
  6
CENTER
 62
12
100
AcDbLine
 10
479.4475040864882
 20
207.0092584280155
 30
0.0000000000000000
 11
487.3357349679789
 21
207.0092584280155
 31
0.0000000000000000
  0
LINE
  5
2AF
100
AcDbEntity
  8
MAIN0
  6
CONTINUOUS
 62
3
100
AcDbLine
 10
235.9721296847865
 20
245.4826759280156
 30
0.0000000000000000
 11
235.9721296847865
 21
362.1592584280152
 31
0.0000000000000000
  0
LINE
  5
2B0
100
AcDbEntity
  8
MAIN0
  6
CONTINUOUS
 62
3
100
AcDbLine
 10
150.5721296847863
 20
248.2592584280153
 30
0.0000000000000000
 11
139.4721296847863
 21
248.2592584280153
 31
0.0000000000000000
  0
LINE
  5
2B1
100
AcDbEntity
  8
MAIN0
  6
CONTINUOUS
 62
3
100
AcDbLine
 10
150.5721296847863
 20
280.0592584280153
 30
0.0000000000000000
 11
139.4721296847863
 21
280.0592584280153
 31
0.0000000000000000
  0
LINE
  5
2B2
100
AcDbEntity
  8
MAIN0
  6
CONTINUOUS
 62
3
100
AcDbLine
 10
153.5721296847864
 20
204.2342584280153
 30
0.0000000000000000
 11
152.9721296847864
 21
204.8342584280153
 31
0.0000000000000000
  0
LINE
  5
2B3
100
AcDbEntity
  8
MAIN0
  6
CONTINUOUS
 62
3
100
AcDbLine
 10
153.5721296847864
 20
190.7342584280153
 30
0.0000000000000000
 11
152.9721296847864
 21
190.1342584280153
 31
0.0000000000000000
  0
LINE
  5
2B4
100
AcDbEntity
  8
MAIN0
  6
CONTINUOUS
 62
3
100
AcDbLine
 10
139.4721296847864
 20
280.0592584280153
 30
0.0000000000000000
 11
138.4721296847864
 21
281.0592584280153
 31
0.0000000000000000
  0
LINE
  5
2B5
100
AcDbEntity
  8
MAIN0
  6
CONTINUOUS
 62
3
100
AcDbLine
 10
139.4721296847864
 20
248.2592584280152
 30
0.0000000000000000
 11
138.4721296847864
 21
247.2592584280152
 31
0.0000000000000000
  0
LINE
  5
2B6
100
AcDbEntity
  8
MAIN0
  6
CONTINUOUS
 62
3
100
AcDbLine
 10
138.4721296847863
 20
240.1592584280154
 30
0.0000000000000000
 11
138.4721296847863
 21
248.2592584280153
 31
0.0000000000000000
  0
LINE
  5
2B7
100
AcDbEntity
  8
MAIN0
  6
CONTINUOUS
 62
3
100
AcDbLine
 10
138.4721296847864
 20
280.0592584280153
 30
0.0000000000000000
 11
138.4721296847864
 21
288.1592584280151
 31
0.0000000000000000
  0
LINE
  5
2B8
100
AcDbEntity
  8
MAIN0
  6
CENTER
 62
12
100
AcDbLine
 10
409.3519714560035
 20
304.9236223338993
 30
0.0000000000000000
 11
418.2080532913982
 21
309.2430220520275
 31
0.0000000000000000
  0
LINE
  5
2B9
100
AcDbEntity
  8
MAIN0
  6
CENTER
 62
12
100
AcDbLine
 10
477.2864877505049
 20
338.0574998191860
 30
0.0000000000000000
 11
466.9761407465670
 21
333.0288075859432
 31
0.0000000000000000
  0
LINE
  5
2BA
100
AcDbEntity
  8
MAIN0
  6
CENTER
 62
12
100
AcDbLine
 10
409.2037688332866
 20
337.7671777709411
 30
0.0000000000000000
 11
417.9723743235389
 21
333.4904431170675
 31
0.0000000000000000
  0
LINE
  5
2BB
100
AcDbEntity
  8
MAIN0
  6
CENTER
 62
12
100
AcDbLine
 10
476.5084401198554
 20
304.9404962217683
 30
0.0000000000000000
 11
467.1302368901162
 21
309.5145515591057
 31
0.0000000000000000
  0
LINE
  5
2BC
100
AcDbEntity
  8
MAIN0
  6
CONTINUOUS
 62
3
100
AcDbLine
 10
471.4475040864899
 20
322.8092584280151
 30
0.0000000000000000
 11
479.4166691441110
 21
322.8092584280151
 31
0.0000000000000000
  0
LINE
  5
2BD
100
AcDbEntity
  8
MAIN0
  6
CONTINUOUS
 62
3
100
AcDbLine
 10
471.4475040864899
 20
319.8092584280151
 30
0.0000000000000000
 11
479.4166691441109
 21
319.8092584280151
 31
0.0000000000000000
  0
LINE
  5
2BE
100
AcDbEntity
  8
MAIN0
  6
CONTINUOUS
 62
3
100
AcDbLine
 10
406.4783390288691
 20
322.8092584280151
 30
0.0000000000000000
 11
414.4475040864900
 21
322.8092584280151
 31
0.0000000000000000
  0
LINE
  5
2BF
100
AcDbEntity
  8
MAIN0
  6
CONTINUOUS
 62
3
100
AcDbLine
 10
406.4783390288691
 20
319.8092584280151
 30
0.0000000000000000
 11
414.4475040864899
 21
319.8092584280151
 31
0.0000000000000000
  0
ARC
  5
2C0
100
AcDbEntity
  8
MAIN0
  6
CONTINUOUS
 62
3
100
AcDbCircle
 10
415.9836826975150
 20
308.1581240243429
 30
0.0000000000000000
 40
5.500000000000000
100
AcDbArc
 50
106.2187413797578
 51
253.7812586202418
  0
ARC
  5
2C1
100
AcDbEntity
  8
MAIN0
  6
CONTINUOUS
 62
3
100
AcDbCircle
 10
469.9113254754649
 20
308.1581240243427
 30
0.0000000000000000
 40
5.500000000000000
100
AcDbArc
 50
286.2187413797586
 51
433.7812586202412
  0
ARC
  5
2C2
100
AcDbEntity
  8
MAIN0
  6
CONTINUOUS
 62
3
100
AcDbCircle
 10
469.9113254754650
 20
334.4603928316876
 30
0.0000000000000000
 40
5.500000000000000
100
AcDbArc
 50
286.2187413797578
 51
433.7812586202419
  0
ARC
  5
2C3
100
AcDbEntity
  8
MAIN0
  6
CONTINUOUS
 62
3
100
AcDbCircle
 10
415.9836826975150
 20
334.4603928316874
 30
0.0000000000000000
 40
5.500000000000000
100
AcDbArc
 50
106.2187413797578
 51
253.7812586202416
  0
ARC
  5
2C4
100
AcDbEntity
  8
MAIN0
  6
CENTER
 62
12
100
AcDbCircle
 10
442.9475040864900
 20
321.3092584280151
 30
0.0000000000000000
 40
30.00000000000000
100
AcDbArc
 50
326.4283003642503
 51
346.9403959983396
  0
ARC
  5
2C5
100
AcDbEntity
  8
MAIN0
  6
CENTER
 62
12
100
AcDbCircle
 10
442.9475040864900
 20
321.3092584280151
 30
0.0000000000000000
 40
30.00000000000000
100
AcDbArc
 50
191.9635053710392
 51
213.3393459999929
  0
ARC
  5
2C6
100
AcDbEntity
  8
MAIN0
  6
CENTER
 62
12
100
AcDbCircle
 10
442.9475040864900
 20
321.3092584280151
 30
0.0000000000000000
 40
30.00000000000000
100
AcDbArc
 50
12.19530260889478
 51
32.42667862362104
  0
ARC
  5
2C7
100
AcDbEntity
  8
MAIN0
  6
CENTER
 62
12
100
AcDbCircle
 10
442.9475040864900
 20
321.3092584280151
 30
0.0000000000000000
 40
30.00000000000000
100
AcDbArc
 50
145.5152055349777
 51
167.1059422223488
  0
ARC
  5
2C8
100
AcDbEntity
  8
MAIN0
  6
CONTINUOUS
 62
3
100
AcDbCircle
 10
442.9475040864900
 20
321.3092584280151
 30
0.0000000000000000
 40
36.50000000000000
100
AcDbArc
 50
141.3358911407601
 51
218.6641088592395
  0
ARC
  5
2C9
100
AcDbEntity
  8
MAIN0
  6
CONTINUOUS
 62
3
100
AcDbCircle
 10
442.9475040864900
 20
321.3092584280151
 30
0.0000000000000000
 40
36.50000000000000
100
AcDbArc
 50
321.3358911407599
 51
398.6641088592399
  0
LINE
  5
2CA
100
AcDbEntity
  8
MAIN0
  6
CENTER
 62
12
100
AcDbLine
 10
476.5430367169757
 20
223.3948945221320
 30
0.0000000000000000
 11
464.1411149887412
 21
217.3460731344289
 31
0.0000000000000000
  0
LINE
  5
2CB
100
AcDbEntity
  8
MAIN0
  6
CENTER
 62
12
100
AcDbLine
 10
408.6085204224747
 20
190.2610170368454
 30
0.0000000000000000
 11
421.7807223242110
 21
196.6855291674914
 31
0.0000000000000000
  0
LINE
  5
2CC
100
AcDbEntity
  8
MAIN0
  6
CENTER
 62
12
100
AcDbLine
 10
476.6912393396932
 20
190.5513390850895
 30
0.0000000000000000
 11
464.3133740212782
 21
196.5884273777597
 31
0.0000000000000000
  0
LINE
  5
2CD
100
AcDbEntity
  8
MAIN0
  6
CENTER
 62
12
100
AcDbLine
 10
409.3865680531243
 20
223.3780206342623
 30
0.0000000000000000
 11
422.0810318773793
 21
217.1865169328027
 31
0.0000000000000000
  0
LINE
  5
2CE
100
AcDbEntity
  8
MAIN0
  6
CONTINUOUS
 62
3
100
AcDbLine
 10
406.4783390288689
 20
205.5092584280154
 30
0.0000000000000000
 11
420.7225040864898
 21
205.5092584280154
 31
0.0000000000000000
  0
LINE
  5
2CF
100
AcDbEntity
  8
MAIN0
  6
CONTINUOUS
 62
3
100
AcDbLine
 10
406.4783390288689
 20
208.5092584280154
 30
0.0000000000000000
 11
420.7225040864897
 21
208.5092584280154
 31
0.0000000000000000
  0
ARC
  5
2D0
100
AcDbEntity
  8
MAIN0
  6
CONTINUOUS
 62
3
100
AcDbCircle
 10
469.9113254754641
 20
220.1603928316889
 30
0.0000000000000000
 40
5.500000000000000
100
AcDbArc
 50
210.5028527719691
 51
509.4971472280301
  0
ARC
  5
2D1
100
AcDbEntity
  8
MAIN0
  6
CONTINUOUS
 62
3
100
AcDbCircle
 10
415.9836826975150
 20
220.1603928316879
 30
0.0000000000000000
 40
5.500000000000000
100
AcDbArc
 50
329.4971472280143
 51
333.9999999999934
  0
ARC
  5
2D2
100
AcDbEntity
  8
MAIN0
  6
CONTINUOUS
 62
3
100
AcDbCircle
 10
415.9836826975150
 20
193.8581240243430
 30
0.0000000000000000
 40
5.500000000000000
100
AcDbArc
 50
30.50285277197496
 51
329.4971472280256
  0
ARC
  5
2D3
100
AcDbEntity
  8
MAIN0
  6
CENTER
 62
12
100
AcDbCircle
 10
442.9475040864882
 20
207.0092584280185
 30
0.0000000000000000
 40
30.00000000000000
100
AcDbArc
 50
139.9438143823602
 51
169.2782189089764
  0
ARC
  5
2D4
100
AcDbEntity
  8
MAIN0
  6
CENTER
 62
12
100
AcDbCircle
 10
442.9475040864882
 20
207.0092584280185
 30
0.0000000000000000
 40
30.00000000000000
100
AcDbArc
 50
11.96350537103907
 51
39.93027413139035
  0
ARC
  5
2D5
100
AcDbEntity
  8
MAIN0
  6
CENTER
 62
12
100
AcDbCircle
 10
442.9475040864882
 20
207.0092584280185
 30
0.0000000000000000
 40
30.00000000000000
100
AcDbArc
 50
192.1953026088947
 51
222.2861303757010
  0
ARC
  5
2D6
100
AcDbEntity
  8
MAIN0
  6
CENTER
 62
12
100
AcDbCircle
 10
442.9475040864882
 20
207.0092584280185
 30
0.0000000000000000
 40
30.00000000000000
100
AcDbArc
 50
320.7323219181877
 51
347.1059422223422
  0
ARC
  5
2D7
100
AcDbEntity
  8
MAIN0
  6
CONTINUOUS
 62
3
100
AcDbCircle
 10
442.9475040864882
 20
207.0092584280185
 30
0.0000000000000000
 40
36.50000000000000
100
AcDbArc
 50
122.0664261974097
 51
232.4896949330752
  0
ARC
  5
2D8
100
AcDbEntity
  8
MAIN0
  6
CONTINUOUS
 62
3
100
AcDbCircle
 10
442.9475040864882
 20
207.0092584280185
 30
0.0000000000000000
 40
36.50000000000000
100
AcDbArc
 50
307.5103050669188
 51
417.9335738025672
  0
ARC
  5
2D9
100
AcDbEntity
  8
MAIN0
  6
CONTINUOUS
 62
3
100
AcDbCircle
 10
442.9475040864882
 20
207.0092584280185
 30
0.0000000000000000
 40
36.50000000000000
100
AcDbArc
 50
73.79595206221474
 51
82.05904251493718
  0
ARC
  5
2DA
100
AcDbEntity
  8
MAIN0
  6
CONTINUOUS
 62
3
100
AcDbCircle
 10
442.9475040864882
 20
207.0092584280185
 30
0.0000000000000000
 40
36.50000000000000
100
AcDbArc
 50
97.94095748506277
 51
106.2040479377856
  0
LINE
  5
2DB
100
AcDbEntity
  8
MAIN0
  6
CONTINUOUS
 62
3
100
AcDbLine
 10
471.3822650143498
 20
336.4978965354092
 30
0.0000000000000000
 11
472.4113254754651
 21
335.9037668316876
 31
0.0000000000000000
  0
LINE
  5
2DC
100
AcDbEntity
  8
MAIN0
  6
CONTINUOUS
 62
3
100
AcDbLine
 10
471.3822650143498
 20
332.4228872191620
 30
0.0000000000000000
 11
472.4113284754650
 21
333.0170178316877
 31
0.0000000000000000
  0
LINE
  5
2DD
100
AcDbEntity
  8
MAIN0
  6
CONTINUOUS
 62
3
100
AcDbLine
 10
472.4113284754650
 20
333.0170178316876
 30
0.0000000000000000
 11
472.4113254754650
 21
335.9037668316876
 31
0.0000000000000000
  0
ARC
  5
2DE
100
AcDbEntity
  8
MAIN0
  6
CONTINUOUS
 62
3
100
AcDbCircle
 10
469.9113254754650
 20
334.4603928316876
 30
0.0000000000000000
 40
4.999999999999996
100
AcDbArc
 50
0.0000000000000000
 51
72.10727901007131
  0
ARC
  5
2DF
100
AcDbEntity
  8
MAIN0
  6
CONTINUOUS
 62
3
100
AcDbCircle
 10
469.9113254754650
 20
334.4603928316876
 30
0.0000000000000000
 40
4.999999999999996
100
AcDbArc
 50
287.8927209899283
 51
359.9999999999998
  0
LINE
  5
2E0
100
AcDbEntity
  8
MAIN0
  6
CONTINUOUS
 62
3
100
AcDbLine
 10
413.4836826975148
 20
335.9037668316877
 30
0.0000000000000000
 11
414.4475040864899
 21
336.4602306527266
 31
0.0000000000000000
  0
LINE
  5
2E1
100
AcDbEntity
  8
MAIN0
  6
CONTINUOUS
 62
3
100
AcDbLine
 10
413.4836796975149
 20
333.0170178316876
 30
0.0000000000000000
 11
414.4475040864900
 21
332.4605530496534
 31
0.0000000000000000
  0
LINE
  5
2E2
100
AcDbEntity
  8
MAIN0
  6
CONTINUOUS
 62
3
100
AcDbLine
 10
413.4836796975149
 20
333.0170178316876
 30
0.0000000000000000
 11
413.4836826975149
 21
335.9037668316876
 31
0.0000000000000000
  0
ARC
  5
2E3
100
AcDbEntity
  8
MAIN0
  6
CONTINUOUS
 62
3
100
AcDbCircle
 10
415.9836826975150
 20
334.4603928316876
 30
0.0000000000000000
 40
4.999999999999996
100
AcDbArc
 50
179.9999999999998
 51
252.1072790100717
  0
ARC
  5
2E4
100
AcDbEntity
  8
MAIN0
  6
CONTINUOUS
 62
3
100
AcDbCircle
 10
415.9836826975150
 20
334.4603928316876
 30
0.0000000000000000
 40
4.999999999999996
100
AcDbArc
 50
107.8927209899281
 51
179.9999999999998
  0
LINE
  5
2E5
100
AcDbEntity
  8
MAIN0
  6
CONTINUOUS
 62
3
100
AcDbLine
 10
413.4836826975148
 20
306.7147500243428
 30
0.0000000000000000
 11
414.4475040864899
 21
306.1582862033038
 31
0.0000000000000000
  0
LINE
  5
2E6
100
AcDbEntity
  8
MAIN0
  6
CONTINUOUS
 62
3
100
AcDbLine
 10
413.4836796975148
 20
309.6014990243428
 30
0.0000000000000000
 11
414.4475040864900
 21
310.1579638063772
 31
0.0000000000000000
  0
LINE
  5
2E7
100
AcDbEntity
  8
MAIN0
  6
CONTINUOUS
 62
3
100
AcDbLine
 10
413.4836796975149
 20
309.6014990243427
 30
0.0000000000000000
 11
413.4836826975150
 21
306.7147500243427
 31
0.0000000000000000
  0
ARC
  5
2E8
100
AcDbEntity
  8
MAIN0
  6
CONTINUOUS
 62
3
100
AcDbCircle
 10
415.9836826975150
 20
308.1581240243428
 30
0.0000000000000000
 40
4.999999999999996
100
AcDbArc
 50
179.9999999999998
 51
252.1072790100719
  0
ARC
  5
2E9
100
AcDbEntity
  8
MAIN0
  6
CONTINUOUS
 62
3
100
AcDbCircle
 10
415.9836826975150
 20
308.1581240243428
 30
0.0000000000000000
 40
4.999999999999996
100
AcDbArc
 50
107.8927209899273
 51
179.9999999999998
  0
LINE
  5
2EA
100
AcDbEntity
  8
MAIN0
  6
CONTINUOUS
 62
3
100
AcDbLine
 10
471.4475040864900
 20
306.1582862033038
 30
0.0000000000000000
 11
472.4113254754650
 21
306.7147500243428
 31
0.0000000000000000
  0
LINE
  5
2EB
100
AcDbEntity
  8
MAIN0
  6
CONTINUOUS
 62
3
100
AcDbLine
 10
471.4475040864900
 20
310.1579638063770
 30
0.0000000000000000
 11
472.4113284754650
 21
309.6014990243428
 31
0.0000000000000000
  0
LINE
  5
2EC
100
AcDbEntity
  8
MAIN0
  6
CONTINUOUS
 62
3
100
AcDbLine
 10
472.4113284754650
 20
309.6014990243427
 30
0.0000000000000000
 11
472.4113254754650
 21
306.7147500243428
 31
0.0000000000000000
  0
ARC
  5
2ED
100
AcDbEntity
  8
MAIN0
  6
CONTINUOUS
 62
3
100
AcDbCircle
 10
469.9113254754650
 20
308.1581240243428
 30
0.0000000000000000
 40
4.999999999999996
100
AcDbArc
 50
8.905553108097847e-014
 51
72.10727901007131
  0
ARC
  5
2EE
100
AcDbEntity
  8
MAIN0
  6
CONTINUOUS
 62
3
100
AcDbCircle
 10
469.9113254754650
 20
308.1581240243428
 30
0.0000000000000000
 40
4.999999999999996
100
AcDbArc
 50
287.8927209899285
 51
359.9999999999998
  0
LINE
  5
2EF
100
AcDbEntity
  8
MAIN0
  6
CONTINUOUS
 62
3
100
AcDbLine
 10
472.4113254754647
 20
221.6037668316872
 30
0.0000000000000000
 11
469.9113254754647
 21
223.0471458316872
 31
0.0000000000000000
  0
LINE
  5
2F0
100
AcDbEntity
  8
MAIN0
  6
CONTINUOUS
 62
3
100
AcDbLine
 10
469.9113254754636
 20
223.0471458316891
 30
0.0000000000000000
 11
467.4113254754636
 21
221.6037668316891
 31
0.0000000000000000
  0
LINE
  5
2F1
100
AcDbEntity
  8
MAIN0
  6
CONTINUOUS
 62
3
100
AcDbLine
 10
467.4113254754647
 20
221.6037668316871
 30
0.0000000000000000
 11
467.4113254754647
 21
218.7170138316871
 31
0.0000000000000000
  0
LINE
  5
2F2
100
AcDbEntity
  8
MAIN0
  6
CONTINUOUS
 62
3
100
AcDbLine
 10
467.4113254754647
 20
218.7170138316871
 30
0.0000000000000000
 11
469.9113284754647
 21
217.2736408316872
 31
0.0000000000000000
  0
LINE
  5
2F3
100
AcDbEntity
  8
MAIN0
  6
CONTINUOUS
 62
3
100
AcDbLine
 10
469.9113284754632
 20
217.2736408316899
 30
0.0000000000000000
 11
472.4113284754631
 21
218.7170178316898
 31
0.0000000000000000
  0
LINE
  5
2F4
100
AcDbEntity
  8
MAIN0
  6
CONTINUOUS
 62
3
100
AcDbLine
 10
472.4113284754648
 20
218.7170178316871
 30
0.0000000000000000
 11
472.4113254754647
 21
221.6037668316872
 31
0.0000000000000000
  0
ARC
  5
2F5
100
AcDbEntity
  8
MAIN0
  6
CONTINUOUS
 62
3
100
AcDbCircle
 10
469.9113254754639
 20
220.1603928316887
 30
0.0000000000000000
 40
4.999999999999996
100
AcDbArc
 50
198.6007422699080
 51
518.2660587073382
  0
LINE
  5
2F6
100
AcDbEntity
  8
MAIN0
  6
CONTINUOUS
 62
3
100
AcDbLine
 10
413.4836826975143
 20
221.6037668316872
 30
0.0000000000000000
 11
415.9836826975143
 21
223.0471458316872
 31
0.0000000000000000
  0
LINE
  5
2F7
100
AcDbEntity
  8
MAIN0
  6
CONTINUOUS
 62
3
100
AcDbLine
 10
415.9836826975142
 20
223.0471458316871
 30
0.0000000000000000
 11
418.4836826975142
 21
221.6037668316871
 31
0.0000000000000000
  0
LINE
  5
2F8
100
AcDbEntity
  8
MAIN0
  6
CONTINUOUS
 62
3
100
AcDbLine
 10
418.4836826975142
 20
221.6037668316871
 30
0.0000000000000000
 11
418.4836826975141
 21
218.7170138316871
 31
0.0000000000000000
  0
LINE
  5
2F9
100
AcDbEntity
  8
MAIN0
  6
CONTINUOUS
 62
3
100
AcDbLine
 10
418.4836826975142
 20
218.7170138316872
 30
0.0000000000000000
 11
415.9836796975142
 21
217.2736408316872
 31
0.0000000000000000
  0
LINE
  5
2FA
100
AcDbEntity
  8
MAIN0
  6
CONTINUOUS
 62
3
100
AcDbLine
 10
415.9836796975141
 20
217.2736408316871
 30
0.0000000000000000
 11
413.4836796975141
 21
218.7170178316871
 31
0.0000000000000000
  0
LINE
  5
2FB
100
AcDbEntity
  8
MAIN0
  6
CONTINUOUS
 62
3
100
AcDbLine
 10
413.4836796975142
 20
218.7170178316871
 30
0.0000000000000000
 11
413.4836826975142
 21
221.6037668316871
 31
0.0000000000000000
  0
ARC
  5
2FC
100
AcDbEntity
  8
MAIN0
  6
CONTINUOUS
 62
3
100
AcDbCircle
 10
415.9836826975142
 20
220.1603928316871
 30
0.0000000000000000
 40
4.999999999999996
100
AcDbArc
 50
179.9999999999997
 51
341.3992577301081
  0
ARC
  5
2FD
100
AcDbEntity
  8
MAIN0
  6
CONTINUOUS
 62
3
100
AcDbCircle
 10
415.9836826975142
 20
220.1603928316871
 30
0.0000000000000000
 40
4.999999999999996
100
AcDbArc
 50
18.60074226989207
 51
179.9999999999997
  0
LINE
  5
2FE
100
AcDbEntity
  8
MAIN0
  6
CONTINUOUS
 62
3
100
AcDbLine
 10
413.4836826975142
 20
192.4147500243436
 30
0.0000000000000000
 11
415.9836826975142
 21
190.9713710243436
 31
0.0000000000000000
  0
LINE
  5
2FF
100
AcDbEntity
  8
MAIN0
  6
CONTINUOUS
 62
3
100
AcDbLine
 10
415.9836826975125
 20
190.9713710243467
 30
0.0000000000000000
 11
418.4836826975125
 21
192.4147500243467
 31
0.0000000000000000
  0
LINE
  5
300
100
AcDbEntity
  8
MAIN0
  6
CONTINUOUS
 62
3
100
AcDbLine
 10
418.4836826975141
 20
192.4147500243437
 30
0.0000000000000000
 11
418.4836826975141
 21
195.3015030243436
 31
0.0000000000000000
  0
LINE
  5
301
100
AcDbEntity
  8
MAIN0
  6
CONTINUOUS
 62
3
100
AcDbLine
 10
418.4836826975142
 20
195.3015030243436
 30
0.0000000000000000
 11
415.9836796975142
 21
196.7448760243435
 31
0.0000000000000000
  0
LINE
  5
302
100
AcDbEntity
  8
MAIN0
  6
CONTINUOUS
 62
3
100
AcDbLine
 10
415.9836796975143
 20
196.7448760243436
 30
0.0000000000000000
 11
413.4836796975143
 21
195.3014990243436
 31
0.0000000000000000
  0
LINE
  5
303
100
AcDbEntity
  8
MAIN0
  6
CONTINUOUS
 62
3
100
AcDbLine
 10
413.4836796975142
 20
195.3014990243435
 30
0.0000000000000000
 11
413.4836826975142
 21
192.4147500243436
 31
0.0000000000000000
  0
ARC
  5
304
100
AcDbEntity
  8
MAIN0
  6
CONTINUOUS
 62
3
100
AcDbCircle
 10
415.9836826975142
 20
193.8581240243436
 30
0.0000000000000000
 40
4.999999999999996
100
AcDbArc
 50
180.0000000000005
 51
341.3992577301108
  0
ARC
  5
305
100
AcDbEntity
  8
MAIN0
  6
CONTINUOUS
 62
3
100
AcDbCircle
 10
415.9836826975142
 20
193.8581240243436
 30
0.0000000000000000
 40
4.999999999999996
100
AcDbArc
 50
18.60074226988963
 51
180.0000000000003
  0
LINE
  5
306
100
AcDbEntity
  8
MAIN0
  6
CONTINUOUS
 62
3
100
AcDbLine
 10
472.4113254754634
 20
192.4147500243461
 30
0.0000000000000000
 11
469.9113254754634
 21
190.9713710243461
 31
0.0000000000000000
  0
LINE
  5
307
100
AcDbEntity
  8
MAIN0
  6
CONTINUOUS
 62
3
100
AcDbLine
 10
469.9113254754647
 20
190.9713710243437
 30
0.0000000000000000
 11
467.4113254754647
 21
192.4147500243437
 31
0.0000000000000000
  0
LINE
  5
308
100
AcDbEntity
  8
MAIN0
  6
CONTINUOUS
 62
3
100
AcDbLine
 10
467.4113254754647
 20
192.4147500243437
 30
0.0000000000000000
 11
467.4113254754647
 21
195.3015030243437
 31
0.0000000000000000
  0
LINE
  5
309
100
AcDbEntity
  8
MAIN0
  6
CONTINUOUS
 62
3
100
AcDbLine
 10
467.4113254754644
 20
195.3015030243444
 30
0.0000000000000000
 11
469.9113284754644
 21
196.7448760243443
 31
0.0000000000000000
  0
LINE
  5
30A
100
AcDbEntity
  8
MAIN0
  6
CONTINUOUS
 62
3
100
AcDbLine
 10
469.9113284754646
 20
196.7448760243437
 30
0.0000000000000000
 11
472.4113284754646
 21
195.3014990243437
 31
0.0000000000000000
  0
LINE
  5
30B
100
AcDbEntity
  8
MAIN0
  6
CONTINUOUS
 62
3
100
AcDbLine
 10
472.4113284754647
 20
195.3014990243437
 30
0.0000000000000000
 11
472.4113254754648
 21
192.4147500243437
 31
0.0000000000000000
  0
LINE
  5
30C
100
AcDbEntity
  8
MAIN0
  6
CONTINUOUS
 62
3
100
AcDbLine
 10
127.0241783463413
 20
280.0592584280154
 30
0.0000000000000000
 11
150.1661668838278
 21
280.0592584280154
 31
0.0000000000000000
  0
LINE
  5
30D
100
AcDbEntity
  8
MAIN0
  6
CONTINUOUS
 62
3
100
AcDbLine
 10
200.2041783463413
 20
280.0592584280154
 30
0.0000000000000000
 11
222.8041783463413
 21
280.0592584280154
 31
0.0000000000000000
  0
LINE
  5
30E
100
AcDbEntity
  8
MAIN0
  6
CONTINUOUS
 62
3
100
AcDbLine
 10
127.0241783463413
 20
248.2592584280154
 30
0.0000000000000000
 11
150.8427246912959
 21
248.2592584280154
 31
0.0000000000000000
  0
LINE
  5
30F
100
AcDbEntity
  8
MAIN0
  6
CONTINUOUS
 62
3
100
AcDbLine
 10
200.2041783463413
 20
248.2592584280154
 30
0.0000000000000000
 11
222.8041783463413
 21
248.2592584280154
 31
0.0000000000000000
  0
LINE
  5
310
100
AcDbEntity
  8
MAIN0
  6
CONTINUOUS
 62
3
100
AcDbLine
 10
223.8041783463413
 20
249.2592584280154
 30
0.0000000000000000
 11
223.8041783463413
 21
279.0592584280153
 31
0.0000000000000000
  0
LINE
  5
311
100
AcDbEntity
  8
MAIN0
  6
CONTINUOUS
 62
3
100
AcDbLine
 10
222.8041783463413
 20
248.2592584280155
 30
0.0000000000000000
 11
223.8041783463413
 21
249.2592584280155
 31
0.0000000000000000
  0
LINE
  5
312
100
AcDbEntity
  8
MAIN0
  6
CONTINUOUS
 62
3
100
AcDbLine
 10
222.8041783463413
 20
280.0592584280153
 30
0.0000000000000000
 11
223.8041783463413
 21
279.0592584280153
 31
0.0000000000000000
  0
LINE
  5
313
100
AcDbEntity
  8
MAIN0
  6
CONTINUOUS
 62
3
100
AcDbLine
 10
125.0241783463412
 20
249.4139589663940
 30
0.0000000000000000
 11
127.0241783463398
 21
248.2592584280156
 31
0.0000000000000000
  0
LINE
  5
314
100
AcDbEntity
  8
MAIN0
  6
CONTINUOUS
 62
3
100
AcDbLine
 10
125.0241783463413
 20
278.9045578896362
 30
0.0000000000000000
 11
127.0241783463411
 21
280.0592584280154
 31
0.0000000000000000
  0
LINE
  5
315
100
AcDbEntity
  8
MAIN0
  6
CONTINUOUS
 62
3
100
AcDbLine
 10
426.3949452032322
 20
251.7158827550411
 30
0.0000000000000000
 11
426.3949452032322
 21
254.6026341009892
 31
0.0000000000000000
  0
LINE
  5
316
100
AcDbEntity
  8
MAIN0
  6
CONTINUOUS
 62
3
100
AcDbLine
 10
423.8949452032323
 20
256.0460097739634
 30
0.0000000000000000
 11
426.3949452032322
 21
254.6026341009893
 31
0.0000000000000000
  0
LINE
  5
317
100
AcDbEntity
  8
MAIN0
  6
CONTINUOUS
 62
3
100
AcDbLine
 10
423.8949452032325
 20
250.2725070820671
 30
0.0000000000000000
 11
426.3949452032323
 21
251.7158827550411
 31
0.0000000000000000
  0
LINE
  5
318
100
AcDbEntity
  8
MAIN0
  6
CONTINUOUS
 62
3
100
AcDbLine
 10
421.3949452032323
 20
254.6026341009893
 30
0.0000000000000000
 11
421.3949452032324
 21
251.7158827550412
 31
0.0000000000000000
  0
LINE
  5
319
100
AcDbEntity
  8
MAIN0
  6
CONTINUOUS
 62
3
100
AcDbLine
 10
421.3949452032323
 20
251.7158827550412
 30
0.0000000000000000
 11
423.8949452032323
 21
250.2725070820671
 31
0.0000000000000000
  0
LINE
  5
31A
100
AcDbEntity
  8
MAIN0
  6
CONTINUOUS
 62
3
100
AcDbLine
 10
421.3949452032324
 20
254.6026341009894
 30
0.0000000000000000
 11
423.8949452032324
 21
256.0460097739634
 31
0.0000000000000000
  0
ARC
  5
31B
100
AcDbEntity
  8
MAIN0
  6
CENTER
 62
12
100
AcDbCircle
 10
442.9475040864900
 20
264.1592584280152
 30
0.0000000000000000
 40
22.00000000000000
100
AcDbArc
 50
186.0634125080774
 51
237.1486478483619
  0
CIRCLE
  5
31C
100
AcDbEntity
  8
MAIN0
  6
CONTINUOUS
 62
3
100
AcDbCircle
 10
423.8949452032325
 20
253.1592584280153
 30
0.0000000000000000
 40
7.000000000000000
  0
LINE
  5
31D
100
AcDbEntity
  8
MAIN0
  6
CONTINUOUS
 62
3
100
AcDbLine
 10
239.3121296847865
 20
95.30665565068611
 30
0.0000000000000000
 11
239.3121296847865
 21
117.1316556507021
 31
0.0000000000000000
  0
LINE
  5
31E
100
AcDbEntity
  8
MAIN0
  6
CONTINUOUS
 62
3
100
AcDbLine
 10
239.7121296847865
 20
117.5316556507021
 30
0.0000000000000000
 11
264.3021296847863
 21
117.5316556507022
 31
0.0000000000000000
  0
LINE
  5
31F
100
AcDbEntity
  8
MAIN0
  6
CONTINUOUS
 62
3
100
AcDbLine
 10
244.7021296847865
 20
102.5066556507021
 30
0.0000000000000000
 11
245.2021296847865
 21
102.5066556507021
 31
0.0000000000000000
  0
LINE
  5
320
100
AcDbEntity
  8
MAIN0
  6
CONTINUOUS
 62
3
100
AcDbLine
 10
264.3021296847863
 20
102.4266556507021
 30
0.0000000000000000
 11
264.3021296847863
 21
117.5316556507021
 31
0.0000000000000000
  0
LINE
  5
321
100
AcDbEntity
  8
MAIN0
  6
CONTINUOUS
 62
3
100
AcDbLine
 10
259.3021296847863
 20
102.4266556507021
 30
0.0000000000000000
 11
259.3021296847863
 21
117.5316556507021
 31
0.0000000000000000
  0
LINE
  5
322
100
AcDbEntity
  8
MAIN0
  6
CONTINUOUS
 62
3
100
AcDbLine
 10
244.7021296847865
 20
95.30665565070208
 30
0.0000000000000000
 11
244.7021296847865
 21
102.5066556507021
 31
0.0000000000000000
  0
LINE
  5
323
100
AcDbEntity
  8
MAIN0
  6
CONTINUOUS
 62
3
100
AcDbLine
 10
251.2021296847865
 20
102.4516556507021
 30
0.0000000000000000
 11
251.2021296847865
 21
103.6566554400370
 31
0.0000000000000000
  0
LINE
  5
324
100
AcDbEntity
  8
MAIN0
  6
CONTINUOUS
 62
3
100
AcDbLine
 10
245.2021296847865
 20
102.5066556507021
 30
0.0000000000000000
 11
245.2021296847865
 21
103.6566551047665
 31
0.0000000000000000
  0
LINE
  5
325
100
AcDbEntity
  8
MAIN0
  6
CONTINUOUS
 62
3
100
AcDbLine
 10
239.3121296847865
 20
117.1316556507022
 30
0.0000000000000000
 11
239.7121296847865
 21
117.5316556507021
 31
0.0000000000000000
  0
LINE
  5
326
100
AcDbEntity
  8
MAIN0
  6
CONTINUOUS
 62
3
100
AcDbLine
 10
239.3121296847865
 20
95.30665565071814
 30
0.0000000000000000
 11
239.3121296847865
 21
73.48165565070210
 31
0.0000000000000000
  0
LINE
  5
327
100
AcDbEntity
  8
MAIN0
  6
CONTINUOUS
 62
3
100
AcDbLine
 10
239.7121296847865
 20
73.08165565070209
 30
0.0000000000000000
 11
264.3021296847865
 21
73.08165565070209
 31
0.0000000000000000
  0
LINE
  5
328
100
AcDbEntity
  8
MAIN0
  6
CONTINUOUS
 62
3
100
AcDbLine
 10
244.7021296847865
 20
88.10665565070212
 30
0.0000000000000000
 11
245.2021296847865
 21
88.10665565070212
 31
0.0000000000000000
  0
LINE
  5
329
100
AcDbEntity
  8
MAIN0
  6
CONTINUOUS
 62
3
100
AcDbLine
 10
264.3021296847865
 20
88.18665565070208
 30
0.0000000000000000
 11
264.3021296847865
 21
73.08165565070217
 31
0.0000000000000000
  0
LINE
  5
32A
100
AcDbEntity
  8
MAIN0
  6
CONTINUOUS
 62
3
100
AcDbLine
 10
259.3021296847865
 20
88.18665565070208
 30
0.0000000000000000
 11
259.3021296847865
 21
73.08165565070212
 31
0.0000000000000000
  0
LINE
  5
32B
100
AcDbEntity
  8
MAIN0
  6
CONTINUOUS
 62
3
100
AcDbLine
 10
244.7021296847865
 20
95.30665565070217
 30
0.0000000000000000
 11
244.7021296847865
 21
88.10665565070218
 31
0.0000000000000000
  0
LINE
  5
32C
100
AcDbEntity
  8
MAIN0
  6
CONTINUOUS
 62
3
100
AcDbLine
 10
251.2021296847865
 20
88.16165565070213
 30
0.0000000000000000
 11
251.2021296847865
 21
86.95665586136724
 31
0.0000000000000000
  0
LINE
  5
32D
100
AcDbEntity
  8
MAIN0
  6
CONTINUOUS
 62
3
100
AcDbLine
 10
245.2021296847865
 20
88.10665565070212
 30
0.0000000000000000
 11
245.2021296847865
 21
86.95665619663774
 31
0.0000000000000000
  0
LINE
  5
32E
100
AcDbEntity
  8
MAIN0
  6
CONTINUOUS
 62
3
100
AcDbLine
 10
239.3121296847865
 20
73.48165565070212
 30
0.0000000000000000
 11
239.7121296847865
 21
73.08165565070212
 31
0.0000000000000000
  0
ARC
  5
32F
100
AcDbEntity
  8
MAIN0
  6
CONTINUOUS
 62
3
100
AcDbCircle
 10
248.2021296847865
 20
103.6566556507022
 30
0.0000000000000000
 40
2.999999999999972
100
AcDbArc
 50
1.272221872585407e-014
 51
179.9999999999998
  0
ARC
  5
330
100
AcDbEntity
  8
MAIN0
  6
CONTINUOUS
 62
3
100
AcDbCircle
 10
234.8121296847865
 20
116.4766556507021
 30
0.0000000000000000
 40
4.500000000000000
100
AcDbArc
 50
284.9382440979771
 51
359.9999999999998
  0
ARC
  5
331
100
AcDbEntity
  8
MAIN0
  6
CONTINUOUS
 62
3
100
AcDbCircle
 10
248.2021296847865
 20
86.95665565070203
 30
0.0000000000000000
 40
2.999999999999972
100
AcDbArc
 50
179.9999999999998
 51
360.0000000000000
  0
ARC
  5
332
100
AcDbEntity
  8
MAIN0
  6
CONTINUOUS
 62
3
100
AcDbCircle
 10
234.8121296847865
 20
74.13665565070210
 30
0.0000000000000000
 40
4.500000000000000
100
AcDbArc
 50
2.544443745170813e-014
 51
75.06175590202226
  0
LINE
  5
333
100
AcDbEntity
  8
MAIN0
  6
CONTINUOUS
 62
3
100
AcDbLine
 10
313.4721296847864
 20
352.0592584280153
 30
0.0000000000000000
 11
313.4721296847865
 21
280.0592584280151
 31
0.0000000000000000
  0
LINE
  5
334
100
AcDbEntity
  8
MAIN0
  6
CONTINUOUS
 62
3
100
AcDbLine
 10
259.3021296847864
 20
279.0592584280151
 30
0.0000000000000000
 11
312.4721296847865
 21
279.0592584280151
 31
0.0000000000000000
  0
LINE
  5
335
100
AcDbEntity
  8
MAIN0
  6
CONTINUOUS
 62
3
100
AcDbLine
 10
266.4721296847865
 20
297.1692584280152
 30
0.0000000000000000
 11
259.9021296847863
 21
297.1692584280152
 31
0.0000000000000000
  0
LINE
  5
336
100
AcDbEntity
  8
MAIN0
  6
CONTINUOUS
 62
3
100
AcDbLine
 10
266.4721296847865
 20
310.6692584280152
 30
0.0000000000000000
 11
259.9021296847863
 21
310.6692584280152
 31
0.0000000000000000
  0
LINE
  5
337
100
AcDbEntity
  8
MAIN0
  6
CONTINUOUS
 62
3
100
AcDbLine
 10
312.8721296847864
 20
293.9192584280152
 30
0.0000000000000000
 11
266.4721296847864
 21
293.9192584280151
 31
0.0000000000000000
  0
LINE
  5
338
100
AcDbEntity
  8
MAIN0
  6
CONTINUOUS
 62
3
100
AcDbLine
 10
266.4721296847864
 20
313.9192584280151
 30
0.0000000000000000
 11
312.8721296847864
 21
313.9192584280152
 31
0.0000000000000000
  0
LINE
  5
339
100
AcDbEntity
  8
MAIN0
  6
CONTINUOUS
 62
3
100
AcDbLine
 10
266.4721296847865
 20
293.9192584280150
 30
0.0000000000000000
 11
266.4721296847865
 21
313.9192584280150
 31
0.0000000000000000
  0
LINE
  5
33A
100
AcDbEntity
  8
MAIN0
  6
CONTINUOUS
 62
3
100
AcDbLine
 10
266.4721296847865
 20
331.3092584280151
 30
0.0000000000000000
 11
259.9021296847863
 21
331.3092584280151
 31
0.0000000000000000
  0
LINE
  5
33B
100
AcDbEntity
  8
MAIN0
  6
CONTINUOUS
 62
3
100
AcDbLine
 10
266.4721296847865
 20
344.8092584280151
 30
0.0000000000000000
 11
259.9021296847863
 21
344.8092584280151
 31
0.0000000000000000
  0
LINE
  5
33C
100
AcDbEntity
  8
MAIN0
  6
CONTINUOUS
 62
3
100
AcDbLine
 10
312.8721296847864
 20
328.0592584280151
 30
0.0000000000000000
 11
266.4721296847864
 21
328.0592584280150
 31
0.0000000000000000
  0
LINE
  5
33D
100
AcDbEntity
  8
MAIN0
  6
CONTINUOUS
 62
3
100
AcDbLine
 10
266.4721296847865
 20
348.0592584280151
 30
0.0000000000000000
 11
312.8721296847864
 21
348.0592584280151
 31
0.0000000000000000
  0
LINE
  5
33E
100
AcDbEntity
  8
MAIN0
  6
CONTINUOUS
 62
3
100
AcDbLine
 10
266.4721296847864
 20
328.0592584280150
 30
0.0000000000000000
 11
266.4721296847864
 21
348.0592584280151
 31
0.0000000000000000
  0
LINE
  5
33F
100
AcDbEntity
  8
MAIN0
  6
CONTINUOUS
 62
3
100
AcDbLine
 10
313.4721296847864
 20
280.0592584280152
 30
0.0000000000000000
 11
312.4721296847864
 21
279.0592584280152
 31
0.0000000000000000
  0
LINE
  5
340
100
AcDbEntity
  8
MAIN0
  6
CONTINUOUS
 62
3
100
AcDbLine
 10
313.4721296847865
 20
352.0592584280153
 30
0.0000000000000000
 11
312.4721296847865
 21
353.0592584280153
 31
0.0000000000000000
  0
LINE
  5
341
100
AcDbEntity
  8
MAIN0
  6
HIDDEN
 62
4
100
AcDbLine
 10
256.0021296847865
 20
352.0592584280152
 30
0.0000000000000000
 11
257.0021296847865
 21
353.0592584280152
 31
0.0000000000000000
  0
LINE
  5
342
100
AcDbEntity
  8
MAIN0
  6
CONTINUOUS
 62
3
100
AcDbLine
 10
259.3021296847865
 20
330.7092584280150
 30
0.0000000000000000
 11
259.9021296847865
 21
331.3092584280151
 31
0.0000000000000000
  0
LINE
  5
343
100
AcDbEntity
  8
MAIN0
  6
CONTINUOUS
 62
3
100
AcDbLine
 10
259.3021296847865
 20
345.4092584280151
 30
0.0000000000000000
 11
259.9021296847865
 21
344.8092584280150
 31
0.0000000000000000
  0
LINE
  5
344
100
AcDbEntity
  8
MAIN0
  6
CONTINUOUS
 62
3
100
AcDbLine
 10
259.3021296847865
 20
311.2692584280151
 30
0.0000000000000000
 11
259.9021296847865
 21
310.6692584280151
 31
0.0000000000000000
  0
LINE
  5
345
100
AcDbEntity
  8
MAIN0
  6
CONTINUOUS
 62
3
100
AcDbLine
 10
259.3021296847865
 20
296.5692584280151
 30
0.0000000000000000
 11
259.9021296847865
 21
297.1692584280151
 31
0.0000000000000000
  0
LINE
  5
346
100
AcDbEntity
  8
MAIN0
  6
CONTINUOUS
 62
3
100
AcDbLine
 10
313.4721296847865
 20
348.6592584280152
 30
0.0000000000000000
 11
312.8721296847864
 21
348.0592584280151
 31
0.0000000000000000
  0
LINE
  5
347
100
AcDbEntity
  8
MAIN0
  6
CONTINUOUS
 62
3
100
AcDbLine
 10
313.4721296847865
 20
327.4592584280151
 30
0.0000000000000000
 11
312.8721296847865
 21
328.0592584280151
 31
0.0000000000000000
  0
LINE
  5
348
100
AcDbEntity
  8
MAIN0
  6
CONTINUOUS
 62
3
100
AcDbLine
 10
313.4721296847864
 20
314.5192584280154
 30
0.0000000000000000
 11
312.8721296847863
 21
313.9192584280153
 31
0.0000000000000000
  0
LINE
  5
349
100
AcDbEntity
  8
MAIN0
  6
CONTINUOUS
 62
3
100
AcDbLine
 10
313.4721296847864
 20
293.3192584280153
 30
0.0000000000000000
 11
312.8721296847864
 21
293.9192584280152
 31
0.0000000000000000
  0
LINE
  5
34A
100
AcDbEntity
  8
MAIN0
  6
CONTINUOUS
 62
3
100
AcDbLine
 10
256.0021296847864
 20
281.7190193558726
 30
0.0000000000000000
 11
256.0021296847864
 21
294.3642270348386
 31
0.0000000000000000
  0
LINE
  5
34B
100
AcDbEntity
  8
MAIN0
  6
HIDDEN
 62
4
100
AcDbLine
 10
256.0021296847864
 20
294.3642270348385
 30
0.0000000000000000
 11
256.0021296847864
 21
352.0592584280151
 31
0.0000000000000000
  0
LINE
  5
34C
100
AcDbEntity
  8
MAIN0
  6
CENTER
 62
12
100
AcDbLine
 10
241.9840809280666
 20
303.9192584280152
 30
0.0000000000000000
 11
318.8658245887339
 21
303.9192584280152
 31
0.0000000000000000
  0
LINE
  5
34D
100
AcDbEntity
  8
MAIN0
  6
CONTINUOUS
 62
3
100
AcDbLine
 10
259.3021296847863
 20
343.0592584280151
 30
0.0000000000000000
 11
259.3021296847863
 21
353.0592584280151
 31
0.0000000000000000
  0
LINE
  5
34E
100
AcDbEntity
  8
MAIN0
  6
CONTINUOUS
 62
3
100
AcDbLine
 10
259.3021296847864
 20
279.0592584280151
 30
0.0000000000000000
 11
259.3021296847864
 21
298.9192584280152
 31
0.0000000000000000
  0
LINE
  5
34F
100
AcDbEntity
  8
MAIN0
  6
CONTINUOUS
 62
3
100
AcDbLine
 10
259.3021296847864
 20
308.9192584280152
 30
0.0000000000000000
 11
259.3021296847863
 21
333.0592584280151
 31
0.0000000000000000
  0
LINE
  5
350
100
AcDbEntity
  8
MAIN0
  6
HIDDEN
 62
4
100
AcDbLine
 10
257.0021296847864
 20
353.0592584280152
 30
0.0000000000000000
 11
259.3021296847865
 21
353.0592584280152
 31
0.0000000000000000
  0
LINE
  5
351
100
AcDbEntity
  8
MAIN0
  6
CONTINUOUS
 62
3
100
AcDbLine
 10
259.3021296847865
 20
353.0592584280152
 30
0.0000000000000000
 11
312.4721296847865
 21
353.0592584280153
 31
0.0000000000000000
  0
LINE
  5
352
100
AcDbEntity
  8
MAIN0
  6
CENTER
 62
12
100
AcDbLine
 10
241.3885357920013
 20
338.0592584280152
 30
0.0000000000000000
 11
298.0758095795916
 21
338.0592584280151
 31
0.0000000000000000
  0
LINE
  5
353
100
AcDbEntity
  8
MAIN0
  6
CENTER
 62
12
100
AcDbLine
 10
304.1758094842242
 20
338.0592584280151
 30
0.0000000000000000
 11
318.1527292149715
 21
338.0592584280151
 31
0.0000000000000000
  0
LINE
  5
354
100
AcDbEntity
  8
MAIN0
  6
CONTINUOUS
 62
3
100
AcDbLine
 10
266.4721296847865
 20
332.0592584280152
 30
0.0000000000000000
 11
246.4721296847865
 21
332.0592584280152
 31
0.0000000000000000
  0
LINE
  5
355
100
AcDbEntity
  8
MAIN0
  6
CONTINUOUS
 62
3
100
AcDbLine
 10
246.4721296847865
 20
332.0592584280152
 30
0.0000000000000000
 11
246.4721296847865
 21
344.0592584280152
 31
0.0000000000000000
  0
LINE
  5
356
100
AcDbEntity
  8
MAIN0
  6
CONTINUOUS
 62
3
100
AcDbLine
 10
246.4721296847865
 20
344.0592584280151
 30
0.0000000000000000
 11
266.4721296847863
 21
344.0592514280152
 31
0.0000000000000000
  0
LINE
  5
357
100
AcDbEntity
  8
MAIN0
  6
CONTINUOUS
 62
12
100
AcDbLine
 10
266.4721296847865
 20
333.0592584280152
 30
0.0000000000000000
 11
246.4721296847865
 21
333.0592584280152
 31
0.0000000000000000
  0
LINE
  5
358
100
AcDbEntity
  8
MAIN0
  6
CONTINUOUS
 62
12
100
AcDbLine
 10
266.4721296847865
 20
343.0592584280152
 30
0.0000000000000000
 11
246.4721296847865
 21
343.0592584280152
 31
0.0000000000000000
  0
LINE
  5
359
100
AcDbEntity
  8
MAIN0
  6
CONTINUOUS
 62
3
100
AcDbLine
 10
266.4721326847864
 20
347.0592584280151
 30
0.0000000000000000
 11
277.7720976847864
 21
347.0592514280152
 31
0.0000000000000000
  0
LINE
  5
35A
100
AcDbEntity
  8
MAIN0
  6
CONTINUOUS
 62
3
100
AcDbLine
 10
277.7720866847865
 20
329.0592514280152
 30
0.0000000000000000
 11
266.4721256847863
 21
329.0592584280152
 31
0.0000000000000000
  0
LINE
  5
35B
100
AcDbEntity
  8
MAIN0
  6
CONTINUOUS
 62
3
100
AcDbLine
 10
277.7721356847864
 20
347.0592514280152
 30
0.0000000000000000
 11
277.7721246847864
 21
329.0592514280152
 31
0.0000000000000000
  0
LINE
  5
35C
100
AcDbEntity
  8
MAIN0
  6
CONTINUOUS
 62
3
100
AcDbLine
 10
278.4720676847865
 20
330.2716994280152
 30
0.0000000000000000
 11
277.7721246847865
 21
329.0592514280152
 31
0.0000000000000000
  0
LINE
  5
35D
100
AcDbEntity
  8
MAIN0
  6
CONTINUOUS
 62
3
100
AcDbLine
 10
278.4720796847865
 20
345.8469254280151
 30
0.0000000000000000
 11
277.7721356847865
 21
347.0592514280151
 31
0.0000000000000000
  0
LINE
  5
35E
100
AcDbEntity
  8
MAIN0
  6
CONTINUOUS
 62
3
100
AcDbLine
 10
278.4721296847865
 20
330.2718068250118
 30
0.0000000000000000
 11
278.4721296847865
 21
345.8468388263727
 31
0.0000000000000000
  0
LINE
  5
35F
100
AcDbEntity
  8
MAIN0
  6
CONTINUOUS
 62
3
100
AcDbLine
 10
266.4721296847865
 20
297.9192584280152
 30
0.0000000000000000
 11
246.4721296847865
 21
297.9192584280152
 31
0.0000000000000000
  0
LINE
  5
360
100
AcDbEntity
  8
MAIN0
  6
CONTINUOUS
 62
3
100
AcDbLine
 10
246.4721296847865
 20
297.9192584280152
 30
0.0000000000000000
 11
246.4721296847866
 21
309.9192584280152
 31
0.0000000000000000
  0
LINE
  5
361
100
AcDbEntity
  8
MAIN0
  6
CONTINUOUS
 62
3
100
AcDbLine
 10
246.4721296847865
 20
309.9192584280152
 30
0.0000000000000000
 11
266.4721296847864
 21
309.9192514280151
 31
0.0000000000000000
  0
LINE
  5
362
100
AcDbEntity
  8
MAIN0
  6
CONTINUOUS
 62
12
100
AcDbLine
 10
266.4721296847865
 20
298.9192584280152
 30
0.0000000000000000
 11
246.4721296847865
 21
298.9192584280152
 31
0.0000000000000000
  0
LINE
  5
363
100
AcDbEntity
  8
MAIN0
  6
CONTINUOUS
 62
12
100
AcDbLine
 10
266.4721296847865
 20
308.9192584280152
 30
0.0000000000000000
 11
246.4721296847865
 21
308.9192584280152
 31
0.0000000000000000
  0
LINE
  5
364
100
AcDbEntity
  8
MAIN0
  6
CONTINUOUS
 62
3
100
AcDbLine
 10
266.4721326847865
 20
312.9192584280152
 30
0.0000000000000000
 11
277.7720976847865
 21
312.9192514280152
 31
0.0000000000000000
  0
LINE
  5
365
100
AcDbEntity
  8
MAIN0
  6
CONTINUOUS
 62
3
100
AcDbLine
 10
277.7720866847865
 20
294.9192514280151
 30
0.0000000000000000
 11
266.4721256847864
 21
294.9192584280152
 31
0.0000000000000000
  0
LINE
  5
366
100
AcDbEntity
  8
MAIN0
  6
CONTINUOUS
 62
3
100
AcDbLine
 10
277.7721356847865
 20
312.9192514280152
 30
0.0000000000000000
 11
277.7721246847864
 21
294.9192514280152
 31
0.0000000000000000
  0
LINE
  5
367
100
AcDbEntity
  8
MAIN0
  6
CONTINUOUS
 62
3
100
AcDbLine
 10
278.4720676847863
 20
296.1316994280153
 30
0.0000000000000000
 11
277.7721246847863
 21
294.9192514280153
 31
0.0000000000000000
  0
LINE
  5
368
100
AcDbEntity
  8
MAIN0
  6
CONTINUOUS
 62
3
100
AcDbLine
 10
278.4720796847865
 20
311.7069254280152
 30
0.0000000000000000
 11
277.7721356847866
 21
312.9192514280151
 31
0.0000000000000000
  0
LINE
  5
369
100
AcDbEntity
  8
MAIN0
  6
CONTINUOUS
 62
3
100
AcDbLine
 10
278.4721296847865
 20
296.1318068250117
 30
0.0000000000000000
 11
278.4721296847865
 21
311.7068388263728
 31
0.0000000000000000
  0
LINE
  5
36A
100
AcDbEntity
  8
MAIN0
  6
CONTINUOUS
 62
3
100
AcDbLine
 10
471.4475040864900
 20
352.0592584280153
 30
0.0000000000000000
 11
471.4475040864900
 21
287.0592584280150
 31
0.0000000000000000
  0
LINE
  5
36B
100
AcDbEntity
  8
MAIN0
  6
CONTINUOUS
 62
3
100
AcDbLine
 10
414.4475040864900
 20
287.0592584280150
 30
0.0000000000000000
 11
414.4475040864900
 21
352.0592584280152
 31
0.0000000000000000
  0
LINE
  5
36C
100
AcDbEntity
  8
MAIN0
  6
CONTINUOUS
 62
3
100
AcDbLine
 10
422.4475040864900
 20
279.0592584280152
 30
0.0000000000000000
 11
463.4475040864900
 21
279.0592584280152
 31
0.0000000000000000
  0
LINE
  5
36D
100
AcDbEntity
  8
MAIN0
  6
CONTINUOUS
 62
3
100
AcDbLine
 10
415.2714615331356
 20
353.0592584280153
 30
0.0000000000000000
 11
470.4898129138816
 21
353.0592584280153
 31
0.0000000000000000
  0
LINE
  5
36E
100
AcDbEntity
  8
MAIN0
  6
CONTINUOUS
 62
3
100
AcDbLine
 10
471.4475040864900
 20
287.0592584280152
 30
0.0000000000000000
 11
463.4475040864900
 21
279.0592584280152
 31
0.0000000000000000
  0
LINE
  5
36F
100
AcDbEntity
  8
MAIN0
  6
CONTINUOUS
 62
3
100
AcDbLine
 10
414.4475040864900
 20
287.0592584280152
 30
0.0000000000000000
 11
422.4475040864900
 21
279.0592584280152
 31
0.0000000000000000
  0
LINE
  5
370
100
AcDbEntity
  8
MAIN0
  6
CONTINUOUS
 62
3
100
AcDbLine
 10
471.4475040864900
 20
352.0592584280153
 30
0.0000000000000000
 11
470.4475040864900
 21
353.0592584280153
 31
0.0000000000000000
  0
LINE
  5
371
100
AcDbEntity
  8
MAIN0
  6
CONTINUOUS
 62
3
100
AcDbLine
 10
414.4475040864899
 20
352.0592584280153
 30
0.0000000000000000
 11
415.4475040864899
 21
353.0592584280153
 31
0.0000000000000000
  0
LINE
  5
372
100
AcDbEntity
  8
MAIN0
  6
CONTINUOUS
 62
3
100
AcDbLine
 10
447.9475040864900
 20
340.9460114280151
 30
0.0000000000000000
 11
442.9475040864900
 21
343.8327604280152
 31
0.0000000000000000
  0
LINE
  5
373
100
AcDbEntity
  8
MAIN0
  6
CONTINUOUS
 62
3
100
AcDbLine
 10
442.9475040864899
 20
343.8327604280152
 30
0.0000000000000000
 11
437.9475040864900
 21
340.9460074280152
 31
0.0000000000000000
  0
LINE
  5
374
100
AcDbEntity
  8
MAIN0
  6
CONTINUOUS
 62
3
100
AcDbLine
 10
437.9475040864900
 20
340.9460074280152
 30
0.0000000000000000
 11
437.9475040864900
 21
335.1725054280151
 31
0.0000000000000000
  0
LINE
  5
375
100
AcDbEntity
  8
MAIN0
  6
CONTINUOUS
 62
3
100
AcDbLine
 10
437.9475040864900
 20
335.1725054280152
 30
0.0000000000000000
 11
442.9475110864900
 21
332.2857554280152
 31
0.0000000000000000
  0
LINE
  5
376
100
AcDbEntity
  8
MAIN0
  6
CONTINUOUS
 62
3
100
AcDbLine
 10
442.9475110864900
 20
332.2857554280152
 30
0.0000000000000000
 11
447.9475110864900
 21
335.1725124280152
 31
0.0000000000000000
  0
LINE
  5
377
100
AcDbEntity
  8
MAIN0
  6
CONTINUOUS
 62
3
100
AcDbLine
 10
447.9475110864900
 20
335.1725124280151
 30
0.0000000000000000
 11
447.9475040864900
 21
340.9460114280152
 31
0.0000000000000000
  0
CIRCLE
  5
378
100
AcDbEntity
  8
MAIN0
  6
CONTINUOUS
 62
3
100
AcDbCircle
 10
442.9475040864900
 20
338.0592584280151
 30
0.0000000000000000
 40
9.000000000000000
  0
LINE
  5
379
100
AcDbEntity
  8
MAIN0
  6
CONTINUOUS
 62
3
100
AcDbLine
 10
447.9475040864900
 20
306.8060114280152
 30
0.0000000000000000
 11
442.9475040864900
 21
309.6927604280152
 31
0.0000000000000000
  0
LINE
  5
37A
100
AcDbEntity
  8
MAIN0
  6
CONTINUOUS
 62
3
100
AcDbLine
 10
442.9475040864900
 20
309.6927604280152
 30
0.0000000000000000
 11
437.9475040864900
 21
306.8060074280152
 31
0.0000000000000000
  0
LINE
  5
37B
100
AcDbEntity
  8
MAIN0
  6
CONTINUOUS
 62
3
100
AcDbLine
 10
437.9475040864900
 20
306.8060074280152
 30
0.0000000000000000
 11
437.9475040864900
 21
301.0325054280152
 31
0.0000000000000000
  0
LINE
  5
37C
100
AcDbEntity
  8
MAIN0
  6
CONTINUOUS
 62
3
100
AcDbLine
 10
437.9475040864900
 20
301.0325054280153
 30
0.0000000000000000
 11
442.9475110864900
 21
298.1457554280153
 31
0.0000000000000000
  0
LINE
  5
37D
100
AcDbEntity
  8
MAIN0
  6
CONTINUOUS
 62
3
100
AcDbLine
 10
442.9475110864900
 20
298.1457554280153
 30
0.0000000000000000
 11
447.9475110864900
 21
301.0325124280153
 31
0.0000000000000000
  0
LINE
  5
37E
100
AcDbEntity
  8
MAIN0
  6
CONTINUOUS
 62
3
100
AcDbLine
 10
447.9475110864900
 20
301.0325124280152
 30
0.0000000000000000
 11
447.9475040864900
 21
306.8060114280152
 31
0.0000000000000000
  0
CIRCLE
  5
37F
100
AcDbEntity
  8
MAIN0
  6
CONTINUOUS
 62
3
100
AcDbCircle
 10
442.9475040864900
 20
303.9192584280152
 30
0.0000000000000000
 40
9.000000000000000
  0
LINE
  5
380
100
AcDbEntity
  8
MAIN0
  6
CENTER
 62
12
100
AcDbLine
 10
219.9721296847866
 20
191.4842584280154
 30
0.0000000000000000
 11
134.9721296847865
 21
191.4842584280152
 31
0.0000000000000000
  0
LINE
  5
381
100
AcDbEntity
  8
MAIN0
  6
CENTER
 62
12
100
AcDbLine
 10
134.9721296847865
 20
191.4842584280152
 30
0.0000000000000000
 11
134.9721296847865
 21
203.4842584280152
 31
0.0000000000000000
  0
LINE
  5
382
100
AcDbEntity
  8
MAIN0
  6
CENTER
 62
12
100
AcDbLine
 10
134.9721296847865
 20
203.4842584280152
 30
0.0000000000000000
 11
219.9721296847865
 21
203.4842514280153
 31
0.0000000000000000
  0
LINE
  5
383
100
AcDbEntity
  8
MAIN0
  6
CENTER
 62
12
100
AcDbLine
 10
164.9721296847865
 20
192.4842584280152
 30
0.0000000000000000
 11
134.9721296847865
 21
192.4842584280152
 31
0.0000000000000000
  0
LINE
  5
384
100
AcDbEntity
  8
MAIN0
  6
CENTER
 62
12
100
AcDbLine
 10
164.9721296847865
 20
202.4842584280153
 30
0.0000000000000000
 11
134.9721296847865
 21
202.4842584280152
 31
0.0000000000000000
  0
LINE
  5
385
100
AcDbEntity
  8
MAIN0
  6
CENTER
 62
12
100
AcDbLine
 10
219.9721326847865
 20
206.4842584280154
 30
0.0000000000000000
 11
231.2720976847864
 21
206.4842514280155
 31
0.0000000000000000
  0
LINE
  5
386
100
AcDbEntity
  8
MAIN0
  6
CENTER
 62
12
100
AcDbLine
 10
231.2720866847865
 20
188.4842514280154
 30
0.0000000000000000
 11
219.9721256847865
 21
188.4842584280154
 31
0.0000000000000000
  0
LINE
  5
387
100
AcDbEntity
  8
MAIN0
  6
CENTER
 62
12
100
AcDbLine
 10
231.2721356847864
 20
206.4842514280154
 30
0.0000000000000000
 11
231.2721246847865
 21
188.4842514280154
 31
0.0000000000000000
  0
LINE
  5
388
100
AcDbEntity
  8
MAIN0
  6
CENTER
 62
12
100
AcDbLine
 10
231.9720676847865
 20
189.6966994280154
 30
0.0000000000000000
 11
231.2721246847865
 21
188.4842514280154
 31
0.0000000000000000
  0
LINE
  5
389
100
AcDbEntity
  8
MAIN0
  6
CENTER
 62
12
100
AcDbLine
 10
231.9720796847865
 20
205.2719254280155
 30
0.0000000000000000
 11
231.2721356847865
 21
206.4842514280155
 31
0.0000000000000000
  0
LINE
  5
38A
100
AcDbEntity
  8
MAIN0
  6
CENTER
 62
12
100
AcDbLine
 10
231.9721296847865
 20
189.6968068250120
 30
0.0000000000000000
 11
231.9721296847865
 21
205.2718388263729
 31
0.0000000000000000
  0
LINE
  5
38B
100
AcDbEntity
  8
MAIN0
  6
CENTER
 62
12
100
AcDbLine
 10
164.9721296847865
 20
191.4842584280152
 30
0.0000000000000000
 11
164.9721296847865
 21
203.4842584280153
 31
0.0000000000000000
  0
LINE
  5
38C
100
AcDbEntity
  8
MAIN0
  6
CENTER
 62
12
100
AcDbLine
 10
384.8542445525841
 20
322.2525179619212
 30
0.0000000000000000
 11
394.5831648087362
 21
312.5235977057690
 31
0.0000000000000000
  0
LINE
  5
38D
100
AcDbEntity
  8
MAIN0
  6
CENTER
 62
12
100
AcDbLine
 10
421.6838953084378
 20
184.8023901160573
 30
0.0000000000000000
 11
425.2449272735825
 21
198.0923423373542
 31
0.0000000000000000
  0
ARC
  5
38E
100
AcDbEntity
  8
MAIN0
  6
CENTER
 62
12
100
AcDbCircle
 10
442.9475040864899
 20
264.1592584280153
 30
0.0000000000000000
 40
75.00000000000000
100
AcDbArc
 50
129.6149896497833
 51
139.9620268706144
  0
CIRCLE
  5
38F
100
AcDbEntity
  8
MAIN0
  6
HIDDEN
 62
4
100
AcDbCircle
 10
389.9144954974989
 20
317.1922670170064
 30
0.0000000000000000
 40
2.999999999999993
  0
CIRCLE
  5
390
100
AcDbEntity
  8
MAIN0
  6
HIDDEN
 62
4
100
AcDbCircle
 10
389.9144954974989
 20
317.1922670170064
 30
0.0000000000000000
 40
2.499999999999993
  0
ARC
  5
391
100
AcDbEntity
  8
MAIN0
  6
CENTER
 62
12
100
AcDbCircle
 10
442.9475040864899
 20
264.1592584280153
 30
0.0000000000000000
 40
75.00000000000000
100
AcDbArc
 50
249.6149896497836
 51
259.9620268706145
  0
CIRCLE
  5
392
100
AcDbEntity
  8
MAIN0
  6
HIDDEN
 62
4
100
AcDbCircle
 10
423.5360757038009
 20
191.7148214563352
 30
0.0000000000000000
 40
2.999999999999993
  0
CIRCLE
  5
393
100
AcDbEntity
  8
MAIN0
  6
HIDDEN
 62
4
100
AcDbCircle
 10
423.5360757038009
 20
191.7148214563352
 30
0.0000000000000000
 40
2.499999999999993
  0
ARC
  5
394
100
AcDbEntity
  8
MAIN0
  6
CONTINUOUS
 62
3
100
AcDbCircle
 10
236.9721296847863
 20
239.5592584280155
 30
0.0000000000000000
 40
4.399999999999999
100
AcDbArc
 50
269.9999999999928
 51
359.9999999999934
  0
LINE
  5
395
100
AcDbEntity
  8
MAIN0
  6
CONTINUOUS
 62
3
100
AcDbLine
 10
241.3721296847863
 20
239.5592584280152
 30
0.0000000000000000
 11
241.3721296847866
 21
244.7592584280152
 31
0.0000000000000000
  0
ARC
  5
396
100
AcDbEntity
  8
MAIN0
  6
CONTINUOUS
 62
3
100
AcDbCircle
 10
236.9721296847866
 20
244.7592584280155
 30
0.0000000000000000
 40
4.400000000000000
100
AcDbArc
 50
0.0000000000000000
 51
89.99999999999639
  0
LINE
  5
397
100
AcDbEntity
  8
MAIN0
  6
CONTINUOUS
 62
3
100
AcDbLine
 10
236.9721296847862
 20
238.1592584280155
 30
0.0000000000000000
 11
224.9721296847862
 21
238.1592584280162
 31
0.0000000000000000
  0
LINE
  5
398
100
AcDbEntity
  8
MAIN0
  6
CONTINUOUS
 62
3
100
AcDbLine
 10
224.9721296847862
 20
238.1592584280162
 30
0.0000000000000000
 11
224.9721296847867
 21
246.1592584280162
 31
0.0000000000000000
  0
LINE
  5
399
100
AcDbEntity
  8
MAIN0
  6
CONTINUOUS
 62
3
100
AcDbLine
 10
224.9721296847867
 20
246.1592584280162
 30
0.0000000000000000
 11
236.9721296847867
 21
246.1592584280155
 31
0.0000000000000000
  0
LINE
  5
39A
100
AcDbEntity
  8
MAIN0
  6
CONTINUOUS
 62
3
100
AcDbLine
 10
236.9721296847862
 20
238.8358409280155
 30
0.0000000000000000
 11
224.9721296847862
 21
238.8358409280163
 31
0.0000000000000000
  0
LINE
  5
39B
100
AcDbEntity
  8
MAIN0
  6
CONTINUOUS
 62
3
100
AcDbLine
 10
236.9721296847867
 20
245.4826759280155
 30
0.0000000000000000
 11
224.9721296847867
 21
245.4826759280163
 31
0.0000000000000000
  0
LINE
  5
39C
100
AcDbEntity
  8
MAIN0
  6
CONTINUOUS
 62
3
100
AcDbLine
 10
469.2475040864899
 20
284.8592584280150
 30
0.0000000000000000
 11
470.9475040864898
 21
283.1592584280151
 31
0.0000000000000000
  0
LINE
  5
39D
100
AcDbEntity
  8
MAIN0
  6
CONTINUOUS
 62
3
100
AcDbLine
 10
414.9475040864901
 20
283.1592584280151
 30
0.0000000000000000
 11
416.6475040864901
 21
284.8592584280151
 31
0.0000000000000000
  0
LINE
  5
39E
100
AcDbEntity
  8
MAIN0
  6
CONTINUOUS
 62
3
100
AcDbLine
 10
414.9475040864901
 20
245.1592584280155
 30
0.0000000000000000
 11
414.9475040864901
 21
283.1592584280151
 31
0.0000000000000000
  0
LINE
  5
39F
100
AcDbEntity
  8
MAIN0
  6
CONTINUOUS
 62
3
100
AcDbLine
 10
416.9475040864900
 20
243.1592584280154
 30
0.0000000000000000
 11
414.9475040864900
 21
245.1592584280155
 31
0.0000000000000000
  0
LINE
  5
3A0
100
AcDbEntity
  8
MAIN0
  6
CONTINUOUS
 62
3
100
AcDbLine
 10
416.9475040864901
 20
243.1592584280155
 30
0.0000000000000000
 11
468.9475040864897
 21
243.1592584280155
 31
0.0000000000000000
  0
LINE
  5
3A1
100
AcDbEntity
  8
MAIN0
  6
CONTINUOUS
 62
3
100
AcDbLine
 10
470.9475040864897
 20
245.1592584280155
 30
0.0000000000000000
 11
470.9475040864897
 21
283.1592584280151
 31
0.0000000000000000
  0
LINE
  5
3A2
100
AcDbEntity
  8
MAIN0
  6
CONTINUOUS
 62
3
100
AcDbLine
 10
468.9475040864898
 20
243.1592584280154
 30
0.0000000000000000
 11
470.9475040864898
 21
245.1592584280155
 31
0.0000000000000000
  0
LINE
  5
3A3
100
AcDbEntity
  8
MAIN0
  6
HIDDEN
 62
3
100
AcDbLine
 10
152.9721296847863
 20
342.4592584280153
 30
0.0000000000000000
 11
153.7721296847863
 21
341.6592584280153
 31
0.0000000000000000
  0
LINE
  5
3A4
100
AcDbEntity
  8
MAIN0
  6
HIDDEN
 62
3
100
AcDbLine
 10
153.7721296847864
 20
341.6592584280153
 30
0.0000000000000000
 11
153.7721296847864
 21
336.6592584280153
 31
0.0000000000000000
  0
LINE
  5
3A5
100
AcDbEntity
  8
MAIN0
  6
HIDDEN
 62
3
100
AcDbLine
 10
153.7721296847863
 20
336.6592584280153
 30
0.0000000000000000
 11
152.9721296847864
 21
335.8592584280153
 31
0.0000000000000000
  0
LINE
  5
3A6
100
AcDbEntity
  8
MAIN0
  6
HIDDEN
 62
3
100
AcDbLine
 10
153.2721296847864
 20
342.1592584280153
 30
0.0000000000000000
 11
160.3481917811916
 21
342.1592584280153
 31
0.0000000000000000
  0
LINE
  5
3A7
100
AcDbEntity
  8
MAIN0
  6
HIDDEN
 62
3
100
AcDbLine
 10
160.2087141017927
 20
336.1592584280153
 30
0.0000000000000000
 11
153.2721296847864
 21
336.1592584280153
 31
0.0000000000000000
  0
LINE
  5
3A8
100
AcDbEntity
  8
MAIN0
  6
HIDDEN
 62
3
100
AcDbLine
 10
153.7721296847864
 20
341.6592584280153
 30
0.0000000000000000
 11
160.4876694605906
 21
341.6592584280153
 31
0.0000000000000000
  0
LINE
  5
3A9
100
AcDbEntity
  8
MAIN0
  6
HIDDEN
 62
3
100
AcDbLine
 10
160.3481917811916
 20
336.6592584280153
 30
0.0000000000000000
 11
153.7721296847864
 21
336.6592584280153
 31
0.0000000000000000
  0
LINE
  5
3AA
100
AcDbEntity
  8
MAIN0
  6
CENTER
 62
12
100
AcDbLine
 10
220.4261296847865
 20
171.5943537682596
 30
0.0000000000000000
 11
235.5221296847864
 21
171.5943537682596
 31
0.0000000000000000
  0
LINE
  5
3AB
100
AcDbEntity
  8
MAIN0
  6
CENTER
 62
12
100
AcDbLine
 10
220.4261296847865
 20
181.5943537682596
 30
0.0000000000000000
 11
235.5221296847865
 21
181.5943537682596
 31
0.0000000000000000
  0
LINE
  5
3AC
100
AcDbEntity
  8
MAIN0
  6
CENTER
 62
12
100
AcDbLine
 10
234.7721296847866
 20
172.3443537682596
 30
0.0000000000000000
 11
235.9721296847865
 21
171.1443537682594
 31
0.0000000000000000
  0
LINE
  5
3AD
100
AcDbEntity
  8
MAIN0
  6
CENTER
 62
12
100
AcDbLine
 10
234.7721296847864
 20
180.8443537682597
 30
0.0000000000000000
 11
235.9721296847865
 21
182.0443537682596
 31
0.0000000000000000
  0
LINE
  5
3AE
100
AcDbEntity
  8
MAIN0
  6
CENTER
 62
12
100
AcDbLine
 10
213.4261296847865
 20
172.3443537682596
 30
0.0000000000000000
 11
234.7721296847866
 21
172.3443537682596
 31
0.0000000000000000
  0
LINE
  5
3AF
100
AcDbEntity
  8
MAIN0
  6
CENTER
 62
12
100
AcDbLine
 10
213.4261296847867
 20
180.8443537682596
 30
0.0000000000000000
 11
234.7721296847865
 21
180.8443537682596
 31
0.0000000000000000
  0
LINE
  5
3B0
100
AcDbEntity
  8
MAIN0
  6
CENTER
 62
12
100
AcDbLine
 10
220.4261296847865
 20
171.5943537682596
 30
0.0000000000000000
 11
220.4261296847865
 21
181.5943537682596
 31
0.0000000000000000
  0
LINE
  5
3B1
100
AcDbEntity
  8
MAIN0
  6
CENTER
 62
12
100
AcDbLine
 10
213.4261296847865
 20
172.3443537682596
 30
0.0000000000000000
 11
213.4261296847865
 21
180.8443537682596
 31
0.0000000000000000
  0
LINE
  5
3B2
100
AcDbEntity
  8
MAIN0
  6
CENTER
 62
12
100
AcDbLine
 10
210.9723910407305
 20
176.5943537682599
 30
0.0000000000000000
 11
213.4261296847865
 21
172.3443537682596
 31
0.0000000000000000
  0
LINE
  5
3B3
100
AcDbEntity
  8
MAIN0
  6
CENTER
 62
12
100
AcDbLine
 10
210.9723910407304
 20
176.5943537682599
 30
0.0000000000000000
 11
213.4261296847863
 21
180.8443537682597
 31
0.0000000000000000
  0
LINE
  5
3B4
100
AcDbEntity
  8
MAIN0
  6
CENTER
 62
12
100
AcDbLine
 10
234.7721296847866
 20
172.3443537682596
 30
0.0000000000000000
 11
234.7721296847865
 21
180.8443537682596
 31
0.0000000000000000
  0
LINE
  5
3B5
100
AcDbEntity
  8
MAIN0
  6
CONTINUOUS
 62
3
100
AcDbLine
 10
236.9721296847865
 20
285.1592584280151
 30
0.0000000000000000
 11
235.9721296847865
 21
285.1592584280151
 31
0.0000000000000000
  0
LINE
  5
3B6
100
AcDbEntity
  8
MAIN0
  6
CONTINUOUS
 62
3
100
AcDbLine
 10
235.9721296847865
 20
246.6592584280155
 30
0.0000000000000000
 11
236.9721296847865
 21
246.6592584280155
 31
0.0000000000000000
  0
LINE
  5
3B7
100
AcDbEntity
  8
MAIN0
  6
CONTINUOUS
 62
3
100
AcDbLine
 10
235.9721296847865
 20
237.6592584280155
 30
0.0000000000000000
 11
236.9721296847865
 21
237.6592584280155
 31
0.0000000000000000
  0
LINE
  5
3B8
100
AcDbEntity
  8
MAIN0
  6
CONTINUOUS
 62
3
100
AcDbLine
 10
236.9721296847865
 20
230.9252397122601
 30
0.0000000000000000
 11
236.9721296847865
 21
285.1592584280151
 31
0.0000000000000000
  0
LINE
  5
3B9
100
AcDbEntity
  8
MAIN0
  6
CONTINUOUS
 62
3
100
AcDbLine
 10
236.9721296847865
 20
230.9252397122601
 30
0.0000000000000000
 11
235.9721296847865
 21
230.9252397122602
 31
0.0000000000000000
  0
LINE
  5
3BA
100
AcDbEntity
  8
MAIN0
  6
PHANTOM
 62
12
100
AcDbLine
 10
231.6721296847863
 20
272.6339966466411
 30
0.0000000000000000
 11
231.6721296847864
 21
279.0592584280153
 31
0.0000000000000000
  0
LINE
  5
3BB
100
AcDbEntity
  8
MAIN0
  6
PHANTOM
 62
12
100
AcDbLine
 10
230.6721296847864
 20
280.0592584280153
 30
0.0000000000000000
 11
231.6721296847864
 21
279.0592584280153
 31
0.0000000000000000
  0
LINE
  5
3BC
100
AcDbEntity
  8
MAIN0
  6
PHANTOM
 62
3
100
AcDbLine
 10
226.3470330068901
 20
278.4092584280152
 30
0.0000000000000000
 11
231.6721296847864
 21
278.4092584280152
 31
0.0000000000000000
  0
LINE
  5
3BD
100
AcDbEntity
  8
MAIN0
  6
CONTINUOUS
 62
3
100
AcDbLine
 10
459.5000629697478
 20
251.7158827550411
 30
0.0000000000000000
 11
459.5000629697478
 21
254.6026341009892
 31
0.0000000000000000
  0
LINE
  5
3BE
100
AcDbEntity
  8
MAIN0
  6
CONTINUOUS
 62
3
100
AcDbLine
 10
462.0000629697477
 20
256.0460097739633
 30
0.0000000000000000
 11
459.5000629697478
 21
254.6026341009893
 31
0.0000000000000000
  0
LINE
  5
3BF
100
AcDbEntity
  8
MAIN0
  6
CONTINUOUS
 62
3
100
AcDbLine
 10
462.0000629697476
 20
250.2725070820671
 30
0.0000000000000000
 11
459.5000629697478
 21
251.7158827550411
 31
0.0000000000000000
  0
LINE
  5
3C0
100
AcDbEntity
  8
MAIN0
  6
CONTINUOUS
 62
3
100
AcDbLine
 10
464.5000629697476
 20
254.6026341009893
 30
0.0000000000000000
 11
464.5000629697476
 21
251.7158827550412
 31
0.0000000000000000
  0
LINE
  5
3C1
100
AcDbEntity
  8
MAIN0
  6
CONTINUOUS
 62
3
100
AcDbLine
 10
464.5000629697476
 20
251.7158827550412
 30
0.0000000000000000
 11
462.0000629697476
 21
250.2725070820671
 31
0.0000000000000000
  0
LINE
  5
3C2
100
AcDbEntity
  8
MAIN0
  6
CONTINUOUS
 62
3
100
AcDbLine
 10
464.5000629697477
 20
254.6026341009894
 30
0.0000000000000000
 11
462.0000629697477
 21
256.0460097739634
 31
0.0000000000000000
  0
ARC
  5
3C3
100
AcDbEntity
  8
MAIN0
  6
CENTER
 62
12
100
AcDbCircle
 10
442.9475040864901
 20
264.1592584280152
 30
0.0000000000000000
 40
22.00000000000000
100
AcDbArc
 50
304.5681317389567
 51
356.0222137982209
  0
CIRCLE
  5
3C4
100
AcDbEntity
  8
MAIN0
  6
CONTINUOUS
 62
3
100
AcDbCircle
 10
462.0000629697476
 20
253.1592584280153
 30
0.0000000000000000
 40
7.000000000000000
  0
LINE
  5
3C5
100
AcDbEntity
  8
MAIN0
  6
HIDDEN
 62
12
100
AcDbLine
 10
377.4012427305461
 20
264.1592584280156
 30
0.0000000000000000
 11
374.9475040864902
 21
259.9092584280154
 31
0.0000000000000000
  0
LINE
  5
3C6
100
AcDbEntity
  8
MAIN0
  6
HIDDEN
 62
12
100
AcDbLine
 10
377.4012427305461
 20
264.1592584280156
 30
0.0000000000000000
 11
374.9475040864901
 21
268.4092584280154
 31
0.0000000000000000
  0
LINE
  5
3C7
100
AcDbEntity
  8
MAIN0
  6
HIDDEN
 62
12
100
AcDbLine
 10
374.9475040864902
 20
259.9092584280156
 30
0.0000000000000000
 11
374.9475040864902
 21
268.4092584280154
 31
0.0000000000000000
  0
LINE
  5
3C8
100
AcDbEntity
  8
MAIN0
  6
HIDDEN
 62
12
100
AcDbLine
 10
374.9475040864902
 20
259.9092584280155
 30
0.0000000000000000
 11
344.1475040864901
 21
259.9092584280154
 31
0.0000000000000000
  0
LINE
  5
3C9
100
AcDbEntity
  8
MAIN0
  6
HIDDEN
 62
12
100
AcDbLine
 10
374.9475040864901
 20
268.4092584280155
 30
0.0000000000000000
 11
344.1475040864902
 21
268.4092584280154
 31
0.0000000000000000
  0
LINE
  5
3CA
100
AcDbEntity
  8
MAIN0
  6
HIDDEN
 62
12
100
AcDbLine
 10
365.9475040864903
 20
259.1592584280155
 30
0.0000000000000000
 11
365.9475040864903
 21
269.1592584280155
 31
0.0000000000000000
  0
LINE
  5
3CB
100
AcDbEntity
  8
MAIN0
  6
HIDDEN
 62
12
100
AcDbLine
 10
365.9475040864902
 20
269.1592584280156
 30
0.0000000000000000
 11
343.3975040864901
 21
269.1592584280155
 31
0.0000000000000000
  0
LINE
  5
3CC
100
AcDbEntity
  8
MAIN0
  6
HIDDEN
 62
12
100
AcDbLine
 10
365.9475040864902
 20
259.1592584280156
 30
0.0000000000000000
 11
343.3975040864901
 21
259.1592584280155
 31
0.0000000000000000
  0
LINE
  5
3CD
100
AcDbEntity
  8
MAIN0
  6
HIDDEN
 62
12
100
AcDbLine
 10
344.1475040864900
 20
259.9092584280154
 30
0.0000000000000000
 11
342.9475040864901
 21
258.7092584280152
 31
0.0000000000000000
  0
LINE
  5
3CE
100
AcDbEntity
  8
MAIN0
  6
HIDDEN
 62
12
100
AcDbLine
 10
344.1475040864900
 20
259.9092584280155
 30
0.0000000000000000
 11
344.1475040864901
 21
268.4092584280155
 31
0.0000000000000000
  0
LINE
  5
3CF
100
AcDbEntity
  8
MAIN0
  6
HIDDEN
 62
12
100
AcDbLine
 10
344.1475040864901
 20
268.4092584280153
 30
0.0000000000000000
 11
342.9475040864902
 21
269.6092584280152
 31
0.0000000000000000
  0
LINE
  5
3D0
100
AcDbEntity
  8
MAIN0
  6
HIDDEN
 62
12
100
AcDbLine
 10
508.4937654424339
 20
264.1592584280156
 30
0.0000000000000000
 11
510.9475040864898
 21
259.9092584280154
 31
0.0000000000000000
  0
LINE
  5
3D1
100
AcDbEntity
  8
MAIN0
  6
HIDDEN
 62
12
100
AcDbLine
 10
508.4937654424340
 20
264.1592584280156
 30
0.0000000000000000
 11
510.9475040864899
 21
268.4092584280154
 31
0.0000000000000000
  0
LINE
  5
3D2
100
AcDbEntity
  8
MAIN0
  6
HIDDEN
 62
12
100
AcDbLine
 10
510.9475040864898
 20
259.9092584280156
 30
0.0000000000000000
 11
510.9475040864898
 21
268.4092584280154
 31
0.0000000000000000
  0
LINE
  5
3D3
100
AcDbEntity
  8
MAIN0
  6
HIDDEN
 62
12
100
AcDbLine
 10
510.9475040864898
 20
259.9092584280155
 30
0.0000000000000000
 11
541.7475040864899
 21
259.9092584280154
 31
0.0000000000000000
  0
LINE
  5
3D4
100
AcDbEntity
  8
MAIN0
  6
HIDDEN
 62
12
100
AcDbLine
 10
510.9475040864899
 20
268.4092584280155
 30
0.0000000000000000
 11
541.7475040864898
 21
268.4092584280154
 31
0.0000000000000000
  0
LINE
  5
3D5
100
AcDbEntity
  8
MAIN0
  6
HIDDEN
 62
12
100
AcDbLine
 10
519.9475040864897
 20
259.1592584280155
 30
0.0000000000000000
 11
519.9475040864897
 21
269.1592584280155
 31
0.0000000000000000
  0
LINE
  5
3D6
100
AcDbEntity
  8
MAIN0
  6
HIDDEN
 62
12
100
AcDbLine
 10
519.9475040864897
 20
269.1592584280156
 30
0.0000000000000000
 11
542.4975040864899
 21
269.1592584280155
 31
0.0000000000000000
  0
LINE
  5
3D7
100
AcDbEntity
  8
MAIN0
  6
HIDDEN
 62
12
100
AcDbLine
 10
519.9475040864897
 20
259.1592584280156
 30
0.0000000000000000
 11
542.4975040864899
 21
259.1592584280155
 31
0.0000000000000000
  0
LINE
  5
3D8
100
AcDbEntity
  8
MAIN0
  6
HIDDEN
 62
12
100
AcDbLine
 10
541.7475040864899
 20
259.9092584280154
 30
0.0000000000000000
 11
542.9475040864900
 21
258.7092584280152
 31
0.0000000000000000
  0
LINE
  5
3D9
100
AcDbEntity
  8
MAIN0
  6
HIDDEN
 62
12
100
AcDbLine
 10
541.7475040864900
 20
259.9092584280155
 30
0.0000000000000000
 11
541.7475040864899
 21
268.4092584280155
 31
0.0000000000000000
  0
LINE
  5
3DA
100
AcDbEntity
  8
MAIN0
  6
HIDDEN
 62
12
100
AcDbLine
 10
541.7475040864899
 20
268.4092584280153
 30
0.0000000000000000
 11
542.9475040864900
 21
269.6092584280151
 31
0.0000000000000000
  0
LINE
  5
3DB
100
AcDbEntity
  8
MAIN0
  6
HIDDEN
 62
3
100
AcDbLine
 10
199.2721296847865
 20
164.1592584280153
 30
0.0000000000000000
 11
200.8721296847865
 21
165.7592584280153
 31
0.0000000000000000
  0
LINE
  5
3DC
100
AcDbEntity
  8
MAIN0
  6
HIDDEN
 62
3
100
AcDbLine
 10
200.8721296847865
 20
165.7592584280153
 30
0.0000000000000000
 11
211.0721296847865
 21
165.7592584280153
 31
0.0000000000000000
  0
LINE
  5
3DD
100
AcDbEntity
  8
MAIN0
  6
HIDDEN
 62
3
100
AcDbLine
 10
211.0721296847865
 20
165.7592584280153
 30
0.0000000000000000
 11
212.6721296847865
 21
164.1592584280153
 31
0.0000000000000000
  0
LINE
  5
3DE
100
AcDbEntity
  8
MAIN0
  6
HIDDEN
 62
3
100
AcDbLine
 10
199.9721296847865
 20
164.8592584280153
 30
0.0000000000000000
 11
199.9721296847865
 21
187.1592584280153
 31
0.0000000000000000
  0
LINE
  5
3DF
100
AcDbEntity
  8
MAIN0
  6
HIDDEN
 62
3
100
AcDbLine
 10
199.9721296847865
 20
187.1592584280153
 30
0.0000000000000000
 11
209.3685398316306
 21
187.1592584280153
 31
0.0000000000000000
  0
LINE
  5
3E0
100
AcDbEntity
  8
MAIN0
  6
HIDDEN
 62
3
100
AcDbLine
 10
200.8721296847865
 20
165.7592584280153
 30
0.0000000000000000
 11
200.8721296847865
 21
189.2342584280154
 31
0.0000000000000000
  0
LINE
  5
3E1
100
AcDbEntity
  8
MAIN0
  6
HIDDEN
 62
3
100
AcDbLine
 10
211.0721296847865
 20
172.5045433112799
 30
0.0000000000000000
 11
211.0721296847865
 21
165.7592584280153
 31
0.0000000000000000
  0
LINE
  5
3E2
100
AcDbEntity
  8
MAIN0
  6
HIDDEN
 62
3
100
AcDbLine
 10
211.9721296847865
 20
172.5045433112799
 30
0.0000000000000000
 11
211.9721296847865
 21
164.8592584280153
 31
0.0000000000000000
  0
LINE
  5
3E3
100
AcDbEntity
  8
MAIN0
  6
CONTINUOUS
 62
3
100
AcDbLine
 10
259.3021296847863
 20
351.7592584280153
 30
0.0000000000000000
 11
259.3021296847864
 21
287.2592584280152
 31
0.0000000000000000
  0
LINE
  5
3E4
100
AcDbEntity
  8
MAIN0
  6
CONTINUOUS
 62
3
100
AcDbLine
 10
240.3654640267272
 20
286.2592584280152
 30
0.0000000000000000
 11
258.3021296847863
 21
286.2592584280152
 31
0.0000000000000000
  0
LINE
  5
3E5
100
AcDbEntity
  8
MAIN0
  6
CONTINUOUS
 62
3
100
AcDbLine
 10
260.3021296847863
 20
353.0592584280153
 30
0.0000000000000000
 11
263.9021296847865
 21
353.0592584280153
 31
0.0000000000000000
  0
LINE
  5
3E6
100
AcDbEntity
  8
MAIN0
  6
CONTINUOUS
 62
3
100
AcDbLine
 10
240.6864491216256
 20
361.4592584280154
 30
0.0000000000000000
 11
263.3021296847863
 21
361.4592584280154
 31
0.0000000000000000
  0
LINE
  5
3E7
100
AcDbEntity
  8
MAIN0
  6
CONTINUOUS
 62
3
100
AcDbLine
 10
264.3021296847867
 20
360.4592584280154
 30
0.0000000000000000
 11
264.3021296847867
 21
353.4592584280152
 31
0.0000000000000000
  0
LINE
  5
3E8
100
AcDbEntity
  8
MAIN0
  6
CONTINUOUS
 62
3
100
AcDbLine
 10
259.0021296847864
 20
352.4176363957980
 30
0.0000000000000000
 11
259.0021296847864
 21
352.3355530661066
 31
0.0000000000000000
  0
LINE
  5
3E9
100
AcDbEntity
  8
MAIN0
  6
CONTINUOUS
 62
3
100
AcDbLine
 10
259.0021296847864
 20
352.3355530661066
 30
0.0000000000000000
 11
259.3021296847864
 21
351.7592584280154
 31
0.0000000000000000
  0
LINE
  5
3EA
100
AcDbEntity
  8
MAIN0
  6
CONTINUOUS
 62
3
100
AcDbLine
 10
260.1715285753746
 20
353.1272450623406
 30
0.0000000000000000
 11
260.3021296847865
 21
353.0592584280152
 31
0.0000000000000000
  0
LINE
  5
3EB
100
AcDbEntity
  8
MAIN0
  6
CONTINUOUS
 62
3
100
AcDbLine
 10
264.3021296847866
 20
353.4592584280152
 30
0.0000000000000000
 11
263.9021296847865
 21
353.0592584280153
 31
0.0000000000000000
  0
LINE
  5
3EC
100
AcDbEntity
  8
MAIN0
  6
CONTINUOUS
 62
3
100
AcDbLine
 10
259.3021296847866
 20
287.2592584280154
 30
0.0000000000000000
 11
258.3021296847866
 21
286.2592584280153
 31
0.0000000000000000
  0
LINE
  5
3ED
100
AcDbEntity
  8
MAIN0
  6
CONTINUOUS
 62
3
100
AcDbLine
 10
264.3021296847866
 20
360.4592584280155
 30
0.0000000000000000
 11
263.3021296847866
 21
361.4592584280155
 31
0.0000000000000000
  0
ARC
  5
3EE
100
AcDbEntity
  8
MAIN0
  6
CONTINUOUS
 62
3
100
AcDbCircle
 10
259.8021296847863
 20
352.4176363957978
 30
0.0000000000000000
 40
0.7999999999999999
100
AcDbArc
 50
62.50000000000038
 51
179.9999999999999
  0
ARC
  5
3EF
100
AcDbEntity
  8
MAIN0
  6
CONTINUOUS
 62
3
100
AcDbCircle
 10
234.1498738518377
 20
343.1092584280152
 30
0.0000000000000000
 40
4.000000000000000
100
AcDbArc
 50
297.1012261653349
 51
354.9999999999916
  0
LINE
  5
3F0
100
AcDbEntity
  8
MAIN0
  6
CONTINUOUS
 62
3
100
AcDbLine
 10
239.6783114968767
 20
360.4047368806367
 30
0.0000000000000000
 11
238.1346526442088
 21
342.7606354570231
 31
0.0000000000000000
  0
ARC
  5
3F1
100
AcDbEntity
  8
MAIN0
  6
CONTINUOUS
 62
3
100
AcDbCircle
 10
234.1498738518378
 20
299.5092584280153
 30
0.0000000000000000
 40
4.000000000000000
100
AcDbArc
 50
5.000000000008340
 51
62.89877383466575
  0
LINE
  5
3F2
100
AcDbEntity
  8
MAIN0
  6
CONTINUOUS
 62
3
100
AcDbLine
 10
239.2336413672644
 20
287.2963828143404
 30
0.0000000000000000
 11
238.1346526442090
 21
299.8578813990073
 31
0.0000000000000000
  0
LINE
  5
3F3
100
AcDbEntity
  8
MAIN0
  6
CONTINUOUS
 62
3
100
AcDbLine
 10
239.5480753636267
 20
360.4161310658776
 30
0.0000000000000000
 11
240.6864491216256
 21
361.4592584280154
 31
0.0000000000000000
  0
LINE
  5
3F4
100
AcDbEntity
  8
MAIN0
  6
CONTINUOUS
 62
3
100
AcDbLine
 10
239.2783082839795
 20
287.2554531261070
 30
0.0000000000000000
 11
240.3654640267272
 21
286.2592584280152
 31
0.0000000000000000
  0
LINE
  5
3F5
100
AcDbEntity
  8
MAIN0
  6
CONTINUOUS
 62
3
100
AcDbLine
 10
245.2021296847865
 20
286.2592584280152
 30
0.0000000000000000
 11
245.2021296847865
 21
361.4592584280154
 31
0.0000000000000000
  0
LINE
  5
3F6
100
AcDbEntity
  8
MAIN0
  6
CONTINUOUS
 62
3
100
AcDbLine
 10
244.7021296847865
 20
286.2592584280152
 30
0.0000000000000000
 11
244.7021296847865
 21
361.4592584280154
 31
0.0000000000000000
  0
LINE
  5
3F7
100
AcDbEntity
  8
MAIN0
  6
CONTINUOUS
 62
3
100
AcDbLine
 10
251.2021296847865
 20
286.2592584280152
 30
0.0000000000000000
 11
251.2021296847865
 21
294.3642270348386
 31
0.0000000000000000
  0
LINE
  5
3F8
100
AcDbEntity
  8
MAIN0
  6
CONTINUOUS
 62
3
100
AcDbLine
 10
251.2021296847865
 20
347.5642270348387
 30
0.0000000000000000
 11
251.2021296847865
 21
361.4592584280154
 31
0.0000000000000000
  0
LINE
  5
3F9
100
AcDbEntity
  8
MAIN0
  6
CONTINUOUS
 62
3
100
AcDbLine
 10
219.9721296847865
 20
187.4842584280153
 30
0.0000000000000000
 11
235.3721296847864
 21
187.4842584280153
 31
0.0000000000000000
  0
LINE
  5
3FA
100
AcDbEntity
  8
MAIN0
  6
CONTINUOUS
 62
3
100
AcDbLine
 10
235.3721296847865
 20
207.4842584280154
 30
0.0000000000000000
 11
219.9721296847866
 21
207.4842584280154
 31
0.0000000000000000
  0
LINE
  5
3FB
100
AcDbEntity
  8
MAIN0
  6
CONTINUOUS
 62
3
100
AcDbLine
 10
219.9721296847864
 20
187.4842584280153
 30
0.0000000000000000
 11
219.9721296847865
 21
207.4842584280153
 31
0.0000000000000000
  0
LINE
  5
3FC
100
AcDbEntity
  8
MAIN0
  6
CONTINUOUS
 62
3
100
AcDbLine
 10
235.9721296847865
 20
186.8842584280155
 30
0.0000000000000000
 11
235.3721296847865
 21
187.4842584280155
 31
0.0000000000000000
  0
LINE
  5
3FD
100
AcDbEntity
  8
MAIN0
  6
CONTINUOUS
 62
3
100
AcDbLine
 10
235.9721296847865
 20
208.0842584280154
 30
0.0000000000000000
 11
235.3721296847865
 21
207.4842584280154
 31
0.0000000000000000
  0
LINE
  5
3FE
100
AcDbEntity
  8
MAIN0
  6
CENTER
 62
12
100
AcDbLine
 10
522.3043723984479
 20
285.4228672060674
 30
0.0000000000000000
 11
509.0144201771510
 21
281.8618352409227
 31
0.0000000000000000
  0
ARC
  5
3FF
100
AcDbEntity
  8
MAIN0
  6
CENTER
 62
12
100
AcDbCircle
 10
442.9475040864899
 20
264.1592584280153
 30
0.0000000000000000
 40
75.00000000000000
100
AcDbArc
 50
6.590248050394353
 51
20.63256124859649
  0
CIRCLE
  5
400
100
AcDbEntity
  8
MAIN0
  6
HIDDEN
 62
4
100
AcDbCircle
 10
515.3919410581699
 20
283.5706868107044
 30
0.0000000000000000
 40
2.999999999999993
  0
CIRCLE
  5
401
100
AcDbEntity
  8
MAIN0
  6
HIDDEN
 62
4
100
AcDbCircle
 10
515.3919410581699
 20
283.5706868107044
 30
0.0000000000000000
 40
2.499999999999993
  0
LINE
  5
402
100
AcDbEntity
  8
WAKU0
  6
CONTINUOUS
 62
3
100
AcDbLine
 10
412.0000000000000
 20
51.00000000000000
 30
0.0000000000000000
 11
582.0000000000000
 21
51.00000000000000
 31
0.0000000000000000
  0
LINE
  5
403
100
AcDbEntity
  8
WAKU0
  6
CONTINUOUS
 62
3
100
AcDbLine
 10
412.0000000000000
 20
51.00000000000000
 30
0.0000000000000000
 11
412.0000000000000
 21
12.00000000000000
 31
0.0000000000000000
  0
LINE
  5
404
100
AcDbEntity
  8
WAKU0
  6
CONTINUOUS
 62
3
100
AcDbLine
 10
484.0000000000000
 20
51.00000000000000
 30
0.0000000000000000
 11
484.0000000000000
 21
12.00000000000000
 31
0.0000000000000000
  0
LINE
  5
405
100
AcDbEntity
  8
WAKU0
  6
CONTINUOUS
 62
3
100
AcDbLine
 10
504.0000000000000
 20
51.00000000000000
 30
0.0000000000000000
 11
504.0000000000000
 21
12.00000000000000
 31
0.0000000000000000
  0
LINE
  5
406
100
AcDbEntity
  8
WAKU0
  6
CONTINUOUS
 62
3
100
AcDbLine
 10
516.0000000000000
 20
51.00000000000000
 30
0.0000000000000000
 11
516.0000000000000
 21
12.00000000000000
 31
0.0000000000000000
  0
LINE
  5
407
100
AcDbEntity
  8
WAKU0
  6
CONTINUOUS
 62
3
100
AcDbLine
 10
516.0000000000000
 20
37.00000000000000
 30
0.0000000000000000
 11
582.0000000000000
 21
37.00000000000000
 31
0.0000000000000000
  0
LINE
  5
408
100
AcDbEntity
  8
WAKU0
  6
CONTINUOUS
 62
3
100
AcDbLine
 10
504.0000000000000
 20
23.00000000000000
 30
0.0000000000000000
 11
582.0000000000000
 21
23.00000000000000
 31
0.0000000000000000
  0
LINE
  5
409
100
AcDbEntity
  8
WAKU0
  6
CONTINUOUS
 62
3
100
AcDbLine
 10
547.0000000000000
 20
51.00000000000000
 30
0.0000000000000000
 11
547.0000000000000
 21
44.00000000000000
 31
0.0000000000000000
  0
LINE
  5
40A
100
AcDbEntity
  8
WAKU0
  6
CONTINUOUS
 62
3
100
AcDbLine
 10
559.0000000000000
 20
51.00000000000000
 30
0.0000000000000000
 11
559.0000000000000
 21
44.00000000000000
 31
0.0000000000000000
  0
LINE
  5
40B
100
AcDbEntity
  8
WAKU0
  6
CONTINUOUS
 62
3
100
AcDbLine
 10
484.0000000000000
 20
31.50000000000000
 30
0.0000000000000000
 11
504.0000000000000
 21
31.50000000000000
 31
0.0000000000000000
  0
LINE
  5
40C
100
AcDbEntity
  8
WAKU0
  6
CONTINUOUS
 62
3
100
AcDbLine
 10
504.0000000000000
 20
44.00000000000000
 30
0.0000000000000000
 11
582.0000000000000
 21
44.00000000000000
 31
0.0000000000000000
  0
LINE
  5
40D
100
AcDbEntity
  8
WAKU0
  6
CONTINUOUS
 62
3
100
AcDbLine
 10
412.0000000000000
 20
37.00000000000000
 30
0.0000000000000000
 11
484.0000000000000
 21
37.00000000000000
 31
0.0000000000000000
  0
LINE
  5
40E
100
AcDbEntity
  8
WAKU0
  6
CONTINUOUS
 62
3
100
AcDbLine
 10
412.0000000000000
 20
23.00000000000000
 30
0.0000000000000000
 11
484.0000000000000
 21
23.00000000000000
 31
0.0000000000000000
  0
LINE
  5
40F
100
AcDbEntity
  8
WAKU0
  6
CONTINUOUS
 62
3
100
AcDbLine
 10
460.0000000000000
 20
37.00000000000000
 30
0.0000000000000000
 11
460.0000000000000
 21
12.00000000000000
 31
0.0000000000000000
  0
LINE
  5
410
100
AcDbEntity
  8
WAKU0
  6
CONTINUOUS
 62
3
100
AcDbLine
 10
436.0000000000000
 20
37.00000000000000
 30
0.0000000000000000
 11
436.0000000000000
 21
23.00000000000000
 31
0.0000000000000000
  0
LINE
  5
411
100
AcDbEntity
  8
WAKU0
  6
CONTINUOUS
 62
3
100
AcDbLine
 10
472.0000000000000
 20
26.00000000000000
 30
0.0000000000000000
 11
472.0000000000000
 21
23.00000000000000
 31
0.0000000000000000
  0
LINE
  5
412
100
AcDbEntity
  8
WAKU0
  6
CONTINUOUS
 62
3
100
AcDbLine
 10
448.0000000000000
 20
26.00000000000000
 30
0.0000000000000000
 11
448.0000000000000
 21
23.00000000000000
 31
0.0000000000000000
  0
LINE
  5
413
100
AcDbEntity
  8
WAKU0
  6
CONTINUOUS
 62
3
100
AcDbLine
 10
424.0000000000000
 20
26.00000000000000
 30
0.0000000000000000
 11
424.0000000000000
 21
23.00000000000000
 31
0.0000000000000000
  0
LINE
  5
414
100
AcDbEntity
  8
WAKU0
  6
CONTINUOUS
 62
3
100
AcDbLine
 10
430.0000000000000
 20
51.00000000000000
 30
0.0000000000000000
 11
430.0000000000000
 21
37.00000000000000
 31
0.0000000000000000
  0
LINE
  5
415
100
AcDbEntity
  8
WAKU0
  6
CONTINUOUS
 62
3
100
AcDbLine
 10
412.0000000000000
 20
45.00000000000000
 30
0.0000000000000000
 11
484.0000000000000
 21
45.00000000000000
 31
0.0000000000000000
  0
LINE
  5
416
100
AcDbEntity
  8
WAKU0
  6
HIDDEN
 62
3
100
AcDbLine
 10
532.5000000000000
 20
23.00000000000000
 30
0.0000000000000000
 11
532.5000000000000
 21
12.00000000000000
 31
0.0000000000000000
  0
LINE
  5
417
100
AcDbEntity
  8
WAKU0
  6
HIDDEN
 62
3
100
AcDbLine
 10
544.9000000000000
 20
23.00000000000000
 30
0.0000000000000000
 11
544.9000000000000
 21
12.00000000000000
 31
0.0000000000000000
  0
MTEXT
  5
418
100
AcDbEntity
  8
WAKU0
  6
CONTINUOUS
 62
3
100
AcDbMText
 10
430.4820000243485
 20
49.54999995231628
 30
0.0000000000000000
 40
3.099999904632568
 41
0.0000000000000000
 71
     1
 72
     1
  1
{\H0.93x;{61P2190070}}
 11
1.000000000000000
 21
0.0000000000000000
 31
0.0000000000000000
  7
STANDARD
  0
MTEXT
  5
419
100
AcDbEntity
  8
WAKU0
  6
CONTINUOUS
 62
3
100
AcDbMText
 10
516.4820000243485
 20
49.04999995231628
 30
0.0000000000000000
 40
3.099999904632568
 41
0.0000000000000000
 71
     1
 72
     1
  1
{\H0.92x;{PWT08}}
 11
1.000000000000000
 21
0.0000000000000000
 31
0.0000000000000000
  7
STANDARD
  0
MTEXT
  5
41A
100
AcDbEntity
  8
WAKU0
  6
CONTINUOUS
 62
3
100
AcDbMText
 10
528.9650003314018
 20
43.50000000000000
 30
0.0000000000000000
 40
3.000000000000000
 41
0.0000000000000000
 71
     1
 72
     1
  1
{\H0.94x;{パワーウイング　８\PＰＯＷＥＲ　ＷＩＮＧ　８}}
 11
1.000000000000000
 21
0.0000000000000000
 31
0.0000000000000000
  7
KNJYOKO
  0
MTEXT
  5
41B
100
AcDbEntity
  8
WAKU0
  6
CONTINUOUS
 62
3
100
AcDbMText
 10
517.8699992895126
 20
34.23333326975504
 30
0.0000000000000000
 40
3.099999904632568
 41
0.0000000000000000
 71
     1
 72
     1
  1
{\H0.94x;{ＰＷＴ０８　ガイケイ\PＰＷＴ０８　ＯＵＴＳＩＤＥ　ＶＩＥＷ}}
 11
1.000000000000000
 21
0.0000000000000000
 31
0.0000000000000000
  7
KNJYOKO
  0
MTEXT
  5
41C
100
AcDbEntity
  8
WAKU0
  6
CONTINUOUS
 62
3
100
AcDbMText
 10
490.0049998760223
 20
39.29999995231628
 30
0.0000000000000000
 40
3.099999904632568
 41
0.0000000000000000
 71
     1
 72
     1
  1
{\H0.90x;{1:1}}
 11
1.000000000000000
 21
0.0000000000000000
 31
0.0000000000000000
  7
STANDARD
  0
MTEXT
  5
41D
100
AcDbEntity
  8
WAKU0
  6
CONTINUOUS
 62
3
100
AcDbMText
 10
546.4000001549721
 20
20.15000009536743
 30
0.0000000000000000
 40
5.300000190734863
 41
0.0000000000000000
 71
     1
 72
     1
  1
{\H0.90x;{9008}}
 11
1.000000000000000
 21
0.0000000000000000
 31
0.0000000000000000
  7
STANDARD
  0
MTEXT
  5
41E
100
AcDbEntity
  8
WAKU0
  6
CONTINUOUS
 62
3
100
AcDbMText
 10
534.3000000834466
 20
20.15000009536743
 30
0.0000000000000000
 40
5.300000190734863
 41
0.0000000000000000
 71
     1
 72
     1
  1
{\H0.87x;{21}}
 11
1.000000000000000
 21
0.0000000000000000
 31
0.0000000000000000
  7
STANDARD
  0
MTEXT
  5
41F
100
AcDbEntity
  8
WAKU0
  6
CONTINUOUS
 62
3
100
AcDbMText
 10
517.5000001192093
 20
20.15000009536743
 30
0.0000000000000000
 40
5.300000190734863
 41
0.0000000000000000
 71
     1
 72
     1
  1
{\H0.89x;{61P}}
 11
1.000000000000000
 21
0.0000000000000000
 31
0.0000000000000000
  7
STANDARD
  0
MTEXT
  5
420
100
AcDbEntity
  8
WAKU0
  6
CONTINUOUS
 62
3
100
AcDbMText
 10
572.0000000476837
 20
20.15000009536743
 30
0.0000000000000000
 40
5.300000190734863
 41
0.0000000000000000
 71
     1
 72
     1
  1
{\H0.81x;{6}}
 11
1.000000000000000
 21
0.0000000000000000
 31
0.0000000000000000
  7
STANDARD
  0
MTEXT
  5
421
100
AcDbEntity
  8
WAKU0
  6
CONTINUOUS
 62
3
100
AcDbMText
 10
572.0000000819564
 20
44.84999990463257
 30
0.0000000000000000
 40
5.300000190734863
 41
0.0000000000000000
 71
     7
 72
     1
  1
{\H0.81x;{ }}
 11
1.000000000000000
 21
0.0000000000000000
 31
0.0000000000000000
  7
STANDARD
  0
MTEXT
  5
422
100
AcDbEntity
  8
WAKU0
  6
CONTINUOUS
 62
3
100
AcDbMText
 10
461.3850002884865
 20
33.00000000000000
 30
0.0000000000000000
 40
3.000000000000000
 41
0.0000000000000000
 71
     7
 72
     1
  1
{\H0.93x;{DRAWN BY}}
 11
1.000000000000000
 21
0.0000000000000000
 31
0.0000000000000000
  7
STANDARD
  0
MTEXT
  5
423
100
AcDbEntity
  8
WAKU0
  6
CONTINUOUS
 62
3
100
AcDbMText
 10
441.2149997949600
 20
32.95000004768372
 30
0.0000000000000000
 40
3.099999904632568
 41
0.0000000000000000
 71
     7
 72
     1
  1
{\H0.92x;{CHIEF}}
 11
1.000000000000000
 21
0.0000000000000000
 31
0.0000000000000000
  7
STANDARD
  0
MTEXT
  5
424
100
AcDbEntity
  8
WAKU0
  6
CONTINUOUS
 62
3
100
AcDbMText
 10
414.4249997138977
 20
32.95000004768372
 30
0.0000000000000000
 40
3.099999904632568
 41
0.0000000000000000
 71
     7
 72
     1
  1
{\H0.92x;{MANAGER}}
 11
1.000000000000000
 21
0.0000000000000000
 31
0.0000000000000000
  7
STANDARD
  0
MTEXT
  5
425
100
AcDbEntity
  8
WAKU0
  6
CONTINUOUS
 62
3
100
AcDbMText
 10
416.6599994301796
 20
18.13333336512248
 30
0.0000000000000000
 40
3.099999904632568
 41
0.0000000000000000
 71
     7
 72
     1
  1
{\H0.93x;{KITAGAWA IRON\PWORKS CO.,LTD.}}
 11
1.000000000000000
 21
0.0000000000000000
 31
0.0000000000000000
  7
STANDARD
  0
MTEXT
  5
426
100
AcDbEntity
  8
WAKU0
  6
CONTINUOUS
 62
3
100
AcDbMText
 10
413.0850002169609
 20
46.50000000000000
 30
0.0000000000000000
 40
3.000000000000000
 41
0.0000000000000000
 71
     7
 72
     1
  1
{\H0.92x;{CAREER}}
 11
1.000000000000000
 21
0.0000000000000000
 31
0.0000000000000000
  7
STANDARD
  0
MTEXT
  5
427
100
AcDbEntity
  8
WAKU0
  6
CONTINUOUS
 62
3
100
AcDbMText
 10
466.6099998354912
 20
18.95000004768372
 30
0.0000000000000000
 40
3.099999904632568
 41
0.0000000000000000
 71
     7
 72
     1
  1
{\H0.91x;{DATE}}
 11
1.000000000000000
 21
0.0000000000000000
 31
0.0000000000000000
  7
STANDARD
  0
MTEXT
  5
428
100
AcDbEntity
  8
WAKU0
  6
CONTINUOUS
 62
3
100
AcDbMText
 10
485.9000002145767
 20
26.50000000000000
 30
0.0000000000000000
 40
3.000000000000000
 41
0.0000000000000000
 71
     7
 72
     1
  1
{\H0.63x;{3RD ANGLE}}
 11
1.000000000000000
 21
0.0000000000000000
 31
0.0000000000000000
  7
STANDARD
  0
MTEXT
  5
429
100
AcDbEntity
  8
WAKU0
  6
CONTINUOUS
 62
3
100
AcDbMText
 10
487.2149997949600
 20
45.95000004768372
 30
0.0000000000000000
 40
3.099999904632568
 41
0.0000000000000000
 71
     7
 72
     1
  1
{\H0.92x;{SCALE}}
 11
1.000000000000000
 21
0.0000000000000000
 31
0.0000000000000000
  7
STANDARD
  0
MTEXT
  5
42A
100
AcDbEntity
  8
WAKU0
  6
CONTINUOUS
 62
3
100
AcDbMText
 10
577.7000000476837
 20
46.00000000000000
 30
0.0000000000000000
 40
3.000000000000000
 41
0.0000000000000000
 71
     7
 72
     1
  1
{\H0.63x;{kg}}
 11
1.000000000000000
 21
0.0000000000000000
 31
0.0000000000000000
  7
STANDARD
  0
MTEXT
  5
42B
100
AcDbEntity
  8
WAKU0
  6
CONTINUOUS
 62
3
100
AcDbMText
 10
547.6000001430512
 20
46.00000000000000
 30
0.0000000000000000
 40
3.000000000000000
 41
0.0000000000000000
 71
     7
 72
     1
  1
{\H0.63x;{WEIGHT}}
 11
1.000000000000000
 21
0.0000000000000000
 31
0.0000000000000000
  7
STANDARD
  0
MTEXT
  5
42C
100
AcDbEntity
  8
WAKU0
  6
CONTINUOUS
 62
3
100
AcDbMText
 10
506.0049998760223
 20
18.13333336512248
 30
0.0000000000000000
 40
3.099999904632568
 41
0.0000000000000000
 71
     7
 72
     1
  1
{\H0.90x;{DRW\PNO.}}
 11
1.000000000000000
 21
0.0000000000000000
 31
0.0000000000000000
  7
STANDARD
  0
MTEXT
  5
42D
100
AcDbEntity
  8
WAKU0
  6
CONTINUOUS
 62
3
100
AcDbMText
 10
504.6099998354912
 20
31.95000004768372
 30
0.0000000000000000
 40
3.099999904632568
 41
0.0000000000000000
 71
     7
 72
     1
  1
{\H0.91x;{NAME}}
 11
1.000000000000000
 21
0.0000000000000000
 31
0.0000000000000000
  7
STANDARD
  0
MTEXT
  5
42E
100
AcDbEntity
  8
WAKU0
  6
CONTINUOUS
 62
3
100
AcDbMText
 10
504.6099998354912
 20
45.95000004768372
 30
0.0000000000000000
 40
3.099999904632568
 41
0.0000000000000000
 71
     7
 72
     1
  1
{\H0.91x;{TYPE}}
 11
1.000000000000000
 21
0.0000000000000000
 31
0.0000000000000000
  7
STANDARD
  0
LINE
  5
42F
100
AcDbEntity
  8
WAKU0
  6
HIDDEN
 62
3
100
AcDbLine
 10
579.1599564743885
 20
13.84999990463257
 30
0.0000000000000000
 11
568.9400436209789
 21
13.84999990463257
 31
0.0000000000000000
  0
LINE
  5
430
100
AcDbEntity
  8
WAKU0
  6
HIDDEN
 62
3
100
AcDbLine
 10
579.1599564743885
 20
13.84999990463250
 30
0.0000000000000000
 11
574.0500000476851
 21
22.70070406014901
 31
0.0000000000000000
  0
LINE
  5
431
100
AcDbEntity
  8
WAKU0
  6
HIDDEN
 62
3
100
AcDbLine
 10
574.0500000476851
 20
22.70070406014902
 30
0.0000000000000000
 11
568.9400436209789
 21
13.84999990463248
 31
0.0000000000000000
  0
LINE
  5
432
100
AcDbEntity
  8
WAKU0
  6
CONTINUOUS
 62
3
100
AcDbLine
 10
502.4713877753800
 20
15.78041421262812
 30
0.0000000000000000
 11
502.4713877753800
 21
21.78041421262815
 31
0.0000000000000000
  0
LINE
  5
433
100
AcDbEntity
  8
WAKU0
  6
CONTINUOUS
 62
3
100
AcDbLine
 10
495.9336941228225
 20
17.28041421262811
 30
0.0000000000000000
 11
495.9336941228225
 21
20.28041421262824
 31
0.0000000000000000
  0
LINE
  5
434
100
AcDbEntity
  8
WAKU0
  6
CENTER
 62
12
100
AcDbLine
 10
485.4321805514995
 20
18.78041421262813
 30
0.0000000000000000
 11
503.2765788964694
 21
18.78041421262813
 31
0.0000000000000000
  0
LINE
  5
435
100
AcDbEntity
  8
WAKU0
  6
CENTER
 62
12
100
AcDbLine
 10
489.4474565857986
 20
14.55921662918448
 30
0.0000000000000000
 11
489.4474565857986
 21
22.89865102149943
 31
0.0000000000000000
  0
LINE
  5
436
100
AcDbEntity
  8
WAKU0
  6
CONTINUOUS
 62
3
100
AcDbLine
 10
495.9336941228225
 20
20.28041421262797
 30
0.0000000000000000
 11
502.4713877753800
 21
21.78041421262795
 31
0.0000000000000000
  0
LINE
  5
437
100
AcDbEntity
  8
WAKU0
  6
CONTINUOUS
 62
3
100
AcDbLine
 10
495.9336941228225
 20
17.28041421262811
 30
0.0000000000000000
 11
502.4713877753799
 21
15.78041421262812
 31
0.0000000000000000
  0
CIRCLE
  5
438
100
AcDbEntity
  8
WAKU0
  6
CONTINUOUS
 62
3
100
AcDbCircle
 10
489.4474565857986
 20
18.78041421262813
 30
0.0000000000000000
 40
1.499999999999972
  0
CIRCLE
  5
439
100
AcDbEntity
  8
WAKU0
  6
CONTINUOUS
 62
3
100
AcDbCircle
 10
489.4474565857986
 20
18.78041421262813
 30
0.0000000000000000
 40
2.999999999999979
  0
ENDSEC
  0
SECTION
  2
OBJECTS
  0
DICTIONARY
  5
48C
100
AcDbDictionary
  3
ACAD_GROUP
350
48D
  3
ACAD_MLINESTYLE
350
48E
  3
DWGPROPS
350
48F
  0
DICTIONARY
  5
48D
102
{ACAD_REACTORS
330
48C
102
}
100
AcDbDictionary
  0
DICTIONARY
  5
48E
102
{ACAD_REACTORS
330
48C
102
}
100
AcDbDictionary
  3
STANDARD
350
490
  0
MLINESTYLE
  5
490
102
{ACAD_REACTORS
330
48E
102
}
100
AcDbMlineStyle
  2
STANDARD
 70
     0
  3

 62
   256
 51
90.00
 52
90.00
 71
     2
 49
0.50
 62
   256
  6
BYLAYER
 49
-0.50
 62
   256
  6
BYLAYER
  0
XRECORD
  5
48F
102
{ACAD_REACTORS
330
48C
102
}
100
AcDbXrecord
280
     1
  1
DWGPROPS COOKIE
  2
ＰＷＴ０８　ガイケイ
  3

  4

  6
パワーウイング　８
  7

  8

  9

300
=
301
=
302
=
303
=
304
=
305
=
306
=
307
=
308
=
309
=
 40
0.000000
 41
0.000000
 42
0.000000
  1

 90
        0
  0
ENDSEC
  0
EOF
