  0
SECTION
  2
HEADER
  9
$ACADVER
  1
AC1014
  9
$DWGCODEPAGE
  3
ANSI_932
  9
$LTSCALE
 40
20.0
  9
$FILLMODE
 70
     1
  9
$CLAYER
  8
0
  9
$PDMODE
 70
     0
  9
$SPLFRAME
 70
     0
  9
$SPLINETYPE
 70
     6
  9
$SPLINESEGS
 70
     8
  9
$DIMASZ
 40
2.000000
  9
$DIMEXE
 40
2.000000
  9
$DIMEXO
 40
0.800000
  9
$DIMTAD
 70
     1
  9
$DIMTIH
 70
     0
  9
$DIMTOH
 70
     0
  9
$DIMTVP
 40
0.500000
  9
$DIMTXT
 40
3.100000
  9
$EXTMIN
 10
0.000000
 20
0.000000
 30
0.000000
  9
$EXTMAX
 10
420.000000
 20
594.000000
 30
0.000000
  9
$MEASUREMENT
 70
  1
  9
$LIMMIN
 10
0.000000
 20
0.000000
  9
$LIMMAX
 10
420.000000
 20
594.000000
  9
$HANDLING
 70
     1
  9
$HANDSEED
  5
59A
  9
$DIMBLK
  1
_OPEN
  9
$DIMDEC
 70
     3
  9
$DIMAUNIT
 70
     1
  9
$DIMZIN
 70
     8
  9
$DIMTOFL
 70
     1
  0
ENDSEC
  0
SECTION
  2
CLASSES
  0
ENDSEC
  0
SECTION
  2
TABLES
  0
TABLE
  2
VPORT
  5
546
100
AcDbSymbolTable
 70
     1
  0
VPORT
  5
547
100
AcDbSymbolTableRecord
100
AcDbViewportTableRecord
  2
*ACTIVE
 70
     0
 12
297.000000
 22
154.103945
 40
531.792110
 41
1.116978
  0
ENDTAB
  0
TABLE
  2
LTYPE
  5
548
100
AcDbSymbolTable
 70
     4
  0
LTYPE
  5
549
100
AcDbSymbolTableRecord
100
AcDbLinetypeTableRecord
  2
BYBLOCK
 70
     0
  3

 72
    65
 73
     0
 40
0.0
  0
LTYPE
  5
54A
100
AcDbSymbolTableRecord
100
AcDbLinetypeTableRecord
  2
BYLAYER
 70
     0
  3

 72
    65
 73
     0
 40
0.0
  0
LTYPE
  5
54B
100
AcDbSymbolTableRecord
100
AcDbLinetypeTableRecord
  2
CONTINUOUS
 70
     0
  3
Solid line (NEC CAE2D for Win R12.1 : 2018.06.08)
 72
    65
 73
     0
 40
0.0
  0
LTYPE
  5
54C
100
AcDbSymbolTableRecord
100
AcDbLinetypeTableRecord
  2
HIDDEN
 70
     0
  3
__ __ __ __ __ __ __ __ __ __ __ __ __ __
 72
    65
 73
     2
 40
0.375
 49
0.25
 74
     0
 49
-0.125
 74
     0
  0
LTYPE
  5
54D
100
AcDbSymbolTableRecord
100
AcDbLinetypeTableRecord
  2
CENTER
 70
     0
  3
____ _ ____ _ ____ _ ____ _ ____ _ ____
 72
    65
 73
     4
 40
2.0
 49
1.25
 74
     0
 49
-0.25
 74
     0
 49
0.25
 74
     0
 49
-0.25
 74
     0
  0
LTYPE
  5
54E
100
AcDbSymbolTableRecord
100
AcDbLinetypeTableRecord
  2
PHANTOM
 70
     0
  3
______  __  __  ______  __  __  ______ 
 72
    65
 73
     6
 40
2.5
 49
1.25
 74
     0
 49
-0.25
 74
     0
 49
0.25
 74
     0
 49
-0.25
 74
     0
 49
0.25
 74
     0
 49
-0.25
 74
     0
  0
ENDTAB
  0
TABLE
  2
LAYER
  5
54F
100
AcDbSymbolTable
 70
    19
  0
LAYER
  5
550
100
AcDbSymbolTableRecord
100
AcDbLayerTableRecord
  2
0
 70
     0
 62
     7
  6
CONTINUOUS
  0
LAYER
  5
551
100
AcDbSymbolTableRecord
100
AcDbLayerTableRecord
  2
MAIN0
 70
     0
 62
     7
  6
CONTINUOUS
  0
LAYER
  5
552
100
AcDbSymbolTableRecord
100
AcDbLayerTableRecord
  2
MAIN1
 70
     0
 62
     7
  6
CONTINUOUS
  0
LAYER
  5
553
100
AcDbSymbolTableRecord
100
AcDbLayerTableRecord
  2
MAIN2
 70
     0
 62
     7
  6
CONTINUOUS
  0
LAYER
  5
554
100
AcDbSymbolTableRecord
100
AcDbLayerTableRecord
  2
MAIN3
 70
     0
 62
     7
  6
CONTINUOUS
  0
LAYER
  5
555
100
AcDbSymbolTableRecord
100
AcDbLayerTableRecord
  2
MAIN4
 70
     0
 62
     7
  6
CONTINUOUS
  0
LAYER
  5
556
100
AcDbSymbolTableRecord
100
AcDbLayerTableRecord
  2
MAIN5
 70
     0
 62
     7
  6
CONTINUOUS
  0
LAYER
  5
557
100
AcDbSymbolTableRecord
100
AcDbLayerTableRecord
  2
MAIN6
 70
     0
 62
     7
  6
CONTINUOUS
  0
LAYER
  5
558
100
AcDbSymbolTableRecord
100
AcDbLayerTableRecord
  2
MAIN7
 70
     0
 62
     7
  6
CONTINUOUS
  0
LAYER
  5
559
100
AcDbSymbolTableRecord
100
AcDbLayerTableRecord
  2
MAIN10
 70
     0
 62
     7
  6
CONTINUOUS
  0
LAYER
  5
55A
100
AcDbSymbolTableRecord
100
AcDbLayerTableRecord
  2
MAIN1023
 70
     0
 62
    16
  6
CONTINUOUS
  0
LAYER
  5
55B
100
AcDbSymbolTableRecord
100
AcDbLayerTableRecord
  2
A0
 70
     0
 62
     7
  6
CONTINUOUS
  0
LAYER
  5
55C
100
AcDbSymbolTableRecord
100
AcDbLayerTableRecord
  2
A2
 70
     0
 62
     7
  6
CONTINUOUS
  0
LAYER
  5
55D
100
AcDbSymbolTableRecord
100
AcDbLayerTableRecord
  2
A1023
 70
     0
 62
    16
  6
CONTINUOUS
  0
LAYER
  5
55E
100
AcDbSymbolTableRecord
100
AcDbLayerTableRecord
  2
WAKU0
 70
     0
 62
     7
  6
CONTINUOUS
  0
LAYER
  5
55F
100
AcDbSymbolTableRecord
100
AcDbLayerTableRecord
  2
WAKU1023
 70
     0
 62
    16
  6
CONTINUOUS
  0
LAYER
  5
560
100
AcDbSymbolTableRecord
100
AcDbLayerTableRecord
  2
S0
 70
     0
 62
     7
  6
CONTINUOUS
  0
LAYER
  5
561
100
AcDbSymbolTableRecord
100
AcDbLayerTableRecord
  2
S2
 70
     0
 62
     7
  6
CONTINUOUS
  0
LAYER
  5
562
100
AcDbSymbolTableRecord
100
AcDbLayerTableRecord
  2
S1023
 70
     0
 62
    16
  6
CONTINUOUS
  0
ENDTAB
  0
TABLE
  2
STYLE
  5
563
100
AcDbSymbolTable
 70
     4
  0
STYLE
  5
564
100
AcDbSymbolTableRecord
100
AcDbTextStyleTableRecord
  2
STANDARD
 70
    64
 40
0.0
 41
1.0
 50
0.0
 71
     0
 42
3.099999904632568
  3
TXT
  4

  0
STYLE
  5
565
100
AcDbSymbolTableRecord
100
AcDbTextStyleTableRecord
  2
ANKTATE
 70
    68
 40
0.0
 41
1.0
 50
0.0
 71
     0
 42
3.099999904632568
  3
TXT
  4

  0
STYLE
  5
120
100
AcDbSymbolTableRecord
100
AcDbTextStyleTableRecord
  2
KNJYOKO
 70
    64
 40
0.0
 41
1.0
 50
0.0
 71
     0
 42
3.099999904632568
  3
TXT
  4
BIGFONT
  0
STYLE
  5
566
100
AcDbSymbolTableRecord
100
AcDbTextStyleTableRecord
  2
KNJTATE
 70
    68
 40
0.0
 41
1.0
 50
0.0
 71
     0
 42
3.099999904632568
  3
TXT
  4
BIGFONT
  0
ENDTAB
  0
TABLE
  2
VIEW
  5
567
100
AcDbSymbolTable
 70
     0
  0
ENDTAB
  0
TABLE
  2
UCS
  5
568
100
AcDbSymbolTable
 70
     0
  0
ENDTAB
  0
TABLE
  2
APPID
  5
569
100
AcDbSymbolTable
 70
     1
  0
APPID
  5
56A
100
AcDbSymbolTableRecord
100
AcDbRegAppTableRecord
  2
ACAD
 70
     0
  0
ENDTAB
  0
TABLE
  2
DIMSTYLE
  5
56B
100
AcDbSymbolTable
 70
     1
  0
DIMSTYLE
105
56C
100
AcDbSymbolTableRecord
100
AcDbDimStyleTableRecord
  2
STANDARD
 70
     0
 41
2.000000
 44
2.000000
 42
0.800000
145
0.661290
140
3.100000
144
1.000000
146
0.903226
340
564
  0
DIMSTYLE
105
56D
100
AcDbSymbolTableRecord
100
AcDbDimStyleTableRecord
  2
MAIN001
 70
     0
 41
2.000000
 44
2.000000
 42
0.800000
145
0.661290
140
3.100000
144
1.000000
146
0.903226
 77
     1
 73
     0
 74
     0
271
     3
275
     1
 78
     8
172
     1
340
564
  0
DIMSTYLE
105
56E
100
AcDbSymbolTableRecord
100
AcDbDimStyleTableRecord
  2
A002
 70
     0
 41
3.000000
 44
3.000000
 42
1.200000
145
0.607527
140
4.650000
144
1.000000
146
0.903226
 77
     1
 73
     0
 74
     0
271
     3
275
     1
 78
     8
172
     1
340
564
  0
DIMSTYLE
105
56F
100
AcDbSymbolTableRecord
100
AcDbDimStyleTableRecord
  2
WAKU003
 70
     0
 41
2.000000
 44
2.000000
 42
0.800000
145
0.661290
140
3.100000
144
1.000000
146
0.903226
 77
     1
 73
     0
 74
     0
271
     3
275
     1
 78
     8
172
     1
340
564
  0
DIMSTYLE
105
570
100
AcDbSymbolTableRecord
100
AcDbDimStyleTableRecord
  2
S004
 70
     0
 41
0.133333
 44
0.133333
 42
0.053333
145
2.919355
140
0.206667
144
1.000000
146
0.903226
 77
     1
 73
     0
 74
     0
271
     3
275
     1
 78
     8
172
     1
340
564
  0
ENDTAB
  0
TABLE
  2
BLOCK_RECORD
  5
571
100
AcDbSymbolTable
 70
    41
  0
BLOCK_RECORD
  5
572
100
AcDbSymbolTableRecord
100
AcDbBlockTableRecord
  2
*MODEL_SPACE
  0
BLOCK_RECORD
  5
573
100
AcDbSymbolTableRecord
100
AcDbBlockTableRecord
  2
*PAPER_SPACE
  0
BLOCK_RECORD
  5
1
100
AcDbSymbolTableRecord
100
AcDbBlockTableRecord
  2
_NONE
  0
BLOCK_RECORD
  5
4
100
AcDbSymbolTableRecord
100
AcDbBlockTableRecord
  2
_CLOSED
  0
BLOCK_RECORD
  5
B
100
AcDbSymbolTableRecord
100
AcDbBlockTableRecord
  2
_DOT
  0
BLOCK_RECORD
  5
13
100
AcDbSymbolTableRecord
100
AcDbBlockTableRecord
  2
_OPEN
  0
BLOCK_RECORD
  5
19
100
AcDbSymbolTableRecord
100
AcDbBlockTableRecord
  2
_ORIGIN
  0
BLOCK_RECORD
  5
1E
100
AcDbSymbolTableRecord
100
AcDbBlockTableRecord
  2
_OPEN30
  0
BLOCK_RECORD
  5
24
100
AcDbSymbolTableRecord
100
AcDbBlockTableRecord
  2
_BOXFILLED
  0
BLOCK_RECORD
  5
29
100
AcDbSymbolTableRecord
100
AcDbBlockTableRecord
  2
_BOXBLANK
  0
BLOCK_RECORD
  5
31
100
AcDbSymbolTableRecord
100
AcDbBlockTableRecord
  2
_OBLIQUE
  0
BLOCK_RECORD
  5
35
100
AcDbSymbolTableRecord
100
AcDbBlockTableRecord
  2
_OPEN90
  0
BLOCK_RECORD
  5
3B
100
AcDbSymbolTableRecord
100
AcDbBlockTableRecord
  2
_CLOSEDBLANK
  0
BLOCK_RECORD
  5
41
100
AcDbSymbolTableRecord
100
AcDbBlockTableRecord
  2
_DOTBLANK
  0
BLOCK_RECORD
  5
574
100
AcDbSymbolTableRecord
100
AcDbBlockTableRecord
  2
M0
  0
BLOCK_RECORD
  5
575
100
AcDbSymbolTableRecord
100
AcDbBlockTableRecord
  2
*D0
  0
BLOCK_RECORD
  5
576
100
AcDbSymbolTableRecord
100
AcDbBlockTableRecord
  2
*D1
  0
BLOCK_RECORD
  5
577
100
AcDbSymbolTableRecord
100
AcDbBlockTableRecord
  2
*D2
  0
BLOCK_RECORD
  5
578
100
AcDbSymbolTableRecord
100
AcDbBlockTableRecord
  2
*D3
  0
BLOCK_RECORD
  5
579
100
AcDbSymbolTableRecord
100
AcDbBlockTableRecord
  2
*D4
  0
BLOCK_RECORD
  5
57A
100
AcDbSymbolTableRecord
100
AcDbBlockTableRecord
  2
*D5
  0
BLOCK_RECORD
  5
57B
100
AcDbSymbolTableRecord
100
AcDbBlockTableRecord
  2
D6
  0
BLOCK_RECORD
  5
57C
100
AcDbSymbolTableRecord
100
AcDbBlockTableRecord
  2
D7
  0
BLOCK_RECORD
  5
57D
100
AcDbSymbolTableRecord
100
AcDbBlockTableRecord
  2
*D8
  0
BLOCK_RECORD
  5
57E
100
AcDbSymbolTableRecord
100
AcDbBlockTableRecord
  2
*D9
  0
BLOCK_RECORD
  5
57F
100
AcDbSymbolTableRecord
100
AcDbBlockTableRecord
  2
*D10
  0
BLOCK_RECORD
  5
580
100
AcDbSymbolTableRecord
100
AcDbBlockTableRecord
  2
*D11
  0
BLOCK_RECORD
  5
581
100
AcDbSymbolTableRecord
100
AcDbBlockTableRecord
  2
*D12
  0
BLOCK_RECORD
  5
582
100
AcDbSymbolTableRecord
100
AcDbBlockTableRecord
  2
*D13
  0
BLOCK_RECORD
  5
583
100
AcDbSymbolTableRecord
100
AcDbBlockTableRecord
  2
*D14
  0
BLOCK_RECORD
  5
584
100
AcDbSymbolTableRecord
100
AcDbBlockTableRecord
  2
*D15
  0
BLOCK_RECORD
  5
585
100
AcDbSymbolTableRecord
100
AcDbBlockTableRecord
  2
*D16
  0
BLOCK_RECORD
  5
586
100
AcDbSymbolTableRecord
100
AcDbBlockTableRecord
  2
*D17
  0
BLOCK_RECORD
  5
587
100
AcDbSymbolTableRecord
100
AcDbBlockTableRecord
  2
*D18
  0
BLOCK_RECORD
  5
588
100
AcDbSymbolTableRecord
100
AcDbBlockTableRecord
  2
*D19
  0
BLOCK_RECORD
  5
589
100
AcDbSymbolTableRecord
100
AcDbBlockTableRecord
  2
*D20
  0
BLOCK_RECORD
  5
58A
100
AcDbSymbolTableRecord
100
AcDbBlockTableRecord
  2
*D21
  0
BLOCK_RECORD
  5
58B
100
AcDbSymbolTableRecord
100
AcDbBlockTableRecord
  2
*D22
  0
BLOCK_RECORD
  5
58C
100
AcDbSymbolTableRecord
100
AcDbBlockTableRecord
  2
D23
  0
BLOCK_RECORD
  5
58D
100
AcDbSymbolTableRecord
100
AcDbBlockTableRecord
  2
M1
  0
BLOCK_RECORD
  5
58E
100
AcDbSymbolTableRecord
100
AcDbBlockTableRecord
  2
D24
  0
BLOCK_RECORD
  5
58F
100
AcDbSymbolTableRecord
100
AcDbBlockTableRecord
  2
*X0
  0
BLOCK_RECORD
  5
590
100
AcDbSymbolTableRecord
100
AcDbBlockTableRecord
  2
M2
  0
ENDTAB
  0
ENDSEC
  0
SECTION
  2
BLOCKS
  0
BLOCK
  5
591
100
AcDbEntity
  8
0
100
AcDbBlockBegin
  2
*MODEL_SPACE
 70
     0
 10
0.0
 20
0.0
 30
0.0
  3
*MODEL_SPACE
  1

  0
ENDBLK
  5
592
100
AcDbEntity
  8
0
100
AcDbBlockEnd
  0
BLOCK
  5
593
100
AcDbEntity
  8
0
100
AcDbBlockBegin
  2
*PAPER_SPACE
 70
     0
 10
0.0
 20
0.0
 30
0.0
  3
*PAPER_SPACE
  1

  0
ENDBLK
  5
594
100
AcDbEntity
  8
0
100
AcDbBlockEnd
  0
BLOCK
  5
2
100
AcDbEntity
  8
0
100
AcDbBlockBegin
  2
_NONE
 70
     0
 10
0.0
 20
0.0
 30
0.0
  3
_NONE
  1

  0
ENDBLK
  5
3
100
AcDbEntity
  8
0
100
AcDbBlockEnd
  0
BLOCK
  5
5
100
AcDbEntity
  8
0
100
AcDbBlockBegin
  2
_CLOSED
 70
     0
 10
0.0
 20
0.0
 30
0.0
  3
_CLOSED
  1

  0
LINE
  5
6
100
AcDbEntity
  8
0
  6
BYBLOCK
 62
     0
100
AcDbLine
 10
-1.0
 20
0.166667
 30
0.0
 11
0.0
 21
0.0
 31
0.0
  0
LINE
  5
7
100
AcDbEntity
  8
0
  6
BYBLOCK
 62
     0
100
AcDbLine
 10
0.0
 20
0.0
 30
0.0
 11
-1.0
 21
-0.166667
 31
0.0
  0
LINE
  5
8
100
AcDbEntity
  8
0
  6
BYBLOCK
 62
     0
100
AcDbLine
 10
-1.0
 20
0.166667
 30
0.0
 11
-1.0
 21
-0.166667
 31
0.0
  0
LINE
  5
9
100
AcDbEntity
  8
0
  6
BYBLOCK
 62
     0
100
AcDbLine
 10
0.0
 20
0.0
 30
0.0
 11
-1.0
 21
0.0
 31
0.0
  0
ENDBLK
  5
A
100
AcDbEntity
  8
0
100
AcDbBlockEnd
  0
BLOCK
  5
C
100
AcDbEntity
  8
0
100
AcDbBlockBegin
  2
_DOT
 70
     0
 10
0.0
 20
0.0
 30
0.0
  3
_DOT
  1

  0
POLYLINE
  5
D
100
AcDbEntity
  8
0
  6
BYBLOCK
 62
     0
100
AcDb2dPolyline
 66
     1
 10
0.0
 20
0.0
 30
0.0
 70
     1
 40
0.5
 41
0.5
  0
VERTEX
  5
E
100
AcDbEntity
  8
0
  6
BYBLOCK
 62
     0
100
AcDbVertex
100
AcDb2dVertex
 10
-0.25
 20
0.0
 30
0.0
 42
1.0
  0
VERTEX
  5
F
100
AcDbEntity
  8
0
  6
BYBLOCK
 62
     0
100
AcDbVertex
100
AcDb2dVertex
 10
0.25
 20
0.0
 30
0.0
 42
1.0
  0
SEQEND
  5
10
100
AcDbEntity
  8
0
  6
BYBLOCK
 62
     0
  0
LINE
  5
11
100
AcDbEntity
  8
0
  6
BYBLOCK
 62
     0
100
AcDbLine
 10
-0.5
 20
0.0
 30
0.0
 11
-1.0
 21
0.0
 31
0.0
  0
ENDBLK
  5
12
100
AcDbEntity
  8
0
100
AcDbBlockEnd
  0
BLOCK
  5
14
100
AcDbEntity
  8
0
100
AcDbBlockBegin
  2
_OPEN
 70
     0
 10
0.0
 20
0.0
 30
0.0
  3
_OPEN
  1

  0
LINE
  5
15
100
AcDbEntity
  8
0
  6
BYBLOCK
 62
     0
100
AcDbLine
 10
-1.0
 20
0.166667
 30
0.0
 11
0.0
 21
0.0
 31
0.0
  0
LINE
  5
16
100
AcDbEntity
  8
0
  6
BYBLOCK
 62
     0
100
AcDbLine
 10
0.0
 20
0.0
 30
0.0
 11
-1.0
 21
-0.166667
 31
0.0
  0
LINE
  5
17
100
AcDbEntity
  8
0
  6
BYBLOCK
 62
     0
100
AcDbLine
 10
0.0
 20
0.0
 30
0.0
 11
-1.0
 21
0.0
 31
0.0
  0
ENDBLK
  5
18
100
AcDbEntity
  8
0
100
AcDbBlockEnd
  0
BLOCK
  5
1A
100
AcDbEntity
  8
0
100
AcDbBlockBegin
  2
_ORIGIN
 70
     0
 10
0.0
 20
0.0
 30
0.0
  3
_ORIGIN
  1

  0
CIRCLE
  5
1B
100
AcDbEntity
  8
0
  6
BYBLOCK
 62
     0
100
AcDbCircle
 10
0.0
 20
0.0
 30
0.0
 40
0.5
  0
LINE
  5
1C
100
AcDbEntity
  8
0
  6
BYBLOCK
 62
     0
100
AcDbLine
 10
0.0
 20
0.0
 30
0.0
 11
-1.0
 21
0.0
 31
0.0
  0
ENDBLK
  5
1D
100
AcDbEntity
  8
0
100
AcDbBlockEnd
  0
BLOCK
  5
1F
100
AcDbEntity
  8
0
100
AcDbBlockBegin
  2
_OPEN30
 70
     0
 10
0.0
 20
0.0
 30
0.0
  3
_OPEN30
  1

  0
LINE
  5
20
100
AcDbEntity
  8
0
  6
BYBLOCK
 62
     0
100
AcDbLine
 10
-1.0
 20
0.267949
 30
0.0
 11
0.0
 21
0.0
 31
0.0
  0
LINE
  5
21
100
AcDbEntity
  8
0
  6
BYBLOCK
 62
     0
100
AcDbLine
 10
0.0
 20
0.0
 30
0.0
 11
-1.0
 21
-0.267949
 31
0.0
  0
LINE
  5
22
100
AcDbEntity
  8
0
  6
BYBLOCK
 62
     0
100
AcDbLine
 10
0.0
 20
0.0
 30
0.0
 11
-1.0
 21
0.0
 31
0.0
  0
ENDBLK
  5
23
100
AcDbEntity
  8
0
100
AcDbBlockEnd
  0
BLOCK
  5
25
100
AcDbEntity
  8
0
100
AcDbBlockBegin
  2
_BOXFILLED
 70
     0
 10
0.0
 20
0.0
 30
0.0
  3
_BOXFILLED
  1

  0
SOLID
  5
26
100
AcDbEntity
  8
0
  6
BYBLOCK
 62
     0
100
AcDbTrace
 10
-0.5
 20
0.5
 30
0.0
 11
0.5
 21
0.5
 31
0.0
 12
-0.5
 22
-0.5
 32
0.0
 13
0.5
 23
-0.5
 33
0.0
  0
LINE
  5
27
100
AcDbEntity
  8
0
  6
BYBLOCK
 62
     0
100
AcDbLine
 10
-0.5
 20
0.0
 30
0.0
 11
-1.0
 21
0.0
 31
0.0
  0
ENDBLK
  5
28
100
AcDbEntity
  8
0
100
AcDbBlockEnd
  0
BLOCK
  5
2A
100
AcDbEntity
  8
0
100
AcDbBlockBegin
  2
_BOXBLANK
 70
     0
 10
0.0
 20
0.0
 30
0.0
  3
_BOXBLANK
  1

  0
LINE
  5
2B
100
AcDbEntity
  8
0
  6
BYBLOCK
 62
     0
100
AcDbLine
 10
-0.5
 20
-0.5
 30
0.0
 11
0.5
 21
-0.5
 31
0.0
  0
LINE
  5
2C
100
AcDbEntity
  8
0
  6
BYBLOCK
 62
     0
100
AcDbLine
 10
0.5
 20
-0.5
 30
0.0
 11
0.5
 21
0.5
 31
0.0
  0
LINE
  5
2D
100
AcDbEntity
  8
0
  6
BYBLOCK
 62
     0
100
AcDbLine
 10
0.5
 20
0.5
 30
0.0
 11
-0.5
 21
0.5
 31
0.0
  0
LINE
  5
2E
100
AcDbEntity
  8
0
  6
BYBLOCK
 62
     0
100
AcDbLine
 10
-0.5
 20
0.5
 30
0.0
 11
-0.5
 21
-0.5
 31
0.0
  0
LINE
  5
2F
100
AcDbEntity
  8
0
  6
BYBLOCK
 62
     0
100
AcDbLine
 10
-0.5
 20
0.0
 30
0.0
 11
-1.0
 21
0.0
 31
0.0
  0
ENDBLK
  5
30
100
AcDbEntity
  8
0
100
AcDbBlockEnd
  0
BLOCK
  5
32
100
AcDbEntity
  8
0
100
AcDbBlockBegin
  2
_OBLIQUE
 70
     0
 10
0.0
 20
0.0
 30
0.0
  3
_OBLIQUE
  1

  0
LINE
  5
33
100
AcDbEntity
  8
0
  6
BYBLOCK
 62
     0
100
AcDbLine
 10
-0.5
 20
-0.5
 30
0.0
 11
0.5
 21
0.5
 31
0.0
  0
ENDBLK
  5
34
100
AcDbEntity
  8
0
100
AcDbBlockEnd
  0
BLOCK
  5
36
100
AcDbEntity
  8
0
100
AcDbBlockBegin
  2
_OPEN90
 70
     0
 10
0.0
 20
0.0
 30
0.0
  3
_OPEN90
  1

  0
LINE
  5
37
100
AcDbEntity
  8
0
  6
BYBLOCK
 62
     0
100
AcDbLine
 10
-0.5
 20
0.5
 30
0.0
 11
0.0
 21
0.0
 31
0.0
  0
LINE
  5
38
100
AcDbEntity
  8
0
  6
BYBLOCK
 62
     0
100
AcDbLine
 10
0.0
 20
0.0
 30
0.0
 11
-0.5
 21
-0.5
 31
0.0
  0
LINE
  5
39
100
AcDbEntity
  8
0
  6
BYBLOCK
 62
     0
100
AcDbLine
 10
0.0
 20
0.0
 30
0.0
 11
-1.0
 21
0.0
 31
0.0
  0
ENDBLK
  5
3A
100
AcDbEntity
  8
0
100
AcDbBlockEnd
  0
BLOCK
  5
3C
100
AcDbEntity
  8
0
100
AcDbBlockBegin
  2
_CLOSEDBLANK
 70
     0
 10
0.0
 20
0.0
 30
0.0
  3
_CLOSEDBLANK
  1

  0
LINE
  5
3D
100
AcDbEntity
  8
0
  6
BYBLOCK
 62
     0
100
AcDbLine
 10
-1.0
 20
0.1666666666666666
 30
0.0
 11
0.0
 21
0.0
 31
0.0
  0
LINE
  5
3E
100
AcDbEntity
  8
0
  6
BYBLOCK
 62
     0
100
AcDbLine
 10
0.0
 20
0.0
 30
0.0
 11
-1.0
 21
-0.1666666666666666
 31
0.0
  0
LINE
  5
3F
100
AcDbEntity
  8
0
  6
BYBLOCK
 62
     0
100
AcDbLine
 10
-1.0
 20
0.1666666666666666
 30
0.0
 11
-1.0
 21
-0.1666666666666666
 31
0.0
  0
ENDBLK
  5
40
100
AcDbEntity
  8
0
100
AcDbBlockEnd
  0
BLOCK
  5
42
100
AcDbEntity
  8
0
100
AcDbBlockBegin
  2
_DOTBLANK
 70
     0
 10
0.0
 20
0.0
 30
0.0
  3
_DOTBLANK
  1

  0
CIRCLE
  5
43
100
AcDbEntity
  8
0
  6
BYBLOCK
 62
     0
100
AcDbCircle
 10
0.0
 20
0.0
 30
0.0
 40
0.5
  0
LINE
  5
44
100
AcDbEntity
  8
0
  6
BYBLOCK
 62
     0
100
AcDbLine
 10
-0.5
 20
0.0
 30
0.0
 11
-1.0
 21
0.0
 31
0.0
  0
ENDBLK
  5
45
100
AcDbEntity
  8
0
100
AcDbBlockEnd
  0
BLOCK
  5
DF
100
AcDbEntity
  8
MAIN0
  6
BYBLOCK
 62
2
100
AcDbBlockBegin
  2
M0
 70
    64
 10
0.0
 20
0.0
 30
0.0
  0
LINE
  5
E0
100
AcDbEntity
  8
MAIN0
  6
BYBLOCK
 62
0
100
AcDbLine
 10
211.8818191946594
 20
335.0730173966438
 30
0.0000000000000000
 11
217.8818191946594
 21
335.0730173966438
 31
0.0000000000000000
  0
LINE
  5
E1
100
AcDbEntity
  8
MAIN0
  6
BYBLOCK
 62
0
100
AcDbLine
 10
214.8818191946594
 20
335.0730173966438
 30
0.0000000000000000
 11
214.8818191946594
 21
347.0730173966438
 31
0.0000000000000000
  0
LINE
  5
E2
100
AcDbEntity
  8
MAIN0
  6
BYBLOCK
 62
0
100
AcDbLine
 10
214.8818191946594
 20
335.0730173966438
 30
0.0000000000000000
 11
213.5877239691468
 21
339.9026465280891
 31
0.0000000000000000
  0
LINE
  5
E3
100
AcDbEntity
  8
MAIN0
  6
BYBLOCK
 62
0
100
AcDbLine
 10
214.8818191946598
 20
335.0730173966438
 30
0.0000000000000000
 11
216.1759144201724
 21
339.9026465280891
 31
0.0000000000000000
  0
ENDBLK
  5
E4
100
AcDbEntity
  8
MAIN0
  6
BYBLOCK
 62
2
100
AcDbBlockEnd
  0
BLOCK
  5
E6
100
AcDbEntity
  8
MAIN0
  6
CONTINUOUS
 62
3
100
AcDbBlockBegin
  2
*D0
 70
    65
 10
0.0
 20
0.0
 30
0.0
  0
LINE
  5
E7
100
AcDbEntity
  8
MAIN0
  6
BYBLOCK
 62
0
100
AcDbLine
 10
80.19452766004201
 20
116.6519877939367
 30
0.0000000000000000
 11
93.39452764812097
 21
116.6519877939366
 31
0.0000000000000000
  0
LINE
  5
E8
100
AcDbEntity
  8
MAIN0
  6
BYBLOCK
 62
0
100
AcDbLine
 10
91.39452764812097
 20
116.6519877939367
 30
0.0000000000000000
 11
91.39452764812097
 21
106.6519877939367
 31
0.0000000000000000
  0
INSERT
  5
E9
100
AcDbEntity
  8
MAIN0
  6
BYBLOCK
 62
0
100
AcDbBlockReference
  2
_OPEN
 10
91.39452764812097
 20
116.6519877939367
 30
0.0000000000000000
 41
2.000000000000000
 42
2.000000000000000
 43
2.000000000000000
 50
270.0000000000000
  0
INSERT
  5
EA
100
AcDbEntity
  8
MAIN0
  6
BYBLOCK
 62
0
100
AcDbBlockReference
  2
_OPEN
 10
91.39452764812097
 20
106.6519877939367
 30
0.0000000000000000
 41
2.000000000000000
 42
2.000000000000000
 43
2.000000000000000
 50
90.00000000000000
  0
LINE
  5
EB
100
AcDbEntity
  8
MAIN0
  6
BYBLOCK
 62
0
100
AcDbLine
 10
91.39452764812097
 20
118.6519877939367
 30
0.0000000000000000
 11
91.39452764812097
 21
119.6519877939367
 31
0.0000000000000000
  0
LINE
  5
EC
100
AcDbEntity
  8
MAIN0
  6
BYBLOCK
 62
0
100
AcDbLine
 10
91.39452764812097
 20
104.6519877939367
 30
0.0000000000000000
 11
91.39452764812097
 21
103.6519877939367
 31
0.0000000000000000
  0
LINE
  5
ED
100
AcDbEntity
  8
MAIN0
  6
BYBLOCK
 62
0
100
AcDbLine
 10
80.19452766004190
 20
106.6519877939366
 30
0.0000000000000000
 11
93.39452764812097
 21
106.6519877939367
 31
0.0000000000000000
  0
MTEXT
  5
EE
100
AcDbEntity
  8
MAIN0
  6
BYBLOCK
 62
0
100
AcDbMText
 10
89.34452769580469
 20
111.6519877939367
 30
0.0000000000000000
 40
3.099999904632568
 41
0.0000000000000000
 71
     5
 72
     1
  1
\A1;10
 11
6.123233995736766e-017
 21
1.000000000000000
 31
0.0000000000000000
  7
STANDARD
  0
ENDBLK
  5
EF
100
AcDbEntity
  8
MAIN0
  6
CONTINUOUS
 62
3
100
AcDbBlockEnd
  0
BLOCK
  5
F1
100
AcDbEntity
  8
MAIN0
  6
CONTINUOUS
 62
3
100
AcDbBlockBegin
  2
*D1
 70
    65
 10
0.0
 20
0.0
 30
0.0
  0
LINE
  5
F2
100
AcDbEntity
  8
MAIN0
  6
BYBLOCK
 62
0
100
AcDbLine
 10
76.39452766004195
 20
123.1519877939366
 30
0.0000000000000000
 11
109.7305005175170
 21
123.1519877939367
 31
0.0000000000000000
  0
LINE
  5
F3
100
AcDbEntity
  8
MAIN0
  6
BYBLOCK
 62
0
100
AcDbLine
 10
107.7305005175170
 20
121.1519877939367
 30
0.0000000000000000
 11
107.7305005175170
 21
102.1519877939367
 31
0.0000000000000000
  0
INSERT
  5
F4
100
AcDbEntity
  8
MAIN0
  6
BYBLOCK
 62
0
100
AcDbBlockReference
  2
_OPEN
 10
107.7305005175170
 20
123.1519877939367
 30
0.0000000000000000
 41
2.000000000000000
 42
2.000000000000000
 43
2.000000000000000
 50
90.00000000000000
  0
INSERT
  5
F5
100
AcDbEntity
  8
MAIN0
  6
BYBLOCK
 62
0
100
AcDbBlockReference
  2
_OPEN
 10
107.7305005175170
 20
100.1519877939367
 30
0.0000000000000000
 41
2.000000000000000
 42
2.000000000000000
 43
2.000000000000000
 50
270.0000000000000
  0
LINE
  5
F6
100
AcDbEntity
  8
MAIN0
  6
BYBLOCK
 62
0
100
AcDbLine
 10
76.39452766004155
 20
100.1519877939366
 30
0.0000000000000000
 11
109.7305005175170
 21
100.1519877939367
 31
0.0000000000000000
  0
MTEXT
  5
F7
100
AcDbEntity
  8
MAIN0
  6
BYBLOCK
 62
0
100
AcDbMText
 10
105.6805005652008
 20
111.6519877939367
 30
0.0000000000000000
 40
3.099999904632568
 41
0.0000000000000000
 71
     5
 72
     1
  1
\A1;23
 11
6.123233995736766e-017
 21
1.000000000000000
 31
0.0000000000000000
  7
STANDARD
  0
ENDBLK
  5
F8
100
AcDbEntity
  8
MAIN0
  6
CONTINUOUS
 62
3
100
AcDbBlockEnd
  0
BLOCK
  5
FA
100
AcDbEntity
  8
MAIN0
  6
CONTINUOUS
 62
3
100
AcDbBlockBegin
  2
*D2
 70
    65
 10
0.0
 20
0.0
 30
0.0
  0
LINE
  5
FB
100
AcDbEntity
  8
MAIN0
  6
BYBLOCK
 62
0
100
AcDbLine
 10
73.89452764812091
 20
91.88816172907252
 30
0.0000000000000000
 11
73.89452764812091
 21
78.84106348616751
 31
0.0000000000000000
  0
LINE
  5
FC
100
AcDbEntity
  8
MAIN0
  6
BYBLOCK
 62
0
100
AcDbLine
 10
73.89452764812091
 20
80.84106348616751
 30
0.0000000000000000
 11
75.89452764812091
 21
80.84106348616751
 31
0.0000000000000000
  0
INSERT
  5
FD
100
AcDbEntity
  8
MAIN0
  6
BYBLOCK
 62
0
100
AcDbBlockReference
  2
_OPEN
 10
73.89452764812091
 20
80.84106348616751
 30
0.0000000000000000
 41
2.000000000000000
 42
2.000000000000000
 43
2.000000000000000
 50
0.0000000000000000
  0
INSERT
  5
FE
100
AcDbEntity
  8
MAIN0
  6
BYBLOCK
 62
0
100
AcDbBlockReference
  2
_DOT
 10
76.89452764812091
 20
80.84106348616751
 30
0.0000000000000000
 41
1.000000000000000
 42
1.000000000000000
 43
1.000000000000000
 50
0.0000000000000000
  0
LINE
  5
FF
100
AcDbEntity
  8
MAIN0
  6
BYBLOCK
 62
0
100
AcDbLine
 10
71.89452764812091
 20
80.84106348616751
 30
0.0000000000000000
 11
67.95304415050129
 21
80.84106348616751
 31
0.0000000000000000
  0
LINE
  5
100
100
AcDbEntity
  8
MAIN0
  6
BYBLOCK
 62
0
100
AcDbLine
 10
76.89452764812091
 20
100.1025431319599
 30
0.0000000000000000
 11
76.89452764812091
 21
78.84106348616751
 31
0.0000000000000000
  0
MTEXT
  5
101
100
AcDbEntity
  8
MAIN0
  6
BYBLOCK
 62
0
100
AcDbMText
 10
69.00304428738258
 20
82.89106343848380
 30
0.0000000000000000
 40
3.099999904632568
 41
0.0000000000000000
 71
     5
 72
     1
  1
\A1;3
 11
1.000000000000000
 21
0.0000000000000000
 31
0.0000000000000000
  7
STANDARD
  0
ENDBLK
  5
102
100
AcDbEntity
  8
MAIN0
  6
CONTINUOUS
 62
3
100
AcDbBlockEnd
  0
BLOCK
  5
104
100
AcDbEntity
  8
MAIN0
  6
CONTINUOUS
 62
3
100
AcDbBlockBegin
  2
*D3
 70
    65
 10
0.0
 20
0.0
 30
0.0
  0
LINE
  5
105
100
AcDbEntity
  8
MAIN0
  6
BYBLOCK
 62
0
100
AcDbLine
 10
76.89452764812091
 20
100.1025431319599
 30
0.0000000000000000
 11
76.89452764812091
 21
78.84106348616751
 31
0.0000000000000000
  0
LINE
  5
106
100
AcDbEntity
  8
MAIN0
  6
BYBLOCK
 62
0
100
AcDbLine
 10
77.89452764812091
 20
80.84106348616751
 30
0.0000000000000000
 11
79.39452764812097
 21
80.84106348616751
 31
0.0000000000000000
  0
INSERT
  5
107
100
AcDbEntity
  8
MAIN0
  6
BYBLOCK
 62
0
100
AcDbBlockReference
  2
_DOT
 10
76.89452764812091
 20
80.84106348616751
 30
0.0000000000000000
 41
1.000000000000000
 42
1.000000000000000
 43
1.000000000000000
 50
180.0000000000000
  0
INSERT
  5
108
100
AcDbEntity
  8
MAIN0
  6
BYBLOCK
 62
0
100
AcDbBlockReference
  2
_OPEN
 10
79.39452764812097
 20
80.84106348616751
 30
0.0000000000000000
 41
2.000000000000000
 42
2.000000000000000
 43
2.000000000000000
 50
180.0000000000000
  0
LINE
  5
109
100
AcDbEntity
  8
MAIN0
  6
BYBLOCK
 62
0
100
AcDbLine
 10
81.39452764812097
 20
80.84106348616751
 30
0.0000000000000000
 11
88.38276502910242
 21
80.84106348616751
 31
0.0000000000000000
  0
LINE
  5
10A
100
AcDbEntity
  8
MAIN0
  6
BYBLOCK
 62
0
100
AcDbLine
 10
79.39452764812108
 20
105.8519877820159
 30
0.0000000000000000
 11
79.39452764812103
 21
78.84106348616751
 31
0.0000000000000000
  0
MTEXT
  5
10B
100
AcDbEntity
  8
MAIN0
  6
BYBLOCK
 62
0
100
AcDbMText
 10
85.23276471087826
 20
82.89106343848380
 30
0.0000000000000000
 40
3.099999904632568
 41
0.0000000000000000
 71
     5
 72
     1
  1
\A1;2.5
 11
1.000000000000000
 21
0.0000000000000000
 31
0.0000000000000000
  7
STANDARD
  0
ENDBLK
  5
10C
100
AcDbEntity
  8
MAIN0
  6
CONTINUOUS
 62
3
100
AcDbBlockEnd
  0
BLOCK
  5
10E
100
AcDbEntity
  8
MAIN0
  6
CONTINUOUS
 62
3
100
AcDbBlockBegin
  2
*D4
 70
    65
 10
0.0
 20
0.0
 30
0.0
  0
LINE
  5
10F
100
AcDbEntity
  8
MAIN0
  6
BYBLOCK
 62
0
100
AcDbLine
 10
443.7177920640544
 20
332.3727587494534
 30
0.0000000000000000
 11
443.7177920640544
 21
384.3230587375327
 31
0.0000000000000000
  0
LINE
  5
110
100
AcDbEntity
  8
MAIN0
  6
BYBLOCK
 62
0
100
AcDbLine
 10
445.7177920640544
 20
382.3230587375327
 30
0.0000000000000000
 11
464.7177920640544
 21
382.3230587375327
 31
0.0000000000000000
  0
INSERT
  5
111
100
AcDbEntity
  8
MAIN0
  6
BYBLOCK
 62
0
100
AcDbBlockReference
  2
_OPEN
 10
443.7177920640544
 20
382.3230587375327
 30
0.0000000000000000
 41
2.000000000000000
 42
2.000000000000000
 43
2.000000000000000
 50
180.0000000000000
  0
INSERT
  5
112
100
AcDbEntity
  8
MAIN0
  6
BYBLOCK
 62
0
100
AcDbBlockReference
  2
_OPEN
 10
466.7177920640544
 20
382.3230587375327
 30
0.0000000000000000
 41
2.000000000000000
 42
2.000000000000000
 43
2.000000000000000
 50
0.0000000000000000
  0
LINE
  5
113
100
AcDbEntity
  8
MAIN0
  6
BYBLOCK
 62
0
100
AcDbLine
 10
466.7177920640544
 20
332.3727587494534
 30
0.0000000000000000
 11
466.7177920640544
 21
384.3230587375327
 31
0.0000000000000000
  0
MTEXT
  5
114
100
AcDbEntity
  8
MAIN0
  6
BYBLOCK
 62
0
100
AcDbMText
 10
455.2177920640544
 20
384.3730586898490
 30
0.0000000000000000
 40
3.099999904632568
 41
0.0000000000000000
 71
     5
 72
     1
  1
\A1;23
 11
1.000000000000000
 21
0.0000000000000000
 31
0.0000000000000000
  7
STANDARD
  0
ENDBLK
  5
115
100
AcDbEntity
  8
MAIN0
  6
CONTINUOUS
 62
3
100
AcDbBlockEnd
  0
BLOCK
  5
117
100
AcDbEntity
  8
MAIN0
  6
CONTINUOUS
 62
3
100
AcDbBlockBegin
  2
*D5
 70
    65
 10
0.0
 20
0.0
 30
0.0
  0
LINE
  5
118
100
AcDbEntity
  8
MAIN0
  6
BYBLOCK
 62
0
100
AcDbLine
 10
132.5818191827374
 20
312.3230419892573
 30
0.0000000000000000
 11
108.2177920640544
 21
312.3230419892573
 31
0.0000000000000000
  0
LINE
  5
119
100
AcDbEntity
  8
MAIN0
  6
BYBLOCK
 62
0
100
AcDbLine
 10
110.2177920640544
 20
310.3230419892573
 30
0.0000000000000000
 11
110.2177920640544
 21
234.3230419892574
 31
0.0000000000000000
  0
INSERT
  5
11A
100
AcDbEntity
  8
MAIN0
  6
BYBLOCK
 62
0
100
AcDbBlockReference
  2
_OPEN
 10
110.2177920640544
 20
312.3230419892573
 30
0.0000000000000000
 41
2.000000000000000
 42
2.000000000000000
 43
2.000000000000000
 50
90.00000000000000
  0
INSERT
  5
11B
100
AcDbEntity
  8
MAIN0
  6
BYBLOCK
 62
0
100
AcDbBlockReference
  2
_OPEN
 10
110.2177920640544
 20
232.3230419892574
 30
0.0000000000000000
 41
2.000000000000000
 42
2.000000000000000
 43
2.000000000000000
 50
270.0000000000000
  0
LINE
  5
11C
100
AcDbEntity
  8
MAIN0
  6
BYBLOCK
 62
0
100
AcDbLine
 10
132.5818191827374
 20
232.3230419892574
 30
0.0000000000000000
 11
108.2177920640544
 21
232.3230419892574
 31
0.0000000000000000
  0
MTEXT
  5
11D
100
AcDbEntity
  8
MAIN0
  6
BYBLOCK
 62
0
100
AcDbMText
 10
108.1677921117381
 20
272.3230420302356
 30
0.0000000000000000
 40
3.099999904632568
 41
0.0000000000000000
 71
     5
 72
     1
  1
\A1;\U+220580H7\H0.903226x;\S＋0.03^ 　0;
 11
6.123233995736766e-017
 21
1.000000000000000
 31
0.0000000000000000
  7
KNJYOKO
  0
ENDBLK
  5
11E
100
AcDbEntity
  8
MAIN0
  6
CONTINUOUS
 62
3
100
AcDbBlockEnd
  0
BLOCK
  5
121
100
AcDbEntity
  8
MAIN0
  6
CONTINUOUS
 62
3
100
AcDbBlockBegin
  2
D6
 70
    64
 10
0.0
 20
0.0
 30
0.0
  0
LINE
  5
122
100
AcDbEntity
  8
MAIN0
  6
BYBLOCK
 62
0
100
AcDbLine
 10
2.418689020401331
 20
-29.14118907718449
 30
0.0000000000000000
 11
2.418689020401331
 21
-56.49999999998460
 31
0.0000000000000000
  0
LINE
  5
123
100
AcDbEntity
  8
MAIN0
  6
BYBLOCK
 62
0
100
AcDbLine
 10
3.018689044243189
 20
-54.49999999998460
 30
0.0000000000000000
 11
2.418689020401331
 21
-56.49999999998460
 31
0.0000000000000000
  0
LINE
  5
124
100
AcDbEntity
  8
MAIN0
  6
BYBLOCK
 62
0
100
AcDbLine
 10
2.418689020401331
 20
-56.49999999998460
 30
0.0000000000000000
 11
1.818688996559473
 21
-54.49999999998460
 31
0.0000000000000000
  0
LINE
  5
125
100
AcDbEntity
  8
MAIN0
  6
BYBLOCK
 62
0
100
AcDbLine
 10
-12.21728383705832
 20
-56.49999999998459
 30
0.0000000000000000
 11
4.418689020401331
 21
-56.49999999998460
 31
0.0000000000000000
  0
MTEXT
  5
126
100
AcDbEntity
  8
MAIN0
  6
BYBLOCK
 62
0
100
AcDbMText
 10
0.3686890680850468
 20
-38.44553313483726
 30
0.0000000000000000
 40
3.099999904632568
 41
0.0000000000000000
 71
     5
 72
     1
  1
\A1;\U+2205113
 11
6.123233995736766e-017
 21
1.000000000000000
 31
0.0000000000000000
  7
STANDARD
  0
ENDBLK
  5
127
100
AcDbEntity
  8
MAIN0
  6
CONTINUOUS
 62
3
100
AcDbBlockEnd
  0
BLOCK
  5
129
100
AcDbEntity
  8
MAIN0
  6
CONTINUOUS
 62
3
100
AcDbBlockBegin
  2
D7
 70
    64
 10
0.0
 20
0.0
 30
0.0
  0
LINE
  5
12A
100
AcDbEntity
  8
MAIN0
  6
BYBLOCK
 62
0
100
AcDbLine
 10
-28.98197669768865
 20
7.625000000000000
 30
0.0000000000000000
 11
-28.98197669768865
 21
-49.99997540738684
 31
0.0000000000000000
  0
LINE
  5
12B
100
AcDbEntity
  8
MAIN0
  6
BYBLOCK
 62
0
100
AcDbLine
 10
-28.38197667384679
 20
-47.99997540738684
 30
0.0000000000000000
 11
-28.98197669768865
 21
-49.99997540738684
 31
0.0000000000000000
  0
LINE
  5
12C
100
AcDbEntity
  8
MAIN0
  6
BYBLOCK
 62
0
100
AcDbLine
 10
-28.98197669768865
 20
-49.99997540738684
 30
0.0000000000000000
 11
-29.58197672153051
 21
-47.99997540738684
 31
0.0000000000000000
  0
LINE
  5
12D
100
AcDbEntity
  8
MAIN0
  6
BYBLOCK
 62
0
100
AcDbLine
 10
-17.61794957900571
 20
-49.99997540738684
 30
0.0000000000000000
 11
-30.98197669768865
 21
-49.99997540738684
 31
0.0000000000000000
  0
MTEXT
  5
12E
100
AcDbEntity
  8
MAIN0
  6
BYBLOCK
 62
0
100
AcDbMText
 10
-31.03197665000494
 20
-8.940696716308594e-008
 30
0.0000000000000000
 40
3.099999904632568
 41
0.0000000000000000
 71
     5
 72
     1
  1
\A1;\U+2205100\H0.903226x;\U+00B10.2
 11
6.123233995736766e-017
 21
1.000000000000000
 31
0.0000000000000000
  7
STANDARD
  0
ENDBLK
  5
12F
100
AcDbEntity
  8
MAIN0
  6
CONTINUOUS
 62
3
100
AcDbBlockEnd
  0
BLOCK
  5
131
100
AcDbEntity
  8
MAIN0
  6
CONTINUOUS
 62
3
100
AcDbBlockBegin
  2
*D8
 70
    65
 10
0.0
 20
0.0
 30
0.0
  0
LINE
  5
132
100
AcDbEntity
  8
MAIN0
  6
BYBLOCK
 62
0
100
AcDbLine
 10
119.3818191946582
 20
218.5230665701063
 30
0.0000000000000000
 11
119.3818191946582
 21
196.8230665819514
 31
0.0000000000000000
  0
LINE
  5
133
100
AcDbEntity
  8
MAIN0
  6
BYBLOCK
 62
0
100
AcDbLine
 10
121.3818191946582
 20
198.8230665819514
 30
0.0000000000000000
 11
131.3818191946583
 21
198.8230665819514
 31
0.0000000000000000
  0
INSERT
  5
134
100
AcDbEntity
  8
MAIN0
  6
BYBLOCK
 62
0
100
AcDbBlockReference
  2
_OPEN
 10
119.3818191946582
 20
198.8230665819514
 30
0.0000000000000000
 41
2.000000000000000
 42
2.000000000000000
 43
2.000000000000000
 50
180.0000000000000
  0
INSERT
  5
135
100
AcDbEntity
  8
MAIN0
  6
BYBLOCK
 62
0
100
AcDbBlockReference
  2
_OPEN
 10
133.3818191946583
 20
198.8230665819514
 30
0.0000000000000000
 41
2.000000000000000
 42
2.000000000000000
 43
2.000000000000000
 50
0.0000000000000000
  0
LINE
  5
136
100
AcDbEntity
  8
MAIN0
  6
BYBLOCK
 62
0
100
AcDbLine
 10
133.3818191946583
 20
209.0230419773359
 30
0.0000000000000000
 11
133.3818191946583
 21
196.8230665819514
 31
0.0000000000000000
  0
MTEXT
  5
137
100
AcDbEntity
  8
MAIN0
  6
BYBLOCK
 62
0
100
AcDbMText
 10
126.3818191946583
 20
200.8730665342677
 30
0.0000000000000000
 40
3.099999904632568
 41
0.0000000000000000
 71
     5
 72
     1
  1
\A1;14
 11
1.000000000000000
 21
0.0000000000000000
 31
0.0000000000000000
  7
STANDARD
  0
ENDBLK
  5
138
100
AcDbEntity
  8
MAIN0
  6
CONTINUOUS
 62
3
100
AcDbBlockEnd
  0
BLOCK
  5
13A
100
AcDbEntity
  8
MAIN0
  6
CONTINUOUS
 62
3
100
AcDbBlockBegin
  2
*D9
 70
    65
 10
0.0
 20
0.0
 30
0.0
  0
LINE
  5
13B
100
AcDbEntity
  8
MAIN0
  6
BYBLOCK
 62
0
100
AcDbLine
 10
429.7321220139972
 20
177.2092432457821
 30
0.0000000000000000
 11
427.7277303628534
 21
169.7287517654469
 31
0.0000000000000000
  0
LINE
  5
13C
100
AcDbEntity
  8
MAIN0
  6
BYBLOCK
 62
0
100
AcDbLine
 10
455.2177920640544
 20
175.5230419773367
 30
0.0000000000000000
 11
455.2177920640544
 21
166.1096164836522
 31
0.0000000000000000
  0
ARC
  5
13D
100
AcDbEntity
  8
MAIN0
  6
BYBLOCK
 62
0
100
AcDbCircle
 10
455.2177920640544
 20
272.3230587375318
 30
0.0000000000000000
 40
104.2134422538796
100
AcDbArc
 50
256.0995852027131
 51
268.9004147972869
  0
INSERT
  5
13E
100
AcDbEntity
  8
MAIN0
  6
BYBLOCK
 62
0
100
AcDbBlockReference
  2
_OPEN
 10
428.2453684530585
 20
171.6606034180251
 30
0.0000000000000000
 41
2.000000000000000
 42
2.000000000000000
 43
2.000000000000000
 50
165.0000000000000
  0
INSERT
  5
13F
100
AcDbEntity
  8
MAIN0
  6
BYBLOCK
 62
0
100
AcDbBlockReference
  2
_OPEN
 10
455.2177920640544
 20
168.1096164836522
 30
0.0000000000000000
 41
2.000000000000000
 42
2.000000000000000
 43
2.000000000000000
 50
360.0000000000000
  0
MTEXT
  5
140
100
AcDbEntity
  8
MAIN0
  6
BYBLOCK
 62
0
100
AcDbMText
 10
441.8827869563383
 20
171.0336388473872
 30
0.0000000000000000
 40
3.099999904632568
 41
0.0000000000000000
 71
     5
 72
     1
  1
\A1;15\U+00B0
 11
0.9914448613738103
 21
-0.1305261922200526
 31
0.0000000000000000
  7
STANDARD
  0
ENDBLK
  5
141
100
AcDbEntity
  8
MAIN0
  6
CONTINUOUS
 62
3
100
AcDbBlockEnd
  0
BLOCK
  5
143
100
AcDbEntity
  8
MAIN0
  6
CONTINUOUS
 62
3
100
AcDbBlockBegin
  2
*D10
 70
    65
 10
0.0
 20
0.0
 30
0.0
  0
LINE
  5
144
100
AcDbEntity
  8
MAIN0
  6
BYBLOCK
 62
0
100
AcDbLine
 10
455.2177920640544
 20
175.5230419773367
 30
0.0000000000000000
 11
455.2177920640544
 21
166.1096164836522
 31
0.0000000000000000
  0
LINE
  5
145
100
AcDbEntity
  8
MAIN0
  6
BYBLOCK
 62
0
100
AcDbLine
 10
480.7034621141119
 20
177.2092432457819
 30
0.0000000000000000
 11
482.7078537652554
 21
169.7287517654470
 31
0.0000000000000000
  0
ARC
  5
146
100
AcDbEntity
  8
MAIN0
  6
BYBLOCK
 62
0
100
AcDbCircle
 10
455.2177920640544
 20
272.3230587375318
 30
0.0000000000000000
 40
104.2134422538796
100
AcDbArc
 50
271.0995852027131
 51
283.9004147972870
  0
INSERT
  5
147
100
AcDbEntity
  8
MAIN0
  6
BYBLOCK
 62
0
100
AcDbBlockReference
  2
_OPEN
 10
455.2177920640544
 20
168.1096164836522
 30
0.0000000000000000
 41
2.000000000000000
 42
2.000000000000000
 43
2.000000000000000
 50
180.0000000000000
  0
INSERT
  5
148
100
AcDbEntity
  8
MAIN0
  6
BYBLOCK
 62
0
100
AcDbBlockReference
  2
_OPEN
 10
482.1902156750504
 20
171.6606034180251
 30
0.0000000000000000
 41
2.000000000000000
 42
2.000000000000000
 43
2.000000000000000
 50
15.00000000000011
  0
MTEXT
  5
149
100
AcDbEntity
  8
MAIN0
  6
BYBLOCK
 62
0
100
AcDbMText
 10
468.5527971717705
 20
171.0336388473872
 30
0.0000000000000000
 40
3.099999904632568
 41
0.0000000000000000
 71
     5
 72
     1
  1
\A1;15\U+00B0
 11
0.9914448613738103
 21
0.1305261922200523
 31
0.0000000000000000
  7
STANDARD
  0
ENDBLK
  5
14A
100
AcDbEntity
  8
MAIN0
  6
CONTINUOUS
 62
3
100
AcDbBlockEnd
  0
BLOCK
  5
165
100
AcDbEntity
  8
MAIN0
  6
CONTINUOUS
 62
3
100
AcDbBlockBegin
  2
*D11
 70
    65
 10
0.0
 20
0.0
 30
0.0
  0
LINE
  5
166
100
AcDbEntity
  8
MAIN0
  6
BYBLOCK
 62
0
100
AcDbLine
 10
133.3818191946583
 20
282.3230419892574
 30
0.0000000000000000
 11
138.3818191946583
 21
282.3230419892574
 31
0.0000000000000000
  0
INSERT
  5
167
100
AcDbEntity
  8
MAIN0
  6
BYBLOCK
 62
0
100
AcDbBlockReference
  2
_OPEN
 10
133.3818191946583
 20
282.3230419892574
 30
0.0000000000000000
 41
2.000000000000000
 42
2.000000000000000
 43
2.000000000000000
 50
0.0000000000000000
  0
INSERT
  5
168
100
AcDbEntity
  8
MAIN0
  6
BYBLOCK
 62
0
100
AcDbBlockReference
  2
_OPEN
 10
138.3818191946583
 20
282.3230419892574
 30
0.0000000000000000
 41
2.000000000000000
 42
2.000000000000000
 43
2.000000000000000
 50
180.0000000000000
  0
LINE
  5
169
100
AcDbEntity
  8
MAIN0
  6
BYBLOCK
 62
0
100
AcDbLine
 10
131.3818191946583
 20
282.3230419892574
 30
0.0000000000000000
 11
130.3818191946583
 21
282.3230419892574
 31
0.0000000000000000
  0
LINE
  5
16A
100
AcDbEntity
  8
MAIN0
  6
BYBLOCK
 62
0
100
AcDbLine
 10
140.3818191946583
 20
282.3230419892574
 30
0.0000000000000000
 11
141.3818191946583
 21
282.3230419892574
 31
0.0000000000000000
  0
MTEXT
  5
16B
100
AcDbEntity
  8
MAIN0
  6
BYBLOCK
 62
0
100
AcDbMText
 10
135.8818191946583
 20
284.3730419415737
 30
0.0000000000000000
 40
3.099999904632568
 41
0.0000000000000000
 71
     5
 72
     1
  1
\A1;5
 11
1.000000000000000
 21
0.0000000000000000
 31
0.0000000000000000
  7
STANDARD
  0
ENDBLK
  5
16C
100
AcDbEntity
  8
MAIN0
  6
CONTINUOUS
 62
3
100
AcDbBlockEnd
  0
BLOCK
  5
16F
100
AcDbEntity
  8
MAIN0
  6
CONTINUOUS
 62
3
100
AcDbBlockBegin
  2
*D12
 70
    65
 10
0.0
 20
0.0
 30
0.0
  0
LINE
  5
170
100
AcDbEntity
  8
MAIN0
  6
BYBLOCK
 62
0
100
AcDbLine
 10
256.8919309820686
 20
304.5727150084156
 30
0.0000000000000000
 11
269.5818191947794
 21
304.5727150084156
 31
0.0000000000000000
  0
LINE
  5
171
100
AcDbEntity
  8
MAIN0
  6
BYBLOCK
 62
0
100
AcDbLine
 10
267.5818191947794
 20
304.5727150084156
 30
0.0000000000000000
 11
267.5818191947794
 21
297.8227150084850
 31
0.0000000000000000
  0
INSERT
  5
172
100
AcDbEntity
  8
MAIN0
  6
BYBLOCK
 62
0
100
AcDbBlockReference
  2
_OPEN
 10
267.5818191947794
 20
304.5727150084156
 30
0.0000000000000000
 41
2.000000000000000
 42
2.000000000000000
 43
2.000000000000000
 50
270.0000000000000
  0
INSERT
  5
173
100
AcDbEntity
  8
MAIN0
  6
BYBLOCK
 62
0
100
AcDbBlockReference
  2
_OPEN
 10
267.5818191947794
 20
297.8227150084850
 30
0.0000000000000000
 41
2.000000000000000
 42
2.000000000000000
 43
2.000000000000000
 50
90.00000000000000
  0
LINE
  5
174
100
AcDbEntity
  8
MAIN0
  6
BYBLOCK
 62
0
100
AcDbLine
 10
267.5818191947794
 20
306.5727150084156
 30
0.0000000000000000
 11
267.5818191947794
 21
321.4072544218677
 31
0.0000000000000000
  0
LINE
  5
175
100
AcDbEntity
  8
MAIN0
  6
BYBLOCK
 62
0
100
AcDbLine
 10
267.5818191947794
 20
295.8227150084850
 30
0.0000000000000000
 11
267.5818191947794
 21
294.8227150084850
 31
0.0000000000000000
  0
LINE
  5
176
100
AcDbEntity
  8
MAIN0
  6
BYBLOCK
 62
0
100
AcDbLine
 10
227.2818192065789
 20
297.8227150084850
 30
0.0000000000000000
 11
269.5818191947794
 21
297.8227150084850
 31
0.0000000000000000
  0
MTEXT
  5
177
100
AcDbEntity
  8
MAIN0
  6
BYBLOCK
 62
0
100
AcDbMText
 10
265.5818191947794
 20
314.6572541703917
 30
0.0000000000000000
 40
3.000000000000000
 41
0.0000000000000000
 71
     5
 72
     1
  1
\A1;MAX 9.75
 11
6.123233995736766e-017
 21
1.000000000000000
 31
0.0000000000000000
  7
STANDARD
  0
ENDBLK
  5
178
100
AcDbEntity
  8
MAIN0
  6
CONTINUOUS
 62
3
100
AcDbBlockEnd
  0
BLOCK
  5
17A
100
AcDbEntity
  8
MAIN0
  6
CONTINUOUS
 62
3
100
AcDbBlockBegin
  2
*D13
 70
    65
 10
0.0
 20
0.0
 30
0.0
  0
LINE
  5
17B
100
AcDbEntity
  8
MAIN0
  6
BYBLOCK
 62
0
100
AcDbLine
 10
227.2818192065789
 20
297.8227150084850
 30
0.0000000000000000
 11
269.5818191947794
 21
297.8227150084850
 31
0.0000000000000000
  0
LINE
  5
17C
100
AcDbEntity
  8
MAIN0
  6
BYBLOCK
 62
0
100
AcDbLine
 10
267.5818191947794
 20
295.8227150084850
 30
0.0000000000000000
 11
267.5818191947794
 21
274.3230419892574
 31
0.0000000000000000
  0
INSERT
  5
17D
100
AcDbEntity
  8
MAIN0
  6
BYBLOCK
 62
0
100
AcDbBlockReference
  2
_OPEN
 10
267.5818191947794
 20
297.8227150084850
 30
0.0000000000000000
 41
2.000000000000000
 42
2.000000000000000
 43
2.000000000000000
 50
90.00000000000000
  0
INSERT
  5
17E
100
AcDbEntity
  8
MAIN0
  6
BYBLOCK
 62
0
100
AcDbBlockReference
  2
_OPEN
 10
267.5818191947794
 20
272.3230419892574
 30
0.0000000000000000
 41
2.000000000000000
 42
2.000000000000000
 43
2.000000000000000
 50
270.0000000000000
  0
LINE
  5
17F
100
AcDbEntity
  8
MAIN0
  6
BYBLOCK
 62
0
100
AcDbLine
 10
238.5991030555740
 20
272.3230419892574
 30
0.0000000000000000
 11
269.5818191947794
 21
272.3230419892574
 31
0.0000000000000000
  0
MTEXT
  5
180
100
AcDbEntity
  8
MAIN0
  6
BYBLOCK
 62
0
100
AcDbMText
 10
265.5318192424631
 20
286.6493156225658
 30
0.0000000000000000
 40
3.099999904632568
 41
0.0000000000000000
 71
     5
 72
     1
  1
\A1;MAX 25.5
 11
6.123233995736766e-017
 21
1.000000000000000
 31
0.0000000000000000
  7
STANDARD
  0
ENDBLK
  5
181
100
AcDbEntity
  8
MAIN0
  6
CONTINUOUS
 62
3
100
AcDbBlockEnd
  0
BLOCK
  5
183
100
AcDbEntity
  8
MAIN0
  6
CONTINUOUS
 62
3
100
AcDbBlockBegin
  2
*D14
 70
    65
 10
0.0
 20
0.0
 30
0.0
  0
LINE
  5
184
100
AcDbEntity
  8
MAIN0
  6
BYBLOCK
 62
0
100
AcDbLine
 10
257.4320959909738
 20
318.5727150084155
 30
0.0000000000000000
 11
279.5818191947794
 21
318.5727150084155
 31
0.0000000000000000
  0
LINE
  5
185
100
AcDbEntity
  8
MAIN0
  6
BYBLOCK
 62
0
100
AcDbLine
 10
277.5818191947794
 20
316.5727150084155
 30
0.0000000000000000
 11
277.5818191947794
 21
306.5727150084156
 31
0.0000000000000000
  0
INSERT
  5
186
100
AcDbEntity
  8
MAIN0
  6
BYBLOCK
 62
0
100
AcDbBlockReference
  2
_OPEN
 10
277.5818191947794
 20
318.5727150084155
 30
0.0000000000000000
 41
2.000000000000000
 42
2.000000000000000
 43
2.000000000000000
 50
90.00000000000000
  0
INSERT
  5
187
100
AcDbEntity
  8
MAIN0
  6
BYBLOCK
 62
0
100
AcDbBlockReference
  2
_OPEN
 10
277.5818191947794
 20
304.5727150084156
 30
0.0000000000000000
 41
2.000000000000000
 42
2.000000000000000
 43
2.000000000000000
 50
270.0000000000000
  0
LINE
  5
188
100
AcDbEntity
  8
MAIN0
  6
BYBLOCK
 62
0
100
AcDbLine
 10
256.8919309820686
 20
304.5727150084156
 30
0.0000000000000000
 11
279.5818191947794
 21
304.5727150084156
 31
0.0000000000000000
  0
MTEXT
  5
189
100
AcDbEntity
  8
MAIN0
  6
BYBLOCK
 62
0
100
AcDbMText
 10
275.5318192424631
 20
311.5727150084155
 30
0.0000000000000000
 40
3.099999904632568
 41
0.0000000000000000
 71
     5
 72
     1
  1
\A1;14
 11
6.123233995736766e-017
 21
1.000000000000000
 31
0.0000000000000000
  7
STANDARD
  0
ENDBLK
  5
18A
100
AcDbEntity
  8
MAIN0
  6
CONTINUOUS
 62
3
100
AcDbBlockEnd
  0
BLOCK
  5
18C
100
AcDbEntity
  8
MAIN0
  6
CONTINUOUS
 62
3
100
AcDbBlockBegin
  2
*D15
 70
    65
 10
0.0
 20
0.0
 30
0.0
  0
LINE
  5
18D
100
AcDbEntity
  8
MAIN0
  6
BYBLOCK
 62
0
100
AcDbLine
 10
256.8919309820686
 20
304.5727150084156
 30
0.0000000000000000
 11
279.5818191947794
 21
304.5727150084156
 31
0.0000000000000000
  0
LINE
  5
18E
100
AcDbEntity
  8
MAIN0
  6
BYBLOCK
 62
0
100
AcDbLine
 10
277.5818191947794
 20
302.5727150084156
 30
0.0000000000000000
 11
277.5818191947794
 21
278.5727150085500
 31
0.0000000000000000
  0
INSERT
  5
18F
100
AcDbEntity
  8
MAIN0
  6
BYBLOCK
 62
0
100
AcDbBlockReference
  2
_OPEN
 10
277.5818191947794
 20
304.5727150084156
 30
0.0000000000000000
 41
2.000000000000000
 42
2.000000000000000
 43
2.000000000000000
 50
90.00000000000000
  0
INSERT
  5
190
100
AcDbEntity
  8
MAIN0
  6
BYBLOCK
 62
0
100
AcDbBlockReference
  2
_OPEN
 10
277.5818191947794
 20
276.5727150085500
 30
0.0000000000000000
 41
2.000000000000000
 42
2.000000000000000
 43
2.000000000000000
 50
270.0000000000000
  0
LINE
  5
191
100
AcDbEntity
  8
MAIN0
  6
BYBLOCK
 62
0
100
AcDbLine
 10
254.3818192067003
 20
276.5727150085500
 30
0.0000000000000000
 11
279.5818191947794
 21
276.5727150085500
 31
0.0000000000000000
  0
MTEXT
  5
192
100
AcDbEntity
  8
MAIN0
  6
BYBLOCK
 62
0
100
AcDbMText
 10
275.5318192424631
 20
290.5727150084828
 30
0.0000000000000000
 40
3.099999904632568
 41
0.0000000000000000
 71
     5
 72
     1
  1
\A1;28
 11
6.123233995736766e-017
 21
1.000000000000000
 31
0.0000000000000000
  7
STANDARD
  0
ENDBLK
  5
193
100
AcDbEntity
  8
MAIN0
  6
CONTINUOUS
 62
3
100
AcDbBlockEnd
  0
BLOCK
  5
195
100
AcDbEntity
  8
MAIN0
  6
CONTINUOUS
 62
3
100
AcDbBlockBegin
  2
*D16
 70
    65
 10
0.0
 20
0.0
 30
0.0
  0
LINE
  5
196
100
AcDbEntity
  8
MAIN0
  6
BYBLOCK
 62
0
100
AcDbLine
 10
254.3818192067002
 20
331.5727150085500
 30
0.0000000000000000
 11
289.5818191947794
 21
331.5727150085500
 31
0.0000000000000000
  0
LINE
  5
197
100
AcDbEntity
  8
MAIN0
  6
BYBLOCK
 62
0
100
AcDbLine
 10
287.5818191947794
 20
329.5727150085500
 30
0.0000000000000000
 11
287.5818191947794
 21
278.5727150085500
 31
0.0000000000000000
  0
INSERT
  5
198
100
AcDbEntity
  8
MAIN0
  6
BYBLOCK
 62
0
100
AcDbBlockReference
  2
_OPEN
 10
287.5818191947794
 20
331.5727150085500
 30
0.0000000000000000
 41
2.000000000000000
 42
2.000000000000000
 43
2.000000000000000
 50
90.00000000000000
  0
INSERT
  5
199
100
AcDbEntity
  8
MAIN0
  6
BYBLOCK
 62
0
100
AcDbBlockReference
  2
_OPEN
 10
287.5818191947794
 20
276.5727150085500
 30
0.0000000000000000
 41
2.000000000000000
 42
2.000000000000000
 43
2.000000000000000
 50
270.0000000000000
  0
LINE
  5
19A
100
AcDbEntity
  8
MAIN0
  6
BYBLOCK
 62
0
100
AcDbLine
 10
254.3818192067003
 20
276.5727150085500
 30
0.0000000000000000
 11
289.5818191947794
 21
276.5727150085500
 31
0.0000000000000000
  0
MTEXT
  5
19B
100
AcDbEntity
  8
MAIN0
  6
BYBLOCK
 62
0
100
AcDbMText
 10
285.5318192424631
 20
304.0727150085500
 30
0.0000000000000000
 40
3.099999904632568
 41
0.0000000000000000
 71
     5
 72
     1
  1
\A1;55
 11
6.123233995736766e-017
 21
1.000000000000000
 31
0.0000000000000000
  7
STANDARD
  0
ENDBLK
  5
19C
100
AcDbEntity
  8
MAIN0
  6
CONTINUOUS
 62
3
100
AcDbBlockEnd
  0
BLOCK
  5
19E
100
AcDbEntity
  8
MAIN0
  6
CONTINUOUS
 62
3
100
AcDbBlockBegin
  2
*D17
 70
    65
 10
0.0
 20
0.0
 30
0.0
  0
LINE
  5
19F
100
AcDbEntity
  8
MAIN0
  6
BYBLOCK
 62
0
100
AcDbLine
 10
226.3818191946583
 20
328.0230420011785
 30
0.0000000000000000
 11
226.3818191946583
 21
347.5727150085500
 31
0.0000000000000000
  0
LINE
  5
1A0
100
AcDbEntity
  8
MAIN0
  6
BYBLOCK
 62
0
100
AcDbLine
 10
228.3818191946583
 20
345.5727150085500
 30
0.0000000000000000
 11
251.5818191947794
 21
345.5727150085500
 31
0.0000000000000000
  0
INSERT
  5
1A1
100
AcDbEntity
  8
MAIN0
  6
BYBLOCK
 62
0
100
AcDbBlockReference
  2
_OPEN
 10
226.3818191946583
 20
345.5727150085500
 30
0.0000000000000000
 41
2.000000000000000
 42
2.000000000000000
 43
2.000000000000000
 50
180.0000000000000
  0
INSERT
  5
1A2
100
AcDbEntity
  8
MAIN0
  6
BYBLOCK
 62
0
100
AcDbBlockReference
  2
_OPEN
 10
253.5818191947794
 20
345.5727150085500
 30
0.0000000000000000
 41
2.000000000000000
 42
2.000000000000000
 43
2.000000000000000
 50
0.0000000000000000
  0
LINE
  5
1A3
100
AcDbEntity
  8
MAIN0
  6
BYBLOCK
 62
0
100
AcDbLine
 10
253.5818191947794
 20
332.3727150204708
 30
0.0000000000000000
 11
253.5818191947794
 21
347.5727150085500
 31
0.0000000000000000
  0
MTEXT
  5
1A4
100
AcDbEntity
  8
MAIN0
  6
BYBLOCK
 62
0
100
AcDbMText
 10
239.8341723236598
 20
347.6227149608662
 30
0.0000000000000000
 40
3.099999904632568
 41
0.0000000000000000
 71
     5
 72
     1
  1
\A1;27
 11
1.000000000000000
 21
0.0000000000000000
 31
0.0000000000000000
  7
STANDARD
  0
ENDBLK
  5
1A5
100
AcDbEntity
  8
MAIN0
  6
CONTINUOUS
 62
3
100
AcDbBlockEnd
  0
BLOCK
  5
1FE
100
AcDbEntity
  8
MAIN0
  6
CONTINUOUS
 62
3
100
AcDbBlockBegin
  2
*D18
 70
    65
 10
0.0
 20
0.0
 30
0.0
  0
LINE
  5
1FF
100
AcDbEntity
  8
MAIN0
  6
BYBLOCK
 62
0
100
AcDbLine
 10
180.8818191827377
 20
357.3230419892570
 30
0.0000000000000000
 11
70.55242780129447
 21
357.3230419892570
 31
0.0000000000000000
  0
LINE
  5
200
100
AcDbEntity
  8
MAIN0
  6
BYBLOCK
 62
0
100
AcDbLine
 10
72.55242780129447
 20
355.3230419892570
 30
0.0000000000000000
 11
72.55242780129447
 21
189.3230419892576
 31
0.0000000000000000
  0
INSERT
  5
201
100
AcDbEntity
  8
MAIN0
  6
BYBLOCK
 62
0
100
AcDbBlockReference
  2
_OPEN
 10
72.55242780129447
 20
357.3230419892570
 30
0.0000000000000000
 41
2.000000000000000
 42
2.000000000000000
 43
2.000000000000000
 50
90.00000000000000
  0
INSERT
  5
202
100
AcDbEntity
  8
MAIN0
  6
BYBLOCK
 62
0
100
AcDbBlockReference
  2
_OPEN
 10
72.55242780129447
 20
187.3230419892576
 30
0.0000000000000000
 41
2.000000000000000
 42
2.000000000000000
 43
2.000000000000000
 50
270.0000000000000
  0
LINE
  5
203
100
AcDbEntity
  8
MAIN0
  6
BYBLOCK
 62
0
100
AcDbLine
 10
180.8818191827278
 20
187.3230419892576
 30
0.0000000000000000
 11
70.55242780129447
 21
187.3230419892576
 31
0.0000000000000000
  0
MTEXT
  5
204
100
AcDbEntity
  8
MAIN0
  6
BYBLOCK
 62
0
100
AcDbMText
 10
70.50242784897819
 20
272.3230587375327
 30
0.0000000000000000
 40
3.099999904632568
 41
0.0000000000000000
 71
     5
 72
     1
  1
\A1;\U+2205170
 11
6.123233995736766e-017
 21
1.000000000000000
 31
0.0000000000000000
  7
STANDARD
  0
ENDBLK
  5
205
100
AcDbEntity
  8
MAIN0
  6
CONTINUOUS
 62
3
100
AcDbBlockEnd
  0
BLOCK
  5
207
100
AcDbEntity
  8
MAIN0
  6
CONTINUOUS
 62
3
100
AcDbBlockBegin
  2
*D19
 70
    65
 10
0.0
 20
0.0
 30
0.0
  0
LINE
  5
208
100
AcDbEntity
  8
MAIN0
  6
BYBLOCK
 62
0
100
AcDbLine
 10
133.6818191827360
 20
350.8230419892571
 30
0.0000000000000000
 11
80.14326835236295
 21
350.8230419892571
 31
0.0000000000000000
  0
LINE
  5
209
100
AcDbEntity
  8
MAIN0
  6
BYBLOCK
 62
0
100
AcDbLine
 10
82.14326835236295
 20
348.8230419892571
 30
0.0000000000000000
 11
82.14326835236295
 21
195.8230419892577
 31
0.0000000000000000
  0
INSERT
  5
20A
100
AcDbEntity
  8
MAIN0
  6
BYBLOCK
 62
0
100
AcDbBlockReference
  2
_OPEN
 10
82.14326835236295
 20
350.8230419892571
 30
0.0000000000000000
 41
2.000000000000000
 42
2.000000000000000
 43
2.000000000000000
 50
90.00000000000000
  0
INSERT
  5
20B
100
AcDbEntity
  8
MAIN0
  6
BYBLOCK
 62
0
100
AcDbBlockReference
  2
_OPEN
 10
82.14326835236295
 20
193.8230419892577
 30
0.0000000000000000
 41
2.000000000000000
 42
2.000000000000000
 43
2.000000000000000
 50
270.0000000000000
  0
LINE
  5
20C
100
AcDbEntity
  8
MAIN0
  6
BYBLOCK
 62
0
100
AcDbLine
 10
133.6818191827360
 20
193.8230419892577
 30
0.0000000000000000
 11
80.14326835236295
 21
193.8230419892577
 31
0.0000000000000000
  0
MTEXT
  5
20D
100
AcDbEntity
  8
MAIN0
  6
BYBLOCK
 62
0
100
AcDbMText
 10
80.09326840004667
 20
272.3230419892574
 30
0.0000000000000000
 40
3.099999904632568
 41
0.0000000000000000
 71
     5
 72
     1
  1
\A1;\U+2205157
 11
6.123233995736766e-017
 21
1.000000000000000
 31
0.0000000000000000
  7
STANDARD
  0
ENDBLK
  5
20E
100
AcDbEntity
  8
MAIN0
  6
CONTINUOUS
 62
3
100
AcDbBlockEnd
  0
BLOCK
  5
210
100
AcDbEntity
  8
MAIN0
  6
CONTINUOUS
 62
3
100
AcDbBlockBegin
  2
*D20
 70
    65
 10
0.0
 20
0.0
 30
0.0
  0
LINE
  5
211
100
AcDbEntity
  8
MAIN0
  6
BYBLOCK
 62
0
100
AcDbLine
 10
133.3818191946583
 20
335.6230420011790
 30
0.0000000000000000
 11
133.3818191946583
 21
384.3230587375327
 31
0.0000000000000000
  0
LINE
  5
212
100
AcDbEntity
  8
MAIN0
  6
BYBLOCK
 62
0
100
AcDbLine
 10
135.3818191946583
 20
382.3230587375327
 30
0.0000000000000000
 11
224.3818191946583
 21
382.3230587375327
 31
0.0000000000000000
  0
INSERT
  5
213
100
AcDbEntity
  8
MAIN0
  6
BYBLOCK
 62
0
100
AcDbBlockReference
  2
_OPEN
 10
133.3818191946583
 20
382.3230587375327
 30
0.0000000000000000
 41
2.000000000000000
 42
2.000000000000000
 43
2.000000000000000
 50
180.0000000000000
  0
INSERT
  5
214
100
AcDbEntity
  8
MAIN0
  6
BYBLOCK
 62
0
100
AcDbBlockReference
  2
_OPEN
 10
226.3818191946583
 20
382.3230587375327
 30
0.0000000000000000
 41
2.000000000000000
 42
2.000000000000000
 43
2.000000000000000
 50
0.0000000000000000
  0
LINE
  5
215
100
AcDbEntity
  8
MAIN0
  6
BYBLOCK
 62
0
100
AcDbLine
 10
226.3818191946583
 20
328.0230420011785
 30
0.0000000000000000
 11
226.3818191946583
 21
384.3230587375327
 31
0.0000000000000000
  0
MTEXT
  5
216
100
AcDbEntity
  8
MAIN0
  6
BYBLOCK
 62
0
100
AcDbMText
 10
179.8818191946583
 20
384.3730586898490
 30
0.0000000000000000
 40
3.099999904632568
 41
0.0000000000000000
 71
     5
 72
     1
  1
\A1;93
 11
1.000000000000000
 21
0.0000000000000000
 31
0.0000000000000000
  7
STANDARD
  0
ENDBLK
  5
217
100
AcDbEntity
  8
MAIN0
  6
CONTINUOUS
 62
3
100
AcDbBlockEnd
  0
BLOCK
  5
21F
100
AcDbEntity
  8
MAIN0
  6
CONTINUOUS
 62
3
100
AcDbBlockBegin
  2
*D21
 70
    65
 10
0.0
 20
0.0
 30
0.0
  0
LINE
  5
220
100
AcDbEntity
  8
MAIN0
  6
BYBLOCK
 62
0
100
AcDbLine
 10
133.3818191946583
 20
335.6230420011790
 30
0.0000000000000000
 11
133.3818191946583
 21
374.3230587375327
 31
0.0000000000000000
  0
LINE
  5
221
100
AcDbEntity
  8
MAIN0
  6
BYBLOCK
 62
0
100
AcDbLine
 10
135.3818191946583
 20
372.3230587375327
 30
0.0000000000000000
 11
164.3818191946590
 21
372.3230587375327
 31
0.0000000000000000
  0
INSERT
  5
222
100
AcDbEntity
  8
MAIN0
  6
BYBLOCK
 62
0
100
AcDbBlockReference
  2
_OPEN
 10
133.3818191946583
 20
372.3230587375327
 30
0.0000000000000000
 41
2.000000000000000
 42
2.000000000000000
 43
2.000000000000000
 50
180.0000000000000
  0
INSERT
  5
223
100
AcDbEntity
  8
MAIN0
  6
BYBLOCK
 62
0
100
AcDbBlockReference
  2
_OPEN
 10
166.3818191946590
 20
372.3230587375327
 30
0.0000000000000000
 41
2.000000000000000
 42
2.000000000000000
 43
2.000000000000000
 50
0.0000000000000000
  0
LINE
  5
224
100
AcDbEntity
  8
MAIN0
  6
BYBLOCK
 62
0
100
AcDbLine
 10
166.3818191946590
 20
358.6304979063307
 30
0.0000000000000000
 11
166.3818191946590
 21
374.3230587375327
 31
0.0000000000000000
  0
MTEXT
  5
225
100
AcDbEntity
  8
MAIN0
  6
BYBLOCK
 62
0
100
AcDbMText
 10
149.8818191946587
 20
374.3730586898490
 30
0.0000000000000000
 40
3.099999904632568
 41
0.0000000000000000
 71
     5
 72
     1
  1
\A1;33
 11
1.000000000000000
 21
0.0000000000000000
 31
0.0000000000000000
  7
STANDARD
  0
ENDBLK
  5
226
100
AcDbEntity
  8
MAIN0
  6
CONTINUOUS
 62
3
100
AcDbBlockEnd
  0
BLOCK
  5
228
100
AcDbEntity
  8
MAIN0
  6
CONTINUOUS
 62
3
100
AcDbBlockBegin
  2
*D22
 70
    65
 10
0.0
 20
0.0
 30
0.0
  0
LINE
  5
229
100
AcDbEntity
  8
MAIN0
  6
BYBLOCK
 62
0
100
AcDbLine
 10
133.3818191946583
 20
209.0230419773359
 30
0.0000000000000000
 11
133.3818191946583
 21
170.3230587375327
 31
0.0000000000000000
  0
LINE
  5
22A
100
AcDbEntity
  8
MAIN0
  6
BYBLOCK
 62
0
100
AcDbLine
 10
135.3818191946583
 20
172.3230587375327
 30
0.0000000000000000
 11
164.3818191946594
 21
172.3230587375327
 31
0.0000000000000000
  0
INSERT
  5
22B
100
AcDbEntity
  8
MAIN0
  6
BYBLOCK
 62
0
100
AcDbBlockReference
  2
_OPEN
 10
133.3818191946583
 20
172.3230587375327
 30
0.0000000000000000
 41
2.000000000000000
 42
2.000000000000000
 43
2.000000000000000
 50
180.0000000000000
  0
INSERT
  5
22C
100
AcDbEntity
  8
MAIN0
  6
BYBLOCK
 62
0
100
AcDbBlockReference
  2
_OPEN
 10
166.3818191946594
 20
172.3230587375327
 30
0.0000000000000000
 41
2.000000000000000
 42
2.000000000000000
 43
2.000000000000000
 50
0.0000000000000000
  0
LINE
  5
22D
100
AcDbEntity
  8
MAIN0
  6
BYBLOCK
 62
0
100
AcDbLine
 10
166.3818191946594
 20
182.9016221094874
 30
0.0000000000000000
 11
166.3818191946594
 21
170.3230587375327
 31
0.0000000000000000
  0
MTEXT
  5
22E
100
AcDbEntity
  8
MAIN0
  6
BYBLOCK
 62
0
100
AcDbMText
 10
149.8818191946589
 20
174.3730586898490
 30
0.0000000000000000
 40
3.099999904632568
 41
0.0000000000000000
 71
     5
 72
     1
  1
\A1;33
 11
1.000000000000000
 21
0.0000000000000000
 31
0.0000000000000000
  7
STANDARD
  0
ENDBLK
  5
22F
100
AcDbEntity
  8
MAIN0
  6
CONTINUOUS
 62
3
100
AcDbBlockEnd
  0
BLOCK
  5
233
100
AcDbEntity
  8
MAIN0
  6
CONTINUOUS
 62
3
100
AcDbBlockBegin
  2
D23
 70
    64
 10
0.0
 20
0.0
 30
0.0
  0
LINE
  5
234
100
AcDbEntity
  8
MAIN0
  6
BYBLOCK
 62
0
100
AcDbLine
 10
17.45682599369232
 20
-35.54998302430448
 30
0.0000000000000000
 11
17.45682599369232
 21
-69.49999999999977
 31
0.0000000000000000
  0
LINE
  5
235
100
AcDbEntity
  8
MAIN0
  6
BYBLOCK
 62
0
100
AcDbLine
 10
18.05682601753418
 20
-67.49999999999977
 30
0.0000000000000000
 11
17.45682599369232
 21
-69.49999999999977
 31
0.0000000000000000
  0
LINE
  5
236
100
AcDbEntity
  8
MAIN0
  6
BYBLOCK
 62
0
100
AcDbLine
 10
17.45682599369232
 20
-69.49999999999977
 30
0.0000000000000000
 11
16.85682596985046
 21
-67.49999999999977
 31
0.0000000000000000
  0
LINE
  5
237
100
AcDbEntity
  8
MAIN0
  6
BYBLOCK
 62
0
100
AcDbLine
 10
-32.81728383707363
 20
-69.49999999999977
 30
0.0000000000000000
 11
19.45682599369232
 21
-69.49999999999977
 31
0.0000000000000000
  0
MTEXT
  5
238
100
AcDbEntity
  8
MAIN0
  6
BYBLOCK
 62
0
100
AcDbMText
 10
15.40682604137604
 20
-39.99998325172464
 30
0.0000000000000000
 40
3.099999904632568
 41
0.0000000000000000
 71
     5
 72
     1
  1
\A1;\U+2205139
 11
6.123233995736766e-017
 21
1.000000000000000
 31
0.0000000000000000
  7
STANDARD
  0
ENDBLK
  5
239
100
AcDbEntity
  8
MAIN0
  6
CONTINUOUS
 62
3
100
AcDbBlockEnd
  0
BLOCK
  5
2F9
100
AcDbEntity
  8
MAIN0
  6
BYBLOCK
 62
1
100
AcDbBlockBegin
  2
M1
 70
    64
 10
0.0
 20
0.0
 30
0.0
  0
MTEXT
  5
2FA
100
AcDbEntity
  8
MAIN0
  6
BYBLOCK
 62
0
100
AcDbMText
 10
282.3287468642016
 20
65.48080969821422
 30
0.0000000000000000
 40
3.000000000000000
 41
0.0000000000000000
 71
     1
 72
     1
  1
{\H0.63x;NOTICE\P要注意}
 11
1.000000000000000
 21
-1.130435886617454e-013
 31
0.0000000000000000
  7
KNJYOKO
  0
LINE
  5
2FB
100
AcDbEntity
  8
MAIN0
  6
BYBLOCK
 62
0
100
AcDbLine
 10
281.3337817412369
 20
65.75595657123276
 30
0.0000000000000000
 11
293.3337817412369
 21
65.75595657123276
 31
0.0000000000000000
  0
LINE
  5
2FC
100
AcDbEntity
  8
MAIN0
  6
BYBLOCK
 62
0
100
AcDbLine
 10
281.3337817412369
 20
65.75595657123276
 30
0.0000000000000000
 11
281.3337817412369
 21
58.75595657123276
 31
0.0000000000000000
  0
LINE
  5
2FD
100
AcDbEntity
  8
MAIN0
  6
BYBLOCK
 62
0
100
AcDbLine
 10
281.3337817412369
 20
58.75595657123276
 30
0.0000000000000000
 11
293.3337817412369
 21
58.75595657123276
 31
0.0000000000000000
  0
LINE
  5
2FE
100
AcDbEntity
  8
MAIN0
  6
BYBLOCK
 62
0
100
AcDbLine
 10
293.3337817412368
 20
69.25595657123324
 30
0.0000000000000000
 11
300.3337817412367
 21
62.25595657123307
 31
0.0000000000000000
  0
LINE
  5
2FF
100
AcDbEntity
  8
MAIN0
  6
BYBLOCK
 62
0
100
AcDbLine
 10
293.3337817412368
 20
55.25595657123310
 30
0.0000000000000000
 11
300.3337817412369
 21
62.25595657123273
 31
0.0000000000000000
  0
LINE
  5
300
100
AcDbEntity
  8
MAIN0
  6
BYBLOCK
 62
0
100
AcDbLine
 10
293.3337817412369
 20
58.75595657123276
 30
0.0000000000000000
 11
293.3337817412369
 21
55.25595657123321
 31
0.0000000000000000
  0
LINE
  5
301
100
AcDbEntity
  8
MAIN0
  6
BYBLOCK
 62
0
100
AcDbLine
 10
293.3337817412369
 20
69.25595657123293
 30
0.0000000000000000
 11
293.3337817412369
 21
65.75595657123276
 31
0.0000000000000000
  0
ENDBLK
  5
302
100
AcDbEntity
  8
MAIN0
  6
BYBLOCK
 62
1
100
AcDbBlockEnd
  0
BLOCK
  5
312
100
AcDbEntity
  8
MAIN0
  6
CONTINUOUS
 62
3
100
AcDbBlockBegin
  2
D24
 70
    64
 10
0.0
 20
0.0
 30
0.0
  0
LINE
  5
313
100
AcDbEntity
  8
MAIN0
  6
BYBLOCK
 62
0
100
AcDbLine
 10
-37.92236902840728
 20
4.450000290866484
 30
0.0000000000000000
 11
-37.92236902840728
 21
-62.49999999999346
 31
0.0000000000000000
  0
LINE
  5
314
100
AcDbEntity
  8
MAIN0
  6
BYBLOCK
 62
0
100
AcDbLine
 10
-37.32236900456542
 20
-60.49999999999346
 30
0.0000000000000000
 11
-37.92236902840728
 21
-62.49999999999346
 31
0.0000000000000000
  0
LINE
  5
315
100
AcDbEntity
  8
MAIN0
  6
BYBLOCK
 62
0
100
AcDbLine
 10
-37.92236902840728
 20
-62.49999999999346
 30
0.0000000000000000
 11
-38.52236905224913
 21
-60.49999999999346
 31
0.0000000000000000
  0
LINE
  5
316
100
AcDbEntity
  8
MAIN0
  6
BYBLOCK
 62
0
100
AcDbLine
 10
0.1499765447409800
 20
-62.49999999999346
 30
0.0000000000000000
 11
-39.92236902840728
 21
-62.49999999999346
 31
0.0000000000000000
  0
MTEXT
  5
317
100
AcDbEntity
  8
MAIN0
  6
BYBLOCK
 62
0
100
AcDbMText
 10
-39.97236898072356
 20
-2.842170943040401e-014
 30
0.0000000000000000
 40
3.099999904632568
 41
0.0000000000000000
 71
     5
 72
     1
  1
\A1;\U+2205125
 11
6.123233995736766e-017
 21
1.000000000000000
 31
0.0000000000000000
  7
STANDARD
  0
ENDBLK
  5
318
100
AcDbEntity
  8
MAIN0
  6
CONTINUOUS
 62
3
100
AcDbBlockEnd
  0
BLOCK
  5
40F
100
AcDbEntity
  8
MAIN0
  6
BYBLOCK
 62
3
100
AcDbBlockBegin
  2
*X0
 70
     1
 10
0.0
 20
0.0
 30
0.0
  0
LINE
  5
410
100
AcDbEntity
  8
MAIN0
  6
BYBLOCK
 62
0
100
AcDbLine
 10
140.8818191946572
 20
206.5230419892777
 30
0.0000000000000000
 11
142.3818191946571
 21
208.0230419892776
 31
0.0000000000000000
  0
LINE
  5
411
100
AcDbEntity
  8
MAIN0
  6
BYBLOCK
 62
0
100
AcDbLine
 10
140.1747124134702
 20
206.5230419892772
 30
0.0000000000000000
 11
142.3818191946568
 21
208.7301487704643
 31
0.0000000000000000
  0
LINE
  5
412
100
AcDbEntity
  8
MAIN0
  6
BYBLOCK
 62
0
100
AcDbLine
 10
139.4676056322825
 20
206.5230419892767
 30
0.0000000000000000
 11
142.3818191946563
 21
209.4372555516501
 31
0.0000000000000000
  0
LINE
  5
413
100
AcDbEntity
  8
MAIN0
  6
BYBLOCK
 62
0
100
AcDbLine
 10
139.3818191946560
 20
207.1443623328368
 30
0.0000000000000000
 11
142.3818191946569
 21
210.1443623328368
 31
0.0000000000000000
  0
LINE
  5
414
100
AcDbEntity
  8
MAIN0
  6
BYBLOCK
 62
0
100
AcDbLine
 10
139.3818191946566
 20
207.8514691140243
 30
0.0000000000000000
 11
142.3818191946567
 21
210.8514691140239
 31
0.0000000000000000
  0
LINE
  5
415
100
AcDbEntity
  8
MAIN0
  6
BYBLOCK
 62
0
100
AcDbLine
 10
139.3818191946567
 20
208.5585758952100
 30
0.0000000000000000
 11
142.3818191946563
 21
211.5585758952100
 31
0.0000000000000000
  0
LINE
  5
416
100
AcDbEntity
  8
MAIN0
  6
BYBLOCK
 62
0
100
AcDbLine
 10
139.3818191946563
 20
209.2656826763972
 30
0.0000000000000000
 11
142.3818191946585
 21
212.2656826763990
 31
0.0000000000000000
  0
LINE
  5
417
100
AcDbEntity
  8
MAIN0
  6
BYBLOCK
 62
0
100
AcDbLine
 10
139.3818191946571
 20
209.9727894575838
 30
0.0000000000000000
 11
142.3818191946562
 21
212.9727894575834
 31
0.0000000000000000
  0
LINE
  5
418
100
AcDbEntity
  8
MAIN0
  6
BYBLOCK
 62
0
100
AcDbLine
 10
139.3818191946562
 20
210.6798962387705
 30
0.0000000000000000
 11
141.8249649451642
 21
213.1230419892785
 31
0.0000000000000000
  0
LINE
  5
419
100
AcDbEntity
  8
MAIN0
  6
BYBLOCK
 62
0
100
AcDbLine
 10
139.3818191946558
 20
211.3870030199562
 30
0.0000000000000000
 11
141.1178581639762
 21
213.1230419892767
 31
0.0000000000000000
  0
LINE
  5
41A
100
AcDbEntity
  8
MAIN0
  6
BYBLOCK
 62
0
100
AcDbLine
 10
139.3818191946563
 20
212.0941098011431
 30
0.0000000000000000
 11
140.4107513827900
 21
213.1230419892772
 31
0.0000000000000000
  0
LINE
  5
41B
100
AcDbEntity
  8
MAIN0
  6
BYBLOCK
 62
0
100
AcDbLine
 10
139.3818191946572
 20
212.8012165823310
 30
0.0000000000000000
 11
139.7036446016016
 21
213.1230419892749
 31
0.0000000000000000
  0
LINE
  5
41C
100
AcDbEntity
  8
MAIN0
  6
BYBLOCK
 62
0
100
AcDbLine
 10
141.5889259758479
 20
206.5230419892818
 30
0.0000000000000000
 11
142.3818191946567
 21
207.3159352080905
 31
0.0000000000000000
  0
LINE
  5
41D
100
AcDbEntity
  8
MAIN0
  6
BYBLOCK
 62
0
100
AcDbLine
 10
142.2960327570351
 20
206.5230419892822
 30
0.0000000000000000
 11
142.3818191946568
 21
206.6088284269038
 31
0.0000000000000000
  0
ENDBLK
  5
41E
100
AcDbEntity
  8
MAIN0
  6
BYBLOCK
 62
3
100
AcDbBlockEnd
  0
BLOCK
  5
505
100
AcDbEntity
  8
A0
  6
BYBLOCK
 62
3
100
AcDbBlockBegin
  2
M2
 70
    64
 10
0.0
 20
0.0
 30
0.0
  0
LINE
  5
506
100
AcDbEntity
  8
A0
  6
BYBLOCK
 62
0
100
AcDbLine
 10
54.92217912752825
 20
-6.792083779656977
 30
0.0000000000000000
 11
172.6806391250309
 21
-6.792083779656977
 31
0.0000000000000000
  0
LINE
  5
507
100
AcDbEntity
  8
A0
  6
BYBLOCK
 62
0
100
AcDbLine
 10
54.92217912752825
 20
-17.29208377965698
 30
0.0000000000000000
 11
172.6806391250347
 21
-17.29208377965698
 31
0.0000000000000000
  0
LINE
  5
508
100
AcDbEntity
  8
A0
  6
BYBLOCK
 62
0
100
AcDbLine
 10
54.92217912752825
 20
-111.7921098952267
 30
0.0000000000000000
 11
54.92217912752825
 21
-6.792083779656863
 31
0.0000000000000000
  0
LINE
  5
509
100
AcDbEntity
  8
A0
  6
BYBLOCK
 62
0
100
AcDbLine
 10
54.92217912752825
 20
-27.79208377965698
 30
0.0000000000000000
 11
172.6806391250387
 21
-27.79208377965698
 31
0.0000000000000000
  0
LINE
  5
50A
100
AcDbEntity
  8
A0
  6
BYBLOCK
 62
0
100
AcDbLine
 10
54.92217912752825
 20
-38.29208377965664
 30
0.0000000000000000
 11
172.6806391250426
 21
-38.29208377965664
 31
0.0000000000000000
  0
MTEXT
  5
50B
100
AcDbEntity
  8
A0
  6
BYBLOCK
 62
0
100
AcDbMText
 10
147.9221791275280
 20
-22.09208492406638
 30
0.0000000000000000
 40
4.199998855590820
 41
0.0000000000000000
 71
     1
 72
     1
  1
{\H0.58x;　　　　ｍｍ}
 11
1.000000000000000
 21
0.0000000000000000
 31
0.0000000000000000
  7
KNJYOKO
  0
MTEXT
  5
50C
100
AcDbEntity
  8
A0
  6
BYBLOCK
 62
0
100
AcDbMText
 10
147.9221791275280
 20
-32.59208492406616
 30
0.0000000000000000
 40
4.199998855590820
 41
0.0000000000000000
 71
     1
 72
     1
  1
{\H0.58x;　　　　ｍｍ}
 11
1.000000000000000
 21
0.0000000000000000
 31
0.0000000000000000
  7
KNJYOKO
  0
MTEXT
  5
50D
100
AcDbEntity
  8
A0
  6
BYBLOCK
 62
0
100
AcDbMText
 10
147.9221791275280
 20
-42.34208492406616
 30
0.0000000000000000
 40
4.199998855590820
 41
0.0000000000000000
 71
     1
 72
     1
  1
{\H0.58x;　　　　ｋＮ}
 11
1.000000000000000
 21
0.0000000000000000
 31
0.0000000000000000
  7
KNJYOKO
  0
ENDBLK
  5
50E
100
AcDbEntity
  8
A0
  6
BYBLOCK
 62
3
100
AcDbBlockEnd
  0
ENDSEC
  0
SECTION
  2
ENTITIES
  0
LINE
  5
46
100
AcDbEntity
  8
MAIN0
  6
CONTINUOUS
 62
3
100
AcDbLine
 10
443.7177920640543
 20
331.5727587375325
 30
0.0000000000000000
 11
466.7177920640543
 21
331.5727587375325
 31
0.0000000000000000
  0
LINE
  5
47
100
AcDbEntity
  8
MAIN0
  6
CONTINUOUS
 62
3
100
AcDbLine
 10
443.7177920640544
 20
331.5727587375325
 30
0.0000000000000000
 11
443.7177920640544
 21
282.3462614293610
 31
0.0000000000000000
  0
LINE
  5
48
100
AcDbEntity
  8
MAIN0
  6
CONTINUOUS
 62
3
100
AcDbLine
 10
466.7177920640544
 20
331.5727587375325
 30
0.0000000000000000
 11
466.7177920640544
 21
282.3462614294338
 31
0.0000000000000000
  0
LINE
  5
49
100
AcDbEntity
  8
MAIN0
  6
CONTINUOUS
 62
3
100
AcDbLine
 10
453.7177920639413
 20
276.5727587375325
 30
0.0000000000000000
 11
456.7177920640471
 21
276.5727587375325
 31
0.0000000000000000
  0
LINE
  5
4A
100
AcDbEntity
  8
MAIN0
  6
CENTER
 62
3
100
AcDbLine
 10
447.5021315520523
 20
318.5727587375325
 30
0.0000000000000000
 11
463.7208746363467
 21
318.5727587375325
 31
0.0000000000000000
  0
LINE
  5
4B
100
AcDbEntity
  8
MAIN0
  6
CENTER
 62
3
100
AcDbLine
 10
447.3219260453200
 20
304.5727587375325
 30
0.0000000000000000
 11
463.0901484883839
 21
304.5727587375325
 31
0.0000000000000000
  0
CIRCLE
  5
4C
100
AcDbEntity
  8
MAIN0
  6
CONTINUOUS
 62
3
100
AcDbCircle
 10
455.2177920640544
 20
304.5727587375325
 30
0.0000000000000000
 40
6.500000000000000
  0
LINE
  5
4D
100
AcDbEntity
  8
MAIN0
  6
CONTINUOUS
 62
3
100
AcDbLine
 10
455.2177920640544
 20
308.0368603526703
 30
0.0000000000000000
 11
452.2177920640544
 21
306.3048095451014
 31
0.0000000000000000
  0
LINE
  5
4E
100
AcDbEntity
  8
MAIN0
  6
CONTINUOUS
 62
3
100
AcDbLine
 10
452.2177920640544
 20
306.3048095451013
 30
0.0000000000000000
 11
452.2177920640544
 21
302.8407079299636
 31
0.0000000000000000
  0
LINE
  5
4F
100
AcDbEntity
  8
MAIN0
  6
CONTINUOUS
 62
3
100
AcDbLine
 10
452.2177920640544
 20
302.8407079299638
 30
0.0000000000000000
 11
455.2177920640544
 21
301.1086571223949
 31
0.0000000000000000
  0
LINE
  5
50
100
AcDbEntity
  8
MAIN0
  6
CONTINUOUS
 62
3
100
AcDbLine
 10
455.2177920640544
 20
301.1086571223949
 30
0.0000000000000000
 11
458.2177920640544
 21
302.8407079299638
 31
0.0000000000000000
  0
LINE
  5
51
100
AcDbEntity
  8
MAIN0
  6
CONTINUOUS
 62
3
100
AcDbLine
 10
458.2177920640544
 20
302.8407079299636
 30
0.0000000000000000
 11
458.2177920640544
 21
306.3048095451013
 31
0.0000000000000000
  0
LINE
  5
52
100
AcDbEntity
  8
MAIN0
  6
CONTINUOUS
 62
3
100
AcDbLine
 10
458.2177920640543
 20
306.3048095451014
 30
0.0000000000000000
 11
455.2177920640544
 21
308.0368603526703
 31
0.0000000000000000
  0
CIRCLE
  5
53
100
AcDbEntity
  8
MAIN0
  6
CONTINUOUS
 62
3
100
AcDbCircle
 10
455.2177920640544
 20
318.5727587375325
 30
0.0000000000000000
 40
6.500000000000000
  0
LINE
  5
54
100
AcDbEntity
  8
MAIN0
  6
CONTINUOUS
 62
3
100
AcDbLine
 10
455.2177920640544
 20
322.0368603526703
 30
0.0000000000000000
 11
452.2177920640543
 21
320.3048095451014
 31
0.0000000000000000
  0
LINE
  5
55
100
AcDbEntity
  8
MAIN0
  6
CONTINUOUS
 62
3
100
AcDbLine
 10
452.2177920640544
 20
320.3048095451013
 30
0.0000000000000000
 11
452.2177920640544
 21
316.8407079299636
 31
0.0000000000000000
  0
LINE
  5
56
100
AcDbEntity
  8
MAIN0
  6
CONTINUOUS
 62
3
100
AcDbLine
 10
452.2177920640543
 20
316.8407079299637
 30
0.0000000000000000
 11
455.2177920640543
 21
315.1086571223948
 31
0.0000000000000000
  0
LINE
  5
57
100
AcDbEntity
  8
MAIN0
  6
CONTINUOUS
 62
3
100
AcDbLine
 10
455.2177920640543
 20
315.1086571223949
 30
0.0000000000000000
 11
458.2177920640543
 21
316.8407079299637
 31
0.0000000000000000
  0
LINE
  5
58
100
AcDbEntity
  8
MAIN0
  6
CONTINUOUS
 62
3
100
AcDbLine
 10
458.2177920640544
 20
316.8407079299636
 30
0.0000000000000000
 11
458.2177920640544
 21
320.3048095451013
 31
0.0000000000000000
  0
LINE
  5
59
100
AcDbEntity
  8
MAIN0
  6
CONTINUOUS
 62
3
100
AcDbLine
 10
458.2177920640544
 20
320.3048095451014
 30
0.0000000000000000
 11
455.2177920640544
 21
322.0368603526703
 31
0.0000000000000000
  0
LINE
  5
5A
100
AcDbEntity
  8
MAIN0
  6
CONTINUOUS
 62
3
100
AcDbLine
 10
226.3818191946583
 20
305.3227150084850
 30
0.0000000000000000
 11
226.3818191946583
 21
327.2230419892575
 31
0.0000000000000000
  0
LINE
  5
5B
100
AcDbEntity
  8
MAIN0
  6
CENTER
 62
3
100
AcDbLine
 10
129.1997687617430
 20
272.3230419892574
 30
0.0000000000000000
 11
237.7991030436531
 21
272.3230419892574
 31
0.0000000000000000
  0
LINE
  5
5C
100
AcDbEntity
  8
MAIN0
  6
CONTINUOUS
 62
3
100
AcDbLine
 10
73.89452764812091
 20
100.1519877939368
 30
0.0000000000000000
 11
73.89452764812091
 21
92.68816174099345
 31
0.0000000000000000
  0
LINE
  5
5D
100
AcDbEntity
  8
MAIN0
  6
CONTINUOUS
 62
3
100
AcDbLine
 10
73.89452764812091
 20
130.9410467378920
 30
0.0000000000000000
 11
73.89452764812091
 21
123.1519877939367
 31
0.0000000000000000
  0
LINE
  5
5E
100
AcDbEntity
  8
MAIN0
  6
CONTINUOUS
 62
3
100
AcDbLine
 10
224.7818191946583
 20
215.8230419892573
 30
0.0000000000000000
 11
226.3818191946582
 21
217.4230419892572
 31
0.0000000000000000
  0
LINE
  5
5F
100
AcDbEntity
  8
MAIN0
  6
CONTINUOUS
 62
3
100
AcDbLine
 10
226.3818191946583
 20
217.4230419892572
 30
0.0000000000000000
 11
226.3818191946583
 21
297.8230419892573
 31
0.0000000000000000
  0
LINE
  5
60
100
AcDbEntity
  8
MAIN0
  6
CONTINUOUS
 62
3
100
AcDbLine
 10
468.7177920640544
 20
290.2227587375430
 30
0.0000000000000000
 11
468.7177920640544
 21
305.2227587375430
 31
0.0000000000000000
  0
LINE
  5
61
100
AcDbEntity
  8
MAIN0
  6
CONTINUOUS
 62
3
100
AcDbLine
 10
468.7177920640544
 20
305.2227587375429
 30
0.0000000000000000
 11
466.7177920640543
 21
305.2227587375414
 31
0.0000000000000000
  0
LINE
  5
62
100
AcDbEntity
  8
MAIN0
  6
CONTINUOUS
 62
3
100
AcDbLine
 10
468.7177920640658
 20
290.2227587375429
 30
0.0000000000000000
 11
466.7177920640544
 21
290.2227587375414
 31
0.0000000000000000
  0
LINE
  5
63
100
AcDbEntity
  8
MAIN0
  6
CONTINUOUS
 62
3
100
AcDbLine
 10
441.7177920640544
 20
305.2227587375430
 30
0.0000000000000000
 11
443.7177920640544
 21
305.2227587375414
 31
0.0000000000000000
  0
LINE
  5
64
100
AcDbEntity
  8
MAIN0
  6
CONTINUOUS
 62
3
100
AcDbLine
 10
441.7177920640430
 20
290.2227587375430
 30
0.0000000000000000
 11
443.7177920640544
 21
290.2227587375414
 31
0.0000000000000000
  0
LINE
  5
65
100
AcDbEntity
  8
MAIN0
  6
CONTINUOUS
 62
3
100
AcDbLine
 10
441.7177920640544
 20
290.2227587375430
 30
0.0000000000000000
 11
441.7177920640544
 21
305.2227587375430
 31
0.0000000000000000
  0
LINE
  5
66
100
AcDbEntity
  8
MAIN0
  6
CENTER
 62
3
100
AcDbLine
 10
455.2177920640543
 20
272.3230587372927
 30
0.0000000000000000
 11
534.8921437166007
 21
226.3230503633020
 31
0.0000000000000000
  0
LINE
  5
67
100
AcDbEntity
  8
MAIN0
  6
CENTER
 62
3
100
AcDbLine
 10
375.5434404114973
 20
226.3230503633206
 30
0.0000000000000000
 11
455.2177920640545
 21
272.3230587374971
 31
0.0000000000000000
  0
ARC
  5
68
100
AcDbEntity
  8
MAIN0
  6
CONTINUOUS
 62
3
100
AcDbCircle
 10
455.2177920640544
 20
272.3230587375327
 30
0.0000000000000000
 40
30.45000000000001
100
AcDbArc
 50
236.3178047343949
 51
303.6821952656051
  0
ARC
  5
69
100
AcDbEntity
  8
MAIN0
  6
CONTINUOUS
 62
3
100
AcDbCircle
 10
455.2177920640544
 20
272.3230587375327
 30
0.0000000000000000
 40
30.45000000000001
100
AcDbArc
 50
356.3178047343949
 51
423.6821952656050
  0
ARC
  5
6A
100
AcDbEntity
  8
MAIN0
  6
CONTINUOUS
 62
3
100
AcDbCircle
 10
455.2177920640544
 20
272.3230587375327
 30
0.0000000000000000
 40
30.45000000000001
100
AcDbArc
 50
116.3178047343950
 51
183.6821952656051
  0
CIRCLE
  5
6B
100
AcDbEntity
  8
MAIN0
  6
CONTINUOUS
 62
3
100
AcDbCircle
 10
478.1674652643491
 20
285.5730587375204
 30
0.0000000000000000
 40
3.000000000000000
  0
MTEXT
  5
6C
100
AcDbEntity
  8
MAIN0
  6
CONTINUOUS
 62
3
100
AcDbMText
 10
441.4006972433894
 20
318.2261955141307
 30
0.0000000000000000
 40
4.000000000000000
 41
0.0000000000000000
 71
     1
 72
     1
  1
{\H0.81x;{1}}
 11
-1.000000000000000
 21
1.898821519314986e-015
 31
0.0000000000000000
  7
STANDARD
  0
MTEXT
  5
6D
100
AcDbEntity
  8
MAIN0
  6
CONTINUOUS
 62
3
100
AcDbMText
 10
422.3730569124615
 20
237.4055352280394
 30
0.0000000000000000
 40
4.000000000000000
 41
0.0000000000000000
 71
     1
 72
     1
  1
{\H0.81x;{3}}
 11
0.4999999999999978
 21
-0.8660254037844399
 31
0.0000000000000000
  7
STANDARD
  0
MTEXT
  5
6E
100
AcDbEntity
  8
MAIN0
  6
CONTINUOUS
 62
3
100
AcDbMText
 10
501.8796220363125
 20
261.3374454704282
 30
0.0000000000000000
 40
4.000000000000000
 41
0.0000000000000000
 71
     1
 72
     1
  1
{\H0.81x;{2}}
 11
0.5000000000000026
 21
0.8660254037844372
 31
0.0000000000000000
  7
STANDARD
  0
LINE
  5
6F
100
AcDbEntity
  8
MAIN0
  6
CONTINUOUS
 62
3
100
AcDbLine
 10
133.3818191946583
 20
312.3230419892573
 30
0.0000000000000000
 11
138.3818191946583
 21
312.3230419892573
 31
0.0000000000000000
  0
LINE
  5
70
100
AcDbEntity
  8
MAIN0
  6
CONTINUOUS
 62
3
100
AcDbLine
 10
133.3818191946583
 20
232.3230419892574
 30
0.0000000000000000
 11
138.3818191946583
 21
232.3230419892574
 31
0.0000000000000000
  0
LINE
  5
71
100
AcDbEntity
  8
MAIN0
  6
CONTINUOUS
 62
3
100
AcDbLine
 10
495.9305779741134
 20
291.8478969079636
 30
0.0000000000000000
 11
492.4305779741135
 21
289.8271709658000
 31
0.0000000000000000
  0
LINE
  5
72
100
AcDbEntity
  8
MAIN0
  6
CONTINUOUS
 62
3
100
AcDbLine
 10
492.4305779741134
 20
289.8271709657998
 30
0.0000000000000000
 11
488.9305779741134
 21
291.8478969079636
 31
0.0000000000000000
  0
LINE
  5
73
100
AcDbEntity
  8
MAIN0
  6
CONTINUOUS
 62
3
100
AcDbLine
 10
488.9305779741134
 20
291.8478969079636
 30
0.0000000000000000
 11
488.9305779741134
 21
295.8893487922910
 31
0.0000000000000000
  0
LINE
  5
74
100
AcDbEntity
  8
MAIN0
  6
CONTINUOUS
 62
3
100
AcDbLine
 10
492.4305779741133
 20
297.9100747344547
 30
0.0000000000000000
 11
488.9305779741134
 21
295.8893487922910
 31
0.0000000000000000
  0
CIRCLE
  5
75
100
AcDbEntity
  8
MAIN0
  6
CONTINUOUS
 62
3
100
AcDbCircle
 10
492.4568844267853
 20
293.8230587375327
 30
0.0000000000000000
 40
0.6999999999999998
  0
LINE
  5
76
100
AcDbEntity
  8
MAIN0
  6
CONTINUOUS
 62
3
100
AcDbLine
 10
138.3818191946583
 20
232.3230419892574
 30
0.0000000000000000
 11
138.3818191946583
 21
312.3230419892573
 31
0.0000000000000000
  0
LINE
  5
77
100
AcDbEntity
  8
MAIN0
  6
CONTINUOUS
 62
3
100
AcDbLine
 10
133.3818191946583
 20
209.8230419892568
 30
0.0000000000000000
 11
133.3818191946583
 21
334.8230419892581
 31
0.0000000000000000
  0
CIRCLE
  5
78
100
AcDbEntity
  8
MAIN0
  6
CONTINUOUS
 62
3
100
AcDbCircle
 10
492.4568844267853
 20
293.8230587375327
 30
0.0000000000000000
 40
2.399999999999999
  0
CIRCLE
  5
79
100
AcDbEntity
  8
MAIN0
  6
CONTINUOUS
 62
3
100
AcDbCircle
 10
492.4568844267853
 20
293.8230587375327
 30
0.0000000000000000
 40
3.299999999999997
  0
LINE
  5
7A
100
AcDbEntity
  8
MAIN0
  6
CONTINUOUS
 62
3
100
AcDbLine
 10
492.4305779741134
 20
297.9100747344546
 30
0.0000000000000000
 11
495.9305779741135
 21
295.8893487922908
 31
0.0000000000000000
  0
LINE
  5
7B
100
AcDbEntity
  8
MAIN0
  6
CONTINUOUS
 62
3
100
AcDbLine
 10
495.9305779741135
 20
295.8893487922908
 30
0.0000000000000000
 11
495.9305779741135
 21
291.8478969079637
 31
0.0000000000000000
  0
LINE
  5
7C
100
AcDbEntity
  8
MAIN0
  6
CONTINUOUS
 62
3
100
AcDbLine
 10
456.7177920640471
 20
276.5727587375324
 30
0.0000000000000000
 11
466.7177920640544
 21
282.3462614294338
 31
0.0000000000000000
  0
LINE
  5
7D
100
AcDbEntity
  8
MAIN0
  6
CONTINUOUS
 62
3
100
AcDbLine
 10
443.7177920640544
 20
282.3462614293610
 30
0.0000000000000000
 11
453.7177920639414
 21
276.5727587375325
 31
0.0000000000000000
  0
MTEXT
  5
7E
100
AcDbEntity
  8
MAIN0
  6
CONTINUOUS
 62
3
100
AcDbMText
 10
92.66156388243678
 20
106.5375676162781
 30
0.0000000000000000
 40
3.099999904632568
 41
0.0000000000000000
 71
     1
 72
     1
  1
{\H0.70x;{H8/h8}}
 11
6.123233995736766e-017
 21
1.000000000000000
 31
0.0000000000000000
  7
STANDARD
  0
CIRCLE
  5
7F
100
AcDbEntity
  8
MAIN0
  6
CONTINUOUS
 62
3
100
AcDbCircle
 10
492.4568844267853
 20
293.8230587375327
 30
0.0000000000000000
 40
7.500000000000000
  0
LINE
  5
80
100
AcDbEntity
  8
MAIN0
  6
CONTINUOUS
 62
3
100
AcDbLine
 10
181.6818191946492
 20
188.3230419892576
 30
0.0000000000000000
 11
151.0818191946696
 21
188.3230419892576
 31
0.0000000000000000
  0
LINE
  5
81
100
AcDbEntity
  8
MAIN0
  6
CONTINUOUS
 62
3
100
AcDbLine
 10
191.0402805634423
 20
187.3230419892576
 30
0.0000000000000000
 11
181.6818191946487
 21
187.3230419892576
 31
0.0000000000000000
  0
LINE
  5
82
100
AcDbEntity
  8
MAIN0
  6
CENTER
 62
3
100
AcDbLine
 10
166.3818191946594
 20
183.7016221214083
 30
0.0000000000000000
 11
166.3818191946594
 21
210.6217155181958
 31
0.0000000000000000
  0
LINE
  5
83
100
AcDbEntity
  8
MAIN0
  6
CONTINUOUS
 62
3
100
AcDbLine
 10
134.4818191946572
 20
193.8230419892573
 30
0.0000000000000000
 11
133.8818191946573
 21
194.4230419892572
 31
0.0000000000000000
  0
LINE
  5
84
100
AcDbEntity
  8
MAIN0
  6
CONTINUOUS
 62
3
100
AcDbLine
 10
133.8818191946580
 20
194.4230419892567
 30
0.0000000000000000
 11
133.8818191946580
 21
209.8230419892575
 31
0.0000000000000000
  0
LINE
  5
85
100
AcDbEntity
  8
MAIN0
  6
CONTINUOUS
 62
3
100
AcDbLine
 10
133.3818191946579
 20
209.8230419892568
 30
0.0000000000000000
 11
133.8818191946579
 21
209.8230419892576
 31
0.0000000000000000
  0
LINE
  5
86
100
AcDbEntity
  8
MAIN0
  6
CONTINUOUS
 62
3
100
AcDbLine
 10
205.1818191946583
 20
215.8230419892730
 30
0.0000000000000000
 11
224.7818191946738
 21
215.8230419892728
 31
0.0000000000000000
  0
LINE
  5
87
100
AcDbEntity
  8
MAIN0
  6
CONTINUOUS
 62
3
100
AcDbLine
 10
205.1818191946582
 20
328.8230419892418
 30
0.0000000000000000
 11
224.7818191946738
 21
328.8230419892420
 31
0.0000000000000000
  0
LINE
  5
88
100
AcDbEntity
  8
MAIN0
  6
CONTINUOUS
 62
3
100
AcDbLine
 10
224.7818191946582
 20
328.8230419892576
 30
0.0000000000000000
 11
226.3818191946583
 21
327.2230419892575
 31
0.0000000000000000
  0
LINE
  5
89
100
AcDbEntity
  8
MAIN0
  6
CENTER
 62
3
100
AcDbLine
 10
166.3818191946590
 20
357.8304978944098
 30
0.0000000000000000
 11
166.3818191946590
 21
332.9507964371455
 31
0.0000000000000000
  0
LINE
  5
8A
100
AcDbEntity
  8
MAIN0
  6
CONTINUOUS
 62
3
100
AcDbLine
 10
181.6818191946587
 20
356.3230419892570
 30
0.0000000000000000
 11
151.0818191946697
 21
356.3230419892570
 31
0.0000000000000000
  0
LINE
  5
8B
100
AcDbEntity
  8
MAIN0
  6
CONTINUOUS
 62
3
100
AcDbLine
 10
181.6818191946587
 20
357.3230419892570
 30
0.0000000000000000
 11
191.0402805634424
 21
357.3230419892570
 31
0.0000000000000000
  0
LINE
  5
8C
100
AcDbEntity
  8
MAIN0
  6
CONTINUOUS
 62
3
100
AcDbLine
 10
133.3818191946583
 20
334.8230419892581
 30
0.0000000000000000
 11
133.8818191946583
 21
334.8230419892574
 31
0.0000000000000000
  0
LINE
  5
8D
100
AcDbEntity
  8
MAIN0
  6
CONTINUOUS
 62
3
100
AcDbLine
 10
133.8818191946585
 20
350.2230419892587
 30
0.0000000000000000
 11
133.8818191946582
 21
334.8230419892574
 31
0.0000000000000000
  0
LINE
  5
8E
100
AcDbEntity
  8
MAIN0
  6
CONTINUOUS
 62
3
100
AcDbLine
 10
119.3818191946582
 20
219.3230665820273
 30
0.0000000000000000
 11
119.3818191946582
 21
225.3230665820273
 31
0.0000000000000000
  0
LINE
  5
8F
100
AcDbEntity
  8
MAIN0
  6
CENTER
 62
3
100
AcDbLine
 10
112.3818191946583
 20
222.3230665818705
 30
0.0000000000000000
 11
139.1888684368470
 21
222.3230665818705
 31
0.0000000000000000
  0
ARC
  5
90
100
AcDbEntity
  8
MAIN0
  6
CENTER
 62
3
100
AcDbCircle
 10
455.2177920640544
 20
272.3230587375327
 30
0.0000000000000000
 40
42.99999999999999
100
AcDbArc
 50
17.32891908846001
 51
42.67108091153981
  0
ARC
  5
91
100
AcDbEntity
  8
MAIN0
  6
CENTER
 62
3
100
AcDbCircle
 10
455.2177920640544
 20
272.3230587375327
 30
0.0000000000000000
 40
26.50000000000000
100
AcDbArc
 50
19.18600688190776
 51
40.81399311803066
  0
CIRCLE
  5
92
100
AcDbEntity
  8
MAIN0
  6
CONTINUOUS
 62
3
100
AcDbCircle
 10
432.2681188637739
 20
285.5730587375451
 30
0.0000000000000000
 40
3.000000000000000
  0
LINE
  5
93
100
AcDbEntity
  8
MAIN0
  6
CENTER
 62
3
100
AcDbLine
 10
427.9379918448531
 20
288.0730587375475
 30
0.0000000000000000
 11
436.5982458826948
 21
283.0730587375428
 31
0.0000000000000000
  0
ARC
  5
94
100
AcDbEntity
  8
MAIN0
  6
CENTER
 62
3
100
AcDbCircle
 10
455.2177920640544
 20
272.3230587375327
 30
0.0000000000000000
 40
26.50000000000000
100
AcDbArc
 50
139.1860068819076
 51
160.8139931180305
  0
CIRCLE
  5
95
100
AcDbEntity
  8
MAIN0
  6
CONTINUOUS
 62
3
100
AcDbCircle
 10
455.2177920640401
 20
245.8230587375327
 30
0.0000000000000000
 40
3.000000000000000
  0
LINE
  5
96
100
AcDbEntity
  8
MAIN0
  6
CONTINUOUS
 62
3
100
AcDbLine
 10
456.4552289311204
 20
244.5856218704497
 30
0.0000000000000000
 11
453.9803551969675
 21
247.0604956046026
 31
0.0000000000000000
  0
LINE
  5
97
100
AcDbEntity
  8
MAIN0
  6
CONTINUOUS
 62
3
100
AcDbLine
 10
453.9803551969674
 20
244.5856218704496
 30
0.0000000000000000
 11
456.4552289311203
 21
247.0604956046026
 31
0.0000000000000000
  0
ARC
  5
98
100
AcDbEntity
  8
MAIN0
  6
CENTER
 62
3
100
AcDbCircle
 10
455.2177920640544
 20
272.3230587375327
 30
0.0000000000000000
 40
26.50000000000000
100
AcDbArc
 50
259.1860068819075
 51
280.8139931180304
  0
LINE
  5
99
100
AcDbEntity
  8
MAIN0
  6
CONTINUOUS
 62
3
100
AcDbLine
 10
478.6203985932824
 20
287.2634289335328
 30
0.0000000000000000
 11
477.7145319354235
 21
283.8826885415211
 31
0.0000000000000000
  0
LINE
  5
9A
100
AcDbEntity
  8
MAIN0
  6
CONTINUOUS
 62
3
100
AcDbLine
 10
479.8578354603590
 20
285.1201254085975
 30
0.0000000000000000
 11
476.4770950683472
 21
286.0259920664563
 31
0.0000000000000000
  0
LINE
  5
9B
100
AcDbEntity
  8
MAIN0
  6
CONTINUOUS
 62
3
100
AcDbLine
 10
430.5777486677604
 20
285.1201254086158
 30
0.0000000000000000
 11
433.9584890597722
 21
286.0259920664745
 31
0.0000000000000000
  0
LINE
  5
9C
100
AcDbEntity
  8
MAIN0
  6
CONTINUOUS
 62
3
100
AcDbLine
 10
431.8151855348369
 20
287.2634289335512
 30
0.0000000000000000
 11
432.7210521926958
 21
283.8826885415394
 31
0.0000000000000000
  0
CIRCLE
  5
9D
100
AcDbEntity
  8
MAIN0
  6
CONTINUOUS
 62
3
100
AcDbCircle
 10
455.2177920640544
 20
230.8230419889658
 30
0.0000000000000000
 40
9.450000000561232
  0
CIRCLE
  5
9E
100
AcDbEntity
  8
MAIN0
  6
CONTINUOUS
 62
3
100
AcDbCircle
 10
455.2177920640544
 20
235.8230419881795
 30
0.0000000000000000
 40
1.549999999997439
  0
CIRCLE
  5
9F
100
AcDbEntity
  8
MAIN0
  6
CONTINUOUS
 62
3
100
AcDbCircle
 10
455.2177920640544
 20
225.8230419897518
 30
0.0000000000000000
 40
1.549999998426074
  0
ARC
  5
A0
100
AcDbEntity
  8
MAIN0
  6
CENTER
 62
3
100
AcDbCircle
 10
455.2177920640544
 20
272.3230587375327
 30
0.0000000000000000
 40
41.50001674856696
100
AcDbArc
 50
254.1635401548025
 51
285.8364598451975
  0
LINE
  5
A1
100
AcDbEntity
  8
MAIN0
  6
CENTER
 62
3
100
AcDbLine
 10
455.2177920640544
 20
176.3230419892576
 30
0.0000000000000000
 11
455.2177920640544
 21
364.3230754858079
 31
0.0000000000000000
  0
CIRCLE
  5
A2
100
AcDbEntity
  8
MAIN0
  6
CONTINUOUS
 62
3
100
AcDbCircle
 10
430.2177959862235
 20
315.6243221333589
 30
0.0000000000000000
 40
5.000000000000000
  0
LINE
  5
A3
100
AcDbEntity
  8
MAIN0
  6
CONTINUOUS
 62
3
100
AcDbLine
 10
431.6611716591975
 20
313.1243221333589
 30
0.0000000000000000
 11
433.1045473321716
 21
315.6243221333589
 31
0.0000000000000000
  0
LINE
  5
A4
100
AcDbEntity
  8
MAIN0
  6
CONTINUOUS
 62
3
100
AcDbLine
 10
433.1045473321716
 20
315.6243221333589
 30
0.0000000000000000
 11
431.6611716591975
 21
318.1243221333589
 31
0.0000000000000000
  0
LINE
  5
A5
100
AcDbEntity
  8
MAIN0
  6
CONTINUOUS
 62
3
100
AcDbLine
 10
431.6611716591975
 20
318.1243221333590
 30
0.0000000000000000
 11
428.7744203132494
 21
318.1243221333590
 31
0.0000000000000000
  0
LINE
  5
A6
100
AcDbEntity
  8
MAIN0
  6
CONTINUOUS
 62
3
100
AcDbLine
 10
428.7744203132494
 20
318.1243221333590
 30
0.0000000000000000
 11
427.3310446402753
 21
315.6243221333590
 31
0.0000000000000000
  0
LINE
  5
A7
100
AcDbEntity
  8
MAIN0
  6
CONTINUOUS
 62
3
100
AcDbLine
 10
427.3310446402753
 20
315.6243221333590
 30
0.0000000000000000
 11
428.7744203132494
 21
313.1243221333589
 31
0.0000000000000000
  0
LINE
  5
A8
100
AcDbEntity
  8
MAIN0
  6
CONTINUOUS
 62
3
100
AcDbLine
 10
428.7744203132494
 20
313.1243221333590
 30
0.0000000000000000
 11
431.6611716591975
 21
313.1243221333590
 31
0.0000000000000000
  0
ARC
  5
A9
100
AcDbEntity
  8
MAIN0
  6
CONTINUOUS
 62
3
100
AcDbCircle
 10
430.2177959862235
 20
315.6243221333589
 30
0.0000000000000000
 40
5.500000000000000
100
AcDbArc
 50
209.9999999999984
 51
389.9999999999916
  0
LINE
  5
AA
100
AcDbEntity
  8
MAIN0
  6
HIDDEN
 62
3
100
AcDbLine
 10
443.7177920640544
 20
327.8227587375411
 30
0.0000000000000000
 11
466.7177920640544
 21
327.8227587375245
 31
0.0000000000000000
  0
ARC
  5
AB
100
AcDbEntity
  8
MAIN0
  6
CONTINUOUS
 62
3
100
AcDbCircle
 10
455.2177920640544
 20
272.3230587375327
 30
0.0000000000000000
 40
56.50001674826189
100
AcDbArc
 50
101.7440314872414
 51
198.2511158288212
  0
LINE
  5
AC
100
AcDbEntity
  8
MAIN0
  6
CONTINUOUS
 62
3
100
AcDbLine
 10
473.3677920641039
 20
340.8333815995374
 30
0.0000000000000000
 11
473.3677920640930
 21
325.8284733472007
 31
0.0000000000000000
  0
LINE
  5
AD
100
AcDbEntity
  8
MAIN0
  6
CONTINUOUS
 62
3
100
AcDbLine
 10
437.0677920640049
 20
340.8333815995374
 30
0.0000000000000000
 11
437.0677920640158
 21
325.8284733472007
 31
0.0000000000000000
  0
LINE
  5
AE
100
AcDbEntity
  8
MAIN0
  6
CONTINUOUS
 62
3
100
AcDbLine
 10
404.9611120441092
 20
222.3495362278001
 30
0.0000000000000000
 11
417.9557437720821
 21
229.8519903539778
 31
0.0000000000000000
  0
LINE
  5
AF
100
AcDbEntity
  8
MAIN0
  6
CONTINUOUS
 62
3
100
AcDbLine
 10
386.8111120440598
 20
253.7862583852610
 30
0.0000000000000000
 11
399.8057437720436
 21
261.2887125114199
 31
0.0000000000000000
  0
LINE
  5
B0
100
AcDbEntity
  8
MAIN0
  6
CONTINUOUS
 62
3
100
AcDbLine
 10
523.6244720840489
 20
253.7862583852606
 30
0.0000000000000000
 11
510.6298403560651
 21
261.2887125114196
 31
0.0000000000000000
  0
LINE
  5
B1
100
AcDbEntity
  8
MAIN0
  6
CONTINUOUS
 62
3
100
AcDbLine
 10
505.4744720839992
 20
222.3495362277998
 30
0.0000000000000000
 11
492.4798403560264
 21
229.8519903539776
 31
0.0000000000000000
  0
ARC
  5
B2
100
AcDbEntity
  8
MAIN0
  6
CONTINUOUS
 62
3
100
AcDbCircle
 10
455.2177920640544
 20
272.3230587375327
 30
0.0000000000000000
 40
69.50001674827517
100
AcDbArc
 50
105.1383703310601
 51
194.8616296689397
  0
ARC
  5
B3
100
AcDbEntity
  8
MAIN0
  6
CONTINUOUS
 62
3
100
AcDbCircle
 10
455.2177920640544
 20
272.3230587375327
 30
0.0000000000000000
 40
69.50001674827517
100
AcDbArc
 50
225.1383703310600
 51
314.8616296689397
  0
ARC
  5
B4
100
AcDbEntity
  8
MAIN0
  6
CONTINUOUS
 62
3
100
AcDbCircle
 10
455.2177920640544
 20
272.3230587375327
 30
0.0000000000000000
 40
69.50001674827517
100
AcDbArc
 50
345.1383703310599
 51
434.8616296689399
  0
CIRCLE
  5
B5
100
AcDbEntity
  8
MAIN0
  6
CONTINUOUS
 62
3
100
AcDbCircle
 10
420.6615452327983
 20
303.4376431398021
 30
0.0000000000000000
 40
7.500000000000256
  0
CIRCLE
  5
B6
100
AcDbEntity
  8
MAIN0
  6
CONTINUOUS
 62
3
100
AcDbCircle
 10
420.6615452327983
 20
303.4376431398021
 30
0.0000000000000000
 40
7.000000000000000
  0
LINE
  5
B7
100
AcDbEntity
  8
MAIN0
  6
CONTINUOUS
 62
3
100
AcDbLine
 10
422.8068195579813
 20
301.5060294612821
 30
0.0000000000000000
 11
423.4070089112857
 21
304.3296983642367
 31
0.0000000000000000
  0
LINE
  5
B8
100
AcDbEntity
  8
MAIN0
  6
CONTINUOUS
 62
3
100
AcDbLine
 10
417.9160815543115
 20
302.5455879153672
 30
0.0000000000000000
 11
418.5162709076159
 21
305.3692568183220
 31
0.0000000000000000
  0
LINE
  5
B9
100
AcDbEntity
  8
MAIN0
  6
CONTINUOUS
 62
3
100
AcDbLine
 10
420.0613558794936
 20
300.6139742368475
 30
0.0000000000000000
 11
422.8068195579812
 21
301.5060294612824
 31
0.0000000000000000
  0
LINE
  5
BA
100
AcDbEntity
  8
MAIN0
  6
CONTINUOUS
 62
3
100
AcDbLine
 10
418.5162709076154
 20
305.3692568183220
 30
0.0000000000000000
 11
421.2617345861024
 21
306.2613120427567
 31
0.0000000000000000
  0
LINE
  5
BB
100
AcDbEntity
  8
MAIN0
  6
CONTINUOUS
 62
3
100
AcDbLine
 10
417.9160815543112
 20
302.5455879153675
 30
0.0000000000000000
 11
420.0613558794939
 21
300.6139742368475
 31
0.0000000000000000
  0
LINE
  5
BC
100
AcDbEntity
  8
MAIN0
  6
CONTINUOUS
 62
3
100
AcDbLine
 10
421.2617345861024
 20
306.2613120427567
 30
0.0000000000000000
 11
423.4070089112855
 21
304.3296983642364
 31
0.0000000000000000
  0
CIRCLE
  5
BD
100
AcDbEntity
  8
MAIN0
  6
CONTINUOUS
 62
3
100
AcDbCircle
 10
410.9936481276331
 20
286.6923541512512
 30
0.0000000000000000
 40
7.500000000000256
  0
CIRCLE
  5
BE
100
AcDbEntity
  8
MAIN0
  6
CONTINUOUS
 62
3
100
AcDbCircle
 10
410.9936481276331
 20
286.6923541512512
 30
0.0000000000000000
 40
7.000000000000000
  0
LINE
  5
BF
100
AcDbEntity
  8
MAIN0
  6
CONTINUOUS
 62
3
100
AcDbLine
 10
413.7391118061223
 20
285.8002989268221
 30
0.0000000000000000
 11
411.5938374809439
 21
283.8686852482976
 31
0.0000000000000000
  0
LINE
  5
C0
100
AcDbEntity
  8
MAIN0
  6
CONTINUOUS
 62
3
100
AcDbLine
 10
410.3934587743228
 20
289.5160230542044
 30
0.0000000000000000
 11
408.2481844491442
 21
287.5844093756796
 31
0.0000000000000000
  0
LINE
  5
C1
100
AcDbEntity
  8
MAIN0
  6
CONTINUOUS
 62
3
100
AcDbLine
 10
413.1389224528114
 20
288.6239678297759
 30
0.0000000000000000
 11
413.7391118061221
 21
285.8002989268221
 31
0.0000000000000000
  0
LINE
  5
C2
100
AcDbEntity
  8
MAIN0
  6
CONTINUOUS
 62
3
100
AcDbLine
 10
408.2481844491439
 20
287.5844093756801
 30
0.0000000000000000
 11
408.8483738024545
 21
284.7607404727268
 31
0.0000000000000000
  0
LINE
  5
C3
100
AcDbEntity
  8
MAIN0
  6
CONTINUOUS
 62
3
100
AcDbLine
 10
410.3934587743224
 20
289.5160230542044
 30
0.0000000000000000
 11
413.1389224528114
 21
288.6239678297756
 31
0.0000000000000000
  0
LINE
  5
C4
100
AcDbEntity
  8
MAIN0
  6
CONTINUOUS
 62
3
100
AcDbLine
 10
408.8483738024545
 20
284.7607404727268
 30
0.0000000000000000
 11
411.5938374809440
 21
283.8686852482979
 31
0.0000000000000000
  0
LINE
  5
C5
100
AcDbEntity
  8
MAIN0
  6
CENTER
 62
3
100
AcDbLine
 10
401.9586112228130
 20
289.6280155977645
 30
0.0000000000000000
 11
420.0286850324532
 21
283.7566927047378
 31
0.0000000000000000
  0
ARC
  5
C6
100
AcDbEntity
  8
MAIN0
  6
CENTER
 62
3
100
AcDbCircle
 10
455.2177920640544
 20
272.3230587375327
 30
0.0000000000000000
 40
46.50001674834124
100
AcDbArc
 50
149.7156315351100
 51
173.7156315350806
  0
LINE
  5
C7
100
AcDbEntity
  8
MAIN0
  6
CENTER
 62
3
100
AcDbLine
 10
413.6016693907275
 20
309.7943839001721
 30
0.0000000000000000
 11
427.7214210748691
 21
297.0809023794320
 31
0.0000000000000000
  0
ARC
  5
C8
100
AcDbEntity
  8
MAIN0
  6
CENTER
 62
3
100
AcDbCircle
 10
455.2177920640544
 20
272.3230587375327
 30
0.0000000000000000
 40
46.50001674826189
100
AcDbArc
 50
126.2843684655275
 51
149.7156315351100
  0
LINE
  5
C9
100
AcDbEntity
  8
MAIN0
  6
CONTINUOUS
 62
3
100
AcDbLine
 10
133.3818191946583
 20
219.3230665820273
 30
0.0000000000000000
 11
119.3818191946583
 21
219.3230665820273
 31
0.0000000000000000
  0
LINE
  5
CA
100
AcDbEntity
  8
MAIN0
  6
CONTINUOUS
 62
3
100
AcDbLine
 10
133.3818191946583
 20
219.8643325820273
 30
0.0000000000000000
 11
119.3818191946583
 21
219.8643325820273
 31
0.0000000000000000
  0
LINE
  5
CB
100
AcDbEntity
  8
MAIN0
  6
CONTINUOUS
 62
3
100
AcDbLine
 10
133.3818191946583
 20
224.7818005820272
 30
0.0000000000000000
 11
119.3818191946583
 21
224.7818005820272
 31
0.0000000000000000
  0
LINE
  5
CC
100
AcDbEntity
  8
MAIN0
  6
CONTINUOUS
 62
3
100
AcDbLine
 10
119.3818191946583
 20
225.3230665820273
 30
0.0000000000000000
 11
133.3818191946583
 21
225.3230665820273
 31
0.0000000000000000
  0
LINE
  5
CD
100
AcDbEntity
  8
MAIN0
  6
HIDDEN
 62
3
100
AcDbLine
 10
371.3274311203594
 20
276.6134364291315
 30
0.0000000000000000
 11
372.2178088123291
 21
275.7230587371624
 31
0.0000000000000000
  0
LINE
  5
CE
100
AcDbEntity
  8
MAIN0
  6
HIDDEN
 62
3
100
AcDbLine
 10
372.2178088123292
 20
275.7230587371622
 30
0.0000000000000000
 11
372.2178088123313
 21
268.9230587371621
 31
0.0000000000000000
  0
LINE
  5
CF
100
AcDbEntity
  8
MAIN0
  6
HIDDEN
 62
3
100
AcDbLine
 10
372.2178088123312
 20
268.9230587371621
 30
0.0000000000000000
 11
371.3274311203955
 21
268.0326810452260
 31
0.0000000000000000
  0
LINE
  5
D0
100
AcDbEntity
  8
MAIN0
  6
HIDDEN
 62
3
100
AcDbLine
 10
371.6178088123283
 20
276.3230587371628
 30
0.0000000000000000
 11
380.2178088123288
 21
276.3230587371655
 31
0.0000000000000000
  0
LINE
  5
D1
100
AcDbEntity
  8
MAIN0
  6
HIDDEN
 62
3
100
AcDbLine
 10
380.2178088123291
 20
276.3230587371656
 30
0.0000000000000000
 11
380.2178088123316
 21
268.3230587371656
 31
0.0000000000000000
  0
LINE
  5
D2
100
AcDbEntity
  8
MAIN0
  6
HIDDEN
 62
3
100
AcDbLine
 10
380.2178088123313
 20
268.3230587371655
 30
0.0000000000000000
 11
371.6178088123322
 21
268.3230587371628
 31
0.0000000000000000
  0
LINE
  5
D3
100
AcDbEntity
  8
MAIN0
  6
HIDDEN
 62
3
100
AcDbLine
 10
372.2178088123292
 20
275.7230587371628
 30
0.0000000000000000
 11
385.2178088123292
 21
275.7230587371669
 31
0.0000000000000000
  0
LINE
  5
D4
100
AcDbEntity
  8
MAIN0
  6
HIDDEN
 62
3
100
AcDbLine
 10
385.2178088123291
 20
275.7230587371675
 30
0.0000000000000000
 11
385.2178088123312
 21
268.9230587371675
 31
0.0000000000000000
  0
LINE
  5
D5
100
AcDbEntity
  8
MAIN0
  6
HIDDEN
 62
3
100
AcDbLine
 10
385.2178088123312
 20
268.9230587371669
 30
0.0000000000000000
 11
372.2178088123313
 21
268.9230587371629
 31
0.0000000000000000
  0
LINE
  5
D6
100
AcDbEntity
  8
MAIN0
  6
HIDDEN
 62
3
100
AcDbLine
 10
385.2178088123290
 20
275.7230587371677
 30
0.0000000000000000
 11
387.1807997275748
 21
272.3230587371683
 31
0.0000000000000000
  0
LINE
  5
D7
100
AcDbEntity
  8
MAIN0
  6
HIDDEN
 62
3
100
AcDbLine
 10
387.1807997275749
 20
272.3230587371677
 30
0.0000000000000000
 11
385.2178088123312
 21
268.9230587371671
 31
0.0000000000000000
  0
LINE
  5
D8
100
AcDbEntity
  8
MAIN0
  6
CENTER
 62
3
100
AcDbLine
 10
480.4964068749445
 20
177.9819839183279
 30
0.0000000000000000
 11
472.0410256609456
 21
209.5378962063351
 31
0.0000000000000000
  0
LINE
  5
D9
100
AcDbEntity
  8
MAIN0
  6
CENTER
 62
3
100
AcDbLine
 10
429.9391772531646
 20
177.9819839183281
 30
0.0000000000000000
 11
438.3945584671635
 21
209.5378962063353
 31
0.0000000000000000
  0
LINE
  5
DA
100
AcDbEntity
  8
MAIN0
  6
CENTER
 62
3
100
AcDbLine
 10
473.0146156202073
 20
282.5980596083978
 30
0.0000000000000000
 11
506.6740125523085
 21
302.0313214879068
 31
0.0000000000000000
  0
MTEXT
  5
DB
100
AcDbEntity
  8
MAIN0
  6
CONTINUOUS
 62
3
100
AcDbMText
 10
217.8512815631325
 20
347.4908904490171
 30
0.0000000000000000
 40
5.000000000000000
 41
0.0000000000000000
 71
     1
 72
     1
  1
{\H0.82x;{C}}
 11
1.000000000000000
 21
0.0000000000000000
 31
0.0000000000000000
  7
STANDARD
  0
LINE
  5
DC
100
AcDbEntity
  8
MAIN0
  6
CENTER
 62
3
100
AcDbLine
 10
130.1497453184049
 20
209.8230419892639
 30
0.0000000000000000
 11
153.9424546977923
 21
209.8230419892991
 31
0.0000000000000000
  0
LEADER
  5
DD
100
AcDbEntity
  8
MAIN0
  6
CONTINUOUS
 62
3
100
AcDbLeader
  3
MAIN001
 73
     0
 75
     1
 40
3.099999904632568
 41
19.14900057220461
 76
     3
 10
430.0553697467673
 20
196.7834474584775
 30
0.0000000000000000
 10
396.8117504025835
 20
174.4388908464149
 30
0.0000000000000000
 10
394.8847504583735
 20
174.4388908464149
 30
0.0000000000000000
340
DE
213
0.0000000000000000
223
-0.5000000000000000
233
0.0000000000000000
1001
ACAD
1000
DSTYLE
1002
{
1070
   147
1040
0.0
1070
    77
1070
     1
1070
   173
1070
     1
1070
     6
1000
_OPEN
1070
     7
1000
_OPEN
1002
}
  0
MTEXT
  5
DE
102
{ACAD_REACTORS
330
DD
102
}
100
AcDbEntity
  8
MAIN0
  6
CONTINUOUS
 62
3
100
AcDbMText
 10
375.7357498861689
 20
178.0388907510475
 30
0.0000000000000000
 40
3.099999904632568
 41
0.0000000000000000
 71
     1
 72
     1
  1
{\H0.92x;{2-Rc1/8}}
 11
1.000000000000000
 21
0.0000000000000000
 31
0.0000000000000000
  7
STANDARD
  0
INSERT
  5
E5
100
AcDbEntity
  8
MAIN0
  6
CONTINUOUS
 62
2
100
AcDbBlockReference
  2
M0
 10
0.0000000000000000
 20
0.0000000000000000
 30
0.0000000000000000
 50
0.0000000000000000
  0
DIMENSION
  5
F0
100
AcDbEntity
  8
MAIN0
  6
CONTINUOUS
 62
3
100
AcDbDimension
  2
*D0
 10
91.39452764812097
 20
116.6519877939367
 30
0.0000000000000000
 11
90.89452764812097
 21
111.6519877939367
 31
0.0000000000000000
 70
32
  3
MAIN001
100
AcDbAlignedDimension
 13
79.39452764812097
 23
106.6519877939366
 33
0.0000000000000000
 14
79.39452764812108
 24
116.6519877939367
 34
0.0000000000000000
 50
90.00000000000000
100
AcDbRotatedDimension
1001
ACAD
1000
DSTYLE
1002
{
1070
   173
1070
     1
1070
     6
1000
_OPEN
1070
     7
1000
_OPEN
1070
    41
1040
2.000000
1070
   287
1070
     0
1002
}
  0
DIMENSION
  5
F9
100
AcDbEntity
  8
MAIN0
  6
CONTINUOUS
 62
3
100
AcDbDimension
  2
*D1
 10
107.7305005175170
 20
123.1519877939367
 30
0.0000000000000000
 11
107.2305005175170
 21
111.6519877939367
 31
0.0000000000000000
 70
32
  3
MAIN001
100
AcDbAlignedDimension
 13
75.59452764812062
 23
100.1519877939366
 33
0.0000000000000000
 14
75.59452764812102
 24
123.1519877939366
 34
0.0000000000000000
 50
90.00000000000000
100
AcDbRotatedDimension
1001
ACAD
1000
DSTYLE
1002
{
1070
   173
1070
     1
1070
     6
1000
_OPEN
1070
     7
1000
_OPEN
1070
    41
1040
2.000000
1002
}
  0
DIMENSION
  5
103
100
AcDbEntity
  8
MAIN0
  6
CONTINUOUS
 62
3
100
AcDbDimension
  2
*D2
 10
73.89452764812091
 20
80.84106348616751
 30
0.0000000000000000
 11
69.00304428738258
 21
81.34106348616751
 31
0.0000000000000000
 70
160
  3
MAIN001
100
AcDbAlignedDimension
 13
76.89452764812091
 23
100.9025431438808
 33
0.0000000000000000
 14
73.89452764812091
 24
92.68816174099345
 34
0.0000000000000000
100
AcDbRotatedDimension
1001
ACAD
1000
DSTYLE
1002
{
1070
   173
1070
     1
1070
     6
1000
_DOT
1070
     7
1000
_OPEN
1070
    41
1040
2.000000
1070
   287
1070
     0
1002
}
  0
DIMENSION
  5
10D
100
AcDbEntity
  8
MAIN0
  6
CONTINUOUS
 62
3
100
AcDbDimension
  2
*D3
 10
76.89452764812091
 20
80.84106348616751
 30
0.0000000000000000
 11
85.23276471087826
 21
81.34106348616751
 31
0.0000000000000000
 70
160
  3
MAIN001
100
AcDbAlignedDimension
 13
79.39452764812108
 23
106.6519877939368
 33
0.0000000000000000
 14
76.89452764812091
 24
100.9025431438808
 34
0.0000000000000000
100
AcDbRotatedDimension
1001
ACAD
1000
DSTYLE
1002
{
1070
   173
1070
     1
1070
     6
1000
_OPEN
1070
     7
1000
_DOT
1070
    41
1040
2.000000
1070
   287
1070
     0
1002
}
  0
DIMENSION
  5
116
100
AcDbEntity
  8
MAIN0
  6
CONTINUOUS
 62
3
100
AcDbDimension
  2
*D4
 10
443.7177920640544
 20
382.3230587375327
 30
0.0000000000000000
 11
455.2177920640544
 21
382.8230587375327
 31
0.0000000000000000
 70
32
  3
MAIN001
100
AcDbAlignedDimension
 13
466.7177920640544
 23
331.5727587375325
 33
0.0000000000000000
 14
443.7177920640544
 24
331.5727587375325
 34
0.0000000000000000
100
AcDbRotatedDimension
1001
ACAD
1000
DSTYLE
1002
{
1070
   173
1070
     1
1070
     6
1000
_OPEN
1070
     7
1000
_OPEN
1070
    41
1040
2.000000
1002
}
  0
DIMENSION
  5
11F
100
AcDbEntity
  8
MAIN0
  6
CONTINUOUS
 62
3
100
AcDbDimension
  2
*D5
 10
110.2177920640544
 20
312.3230419892573
 30
0.0000000000000000
 11
109.7177920640544
 21
266.1480418767536
 31
0.0000000000000000
 70
160
  1
\A1;\U+220580H7\H0.903226x;\S＋0.03^ 　0;
  3
MAIN001
100
AcDbAlignedDimension
 13
133.3818191946583
 23
232.3230419892574
 33
0.0000000000000000
 14
133.3818191946583
 24
312.3230419892573
 34
0.0000000000000000
 50
90.00000000000000
100
AcDbRotatedDimension
1001
ACAD
1000
DSTYLE
1002
{
1070
   173
1070
     1
1070
     6
1000
_OPEN
1070
     7
1000
_OPEN
1070
    41
1040
2.000000
1070
   272
1070
     2
1070
    47
1040
0.030000
1070
    48
1040
0.000000
1070
    71
1070
     1
1070
   340
1005
120
1002
}
  0
INSERT
  5
128
100
AcDbEntity
  8
MAIN0
  6
CONTINUOUS
 62
3
100
AcDbBlockReference
  2
D6
 10
237.7991030436531
 20
272.3230419892574
 30
0.0000000000000000
 50
0.0000000000000000
  0
INSERT
  5
130
100
AcDbEntity
  8
MAIN0
  6
CONTINUOUS
 62
3
100
AcDbBlockReference
  2
D7
 10
129.1997687617430
 20
272.3230419892574
 30
0.0000000000000000
 50
0.0000000000000000
  0
DIMENSION
  5
139
100
AcDbEntity
  8
MAIN0
  6
CONTINUOUS
 62
3
100
AcDbDimension
  2
*D8
 10
119.3818191946582
 20
198.8230665819514
 30
0.0000000000000000
 11
126.3818191946583
 21
199.3230665819514
 31
0.0000000000000000
 70
32
  3
MAIN001
100
AcDbAlignedDimension
 13
133.3818191946583
 23
209.8230419892568
 33
0.0000000000000000
 14
119.3818191946582
 24
219.3230665820273
 34
0.0000000000000000
100
AcDbRotatedDimension
1001
ACAD
1000
DSTYLE
1002
{
1070
   173
1070
     1
1070
     6
1000
_OPEN
1070
     7
1000
_OPEN
1070
    41
1040
2.000000
1002
}
  0
DIMENSION
  5
142
100
AcDbEntity
  8
MAIN0
  6
CONTINUOUS
 62
3
100
AcDbDimension
  2
*D9
 10
455.2177920640544
 20
176.3230419892576
 30
0.0000000000000000
 11
441.6804713646212
 21
169.4968993595335
 31
0.0000000000000000
 70
162
  3
MAIN001
100
AcDb2LineAngularDimension
 13
429.9391772531646
 23
177.9819839183281
 33
0.0000000000000000
 14
430.1979962982671
 24
178.9479097446172
 34
0.0000000000000000
 15
455.2177920640544
 25
177.3230419892576
 35
0.0000000000000000
 16
441.6152082685111
 26
169.0011769288466
 36
0.0000000000000000
1001
ACAD
1000
DSTYLE
1002
{
1070
   173
1070
     1
1070
     6
1000
_OPEN
1070
     7
1000
_OPEN
1070
    41
1040
2.000000
1002
}
  0
DIMENSION
  5
14B
100
AcDbEntity
  8
MAIN0
  6
CONTINUOUS
 62
3
100
AcDbDimension
  2
*D10
 10
480.4964068749445
 20
177.9819839183278
 30
0.0000000000000000
 11
468.7551127634876
 21
169.4968993595335
 31
0.0000000000000000
 70
162
  3
MAIN001
100
AcDb2LineAngularDimension
 13
455.2177920640544
 23
176.3230419892576
 33
0.0000000000000000
 14
455.2177920640544
 24
177.3230419892576
 34
0.0000000000000000
 15
480.2375878298419
 25
178.9479097446169
 35
0.0000000000000000
 16
468.8203758595976
 26
169.0011769288466
 36
0.0000000000000000
1001
ACAD
1000
DSTYLE
1002
{
1070
   173
1070
     1
1070
     6
1000
_OPEN
1070
     7
1000
_OPEN
1070
    41
1040
2.000000
1002
}
  0
LINE
  5
14C
100
AcDbEntity
  8
MAIN0
  6
HIDDEN
 62
3
100
AcDbLine
 10
539.1081530077494
 20
268.0326810459337
 30
0.0000000000000000
 11
538.2177753157797
 21
268.9230587379029
 31
0.0000000000000000
  0
LINE
  5
14D
100
AcDbEntity
  8
MAIN0
  6
HIDDEN
 62
3
100
AcDbLine
 10
538.2177753157796
 20
268.9230587379031
 30
0.0000000000000000
 11
538.2177753157774
 21
275.7230587379032
 31
0.0000000000000000
  0
LINE
  5
14E
100
AcDbEntity
  8
MAIN0
  6
HIDDEN
 62
3
100
AcDbLine
 10
538.2177753157775
 20
275.7230587379031
 30
0.0000000000000000
 11
539.1081530077132
 21
276.6134364298393
 31
0.0000000000000000
  0
LINE
  5
14F
100
AcDbEntity
  8
MAIN0
  6
HIDDEN
 62
3
100
AcDbLine
 10
538.8177753157804
 20
268.3230587379024
 30
0.0000000000000000
 11
530.2177753157799
 21
268.3230587378998
 31
0.0000000000000000
  0
LINE
  5
150
100
AcDbEntity
  8
MAIN0
  6
HIDDEN
 62
3
100
AcDbLine
 10
530.2177753157797
 20
268.3230587378997
 30
0.0000000000000000
 11
530.2177753157772
 21
276.3230587378997
 31
0.0000000000000000
  0
LINE
  5
151
100
AcDbEntity
  8
MAIN0
  6
HIDDEN
 62
3
100
AcDbLine
 10
530.2177753157774
 20
276.3230587378998
 30
0.0000000000000000
 11
538.8177753157765
 21
276.3230587379024
 31
0.0000000000000000
  0
LINE
  5
152
100
AcDbEntity
  8
MAIN0
  6
HIDDEN
 62
3
100
AcDbLine
 10
538.2177753157796
 20
268.9230587379024
 30
0.0000000000000000
 11
525.2177753157796
 21
268.9230587378984
 31
0.0000000000000000
  0
LINE
  5
153
100
AcDbEntity
  8
MAIN0
  6
HIDDEN
 62
3
100
AcDbLine
 10
525.2177753157797
 20
268.9230587378978
 30
0.0000000000000000
 11
525.2177753157775
 21
275.7230587378978
 31
0.0000000000000000
  0
LINE
  5
154
100
AcDbEntity
  8
MAIN0
  6
HIDDEN
 62
3
100
AcDbLine
 10
525.2177753157775
 20
275.7230587378983
 30
0.0000000000000000
 11
538.2177753157774
 21
275.7230587379024
 31
0.0000000000000000
  0
LINE
  5
155
100
AcDbEntity
  8
MAIN0
  6
HIDDEN
 62
3
100
AcDbLine
 10
525.2177753157798
 20
268.9230587378975
 30
0.0000000000000000
 11
523.2547844005339
 21
272.3230587378969
 31
0.0000000000000000
  0
LINE
  5
156
100
AcDbEntity
  8
MAIN0
  6
HIDDEN
 62
3
100
AcDbLine
 10
523.2547844005339
 20
272.3230587378976
 30
0.0000000000000000
 11
525.2177753157775
 21
275.7230587378982
 31
0.0000000000000000
  0
LINE
  5
157
100
AcDbEntity
  8
MAIN0
  6
HIDDEN
 62
3
100
AcDbLine
 10
472.7965897953334
 20
190.1830205690318
 30
0.0000000000000000
 11
471.4826473019879
 21
195.7806090606712
 31
0.0000000000000000
  0
LINE
  5
158
100
AcDbEntity
  8
MAIN0
  6
HIDDEN
 62
3
100
AcDbLine
 10
472.2281621410401
 20
190.0634251993021
 30
0.0000000000000000
 11
470.8427943480312
 21
195.9652959844453
 31
0.0000000000000000
  0
LINE
  5
159
100
AcDbEntity
  8
MAIN0
  6
HIDDEN
 62
3
100
AcDbLine
 10
470.8427943480312
 20
195.9652959844452
 30
0.0000000000000000
 11
479.8650245284842
 21
198.3827952752253
 31
0.0000000000000000
  0
LINE
  5
15A
100
AcDbEntity
  8
MAIN0
  6
HIDDEN
 62
3
100
AcDbLine
 10
471.4826473019879
 20
195.7806090606711
 30
0.0000000000000000
 11
470.2289278475112
 21
200.4595537632158
 31
0.0000000000000000
  0
LINE
  5
15B
100
AcDbEntity
  8
MAIN0
  6
HIDDEN
 62
3
100
AcDbLine
 10
481.0641257450288
 20
192.3983001501480
 30
0.0000000000000000
 11
479.4032390775582
 21
197.9029252305118
 31
0.0000000000000000
  0
LINE
  5
15C
100
AcDbEntity
  8
MAIN0
  6
HIDDEN
 62
3
100
AcDbLine
 10
479.8650245284842
 20
198.3827952752254
 30
0.0000000000000000
 11
481.6161962187254
 21
192.5789413489337
 31
0.0000000000000000
  0
LINE
  5
15D
100
AcDbEntity
  8
MAIN0
  6
HIDDEN
 62
3
100
AcDbLine
 10
478.1495196230816
 20
202.5818699330565
 30
0.0000000000000000
 11
479.4032390775583
 21
197.9029252305118
 31
0.0000000000000000
  0
LINE
  5
15E
100
AcDbEntity
  8
MAIN0
  6
HIDDEN
 62
3
100
AcDbLine
 10
438.2074219870687
 20
190.0634251993022
 30
0.0000000000000000
 11
439.5927897800776
 21
195.9652959844453
 31
0.0000000000000000
  0
LINE
  5
15F
100
AcDbEntity
  8
MAIN0
  6
HIDDEN
 62
3
100
AcDbLine
 10
437.6389943327754
 20
190.1830205690318
 30
0.0000000000000000
 11
438.9529368261209
 21
195.7806090606712
 31
0.0000000000000000
  0
LINE
  5
160
100
AcDbEntity
  8
MAIN0
  6
HIDDEN
 62
3
100
AcDbLine
 10
439.5927897800776
 20
195.9652959844452
 30
0.0000000000000000
 11
430.5705595996245
 21
198.3827952752253
 31
0.0000000000000000
  0
LINE
  5
161
100
AcDbEntity
  8
MAIN0
  6
HIDDEN
 62
3
100
AcDbLine
 10
438.9529368261208
 20
195.7806090606711
 30
0.0000000000000000
 11
440.2066562805976
 21
200.4595537632158
 31
0.0000000000000000
  0
LINE
  5
162
100
AcDbEntity
  8
MAIN0
  6
HIDDEN
 62
3
100
AcDbLine
 10
432.2860645050272
 20
202.5818699330565
 30
0.0000000000000000
 11
431.0323450505505
 21
197.9029252305118
 31
0.0000000000000000
  0
LINE
  5
163
100
AcDbEntity
  8
MAIN0
  6
HIDDEN
 62
3
100
AcDbLine
 10
429.3714583830799
 20
192.3983001501480
 30
0.0000000000000000
 11
431.0323450505505
 21
197.9029252305118
 31
0.0000000000000000
  0
LINE
  5
164
100
AcDbEntity
  8
MAIN0
  6
HIDDEN
 62
3
100
AcDbLine
 10
430.5705595996245
 20
198.3827952752254
 30
0.0000000000000000
 11
428.8193879093834
 21
192.5789413489338
 31
0.0000000000000000
  0
DIMENSION
  5
16D
100
AcDbEntity
  8
MAIN0
  6
CONTINUOUS
 62
3
100
AcDbDimension
  2
*D11
 10
133.3818191946583
 20
282.3230419892574
 30
0.0000000000000000
 11
135.8818191946583
 21
282.8230419892574
 31
0.0000000000000000
 70
32
  3
MAIN001
100
AcDbAlignedDimension
 13
138.3818191946583
 23
312.3230419892573
 33
0.0000000000000000
 14
133.3818191946583
 24
334.8230419892581
 34
0.0000000000000000
100
AcDbRotatedDimension
1001
ACAD
1000
DSTYLE
1002
{
1070
   173
1070
     1
1070
     6
1000
_OPEN
1070
     7
1000
_OPEN
1070
    41
1040
2.000000
1070
   287
1070
     0
1002
}
  0
LINE
  5
16E
100
AcDbEntity
  8
MAIN0
  6
CONTINUOUS
 62
3
100
AcDbLine
 10
196.6818191946585
 20
202.8230419892553
 30
0.0000000000000000
 11
191.0402805634423
 21
187.3230419892577
 31
0.0000000000000000
  0
DIMENSION
  5
179
100
AcDbEntity
  8
MAIN0
  6
CONTINUOUS
 62
3
100
AcDbDimension
  2
*D12
 10
267.5818191947794
 20
304.5727150084156
 30
0.0000000000000000
 11
267.0818191947794
 21
314.6572541703917
 31
0.0000000000000000
 70
160
  1
\A1;MAX 9.75
  3
MAIN001
100
AcDbAlignedDimension
 13
226.4818191946579
 23
297.8227150084850
 33
0.0000000000000000
 14
256.0919309701477
 24
304.5727150084156
 34
0.0000000000000000
 50
90.00000000000000
100
AcDbRotatedDimension
1001
ACAD
1000
DSTYLE
1002
{
1070
   173
1070
     1
1070
     6
1000
_OPEN
1070
     7
1000
_OPEN
1070
    41
1040
2.000000
1070
   287
1070
     0
1002
}
  0
DIMENSION
  5
182
100
AcDbEntity
  8
MAIN0
  6
CONTINUOUS
 62
3
100
AcDbDimension
  2
*D13
 10
267.5818191947794
 20
297.8227150084850
 30
0.0000000000000000
 11
267.0818191947794
 21
286.6493156225658
 31
0.0000000000000000
 70
160
  1
\A1;MAX 25.5
  3
MAIN001
100
AcDbAlignedDimension
 13
237.7991030436531
 23
272.3230419892574
 33
0.0000000000000000
 14
226.4818191946579
 24
297.8227150084850
 34
0.0000000000000000
 50
90.00000000000000
100
AcDbRotatedDimension
1001
ACAD
1000
DSTYLE
1002
{
1070
   173
1070
     1
1070
     6
1000
_OPEN
1070
     7
1000
_OPEN
1070
    41
1040
2.000000
1002
}
  0
DIMENSION
  5
18B
100
AcDbEntity
  8
MAIN0
  6
CONTINUOUS
 62
3
100
AcDbDimension
  2
*D14
 10
277.5818191947794
 20
318.5727150084155
 30
0.0000000000000000
 11
277.0818191947794
 21
311.5727150084155
 31
0.0000000000000000
 70
32
  3
MAIN001
100
AcDbAlignedDimension
 13
256.0919309701477
 23
304.5727150084156
 33
0.0000000000000000
 14
256.6320959790529
 24
318.5727150084155
 34
0.0000000000000000
 50
90.00000000000000
100
AcDbRotatedDimension
1001
ACAD
1000
DSTYLE
1002
{
1070
   173
1070
     1
1070
     6
1000
_OPEN
1070
     7
1000
_OPEN
1070
    41
1040
2.000000
1002
}
  0
DIMENSION
  5
194
100
AcDbEntity
  8
MAIN0
  6
CONTINUOUS
 62
3
100
AcDbDimension
  2
*D15
 10
277.5818191947794
 20
304.5727150084156
 30
0.0000000000000000
 11
277.0818191947794
 21
290.5727150084828
 31
0.0000000000000000
 70
32
  3
MAIN001
100
AcDbAlignedDimension
 13
253.5818191947793
 23
276.5727150085500
 33
0.0000000000000000
 14
256.0919309701477
 24
304.5727150084156
 34
0.0000000000000000
 50
90.00000000000000
100
AcDbRotatedDimension
1001
ACAD
1000
DSTYLE
1002
{
1070
   173
1070
     1
1070
     6
1000
_OPEN
1070
     7
1000
_OPEN
1070
    41
1040
2.000000
1002
}
  0
DIMENSION
  5
19D
100
AcDbEntity
  8
MAIN0
  6
CONTINUOUS
 62
3
100
AcDbDimension
  2
*D16
 10
287.5818191947794
 20
331.5727150085500
 30
0.0000000000000000
 11
287.0818191947794
 21
304.0727150085500
 31
0.0000000000000000
 70
32
  3
MAIN001
100
AcDbAlignedDimension
 13
253.5818191947793
 23
276.5727150085500
 33
0.0000000000000000
 14
253.5818191947793
 24
331.5727150085500
 34
0.0000000000000000
 50
90.00000000000000
100
AcDbRotatedDimension
1001
ACAD
1000
DSTYLE
1002
{
1070
   173
1070
     1
1070
     6
1000
_OPEN
1070
     7
1000
_OPEN
1070
    41
1040
2.000000
1002
}
  0
DIMENSION
  5
1A6
100
AcDbEntity
  8
MAIN0
  6
CONTINUOUS
 62
3
100
AcDbDimension
  2
*D17
 10
226.3818191946583
 20
345.5727150085500
 30
0.0000000000000000
 11
239.8341723236598
 21
346.0727150085500
 31
0.0000000000000000
 70
160
  3
MAIN001
100
AcDbAlignedDimension
 13
253.5818191947794
 23
331.5727150085498
 33
0.0000000000000000
 14
226.3818191946583
 24
327.2230419892575
 34
0.0000000000000000
100
AcDbRotatedDimension
1001
ACAD
1000
DSTYLE
1002
{
1070
   173
1070
     1
1070
     6
1000
_OPEN
1070
     7
1000
_OPEN
1070
    41
1040
2.000000
1002
}
  0
MTEXT
  5
1A7
100
AcDbEntity
  8
MAIN0
  6
CONTINUOUS
 62
3
100
AcDbMText
 10
268.2719895311482
 20
278.9400339186872
 30
0.0000000000000000
 40
3.099999904632568
 41
0.0000000000000000
 71
     1
 72
     1
  1
{\H0.66x;{MIN 22.9}}
 11
6.123233995736766e-017
 21
1.000000000000000
 31
0.0000000000000000
  7
STANDARD
  0
MTEXT
  5
1A8
100
AcDbEntity
  8
MAIN0
  6
CONTINUOUS
 62
3
100
AcDbMText
 10
268.2772517034283
 20
308.0007759310228
 30
0.0000000000000000
 40
3.000000000000000
 41
0.0000000000000000
 71
     1
 72
     1
  1
{\H0.59x;{MIN 6.75}}
 11
6.123233995736766e-017
 21
1.000000000000000
 31
0.0000000000000000
  7
STANDARD
  0
LINE
  5
1A9
100
AcDbEntity
  8
MAIN0
  6
CONTINUOUS
 62
3
100
AcDbLine
 10
204.1818191946587
 20
202.8230419892578
 30
0.0000000000000000
 11
205.1818191946583
 21
203.8230419892572
 31
0.0000000000000000
  0
LINE
  5
1AA
100
AcDbEntity
  8
MAIN0
  6
CONTINUOUS
 62
3
100
AcDbLine
 10
196.6818191946594
 20
202.8230419892576
 30
0.0000000000000000
 11
204.1818191946585
 21
202.8230419892576
 31
0.0000000000000000
  0
LINE
  5
1AB
100
AcDbEntity
  8
MAIN0
  6
CONTINUOUS
 62
3
100
AcDbLine
 10
196.6818191946585
 20
341.8230419892594
 30
0.0000000000000000
 11
191.0402805634424
 21
357.3230419892570
 31
0.0000000000000000
  0
LINE
  5
1AC
100
AcDbEntity
  8
MAIN0
  6
CONTINUOUS
 62
3
100
AcDbLine
 10
196.6818191946594
 20
341.8230419892572
 30
0.0000000000000000
 11
204.1818191946585
 21
341.8230419892572
 31
0.0000000000000000
  0
LINE
  5
1AD
100
AcDbEntity
  8
MAIN0
  6
CONTINUOUS
 62
3
100
AcDbLine
 10
204.1818191946587
 20
341.8230419892570
 30
0.0000000000000000
 11
205.1818191946584
 21
340.8230419892576
 31
0.0000000000000000
  0
LINE
  5
1AE
100
AcDbEntity
  8
MAIN0
  6
CONTINUOUS
 62
3
100
AcDbLine
 10
134.4818191946570
 20
193.8230419892577
 30
0.0000000000000000
 11
143.8818191946787
 21
193.8230419892577
 31
0.0000000000000000
  0
LINE
  5
1AF
100
AcDbEntity
  8
MAIN0
  6
CONTINUOUS
 62
3
100
AcDbLine
 10
134.4818191946570
 20
350.8230419892571
 30
0.0000000000000000
 11
143.8818191946787
 21
350.8230419892571
 31
0.0000000000000000
  0
LINE
  5
1B0
100
AcDbEntity
  8
MAIN0
  6
CONTINUOUS
 62
3
100
AcDbLine
 10
134.4818191946573
 20
350.8230419892575
 30
0.0000000000000000
 11
133.8818191946573
 21
350.2230419892576
 31
0.0000000000000000
  0
CIRCLE
  5
1B1
100
AcDbEntity
  8
MAIN0
  6
CONTINUOUS
 62
3
100
AcDbCircle
 10
455.2177920640544
 20
318.5727587375325
 30
0.0000000000000000
 40
6.750000000000000
  0
CIRCLE
  5
1B2
100
AcDbEntity
  8
MAIN0
  6
CONTINUOUS
 62
3
100
AcDbCircle
 10
455.2177920640544
 20
304.5727587375325
 30
0.0000000000000000
 40
6.750000000000000
  0
LINE
  5
1B3
100
AcDbEntity
  8
MAIN0
  6
CONTINUOUS
 62
3
100
AcDbLine
 10
434.9809357071033
 20
318.3743221333958
 30
0.0000000000000000
 11
431.8650915318273
 21
323.7711225534433
 31
0.0000000000000000
  0
LINE
  5
1B4
100
AcDbEntity
  8
MAIN0
  6
CONTINUOUS
 62
3
100
AcDbLine
 10
425.4546562653612
 20
312.8743221333314
 30
0.0000000000000000
 11
422.3388120900840
 21
318.2711225533795
 31
0.0000000000000000
  0
CIRCLE
  5
1B5
100
AcDbEntity
  8
MAIN0
  6
CONTINUOUS
 62
3
100
AcDbCircle
 10
405.2177999083922
 20
272.3230587375330
 30
0.0000000000000000
 40
5.000000000000000
  0
LINE
  5
1B6
100
AcDbEntity
  8
MAIN0
  6
CONTINUOUS
 62
3
100
AcDbLine
 10
408.1045512543403
 20
272.3230587375330
 30
0.0000000000000000
 11
406.6611755813663
 21
274.8230587375330
 31
0.0000000000000000
  0
LINE
  5
1B7
100
AcDbEntity
  8
MAIN0
  6
CONTINUOUS
 62
3
100
AcDbLine
 10
406.6611755813663
 20
274.8230587375330
 30
0.0000000000000000
 11
403.7744242354181
 21
274.8230587375330
 31
0.0000000000000000
  0
LINE
  5
1B8
100
AcDbEntity
  8
MAIN0
  6
CONTINUOUS
 62
3
100
AcDbLine
 10
403.7744242354181
 20
274.8230587375330
 30
0.0000000000000000
 11
402.3310485624440
 21
272.3230587375330
 31
0.0000000000000000
  0
LINE
  5
1B9
100
AcDbEntity
  8
MAIN0
  6
CONTINUOUS
 62
3
100
AcDbLine
 10
402.3310485624440
 20
272.3230587375330
 30
0.0000000000000000
 11
403.7744242354181
 21
269.8230587375330
 31
0.0000000000000000
  0
LINE
  5
1BA
100
AcDbEntity
  8
MAIN0
  6
CONTINUOUS
 62
3
100
AcDbLine
 10
403.7744242354181
 20
269.8230587375330
 30
0.0000000000000000
 11
406.6611755813663
 21
269.8230587375330
 31
0.0000000000000000
  0
LINE
  5
1BB
100
AcDbEntity
  8
MAIN0
  6
CONTINUOUS
 62
3
100
AcDbLine
 10
406.6611755813662
 20
269.8230587375330
 30
0.0000000000000000
 11
408.1045512543403
 21
272.3230587375330
 31
0.0000000000000000
  0
ARC
  5
1BC
100
AcDbEntity
  8
MAIN0
  6
CONTINUOUS
 62
3
100
AcDbCircle
 10
405.2177999083922
 20
272.3230587375330
 30
0.0000000000000000
 40
5.500000000000000
100
AcDbArc
 50
269.9999999999984
 51
449.9999999999915
  0
LINE
  5
1BD
100
AcDbEntity
  8
MAIN0
  6
CONTINUOUS
 62
3
100
AcDbLine
 10
405.2177999083930
 20
277.8230587376081
 30
0.0000000000000000
 11
398.9861115578393
 21
277.8230587376090
 31
0.0000000000000000
  0
LINE
  5
1BE
100
AcDbEntity
  8
MAIN0
  6
CONTINUOUS
 62
3
100
AcDbLine
 10
405.2177999083921
 20
266.8230587374778
 30
0.0000000000000000
 11
398.9861115578373
 21
266.8230587374780
 31
0.0000000000000000
  0
CIRCLE
  5
1BF
100
AcDbEntity
  8
MAIN0
  6
CONTINUOUS
 62
3
100
AcDbCircle
 10
430.2177959862231
 20
229.0217953417068
 30
0.0000000000000000
 40
5.000000000000000
  0
LINE
  5
1C0
100
AcDbEntity
  8
MAIN0
  6
CONTINUOUS
 62
3
100
AcDbLine
 10
431.6611716591971
 20
231.5217953417067
 30
0.0000000000000000
 11
428.7744203132490
 21
231.5217953417068
 31
0.0000000000000000
  0
LINE
  5
1C1
100
AcDbEntity
  8
MAIN0
  6
CONTINUOUS
 62
3
100
AcDbLine
 10
428.7744203132490
 20
231.5217953417068
 30
0.0000000000000000
 11
427.3310446402749
 21
229.0217953417068
 31
0.0000000000000000
  0
LINE
  5
1C2
100
AcDbEntity
  8
MAIN0
  6
CONTINUOUS
 62
3
100
AcDbLine
 10
427.3310446402749
 20
229.0217953417068
 30
0.0000000000000000
 11
428.7744203132489
 21
226.5217953417068
 31
0.0000000000000000
  0
LINE
  5
1C3
100
AcDbEntity
  8
MAIN0
  6
CONTINUOUS
 62
3
100
AcDbLine
 10
428.7744203132489
 20
226.5217953417068
 30
0.0000000000000000
 11
431.6611716591971
 21
226.5217953417067
 31
0.0000000000000000
  0
LINE
  5
1C4
100
AcDbEntity
  8
MAIN0
  6
CONTINUOUS
 62
3
100
AcDbLine
 10
431.6611716591971
 20
226.5217953417068
 30
0.0000000000000000
 11
433.1045473321712
 21
229.0217953417068
 31
0.0000000000000000
  0
LINE
  5
1C5
100
AcDbEntity
  8
MAIN0
  6
CONTINUOUS
 62
3
100
AcDbLine
 10
433.1045473321711
 20
229.0217953417067
 30
0.0000000000000000
 11
431.6611716591971
 21
231.5217953417067
 31
0.0000000000000000
  0
ARC
  5
1C6
100
AcDbEntity
  8
MAIN0
  6
CONTINUOUS
 62
3
100
AcDbCircle
 10
430.2177959862231
 20
229.0217953417068
 30
0.0000000000000000
 40
5.500000000000000
100
AcDbArc
 50
329.9999999999982
 51
509.9999999999915
  0
LINE
  5
1C7
100
AcDbEntity
  8
MAIN0
  6
CENTER
 62
3
100
AcDbLine
 10
426.4677959862230
 20
222.5266048133235
 30
0.0000000000000000
 11
433.9677959862231
 21
235.5169858700900
 31
0.0000000000000000
  0
LINE
  5
1C8
100
AcDbEntity
  8
MAIN0
  6
CONTINUOUS
 62
3
100
AcDbLine
 10
425.4546562653439
 20
231.7717953417450
 30
0.0000000000000000
 11
422.3388120900663
 21
226.3749949216984
 31
0.0000000000000000
  0
LINE
  5
1C9
100
AcDbEntity
  8
MAIN0
  6
CONTINUOUS
 62
3
100
AcDbLine
 10
434.9809357070852
 20
226.2717953416791
 30
0.0000000000000000
 11
431.8650915318076
 21
220.8749949216312
 31
0.0000000000000000
  0
CIRCLE
  5
1CA
100
AcDbEntity
  8
MAIN0
  6
CONTINUOUS
 62
3
100
AcDbCircle
 10
480.2177881418852
 20
229.0217953417064
 30
0.0000000000000000
 40
5.000000000000000
  0
LINE
  5
1CB
100
AcDbEntity
  8
MAIN0
  6
CONTINUOUS
 62
3
100
AcDbLine
 10
478.7744124689111
 20
231.5217953417065
 30
0.0000000000000000
 11
477.3310367959371
 21
229.0217953417065
 31
0.0000000000000000
  0
LINE
  5
1CC
100
AcDbEntity
  8
MAIN0
  6
CONTINUOUS
 62
3
100
AcDbLine
 10
477.3310367959371
 20
229.0217953417065
 30
0.0000000000000000
 11
478.7744124689111
 21
226.5217953417065
 31
0.0000000000000000
  0
LINE
  5
1CD
100
AcDbEntity
  8
MAIN0
  6
CONTINUOUS
 62
3
100
AcDbLine
 10
478.7744124689111
 20
226.5217953417064
 30
0.0000000000000000
 11
481.6611638148592
 21
226.5217953417064
 31
0.0000000000000000
  0
LINE
  5
1CE
100
AcDbEntity
  8
MAIN0
  6
CONTINUOUS
 62
3
100
AcDbLine
 10
481.6611638148592
 20
226.5217953417064
 30
0.0000000000000000
 11
483.1045394878333
 21
229.0217953417064
 31
0.0000000000000000
  0
LINE
  5
1CF
100
AcDbEntity
  8
MAIN0
  6
CONTINUOUS
 62
3
100
AcDbLine
 10
483.1045394878333
 20
229.0217953417064
 30
0.0000000000000000
 11
481.6611638148593
 21
231.5217953417065
 31
0.0000000000000000
  0
LINE
  5
1D0
100
AcDbEntity
  8
MAIN0
  6
CONTINUOUS
 62
3
100
AcDbLine
 10
481.6611638148593
 20
231.5217953417064
 30
0.0000000000000000
 11
478.7744124689111
 21
231.5217953417064
 31
0.0000000000000000
  0
ARC
  5
1D1
100
AcDbEntity
  8
MAIN0
  6
CONTINUOUS
 62
3
100
AcDbCircle
 10
480.2177881418852
 20
229.0217953417064
 30
0.0000000000000000
 40
5.500000000000000
100
AcDbArc
 50
29.99999999999819
 51
209.9999999999914
  0
LINE
  5
1D2
100
AcDbEntity
  8
MAIN0
  6
CENTER
 62
3
100
AcDbLine
 10
483.9677881418851
 20
222.5266048133231
 30
0.0000000000000000
 11
476.4677881418852
 21
235.5169858700897
 31
0.0000000000000000
  0
LINE
  5
1D3
100
AcDbEntity
  8
MAIN0
  6
CONTINUOUS
 62
3
100
AcDbLine
 10
475.4546484210053
 20
226.2717953416696
 30
0.0000000000000000
 11
478.5704925962814
 21
220.8749949216221
 31
0.0000000000000000
  0
LINE
  5
1D4
100
AcDbEntity
  8
MAIN0
  6
CONTINUOUS
 62
3
100
AcDbLine
 10
484.9809278627474
 20
231.7717953417340
 30
0.0000000000000000
 11
488.0967720380247
 21
226.3749949216859
 31
0.0000000000000000
  0
CIRCLE
  5
1D5
100
AcDbEntity
  8
MAIN0
  6
CONTINUOUS
 62
3
100
AcDbCircle
 10
505.2177842197166
 20
272.3230587375323
 30
0.0000000000000000
 40
5.000000000000000
  0
LINE
  5
1D6
100
AcDbEntity
  8
MAIN0
  6
CONTINUOUS
 62
3
100
AcDbLine
 10
502.3310328737684
 20
272.3230587375324
 30
0.0000000000000000
 11
503.7744085467425
 21
269.8230587375323
 31
0.0000000000000000
  0
LINE
  5
1D7
100
AcDbEntity
  8
MAIN0
  6
CONTINUOUS
 62
3
100
AcDbLine
 10
503.7744085467425
 20
269.8230587375323
 30
0.0000000000000000
 11
506.6611598926907
 21
269.8230587375323
 31
0.0000000000000000
  0
LINE
  5
1D8
100
AcDbEntity
  8
MAIN0
  6
CONTINUOUS
 62
3
100
AcDbLine
 10
506.6611598926907
 20
269.8230587375323
 30
0.0000000000000000
 11
508.1045355656647
 21
272.3230587375323
 31
0.0000000000000000
  0
LINE
  5
1D9
100
AcDbEntity
  8
MAIN0
  6
CONTINUOUS
 62
3
100
AcDbLine
 10
508.1045355656647
 20
272.3230587375323
 30
0.0000000000000000
 11
506.6611598926907
 21
274.8230587375323
 31
0.0000000000000000
  0
LINE
  5
1DA
100
AcDbEntity
  8
MAIN0
  6
CONTINUOUS
 62
3
100
AcDbLine
 10
506.6611598926907
 20
274.8230587375323
 30
0.0000000000000000
 11
503.7744085467425
 21
274.8230587375323
 31
0.0000000000000000
  0
LINE
  5
1DB
100
AcDbEntity
  8
MAIN0
  6
CONTINUOUS
 62
3
100
AcDbLine
 10
503.7744085467426
 20
274.8230587375323
 30
0.0000000000000000
 11
502.3310328737685
 21
272.3230587375323
 31
0.0000000000000000
  0
ARC
  5
1DC
100
AcDbEntity
  8
MAIN0
  6
CONTINUOUS
 62
3
100
AcDbCircle
 10
505.2177842197166
 20
272.3230587375323
 30
0.0000000000000000
 40
5.500000000000000
100
AcDbArc
 50
89.99999999999814
 51
269.9999999999914
  0
LINE
  5
1DD
100
AcDbEntity
  8
MAIN0
  6
CONTINUOUS
 62
3
100
AcDbLine
 10
505.2177842197158
 20
266.8230587374573
 30
0.0000000000000000
 11
511.4494725702695
 21
266.8230587374563
 31
0.0000000000000000
  0
LINE
  5
1DE
100
AcDbEntity
  8
MAIN0
  6
CONTINUOUS
 62
3
100
AcDbLine
 10
505.2177842197167
 20
277.8230587375875
 30
0.0000000000000000
 11
511.4494725702714
 21
277.8230587375873
 31
0.0000000000000000
  0
CIRCLE
  5
1DF
100
AcDbEntity
  8
MAIN0
  6
CONTINUOUS
 62
3
100
AcDbCircle
 10
480.2177881418859
 20
315.6243221333587
 30
0.0000000000000000
 40
5.000000000000000
  0
LINE
  5
1E0
100
AcDbEntity
  8
MAIN0
  6
CONTINUOUS
 62
3
100
AcDbLine
 10
478.7744124689118
 20
313.1243221333587
 30
0.0000000000000000
 11
481.6611638148599
 21
313.1243221333587
 31
0.0000000000000000
  0
LINE
  5
1E1
100
AcDbEntity
  8
MAIN0
  6
CONTINUOUS
 62
3
100
AcDbLine
 10
481.6611638148599
 20
313.1243221333587
 30
0.0000000000000000
 11
483.1045394878340
 21
315.6243221333587
 31
0.0000000000000000
  0
LINE
  5
1E2
100
AcDbEntity
  8
MAIN0
  6
CONTINUOUS
 62
3
100
AcDbLine
 10
483.1045394878340
 20
315.6243221333587
 30
0.0000000000000000
 11
481.6611638148600
 21
318.1243221333587
 31
0.0000000000000000
  0
LINE
  5
1E3
100
AcDbEntity
  8
MAIN0
  6
CONTINUOUS
 62
3
100
AcDbLine
 10
481.6611638148600
 20
318.1243221333587
 30
0.0000000000000000
 11
478.7744124689118
 21
318.1243221333587
 31
0.0000000000000000
  0
LINE
  5
1E4
100
AcDbEntity
  8
MAIN0
  6
CONTINUOUS
 62
3
100
AcDbLine
 10
478.7744124689118
 20
318.1243221333587
 30
0.0000000000000000
 11
477.3310367959377
 21
315.6243221333587
 31
0.0000000000000000
  0
LINE
  5
1E5
100
AcDbEntity
  8
MAIN0
  6
CONTINUOUS
 62
3
100
AcDbLine
 10
477.3310367959378
 20
315.6243221333587
 30
0.0000000000000000
 11
478.7744124689118
 21
313.1243221333587
 31
0.0000000000000000
  0
ARC
  5
1E6
100
AcDbEntity
  8
MAIN0
  6
CONTINUOUS
 62
3
100
AcDbCircle
 10
480.2177881418859
 20
315.6243221333587
 30
0.0000000000000000
 40
5.500000000000000
100
AcDbArc
 50
149.9999999999981
 51
329.9999999999913
  0
LINE
  5
1E7
100
AcDbEntity
  8
MAIN0
  6
CENTER
 62
3
100
AcDbLine
 10
483.9677881418859
 20
322.1195126617419
 30
0.0000000000000000
 11
476.4677881418858
 21
309.1291316049754
 31
0.0000000000000000
  0
LINE
  5
1E8
100
AcDbEntity
  8
MAIN0
  6
CONTINUOUS
 62
3
100
AcDbLine
 10
484.9809278627649
 20
312.8743221333204
 30
0.0000000000000000
 11
488.0967720380426
 21
318.2711225533669
 31
0.0000000000000000
  0
LINE
  5
1E9
100
AcDbEntity
  8
MAIN0
  6
CONTINUOUS
 62
3
100
AcDbLine
 10
475.4546484210237
 20
318.3743221333863
 30
0.0000000000000000
 11
478.5704925963013
 21
323.7711225534342
 31
0.0000000000000000
  0
LINE
  5
1EA
100
AcDbEntity
  8
MAIN0
  6
CENTER
 62
3
100
AcDbLine
 10
363.2177753157792
 20
272.3230587375327
 30
0.0000000000000000
 11
547.2178088123295
 21
272.3230587375327
 31
0.0000000000000000
  0
ARC
  5
1EB
100
AcDbEntity
  8
MAIN0
  6
CENTER
 62
3
100
AcDbCircle
 10
455.2177920640544
 20
272.3230587375327
 30
0.0000000000000000
 40
49.99999215566221
100
AcDbArc
 50
111.4024498615421
 51
128.5975501384575
  0
LINE
  5
1EC
100
AcDbEntity
  8
MAIN0
  6
CENTER
 62
3
100
AcDbLine
 10
426.4677959862238
 20
322.1195126617424
 30
0.0000000000000000
 11
433.9677959862237
 21
309.1291316049758
 31
0.0000000000000000
  0
ARC
  5
1ED
100
AcDbEntity
  8
MAIN0
  6
CENTER
 62
3
100
AcDbCircle
 10
455.2177920640544
 20
272.3230587375327
 30
0.0000000000000000
 40
49.99999215566221
100
AcDbArc
 50
171.4024498615421
 51
188.5975501384574
  0
ARC
  5
1EE
100
AcDbEntity
  8
MAIN0
  6
CENTER
 62
3
100
AcDbCircle
 10
455.2177920640544
 20
272.3230587375327
 30
0.0000000000000000
 40
49.99999215566221
100
AcDbArc
 50
231.4024498615420
 51
248.5975501384573
  0
ARC
  5
1EF
100
AcDbEntity
  8
MAIN0
  6
CENTER
 62
3
100
AcDbCircle
 10
455.2177920640544
 20
272.3230587375327
 30
0.0000000000000000
 40
49.99999215566221
100
AcDbArc
 50
291.4024498615419
 51
308.5975501384572
  0
ARC
  5
1F0
100
AcDbEntity
  8
MAIN0
  6
CENTER
 62
3
100
AcDbCircle
 10
455.2177920640544
 20
272.3230587375327
 30
0.0000000000000000
 40
49.99999215566221
100
AcDbArc
 50
351.4024498615419
 51
368.5975501384572
  0
ARC
  5
1F1
100
AcDbEntity
  8
MAIN0
  6
CENTER
 62
3
100
AcDbCircle
 10
455.2177920640544
 20
272.3230587375327
 30
0.0000000000000000
 40
49.99999215566221
100
AcDbArc
 50
51.40244986154183
 51
68.59755013845712
  0
LINE
  5
1F2
100
AcDbEntity
  8
MAIN0
  6
CONTINUOUS
 62
3
100
AcDbLine
 10
452.2177920640544
 20
194.3230419892594
 30
0.0000000000000000
 11
458.2177920640544
 21
194.3230419892558
 31
0.0000000000000000
  0
LINE
  5
1F3
100
AcDbEntity
  8
MAIN0
  6
CONTINUOUS
 62
3
100
AcDbLine
 10
452.2177920640544
 20
187.3747815021548
 30
0.0000000000000000
 11
452.2177920640544
 21
194.3230419892594
 31
0.0000000000000000
  0
LINE
  5
1F4
100
AcDbEntity
  8
MAIN0
  6
CONTINUOUS
 62
3
100
AcDbLine
 10
458.2177920640544
 20
187.3747815021546
 30
0.0000000000000000
 11
458.2177920640544
 21
194.3230419892558
 31
0.0000000000000000
  0
ARC
  5
1F5
100
AcDbEntity
  8
MAIN0
  6
CONTINUOUS
 62
3
100
AcDbCircle
 10
455.2177920640544
 20
272.3230587375327
 30
0.0000000000000000
 40
70.87373870946779
100
AcDbArc
 50
75.16186425551030
 51
104.8381357444897
  0
ARC
  5
1F6
100
AcDbEntity
  8
MAIN0
  6
CONTINUOUS
 62
3
100
AcDbCircle
 10
455.2177920640544
 20
272.3230587375327
 30
0.0000000000000000
 40
70.87373870946779
100
AcDbArc
 50
195.1618642555102
 51
224.8381357444896
  0
ARC
  5
1F7
100
AcDbEntity
  8
MAIN0
  6
CONTINUOUS
 62
3
100
AcDbCircle
 10
455.2177920640544
 20
272.3230587375327
 30
0.0000000000000000
 40
70.87373870946779
100
AcDbArc
 50
315.1618642555101
 51
344.8381357444894
  0
LINE
  5
1F8
100
AcDbEntity
  8
MAIN0
  6
CONTINUOUS
 62
3
100
AcDbLine
 10
150.0818191946690
 20
354.8230419892574
 30
0.0000000000000000
 11
151.0818191946690
 21
354.8230419892574
 31
0.0000000000000000
  0
LINE
  5
1F9
100
AcDbEntity
  8
MAIN0
  6
CONTINUOUS
 62
3
100
AcDbLine
 10
145.3555397530558
 20
356.3230419892574
 30
0.0000000000000000
 11
150.0818191946697
 21
356.3230419892574
 31
0.0000000000000000
  0
LINE
  5
1FA
100
AcDbEntity
  8
MAIN0
  6
CONTINUOUS
 62
3
100
AcDbLine
 10
143.8818191946786
 20
350.8230419892570
 30
0.0000000000000000
 11
145.3555397530558
 21
356.3230419892574
 31
0.0000000000000000
  0
LINE
  5
1FB
100
AcDbEntity
  8
MAIN0
  6
CONTINUOUS
 62
3
100
AcDbLine
 10
143.8818191946787
 20
193.8230419892577
 30
0.0000000000000000
 11
145.3555397530558
 21
188.3230419892574
 31
0.0000000000000000
  0
LINE
  5
1FC
100
AcDbEntity
  8
MAIN0
  6
CONTINUOUS
 62
3
100
AcDbLine
 10
145.3555397530558
 20
188.3230419892574
 30
0.0000000000000000
 11
150.0818191946697
 21
188.3230419892574
 31
0.0000000000000000
  0
LINE
  5
1FD
100
AcDbEntity
  8
MAIN0
  6
CONTINUOUS
 62
3
100
AcDbLine
 10
150.0818191946690
 20
189.8230419892574
 30
0.0000000000000000
 11
151.0818191946690
 21
189.8230419892574
 31
0.0000000000000000
  0
DIMENSION
  5
206
100
AcDbEntity
  8
MAIN0
  6
CONTINUOUS
 62
3
100
AcDbDimension
  2
*D18
 10
72.55242780129447
 20
357.3230419892570
 30
0.0000000000000000
 11
72.05242780129447
 21
272.3230587375327
 31
0.0000000000000000
 70
160
  1
\A1;\U+2205170
  3
MAIN001
100
AcDbAlignedDimension
 13
181.6818191946487
 23
187.3230419892576
 33
0.0000000000000000
 14
181.6818191946587
 24
357.3230419892570
 34
0.0000000000000000
 50
90.00000000000000
100
AcDbRotatedDimension
1001
ACAD
1000
DSTYLE
1002
{
1070
   173
1070
     1
1070
     6
1000
_OPEN
1070
     7
1000
_OPEN
1070
    41
1040
2.000000
1002
}
  0
DIMENSION
  5
20F
100
AcDbEntity
  8
MAIN0
  6
CONTINUOUS
 62
3
100
AcDbDimension
  2
*D19
 10
82.14326835236295
 20
350.8230419892571
 30
0.0000000000000000
 11
81.64326835236295
 21
272.3230419892574
 31
0.0000000000000000
 70
32
  1
\A1;\U+2205157
  3
MAIN001
100
AcDbAlignedDimension
 13
134.4818191946570
 23
193.8230419892577
 33
0.0000000000000000
 14
134.4818191946570
 24
350.8230419892571
 34
0.0000000000000000
 50
90.00000000000000
100
AcDbRotatedDimension
1001
ACAD
1000
DSTYLE
1002
{
1070
   173
1070
     1
1070
     6
1000
_OPEN
1070
     7
1000
_OPEN
1070
    41
1040
2.000000
1002
}
  0
DIMENSION
  5
218
100
AcDbEntity
  8
MAIN0
  6
CONTINUOUS
 62
3
100
AcDbDimension
  2
*D20
 10
133.3818191946583
 20
382.3230587375327
 30
0.0000000000000000
 11
179.8818191946583
 21
382.8230587375327
 31
0.0000000000000000
 70
32
  3
MAIN001
100
AcDbAlignedDimension
 13
226.3818191946583
 23
327.2230419892575
 33
0.0000000000000000
 14
133.3818191946583
 24
334.8230419892581
 34
0.0000000000000000
100
AcDbRotatedDimension
1001
ACAD
1000
DSTYLE
1002
{
1070
   173
1070
     1
1070
     6
1000
_OPEN
1070
     7
1000
_OPEN
1070
    41
1040
2.000000
1002
}
  0
LINE
  5
219
100
AcDbEntity
  8
MAIN0
  6
CONTINUOUS
 62
3
100
AcDbLine
 10
205.1818191946583
 20
203.8230419892576
 30
0.0000000000000000
 11
205.1818191946583
 21
340.8230419892572
 31
0.0000000000000000
  0
LINE
  5
21A
100
AcDbEntity
  8
MAIN0
  6
CONTINUOUS
 62
3
100
AcDbLine
 10
196.6818191946585
 20
341.8230419892595
 30
0.0000000000000000
 11
196.6818191946585
 21
202.8230419892553
 31
0.0000000000000000
  0
LINE
  5
21B
100
AcDbEntity
  8
MAIN0
  6
CONTINUOUS
 62
3
100
AcDbLine
 10
191.0402805634424
 20
357.3230419892570
 30
0.0000000000000000
 11
191.0402805634424
 21
187.3230419892577
 31
0.0000000000000000
  0
LINE
  5
21C
100
AcDbEntity
  8
MAIN0
  6
CONTINUOUS
 62
3
100
AcDbLine
 10
181.6818191946487
 20
187.3230419892587
 30
0.0000000000000000
 11
181.6818191946587
 21
357.3230419892570
 31
0.0000000000000000
  0
LINE
  5
21D
100
AcDbEntity
  8
MAIN0
  6
CONTINUOUS
 62
3
100
AcDbLine
 10
151.0818191946696
 20
188.3230419892576
 30
0.0000000000000000
 11
151.0818191946696
 21
356.3230419892570
 31
0.0000000000000000
  0
LINE
  5
21E
100
AcDbEntity
  8
MAIN0
  6
CONTINUOUS
 62
3
100
AcDbLine
 10
150.0818191946697
 20
188.3230419892574
 30
0.0000000000000000
 11
150.0818191946697
 21
356.3230419892574
 31
0.0000000000000000
  0
DIMENSION
  5
227
100
AcDbEntity
  8
MAIN0
  6
CONTINUOUS
 62
3
100
AcDbDimension
  2
*D21
 10
133.3818191946583
 20
372.3230587375327
 30
0.0000000000000000
 11
149.8818191946587
 21
372.8230587375327
 31
0.0000000000000000
 70
32
  3
MAIN001
100
AcDbAlignedDimension
 13
166.3818191946590
 23
357.8304978944098
 33
0.0000000000000000
 14
133.3818191946583
 24
334.8230419892581
 34
0.0000000000000000
100
AcDbRotatedDimension
1001
ACAD
1000
DSTYLE
1002
{
1070
   173
1070
     1
1070
     6
1000
_OPEN
1070
     7
1000
_OPEN
1070
    41
1040
2.000000
1002
}
  0
DIMENSION
  5
230
100
AcDbEntity
  8
MAIN0
  6
CONTINUOUS
 62
3
100
AcDbDimension
  2
*D22
 10
133.3818191946583
 20
172.3230587375327
 30
0.0000000000000000
 11
149.8818191946589
 21
172.8230587375327
 31
0.0000000000000000
 70
32
  3
MAIN001
100
AcDbAlignedDimension
 13
166.3818191946594
 23
183.7016221214083
 33
0.0000000000000000
 14
133.3818191946583
 24
209.8230419892568
 34
0.0000000000000000
100
AcDbRotatedDimension
1001
ACAD
1000
DSTYLE
1002
{
1070
   173
1070
     1
1070
     6
1000
_OPEN
1070
     7
1000
_OPEN
1070
    41
1040
2.000000
1002
}
  0
SPLINE
  5
231
100
AcDbEntity
  8
MAIN0
  6
CONTINUOUS
 62
3
100
AcDbSpline
210
0.0000000000000000
220
0.0000000000000000
230
1.000000000000000
 70
     8
 71
     3
 72
    16
 73
    12
 74
     0
 42
1.000000000000000e-007
 43
1.000000000000000e-007
 12
0.7943226457369121
 22
-0.5700791415684989
 32
0.0000000000000000
 13
-0.6050152281887478
 23
-0.8714395766788528
 33
0.0000000000000000
 40
0.0000000000000000
 40
0.0000000000000000
 40
0.0000000000000000
 40
0.0000000000000000
 40
6.635020431713861
 40
13.10005169054177
 40
23.73193324905920
 40
39.54995823104591
 40
52.56899416300365
 40
71.25468047788303
 40
97.62059168759467
 40
105.7755161908993
 40
110.5852549556501
 40
110.5852549556501
 40
110.5852549556501
 40
110.5852549556501
 10
133.3818191946583
 20
319.2959377937990
 30
0.0000000000000000
 10
135.1386015226041
 20
318.0351088764654
 30
0.0000000000000000
 10
138.6071574286445
 20
315.5457534690498
 30
0.0000000000000000
 10
148.3620751499635
 20
314.5140816503622
 30
0.0000000000000000
 10
142.4349792206594
 20
300.4231109593334
 30
0.0000000000000000
 10
141.0836414638296
 20
288.5970477234112
 30
0.0000000000000000
 10
148.3241717364824
 20
272.5871892664881
 30
0.0000000000000000
 10
138.3024585301363
 20
256.2657035710520
 30
0.0000000000000000
 10
154.3265453615283
 20
226.5000197890109
 30
0.0000000000000000
 10
136.9664138285905
 20
231.1275835228772
 30
0.0000000000000000
 10
134.3518075934196
 20
227.3616099661778
 30
0.0000000000000000
 10
133.3818191946583
 20
225.9644777284811
 30
0.0000000000000000
  0
CIRCLE
  5
232
100
AcDbEntity
  8
MAIN0
  6
HIDDEN
 62
3
100
AcDbCircle
 10
455.2177920640544
 20
272.3230587375327
 30
0.0000000000000000
 40
84.00000000000000
  0
INSERT
  5
23A
100
AcDbEntity
  8
MAIN0
  6
CONTINUOUS
 62
3
100
AcDbBlockReference
  2
D23
 10
237.7991030436531
 20
272.3230419892574
 30
0.0000000000000000
 50
0.0000000000000000
  0
MTEXT
  5
23B
100
AcDbEntity
  8
MAIN0
  6
CONTINUOUS
 62
3
100
AcDbMText
 10
493.5333098575501
 20
266.1451603547105
 30
0.0000000000000000
 40
4.000000000000000
 41
0.0000000000000000
 71
     1
 72
     1
  1
{\H0.63x;{KITAGAWA}}
 11
-0.08715574274798185
 21
0.9961946980917172
 31
0.0000000000000000
  7
STANDARD
  0
MTEXT
  5
23C
100
AcDbEntity
  8
MAIN0
  6
CONTINUOUS
 62
3
100
AcDbMText
 10
504.6833753467926
 20
281.1784566888959
 30
0.0000000000000000
 40
4.000000000000000
 41
0.0000000000000000
 71
     1
 72
     1
  1
{\H0.63x;{NRC04}}
 11
-0.2923717047230537
 21
0.9563047559629386
 31
0.0000000000000000
  7
STANDARD
  0
LINE
  5
23D
100
AcDbEntity
  8
MAIN0
  6
CONTINUOUS
 62
3
100
AcDbLine
 10
143.8818191946787
 20
193.8230419892577
 30
0.0000000000000000
 11
143.8818191309664
 21
229.8698218911808
 31
0.0000000000000000
  0
LINE
  5
23E
100
AcDbEntity
  8
MAIN0
  6
CONTINUOUS
 62
3
100
AcDbLine
 10
143.8818191946787
 20
350.8230419892571
 30
0.0000000000000000
 11
143.8818191728195
 21
314.5932275019555
 31
0.0000000000000000
  0
CIRCLE
  5
23F
100
AcDbEntity
  8
MAIN0
  6
CONTINUOUS
 62
3
100
AcDbCircle
 10
455.2177920640544
 20
272.3230587375327
 30
0.0000000000000000
 40
85.00000000000000
  0
ARC
  5
240
100
AcDbEntity
  8
MAIN0
  6
CENTER
 62
3
100
AcDbCircle
 10
455.2177920640544
 20
230.8230419889658
 30
0.0000000000000000
 40
4.999999999213856
100
AcDbArc
 50
229.1827973908633
 51
309.8229196868746
  0
ARC
  5
241
100
AcDbEntity
  8
MAIN0
  6
CENTER
 62
3
100
AcDbCircle
 10
455.2177920640544
 20
230.8230419889658
 30
0.0000000000000000
 40
4.999999999213856
100
AcDbArc
 50
49.18279739086329
 51
129.8229196868747
  0
LINE
  5
242
100
AcDbEntity
  8
MAIN0
  6
CONTINUOUS
 62
3
100
AcDbLine
 10
319.4298437934664
 20
110.3806140013881
 30
0.0000000000000000
 11
307.4298437934664
 21
110.3806140013882
 31
0.0000000000000000
  0
LINE
  5
243
100
AcDbEntity
  8
MAIN0
  6
CONTINUOUS
 62
3
100
AcDbLine
 10
307.4298437934670
 20
110.3806140013896
 30
0.0000000000000000
 11
307.4298437934561
 21
119.3806140013896
 31
0.0000000000000000
  0
LINE
  5
244
100
AcDbEntity
  8
MAIN0
  6
CONTINUOUS
 62
3
100
AcDbLine
 10
319.4298437934582
 20
119.3806140013882
 30
0.0000000000000000
 11
307.4298437934555
 21
119.3806140013882
 31
0.0000000000000000
  0
LINE
  5
245
100
AcDbEntity
  8
MAIN0
  6
CONTINUOUS
 62
3
100
AcDbLine
 10
319.4298437934668
 20
110.3806140013873
 30
0.0000000000000000
 11
319.4298437934586
 21
119.3806140013873
 31
0.0000000000000000
  0
LINE
  5
246
100
AcDbEntity
  8
MAIN0
  6
CONTINUOUS
 62
3
100
AcDbLine
 10
307.4298437934664
 20
110.3806140013882
 30
0.0000000000000000
 11
295.4298437934637
 21
110.3806140013882
 31
0.0000000000000000
  0
LINE
  5
247
100
AcDbEntity
  8
MAIN0
  6
CONTINUOUS
 62
3
100
AcDbLine
 10
295.4298437934641
 20
110.3806140013873
 30
0.0000000000000000
 11
295.4298437934559
 21
119.3806140013873
 31
0.0000000000000000
  0
LINE
  5
248
100
AcDbEntity
  8
MAIN0
  6
CONTINUOUS
 62
3
100
AcDbLine
 10
307.4298437934555
 20
119.3806140013882
 30
0.0000000000000000
 11
295.4298437934555
 21
119.3806140013882
 31
0.0000000000000000
  0
LINE
  5
249
100
AcDbEntity
  8
MAIN0
  6
CONTINUOUS
 62
3
100
AcDbLine
 10
331.4298437934691
 20
110.3806140013882
 30
0.0000000000000000
 11
319.4298437934664
 21
110.3806140013882
 31
0.0000000000000000
  0
LINE
  5
24A
100
AcDbEntity
  8
MAIN0
  6
CONTINUOUS
 62
3
100
AcDbLine
 10
331.4298437934582
 20
119.3806140013882
 30
0.0000000000000000
 11
319.4298437934582
 21
119.3806140013882
 31
0.0000000000000000
  0
LINE
  5
24B
100
AcDbEntity
  8
MAIN0
  6
CONTINUOUS
 62
3
100
AcDbLine
 10
331.4298437934697
 20
110.3806140013895
 30
0.0000000000000000
 11
331.4298437934588
 21
119.3806140013895
 31
0.0000000000000000
  0
LINE
  5
24C
100
AcDbEntity
  8
MAIN0
  6
CONTINUOUS
 62
3
100
AcDbLine
 10
314.2928528928785
 20
112.6306140013883
 30
0.0000000000000000
 11
312.5668346940563
 21
112.6306140013883
 31
0.0000000000000000
  0
LINE
  5
24D
100
AcDbEntity
  8
MAIN0
  6
CONTINUOUS
 62
3
100
AcDbLine
 10
313.4298437934788
 20
77.55835531601554
 30
0.0000000000000000
 11
313.4298437934674
 21
112.6306140013883
 31
0.0000000000000000
  0
LINE
  5
24E
100
AcDbEntity
  8
MAIN0
  6
CONTINUOUS
 62
3
100
AcDbLine
 10
295.4298437934609
 20
112.0157264314845
 30
0.0000000000000000
 11
289.4298437934610
 21
112.0157264314845
 31
0.0000000000000000
  0
LINE
  5
24F
100
AcDbEntity
  8
MAIN0
  6
CONTINUOUS
 62
3
100
AcDbLine
 10
289.4298437934629
 20
112.0157264314840
 30
0.0000000000000000
 11
289.4298437934607
 21
114.2657264314846
 31
0.0000000000000000
  0
LINE
  5
250
100
AcDbEntity
  8
MAIN0
  6
CONTINUOUS
 62
3
100
AcDbLine
 10
295.4298437934609
 20
114.2657264314845
 30
0.0000000000000000
 11
289.4298437934610
 21
114.2657264314845
 31
0.0000000000000000
  0
LINE
  5
251
100
AcDbEntity
  8
MAIN0
  6
CONTINUOUS
 62
3
100
AcDbLine
 10
290.9298437934605
 20
116.8638026428331
 30
0.0000000000000000
 11
289.4298437934601
 21
114.2657264314794
 31
0.0000000000000000
  0
LINE
  5
252
100
AcDbEntity
  8
MAIN0
  6
CONTINUOUS
 62
3
100
AcDbLine
 10
292.4298437934605
 20
114.2657264314792
 30
0.0000000000000000
 11
290.9298437934604
 21
116.8638026428327
 31
0.0000000000000000
  0
LINE
  5
253
100
AcDbEntity
  8
MAIN0
  6
CONTINUOUS
 62
3
100
AcDbLine
 10
293.9298437934538
 20
116.8638026428357
 30
0.0000000000000000
 11
295.4298437934587
 21
114.2657264314846
 31
0.0000000000000000
  0
LINE
  5
254
100
AcDbEntity
  8
MAIN0
  6
CONTINUOUS
 62
3
100
AcDbLine
 10
292.4298437934580
 20
114.2657264314792
 30
0.0000000000000000
 11
293.9298437934534
 21
116.8638026428354
 31
0.0000000000000000
  0
LINE
  5
255
100
AcDbEntity
  8
MAIN0
  6
CONTINUOUS
 62
3
100
AcDbLine
 10
293.0793628462778
 20
112.0157264314844
 30
0.0000000000000000
 11
291.7803247405980
 21
114.2657264314845
 31
0.0000000000000000
  0
LINE
  5
256
100
AcDbEntity
  8
MAIN0
  6
CONTINUOUS
 62
3
100
AcDbLine
 10
310.8048437934588
 20
105.3806140013883
 30
0.0000000000000000
 11
310.8048437934699
 21
148.1306140013882
 31
0.0000000000000000
  0
LINE
  5
257
100
AcDbEntity
  8
MAIN0
  6
CONTINUOUS
 62
3
100
AcDbLine
 10
310.8048437934618
 20
110.3806140013881
 30
0.0000000000000000
 11
309.8859055572211
 21
113.3863255376206
 31
0.0000000000000000
  0
LINE
  5
258
100
AcDbEntity
  8
MAIN0
  6
CONTINUOUS
 62
3
100
AcDbLine
 10
310.8048437934613
 20
110.3806140013880
 30
0.0000000000000000
 11
311.7237820296996
 21
113.3863255376131
 31
0.0000000000000000
  0
LINE
  5
259
100
AcDbEntity
  8
MAIN0
  6
CONTINUOUS
 62
3
100
AcDbLine
 10
316.0548437934588
 20
105.3806140013240
 30
0.0000000000000000
 11
316.0548437934699
 21
148.1306140013882
 31
0.0000000000000000
  0
LINE
  5
25A
100
AcDbEntity
  8
MAIN0
  6
CONTINUOUS
 62
3
100
AcDbLine
 10
316.0548437934617
 20
110.3806140013882
 30
0.0000000000000000
 11
315.1359055572211
 21
113.3863255376207
 31
0.0000000000000000
  0
LINE
  5
25B
100
AcDbEntity
  8
MAIN0
  6
CONTINUOUS
 62
3
100
AcDbLine
 10
316.0548437934613
 20
110.3806140013882
 30
0.0000000000000000
 11
316.9737820296996
 21
113.3863255376134
 31
0.0000000000000000
  0
LINE
  5
25C
100
AcDbEntity
  8
MAIN0
  6
CONTINUOUS
 62
3
100
AcDbLine
 10
331.4298437934743
 20
112.0157264315032
 30
0.0000000000000000
 11
337.4298437934743
 21
112.0157264315095
 31
0.0000000000000000
  0
LINE
  5
25D
100
AcDbEntity
  8
MAIN0
  6
CONTINUOUS
 62
3
100
AcDbLine
 10
337.4298437934725
 20
112.0157264315091
 30
0.0000000000000000
 11
337.4298437934724
 21
114.2657264315098
 31
0.0000000000000000
  0
LINE
  5
25E
100
AcDbEntity
  8
MAIN0
  6
CONTINUOUS
 62
3
100
AcDbLine
 10
331.4298437934721
 20
114.2657264315032
 30
0.0000000000000000
 11
337.4298437934720
 21
114.2657264315095
 31
0.0000000000000000
  0
LINE
  5
25F
100
AcDbEntity
  8
MAIN0
  6
CONTINUOUS
 62
3
100
AcDbLine
 10
335.9298437934701
 20
116.8638026428567
 30
0.0000000000000000
 11
337.4298437934732
 21
114.2657264315044
 31
0.0000000000000000
  0
LINE
  5
260
100
AcDbEntity
  8
MAIN0
  6
CONTINUOUS
 62
3
100
AcDbLine
 10
334.4298437934727
 20
114.2657264315011
 30
0.0000000000000000
 11
335.9298437934701
 21
116.8638026428562
 31
0.0000000000000000
  0
LINE
  5
261
100
AcDbEntity
  8
MAIN0
  6
CONTINUOUS
 62
3
100
AcDbLine
 10
332.9298437934768
 20
116.8638026428563
 30
0.0000000000000000
 11
331.4298437934745
 21
114.2657264315036
 31
0.0000000000000000
  0
LINE
  5
262
100
AcDbEntity
  8
MAIN0
  6
CONTINUOUS
 62
3
100
AcDbLine
 10
334.4298437934754
 20
114.2657264315013
 30
0.0000000000000000
 11
332.9298437934772
 21
116.8638026428561
 31
0.0000000000000000
  0
LINE
  5
263
100
AcDbEntity
  8
MAIN0
  6
CONTINUOUS
 62
3
100
AcDbLine
 10
333.7803247406574
 20
112.0157264315058
 30
0.0000000000000000
 11
335.0793628463350
 21
114.2657264315072
 31
0.0000000000000000
  0
LINE
  5
264
100
AcDbEntity
  8
MAIN0
  6
CONTINUOUS
 62
3
100
AcDbLine
 10
298.8048437934640
 20
110.3806140013882
 30
0.0000000000000000
 11
298.8048437934627
 21
112.6306140013819
 31
0.0000000000000000
  0
LINE
  5
265
100
AcDbEntity
  8
MAIN0
  6
CONTINUOUS
 62
3
100
AcDbLine
 10
299.6678528928740
 20
112.6306140013818
 30
0.0000000000000000
 11
297.9418346940518
 21
112.6306140013818
 31
0.0000000000000000
  0
LINE
  5
266
100
AcDbEntity
  8
MAIN0
  6
CONTINUOUS
 62
3
100
AcDbLine
 10
328.0548437934730
 20
110.3806140014038
 30
0.0000000000000000
 11
328.0548437934718
 21
112.6306140013974
 31
0.0000000000000000
  0
LINE
  5
267
100
AcDbEntity
  8
MAIN0
  6
CONTINUOUS
 62
3
100
AcDbLine
 10
327.1918346940608
 20
112.6306140013961
 30
0.0000000000000000
 11
328.9178528928830
 21
112.6306140013980
 31
0.0000000000000000
  0
LINE
  5
268
100
AcDbEntity
  8
MAIN0
  6
CONTINUOUS
 62
3
100
AcDbLine
 10
302.8048437934587
 20
97.00561400146285
 30
0.0000000000000000
 11
302.8048437934586
 21
85.00561400146290
 31
0.0000000000000000
  0
LINE
  5
269
100
AcDbEntity
  8
MAIN0
  6
CONTINUOUS
 62
3
100
AcDbLine
 10
308.8048437934587
 20
97.00561400146290
 30
0.0000000000000000
 11
308.8048437934586
 21
85.00561400146290
 31
0.0000000000000000
  0
LINE
  5
26A
100
AcDbEntity
  8
MAIN0
  6
CONTINUOUS
 62
3
100
AcDbLine
 10
308.8048437934588
 20
97.00561400146299
 30
0.0000000000000000
 11
302.8048437934588
 21
97.00561400146299
 31
0.0000000000000000
  0
LINE
  5
26B
100
AcDbEntity
  8
MAIN0
  6
CONTINUOUS
 62
3
100
AcDbLine
 10
308.8048437934586
 20
85.00561400146299
 30
0.0000000000000000
 11
302.8048437934586
 21
85.00561400146299
 31
0.0000000000000000
  0
LINE
  5
26C
100
AcDbEntity
  8
MAIN0
  6
CONTINUOUS
 62
3
100
AcDbLine
 10
308.8048437934585
 20
85.00561400094563
 30
0.0000000000000000
 11
305.8048437934583
 21
82.00561400093986
 31
0.0000000000000000
  0
LINE
  5
26D
100
AcDbEntity
  8
MAIN0
  6
CONTINUOUS
 62
3
100
AcDbLine
 10
302.8048437934587
 20
85.00561400094543
 30
0.0000000000000000
 11
305.8048437934585
 21
82.00561400093994
 31
0.0000000000000000
  0
LINE
  5
26E
100
AcDbEntity
  8
MAIN0
  6
CONTINUOUS
 62
3
100
AcDbLine
 10
305.8048437934588
 20
95.00561400146299
 30
0.0000000000000000
 11
302.8048437934588
 21
95.00561400146299
 31
0.0000000000000000
  0
LINE
  5
26F
100
AcDbEntity
  8
MAIN0
  6
CONTINUOUS
 62
3
100
AcDbLine
 10
305.8048437934586
 20
87.00561400146299
 30
0.0000000000000000
 11
302.8048437934586
 21
87.00561400146299
 31
0.0000000000000000
  0
LINE
  5
270
100
AcDbEntity
  8
MAIN0
  6
CONTINUOUS
 62
3
100
AcDbLine
 10
308.8048437934588
 20
91.00561400146299
 30
0.0000000000000000
 11
305.8048437934588
 21
91.00561400146299
 31
0.0000000000000000
  0
LINE
  5
271
100
AcDbEntity
  8
MAIN0
  6
CONTINUOUS
 62
3
100
AcDbLine
 10
318.0548437934587
 20
97.00561400146287
 30
0.0000000000000000
 11
318.0548437934586
 21
85.00561400146293
 31
0.0000000000000000
  0
LINE
  5
272
100
AcDbEntity
  8
MAIN0
  6
CONTINUOUS
 62
3
100
AcDbLine
 10
324.0548437934587
 20
97.00561400146285
 30
0.0000000000000000
 11
324.0548437934586
 21
85.00561400146285
 31
0.0000000000000000
  0
LINE
  5
273
100
AcDbEntity
  8
MAIN0
  6
CONTINUOUS
 62
3
100
AcDbLine
 10
324.0548437934588
 20
97.00561400146293
 30
0.0000000000000000
 11
318.0548437934588
 21
97.00561400146299
 31
0.0000000000000000
  0
LINE
  5
274
100
AcDbEntity
  8
MAIN0
  6
CONTINUOUS
 62
3
100
AcDbLine
 10
324.0548437934588
 20
85.00561400146293
 30
0.0000000000000000
 11
318.0548437934588
 21
85.00561400146299
 31
0.0000000000000000
  0
LINE
  5
275
100
AcDbEntity
  8
MAIN0
  6
CONTINUOUS
 62
3
100
AcDbLine
 10
324.0548437934586
 20
85.00561400094586
 30
0.0000000000000000
 11
321.0548437934585
 21
82.00561400094000
 31
0.0000000000000000
  0
LINE
  5
276
100
AcDbEntity
  8
MAIN0
  6
CONTINUOUS
 62
3
100
AcDbLine
 10
318.0548437934589
 20
85.00561400094568
 30
0.0000000000000000
 11
321.0548437934586
 21
82.00561400094031
 31
0.0000000000000000
  0
LINE
  5
277
100
AcDbEntity
  8
MAIN0
  6
CONTINUOUS
 62
3
100
AcDbLine
 10
321.0548437934588
 20
95.00561400146296
 30
0.0000000000000000
 11
318.0548437934588
 21
95.00561400146302
 31
0.0000000000000000
  0
LINE
  5
278
100
AcDbEntity
  8
MAIN0
  6
CONTINUOUS
 62
3
100
AcDbLine
 10
321.0548437934588
 20
87.00561400146296
 30
0.0000000000000000
 11
318.0548437934588
 21
87.00561400146302
 31
0.0000000000000000
  0
LINE
  5
279
100
AcDbEntity
  8
MAIN0
  6
CONTINUOUS
 62
3
100
AcDbLine
 10
324.0548437934588
 20
91.00561400146287
 30
0.0000000000000000
 11
321.0548437934588
 21
91.00561400146287
 31
0.0000000000000000
  0
MTEXT
  5
27A
100
AcDbEntity
  8
MAIN0
  6
CONTINUOUS
 62
3
100
AcDbMText
 10
323.0884573698628
 20
101.6076244693135
 30
0.0000000000000000
 40
3.099999904632568
 41
0.0000000000000000
 71
     1
 72
     1
  1
{\H0.91x;{EXH2}}
 11
1.000000000000000
 21
0.0000000000000000
 31
0.0000000000000000
  7
STANDARD
  0
MTEXT
  5
27B
100
AcDbEntity
  8
MAIN0
  6
CONTINUOUS
 62
3
100
AcDbMText
 10
293.6877064662598
 20
101.7847316741495
 30
0.0000000000000000
 40
3.099999904632568
 41
0.0000000000000000
 71
     1
 72
     1
  1
{\H0.91x;{EXH1}}
 11
1.000000000000000
 21
0.0000000000000000
 31
0.0000000000000000
  7
STANDARD
  0
MTEXT
  5
27C
100
AcDbEntity
  8
MAIN0
  6
CONTINUOUS
 62
3
100
AcDbMText
 10
287.3599786843487
 20
123.3287887951770
 30
0.0000000000000000
 40
3.099999904632568
 41
0.0000000000000000
 71
     1
 72
     1
  1
{\H0.91x;{SOL1}}
 11
1.000000000000000
 21
0.0000000000000000
 31
0.0000000000000000
  7
STANDARD
  0
MTEXT
  5
27D
100
AcDbEntity
  8
MAIN0
  6
CONTINUOUS
 62
3
100
AcDbMText
 10
328.9283005198697
 20
123.5151948176254
 30
0.0000000000000000
 40
3.099999904632568
 41
0.0000000000000000
 71
     1
 72
     1
  1
{\H0.91x;{SOL2}}
 11
1.000000000000000
 21
0.0000000000000000
 31
0.0000000000000000
  7
STANDARD
  0
LINE
  5
27E
100
AcDbEntity
  8
MAIN0
  6
PHANTOM
 62
3
100
AcDbLine
 10
331.6798437934701
 20
151.5013616514175
 30
0.0000000000000000
 11
295.6798437934701
 21
151.5013616514202
 31
0.0000000000000000
  0
LINE
  5
27F
100
AcDbEntity
  8
MAIN0
  6
PHANTOM
 62
3
100
AcDbLine
 10
331.6798437934698
 20
191.5878556573676
 30
0.0000000000000000
 11
295.6798437934698
 21
191.5878556573703
 31
0.0000000000000000
  0
LINE
  5
280
100
AcDbEntity
  8
MAIN0
  6
PHANTOM
 62
3
100
AcDbLine
 10
295.6798437934699
 20
151.5013616514202
 30
0.0000000000000000
 11
295.6798437934699
 21
191.5878556573702
 31
0.0000000000000000
  0
LINE
  5
281
100
AcDbEntity
  8
MAIN0
  6
PHANTOM
 62
3
100
AcDbLine
 10
331.6798437934699
 20
151.5013616514175
 30
0.0000000000000000
 11
331.6798437934699
 21
191.5878556573675
 31
0.0000000000000000
  0
LINE
  5
282
100
AcDbEntity
  8
MAIN0
  6
CONTINUOUS
 62
3
100
AcDbLine
 10
311.9298437934463
 20
171.1306140013882
 30
0.0000000000000000
 11
311.9298437934408
 21
176.1306140013882
 31
0.0000000000000000
  0
LINE
  5
283
100
AcDbEntity
  8
MAIN0
  6
CONTINUOUS
 62
3
100
AcDbLine
 10
306.9298437934463
 20
171.1306140013885
 30
0.0000000000000000
 11
306.9298437934408
 21
176.1306140013882
 31
0.0000000000000000
  0
LINE
  5
284
100
AcDbEntity
  8
MAIN0
  6
CONTINUOUS
 62
3
100
AcDbLine
 10
311.9298437934455
 20
171.1306140013884
 30
0.0000000000000000
 11
306.9298437934455
 21
171.1306140013885
 31
0.0000000000000000
  0
LINE
  5
285
100
AcDbEntity
  8
MAIN0
  6
CONTINUOUS
 62
3
100
AcDbLine
 10
311.9298437934400
 20
176.1306140013884
 30
0.0000000000000000
 11
306.9298437934400
 21
176.1306140013885
 31
0.0000000000000000
  0
LINE
  5
286
100
AcDbEntity
  8
MAIN0
  6
CONTINUOUS
 62
3
100
AcDbLine
 10
319.9298437934463
 20
171.1306140013885
 30
0.0000000000000000
 11
319.9298437934408
 21
176.1306140013878
 31
0.0000000000000000
  0
LINE
  5
287
100
AcDbEntity
  8
MAIN0
  6
CONTINUOUS
 62
3
100
AcDbLine
 10
314.9298437934463
 20
171.1306140013879
 30
0.0000000000000000
 11
314.9298437934408
 21
176.1306140013878
 31
0.0000000000000000
  0
LINE
  5
288
100
AcDbEntity
  8
MAIN0
  6
CONTINUOUS
 62
3
100
AcDbLine
 10
319.9298437934455
 20
171.1306140013884
 30
0.0000000000000000
 11
314.9298437934455
 21
171.1306140013884
 31
0.0000000000000000
  0
LINE
  5
289
100
AcDbEntity
  8
MAIN0
  6
CONTINUOUS
 62
3
100
AcDbLine
 10
319.9298437934400
 20
176.1306140013884
 30
0.0000000000000000
 11
314.9298437934400
 21
176.1306140013884
 31
0.0000000000000000
  0
CIRCLE
  5
28A
100
AcDbEntity
  8
MAIN0
  6
CONTINUOUS
 62
3
100
AcDbCircle
 10
309.4367279749064
 20
174.2439439384716
 30
0.0000000000000000
 40
0.9393980633231109
  0
LINE
  5
28B
100
AcDbEntity
  8
MAIN0
  6
CONTINUOUS
 62
3
100
AcDbLine
 10
309.4509550675257
 20
172.8924016180289
 30
0.0000000000000000
 11
307.8433305072734
 21
174.5000261782848
 31
0.0000000000000000
  0
LINE
  5
28C
100
AcDbEntity
  8
MAIN0
  6
CONTINUOUS
 62
3
100
AcDbLine
 10
309.4509550675277
 20
172.8924016180267
 30
0.0000000000000000
 11
310.9447650577586
 21
174.3862116082594
 31
0.0000000000000000
  0
LINE
  5
28D
100
AcDbEntity
  8
MAIN0
  6
CONTINUOUS
 62
3
100
AcDbLine
 10
309.4298437934417
 20
175.1833167768162
 30
0.0000000000000000
 11
309.4298437934331
 21
182.1306140013882
 31
0.0000000000000000
  0
CIRCLE
  5
28E
100
AcDbEntity
  8
MAIN0
  6
CONTINUOUS
 62
3
100
AcDbCircle
 10
317.4229596119773
 20
174.2439439384807
 30
0.0000000000000000
 40
0.9393980633231109
  0
LINE
  5
28F
100
AcDbEntity
  8
MAIN0
  6
CONTINUOUS
 62
3
100
AcDbLine
 10
317.4087325193621
 20
172.8924016180371
 30
0.0000000000000000
 11
319.0163570796129
 21
174.5000261782970
 31
0.0000000000000000
  0
LINE
  5
290
100
AcDbEntity
  8
MAIN0
  6
CONTINUOUS
 62
3
100
AcDbLine
 10
317.4087325193590
 20
172.8924016180377
 30
0.0000000000000000
 11
315.9149225291271
 21
174.3862116082641
 31
0.0000000000000000
  0
LINE
  5
291
100
AcDbEntity
  8
MAIN0
  6
CONTINUOUS
 62
3
100
AcDbLine
 10
317.4298437934396
 20
175.1833167768244
 30
0.0000000000000000
 11
317.4298437934301
 21
182.1306140013881
 31
0.0000000000000000
  0
LINE
  5
292
100
AcDbEntity
  8
MAIN0
  6
CENTER
 62
3
100
AcDbLine
 10
310.9298437934467
 20
169.5936391858315
 30
0.0000000000000000
 11
310.9298437934448
 21
171.1306140013887
 31
0.0000000000000000
  0
LINE
  5
293
100
AcDbEntity
  8
MAIN0
  6
CENTER
 62
3
100
AcDbLine
 10
315.9298437934432
 20
168.5936391858332
 30
0.0000000000000000
 11
315.9298437934414
 21
171.1306140013958
 31
0.0000000000000000
  0
LINE
  5
294
100
AcDbEntity
  8
MAIN0
  6
CENTER
 62
3
100
AcDbLine
 10
309.4298437934473
 20
168.5936391858286
 30
0.0000000000000000
 11
315.9298437934418
 21
168.5936391858340
 31
0.0000000000000000
  0
POLYLINE
  5
295
100
AcDbEntity
  8
MAIN0
  6
CENTER
 62
3
100
AcDb2dPolyline
 66
     1
 10
0.0000000000000000
 20
0.0000000000000000
 30
0.0000000000000000
 70
     1
 40
0.5000000000000000
 41
0.5000000000000000
  0
VERTEX
  5
296
100
AcDbEntity
  8
MAIN0
  6
CENTER
 62
3
100
AcDbVertex
100
AcDb2dVertex
 10
309.6798437934473
 20
168.5936391858286
 30
0.0000000000000000
 42
1.000000000000000
  0
VERTEX
  5
297
100
AcDbEntity
  8
MAIN0
  6
CENTER
 62
3
100
AcDbVertex
100
AcDb2dVertex
 10
309.1798437934473
 20
168.5936391858286
 30
0.0000000000000000
 42
1.000000000000000
  0
SEQEND
  5
298
100
AcDbEntity
  8
MAIN0
  6
CENTER
 62
3
  0
ARC
  5
299
100
AcDbEntity
  8
MAIN0
  6
CENTER
 62
3
100
AcDbCircle
 10
315.9298437934400
 20
169.5936391858332
 30
0.0000000000000000
 40
0.4761701236253962
100
AcDbArc
 50
179.9999999999999
 51
359.9999999999999
  0
LINE
  5
29A
100
AcDbEntity
  8
MAIN0
  6
CONTINUOUS
 62
3
100
AcDbLine
 10
316.4060139170675
 20
169.5936391858367
 30
0.0000000000000000
 11
317.4298437934473
 21
169.5936391858367
 31
0.0000000000000000
  0
POLYLINE
  5
29B
100
AcDbEntity
  8
MAIN0
  6
CONTINUOUS
 62
3
100
AcDb2dPolyline
 66
     1
 10
0.0000000000000000
 20
0.0000000000000000
 30
0.0000000000000000
 70
     1
 40
0.5000000000000000
 41
0.5000000000000000
  0
VERTEX
  5
29C
100
AcDbEntity
  8
MAIN0
  6
CONTINUOUS
 62
3
100
AcDbVertex
100
AcDb2dVertex
 10
317.6798437934473
 20
169.5936391858367
 30
0.0000000000000000
 42
1.000000000000000
  0
VERTEX
  5
29D
100
AcDbEntity
  8
MAIN0
  6
CONTINUOUS
 62
3
100
AcDbVertex
100
AcDb2dVertex
 10
317.1798437934473
 20
169.5936391858367
 30
0.0000000000000000
 42
1.000000000000000
  0
SEQEND
  5
29E
100
AcDbEntity
  8
MAIN0
  6
CONTINUOUS
 62
3
  0
LINE
  5
29F
100
AcDbEntity
  8
MAIN0
  6
CENTER
 62
3
100
AcDbLine
 10
310.9298437934474
 20
169.5936391858314
 30
0.0000000000000000
 11
315.4536736698144
 21
169.5936391858332
 31
0.0000000000000000
  0
LINE
  5
2A0
100
AcDbEntity
  8
MAIN0
  6
CONTINUOUS
 62
3
100
AcDbLine
 10
317.4298437934497
 20
148.1306140013882
 30
0.0000000000000000
 11
316.0548437934698
 21
148.1306140013882
 31
0.0000000000000000
  0
LINE
  5
2A1
100
AcDbEntity
  8
MAIN0
  6
CONTINUOUS
 62
3
100
AcDbLine
 10
310.8048437934698
 20
148.1306140013882
 30
0.0000000000000000
 11
309.4298437934497
 21
148.1306140013882
 31
0.0000000000000000
  0
LINE
  5
2A2
100
AcDbEntity
  8
MAIN0
  6
CONTINUOUS
 62
3
100
AcDbLine
 10
309.4298437934499
 20
148.1306140013882
 30
0.0000000000000000
 11
309.4298437934440
 21
172.9135128921145
 31
0.0000000000000000
  0
LINE
  5
2A3
100
AcDbEntity
  8
MAIN0
  6
CONTINUOUS
 62
3
100
AcDbLine
 10
317.4298437934494
 20
148.1306140013882
 30
0.0000000000000000
 11
317.4298437934436
 21
172.8924016180369
 31
0.0000000000000000
  0
LINE
  5
2A4
100
AcDbEntity
  8
MAIN0
  6
CONTINUOUS
 62
3
100
AcDbLine
 10
323.4298437934300
 20
182.1306140013881
 30
0.0000000000000000
 11
303.4298437934330
 21
182.1306140013882
 31
0.0000000000000000
  0
LINE
  5
2A5
100
AcDbEntity
  8
MAIN0
  6
CONTINUOUS
 62
3
100
AcDbLine
 10
323.4298437934216
 20
190.1306140013881
 30
0.0000000000000000
 11
303.4298437934255
 21
190.1306140013882
 31
0.0000000000000000
  0
LINE
  5
2A6
100
AcDbEntity
  8
MAIN0
  6
CONTINUOUS
 62
3
100
AcDbLine
 10
303.4298437934330
 20
182.1306140013883
 30
0.0000000000000000
 11
303.4298437934253
 21
190.1306140013884
 31
0.0000000000000000
  0
LINE
  5
2A7
100
AcDbEntity
  8
MAIN0
  6
CONTINUOUS
 62
3
100
AcDbLine
 10
323.4298437934299
 20
182.1306140013882
 30
0.0000000000000000
 11
323.4298437934216
 21
190.1306140013882
 31
0.0000000000000000
  0
LINE
  5
2A8
100
AcDbEntity
  8
MAIN0
  6
CONTINUOUS
 62
3
100
AcDbLine
 10
313.4298437934299
 20
182.1306140013776
 30
0.0000000000000000
 11
313.4298437934216
 21
190.1306140013776
 31
0.0000000000000000
  0
LINE
  5
2A9
100
AcDbEntity
  8
MAIN0
  6
CONTINUOUS
 62
3
100
AcDbLine
 10
329.4298437934257
 20
186.1306140013881
 30
0.0000000000000000
 11
313.4298437934257
 21
186.1306140013881
 31
0.0000000000000000
  0
MTEXT
  5
2AA
100
AcDbEntity
  8
MAIN0
  6
CONTINUOUS
 62
3
100
AcDbMText
 10
298.1267266112622
 20
202.0538809351928
 30
0.0000000000000000
 40
3.099999904632568
 41
0.0000000000000000
 71
     1
 72
     1
  1
{\H0.93x;{ ロータリチャック\PROTARY CHUCK}}
 11
1.000000000000000
 21
0.0000000000000000
 31
0.0000000000000000
  7
KNJYOKO
  0
LINE
  5
2AB
100
AcDbEntity
  8
MAIN0
  6
CONTINUOUS
 62
3
100
AcDbLine
 10
305.8048437934586
 20
97.00561400146293
 30
0.0000000000000000
 11
305.8048437934588
 21
105.3806140013881
 31
0.0000000000000000
  0
LINE
  5
2AC
100
AcDbEntity
  8
MAIN0
  6
CONTINUOUS
 62
3
100
AcDbLine
 10
305.8048437934588
 20
105.3806140013882
 30
0.0000000000000000
 11
310.8048437934588
 21
105.3806140013882
 31
0.0000000000000000
  0
LINE
  5
2AD
100
AcDbEntity
  8
MAIN0
  6
CONTINUOUS
 62
3
100
AcDbLine
 10
321.0548437934588
 20
97.00561400146299
 30
0.0000000000000000
 11
321.0548437934588
 21
105.3806140013083
 31
0.0000000000000000
  0
LINE
  5
2AE
100
AcDbEntity
  8
MAIN0
  6
CONTINUOUS
 62
3
100
AcDbLine
 10
316.0548437934588
 20
105.3806140013240
 30
0.0000000000000000
 11
321.0548437934588
 21
105.3806140013083
 31
0.0000000000000000
  0
LINE
  5
2AF
100
AcDbEntity
  8
MAIN0
  6
CONTINUOUS
 62
3
100
AcDbLine
 10
319.5942559176854
 20
161.6327826421135
 30
0.0000000000000000
 11
322.0718363976941
 21
161.6956783060448
 31
0.0000000000000000
  0
LINE
  5
2B0
100
AcDbEntity
  8
MAIN0
  6
CONTINUOUS
 62
3
100
AcDbLine
 10
319.5942559176854
 20
161.6327826421136
 30
0.0000000000000000
 11
320.9185474612762
 21
159.7873920986374
 31
0.0000000000000000
  0
LINE
  5
2B1
100
AcDbEntity
  8
MAIN0
  6
CONTINUOUS
 62
3
100
AcDbLine
 10
307.2654316692082
 20
161.6327826421135
 30
0.0000000000000000
 11
305.0957108762996
 21
161.6878630041496
 31
0.0000000000000000
  0
LINE
  5
2B2
100
AcDbEntity
  8
MAIN0
  6
CONTINUOUS
 62
3
100
AcDbLine
 10
307.2654316692082
 20
161.6327826421135
 30
0.0000000000000000
 11
306.1057627614583
 21
160.0167925330738
 31
0.0000000000000000
  0
LINE
  5
2B3
100
AcDbEntity
  8
MAIN0
  6
CONTINUOUS
 62
3
100
AcDbLine
 10
315.6698437934778
 20
45.82094479472187
 30
0.0000000000000000
 11
316.1492724184220
 21
46.65133953172585
 31
0.0000000000000000
  0
LINE
  5
2B4
100
AcDbEntity
  8
MAIN0
  6
CONTINUOUS
 62
3
100
AcDbLine
 10
313.4298437934778
 20
69.63875936672636
 30
0.0000000000000000
 11
313.4298437934778
 21
64.47885143012647
 31
0.0000000000000000
  0
MTEXT
  5
2B5
100
AcDbEntity
  8
MAIN0
  6
CONTINUOUS
 62
3
100
AcDbMText
 10
325.2587115406288
 20
69.40470369860751
 30
0.0000000000000000
 40
3.000000000000000
 41
0.0000000000000000
 71
     1
 72
     1
  1
{\H0.59x;{AIR LUBRICATOR UNIT\Pwith AUTO DRAIN　FILTER\Pオートドレン付エアルブリケータユニット\P(参考相当品)}}
 11
1.000000000000000
 21
0.0000000000000000
 31
0.0000000000000000
  7
KNJYOKO
  0
MTEXT
  5
2B6
100
AcDbEntity
  8
MAIN0
  6
CONTINUOUS
 62
3
100
AcDbMText
 10
325.3279211757085
 20
53.58863652763765
 30
0.0000000000000000
 40
3.000000000000000
 41
0.0000000000000000
 71
     1
 72
     1
  1
{\H0.63x;{AC30A-02CG(SMC)}}
 11
1.000000000000000
 21
0.0000000000000000
 31
0.0000000000000000
  7
STANDARD
  0
LINE
  5
2B7
100
AcDbEntity
  8
MAIN0
  6
CONTINUOUS
 62
4
100
AcDbLine
 10
310.6298437934784
 20
58.59068980982866
 30
0.0000000000000000
 11
316.2298437934782
 21
58.59068980982866
 31
0.0000000000000000
  0
LINE
  5
2B8
100
AcDbEntity
  8
MAIN0
  6
CONTINUOUS
 62
4
100
AcDbLine
 10
314.0918090819106
 20
56.45073608207903
 30
0.0000000000000000
 11
313.4298437934788
 21
58.59068980982917
 31
0.0000000000000000
  0
LINE
  5
2B9
100
AcDbEntity
  8
MAIN0
  6
CONTINUOUS
 62
4
100
AcDbLine
 10
312.7678785050475
 20
56.45073608207878
 30
0.0000000000000000
 11
313.4298437934790
 21
58.59068980982892
 31
0.0000000000000000
  0
LINE
  5
2BA
100
AcDbEntity
  8
MAIN0
  6
CONTINUOUS
 62
4
100
AcDbLine
 10
316.2298437934778
 20
52.99068980982864
 30
0.0000000000000000
 11
316.2298437934778
 21
58.59068980982866
 31
0.0000000000000000
  0
LINE
  5
2BB
100
AcDbEntity
  8
MAIN0
  6
CONTINUOUS
 62
4
100
AcDbLine
 10
310.6298437934784
 20
52.99068980982864
 30
0.0000000000000000
 11
310.6298437934784
 21
58.59068980982866
 31
0.0000000000000000
  0
LINE
  5
2BC
100
AcDbEntity
  8
MAIN0
  6
CONTINUOUS
 62
4
100
AcDbLine
 10
310.6298437934784
 20
52.99068980982864
 30
0.0000000000000000
 11
316.2298437934782
 21
52.99068980982864
 31
0.0000000000000000
  0
LINE
  5
2BD
100
AcDbEntity
  8
MAIN0
  6
HIDDEN
 62
4
100
AcDbLine
 10
316.2298437934780
 20
55.79068980982882
 30
0.0000000000000000
 11
319.0298437934778
 21
55.79068980982882
 31
0.0000000000000000
  0
LINE
  5
2BE
100
AcDbEntity
  8
MAIN0
  6
HIDDEN
 62
4
100
AcDbLine
 10
319.0298437934778
 20
55.79068980982882
 30
0.0000000000000000
 11
319.0298437934778
 21
62.51068980982885
 31
0.0000000000000000
  0
LINE
  5
2BF
100
AcDbEntity
  8
MAIN0
  6
CONTINUOUS
 62
4
100
AcDbLine
 10
308.0898437934783
 20
59.60084445311315
 30
0.0000000000000000
 11
304.7298437934781
 21
65.42053516654525
 31
0.0000000000000000
  0
LINE
  5
2C0
100
AcDbEntity
  8
MAIN0
  6
CONTINUOUS
 62
4
100
AcDbLine
 10
305.2265419011476
 20
63.23629823117432
 30
0.0000000000000000
 11
304.7298437934779
 21
65.42053516654494
 31
0.0000000000000000
  0
LINE
  5
2C1
100
AcDbEntity
  8
MAIN0
  6
CONTINUOUS
 62
4
100
AcDbLine
 10
309.4700458188336
 20
46.65133953172494
 30
0.0000000000000000
 11
313.4298437934780
 21
42.69154155708040
 31
0.0000000000000000
  0
LINE
  5
2C2
100
AcDbEntity
  8
MAIN0
  6
CONTINUOUS
 62
4
100
AcDbLine
 10
313.4298437934787
 20
42.69154155708051
 30
0.0000000000000000
 11
317.3896417681232
 21
46.65133953172511
 31
0.0000000000000000
  0
LINE
  5
2C3
100
AcDbEntity
  8
MAIN0
  6
CONTINUOUS
 62
4
100
AcDbLine
 10
309.4700458188339
 20
46.65133953172520
 30
0.0000000000000000
 11
313.4298437934785
 21
50.61113750636977
 31
0.0000000000000000
  0
LINE
  5
2C4
100
AcDbEntity
  8
MAIN0
  6
CONTINUOUS
 62
4
100
AcDbLine
 10
313.4298437934788
 20
50.61113750636960
 30
0.0000000000000000
 11
317.3896417681235
 21
46.65133953172486
 31
0.0000000000000000
  0
LINE
  5
2C5
100
AcDbEntity
  8
MAIN0
  6
HIDDEN
 62
4
100
AcDbLine
 10
309.4700458188340
 20
46.65133953172537
 30
0.0000000000000000
 11
315.6698437934776
 21
46.65133953172537
 31
0.0000000000000000
  0
LINE
  5
2C6
100
AcDbEntity
  8
MAIN0
  6
CONTINUOUS
 62
4
100
AcDbLine
 10
313.4298437934781
 20
40.49133953179884
 30
0.0000000000000000
 11
313.4298437934781
 21
42.69154155708057
 31
0.0000000000000000
  0
LINE
  5
2C7
100
AcDbEntity
  8
MAIN0
  6
CONTINUOUS
 62
4
100
AcDbLine
 10
315.6698437934776
 20
44.93154155708007
 30
0.0000000000000000
 11
315.6698437934776
 21
48.37113750636993
 31
0.0000000000000000
  0
LINE
  5
2C8
100
AcDbEntity
  8
MAIN0
  6
CONTINUOUS
 62
4
100
AcDbLine
 10
306.3730994135586
 20
63.89826351960650
 30
0.0000000000000000
 11
304.7298437934783
 21
65.42053516654542
 31
0.0000000000000000
  0
LINE
  5
2C9
100
AcDbEntity
  8
MAIN0
  6
CONTINUOUS
 62
4
100
AcDbLine
 10
310.3298437934782
 20
62.51068980982885
 30
0.0000000000000000
 11
313.4298437934781
 21
62.51068980982885
 31
0.0000000000000000
  0
POLYLINE
  5
2CA
100
AcDbEntity
  8
MAIN0
  6
CONTINUOUS
 62
4
100
AcDb2dPolyline
 66
     1
 10
0.0000000000000000
 20
0.0000000000000000
 30
0.0000000000000000
 70
     1
 40
0.5000000000000000
 41
0.5000000000000000
  0
VERTEX
  5
2CB
100
AcDbEntity
  8
MAIN0
  6
CONTINUOUS
 62
4
100
AcDbVertex
100
AcDb2dVertex
 10
313.6798437934781
 20
62.51068980982885
 30
0.0000000000000000
 42
1.000000000000000
  0
VERTEX
  5
2CC
100
AcDbEntity
  8
MAIN0
  6
CONTINUOUS
 62
4
100
AcDbVertex
100
AcDb2dVertex
 10
313.1798437934781
 20
62.51068980982885
 30
0.0000000000000000
 42
1.000000000000000
  0
SEQEND
  5
2CD
100
AcDbEntity
  8
MAIN0
  6
CONTINUOUS
 62
4
  0
LINE
  5
2CE
100
AcDbEntity
  8
MAIN0
  6
HIDDEN
 62
4
100
AcDbLine
 10
313.4298437934781
 20
62.51068980982885
 30
0.0000000000000000
 11
319.0298437934781
 21
62.51068980982885
 31
0.0000000000000000
  0
LINE
  5
2CF
100
AcDbEntity
  8
MAIN0
  6
CONTINUOUS
 62
4
100
AcDbLine
 10
310.6298437934781
 20
56.91068980982911
 30
0.0000000000000000
 11
310.0296376024323
 21
54.67068980982910
 31
0.0000000000000000
  0
LINE
  5
2D0
100
AcDbEntity
  8
MAIN0
  6
CONTINUOUS
 62
4
100
AcDbLine
 10
309.4294314113866
 20
56.91068980982942
 30
0.0000000000000000
 11
310.0296376024325
 21
54.67068980982927
 31
0.0000000000000000
  0
LINE
  5
2D1
100
AcDbEntity
  8
MAIN0
  6
CONTINUOUS
 62
4
100
AcDbLine
 10
309.4294314113864
 20
56.91068980982976
 30
0.0000000000000000
 11
308.8292252203405
 21
54.67068980982944
 31
0.0000000000000000
  0
LINE
  5
2D2
100
AcDbEntity
  8
MAIN0
  6
CONTINUOUS
 62
4
100
AcDbLine
 10
308.2290190292960
 20
56.91068980982954
 30
0.0000000000000000
 11
308.8292252203419
 21
54.67068980982938
 31
0.0000000000000000
  0
CIRCLE
  5
2D3
100
AcDbEntity
  8
MAIN0
  6
CONTINUOUS
 62
4
100
AcDbCircle
 10
306.4098437934781
 20
62.51068980982885
 30
0.0000000000000000
 40
3.919999999999999
  0
LINE
  5
2D4
100
AcDbEntity
  8
MAIN0
  6
CONTINUOUS
 62
3
100
AcDbLine
 10
311.8132630397035
 20
37.69133953172448
 30
0.0000000000000000
 11
313.4298437934782
 21
40.49133953179890
 31
0.0000000000000000
  0
LINE
  5
2D5
100
AcDbEntity
  8
MAIN0
  6
CONTINUOUS
 62
3
100
AcDbLine
 10
315.0464245472508
 20
37.69133953172658
 30
0.0000000000000000
 11
313.4298437934779
 21
40.49133953179876
 31
0.0000000000000000
  0
LINE
  5
2D6
100
AcDbEntity
  8
MAIN0
  6
CONTINUOUS
 62
3
100
AcDbLine
 10
311.8132630397040
 20
37.69133953172397
 30
0.0000000000000000
 11
315.0464245472515
 21
37.69133953172653
 31
0.0000000000000000
  0
LINE
  5
2D7
100
AcDbEntity
  8
MAIN0
  6
CONTINUOUS
 62
3
100
AcDbLine
 10
317.3896417681235
 20
46.65133953172554
 30
0.0000000000000000
 11
319.5898437934778
 21
46.65133953172554
 31
0.0000000000000000
  0
LINE
  5
2D8
100
AcDbEntity
  8
MAIN0
  6
CONTINUOUS
 62
4
100
AcDbLine
 10
313.4298437934781
 20
50.61113750636960
 30
0.0000000000000000
 11
313.4298437934781
 21
52.21154155708032
 31
0.0000000000000000
  0
LINE
  5
2D9
100
AcDbEntity
  8
MAIN0
  6
CONTINUOUS
 62
4
100
AcDbLine
 10
313.4298437934777
 20
50.79048778447222
 30
0.0000000000000000
 11
313.4298437934778
 21
64.47885143012647
 31
0.0000000000000000
  0
LINE
  5
2DA
100
AcDbEntity
  8
MAIN0
  6
CONTINUOUS
 62
4
100
AcDbLine
 10
313.4298437934779
 20
80.15517791145490
 30
0.0000000000000000
 11
313.4298437934779
 21
90.17420368536872
 31
0.0000000000000000
  0
LINE
  5
2DB
100
AcDbEntity
  8
MAIN0
  6
PHANTOM
 62
3
100
AcDbLine
 10
282.7805757443512
 20
126.5435793794120
 30
0.0000000000000000
 11
344.3801633983137
 21
126.5435793794120
 31
0.0000000000000000
  0
LINE
  5
2DC
100
AcDbEntity
  8
MAIN0
  6
PHANTOM
 62
3
100
AcDbLine
 10
282.7805757443512
 20
78.46167510011102
 30
0.0000000000000000
 11
344.3801633983271
 21
78.46167510011102
 31
0.0000000000000000
  0
LINE
  5
2DD
100
AcDbEntity
  8
MAIN0
  6
PHANTOM
 62
3
100
AcDbLine
 10
282.7805757443512
 20
34.82863384516779
 30
0.0000000000000000
 11
344.3801633983391
 21
34.82863384516779
 31
0.0000000000000000
  0
LINE
  5
2DE
100
AcDbEntity
  8
MAIN0
  6
PHANTOM
 62
3
100
AcDbLine
 10
282.7805757443512
 20
34.82863384516779
 30
0.0000000000000000
 11
282.7805757443512
 21
56.26088447582427
 31
0.0000000000000000
  0
LINE
  5
2DF
100
AcDbEntity
  8
MAIN0
  6
PHANTOM
 62
3
100
AcDbLine
 10
282.7805757443512
 20
67.35814476037612
 30
0.0000000000000000
 11
282.7805757443512
 21
126.5435793794120
 31
0.0000000000000000
  0
LINE
  5
2E0
100
AcDbEntity
  8
MAIN0
  6
PHANTOM
 62
3
100
AcDbLine
 10
344.3801633983391
 20
34.82863384516784
 30
0.0000000000000000
 11
344.3801633983364
 21
44.52896788643605
 31
0.0000000000000000
  0
LINE
  5
2E1
100
AcDbEntity
  8
MAIN0
  6
CONTINUOUS
 62
4
100
AcDbLine
 10
309.4700458188336
 20
73.59855734137156
 30
0.0000000000000000
 11
313.4298437934781
 21
77.55835531601608
 31
0.0000000000000000
  0
LINE
  5
2E2
100
AcDbEntity
  8
MAIN0
  6
CONTINUOUS
 62
4
100
AcDbLine
 10
309.4700458188332
 20
73.59855734137125
 30
0.0000000000000000
 11
313.4298437934776
 21
69.63875936672670
 31
0.0000000000000000
  0
LINE
  5
2E3
100
AcDbEntity
  8
MAIN0
  6
CONTINUOUS
 62
4
100
AcDbLine
 10
313.4298437934783
 20
69.63875936672685
 30
0.0000000000000000
 11
317.3896417681229
 21
73.59855734137142
 31
0.0000000000000000
  0
LINE
  5
2E4
100
AcDbEntity
  8
MAIN0
  6
CONTINUOUS
 62
4
100
AcDbLine
 10
313.4298437934784
 20
77.55835531601593
 30
0.0000000000000000
 11
317.3896417681231
 21
73.59855734137119
 31
0.0000000000000000
  0
LINE
  5
2E5
100
AcDbEntity
  8
MAIN0
  6
CONTINUOUS
 62
3
100
AcDbLine
 10
309.4700458187592
 20
73.59855734129712
 30
0.0000000000000000
 11
311.1898437934779
 21
73.59855734129678
 31
0.0000000000000000
  0
MTEXT
  5
2E6
100
AcDbEntity
  8
MAIN0
  6
CONTINUOUS
 62
3
100
AcDbMText
 10
333.4438150875664
 20
94.21207491136144
 30
0.0000000000000000
 40
3.000000000000000
 41
0.0000000000000000
 71
     1
 72
     1
  1
{\H0.63x;{SILENCER\Pサイレンサ\PAN200-02}}
 11
1.000000000000000
 21
0.0000000000000000
 31
0.0000000000000000
  7
KNJYOKO
  0
LINE
  5
2E7
100
AcDbEntity
  8
MAIN0
  6
PHANTOM
 62
3
100
AcDbLine
 10
344.3801633983288
 20
71.76668028177190
 30
0.0000000000000000
 11
344.3801633983256
 21
83.39385583086235
 31
0.0000000000000000
  0
MTEXT
  5
2E8
100
AcDbEntity
  8
MAIN0
  6
CONTINUOUS
 62
3
100
AcDbMText
 10
291.9217460863903
 20
143.5950198558414
 30
0.0000000000000000
 40
3.099999904632568
 41
0.0000000000000000
 71
     1
 72
     1
  1
{\H0.92x;{A(開)\P(OPEN)}}
 11
1.000000000000000
 21
-2.021286199229721e-015
 31
0.0000000000000000
  7
KNJYOKO
  0
MTEXT
  5
2E9
100
AcDbEntity
  8
MAIN0
  6
CONTINUOUS
 62
3
100
AcDbMText
 10
318.4101482333595
 20
143.7920486278167
 30
0.0000000000000000
 40
3.099999904632568
 41
0.0000000000000000
 71
     1
 72
     1
  1
{\H0.92x;{B(閉)\P(CLOSE)}}
 11
1.000000000000000
 21
-2.021286199229721e-015
 31
0.0000000000000000
  7
KNJYOKO
  0
MTEXT
  5
2EA
100
AcDbEntity
  8
MAIN0
  6
CONTINUOUS
 62
4
100
AcDbMText
 10
339.6287023812881
 20
110.9319041854724
 30
0.0000000000000000
 40
3.000000000000000
 41
0.0000000000000000
 71
     1
 72
     1
  1
{\H0.63x;{VFS34**(SMC)}}
 11
1.000000000000000
 21
0.0000000000000000
 31
0.0000000000000000
  7
STANDARD
  0
MTEXT
  5
2EB
100
AcDbEntity
  8
MAIN0
  6
CONTINUOUS
 62
4
100
AcDbMText
 10
339.3536293503297
 20
119.0595121345691
 30
0.0000000000000000
 40
3.000000000000000
 41
0.0000000000000000
 71
     1
 72
     1
  1
{\H0.59x;{ソレノイドバルブ(参考相当品)\PSOLENOID VALVE}}
 11
1.000000000000000
 21
0.0000000000000000
 31
0.0000000000000000
  7
KNJYOKO
  0
LINE
  5
2EC
100
AcDbEntity
  8
MAIN0
  6
PHANTOM
 62
3
100
AcDbLine
 10
344.3801633983221
 20
96.29284921115956
 30
0.0000000000000000
 11
344.3801633983201
 21
103.5466689727677
 31
0.0000000000000000
  0
LINE
  5
2ED
100
AcDbEntity
  8
MAIN0
  6
PHANTOM
 62
3
100
AcDbLine
 10
344.3801633983154
 20
120.2755764548900
 30
0.0000000000000000
 11
344.3801633983137
 21
126.5435793794120
 31
0.0000000000000000
  0
MTEXT
  5
2EE
100
AcDbEntity
  8
MAIN0
  6
CONTINUOUS
 62
3
100
AcDbMText
 10
294.0622917839340
 20
31.94315976064516
 30
0.0000000000000000
 40
5.000000000000000
 41
0.0000000000000000
 71
     1
 72
     1
  1
{\H0.59x;{　　エアー回路図\PＡＩＲ　ＤＩＡＧＲＡＭ\P}
 11
1.000000000000000
 21
0.0000000000000000
 31
0.0000000000000000
  7
KNJYOKO
  0
LINE
  5
2EF
100
AcDbEntity
  8
MAIN0
  6
CONTINUOUS
 62
3
100
AcDbLine
 10
293.0158821554164
 20
26.63597148597441
 30
0.0000000000000000
 11
334.3465089300317
 21
26.63597148597845
 31
0.0000000000000000
  0
ELLIPSE
  5
2F0
100
AcDbEntity
  8
MAIN0
  6
CONTINUOUS
 62
3
100
AcDbEllipse
 10
313.4298437934468
 20
158.0510295427764
 30
0.0000000000000000
 11
10.50000000000000
 21
0.0000000000000000
 31
0.0000000000000000
210
0.0000000000000000
220
0.0000000000000000
230
1.000000000000000
 40
0.4213826500238095
 41
0.0000000000000000
 42
6.283185307179586
  0
MTEXT
  5
2F1
100
AcDbEntity
  8
MAIN0
  6
CONTINUOUS
 62
3
100
AcDbMText
 10
339.0646112346225
 20
107.3301995745108
 30
0.0000000000000000
 40
3.000000000000000
 41
0.0000000000000000
 71
     1
 72
     1
  1
{\H0.63x;{(OR EQUIVALANT)}}
 11
1.000000000000000
 21
0.0000000000000000
 31
0.0000000000000000
  7
STANDARD
  0
MTEXT
  5
2F2
100
AcDbEntity
  8
MAIN0
  6
CONTINUOUS
 62
3
100
AcDbMText
 10
324.7828544905897
 20
49.81144909360248
 30
0.0000000000000000
 40
3.000000000000000
 41
0.0000000000000000
 71
     1
 72
     1
  1
{\H0.63x;{(OR EQUIVALANT)}}
 11
1.000000000000000
 21
0.0000000000000000
 31
0.0000000000000000
  7
STANDARD
  0
LEADER
  5
2F3
100
AcDbEntity
  8
MAIN0
  6
CONTINUOUS
 62
3
100
AcDbLeader
  3
MAIN001
 73
     3
 74
     0
 75
     0
 76
     2
 10
304.0548437934639
 20
110.3806140013819
 30
0.0000000000000000
 10
304.0548437934558
 20
119.3806140013884
 30
0.0000000000000000
1001
ACAD
1000
DSTYLE
1002
{
1070
   173
1070
     1
1070
     6
1000
_OPEN
1070
     7
1000
_OPEN
1002
}
  0
LEADER
  5
2F4
100
AcDbEntity
  8
MAIN0
  6
CONTINUOUS
 62
3
100
AcDbLeader
  3
MAIN001
 73
     3
 74
     0
 75
     0
 76
     2
 10
298.8048437934585
 20
119.3806140013818
 30
0.0000000000000000
 10
301.8048437934619
 20
110.3806140013884
 30
0.0000000000000000
1001
ACAD
1000
DSTYLE
1002
{
1070
   173
1070
     1
1070
     6
1000
_OPEN
1070
     7
1000
_OPEN
1002
}
  0
LEADER
  5
2F5
100
AcDbEntity
  8
MAIN0
  6
CONTINUOUS
 62
3
100
AcDbLeader
  3
MAIN001
 73
     3
 74
     0
 75
     0
 76
     2
 10
322.8048437934730
 20
110.3806140013917
 30
0.0000000000000000
 10
322.8048437934717
 20
119.3806140013883
 30
0.0000000000000000
1001
ACAD
1000
DSTYLE
1002
{
1070
   173
1070
     1
1070
     6
1000
_OPEN
1070
     7
1000
_OPEN
1002
}
  0
LEADER
  5
2F6
100
AcDbEntity
  8
MAIN0
  6
CONTINUOUS
 62
3
100
AcDbLeader
  3
MAIN001
 73
     3
 74
     0
 75
     0
 76
     2
 10
328.0548437934689
 20
119.3806140013972
 30
0.0000000000000000
 10
325.0548437934710
 20
110.3806140013884
 30
0.0000000000000000
1001
ACAD
1000
DSTYLE
1002
{
1070
   173
1070
     1
1070
     6
1000
_OPEN
1070
     7
1000
_OPEN
1002
}
  0
LEADER
  5
2F7
100
AcDbEntity
  8
MAIN0
  6
CONTINUOUS
 62
3
100
AcDbLeader
  3
MAIN001
 73
     0
 74
     0
 75
     1
 40
3.000000000000000
 41
23.40099938011173
 76
     3
 10
336.3232075100472
 20
126.3806140013884
 30
0.0000000000000000
 10
340.1779337618733
 20
136.3817248062899
 30
0.0000000000000000
 10
341.8569337618732
 20
136.3817248062899
 30
0.0000000000000000
340
2F8
213
-0.001000000000033197
223
-0.5000000000000000
233
0.0000000000000000
1001
ACAD
1000
DSTYLE
1002
{
1070
   147
1040
0.0
1070
    77
1070
     1
1070
   173
1070
     1
1070
     6
1000
_OPEN
1070
     7
1000
_OPEN
1002
}
  0
MTEXT
  5
2F8
102
{ACAD_REACTORS
330
2F7
102
}
100
AcDbEntity
  8
MAIN0
  6
CONTINUOUS
 62
3
100
AcDbMText
 10
341.8579337618733
 20
139.8817248062899
 30
0.0000000000000000
 40
3.000000000000000
 41
0.0000000000000000
 71
     1
 72
     1
  1
{\H0.60x;{客先にて手配願います。\PCUSTOMER MUST\PPREPARE}}
 11
1.000000000000000
 21
0.0000000000000000
 31
0.0000000000000000
  7
KNJYOKO
  0
INSERT
  5
303
100
AcDbEntity
  8
MAIN0
  6
CONTINUOUS
 62
1
100
AcDbBlockReference
  2
M1
 10
0.0000000000000000
 20
0.0000000000000000
 30
0.0000000000000000
 50
0.0000000000000000
  0
MTEXT
  5
304
100
AcDbEntity
  8
MAIN0
  6
CONTINUOUS
 62
3
100
AcDbMText
 10
55.97412517207869
 20
73.79546358783358
 30
0.0000000000000000
 40
5.000000000000000
 41
0.0000000000000000
 71
     1
 72
     1
  1
{\H0.93x;{  Ｃより見る\PVIEW FROM C}}
 11
1.000000000000000
 21
0.0000000000000000
 31
0.0000000000000000
  7
KNJYOKO
  0
LINE
  5
305
100
AcDbEntity
  8
MAIN0
  6
CONTINUOUS
 62
3
100
AcDbLine
 10
55.40921257027350
 20
68.39362011627907
 30
0.0000000000000000
 11
105.6547809982820
 21
68.39362011627907
 31
0.0000000000000000
  0
LEADER
  5
306
100
AcDbEntity
  8
MAIN0
  6
CONTINUOUS
 62
3
100
AcDbLeader
  3
MAIN001
 73
     0
 74
     0
 75
     1
 40
3.000000000000000
 41
33.30099911785123
 76
     3
 10
229.3818191946583
 20
320.0057775331658
 30
0.0000000000000000
 10
255.4387451787815
 20
354.2286729211814
 30
0.0000000000000000
 10
257.1177451787815
 20
354.2286729211814
 30
0.0000000000000000
340
307
213
0.0000000000000000
223
-0.5000000000000000
233
0.0000000000000000
1001
ACAD
1000
DSTYLE
1002
{
1070
   147
1040
0.0
1070
    77
1070
     1
1070
   173
1070
     1
1070
     6
1000
_OPEN
1070
     7
1000
_OPEN
1002
}
  0
MTEXT
  5
307
102
{ACAD_REACTORS
330
306
102
}
100
AcDbEntity
  8
MAIN0
  6
CONTINUOUS
 62
3
100
AcDbMText
 10
257.1187451787815
 20
357.7286729211814
 30
0.0000000000000000
 40
3.000000000000000
 41
0.0000000000000000
 71
     1
 72
     1
  1
{\H0.61x;{セレーションピッチ 1.5\PSERRATION PITCH 1.5}}
 11
1.000000000000000
 21
0.0000000000000000
 31
0.0000000000000000
  7
KNJYOKO
  0
LEADER
  5
308
100
AcDbEntity
  8
MAIN0
  6
CONTINUOUS
 62
3
100
AcDbLeader
  3
MAIN001
 73
     0
 75
     1
 40
3.000000000000000
 41
21.59899942779543
 76
     3
 10
376.1882688590436
 20
276.3230587371642
 30
0.0000000000000000
 10
357.5359489573007
 20
306.3260205135129
 30
0.0000000000000000
 10
355.8549489573007
 20
306.3260205135129
 30
0.0000000000000000
340
309
213
0.0000000000000000
223
-0.5000000000000000
233
0.0000000000000000
1001
ACAD
1000
DSTYLE
1002
{
1070
   147
1040
0.0
1070
    77
1070
     1
1070
   173
1070
     1
1070
     6
1000
_OPEN
1070
     7
1000
_OPEN
1002
}
  0
MTEXT
  5
309
102
{ACAD_REACTORS
330
308
102
}
100
AcDbEntity
  8
MAIN0
  6
CONTINUOUS
 62
3
100
AcDbMText
 10
334.2559495295053
 20
309.8260205135129
 30
0.0000000000000000
 40
3.000000000000000
 41
0.0000000000000000
 71
     1
 72
     1
  1
{\H0.63x;{4-M8 ネジ深9\P4-M8 DEPTH 9}}
 11
1.000000000000000
 21
0.0000000000000000
 31
0.0000000000000000
  7
KNJYOKO
  0
MTEXT
  5
30A
100
AcDbEntity
  8
MAIN0
  6
CONTINUOUS
 62
3
100
AcDbMText
 10
418.2559163085311
 20
167.4388864325191
 30
0.0000000000000000
 40
4.000000000000000
 41
0.0000000000000000
 71
     1
 72
     1
  1
{\H0.63x;{A (開）\P(OPEN)}}
 11
1.000000000000000
 21
0.0000000000000000
 31
0.0000000000000000
  7
KNJYOKO
  0
MTEXT
  5
30B
100
AcDbEntity
  8
MAIN0
  6
CONTINUOUS
 62
3
100
AcDbMText
 10
476.9232758537410
 20
167.0675796781824
 30
0.0000000000000000
 40
4.000000000000000
 41
0.0000000000000000
 71
     1
 72
     1
  1
{\H0.63x;{B (閉）\P(CLOSE)}}
 11
1.000000000000000
 21
0.0000000000000000
 31
0.0000000000000000
  7
KNJYOKO
  0
LEADER
  5
30C
100
AcDbEntity
  8
MAIN0
  6
CONTINUOUS
 62
3
100
AcDbLeader
  3
MAIN001
 73
     0
 75
     1
 40
3.000000000000000
 41
25.19899933242799
 76
     3
 10
126.5925480030893
 20
219.3230665820273
 30
0.0000000000000000
 10
101.8580638870750
 20
177.9253619297863
 30
0.0000000000000000
 10
100.1770638870750
 20
177.9253619297863
 30
0.0000000000000000
340
30D
213
0.0000000000000000
223
-0.5000000000000000
233
0.0000000000000000
1001
ACAD
1000
DSTYLE
1002
{
1070
   147
1040
0.0
1070
    77
1070
     1
1070
   173
1070
     1
1070
     6
1000
_OPEN
1070
     7
1000
_OPEN
1002
}
  0
MTEXT
  5
30D
102
{ACAD_REACTORS
330
30C
102
}
100
AcDbEntity
  8
MAIN0
  6
CONTINUOUS
 62
3
100
AcDbMText
 10
74.97806455464701
 20
181.4253619297863
 30
0.0000000000000000
 40
3.000000000000000
 41
0.0000000000000000
 71
     1
 72
     1
  1
{\H0.63x;{六角穴付ボルト\PM6X100（6本）\PHEX SOCKET\PHEAD CAP SCREW}}
 11
1.000000000000000
 21
0.0000000000000000
 31
0.0000000000000000
  7
KNJYOKO
  0
LEADER
  5
30E
100
AcDbEntity
  8
MAIN0
  6
CONTINUOUS
 62
3
100
AcDbLeader
  3
MAIN001
 73
     0
 75
     1
 40
3.000000000000000
 41
28.79899923706057
 76
     3
 10
281.3337817412369
 20
60.46372002728577
 30
0.0000000000000000
 10
269.4606935500767
 20
46.89561629759459
 30
0.0000000000000000
 10
267.7796935500767
 20
46.89561629759459
 30
0.0000000000000000
340
30F
213
0.0000000000000000
223
-0.5000000000000000
233
0.0000000000000000
1001
ACAD
1000
DSTYLE
1002
{
1070
   147
1040
0.0
1070
    77
1070
     1
1070
   173
1070
     1
1070
     6
1000
_OPEN
1070
     7
1000
_OPEN
1002
}
  0
MTEXT
  5
30F
102
{ACAD_REACTORS
330
30E
102
}
100
AcDbEntity
  8
MAIN0
  6
CONTINUOUS
 62
3
100
AcDbMText
 10
238.9806943130162
 20
50.39561629759459
 30
0.0000000000000000
 40
3.000000000000000
 41
0.0000000000000000
 71
     1
 72
     1
  1
{\H0.63x;{最高使用エア圧力　\PMAX Permissible \Pair press\PMAX 0.7MPa\P(7.0kgf/cm2)}}
 11
1.000000000000000
 21
0.0000000000000000
 31
0.0000000000000000
  7
KNJYOKO
  0
LEADER
  5
310
100
AcDbEntity
  8
MAIN0
  6
CONTINUOUS
 62
3
100
AcDbLeader
  3
MAIN001
 73
     0
 75
     1
 40
3.000000000000000
 41
32.99899928474427
 76
     3
 10
140.9592191421713
 20
208.1074543642001
 30
0.0000000000000000
 10
111.1473285868441
 20
154.9760811852116
 30
0.0000000000000000
 10
109.4663285868441
 20
154.9760811852116
 30
0.0000000000000000
340
311
213
0.0000000000000000
223
-0.5000000000000000
233
0.0000000000000000
1001
ACAD
1000
DSTYLE
1002
{
1070
   147
1040
0.0
1070
    77
1070
     1
1070
   173
1070
     1
1070
     6
1000
_DOT
1070
     7
1000
_DOT
1002
}
  0
MTEXT
  5
311
102
{ACAD_REACTORS
330
310
102
}
100
AcDbEntity
  8
MAIN0
  6
CONTINUOUS
 62
3
100
AcDbMText
 10
76.46732930209981
 20
158.4760811852116
 30
0.0000000000000000
 40
3.000000000000000
 41
0.0000000000000000
 71
     1
 72
     1
  1
{\H0.61x;{排気用プラグ　PSA101(4個)\PPLUG FOR EXHAUST}}
 11
1.000000000000000
 21
0.0000000000000000
 31
0.0000000000000000
  7
KNJYOKO
  0
INSERT
  5
319
100
AcDbEntity
  8
MAIN0
  6
CONTINUOUS
 62
3
100
AcDbBlockReference
  2
D24
 10
129.1997687617430
 20
272.3230419892574
 30
0.0000000000000000
 50
0.0000000000000000
  0
LINE
  5
31A
100
AcDbEntity
  8
MAIN0
  6
CONTINUOUS
 62
3
100
AcDbLine
 10
299.6416941249901
 20
161.0510295427764
 30
0.0000000000000000
 11
299.6416941249901
 21
164.9865112991439
 31
0.0000000000000000
  0
LINE
  5
31B
100
AcDbEntity
  8
MAIN0
  6
CONTINUOUS
 62
3
100
AcDbLine
 10
299.6416941249901
 20
164.9865112991439
 30
0.0000000000000000
 11
309.4298437934459
 21
164.9865112991439
 31
0.0000000000000000
  0
POLYLINE
  5
31C
100
AcDbEntity
  8
MAIN0
  6
CONTINUOUS
 62
3
100
AcDb2dPolyline
 66
     1
 10
0.0000000000000000
 20
0.0000000000000000
 30
0.0000000000000000
 70
     1
 40
0.5000000000000000
 41
0.5000000000000000
  0
VERTEX
  5
31D
100
AcDbEntity
  8
MAIN0
  6
CONTINUOUS
 62
3
100
AcDbVertex
100
AcDb2dVertex
 10
309.6798437934459
 20
164.9865112991439
 30
0.0000000000000000
 42
1.000000000000000
  0
VERTEX
  5
31E
100
AcDbEntity
  8
MAIN0
  6
CONTINUOUS
 62
3
100
AcDbVertex
100
AcDb2dVertex
 10
309.1798437934459
 20
164.9865112991439
 30
0.0000000000000000
 42
1.000000000000000
  0
SEQEND
  5
31F
100
AcDbEntity
  8
MAIN0
  6
CONTINUOUS
 62
3
  0
LINE
  5
320
100
AcDbEntity
  8
MAIN0
  6
CONTINUOUS
 62
3
100
AcDbLine
 10
301.1416941249901
 20
161.0510295427764
 30
0.0000000000000000
 11
298.1416941249901
 21
161.0510295427764
 31
0.0000000000000000
  0
LINE
  5
321
100
AcDbEntity
  8
MAIN0
  6
CONTINUOUS
 62
3
100
AcDbLine
 10
301.1416941249901
 20
161.0510295427763
 30
0.0000000000000000
 11
301.1416941249901
 21
155.0510295427763
 31
0.0000000000000000
  0
LINE
  5
322
100
AcDbEntity
  8
MAIN0
  6
CONTINUOUS
 62
3
100
AcDbLine
 10
298.1416941249901
 20
161.0510295427763
 30
0.0000000000000000
 11
298.1416941249901
 21
155.0510295427763
 31
0.0000000000000000
  0
LINE
  5
323
100
AcDbEntity
  8
MAIN0
  6
CONTINUOUS
 62
3
100
AcDbLine
 10
299.6416941249901
 20
160.0510295427764
 30
0.0000000000000000
 11
298.1416941249901
 21
160.0510295427764
 31
0.0000000000000000
  0
LINE
  5
324
100
AcDbEntity
  8
MAIN0
  6
CONTINUOUS
 62
3
100
AcDbLine
 10
301.1416941249901
 20
158.0510295427764
 30
0.0000000000000000
 11
299.6416941249901
 21
158.0510295427764
 31
0.0000000000000000
  0
LINE
  5
325
100
AcDbEntity
  8
MAIN0
  6
CONTINUOUS
 62
3
100
AcDbLine
 10
301.1416941249901
 20
155.0510295427764
 30
0.0000000000000000
 11
298.1416941249901
 21
155.0510295427764
 31
0.0000000000000000
  0
LINE
  5
326
100
AcDbEntity
  8
MAIN0
  6
CONTINUOUS
 62
3
100
AcDbLine
 10
298.1416941249901
 20
155.0510295425176
 30
0.0000000000000000
 11
299.6416941249900
 21
153.5510295425149
 31
0.0000000000000000
  0
LINE
  5
327
100
AcDbEntity
  8
MAIN0
  6
CONTINUOUS
 62
3
100
AcDbLine
 10
301.1416941249900
 20
155.0510295425177
 30
0.0000000000000000
 11
299.6416941249898
 21
153.5510295425148
 31
0.0000000000000000
  0
LINE
  5
328
100
AcDbEntity
  8
MAIN0
  6
CONTINUOUS
 62
3
100
AcDbLine
 10
299.6416941249901
 20
156.0510295427764
 30
0.0000000000000000
 11
298.1416941249901
 21
156.0510295427764
 31
0.0000000000000000
  0
LINE
  5
329
100
AcDbEntity
  8
MAIN0
  6
HIDDEN
 62
3
100
AcDbLine
 10
459.5081697556536
 20
356.2134196812277
 30
0.0000000000000000
 11
458.6177920636844
 21
355.3230419892581
 31
0.0000000000000000
  0
LINE
  5
32A
100
AcDbEntity
  8
MAIN0
  6
HIDDEN
 62
3
100
AcDbLine
 10
458.6177920636841
 20
355.3230419892579
 30
0.0000000000000000
 11
451.8177920636841
 21
355.3230419892558
 31
0.0000000000000000
  0
LINE
  5
32B
100
AcDbEntity
  8
MAIN0
  6
HIDDEN
 62
3
100
AcDbLine
 10
451.8177920636841
 20
355.3230419892559
 30
0.0000000000000000
 11
450.9274143717479
 21
356.2134196811916
 31
0.0000000000000000
  0
LINE
  5
32C
100
AcDbEntity
  8
MAIN0
  6
HIDDEN
 62
3
100
AcDbLine
 10
459.2177920636848
 20
355.9230419892588
 30
0.0000000000000000
 11
459.2177920636874
 21
347.3230419892582
 31
0.0000000000000000
  0
LINE
  5
32D
100
AcDbEntity
  8
MAIN0
  6
HIDDEN
 62
3
100
AcDbLine
 10
459.2177920636876
 20
347.3230419892581
 30
0.0000000000000000
 11
451.2177920636876
 21
347.3230419892556
 31
0.0000000000000000
  0
LINE
  5
32E
100
AcDbEntity
  8
MAIN0
  6
HIDDEN
 62
3
100
AcDbLine
 10
451.2177920636874
 20
347.3230419892558
 30
0.0000000000000000
 11
451.2177920636848
 21
355.9230419892549
 31
0.0000000000000000
  0
LINE
  5
32F
100
AcDbEntity
  8
MAIN0
  6
HIDDEN
 62
3
100
AcDbLine
 10
458.6177920636848
 20
355.3230419892579
 30
0.0000000000000000
 11
458.6177920636888
 21
342.3230419892579
 31
0.0000000000000000
  0
LINE
  5
330
100
AcDbEntity
  8
MAIN0
  6
HIDDEN
 62
3
100
AcDbLine
 10
458.6177920636894
 20
342.3230419892581
 30
0.0000000000000000
 11
451.8177920636895
 21
342.3230419892559
 31
0.0000000000000000
  0
LINE
  5
331
100
AcDbEntity
  8
MAIN0
  6
HIDDEN
 62
3
100
AcDbLine
 10
451.8177920636888
 20
342.3230419892559
 30
0.0000000000000000
 11
451.8177920636849
 21
355.3230419892558
 31
0.0000000000000000
  0
LINE
  5
332
100
AcDbEntity
  8
MAIN0
  6
HIDDEN
 62
3
100
AcDbLine
 10
458.6177920636897
 20
342.3230419892581
 30
0.0000000000000000
 11
455.2177920636902
 21
340.3600510740123
 31
0.0000000000000000
  0
LINE
  5
333
100
AcDbEntity
  8
MAIN0
  6
HIDDEN
 62
3
100
AcDbLine
 10
455.2177920636897
 20
340.3600510740122
 30
0.0000000000000000
 11
451.8177920636890
 21
342.3230419892560
 31
0.0000000000000000
  0
LINE
  5
334
100
AcDbEntity
  8
MAIN0
  6
HIDDEN
 62
3
100
AcDbLine
 10
450.9274143724555
 20
188.4326977938377
 30
0.0000000000000000
 11
451.8177920644246
 21
189.3230754858074
 31
0.0000000000000000
  0
LINE
  5
335
100
AcDbEntity
  8
MAIN0
  6
HIDDEN
 62
3
100
AcDbLine
 10
451.8177920644249
 20
189.3230754858076
 30
0.0000000000000000
 11
458.6177920644249
 21
189.3230754858097
 31
0.0000000000000000
  0
LINE
  5
336
100
AcDbEntity
  8
MAIN0
  6
HIDDEN
 62
3
100
AcDbLine
 10
458.6177920644249
 20
189.3230754858095
 30
0.0000000000000000
 11
459.5081697563610
 21
188.4326977938739
 31
0.0000000000000000
  0
LINE
  5
337
100
AcDbEntity
  8
MAIN0
  6
HIDDEN
 62
3
100
AcDbLine
 10
451.2177920644242
 20
188.7230754858067
 30
0.0000000000000000
 11
451.2177920644216
 21
197.3230754858072
 31
0.0000000000000000
  0
LINE
  5
338
100
AcDbEntity
  8
MAIN0
  6
HIDDEN
 62
3
100
AcDbLine
 10
451.2177920644214
 20
197.3230754858074
 30
0.0000000000000000
 11
459.2177920644214
 21
197.3230754858099
 31
0.0000000000000000
  0
LINE
  5
339
100
AcDbEntity
  8
MAIN0
  6
HIDDEN
 62
3
100
AcDbLine
 10
459.2177920644216
 20
197.3230754858097
 30
0.0000000000000000
 11
459.2177920644242
 21
188.7230754858106
 31
0.0000000000000000
  0
LINE
  5
33A
100
AcDbEntity
  8
MAIN0
  6
HIDDEN
 62
3
100
AcDbLine
 10
451.8177920644242
 20
189.3230754858075
 30
0.0000000000000000
 11
451.8177920644201
 21
202.3230754858075
 31
0.0000000000000000
  0
LINE
  5
33B
100
AcDbEntity
  8
MAIN0
  6
HIDDEN
 62
3
100
AcDbLine
 10
451.8177920644196
 20
202.3230754858074
 30
0.0000000000000000
 11
458.6177920644195
 21
202.3230754858096
 31
0.0000000000000000
  0
LINE
  5
33C
100
AcDbEntity
  8
MAIN0
  6
HIDDEN
 62
3
100
AcDbLine
 10
458.6177920644201
 20
202.3230754858096
 30
0.0000000000000000
 11
458.6177920644241
 21
189.3230754858097
 31
0.0000000000000000
  0
LINE
  5
33D
100
AcDbEntity
  8
MAIN0
  6
HIDDEN
 62
3
100
AcDbLine
 10
451.8177920644193
 20
202.3230754858073
 30
0.0000000000000000
 11
455.2177920644187
 21
204.2860664010532
 31
0.0000000000000000
  0
LINE
  5
33E
100
AcDbEntity
  8
MAIN0
  6
HIDDEN
 62
3
100
AcDbLine
 10
455.2177920644193
 20
204.2860664010532
 30
0.0000000000000000
 11
458.6177920644199
 21
202.3230754858095
 31
0.0000000000000000
  0
MTEXT
  5
33F
100
AcDbEntity
  8
MAIN0
  6
CONTINUOUS
 62
3
100
AcDbMText
 10
496.8568863727522
 20
301.6737553137693
 30
0.0000000000000000
 40
3.099999904632568
 41
0.0000000000000000
 71
     1
 72
     1
  1
{\H0.92x;{JAPAN}}
 11
-0.6819983600624971
 21
0.7313537016191718
 31
0.0000000000000000
  7
STANDARD
  0
LINE
  5
340
100
AcDbEntity
  8
MAIN0
  6
PHANTOM
 62
3
100
AcDbLine
 10
429.8798256099821
 20
295.6121945283737
 30
0.0000000000000000
 11
422.3798256099777
 21
282.6218134716096
 31
0.0000000000000000
  0
LINE
  5
341
100
AcDbEntity
  8
MAIN0
  6
PHANTOM
 62
3
100
AcDbLine
 10
429.8798256099823
 20
295.6121945283736
 30
0.0000000000000000
 11
426.4157239948451
 21
297.6121945283746
 31
0.0000000000000000
  0
LINE
  5
342
100
AcDbEntity
  8
MAIN0
  6
PHANTOM
 62
3
100
AcDbLine
 10
426.4157239948451
 20
297.6121945283747
 30
0.0000000000000000
 11
418.9157239948406
 21
284.6218134716106
 31
0.0000000000000000
  0
LINE
  5
343
100
AcDbEntity
  8
MAIN0
  6
CENTER
 62
3
100
AcDbLine
 10
427.9379918448531
 20
288.0730587375475
 30
0.0000000000000000
 11
421.2327319714320
 21
291.9443423304561
 31
0.0000000000000000
  0
LINE
  5
344
100
AcDbEntity
  8
MAIN0
  6
PHANTOM
 62
3
100
AcDbLine
 10
422.3798256099780
 20
282.6218134716096
 30
0.0000000000000000
 11
418.9157239948409
 21
284.6218134716106
 31
0.0000000000000000
  0
LINE
  5
345
100
AcDbEntity
  8
MAIN0
  6
CONTINUOUS
 62
3
100
AcDbLine
 10
484.6021895932135
 20
263.7440544736971
 30
0.0000000000000000
 11
483.6963229353547
 21
267.1247948657089
 31
0.0000000000000000
  0
LINE
  5
346
100
AcDbEntity
  8
MAIN0
  6
CONTINUOUS
 62
3
100
AcDbLine
 10
485.8396264602899
 20
265.8873579986324
 30
0.0000000000000000
 11
482.4588860682782
 21
264.9814913407735
 31
0.0000000000000000
  0
LINE
  5
347
100
AcDbEntity
  8
MAIN0
  6
CONTINUOUS
 62
3
100
AcDbLine
 10
476.1021895932134
 20
249.0216226093616
 30
0.0000000000000000
 11
475.1963229353546
 21
252.4023630013733
 31
0.0000000000000000
  0
LINE
  5
348
100
AcDbEntity
  8
MAIN0
  6
CONTINUOUS
 62
3
100
AcDbLine
 10
477.3396264602898
 20
251.1649261342968
 30
0.0000000000000000
 11
473.9588860682780
 21
250.2590594764379
 31
0.0000000000000000
  0
LINE
  5
349
100
AcDbEntity
  8
MAIN0
  6
CONTINUOUS
 62
3
100
AcDbLine
 10
497.4069421663965
 20
234.3974102429511
 30
0.0000000000000000
 11
509.1569421663837
 21
254.7490072318632
 31
0.0000000000000000
  0
LINE
  5
34A
100
AcDbEntity
  8
MAIN0
  6
HIDDEN
 62
3
100
AcDbLine
 10
467.3287631919835
 20
252.0517301053128
 30
0.0000000000000000
 11
467.2555581112266
 21
252.3249351860697
 31
0.0000000000000000
  0
LINE
  5
34B
100
AcDbEntity
  8
MAIN0
  6
HIDDEN
 62
3
100
AcDbLine
 10
478.5555581112266
 20
271.8971093115981
 30
0.0000000000000000
 11
478.8287631919836
 21
271.9703143923550
 31
0.0000000000000000
  0
LINE
  5
34C
100
AcDbEntity
  8
MAIN0
  6
CONTINUOUS
 62
3
100
AcDbLine
 10
489.5463705813141
 20
265.7825008810561
 30
0.0000000000000000
 11
486.2963705813141
 21
260.1533357564572
 31
0.0000000000000000
  0
LINE
  5
34D
100
AcDbEntity
  8
MAIN0
  6
CONTINUOUS
 62
3
100
AcDbLine
 10
481.2963705813141
 20
251.4930817186129
 30
0.0000000000000000
 11
478.0463705813141
 21
245.8639165940140
 31
0.0000000000000000
  0
LINE
  5
34E
100
AcDbEntity
  8
MAIN0
  6
HIDDEN
 62
3
100
AcDbLine
 10
483.0511800529161
 20
269.5325008810646
 30
0.0000000000000000
 11
479.1786783884506
 21
262.8251312458275
 31
0.0000000000000000
  0
LINE
  5
34F
100
AcDbEntity
  8
MAIN0
  6
HIDDEN
 62
3
100
AcDbLine
 10
475.4236817173691
 20
256.3212862292740
 30
0.0000000000000000
 11
471.5511800529005
 21
249.6139165940315
 31
0.0000000000000000
  0
ARC
  5
350
100
AcDbEntity
  8
MAIN0
  6
HIDDEN
 62
3
100
AcDbCircle
 10
480.7219803978794
 20
257.5982087375351
 30
0.0000000000000000
 40
5.450000000000000
100
AcDbArc
 50
83.44661725504665
 51
216.5533827449538
  0
LINE
  5
351
100
AcDbEntity
  8
MAIN0
  6
CONTINUOUS
 62
3
100
AcDbLine
 10
463.9693869841657
 20
251.6818657864627
 30
0.0000000000000000
 11
476.9597680409319
 21
244.1818657864619
 31
0.0000000000000000
  0
LINE
  5
352
100
AcDbEntity
  8
MAIN0
  6
CONTINUOUS
 62
3
100
AcDbLine
 10
477.4693869841781
 20
275.0645516886353
 30
0.0000000000000000
 11
490.4597680409443
 21
267.5645516886345
 31
0.0000000000000000
  0
LINE
  5
353
100
AcDbEntity
  8
MAIN0
  6
CONTINUOUS
 62
3
100
AcDbLine
 10
477.4693869841780
 20
275.0645516886352
 30
0.0000000000000000
 11
463.9693869841656
 21
251.6818657864625
 31
0.0000000000000000
  0
CIRCLE
  5
354
100
AcDbEntity
  8
MAIN0
  6
CONTINUOUS
 62
3
100
AcDbCircle
 10
484.1492562642841
 20
265.4344246697028
 30
0.0000000000000000
 40
3.150000000000000
  0
LINE
  5
355
100
AcDbEntity
  8
MAIN0
  6
CENTER
 62
3
100
AcDbLine
 10
482.0742562642841
 20
261.8404192439973
 30
0.0000000000000000
 11
486.2242562642841
 21
269.0284300954082
 31
0.0000000000000000
  0
LINE
  5
356
100
AcDbEntity
  8
MAIN0
  6
CENTER
 62
3
100
AcDbLine
 10
487.7432616899896
 20
263.3594246697028
 30
0.0000000000000000
 11
480.5552508385788
 21
267.5094246697028
 31
0.0000000000000000
  0
LINE
  5
357
100
AcDbEntity
  8
MAIN0
  6
CONTINUOUS
 62
3
100
AcDbLine
 10
490.4597680409441
 20
267.5645516886344
 30
0.0000000000000000
 11
486.3347680409333
 21
260.4198421074028
 31
0.0000000000000000
  0
LINE
  5
358
100
AcDbEntity
  8
MAIN0
  6
CONTINUOUS
 62
3
100
AcDbLine
 10
481.0847680409286
 20
251.3265753676690
 30
0.0000000000000000
 11
476.9597680409318
 21
244.1818657864617
 31
0.0000000000000000
  0
LINE
  5
359
100
AcDbEntity
  8
MAIN0
  6
CONTINUOUS
 62
3
100
AcDbLine
 10
481.0847680409285
 20
251.3265753676690
 30
0.0000000000000000
 11
478.7031981805244
 21
252.7015753676689
 31
0.0000000000000000
  0
LINE
  5
35A
100
AcDbEntity
  8
MAIN0
  6
CONTINUOUS
 62
3
100
AcDbLine
 10
486.3347680409333
 20
260.4198421074029
 30
0.0000000000000000
 11
483.5201854786348
 21
262.0448421074044
 31
0.0000000000000000
  0
CIRCLE
  5
35B
100
AcDbEntity
  8
MAIN0
  6
CONTINUOUS
 62
3
100
AcDbCircle
 10
475.6492562642839
 20
250.7119928053671
 30
0.0000000000000000
 40
3.150000000000000
  0
LINE
  5
35C
100
AcDbEntity
  8
MAIN0
  6
CENTER
 62
3
100
AcDbLine
 10
477.7242562642841
 20
254.3059982310726
 30
0.0000000000000000
 11
473.5742562642841
 21
247.1179873796618
 31
0.0000000000000000
  0
LINE
  5
35D
100
AcDbEntity
  8
MAIN0
  6
CENTER
 62
3
100
AcDbLine
 10
479.2432616899894
 20
248.6369928053671
 30
0.0000000000000000
 11
472.0552508385786
 21
252.7869928053671
 31
0.0000000000000000
  0
LINE
  5
35E
100
AcDbEntity
  8
MAIN0
  6
CONTINUOUS
 62
3
100
AcDbLine
 10
481.0847680409347
 20
251.3265753676686
 30
0.0000000000000000
 11
478.2701854786344
 21
252.9515753676671
 31
0.0000000000000000
  0
LINE
  5
35F
100
AcDbEntity
  8
MAIN0
  6
HIDDEN
 62
3
100
AcDbLine
 10
467.2555581112266
 20
252.3249351860696
 30
0.0000000000000000
 11
478.5555581112266
 21
271.8971093115979
 31
0.0000000000000000
  0
LINE
  5
360
100
AcDbEntity
  8
MAIN0
  6
HIDDEN
 62
3
100
AcDbLine
 10
467.3287631919835
 20
252.0517301053127
 30
0.0000000000000000
 11
477.9597680409265
 21
245.9139165940193
 31
0.0000000000000000
  0
LINE
  5
361
100
AcDbEntity
  8
MAIN0
  6
CONTINUOUS
 62
3
100
AcDbLine
 10
477.9597680409266
 20
245.9139165940194
 30
0.0000000000000000
 11
497.5319421664640
 21
234.6139165940140
 31
0.0000000000000000
  0
LINE
  5
362
100
AcDbEntity
  8
MAIN0
  6
HIDDEN
 62
3
100
AcDbLine
 10
478.8287631919835
 20
271.9703143923549
 30
0.0000000000000000
 11
489.4597680409370
 21
265.8325008810554
 31
0.0000000000000000
  0
LINE
  5
363
100
AcDbEntity
  8
MAIN0
  6
CONTINUOUS
 62
3
100
AcDbLine
 10
489.4597680409370
 20
265.8325008810554
 30
0.0000000000000000
 11
509.0319421664640
 21
254.5325008810561
 31
0.0000000000000000
  0
ARC
  5
364
100
AcDbEntity
  8
MAIN0
  6
CONTINUOUS
 62
3
100
AcDbCircle
 10
480.8951854786338
 20
257.4982087375398
 30
0.0000000000000000
 40
5.249999999997224
100
AcDbArc
 50
60.00000000000001
 51
77.75279016195604
  0
ARC
  5
365
100
AcDbEntity
  8
MAIN0
  6
CONTINUOUS
 62
3
100
AcDbCircle
 10
480.8951854786338
 20
257.4982087375398
 30
0.0000000000000000
 40
5.249999999997224
100
AcDbArc
 50
77.75279016195604
 51
222.2472098382515
  0
ARC
  5
366
100
AcDbEntity
  8
MAIN0
  6
CONTINUOUS
 62
3
100
AcDbCircle
 10
480.8951854786338
 20
257.4982087375398
 30
0.0000000000000000
 40
5.249999999997224
100
AcDbArc
 50
222.2472098382515
 51
240.0000000000000
  0
LINE
  5
367
100
AcDbEntity
  8
MAIN0
  6
HIDDEN
 62
3
100
AcDbLine
 10
479.8011800529117
 20
263.9033357564683
 30
0.0000000000000000
 11
481.3439827940468
 21
263.0125981785674
 31
0.0000000000000000
  0
LINE
  5
368
100
AcDbEntity
  8
MAIN0
  6
HIDDEN
 62
3
100
AcDbLine
 10
474.8011800529049
 20
255.2430817186278
 30
0.0000000000000000
 11
476.3439827940470
 21
254.3523441407230
 31
0.0000000000000000
  0
LINE
  5
369
100
AcDbEntity
  8
MAIN0
  6
HIDDEN
 62
3
100
AcDbLine
 10
481.3439827940468
 20
263.0125981785674
 30
0.0000000000000000
 11
482.0088684153312
 21
262.6287262861386
 31
0.0000000000000000
  0
LINE
  5
36A
100
AcDbEntity
  8
MAIN0
  6
CONTINUOUS
 62
3
100
AcDbLine
 10
482.0088684153312
 20
262.6287262861386
 30
0.0000000000000000
 11
505.7819421664639
 21
248.9033357564572
 31
0.0000000000000000
  0
LINE
  5
36B
100
AcDbEntity
  8
MAIN0
  6
HIDDEN
 62
3
100
AcDbLine
 10
476.3439827940470
 20
254.3523441407230
 30
0.0000000000000000
 11
477.0088684153468
 21
253.9684722482852
 31
0.0000000000000000
  0
LINE
  5
36C
100
AcDbEntity
  8
MAIN0
  6
CONTINUOUS
 62
3
100
AcDbLine
 10
477.0088684153468
 20
253.9684722482852
 30
0.0000000000000000
 11
500.7819421664639
 21
240.2430817186129
 31
0.0000000000000000
  0
ARC
  5
36D
100
AcDbEntity
  8
MAIN0
  6
CONTINUOUS
 62
3
100
AcDbCircle
 10
455.2177920640544
 20
272.3230587375327
 30
0.0000000000000000
 40
56.50001674826189
100
AcDbArc
 50
341.7440314872406
 51
438.2559685127587
  0
ARC
  5
36E
100
AcDbEntity
  8
MAIN0
  6
CONTINUOUS
 62
3
100
AcDbCircle
 10
455.2177920640544
 20
272.3230587375327
 30
0.0000000000000000
 40
56.50001674826189
100
AcDbArc
 50
319.2024566300154
 51
340.7975433699846
  0
LINE
  5
36F
100
AcDbEntity
  8
MAIN0
  6
CONTINUOUS
 62
3
100
AcDbLine
 10
433.0959576678182
 20
251.1649261342980
 30
0.0000000000000000
 11
436.4766980598299
 21
250.2590594764392
 31
0.0000000000000000
  0
LINE
  5
370
100
AcDbEntity
  8
MAIN0
  6
CONTINUOUS
 62
3
100
AcDbLine
 10
434.3333945348946
 20
249.0216226093629
 30
0.0000000000000000
 11
435.2392611927534
 21
252.4023630013746
 31
0.0000000000000000
  0
LINE
  5
371
100
AcDbEntity
  8
MAIN0
  6
CONTINUOUS
 62
3
100
AcDbLine
 10
424.5959576678181
 20
265.8873579986337
 30
0.0000000000000000
 11
427.9766980598299
 21
264.9814913407748
 31
0.0000000000000000
  0
LINE
  5
372
100
AcDbEntity
  8
MAIN0
  6
CONTINUOUS
 62
3
100
AcDbLine
 10
425.8333945348946
 20
263.7440544736985
 30
0.0000000000000000
 11
426.7392611927534
 21
267.1247948657103
 31
0.0000000000000000
  0
LINE
  5
373
100
AcDbEntity
  8
MAIN0
  6
CONTINUOUS
 62
3
100
AcDbLine
 10
401.2786419617251
 20
254.7490072318632
 30
0.0000000000000000
 11
413.0286419617123
 21
234.3974102429511
 31
0.0000000000000000
  0
LINE
  5
374
100
AcDbEntity
  8
MAIN0
  6
HIDDEN
 62
3
100
AcDbLine
 10
431.6068209361246
 20
271.9703143923563
 30
0.0000000000000000
 11
431.8800260168814
 21
271.8971093115994
 31
0.0000000000000000
  0
LINE
  5
375
100
AcDbEntity
  8
MAIN0
  6
HIDDEN
 62
3
100
AcDbLine
 10
443.1800260168815
 20
252.3249351860710
 30
0.0000000000000000
 11
443.1068209361246
 21
252.0517301053140
 31
0.0000000000000000
  0
LINE
  5
376
100
AcDbEntity
  8
MAIN0
  6
CONTINUOUS
 62
3
100
AcDbLine
 10
432.3892135467939
 20
245.8639165940154
 30
0.0000000000000000
 11
429.1392135467939
 21
251.4930817186142
 31
0.0000000000000000
  0
LINE
  5
377
100
AcDbEntity
  8
MAIN0
  6
CONTINUOUS
 62
3
100
AcDbLine
 10
424.1392135467939
 20
260.1533357564586
 30
0.0000000000000000
 11
420.8892135467939
 21
265.7825008810574
 31
0.0000000000000000
  0
LINE
  5
378
100
AcDbEntity
  8
MAIN0
  6
HIDDEN
 62
3
100
AcDbLine
 10
438.8844040751919
 20
249.6139165940239
 30
0.0000000000000000
 11
435.0119024107369
 21
256.3212862292671
 31
0.0000000000000000
  0
LINE
  5
379
100
AcDbEntity
  8
MAIN0
  6
HIDDEN
 62
3
100
AcDbLine
 10
431.2569057396655
 20
262.8251312458265
 30
0.0000000000000000
 11
427.3844040752075
 21
269.5325008810750
 31
0.0000000000000000
  0
ARC
  5
37A
100
AcDbEntity
  8
MAIN0
  6
HIDDEN
 62
3
100
AcDbCircle
 10
429.7136037302287
 20
257.5982087375364
 30
0.0000000000000000
 40
5.450000000000000
100
AcDbArc
 50
323.4466172550467
 51
456.5533827449538
  0
LINE
  5
37B
100
AcDbEntity
  8
MAIN0
  6
CONTINUOUS
 62
3
100
AcDbLine
 10
432.9661971439558
 20
275.0645516886205
 30
0.0000000000000000
 11
419.9758160871887
 21
267.5645516886212
 31
0.0000000000000000
  0
LINE
  5
37C
100
AcDbEntity
  8
MAIN0
  6
CONTINUOUS
 62
3
100
AcDbLine
 10
446.4661971439434
 20
251.6818657864336
 30
0.0000000000000000
 11
433.4758160871763
 21
244.1818657864343
 31
0.0000000000000000
  0
LINE
  5
37D
100
AcDbEntity
  8
MAIN0
  6
CONTINUOUS
 62
3
100
AcDbLine
 10
446.4661971439434
 20
251.6818657864337
 30
0.0000000000000000
 11
432.9661971439557
 21
275.0645516886207
 31
0.0000000000000000
  0
CIRCLE
  5
37E
100
AcDbEntity
  8
MAIN0
  6
CONTINUOUS
 62
3
100
AcDbCircle
 10
434.7863278638239
 20
250.7119928053687
 30
0.0000000000000000
 40
3.150000000000000
  0
LINE
  5
37F
100
AcDbEntity
  8
MAIN0
  6
CENTER
 62
3
100
AcDbLine
 10
432.7113278638238
 20
254.3059982310742
 30
0.0000000000000000
 11
436.8613278638238
 21
247.1179873796633
 31
0.0000000000000000
  0
LINE
  5
380
100
AcDbEntity
  8
MAIN0
  6
CENTER
 62
3
100
AcDbLine
 10
431.1923224381184
 20
248.6369928053687
 30
0.0000000000000000
 11
438.3803332895292
 21
252.7869928053686
 31
0.0000000000000000
  0
LINE
  5
381
100
AcDbEntity
  8
MAIN0
  6
CONTINUOUS
 62
3
100
AcDbLine
 10
433.4758160871762
 20
244.1818657864344
 30
0.0000000000000000
 11
429.3508160871730
 21
251.3265753676704
 31
0.0000000000000000
  0
LINE
  5
382
100
AcDbEntity
  8
MAIN0
  6
CONTINUOUS
 62
3
100
AcDbLine
 10
424.1008160871778
 20
260.4198421074098
 30
0.0000000000000000
 11
419.9758160871886
 21
267.5645516886214
 31
0.0000000000000000
  0
LINE
  5
383
100
AcDbEntity
  8
MAIN0
  6
CONTINUOUS
 62
3
100
AcDbLine
 10
424.1008160871778
 20
260.4198421074099
 30
0.0000000000000000
 11
426.4823859475833
 21
261.7948421074072
 31
0.0000000000000000
  0
LINE
  5
384
100
AcDbEntity
  8
MAIN0
  6
CONTINUOUS
 62
3
100
AcDbLine
 10
429.3508160871731
 20
251.3265753676704
 30
0.0000000000000000
 11
432.1653986494733
 21
252.9515753676689
 31
0.0000000000000000
  0
CIRCLE
  5
385
100
AcDbEntity
  8
MAIN0
  6
CONTINUOUS
 62
3
100
AcDbCircle
 10
426.2863278638238
 20
265.4344246697045
 30
0.0000000000000000
 40
3.150000000000000
  0
LINE
  5
386
100
AcDbEntity
  8
MAIN0
  6
CENTER
 62
3
100
AcDbLine
 10
428.3613278638237
 20
261.8404192439989
 30
0.0000000000000000
 11
424.2113278638237
 21
269.0284300954097
 31
0.0000000000000000
  0
LINE
  5
387
100
AcDbEntity
  8
MAIN0
  6
CENTER
 62
3
100
AcDbLine
 10
422.6923224381183
 20
263.3594246697044
 30
0.0000000000000000
 11
429.8803332895291
 21
267.5094246697044
 31
0.0000000000000000
  0
LINE
  5
388
100
AcDbEntity
  8
MAIN0
  6
CONTINUOUS
 62
3
100
AcDbLine
 10
424.1008160871743
 20
260.4198421074046
 30
0.0000000000000000
 11
426.9153986494729
 21
262.0448421074062
 31
0.0000000000000000
  0
LINE
  5
389
100
AcDbEntity
  8
MAIN0
  6
HIDDEN
 62
3
100
AcDbLine
 10
431.8800260168814
 20
271.8971093115994
 30
0.0000000000000000
 11
443.1800260168814
 21
252.3249351860710
 31
0.0000000000000000
  0
LINE
  5
38A
100
AcDbEntity
  8
MAIN0
  6
HIDDEN
 62
3
100
AcDbLine
 10
431.6068209361244
 20
271.9703143923562
 30
0.0000000000000000
 11
420.9758160871815
 21
265.8325008810628
 31
0.0000000000000000
  0
LINE
  5
38B
100
AcDbEntity
  8
MAIN0
  6
CONTINUOUS
 62
3
100
AcDbLine
 10
420.9758160871815
 20
265.8325008810627
 30
0.0000000000000000
 11
401.4036419616440
 21
254.5325008810574
 31
0.0000000000000000
  0
LINE
  5
38C
100
AcDbEntity
  8
MAIN0
  6
HIDDEN
 62
3
100
AcDbLine
 10
443.1068209361245
 20
252.0517301053142
 30
0.0000000000000000
 11
432.4758160871710
 21
245.9139165940146
 31
0.0000000000000000
  0
LINE
  5
38D
100
AcDbEntity
  8
MAIN0
  6
CONTINUOUS
 62
3
100
AcDbLine
 10
432.4758160871710
 20
245.9139165940146
 30
0.0000000000000000
 11
412.9036419616440
 21
234.6139165940153
 31
0.0000000000000000
  0
ARC
  5
38E
100
AcDbEntity
  8
MAIN0
  6
CONTINUOUS
 62
3
100
AcDbCircle
 10
429.5403986494771
 20
257.4982087375362
 30
0.0000000000000000
 40
5.249999999997224
100
AcDbArc
 50
300.0000000000001
 51
317.7527901619561
  0
ARC
  5
38F
100
AcDbEntity
  8
MAIN0
  6
CONTINUOUS
 62
3
100
AcDbCircle
 10
429.5403986494771
 20
257.4982087375362
 30
0.0000000000000000
 40
5.249999999997224
100
AcDbArc
 50
317.7527901619561
 51
462.2472098382514
  0
ARC
  5
390
100
AcDbEntity
  8
MAIN0
  6
CONTINUOUS
 62
3
100
AcDbCircle
 10
429.5403986494771
 20
257.4982087375362
 30
0.0000000000000000
 40
5.249999999997224
100
AcDbArc
 50
102.2472098382515
 51
120.0000000000000
  0
LINE
  5
391
100
AcDbEntity
  8
MAIN0
  6
HIDDEN
 62
3
100
AcDbLine
 10
435.6344040751962
 20
255.2430817186253
 30
0.0000000000000000
 11
434.0916013340611
 21
254.3523441407244
 31
0.0000000000000000
  0
LINE
  5
392
100
AcDbEntity
  8
MAIN0
  6
HIDDEN
 62
3
100
AcDbLine
 10
430.6344040752031
 20
263.9033357564736
 30
0.0000000000000000
 11
429.0916013340610
 21
263.0125981785687
 31
0.0000000000000000
  0
LINE
  5
393
100
AcDbEntity
  8
MAIN0
  6
HIDDEN
 62
3
100
AcDbLine
 10
434.0916013340611
 20
254.3523441407244
 30
0.0000000000000000
 11
433.4267157127768
 21
253.9684722482956
 31
0.0000000000000000
  0
LINE
  5
394
100
AcDbEntity
  8
MAIN0
  6
CONTINUOUS
 62
3
100
AcDbLine
 10
433.4267157127768
 20
253.9684722482956
 30
0.0000000000000000
 11
409.6536419616440
 21
240.2430817186143
 31
0.0000000000000000
  0
LINE
  5
395
100
AcDbEntity
  8
MAIN0
  6
HIDDEN
 62
3
100
AcDbLine
 10
429.0916013340610
 20
263.0125981785687
 30
0.0000000000000000
 11
428.4267157127612
 21
262.6287262861309
 31
0.0000000000000000
  0
LINE
  5
396
100
AcDbEntity
  8
MAIN0
  6
CONTINUOUS
 62
3
100
AcDbLine
 10
428.4267157127612
 20
262.6287262861309
 30
0.0000000000000000
 11
404.6536419616440
 21
248.9033357564587
 31
0.0000000000000000
  0
ARC
  5
397
100
AcDbEntity
  8
MAIN0
  6
CONTINUOUS
 62
3
100
AcDbCircle
 10
455.2177920640544
 20
272.3230587375327
 30
0.0000000000000000
 40
56.50001674826189
100
AcDbArc
 50
199.2024566300154
 51
220.7975433699846
  0
ARC
  5
398
100
AcDbEntity
  8
MAIN0
  6
CONTINUOUS
 62
3
100
AcDbCircle
 10
455.2177920640544
 20
272.3230587375327
 30
0.0000000000000000
 40
56.50001674826189
100
AcDbArc
 50
221.7440314872406
 51
318.2559685127579
  0
LINE
  5
399
100
AcDbEntity
  8
MAIN0
  6
CONTINUOUS
 62
3
100
AcDbLine
 10
44.89452764793293
 20
122.9519877939364
 30
0.0000000000000000
 11
44.89452764793293
 21
100.3519877939365
 31
0.0000000000000000
  0
LINE
  5
39A
100
AcDbEntity
  8
MAIN0
  6
CONTINUOUS
 62
3
100
AcDbLine
 10
48.89452764793293
 20
128.6019877939364
 30
0.0000000000000000
 11
48.89452764793293
 21
123.1519877939364
 31
0.0000000000000000
  0
LINE
  5
39B
100
AcDbEntity
  8
MAIN0
  6
CONTINUOUS
 62
3
100
AcDbLine
 10
48.89452764793293
 20
100.1519877939364
 30
0.0000000000000000
 11
48.89452764793293
 21
94.70198779393633
 31
0.0000000000000000
  0
LINE
  5
39C
100
AcDbEntity
  8
MAIN0
  6
CONTINUOUS
 62
3
100
AcDbLine
 10
49.09452764793275
 20
128.8019877939365
 30
0.0000000000000000
 11
48.89452764793282
 21
128.6019877939365
 31
0.0000000000000000
  0
LINE
  5
39D
100
AcDbEntity
  8
MAIN0
  6
CONTINUOUS
 62
3
100
AcDbLine
 10
48.89452764793288
 20
94.70198779393644
 30
0.0000000000000000
 11
49.09452764793286
 21
94.50198779393645
 31
0.0000000000000000
  0
LINE
  5
39E
100
AcDbEntity
  8
MAIN0
  6
CONTINUOUS
 62
3
100
AcDbLine
 10
45.09452764793286
 20
100.1519877939364
 30
0.0000000000000000
 11
44.89452764793276
 21
100.3519877939365
 31
0.0000000000000000
  0
LINE
  5
39F
100
AcDbEntity
  8
MAIN0
  6
CONTINUOUS
 62
3
100
AcDbLine
 10
45.09452764793286
 20
123.1519877939364
 30
0.0000000000000000
 11
44.89452764793282
 21
122.9519877939364
 31
0.0000000000000000
  0
LINE
  5
3A0
100
AcDbEntity
  8
MAIN0
  6
CONTINUOUS
 62
3
100
AcDbLine
 10
75.89452764790815
 20
106.6519877939362
 30
0.0000000000000000
 11
76.89452764793276
 21
106.0746375247323
 31
0.0000000000000000
  0
LINE
  5
3A1
100
AcDbEntity
  8
MAIN0
  6
CONTINUOUS
 62
3
100
AcDbLine
 10
75.89452764790826
 20
116.6519877939363
 30
0.0000000000000000
 11
76.89452764793293
 21
117.2293380631402
 31
0.0000000000000000
  0
LINE
  5
3A2
100
AcDbEntity
  8
MAIN0
  6
CONTINUOUS
 62
3
100
AcDbLine
 10
61.07026357922081
 20
105.9762518626401
 30
0.0000000000000000
 11
62.96879171663716
 21
104.0777237252243
 31
0.0000000000000000
  0
LINE
  5
3A3
100
AcDbEntity
  8
MAIN0
  6
CONTINUOUS
 62
3
100
AcDbLine
 10
62.96879171666592
 20
119.2262518626482
 30
0.0000000000000000
 11
61.07026357922086
 21
117.3277237252024
 31
0.0000000000000000
  0
ARC
  5
3A4
100
AcDbEntity
  8
MAIN0
  6
CONTINUOUS
 62
3
100
AcDbCircle
 10
61.49452764793290
 20
116.9034596564905
 30
0.0000000000000000
 40
0.6000000000000000
100
AcDbArc
 50
135.0000000000124
 51
180.0000000000000
  0
ARC
  5
3A5
100
AcDbEntity
  8
MAIN0
  6
CONTINUOUS
 62
3
100
AcDbCircle
 10
63.39305578537795
 20
118.8019877939364
 30
0.0000000000000000
 40
0.6000000000000000
100
AcDbArc
 50
90.00000000000000
 51
135.0000000000120
  0
ARC
  5
3A6
100
AcDbEntity
  8
MAIN0
  6
CONTINUOUS
 62
3
100
AcDbCircle
 10
63.39305578534919
 20
104.5019877939364
 30
0.0000000000000000
 40
0.6000000000000000
100
AcDbArc
 50
225.0000000000079
 51
270.0000000000000
  0
ARC
  5
3A7
100
AcDbEntity
  8
MAIN0
  6
CONTINUOUS
 62
3
100
AcDbCircle
 10
61.49452764793290
 20
106.4005159313522
 30
0.0000000000000000
 40
0.6000000000000000
100
AcDbArc
 50
180.0000000000000
 51
225.0000000000076
  0
LINE
  5
3A8
100
AcDbEntity
  8
MAIN0
  6
CONTINUOUS
 62
3
100
AcDbLine
 10
66.89452764812097
 20
116.6519877939366
 30
0.0000000000000000
 11
79.19452764812093
 21
116.6519877939366
 31
0.0000000000000000
  0
LINE
  5
3A9
100
AcDbEntity
  8
MAIN0
  6
CONTINUOUS
 62
3
100
AcDbLine
 10
79.39452764812091
 20
106.8519877939366
 30
0.0000000000000000
 11
79.39452764812091
 21
116.4519877939366
 31
0.0000000000000000
  0
LINE
  5
3AA
100
AcDbEntity
  8
MAIN0
  6
CONTINUOUS
 62
3
100
AcDbLine
 10
66.89452764812080
 20
116.6519877939365
 30
0.0000000000000000
 11
66.89452764812080
 21
118.3019877939366
 31
0.0000000000000000
  0
LINE
  5
3AB
100
AcDbEntity
  8
MAIN0
  6
CONTINUOUS
 62
3
100
AcDbLine
 10
61.39452764812074
 20
106.9019877939363
 30
0.0000000000000000
 11
61.39452764812074
 21
116.4019877939363
 31
0.0000000000000000
  0
LINE
  5
3AC
100
AcDbEntity
  8
MAIN0
  6
CONTINUOUS
 62
3
100
AcDbLine
 10
66.89452764812097
 20
106.6519877939366
 30
0.0000000000000000
 11
79.19452764812093
 21
106.6519877939366
 31
0.0000000000000000
  0
LINE
  5
3AD
100
AcDbEntity
  8
MAIN0
  6
CONTINUOUS
 62
3
100
AcDbLine
 10
66.89452764812091
 20
105.0019877939365
 30
0.0000000000000000
 11
66.89452764812091
 21
106.6519877939366
 31
0.0000000000000000
  0
LINE
  5
3AE
100
AcDbEntity
  8
MAIN0
  6
CONTINUOUS
 62
3
100
AcDbLine
 10
79.39452764812086
 20
106.8519877939366
 30
0.0000000000000000
 11
79.19452764812093
 21
106.6519877939367
 31
0.0000000000000000
  0
LINE
  5
3AF
100
AcDbEntity
  8
MAIN0
  6
CONTINUOUS
 62
3
100
AcDbLine
 10
79.39452764812091
 20
116.4519877939366
 30
0.0000000000000000
 11
79.19452764812093
 21
116.6519877939365
 31
0.0000000000000000
  0
LINE
  5
3B0
100
AcDbEntity
  8
MAIN0
  6
CONTINUOUS
 62
3
100
AcDbLine
 10
63.89452764812074
 20
118.9019877939366
 30
0.0000000000000000
 11
66.29452764812095
 21
118.9019877939366
 31
0.0000000000000000
  0
LINE
  5
3B1
100
AcDbEntity
  8
MAIN0
  6
CONTINUOUS
 62
3
100
AcDbLine
 10
63.89452764812074
 20
104.4019877939365
 30
0.0000000000000000
 11
66.29452764812095
 21
104.4019877939365
 31
0.0000000000000000
  0
LINE
  5
3B2
100
AcDbEntity
  8
MAIN0
  6
CONTINUOUS
 62
3
100
AcDbLine
 10
66.89452764812080
 20
105.0019877939364
 30
0.0000000000000000
 11
66.29452764812089
 21
104.4019877939365
 31
0.0000000000000000
  0
LINE
  5
3B3
100
AcDbEntity
  8
MAIN0
  6
CONTINUOUS
 62
3
100
AcDbLine
 10
66.29452764812089
 20
118.9019877939367
 30
0.0000000000000000
 11
66.89452764812086
 21
118.3019877939367
 31
0.0000000000000000
  0
LINE
  5
3B4
100
AcDbEntity
  8
MAIN0
  6
CONTINUOUS
 62
3
100
AcDbLine
 10
63.89452764812063
 20
118.9019877939363
 30
0.0000000000000000
 11
61.39452764812057
 21
116.4019877939363
 31
0.0000000000000000
  0
LINE
  5
3B5
100
AcDbEntity
  8
MAIN0
  6
CONTINUOUS
 62
3
100
AcDbLine
 10
61.39452764812063
 20
106.9019877939364
 30
0.0000000000000000
 11
63.89452764812057
 21
104.4019877939364
 31
0.0000000000000000
  0
LINE
  5
3B6
100
AcDbEntity
  8
MAIN0
  6
HIDDEN
 62
3
100
AcDbLine
 10
79.39452764812131
 20
107.6519877939333
 30
0.0000000000000000
 11
61.39452764812131
 21
107.6519877939333
 31
0.0000000000000000
  0
LINE
  5
3B7
100
AcDbEntity
  8
MAIN0
  6
HIDDEN
 62
3
100
AcDbLine
 10
61.39452764812114
 20
108.2519877939107
 30
0.0000000000000000
 11
79.39452764812108
 21
108.2519877939189
 31
0.0000000000000000
  0
LINE
  5
3B8
100
AcDbEntity
  8
MAIN0
  6
HIDDEN
 62
3
100
AcDbLine
 10
61.39452764812057
 20
115.0519877938962
 30
0.0000000000000000
 11
79.39452764812052
 21
115.0519877939037
 31
0.0000000000000000
  0
LINE
  5
3B9
100
AcDbEntity
  8
MAIN0
  6
HIDDEN
 62
3
100
AcDbLine
 10
79.39452764812063
 20
115.6519877939334
 30
0.0000000000000000
 11
61.39452764812063
 21
115.6519877939334
 31
0.0000000000000000
  0
LINE
  5
3BA
100
AcDbEntity
  8
MAIN0
  6
CONTINUOUS
 62
3
100
AcDbLine
 10
45.09452764793292
 20
123.1519877939364
 30
0.0000000000000000
 11
48.89452764793293
 21
123.1519877939364
 31
0.0000000000000000
  0
LINE
  5
3BB
100
AcDbEntity
  8
MAIN0
  6
CONTINUOUS
 62
3
100
AcDbLine
 10
60.89452764793288
 20
123.1519877939364
 30
0.0000000000000000
 11
61.79452764793291
 21
123.1519877939364
 31
0.0000000000000000
  0
LINE
  5
3BC
100
AcDbEntity
  8
MAIN0
  6
CONTINUOUS
 62
3
100
AcDbLine
 10
45.09452764793292
 20
100.1519877939364
 30
0.0000000000000000
 11
48.89452764793293
 21
100.1519877939364
 31
0.0000000000000000
  0
LINE
  5
3BD
100
AcDbEntity
  8
MAIN0
  6
CONTINUOUS
 62
3
100
AcDbLine
 10
60.89452764793288
 20
100.1519877939364
 30
0.0000000000000000
 11
62.17070895913599
 21
100.1519877939364
 31
0.0000000000000000
  0
LINE
  5
3BE
100
AcDbEntity
  8
MAIN0
  6
CONTINUOUS
 62
3
100
AcDbLine
 10
497.4069421663965
 20
234.3974102429511
 30
0.0000000000000000
 11
495.9853880308462
 21
233.2045846921115
 31
0.0000000000000000
  0
LINE
  5
3BF
100
AcDbEntity
  8
MAIN0
  6
CONTINUOUS
 62
3
100
AcDbLine
 10
509.1569421663836
 20
254.7490072318633
 30
0.0000000000000000
 11
509.4791823278043
 21
256.5765220008755
 31
0.0000000000000000
  0
LINE
  5
3C0
100
AcDbEntity
  8
MAIN0
  6
CONTINUOUS
 62
3
100
AcDbLine
 10
401.2786419617252
 20
254.7490072318633
 30
0.0000000000000000
 11
400.9564018003044
 21
256.5765220008755
 31
0.0000000000000000
  0
LINE
  5
3C1
100
AcDbEntity
  8
MAIN0
  6
CONTINUOUS
 62
3
100
AcDbLine
 10
413.0286419617123
 20
234.3974102429511
 30
0.0000000000000000
 11
414.4501960972625
 21
233.2045846921116
 31
0.0000000000000000
  0
LINE
  5
3C2
100
AcDbEntity
  8
MAIN0
  6
CONTINUOUS
 62
3
100
AcDbLine
 10
443.4677920642157
 20
327.8227587375266
 30
0.0000000000000000
 11
441.7239977677496
 21
327.1880695189304
 31
0.0000000000000000
  0
LINE
  5
3C3
100
AcDbEntity
  8
MAIN0
  6
CONTINUOUS
 62
3
100
AcDbLine
 10
466.9677920641901
 20
327.8227587375266
 30
0.0000000000000000
 11
468.7115863612755
 21
327.1880695187051
 31
0.0000000000000000
  0
LINE
  5
3C4
100
AcDbEntity
  8
MAIN0
  6
CONTINUOUS
 62
3
100
AcDbLine
 10
443.4677920642157
 20
327.8227587375267
 30
0.0000000000000000
 11
443.7177920640544
 21
327.8227587375267
 31
0.0000000000000000
  0
LINE
  5
3C5
100
AcDbEntity
  8
MAIN0
  6
CONTINUOUS
 62
3
100
AcDbLine
 10
466.7177920640544
 20
327.8227587375267
 30
0.0000000000000000
 11
466.9677920641901
 21
327.8227587375267
 31
0.0000000000000000
  0
HATCH
  5
3C6
100
AcDbEntity
  8
MAIN0
  6
CONTINUOUS
 62
3
100
AcDbHatch
 10
0.000000
 20
0.000000
 30
0.000000
210
0.000000
220
0.000000
230
1.000000
  2
SOLID
 70
1
 71
0
 91
1
 92
7
 72
0
 73
1
 93
3
 10
315.6698437934776
 20
47.48173426873004
 10
316.1492724184220
 20
46.65133953172594
 10
315.6698437934776
 20
45.82094479472201
 97
0
 75
0
 76
1
 47
0.100000
 98
1
 10
0.000000
 20
0.000000
  0
LINE
  5
3C7
100
AcDbEntity
  8
MAIN0
  6
CONTINUOUS
 62
3
100
AcDbLine
 10
224.9264207982980
 20
297.8227150084850
 30
0.0000000000000000
 11
226.4818191946579
 21
297.8227150084850
 31
0.0000000000000000
  0
ARC
  5
3C8
100
AcDbEntity
  8
MAIN0
  6
CONTINUOUS
 62
3
100
AcDbCircle
 10
226.8818191946580
 20
304.9227150084852
 30
0.0000000000000000
 40
0.4000000000000000
100
AcDbArc
 50
90.00000000000000
 51
180.0000000000000
  0
LINE
  5
3C9
100
AcDbEntity
  8
MAIN0
  6
CENTER
 62
3
100
AcDbLine
 10
220.3278114422605
 20
300.8227150084850
 30
0.0000000000000000
 11
229.8123527737170
 21
300.8227150084850
 31
0.0000000000000000
  0
LINE
  5
3CA
100
AcDbEntity
  8
MAIN0
  6
CONTINUOUS
 62
3
100
AcDbLine
 10
228.2818191946580
 20
305.2227150084850
 30
0.0000000000000000
 11
228.2818191946580
 21
290.2227150084850
 31
0.0000000000000000
  0
LINE
  5
3CB
100
AcDbEntity
  8
MAIN0
  6
CONTINUOUS
 62
3
100
AcDbLine
 10
226.6172440635514
 20
305.2227150084850
 30
0.0000000000000000
 11
228.2818191946580
 21
305.2227150084850
 31
0.0000000000000000
  0
LINE
  5
3CC
100
AcDbEntity
  8
MAIN0
  6
CONTINUOUS
 62
3
100
AcDbLine
 10
226.4818191946579
 20
290.2227150084850
 30
0.0000000000000000
 11
228.2818191946580
 21
290.2227150084850
 31
0.0000000000000000
  0
LINE
  5
3CD
100
AcDbEntity
  8
MAIN0
  6
CONTINUOUS
 62
3
100
AcDbLine
 10
228.2818191946580
 20
297.8227150084850
 30
0.0000000000000000
 11
228.0318191946580
 21
297.8227150084850
 31
0.0000000000000000
  0
ARC
  5
3CE
100
AcDbEntity
  8
MAIN0
  6
CONTINUOUS
 62
3
100
AcDbCircle
 10
228.5319302749237
 20
324.8227150084837
 30
0.0000000000000000
 40
0.1000000000000000
100
AcDbArc
 50
119.9816393689636
 51
240.0183606312737
  0
ARC
  5
3CF
100
AcDbEntity
  8
MAIN0
  6
CONTINUOUS
 62
3
100
AcDbCircle
 10
228.5319302749213
 20
326.3227150084834
 30
0.0000000000000000
 40
0.1000000000000000
100
AcDbArc
 50
119.9816393689050
 51
240.0183606312070
  0
ARC
  5
3D0
100
AcDbEntity
  8
MAIN0
  6
CONTINUOUS
 62
3
100
AcDbCircle
 10
228.5319302749189
 20
327.8227150084838
 30
0.0000000000000000
 40
0.1000000000000000
100
AcDbArc
 50
180.0000000000014
 51
240.0183606312776
  0
LINE
  5
3D1
100
AcDbEntity
  8
MAIN0
  6
CONTINUOUS
 62
3
100
AcDbLine
 10
229.3818191946577
 20
327.2169457777154
 30
0.0000000000000000
 11
229.3818191946576
 21
326.9284842392542
 31
0.0000000000000000
  0
LINE
  5
3D2
100
AcDbEntity
  8
MAIN0
  6
CONTINUOUS
 62
3
100
AcDbLine
 10
229.3818191946569
 20
325.7169457777158
 30
0.0000000000000000
 11
229.3818191946567
 21
325.4284842392539
 31
0.0000000000000000
  0
LINE
  5
3D3
100
AcDbEntity
  8
MAIN0
  6
CONTINUOUS
 62
3
100
AcDbLine
 10
229.3818191946557
 20
305.9284842392547
 30
0.0000000000000000
 11
229.3818191946546
 21
306.2169457777159
 31
0.0000000000000000
  0
LINE
  5
3D4
100
AcDbEntity
  8
MAIN0
  6
HIDDEN
 62
3
100
AcDbLine
 10
197.3818191946579
 20
327.8227150084850
 30
0.0000000000000000
 11
228.4319302748876
 21
327.8227150084835
 31
0.0000000000000000
  0
LINE
  5
3D5
100
AcDbEntity
  8
MAIN0
  6
CONTINUOUS
 62
3
100
AcDbLine
 10
226.8818191946580
 20
305.3227150084850
 30
0.0000000000000000
 11
228.4319302749189
 21
305.3227150084850
 31
0.0000000000000000
  0
ARC
  5
3D6
100
AcDbEntity
  8
MAIN0
  6
CONTINUOUS
 62
3
100
AcDbCircle
 10
228.5319302749188
 20
305.3227150084836
 30
0.0000000000000000
 40
0.1000000000000000
100
AcDbArc
 50
119.9816393689056
 51
180.0000000000000
  0
LINE
  5
3D7
100
AcDbEntity
  8
MAIN0
  6
CONTINUOUS
 62
3
100
AcDbLine
 10
228.5818191946576
 20
306.6784842392516
 30
0.0000000000000000
 11
229.3818191946546
 21
306.2169457777172
 31
0.0000000000000000
  0
LINE
  5
3D8
100
AcDbEntity
  8
MAIN0
  6
CONTINUOUS
 62
3
100
AcDbLine
 10
228.4819580295701
 20
305.4093335670885
 30
0.0000000000000000
 11
229.3818191946556
 21
305.9284842392532
 31
0.0000000000000000
  0
LINE
  5
3D9
100
AcDbEntity
  8
MAIN0
  6
CONTINUOUS
 62
3
100
AcDbLine
 10
228.4819580295703
 20
327.7360964498787
 30
0.0000000000000000
 11
229.3818191946578
 21
327.2169457777153
 31
0.0000000000000000
  0
LINE
  5
3DA
100
AcDbEntity
  8
MAIN0
  6
CONTINUOUS
 62
3
100
AcDbLine
 10
228.4819580295721
 20
326.4093335670882
 30
0.0000000000000000
 11
229.3818191946578
 21
326.9284842392539
 31
0.0000000000000000
  0
LINE
  5
3DB
100
AcDbEntity
  8
MAIN0
  6
CONTINUOUS
 62
3
100
AcDbLine
 10
228.4819580295724
 20
326.2360964498787
 30
0.0000000000000000
 11
229.3818191946570
 21
325.7169457777130
 31
0.0000000000000000
  0
LINE
  5
3DC
100
AcDbEntity
  8
MAIN0
  6
CONTINUOUS
 62
3
100
AcDbLine
 10
228.4819580295746
 20
324.9093335670887
 30
0.0000000000000000
 11
229.3818191946569
 21
325.4284842392552
 31
0.0000000000000000
  0
LINE
  5
3DD
100
AcDbEntity
  8
MAIN0
  6
CONTINUOUS
 62
3
100
AcDbLine
 10
228.4819580295750
 20
324.7360964498789
 30
0.0000000000000000
 11
229.3818191946562
 21
324.2169457777192
 31
0.0000000000000000
  0
LINE
  5
3DE
100
AcDbEntity
  8
MAIN0
  6
CONTINUOUS
 62
3
100
AcDbLine
 10
226.4818191946579
 20
290.2227150084850
 30
0.0000000000000000
 11
226.4818191946579
 21
304.9227150084852
 31
0.0000000000000000
  0
LINE
  5
3DF
100
AcDbEntity
  8
MAIN0
  6
HIDDEN
 62
3
100
AcDbLine
 10
170.7818191946590
 20
356.3230419892570
 30
0.0000000000000000
 11
169.7818191946590
 21
355.3230419892570
 31
0.0000000000000000
  0
LINE
  5
3E0
100
AcDbEntity
  8
MAIN0
  6
HIDDEN
 62
3
100
AcDbLine
 10
169.7818191946590
 20
355.3230419892570
 30
0.0000000000000000
 11
162.9818191946590
 21
355.3230419892570
 31
0.0000000000000000
  0
LINE
  5
3E1
100
AcDbEntity
  8
MAIN0
  6
HIDDEN
 62
3
100
AcDbLine
 10
162.9818191946591
 20
355.3230419892570
 30
0.0000000000000000
 11
161.9818191946591
 21
356.3230419892570
 31
0.0000000000000000
  0
LINE
  5
3E2
100
AcDbEntity
  8
MAIN0
  6
HIDDEN
 62
3
100
AcDbLine
 10
170.3818191946590
 20
355.9230419892571
 30
0.0000000000000000
 11
170.3818191946590
 21
347.3230419892570
 31
0.0000000000000000
  0
LINE
  5
3E3
100
AcDbEntity
  8
MAIN0
  6
HIDDEN
 62
3
100
AcDbLine
 10
170.3818191946590
 20
347.3230419892570
 30
0.0000000000000000
 11
162.3818191946590
 21
347.3230419892570
 31
0.0000000000000000
  0
LINE
  5
3E4
100
AcDbEntity
  8
MAIN0
  6
HIDDEN
 62
3
100
AcDbLine
 10
162.3818191946590
 20
347.3230419892570
 30
0.0000000000000000
 11
162.3818191946590
 21
355.9230419892571
 31
0.0000000000000000
  0
LINE
  5
3E5
100
AcDbEntity
  8
MAIN0
  6
HIDDEN
 62
3
100
AcDbLine
 10
169.7818191946590
 20
355.3230419892570
 30
0.0000000000000000
 11
169.7818191946590
 21
342.3230419892570
 31
0.0000000000000000
  0
LINE
  5
3E6
100
AcDbEntity
  8
MAIN0
  6
HIDDEN
 62
3
100
AcDbLine
 10
169.7818191946590
 20
342.3230419892570
 30
0.0000000000000000
 11
162.9818191946590
 21
342.3230419892570
 31
0.0000000000000000
  0
LINE
  5
3E7
100
AcDbEntity
  8
MAIN0
  6
HIDDEN
 62
3
100
AcDbLine
 10
162.9818191946590
 20
342.3230419892570
 30
0.0000000000000000
 11
162.9818191946590
 21
355.3230419892570
 31
0.0000000000000000
  0
LINE
  5
3E8
100
AcDbEntity
  8
MAIN0
  6
HIDDEN
 62
3
100
AcDbLine
 10
169.7818191946590
 20
342.3230419892570
 30
0.0000000000000000
 11
166.3818191946590
 21
340.3600510740123
 31
0.0000000000000000
  0
LINE
  5
3E9
100
AcDbEntity
  8
MAIN0
  6
HIDDEN
 62
3
100
AcDbLine
 10
166.3818191946590
 20
340.3600510740123
 30
0.0000000000000000
 11
162.9818191946590
 21
342.3230419892570
 31
0.0000000000000000
  0
LINE
  5
3EA
100
AcDbEntity
  8
MAIN0
  6
HIDDEN
 62
3
100
AcDbLine
 10
161.5178191946594
 20
188.3230419892576
 30
0.0000000000000000
 11
161.7115691946593
 21
194.5230419892576
 31
0.0000000000000000
  0
LINE
  5
3EB
100
AcDbEntity
  8
MAIN0
  6
HIDDEN
 62
3
100
AcDbLine
 10
161.7115691946594
 20
194.5230419892576
 30
0.0000000000000000
 11
171.0520691946595
 21
194.5230419892576
 31
0.0000000000000000
  0
LINE
  5
3EC
100
AcDbEntity
  8
MAIN0
  6
HIDDEN
 62
3
100
AcDbLine
 10
171.0520691946595
 20
194.5230419892576
 30
0.0000000000000000
 11
171.2458191946594
 21
188.3230419892576
 31
0.0000000000000000
  0
LINE
  5
3ED
100
AcDbEntity
  8
MAIN0
  6
HIDDEN
 62
3
100
AcDbLine
 10
162.0988191946594
 20
188.3230419892576
 30
0.0000000000000000
 11
162.2925691946594
 21
194.5230419892576
 31
0.0000000000000000
  0
LINE
  5
3EE
100
AcDbEntity
  8
MAIN0
  6
HIDDEN
 62
3
100
AcDbLine
 10
170.6648191946595
 20
188.3230419892576
 30
0.0000000000000000
 11
170.4710691946594
 21
194.5230419892576
 31
0.0000000000000000
  0
LINE
  5
3EF
100
AcDbEntity
  8
MAIN0
  6
HIDDEN
 62
3
100
AcDbLine
 10
162.2818191946594
 20
194.5230419892576
 30
0.0000000000000000
 11
162.2818191946594
 21
201.3230419892576
 31
0.0000000000000000
  0
LINE
  5
3F0
100
AcDbEntity
  8
MAIN0
  6
HIDDEN
 62
3
100
AcDbLine
 10
162.2818191946594
 20
201.3230419892576
 30
0.0000000000000000
 11
170.4818191946595
 21
201.3230419892576
 31
0.0000000000000000
  0
LINE
  5
3F1
100
AcDbEntity
  8
MAIN0
  6
HIDDEN
 62
3
100
AcDbLine
 10
170.4818191946595
 20
201.3230419892576
 30
0.0000000000000000
 11
170.4818191946595
 21
194.5230419892576
 31
0.0000000000000000
  0
LINE
  5
3F2
100
AcDbEntity
  8
MAIN0
  6
HIDDEN
 62
3
100
AcDbLine
 10
162.2818191946594
 20
201.3230419892576
 30
0.0000000000000000
 11
166.3818191946594
 21
203.6901780929350
 31
0.0000000000000000
  0
LINE
  5
3F3
100
AcDbEntity
  8
MAIN0
  6
HIDDEN
 62
3
100
AcDbLine
 10
166.3818191946594
 20
203.6901780929351
 30
0.0000000000000000
 11
170.4818191946595
 21
201.3230419892577
 31
0.0000000000000000
  0
LINE
  5
3F4
100
AcDbEntity
  8
MAIN0
  6
CENTER
 62
3
100
AcDbLine
 10
490.2584906808790
 20
304.9990388268245
 30
0.0000000000000000
 11
495.9210458522603
 21
310.2794569502213
 31
0.0000000000000000
  0
LINE
  5
3F5
100
AcDbEntity
  8
MAIN0
  6
HIDDEN
 62
3
100
AcDbLine
 10
133.3818191948748
 20
218.8230419892686
 30
0.0000000000000000
 11
135.3818191946581
 21
218.8230419892716
 31
0.0000000000000000
  0
LINE
  5
3F6
100
AcDbEntity
  8
MAIN0
  6
HIDDEN
 62
3
100
AcDbLine
 10
135.3818191946581
 20
200.8230419892716
 30
0.0000000000000000
 11
135.3818191946581
 21
218.8230419892717
 31
0.0000000000000000
  0
LINE
  5
3F7
100
AcDbEntity
  8
MAIN0
  6
HIDDEN
 62
3
100
AcDbLine
 10
133.8818191946580
 20
200.8230419892693
 30
0.0000000000000000
 11
135.3818191946581
 21
200.8230419892715
 31
0.0000000000000000
  0
LINE
  5
3F8
100
AcDbEntity
  8
MAIN0
  6
HIDDEN
 62
3
100
AcDbLine
 10
135.3818191946583
 20
204.9590419892716
 30
0.0000000000000000
 11
142.3818191946581
 21
205.1777919892717
 31
0.0000000000000000
  0
LINE
  5
3F9
100
AcDbEntity
  8
MAIN0
  6
HIDDEN
 62
3
100
AcDbLine
 10
135.3818191946581
 20
205.5400419892716
 30
0.0000000000000000
 11
142.3818191946582
 21
205.7587919892716
 31
0.0000000000000000
  0
LINE
  5
3FA
100
AcDbEntity
  8
MAIN0
  6
HIDDEN
 62
3
100
AcDbLine
 10
142.3818191946581
 20
205.1777919892716
 30
0.0000000000000000
 11
142.3818191946581
 21
214.4682919892715
 31
0.0000000000000000
  0
LINE
  5
3FB
100
AcDbEntity
  8
MAIN0
  6
HIDDEN
 62
3
100
AcDbLine
 10
147.3818191946581
 20
205.7230419892716
 30
0.0000000000000000
 11
142.3818191946581
 21
205.7230419892716
 31
0.0000000000000000
  0
LINE
  5
3FC
100
AcDbEntity
  8
MAIN0
  6
HIDDEN
 62
3
100
AcDbLine
 10
142.3818191946581
 20
205.1777919892716
 30
0.0000000000000000
 11
143.8818191946583
 21
205.2246669892716
 31
0.0000000000000000
  0
LINE
  5
3FD
100
AcDbEntity
  8
MAIN0
  6
HIDDEN
 62
3
100
AcDbLine
 10
143.8818191946581
 20
214.4214169892715
 30
0.0000000000000000
 11
143.8818191946581
 21
205.2246669892716
 31
0.0000000000000000
  0
LINE
  5
3FE
100
AcDbEntity
  8
MAIN0
  6
HIDDEN
 62
3
100
AcDbLine
 10
142.3818191946581
 20
213.9230419892716
 30
0.0000000000000000
 11
147.3818191946581
 21
213.9230419892716
 31
0.0000000000000000
  0
LINE
  5
3FF
100
AcDbEntity
  8
MAIN0
  6
HIDDEN
 62
3
100
AcDbLine
 10
142.3818191946581
 20
214.4682919892715
 30
0.0000000000000000
 11
143.8818191946581
 21
214.4214169892715
 31
0.0000000000000000
  0
LINE
  5
400
100
AcDbEntity
  8
MAIN0
  6
HIDDEN
 62
3
100
AcDbLine
 10
147.3818191946581
 20
213.9230419892716
 30
0.0000000000000000
 11
147.3818191946581
 21
205.7230419892716
 31
0.0000000000000000
  0
LINE
  5
401
100
AcDbEntity
  8
MAIN0
  6
HIDDEN
 62
3
100
AcDbLine
 10
147.3818191946580
 20
213.9230419892716
 30
0.0000000000000000
 11
148.5942547601552
 21
211.8230419889270
 31
0.0000000000000000
  0
LINE
  5
402
100
AcDbEntity
  8
MAIN0
  6
HIDDEN
 62
3
100
AcDbLine
 10
148.5942547601553
 20
207.8230419892925
 30
0.0000000000000000
 11
148.5942547601553
 21
211.8230419890723
 31
0.0000000000000000
  0
LINE
  5
403
100
AcDbEntity
  8
MAIN0
  6
HIDDEN
 62
3
100
AcDbLine
 10
148.5942547601551
 20
211.8230419893030
 30
0.0000000000000000
 11
150.8818191946582
 21
211.8230419893064
 31
0.0000000000000000
  0
LINE
  5
404
100
AcDbEntity
  8
MAIN0
  6
HIDDEN
 62
3
100
AcDbLine
 10
148.5942547601549
 20
207.8230419893031
 30
0.0000000000000000
 11
150.8818191946582
 21
207.8230419893064
 31
0.0000000000000000
  0
LINE
  5
405
100
AcDbEntity
  8
MAIN0
  6
HIDDEN
 62
3
100
AcDbLine
 10
148.5942547599744
 20
207.8230419893030
 30
0.0000000000000000
 11
147.3818191946581
 21
205.7230419892716
 31
0.0000000000000000
  0
LINE
  5
406
100
AcDbEntity
  8
MAIN0
  6
HIDDEN
 62
3
100
AcDbLine
 10
135.3818191946582
 20
214.1060419892716
 30
0.0000000000000000
 11
142.3818191946583
 21
213.8872919892716
 31
0.0000000000000000
  0
LINE
  5
407
100
AcDbEntity
  8
MAIN0
  6
HIDDEN
 62
3
100
AcDbLine
 10
135.3818191946580
 20
214.6870419892716
 30
0.0000000000000000
 11
142.3818191946582
 21
214.4682919892716
 31
0.0000000000000000
  0
LINE
  5
408
100
AcDbEntity
  8
MAIN0
  6
HIDDEN
 62
3
100
AcDbLine
 10
135.3818191946581
 20
212.7097933349177
 30
0.0000000000000000
 11
139.3818191946581
 21
212.7097933349177
 31
0.0000000000000000
  0
LINE
  5
409
100
AcDbEntity
  8
MAIN0
  6
HIDDEN
 62
3
100
AcDbLine
 10
135.3818191946581
 20
211.2664176621575
 30
0.0000000000000000
 11
139.3818191946581
 21
211.2664176621622
 31
0.0000000000000000
  0
LINE
  5
40A
100
AcDbEntity
  8
MAIN0
  6
HIDDEN
 62
3
100
AcDbLine
 10
135.3818191946581
 20
208.3796663162317
 30
0.0000000000000000
 11
139.3818191946581
 21
208.3796663162333
 31
0.0000000000000000
  0
LINE
  5
40B
100
AcDbEntity
  8
MAIN0
  6
HIDDEN
 62
3
100
AcDbLine
 10
135.3818191946581
 20
206.9362906430866
 30
0.0000000000000000
 11
139.3818191946581
 21
206.9362906430882
 31
0.0000000000000000
  0
LINE
  5
40C
100
AcDbEntity
  8
MAIN0
  6
HIDDEN
 62
3
100
AcDbLine
 10
139.3818191946581
 20
206.5230419892775
 30
0.0000000000000000
 11
139.3818191946581
 21
213.1230419892775
 31
0.0000000000000000
  0
LINE
  5
40D
100
AcDbEntity
  8
MAIN0
  6
HIDDEN
 62
3
100
AcDbLine
 10
139.3818191946581
 20
206.5230419892774
 30
0.0000000000000000
 11
142.3818191946582
 21
206.5230419892819
 31
0.0000000000000000
  0
LINE
  5
40E
100
AcDbEntity
  8
MAIN0
  6
HIDDEN
 62
3
100
AcDbLine
 10
139.3818191946581
 20
213.1230419892775
 30
0.0000000000000000
 11
142.3818191946581
 21
213.1230419892819
 31
0.0000000000000000
  0
INSERT
  5
41F
100
AcDbEntity
  8
MAIN0
  6
HIDDEN
 62
3
100
AcDbBlockReference
  2
*X0
 10
0.0000000000000000
 20
0.0000000000000000
 30
0.0000000000000000
 50
0.0000000000000000
  0
CIRCLE
  5
420
100
AcDbEntity
  8
MAIN0
  6
HIDDEN
 62
3
100
AcDbCircle
 10
499.4119658881953
 20
228.1288849133554
 30
0.0000000000000000
 40
4.283000000000000
  0
CIRCLE
  5
421
100
AcDbEntity
  8
MAIN0
  6
HIDDEN
 62
3
100
AcDbCircle
 10
499.4119658881953
 20
228.1288849133554
 30
0.0000000000000000
 40
4.864000000000000
  0
LINE
  5
422
100
AcDbEntity
  8
MAIN0
  6
HIDDEN
 62
3
100
AcDbLine
 10
501.4532073405148
 20
226.0876434610362
 30
0.0000000000000000
 11
502.2003535673213
 21
228.8760311401623
 31
0.0000000000000000
  0
LINE
  5
423
100
AcDbEntity
  8
MAIN0
  6
HIDDEN
 62
3
100
AcDbLine
 10
498.6648196613888
 20
225.3404972342293
 30
0.0000000000000000
 11
501.4532073405147
 21
226.0876434610362
 31
0.0000000000000000
  0
LINE
  5
424
100
AcDbEntity
  8
MAIN0
  6
HIDDEN
 62
3
100
AcDbLine
 10
496.6235782090693
 20
227.3817386865484
 30
0.0000000000000000
 11
498.6648196613888
 21
225.3404972342293
 31
0.0000000000000000
  0
LINE
  5
425
100
AcDbEntity
  8
MAIN0
  6
HIDDEN
 62
3
100
AcDbLine
 10
497.3707244358758
 20
230.1701263656745
 30
0.0000000000000000
 11
496.6235782090693
 21
227.3817386865484
 31
0.0000000000000000
  0
LINE
  5
426
100
AcDbEntity
  8
MAIN0
  6
HIDDEN
 62
3
100
AcDbLine
 10
500.1591121150017
 20
230.9172725924814
 30
0.0000000000000000
 11
497.3707244358758
 21
230.1701263656745
 31
0.0000000000000000
  0
LINE
  5
427
100
AcDbEntity
  8
MAIN0
  6
HIDDEN
 62
3
100
AcDbLine
 10
502.2003535673212
 20
228.8760311401623
 30
0.0000000000000000
 11
500.1591121150017
 21
230.9172725924815
 31
0.0000000000000000
  0
LINE
  5
428
100
AcDbEntity
  8
MAIN0
  6
CENTER
 62
3
100
AcDbLine
 10
504.2655468342577
 20
223.2753039672889
 30
0.0000000000000000
 11
494.5583849421328
 21
232.9824658594218
 31
0.0000000000000000
  0
ARC
  5
429
100
AcDbEntity
  8
MAIN0
  6
CENTER
 62
3
100
AcDbCircle
 10
455.2177920640544
 20
272.3230587375327
 30
0.0000000000000000
 40
62.49999999999987
100
AcDbArc
 50
308.7064222855149
 51
321.2935777144378
  0
CIRCLE
  5
42A
100
AcDbEntity
  8
MAIN0
  6
HIDDEN
 62
3
100
AcDbCircle
 10
411.0236182399135
 20
228.1288849133554
 30
0.0000000000000000
 40
4.283000000000000
  0
CIRCLE
  5
42B
100
AcDbEntity
  8
MAIN0
  6
HIDDEN
 62
3
100
AcDbCircle
 10
411.0236182399135
 20
228.1288849133554
 30
0.0000000000000000
 40
4.864000000000000
  0
LINE
  5
42C
100
AcDbEntity
  8
MAIN0
  6
HIDDEN
 62
3
100
AcDbLine
 10
408.9823767875940
 20
226.0876434610362
 30
0.0000000000000000
 11
408.2352305607875
 21
228.8760311401623
 31
0.0000000000000000
  0
LINE
  5
42D
100
AcDbEntity
  8
MAIN0
  6
HIDDEN
 62
3
100
AcDbLine
 10
411.7707644667200
 20
225.3404972342293
 30
0.0000000000000000
 11
408.9823767875940
 21
226.0876434610362
 31
0.0000000000000000
  0
LINE
  5
42E
100
AcDbEntity
  8
MAIN0
  6
HIDDEN
 62
3
100
AcDbLine
 10
413.8120059190395
 20
227.3817386865484
 30
0.0000000000000000
 11
411.7707644667200
 21
225.3404972342293
 31
0.0000000000000000
  0
LINE
  5
42F
100
AcDbEntity
  8
MAIN0
  6
HIDDEN
 62
3
100
AcDbLine
 10
413.0648596922330
 20
230.1701263656745
 30
0.0000000000000000
 11
413.8120059190395
 21
227.3817386865484
 31
0.0000000000000000
  0
LINE
  5
430
100
AcDbEntity
  8
MAIN0
  6
HIDDEN
 62
3
100
AcDbLine
 10
410.2764720131070
 20
230.9172725924814
 30
0.0000000000000000
 11
413.0648596922330
 21
230.1701263656745
 31
0.0000000000000000
  0
LINE
  5
431
100
AcDbEntity
  8
MAIN0
  6
HIDDEN
 62
3
100
AcDbLine
 10
408.2352305607875
 20
228.8760311401624
 30
0.0000000000000000
 11
410.2764720131070
 21
230.9172725924815
 31
0.0000000000000000
  0
LINE
  5
432
100
AcDbEntity
  8
MAIN0
  6
CENTER
 62
3
100
AcDbLine
 10
406.1700372938510
 20
223.2753039672889
 30
0.0000000000000000
 11
415.8771991859759
 21
232.9824658594218
 31
0.0000000000000000
  0
ARC
  5
433
100
AcDbEntity
  8
MAIN0
  6
CENTER
 62
3
100
AcDbCircle
 10
455.2177920640544
 20
272.3230587375327
 30
0.0000000000000000
 40
62.49999999999987
100
AcDbArc
 50
218.7064222855622
 51
231.2935777144851
  0
CIRCLE
  5
434
100
AcDbEntity
  8
MAIN0
  6
HIDDEN
 62
3
100
AcDbCircle
 10
411.0236182399135
 20
316.5172325617101
 30
0.0000000000000000
 40
4.283000000000000
  0
CIRCLE
  5
435
100
AcDbEntity
  8
MAIN0
  6
HIDDEN
 62
3
100
AcDbCircle
 10
411.0236182399135
 20
316.5172325617101
 30
0.0000000000000000
 40
4.864000000000000
  0
LINE
  5
436
100
AcDbEntity
  8
MAIN0
  6
HIDDEN
 62
3
100
AcDbLine
 10
408.9823767875940
 20
318.5584740140292
 30
0.0000000000000000
 11
408.2352305607875
 21
315.7700863349031
 31
0.0000000000000000
  0
LINE
  5
437
100
AcDbEntity
  8
MAIN0
  6
HIDDEN
 62
3
100
AcDbLine
 10
411.7707644667200
 20
319.3056202408362
 30
0.0000000000000000
 11
408.9823767875940
 21
318.5584740140292
 31
0.0000000000000000
  0
LINE
  5
438
100
AcDbEntity
  8
MAIN0
  6
HIDDEN
 62
3
100
AcDbLine
 10
413.8120059190395
 20
317.2643787885170
 30
0.0000000000000000
 11
411.7707644667200
 21
319.3056202408362
 31
0.0000000000000000
  0
LINE
  5
439
100
AcDbEntity
  8
MAIN0
  6
HIDDEN
 62
3
100
AcDbLine
 10
413.0648596922330
 20
314.4759911093910
 30
0.0000000000000000
 11
413.8120059190395
 21
317.2643787885171
 31
0.0000000000000000
  0
LINE
  5
43A
100
AcDbEntity
  8
MAIN0
  6
HIDDEN
 62
3
100
AcDbLine
 10
410.2764720131070
 20
313.7288448825840
 30
0.0000000000000000
 11
413.0648596922330
 21
314.4759911093910
 31
0.0000000000000000
  0
LINE
  5
43B
100
AcDbEntity
  8
MAIN0
  6
HIDDEN
 62
3
100
AcDbLine
 10
408.2352305607875
 20
315.7700863349031
 30
0.0000000000000000
 11
410.2764720131070
 21
313.7288448825840
 31
0.0000000000000000
  0
LINE
  5
43C
100
AcDbEntity
  8
MAIN0
  6
CENTER
 62
3
100
AcDbLine
 10
406.1700372938510
 20
321.3708135077766
 30
0.0000000000000000
 11
415.8771991859759
 21
311.6636516156436
 31
0.0000000000000000
  0
ARC
  5
43D
100
AcDbEntity
  8
MAIN0
  6
CENTER
 62
3
100
AcDbCircle
 10
455.2177920640544
 20
272.3230587375327
 30
0.0000000000000000
 40
62.49999999999987
100
AcDbArc
 50
128.7064222855149
 51
141.2935777144378
  0
CIRCLE
  5
43E
100
AcDbEntity
  8
MAIN0
  6
HIDDEN
 62
3
100
AcDbCircle
 10
499.4119658881953
 20
316.5172325617101
 30
0.0000000000000000
 40
4.283000000000000
  0
CIRCLE
  5
43F
100
AcDbEntity
  8
MAIN0
  6
HIDDEN
 62
3
100
AcDbCircle
 10
499.4119658881953
 20
316.5172325617101
 30
0.0000000000000000
 40
4.864000000000000
  0
LINE
  5
440
100
AcDbEntity
  8
MAIN0
  6
HIDDEN
 62
3
100
AcDbLine
 10
501.4532073405148
 20
318.5584740140292
 30
0.0000000000000000
 11
502.2003535673213
 21
315.7700863349031
 31
0.0000000000000000
  0
LINE
  5
441
100
AcDbEntity
  8
MAIN0
  6
HIDDEN
 62
3
100
AcDbLine
 10
498.6648196613888
 20
319.3056202408362
 30
0.0000000000000000
 11
501.4532073405147
 21
318.5584740140292
 31
0.0000000000000000
  0
LINE
  5
442
100
AcDbEntity
  8
MAIN0
  6
HIDDEN
 62
3
100
AcDbLine
 10
496.6235782090693
 20
317.2643787885170
 30
0.0000000000000000
 11
498.6648196613888
 21
319.3056202408362
 31
0.0000000000000000
  0
LINE
  5
443
100
AcDbEntity
  8
MAIN0
  6
HIDDEN
 62
3
100
AcDbLine
 10
497.3707244358758
 20
314.4759911093910
 30
0.0000000000000000
 11
496.6235782090693
 21
317.2643787885171
 31
0.0000000000000000
  0
LINE
  5
444
100
AcDbEntity
  8
MAIN0
  6
HIDDEN
 62
3
100
AcDbLine
 10
500.1591121150018
 20
313.7288448825840
 30
0.0000000000000000
 11
497.3707244358758
 21
314.4759911093910
 31
0.0000000000000000
  0
LINE
  5
445
100
AcDbEntity
  8
MAIN0
  6
HIDDEN
 62
3
100
AcDbLine
 10
502.2003535673213
 20
315.7700863349031
 30
0.0000000000000000
 11
500.1591121150018
 21
313.7288448825840
 31
0.0000000000000000
  0
LINE
  5
446
100
AcDbEntity
  8
MAIN0
  6
CENTER
 62
3
100
AcDbLine
 10
504.2655468342578
 20
321.3708135077766
 30
0.0000000000000000
 11
494.5583849421328
 21
311.6636516156436
 31
0.0000000000000000
  0
ARC
  5
447
100
AcDbEntity
  8
MAIN0
  6
CENTER
 62
3
100
AcDbCircle
 10
455.2177920640544
 20
272.3230587375327
 30
0.0000000000000000
 40
62.49999999999987
100
AcDbArc
 50
38.70642228556214
 51
51.29357771448508
  0
LINE
  5
448
100
AcDbEntity
  8
MAIN0
  6
CONTINUOUS
 62
3
100
AcDbLine
 10
477.6157626152429
 20
253.6180817186054
 30
0.0000000000000000
 11
497.7941545234203
 21
241.9680817186055
 31
0.0000000000000000
  0
LINE
  5
449
100
AcDbEntity
  8
MAIN0
  6
CONTINUOUS
 62
3
100
AcDbLine
 10
479.2006991057817
 20
261.3632722469888
 30
0.0000000000000000
 11
476.7006991057818
 21
257.0331452280667
 31
0.0000000000000000
  0
LINE
  5
44A
100
AcDbEntity
  8
MAIN0
  6
CONTINUOUS
 62
3
100
AcDbLine
 10
482.6157626152429
 20
262.2783357564498
 30
0.0000000000000000
 11
502.7941545234203
 21
250.6283357564498
 31
0.0000000000000000
  0
LINE
  5
44B
100
AcDbEntity
  8
MAIN0
  6
CONTINUOUS
 62
3
100
AcDbLine
 10
502.8673596041772
 20
250.3551306756930
 30
0.0000000000000000
 11
497.9673596041772
 21
241.8680817186055
 31
0.0000000000000000
  0
LINE
  5
44C
100
AcDbEntity
  8
MAIN0
  6
CONTINUOUS
 62
3
100
AcDbLine
 10
477.6157626152429
 20
253.6180817186054
 30
0.0000000000000000
 11
476.7006991057818
 21
257.0331452280666
 31
0.0000000000000000
  0
LINE
  5
44D
100
AcDbEntity
  8
MAIN0
  6
CONTINUOUS
 62
3
100
AcDbLine
 10
482.6157626152430
 20
262.2783357564498
 30
0.0000000000000000
 11
479.2006991057817
 21
261.3632722469886
 31
0.0000000000000000
  0
LINE
  5
44E
100
AcDbEntity
  8
MAIN0
  6
CONTINUOUS
 62
3
100
AcDbLine
 10
497.7941545234205
 20
241.9680817186055
 30
0.0000000000000000
 11
498.0673596041773
 21
242.0412867993624
 31
0.0000000000000000
  0
LINE
  5
44F
100
AcDbEntity
  8
MAIN0
  6
CONTINUOUS
 62
3
100
AcDbLine
 10
502.7941545234205
 20
250.6283357564499
 30
0.0000000000000000
 11
502.8673596041774
 21
250.3551306756929
 31
0.0000000000000000
  0
LINE
  5
450
100
AcDbEntity
  8
MAIN0
  6
CENTER
 62
3
100
AcDbLine
 10
493.0712071814404
 20
245.3876969608237
 30
0.0000000000000000
 11
497.4712071814404
 21
253.0087205141267
 31
0.0000000000000000
  0
LINE
  5
451
100
AcDbEntity
  8
MAIN0
  6
CENTER
 62
3
100
AcDbLine
 10
480.9468515284582
 20
252.3876969608235
 30
0.0000000000000000
 11
485.3468515284582
 21
260.0087205141266
 31
0.0000000000000000
  0
LINE
  5
452
100
AcDbEntity
  8
MAIN0
  6
CONTINUOUS
 62
3
100
AcDbLine
 10
427.8198215128650
 20
262.2783357564513
 30
0.0000000000000000
 11
407.6414296046876
 21
250.6283357564514
 31
0.0000000000000000
  0
LINE
  5
453
100
AcDbEntity
  8
MAIN0
  6
CONTINUOUS
 62
3
100
AcDbLine
 10
433.7348850223262
 20
257.0331452280681
 30
0.0000000000000000
 11
431.2348850223262
 21
261.3632722469902
 31
0.0000000000000000
  0
LINE
  5
454
100
AcDbEntity
  8
MAIN0
  6
CONTINUOUS
 62
3
100
AcDbLine
 10
432.8198215128650
 20
253.6180817186070
 30
0.0000000000000000
 11
412.6414296046876
 21
241.9680817186070
 31
0.0000000000000000
  0
LINE
  5
455
100
AcDbEntity
  8
MAIN0
  6
CONTINUOUS
 62
3
100
AcDbLine
 10
412.3682245239307
 20
242.0412867993638
 30
0.0000000000000000
 11
407.4682245239307
 21
250.5283357564514
 31
0.0000000000000000
  0
LINE
  5
456
100
AcDbEntity
  8
MAIN0
  6
CONTINUOUS
 62
3
100
AcDbLine
 10
427.8198215128649
 20
262.2783357564513
 30
0.0000000000000000
 11
431.2348850223261
 21
261.3632722469902
 31
0.0000000000000000
  0
LINE
  5
457
100
AcDbEntity
  8
MAIN0
  6
CONTINUOUS
 62
3
100
AcDbLine
 10
432.8198215128649
 20
253.6180817186069
 30
0.0000000000000000
 11
433.7348850223260
 21
257.0331452280682
 31
0.0000000000000000
  0
LINE
  5
458
100
AcDbEntity
  8
MAIN0
  6
CONTINUOUS
 62
3
100
AcDbLine
 10
407.6414296046875
 20
250.6283357564513
 30
0.0000000000000000
 11
407.5682245239307
 21
250.3551306756944
 31
0.0000000000000000
  0
LINE
  5
459
100
AcDbEntity
  8
MAIN0
  6
CONTINUOUS
 62
3
100
AcDbLine
 10
412.6414296046875
 20
241.9680817186068
 30
0.0000000000000000
 11
412.3682245239306
 21
242.0412867993637
 31
0.0000000000000000
  0
LINE
  5
45A
100
AcDbEntity
  8
MAIN0
  6
CENTER
 62
3
100
AcDbLine
 10
412.9643769466069
 20
253.0087205142330
 30
0.0000000000000000
 11
417.3643769466070
 21
245.3876969609300
 31
0.0000000000000000
  0
LINE
  5
45B
100
AcDbEntity
  8
MAIN0
  6
CENTER
 62
3
100
AcDbLine
 10
425.0887325995890
 20
260.0087205142332
 30
0.0000000000000000
 11
429.4887325995890
 21
252.3876969609301
 31
0.0000000000000000
  0
LINE
  5
45C
100
AcDbEntity
  8
MAIN0
  6
CONTINUOUS
 62
3
100
AcDbLine
 10
60.69452764793289
 20
94.50198779393645
 30
0.0000000000000000
 11
49.09452764793286
 21
94.50198779393645
 31
0.0000000000000000
  0
LINE
  5
45D
100
AcDbEntity
  8
MAIN0
  6
CONTINUOUS
 62
3
100
AcDbLine
 10
60.69452764793289
 20
128.8019877939364
 30
0.0000000000000000
 11
49.09452764793286
 21
128.8019877939364
 31
0.0000000000000000
  0
LINE
  5
45E
100
AcDbEntity
  8
MAIN0
  6
CONTINUOUS
 62
3
100
AcDbLine
 10
75.89452764790838
 20
106.6519877939365
 30
0.0000000000000000
 11
73.39452764793293
 21
106.6519877939365
 31
0.0000000000000000
  0
LINE
  5
45F
100
AcDbEntity
  8
MAIN0
  6
CONTINUOUS
 62
3
100
AcDbLine
 10
75.89452764790838
 20
116.6519877939365
 30
0.0000000000000000
 11
73.39452764793293
 21
116.6519877939365
 31
0.0000000000000000
  0
LINE
  5
460
100
AcDbEntity
  8
MAIN0
  6
CONTINUOUS
 62
3
100
AcDbLine
 10
65.89452764793293
 20
119.4019877939365
 30
0.0000000000000000
 11
63.39305578537801
 21
119.4019877939365
 31
0.0000000000000000
  0
LINE
  5
461
100
AcDbEntity
  8
MAIN0
  6
CONTINUOUS
 62
3
100
AcDbLine
 10
65.89452764793293
 20
103.9019877939364
 30
0.0000000000000000
 11
63.39305578534925
 21
103.9019877939364
 31
0.0000000000000000
  0
LINE
  5
462
100
AcDbEntity
  8
MAIN0
  6
CONTINUOUS
 62
3
100
AcDbLine
 10
60.89452764793288
 20
128.6019877939363
 30
0.0000000000000000
 11
60.89452764793288
 21
123.1519877939364
 31
0.0000000000000000
  0
LINE
  5
463
100
AcDbEntity
  8
MAIN0
  6
CONTINUOUS
 62
3
100
AcDbLine
 10
60.89452764793293
 20
116.9034596564906
 30
0.0000000000000000
 11
60.89452764793293
 21
106.4005159313523
 31
0.0000000000000000
  0
LINE
  5
464
100
AcDbEntity
  8
MAIN0
  6
CONTINUOUS
 62
3
100
AcDbLine
 10
60.89452764793288
 20
100.1519877939364
 30
0.0000000000000000
 11
60.89452764793288
 21
94.70198779393633
 31
0.0000000000000000
  0
LINE
  5
465
100
AcDbEntity
  8
MAIN0
  6
CONTINUOUS
 62
3
100
AcDbLine
 10
66.89452764793293
 20
118.4019877939365
 30
0.0000000000000000
 11
66.89452764793293
 21
117.1019877939263
 31
0.0000000000000000
  0
LINE
  5
466
100
AcDbEntity
  8
MAIN0
  6
CONTINUOUS
 62
3
100
AcDbLine
 10
66.89452764793293
 20
106.2019877939263
 30
0.0000000000000000
 11
66.89452764793293
 21
104.9019877939365
 31
0.0000000000000000
  0
LINE
  5
467
100
AcDbEntity
  8
MAIN0
  6
CONTINUOUS
 62
3
100
AcDbLine
 10
76.89452764793299
 20
123.1519877939364
 30
0.0000000000000000
 11
76.89452764793299
 21
117.2293380631402
 31
0.0000000000000000
  0
LINE
  5
468
100
AcDbEntity
  8
MAIN0
  6
CONTINUOUS
 62
3
100
AcDbLine
 10
76.89452764793299
 20
106.0746375247324
 30
0.0000000000000000
 11
76.89452764793299
 21
100.1519877939363
 31
0.0000000000000000
  0
LINE
  5
469
100
AcDbEntity
  8
MAIN0
  6
CONTINUOUS
 62
3
100
AcDbLine
 10
60.89452764793299
 20
94.70198779393650
 30
0.0000000000000000
 11
60.69452764793294
 21
94.50198779393645
 31
0.0000000000000000
  0
LINE
  5
46A
100
AcDbEntity
  8
MAIN0
  6
CONTINUOUS
 62
3
100
AcDbLine
 10
60.89452764793305
 20
128.6019877939365
 30
0.0000000000000000
 11
60.69452764793311
 21
128.8019877939364
 31
0.0000000000000000
  0
ARC
  5
46B
100
AcDbEntity
  8
MAIN0
  6
CONTINUOUS
 62
3
100
AcDbCircle
 10
65.89452764793288
 20
104.9019877939364
 30
0.0000000000000000
 40
1.000000000000000
100
AcDbArc
 50
270.0000000000000
 51
360.0000000000000
  0
ARC
  5
46C
100
AcDbEntity
  8
MAIN0
  6
CONTINUOUS
 62
3
100
AcDbCircle
 10
65.89452764793288
 20
118.4019877939364
 30
0.0000000000000000
 40
1.000000000000000
100
AcDbArc
 50
0.0000000000000000
 51
90.00000000000000
  0
LINE
  5
46D
100
AcDbEntity
  8
MAIN0
  6
CENTER
 62
3
100
AcDbLine
 10
42.59892984946936
 20
111.6519877939364
 30
0.0000000000000000
 11
82.36808593062727
 21
111.6519877939364
 31
0.0000000000000000
  0
LINE
  5
46E
100
AcDbEntity
  8
MAIN0
  6
CONTINUOUS
 62
3
100
AcDbLine
 10
61.79452764793291
 20
123.1519877939364
 30
0.0000000000000000
 11
76.89452764793299
 21
123.1519877939364
 31
0.0000000000000000
  0
LINE
  5
46F
100
AcDbEntity
  8
MAIN0
  6
CONTINUOUS
 62
3
100
AcDbLine
 10
61.79452764793263
 20
100.1519877939365
 30
0.0000000000000000
 11
76.89452764793282
 21
100.1519877939362
 31
0.0000000000000000
  0
LINE
  5
470
100
AcDbEntity
  8
MAIN0
  6
CONTINUOUS
 62
3
100
AcDbLine
 10
66.89452764793293
 20
117.1019877939262
 30
0.0000000000000000
 11
74.39452764793288
 21
117.1019877939262
 31
0.0000000000000000
  0
LINE
  5
471
100
AcDbEntity
  8
MAIN0
  6
CONTINUOUS
 62
3
100
AcDbLine
 10
74.39452764793293
 20
117.1019877939263
 30
0.0000000000000000
 11
74.39452764793293
 21
116.6519877939262
 31
0.0000000000000000
  0
LINE
  5
472
100
AcDbEntity
  8
MAIN0
  6
CONTINUOUS
 62
3
100
AcDbLine
 10
74.39452764793293
 20
106.6519877939262
 30
0.0000000000000000
 11
74.39452764793293
 21
106.2019877939263
 31
0.0000000000000000
  0
LINE
  5
473
100
AcDbEntity
  8
MAIN0
  6
CONTINUOUS
 62
3
100
AcDbLine
 10
74.39452764793288
 20
106.2019877939262
 30
0.0000000000000000
 11
66.89452764793293
 21
106.2019877939262
 31
0.0000000000000000
  0
LINE
  5
474
100
AcDbEntity
  8
MAIN0
  6
CENTER
 62
3
100
AcDbLine
 10
211.8818191947787
 20
304.5727150084156
 30
0.0000000000000000
 11
256.0919309701477
 21
304.5727150084156
 31
0.0000000000000000
  0
LINE
  5
475
100
AcDbEntity
  8
MAIN0
  6
CENTER
 62
3
100
AcDbLine
 10
211.8818191947787
 20
318.5727150084155
 30
0.0000000000000000
 11
256.6320959790529
 21
318.5727150084155
 31
0.0000000000000000
  0
LINE
  5
476
100
AcDbEntity
  8
MAIN0
  6
PHANTOM
 62
3
100
AcDbLine
 10
231.8818191947788
 20
297.5727150084155
 30
0.0000000000000000
 11
231.8818191947788
 21
325.5727150084155
 31
0.0000000000000000
  0
LINE
  5
477
100
AcDbEntity
  8
MAIN0
  6
PHANTOM
 62
3
100
AcDbLine
 10
229.3818191947788
 20
297.5727150084155
 30
0.0000000000000000
 11
231.8818191947788
 21
297.5727150084155
 31
0.0000000000000000
  0
LINE
  5
478
100
AcDbEntity
  8
MAIN0
  6
PHANTOM
 62
3
100
AcDbLine
 10
229.3818191947788
 20
325.5727150084155
 30
0.0000000000000000
 11
231.8818191947787
 21
325.5727150084155
 31
0.0000000000000000
  0
LINE
  5
479
100
AcDbEntity
  8
MAIN0
  6
CONTINUOUS
 62
3
100
AcDbLine
 10
231.0818191947793
 20
276.5727150085501
 30
0.0000000000000000
 11
253.5818191947793
 21
276.5727150085500
 31
0.0000000000000000
  0
LINE
  5
47A
100
AcDbEntity
  8
MAIN0
  6
CONTINUOUS
 62
3
100
AcDbLine
 10
253.5818191947794
 20
331.5727150085498
 30
0.0000000000000000
 11
253.5818191947794
 21
276.5727150085500
 31
0.0000000000000000
  0
LINE
  5
47B
100
AcDbEntity
  8
MAIN0
  6
HIDDEN
 62
3
100
AcDbLine
 10
232.5818191947794
 20
331.5727150085499
 30
0.0000000000000000
 11
232.5818191947794
 21
276.5727150085500
 31
0.0000000000000000
  0
LINE
  5
47C
100
AcDbEntity
  8
MAIN0
  6
HIDDEN
 62
3
100
AcDbLine
 10
237.5818191947792
 20
298.0727150085510
 30
0.0000000000000000
 11
244.7818191947791
 21
298.0727150085505
 31
0.0000000000000000
  0
LINE
  5
47D
100
AcDbEntity
  8
MAIN0
  6
HIDDEN
 62
3
100
AcDbLine
 10
244.7818191947789
 20
298.0727150085504
 30
0.0000000000000000
 11
245.5818191947790
 21
299.4583556546055
 31
0.0000000000000000
  0
LINE
  5
47E
100
AcDbEntity
  8
MAIN0
  6
HIDDEN
 62
3
100
AcDbLine
 10
245.5818191947791
 20
299.4583556546056
 30
0.0000000000000000
 11
245.5818191947798
 21
309.6870743624952
 31
0.0000000000000000
  0
LINE
  5
47F
100
AcDbEntity
  8
MAIN0
  6
HIDDEN
 62
3
100
AcDbLine
 10
245.5818191947796
 20
309.6870743624952
 30
0.0000000000000000
 11
244.7818191947796
 21
311.0727150085505
 31
0.0000000000000000
  0
LINE
  5
480
100
AcDbEntity
  8
MAIN0
  6
HIDDEN
 62
3
100
AcDbLine
 10
244.7818191947799
 20
311.0727150085505
 30
0.0000000000000000
 11
237.5818191947800
 21
311.0727150085510
 31
0.0000000000000000
  0
LINE
  5
481
100
AcDbEntity
  8
MAIN0
  6
HIDDEN
 62
3
100
AcDbLine
 10
244.7818191947790
 20
298.0727150085504
 30
0.0000000000000000
 11
244.7818191947798
 21
311.0727150085504
 31
0.0000000000000000
  0
LINE
  5
482
100
AcDbEntity
  8
MAIN0
  6
HIDDEN
 62
3
100
AcDbLine
 10
237.5818191947793
 20
300.5727150085510
 30
0.0000000000000000
 11
226.3818191946583
 21
300.5727150085517
 31
0.0000000000000000
  0
LINE
  5
483
100
AcDbEntity
  8
MAIN0
  6
HIDDEN
 62
3
100
AcDbLine
 10
226.3818191946583
 20
308.5727150085517
 30
0.0000000000000000
 11
237.5818191947798
 21
308.5727150085510
 31
0.0000000000000000
  0
LINE
  5
484
100
AcDbEntity
  8
MAIN0
  6
HIDDEN
 62
3
100
AcDbLine
 10
237.5818191947794
 20
301.2492975085510
 30
0.0000000000000000
 11
226.3818191946583
 21
301.2492975085517
 31
0.0000000000000000
  0
LINE
  5
485
100
AcDbEntity
  8
MAIN0
  6
HIDDEN
 62
3
100
AcDbLine
 10
237.5818191947797
 20
307.8961325085510
 30
0.0000000000000000
 11
226.3818191946583
 21
307.8961325085517
 31
0.0000000000000000
  0
LINE
  5
486
100
AcDbEntity
  8
MAIN0
  6
HIDDEN
 62
3
100
AcDbLine
 10
253.5818191947789
 20
297.4227150085500
 30
0.0000000000000000
 11
253.1818191947789
 21
297.8227150085500
 31
0.0000000000000000
  0
LINE
  5
487
100
AcDbEntity
  8
MAIN0
  6
HIDDEN
 62
3
100
AcDbLine
 10
253.1818191947790
 20
297.8227150085501
 30
0.0000000000000000
 11
237.5818191947790
 21
297.8227150085511
 31
0.0000000000000000
  0
LINE
  5
488
100
AcDbEntity
  8
MAIN0
  6
HIDDEN
 62
3
100
AcDbLine
 10
237.5818191947789
 20
297.8227150085509
 30
0.0000000000000000
 11
237.5818191947798
 21
311.3227150085509
 31
0.0000000000000000
  0
LINE
  5
489
100
AcDbEntity
  8
MAIN0
  6
HIDDEN
 62
3
100
AcDbLine
 10
237.5818191947799
 20
311.3227150085510
 30
0.0000000000000000
 11
253.5818191947795
 21
311.3227150085500
 31
0.0000000000000000
  0
LINE
  5
48A
100
AcDbEntity
  8
MAIN0
  6
HIDDEN
 62
3
100
AcDbLine
 10
237.5818191947791
 20
300.0727150085510
 30
0.0000000000000000
 11
232.5818191947795
 21
300.0727150085513
 31
0.0000000000000000
  0
LINE
  5
48B
100
AcDbEntity
  8
MAIN0
  6
HIDDEN
 62
3
100
AcDbLine
 10
237.5818191947797
 20
309.0727150085510
 30
0.0000000000000000
 11
232.5818191947795
 21
309.0727150085513
 31
0.0000000000000000
  0
LINE
  5
48C
100
AcDbEntity
  8
MAIN0
  6
HIDDEN
 62
3
100
AcDbLine
 10
253.5818191947795
 20
311.8227150085497
 30
0.0000000000000000
 11
237.5818191947790
 21
311.8227150085507
 31
0.0000000000000000
  0
LINE
  5
48D
100
AcDbEntity
  8
MAIN0
  6
HIDDEN
 62
3
100
AcDbLine
 10
237.5818191947790
 20
311.8227150085509
 30
0.0000000000000000
 11
237.5818191947799
 21
325.3227150085509
 31
0.0000000000000000
  0
LINE
  5
48E
100
AcDbEntity
  8
MAIN0
  6
HIDDEN
 62
3
100
AcDbLine
 10
237.5818191947799
 20
325.3227150085510
 30
0.0000000000000000
 11
253.1818191947798
 21
325.3227150085501
 31
0.0000000000000000
  0
LINE
  5
48F
100
AcDbEntity
  8
MAIN0
  6
HIDDEN
 62
3
100
AcDbLine
 10
253.1818191947798
 20
325.3227150085498
 30
0.0000000000000000
 11
253.5818191947799
 21
325.7227150085499
 31
0.0000000000000000
  0
LINE
  5
490
100
AcDbEntity
  8
MAIN0
  6
HIDDEN
 62
3
100
AcDbLine
 10
237.5818191947792
 20
314.0727150085510
 30
0.0000000000000000
 11
232.5818191947795
 21
314.0727150085513
 31
0.0000000000000000
  0
LINE
  5
491
100
AcDbEntity
  8
MAIN0
  6
HIDDEN
 62
3
100
AcDbLine
 10
237.5818191947798
 20
323.0727150085510
 30
0.0000000000000000
 11
232.5818191947795
 21
323.0727150085513
 31
0.0000000000000000
  0
LINE
  5
492
100
AcDbEntity
  8
MAIN0
  6
HIDDEN
 62
3
100
AcDbLine
 10
237.5818191947792
 20
312.0727150085509
 30
0.0000000000000000
 11
244.7818191947791
 21
312.0727150085504
 31
0.0000000000000000
  0
LINE
  5
493
100
AcDbEntity
  8
MAIN0
  6
HIDDEN
 62
3
100
AcDbLine
 10
244.7818191947788
 20
312.0727150085505
 30
0.0000000000000000
 11
245.5818191947789
 21
313.4583556546056
 31
0.0000000000000000
  0
LINE
  5
494
100
AcDbEntity
  8
MAIN0
  6
HIDDEN
 62
3
100
AcDbLine
 10
245.5818191947791
 20
313.4583556546056
 30
0.0000000000000000
 11
245.5818191947797
 21
323.6870743624952
 31
0.0000000000000000
  0
LINE
  5
495
100
AcDbEntity
  8
MAIN0
  6
HIDDEN
 62
3
100
AcDbLine
 10
245.5818191947797
 20
323.6870743624951
 30
0.0000000000000000
 11
244.7818191947797
 21
325.0727150085504
 31
0.0000000000000000
  0
LINE
  5
496
100
AcDbEntity
  8
MAIN0
  6
HIDDEN
 62
3
100
AcDbLine
 10
244.7818191947799
 20
325.0727150085504
 30
0.0000000000000000
 11
237.5818191947800
 21
325.0727150085509
 31
0.0000000000000000
  0
LINE
  5
497
100
AcDbEntity
  8
MAIN0
  6
HIDDEN
 62
3
100
AcDbLine
 10
244.7818191947789
 20
312.0727150085504
 30
0.0000000000000000
 11
244.7818191947798
 21
325.0727150085504
 31
0.0000000000000000
  0
LINE
  5
498
100
AcDbEntity
  8
MAIN0
  6
HIDDEN
 62
3
100
AcDbLine
 10
237.5818191947792
 20
314.5727150085507
 30
0.0000000000000000
 11
226.3818191946583
 21
314.5727150085514
 31
0.0000000000000000
  0
LINE
  5
499
100
AcDbEntity
  8
MAIN0
  6
HIDDEN
 62
3
100
AcDbLine
 10
226.3818191946583
 20
322.5727150085517
 30
0.0000000000000000
 11
237.5818191947799
 21
322.5727150085510
 31
0.0000000000000000
  0
LINE
  5
49A
100
AcDbEntity
  8
MAIN0
  6
HIDDEN
 62
3
100
AcDbLine
 10
237.5818191947794
 20
315.2492975085510
 30
0.0000000000000000
 11
226.3818191946583
 21
315.2492975085517
 31
0.0000000000000000
  0
LINE
  5
49B
100
AcDbEntity
  8
MAIN0
  6
HIDDEN
 62
3
100
AcDbLine
 10
237.5818191947798
 20
321.8961325085510
 30
0.0000000000000000
 11
226.3818191946583
 21
321.8961325085517
 31
0.0000000000000000
  0
LINE
  5
49C
100
AcDbEntity
  8
MAIN0
  6
CONTINUOUS
 62
3
100
AcDbLine
 10
228.5818191947789
 20
330.6784842393189
 30
0.0000000000000000
 11
229.4816803598636
 21
330.1593335671520
 31
0.0000000000000000
  0
LINE
  5
49D
100
AcDbEntity
  8
MAIN0
  6
CONTINUOUS
 62
3
100
AcDbLine
 10
229.4816803598633
 20
329.9860964499426
 30
0.0000000000000000
 11
228.5818191947783
 21
329.4669457777807
 31
0.0000000000000000
  0
LINE
  5
49E
100
AcDbEntity
  8
MAIN0
  6
CONTINUOUS
 62
3
100
AcDbLine
 10
228.5818191947773
 20
327.9669457777840
 30
0.0000000000000000
 11
229.4816803598591
 21
328.4860964499427
 31
0.0000000000000000
  0
LINE
  5
49F
100
AcDbEntity
  8
MAIN0
  6
CONTINUOUS
 62
3
100
AcDbLine
 10
229.4816803598598
 20
328.6593335671523
 30
0.0000000000000000
 11
228.5818191947781
 21
329.1784842393188
 31
0.0000000000000000
  0
LINE
  5
4A0
100
AcDbEntity
  8
MAIN0
  6
CONTINUOUS
 62
3
100
AcDbLine
 10
228.5818191947790
 20
330.9669457777801
 30
0.0000000000000000
 11
229.4816803598672
 21
331.4860964499425
 31
0.0000000000000000
  0
ARC
  5
4A1
100
AcDbEntity
  8
MAIN0
  6
CONTINUOUS
 62
3
100
AcDbCircle
 10
229.4317081145105
 20
328.5727150085476
 30
0.0000000000000000
 40
0.1000000000000000
100
AcDbArc
 50
299.9816393686637
 51
420.0183606309737
  0
ARC
  5
4A2
100
AcDbEntity
  8
MAIN0
  6
CONTINUOUS
 62
3
100
AcDbCircle
 10
229.4317081145146
 20
330.0727150085474
 30
0.0000000000000000
 40
0.1000000000000000
100
AcDbArc
 50
299.9816393687304
 51
420.0183606310322
  0
ARC
  5
4A3
100
AcDbEntity
  8
MAIN0
  6
CONTINUOUS
 62
3
100
AcDbCircle
 10
229.4317081145186
 20
331.5727150085476
 30
0.0000000000000000
 40
0.1000000000000000
100
AcDbArc
 50
299.9816393686598
 51
359.9999999999358
  0
LINE
  5
4A4
100
AcDbEntity
  8
MAIN0
  6
CONTINUOUS
 62
3
100
AcDbLine
 10
228.5818191947791
 20
330.9669457777801
 30
0.0000000000000000
 11
228.5818191947789
 21
330.6784842393189
 31
0.0000000000000000
  0
LINE
  5
4A5
100
AcDbEntity
  8
MAIN0
  6
CONTINUOUS
 62
3
100
AcDbLine
 10
228.5818191947782
 20
329.4669457777804
 30
0.0000000000000000
 11
228.5818191947780
 21
329.1784842393187
 31
0.0000000000000000
  0
LINE
  5
4A6
100
AcDbEntity
  8
MAIN0
  6
CONTINUOUS
 62
3
100
AcDbLine
 10
229.5317081145498
 20
331.5727150085472
 30
0.0000000000000000
 11
253.5818191947793
 21
331.5727150085500
 31
0.0000000000000000
  0
LINE
  5
4A7
100
AcDbEntity
  8
MAIN0
  6
CONTINUOUS
 62
3
100
AcDbLine
 10
229.5317081145545
 20
289.5727150085472
 30
0.0000000000000000
 11
231.0818191947794
 21
289.5727150085473
 31
0.0000000000000000
  0
LINE
  5
4A8
100
AcDbEntity
  8
MAIN0
  6
CONTINUOUS
 62
3
100
AcDbLine
 10
231.0818191947794
 20
276.5727150085501
 30
0.0000000000000000
 11
231.0818191947794
 21
289.5727150085474
 31
0.0000000000000000
  0
LINE
  5
4A9
100
AcDbEntity
  8
MAIN0
  6
CONTINUOUS
 62
3
100
AcDbLine
 10
228.5818191947787
 20
290.4669457777752
 30
0.0000000000000000
 11
229.4816803598633
 21
290.9860964499422
 31
0.0000000000000000
  0
LINE
  5
4AA
100
AcDbEntity
  8
MAIN0
  6
CONTINUOUS
 62
3
100
AcDbLine
 10
229.4816803598629
 20
291.1593335671518
 30
0.0000000000000000
 11
228.5818191947778
 21
291.6784842393134
 31
0.0000000000000000
  0
LINE
  5
4AB
100
AcDbEntity
  8
MAIN0
  6
CONTINUOUS
 62
3
100
AcDbLine
 10
228.5818191947766
 20
293.1784842393101
 30
0.0000000000000000
 11
229.4816803598585
 21
292.6593335671516
 31
0.0000000000000000
  0
LINE
  5
4AC
100
AcDbEntity
  8
MAIN0
  6
CONTINUOUS
 62
3
100
AcDbLine
 10
229.4816803598592
 20
292.4860964499421
 30
0.0000000000000000
 11
228.5818191947775
 21
291.9669457777754
 31
0.0000000000000000
  0
LINE
  5
4AD
100
AcDbEntity
  8
MAIN0
  6
CONTINUOUS
 62
3
100
AcDbLine
 10
228.5818191947788
 20
290.1784842393140
 30
0.0000000000000000
 11
229.4816803598670
 21
289.6593335671518
 31
0.0000000000000000
  0
ARC
  5
4AE
100
AcDbEntity
  8
MAIN0
  6
CONTINUOUS
 62
3
100
AcDbCircle
 10
229.4317081145098
 20
292.5727150085467
 30
0.0000000000000000
 40
0.1000000000000000
100
AcDbArc
 50
299.9816393690393
 51
420.0183606313494
  0
ARC
  5
4AF
100
AcDbEntity
  8
MAIN0
  6
CONTINUOUS
 62
3
100
AcDbCircle
 10
229.4317081145142
 20
291.0727150085469
 30
0.0000000000000000
 40
0.1000000000000000
100
AcDbArc
 50
299.9816393689807
 51
420.0183606312825
  0
ARC
  5
4B0
100
AcDbEntity
  8
MAIN0
  6
CONTINUOUS
 62
3
100
AcDbCircle
 10
229.4317081145186
 20
289.5727150085467
 30
0.0000000000000000
 40
0.1000000000000000
100
AcDbArc
 50
7.714753435357906e-011
 51
60.01836063135320
  0
LINE
  5
4B1
100
AcDbEntity
  8
MAIN0
  6
CONTINUOUS
 62
3
100
AcDbLine
 10
228.5818191947790
 20
290.1784842393140
 30
0.0000000000000000
 11
228.5818191947788
 21
290.4669457777752
 31
0.0000000000000000
  0
LINE
  5
4B2
100
AcDbEntity
  8
MAIN0
  6
CONTINUOUS
 62
3
100
AcDbLine
 10
228.5818191947777
 20
291.6784842393137
 30
0.0000000000000000
 11
228.5818191947775
 21
291.9669457777754
 31
0.0000000000000000
  0
LINE
  5
4B3
100
AcDbEntity
  8
MAIN0
  6
CONTINUOUS
 62
3
100
AcDbLine
 10
229.3818191947769
 20
324.2169457776496
 30
0.0000000000000000
 11
228.5818191947793
 21
324.6784842391845
 31
0.0000000000000000
  0
LINE
  5
4B4
100
AcDbEntity
  8
MAIN0
  6
CONTINUOUS
 62
3
100
AcDbLine
 10
229.3818191947754
 20
306.2169457776462
 30
0.0000000000000000
 11
228.5818191947795
 21
306.6784842391801
 31
0.0000000000000000
  0
LINE
  5
4B5
100
AcDbEntity
  8
MAIN0
  6
CONTINUOUS
 62
3
100
AcDbLine
 10
228.5818191947791
 20
326.4669457776439
 30
0.0000000000000000
 11
229.4816803598638
 21
326.9860964498108
 31
0.0000000000000000
  0
LINE
  5
4B6
100
AcDbEntity
  8
MAIN0
  6
CONTINUOUS
 62
3
100
AcDbLine
 10
229.4816803598634
 20
327.1593335670202
 30
0.0000000000000000
 11
228.5818191947783
 21
327.6784842391821
 31
0.0000000000000000
  0
ARC
  5
4B7
100
AcDbEntity
  8
MAIN0
  6
CONTINUOUS
 62
3
100
AcDbCircle
 10
229.4317081145146
 20
327.0727150084153
 30
0.0000000000000000
 40
0.1000000000000000
100
AcDbArc
 50
299.9816393689678
 51
420.0183606312696
  0
LINE
  5
4B8
100
AcDbEntity
  8
MAIN0
  6
CONTINUOUS
 62
3
100
AcDbLine
 10
228.5818191947782
 20
327.6784842391824
 30
0.0000000000000000
 11
228.5818191947781
 21
327.9669457776441
 31
0.0000000000000000
  0
LINE
  5
4B9
100
AcDbEntity
  8
MAIN0
  6
CONTINUOUS
 62
3
100
AcDbLine
 10
228.5818191947772
 20
326.1784842391788
 30
0.0000000000000000
 11
229.4816803598590
 21
325.6593335670201
 31
0.0000000000000000
  0
ARC
  5
4BA
100
AcDbEntity
  8
MAIN0
  6
CONTINUOUS
 62
3
100
AcDbCircle
 10
229.4317081145105
 20
325.5727150084151
 30
0.0000000000000000
 40
0.1000000000000000
100
AcDbArc
 50
299.9816393690263
 51
420.0183606313363
  0
LINE
  5
4BB
100
AcDbEntity
  8
MAIN0
  6
CONTINUOUS
 62
3
100
AcDbLine
 10
228.5818191947782
 20
326.4669457777804
 30
0.0000000000000000
 11
228.5818191947780
 21
326.1784842393187
 31
0.0000000000000000
  0
LINE
  5
4BC
100
AcDbEntity
  8
MAIN0
  6
CONTINUOUS
 62
3
100
AcDbLine
 10
229.4816803598634
 20
306.1593335670202
 30
0.0000000000000000
 11
228.5818191947783
 21
306.6784842391821
 31
0.0000000000000000
  0
ARC
  5
4BD
100
AcDbEntity
  8
MAIN0
  6
CONTINUOUS
 62
3
100
AcDbCircle
 10
229.4317081145146
 20
306.0727150084153
 30
0.0000000000000000
 40
0.1000000000000000
100
AcDbArc
 50
299.9816393689678
 51
420.0183606312696
  0
LINE
  5
4BE
100
AcDbEntity
  8
MAIN0
  6
CONTINUOUS
 62
3
100
AcDbLine
 10
228.5818191947782
 20
305.4669457777804
 30
0.0000000000000000
 11
228.5818191947780
 21
305.1784842393187
 31
0.0000000000000000
  0
LINE
  5
4BF
100
AcDbEntity
  8
MAIN0
  6
PHANTOM
 62
3
100
AcDbLine
 10
228.5818191947794
 20
293.1784842393084
 30
0.0000000000000000
 11
228.5818191947794
 21
305.4669457776441
 31
0.0000000000000000
  0
LINE
  5
4C0
100
AcDbEntity
  8
MAIN0
  6
PHANTOM
 62
3
100
AcDbLine
 10
228.5818191947794
 20
305.4669457776441
 30
0.0000000000000000
 11
228.5818191947794
 21
324.6784842391843
 31
0.0000000000000000
  0
LINE
  5
4C1
100
AcDbEntity
  8
MAIN0
  6
CONTINUOUS
 62
3
100
AcDbLine
 10
229.3818191947754
 20
304.4284842391844
 30
0.0000000000000000
 11
228.5818191947795
 21
303.9669457776506
 31
0.0000000000000000
  0
LINE
  5
4C2
100
AcDbEntity
  8
MAIN0
  6
CONTINUOUS
 62
3
100
AcDbLine
 10
229.4816803598633
 20
304.4860964498105
 30
0.0000000000000000
 11
228.5818191947782
 21
303.9669457776486
 31
0.0000000000000000
  0
ARC
  5
4C3
100
AcDbEntity
  8
MAIN0
  6
CONTINUOUS
 62
3
100
AcDbCircle
 10
229.4317081145146
 20
304.5727150084154
 30
0.0000000000000000
 40
0.1000000000000000
100
AcDbArc
 50
299.9816393687304
 51
420.0183606310322
  0
LINE
  5
4C4
100
AcDbEntity
  8
MAIN0
  6
CONTINUOUS
 62
3
100
AcDbLine
 10
228.5818191947783
 20
305.1784842390503
 30
0.0000000000000000
 11
228.5818191947782
 21
305.4669457775121
 31
0.0000000000000000
  0
LINE
  5
4C5
100
AcDbEntity
  8
MAIN0
  6
CONTINUOUS
 62
3
100
AcDbLine
 10
228.5818191947801
 20
324.9669457776453
 30
0.0000000000000000
 11
229.4816803598598
 21
325.4860964498104
 31
0.0000000000000000
  0
LINE
  5
4C6
100
AcDbEntity
  8
MAIN0
  6
CONTINUOUS
 62
3
100
AcDbLine
 10
228.5818191947802
 20
324.6784842391838
 30
0.0000000000000000
 11
228.5818191947800
 21
324.9669457776454
 31
0.0000000000000000
  0
LINE
  5
4C7
100
AcDbEntity
  8
MAIN0
  6
CONTINUOUS
 62
3
100
AcDbLine
 10
228.5818191947791
 20
326.1784842391778
 30
0.0000000000000000
 11
228.5818191947789
 21
326.4669457776439
 31
0.0000000000000000
  0
LINE
  5
4C8
100
AcDbEntity
  8
MAIN0
  6
CONTINUOUS
 62
3
100
AcDbLine
 10
228.5818191947790
 20
305.4669457776439
 30
0.0000000000000000
 11
229.4816803598636
 21
305.9860964498107
 31
0.0000000000000000
  0
LINE
  5
4C9
100
AcDbEntity
  8
MAIN0
  6
CONTINUOUS
 62
3
100
AcDbLine
 10
228.5818191947781
 20
305.1784842391843
 30
0.0000000000000000
 11
229.4816803598636
 21
304.6593335670199
 31
0.0000000000000000
  0
LINE
  5
4CA
100
AcDbEntity
  8
MAIN0
  6
PHANTOM
 62
3
100
AcDbLine
 10
229.3818191947788
 20
289.7169457777792
 30
0.0000000000000000
 11
229.3818191947788
 21
324.2169457776485
 31
0.0000000000000000
  0
CIRCLE
  5
4CB
100
AcDbEntity
  8
MAIN0
  6
CONTINUOUS
 62
3
100
AcDbCircle
 10
483.1468515284885
 20
256.1982087375276
 30
0.0000000000000000
 40
4.000000000000000
  0
CIRCLE
  5
4CC
100
AcDbEntity
  8
MAIN0
  6
CONTINUOUS
 62
3
100
AcDbCircle
 10
483.1468515284885
 20
256.1982087375276
 30
0.0000000000000000
 40
3.399999999999999
  0
CIRCLE
  5
4CD
100
AcDbEntity
  8
MAIN0
  6
CONTINUOUS
 62
3
100
AcDbCircle
 10
495.2712071814706
 20
249.1982087375276
 30
0.0000000000000000
 40
4.000000000000000
  0
CIRCLE
  5
4CE
100
AcDbEntity
  8
MAIN0
  6
CONTINUOUS
 62
3
100
AcDbCircle
 10
495.2712071814706
 20
249.1982087375276
 30
0.0000000000000000
 40
3.399999999999999
  0
CIRCLE
  5
4CF
100
AcDbEntity
  8
MAIN0
  6
CONTINUOUS
 62
3
100
AcDbCircle
 10
427.2887325996194
 20
256.1982087375291
 30
0.0000000000000000
 40
4.000000000000000
  0
CIRCLE
  5
4D0
100
AcDbEntity
  8
MAIN0
  6
CONTINUOUS
 62
3
100
AcDbCircle
 10
427.2887325996194
 20
256.1982087375291
 30
0.0000000000000000
 40
3.399999999999999
  0
CIRCLE
  5
4D1
100
AcDbEntity
  8
MAIN0
  6
CONTINUOUS
 62
3
100
AcDbCircle
 10
415.1643769466373
 20
249.1982087375291
 30
0.0000000000000000
 40
4.000000000000000
  0
CIRCLE
  5
4D2
100
AcDbEntity
  8
MAIN0
  6
CONTINUOUS
 62
3
100
AcDbCircle
 10
415.1643769466373
 20
249.1982087375291
 30
0.0000000000000000
 40
3.399999999999999
  0
MTEXT
  5
4D3
100
AcDbEntity
  8
A0
  6
CONTINUOUS
 62
3
100
AcDbMText
 10
130.9605757751929
 20
-21.39834276725985
 30
0.0000000000000000
 40
4.649999856948853
 41
0.0000000000000000
 71
     1
 72
     1
  1
{\H0.92x;{   15}}
 11
1.000000000000000
 21
0.0000000000000000
 31
0.0000000000000000
  7
STANDARD
  0
MTEXT
  5
4D4
100
AcDbEntity
  8
A0
  6
CONTINUOUS
 62
3
100
AcDbMText
 10
130.0632480290847
 20
-31.71886359015819
 30
0.0000000000000000
 40
4.649999856948853
 41
0.0000000000000000
 71
     1
 72
     1
  1
{\H0.92x;{    5.2}}
 11
1.000000000000000
 21
0.0000000000000000
 31
0.0000000000000000
  7
STANDARD
  0
MTEXT
  5
4D5
100
AcDbEntity
  8
A0
  6
CONTINUOUS
 62
3
100
AcDbMText
 10
130.8782218632571
 20
-41.27839321842383
 30
0.0000000000000000
 40
4.649999856948853
 41
0.0000000000000000
 71
     1
 72
     1
  1
{\H0.92x;{    7.5}}
 11
1.000000000000000
 21
0.0000000000000000
 31
0.0000000000000000
  7
STANDARD
  0
MTEXT
  5
4D6
100
AcDbEntity
  8
A0
  6
CONTINUOUS
 62
3
100
AcDbMText
 10
56.91803645153164
 20
-39.10524902156975
 30
0.0000000000000000
 40
4.649999856948853
 41
0.0000000000000000
 71
     1
 72
     1
  1
{\H0.93x;{静的把握力}}
 11
1.000000000000000
 21
0.0000000000000000
 31
0.0000000000000000
  7
KNJYOKO
  0
MTEXT
  5
4D7
100
AcDbEntity
  8
A0
  6
CONTINUOUS
 62
3
100
AcDbMText
 10
56.91803645153164
 20
-49.46518109013174
 30
0.0000000000000000
 40
4.649999856948853
 41
0.0000000000000000
 71
     1
 72
     1
  1
{\H0.93x;{最高使用エア圧力}}
 11
1.000000000000000
 21
0.0000000000000000
 31
0.0000000000000000
  7
KNJYOKO
  0
MTEXT
  5
4D8
100
AcDbEntity
  8
A0
  6
CONTINUOUS
 62
3
100
AcDbMText
 10
55.37286613485276
 20
-59.97283166308357
 30
0.0000000000000000
 40
4.649999856948853
 41
0.0000000000000000
 71
     1
 72
     1
  1
{\H0.94x;{質量（標準ソフトジョー付）}}
 11
1.000000000000000
 21
0.0000000000000000
 31
0.0000000000000000
  7
KNJYOKO
  0
MTEXT
  5
4D9
100
AcDbEntity
  8
A0
  6
CONTINUOUS
 62
3
100
AcDbMText
 10
130.4221791275279
 20
-62.14211003807741
 30
0.0000000000000000
 40
4.649999856948853
 41
0.0000000000000000
 71
     1
 72
     1
  1
{\H0.92x;{   10}}
 11
1.000000000000000
 21
0.0000000000000000
 31
0.0000000000000000
  7
STANDARD
  0
MTEXT
  5
4DA
100
AcDbEntity
  8
A0
  6
CONTINUOUS
 62
3
100
AcDbMText
 10
55.37286613481980
 20
-70.47283166308357
 30
0.0000000000000000
 40
4.649999856948853
 41
0.0000000000000000
 71
     1
 72
     1
  1
{\H0.93x;{使用最高回転速度}}
 11
1.000000000000000
 21
0.0000000000000000
 31
0.0000000000000000
  7
KNJYOKO
  0
MTEXT
  5
4DB
100
AcDbEntity
  8
A0
  6
CONTINUOUS
 62
3
100
AcDbMText
 10
130.4221791275274
 20
-75.88749522152550
 30
0.0000000000000000
 40
4.649999856948853
 41
0.0000000000000000
 71
     7
 72
     1
  1
{ 100 min}
 11
1.000000000000000
 21
0.0000000000000000
 31
0.0000000000000000
  7
STANDARD
  0
MTEXT
  5
4DC
100
AcDbEntity
  8
A0
  6
CONTINUOUS
 62
3
100
AcDbMText
 10
163.7121801026594
 20
-73.56249529305107
 30
0.0000000000000000
 40
2.324999928474426
 41
0.0000000000000000
 71
     7
 72
     1
  1
{-1}
 11
1.000000000000000
 21
0.0000000000000000
 31
0.0000000000000000
  7
STANDARD
  0
LINE
  5
4DD
100
AcDbEntity
  8
A0
  6
CONTINUOUS
 62
3
100
AcDbLine
 10
54.92217912752810
 20
-80.29210989522670
 30
0.0000000000000000
 11
172.6806391250580
 21
-80.29210989504520
 31
0.0000000000000000
  0
LINE
  5
4DE
100
AcDbEntity
  8
A0
  6
CONTINUOUS
 62
3
100
AcDbLine
 10
54.92217912752820
 20
-69.79210989533482
 30
0.0000000000000000
 11
172.6806391250542
 21
-69.79210989539533
 31
0.0000000000000000
  0
LINE
  5
4DF
100
AcDbEntity
  8
A0
  6
CONTINUOUS
 62
3
100
AcDbLine
 10
54.92217912752791
 20
-59.29208377962577
 30
0.0000000000000000
 11
172.6806391250503
 21
-59.29208377962577
 31
0.0000000000000000
  0
LINE
  5
4E0
100
AcDbEntity
  8
A0
  6
CONTINUOUS
 62
3
100
AcDbLine
 10
54.92217912752791
 20
-48.79208377962577
 30
0.0000000000000000
 11
172.6806391250464
 21
-48.79208377962577
 31
0.0000000000000000
  0
MTEXT
  5
4E1
100
AcDbEntity
  8
A0
  6
CONTINUOUS
 62
3
100
AcDbMText
 10
140.4495574420361
 20
-49.72139497735087
 30
0.0000000000000000
 40
4.649999856948853
 41
0.0000000000000000
 71
     1
 72
     1
  1
{\H0.92x;{0.7MPa\P}
 11
1.000000000000000
 21
0.0000000000000000
 31
0.0000000000000000
  7
STANDARD
  0
MTEXT
  5
4E2
100
AcDbEntity
  8
A0
  6
CONTINUOUS
 62
3
100
AcDbMText
 10
162.4221791275280
 20
-62.59211103943544
 30
0.0000000000000000
 40
4.199998855590820
 41
0.0000000000000000
 71
     1
 72
     1
  1
{\H0.67x;{Kg}}
 11
1.000000000000000
 21
0.0000000000000000
 31
0.0000000000000000
  7
STANDARD
  0
LINE
  5
4E3
100
AcDbEntity
  8
A0
  6
CONTINUOUS
 62
3
100
AcDbLine
 10
106.6079779318263
 20
-90.79210989514567
 30
0.0000000000000000
 11
172.6806391250619
 21
-90.79210989504522
 31
0.0000000000000000
  0
LINE
  5
4E4
100
AcDbEntity
  8
A0
  6
CONTINUOUS
 62
3
100
AcDbLine
 10
54.92217912756092
 20
-101.2921098952267
 30
0.0000000000000000
 11
172.6806391250658
 21
-101.2921098950452
 31
0.0000000000000000
  0
LINE
  5
4E5
100
AcDbEntity
  8
A0
  6
CONTINUOUS
 62
3
100
AcDbLine
 10
54.92217912757734
 20
-111.7921098952267
 30
0.0000000000000000
 11
172.6806391250697
 21
-111.7921098950452
 31
0.0000000000000000
  0
MTEXT
  5
4E6
100
AcDbEntity
  8
A0
  6
CONTINUOUS
 62
3
100
AcDbMText
 10
56.68303743132356
 20
-88.14211003807934
 30
0.0000000000000000
 40
4.649999856948853
 41
0.0000000000000000
 71
     1
 72
     1
  1
{\H0.91x;{把握径}}
 11
1.000000000000000
 21
0.0000000000000000
 31
0.0000000000000000
  7
KNJYOKO
  0
MTEXT
  5
4E7
100
AcDbEntity
  8
A0
  6
CONTINUOUS
 62
3
100
AcDbMText
 10
110.5383769483666
 20
-81.19175357595866
 30
0.0000000000000000
 40
4.649999856948853
 41
0.0000000000000000
 71
     1
 72
     1
  1
{\H0.89x;{最大}}
 11
1.000000000000000
 21
0.0000000000000000
 31
0.0000000000000000
  7
KNJYOKO
  0
MTEXT
  5
4E8
100
AcDbEntity
  8
A0
  6
CONTINUOUS
 62
3
100
AcDbMText
 10
110.5383769483666
 20
-91.69175357595871
 30
0.0000000000000000
 40
4.649999856948853
 41
0.0000000000000000
 71
     1
 72
     1
  1
{\H0.89x;{最小}}
 11
1.000000000000000
 21
0.0000000000000000
 31
0.0000000000000000
  7
KNJYOKO
  0
MTEXT
  5
4E9
100
AcDbEntity
  8
A0
  6
CONTINUOUS
 62
3
100
AcDbMText
 10
162.6268084341863
 20
-84.88588206785720
 30
0.0000000000000000
 40
4.199998855590820
 41
0.0000000000000000
 71
     1
 72
     1
  1
{\H0.67x;{mm}}
 11
1.000000000000000
 21
0.0000000000000000
 31
0.0000000000000000
  7
STANDARD
  0
MTEXT
  5
4EA
100
AcDbEntity
  8
A0
  6
CONTINUOUS
 62
3
100
AcDbMText
 10
162.6268084342028
 20
-95.38588206785720
 30
0.0000000000000000
 40
4.199998855590820
 41
0.0000000000000000
 71
     1
 72
     1
  1
{\H0.67x;{mm}}
 11
1.000000000000000
 21
0.0000000000000000
 31
0.0000000000000000
  7
STANDARD
  0
MTEXT
  5
4EB
100
AcDbEntity
  8
A0
  6
CONTINUOUS
 62
3
100
AcDbMText
 10
142.8857206707235
 20
-83.53855332039090
 30
0.0000000000000000
 40
4.649999856948853
 41
0.0000000000000000
 71
     1
 72
     1
  1
{\H0.90x;{110}}
 11
1.000000000000000
 21
0.0000000000000000
 31
0.0000000000000000
  7
STANDARD
  0
MTEXT
  5
4EC
100
AcDbEntity
  8
A0
  6
CONTINUOUS
 62
3
100
AcDbMText
 10
147.1928665962835
 20
-93.94750066372721
 30
0.0000000000000000
 40
4.649999856948853
 41
0.0000000000000000
 71
     1
 72
     1
  1
{\H0.88x;{10}}
 11
1.000000000000000
 21
0.0000000000000000
 31
0.0000000000000000
  7
STANDARD
  0
MTEXT
  5
4ED
100
AcDbEntity
  8
A0
  6
CONTINUOUS
 62
3
100
AcDbMText
 10
55.37286613478705
 20
-101.9728577786845
 30
0.0000000000000000
 40
4.649999856948853
 41
0.0000000000000000
 71
     1
 72
     1
  1
{\H0.93x;{回転抵抗トルク}}
 11
1.000000000000000
 21
0.0000000000000000
 31
0.0000000000000000
  7
KNJYOKO
  0
MTEXT
  5
4EE
100
AcDbEntity
  8
A0
  6
CONTINUOUS
 62
3
100
AcDbMText
 10
162.8106272930212
 20
-105.6080646601170
 30
0.0000000000000000
 40
4.199998855590820
 41
0.0000000000000000
 71
     1
 72
     1
  1
{\H0.67x;{Nm}}
 11
1.000000000000000
 21
0.0000000000000000
 31
0.0000000000000000
  7
STANDARD
  0
MTEXT
  5
4EF
100
AcDbEntity
  8
A0
  6
CONTINUOUS
 62
3
100
AcDbMText
 10
147.2485872316666
 20
-104.5899880880600
 30
0.0000000000000000
 40
4.649999856948853
 41
0.0000000000000000
 71
     1
 72
     1
  1
{\H0.88x;{10}}
 11
1.000000000000000
 21
0.0000000000000000
 31
0.0000000000000000
  7
STANDARD
  0
MTEXT
  5
4F0
100
AcDbEntity
  8
A0
  6
CONTINUOUS
 62
3
100
AcDbMText
 10
55.37286613485231
 20
-17.97277943177356
 30
0.0000000000000000
 40
4.649999856948853
 41
0.0000000000000000
 71
     1
 72
     1
  1
{\H0.94x;{プランジャストロ－ク}}
 11
1.000000000000000
 21
0.0000000000000000
 31
0.0000000000000000
  7
KNJYOKO
  0
MTEXT
  5
4F1
100
AcDbEntity
  8
A0
  6
CONTINUOUS
 62
3
100
AcDbMText
 10
55.37286613485208
 20
-28.47277943174264
 30
0.0000000000000000
 40
4.649999856948853
 41
0.0000000000000000
 71
     1
 72
     1
  1
{\H0.93x;{ジョ－ストロ－ク}}
 11
1.000000000000000
 21
0.0000000000000000
 31
0.0000000000000000
  7
KNJYOKO
  0
MTEXT
  5
4F2
100
AcDbEntity
  8
A0
  6
CONTINUOUS
 62
3
100
AcDbMText
 10
55.37286613485231
 20
-23.87277928872241
 30
0.0000000000000000
 40
3.750000000000000
 41
0.0000000000000000
 71
     1
 72
     1
  1
{\H0.63x;{Plunger stroke}}
 11
1.000000000000000
 21
0.0000000000000000
 31
0.0000000000000000
  7
STANDARD
  0
MTEXT
  5
4F3
100
AcDbEntity
  8
A0
  6
CONTINUOUS
 62
3
100
AcDbMText
 10
55.37286613485208
 20
-34.37277928869149
 30
0.0000000000000000
 40
3.750000000000000
 41
0.0000000000000000
 71
     1
 72
     1
  1
{\H0.63x;{Jaw stroke}}
 11
1.000000000000000
 21
0.0000000000000000
 31
0.0000000000000000
  7
STANDARD
  0
MTEXT
  5
4F4
100
AcDbEntity
  8
A0
  6
CONTINUOUS
 62
3
100
AcDbMText
 10
56.82073054699618
 20
-93.09074235463935
 30
0.0000000000000000
 40
3.750000000000000
 41
0.0000000000000000
 71
     1
 72
     1
  1
{\H0.63x;{Gripping diameter}}
 11
1.000000000000000
 21
0.0000000000000000
 31
0.0000000000000000
  7
STANDARD
  0
MTEXT
  5
4F5
100
AcDbEntity
  8
A0
  6
CONTINUOUS
 62
3
100
AcDbMText
 10
111.5092820166470
 20
-86.88939771100944
 30
0.0000000000000000
 40
3.000000000000000
 41
0.0000000000000000
 71
     1
 72
     1
  1
{\H0.81x;{Max.}}
 11
1.000000000000000
 21
0.0000000000000000
 31
0.0000000000000000
  7
STANDARD
  0
MTEXT
  5
4F6
100
AcDbEntity
  8
A0
  6
CONTINUOUS
 62
3
100
AcDbMText
 10
111.3027577471680
 20
-97.52533877938878
 30
0.0000000000000000
 40
3.000000000000000
 41
0.0000000000000000
 71
     1
 72
     1
  1
{\H0.81x;{Min.}}
 11
1.000000000000000
 21
0.0000000000000000
 31
0.0000000000000000
  7
STANDARD
  0
MTEXT
  5
4F7
100
AcDbEntity
  8
A0
  6
CONTINUOUS
 62
3
100
AcDbMText
 10
55.37286613481980
 20
-76.37283152003242
 30
0.0000000000000000
 40
3.750000000000000
 41
0.0000000000000000
 71
     1
 72
     1
  1
{\H0.63x;{MAX Permissible speed}}
 11
1.000000000000000
 21
0.0000000000000000
 31
0.0000000000000000
  7
STANDARD
  0
MTEXT
  5
4F8
100
AcDbEntity
  8
A0
  6
CONTINUOUS
 62
3
100
AcDbMText
 10
55.37286613485254
 20
-55.37280540440058
 30
0.0000000000000000
 40
3.750000000000000
 41
0.0000000000000000
 71
     1
 72
     1
  1
{\H0.63x;{MAX Permissible air press}}
 11
1.000000000000000
 21
0.0000000000000000
 31
0.0000000000000000
  7
STANDARD
  0
MTEXT
  5
4F9
100
AcDbEntity
  8
A0
  6
CONTINUOUS
 62
3
100
AcDbMText
 10
55.37286613478705
 20
-107.8728576356334
 30
0.0000000000000000
 40
3.750000000000000
 41
0.0000000000000000
 71
     1
 72
     1
  1
{\H0.63x;{MAX Rotation resistance torque}}
 11
1.000000000000000
 21
0.0000000000000000
 31
0.0000000000000000
  7
STANDARD
  0
MTEXT
  5
4FA
100
AcDbEntity
  8
A0
  6
CONTINUOUS
 62
3
100
AcDbMText
 10
55.37286613485276
 20
-65.87283152003242
 30
0.0000000000000000
 40
3.750000000000000
 41
0.0000000000000000
 71
     1
 72
     1
  1
{\H0.63x;{Mass(with standard soft jaw)}}
 11
1.000000000000000
 21
0.0000000000000000
 31
0.0000000000000000
  7
STANDARD
  0
MTEXT
  5
4FB
100
AcDbEntity
  8
A0
  6
CONTINUOUS
 62
3
100
AcDbMText
 10
88.13180220169372
 20
-43.01891337020400
 30
0.0000000000000000
 40
3.000000000000000
 41
0.0000000000000000
 71
     7
 72
     1
  1
{[エア圧 0.6MPa(6.0Kgf/cm}
 11
1.000000000000000
 21
0.0000000000000000
 31
0.0000000000000000
  7
KNJYOKO
  0
MTEXT
  5
4FC
100
AcDbEntity
  8
A0
  6
CONTINUOUS
 62
3
100
AcDbMText
 10
126.8318037171418
 20
-41.51891337020400
 30
0.0000000000000000
 40
1.500000000000000
 41
0.0000000000000000
 71
     7
 72
     1
  1
{2}
 11
1.000000000000000
 21
0.0000000000000000
 31
0.0000000000000000
  7
STANDARD
  0
MTEXT
  5
4FD
100
AcDbEntity
  8
A0
  6
CONTINUOUS
 62
3
100
AcDbMText
 10
127.7318037529046
 20
-43.01891337020400
 30
0.0000000000000000
 40
3.000000000000000
 41
0.0000000000000000
 71
     7
 72
     1
  1
{)]}
 11
1.000000000000000
 21
0.0000000000000000
 31
0.0000000000000000
  7
STANDARD
  0
MTEXT
  5
4FE
100
AcDbEntity
  8
A0
  6
CONTINUOUS
 62
3
100
AcDbMText
 10
55.37286613485276
 20
-44.87280540443145
 30
0.0000000000000000
 40
3.750000000000000
 41
0.0000000000000000
 71
     1
 72
     1
  1
{\H0.62x;{Static gripping force(AIR 0.6MPa)}}
 11
1.000000000000000
 21
0.0000000000000000
 31
0.0000000000000000
  7
STANDARD
  0
LINE
  5
4FF
100
AcDbEntity
  8
A0
  6
CONTINUOUS
 62
3
100
AcDbLine
 10
131.2720862391374
 20
-111.7921098951091
 30
0.0000000000000000
 11
131.2720862391374
 21
-17.29208377965698
 31
0.0000000000000000
  0
LINE
  5
500
100
AcDbEntity
  8
A0
  6
CONTINUOUS
 62
3
100
AcDbLine
 10
172.6806391250697
 20
-111.7921098950452
 30
0.0000000000000000
 11
172.6806391250309
 21
-6.792083779656920
 31
0.0000000000000000
  0
MTEXT
  5
501
100
AcDbEntity
  8
A0
  6
CONTINUOUS
 62
3
100
AcDbMText
 10
141.4854558688413
 20
-58.25601763948372
 30
0.0000000000000000
 40
3.750000000000000
 41
0.0000000000000000
 71
     7
 72
     1
  1
{(7.0Kgf/cm}
 11
1.000000000000000
 21
0.0000000000000000
 31
0.0000000000000000
  7
STANDARD
  0
MTEXT
  5
502
100
AcDbEntity
  8
A0
  6
CONTINUOUS
 62
3
100
AcDbMText
 10
163.9854558688413
 20
-56.38101763948372
 30
0.0000000000000000
 40
1.875000000000000
 41
0.0000000000000000
 71
     7
 72
     1
  1
{2}
 11
1.000000000000000
 21
0.0000000000000000
 31
0.0000000000000000
  7
STANDARD
  0
MTEXT
  5
503
100
AcDbEntity
  8
A0
  6
CONTINUOUS
 62
3
100
AcDbMText
 10
165.1104558688413
 20
-58.25601763948372
 30
0.0000000000000000
 40
3.750000000000000
 41
0.0000000000000000
 71
     7
 72
     1
  1
{)}
 11
1.000000000000000
 21
0.0000000000000000
 31
0.0000000000000000
  7
STANDARD
  0
MTEXT
  5
504
100
AcDbEntity
  8
A0
  6
CONTINUOUS
 62
3
100
AcDbMText
 10
75.54019113957847
 20
-8.456161354754940
 30
0.0000000000000000
 40
7.500000000000000
 41
0.0000000000000000
 71
     1
 72
     1
  1
{\H0.62x;{仕　様   SPECIFICATION}}
 11
1.000000000000000
 21
0.0000000000000000
 31
0.0000000000000000
  7
KNJYOKO
  0
INSERT
  5
50F
100
AcDbEntity
  8
A0
  6
CONTINUOUS
 62
3
100
AcDbBlockReference
  2
M2
 10
0.0000000000000000
 20
0.0000000000000000
 30
0.0000000000000000
 50
0.0000000000000000
  0
LINE
  5
510
100
AcDbEntity
  8
WAKU0
  6
CONTINUOUS
 62
3
100
AcDbLine
 10
412.0000000000000
 20
51.00000000000000
 30
0.0000000000000000
 11
582.0000000000000
 21
51.00000000000000
 31
0.0000000000000000
  0
LINE
  5
511
100
AcDbEntity
  8
WAKU0
  6
CONTINUOUS
 62
3
100
AcDbLine
 10
412.0000000000000
 20
51.00000000000000
 30
0.0000000000000000
 11
412.0000000000000
 21
12.00000000000000
 31
0.0000000000000000
  0
LINE
  5
512
100
AcDbEntity
  8
WAKU0
  6
CONTINUOUS
 62
3
100
AcDbLine
 10
484.0000000000000
 20
51.00000000000000
 30
0.0000000000000000
 11
484.0000000000000
 21
12.00000000000000
 31
0.0000000000000000
  0
LINE
  5
513
100
AcDbEntity
  8
WAKU0
  6
CONTINUOUS
 62
3
100
AcDbLine
 10
504.0000000000000
 20
51.00000000000000
 30
0.0000000000000000
 11
504.0000000000000
 21
12.00000000000000
 31
0.0000000000000000
  0
LINE
  5
514
100
AcDbEntity
  8
WAKU0
  6
CONTINUOUS
 62
3
100
AcDbLine
 10
516.0000000000000
 20
51.00000000000000
 30
0.0000000000000000
 11
516.0000000000000
 21
12.00000000000000
 31
0.0000000000000000
  0
LINE
  5
515
100
AcDbEntity
  8
WAKU0
  6
CONTINUOUS
 62
3
100
AcDbLine
 10
516.0000000000000
 20
37.00000000000000
 30
0.0000000000000000
 11
582.0000000000000
 21
37.00000000000000
 31
0.0000000000000000
  0
LINE
  5
516
100
AcDbEntity
  8
WAKU0
  6
CONTINUOUS
 62
3
100
AcDbLine
 10
504.0000000000000
 20
23.00000000000000
 30
0.0000000000000000
 11
582.0000000000000
 21
23.00000000000000
 31
0.0000000000000000
  0
LINE
  5
517
100
AcDbEntity
  8
WAKU0
  6
CONTINUOUS
 62
3
100
AcDbLine
 10
547.0000000000000
 20
51.00000000000000
 30
0.0000000000000000
 11
547.0000000000000
 21
44.00000000000000
 31
0.0000000000000000
  0
LINE
  5
518
100
AcDbEntity
  8
WAKU0
  6
CONTINUOUS
 62
3
100
AcDbLine
 10
559.0000000000000
 20
51.00000000000000
 30
0.0000000000000000
 11
559.0000000000000
 21
44.00000000000000
 31
0.0000000000000000
  0
LINE
  5
519
100
AcDbEntity
  8
WAKU0
  6
CONTINUOUS
 62
3
100
AcDbLine
 10
484.0000000000000
 20
31.50000000000000
 30
0.0000000000000000
 11
504.0000000000000
 21
31.50000000000000
 31
0.0000000000000000
  0
LINE
  5
51A
100
AcDbEntity
  8
WAKU0
  6
CONTINUOUS
 62
3
100
AcDbLine
 10
504.0000000000000
 20
44.00000000000000
 30
0.0000000000000000
 11
582.0000000000000
 21
44.00000000000000
 31
0.0000000000000000
  0
LINE
  5
51B
100
AcDbEntity
  8
WAKU0
  6
CONTINUOUS
 62
3
100
AcDbLine
 10
412.0000000000000
 20
37.00000000000000
 30
0.0000000000000000
 11
484.0000000000000
 21
37.00000000000000
 31
0.0000000000000000
  0
LINE
  5
51C
100
AcDbEntity
  8
WAKU0
  6
CONTINUOUS
 62
3
100
AcDbLine
 10
412.0000000000000
 20
23.00000000000000
 30
0.0000000000000000
 11
484.0000000000000
 21
23.00000000000000
 31
0.0000000000000000
  0
LINE
  5
51D
100
AcDbEntity
  8
WAKU0
  6
CONTINUOUS
 62
3
100
AcDbLine
 10
460.0000000000000
 20
37.00000000000000
 30
0.0000000000000000
 11
460.0000000000000
 21
12.00000000000000
 31
0.0000000000000000
  0
LINE
  5
51E
100
AcDbEntity
  8
WAKU0
  6
CONTINUOUS
 62
3
100
AcDbLine
 10
436.0000000000000
 20
37.00000000000000
 30
0.0000000000000000
 11
436.0000000000000
 21
23.00000000000000
 31
0.0000000000000000
  0
LINE
  5
51F
100
AcDbEntity
  8
WAKU0
  6
CONTINUOUS
 62
3
100
AcDbLine
 10
472.0000000000000
 20
26.00000000000000
 30
0.0000000000000000
 11
472.0000000000000
 21
23.00000000000000
 31
0.0000000000000000
  0
LINE
  5
520
100
AcDbEntity
  8
WAKU0
  6
CONTINUOUS
 62
3
100
AcDbLine
 10
448.0000000000000
 20
26.00000000000000
 30
0.0000000000000000
 11
448.0000000000000
 21
23.00000000000000
 31
0.0000000000000000
  0
LINE
  5
521
100
AcDbEntity
  8
WAKU0
  6
CONTINUOUS
 62
3
100
AcDbLine
 10
424.0000000000000
 20
26.00000000000000
 30
0.0000000000000000
 11
424.0000000000000
 21
23.00000000000000
 31
0.0000000000000000
  0
LINE
  5
522
100
AcDbEntity
  8
WAKU0
  6
CONTINUOUS
 62
3
100
AcDbLine
 10
430.0000000000000
 20
51.00000000000000
 30
0.0000000000000000
 11
430.0000000000000
 21
37.00000000000000
 31
0.0000000000000000
  0
LINE
  5
523
100
AcDbEntity
  8
WAKU0
  6
CONTINUOUS
 62
3
100
AcDbLine
 10
412.0000000000000
 20
45.00000000000000
 30
0.0000000000000000
 11
484.0000000000000
 21
45.00000000000000
 31
0.0000000000000000
  0
LINE
  5
524
100
AcDbEntity
  8
WAKU0
  6
HIDDEN
 62
3
100
AcDbLine
 10
532.5000000000000
 20
23.00000000000000
 30
0.0000000000000000
 11
532.5000000000000
 21
12.00000000000000
 31
0.0000000000000000
  0
LINE
  5
525
100
AcDbEntity
  8
WAKU0
  6
HIDDEN
 62
3
100
AcDbLine
 10
544.9000000000000
 20
23.00000000000000
 30
0.0000000000000000
 11
544.9000000000000
 21
12.00000000000000
 31
0.0000000000000000
  0
MTEXT
  5
526
100
AcDbEntity
  8
WAKU0
  6
CONTINUOUS
 62
3
100
AcDbMText
 10
516.4820000243485
 20
49.04999995231628
 30
0.0000000000000000
 40
3.099999904632568
 41
0.0000000000000000
 71
     1
 72
     1
  1
{\H0.92x;{NRC04}}
 11
1.000000000000000
 21
0.0000000000000000
 31
0.0000000000000000
  7
STANDARD
  0
MTEXT
  5
527
100
AcDbEntity
  8
WAKU0
  6
CONTINUOUS
 62
3
100
AcDbMText
 10
524.8299994468689
 20
42.04999995231628
 30
0.0000000000000000
 40
3.099999904632568
 41
0.0000000000000000
 71
     1
 72
     1
  1
{\H0.94x;{ＲＯＴＡＲＹ　ＣＨＵＣＫ　４}}
 11
1.000000000000000
 21
0.0000000000000000
 31
0.0000000000000000
  7
KNJYOKO
  0
MTEXT
  5
528
100
AcDbEntity
  8
WAKU0
  6
CONTINUOUS
 62
3
100
AcDbMText
 10
524.8299994468689
 20
34.23333326975504
 30
0.0000000000000000
 40
3.099999904632568
 41
0.0000000000000000
 71
     1
 72
     1
  1
{\H0.94x;{ＮＲＣ０４　ガイケイ\P　　ＯＵＴＳＩＤＥ　ＶＩＥＷ}}
 11
1.000000000000000
 21
0.0000000000000000
 31
0.0000000000000000
  7
KNJYOKO
  0
MTEXT
  5
529
100
AcDbEntity
  8
WAKU0
  6
CONTINUOUS
 62
3
100
AcDbMText
 10
490.0049998760223
 20
39.29999995231628
 30
0.0000000000000000
 40
3.099999904632568
 41
0.0000000000000000
 71
     1
 72
     1
  1
{\H0.90x;{1:1}}
 11
1.000000000000000
 21
0.0000000000000000
 31
0.0000000000000000
  7
STANDARD
  0
MTEXT
  5
52A
100
AcDbEntity
  8
WAKU0
  6
CONTINUOUS
 62
3
100
AcDbMText
 10
546.4000001549721
 20
20.15000009536743
 30
0.0000000000000000
 40
5.300000190734863
 41
0.0000000000000000
 71
     1
 72
     1
  1
{\H0.90x;{2634}}
 11
1.000000000000000
 21
0.0000000000000000
 31
0.0000000000000000
  7
STANDARD
  0
MTEXT
  5
52B
100
AcDbEntity
  8
WAKU0
  6
CONTINUOUS
 62
3
100
AcDbMText
 10
534.3000000834466
 20
20.15000009536743
 30
0.0000000000000000
 40
5.300000190734863
 41
0.0000000000000000
 71
     1
 72
     1
  1
{\H0.87x;{24}}
 11
1.000000000000000
 21
0.0000000000000000
 31
0.0000000000000000
  7
STANDARD
  0
MTEXT
  5
52C
100
AcDbEntity
  8
WAKU0
  6
CONTINUOUS
 62
3
100
AcDbMText
 10
517.5000001192093
 20
20.15000009536743
 30
0.0000000000000000
 40
5.300000190734863
 41
0.0000000000000000
 71
     1
 72
     1
  1
{\H0.89x;{61P}}
 11
1.000000000000000
 21
0.0000000000000000
 31
0.0000000000000000
  7
STANDARD
  0
MTEXT
  5
52D
100
AcDbEntity
  8
WAKU0
  6
CONTINUOUS
 62
3
100
AcDbMText
 10
572.0000000476837
 20
20.15000009536743
 30
0.0000000000000000
 40
5.300000190734863
 41
0.0000000000000000
 71
     1
 72
     1
  1
{\H0.81x;{7}}
 11
1.000000000000000
 21
0.0000000000000000
 31
0.0000000000000000
  7
STANDARD
  0
MTEXT
  5
52E
100
AcDbEntity
  8
WAKU0
  6
CONTINUOUS
 62
3
100
AcDbMText
 10
461.3850002884865
 20
33.00000000000000
 30
0.0000000000000000
 40
3.000000000000000
 41
0.0000000000000000
 71
     7
 72
     1
  1
{\H0.93x;{DRAWN BY}}
 11
1.000000000000000
 21
0.0000000000000000
 31
0.0000000000000000
  7
STANDARD
  0
MTEXT
  5
52F
100
AcDbEntity
  8
WAKU0
  6
CONTINUOUS
 62
3
100
AcDbMText
 10
441.2149997949600
 20
32.95000004768372
 30
0.0000000000000000
 40
3.099999904632568
 41
0.0000000000000000
 71
     7
 72
     1
  1
{\H0.92x;{CHIEF}}
 11
1.000000000000000
 21
0.0000000000000000
 31
0.0000000000000000
  7
STANDARD
  0
MTEXT
  5
530
100
AcDbEntity
  8
WAKU0
  6
CONTINUOUS
 62
3
100
AcDbMText
 10
414.4249997138977
 20
32.95000004768372
 30
0.0000000000000000
 40
3.099999904632568
 41
0.0000000000000000
 71
     7
 72
     1
  1
{\H0.92x;{MANAGER}}
 11
1.000000000000000
 21
0.0000000000000000
 31
0.0000000000000000
  7
STANDARD
  0
MTEXT
  5
531
100
AcDbEntity
  8
WAKU0
  6
CONTINUOUS
 62
3
100
AcDbMText
 10
416.6599994301796
 20
18.13333336512248
 30
0.0000000000000000
 40
3.099999904632568
 41
0.0000000000000000
 71
     7
 72
     1
  1
{\H0.93x;{KITAGAWA IRON\PWORKS CO.,LTD.}}
 11
1.000000000000000
 21
0.0000000000000000
 31
0.0000000000000000
  7
STANDARD
  0
MTEXT
  5
532
100
AcDbEntity
  8
WAKU0
  6
CONTINUOUS
 62
3
100
AcDbMText
 10
413.0850002169609
 20
46.50000000000000
 30
0.0000000000000000
 40
3.000000000000000
 41
0.0000000000000000
 71
     7
 72
     1
  1
{\H0.92x;{CAREER}}
 11
1.000000000000000
 21
0.0000000000000000
 31
0.0000000000000000
  7
STANDARD
  0
MTEXT
  5
533
100
AcDbEntity
  8
WAKU0
  6
CONTINUOUS
 62
3
100
AcDbMText
 10
466.6099998354912
 20
18.95000004768372
 30
0.0000000000000000
 40
3.099999904632568
 41
0.0000000000000000
 71
     7
 72
     1
  1
{\H0.91x;{DATE}}
 11
1.000000000000000
 21
0.0000000000000000
 31
0.0000000000000000
  7
STANDARD
  0
MTEXT
  5
534
100
AcDbEntity
  8
WAKU0
  6
CONTINUOUS
 62
3
100
AcDbMText
 10
485.9000002145767
 20
26.50000000000000
 30
0.0000000000000000
 40
3.000000000000000
 41
0.0000000000000000
 71
     7
 72
     1
  1
{\H0.63x;{3RD ANGLE}}
 11
1.000000000000000
 21
0.0000000000000000
 31
0.0000000000000000
  7
STANDARD
  0
MTEXT
  5
535
100
AcDbEntity
  8
WAKU0
  6
CONTINUOUS
 62
3
100
AcDbMText
 10
487.2149997949600
 20
45.95000004768372
 30
0.0000000000000000
 40
3.099999904632568
 41
0.0000000000000000
 71
     7
 72
     1
  1
{\H0.92x;{SCALE}}
 11
1.000000000000000
 21
0.0000000000000000
 31
0.0000000000000000
  7
STANDARD
  0
MTEXT
  5
536
100
AcDbEntity
  8
WAKU0
  6
CONTINUOUS
 62
3
100
AcDbMText
 10
577.7000000476837
 20
46.00000000000000
 30
0.0000000000000000
 40
3.000000000000000
 41
0.0000000000000000
 71
     7
 72
     1
  1
{\H0.63x;{kg}}
 11
1.000000000000000
 21
0.0000000000000000
 31
0.0000000000000000
  7
STANDARD
  0
MTEXT
  5
537
100
AcDbEntity
  8
WAKU0
  6
CONTINUOUS
 62
3
100
AcDbMText
 10
547.6000001430512
 20
46.00000000000000
 30
0.0000000000000000
 40
3.000000000000000
 41
0.0000000000000000
 71
     7
 72
     1
  1
{\H0.63x;{WEIGHT}}
 11
1.000000000000000
 21
0.0000000000000000
 31
0.0000000000000000
  7
STANDARD
  0
MTEXT
  5
538
100
AcDbEntity
  8
WAKU0
  6
CONTINUOUS
 62
3
100
AcDbMText
 10
506.0049998760223
 20
18.13333336512248
 30
0.0000000000000000
 40
3.099999904632568
 41
0.0000000000000000
 71
     7
 72
     1
  1
{\H0.90x;{DRW\PNO.}}
 11
1.000000000000000
 21
0.0000000000000000
 31
0.0000000000000000
  7
STANDARD
  0
MTEXT
  5
539
100
AcDbEntity
  8
WAKU0
  6
CONTINUOUS
 62
3
100
AcDbMText
 10
504.6099998354912
 20
31.95000004768372
 30
0.0000000000000000
 40
3.099999904632568
 41
0.0000000000000000
 71
     7
 72
     1
  1
{\H0.91x;{NAME}}
 11
1.000000000000000
 21
0.0000000000000000
 31
0.0000000000000000
  7
STANDARD
  0
MTEXT
  5
53A
100
AcDbEntity
  8
WAKU0
  6
CONTINUOUS
 62
3
100
AcDbMText
 10
504.6099998354912
 20
45.95000004768372
 30
0.0000000000000000
 40
3.099999904632568
 41
0.0000000000000000
 71
     7
 72
     1
  1
{\H0.91x;{TYPE}}
 11
1.000000000000000
 21
0.0000000000000000
 31
0.0000000000000000
  7
STANDARD
  0
LINE
  5
53B
100
AcDbEntity
  8
WAKU0
  6
HIDDEN
 62
3
100
AcDbLine
 10
579.1599564743885
 20
13.84999990463257
 30
0.0000000000000000
 11
568.9400436209789
 21
13.84999990463257
 31
0.0000000000000000
  0
LINE
  5
53C
100
AcDbEntity
  8
WAKU0
  6
HIDDEN
 62
3
100
AcDbLine
 10
579.1599564743885
 20
13.84999990463250
 30
0.0000000000000000
 11
574.0500000476851
 21
22.70070406014901
 31
0.0000000000000000
  0
LINE
  5
53D
100
AcDbEntity
  8
WAKU0
  6
HIDDEN
 62
3
100
AcDbLine
 10
574.0500000476851
 20
22.70070406014902
 30
0.0000000000000000
 11
568.9400436209789
 21
13.84999990463248
 31
0.0000000000000000
  0
LINE
  5
53E
100
AcDbEntity
  8
WAKU0
  6
CONTINUOUS
 62
3
100
AcDbLine
 10
502.4713877753800
 20
15.78041421262812
 30
0.0000000000000000
 11
502.4713877753800
 21
21.78041421262815
 31
0.0000000000000000
  0
LINE
  5
53F
100
AcDbEntity
  8
WAKU0
  6
CONTINUOUS
 62
3
100
AcDbLine
 10
495.9336941228225
 20
17.28041421262811
 30
0.0000000000000000
 11
495.9336941228225
 21
20.28041421262824
 31
0.0000000000000000
  0
LINE
  5
540
100
AcDbEntity
  8
WAKU0
  6
CENTER
 62
12
100
AcDbLine
 10
485.4321805514995
 20
18.78041421262813
 30
0.0000000000000000
 11
503.2765788964694
 21
18.78041421262813
 31
0.0000000000000000
  0
LINE
  5
541
100
AcDbEntity
  8
WAKU0
  6
CENTER
 62
12
100
AcDbLine
 10
489.4474565857986
 20
14.55921662918448
 30
0.0000000000000000
 11
489.4474565857986
 21
22.89865102149943
 31
0.0000000000000000
  0
LINE
  5
542
100
AcDbEntity
  8
WAKU0
  6
CONTINUOUS
 62
3
100
AcDbLine
 10
495.9336941228225
 20
20.28041421262797
 30
0.0000000000000000
 11
502.4713877753800
 21
21.78041421262795
 31
0.0000000000000000
  0
LINE
  5
543
100
AcDbEntity
  8
WAKU0
  6
CONTINUOUS
 62
3
100
AcDbLine
 10
495.9336941228225
 20
17.28041421262811
 30
0.0000000000000000
 11
502.4713877753799
 21
15.78041421262812
 31
0.0000000000000000
  0
CIRCLE
  5
544
100
AcDbEntity
  8
WAKU0
  6
CONTINUOUS
 62
3
100
AcDbCircle
 10
489.4474565857986
 20
18.78041421262813
 30
0.0000000000000000
 40
1.499999999999972
  0
CIRCLE
  5
545
100
AcDbEntity
  8
WAKU0
  6
CONTINUOUS
 62
3
100
AcDbCircle
 10
489.4474565857986
 20
18.78041421262813
 30
0.0000000000000000
 40
2.999999999999979
  0
ENDSEC
  0
SECTION
  2
OBJECTS
  0
DICTIONARY
  5
595
100
AcDbDictionary
  3
ACAD_GROUP
350
596
  3
ACAD_MLINESTYLE
350
597
  3
DWGPROPS
350
598
  0
DICTIONARY
  5
596
102
{ACAD_REACTORS
330
595
102
}
100
AcDbDictionary
  0
DICTIONARY
  5
597
102
{ACAD_REACTORS
330
595
102
}
100
AcDbDictionary
  3
STANDARD
350
599
  0
MLINESTYLE
  5
599
102
{ACAD_REACTORS
330
597
102
}
100
AcDbMlineStyle
  2
STANDARD
 70
     0
  3

 62
   256
 51
90.00
 52
90.00
 71
     2
 49
0.50
 62
   256
  6
BYLAYER
 49
-0.50
 62
   256
  6
BYLAYER
  0
XRECORD
  5
598
102
{ACAD_REACTORS
330
595
102
}
100
AcDbXrecord
280
     1
  1
DWGPROPS COOKIE
  2
ＮＲＣ０４　ガイケイ
  3

  4

  6
ロータリチャック　４
  7

  8

  9

300
=
301
=
302
=
303
=
304
=
305
=
306
=
307
=
308
=
309
=
 40
0.000000
 41
0.000000
 42
0.000000
  1

 90
        0
  0
ENDSEC
  0
EOF
