  0
SECTION
  2
HEADER
  9
$ACADVER
  1
AC1014
  9
$DWGCODEPAGE
  3
ANSI_932
  9
$LTSCALE
 40
20.0
  9
$FILLMODE
 70
     1
  9
$CLAYER
  8
0
  9
$PDMODE
 70
     0
  9
$SPLFRAME
 70
     0
  9
$SPLINETYPE
 70
     6
  9
$SPLINESEGS
 70
     8
  9
$DIMASZ
 40
2.000000
  9
$DIMEXE
 40
2.000000
  9
$DIMEXO
 40
0.800000
  9
$DIMTAD
 70
     1
  9
$DIMTIH
 70
     0
  9
$DIMTOH
 70
     0
  9
$DIMTVP
 40
0.500000
  9
$DIMTXT
 40
3.100000
  9
$EXTMIN
 10
0.000000
 20
0.000000
 30
0.000000
  9
$EXTMAX
 10
420.000000
 20
594.000000
 30
0.000000
  9
$MEASUREMENT
 70
  1
  9
$LIMMIN
 10
0.000000
 20
0.000000
  9
$LIMMAX
 10
420.000000
 20
594.000000
  9
$HANDLING
 70
     1
  9
$HANDSEED
  5
545
  9
$DIMBLK
  1
_OPEN
  9
$DIMDEC
 70
     3
  9
$DIMAUNIT
 70
     1
  9
$DIMZIN
 70
     8
  9
$DIMTOFL
 70
     1
  0
ENDSEC
  0
SECTION
  2
CLASSES
  0
ENDSEC
  0
SECTION
  2
TABLES
  0
TABLE
  2
VPORT
  5
4F3
100
AcDbSymbolTable
 70
     1
  0
VPORT
  5
4F4
100
AcDbSymbolTableRecord
100
AcDbViewportTableRecord
  2
*ACTIVE
 70
     0
 12
300.400013
 22
353.243459
 40
1779.443491
 41
1.342604
  0
ENDTAB
  0
TABLE
  2
LTYPE
  5
4F5
100
AcDbSymbolTable
 70
     4
  0
LTYPE
  5
4F6
100
AcDbSymbolTableRecord
100
AcDbLinetypeTableRecord
  2
BYBLOCK
 70
     0
  3

 72
    65
 73
     0
 40
0.0
  0
LTYPE
  5
4F7
100
AcDbSymbolTableRecord
100
AcDbLinetypeTableRecord
  2
BYLAYER
 70
     0
  3

 72
    65
 73
     0
 40
0.0
  0
LTYPE
  5
4F8
100
AcDbSymbolTableRecord
100
AcDbLinetypeTableRecord
  2
CONTINUOUS
 70
     0
  3
Solid line (NEC CAE2D for Win R12.1 : 2018.06.08)
 72
    65
 73
     0
 40
0.0
  0
LTYPE
  5
4F9
100
AcDbSymbolTableRecord
100
AcDbLinetypeTableRecord
  2
HIDDEN
 70
     0
  3
__ __ __ __ __ __ __ __ __ __ __ __ __ __
 72
    65
 73
     2
 40
0.375
 49
0.25
 74
     0
 49
-0.125
 74
     0
  0
LTYPE
  5
4FA
100
AcDbSymbolTableRecord
100
AcDbLinetypeTableRecord
  2
CENTER
 70
     0
  3
____ _ ____ _ ____ _ ____ _ ____ _ ____
 72
    65
 73
     4
 40
2.0
 49
1.25
 74
     0
 49
-0.25
 74
     0
 49
0.25
 74
     0
 49
-0.25
 74
     0
  0
LTYPE
  5
4FB
100
AcDbSymbolTableRecord
100
AcDbLinetypeTableRecord
  2
PHANTOM
 70
     0
  3
______  __  __  ______  __  __  ______ 
 72
    65
 73
     6
 40
2.5
 49
1.25
 74
     0
 49
-0.25
 74
     0
 49
0.25
 74
     0
 49
-0.25
 74
     0
 49
0.25
 74
     0
 49
-0.25
 74
     0
  0
ENDTAB
  0
TABLE
  2
LAYER
  5
4FC
100
AcDbSymbolTable
 70
    19
  0
LAYER
  5
4FD
100
AcDbSymbolTableRecord
100
AcDbLayerTableRecord
  2
0
 70
     0
 62
     7
  6
CONTINUOUS
  0
LAYER
  5
4FE
100
AcDbSymbolTableRecord
100
AcDbLayerTableRecord
  2
MAIN0
 70
     0
 62
     7
  6
CONTINUOUS
  0
LAYER
  5
4FF
100
AcDbSymbolTableRecord
100
AcDbLayerTableRecord
  2
MAIN1
 70
     0
 62
     7
  6
CONTINUOUS
  0
LAYER
  5
500
100
AcDbSymbolTableRecord
100
AcDbLayerTableRecord
  2
MAIN2
 70
     0
 62
     7
  6
CONTINUOUS
  0
LAYER
  5
501
100
AcDbSymbolTableRecord
100
AcDbLayerTableRecord
  2
MAIN3
 70
     0
 62
     7
  6
CONTINUOUS
  0
LAYER
  5
502
100
AcDbSymbolTableRecord
100
AcDbLayerTableRecord
  2
MAIN4
 70
     0
 62
     7
  6
CONTINUOUS
  0
LAYER
  5
503
100
AcDbSymbolTableRecord
100
AcDbLayerTableRecord
  2
MAIN5
 70
     0
 62
     7
  6
CONTINUOUS
  0
LAYER
  5
504
100
AcDbSymbolTableRecord
100
AcDbLayerTableRecord
  2
MAIN6
 70
     0
 62
     7
  6
CONTINUOUS
  0
LAYER
  5
505
100
AcDbSymbolTableRecord
100
AcDbLayerTableRecord
  2
MAIN7
 70
     0
 62
     7
  6
CONTINUOUS
  0
LAYER
  5
506
100
AcDbSymbolTableRecord
100
AcDbLayerTableRecord
  2
MAIN8
 70
     0
 62
     7
  6
CONTINUOUS
  0
LAYER
  5
507
100
AcDbSymbolTableRecord
100
AcDbLayerTableRecord
  2
MAIN9
 70
     0
 62
     7
  6
CONTINUOUS
  0
LAYER
  5
508
100
AcDbSymbolTableRecord
100
AcDbLayerTableRecord
  2
MAIN10
 70
     0
 62
     7
  6
CONTINUOUS
  0
LAYER
  5
509
100
AcDbSymbolTableRecord
100
AcDbLayerTableRecord
  2
MAIN1023
 70
     0
 62
    16
  6
CONTINUOUS
  0
LAYER
  5
50A
100
AcDbSymbolTableRecord
100
AcDbLayerTableRecord
  2
AIR-DIAGRAM0
 70
     0
 62
     7
  6
CONTINUOUS
  0
LAYER
  5
50B
100
AcDbSymbolTableRecord
100
AcDbLayerTableRecord
  2
AIR-DIAGRAM1
 70
     0
 62
     7
  6
CONTINUOUS
  0
LAYER
  5
50C
100
AcDbSymbolTableRecord
100
AcDbLayerTableRecord
  2
AIR-DIAGRAM2
 70
     0
 62
     7
  6
CONTINUOUS
  0
LAYER
  5
50D
100
AcDbSymbolTableRecord
100
AcDbLayerTableRecord
  2
AIR-DIAGRAM1023
 70
     0
 62
    16
  6
CONTINUOUS
  0
LAYER
  5
50E
100
AcDbSymbolTableRecord
100
AcDbLayerTableRecord
  2
WAKU0
 70
     0
 62
     7
  6
CONTINUOUS
  0
LAYER
  5
50F
100
AcDbSymbolTableRecord
100
AcDbLayerTableRecord
  2
WAKU1023
 70
     0
 62
    16
  6
CONTINUOUS
  0
ENDTAB
  0
TABLE
  2
STYLE
  5
510
100
AcDbSymbolTable
 70
     4
  0
STYLE
  5
511
100
AcDbSymbolTableRecord
100
AcDbTextStyleTableRecord
  2
STANDARD
 70
    64
 40
0.0
 41
1.0
 50
0.0
 71
     0
 42
3.099999904632568
  3
TXT
  4

  0
STYLE
  5
512
100
AcDbSymbolTableRecord
100
AcDbTextStyleTableRecord
  2
ANKTATE
 70
    68
 40
0.0
 41
1.0
 50
0.0
 71
     0
 42
3.099999904632568
  3
TXT
  4

  0
STYLE
  5
CF
100
AcDbSymbolTableRecord
100
AcDbTextStyleTableRecord
  2
KNJYOKO
 70
    64
 40
0.0
 41
1.0
 50
0.0
 71
     0
 42
3.099999904632568
  3
TXT
  4
BIGFONT
  0
STYLE
  5
513
100
AcDbSymbolTableRecord
100
AcDbTextStyleTableRecord
  2
KNJTATE
 70
    68
 40
0.0
 41
1.0
 50
0.0
 71
     0
 42
3.099999904632568
  3
TXT
  4
BIGFONT
  0
ENDTAB
  0
TABLE
  2
VIEW
  5
514
100
AcDbSymbolTable
 70
     0
  0
ENDTAB
  0
TABLE
  2
UCS
  5
515
100
AcDbSymbolTable
 70
     0
  0
ENDTAB
  0
TABLE
  2
APPID
  5
516
100
AcDbSymbolTable
 70
     1
  0
APPID
  5
517
100
AcDbSymbolTableRecord
100
AcDbRegAppTableRecord
  2
ACAD
 70
     0
  0
ENDTAB
  0
TABLE
  2
DIMSTYLE
  5
518
100
AcDbSymbolTable
 70
     1
  0
DIMSTYLE
105
519
100
AcDbSymbolTableRecord
100
AcDbDimStyleTableRecord
  2
STANDARD
 70
     0
 41
2.000000
 44
2.000000
 42
0.800000
145
0.661290
140
3.100000
144
1.000000
146
0.903226
340
511
  0
DIMSTYLE
105
51A
100
AcDbSymbolTableRecord
100
AcDbDimStyleTableRecord
  2
MAIN001
 70
     0
 41
3.000000
 44
3.000000
 42
1.200000
145
0.607527
140
4.650000
144
1.000000
146
0.903226
 77
     1
 73
     0
 74
     0
271
     3
275
     1
 78
     8
172
     1
340
511
  0
DIMSTYLE
105
51B
100
AcDbSymbolTableRecord
100
AcDbDimStyleTableRecord
  2
AIR-DIAGRAM002
 70
     0
 41
2.000000
 44
2.000000
 42
0.800000
145
0.661290
140
3.100000
144
1.000000
146
0.903226
 77
     1
 73
     0
 74
     0
271
     3
275
     1
 78
     8
172
     1
340
511
  0
DIMSTYLE
105
51C
100
AcDbSymbolTableRecord
100
AcDbDimStyleTableRecord
  2
WAKU003
 70
     0
 41
2.000000
 44
2.000000
 42
0.800000
145
0.661290
140
3.100000
144
1.000000
146
0.903226
 77
     1
 73
     0
 74
     0
271
     3
275
     1
 78
     8
172
     1
340
511
  0
ENDTAB
  0
TABLE
  2
BLOCK_RECORD
  5
51D
100
AcDbSymbolTable
 70
    40
  0
BLOCK_RECORD
  5
51E
100
AcDbSymbolTableRecord
100
AcDbBlockTableRecord
  2
*MODEL_SPACE
  0
BLOCK_RECORD
  5
51F
100
AcDbSymbolTableRecord
100
AcDbBlockTableRecord
  2
*PAPER_SPACE
  0
BLOCK_RECORD
  5
1
100
AcDbSymbolTableRecord
100
AcDbBlockTableRecord
  2
_NONE
  0
BLOCK_RECORD
  5
4
100
AcDbSymbolTableRecord
100
AcDbBlockTableRecord
  2
_CLOSED
  0
BLOCK_RECORD
  5
B
100
AcDbSymbolTableRecord
100
AcDbBlockTableRecord
  2
_DOT
  0
BLOCK_RECORD
  5
13
100
AcDbSymbolTableRecord
100
AcDbBlockTableRecord
  2
_OPEN
  0
BLOCK_RECORD
  5
19
100
AcDbSymbolTableRecord
100
AcDbBlockTableRecord
  2
_ORIGIN
  0
BLOCK_RECORD
  5
1E
100
AcDbSymbolTableRecord
100
AcDbBlockTableRecord
  2
_OPEN30
  0
BLOCK_RECORD
  5
24
100
AcDbSymbolTableRecord
100
AcDbBlockTableRecord
  2
_BOXFILLED
  0
BLOCK_RECORD
  5
29
100
AcDbSymbolTableRecord
100
AcDbBlockTableRecord
  2
_BOXBLANK
  0
BLOCK_RECORD
  5
31
100
AcDbSymbolTableRecord
100
AcDbBlockTableRecord
  2
_OBLIQUE
  0
BLOCK_RECORD
  5
35
100
AcDbSymbolTableRecord
100
AcDbBlockTableRecord
  2
_OPEN90
  0
BLOCK_RECORD
  5
3B
100
AcDbSymbolTableRecord
100
AcDbBlockTableRecord
  2
_CLOSEDBLANK
  0
BLOCK_RECORD
  5
41
100
AcDbSymbolTableRecord
100
AcDbBlockTableRecord
  2
_DOTBLANK
  0
BLOCK_RECORD
  5
520
100
AcDbSymbolTableRecord
100
AcDbBlockTableRecord
  2
*D0
  0
BLOCK_RECORD
  5
521
100
AcDbSymbolTableRecord
100
AcDbBlockTableRecord
  2
*D1
  0
BLOCK_RECORD
  5
522
100
AcDbSymbolTableRecord
100
AcDbBlockTableRecord
  2
*D2
  0
BLOCK_RECORD
  5
523
100
AcDbSymbolTableRecord
100
AcDbBlockTableRecord
  2
*D3
  0
BLOCK_RECORD
  5
524
100
AcDbSymbolTableRecord
100
AcDbBlockTableRecord
  2
*D4
  0
BLOCK_RECORD
  5
525
100
AcDbSymbolTableRecord
100
AcDbBlockTableRecord
  2
*D5
  0
BLOCK_RECORD
  5
526
100
AcDbSymbolTableRecord
100
AcDbBlockTableRecord
  2
*D6
  0
BLOCK_RECORD
  5
527
100
AcDbSymbolTableRecord
100
AcDbBlockTableRecord
  2
*D7
  0
BLOCK_RECORD
  5
528
100
AcDbSymbolTableRecord
100
AcDbBlockTableRecord
  2
*D8
  0
BLOCK_RECORD
  5
529
100
AcDbSymbolTableRecord
100
AcDbBlockTableRecord
  2
M0
  0
BLOCK_RECORD
  5
52A
100
AcDbSymbolTableRecord
100
AcDbBlockTableRecord
  2
D9
  0
BLOCK_RECORD
  5
52B
100
AcDbSymbolTableRecord
100
AcDbBlockTableRecord
  2
D10
  0
BLOCK_RECORD
  5
52C
100
AcDbSymbolTableRecord
100
AcDbBlockTableRecord
  2
*D11
  0
BLOCK_RECORD
  5
52D
100
AcDbSymbolTableRecord
100
AcDbBlockTableRecord
  2
*D12
  0
BLOCK_RECORD
  5
52E
100
AcDbSymbolTableRecord
100
AcDbBlockTableRecord
  2
*D13
  0
BLOCK_RECORD
  5
52F
100
AcDbSymbolTableRecord
100
AcDbBlockTableRecord
  2
*D14
  0
BLOCK_RECORD
  5
530
100
AcDbSymbolTableRecord
100
AcDbBlockTableRecord
  2
*D15
  0
BLOCK_RECORD
  5
531
100
AcDbSymbolTableRecord
100
AcDbBlockTableRecord
  2
*D16
  0
BLOCK_RECORD
  5
532
100
AcDbSymbolTableRecord
100
AcDbBlockTableRecord
  2
*D17
  0
BLOCK_RECORD
  5
533
100
AcDbSymbolTableRecord
100
AcDbBlockTableRecord
  2
*D18
  0
BLOCK_RECORD
  5
534
100
AcDbSymbolTableRecord
100
AcDbBlockTableRecord
  2
*D19
  0
BLOCK_RECORD
  5
535
100
AcDbSymbolTableRecord
100
AcDbBlockTableRecord
  2
*D20
  0
BLOCK_RECORD
  5
536
100
AcDbSymbolTableRecord
100
AcDbBlockTableRecord
  2
*D21
  0
BLOCK_RECORD
  5
537
100
AcDbSymbolTableRecord
100
AcDbBlockTableRecord
  2
*D22
  0
BLOCK_RECORD
  5
538
100
AcDbSymbolTableRecord
100
AcDbBlockTableRecord
  2
*D23
  0
BLOCK_RECORD
  5
539
100
AcDbSymbolTableRecord
100
AcDbBlockTableRecord
  2
D24
  0
BLOCK_RECORD
  5
53A
100
AcDbSymbolTableRecord
100
AcDbBlockTableRecord
  2
M1
  0
BLOCK_RECORD
  5
53B
100
AcDbSymbolTableRecord
100
AcDbBlockTableRecord
  2
M2
  0
ENDTAB
  0
ENDSEC
  0
SECTION
  2
BLOCKS
  0
BLOCK
  5
53C
100
AcDbEntity
  8
0
100
AcDbBlockBegin
  2
*MODEL_SPACE
 70
     0
 10
0.0
 20
0.0
 30
0.0
  3
*MODEL_SPACE
  1

  0
ENDBLK
  5
53D
100
AcDbEntity
  8
0
100
AcDbBlockEnd
  0
BLOCK
  5
53E
100
AcDbEntity
  8
0
100
AcDbBlockBegin
  2
*PAPER_SPACE
 70
     0
 10
0.0
 20
0.0
 30
0.0
  3
*PAPER_SPACE
  1

  0
ENDBLK
  5
53F
100
AcDbEntity
  8
0
100
AcDbBlockEnd
  0
BLOCK
  5
2
100
AcDbEntity
  8
0
100
AcDbBlockBegin
  2
_NONE
 70
     0
 10
0.0
 20
0.0
 30
0.0
  3
_NONE
  1

  0
ENDBLK
  5
3
100
AcDbEntity
  8
0
100
AcDbBlockEnd
  0
BLOCK
  5
5
100
AcDbEntity
  8
0
100
AcDbBlockBegin
  2
_CLOSED
 70
     0
 10
0.0
 20
0.0
 30
0.0
  3
_CLOSED
  1

  0
LINE
  5
6
100
AcDbEntity
  8
0
  6
BYBLOCK
 62
     0
100
AcDbLine
 10
-1.0
 20
0.166667
 30
0.0
 11
0.0
 21
0.0
 31
0.0
  0
LINE
  5
7
100
AcDbEntity
  8
0
  6
BYBLOCK
 62
     0
100
AcDbLine
 10
0.0
 20
0.0
 30
0.0
 11
-1.0
 21
-0.166667
 31
0.0
  0
LINE
  5
8
100
AcDbEntity
  8
0
  6
BYBLOCK
 62
     0
100
AcDbLine
 10
-1.0
 20
0.166667
 30
0.0
 11
-1.0
 21
-0.166667
 31
0.0
  0
LINE
  5
9
100
AcDbEntity
  8
0
  6
BYBLOCK
 62
     0
100
AcDbLine
 10
0.0
 20
0.0
 30
0.0
 11
-1.0
 21
0.0
 31
0.0
  0
ENDBLK
  5
A
100
AcDbEntity
  8
0
100
AcDbBlockEnd
  0
BLOCK
  5
C
100
AcDbEntity
  8
0
100
AcDbBlockBegin
  2
_DOT
 70
     0
 10
0.0
 20
0.0
 30
0.0
  3
_DOT
  1

  0
POLYLINE
  5
D
100
AcDbEntity
  8
0
  6
BYBLOCK
 62
     0
100
AcDb2dPolyline
 66
     1
 10
0.0
 20
0.0
 30
0.0
 70
     1
 40
0.5
 41
0.5
  0
VERTEX
  5
E
100
AcDbEntity
  8
0
  6
BYBLOCK
 62
     0
100
AcDbVertex
100
AcDb2dVertex
 10
-0.25
 20
0.0
 30
0.0
 42
1.0
  0
VERTEX
  5
F
100
AcDbEntity
  8
0
  6
BYBLOCK
 62
     0
100
AcDbVertex
100
AcDb2dVertex
 10
0.25
 20
0.0
 30
0.0
 42
1.0
  0
SEQEND
  5
10
100
AcDbEntity
  8
0
  6
BYBLOCK
 62
     0
  0
LINE
  5
11
100
AcDbEntity
  8
0
  6
BYBLOCK
 62
     0
100
AcDbLine
 10
-0.5
 20
0.0
 30
0.0
 11
-1.0
 21
0.0
 31
0.0
  0
ENDBLK
  5
12
100
AcDbEntity
  8
0
100
AcDbBlockEnd
  0
BLOCK
  5
14
100
AcDbEntity
  8
0
100
AcDbBlockBegin
  2
_OPEN
 70
     0
 10
0.0
 20
0.0
 30
0.0
  3
_OPEN
  1

  0
LINE
  5
15
100
AcDbEntity
  8
0
  6
BYBLOCK
 62
     0
100
AcDbLine
 10
-1.0
 20
0.166667
 30
0.0
 11
0.0
 21
0.0
 31
0.0
  0
LINE
  5
16
100
AcDbEntity
  8
0
  6
BYBLOCK
 62
     0
100
AcDbLine
 10
0.0
 20
0.0
 30
0.0
 11
-1.0
 21
-0.166667
 31
0.0
  0
LINE
  5
17
100
AcDbEntity
  8
0
  6
BYBLOCK
 62
     0
100
AcDbLine
 10
0.0
 20
0.0
 30
0.0
 11
-1.0
 21
0.0
 31
0.0
  0
ENDBLK
  5
18
100
AcDbEntity
  8
0
100
AcDbBlockEnd
  0
BLOCK
  5
1A
100
AcDbEntity
  8
0
100
AcDbBlockBegin
  2
_ORIGIN
 70
     0
 10
0.0
 20
0.0
 30
0.0
  3
_ORIGIN
  1

  0
CIRCLE
  5
1B
100
AcDbEntity
  8
0
  6
BYBLOCK
 62
     0
100
AcDbCircle
 10
0.0
 20
0.0
 30
0.0
 40
0.5
  0
LINE
  5
1C
100
AcDbEntity
  8
0
  6
BYBLOCK
 62
     0
100
AcDbLine
 10
0.0
 20
0.0
 30
0.0
 11
-1.0
 21
0.0
 31
0.0
  0
ENDBLK
  5
1D
100
AcDbEntity
  8
0
100
AcDbBlockEnd
  0
BLOCK
  5
1F
100
AcDbEntity
  8
0
100
AcDbBlockBegin
  2
_OPEN30
 70
     0
 10
0.0
 20
0.0
 30
0.0
  3
_OPEN30
  1

  0
LINE
  5
20
100
AcDbEntity
  8
0
  6
BYBLOCK
 62
     0
100
AcDbLine
 10
-1.0
 20
0.267949
 30
0.0
 11
0.0
 21
0.0
 31
0.0
  0
LINE
  5
21
100
AcDbEntity
  8
0
  6
BYBLOCK
 62
     0
100
AcDbLine
 10
0.0
 20
0.0
 30
0.0
 11
-1.0
 21
-0.267949
 31
0.0
  0
LINE
  5
22
100
AcDbEntity
  8
0
  6
BYBLOCK
 62
     0
100
AcDbLine
 10
0.0
 20
0.0
 30
0.0
 11
-1.0
 21
0.0
 31
0.0
  0
ENDBLK
  5
23
100
AcDbEntity
  8
0
100
AcDbBlockEnd
  0
BLOCK
  5
25
100
AcDbEntity
  8
0
100
AcDbBlockBegin
  2
_BOXFILLED
 70
     0
 10
0.0
 20
0.0
 30
0.0
  3
_BOXFILLED
  1

  0
SOLID
  5
26
100
AcDbEntity
  8
0
  6
BYBLOCK
 62
     0
100
AcDbTrace
 10
-0.5
 20
0.5
 30
0.0
 11
0.5
 21
0.5
 31
0.0
 12
-0.5
 22
-0.5
 32
0.0
 13
0.5
 23
-0.5
 33
0.0
  0
LINE
  5
27
100
AcDbEntity
  8
0
  6
BYBLOCK
 62
     0
100
AcDbLine
 10
-0.5
 20
0.0
 30
0.0
 11
-1.0
 21
0.0
 31
0.0
  0
ENDBLK
  5
28
100
AcDbEntity
  8
0
100
AcDbBlockEnd
  0
BLOCK
  5
2A
100
AcDbEntity
  8
0
100
AcDbBlockBegin
  2
_BOXBLANK
 70
     0
 10
0.0
 20
0.0
 30
0.0
  3
_BOXBLANK
  1

  0
LINE
  5
2B
100
AcDbEntity
  8
0
  6
BYBLOCK
 62
     0
100
AcDbLine
 10
-0.5
 20
-0.5
 30
0.0
 11
0.5
 21
-0.5
 31
0.0
  0
LINE
  5
2C
100
AcDbEntity
  8
0
  6
BYBLOCK
 62
     0
100
AcDbLine
 10
0.5
 20
-0.5
 30
0.0
 11
0.5
 21
0.5
 31
0.0
  0
LINE
  5
2D
100
AcDbEntity
  8
0
  6
BYBLOCK
 62
     0
100
AcDbLine
 10
0.5
 20
0.5
 30
0.0
 11
-0.5
 21
0.5
 31
0.0
  0
LINE
  5
2E
100
AcDbEntity
  8
0
  6
BYBLOCK
 62
     0
100
AcDbLine
 10
-0.5
 20
0.5
 30
0.0
 11
-0.5
 21
-0.5
 31
0.0
  0
LINE
  5
2F
100
AcDbEntity
  8
0
  6
BYBLOCK
 62
     0
100
AcDbLine
 10
-0.5
 20
0.0
 30
0.0
 11
-1.0
 21
0.0
 31
0.0
  0
ENDBLK
  5
30
100
AcDbEntity
  8
0
100
AcDbBlockEnd
  0
BLOCK
  5
32
100
AcDbEntity
  8
0
100
AcDbBlockBegin
  2
_OBLIQUE
 70
     0
 10
0.0
 20
0.0
 30
0.0
  3
_OBLIQUE
  1

  0
LINE
  5
33
100
AcDbEntity
  8
0
  6
BYBLOCK
 62
     0
100
AcDbLine
 10
-0.5
 20
-0.5
 30
0.0
 11
0.5
 21
0.5
 31
0.0
  0
ENDBLK
  5
34
100
AcDbEntity
  8
0
100
AcDbBlockEnd
  0
BLOCK
  5
36
100
AcDbEntity
  8
0
100
AcDbBlockBegin
  2
_OPEN90
 70
     0
 10
0.0
 20
0.0
 30
0.0
  3
_OPEN90
  1

  0
LINE
  5
37
100
AcDbEntity
  8
0
  6
BYBLOCK
 62
     0
100
AcDbLine
 10
-0.5
 20
0.5
 30
0.0
 11
0.0
 21
0.0
 31
0.0
  0
LINE
  5
38
100
AcDbEntity
  8
0
  6
BYBLOCK
 62
     0
100
AcDbLine
 10
0.0
 20
0.0
 30
0.0
 11
-0.5
 21
-0.5
 31
0.0
  0
LINE
  5
39
100
AcDbEntity
  8
0
  6
BYBLOCK
 62
     0
100
AcDbLine
 10
0.0
 20
0.0
 30
0.0
 11
-1.0
 21
0.0
 31
0.0
  0
ENDBLK
  5
3A
100
AcDbEntity
  8
0
100
AcDbBlockEnd
  0
BLOCK
  5
3C
100
AcDbEntity
  8
0
100
AcDbBlockBegin
  2
_CLOSEDBLANK
 70
     0
 10
0.0
 20
0.0
 30
0.0
  3
_CLOSEDBLANK
  1

  0
LINE
  5
3D
100
AcDbEntity
  8
0
  6
BYBLOCK
 62
     0
100
AcDbLine
 10
-1.0
 20
0.1666666666666666
 30
0.0
 11
0.0
 21
0.0
 31
0.0
  0
LINE
  5
3E
100
AcDbEntity
  8
0
  6
BYBLOCK
 62
     0
100
AcDbLine
 10
0.0
 20
0.0
 30
0.0
 11
-1.0
 21
-0.1666666666666666
 31
0.0
  0
LINE
  5
3F
100
AcDbEntity
  8
0
  6
BYBLOCK
 62
     0
100
AcDbLine
 10
-1.0
 20
0.1666666666666666
 30
0.0
 11
-1.0
 21
-0.1666666666666666
 31
0.0
  0
ENDBLK
  5
40
100
AcDbEntity
  8
0
100
AcDbBlockEnd
  0
BLOCK
  5
42
100
AcDbEntity
  8
0
100
AcDbBlockBegin
  2
_DOTBLANK
 70
     0
 10
0.0
 20
0.0
 30
0.0
  3
_DOTBLANK
  1

  0
CIRCLE
  5
43
100
AcDbEntity
  8
0
  6
BYBLOCK
 62
     0
100
AcDbCircle
 10
0.0
 20
0.0
 30
0.0
 40
0.5
  0
LINE
  5
44
100
AcDbEntity
  8
0
  6
BYBLOCK
 62
     0
100
AcDbLine
 10
-0.5
 20
0.0
 30
0.0
 11
-1.0
 21
0.0
 31
0.0
  0
ENDBLK
  5
45
100
AcDbEntity
  8
0
100
AcDbBlockEnd
  0
BLOCK
  5
48
100
AcDbEntity
  8
MAIN4
  6
CONTINUOUS
 62
3
100
AcDbBlockBegin
  2
*D0
 70
    65
 10
0.0
 20
0.0
 30
0.0
  0
LINE
  5
49
100
AcDbEntity
  8
MAIN4
  6
BYBLOCK
 62
0
100
AcDbLine
 10
139.5849966243404
 20
192.2236260712505
 30
0.0000000000000000
 11
181.6849966064591
 21
192.2236260712505
 31
0.0000000000000000
  0
LINE
  5
4A
100
AcDbEntity
  8
MAIN4
  6
BYBLOCK
 62
0
100
AcDbLine
 10
178.6849966064591
 20
189.2236260712505
 30
0.0000000000000000
 11
178.6849966064591
 21
160.2236260712505
 31
0.0000000000000000
  0
INSERT
  5
4B
100
AcDbEntity
  8
MAIN4
  6
BYBLOCK
 62
0
100
AcDbBlockReference
  2
_OPEN
 10
178.6849966064591
 20
192.2236260712505
 30
0.0000000000000000
 41
3.000000000000000
 42
3.000000000000000
 43
3.000000000000000
 50
90.00000000000000
  0
INSERT
  5
4C
100
AcDbEntity
  8
MAIN4
  6
BYBLOCK
 62
0
100
AcDbBlockReference
  2
_OPEN
 10
178.6849966064591
 20
157.2236260712505
 30
0.0000000000000000
 41
3.000000000000000
 42
3.000000000000000
 43
3.000000000000000
 50
270.0000000000000
  0
LINE
  5
4D
100
AcDbEntity
  8
MAIN4
  6
BYBLOCK
 62
0
100
AcDbLine
 10
139.5849966243403
 20
157.2236260712505
 30
0.0000000000000000
 11
181.6849966064591
 21
157.2236260712505
 31
0.0000000000000000
  0
MTEXT
  5
4E
100
AcDbEntity
  8
MAIN4
  6
BYBLOCK
 62
0
100
AcDbMText
 10
175.8599966779847
 20
174.7236260712505
 30
0.0000000000000000
 40
4.649999856948853
 41
0.0000000000000000
 71
     5
 72
     1
  1
\A1;35
 11
6.123233995736766e-017
 21
1.000000000000000
 31
0.0000000000000000
  7
STANDARD
  0
ENDBLK
  5
4F
100
AcDbEntity
  8
MAIN4
  6
CONTINUOUS
 62
3
100
AcDbBlockEnd
  0
BLOCK
  5
51
100
AcDbEntity
  8
MAIN4
  6
CONTINUOUS
 62
3
100
AcDbBlockBegin
  2
*D1
 70
    65
 10
0.0
 20
0.0
 30
0.0
  0
LINE
  5
52
100
AcDbEntity
  8
MAIN4
  6
BYBLOCK
 62
0
100
AcDbLine
 10
143.8849966243404
 20
167.7236260712506
 30
0.0000000000000000
 11
165.6849966064590
 21
167.7236260712506
 31
0.0000000000000000
  0
LINE
  5
53
100
AcDbEntity
  8
MAIN4
  6
BYBLOCK
 62
0
100
AcDbLine
 10
162.6849966064591
 20
167.7236260712505
 30
0.0000000000000000
 11
162.6849966064591
 21
181.7236260712505
 31
0.0000000000000000
  0
INSERT
  5
54
100
AcDbEntity
  8
MAIN4
  6
BYBLOCK
 62
0
100
AcDbBlockReference
  2
_OPEN
 10
162.6849966064591
 20
167.7236260712505
 30
0.0000000000000000
 41
3.000000000000000
 42
3.000000000000000
 43
3.000000000000000
 50
90.00000000000000
  0
INSERT
  5
55
100
AcDbEntity
  8
MAIN4
  6
BYBLOCK
 62
0
100
AcDbBlockReference
  2
_OPEN
 10
162.6849966064591
 20
181.7236260712505
 30
0.0000000000000000
 41
3.000000000000000
 42
3.000000000000000
 43
3.000000000000000
 50
270.0000000000000
  0
LINE
  5
56
100
AcDbEntity
  8
MAIN4
  6
BYBLOCK
 62
0
100
AcDbLine
 10
162.6849966064591
 20
164.7236260712505
 30
0.0000000000000000
 11
162.6849966064591
 21
163.2236260712505
 31
0.0000000000000000
  0
LINE
  5
57
100
AcDbEntity
  8
MAIN4
  6
BYBLOCK
 62
0
100
AcDbLine
 10
162.6849966064591
 20
184.7236260712505
 30
0.0000000000000000
 11
162.6849966064591
 21
186.2236260712505
 31
0.0000000000000000
  0
LINE
  5
58
100
AcDbEntity
  8
MAIN4
  6
BYBLOCK
 62
0
100
AcDbLine
 10
143.8849966243405
 20
181.7236260712505
 30
0.0000000000000000
 11
165.6849966064590
 21
181.7236260712505
 31
0.0000000000000000
  0
MTEXT
  5
59
100
AcDbEntity
  8
MAIN4
  6
BYBLOCK
 62
0
100
AcDbMText
 10
159.6099966779847
 20
175.3805120748838
 30
0.0000000000000000
 40
4.649999856948853
 41
0.0000000000000000
 71
     5
 72
     1
  1
\A1;14H8/h8
 11
6.123233995736766e-017
 21
1.000000000000000
 31
0.0000000000000000
  7
STANDARD
  0
ENDBLK
  5
5A
100
AcDbEntity
  8
MAIN4
  6
CONTINUOUS
 62
3
100
AcDbBlockEnd
  0
BLOCK
  5
C6
100
AcDbEntity
  8
MAIN4
  6
CONTINUOUS
 62
3
100
AcDbBlockBegin
  2
*D2
 70
    65
 10
0.0
 20
0.0
 30
0.0
  0
LINE
  5
C7
100
AcDbEntity
  8
MAIN4
  6
BYBLOCK
 62
0
100
AcDbLine
 10
197.8467283281511
 20
351.4494703775712
 30
0.0000000000000000
 11
170.3999391952661
 21
351.4494703775712
 31
0.0000000000000000
  0
LINE
  5
C8
100
AcDbEntity
  8
MAIN4
  6
BYBLOCK
 62
0
100
AcDbLine
 10
173.3999391952661
 20
354.4494703775712
 30
0.0000000000000000
 11
173.3999391952661
 21
458.4494703775712
 31
0.0000000000000000
  0
INSERT
  5
C9
100
AcDbEntity
  8
MAIN4
  6
BYBLOCK
 62
0
100
AcDbBlockReference
  2
_OPEN
 10
173.3999391952661
 20
351.4494703775712
 30
0.0000000000000000
 41
3.000000000000000
 42
3.000000000000000
 43
3.000000000000000
 50
270.0000000000000
  0
INSERT
  5
CA
100
AcDbEntity
  8
MAIN4
  6
BYBLOCK
 62
0
100
AcDbBlockReference
  2
_OPEN
 10
173.3999391952661
 20
461.4494703775712
 30
0.0000000000000000
 41
3.000000000000000
 42
3.000000000000000
 43
3.000000000000000
 50
90.00000000000000
  0
LINE
  5
CB
100
AcDbEntity
  8
MAIN4
  6
BYBLOCK
 62
0
100
AcDbLine
 10
197.8467283281511
 20
461.4494703775712
 30
0.0000000000000000
 11
170.3999391952661
 21
461.4494703775712
 31
0.0000000000000000
  0
MTEXT
  5
CC
100
AcDbEntity
  8
MAIN4
  6
BYBLOCK
 62
0
100
AcDbMText
 10
170.5749392667917
 20
406.4494703589447
 30
0.0000000000000000
 40
4.649999856948853
 41
0.0000000000000000
 71
     5
 72
     1
  1
\A1;\U+2205110H7\H0.903226x;\S＋0.035^ 　0;
 11
6.123233995736766e-017
 21
1.000000000000000
 31
0.0000000000000000
  7
KNJYOKO
  0
ENDBLK
  5
CD
100
AcDbEntity
  8
MAIN4
  6
CONTINUOUS
 62
3
100
AcDbBlockEnd
  0
BLOCK
  5
D0
100
AcDbEntity
  8
MAIN4
  6
CONTINUOUS
 62
3
100
AcDbBlockBegin
  2
*D3
 70
    65
 10
0.0
 20
0.0
 30
0.0
  0
LINE
  5
D1
100
AcDbEntity
  8
MAIN4
  6
BYBLOCK
 62
0
100
AcDbLine
 10
252.5467283460334
 20
394.4494703775712
 30
0.0000000000000000
 11
252.5467283460334
 21
418.4494703775712
 31
0.0000000000000000
  0
INSERT
  5
D2
100
AcDbEntity
  8
MAIN4
  6
BYBLOCK
 62
0
100
AcDbBlockReference
  2
_OPEN
 10
252.5467283460334
 20
391.4494703775712
 30
0.0000000000000000
 41
3.000000000000000
 42
3.000000000000000
 43
3.000000000000000
 50
270.0000000000000
  0
INSERT
  5
D3
100
AcDbEntity
  8
MAIN4
  6
BYBLOCK
 62
0
100
AcDbBlockReference
  2
_OPEN
 10
252.5467283460334
 20
421.4494703775712
 30
0.0000000000000000
 41
3.000000000000000
 42
3.000000000000000
 43
3.000000000000000
 50
90.00000000000000
  0
MTEXT
  5
D4
100
AcDbEntity
  8
MAIN4
  6
BYBLOCK
 62
0
100
AcDbMText
 10
249.7217284175590
 20
406.4494703775712
 30
0.0000000000000000
 40
4.649999856948853
 41
0.0000000000000000
 71
     5
 72
     1
  1
\A1;\U+220530
 11
6.123233995736766e-017
 21
1.000000000000000
 31
0.0000000000000000
  7
STANDARD
  0
ENDBLK
  5
D5
100
AcDbEntity
  8
MAIN4
  6
CONTINUOUS
 62
3
100
AcDbBlockEnd
  0
BLOCK
  5
FE
100
AcDbEntity
  8
MAIN0
  6
CONTINUOUS
 62
3
100
AcDbBlockBegin
  2
*D4
 70
    65
 10
0.0
 20
0.0
 30
0.0
  0
LINE
  5
FF
100
AcDbEntity
  8
MAIN0
  6
BYBLOCK
 62
0
100
AcDbLine
 10
199.0467283460325
 20
489.4916253916411
 30
0.0000000000000000
 11
207.0467283460325
 21
489.4916253916411
 31
0.0000000000000000
  0
INSERT
  5
100
100
AcDbEntity
  8
MAIN0
  6
BYBLOCK
 62
0
100
AcDbBlockReference
  2
_OPEN
 10
199.0467283460325
 20
489.4916253916411
 30
0.0000000000000000
 41
3.000000000000000
 42
3.000000000000000
 43
3.000000000000000
 50
0.0000000000000000
  0
INSERT
  5
101
100
AcDbEntity
  8
MAIN0
  6
BYBLOCK
 62
0
100
AcDbBlockReference
  2
_OPEN
 10
207.0467283460325
 20
489.4916253916411
 30
0.0000000000000000
 41
3.000000000000000
 42
3.000000000000000
 43
3.000000000000000
 50
180.0000000000000
  0
LINE
  5
102
100
AcDbEntity
  8
MAIN0
  6
BYBLOCK
 62
0
100
AcDbLine
 10
196.0467283460325
 20
489.4916253916411
 30
0.0000000000000000
 11
194.5467283460325
 21
489.4916253916411
 31
0.0000000000000000
  0
LINE
  5
103
100
AcDbEntity
  8
MAIN0
  6
BYBLOCK
 62
0
100
AcDbLine
 10
210.0467283460325
 20
489.4916253916411
 30
0.0000000000000000
 11
211.5467283460325
 21
489.4916253916411
 31
0.0000000000000000
  0
LINE
  5
104
100
AcDbEntity
  8
MAIN0
  6
BYBLOCK
 62
0
100
AcDbLine
 10
207.0467283460325
 20
462.6494703954525
 30
0.0000000000000000
 11
207.0467283460325
 21
492.4916253916411
 31
0.0000000000000000
  0
MTEXT
  5
105
100
AcDbEntity
  8
MAIN0
  6
BYBLOCK
 62
0
100
AcDbMText
 10
203.1912168058976
 20
492.5666253201155
 30
0.0000000000000000
 40
4.649999856948853
 41
0.0000000000000000
 71
     5
 72
     1
  1
\A1;8
 11
1.000000000000000
 21
0.0000000000000000
 31
0.0000000000000000
  7
STANDARD
  0
ENDBLK
  5
106
100
AcDbEntity
  8
MAIN0
  6
CONTINUOUS
 62
3
100
AcDbBlockEnd
  0
BLOCK
  5
110
100
AcDbEntity
  8
MAIN0
  6
CONTINUOUS
 62
3
100
AcDbBlockBegin
  2
*D5
 70
    65
 10
0.0
 20
0.0
 30
0.0
  0
LINE
  5
111
100
AcDbEntity
  8
MAIN0
  6
BYBLOCK
 62
0
100
AcDbLine
 10
254.6467283281509
 20
546.4494703775708
 30
0.0000000000000000
 11
110.3999391952661
 21
546.4494703775708
 31
0.0000000000000000
  0
LINE
  5
112
100
AcDbEntity
  8
MAIN0
  6
BYBLOCK
 62
0
100
AcDbLine
 10
113.3999391952661
 20
543.4494703775708
 30
0.0000000000000000
 11
113.3999391952661
 21
269.4494703775713
 31
0.0000000000000000
  0
INSERT
  5
113
100
AcDbEntity
  8
MAIN0
  6
BYBLOCK
 62
0
100
AcDbBlockReference
  2
_OPEN
 10
113.3999391952661
 20
546.4494703775708
 30
0.0000000000000000
 41
3.000000000000000
 42
3.000000000000000
 43
3.000000000000000
 50
90.00000000000000
  0
INSERT
  5
114
100
AcDbEntity
  8
MAIN0
  6
BYBLOCK
 62
0
100
AcDbBlockReference
  2
_OPEN
 10
113.3999391952661
 20
266.4494703775713
 30
0.0000000000000000
 41
3.000000000000000
 42
3.000000000000000
 43
3.000000000000000
 50
270.0000000000000
  0
LINE
  5
115
100
AcDbEntity
  8
MAIN0
  6
BYBLOCK
 62
0
100
AcDbLine
 10
254.6467283281509
 20
266.4494703775713
 30
0.0000000000000000
 11
110.3999391952661
 21
266.4494703775713
 31
0.0000000000000000
  0
MTEXT
  5
116
100
AcDbEntity
  8
MAIN0
  6
BYBLOCK
 62
0
100
AcDbMText
 10
110.5749392667917
 20
406.4494703775711
 30
0.0000000000000000
 40
4.649999856948853
 41
0.0000000000000000
 71
     5
 72
     1
  1
\A1;\U+2205280
 11
6.123233995736766e-017
 21
1.000000000000000
 31
0.0000000000000000
  7
STANDARD
  0
ENDBLK
  5
117
100
AcDbEntity
  8
MAIN0
  6
CONTINUOUS
 62
3
100
AcDbBlockEnd
  0
BLOCK
  5
139
100
AcDbEntity
  8
MAIN0
  6
CONTINUOUS
 62
3
100
AcDbBlockBegin
  2
*D6
 70
    65
 10
0.0
 20
0.0
 30
0.0
  0
LINE
  5
13A
100
AcDbEntity
  8
MAIN0
  6
BYBLOCK
 62
0
100
AcDbLine
 10
134.6849966064590
 20
148.3615013084858
 30
0.0000000000000000
 11
134.6849966064590
 21
126.2236260712507
 31
0.0000000000000000
  0
LINE
  5
13B
100
AcDbEntity
  8
MAIN0
  6
BYBLOCK
 62
0
100
AcDbLine
 10
134.6849966064590
 20
129.2236260712507
 30
0.0000000000000000
 11
138.6849966064590
 21
129.2236260712507
 31
0.0000000000000000
  0
INSERT
  5
13C
100
AcDbEntity
  8
MAIN0
  6
BYBLOCK
 62
0
100
AcDbBlockReference
  2
_OPEN
 10
134.6849966064590
 20
129.2236260712507
 30
0.0000000000000000
 41
3.000000000000000
 42
3.000000000000000
 43
3.000000000000000
 50
0.0000000000000000
  0
INSERT
  5
13D
100
AcDbEntity
  8
MAIN0
  6
BYBLOCK
 62
0
100
AcDbBlockReference
  2
_DOT
 10
139.6849966064590
 20
129.2236260712507
 30
0.0000000000000000
 41
1.500000000000000
 42
1.500000000000000
 43
1.500000000000000
 50
0.0000000000000000
  0
LINE
  5
13E
100
AcDbEntity
  8
MAIN0
  6
BYBLOCK
 62
0
100
AcDbLine
 10
131.6849966064590
 20
129.2236260712507
 30
0.0000000000000000
 11
126.8224119726522
 21
129.2236260712507
 31
0.0000000000000000
  0
LINE
  5
13F
100
AcDbEntity
  8
MAIN0
  6
BYBLOCK
 62
0
100
AcDbLine
 10
139.6849966064590
 20
156.7741814033145
 30
0.0000000000000000
 11
139.6849966064590
 21
126.2236260712507
 31
0.0000000000000000
  0
MTEXT
  5
140
100
AcDbEntity
  8
MAIN0
  6
BYBLOCK
 62
0
100
AcDbMText
 10
128.3224119726522
 20
132.2986259997251
 30
0.0000000000000000
 40
4.649999856948853
 41
0.0000000000000000
 71
     5
 72
     1
  1
\A1;5
 11
1.000000000000000
 21
0.0000000000000000
 31
0.0000000000000000
  7
STANDARD
  0
ENDBLK
  5
141
100
AcDbEntity
  8
MAIN0
  6
CONTINUOUS
 62
3
100
AcDbBlockEnd
  0
BLOCK
  5
143
100
AcDbEntity
  8
MAIN0
  6
CONTINUOUS
 62
3
100
AcDbBlockBegin
  2
*D7
 70
    65
 10
0.0
 20
0.0
 30
0.0
  0
LINE
  5
144
100
AcDbEntity
  8
MAIN0
  6
BYBLOCK
 62
0
100
AcDbLine
 10
139.6849966064590
 20
156.7741814033145
 30
0.0000000000000000
 11
139.6849966064590
 21
126.2236260712507
 31
0.0000000000000000
  0
LINE
  5
145
100
AcDbEntity
  8
MAIN0
  6
BYBLOCK
 62
0
100
AcDbLine
 10
140.6849966064590
 20
129.2236260712507
 30
0.0000000000000000
 11
142.6849966064590
 21
129.2236260712507
 31
0.0000000000000000
  0
INSERT
  5
146
100
AcDbEntity
  8
MAIN0
  6
BYBLOCK
 62
0
100
AcDbBlockReference
  2
_DOT
 10
139.6849966064590
 20
129.2236260712507
 30
0.0000000000000000
 41
1.500000000000000
 42
1.500000000000000
 43
1.500000000000000
 50
180.0000000000000
  0
INSERT
  5
147
100
AcDbEntity
  8
MAIN0
  6
BYBLOCK
 62
0
100
AcDbBlockReference
  2
_OPEN
 10
142.6849966064590
 20
129.2236260712507
 30
0.0000000000000000
 41
3.000000000000000
 42
3.000000000000000
 43
3.000000000000000
 50
180.0000000000000
  0
LINE
  5
148
100
AcDbEntity
  8
MAIN0
  6
BYBLOCK
 62
0
100
AcDbLine
 10
145.6849966064590
 20
129.2236260712507
 30
0.0000000000000000
 11
151.3308471841702
 21
129.2236260712507
 31
0.0000000000000000
  0
LINE
  5
149
100
AcDbEntity
  8
MAIN0
  6
BYBLOCK
 62
0
100
AcDbLine
 10
142.6849966064590
 20
166.5236260533691
 30
0.0000000000000000
 11
142.6849966064590
 21
126.2236260712507
 31
0.0000000000000000
  0
MTEXT
  5
14A
100
AcDbEntity
  8
MAIN0
  6
BYBLOCK
 62
0
100
AcDbMText
 10
149.8308471841702
 20
132.2986259997251
 30
0.0000000000000000
 40
4.649999856948853
 41
0.0000000000000000
 71
     5
 72
     1
  1
\A1;3
 11
1.000000000000000
 21
0.0000000000000000
 31
0.0000000000000000
  7
STANDARD
  0
ENDBLK
  5
14B
100
AcDbEntity
  8
MAIN0
  6
CONTINUOUS
 62
3
100
AcDbBlockEnd
  0
BLOCK
  5
14F
100
AcDbEntity
  8
MAIN0
  6
CONTINUOUS
 62
3
100
AcDbBlockBegin
  2
*D8
 70
    65
 10
0.0
 20
0.0
 30
0.0
  0
LINE
  5
150
100
AcDbEntity
  8
MAIN0
  6
BYBLOCK
 62
0
100
AcDbLine
 10
182.0467283460497
 20
301.2494703596898
 30
0.0000000000000000
 11
182.0467283460497
 21
280.4494703775712
 31
0.0000000000000000
  0
LINE
  5
151
100
AcDbEntity
  8
MAIN0
  6
BYBLOCK
 62
0
100
AcDbLine
 10
185.0467283460497
 20
283.4494703775712
 30
0.0000000000000000
 11
196.0467283460325
 21
283.4494703775712
 31
0.0000000000000000
  0
INSERT
  5
152
100
AcDbEntity
  8
MAIN0
  6
BYBLOCK
 62
0
100
AcDbBlockReference
  2
_OPEN
 10
182.0467283460497
 20
283.4494703775712
 30
0.0000000000000000
 41
3.000000000000000
 42
3.000000000000000
 43
3.000000000000000
 50
180.0000000000000
  0
INSERT
  5
153
100
AcDbEntity
  8
MAIN0
  6
BYBLOCK
 62
0
100
AcDbBlockReference
  2
_OPEN
 10
199.0467283460325
 20
283.4494703775712
 30
0.0000000000000000
 41
3.000000000000000
 42
3.000000000000000
 43
3.000000000000000
 50
0.0000000000000000
  0
LINE
  5
154
100
AcDbEntity
  8
MAIN0
  6
BYBLOCK
 62
0
100
AcDbLine
 10
199.0467283460325
 20
291.2405428654016
 30
0.0000000000000000
 11
199.0467283460325
 21
280.4494703775712
 31
0.0000000000000000
  0
MTEXT
  5
155
100
AcDbEntity
  8
MAIN0
  6
BYBLOCK
 62
0
100
AcDbMText
 10
190.5467283460411
 20
286.2744703060456
 30
0.0000000000000000
 40
4.649999856948853
 41
0.0000000000000000
 71
     5
 72
     1
  1
\A1;17
 11
1.000000000000000
 21
0.0000000000000000
 31
0.0000000000000000
  7
STANDARD
  0
ENDBLK
  5
156
100
AcDbEntity
  8
MAIN0
  6
CONTINUOUS
 62
3
100
AcDbBlockEnd
  0
BLOCK
  5
175
100
AcDbEntity
  8
MAIN0
  6
BYBLOCK
 62
2
100
AcDbBlockBegin
  2
M0
 70
    64
 10
0.0
 20
0.0
 30
0.0
  0
LINE
  5
176
100
AcDbEntity
  8
MAIN0
  6
BYBLOCK
 62
0
100
AcDbLine
 10
298.5467283460324
 20
527.7684703775711
 30
0.0000000000000000
 11
307.5467283460324
 21
527.7684703775711
 31
0.0000000000000000
  0
LINE
  5
177
100
AcDbEntity
  8
MAIN0
  6
BYBLOCK
 62
0
100
AcDbLine
 10
303.0467283460325
 20
527.7684703775711
 30
0.0000000000000000
 11
303.0467283460325
 21
545.7684703775710
 31
0.0000000000000000
  0
LINE
  5
178
100
AcDbEntity
  8
MAIN0
  6
BYBLOCK
 62
0
100
AcDbLine
 10
303.0467283460326
 20
527.7684703775709
 30
0.0000000000000000
 11
301.1055855077638
 21
535.0129140747389
 31
0.0000000000000000
  0
LINE
  5
179
100
AcDbEntity
  8
MAIN0
  6
BYBLOCK
 62
0
100
AcDbLine
 10
303.0467283460325
 20
527.7684703775711
 30
0.0000000000000000
 11
304.9878711843014
 21
535.0129140747392
 31
0.0000000000000000
  0
ENDBLK
  5
17A
100
AcDbEntity
  8
MAIN0
  6
BYBLOCK
 62
2
100
AcDbBlockEnd
  0
BLOCK
  5
17C
100
AcDbEntity
  8
MAIN0
  6
CONTINUOUS
 62
3
100
AcDbBlockBegin
  2
D9
 70
    64
 10
0.0
 20
0.0
 30
0.0
  0
LINE
  5
17D
100
AcDbEntity
  8
MAIN0
  6
BYBLOCK
 62
0
100
AcDbLine
 10
6.642630229555664
 20
-62.95432393730823
 30
0.0000000000000000
 11
6.642630229555664
 21
-108.0000000000002
 31
0.0000000000000000
  0
LINE
  5
17E
100
AcDbEntity
  8
MAIN0
  6
BYBLOCK
 62
0
100
AcDbLine
 10
7.542630265318451
 20
-105.0000000000002
 30
0.0000000000000000
 11
6.642630229555664
 21
-108.0000000000002
 31
0.0000000000000000
  0
LINE
  5
17F
100
AcDbEntity
  8
MAIN0
  6
BYBLOCK
 62
0
100
AcDbLine
 10
6.642630229555664
 20
-108.0000000000002
 30
0.0000000000000000
 11
5.742630193792877
 21
-105.0000000000002
 31
0.0000000000000000
  0
LINE
  5
180
100
AcDbEntity
  8
MAIN0
  6
BYBLOCK
 62
0
100
AcDbLine
 10
-24.45156338401176
 20
-108.0000000000002
 30
0.0000000000000000
 11
9.642630229555664
 21
-108.0000000000002
 31
0.0000000000000000
  0
MTEXT
  5
181
100
AcDbEntity
  8
MAIN0
  6
BYBLOCK
 62
0
100
AcDbMText
 10
3.567630301081238
 20
-77.50572587351508
 30
0.0000000000000000
 40
4.649999856948853
 41
0.0000000000000000
 71
     5
 72
     1
  1
\A1;\U+2205216
 11
6.123233995736766e-017
 21
1.000000000000000
 31
0.0000000000000000
  7
STANDARD
  0
ENDBLK
  5
182
100
AcDbEntity
  8
MAIN0
  6
CONTINUOUS
 62
3
100
AcDbBlockEnd
  0
BLOCK
  5
184
100
AcDbEntity
  8
MAIN0
  6
CONTINUOUS
 62
3
100
AcDbBlockBegin
  2
D10
 70
    64
 10
0.0
 20
0.0
 30
0.0
  0
LINE
  5
185
100
AcDbEntity
  8
MAIN0
  6
BYBLOCK
 62
0
100
AcDbLine
 10
-39.31527085853315
 20
7.624999411855978
 30
0.0000000000000000
 11
-39.31527085853315
 21
-100.0000000002447
 31
0.0000000000000000
  0
LINE
  5
186
100
AcDbEntity
  8
MAIN0
  6
BYBLOCK
 62
0
100
AcDbLine
 10
-38.41527082277037
 20
-97.00000000024468
 30
0.0000000000000000
 11
-39.31527085853315
 21
-100.0000000002447
 31
0.0000000000000000
  0
LINE
  5
187
100
AcDbEntity
  8
MAIN0
  6
BYBLOCK
 62
0
100
AcDbLine
 10
-39.31527085853315
 20
-100.0000000002447
 30
0.0000000000000000
 11
-40.21527089429594
 21
-97.00000000024468
 31
0.0000000000000000
  0
LINE
  5
188
100
AcDbEntity
  8
MAIN0
  6
BYBLOCK
 62
0
100
AcDbLine
 10
-15.86848172563111
 20
-100.0000000003029
 30
0.0000000000000000
 11
-42.31527085853315
 21
-100.0000000002373
 31
0.0000000000000000
  0
MTEXT
  5
189
100
AcDbEntity
  8
MAIN0
  6
BYBLOCK
 62
0
100
AcDbMText
 10
-42.39027078700758
 20
1.587499909102913
 30
0.0000000000000000
 40
4.649999856948853
 41
0.0000000000000000
 71
     5
 72
     1
  1
\A1;\U+2205200\H0.903226x;\U+00B10.2
 11
6.123233995736766e-017
 21
1.000000000000000
 31
0.0000000000000000
  7
STANDARD
  0
ENDBLK
  5
18A
100
AcDbEntity
  8
MAIN0
  6
CONTINUOUS
 62
3
100
AcDbBlockEnd
  0
BLOCK
  5
18C
100
AcDbEntity
  8
MAIN0
  6
CONTINUOUS
 62
3
100
AcDbBlockBegin
  2
*D11
 70
    65
 10
0.0
 20
0.0
 30
0.0
  0
LINE
  5
18D
100
AcDbEntity
  8
MAIN0
  6
BYBLOCK
 62
0
100
AcDbLine
 10
619.6934040336762
 20
263.3344605317211
 30
0.0000000000000000
 11
616.2948729866076
 21
250.6509699929611
 31
0.0000000000000000
  0
LINE
  5
18E
100
AcDbEntity
  8
MAIN0
  6
BYBLOCK
 62
0
100
AcDbLine
 10
663.3999391952661
 20
257.2494703596901
 30
0.0000000000000000
 11
663.3999391952660
 21
244.4494703775715
 31
0.0000000000000000
  0
ARC
  5
18F
100
AcDbEntity
  8
MAIN0
  6
BYBLOCK
 62
0
100
AcDbCircle
 10
663.3999391952659
 20
426.4494703775698
 30
0.0000000000000000
 40
178.9999999999982
100
AcDbArc
 50
255.9602644611131
 51
269.0397355388869
  0
INSERT
  5
190
100
AcDbEntity
  8
MAIN0
  6
BYBLOCK
 62
0
100
AcDbBlockReference
  2
_OPEN
 10
617.0713301219151
 20
253.5487474718283
 30
0.0000000000000000
 41
3.000000000000000
 42
3.000000000000000
 43
3.000000000000000
 50
165.0000000000000
  0
INSERT
  5
191
100
AcDbEntity
  8
MAIN0
  6
BYBLOCK
 62
0
100
AcDbBlockReference
  2
_OPEN
 10
663.3999391952660
 20
247.4494703775716
 30
0.0000000000000000
 41
3.000000000000000
 42
3.000000000000000
 43
3.000000000000000
 50
5.684341886080802e-014
  0
MTEXT
  5
192
100
AcDbEntity
  8
MAIN0
  6
BYBLOCK
 62
0
100
AcDbMText
 10
640.4044872715627
 20
251.7816718541271
 30
0.0000000000000000
 40
4.649999856948853
 41
0.0000000000000000
 71
     5
 72
     1
  1
\A1;15\U+00B0
 11
0.9914448613738105
 21
-0.1305261922200508
 31
0.0000000000000000
  7
STANDARD
  0
ENDBLK
  5
193
100
AcDbEntity
  8
MAIN0
  6
CONTINUOUS
 62
3
100
AcDbBlockEnd
  0
BLOCK
  5
195
100
AcDbEntity
  8
MAIN0
  6
CONTINUOUS
 62
3
100
AcDbBlockBegin
  2
*D12
 70
    65
 10
0.0
 20
0.0
 30
0.0
  0
LINE
  5
196
100
AcDbEntity
  8
MAIN0
  6
BYBLOCK
 62
0
100
AcDbLine
 10
663.3999391952661
 20
257.2494703596901
 30
0.0000000000000000
 11
663.3999391952660
 21
244.4494703775715
 31
0.0000000000000000
  0
LINE
  5
197
100
AcDbEntity
  8
MAIN0
  6
BYBLOCK
 62
0
100
AcDbLine
 10
707.1064743568564
 20
263.3344605317212
 30
0.0000000000000000
 11
710.5050054039251
 21
250.6509699929613
 31
0.0000000000000000
  0
ARC
  5
198
100
AcDbEntity
  8
MAIN0
  6
BYBLOCK
 62
0
100
AcDbCircle
 10
663.3999391952659
 20
426.4494703775698
 30
0.0000000000000000
 40
178.9999999999982
100
AcDbArc
 50
270.9602644611132
 51
284.0397355388872
  0
INSERT
  5
199
100
AcDbEntity
  8
MAIN0
  6
BYBLOCK
 62
0
100
AcDbBlockReference
  2
_OPEN
 10
663.3999391952660
 20
247.4494703775716
 30
0.0000000000000000
 41
3.000000000000000
 42
3.000000000000000
 43
3.000000000000000
 50
180.0000000000000
  0
INSERT
  5
19A
100
AcDbEntity
  8
MAIN0
  6
BYBLOCK
 62
0
100
AcDbBlockReference
  2
_OPEN
 10
709.7285482686175
 20
253.5487474718285
 30
0.0000000000000000
 41
3.000000000000000
 42
3.000000000000000
 43
3.000000000000000
 50
15.00000000000028
  0
MTEXT
  5
19B
100
AcDbEntity
  8
MAIN0
  6
BYBLOCK
 62
0
100
AcDbMText
 10
686.3953911189697
 20
251.7816718541271
 30
0.0000000000000000
 40
4.649999856948853
 41
0.0000000000000000
 71
     5
 72
     1
  1
\A1;15\U+00B0
 11
0.9914448613738101
 21
0.1305261922200541
 31
0.0000000000000000
  7
STANDARD
  0
ENDBLK
  5
19C
100
AcDbEntity
  8
MAIN0
  6
CONTINUOUS
 62
3
100
AcDbBlockEnd
  0
BLOCK
  5
1DE
100
AcDbEntity
  8
MAIN0
  6
CONTINUOUS
 62
3
100
AcDbBlockBegin
  2
*D13
 70
    65
 10
0.0
 20
0.0
 30
0.0
  0
LINE
  5
1DF
100
AcDbEntity
  8
MAIN0
  6
BYBLOCK
 62
0
100
AcDbLine
 10
359.2467283639144
 20
422.1996355348026
 30
0.0000000000000000
 11
411.3999391952661
 21
422.1996355348026
 31
0.0000000000000000
  0
LINE
  5
1E0
100
AcDbEntity
  8
MAIN0
  6
BYBLOCK
 62
0
100
AcDbLine
 10
408.3999391952661
 20
425.1996355348026
 30
0.0000000000000000
 11
408.3999391952661
 21
514.1996355348026
 31
0.0000000000000000
  0
INSERT
  5
1E1
100
AcDbEntity
  8
MAIN0
  6
BYBLOCK
 62
0
100
AcDbBlockReference
  2
_OPEN
 10
408.3999391952661
 20
422.1996355348026
 30
0.0000000000000000
 41
3.000000000000000
 42
3.000000000000000
 43
3.000000000000000
 50
270.0000000000000
  0
INSERT
  5
1E2
100
AcDbEntity
  8
MAIN0
  6
BYBLOCK
 62
0
100
AcDbBlockReference
  2
_OPEN
 10
408.3999391952661
 20
517.1996355348026
 30
0.0000000000000000
 41
3.000000000000000
 42
3.000000000000000
 43
3.000000000000000
 50
90.00000000000000
  0
LINE
  5
1E3
100
AcDbEntity
  8
MAIN0
  6
BYBLOCK
 62
0
100
AcDbLine
 10
359.2467283639143
 20
517.1996355348026
 30
0.0000000000000000
 11
411.3999391952661
 21
517.1996355348026
 31
0.0000000000000000
  0
MTEXT
  5
1E4
100
AcDbEntity
  8
MAIN0
  6
BYBLOCK
 62
0
100
AcDbMText
 10
405.5749392667917
 20
469.6996355348026
 30
0.0000000000000000
 40
4.649999856948853
 41
0.0000000000000000
 71
     5
 72
     1
  1
\A1;95
 11
6.123233995736766e-017
 21
1.000000000000000
 31
0.0000000000000000
  7
STANDARD
  0
ENDBLK
  5
1E5
100
AcDbEntity
  8
MAIN0
  6
CONTINUOUS
 62
3
100
AcDbBlockEnd
  0
BLOCK
  5
1E7
100
AcDbEntity
  8
MAIN0
  6
CONTINUOUS
 62
3
100
AcDbBlockBegin
  2
*D14
 70
    65
 10
0.0
 20
0.0
 30
0.0
  0
LINE
  5
1E8
100
AcDbEntity
  8
MAIN0
  6
BYBLOCK
 62
0
100
AcDbLine
 10
363.0804010631789
 20
493.1996355348026
 30
0.0000000000000000
 11
396.3999391952661
 21
493.1996355348026
 31
0.0000000000000000
  0
LINE
  5
1E9
100
AcDbEntity
  8
MAIN0
  6
BYBLOCK
 62
0
100
AcDbLine
 10
393.3999391952661
 20
490.1996355348026
 30
0.0000000000000000
 11
393.3999391952661
 21
471.1996355348026
 31
0.0000000000000000
  0
INSERT
  5
1EA
100
AcDbEntity
  8
MAIN0
  6
BYBLOCK
 62
0
100
AcDbBlockReference
  2
_OPEN
 10
393.3999391952661
 20
493.1996355348026
 30
0.0000000000000000
 41
3.000000000000000
 42
3.000000000000000
 43
3.000000000000000
 50
90.00000000000000
  0
INSERT
  5
1EB
100
AcDbEntity
  8
MAIN0
  6
BYBLOCK
 62
0
100
AcDbBlockReference
  2
_OPEN
 10
393.3999391952661
 20
468.1996355348026
 30
0.0000000000000000
 41
3.000000000000000
 42
3.000000000000000
 43
3.000000000000000
 50
270.0000000000000
  0
LINE
  5
1EC
100
AcDbEntity
  8
MAIN0
  6
BYBLOCK
 62
0
100
AcDbLine
 10
362.6877054279541
 20
468.1996355348026
 30
0.0000000000000000
 11
396.3999391952661
 21
468.1996355348026
 31
0.0000000000000000
  0
MTEXT
  5
1ED
100
AcDbEntity
  8
MAIN0
  6
BYBLOCK
 62
0
100
AcDbMText
 10
390.5749392667917
 20
480.6996355348026
 30
0.0000000000000000
 40
4.649999856948853
 41
0.0000000000000000
 71
     5
 72
     1
  1
\A1;25
 11
6.123233995736766e-017
 21
1.000000000000000
 31
0.0000000000000000
  7
STANDARD
  0
ENDBLK
  5
1EE
100
AcDbEntity
  8
MAIN0
  6
CONTINUOUS
 62
3
100
AcDbBlockEnd
  0
BLOCK
  5
1F0
100
AcDbEntity
  8
MAIN0
  6
CONTINUOUS
 62
3
100
AcDbBlockBegin
  2
*D15
 70
    65
 10
0.0
 20
0.0
 30
0.0
  0
LINE
  5
1F1
100
AcDbEntity
  8
MAIN0
  6
BYBLOCK
 62
0
100
AcDbLine
 10
362.6877054279541
 20
468.1996355348026
 30
0.0000000000000000
 11
396.3999391952661
 21
468.1996355348026
 31
0.0000000000000000
  0
LINE
  5
1F2
100
AcDbEntity
  8
MAIN0
  6
BYBLOCK
 62
0
100
AcDbLine
 10
393.3999391952661
 20
465.1996355348026
 30
0.0000000000000000
 11
393.3999391952661
 21
425.1996355348026
 31
0.0000000000000000
  0
INSERT
  5
1F3
100
AcDbEntity
  8
MAIN0
  6
BYBLOCK
 62
0
100
AcDbBlockReference
  2
_OPEN
 10
393.3999391952661
 20
468.1996355348026
 30
0.0000000000000000
 41
3.000000000000000
 42
3.000000000000000
 43
3.000000000000000
 50
90.00000000000000
  0
INSERT
  5
1F4
100
AcDbEntity
  8
MAIN0
  6
BYBLOCK
 62
0
100
AcDbBlockReference
  2
_OPEN
 10
393.3999391952661
 20
422.1996355348026
 30
0.0000000000000000
 41
3.000000000000000
 42
3.000000000000000
 43
3.000000000000000
 50
270.0000000000000
  0
LINE
  5
1F5
100
AcDbEntity
  8
MAIN0
  6
BYBLOCK
 62
0
100
AcDbLine
 10
359.2467283639144
 20
422.1996355348026
 30
0.0000000000000000
 11
396.3999391952661
 21
422.1996355348026
 31
0.0000000000000000
  0
MTEXT
  5
1F6
100
AcDbEntity
  8
MAIN0
  6
BYBLOCK
 62
0
100
AcDbMText
 10
390.5749392667917
 20
445.1996355348026
 30
0.0000000000000000
 40
4.649999856948853
 41
0.0000000000000000
 71
     5
 72
     1
  1
\A1;46
 11
6.123233995736766e-017
 21
1.000000000000000
 31
0.0000000000000000
  7
STANDARD
  0
ENDBLK
  5
1F7
100
AcDbEntity
  8
MAIN0
  6
CONTINUOUS
 62
3
100
AcDbBlockEnd
  0
BLOCK
  5
1F9
100
AcDbEntity
  8
MAIN0
  6
CONTINUOUS
 62
1
100
AcDbBlockBegin
  2
*D16
 70
    65
 10
0.0
 20
0.0
 30
0.0
  0
LINE
  5
1FA
100
AcDbEntity
  8
MAIN0
  6
BYBLOCK
 62
0
100
AcDbLine
 10
362.6877054279542
 20
468.1996355348027
 30
0.0000000000000000
 11
381.3999391952662
 21
468.1996355348026
 31
0.0000000000000000
  0
LINE
  5
1FB
100
AcDbEntity
  8
MAIN0
  6
BYBLOCK
 62
0
100
AcDbLine
 10
378.3999391952661
 20
468.1996355348026
 30
0.0000000000000000
 11
378.3999391952661
 21
459.4496355348026
 31
0.0000000000000000
  0
INSERT
  5
1FC
100
AcDbEntity
  8
MAIN0
  6
BYBLOCK
 62
0
100
AcDbBlockReference
  2
_OPEN
 10
378.3999391952661
 20
468.1996355348026
 30
0.0000000000000000
 41
3.000000000000000
 42
3.000000000000000
 43
3.000000000000000
 50
270.0000000000000
  0
INSERT
  5
1FD
100
AcDbEntity
  8
MAIN0
  6
BYBLOCK
 62
0
100
AcDbBlockReference
  2
_OPEN
 10
378.3999391952661
 20
459.4496355348026
 30
0.0000000000000000
 41
3.000000000000000
 42
3.000000000000000
 43
3.000000000000000
 50
90.00000000000000
  0
LINE
  5
1FE
100
AcDbEntity
  8
MAIN0
  6
BYBLOCK
 62
0
100
AcDbLine
 10
378.3999391952661
 20
471.1996355348026
 30
0.0000000000000000
 11
378.3999391952661
 21
499.0432282660364
 31
0.0000000000000000
  0
LINE
  5
1FF
100
AcDbEntity
  8
MAIN0
  6
BYBLOCK
 62
0
100
AcDbLine
 10
378.3999391952661
 20
456.4496355348026
 30
0.0000000000000000
 11
378.3999391952661
 21
454.9496355348026
 31
0.0000000000000000
  0
LINE
  5
200
100
AcDbEntity
  8
MAIN0
  6
BYBLOCK
 62
0
100
AcDbLine
 10
320.9467283640997
 20
459.4496355348026
 30
0.0000000000000000
 11
381.3999391952661
 21
459.4496355348026
 31
0.0000000000000000
  0
MTEXT
  5
201
100
AcDbEntity
  8
MAIN0
  6
BYBLOCK
 62
0
100
AcDbMText
 10
375.3249392667917
 20
485.6932288382410
 30
0.0000000000000000
 40
4.649999856948853
 41
0.0000000000000000
 71
     5
 72
     1
  1
\A1;MAX 14.75
 11
6.123233995736766e-017
 21
1.000000000000000
 31
0.0000000000000000
  7
STANDARD
  0
ENDBLK
  5
202
100
AcDbEntity
  8
MAIN0
  6
CONTINUOUS
 62
1
100
AcDbBlockEnd
  0
BLOCK
  5
204
100
AcDbEntity
  8
MAIN0
  6
CONTINUOUS
 62
1
100
AcDbBlockBegin
  2
*D17
 70
    65
 10
0.0
 20
0.0
 30
0.0
  0
LINE
  5
205
100
AcDbEntity
  8
MAIN0
  6
BYBLOCK
 62
0
100
AcDbLine
 10
320.9467283640997
 20
459.4496355348026
 30
0.0000000000000000
 11
381.3999391952661
 21
459.4496355348026
 31
0.0000000000000000
  0
LINE
  5
206
100
AcDbEntity
  8
MAIN0
  6
BYBLOCK
 62
0
100
AcDbLine
 10
378.3999391952661
 20
456.4496355348026
 30
0.0000000000000000
 11
378.3999391952661
 21
409.4494703775712
 31
0.0000000000000000
  0
INSERT
  5
207
100
AcDbEntity
  8
MAIN0
  6
BYBLOCK
 62
0
100
AcDbBlockReference
  2
_OPEN
 10
378.3999391952661
 20
459.4496355348026
 30
0.0000000000000000
 41
3.000000000000000
 42
3.000000000000000
 43
3.000000000000000
 50
90.00000000000000
  0
INSERT
  5
208
100
AcDbEntity
  8
MAIN0
  6
BYBLOCK
 62
0
100
AcDbBlockReference
  2
_OPEN
 10
378.3999391952661
 20
406.4494703775712
 30
0.0000000000000000
 41
3.000000000000000
 42
3.000000000000000
 43
3.000000000000000
 50
270.0000000000000
  0
LINE
  5
209
100
AcDbEntity
  8
MAIN0
  6
BYBLOCK
 62
0
100
AcDbLine
 10
341.2982917658071
 20
406.4494703775712
 30
0.0000000000000000
 11
381.3999391952661
 21
406.4494703775712
 31
0.0000000000000000
  0
MTEXT
  5
20A
100
AcDbEntity
  8
MAIN0
  6
BYBLOCK
 62
0
100
AcDbMText
 10
375.3249392667917
 20
435.3282231565484
 30
0.0000000000000000
 40
4.649999856948853
 41
0.0000000000000000
 71
     5
 72
     1
  1
\A1;MAX 53
 11
6.123233995736766e-017
 21
1.000000000000000
 31
0.0000000000000000
  7
STANDARD
  0
ENDBLK
  5
20B
100
AcDbEntity
  8
MAIN0
  6
CONTINUOUS
 62
1
100
AcDbBlockEnd
  0
BLOCK
  5
20F
100
AcDbEntity
  8
MAIN0
  6
CONTINUOUS
 62
3
100
AcDbBlockBegin
  2
*D18
 70
    65
 10
0.0
 20
0.0
 30
0.0
  0
LINE
  5
210
100
AcDbEntity
  8
MAIN0
  6
BYBLOCK
 62
0
100
AcDbLine
 10
316.0467283460325
 20
514.0494703954530
 30
0.0000000000000000
 11
316.0467283460325
 21
559.4494703775712
 31
0.0000000000000000
  0
LINE
  5
211
100
AcDbEntity
  8
MAIN0
  6
BYBLOCK
 62
0
100
AcDbLine
 10
319.0467283460325
 20
556.4494703775712
 30
0.0000000000000000
 11
355.0467283460330
 21
556.4494703775712
 31
0.0000000000000000
  0
INSERT
  5
212
100
AcDbEntity
  8
MAIN0
  6
BYBLOCK
 62
0
100
AcDbBlockReference
  2
_OPEN
 10
316.0467283460325
 20
556.4494703775712
 30
0.0000000000000000
 41
3.000000000000000
 42
3.000000000000000
 43
3.000000000000000
 50
180.0000000000000
  0
INSERT
  5
213
100
AcDbEntity
  8
MAIN0
  6
BYBLOCK
 62
0
100
AcDbBlockReference
  2
_OPEN
 10
358.0467283460330
 20
556.4494703775712
 30
0.0000000000000000
 41
3.000000000000000
 42
3.000000000000000
 43
3.000000000000000
 50
0.0000000000000000
  0
LINE
  5
214
100
AcDbEntity
  8
MAIN0
  6
BYBLOCK
 62
0
100
AcDbLine
 10
358.0467283460330
 20
518.3996355526840
 30
0.0000000000000000
 11
358.0467283460330
 21
559.4494703775712
 31
0.0000000000000000
  0
MTEXT
  5
215
100
AcDbEntity
  8
MAIN0
  6
BYBLOCK
 62
0
100
AcDbMText
 10
338.5194076333303
 20
559.5244703060456
 30
0.0000000000000000
 40
4.649999856948853
 41
0.0000000000000000
 71
     5
 72
     1
  1
\A1;42
 11
1.000000000000000
 21
0.0000000000000000
 31
0.0000000000000000
  7
STANDARD
  0
ENDBLK
  5
216
100
AcDbEntity
  8
MAIN0
  6
CONTINUOUS
 62
3
100
AcDbBlockEnd
  0
BLOCK
  5
220
100
AcDbEntity
  8
MAIN0
  6
CONTINUOUS
 62
3
100
AcDbBlockBegin
  2
*D19
 70
    65
 10
0.0
 20
0.0
 30
0.0
  0
LINE
  5
221
100
AcDbEntity
  8
MAIN0
  6
BYBLOCK
 62
0
100
AcDbLine
 10
645.8999391952661
 20
518.3996355526842
 30
0.0000000000000000
 11
645.8999391952661
 21
569.4494703775712
 31
0.0000000000000000
  0
LINE
  5
222
100
AcDbEntity
  8
MAIN0
  6
BYBLOCK
 62
0
100
AcDbLine
 10
648.8999391952661
 20
566.4494703775712
 30
0.0000000000000000
 11
677.8999391952661
 21
566.4494703775712
 31
0.0000000000000000
  0
INSERT
  5
223
100
AcDbEntity
  8
MAIN0
  6
BYBLOCK
 62
0
100
AcDbBlockReference
  2
_OPEN
 10
645.8999391952661
 20
566.4494703775712
 30
0.0000000000000000
 41
3.000000000000000
 42
3.000000000000000
 43
3.000000000000000
 50
180.0000000000000
  0
INSERT
  5
224
100
AcDbEntity
  8
MAIN0
  6
BYBLOCK
 62
0
100
AcDbBlockReference
  2
_OPEN
 10
680.8999391952661
 20
566.4494703775712
 30
0.0000000000000000
 41
3.000000000000000
 42
3.000000000000000
 43
3.000000000000000
 50
0.0000000000000000
  0
LINE
  5
225
100
AcDbEntity
  8
MAIN0
  6
BYBLOCK
 62
0
100
AcDbLine
 10
680.8999391952661
 20
518.3996355526841
 30
0.0000000000000000
 11
680.8999391952661
 21
569.4494703775712
 31
0.0000000000000000
  0
MTEXT
  5
226
100
AcDbEntity
  8
MAIN0
  6
BYBLOCK
 62
0
100
AcDbMText
 10
663.3999391952661
 20
569.2744703060456
 30
0.0000000000000000
 40
4.649999856948853
 41
0.0000000000000000
 71
     5
 72
     1
  1
\A1;35
 11
1.000000000000000
 21
0.0000000000000000
 31
0.0000000000000000
  7
STANDARD
  0
ENDBLK
  5
227
100
AcDbEntity
  8
MAIN0
  6
CONTINUOUS
 62
3
100
AcDbBlockEnd
  0
BLOCK
  5
251
100
AcDbEntity
  8
MAIN0
  6
CONTINUOUS
 62
3
100
AcDbBlockBegin
  2
*D20
 70
    65
 10
0.0
 20
0.0
 30
0.0
  0
LINE
  5
252
100
AcDbEntity
  8
MAIN0
  6
BYBLOCK
 62
0
100
AcDbLine
 10
316.0467283460325
 20
514.0494703954530
 30
0.0000000000000000
 11
316.0467283460325
 21
599.4494703775712
 31
0.0000000000000000
  0
LINE
  5
253
100
AcDbEntity
  8
MAIN0
  6
BYBLOCK
 62
0
100
AcDbLine
 10
313.0467283460325
 20
596.4494703775712
 30
0.0000000000000000
 11
202.0467283460325
 21
596.4494703775712
 31
0.0000000000000000
  0
INSERT
  5
254
100
AcDbEntity
  8
MAIN0
  6
BYBLOCK
 62
0
100
AcDbBlockReference
  2
_OPEN
 10
316.0467283460325
 20
596.4494703775712
 30
0.0000000000000000
 41
3.000000000000000
 42
3.000000000000000
 43
3.000000000000000
 50
360.0000000000000
  0
INSERT
  5
255
100
AcDbEntity
  8
MAIN0
  6
BYBLOCK
 62
0
100
AcDbBlockReference
  2
_OPEN
 10
199.0467283460325
 20
596.4494703775712
 30
0.0000000000000000
 41
3.000000000000000
 42
3.000000000000000
 43
3.000000000000000
 50
180.0000000000000
  0
LINE
  5
256
100
AcDbEntity
  8
MAIN0
  6
BYBLOCK
 62
0
100
AcDbLine
 10
199.0467283460325
 20
521.6494703954531
 30
0.0000000000000000
 11
199.0467283460325
 21
599.4494703775712
 31
0.0000000000000000
  0
MTEXT
  5
257
100
AcDbEntity
  8
MAIN0
  6
BYBLOCK
 62
0
100
AcDbMText
 10
257.5467283460325
 20
599.2744703060456
 30
0.0000000000000000
 40
4.649999856948853
 41
0.0000000000000000
 71
     5
 72
     1
  1
\A1;117
 11
1.000000000000000
 21
0.0000000000000000
 31
0.0000000000000000
  7
STANDARD
  0
ENDBLK
  5
258
100
AcDbEntity
  8
MAIN0
  6
CONTINUOUS
 62
3
100
AcDbBlockEnd
  0
BLOCK
  5
25A
100
AcDbEntity
  8
MAIN0
  6
CONTINUOUS
 62
3
100
AcDbBlockBegin
  2
*D21
 70
    65
 10
0.0
 20
0.0
 30
0.0
  0
LINE
  5
25B
100
AcDbEntity
  8
MAIN0
  6
BYBLOCK
 62
0
100
AcDbLine
 10
199.0467283460325
 20
521.6494703954531
 30
0.0000000000000000
 11
199.0467283460325
 21
579.4494703775712
 31
0.0000000000000000
  0
LINE
  5
25C
100
AcDbEntity
  8
MAIN0
  6
BYBLOCK
 62
0
100
AcDbLine
 10
202.0467283460325
 20
576.4494703775712
 30
0.0000000000000000
 11
237.5467283460332
 21
576.4494703775712
 31
0.0000000000000000
  0
INSERT
  5
25D
100
AcDbEntity
  8
MAIN0
  6
BYBLOCK
 62
0
100
AcDbBlockReference
  2
_OPEN
 10
199.0467283460325
 20
576.4494703775712
 30
0.0000000000000000
 41
3.000000000000000
 42
3.000000000000000
 43
3.000000000000000
 50
180.0000000000000
  0
INSERT
  5
25E
100
AcDbEntity
  8
MAIN0
  6
BYBLOCK
 62
0
100
AcDbBlockReference
  2
_OPEN
 10
240.5467283460332
 20
576.4494703775712
 30
0.0000000000000000
 41
3.000000000000000
 42
3.000000000000000
 43
3.000000000000000
 50
0.0000000000000000
  0
LINE
  5
25F
100
AcDbEntity
  8
MAIN0
  6
BYBLOCK
 62
0
100
AcDbLine
 10
240.5467283460332
 20
548.6517730248391
 30
0.0000000000000000
 11
240.5467283460332
 21
579.4494703775712
 31
0.0000000000000000
  0
MTEXT
  5
260
100
AcDbEntity
  8
MAIN0
  6
BYBLOCK
 62
0
100
AcDbMText
 10
219.7967283460329
 20
579.2744703060456
 30
0.0000000000000000
 40
4.649999856948853
 41
0.0000000000000000
 71
     5
 72
     1
  1
\A1;41.5
 11
1.000000000000000
 21
0.0000000000000000
 31
0.0000000000000000
  7
STANDARD
  0
ENDBLK
  5
261
100
AcDbEntity
  8
MAIN0
  6
CONTINUOUS
 62
3
100
AcDbBlockEnd
  0
BLOCK
  5
263
100
AcDbEntity
  8
MAIN0
  6
CONTINUOUS
 62
3
100
AcDbBlockBegin
  2
*D22
 70
    65
 10
0.0
 20
0.0
 30
0.0
  0
LINE
  5
264
100
AcDbEntity
  8
MAIN0
  6
BYBLOCK
 62
0
100
AcDbLine
 10
199.0467283460325
 20
291.2494703596890
 30
0.0000000000000000
 11
199.0467283460325
 21
233.4494703775712
 31
0.0000000000000000
  0
LINE
  5
265
100
AcDbEntity
  8
MAIN0
  6
BYBLOCK
 62
0
100
AcDbLine
 10
202.0467283460325
 20
236.4494703775712
 30
0.0000000000000000
 11
237.5467283460332
 21
236.4494703775712
 31
0.0000000000000000
  0
INSERT
  5
266
100
AcDbEntity
  8
MAIN0
  6
BYBLOCK
 62
0
100
AcDbBlockReference
  2
_OPEN
 10
199.0467283460325
 20
236.4494703775712
 30
0.0000000000000000
 41
3.000000000000000
 42
3.000000000000000
 43
3.000000000000000
 50
180.0000000000000
  0
INSERT
  5
267
100
AcDbEntity
  8
MAIN0
  6
BYBLOCK
 62
0
100
AcDbBlockReference
  2
_OPEN
 10
240.5467283460332
 20
236.4494703775712
 30
0.0000000000000000
 41
3.000000000000000
 42
3.000000000000000
 43
3.000000000000000
 50
0.0000000000000000
  0
LINE
  5
268
100
AcDbEntity
  8
MAIN0
  6
BYBLOCK
 62
0
100
AcDbLine
 10
240.5467283460332
 20
264.2471677303031
 30
0.0000000000000000
 11
240.5467283460332
 21
233.4494703775712
 31
0.0000000000000000
  0
MTEXT
  5
269
100
AcDbEntity
  8
MAIN0
  6
BYBLOCK
 62
0
100
AcDbMText
 10
219.7967283460329
 20
239.2744703060456
 30
0.0000000000000000
 40
4.649999856948853
 41
0.0000000000000000
 71
     5
 72
     1
  1
\A1;41.5
 11
1.000000000000000
 21
0.0000000000000000
 31
0.0000000000000000
  7
STANDARD
  0
ENDBLK
  5
26A
100
AcDbEntity
  8
MAIN0
  6
CONTINUOUS
 62
3
100
AcDbBlockEnd
  0
BLOCK
  5
26C
100
AcDbEntity
  8
MAIN0
  6
CONTINUOUS
 62
3
100
AcDbBlockBegin
  2
*D23
 70
    65
 10
0.0
 20
0.0
 30
0.0
  0
LINE
  5
26D
100
AcDbEntity
  8
MAIN0
  6
BYBLOCK
 62
0
100
AcDbLine
 10
198.9467283281501
 20
539.4494703775711
 30
0.0000000000000000
 11
130.3999391952661
 21
539.4494703775711
 31
0.0000000000000000
  0
LINE
  5
26E
100
AcDbEntity
  8
MAIN0
  6
BYBLOCK
 62
0
100
AcDbLine
 10
133.3999391952661
 20
536.4494703775711
 30
0.0000000000000000
 11
133.3999391952661
 21
276.4494703775713
 31
0.0000000000000000
  0
INSERT
  5
26F
100
AcDbEntity
  8
MAIN0
  6
BYBLOCK
 62
0
100
AcDbBlockReference
  2
_OPEN
 10
133.3999391952661
 20
539.4494703775711
 30
0.0000000000000000
 41
3.000000000000000
 42
3.000000000000000
 43
3.000000000000000
 50
90.00000000000000
  0
INSERT
  5
270
100
AcDbEntity
  8
MAIN0
  6
BYBLOCK
 62
0
100
AcDbBlockReference
  2
_OPEN
 10
133.3999391952661
 20
273.4494703775713
 30
0.0000000000000000
 41
3.000000000000000
 42
3.000000000000000
 43
3.000000000000000
 50
270.0000000000000
  0
LINE
  5
271
100
AcDbEntity
  8
MAIN0
  6
BYBLOCK
 62
0
100
AcDbLine
 10
198.9467283281501
 20
273.4494703775713
 30
0.0000000000000000
 11
130.3999391952661
 21
273.4494703775713
 31
0.0000000000000000
  0
MTEXT
  5
272
100
AcDbEntity
  8
MAIN0
  6
BYBLOCK
 62
0
100
AcDbMText
 10
130.5749392667917
 20
406.4494703775712
 30
0.0000000000000000
 40
4.649999856948853
 41
0.0000000000000000
 71
     5
 72
     1
  1
\A1;\U+2205266
 11
6.123233995736766e-017
 21
1.000000000000000
 31
0.0000000000000000
  7
STANDARD
  0
ENDBLK
  5
273
100
AcDbEntity
  8
MAIN0
  6
CONTINUOUS
 62
3
100
AcDbBlockEnd
  0
BLOCK
  5
277
100
AcDbEntity
  8
MAIN0
  6
CONTINUOUS
 62
3
100
AcDbBlockBegin
  2
D24
 70
    64
 10
0.0
 20
0.0
 30
0.0
  0
LINE
  5
278
100
AcDbEntity
  8
MAIN0
  6
BYBLOCK
 62
0
100
AcDbLine
 10
31.16932799544480
 20
-85.01557742597782
 30
0.0000000000000000
 11
31.16932799544480
 21
-120.9999999999999
 31
0.0000000000000000
  0
LINE
  5
279
100
AcDbEntity
  8
MAIN0
  6
BYBLOCK
 62
0
100
AcDbLine
 10
32.06932803120759
 20
-117.9999999999999
 30
0.0000000000000000
 11
31.16932799544480
 21
-120.9999999999999
 31
0.0000000000000000
  0
LINE
  5
27A
100
AcDbEntity
  8
MAIN0
  6
BYBLOCK
 62
0
100
AcDbLine
 10
31.16932799544480
 20
-120.9999999999999
 30
0.0000000000000000
 11
30.26932795968202
 21
-117.9999999999999
 31
0.0000000000000000
  0
LINE
  5
27B
100
AcDbEntity
  8
MAIN0
  6
BYBLOCK
 62
0
100
AcDbLine
 10
-61.05156338401213
 20
-120.9999999999999
 30
0.0000000000000000
 11
34.16932799544480
 21
-120.9999999999999
 31
0.0000000000000000
  0
MTEXT
  5
27C
100
AcDbEntity
  8
MAIN0
  6
BYBLOCK
 62
0
100
AcDbMText
 10
28.09432806697038
 20
-89.46557770792111
 30
0.0000000000000000
 40
4.649999856948853
 41
0.0000000000000000
 71
     5
 72
     1
  1
\A1;\U+2205242
 11
6.123233995736766e-017
 21
1.000000000000000
 31
0.0000000000000000
  7
STANDARD
  0
ENDBLK
  5
27D
100
AcDbEntity
  8
MAIN0
  6
CONTINUOUS
 62
3
100
AcDbBlockEnd
  0
BLOCK
  5
2B3
100
AcDbEntity
  8
MAIN0
  6
BYBLOCK
 62
3
100
AcDbBlockBegin
  2
M1
 70
    64
 10
0.0
 20
0.0
 30
0.0
  0
LINE
  5
2B4
100
AcDbEntity
  8
MAIN0
  6
BYBLOCK
 62
0
100
AcDbLine
 10
760.9575649741141
 20
202.9957499158970
 30
0.0000000000000000
 11
878.7160249716168
 21
202.9957499158970
 31
0.0000000000000000
  0
LINE
  5
2B5
100
AcDbEntity
  8
MAIN0
  6
BYBLOCK
 62
0
100
AcDbLine
 10
760.9575649741141
 20
192.4957499158970
 30
0.0000000000000000
 11
878.7160249716206
 21
192.4957499158970
 31
0.0000000000000000
  0
LINE
  5
2B6
100
AcDbEntity
  8
MAIN0
  6
BYBLOCK
 62
0
100
AcDbLine
 10
760.9575649741141
 20
97.99572380032721
 30
0.0000000000000000
 11
760.9575649741141
 21
202.9957499158971
 31
0.0000000000000000
  0
LINE
  5
2B7
100
AcDbEntity
  8
MAIN0
  6
BYBLOCK
 62
0
100
AcDbLine
 10
760.9575649741141
 20
181.9957499158970
 30
0.0000000000000000
 11
878.7160249716246
 21
181.9957499158970
 31
0.0000000000000000
  0
LINE
  5
2B8
100
AcDbEntity
  8
MAIN0
  6
BYBLOCK
 62
0
100
AcDbLine
 10
760.9575649741141
 20
171.4957499158973
 30
0.0000000000000000
 11
878.7160249716285
 21
171.4957499158973
 31
0.0000000000000000
  0
MTEXT
  5
2B9
100
AcDbEntity
  8
MAIN0
  6
BYBLOCK
 62
0
100
AcDbMText
 10
853.9575649741137
 20
187.6957487714877
 30
0.0000000000000000
 40
4.199998855590820
 41
0.0000000000000000
 71
     1
 72
     1
  1
{\H0.58x;　　　　ｍｍ}
 11
1.000000000000000
 21
0.0000000000000000
 31
0.0000000000000000
  7
KNJYOKO
  0
MTEXT
  5
2BA
100
AcDbEntity
  8
MAIN0
  6
BYBLOCK
 62
0
100
AcDbMText
 10
853.9575649741137
 20
177.1957487714879
 30
0.0000000000000000
 40
4.199998855590820
 41
0.0000000000000000
 71
     1
 72
     1
  1
{\H0.58x;　　　　ｍｍ}
 11
1.000000000000000
 21
0.0000000000000000
 31
0.0000000000000000
  7
KNJYOKO
  0
MTEXT
  5
2BB
100
AcDbEntity
  8
MAIN0
  6
BYBLOCK
 62
0
100
AcDbMText
 10
853.9575649741137
 20
167.4457487714879
 30
0.0000000000000000
 40
4.199998855590820
 41
0.0000000000000000
 71
     1
 72
     1
  1
{\H0.58x;　　　　ｋＮ}
 11
1.000000000000000
 21
0.0000000000000000
 31
0.0000000000000000
  7
KNJYOKO
  0
ENDBLK
  5
2BC
100
AcDbEntity
  8
MAIN0
  6
BYBLOCK
 62
3
100
AcDbBlockEnd
  0
BLOCK
  5
4AF
100
AcDbEntity
  8
AIR-DIAGRAM0
  6
BYBLOCK
 62
1
100
AcDbBlockBegin
  2
M2
 70
    64
 10
0.0
 20
0.0
 30
0.0
  0
MTEXT
  5
4B0
100
AcDbEntity
  8
AIR-DIAGRAM0
  6
BYBLOCK
 62
0
100
AcDbMText
 10
287.9821079825010
 20
61.09533026608096
 30
0.0000000000000000
 40
3.000000000000000
 41
0.0000000000000000
 71
     1
 72
     1
  1
{\H0.63x;NOTICE\P要注意}
 11
1.000000000000000
 21
-1.130435886617454e-013
 31
0.0000000000000000
  7
KNJYOKO
  0
LINE
  5
4B1
100
AcDbEntity
  8
AIR-DIAGRAM0
  6
BYBLOCK
 62
0
100
AcDbLine
 10
286.9871428595363
 20
61.37047713909951
 30
0.0000000000000000
 11
298.9871428595363
 21
61.37047713909951
 31
0.0000000000000000
  0
LINE
  5
4B2
100
AcDbEntity
  8
AIR-DIAGRAM0
  6
BYBLOCK
 62
0
100
AcDbLine
 10
286.9871428595363
 20
61.37047713909951
 30
0.0000000000000000
 11
286.9871428595363
 21
54.37047713909951
 31
0.0000000000000000
  0
LINE
  5
4B3
100
AcDbEntity
  8
AIR-DIAGRAM0
  6
BYBLOCK
 62
0
100
AcDbLine
 10
286.9871428595363
 20
54.37047713909951
 30
0.0000000000000000
 11
298.9871428595363
 21
54.37047713909951
 31
0.0000000000000000
  0
LINE
  5
4B4
100
AcDbEntity
  8
AIR-DIAGRAM0
  6
BYBLOCK
 62
0
100
AcDbLine
 10
298.9871428595362
 20
64.87047713910002
 30
0.0000000000000000
 11
305.9871428595361
 21
57.87047713909983
 31
0.0000000000000000
  0
LINE
  5
4B5
100
AcDbEntity
  8
AIR-DIAGRAM0
  6
BYBLOCK
 62
0
100
AcDbLine
 10
298.9871428595361
 20
50.87047713909998
 30
0.0000000000000000
 11
305.9871428595361
 21
57.87047713909946
 31
0.0000000000000000
  0
LINE
  5
4B6
100
AcDbEntity
  8
AIR-DIAGRAM0
  6
BYBLOCK
 62
0
100
AcDbLine
 10
298.9871428595363
 20
54.37047713909951
 30
0.0000000000000000
 11
298.9871428595363
 21
50.87047713909996
 31
0.0000000000000000
  0
LINE
  5
4B7
100
AcDbEntity
  8
AIR-DIAGRAM0
  6
BYBLOCK
 62
0
100
AcDbLine
 10
298.9871428595363
 20
64.87047713909973
 30
0.0000000000000000
 11
298.9871428595363
 21
61.37047713909951
 31
0.0000000000000000
  0
ENDBLK
  5
4B8
100
AcDbEntity
  8
AIR-DIAGRAM0
  6
BYBLOCK
 62
1
100
AcDbBlockEnd
  0
ENDSEC
  0
SECTION
  2
ENTITIES
  0
LINE
  5
46
100
AcDbEntity
  8
MAIN4
  6
CONTINUOUS
 62
3
100
AcDbLine
 10
134.6849966064590
 20
199.8857508161341
 30
0.0000000000000000
 11
134.6849966064590
 21
192.2236260712505
 31
0.0000000000000000
  0
SPLINE
  5
47
100
AcDbEntity
  8
MAIN4
  6
CONTINUOUS
 62
3
100
AcDbSpline
210
0.0000000000000000
220
0.0000000000000000
230
1.000000000000000
 70
     8
 71
     3
 72
    10
 73
     6
 74
     0
 42
1.000000000000000e-007
 43
1.000000000000000e-007
 12
0.8676722831080355
 22
-0.8381441713433446
 32
0.0000000000000000
 13
0.9331404577687863
 23
-0.02206296159124577
 33
0.0000000000000000
 40
0.0000000000000000
 40
0.0000000000000000
 40
0.0000000000000000
 40
0.0000000000000000
 40
3.387635668128331
 40
6.637565489255527
 40
7.100682518605226
 40
7.100682518605226
 40
7.100682518605226
 40
7.100682518605226
 10
128.5130038781402
 20
199.9438934367947
 30
0.0000000000000000
 10
129.4927897363079
 20
198.9974510735024
 30
0.0000000000000000
 10
131.4125336037549
 20
197.1430387979258
 30
0.0000000000000000
 10
133.3970229486549
 20
199.7841856130403
 30
0.0000000000000000
 10
134.5409455275363
 20
199.8891567272111
 30
0.0000000000000000
 10
134.6849966064590
 20
199.8857508161341
 30
0.0000000000000000
  0
DIMENSION
  5
50
100
AcDbEntity
  8
MAIN4
  6
CONTINUOUS
 62
3
100
AcDbDimension
  2
*D0
 10
178.6849966064591
 20
192.2236260712505
 30
0.0000000000000000
 11
178.1849966064591
 21
174.7236260712505
 31
0.0000000000000000
 70
32
  3
MAIN001
100
AcDbAlignedDimension
 13
138.3849966064589
 23
157.2236260712505
 33
0.0000000000000000
 14
138.3849966064590
 24
192.2236260712505
 34
0.0000000000000000
 50
90.00000000000000
100
AcDbRotatedDimension
1001
ACAD
1000
DSTYLE
1002
{
1070
   173
1070
     1
1070
     6
1000
_OPEN
1070
     7
1000
_OPEN
1070
    41
1040
3.000000
1002
}
  0
DIMENSION
  5
5B
100
AcDbEntity
  8
MAIN4
  6
CONTINUOUS
 62
3
100
AcDbDimension
  2
*D1
 10
162.6849966064591
 20
167.7236260712505
 30
0.0000000000000000
 11
161.9349966064591
 21
175.3805120748838
 31
0.0000000000000000
 70
160
  1
\A1;14H8/h8
  3
MAIN001
100
AcDbAlignedDimension
 13
142.6849966064591
 23
181.7236260712505
 33
0.0000000000000000
 14
142.6849966064590
 24
167.7236260712506
 34
0.0000000000000000
 50
90.00000000000000
100
AcDbRotatedDimension
1001
ACAD
1000
DSTYLE
1002
{
1070
   173
1070
     1
1070
     6
1000
_OPEN
1070
     7
1000
_OPEN
1070
    41
1040
3.000000
1070
   287
1070
     0
1002
}
  0
LINE
  5
5C
100
AcDbEntity
  8
MAIN0
  6
CONTINUOUS
 62
3
100
AcDbLine
 10
312.5467283460325
 20
388.4494703775712
 30
0.0000000000000000
 11
312.5467283460325
 21
383.5273065931128
 31
0.0000000000000000
  0
LINE
  5
5D
100
AcDbEntity
  8
MAIN0
  6
CONTINUOUS
 62
3
100
AcDbLine
 10
312.5467283460325
 20
429.3716341620296
 30
0.0000000000000000
 11
312.5467283460325
 21
424.4494703775712
 31
0.0000000000000000
  0
LINE
  5
5E
100
AcDbEntity
  8
MAIN0
  6
CONTINUOUS
 62
3
100
AcDbLine
 10
215.1467283460326
 20
421.4494703775712
 30
0.0000000000000000
 11
316.1467283460326
 21
421.4494703775712
 31
0.0000000000000000
  0
LINE
  5
5F
100
AcDbEntity
  8
MAIN0
  6
CONTINUOUS
 62
3
100
AcDbLine
 10
215.1467283460326
 20
391.4494703775712
 30
0.0000000000000000
 11
316.1467283460326
 21
391.4494703775712
 31
0.0000000000000000
  0
LINE
  5
60
100
AcDbEntity
  8
MAIN0
  6
CONTINUOUS
 62
3
100
AcDbLine
 10
317.6467283460326
 20
387.9494703775712
 30
0.0000000000000000
 11
317.6467283460326
 21
424.9494703775712
 31
0.0000000000000000
  0
LINE
  5
61
100
AcDbEntity
  8
MAIN0
  6
CONTINUOUS
 62
3
100
AcDbLine
 10
316.9467283460326
 20
424.9494703775712
 30
0.0000000000000000
 11
317.6467283460326
 21
424.9494703775712
 31
0.0000000000000000
  0
LINE
  5
62
100
AcDbEntity
  8
MAIN0
  6
CONTINUOUS
 62
3
100
AcDbLine
 10
306.1467283460326
 20
391.4494703775712
 30
0.0000000000000000
 11
306.1467283460326
 21
421.4494703775712
 31
0.0000000000000000
  0
LINE
  5
63
100
AcDbEntity
  8
MAIN0
  6
CONTINUOUS
 62
3
100
AcDbLine
 10
308.1467283460326
 20
418.4494703775712
 30
0.0000000000000000
 11
308.1467283460326
 21
421.4494703775712
 31
0.0000000000000000
  0
LINE
  5
64
100
AcDbEntity
  8
MAIN0
  6
CONTINUOUS
 62
3
100
AcDbLine
 10
312.8467283460325
 20
418.4494703775712
 30
0.0000000000000000
 11
312.8467283460325
 21
421.4494703775712
 31
0.0000000000000000
  0
LINE
  5
65
100
AcDbEntity
  8
MAIN0
  6
CONTINUOUS
 62
3
100
AcDbLine
 10
308.1467283460326
 20
418.4494703775712
 30
0.0000000000000000
 11
312.8467283460326
 21
418.4494703775712
 31
0.0000000000000000
  0
LINE
  5
66
100
AcDbEntity
  8
MAIN0
  6
CONTINUOUS
 62
3
100
AcDbLine
 10
316.9467283460326
 20
387.9494703775712
 30
0.0000000000000000
 11
317.6467283460326
 21
387.9494703775712
 31
0.0000000000000000
  0
LINE
  5
67
100
AcDbEntity
  8
MAIN0
  6
CONTINUOUS
 62
3
100
AcDbLine
 10
308.1467283460326
 20
394.4494703775712
 30
0.0000000000000000
 11
308.1467283460326
 21
391.4494703775712
 31
0.0000000000000000
  0
LINE
  5
68
100
AcDbEntity
  8
MAIN0
  6
CONTINUOUS
 62
3
100
AcDbLine
 10
312.8467283460325
 20
394.4494703775712
 30
0.0000000000000000
 11
312.8467283460325
 21
391.4494703775712
 31
0.0000000000000000
  0
LINE
  5
69
100
AcDbEntity
  8
MAIN0
  6
CONTINUOUS
 62
3
100
AcDbLine
 10
308.1467283460326
 20
394.4494703775712
 30
0.0000000000000000
 11
312.8467283460326
 21
394.4494703775712
 31
0.0000000000000000
  0
LINE
  5
6A
100
AcDbEntity
  8
MAIN0
  6
CONTINUOUS
 62
3
100
AcDbLine
 10
316.1467283460326
 20
421.4494703775712
 30
0.0000000000000000
 11
316.1467283460326
 21
447.4494703775712
 31
0.0000000000000000
  0
LINE
  5
6B
100
AcDbEntity
  8
MAIN0
  6
CONTINUOUS
 62
3
100
AcDbLine
 10
316.1467283460326
 20
423.5638297315160
 30
0.0000000000000000
 11
316.9467283460325
 21
424.9494703775709
 31
0.0000000000000000
  0
LINE
  5
6C
100
AcDbEntity
  8
MAIN0
  6
CONTINUOUS
 62
3
100
AcDbLine
 10
316.1467283460327
 20
389.3351110236263
 30
0.0000000000000000
 11
316.9467283460326
 21
387.9494703775714
 31
0.0000000000000000
  0
LINE
  5
6D
100
AcDbEntity
  8
MAIN0
  6
CONTINUOUS
 62
3
100
AcDbLine
 10
316.0467283460325
 20
459.4496355348026
 30
0.0000000000000000
 11
316.0467283460325
 21
512.8494703775716
 31
0.0000000000000000
  0
LINE
  5
6E
100
AcDbEntity
  8
MAIN0
  6
CONTINUOUS
 62
3
100
AcDbLine
 10
222.0467283460325
 20
427.4494703775712
 30
0.0000000000000000
 11
222.0467283460325
 21
424.4494703775712
 31
0.0000000000000000
  0
LINE
  5
6F
100
AcDbEntity
  8
MAIN0
  6
CONTINUOUS
 62
3
100
AcDbLine
 10
217.3467283460325
 20
427.4494703775712
 30
0.0000000000000000
 11
217.3467283460325
 21
424.4494703775712
 31
0.0000000000000000
  0
LINE
  5
70
100
AcDbEntity
  8
MAIN0
  6
CONTINUOUS
 62
3
100
AcDbLine
 10
217.3467283460325
 20
427.4494703775712
 30
0.0000000000000000
 11
222.0467283460326
 21
427.4494703775712
 31
0.0000000000000000
  0
LINE
  5
71
100
AcDbEntity
  8
MAIN0
  6
CONTINUOUS
 62
3
100
AcDbLine
 10
222.0467283460325
 20
385.4494703775712
 30
0.0000000000000000
 11
222.0467283460325
 21
388.4494703775712
 31
0.0000000000000000
  0
LINE
  5
72
100
AcDbEntity
  8
MAIN0
  6
CONTINUOUS
 62
3
100
AcDbLine
 10
217.3467283460325
 20
385.4494703775712
 30
0.0000000000000000
 11
217.3467283460325
 21
388.4494703775712
 31
0.0000000000000000
  0
LINE
  5
73
100
AcDbEntity
  8
MAIN0
  6
CONTINUOUS
 62
3
100
AcDbLine
 10
217.3467283460325
 20
385.4494703775712
 30
0.0000000000000000
 11
222.0467283460326
 21
385.4494703775712
 31
0.0000000000000000
  0
LINE
  5
74
100
AcDbEntity
  8
MAIN0
  6
CONTINUOUS
 62
3
100
AcDbLine
 10
225.0467283460325
 20
428.9215156331696
 30
0.0000000000000000
 11
225.0467283460325
 21
424.4494703775712
 31
0.0000000000000000
  0
LINE
  5
75
100
AcDbEntity
  8
MAIN0
  6
CONTINUOUS
 62
3
100
AcDbLine
 10
225.0467283460325
 20
388.4494703775712
 30
0.0000000000000000
 11
225.0467283460325
 21
383.9774251219727
 31
0.0000000000000000
  0
ELLIPSE
  5
76
100
AcDbEntity
  8
MAIN0
  6
CONTINUOUS
 62
3
100
AcDbEllipse
 10
219.6967283460325
 20
425.9494703775712
 30
0.0000000000000000
 11
-2.350000000000000
 21
0.0000000000000000
 31
0.0000000000000000
210
0.0000000000000000
220
0.0000000000000000
230
1.000000000000000
 40
0.6382978723404255
 41
0.0000000000000000
 42
6.283185307179586
  0
ELLIPSE
  5
77
100
AcDbEntity
  8
MAIN0
  6
CONTINUOUS
 62
3
100
AcDbEllipse
 10
219.6967283460325
 20
386.9494703775712
 30
0.0000000000000000
 11
-2.350000000000000
 21
0.0000000000000000
 31
0.0000000000000000
210
0.0000000000000000
220
0.0000000000000000
230
1.000000000000000
 40
0.6382978723404255
 41
0.0000000000000000
 42
6.283185307179586
  0
ELLIPSE
  5
78
100
AcDbEntity
  8
MAIN0
  6
CONTINUOUS
 62
3
100
AcDbEllipse
 10
310.4967283460326
 20
419.9494703775712
 30
0.0000000000000000
 11
-2.350000000000000
 21
0.0000000000000000
 31
0.0000000000000000
210
0.0000000000000000
220
0.0000000000000000
230
1.000000000000000
 40
0.6382978723404255
 41
0.0000000000000000
 42
6.283185307179586
  0
ELLIPSE
  5
79
100
AcDbEntity
  8
MAIN0
  6
CONTINUOUS
 62
3
100
AcDbEllipse
 10
310.4967283460326
 20
392.9494703775712
 30
0.0000000000000000
 11
-2.350000000000000
 21
0.0000000000000000
 31
0.0000000000000000
210
0.0000000000000000
220
0.0000000000000000
230
1.000000000000000
 40
0.6382978723404255
 41
0.0000000000000000
 42
6.283185307179586
  0
LINE
  5
7A
100
AcDbEntity
  8
MAIN4
  6
CONTINUOUS
 62
3
100
AcDbLine
 10
215.1467283460326
 20
424.4494703775712
 30
0.0000000000000000
 11
215.1467283460326
 21
388.4494703775712
 31
0.0000000000000000
  0
LINE
  5
7B
100
AcDbEntity
  8
MAIN0
  6
CONTINUOUS
 62
3
100
AcDbLine
 10
316.0467283460325
 20
300.0494703775710
 30
0.0000000000000000
 11
316.0467283460325
 21
349.9494703775712
 31
0.0000000000000000
  0
LINE
  5
7C
100
AcDbEntity
  8
MAIN0
  6
CONTINUOUS
 62
3
100
AcDbLine
 10
316.1467283460326
 20
349.9494703775712
 30
0.0000000000000000
 11
316.1467283460326
 21
391.4494703775712
 31
0.0000000000000000
  0
LINE
  5
7D
100
AcDbEntity
  8
MAIN4
  6
CONTINUOUS
 62
3
100
AcDbLine
 10
234.0467283460325
 20
426.4997421964711
 30
0.0000000000000000
 11
234.0467283460325
 21
424.4494703775712
 31
0.0000000000000000
  0
LINE
  5
7E
100
AcDbEntity
  8
MAIN4
  6
CONTINUOUS
 62
3
100
AcDbLine
 10
234.0467283460325
 20
386.3991985586713
 30
0.0000000000000000
 11
234.0467283460325
 21
388.4494703775712
 31
0.0000000000000000
  0
LINE
  5
7F
100
AcDbEntity
  8
MAIN4
  6
CONTINUOUS
 62
3
100
AcDbLine
 10
207.0467283460325
 20
461.4494703775711
 30
0.0000000000000000
 11
199.0467283460325
 21
461.4494703775712
 31
0.0000000000000000
  0
LINE
  5
80
100
AcDbEntity
  8
MAIN4
  6
CONTINUOUS
 62
3
100
AcDbLine
 10
207.0467283460325
 20
351.4494703775713
 30
0.0000000000000000
 11
207.0467283460325
 21
461.4494703775711
 31
0.0000000000000000
  0
LINE
  5
81
100
AcDbEntity
  8
MAIN4
  6
CONTINUOUS
 62
3
100
AcDbLine
 10
207.0467283460326
 20
351.4494703775713
 30
0.0000000000000000
 11
199.0467283460326
 21
351.4494703775712
 31
0.0000000000000000
  0
LINE
  5
82
100
AcDbEntity
  8
MAIN0
  6
CONTINUOUS
 62
3
100
AcDbLine
 10
316.0467283460325
 20
300.0494703775710
 30
0.0000000000000000
 11
314.4467283460325
 21
298.4494703775710
 31
0.0000000000000000
  0
MTEXT
  5
83
100
AcDbEntity
  8
MAIN4
  6
CONTINUOUS
 62
3
100
AcDbMText
 10
754.0511135510792
 20
379.1341210659782
 30
0.0000000000000000
 40
4.649999856948853
 41
0.0000000000000000
 71
     1
 72
     1
  1
{\H0.81x;{1}}
 11
0.5000000000000003
 21
0.8660254037844385
 31
0.0000000000000000
  7
STANDARD
  0
MTEXT
  5
84
100
AcDbEntity
  8
MAIN4
  6
CONTINUOUS
 62
3
100
AcDbMText
 10
641.7301384344449
 20
498.6133649083943
 30
0.0000000000000000
 40
4.649999856948853
 41
0.0000000000000000
 71
     1
 72
     1
  1
{\H0.81x;{3}}
 11
-1.000000000000000
 21
1.224646799147353e-016
 31
0.0000000000000000
  7
STANDARD
  0
MTEXT
  5
85
100
AcDbEntity
  8
MAIN4
  6
CONTINUOUS
 62
3
100
AcDbMText
 10
594.4185656002743
 20
341.6009251583412
 30
0.0000000000000000
 40
4.649999856948853
 41
0.0000000000000000
 71
     1
 72
     1
  1
{\H0.81x;{2}}
 11
0.4999999999999993
 21
-0.8660254037844390
 31
0.0000000000000000
  7
STANDARD
  0
ARC
  5
86
100
AcDbEntity
  8
MAIN4
  6
CONTINUOUS
 62
3
100
AcDbCircle
 10
663.3999391952661
 20
406.4494703775712
 30
0.0000000000000000
 40
18.49999999999999
100
AcDbArc
 50
114.8907403369424
 51
425.1092596630580
  0
CIRCLE
  5
87
100
AcDbEntity
  8
MAIN4
  6
CONTINUOUS
 62
3
100
AcDbCircle
 10
750.3332635612708
 20
429.7431844368413
 30
0.0000000000000000
 40
7.500000000000000
  0
CIRCLE
  5
88
100
AcDbEntity
  8
MAIN4
  6
CONTINUOUS
 62
3
100
AcDbCircle
 10
750.3332635612708
 20
429.7431844368413
 30
0.0000000000000000
 40
4.041451884325345
  0
LINE
  5
89
100
AcDbEntity
  8
MAIN4
  6
CONTINUOUS
 62
3
100
AcDbLine
 10
751.3792682788018
 20
425.8394416860675
 30
0.0000000000000000
 11
747.4755255280265
 21
426.8854464035942
 31
0.0000000000000000
  0
LINE
  5
8A
100
AcDbEntity
  8
MAIN4
  6
CONTINUOUS
 62
3
100
AcDbLine
 10
754.2370063120458
 20
428.6971797193147
 30
0.0000000000000000
 11
751.3792682788015
 21
425.8394416860674
 31
0.0000000000000000
  0
LINE
  5
8B
100
AcDbEntity
  8
MAIN4
  6
CONTINUOUS
 62
3
100
AcDbLine
 10
753.1910015945149
 20
432.6009224700881
 30
0.0000000000000000
 11
754.2370063120458
 21
428.6971797193146
 31
0.0000000000000000
  0
LINE
  5
8C
100
AcDbEntity
  8
MAIN4
  6
CONTINUOUS
 62
3
100
AcDbLine
 10
749.2872588437397
 20
433.6469271876151
 30
0.0000000000000000
 11
753.1910015945149
 21
432.6009224700883
 31
0.0000000000000000
  0
LINE
  5
8D
100
AcDbEntity
  8
MAIN4
  6
CONTINUOUS
 62
3
100
AcDbLine
 10
746.4295208104957
 20
430.7891891543679
 30
0.0000000000000000
 11
749.2872588437398
 21
433.6469271876151
 31
0.0000000000000000
  0
LINE
  5
8E
100
AcDbEntity
  8
MAIN4
  6
CONTINUOUS
 62
3
100
AcDbLine
 10
747.4755255280265
 20
426.8854464035944
 30
0.0000000000000000
 11
746.4295208104958
 21
430.7891891543678
 31
0.0000000000000000
  0
CIRCLE
  5
8F
100
AcDbEntity
  8
MAIN4
  6
CONTINUOUS
 62
3
100
AcDbCircle
 10
750.3332635612708
 20
429.7431844368413
 30
0.0000000000000000
 40
2.154220203279064
  0
CIRCLE
  5
90
100
AcDbEntity
  8
MAIN4
  6
CONTINUOUS
 62
3
100
AcDbCircle
 10
750.3332635612708
 20
429.7431844368413
 30
0.0000000000000000
 40
1.000000000000000
  0
LINE
  5
91
100
AcDbEntity
  8
MAIN0
  6
CONTINUOUS
 62
3
100
AcDbLine
 10
645.8999391952661
 20
517.1996355348028
 30
0.0000000000000000
 11
680.8999391952661
 21
517.1996355348027
 31
0.0000000000000000
  0
LINE
  5
92
100
AcDbEntity
  8
MAIN0
  6
CONTINUOUS
 62
3
100
AcDbLine
 10
657.3999391952657
 20
422.1996355348027
 30
0.0000000000000000
 11
669.3999391952667
 21
422.1996355348027
 31
0.0000000000000000
  0
LINE
  5
93
100
AcDbEntity
  8
MAIN0
  6
CONTINUOUS
 62
3
100
AcDbLine
 10
645.8999391952661
 20
428.8391636304842
 30
0.0000000000000000
 11
657.3999391952656
 21
422.1996355348027
 31
0.0000000000000000
  0
LINE
  5
94
100
AcDbEntity
  8
MAIN0
  6
CONTINUOUS
 62
3
100
AcDbLine
 10
680.8999391952661
 20
428.8391636304843
 30
0.0000000000000000
 11
669.3999391952666
 21
422.1996355348028
 31
0.0000000000000000
  0
LINE
  5
95
100
AcDbEntity
  8
MAIN0
  6
CENTER
 62
3
100
AcDbLine
 10
649.7055100890822
 20
493.1996355348025
 30
0.0000000000000000
 11
677.0365309980388
 21
493.1996355348025
 31
0.0000000000000000
  0
LINE
  5
96
100
AcDbEntity
  8
MAIN0
  6
CENTER
 62
3
100
AcDbLine
 10
649.7055100890822
 20
468.1996355348027
 30
0.0000000000000000
 11
677.0365309980389
 21
468.1996355348027
 31
0.0000000000000000
  0
LINE
  5
97
100
AcDbEntity
  8
MAIN0
  6
CONTINUOUS
 62
3
100
AcDbLine
 10
643.3999391952685
 20
443.3496355348010
 30
0.0000000000000000
 11
643.3999391952696
 21
459.3496355348010
 31
0.0000000000000000
  0
LINE
  5
98
100
AcDbEntity
  8
MAIN0
  6
CONTINUOUS
 62
3
100
AcDbLine
 10
683.3999391952685
 20
443.3496355347986
 30
0.0000000000000000
 11
683.3999391952694
 21
459.3496355348266
 31
0.0000000000000000
  0
LINE
  5
99
100
AcDbEntity
  8
MAIN0
  6
CONTINUOUS
 62
3
100
AcDbLine
 10
643.3999391952583
 20
459.3496355348011
 30
0.0000000000000000
 11
645.8999391952661
 21
459.3496355348026
 31
0.0000000000000000
  0
LINE
  5
9A
100
AcDbEntity
  8
MAIN0
  6
CONTINUOUS
 62
3
100
AcDbLine
 10
680.8999391952661
 20
459.3496355348250
 30
0.0000000000000000
 11
683.3999391952583
 21
459.3496355348266
 31
0.0000000000000000
  0
ARC
  5
9B
100
AcDbEntity
  8
MAIN0
  6
CONTINUOUS
 62
3
100
AcDbCircle
 10
663.3999391952661
 20
406.4494703775712
 30
0.0000000000000000
 40
56.50000000000008
100
AcDbArc
 50
350.7310848447465
 51
431.9567682383630
  0
LINE
  5
9C
100
AcDbEntity
  8
MAIN0
  6
CONTINUOUS
 62
3
100
AcDbLine
 10
643.3999391952685
 20
443.3496355348011
 30
0.0000000000000000
 11
645.8999391952661
 21
443.3496355348026
 31
0.0000000000000000
  0
LINE
  5
9D
100
AcDbEntity
  8
MAIN0
  6
CONTINUOUS
 62
3
100
AcDbLine
 10
680.8999391952661
 20
443.3496355348250
 30
0.0000000000000000
 11
683.3999391952685
 21
443.3496355348266
 31
0.0000000000000000
  0
LINE
  5
9E
100
AcDbEntity
  8
MAIN0
  6
HIDDEN
 62
3
100
AcDbLine
 10
681.1499391951371
 20
511.9496355347897
 30
0.0000000000000000
 11
645.6499391954008
 21
511.9496355348124
 31
0.0000000000000000
  0
LINE
  5
9F
100
AcDbEntity
  8
MAIN0
  6
HIDDEN
 62
3
100
AcDbLine
 10
637.8999391952623
 20
468.4496355348009
 30
0.0000000000000000
 11
637.8999391952598
 21
509.1288662191529
 31
0.0000000000000000
  0
LINE
  5
A0
100
AcDbEntity
  8
MAIN0
  6
HIDDEN
 62
3
100
AcDbLine
 10
688.8999391952623
 20
468.4496355348009
 30
0.0000000000000000
 11
688.8999391952598
 21
509.1288662191532
 31
0.0000000000000000
  0
CIRCLE
  5
A1
100
AcDbEntity
  8
MAIN0
  6
CONTINUOUS
 62
3
100
AcDbCircle
 10
619.4491499532053
 20
431.8244703775703
 30
0.0000000000000000
 40
4.250000000000000
  0
LINE
  5
A2
100
AcDbEntity
  8
MAIN0
  6
CONTINUOUS
 62
3
100
AcDbLine
 10
617.4491499532053
 20
430.6697698391911
 30
0.0000000000000000
 11
619.4491499532053
 21
429.5150693008118
 31
0.0000000000000000
  0
LINE
  5
A3
100
AcDbEntity
  8
MAIN0
  6
CONTINUOUS
 62
3
100
AcDbLine
 10
619.4491499532053
 20
429.5150693008118
 30
0.0000000000000000
 11
621.4491499532053
 21
430.6697698391910
 31
0.0000000000000000
  0
LINE
  5
A4
100
AcDbEntity
  8
MAIN0
  6
CONTINUOUS
 62
3
100
AcDbLine
 10
621.4491499532053
 20
430.6697698391910
 30
0.0000000000000000
 11
621.4491499532053
 21
432.9791709159495
 31
0.0000000000000000
  0
LINE
  5
A5
100
AcDbEntity
  8
MAIN0
  6
CONTINUOUS
 62
3
100
AcDbLine
 10
621.4491499532054
 20
432.9791709159495
 30
0.0000000000000000
 11
619.4491499532054
 21
434.1338714543288
 31
0.0000000000000000
  0
LINE
  5
A6
100
AcDbEntity
  8
MAIN0
  6
CONTINUOUS
 62
3
100
AcDbLine
 10
619.4491499532054
 20
434.1338714543288
 30
0.0000000000000000
 11
617.4491499532054
 21
432.9791709159497
 31
0.0000000000000000
  0
LINE
  5
A7
100
AcDbEntity
  8
MAIN0
  6
CONTINUOUS
 62
3
100
AcDbLine
 10
617.4491499532054
 20
432.9791709159497
 30
0.0000000000000000
 11
617.4491499532053
 21
430.6697698391912
 31
0.0000000000000000
  0
CIRCLE
  5
A8
100
AcDbEntity
  8
MAIN0
  6
CONTINUOUS
 62
3
100
AcDbCircle
 10
663.3999391952650
 20
355.6994703775711
 30
0.0000000000000000
 40
4.250000000000000
  0
LINE
  5
A9
100
AcDbEntity
  8
MAIN0
  6
CONTINUOUS
 62
3
100
AcDbLine
 10
665.3999391952649
 20
354.5447698391918
 30
0.0000000000000000
 11
665.3999391952651
 21
356.8541709159503
 31
0.0000000000000000
  0
LINE
  5
AA
100
AcDbEntity
  8
MAIN0
  6
CONTINUOUS
 62
3
100
AcDbLine
 10
665.3999391952651
 20
356.8541709159503
 30
0.0000000000000000
 11
663.3999391952652
 21
358.0088714543296
 31
0.0000000000000000
  0
LINE
  5
AB
100
AcDbEntity
  8
MAIN0
  6
CONTINUOUS
 62
3
100
AcDbLine
 10
663.3999391952652
 20
358.0088714543296
 30
0.0000000000000000
 11
661.3999391952651
 21
356.8541709159505
 31
0.0000000000000000
  0
LINE
  5
AC
100
AcDbEntity
  8
MAIN0
  6
CONTINUOUS
 62
3
100
AcDbLine
 10
661.3999391952651
 20
356.8541709159506
 30
0.0000000000000000
 11
661.3999391952650
 21
354.5447698391921
 31
0.0000000000000000
  0
LINE
  5
AD
100
AcDbEntity
  8
MAIN0
  6
CONTINUOUS
 62
3
100
AcDbLine
 10
661.3999391952649
 20
354.5447698391920
 30
0.0000000000000000
 11
663.3999391952648
 21
353.3900693008127
 31
0.0000000000000000
  0
LINE
  5
AE
100
AcDbEntity
  8
MAIN0
  6
CONTINUOUS
 62
3
100
AcDbLine
 10
663.3999391952649
 20
353.3900693008126
 30
0.0000000000000000
 11
665.3999391952649
 21
354.5447698391916
 31
0.0000000000000000
  0
CIRCLE
  5
AF
100
AcDbEntity
  8
MAIN0
  6
CONTINUOUS
 62
3
100
AcDbCircle
 10
707.3507284373249
 20
431.8244703775740
 30
0.0000000000000000
 40
4.250000000000000
  0
LINE
  5
B0
100
AcDbEntity
  8
MAIN0
  6
CONTINUOUS
 62
3
100
AcDbLine
 10
707.3507284373249
 20
434.1338714543324
 30
0.0000000000000000
 11
705.3507284373249
 21
432.9791709159532
 31
0.0000000000000000
  0
LINE
  5
B1
100
AcDbEntity
  8
MAIN0
  6
CONTINUOUS
 62
3
100
AcDbLine
 10
705.3507284373249
 20
432.9791709159532
 30
0.0000000000000000
 11
705.3507284373249
 21
430.6697698391947
 31
0.0000000000000000
  0
LINE
  5
B2
100
AcDbEntity
  8
MAIN0
  6
CONTINUOUS
 62
3
100
AcDbLine
 10
705.3507284373249
 20
430.6697698391948
 30
0.0000000000000000
 11
707.3507284373249
 21
429.5150693008155
 31
0.0000000000000000
  0
LINE
  5
B3
100
AcDbEntity
  8
MAIN0
  6
CONTINUOUS
 62
3
100
AcDbLine
 10
707.3507284373249
 20
429.5150693008154
 30
0.0000000000000000
 11
709.3507284373250
 21
430.6697698391947
 31
0.0000000000000000
  0
LINE
  5
B4
100
AcDbEntity
  8
MAIN0
  6
CONTINUOUS
 62
3
100
AcDbLine
 10
709.3507284373249
 20
430.6697698391947
 30
0.0000000000000000
 11
709.3507284373249
 21
432.9791709159532
 31
0.0000000000000000
  0
LINE
  5
B5
100
AcDbEntity
  8
MAIN0
  6
CONTINUOUS
 62
3
100
AcDbLine
 10
709.3507284373249
 20
432.9791709159532
 30
0.0000000000000000
 11
707.3507284373249
 21
434.1338714543325
 31
0.0000000000000000
  0
CIRCLE
  5
B6
100
AcDbEntity
  8
MAIN0
  6
CONTINUOUS
 62
3
100
AcDbCircle
 10
663.3999391952661
 20
493.1996355348026
 30
0.0000000000000000
 40
9.000000000000000
  0
LINE
  5
B7
100
AcDbEntity
  8
MAIN0
  6
CONTINUOUS
 62
3
100
AcDbLine
 10
663.3999391952663
 20
498.9731382266989
 30
0.0000000000000000
 11
658.3999391952661
 21
496.0863868807507
 31
0.0000000000000000
  0
LINE
  5
B8
100
AcDbEntity
  8
MAIN0
  6
CONTINUOUS
 62
3
100
AcDbLine
 10
658.3999391952661
 20
496.0863868807506
 30
0.0000000000000000
 11
658.3999391952661
 21
490.3128841888545
 31
0.0000000000000000
  0
LINE
  5
B9
100
AcDbEntity
  8
MAIN0
  6
CONTINUOUS
 62
3
100
AcDbLine
 10
658.3999391952661
 20
490.3128841888546
 30
0.0000000000000000
 11
663.3999391952661
 21
487.4261328429064
 31
0.0000000000000000
  0
LINE
  5
BA
100
AcDbEntity
  8
MAIN0
  6
CONTINUOUS
 62
3
100
AcDbLine
 10
663.3999391952663
 20
487.4261328429064
 30
0.0000000000000000
 11
668.3999391952663
 21
490.3128841888546
 31
0.0000000000000000
  0
LINE
  5
BB
100
AcDbEntity
  8
MAIN0
  6
CONTINUOUS
 62
3
100
AcDbLine
 10
668.3999391952661
 20
490.3128841888545
 30
0.0000000000000000
 11
668.3999391952661
 21
496.0863868807506
 31
0.0000000000000000
  0
LINE
  5
BC
100
AcDbEntity
  8
MAIN0
  6
CONTINUOUS
 62
3
100
AcDbLine
 10
668.3999391952661
 20
496.0863868807506
 30
0.0000000000000000
 11
663.3999391952661
 21
498.9731382266988
 31
0.0000000000000000
  0
CIRCLE
  5
BD
100
AcDbEntity
  8
MAIN0
  6
CONTINUOUS
 62
3
100
AcDbCircle
 10
663.3999391952661
 20
493.1996355348026
 30
0.0000000000000000
 40
10.00000000000000
  0
CIRCLE
  5
BE
100
AcDbEntity
  8
MAIN0
  6
CONTINUOUS
 62
3
100
AcDbCircle
 10
663.3999391952661
 20
468.1996355348027
 30
0.0000000000000000
 40
10.00000000000000
  0
CIRCLE
  5
BF
100
AcDbEntity
  8
MAIN0
  6
CONTINUOUS
 62
3
100
AcDbCircle
 10
663.3999391952661
 20
468.1996355348027
 30
0.0000000000000000
 40
9.000000000000000
  0
LINE
  5
C0
100
AcDbEntity
  8
MAIN0
  6
CONTINUOUS
 62
3
100
AcDbLine
 10
663.3999391952663
 20
473.9731382266990
 30
0.0000000000000000
 11
658.3999391952663
 21
471.0863868807508
 31
0.0000000000000000
  0
LINE
  5
C1
100
AcDbEntity
  8
MAIN0
  6
CONTINUOUS
 62
3
100
AcDbLine
 10
658.3999391952661
 20
471.0863868807508
 30
0.0000000000000000
 11
658.3999391952661
 21
465.3128841888546
 31
0.0000000000000000
  0
LINE
  5
C2
100
AcDbEntity
  8
MAIN0
  6
CONTINUOUS
 62
3
100
AcDbLine
 10
658.3999391952661
 20
465.3128841888546
 30
0.0000000000000000
 11
663.3999391952661
 21
462.4261328429064
 31
0.0000000000000000
  0
LINE
  5
C3
100
AcDbEntity
  8
MAIN0
  6
CONTINUOUS
 62
3
100
AcDbLine
 10
663.3999391952663
 20
462.4261328429065
 30
0.0000000000000000
 11
668.3999391952663
 21
465.3128841888547
 31
0.0000000000000000
  0
LINE
  5
C4
100
AcDbEntity
  8
MAIN0
  6
CONTINUOUS
 62
3
100
AcDbLine
 10
668.3999391952661
 20
465.3128841888546
 30
0.0000000000000000
 11
668.3999391952661
 21
471.0863868807508
 31
0.0000000000000000
  0
LINE
  5
C5
100
AcDbEntity
  8
MAIN0
  6
CONTINUOUS
 62
3
100
AcDbLine
 10
668.3999391952661
 20
471.0863868807508
 30
0.0000000000000000
 11
663.3999391952661
 21
473.9731382266989
 31
0.0000000000000000
  0
DIMENSION
  5
CE
100
AcDbEntity
  8
MAIN4
  6
CONTINUOUS
 62
3
100
AcDbDimension
  2
*D2
 10
173.3999391952661
 20
351.4494703775712
 30
0.0000000000000000
 11
172.8999391952661
 21
399.3744702404805
 31
0.0000000000000000
 70
32
  1
\A1;\U+2205110H7\H0.903226x;\S＋0.035^ 　0;
  3
MAIN001
100
AcDbAlignedDimension
 13
199.0467283460325
 23
461.4494703775712
 33
0.0000000000000000
 14
199.0467283460325
 24
351.4494703775712
 34
0.0000000000000000
 50
90.00000000000000
100
AcDbRotatedDimension
1001
ACAD
1000
DSTYLE
1002
{
1070
   173
1070
     1
1070
     6
1000
_OPEN
1070
     7
1000
_OPEN
1070
    41
1040
3.000000
1070
   272
1070
     3
1070
    47
1040
0.035000
1070
    48
1040
0.000000
1070
    71
1070
     1
1070
   340
1005
CF
1002
}
  0
DIMENSION
  5
D6
100
AcDbEntity
  8
MAIN4
  6
CONTINUOUS
 62
3
100
AcDbDimension
  2
*D3
 10
252.5467283460334
 20
391.4494703775712
 30
0.0000000000000000
 11
252.0467283460334
 21
406.4494703775712
 31
0.0000000000000000
 70
32
  1
\A1;\U+220530
  3
MAIN001
100
AcDbAlignedDimension
 13
215.1467283460326
 23
421.4494703775712
 33
0.0000000000000000
 14
215.1467283460326
 24
391.4494703775712
 34
0.0000000000000000
 50
90.00000000000000
100
AcDbRotatedDimension
1001
ACAD
1000
DSTYLE
1002
{
1070
   173
1070
     1
1070
     6
1000
_OPEN
1070
     7
1000
_OPEN
1070
    41
1040
3.000000
1002
}
  0
LINE
  5
D7
100
AcDbEntity
  8
MAIN0
  6
HIDDEN
 62
3
100
AcDbLine
 10
234.2619783460336
 20
276.8494703775714
 30
0.0000000000000000
 11
233.9682283460335
 21
267.4494703775715
 31
0.0000000000000000
  0
LINE
  5
D8
100
AcDbEntity
  8
MAIN0
  6
HIDDEN
 62
3
100
AcDbLine
 10
234.8242283460335
 20
267.4494703775715
 30
0.0000000000000000
 11
235.1179783460335
 21
276.8494703775714
 31
0.0000000000000000
  0
LINE
  5
D9
100
AcDbEntity
  8
MAIN0
  6
HIDDEN
 62
3
100
AcDbLine
 10
246.2692283460332
 20
267.4494703775714
 30
0.0000000000000000
 11
245.9754783460332
 21
276.8494703775718
 31
0.0000000000000000
  0
LINE
  5
DA
100
AcDbEntity
  8
MAIN0
  6
HIDDEN
 62
3
100
AcDbLine
 10
247.1252283460331
 20
267.4494703775715
 30
0.0000000000000000
 11
246.8314783460331
 21
276.8494703775718
 31
0.0000000000000000
  0
LINE
  5
DB
100
AcDbEntity
  8
MAIN0
  6
HIDDEN
 62
3
100
AcDbLine
 10
246.8314783460330
 20
276.8494703775714
 30
0.0000000000000000
 11
234.2619783460332
 21
276.8494703775714
 31
0.0000000000000000
  0
LINE
  5
DC
100
AcDbEntity
  8
MAIN0
  6
HIDDEN
 62
3
100
AcDbLine
 10
245.9467283460331
 20
276.8494703775714
 30
0.0000000000000000
 11
245.9467283460331
 21
282.4494703775713
 31
0.0000000000000000
  0
LINE
  5
DD
100
AcDbEntity
  8
MAIN0
  6
HIDDEN
 62
3
100
AcDbLine
 10
245.9467283460331
 20
282.4494703775713
 30
0.0000000000000000
 11
235.1467283460331
 21
282.4494703775713
 31
0.0000000000000000
  0
LINE
  5
DE
100
AcDbEntity
  8
MAIN0
  6
HIDDEN
 62
3
100
AcDbLine
 10
240.5467283404956
 20
285.5671618318535
 30
0.0000000000000000
 11
245.9467283460332
 21
282.4494703750027
 31
0.0000000000000000
  0
LINE
  5
DF
100
AcDbEntity
  8
MAIN0
  6
HIDDEN
 62
3
100
AcDbLine
 10
240.5467283404952
 20
285.5671618318534
 30
0.0000000000000000
 11
235.1467283460331
 21
282.4494703814023
 31
0.0000000000000000
  0
LINE
  5
E0
100
AcDbEntity
  8
MAIN0
  6
CONTINUOUS
 62
3
100
AcDbLine
 10
255.8467283460327
 20
267.4494703775713
 30
0.0000000000000000
 11
225.2467283460442
 21
267.4494703775713
 31
0.0000000000000000
  0
LINE
  5
E1
100
AcDbEntity
  8
MAIN0
  6
CONTINUOUS
 62
3
100
AcDbLine
 10
263.9312938948636
 20
266.4494703775713
 30
0.0000000000000000
 11
255.8467283460323
 21
266.4494703775713
 31
0.0000000000000000
  0
LINE
  5
E2
100
AcDbEntity
  8
MAIN0
  6
CENTER
 62
3
100
AcDbLine
 10
240.5467283460332
 20
265.4471677481845
 30
0.0000000000000000
 11
240.5467283460332
 21
298.1995101438240
 31
0.0000000000000000
  0
LINE
  5
E3
100
AcDbEntity
  8
MAIN0
  6
CONTINUOUS
 62
3
100
AcDbLine
 10
278.8467283460321
 20
298.4494703775711
 30
0.0000000000000000
 11
314.4467283460326
 21
298.4494703775710
 31
0.0000000000000000
  0
LINE
  5
E4
100
AcDbEntity
  8
MAIN0
  6
CONTINUOUS
 62
3
100
AcDbLine
 10
199.5467283460323
 20
274.0494703775711
 30
0.0000000000000000
 11
199.5467283460323
 21
292.4494703775711
 31
0.0000000000000000
  0
LINE
  5
E5
100
AcDbEntity
  8
MAIN0
  6
CONTINUOUS
 62
3
100
AcDbLine
 10
182.0467283460497
 20
302.4494703775712
 30
0.0000000000000000
 11
182.0467283460497
 21
310.4494703775712
 31
0.0000000000000000
  0
LINE
  5
E6
100
AcDbEntity
  8
MAIN0
  6
CONTINUOUS
 62
3
100
AcDbLine
 10
199.0467283460326
 20
302.4494703775712
 30
0.0000000000000000
 11
182.0467283460496
 21
302.4494703775712
 31
0.0000000000000000
  0
LINE
  5
E7
100
AcDbEntity
  8
MAIN0
  6
CONTINUOUS
 62
3
100
AcDbLine
 10
199.0467283460326
 20
303.1260528775712
 30
0.0000000000000000
 11
182.0467283460496
 21
303.1260528775712
 31
0.0000000000000000
  0
LINE
  5
E8
100
AcDbEntity
  8
MAIN0
  6
CONTINUOUS
 62
3
100
AcDbLine
 10
199.0467283460326
 20
309.7728878775712
 30
0.0000000000000000
 11
182.0467283460496
 21
309.7728878775712
 31
0.0000000000000000
  0
LINE
  5
E9
100
AcDbEntity
  8
MAIN0
  6
CONTINUOUS
 62
3
100
AcDbLine
 10
182.0467283460496
 20
310.4494703775712
 30
0.0000000000000000
 11
199.0467283460326
 21
310.4494703775712
 31
0.0000000000000000
  0
LINE
  5
EA
100
AcDbEntity
  8
MAIN0
  6
CENTER
 62
3
100
AcDbLine
 10
178.0467283460498
 20
306.4494703772654
 30
0.0000000000000000
 11
204.0467283460326
 21
306.4494703773265
 31
0.0000000000000000
  0
LINE
  5
EB
100
AcDbEntity
  8
MAIN0
  6
CONTINUOUS
 62
3
100
AcDbLine
 10
278.8467283460320
 20
514.4494703775715
 30
0.0000000000000000
 11
314.4467283460324
 21
514.4494703775715
 31
0.0000000000000000
  0
LINE
  5
EC
100
AcDbEntity
  8
MAIN0
  6
CONTINUOUS
 62
3
100
AcDbLine
 10
316.0467283460326
 20
512.8494703775717
 30
0.0000000000000000
 11
314.4467283460326
 21
514.4494703775717
 31
0.0000000000000000
  0
LINE
  5
ED
100
AcDbEntity
  8
MAIN4
  6
CONTINUOUS
 62
3
100
AcDbLine
 10
199.0467283460325
 20
292.4494703775704
 30
0.0000000000000000
 11
199.0467283460325
 21
520.4494703775717
 31
0.0000000000000000
  0
LINE
  5
EE
100
AcDbEntity
  8
MAIN0
  6
CONTINUOUS
 62
3
100
AcDbLine
 10
263.9312938948625
 20
546.4494703775708
 30
0.0000000000000000
 11
255.8467283460323
 21
546.4494703775708
 31
0.0000000000000000
  0
LINE
  5
EF
100
AcDbEntity
  8
MAIN0
  6
CONTINUOUS
 62
3
100
AcDbLine
 10
255.8467283460327
 20
545.4494703775708
 30
0.0000000000000000
 11
225.2467283460329
 21
545.4494703775708
 31
0.0000000000000000
  0
LINE
  5
F0
100
AcDbEntity
  8
MAIN0
  6
CONTINUOUS
 62
3
100
AcDbLine
 10
199.0467283460321
 20
520.4494703775717
 30
0.0000000000000000
 11
199.5467283460321
 21
520.4494703775710
 31
0.0000000000000000
  0
LINE
  5
F1
100
AcDbEntity
  8
MAIN0
  6
CONTINUOUS
 62
3
100
AcDbLine
 10
199.5467283460323
 20
538.8494703775713
 30
0.0000000000000000
 11
199.5467283460323
 21
520.4494703775711
 31
0.0000000000000000
  0
LINE
  5
F2
100
AcDbEntity
  8
MAIN0
  6
CENTER
 62
3
100
AcDbLine
 10
240.5467283460332
 20
547.4517730069578
 30
0.0000000000000000
 11
240.5467283460332
 21
518.5772248254594
 31
0.0000000000000000
  0
LINE
  5
F3
100
AcDbEntity
  8
MAIN0
  6
HIDDEN
 62
3
100
AcDbLine
 10
244.9467283456625
 20
545.4494703775724
 30
0.0000000000000000
 11
243.9467283456627
 21
544.4494703775720
 31
0.0000000000000000
  0
LINE
  5
F4
100
AcDbEntity
  8
MAIN0
  6
HIDDEN
 62
3
100
AcDbLine
 10
243.9467283456623
 20
544.4494703775719
 30
0.0000000000000000
 11
237.1467283456624
 21
544.4494703775697
 31
0.0000000000000000
  0
LINE
  5
F5
100
AcDbEntity
  8
MAIN0
  6
HIDDEN
 62
3
100
AcDbLine
 10
237.1467283456624
 20
544.4494703775699
 30
0.0000000000000000
 11
236.1467283456621
 21
545.4494703775697
 31
0.0000000000000000
  0
LINE
  5
F6
100
AcDbEntity
  8
MAIN0
  6
HIDDEN
 62
3
100
AcDbLine
 10
244.5467283456622
 20
545.0494703775722
 30
0.0000000000000000
 11
244.5467283456658
 21
533.4494703775722
 31
0.0000000000000000
  0
LINE
  5
F7
100
AcDbEntity
  8
MAIN0
  6
HIDDEN
 62
3
100
AcDbLine
 10
244.5467283456660
 20
533.4494703775720
 30
0.0000000000000000
 11
236.5467283456660
 21
533.4494703775695
 31
0.0000000000000000
  0
LINE
  5
F8
100
AcDbEntity
  8
MAIN0
  6
HIDDEN
 62
3
100
AcDbLine
 10
236.5467283456658
 20
533.4494703775696
 30
0.0000000000000000
 11
236.5467283456622
 21
545.0494703775696
 31
0.0000000000000000
  0
LINE
  5
F9
100
AcDbEntity
  8
MAIN0
  6
HIDDEN
 62
3
100
AcDbLine
 10
243.9467283456624
 20
544.4494703775720
 30
0.0000000000000000
 11
243.9467283456674
 21
528.4494703775720
 31
0.0000000000000000
  0
LINE
  5
FA
100
AcDbEntity
  8
MAIN0
  6
HIDDEN
 62
3
100
AcDbLine
 10
243.9467283456679
 20
528.4494703775720
 30
0.0000000000000000
 11
237.1467283456679
 21
528.4494703775698
 31
0.0000000000000000
  0
LINE
  5
FB
100
AcDbEntity
  8
MAIN0
  6
HIDDEN
 62
3
100
AcDbLine
 10
237.1467283456672
 20
528.4494703775698
 30
0.0000000000000000
 11
237.1467283456622
 21
544.4494703775698
 31
0.0000000000000000
  0
LINE
  5
FC
100
AcDbEntity
  8
MAIN0
  6
HIDDEN
 62
3
100
AcDbLine
 10
243.9467283456679
 20
528.4494703775720
 30
0.0000000000000000
 11
240.5467283456685
 21
526.4864794623261
 31
0.0000000000000000
  0
LINE
  5
FD
100
AcDbEntity
  8
MAIN0
  6
HIDDEN
 62
3
100
AcDbLine
 10
240.5467283456680
 20
526.4864794623262
 30
0.0000000000000000
 11
237.1467283456674
 21
528.4494703775699
 31
0.0000000000000000
  0
DIMENSION
  5
107
100
AcDbEntity
  8
MAIN0
  6
CONTINUOUS
 62
3
100
AcDbDimension
  2
*D4
 10
199.0467283460325
 20
489.4916253916411
 30
0.0000000000000000
 11
203.1912168058976
 21
490.2416253916411
 31
0.0000000000000000
 70
160
  3
MAIN001
100
AcDbAlignedDimension
 13
207.0467283460325
 23
461.4494703775711
 33
0.0000000000000000
 14
199.0467283460325
 24
292.4494703775704
 34
0.0000000000000000
100
AcDbRotatedDimension
1001
ACAD
1000
DSTYLE
1002
{
1070
   173
1070
     1
1070
     6
1000
_OPEN
1070
     7
1000
_OPEN
1070
    41
1040
3.000000
1070
   287
1070
     0
1002
}
  0
LINE
  5
108
100
AcDbEntity
  8
MAIN0
  6
CENTER
 62
3
100
AcDbLine
 10
614.0364911795525
 20
434.9494703775702
 30
0.0000000000000000
 11
624.8618087268582
 21
428.6994703775704
 31
0.0000000000000000
  0
ARC
  5
109
100
AcDbEntity
  8
MAIN0
  6
CENTER
 62
3
100
AcDbCircle
 10
663.3999391952661
 20
406.4494703775712
 30
0.0000000000000000
 40
50.75000000000004
100
AcDbArc
 50
142.9424663396408
 51
157.0575336603615
  0
LINE
  5
10A
100
AcDbEntity
  8
MAIN0
  6
CENTER
 62
3
100
AcDbLine
 10
712.7633872109774
 20
434.9494703775743
 30
0.0000000000000000
 11
701.9380696636723
 21
428.6994703775736
 31
0.0000000000000000
  0
ARC
  5
10B
100
AcDbEntity
  8
MAIN0
  6
CENTER
 62
3
100
AcDbCircle
 10
663.3999391952661
 20
406.4494703775712
 30
0.0000000000000000
 40
50.75000000000004
100
AcDbArc
 50
22.94246633964328
 51
37.05753366036393
  0
ARC
  5
10C
100
AcDbEntity
  8
MAIN0
  6
CENTER
 62
3
100
AcDbCircle
 10
663.3999391952661
 20
406.4494703775712
 30
0.0000000000000000
 40
50.75000000000006
100
AcDbArc
 50
262.9424663396384
 51
277.0575336603616
  0
LINE
  5
10D
100
AcDbEntity
  8
MAIN0
  6
CENTER
 62
3
100
AcDbLine
 10
608.8999391930481
 20
312.0527013612256
 30
0.0000000000000000
 11
617.8999391930481
 21
327.6411586293456
 31
0.0000000000000000
  0
LINE
  5
10E
100
AcDbEntity
  8
MAIN0
  6
CONTINUOUS
 62
3
100
AcDbLine
 10
607.3377613685716
 20
323.3469299941058
 30
0.0000000000000000
 11
603.4513066719878
 21
316.6153929982762
 31
0.0000000000000000
  0
LINE
  5
10F
100
AcDbEntity
  8
MAIN0
  6
CONTINUOUS
 62
3
100
AcDbLine
 10
619.4621170199330
 20
316.3469299950522
 30
0.0000000000000000
 11
615.5756623234167
 21
309.6153929993831
 31
0.0000000000000000
  0
DIMENSION
  5
118
100
AcDbEntity
  8
MAIN0
  6
CONTINUOUS
 62
3
100
AcDbDimension
  2
*D5
 10
113.3999391952661
 20
546.4494703775708
 30
0.0000000000000000
 11
112.8999391952661
 21
406.4494703775711
 31
0.0000000000000000
 70
32
  1
\A1;\U+2205280
  3
MAIN001
100
AcDbAlignedDimension
 13
255.8467283460323
 23
266.4494703775713
 33
0.0000000000000000
 14
255.8467283460323
 24
546.4494703775708
 34
0.0000000000000000
 50
90.00000000000000
100
AcDbRotatedDimension
1001
ACAD
1000
DSTYLE
1002
{
1070
   173
1070
     1
1070
     6
1000
_OPEN
1070
     7
1000
_OPEN
1070
    41
1040
3.000000
1002
}
  0
LINE
  5
119
100
AcDbEntity
  8
MAIN0
  6
CENTER
 62
3
100
AcDbLine
 10
620.0039868924272
 20
264.4935715405401
 30
0.0000000000000000
 11
628.4593681064262
 21
296.0494838285474
 31
0.0000000000000000
  0
LINE
  5
11A
100
AcDbEntity
  8
MAIN0
  6
HIDDEN
 62
3
100
AcDbLine
 10
616.4834831399398
 20
276.7722448609899
 30
0.0000000000000000
 11
619.2001228753760
 21
285.7759195336082
 31
0.0000000000000000
  0
LINE
  5
11B
100
AcDbEntity
  8
MAIN0
  6
HIDDEN
 62
3
100
AcDbLine
 10
619.2001228753757
 20
285.7759195336083
 30
0.0000000000000000
 11
631.3413275489160
 21
282.5226935461923
 31
0.0000000000000000
  0
LINE
  5
11C
100
AcDbEntity
  8
MAIN0
  6
HIDDEN
 62
3
100
AcDbLine
 10
631.3413275489160
 20
282.5226935461923
 30
0.0000000000000000
 11
629.1921692364248
 21
273.3669626845763
 31
0.0000000000000000
  0
LINE
  5
11D
100
AcDbEntity
  8
MAIN0
  6
HIDDEN
 62
3
100
AcDbLine
 10
617.3103156472432
 20
276.5506957583821
 30
0.0000000000000000
 11
620.0269553826794
 21
285.5543704310005
 31
0.0000000000000000
  0
LINE
  5
11E
100
AcDbEntity
  8
MAIN0
  6
HIDDEN
 62
3
100
AcDbLine
 10
628.3653367291214
 20
273.5885117871839
 30
0.0000000000000000
 11
630.5144950416126
 21
282.7442426487999
 31
0.0000000000000000
  0
LINE
  5
11F
100
AcDbEntity
  8
MAIN0
  6
HIDDEN
 62
3
100
AcDbLine
 10
620.0547257501850
 20
285.5469293834539
 30
0.0000000000000000
 11
621.5041124027590
 21
290.9561140106726
 31
0.0000000000000000
  0
LINE
  5
120
100
AcDbEntity
  8
MAIN0
  6
HIDDEN
 62
3
100
AcDbLine
 10
631.9361113266809
 20
288.1608683235654
 30
0.0000000000000000
 11
630.4867246741069
 21
282.7516836963467
 31
0.0000000000000000
  0
LINE
  5
121
100
AcDbEntity
  8
MAIN0
  6
CENTER
 62
3
100
AcDbLine
 10
706.7958914981053
 20
264.4935715405402
 30
0.0000000000000000
 11
698.3405102841066
 21
296.0494838285473
 31
0.0000000000000000
  0
LINE
  5
122
100
AcDbEntity
  8
MAIN0
  6
HIDDEN
 62
3
100
AcDbLine
 10
710.3163952505928
 20
276.7722448609901
 30
0.0000000000000000
 11
707.5997555151566
 21
285.7759195336085
 31
0.0000000000000000
  0
LINE
  5
123
100
AcDbEntity
  8
MAIN0
  6
HIDDEN
 62
3
100
AcDbLine
 10
707.5997555151566
 20
285.7759195336084
 30
0.0000000000000000
 11
695.4585508416163
 21
282.5226935461923
 31
0.0000000000000000
  0
LINE
  5
124
100
AcDbEntity
  8
MAIN0
  6
HIDDEN
 62
3
100
AcDbLine
 10
695.4585508416163
 20
282.5226935461925
 30
0.0000000000000000
 11
697.6077091541076
 21
273.3669626845763
 31
0.0000000000000000
  0
LINE
  5
125
100
AcDbEntity
  8
MAIN0
  6
HIDDEN
 62
3
100
AcDbLine
 10
709.4895627432894
 20
276.5506957583822
 30
0.0000000000000000
 11
706.7729230078533
 21
285.5543704310007
 31
0.0000000000000000
  0
LINE
  5
126
100
AcDbEntity
  8
MAIN0
  6
HIDDEN
 62
3
100
AcDbLine
 10
698.4345416614110
 20
273.5885117871841
 30
0.0000000000000000
 11
696.2853833489197
 21
282.7442426488001
 31
0.0000000000000000
  0
LINE
  5
127
100
AcDbEntity
  8
MAIN0
  6
HIDDEN
 62
3
100
AcDbLine
 10
706.7451526403477
 20
285.5469293834540
 30
0.0000000000000000
 11
705.2957659877735
 21
290.9561140106728
 31
0.0000000000000000
  0
LINE
  5
128
100
AcDbEntity
  8
MAIN0
  6
HIDDEN
 62
3
100
AcDbLine
 10
694.8637670638516
 20
288.1608683235656
 30
0.0000000000000000
 11
696.3131537164258
 21
282.7516836963469
 31
0.0000000000000000
  0
LEADER
  5
129
100
AcDbEntity
  8
MAIN0
  6
CONTINUOUS
 62
3
100
AcDbLeader
  3
MAIN001
 73
     0
 75
     1
 40
4.649999856948853
 41
28.72400085830680
 76
     3
 10
617.8756145013448
 20
281.3861425803456
 30
0.0000000000000000
 10
597.5874083290055
 20
247.4494703775712
 30
0.0000000000000000
 10
594.6974084126904
 20
247.4494703775712
 30
0.0000000000000000
340
12A
213
0.0000000000000000
223
-0.7500000000000000
233
0.0000000000000000
1001
ACAD
1000
DSTYLE
1002
{
1070
   147
1040
0.0
1070
    77
1070
     1
1070
   173
1070
     1
1070
     6
1000
_OPEN
1070
     7
1000
_OPEN
1002
}
  0
MTEXT
  5
12A
102
{ACAD_REACTORS
330
129
102
}
100
AcDbEntity
  8
MAIN0
  6
CONTINUOUS
 62
3
100
AcDbMText
 10
565.9734075543836
 20
252.8494702345201
 30
0.0000000000000000
 40
4.649999856948853
 41
0.0000000000000000
 71
     1
 72
     1
  1
{\H0.92x;{2-Rc1/4}}
 11
1.000000000000000
 21
0.0000000000000000
 31
0.0000000000000000
  7
STANDARD
  0
LINE
  5
12B
100
AcDbEntity
  8
MAIN0
  6
HIDDEN
 62
3
100
AcDbLine
 10
524.4674744882522
 20
410.7819350842136
 30
0.0000000000000000
 11
525.3999391952654
 21
409.8494703772009
 31
0.0000000000000000
  0
LINE
  5
12C
100
AcDbEntity
  8
MAIN0
  6
HIDDEN
 62
3
100
AcDbLine
 10
525.3999391952656
 20
409.8494703772008
 30
0.0000000000000000
 11
525.3999391952677
 21
403.0494703772009
 31
0.0000000000000000
  0
LINE
  5
12D
100
AcDbEntity
  8
MAIN0
  6
HIDDEN
 62
3
100
AcDbLine
 10
525.3999391952676
 20
403.0494703772007
 30
0.0000000000000000
 11
524.4674744882746
 21
402.1170056702071
 31
0.0000000000000000
  0
LINE
  5
12E
100
AcDbEntity
  8
MAIN0
  6
HIDDEN
 62
3
100
AcDbLine
 10
524.7999391952651
 20
410.4494703772006
 30
0.0000000000000000
 11
536.3999391952651
 21
410.4494703772041
 31
0.0000000000000000
  0
LINE
  5
12F
100
AcDbEntity
  8
MAIN0
  6
HIDDEN
 62
3
100
AcDbLine
 10
536.3999391952654
 20
410.4494703772041
 30
0.0000000000000000
 11
536.3999391952679
 21
402.4494703772041
 31
0.0000000000000000
  0
LINE
  5
130
100
AcDbEntity
  8
MAIN0
  6
HIDDEN
 62
3
100
AcDbLine
 10
536.3999391952677
 20
402.4494703772041
 30
0.0000000000000000
 11
524.7999391952677
 21
402.4494703772006
 31
0.0000000000000000
  0
LINE
  5
131
100
AcDbEntity
  8
MAIN0
  6
HIDDEN
 62
3
100
AcDbLine
 10
525.3999391952655
 20
409.8494703772005
 30
0.0000000000000000
 11
541.3999391952655
 21
409.8494703772055
 31
0.0000000000000000
  0
LINE
  5
132
100
AcDbEntity
  8
MAIN0
  6
HIDDEN
 62
3
100
AcDbLine
 10
541.3999391952655
 20
409.8494703772062
 30
0.0000000000000000
 11
541.3999391952676
 21
403.0494703772060
 31
0.0000000000000000
  0
LINE
  5
133
100
AcDbEntity
  8
MAIN0
  6
HIDDEN
 62
3
100
AcDbLine
 10
541.3999391952677
 20
403.0494703772056
 30
0.0000000000000000
 11
525.3999391952676
 21
403.0494703772006
 31
0.0000000000000000
  0
LINE
  5
134
100
AcDbEntity
  8
MAIN0
  6
HIDDEN
 62
3
100
AcDbLine
 10
541.3999391952654
 20
409.8494703772062
 30
0.0000000000000000
 11
543.3629301105111
 21
406.4494703772068
 31
0.0000000000000000
  0
LINE
  5
135
100
AcDbEntity
  8
MAIN0
  6
HIDDEN
 62
3
100
AcDbLine
 10
543.3629301105112
 20
406.4494703772065
 30
0.0000000000000000
 11
541.3999391952675
 21
403.0494703772059
 31
0.0000000000000000
  0
SPLINE
  5
136
100
AcDbEntity
  8
MAIN4
  6
CONTINUOUS
 62
3
100
AcDbSpline
210
0.0000000000000000
220
0.0000000000000000
230
1.000000000000000
 70
     8
 71
     3
 72
    10
 73
     6
 74
     0
 42
1.000000000000000e-007
 43
1.000000000000000e-007
 12
0.8676722831080355
 22
0.8381441713434015
 32
0.0000000000000000
 13
0.9331404577695821
 23
0.02206296159113208
 33
0.0000000000000000
 40
0.0000000000000000
 40
0.0000000000000000
 40
0.0000000000000000
 40
0.0000000000000000
 40
3.387635668128331
 40
6.637565489255527
 40
7.100682518605226
 40
7.100682518605226
 40
7.100682518605226
 40
7.100682518605226
 10
128.5130038781402
 20
149.5033587057067
 30
0.0000000000000000
 10
129.4927897363079
 20
150.4498010689989
 30
0.0000000000000000
 10
131.4125336037549
 20
152.3042133445755
 30
0.0000000000000000
 10
133.3970229486549
 20
149.6630665294611
 30
0.0000000000000000
 10
134.5409455275362
 20
149.5580954152903
 30
0.0000000000000000
 10
134.6849966064590
 20
149.5615013263672
 30
0.0000000000000000
  0
LINE
  5
137
100
AcDbEntity
  8
MAIN4
  6
CONTINUOUS
 62
3
100
AcDbLine
 10
134.6849966064590
 20
149.5615013263673
 30
0.0000000000000000
 11
134.6849966064590
 21
157.2236260712509
 31
0.0000000000000000
  0
LINE
  5
138
100
AcDbEntity
  8
MAIN0
  6
CONTINUOUS
 62
3
100
AcDbLine
 10
93.34345551839454
 20
103.8390186636141
 30
0.0000000000000000
 11
171.7180097284881
 21
103.8390186636141
 31
0.0000000000000000
  0
DIMENSION
  5
142
100
AcDbEntity
  8
MAIN0
  6
CONTINUOUS
 62
3
100
AcDbDimension
  2
*D6
 10
134.6849966064590
 20
129.2236260712507
 30
0.0000000000000000
 11
128.3224119726522
 21
129.9736260712507
 31
0.0000000000000000
 70
160
  3
MAIN001
100
AcDbAlignedDimension
 13
139.6849966064590
 23
157.9741814211959
 33
0.0000000000000000
 14
134.6849966064590
 24
149.5615013263672
 34
0.0000000000000000
100
AcDbRotatedDimension
1001
ACAD
1000
DSTYLE
1002
{
1070
   173
1070
     1
1070
     6
1000
_DOT
1070
     7
1000
_OPEN
1070
    41
1040
3.000000
1070
   287
1070
     0
1002
}
  0
DIMENSION
  5
14C
100
AcDbEntity
  8
MAIN0
  6
CONTINUOUS
 62
3
100
AcDbDimension
  2
*D7
 10
139.6849966064590
 20
129.2236260712507
 30
0.0000000000000000
 11
149.8308471841702
 21
129.9736260712507
 31
0.0000000000000000
 70
160
  3
MAIN001
100
AcDbAlignedDimension
 13
142.6849966064590
 23
167.7236260712505
 33
0.0000000000000000
 14
139.6849966064590
 24
157.9741814211959
 34
0.0000000000000000
100
AcDbRotatedDimension
1001
ACAD
1000
DSTYLE
1002
{
1070
   173
1070
     1
1070
     6
1000
_OPEN
1070
     7
1000
_DOT
1070
    41
1040
3.000000
1070
   287
1070
     0
1002
}
  0
LINE
  5
14D
100
AcDbEntity
  8
MAIN0
  6
CENTER
 62
3
100
AcDbLine
 10
192.7152100537993
 20
406.4494703775712
 30
0.0000000000000000
 11
244.8967284890846
 21
406.4494703775712
 31
0.0000000000000000
  0
LINE
  5
14E
100
AcDbEntity
  8
MAIN0
  6
CENTER
 62
3
100
AcDbLine
 10
254.0467283460334
 20
406.4494703775712
 30
0.0000000000000000
 11
340.0982917479257
 21
406.4494703775712
 31
0.0000000000000000
  0
DIMENSION
  5
157
100
AcDbEntity
  8
MAIN0
  6
CONTINUOUS
 62
3
100
AcDbDimension
  2
*D8
 10
182.0467283460497
 20
283.4494703775712
 30
0.0000000000000000
 11
190.5467283460411
 21
283.9494703775712
 31
0.0000000000000000
 70
32
  3
MAIN001
100
AcDbAlignedDimension
 13
199.0467283460325
 23
292.4494703775704
 33
0.0000000000000000
 14
182.0467283460497
 24
302.4494703775712
 34
0.0000000000000000
100
AcDbRotatedDimension
1001
ACAD
1000
DSTYLE
1002
{
1070
   173
1070
     1
1070
     6
1000
_OPEN
1070
     7
1000
_OPEN
1070
    41
1040
3.000000
1002
}
  0
ARC
  5
158
100
AcDbEntity
  8
MAIN0
  6
CENTER
 62
3
100
AcDbCircle
 10
663.3999391952661
 20
406.4494703775712
 30
0.0000000000000000
 40
84.50000000000101
100
AcDbArc
 50
259.9357931758183
 51
279.7702337915717
  0
LINE
  5
159
100
AcDbEntity
  8
MAIN0
  6
CENTER
 62
3
100
AcDbLine
 10
663.3999391952661
 20
258.4494703775715
 30
0.0000000000000000
 11
663.3999391952661
 21
554.4494703775708
 31
0.0000000000000000
  0
LINE
  5
15A
100
AcDbEntity
  8
MAIN0
  6
CENTER
 62
3
100
AcDbLine
 10
689.5854879978814
 20
315.1296092634296
 30
0.0000000000000000
 11
683.7971035257242
 21
335.3161048781349
 31
0.0000000000000000
  0
ARC
  5
15B
100
AcDbEntity
  8
MAIN0
  6
CENTER
 62
3
100
AcDbCircle
 10
663.3999391952661
 20
406.4494703775712
 30
0.0000000000000000
 40
84.50000000000101
100
AcDbArc
 50
280.9129050376194
 51
293.1212646492354
  0
LINE
  5
15C
100
AcDbEntity
  8
MAIN4
  6
CENTER
 62
3
100
AcDbLine
 10
760.4754847373046
 20
432.4607844104228
 30
0.0000000000000000
 11
740.1910423852369
 21
427.0255844632598
 31
0.0000000000000000
  0
ARC
  5
15D
100
AcDbEntity
  8
MAIN4
  6
CENTER
 62
3
100
AcDbCircle
 10
663.3999391952661
 20
406.4494703775712
 30
0.0000000000000000
 40
90.00000000000000
100
AcDbArc
 50
8.314109756388188
 51
21.68589024366878
  0
LINE
  5
15E
100
AcDbEntity
  8
MAIN0
  6
CONTINUOUS
 62
3
100
AcDbLine
 10
270.8467283460320
 20
285.4494703775713
 30
0.0000000000000000
 11
277.8467283460321
 21
285.4494703775713
 31
0.0000000000000000
  0
LINE
  5
15F
100
AcDbEntity
  8
MAIN0
  6
CONTINUOUS
 62
3
100
AcDbLine
 10
277.8467283460324
 20
285.4494703775715
 30
0.0000000000000000
 11
278.8467283460320
 21
286.4494703775709
 31
0.0000000000000000
  0
LINE
  5
160
100
AcDbEntity
  8
MAIN0
  6
CONTINUOUS
 62
3
100
AcDbLine
 10
270.8467283460321
 20
285.4494703775690
 30
0.0000000000000000
 11
263.9312938948637
 21
266.4494703775713
 31
0.0000000000000000
  0
LINE
  5
161
100
AcDbEntity
  8
MAIN0
  6
CONTINUOUS
 62
3
100
AcDbLine
 10
270.8467283460318
 20
527.4494703775710
 30
0.0000000000000000
 11
277.8467283460318
 21
527.4494703775710
 31
0.0000000000000000
  0
LINE
  5
162
100
AcDbEntity
  8
MAIN0
  6
CONTINUOUS
 62
3
100
AcDbLine
 10
277.8467283460323
 20
527.4494703775707
 30
0.0000000000000000
 11
278.8467283460321
 21
526.4494703775712
 31
0.0000000000000000
  0
LINE
  5
163
100
AcDbEntity
  8
MAIN0
  6
CONTINUOUS
 62
3
100
AcDbLine
 10
270.8467283460319
 20
527.4494703775705
 30
0.0000000000000000
 11
263.9312938948625
 21
546.4494703775708
 31
0.0000000000000000
  0
LINE
  5
164
100
AcDbEntity
  8
MAIN0
  6
CONTINUOUS
 62
3
100
AcDbLine
 10
200.1467283460320
 20
273.4494703775713
 30
0.0000000000000000
 11
199.5467283460322
 21
274.0494703775712
 31
0.0000000000000000
  0
LINE
  5
165
100
AcDbEntity
  8
MAIN0
  6
CONTINUOUS
 62
3
100
AcDbLine
 10
200.1467283460315
 20
273.4494703775713
 30
0.0000000000000000
 11
218.0467283460344
 21
273.4494703775713
 31
0.0000000000000000
  0
LINE
  5
166
100
AcDbEntity
  8
MAIN0
  6
CONTINUOUS
 62
3
100
AcDbLine
 10
200.1467283460320
 20
539.4494703775711
 30
0.0000000000000000
 11
199.5467283460322
 21
538.8494703775712
 31
0.0000000000000000
  0
LINE
  5
167
100
AcDbEntity
  8
MAIN0
  6
CONTINUOUS
 62
3
100
AcDbLine
 10
200.1467283460315
 20
539.4494703775711
 30
0.0000000000000000
 11
218.0467283460346
 21
539.4494703775711
 31
0.0000000000000000
  0
CIRCLE
  5
168
100
AcDbEntity
  8
MAIN0
  6
CONTINUOUS
 62
3
100
AcDbCircle
 10
640.1085826287294
 20
325.2228570707823
 30
0.0000000000000000
 40
7.500000000000256
  0
CIRCLE
  5
169
100
AcDbEntity
  8
MAIN0
  6
CONTINUOUS
 62
3
100
AcDbCircle
 10
640.1085826287294
 20
325.2228570707823
 30
0.0000000000000000
 40
7.000000000000000
  0
LINE
  5
16A
100
AcDbEntity
  8
MAIN0
  6
CONTINUOUS
 62
3
100
AcDbLine
 10
642.1138886146280
 20
323.1463019339620
 30
0.0000000000000000
 11
642.9095851225243
 21
325.9212254285208
 31
0.0000000000000000
  0
LINE
  5
16B
100
AcDbEntity
  8
MAIN0
  6
CONTINUOUS
 62
3
100
AcDbLine
 10
637.3075801349354
 20
324.5244887130433
 30
0.0000000000000000
 11
638.1032766428317
 21
327.2994122076024
 31
0.0000000000000000
  0
LINE
  5
16C
100
AcDbEntity
  8
MAIN0
  6
CONTINUOUS
 62
3
100
AcDbLine
 10
639.3128861208331
 20
322.4479335762232
 30
0.0000000000000000
 11
642.1138886146277
 21
323.1463019339620
 31
0.0000000000000000
  0
LINE
  5
16D
100
AcDbEntity
  8
MAIN0
  6
CONTINUOUS
 62
3
100
AcDbLine
 10
638.1032766428311
 20
327.2994122076025
 30
0.0000000000000000
 11
640.9042791366254
 21
327.9977805653412
 31
0.0000000000000000
  0
LINE
  5
16E
100
AcDbEntity
  8
MAIN0
  6
CONTINUOUS
 62
3
100
AcDbLine
 10
637.3075801349349
 20
324.5244887130436
 30
0.0000000000000000
 11
639.3128861208331
 21
322.4479335762235
 31
0.0000000000000000
  0
LINE
  5
16F
100
AcDbEntity
  8
MAIN0
  6
CONTINUOUS
 62
3
100
AcDbLine
 10
640.9042791366255
 20
327.9977805653412
 30
0.0000000000000000
 11
642.9095851225241
 21
325.9212254285206
 31
0.0000000000000000
  0
LINE
  5
170
100
AcDbEntity
  8
MAIN0
  6
CENTER
 62
3
100
AcDbLine
 10
637.2143903926509
 20
315.1296092634296
 30
0.0000000000000000
 11
643.0027748648080
 21
335.3161048781349
 31
0.0000000000000000
  0
ARC
  5
171
100
AcDbEntity
  8
MAIN0
  6
CENTER
 62
3
100
AcDbCircle
 10
663.3999391952661
 20
406.4494703775712
 30
0.0000000000000000
 40
84.50000000000101
100
AcDbArc
 50
246.8787353507646
 51
259.0870949623806
  0
ELLIPSE
  5
172
100
AcDbEntity
  8
MAIN0
  6
CONTINUOUS
 62
3
100
AcDbEllipse
 10
663.3999391952993
 20
285.4494703775704
 30
0.0000000000000000
 11
0.0000000000000000
 21
-5.494954838488525
 31
0.0000000000000000
210
0.0000000000000000
220
0.0000000000000000
230
1.000000000000000
 40
0.5459461524300121
 41
4.706518180350063
 42
1.576667126829524
  0
ELLIPSE
  5
173
100
AcDbEntity
  8
MAIN0
  6
CONTINUOUS
 62
3
100
AcDbEllipse
 10
663.3999391952661
 20
264.9494703775704
 30
0.0000000000000000
 11
0.0000000000000000
 21
-9.510090322699412
 31
0.0000000000000000
210
0.0000000000000000
220
0.0000000000000000
230
1.000000000000000
 40
0.3154544171719768
 41
1.732520216593397
 42
4.550665090586190
  0
MTEXT
  5
174
100
AcDbEntity
  8
MAIN0
  6
CONTINUOUS
 62
3
100
AcDbMText
 10
306.5161907145056
 20
549.6863434299445
 30
0.0000000000000000
 40
7.500000000000000
 41
0.0000000000000000
 71
     1
 72
     1
  1
{\H0.82x;{C}}
 11
1.000000000000000
 21
0.0000000000000000
 31
0.0000000000000000
  7
STANDARD
  0
INSERT
  5
17B
100
AcDbEntity
  8
MAIN0
  6
CONTINUOUS
 62
2
100
AcDbBlockReference
  2
M0
 10
0.0000000000000000
 20
0.0000000000000000
 30
0.0000000000000000
 50
0.0000000000000000
  0
INSERT
  5
183
100
AcDbEntity
  8
MAIN0
  6
CONTINUOUS
 62
3
100
AcDbBlockReference
  2
D9
 10
340.0982917479257
 20
406.4494703775712
 30
0.0000000000000000
 50
0.0000000000000000
  0
INSERT
  5
18B
100
AcDbEntity
  8
MAIN0
  6
CONTINUOUS
 62
3
100
AcDbBlockReference
  2
D10
 10
192.7152100537993
 20
406.4494703775712
 30
0.0000000000000000
 50
0.0000000000000000
  0
DIMENSION
  5
194
100
AcDbEntity
  8
MAIN0
  6
CONTINUOUS
 62
3
100
AcDbDimension
  2
*D11
 10
663.3999391952661
 20
258.4494703775715
 30
0.0000000000000000
 11
640.1010138839871
 21
249.4765626223467
 31
0.0000000000000000
 70
162
  3
MAIN001
100
AcDb2LineAngularDimension
 13
620.0039868924272
 23
264.4935715405401
 33
0.0000000000000000
 14
620.2628059375297
 24
265.4594973668292
 34
0.0000000000000000
 15
663.3999391952661
 25
259.4494703775715
 35
0.0000000000000000
 16
640.0357507878771
 26
248.9808401916595
 36
0.0000000000000000
1001
ACAD
1000
DSTYLE
1002
{
1070
   173
1070
     1
1070
     6
1000
_OPEN
1070
     7
1000
_OPEN
1070
    41
1040
3.000000
1002
}
  0
DIMENSION
  5
19D
100
AcDbEntity
  8
MAIN0
  6
CONTINUOUS
 62
3
100
AcDbDimension
  2
*D12
 10
706.7958914981053
 20
264.4935715405402
 30
0.0000000000000000
 11
686.6988645065453
 21
249.4765626223467
 31
0.0000000000000000
 70
162
  3
MAIN001
100
AcDb2LineAngularDimension
 13
663.3999391952661
 23
258.4494703775715
 33
0.0000000000000000
 14
663.3999391952661
 24
259.4494703775715
 34
0.0000000000000000
 15
706.5370724530028
 25
265.4594973668293
 35
0.0000000000000000
 16
686.7641276026553
 26
248.9808401916595
 36
0.0000000000000000
1001
ACAD
1000
DSTYLE
1002
{
1070
   173
1070
     1
1070
     6
1000
_OPEN
1070
     7
1000
_OPEN
1070
    41
1040
3.000000
1002
}
  0
CIRCLE
  5
19E
100
AcDbEntity
  8
MAIN0
  6
CONTINUOUS
 62
3
100
AcDbCircle
 10
663.3999391952661
 20
406.4494703775712
 30
0.0000000000000000
 40
120.9999999999997
  0
ARC
  5
19F
100
AcDbEntity
  8
MAIN0
  6
CONTINUOUS
 62
3
100
AcDbCircle
 10
663.3999391952661
 20
406.4494703775712
 30
0.0000000000000000
 40
108.0000000000010
100
AcDbArc
 50
99.32515295522171
 51
440.6748470447783
  0
ARC
  5
1A0
100
AcDbEntity
  8
MAIN0
  6
CENTER
 62
3
100
AcDbCircle
 10
663.3999391952661
 20
406.4494703775712
 30
0.0000000000000000
 40
100.0000000044361
100
AcDbArc
 50
234.7904483793909
 51
245.2095516206092
  0
CIRCLE
  5
1A1
100
AcDbEntity
  8
MAIN0
  6
CONTINUOUS
 62
3
100
AcDbCircle
 10
713.3999391974841
 20
319.8469299952855
 30
0.0000000000000000
 40
6.500000000000000
  0
LINE
  5
1A2
100
AcDbEntity
  8
MAIN0
  6
CONTINUOUS
 62
3
100
AcDbLine
 10
711.6678883899151
 20
322.8469299952856
 30
0.0000000000000000
 11
709.9358375823463
 21
319.8469299952856
 31
0.0000000000000000
  0
LINE
  5
1A3
100
AcDbEntity
  8
MAIN0
  6
CONTINUOUS
 62
3
100
AcDbLine
 10
709.9358375823464
 20
319.8469299952855
 30
0.0000000000000000
 11
711.6678883899152
 21
316.8469299952856
 31
0.0000000000000000
  0
LINE
  5
1A4
100
AcDbEntity
  8
MAIN0
  6
CONTINUOUS
 62
3
100
AcDbLine
 10
711.6678883899152
 20
316.8469299952856
 30
0.0000000000000000
 11
715.1319900050530
 21
316.8469299952856
 31
0.0000000000000000
  0
LINE
  5
1A5
100
AcDbEntity
  8
MAIN0
  6
CONTINUOUS
 62
3
100
AcDbLine
 10
715.1319900050529
 20
316.8469299952855
 30
0.0000000000000000
 11
716.8640408126217
 21
319.8469299952856
 31
0.0000000000000000
  0
LINE
  5
1A6
100
AcDbEntity
  8
MAIN0
  6
CONTINUOUS
 62
3
100
AcDbLine
 10
716.8640408126219
 20
319.8469299952856
 30
0.0000000000000000
 11
715.1319900050530
 21
322.8469299952855
 31
0.0000000000000000
  0
LINE
  5
1A7
100
AcDbEntity
  8
MAIN0
  6
CONTINUOUS
 62
3
100
AcDbLine
 10
715.1319900050530
 20
322.8469299952856
 30
0.0000000000000000
 11
711.6678883899152
 21
322.8469299952856
 31
0.0000000000000000
  0
ARC
  5
1A8
100
AcDbEntity
  8
MAIN0
  6
CONTINUOUS
 62
3
100
AcDbCircle
 10
713.3999391974841
 20
319.8469299952855
 30
0.0000000000000000
 40
7.000000000000000
100
AcDbArc
 50
29.99999999995692
 51
210.0000000001190
  0
LINE
  5
1A9
100
AcDbEntity
  8
MAIN0
  6
CENTER
 62
3
100
AcDbLine
 10
717.8999391974841
 20
312.0527013612255
 30
0.0000000000000000
 11
708.8999391974841
 21
327.6411586293455
 31
0.0000000000000000
  0
LINE
  5
1AA
100
AcDbEntity
  8
MAIN0
  6
CONTINUOUS
 62
3
100
AcDbLine
 10
707.3377613730220
 20
316.3469299964403
 30
0.0000000000000000
 11
711.2242160696333
 21
309.6153930006266
 31
0.0000000000000000
  0
LINE
  5
1AB
100
AcDbEntity
  8
MAIN0
  6
CONTINUOUS
 62
3
100
AcDbLine
 10
719.4621170243742
 20
323.3469299955098
 30
0.0000000000000000
 11
723.3485717208803
 21
316.6153929998349
 31
0.0000000000000000
  0
ARC
  5
1AC
100
AcDbEntity
  8
MAIN0
  6
CENTER
 62
3
100
AcDbCircle
 10
663.3999391952661
 20
406.4494703775712
 30
0.0000000000000000
 40
100.0000000044361
100
AcDbArc
 50
294.7904483793909
 51
305.2095516206091
  0
CIRCLE
  5
1AD
100
AcDbEntity
  8
MAIN0
  6
CONTINUOUS
 62
3
100
AcDbCircle
 10
763.3999391997022
 20
406.4494703775710
 30
0.0000000000000000
 40
6.500000000000000
  0
LINE
  5
1AE
100
AcDbEntity
  8
MAIN0
  6
CONTINUOUS
 62
3
100
AcDbLine
 10
759.9358375845644
 20
406.4494703775710
 30
0.0000000000000000
 11
761.6678883921334
 21
403.4494703775710
 31
0.0000000000000000
  0
LINE
  5
1AF
100
AcDbEntity
  8
MAIN0
  6
CONTINUOUS
 62
3
100
AcDbLine
 10
761.6678883921334
 20
403.4494703775710
 30
0.0000000000000000
 11
765.1319900072710
 21
403.4494703775710
 31
0.0000000000000000
  0
LINE
  5
1B0
100
AcDbEntity
  8
MAIN0
  6
CONTINUOUS
 62
3
100
AcDbLine
 10
765.1319900072710
 20
403.4494703775710
 30
0.0000000000000000
 11
766.8640408148400
 21
406.4494703775710
 31
0.0000000000000000
  0
LINE
  5
1B1
100
AcDbEntity
  8
MAIN0
  6
CONTINUOUS
 62
3
100
AcDbLine
 10
766.8640408148400
 20
406.4494703775710
 30
0.0000000000000000
 11
765.1319900072710
 21
409.4494703775710
 31
0.0000000000000000
  0
LINE
  5
1B2
100
AcDbEntity
  8
MAIN0
  6
CONTINUOUS
 62
3
100
AcDbLine
 10
765.1319900072710
 20
409.4494703775710
 30
0.0000000000000000
 11
761.6678883921334
 21
409.4494703775711
 31
0.0000000000000000
  0
LINE
  5
1B3
100
AcDbEntity
  8
MAIN0
  6
CONTINUOUS
 62
3
100
AcDbLine
 10
761.6678883921334
 20
409.4494703775710
 30
0.0000000000000000
 11
759.9358375845644
 21
406.4494703775710
 31
0.0000000000000000
  0
ARC
  5
1B4
100
AcDbEntity
  8
MAIN0
  6
CONTINUOUS
 62
3
100
AcDbCircle
 10
763.3999391997022
 20
406.4494703775710
 30
0.0000000000000000
 40
7.000000000000000
100
AcDbArc
 50
89.99999999995687
 51
270.0000000001190
  0
LINE
  5
1B5
100
AcDbEntity
  8
MAIN0
  6
CONTINUOUS
 62
3
100
AcDbLine
 10
763.3999391997165
 20
399.4494703799055
 30
0.0000000000000000
 11
771.1728485929117
 21
399.4494703799214
 31
0.0000000000000000
  0
LINE
  5
1B6
100
AcDbEntity
  8
MAIN0
  6
CONTINUOUS
 62
3
100
AcDbLine
 10
763.3999391997074
 20
413.4494703780287
 30
0.0000000000000000
 11
771.1728485927298
 21
413.4494703780229
 31
0.0000000000000000
  0
ARC
  5
1B7
100
AcDbEntity
  8
MAIN0
  6
CENTER
 62
3
100
AcDbCircle
 10
663.3999391952661
 20
406.4494703775712
 30
0.0000000000000000
 40
100.0000000044361
100
AcDbArc
 50
354.7904483793908
 51
365.2095516206090
  0
CIRCLE
  5
1B8
100
AcDbEntity
  8
MAIN0
  6
CONTINUOUS
 62
3
100
AcDbCircle
 10
713.3999391974844
 20
493.0520107598567
 30
0.0000000000000000
 40
6.500000000000000
  0
LINE
  5
1B9
100
AcDbEntity
  8
MAIN0
  6
CONTINUOUS
 62
3
100
AcDbLine
 10
711.6678883899156
 20
490.0520107598566
 30
0.0000000000000000
 11
715.1319900050534
 21
490.0520107598566
 31
0.0000000000000000
  0
LINE
  5
1BA
100
AcDbEntity
  8
MAIN0
  6
CONTINUOUS
 62
3
100
AcDbLine
 10
715.1319900050532
 20
490.0520107598567
 30
0.0000000000000000
 11
716.8640408126221
 21
493.0520107598566
 31
0.0000000000000000
  0
LINE
  5
1BB
100
AcDbEntity
  8
MAIN0
  6
CONTINUOUS
 62
3
100
AcDbLine
 10
716.8640408126221
 20
493.0520107598566
 30
0.0000000000000000
 11
715.1319900050532
 21
496.0520107598567
 31
0.0000000000000000
  0
LINE
  5
1BC
100
AcDbEntity
  8
MAIN0
  6
CONTINUOUS
 62
3
100
AcDbLine
 10
715.1319900050534
 20
496.0520107598566
 30
0.0000000000000000
 11
711.6678883899156
 21
496.0520107598566
 31
0.0000000000000000
  0
LINE
  5
1BD
100
AcDbEntity
  8
MAIN0
  6
CONTINUOUS
 62
3
100
AcDbLine
 10
711.6678883899156
 20
496.0520107598566
 30
0.0000000000000000
 11
709.9358375823466
 21
493.0520107598567
 31
0.0000000000000000
  0
LINE
  5
1BE
100
AcDbEntity
  8
MAIN0
  6
CONTINUOUS
 62
3
100
AcDbLine
 10
709.9358375823466
 20
493.0520107598567
 30
0.0000000000000000
 11
711.6678883899155
 21
490.0520107598566
 31
0.0000000000000000
  0
ARC
  5
1BF
100
AcDbEntity
  8
MAIN0
  6
CONTINUOUS
 62
3
100
AcDbCircle
 10
713.3999391974844
 20
493.0520107598567
 30
0.0000000000000000
 40
7.000000000000000
100
AcDbArc
 50
149.9999999999568
 51
330.0000000001189
  0
LINE
  5
1C0
100
AcDbEntity
  8
MAIN0
  6
CENTER
 62
3
100
AcDbLine
 10
717.8999391974844
 20
500.8462393939166
 30
0.0000000000000000
 11
708.8999391974844
 21
485.2577821257966
 31
0.0000000000000000
  0
LINE
  5
1C1
100
AcDbEntity
  8
MAIN0
  6
CONTINUOUS
 62
3
100
AcDbLine
 10
719.4621170219610
 20
489.5520107610363
 30
0.0000000000000000
 11
723.3485717185447
 21
496.2835477568659
 31
0.0000000000000000
  0
LINE
  5
1C2
100
AcDbEntity
  8
MAIN0
  6
CONTINUOUS
 62
3
100
AcDbLine
 10
707.3377613705995
 20
496.5520107600901
 30
0.0000000000000000
 11
711.2242160671158
 21
503.2835477557592
 31
0.0000000000000000
  0
ARC
  5
1C3
100
AcDbEntity
  8
MAIN0
  6
CENTER
 62
3
100
AcDbCircle
 10
663.3999391952661
 20
406.4494703775712
 30
0.0000000000000000
 40
100.0000000044361
100
AcDbArc
 50
54.79044837939070
 51
65.20955162060896
  0
CIRCLE
  5
1C4
100
AcDbEntity
  8
MAIN0
  6
CONTINUOUS
 62
3
100
AcDbCircle
 10
613.3999391930485
 20
493.0520107598570
 30
0.0000000000000000
 40
6.500000000000000
  0
LINE
  5
1C5
100
AcDbEntity
  8
MAIN0
  6
CONTINUOUS
 62
3
100
AcDbLine
 10
615.1319900006174
 20
490.0520107598570
 30
0.0000000000000000
 11
616.8640408081863
 21
493.0520107598570
 31
0.0000000000000000
  0
LINE
  5
1C6
100
AcDbEntity
  8
MAIN0
  6
CONTINUOUS
 62
3
100
AcDbLine
 10
616.8640408081861
 20
493.0520107598570
 30
0.0000000000000000
 11
615.1319900006173
 21
496.0520107598570
 31
0.0000000000000000
  0
LINE
  5
1C7
100
AcDbEntity
  8
MAIN0
  6
CONTINUOUS
 62
3
100
AcDbLine
 10
615.1319900006174
 20
496.0520107598569
 30
0.0000000000000000
 11
611.6678883854796
 21
496.0520107598570
 31
0.0000000000000000
  0
LINE
  5
1C8
100
AcDbEntity
  8
MAIN0
  6
CONTINUOUS
 62
3
100
AcDbLine
 10
611.6678883854796
 20
496.0520107598571
 30
0.0000000000000000
 11
609.9358375779108
 21
493.0520107598570
 31
0.0000000000000000
  0
LINE
  5
1C9
100
AcDbEntity
  8
MAIN0
  6
CONTINUOUS
 62
3
100
AcDbLine
 10
609.9358375779107
 20
493.0520107598570
 30
0.0000000000000000
 11
611.6678883854795
 21
490.0520107598570
 31
0.0000000000000000
  0
LINE
  5
1CA
100
AcDbEntity
  8
MAIN0
  6
CONTINUOUS
 62
3
100
AcDbLine
 10
611.6678883854795
 20
490.0520107598570
 30
0.0000000000000000
 11
615.1319900006173
 21
490.0520107598569
 31
0.0000000000000000
  0
ARC
  5
1CB
100
AcDbEntity
  8
MAIN0
  6
CONTINUOUS
 62
3
100
AcDbCircle
 10
613.3999391930485
 20
493.0520107598570
 30
0.0000000000000000
 40
7.000000000000000
100
AcDbArc
 50
209.9999999999568
 51
390.0000000001188
  0
LINE
  5
1CC
100
AcDbEntity
  8
MAIN0
  6
CENTER
 62
3
100
AcDbLine
 10
608.8999391930485
 20
500.8462393939170
 30
0.0000000000000000
 11
617.8999391930485
 21
485.2577821257970
 31
0.0000000000000000
  0
LINE
  5
1CD
100
AcDbEntity
  8
MAIN0
  6
CONTINUOUS
 62
3
100
AcDbLine
 10
619.4621170175107
 20
496.5520107587022
 30
0.0000000000000000
 11
615.5756623208993
 21
503.2835477545159
 31
0.0000000000000000
  0
LINE
  5
1CE
100
AcDbEntity
  8
MAIN0
  6
CONTINUOUS
 62
3
100
AcDbLine
 10
607.3377613661584
 20
489.5520107596327
 30
0.0000000000000000
 11
603.4513066696522
 21
496.2835477553076
 31
0.0000000000000000
  0
ARC
  5
1CF
100
AcDbEntity
  8
MAIN0
  6
CENTER
 62
3
100
AcDbCircle
 10
663.3999391952661
 20
406.4494703775712
 30
0.0000000000000000
 40
100.0000000044361
100
AcDbArc
 50
114.7904483793906
 51
125.2095516206089
  0
CIRCLE
  5
1D0
100
AcDbEntity
  8
MAIN0
  6
CONTINUOUS
 62
3
100
AcDbCircle
 10
563.3999391908301
 20
406.4494703775717
 30
0.0000000000000000
 40
6.500000000000000
  0
LINE
  5
1D1
100
AcDbEntity
  8
MAIN0
  6
CONTINUOUS
 62
3
100
AcDbLine
 10
566.8640408059679
 20
406.4494703775717
 30
0.0000000000000000
 11
565.1319899983990
 21
409.4494703775717
 31
0.0000000000000000
  0
LINE
  5
1D2
100
AcDbEntity
  8
MAIN0
  6
CONTINUOUS
 62
3
100
AcDbLine
 10
565.1319899983989
 20
409.4494703775716
 30
0.0000000000000000
 11
561.6678883832612
 21
409.4494703775716
 31
0.0000000000000000
  0
LINE
  5
1D3
100
AcDbEntity
  8
MAIN0
  6
CONTINUOUS
 62
3
100
AcDbLine
 10
561.6678883832614
 20
409.4494703775716
 30
0.0000000000000000
 11
559.9358375756924
 21
406.4494703775716
 31
0.0000000000000000
  0
LINE
  5
1D4
100
AcDbEntity
  8
MAIN0
  6
CONTINUOUS
 62
3
100
AcDbLine
 10
559.9358375756924
 20
406.4494703775717
 30
0.0000000000000000
 11
561.6678883832612
 21
403.4494703775717
 31
0.0000000000000000
  0
LINE
  5
1D5
100
AcDbEntity
  8
MAIN0
  6
CONTINUOUS
 62
3
100
AcDbLine
 10
561.6678883832612
 20
403.4494703775716
 30
0.0000000000000000
 11
565.1319899983989
 21
403.4494703775716
 31
0.0000000000000000
  0
LINE
  5
1D6
100
AcDbEntity
  8
MAIN0
  6
CONTINUOUS
 62
3
100
AcDbLine
 10
565.1319899983989
 20
403.4494703775716
 30
0.0000000000000000
 11
566.8640408059680
 21
406.4494703775716
 31
0.0000000000000000
  0
ARC
  5
1D7
100
AcDbEntity
  8
MAIN0
  6
CONTINUOUS
 62
3
100
AcDbCircle
 10
563.3999391908301
 20
406.4494703775717
 30
0.0000000000000000
 40
7.000000000000000
100
AcDbArc
 50
269.9999999999567
 51
450.0000000001188
  0
LINE
  5
1D8
100
AcDbEntity
  8
MAIN0
  6
CONTINUOUS
 62
3
100
AcDbLine
 10
563.3999391908158
 20
413.4494703752372
 30
0.0000000000000000
 11
555.6270297976207
 21
413.4494703752213
 31
0.0000000000000000
  0
LINE
  5
1D9
100
AcDbEntity
  8
MAIN0
  6
CONTINUOUS
 62
3
100
AcDbLine
 10
563.3999391908247
 20
399.4494703771139
 30
0.0000000000000000
 11
555.6270297978025
 21
399.4494703771198
 31
0.0000000000000000
  0
ARC
  5
1DA
100
AcDbEntity
  8
MAIN0
  6
CENTER
 62
3
100
AcDbCircle
 10
663.3999391952661
 20
406.4494703775712
 30
0.0000000000000000
 40
100.0000000044361
100
AcDbArc
 50
174.7904483793905
 51
185.2095516206088
  0
LINE
  5
1DB
100
AcDbEntity
  8
MAIN0
  6
CENTER
 62
3
100
AcDbLine
 10
515.3999391952665
 20
406.4494703775712
 30
0.0000000000000000
 11
811.3999391952658
 21
406.4494703775712
 31
0.0000000000000000
  0
LINE
  5
1DC
100
AcDbEntity
  8
MAIN0
  6
CONTINUOUS
 62
3
100
AcDbLine
 10
207.0467283460325
 20
388.4494703775712
 30
0.0000000000000000
 11
312.5467283460325
 21
388.4494703775712
 31
0.0000000000000000
  0
LINE
  5
1DD
100
AcDbEntity
  8
MAIN0
  6
CONTINUOUS
 62
3
100
AcDbLine
 10
207.0467283460325
 20
424.4494703775712
 30
0.0000000000000000
 11
312.5467283460325
 21
424.4494703775712
 31
0.0000000000000000
  0
DIMENSION
  5
1E6
100
AcDbEntity
  8
MAIN0
  6
CONTINUOUS
 62
3
100
AcDbDimension
  2
*D13
 10
408.3999391952661
 20
422.1996355348026
 30
0.0000000000000000
 11
407.8999391952661
 21
469.6996355348026
 31
0.0000000000000000
 70
32
  3
MAIN001
100
AcDbAlignedDimension
 13
358.0467283460329
 23
517.1996355348026
 33
0.0000000000000000
 14
358.0467283460330
 24
422.1996355348026
 34
0.0000000000000000
 50
90.00000000000000
100
AcDbRotatedDimension
1001
ACAD
1000
DSTYLE
1002
{
1070
   173
1070
     1
1070
     6
1000
_OPEN
1070
     7
1000
_OPEN
1070
    41
1040
3.000000
1002
}
  0
DIMENSION
  5
1EF
100
AcDbEntity
  8
MAIN0
  6
CONTINUOUS
 62
3
100
AcDbDimension
  2
*D14
 10
393.3999391952661
 20
493.1996355348026
 30
0.0000000000000000
 11
392.8999391952661
 21
480.6996355348026
 31
0.0000000000000000
 70
32
  3
MAIN001
100
AcDbAlignedDimension
 13
361.4877054100728
 23
468.1996355348026
 33
0.0000000000000000
 14
361.8804010452975
 24
493.1996355348026
 34
0.0000000000000000
 50
90.00000000000000
100
AcDbRotatedDimension
1001
ACAD
1000
DSTYLE
1002
{
1070
   173
1070
     1
1070
     6
1000
_OPEN
1070
     7
1000
_OPEN
1070
    41
1040
3.000000
1002
}
  0
DIMENSION
  5
1F8
100
AcDbEntity
  8
MAIN0
  6
CONTINUOUS
 62
3
100
AcDbDimension
  2
*D15
 10
393.3999391952661
 20
468.1996355348026
 30
0.0000000000000000
 11
392.8999391952661
 21
445.1996355348026
 31
0.0000000000000000
 70
32
  3
MAIN001
100
AcDbAlignedDimension
 13
358.0467283460330
 23
422.1996355348026
 33
0.0000000000000000
 14
361.4877054100728
 24
468.1996355348026
 34
0.0000000000000000
 50
90.00000000000000
100
AcDbRotatedDimension
1001
ACAD
1000
DSTYLE
1002
{
1070
   173
1070
     1
1070
     6
1000
_OPEN
1070
     7
1000
_OPEN
1070
    41
1040
3.000000
1002
}
  0
DIMENSION
  5
203
100
AcDbEntity
  8
MAIN0
  6
CONTINUOUS
 62
1
100
AcDbDimension
  2
*D16
 10
378.3999391952661
 20
468.1996355348026
 30
0.0000000000000000
 11
377.6499391952661
 21
485.6932288382410
 31
0.0000000000000000
 70
160
  1
\A1;MAX 14.75
  3
MAIN001
100
AcDbAlignedDimension
 13
319.7467283462183
 23
459.4496355348026
 33
0.0000000000000000
 14
361.4877054100728
 24
468.1996355348027
 34
0.0000000000000000
 50
90.00000000000000
100
AcDbRotatedDimension
1001
ACAD
1000
DSTYLE
1002
{
1070
   173
1070
     1
1070
     6
1000
_OPEN
1070
     7
1000
_OPEN
1070
    41
1040
3.000000
1070
   287
1070
     0
1002
}
  0
DIMENSION
  5
20C
100
AcDbEntity
  8
MAIN0
  6
CONTINUOUS
 62
1
100
AcDbDimension
  2
*D17
 10
378.3999391952661
 20
459.4496355348026
 30
0.0000000000000000
 11
377.6499391952661
 21
435.3282231565484
 31
0.0000000000000000
 70
160
  1
\A1;MAX 53
  3
MAIN001
100
AcDbAlignedDimension
 13
340.0982917479257
 23
406.4494703775712
 33
0.0000000000000000
 14
319.7467283462183
 24
459.4496355348026
 34
0.0000000000000000
 50
90.00000000000000
100
AcDbRotatedDimension
1001
ACAD
1000
DSTYLE
1002
{
1070
   173
1070
     1
1070
     6
1000
_OPEN
1070
     7
1000
_OPEN
1070
    41
1040
3.000000
1002
}
  0
MTEXT
  5
20D
100
AcDbEntity
  8
MAIN0
  6
CONTINUOUS
 62
3
100
AcDbMText
 10
378.6318714345820
 20
425.8581449733848
 30
0.0000000000000000
 40
4.649999856948853
 41
0.0000000000000000
 71
     1
 72
     1
  1
{\H0.67x;{MIN 49.85}}
 11
6.123233995736766e-017
 21
1.000000000000000
 31
0.0000000000000000
  7
STANDARD
  0
MTEXT
  5
20E
100
AcDbEntity
  8
MAIN0
  6
CONTINUOUS
 62
3
100
AcDbMText
 10
378.7323999988608
 20
472.2097141002330
 30
0.0000000000000000
 40
4.649999856948853
 41
0.0000000000000000
 71
     1
 72
     1
  1
{\H0.67x;{MIN  8.75}}
 11
6.123233995736766e-017
 21
1.000000000000000
 31
0.0000000000000000
  7
STANDARD
  0
DIMENSION
  5
217
100
AcDbEntity
  8
MAIN0
  6
CONTINUOUS
 62
3
100
AcDbDimension
  2
*D18
 10
316.0467283460325
 20
556.4494703775712
 30
0.0000000000000000
 11
338.5194076333303
 21
557.1994703775712
 31
0.0000000000000000
 70
160
  3
MAIN001
100
AcDbAlignedDimension
 13
358.0467283460330
 23
517.1996355348026
 33
0.0000000000000000
 14
316.0467283460325
 24
512.8494703775716
 34
0.0000000000000000
100
AcDbRotatedDimension
1001
ACAD
1000
DSTYLE
1002
{
1070
   173
1070
     1
1070
     6
1000
_OPEN
1070
     7
1000
_OPEN
1070
    41
1040
3.000000
1002
}
  0
LINE
  5
218
100
AcDbEntity
  8
MAIN0
  6
CONTINUOUS
 62
3
100
AcDbLine
 10
645.8999391952661
 20
428.8391636304841
 30
0.0000000000000000
 11
645.8999391952661
 21
517.1996355348028
 31
0.0000000000000000
  0
LINE
  5
219
100
AcDbEntity
  8
MAIN0
  6
CONTINUOUS
 62
3
100
AcDbLine
 10
680.8999391952661
 20
428.8391636304843
 30
0.0000000000000000
 11
680.8999391952661
 21
517.1996355348027
 31
0.0000000000000000
  0
ARC
  5
21A
100
AcDbEntity
  8
MAIN0
  6
CONTINUOUS
 62
3
100
AcDbCircle
 10
663.3999391952661
 20
406.4494703775712
 30
0.0000000000000000
 40
56.50000000000008
100
AcDbArc
 50
108.0432317616369
 51
189.2689151552607
  0
ARC
  5
21B
100
AcDbEntity
  8
MAIN0
  6
CONTINUOUS
 62
3
100
AcDbCircle
 10
663.3999391952661
 20
406.4494703775712
 30
0.0000000000000000
 40
56.50000000000008
100
AcDbArc
 50
189.7276119089737
 51
191.9567682383668
  0
ARC
  5
21C
100
AcDbEntity
  8
MAIN0
  6
CONTINUOUS
 62
3
100
AcDbCircle
 10
663.3999391952661
 20
406.4494703775712
 30
0.0000000000000000
 40
56.50000000000008
100
AcDbArc
 50
228.0432317616405
 51
230.2723880909530
  0
ARC
  5
21D
100
AcDbEntity
  8
MAIN0
  6
CONTINUOUS
 62
3
100
AcDbCircle
 10
663.3999391952661
 20
406.4494703775712
 30
0.0000000000000000
 40
56.50000000000008
100
AcDbArc
 50
230.7310848447465
 51
309.2689151552606
  0
ARC
  5
21E
100
AcDbEntity
  8
MAIN0
  6
CONTINUOUS
 62
3
100
AcDbCircle
 10
663.3999391952661
 20
406.4494703775712
 30
0.0000000000000000
 40
56.50000000000008
100
AcDbArc
 50
309.4369280633421
 51
311.9567682383666
  0
ARC
  5
21F
100
AcDbEntity
  8
MAIN0
  6
CONTINUOUS
 62
3
100
AcDbCircle
 10
663.3999391952661
 20
406.4494703775712
 30
0.0000000000000000
 40
56.50000000000008
100
AcDbArc
 50
348.0432317616404
 51
350.5630719366577
  0
DIMENSION
  5
228
100
AcDbEntity
  8
MAIN0
  6
CONTINUOUS
 62
3
100
AcDbDimension
  2
*D19
 10
645.8999391952661
 20
566.4494703775712
 30
0.0000000000000000
 11
663.3999391952661
 21
566.9494703775712
 31
0.0000000000000000
 70
32
  3
MAIN001
100
AcDbAlignedDimension
 13
680.8999391952661
 23
517.1996355348027
 33
0.0000000000000000
 14
645.8999391952661
 24
517.1996355348028
 34
0.0000000000000000
100
AcDbRotatedDimension
1001
ACAD
1000
DSTYLE
1002
{
1070
   173
1070
     1
1070
     6
1000
_OPEN
1070
     7
1000
_OPEN
1070
    41
1040
3.000000
1002
}
  0
LINE
  5
229
100
AcDbEntity
  8
MAIN0
  6
CONTINUOUS
 62
3
100
AcDbLine
 10
224.2467283460329
 20
543.9494703775712
 30
0.0000000000000000
 11
225.2467283460329
 21
543.9494703775712
 31
0.0000000000000000
  0
LINE
  5
22A
100
AcDbEntity
  8
MAIN0
  6
CONTINUOUS
 62
3
100
AcDbLine
 10
219.6544235006093
 20
545.4494703775712
 30
0.0000000000000000
 11
224.2467283460323
 21
545.4494703775712
 31
0.0000000000000000
  0
LINE
  5
22B
100
AcDbEntity
  8
MAIN0
  6
CONTINUOUS
 62
3
100
AcDbLine
 10
218.0467283460345
 20
539.4494703775711
 30
0.0000000000000000
 11
219.6544235006094
 21
545.4494703775712
 31
0.0000000000000000
  0
LINE
  5
22C
100
AcDbEntity
  8
MAIN0
  6
CONTINUOUS
 62
3
100
AcDbLine
 10
224.2467283460329
 20
268.9494703775712
 30
0.0000000000000000
 11
225.2467283460329
 21
268.9494703775712
 31
0.0000000000000000
  0
LINE
  5
22D
100
AcDbEntity
  8
MAIN0
  6
CONTINUOUS
 62
3
100
AcDbLine
 10
219.6544235006094
 20
267.4494703775712
 30
0.0000000000000000
 11
224.2467283460323
 21
267.4494703775712
 31
0.0000000000000000
  0
LINE
  5
22E
100
AcDbEntity
  8
MAIN0
  6
CONTINUOUS
 62
3
100
AcDbLine
 10
218.0467283460347
 20
273.4494703775713
 30
0.0000000000000000
 11
219.6544235006096
 21
267.4494703775712
 31
0.0000000000000000
  0
CIRCLE
  5
22F
100
AcDbEntity
  8
MAIN0
  6
CONTINUOUS
 62
3
100
AcDbCircle
 10
663.3999391952661
 20
406.4494703775712
 30
0.0000000000000000
 40
140.0000000000000
  0
CIRCLE
  5
230
100
AcDbEntity
  8
MAIN0
  6
HIDDEN
 62
3
100
AcDbCircle
 10
663.3999391952661
 20
406.4494703775712
 30
0.0000000000000000
 40
139.0000000000000
  0
LINE
  5
231
100
AcDbEntity
  8
MAIN0
  6
HIDDEN
 62
3
100
AcDbLine
 10
802.3324039022801
 20
402.1170056709284
 30
0.0000000000000000
 11
801.3999391952669
 21
403.0494703779410
 31
0.0000000000000000
  0
LINE
  5
232
100
AcDbEntity
  8
MAIN0
  6
HIDDEN
 62
3
100
AcDbLine
 10
801.3999391952668
 20
403.0494703779412
 30
0.0000000000000000
 11
801.3999391952647
 21
409.8494703779411
 31
0.0000000000000000
  0
LINE
  5
233
100
AcDbEntity
  8
MAIN0
  6
HIDDEN
 62
3
100
AcDbLine
 10
801.3999391952647
 20
409.8494703779413
 30
0.0000000000000000
 11
802.3324039022577
 21
410.7819350849349
 31
0.0000000000000000
  0
LINE
  5
234
100
AcDbEntity
  8
MAIN0
  6
HIDDEN
 62
3
100
AcDbLine
 10
801.9999391952672
 20
402.4494703779414
 30
0.0000000000000000
 11
790.3999391952672
 21
402.4494703779379
 31
0.0000000000000000
  0
LINE
  5
235
100
AcDbEntity
  8
MAIN0
  6
HIDDEN
 62
3
100
AcDbLine
 10
790.3999391952669
 20
402.4494703779378
 30
0.0000000000000000
 11
790.3999391952644
 21
410.4494703779378
 31
0.0000000000000000
  0
LINE
  5
236
100
AcDbEntity
  8
MAIN0
  6
HIDDEN
 62
3
100
AcDbLine
 10
790.3999391952646
 20
410.4494703779379
 30
0.0000000000000000
 11
801.9999391952646
 21
410.4494703779414
 31
0.0000000000000000
  0
LINE
  5
237
100
AcDbEntity
  8
MAIN0
  6
HIDDEN
 62
3
100
AcDbLine
 10
801.3999391952668
 20
403.0494703779414
 30
0.0000000000000000
 11
785.3999391952668
 21
403.0494703779365
 31
0.0000000000000000
  0
LINE
  5
238
100
AcDbEntity
  8
MAIN0
  6
HIDDEN
 62
3
100
AcDbLine
 10
785.3999391952668
 20
403.0494703779358
 30
0.0000000000000000
 11
785.3999391952647
 21
409.8494703779360
 31
0.0000000000000000
  0
LINE
  5
239
100
AcDbEntity
  8
MAIN0
  6
HIDDEN
 62
3
100
AcDbLine
 10
785.3999391952647
 20
409.8494703779364
 30
0.0000000000000000
 11
801.3999391952648
 21
409.8494703779414
 31
0.0000000000000000
  0
LINE
  5
23A
100
AcDbEntity
  8
MAIN0
  6
HIDDEN
 62
3
100
AcDbLine
 10
785.3999391952669
 20
403.0494703779357
 30
0.0000000000000000
 11
783.4369482800212
 21
406.4494703779351
 31
0.0000000000000000
  0
LINE
  5
23B
100
AcDbEntity
  8
MAIN0
  6
HIDDEN
 62
3
100
AcDbLine
 10
783.4369482800209
 20
406.4494703779356
 30
0.0000000000000000
 11
785.3999391952647
 21
409.8494703779362
 31
0.0000000000000000
  0
CIRCLE
  5
23C
100
AcDbEntity
  8
MAIN0
  6
CONTINUOUS
 62
3
100
AcDbCircle
 10
663.3999391952661
 20
321.9494703775699
 30
0.0000000000000000
 40
12.70000000000016
  0
CIRCLE
  5
23D
100
AcDbEntity
  8
MAIN0
  6
CONTINUOUS
 62
3
100
AcDbCircle
 10
663.3999391952661
 20
314.9494703775702
 30
0.0000000000000000
 40
1.550000000000000
  0
CIRCLE
  5
23E
100
AcDbEntity
  8
MAIN0
  6
CONTINUOUS
 62
3
100
AcDbCircle
 10
663.3999391952661
 20
328.9494703775699
 30
0.0000000000000000
 40
1.550000000000000
  0
SPLINE
  5
23F
100
AcDbEntity
  8
MAIN0
  6
CONTINUOUS
 62
3
100
AcDbSpline
210
0.0000000000000000
220
0.0000000000000000
230
1.000000000000000
 70
     8
 71
     3
 72
    14
 73
    10
 74
     0
 42
1.000000000000000e-007
 43
1.000000000000000e-007
 12
1.113911779881306
 22
-0.2844235294056006
 32
0.0000000000000000
 13
0.6905821059128101
 23
0.8013582726633501
 33
0.0000000000000000
 40
0.0000000000000000
 40
0.0000000000000000
 40
0.0000000000000000
 40
0.0000000000000000
 40
11.70186171355318
 40
34.80741419711151
 40
63.18110511213376
 40
92.39538646176651
 40
123.2440086165246
 40
142.4160273455944
 40
152.7948947908034
 40
152.7948947908034
 40
152.7948947908034
 40
152.7948947908034
 10
199.0467283460325
 20
475.5870905844627
 30
0.0000000000000000
 10
203.3916755491222
 20
474.4776623147343
 30
0.0000000000000000
 10
216.3158051162456
 20
471.1776464495925
 30
0.0000000000000000
 10
202.8451599876751
 20
443.8516062985235
 30
0.0000000000000000
 10
229.4839422244210
 20
422.1429697351060
 30
0.0000000000000000
 10
259.3010431298750
 20
430.2223913872807
 30
0.0000000000000000
 10
284.6177313855059
 20
428.5882375700810
 30
0.0000000000000000
 10
306.9551372316573
 20
422.6517319457694
 30
0.0000000000000000
 10
313.7575749669318
 20
430.5453476458666
 30
0.0000000000000000
 10
316.1467283460326
 20
433.3177447418982
 30
0.0000000000000000
  0
SPLINE
  5
240
100
AcDbEntity
  8
MAIN0
  6
CONTINUOUS
 62
3
100
AcDbSpline
210
0.0000000000000000
220
0.0000000000000000
230
1.000000000000000
 70
     8
 71
     3
 72
    14
 73
    10
 74
     0
 42
1.000000000000000e-007
 43
1.000000000000000e-007
 12
1.113911779881306
 22
0.2844235294056148
 32
0.0000000000000000
 13
0.6905821059128101
 23
-0.8013582726633786
 33
0.0000000000000000
 40
0.0000000000000000
 40
0.0000000000000000
 40
0.0000000000000000
 40
0.0000000000000000
 40
11.70186171355318
 40
34.80741419711151
 40
63.18110511213376
 40
92.39538646176651
 40
123.2440086165246
 40
142.4160273455944
 40
152.7948947908034
 40
152.7948947908034
 40
152.7948947908034
 40
152.7948947908034
 10
199.0467283460325
 20
337.3118501706797
 30
0.0000000000000000
 10
203.3916755491222
 20
338.4212784404081
 30
0.0000000000000000
 10
216.3158051162456
 20
341.7212943055498
 30
0.0000000000000000
 10
202.8451599876751
 20
369.0473344566188
 30
0.0000000000000000
 10
229.4839422244210
 20
390.7559710200364
 30
0.0000000000000000
 10
259.3010431298750
 20
382.6765493678616
 30
0.0000000000000000
 10
284.6177313855059
 20
384.3107031850614
 30
0.0000000000000000
 10
306.9551372316573
 20
390.2472088093730
 30
0.0000000000000000
 10
313.7575749669318
 20
382.3535931092757
 30
0.0000000000000000
 10
316.1467283460326
 20
379.5811960132442
 30
0.0000000000000000
  0
LINE
  5
241
100
AcDbEntity
  8
MAIN0
  6
HIDDEN
 62
3
100
AcDbLine
 10
235.1467283460332
 20
276.8494703775714
 30
0.0000000000000000
 11
235.1467283460332
 21
282.4494703775713
 31
0.0000000000000000
  0
LINE
  5
242
100
AcDbEntity
  8
MAIN0
  6
CONTINUOUS
 62
3
100
AcDbLine
 10
199.5467283460323
 20
292.4494703775711
 30
0.0000000000000000
 11
199.0467283460334
 21
292.4494703775712
 31
0.0000000000000000
  0
LINE
  5
243
100
AcDbEntity
  8
MAIN0
  6
CONTINUOUS
 62
3
100
AcDbLine
 10
218.0467283460344
 20
379.7344720756279
 30
0.0000000000000000
 11
218.0467283460343
 21
273.4494703775713
 31
0.0000000000000000
  0
LINE
  5
244
100
AcDbEntity
  8
MAIN0
  6
CONTINUOUS
 62
3
100
AcDbLine
 10
218.0467283460346
 20
539.4494703775711
 30
0.0000000000000000
 11
218.0467283460345
 21
433.1644686795144
 31
0.0000000000000000
  0
LINE
  5
245
100
AcDbEntity
  8
MAIN0
  6
CONTINUOUS
 62
3
100
AcDbLine
 10
224.2467283460323
 20
267.4494703775712
 30
0.0000000000000000
 11
224.2467283460323
 21
383.6125620701996
 31
0.0000000000000000
  0
LINE
  5
246
100
AcDbEntity
  8
MAIN0
  6
CONTINUOUS
 62
3
100
AcDbLine
 10
224.2467283460323
 20
429.2863786849428
 30
0.0000000000000000
 11
224.2467283460323
 21
545.4494703775712
 31
0.0000000000000000
  0
LINE
  5
247
100
AcDbEntity
  8
MAIN0
  6
CONTINUOUS
 62
3
100
AcDbLine
 10
225.2467283460443
 20
267.4494703775713
 30
0.0000000000000000
 11
225.2467283460393
 21
384.0644981081984
 31
0.0000000000000000
  0
LINE
  5
248
100
AcDbEntity
  8
MAIN0
  6
CONTINUOUS
 62
3
100
AcDbLine
 10
225.2467283460373
 20
428.8344426469448
 30
0.0000000000000000
 11
225.2467283460323
 21
545.4494703775708
 31
0.0000000000000000
  0
LINE
  5
249
100
AcDbEntity
  8
MAIN0
  6
CONTINUOUS
 62
3
100
AcDbLine
 10
255.8467283460327
 20
266.4494703775712
 30
0.0000000000000000
 11
255.8467283460327
 21
384.7491656200631
 31
0.0000000000000000
  0
LINE
  5
24A
100
AcDbEntity
  8
MAIN0
  6
CONTINUOUS
 62
3
100
AcDbLine
 10
255.8467283460327
 20
428.1497751350793
 30
0.0000000000000000
 11
255.8467283460327
 21
546.4494703775712
 31
0.0000000000000000
  0
LINE
  5
24B
100
AcDbEntity
  8
MAIN0
  6
CONTINUOUS
 62
3
100
AcDbLine
 10
263.9312938948636
 20
266.4494703775713
 30
0.0000000000000000
 11
263.9312938948631
 21
383.9743793913115
 31
0.0000000000000000
  0
LINE
  5
24C
100
AcDbEntity
  8
MAIN0
  6
CONTINUOUS
 62
3
100
AcDbLine
 10
263.9312938948630
 20
428.9245613638309
 30
0.0000000000000000
 11
263.9312938948625
 21
546.4494703775708
 31
0.0000000000000000
  0
LINE
  5
24D
100
AcDbEntity
  8
MAIN0
  6
CONTINUOUS
 62
3
100
AcDbLine
 10
270.8467283460320
 20
383.8899547750563
 30
0.0000000000000000
 11
270.8467283460321
 21
285.4494703775689
 31
0.0000000000000000
  0
LINE
  5
24E
100
AcDbEntity
  8
MAIN0
  6
CONTINUOUS
 62
3
100
AcDbLine
 10
270.8467283460319
 20
527.4494703775705
 30
0.0000000000000000
 11
270.8467283460320
 21
429.0089859800860
 31
0.0000000000000000
  0
LINE
  5
24F
100
AcDbEntity
  8
MAIN0
  6
CONTINUOUS
 62
3
100
AcDbLine
 10
278.8467283460320
 20
286.4494703775713
 30
0.0000000000000000
 11
278.8467283460320
 21
384.4274849016529
 31
0.0000000000000000
  0
LINE
  5
250
100
AcDbEntity
  8
MAIN0
  6
CONTINUOUS
 62
3
100
AcDbLine
 10
278.8467283460320
 20
428.4714558534894
 30
0.0000000000000000
 11
278.8467283460320
 21
526.4494703775710
 31
0.0000000000000000
  0
DIMENSION
  5
259
100
AcDbEntity
  8
MAIN0
  6
CONTINUOUS
 62
3
100
AcDbDimension
  2
*D20
 10
316.0467283460325
 20
596.4494703775712
 30
0.0000000000000000
 11
257.5467283460325
 21
596.9494703775712
 31
0.0000000000000000
 70
32
  3
MAIN001
100
AcDbAlignedDimension
 13
199.0467283460325
 23
520.4494703775717
 33
0.0000000000000000
 14
316.0467283460325
 24
512.8494703775716
 34
0.0000000000000000
100
AcDbRotatedDimension
1001
ACAD
1000
DSTYLE
1002
{
1070
   173
1070
     1
1070
     6
1000
_OPEN
1070
     7
1000
_OPEN
1070
    41
1040
3.000000
1002
}
  0
DIMENSION
  5
262
100
AcDbEntity
  8
MAIN0
  6
CONTINUOUS
 62
3
100
AcDbDimension
  2
*D21
 10
199.0467283460325
 20
576.4494703775712
 30
0.0000000000000000
 11
219.7967283460329
 21
576.9494703775712
 31
0.0000000000000000
 70
32
  3
MAIN001
100
AcDbAlignedDimension
 13
240.5467283460332
 23
547.4517730069578
 33
0.0000000000000000
 14
199.0467283460325
 24
520.4494703775717
 34
0.0000000000000000
100
AcDbRotatedDimension
1001
ACAD
1000
DSTYLE
1002
{
1070
   173
1070
     1
1070
     6
1000
_OPEN
1070
     7
1000
_OPEN
1070
    41
1040
3.000000
1002
}
  0
DIMENSION
  5
26B
100
AcDbEntity
  8
MAIN0
  6
CONTINUOUS
 62
3
100
AcDbDimension
  2
*D22
 10
199.0467283460325
 20
236.4494703775712
 30
0.0000000000000000
 11
219.7967283460329
 21
236.9494703775712
 31
0.0000000000000000
 70
32
  3
MAIN001
100
AcDbAlignedDimension
 13
240.5467283460332
 23
265.4471677481845
 33
0.0000000000000000
 14
199.0467283460325
 24
292.4494703775704
 34
0.0000000000000000
100
AcDbRotatedDimension
1001
ACAD
1000
DSTYLE
1002
{
1070
   173
1070
     1
1070
     6
1000
_OPEN
1070
     7
1000
_OPEN
1070
    41
1040
3.000000
1002
}
  0
DIMENSION
  5
274
100
AcDbEntity
  8
MAIN0
  6
CONTINUOUS
 62
3
100
AcDbDimension
  2
*D23
 10
133.3999391952661
 20
539.4494703775711
 30
0.0000000000000000
 11
132.8999391952661
 21
406.4494703775712
 31
0.0000000000000000
 70
32
  1
\A1;\U+2205266
  3
MAIN001
100
AcDbAlignedDimension
 13
200.1467283460315
 23
273.4494703775713
 33
0.0000000000000000
 14
200.1467283460315
 24
539.4494703775711
 34
0.0000000000000000
 50
90.00000000000000
100
AcDbRotatedDimension
1001
ACAD
1000
DSTYLE
1002
{
1070
   173
1070
     1
1070
     6
1000
_OPEN
1070
     7
1000
_OPEN
1070
    41
1040
3.000000
1002
}
  0
MTEXT
  5
275
100
AcDbEntity
  8
MAIN0
  6
CONTINUOUS
 62
3
100
AcDbMText
 10
723.8016565284336
 20
441.6500022353013
 30
0.0000000000000000
 40
7.500000000000000
 41
0.0000000000000000
 71
     1
 72
     1
  1
{\H0.63x;{KITAGAWA}}
 11
-0.7071067811862957
 21
0.7071067811867995
 31
0.0000000000000000
  7
STANDARD
  0
MTEXT
  5
276
100
AcDbEntity
  8
MAIN0
  6
CONTINUOUS
 62
3
100
AcDbMText
 10
725.4963708242664
 20
455.6030320661808
 30
0.0000000000000000
 40
6.000000000000000
 41
0.0000000000000000
 71
     1
 72
     1
  1
{\H0.63x;{NRC08}}
 11
-0.7071067811862957
 21
0.7071067811867995
 31
0.0000000000000000
  7
STANDARD
  0
INSERT
  5
27E
100
AcDbEntity
  8
MAIN0
  6
CONTINUOUS
 62
3
100
AcDbBlockReference
  2
D24
 10
340.0982917479257
 20
406.4494703775712
 30
0.0000000000000000
 50
0.0000000000000000
  0
ARC
  5
27F
100
AcDbEntity
  8
MAIN0
  6
CENTER
 62
3
100
AcDbCircle
 10
663.3999391952661
 20
321.9494703775702
 30
0.0000000000000000
 40
7.000000000000000
100
AcDbArc
 50
233.1564242184271
 51
307.4395250978322
  0
ARC
  5
280
100
AcDbEntity
  8
MAIN0
  6
CENTER
 62
3
100
AcDbCircle
 10
663.3999391952661
 20
321.9494703775702
 30
0.0000000000000000
 40
7.000000000000000
100
AcDbArc
 50
53.15642421842710
 51
127.4395250978322
  0
MTEXT
  5
281
100
AcDbEntity
  8
MAIN0
  6
CONTINUOUS
 62
3
100
AcDbMText
 10
836.9959616217786
 20
188.3894909282942
 30
0.0000000000000000
 40
4.649999856948853
 41
0.0000000000000000
 71
     1
 72
     1
  1
{\H0.92x;{   15}}
 11
1.000000000000000
 21
0.0000000000000000
 31
0.0000000000000000
  7
STANDARD
  0
MTEXT
  5
282
100
AcDbEntity
  8
MAIN0
  6
CONTINUOUS
 62
3
100
AcDbMText
 10
836.0986338756704
 20
178.0689701053959
 30
0.0000000000000000
 40
4.649999856948853
 41
0.0000000000000000
 71
     1
 72
     1
  1
{\H0.92x;{    6.3}}
 11
1.000000000000000
 21
0.0000000000000000
 31
0.0000000000000000
  7
STANDARD
  0
MTEXT
  5
283
100
AcDbEntity
  8
MAIN0
  6
CONTINUOUS
 62
3
100
AcDbMText
 10
836.9136077098428
 20
168.5094404771302
 30
0.0000000000000000
 40
4.649999856948853
 41
0.0000000000000000
 71
     1
 72
     1
  1
{\H0.92x;{   33}}
 11
1.000000000000000
 21
0.0000000000000000
 31
0.0000000000000000
  7
STANDARD
  0
MTEXT
  5
284
100
AcDbEntity
  8
MAIN0
  6
CONTINUOUS
 62
3
100
AcDbMText
 10
762.9534222981174
 20
170.6825846739843
 30
0.0000000000000000
 40
4.649999856948853
 41
0.0000000000000000
 71
     1
 72
     1
  1
{\H0.93x;{静的把握力}}
 11
1.000000000000000
 21
0.0000000000000000
 31
0.0000000000000000
  7
KNJYOKO
  0
MTEXT
  5
285
100
AcDbEntity
  8
MAIN0
  6
CONTINUOUS
 62
3
100
AcDbMText
 10
762.9534222981174
 20
160.3226526054223
 30
0.0000000000000000
 40
4.649999856948853
 41
0.0000000000000000
 71
     1
 72
     1
  1
{\H0.93x;{最高使用エア圧力}}
 11
1.000000000000000
 21
0.0000000000000000
 31
0.0000000000000000
  7
KNJYOKO
  0
MTEXT
  5
286
100
AcDbEntity
  8
MAIN0
  6
CONTINUOUS
 62
3
100
AcDbMText
 10
761.4082519814385
 20
149.8150020324706
 30
0.0000000000000000
 40
4.649999856948853
 41
0.0000000000000000
 71
     1
 72
     1
  1
{\H0.94x;{質量（標準ソフトジョー付）}}
 11
1.000000000000000
 21
0.0000000000000000
 31
0.0000000000000000
  7
KNJYOKO
  0
MTEXT
  5
287
100
AcDbEntity
  8
MAIN0
  6
CONTINUOUS
 62
3
100
AcDbMText
 10
836.4575649741137
 20
147.6457236574767
 30
0.0000000000000000
 40
4.649999856948853
 41
0.0000000000000000
 71
     1
 72
     1
  1
{\H0.87x;{   27.7}}
 11
1.000000000000000
 21
0.0000000000000000
 31
0.0000000000000000
  7
STANDARD
  0
MTEXT
  5
288
100
AcDbEntity
  8
MAIN0
  6
CONTINUOUS
 62
3
100
AcDbMText
 10
761.4082519814056
 20
139.3150020324706
 30
0.0000000000000000
 40
4.649999856948853
 41
0.0000000000000000
 71
     1
 72
     1
  1
{\H0.93x;{使用最高回転速度}}
 11
1.000000000000000
 21
0.0000000000000000
 31
0.0000000000000000
  7
KNJYOKO
  0
MTEXT
  5
289
100
AcDbEntity
  8
MAIN0
  6
CONTINUOUS
 62
3
100
AcDbMText
 10
836.4575649741132
 20
133.9003384740285
 30
0.0000000000000000
 40
4.649999856948853
 41
0.0000000000000000
 71
     7
 72
     1
  1
{  60 min}
 11
1.000000000000000
 21
0.0000000000000000
 31
0.0000000000000000
  7
STANDARD
  0
MTEXT
  5
28A
100
AcDbEntity
  8
MAIN0
  6
CONTINUOUS
 62
3
100
AcDbMText
 10
869.7475659492452
 20
136.2253384025029
 30
0.0000000000000000
 40
2.324999928474426
 41
0.0000000000000000
 71
     7
 72
     1
  1
{-1}
 11
1.000000000000000
 21
0.0000000000000000
 31
0.0000000000000000
  7
STANDARD
  0
LINE
  5
28B
100
AcDbEntity
  8
MAIN0
  6
CONTINUOUS
 62
3
100
AcDbLine
 10
760.9575649741139
 20
129.4957238003274
 30
0.0000000000000000
 11
878.7160249716437
 21
129.4957238005089
 31
0.0000000000000000
  0
LINE
  5
28C
100
AcDbEntity
  8
MAIN0
  6
CONTINUOUS
 62
3
100
AcDbLine
 10
760.9575649741140
 20
139.9957238002192
 30
0.0000000000000000
 11
878.7160249716400
 21
139.9957238001587
 31
0.0000000000000000
  0
LINE
  5
28D
100
AcDbEntity
  8
MAIN0
  6
CONTINUOUS
 62
3
100
AcDbLine
 10
760.9575649741137
 20
150.4957499159283
 30
0.0000000000000000
 11
878.7160249716360
 21
150.4957499159283
 31
0.0000000000000000
  0
LINE
  5
28E
100
AcDbEntity
  8
MAIN0
  6
CONTINUOUS
 62
3
100
AcDbLine
 10
760.9575649741137
 20
160.9957499159283
 30
0.0000000000000000
 11
878.7160249716321
 21
160.9957499159283
 31
0.0000000000000000
  0
MTEXT
  5
28F
100
AcDbEntity
  8
MAIN0
  6
CONTINUOUS
 62
3
100
AcDbMText
 10
846.4849432886219
 20
160.0664387182032
 30
0.0000000000000000
 40
4.649999856948853
 41
0.0000000000000000
 71
     1
 72
     1
  1
{\H0.92x;{0.7MPa\P}
 11
1.000000000000000
 21
0.0000000000000000
 31
0.0000000000000000
  7
STANDARD
  0
MTEXT
  5
290
100
AcDbEntity
  8
MAIN0
  6
CONTINUOUS
 62
3
100
AcDbMText
 10
868.4575649741139
 20
147.1957226561187
 30
0.0000000000000000
 40
4.199998855590820
 41
0.0000000000000000
 71
     1
 72
     1
  1
{\H0.67x;{Kg}}
 11
1.000000000000000
 21
0.0000000000000000
 31
0.0000000000000000
  7
STANDARD
  0
LINE
  5
291
100
AcDbEntity
  8
MAIN0
  6
CONTINUOUS
 62
3
100
AcDbLine
 10
812.6433637784121
 20
118.9957238004085
 30
0.0000000000000000
 11
878.7160249716478
 21
118.9957238005089
 31
0.0000000000000000
  0
LINE
  5
292
100
AcDbEntity
  8
MAIN0
  6
CONTINUOUS
 62
3
100
AcDbLine
 10
760.9575649741466
 20
108.4957238003274
 30
0.0000000000000000
 11
878.7160249716515
 21
108.4957238005089
 31
0.0000000000000000
  0
LINE
  5
293
100
AcDbEntity
  8
MAIN0
  6
CONTINUOUS
 62
3
100
AcDbLine
 10
760.9575649741631
 20
97.99572380032737
 30
0.0000000000000000
 11
878.7160249716553
 21
97.99572380050887
 31
0.0000000000000000
  0
MTEXT
  5
294
100
AcDbEntity
  8
MAIN0
  6
CONTINUOUS
 62
3
100
AcDbMText
 10
762.7184232779093
 20
121.6457236574747
 30
0.0000000000000000
 40
4.649999856948853
 41
0.0000000000000000
 71
     1
 72
     1
  1
{\H0.91x;{把握径}}
 11
1.000000000000000
 21
0.0000000000000000
 31
0.0000000000000000
  7
KNJYOKO
  0
MTEXT
  5
295
100
AcDbEntity
  8
MAIN0
  6
CONTINUOUS
 62
3
100
AcDbMText
 10
816.5737627949525
 20
128.5960801195953
 30
0.0000000000000000
 40
4.649999856948853
 41
0.0000000000000000
 71
     1
 72
     1
  1
{\H0.89x;{最大}}
 11
1.000000000000000
 21
0.0000000000000000
 31
0.0000000000000000
  7
KNJYOKO
  0
MTEXT
  5
296
100
AcDbEntity
  8
MAIN0
  6
CONTINUOUS
 62
3
100
AcDbMText
 10
816.5737627949525
 20
118.0960801195953
 30
0.0000000000000000
 40
4.649999856948853
 41
0.0000000000000000
 71
     1
 72
     1
  1
{\H0.89x;{最小}}
 11
1.000000000000000
 21
0.0000000000000000
 31
0.0000000000000000
  7
KNJYOKO
  0
MTEXT
  5
297
100
AcDbEntity
  8
MAIN0
  6
CONTINUOUS
 62
3
100
AcDbMText
 10
868.6621942807722
 20
124.9019516276969
 30
0.0000000000000000
 40
4.199998855590820
 41
0.0000000000000000
 71
     1
 72
     1
  1
{\H0.67x;{mm}}
 11
1.000000000000000
 21
0.0000000000000000
 31
0.0000000000000000
  7
STANDARD
  0
MTEXT
  5
298
100
AcDbEntity
  8
MAIN0
  6
CONTINUOUS
 62
3
100
AcDbMText
 10
868.6621942807885
 20
114.4019516276969
 30
0.0000000000000000
 40
4.199998855590820
 41
0.0000000000000000
 71
     1
 72
     1
  1
{\H0.67x;{mm}}
 11
1.000000000000000
 21
0.0000000000000000
 31
0.0000000000000000
  7
STANDARD
  0
MTEXT
  5
299
100
AcDbEntity
  8
MAIN0
  6
CONTINUOUS
 62
3
100
AcDbMText
 10
848.9211065173092
 20
126.2492803751631
 30
0.0000000000000000
 40
4.649999856948853
 41
0.0000000000000000
 71
     1
 72
     1
  1
{\H0.90x;{210}}
 11
1.000000000000000
 21
0.0000000000000000
 31
0.0000000000000000
  7
STANDARD
  0
MTEXT
  5
29A
100
AcDbEntity
  8
MAIN0
  6
CONTINUOUS
 62
3
100
AcDbMText
 10
853.2282524428692
 20
115.8403330318269
 30
0.0000000000000000
 40
4.649999856948853
 41
0.0000000000000000
 71
     1
 72
     1
  1
{\H0.88x;{28}}
 11
1.000000000000000
 21
0.0000000000000000
 31
0.0000000000000000
  7
STANDARD
  0
MTEXT
  5
29B
100
AcDbEntity
  8
MAIN0
  6
CONTINUOUS
 62
3
100
AcDbMText
 10
761.4082519813728
 20
107.8149759168695
 30
0.0000000000000000
 40
4.649999856948853
 41
0.0000000000000000
 71
     1
 72
     1
  1
{\H0.93x;{回転抵抗トルク}}
 11
1.000000000000000
 21
0.0000000000000000
 31
0.0000000000000000
  7
KNJYOKO
  0
MTEXT
  5
29C
100
AcDbEntity
  8
MAIN0
  6
CONTINUOUS
 62
3
100
AcDbMText
 10
868.8460131396070
 20
104.1797690354371
 30
0.0000000000000000
 40
4.199998855590820
 41
0.0000000000000000
 71
     1
 72
     1
  1
{\H0.67x;{Nm}}
 11
1.000000000000000
 21
0.0000000000000000
 31
0.0000000000000000
  7
STANDARD
  0
MTEXT
  5
29D
100
AcDbEntity
  8
MAIN0
  6
CONTINUOUS
 62
3
100
AcDbMText
 10
853.2839730782523
 20
105.1978456074941
 30
0.0000000000000000
 40
4.649999856948853
 41
0.0000000000000000
 71
     1
 72
     1
  1
{\H0.88x;{10}}
 11
1.000000000000000
 21
0.0000000000000000
 31
0.0000000000000000
  7
STANDARD
  0
MTEXT
  5
29E
100
AcDbEntity
  8
MAIN0
  6
CONTINUOUS
 62
3
100
AcDbMText
 10
761.4082519814381
 20
191.8150542637805
 30
0.0000000000000000
 40
4.649999856948853
 41
0.0000000000000000
 71
     1
 72
     1
  1
{\H0.94x;{プランジャストロ－ク}}
 11
1.000000000000000
 21
0.0000000000000000
 31
0.0000000000000000
  7
KNJYOKO
  0
MTEXT
  5
29F
100
AcDbEntity
  8
MAIN0
  6
CONTINUOUS
 62
3
100
AcDbMText
 10
761.4082519814378
 20
181.3150542638114
 30
0.0000000000000000
 40
4.649999856948853
 41
0.0000000000000000
 71
     1
 72
     1
  1
{\H0.93x;{ジョ－ストロ－ク}}
 11
1.000000000000000
 21
0.0000000000000000
 31
0.0000000000000000
  7
KNJYOKO
  0
MTEXT
  5
2A0
100
AcDbEntity
  8
MAIN0
  6
CONTINUOUS
 62
3
100
AcDbMText
 10
761.4082519814381
 20
185.9150544068316
 30
0.0000000000000000
 40
3.750000000000000
 41
0.0000000000000000
 71
     1
 72
     1
  1
{\H0.63x;{Plunger stroke}}
 11
1.000000000000000
 21
0.0000000000000000
 31
0.0000000000000000
  7
STANDARD
  0
MTEXT
  5
2A1
100
AcDbEntity
  8
MAIN0
  6
CONTINUOUS
 62
3
100
AcDbMText
 10
761.4082519814378
 20
175.4150544068626
 30
0.0000000000000000
 40
3.750000000000000
 41
0.0000000000000000
 71
     1
 72
     1
  1
{\H0.63x;{Jaw stroke}}
 11
1.000000000000000
 21
0.0000000000000000
 31
0.0000000000000000
  7
STANDARD
  0
MTEXT
  5
2A2
100
AcDbEntity
  8
MAIN0
  6
CONTINUOUS
 62
3
100
AcDbMText
 10
762.8561163935819
 20
116.6970913409147
 30
0.0000000000000000
 40
3.750000000000000
 41
0.0000000000000000
 71
     1
 72
     1
  1
{\H0.63x;{Gripping diameter}}
 11
1.000000000000000
 21
0.0000000000000000
 31
0.0000000000000000
  7
STANDARD
  0
MTEXT
  5
2A3
100
AcDbEntity
  8
MAIN0
  6
CONTINUOUS
 62
3
100
AcDbMText
 10
817.5446678632327
 20
122.8984359845446
 30
0.0000000000000000
 40
3.000000000000000
 41
0.0000000000000000
 71
     1
 72
     1
  1
{\H0.81x;{Max.}}
 11
1.000000000000000
 21
0.0000000000000000
 31
0.0000000000000000
  7
STANDARD
  0
MTEXT
  5
2A4
100
AcDbEntity
  8
MAIN0
  6
CONTINUOUS
 62
3
100
AcDbMText
 10
817.3381435937538
 20
112.2624949161653
 30
0.0000000000000000
 40
3.000000000000000
 41
0.0000000000000000
 71
     1
 72
     1
  1
{\H0.81x;{Min.}}
 11
1.000000000000000
 21
0.0000000000000000
 31
0.0000000000000000
  7
STANDARD
  0
MTEXT
  5
2A5
100
AcDbEntity
  8
MAIN0
  6
CONTINUOUS
 62
3
100
AcDbMText
 10
761.4082519814056
 20
133.4150021755217
 30
0.0000000000000000
 40
3.750000000000000
 41
0.0000000000000000
 71
     1
 72
     1
  1
{\H0.63x;{MAX Permissible speed}}
 11
1.000000000000000
 21
0.0000000000000000
 31
0.0000000000000000
  7
STANDARD
  0
MTEXT
  5
2A6
100
AcDbEntity
  8
MAIN0
  6
CONTINUOUS
 62
3
100
AcDbMText
 10
761.4082519814383
 20
154.4150282911534
 30
0.0000000000000000
 40
3.750000000000000
 41
0.0000000000000000
 71
     1
 72
     1
  1
{\H0.63x;{MAX Permissible air press}}
 11
1.000000000000000
 21
0.0000000000000000
 31
0.0000000000000000
  7
STANDARD
  0
MTEXT
  5
2A7
100
AcDbEntity
  8
MAIN0
  6
CONTINUOUS
 62
3
100
AcDbMText
 10
761.4082519813728
 20
101.9149760599207
 30
0.0000000000000000
 40
3.750000000000000
 41
0.0000000000000000
 71
     1
 72
     1
  1
{\H0.63x;{MAX Rotation resistance torque}}
 11
1.000000000000000
 21
0.0000000000000000
 31
0.0000000000000000
  7
STANDARD
  0
MTEXT
  5
2A8
100
AcDbEntity
  8
MAIN0
  6
CONTINUOUS
 62
3
100
AcDbMText
 10
761.4082519814385
 20
143.9150021755217
 30
0.0000000000000000
 40
3.750000000000000
 41
0.0000000000000000
 71
     1
 72
     1
  1
{\H0.63x;{Mass(with standard soft jaw)}}
 11
1.000000000000000
 21
0.0000000000000000
 31
0.0000000000000000
  7
STANDARD
  0
MTEXT
  5
2A9
100
AcDbEntity
  8
MAIN0
  6
CONTINUOUS
 62
3
100
AcDbMText
 10
794.1671880482795
 20
166.7689203253501
 30
0.0000000000000000
 40
3.000000000000000
 41
0.0000000000000000
 71
     7
 72
     1
  1
{[エア圧 0.6MPa(6.0Kgf/cm}
 11
1.000000000000000
 21
0.0000000000000000
 31
0.0000000000000000
  7
KNJYOKO
  0
MTEXT
  5
2AA
100
AcDbEntity
  8
MAIN0
  6
CONTINUOUS
 62
3
100
AcDbMText
 10
832.8671895637276
 20
168.2689203253501
 30
0.0000000000000000
 40
1.500000000000000
 41
0.0000000000000000
 71
     7
 72
     1
  1
{2}
 11
1.000000000000000
 21
0.0000000000000000
 31
0.0000000000000000
  7
STANDARD
  0
MTEXT
  5
2AB
100
AcDbEntity
  8
MAIN0
  6
CONTINUOUS
 62
3
100
AcDbMText
 10
833.7671895994904
 20
166.7689203253501
 30
0.0000000000000000
 40
3.000000000000000
 41
0.0000000000000000
 71
     7
 72
     1
  1
{)]}
 11
1.000000000000000
 21
0.0000000000000000
 31
0.0000000000000000
  7
STANDARD
  0
MTEXT
  5
2AC
100
AcDbEntity
  8
MAIN0
  6
CONTINUOUS
 62
3
100
AcDbMText
 10
761.4082519814385
 20
164.9150282911226
 30
0.0000000000000000
 40
3.750000000000000
 41
0.0000000000000000
 71
     1
 72
     1
  1
{\H0.62x;{Static gripping force(AIR 0.6MPa)}}
 11
1.000000000000000
 21
0.0000000000000000
 31
0.0000000000000000
  7
STANDARD
  0
LINE
  5
2AD
100
AcDbEntity
  8
MAIN0
  6
CONTINUOUS
 62
3
100
AcDbLine
 10
837.3074720857233
 20
97.99572380044498
 30
0.0000000000000000
 11
837.3074720857233
 21
192.4957499158971
 31
0.0000000000000000
  0
LINE
  5
2AE
100
AcDbEntity
  8
MAIN0
  6
CONTINUOUS
 62
3
100
AcDbLine
 10
878.7160249716554
 20
97.99572380050893
 30
0.0000000000000000
 11
878.7160249716167
 21
202.9957499158971
 31
0.0000000000000000
  0
MTEXT
  5
2AF
100
AcDbEntity
  8
MAIN0
  6
CONTINUOUS
 62
3
100
AcDbMText
 10
847.5208417154271
 20
151.5318160560703
 30
0.0000000000000000
 40
3.750000000000000
 41
0.0000000000000000
 71
     7
 72
     1
  1
{(7.0Kgf/cm}
 11
1.000000000000000
 21
0.0000000000000000
 31
0.0000000000000000
  7
STANDARD
  0
MTEXT
  5
2B0
100
AcDbEntity
  8
MAIN0
  6
CONTINUOUS
 62
3
100
AcDbMText
 10
870.0208417154271
 20
153.4068160560703
 30
0.0000000000000000
 40
1.875000000000000
 41
0.0000000000000000
 71
     7
 72
     1
  1
{2}
 11
1.000000000000000
 21
0.0000000000000000
 31
0.0000000000000000
  7
STANDARD
  0
MTEXT
  5
2B1
100
AcDbEntity
  8
MAIN0
  6
CONTINUOUS
 62
3
100
AcDbMText
 10
871.1458417154271
 20
151.5318160560703
 30
0.0000000000000000
 40
3.750000000000000
 41
0.0000000000000000
 71
     7
 72
     1
  1
{)}
 11
1.000000000000000
 21
0.0000000000000000
 31
0.0000000000000000
  7
STANDARD
  0
MTEXT
  5
2B2
100
AcDbEntity
  8
MAIN0
  6
CONTINUOUS
 62
3
100
AcDbMText
 10
781.5755769861643
 20
201.3316723407991
 30
0.0000000000000000
 40
7.500000000000000
 41
0.0000000000000000
 71
     1
 72
     1
  1
{\H0.62x;{仕　様   SPECIFICATION}}
 11
1.000000000000000
 21
0.0000000000000000
 31
0.0000000000000000
  7
KNJYOKO
  0
INSERT
  5
2BD
100
AcDbEntity
  8
MAIN0
  6
CONTINUOUS
 62
3
100
AcDbBlockReference
  2
M1
 10
0.0000000000000000
 20
0.0000000000000000
 30
0.0000000000000000
 50
0.0000000000000000
  0
LEADER
  5
2BE
100
AcDbEntity
  8
MAIN0
  6
CONTINUOUS
 62
3
100
AcDbLeader
  3
MAIN001
 73
     0
 75
     1
 40
4.500000000000000
 41
37.79899899864199
 76
     3
 10
190.2322734423959
 20
302.4494703775712
 30
0.0000000000000000
 10
153.1305472683745
 20
240.3529133992098
 30
0.0000000000000000
 10
150.6095472683745
 20
240.3529133992098
 30
0.0000000000000000
340
2BF
213
0.0000000000000000
223
-0.7500000000000000
233
0.0000000000000000
1001
ACAD
1000
DSTYLE
1002
{
1070
   147
1040
0.0
1070
    77
1070
     1
1070
   173
1070
     1
1070
     6
1000
_OPEN
1070
     7
1000
_OPEN
1002
}
  0
MTEXT
  5
2BF
102
{ACAD_REACTORS
330
2BE
102
}
100
AcDbEntity
  8
MAIN0
  6
CONTINUOUS
 62
3
100
AcDbMText
 10
112.8105482697325
 20
245.6029133992098
 30
0.0000000000000000
 40
4.500000000000000
 41
0.0000000000000000
 71
     1
 72
     1
  1
{\H0.63x;{六角穴付ボルト\PM8X125（6本）\PHEX SOCKET\PHEAD CAP SCREW}}
 11
1.000000000000000
 21
0.0000000000000000
 31
0.0000000000000000
  7
KNJYOKO
  0
MTEXT
  5
2C0
100
AcDbEntity
  8
MAIN0
  6
CONTINUOUS
 62
3
100
AcDbMText
 10
96.15119424386808
 20
111.7408621351686
 30
0.0000000000000000
 40
7.500000000000000
 41
0.0000000000000000
 71
     1
 72
     1
  1
{\H0.93x;{  Ｃより見る\PVIEW FROM C}}
 11
1.000000000000000
 21
0.0000000000000000
 31
0.0000000000000000
  7
KNJYOKO
  0
LEADER
  5
2C1
100
AcDbEntity
  8
MAIN0
  6
CONTINUOUS
 62
3
100
AcDbLeader
  3
MAIN001
 73
     0
 74
     0
 75
     1
 40
4.500000000000000
 41
49.95099867677692
 76
     3
 10
321.0467283460330
 20
502.8652129921369
 30
0.0000000000000000
 10
364.6148574985969
 20
544.9027034152451
 30
0.0000000000000000
 10
367.1338574985969
 20
544.9027034152450
 30
0.0000000000000000
340
2C2
213
0.0000000000000000
223
-0.7500000000000000
233
0.0000000000000000
1001
ACAD
1000
DSTYLE
1002
{
1070
   147
1040
0.0
1070
    77
1070
     1
1070
   173
1070
     1
1070
     6
1000
_OPEN
1070
     7
1000
_OPEN
1002
}
  0
MTEXT
  5
2C2
102
{ACAD_REACTORS
330
2C1
102
}
100
AcDbEntity
  8
MAIN0
  6
CONTINUOUS
 62
3
100
AcDbMText
 10
367.1348574985969
 20
550.1527034152450
 30
0.0000000000000000
 40
4.500000000000000
 41
0.0000000000000000
 71
     1
 72
     1
  1
{\H0.61x;{セレーションピッチ 1.5\PSERRATION PITCH 1.5}}
 11
1.000000000000000
 21
0.0000000000000000
 31
0.0000000000000000
  7
KNJYOKO
  0
LEADER
  5
2C3
100
AcDbEntity
  8
MAIN0
  6
CONTINUOUS
 62
3
100
AcDbLeader
  3
MAIN001
 73
     0
 75
     1
 40
4.500000000000000
 41
35.09899907016762
 76
     3
 10
531.8746457626725
 20
410.4494703772027
 30
0.0000000000000000
 10
520.0276695346711
 20
470.1815482357494
 30
0.0000000000000000
 10
517.5066695346711
 20
470.1815482357494
 30
0.0000000000000000
340
2C4
213
0.0000000000000000
223
-0.7500000000000000
233
0.0000000000000000
1001
ACAD
1000
DSTYLE
1002
{
1070
   147
1040
0.0
1070
    77
1070
     1
1070
   173
1070
     1
1070
     6
1000
_OPEN
1070
     7
1000
_OPEN
1002
}
  0
MTEXT
  5
2C4
102
{ACAD_REACTORS
330
2C3
102
}
100
AcDbEntity
  8
MAIN0
  6
CONTINUOUS
 62
3
100
AcDbMText
 10
482.4076704645035
 20
475.4315482357494
 30
0.0000000000000000
 40
4.500000000000000
 41
0.0000000000000000
 71
     1
 72
     1
  1
{\H0.63x;{4-M8 ネジ深12\P4-M8 DEPTH 12}}
 11
1.000000000000000
 21
0.0000000000000000
 31
0.0000000000000000
  7
KNJYOKO
  0
MTEXT
  5
2C5
100
AcDbEntity
  8
MAIN0
  6
CONTINUOUS
 62
3
100
AcDbMText
 10
702.3162481203385
 20
248.8716024462772
 30
0.0000000000000000
 40
6.000000000000000
 41
0.0000000000000000
 71
     1
 72
     1
  1
{\H0.63x;{B (閉）\P(CLOSE)}}
 11
1.000000000000000
 21
0.0000000000000000
 31
0.0000000000000000
  7
KNJYOKO
  0
MTEXT
  5
2C6
100
AcDbEntity
  8
MAIN0
  6
CONTINUOUS
 62
3
100
AcDbMText
 10
603.3322868816833
 20
248.3436960550984
 30
0.0000000000000000
 40
6.000000000000000
 41
0.0000000000000000
 71
     1
 72
     1
  1
{\H0.63x;{A (開）\P(OPEN)}}
 11
1.000000000000000
 21
0.0000000000000000
 31
0.0000000000000000
  7
KNJYOKO
  0
LINE
  5
2C7
100
AcDbEntity
  8
MAIN0
  6
HIDDEN
 62
3
100
AcDbLine
 10
667.7324039019092
 20
545.3819350845852
 30
0.0000000000000000
 11
666.7999391948965
 21
544.4494703775720
 31
0.0000000000000000
  0
LINE
  5
2C8
100
AcDbEntity
  8
MAIN0
  6
HIDDEN
 62
3
100
AcDbLine
 10
666.7999391948963
 20
544.4494703775717
 30
0.0000000000000000
 11
659.9999391948963
 21
544.4494703775697
 31
0.0000000000000000
  0
LINE
  5
2C9
100
AcDbEntity
  8
MAIN0
  6
HIDDEN
 62
3
100
AcDbLine
 10
659.9999391948962
 20
544.4494703775697
 30
0.0000000000000000
 11
659.0674744879027
 21
545.3819350845628
 31
0.0000000000000000
  0
LINE
  5
2CA
100
AcDbEntity
  8
MAIN0
  6
HIDDEN
 62
3
100
AcDbLine
 10
667.3999391948961
 20
545.0494703775722
 30
0.0000000000000000
 11
667.3999391948996
 21
533.4494703775722
 31
0.0000000000000000
  0
LINE
  5
2CB
100
AcDbEntity
  8
MAIN0
  6
HIDDEN
 62
3
100
AcDbLine
 10
667.3999391948996
 20
533.4494703775720
 30
0.0000000000000000
 11
659.3999391948996
 21
533.4494703775695
 31
0.0000000000000000
  0
LINE
  5
2CC
100
AcDbEntity
  8
MAIN0
  6
HIDDEN
 62
3
100
AcDbLine
 10
659.3999391948996
 20
533.4494703775696
 30
0.0000000000000000
 11
659.3999391948961
 21
545.0494703775696
 31
0.0000000000000000
  0
LINE
  5
2CD
100
AcDbEntity
  8
MAIN0
  6
HIDDEN
 62
3
100
AcDbLine
 10
666.7999391948961
 20
544.4494703775719
 30
0.0000000000000000
 11
666.7999391949011
 21
528.4494703775719
 31
0.0000000000000000
  0
LINE
  5
2CE
100
AcDbEntity
  8
MAIN0
  6
HIDDEN
 62
3
100
AcDbLine
 10
666.7999391949016
 20
528.4494703775719
 30
0.0000000000000000
 11
659.9999391949015
 21
528.4494703775697
 31
0.0000000000000000
  0
LINE
  5
2CF
100
AcDbEntity
  8
MAIN0
  6
HIDDEN
 62
3
100
AcDbLine
 10
659.9999391949011
 20
528.4494703775697
 30
0.0000000000000000
 11
659.9999391948961
 21
544.4494703775697
 31
0.0000000000000000
  0
LINE
  5
2D0
100
AcDbEntity
  8
MAIN0
  6
HIDDEN
 62
3
100
AcDbLine
 10
666.7999391949018
 20
528.4494703775720
 30
0.0000000000000000
 11
663.3999391949023
 21
526.4864794623262
 31
0.0000000000000000
  0
LINE
  5
2D1
100
AcDbEntity
  8
MAIN0
  6
HIDDEN
 62
3
100
AcDbLine
 10
663.3999391949019
 20
526.4864794623261
 30
0.0000000000000000
 11
659.9999391949013
 21
528.4494703775697
 31
0.0000000000000000
  0
LINE
  5
2D2
100
AcDbEntity
  8
MAIN0
  6
HIDDEN
 62
3
100
AcDbLine
 10
659.0674744886236
 20
267.5170056705572
 30
0.0000000000000000
 11
659.9999391956362
 21
268.4494703775704
 31
0.0000000000000000
  0
LINE
  5
2D3
100
AcDbEntity
  8
MAIN0
  6
HIDDEN
 62
3
100
AcDbLine
 10
659.9999391956363
 20
268.4494703775706
 30
0.0000000000000000
 11
666.7999391956363
 21
268.4494703775727
 31
0.0000000000000000
  0
LINE
  5
2D4
100
AcDbEntity
  8
MAIN0
  6
HIDDEN
 62
3
100
AcDbLine
 10
666.7999391956364
 20
268.4494703775727
 30
0.0000000000000000
 11
667.7324039026300
 21
267.5170056705796
 31
0.0000000000000000
  0
LINE
  5
2D5
100
AcDbEntity
  8
MAIN0
  6
HIDDEN
 62
3
100
AcDbLine
 10
659.3999391956365
 20
267.8494703775701
 30
0.0000000000000000
 11
659.3999391956330
 21
279.4494703775702
 31
0.0000000000000000
  0
LINE
  5
2D6
100
AcDbEntity
  8
MAIN0
  6
HIDDEN
 62
3
100
AcDbLine
 10
659.3999391956330
 20
279.4494703775704
 30
0.0000000000000000
 11
667.3999391956330
 21
279.4494703775729
 31
0.0000000000000000
  0
LINE
  5
2D7
100
AcDbEntity
  8
MAIN0
  6
HIDDEN
 62
3
100
AcDbLine
 10
667.3999391956330
 20
279.4494703775728
 30
0.0000000000000000
 11
667.3999391956365
 21
267.8494703775727
 31
0.0000000000000000
  0
LINE
  5
2D8
100
AcDbEntity
  8
MAIN0
  6
HIDDEN
 62
3
100
AcDbLine
 10
659.9999391956366
 20
268.4494703775704
 30
0.0000000000000000
 11
659.9999391956316
 21
284.4494703775705
 31
0.0000000000000000
  0
LINE
  5
2D9
100
AcDbEntity
  8
MAIN0
  6
HIDDEN
 62
3
100
AcDbLine
 10
659.9999391956310
 20
284.4494703775705
 30
0.0000000000000000
 11
666.7999391956312
 21
284.4494703775727
 31
0.0000000000000000
  0
LINE
  5
2DA
100
AcDbEntity
  8
MAIN0
  6
HIDDEN
 62
3
100
AcDbLine
 10
666.7999391956315
 20
284.4494703775727
 30
0.0000000000000000
 11
666.7999391956365
 21
268.4494703775726
 31
0.0000000000000000
  0
LINE
  5
2DB
100
AcDbEntity
  8
MAIN0
  6
HIDDEN
 62
3
100
AcDbLine
 10
659.9999391956309
 20
284.4494703775704
 30
0.0000000000000000
 11
663.3999391956303
 21
286.4124612928162
 31
0.0000000000000000
  0
LINE
  5
2DC
100
AcDbEntity
  8
MAIN0
  6
HIDDEN
 62
3
100
AcDbLine
 10
663.3999391956307
 20
286.4124612928163
 30
0.0000000000000000
 11
666.7999391956313
 21
284.4494703775726
 31
0.0000000000000000
  0
MTEXT
  5
2DD
100
AcDbEntity
  8
MAIN0
  6
CONTINUOUS
 62
3
100
AcDbMText
 10
732.5335250917518
 20
460.9069654338645
 30
0.0000000000000000
 40
4.649999856948853
 41
0.0000000000000000
 71
     1
 72
     1
  1
{\H0.92x;{JAPAN}}
 11
-0.7071067811865459
 21
0.7071067811865491
 31
0.0000000000000000
  7
STANDARD
  0
LINE
  5
2DE
100
AcDbEntity
  8
MAIN0
  6
CONTINUOUS
 62
3
100
AcDbLine
 10
697.4619441131679
 20
370.9211369227151
 30
0.0000000000000000
 11
700.8426845051796
 21
371.8270035805739
 31
0.0000000000000000
  0
LINE
  5
2DF
100
AcDbEntity
  8
MAIN0
  6
CONTINUOUS
 62
3
100
AcDbLine
 10
698.6993809802443
 20
373.0644404476503
 30
0.0000000000000000
 11
699.6052476381032
 21
369.6837000556386
 31
0.0000000000000000
  0
ARC
  5
2E0
100
AcDbEntity
  8
MAIN0
  6
CONTINUOUS
 62
3
100
AcDbCircle
 10
663.3999391952661
 20
406.4494703775712
 30
0.0000000000000000
 40
56.50000000000008
100
AcDbArc
 50
228.0432317616333
 51
230.5630719366579
  0
ARC
  5
2E1
100
AcDbEntity
  8
MAIN0
  6
CONTINUOUS
 62
3
100
AcDbCircle
 10
663.3999391952661
 20
406.4494703775712
 30
0.0000000000000000
 40
56.50000000000008
100
AcDbArc
 50
189.4369280633424
 51
191.9567682383596
  0
LINE
  5
2E2
100
AcDbEntity
  8
MAIN0
  6
CONTINUOUS
 62
3
100
AcDbLine
 10
629.3379342773644
 20
370.9211369227151
 30
0.0000000000000000
 11
625.9571938853527
 21
371.8270035805739
 31
0.0000000000000000
  0
LINE
  5
2E3
100
AcDbEntity
  8
MAIN0
  6
CONTINUOUS
 62
3
100
AcDbLine
 10
628.1004974102879
 20
373.0644404476503
 30
0.0000000000000000
 11
627.1946307524290
 21
369.6837000556386
 31
0.0000000000000000
  0
LINE
  5
2E4
100
AcDbEntity
  8
MAIN0
  6
CENTER
 62
3
100
AcDbLine
 10
566.8363013161451
 20
350.6984280541280
 30
0.0000000000000000
 11
667.4427438085625
 21
408.7835847093394
 31
0.0000000000000000
  0
LINE
  5
2E5
100
AcDbEntity
  8
MAIN0
  6
CENTER
 62
3
100
AcDbLine
 10
659.3571345819697
 20
408.7835847093394
 30
0.0000000000000000
 11
759.9635770743871
 21
350.6984280541280
 31
0.0000000000000000
  0
LINE
  5
2E6
100
AcDbEntity
  8
MAIN4
  6
CENTER
 62
3
100
AcDbLine
 10
89.68517521361116
 20
174.7236260712508
 30
0.0000000000000000
 11
147.3500443456527
 21
174.7236260713762
 31
0.0000000000000000
  0
LINE
  5
2E7
100
AcDbEntity
  8
MAIN0
  6
CONTINUOUS
 62
3
100
AcDbLine
 10
711.1993809802466
 20
394.7150755422638
 30
0.0000000000000000
 11
712.1052476381052
 21
391.3343351502520
 31
0.0000000000000000
  0
LINE
  5
2E8
100
AcDbEntity
  8
MAIN0
  6
CONTINUOUS
 62
3
100
AcDbLine
 10
709.9619441131702
 20
392.5717720173286
 30
0.0000000000000000
 11
713.3426845051819
 21
393.4776386751872
 31
0.0000000000000000
  0
LINE
  5
2E9
100
AcDbEntity
  8
MAIN0
  6
CONTINUOUS
 62
3
100
AcDbLine
 10
615.6004974102856
 20
394.7150755422638
 30
0.0000000000000000
 11
614.6946307524270
 21
391.3343351502521
 31
0.0000000000000000
  0
LINE
  5
2EA
100
AcDbEntity
  8
MAIN0
  6
CONTINUOUS
 62
3
100
AcDbLine
 10
616.8379342773621
 20
392.5717720173286
 30
0.0000000000000000
 11
613.4571938853504
 21
393.4776386751872
 31
0.0000000000000000
  0
CIRCLE
  5
2EB
100
AcDbEntity
  8
MAIN0
  6
CONTINUOUS
 62
3
100
AcDbCircle
 10
613.3999391930481
 20
319.8469299952856
 30
0.0000000000000000
 40
6.500000000000000
  0
LINE
  5
2EC
100
AcDbEntity
  8
MAIN0
  6
CONTINUOUS
 62
3
100
AcDbLine
 10
615.1319900006170
 20
322.8469299952856
 30
0.0000000000000000
 11
611.6678883854793
 21
322.8469299952856
 31
0.0000000000000000
  0
LINE
  5
2ED
100
AcDbEntity
  8
MAIN0
  6
CONTINUOUS
 62
3
100
AcDbLine
 10
611.6678883854793
 20
322.8469299952855
 30
0.0000000000000000
 11
609.9358375779104
 21
319.8469299952856
 31
0.0000000000000000
  0
LINE
  5
2EE
100
AcDbEntity
  8
MAIN0
  6
CONTINUOUS
 62
3
100
AcDbLine
 10
609.9358375779104
 20
319.8469299952856
 30
0.0000000000000000
 11
611.6678883854793
 21
316.8469299952856
 31
0.0000000000000000
  0
LINE
  5
2EF
100
AcDbEntity
  8
MAIN0
  6
CONTINUOUS
 62
3
100
AcDbLine
 10
611.6678883854792
 20
316.8469299952856
 30
0.0000000000000000
 11
615.1319900006171
 21
316.8469299952856
 31
0.0000000000000000
  0
LINE
  5
2F0
100
AcDbEntity
  8
MAIN0
  6
CONTINUOUS
 62
3
100
AcDbLine
 10
615.1319900006171
 20
316.8469299952856
 30
0.0000000000000000
 11
616.8640408081859
 21
319.8469299952855
 31
0.0000000000000000
  0
LINE
  5
2F1
100
AcDbEntity
  8
MAIN0
  6
CONTINUOUS
 62
3
100
AcDbLine
 10
616.8640408081859
 20
319.8469299952856
 30
0.0000000000000000
 11
615.1319900006171
 21
322.8469299952856
 31
0.0000000000000000
  0
ARC
  5
2F2
100
AcDbEntity
  8
MAIN0
  6
CONTINUOUS
 62
3
100
AcDbCircle
 10
613.3999391930481
 20
319.8469299952856
 30
0.0000000000000000
 40
7.000000000000000
100
AcDbArc
 50
329.9999999999570
 51
510.0000000001191
  0
CIRCLE
  5
2F3
100
AcDbEntity
  8
MAIN0
  6
CONTINUOUS
 62
3
100
AcDbCircle
 10
686.6912957618027
 20
325.2228570707823
 30
0.0000000000000000
 40
7.500000000000256
  0
CIRCLE
  5
2F4
100
AcDbEntity
  8
MAIN0
  6
CONTINUOUS
 62
3
100
AcDbCircle
 10
686.6912957618027
 20
325.2228570707823
 30
0.0000000000000000
 40
7.000000000000000
  0
LINE
  5
2F5
100
AcDbEntity
  8
MAIN0
  6
CONTINUOUS
 62
3
100
AcDbLine
 10
684.6859897759042
 20
323.1463019339620
 30
0.0000000000000000
 11
683.8902932680080
 21
325.9212254285208
 31
0.0000000000000000
  0
LINE
  5
2F6
100
AcDbEntity
  8
MAIN0
  6
CONTINUOUS
 62
3
100
AcDbLine
 10
689.4922982555968
 20
324.5244887130433
 30
0.0000000000000000
 11
688.6966017477006
 21
327.2994122076024
 31
0.0000000000000000
  0
LINE
  5
2F7
100
AcDbEntity
  8
MAIN0
  6
CONTINUOUS
 62
3
100
AcDbLine
 10
687.4869922696992
 20
322.4479335762232
 30
0.0000000000000000
 11
684.6859897759046
 21
323.1463019339620
 31
0.0000000000000000
  0
LINE
  5
2F8
100
AcDbEntity
  8
MAIN0
  6
CONTINUOUS
 62
3
100
AcDbLine
 10
688.6966017477012
 20
327.2994122076025
 30
0.0000000000000000
 11
685.8955992539068
 21
327.9977805653412
 31
0.0000000000000000
  0
LINE
  5
2F9
100
AcDbEntity
  8
MAIN0
  6
CONTINUOUS
 62
3
100
AcDbLine
 10
689.4922982555974
 20
324.5244887130436
 30
0.0000000000000000
 11
687.4869922696992
 21
322.4479335762235
 31
0.0000000000000000
  0
LINE
  5
2FA
100
AcDbEntity
  8
MAIN0
  6
CONTINUOUS
 62
3
100
AcDbLine
 10
685.8955992539068
 20
327.9977805653412
 30
0.0000000000000000
 11
683.8902932680082
 21
325.9212254285206
 31
0.0000000000000000
  0
LINE
  5
2FB
100
AcDbEntity
  8
MAIN0
  6
CENTER
 62
3
100
AcDbLine
 10
310.9200850353541
 20
468.1996355348026
 30
0.0000000000000000
 11
361.4877054100728
 21
468.1996355348026
 31
0.0000000000000000
  0
LINE
  5
2FC
100
AcDbEntity
  8
MAIN0
  6
CENTER
 62
3
100
AcDbLine
 10
310.9200850353541
 20
493.1996355348026
 30
0.0000000000000000
 11
361.8804010452976
 21
493.1996355348026
 31
0.0000000000000000
  0
LINE
  5
2FD
100
AcDbEntity
  8
MAIN0
  6
CONTINUOUS
 62
3
100
AcDbLine
 10
358.0467283460330
 20
517.1996355348026
 30
0.0000000000000000
 11
358.0467283460330
 21
422.1996355348026
 31
0.0000000000000000
  0
LINE
  5
2FE
100
AcDbEntity
  8
MAIN0
  6
CONTINUOUS
 62
3
100
AcDbLine
 10
322.0967283460329
 20
422.1996355348026
 30
0.0000000000000000
 11
358.0467283460330
 21
422.1996355348026
 31
0.0000000000000000
  0
LINE
  5
2FF
100
AcDbEntity
  8
MAIN0
  6
CONTINUOUS
 62
3
100
AcDbLine
 10
321.0457664517107
 20
517.1996355348026
 30
0.0000000000000000
 11
358.0467283460329
 21
517.1996355348026
 31
0.0000000000000000
  0
LINE
  5
300
100
AcDbEntity
  8
MAIN0
  6
CONTINUOUS
 62
3
100
AcDbLine
 10
321.0467283460330
 20
443.1996355348026
 30
0.0000000000000000
 11
322.0967283460329
 21
443.1996355348026
 31
0.0000000000000000
  0
LINE
  5
301
100
AcDbEntity
  8
MAIN0
  6
CONTINUOUS
 62
3
100
AcDbLine
 10
322.0967283460329
 20
443.1996355348026
 30
0.0000000000000000
 11
322.0967283460329
 21
422.1996355348026
 31
0.0000000000000000
  0
LINE
  5
302
100
AcDbEntity
  8
MAIN0
  6
HIDDEN
 62
3
100
AcDbLine
 10
358.0467283460322
 20
482.5996355348025
 30
0.0000000000000000
 11
357.4467283460322
 21
483.1996355348026
 31
0.0000000000000000
  0
LINE
  5
303
100
AcDbEntity
  8
MAIN0
  6
HIDDEN
 62
3
100
AcDbLine
 10
357.4467283460323
 20
483.1996355348026
 30
0.0000000000000000
 11
335.0467283460324
 21
483.1996355348040
 31
0.0000000000000000
  0
LINE
  5
304
100
AcDbEntity
  8
MAIN0
  6
HIDDEN
 62
3
100
AcDbLine
 10
335.0467283460324
 20
483.1996355348041
 30
0.0000000000000000
 11
335.0467283460336
 21
503.1996355348041
 31
0.0000000000000000
  0
LINE
  5
305
100
AcDbEntity
  8
MAIN0
  6
HIDDEN
 62
3
100
AcDbLine
 10
335.0467283460337
 20
503.1996355348040
 30
0.0000000000000000
 11
357.4467283460336
 21
503.1996355348026
 31
0.0000000000000000
  0
LINE
  5
306
100
AcDbEntity
  8
MAIN0
  6
HIDDEN
 62
3
100
AcDbLine
 10
357.4467283460334
 20
503.1996355348025
 30
0.0000000000000000
 11
358.0467283460334
 21
503.7996355348025
 31
0.0000000000000000
  0
LINE
  5
307
100
AcDbEntity
  8
MAIN0
  6
HIDDEN
 62
3
100
AcDbLine
 10
335.0467283460326
 20
486.4496355348040
 30
0.0000000000000000
 11
325.6967283460296
 21
486.4496355348046
 31
0.0000000000000000
  0
LINE
  5
308
100
AcDbEntity
  8
MAIN0
  6
HIDDEN
 62
3
100
AcDbLine
 10
325.6967283460294
 20
486.4496355348045
 30
0.0000000000000000
 11
325.0967283460294
 21
485.8496355348045
 31
0.0000000000000000
  0
LINE
  5
309
100
AcDbEntity
  8
MAIN0
  6
HIDDEN
 62
3
100
AcDbLine
 10
335.0467283460333
 20
499.9496355348040
 30
0.0000000000000000
 11
325.6967283460305
 21
499.9496355348046
 31
0.0000000000000000
  0
LINE
  5
30A
100
AcDbEntity
  8
MAIN0
  6
HIDDEN
 62
3
100
AcDbLine
 10
325.6967283460302
 20
499.9496355348045
 30
0.0000000000000000
 11
325.0967283460302
 21
500.5496355348047
 31
0.0000000000000000
  0
LINE
  5
30B
100
AcDbEntity
  8
MAIN0
  6
HIDDEN
 62
3
100
AcDbLine
 10
358.0467283460322
 20
457.5996355348025
 30
0.0000000000000000
 11
357.4467283460323
 21
458.1996355348024
 31
0.0000000000000000
  0
LINE
  5
30C
100
AcDbEntity
  8
MAIN0
  6
HIDDEN
 62
3
100
AcDbLine
 10
357.4467283460323
 20
458.1996355348027
 30
0.0000000000000000
 11
335.0467283460324
 21
458.1996355348041
 31
0.0000000000000000
  0
LINE
  5
30D
100
AcDbEntity
  8
MAIN0
  6
HIDDEN
 62
3
100
AcDbLine
 10
335.0467283460324
 20
458.1996355348041
 30
0.0000000000000000
 11
335.0467283460336
 21
478.1996355348041
 31
0.0000000000000000
  0
LINE
  5
30E
100
AcDbEntity
  8
MAIN0
  6
HIDDEN
 62
3
100
AcDbLine
 10
335.0467283460337
 20
478.1996355348041
 30
0.0000000000000000
 11
357.4467283460336
 21
478.1996355348027
 31
0.0000000000000000
  0
LINE
  5
30F
100
AcDbEntity
  8
MAIN0
  6
HIDDEN
 62
3
100
AcDbLine
 10
357.4467283460335
 20
478.1996355348024
 30
0.0000000000000000
 11
358.0467283460336
 21
478.7996355348025
 31
0.0000000000000000
  0
LINE
  5
310
100
AcDbEntity
  8
MAIN0
  6
HIDDEN
 62
3
100
AcDbLine
 10
335.0467283460326
 20
461.4496355348041
 30
0.0000000000000000
 11
325.6967283460295
 21
461.4496355348047
 31
0.0000000000000000
  0
LINE
  5
311
100
AcDbEntity
  8
MAIN0
  6
HIDDEN
 62
3
100
AcDbLine
 10
325.6967283460295
 20
461.4496355348045
 30
0.0000000000000000
 11
325.0967283460295
 21
460.8496355348045
 31
0.0000000000000000
  0
LINE
  5
312
100
AcDbEntity
  8
MAIN0
  6
HIDDEN
 62
3
100
AcDbLine
 10
335.0467283460334
 20
474.9496355348040
 30
0.0000000000000000
 11
325.6967283460305
 21
474.9496355348046
 31
0.0000000000000000
  0
LINE
  5
313
100
AcDbEntity
  8
MAIN0
  6
HIDDEN
 62
3
100
AcDbLine
 10
325.6967283460302
 20
474.9496355348047
 30
0.0000000000000000
 11
325.0967283460303
 21
475.5496355348046
 31
0.0000000000000000
  0
LINE
  5
314
100
AcDbEntity
  8
MAIN0
  6
CONTINUOUS
 62
3
100
AcDbLine
 10
319.7467283460331
 20
516.4496355348024
 30
0.0000000000000000
 11
321.0457664517110
 21
517.1996355348026
 31
0.0000000000000000
  0
LINE
  5
315
100
AcDbEntity
  8
MAIN0
  6
CONTINUOUS
 62
3
100
AcDbLine
 10
319.7467283460333
 20
459.4496355348028
 30
0.0000000000000000
 11
321.0467283460334
 21
460.2001908847486
 31
0.0000000000000000
  0
LINE
  5
316
100
AcDbEntity
  8
MAIN0
  6
CONTINUOUS
 62
3
100
AcDbLine
 10
319.7467283460331
 20
459.4496355348025
 30
0.0000000000000000
 11
321.0467283460334
 21
458.6990801848567
 31
0.0000000000000000
  0
LINE
  5
317
100
AcDbEntity
  8
MAIN0
  6
CONTINUOUS
 62
3
100
AcDbLine
 10
319.7467283460333
 20
457.9496355348028
 30
0.0000000000000000
 11
321.0467283460333
 21
458.7001908847486
 31
0.0000000000000000
  0
LINE
  5
318
100
AcDbEntity
  8
MAIN0
  6
CONTINUOUS
 62
3
100
AcDbLine
 10
319.7467283460335
 20
460.9496355348026
 30
0.0000000000000000
 11
321.0467283460334
 21
460.1990801848568
 31
0.0000000000000000
  0
LINE
  5
319
100
AcDbEntity
  8
MAIN0
  6
CONTINUOUS
 62
3
100
AcDbLine
 10
319.7467283460337
 20
511.9496355348023
 30
0.0000000000000000
 11
321.0467283460336
 21
511.1990801848564
 31
0.0000000000000000
  0
LINE
  5
31A
100
AcDbEntity
  8
MAIN0
  6
CONTINUOUS
 62
3
100
AcDbLine
 10
319.7467283460333
 20
511.9496355348027
 30
0.0000000000000000
 11
321.0467283460332
 21
512.7001908847486
 31
0.0000000000000000
  0
LINE
  5
31B
100
AcDbEntity
  8
MAIN0
  6
CONTINUOUS
 62
3
100
AcDbLine
 10
319.7467283460344
 20
513.4496355348022
 30
0.0000000000000000
 11
321.0467283460343
 21
512.6990801848563
 31
0.0000000000000000
  0
LINE
  5
31C
100
AcDbEntity
  8
MAIN0
  6
CONTINUOUS
 62
3
100
AcDbLine
 10
319.7467283460341
 20
510.4496355348023
 30
0.0000000000000000
 11
321.0467283460339
 21
511.2001908847482
 31
0.0000000000000000
  0
LINE
  5
31D
100
AcDbEntity
  8
MAIN0
  6
PHANTOM
 62
3
100
AcDbLine
 10
319.7467283460330
 20
516.4496355348026
 30
0.0000000000000000
 11
319.7467283460330
 21
513.4496355348031
 31
0.0000000000000000
  0
LINE
  5
31E
100
AcDbEntity
  8
MAIN0
  6
CONTINUOUS
 62
3
100
AcDbLine
 10
319.7467283460329
 20
443.9501908847486
 30
0.0000000000000000
 11
321.0467283460329
 21
443.1996355348027
 31
0.0000000000000000
  0
LINE
  5
31F
100
AcDbEntity
  8
MAIN0
  6
PHANTOM
 62
3
100
AcDbLine
 10
321.0467283460330
 20
517.1996355348026
 30
0.0000000000000000
 11
321.0467283460330
 21
512.6990801848572
 31
0.0000000000000000
  0
LINE
  5
320
100
AcDbEntity
  8
MAIN0
  6
HIDDEN
 62
3
100
AcDbLine
 10
335.0467283460324
 20
484.1996355348040
 30
0.0000000000000000
 11
345.8467283460325
 21
484.1996355348034
 31
0.0000000000000000
  0
LINE
  5
321
100
AcDbEntity
  8
MAIN0
  6
HIDDEN
 62
3
100
AcDbLine
 10
345.8467283460325
 20
484.1996355348034
 30
0.0000000000000000
 11
347.0467283460326
 21
486.2780965038860
 31
0.0000000000000000
  0
LINE
  5
322
100
AcDbEntity
  8
MAIN0
  6
HIDDEN
 62
3
100
AcDbLine
 10
347.0467283460325
 20
486.2780965038860
 30
0.0000000000000000
 11
347.0467283460334
 21
500.1211745657206
 31
0.0000000000000000
  0
LINE
  5
323
100
AcDbEntity
  8
MAIN0
  6
HIDDEN
 62
3
100
AcDbLine
 10
347.0467283460334
 20
500.1211745657205
 30
0.0000000000000000
 11
345.8467283460335
 21
502.1996355348034
 31
0.0000000000000000
  0
LINE
  5
324
100
AcDbEntity
  8
MAIN0
  6
HIDDEN
 62
3
100
AcDbLine
 10
345.8467283460336
 20
502.1996355348034
 30
0.0000000000000000
 11
335.0467283460336
 21
502.1996355348040
 31
0.0000000000000000
  0
LINE
  5
325
100
AcDbEntity
  8
MAIN0
  6
HIDDEN
 62
3
100
AcDbLine
 10
345.8467283460324
 20
484.1996355348034
 30
0.0000000000000000
 11
345.8467283460335
 21
502.1996355348034
 31
0.0000000000000000
  0
LINE
  5
326
100
AcDbEntity
  8
MAIN0
  6
HIDDEN
 62
3
100
AcDbLine
 10
335.0467283460328
 20
487.1996355348041
 30
0.0000000000000000
 11
316.0467283460326
 21
487.1996355348053
 31
0.0000000000000000
  0
LINE
  5
327
100
AcDbEntity
  8
MAIN0
  6
HIDDEN
 62
3
100
AcDbLine
 10
316.0467283460325
 20
499.1996355348053
 30
0.0000000000000000
 11
335.0467283460334
 21
499.1996355348041
 31
0.0000000000000000
  0
LINE
  5
328
100
AcDbEntity
  8
MAIN0
  6
HIDDEN
 62
3
100
AcDbLine
 10
335.0467283460328
 20
488.1468510348041
 30
0.0000000000000000
 11
316.0467283460326
 21
488.1468510348053
 31
0.0000000000000000
  0
LINE
  5
329
100
AcDbEntity
  8
MAIN0
  6
HIDDEN
 62
3
100
AcDbLine
 10
335.0467283460334
 20
498.2524200348041
 30
0.0000000000000000
 11
316.0467283460325
 21
498.2524200348053
 31
0.0000000000000000
  0
LINE
  5
32A
100
AcDbEntity
  8
MAIN0
  6
HIDDEN
 62
3
100
AcDbLine
 10
335.0467283460324
 20
459.1996355348040
 30
0.0000000000000000
 11
345.8467283460325
 21
459.1996355348034
 31
0.0000000000000000
  0
LINE
  5
32B
100
AcDbEntity
  8
MAIN0
  6
HIDDEN
 62
3
100
AcDbLine
 10
345.8467283460324
 20
459.1996355348034
 30
0.0000000000000000
 11
347.0467283460326
 21
461.2780965038860
 31
0.0000000000000000
  0
LINE
  5
32C
100
AcDbEntity
  8
MAIN0
  6
HIDDEN
 62
3
100
AcDbLine
 10
347.0467283460325
 20
461.2780965038860
 30
0.0000000000000000
 11
347.0467283460334
 21
475.1211745657206
 31
0.0000000000000000
  0
LINE
  5
32D
100
AcDbEntity
  8
MAIN0
  6
HIDDEN
 62
3
100
AcDbLine
 10
347.0467283460334
 20
475.1211745657206
 30
0.0000000000000000
 11
345.8467283460335
 21
477.1996355348034
 31
0.0000000000000000
  0
LINE
  5
32E
100
AcDbEntity
  8
MAIN0
  6
HIDDEN
 62
3
100
AcDbLine
 10
345.8467283460336
 20
477.1996355348034
 30
0.0000000000000000
 11
335.0467283460336
 21
477.1996355348040
 31
0.0000000000000000
  0
LINE
  5
32F
100
AcDbEntity
  8
MAIN0
  6
HIDDEN
 62
3
100
AcDbLine
 10
345.8467283460324
 20
459.1996355348034
 30
0.0000000000000000
 11
345.8467283460335
 21
477.1996355348034
 31
0.0000000000000000
  0
LINE
  5
330
100
AcDbEntity
  8
MAIN0
  6
HIDDEN
 62
3
100
AcDbLine
 10
335.0467283460327
 20
462.1996355348040
 30
0.0000000000000000
 11
316.0467283460325
 21
462.1996355348052
 31
0.0000000000000000
  0
LINE
  5
331
100
AcDbEntity
  8
MAIN0
  6
HIDDEN
 62
3
100
AcDbLine
 10
316.0467283460325
 20
474.1996355348053
 30
0.0000000000000000
 11
335.0467283460334
 21
474.1996355348041
 31
0.0000000000000000
  0
LINE
  5
332
100
AcDbEntity
  8
MAIN0
  6
HIDDEN
 62
3
100
AcDbLine
 10
335.0467283460328
 20
463.1468510348041
 30
0.0000000000000000
 11
316.0467283460325
 21
463.1468510348053
 31
0.0000000000000000
  0
LINE
  5
333
100
AcDbEntity
  8
MAIN0
  6
HIDDEN
 62
3
100
AcDbLine
 10
335.0467283460334
 20
473.2524200348040
 30
0.0000000000000000
 11
316.0467283460325
 21
473.2524200348052
 31
0.0000000000000000
  0
LINE
  5
334
100
AcDbEntity
  8
MAIN0
  6
PHANTOM
 62
3
100
AcDbLine
 10
321.0467283460330
 20
505.1996355348026
 30
0.0000000000000000
 11
324.0467283460330
 21
505.1996355348026
 31
0.0000000000000000
  0
LINE
  5
335
100
AcDbEntity
  8
MAIN0
  6
PHANTOM
 62
3
100
AcDbLine
 10
319.7467283460330
 20
443.9501908847485
 30
0.0000000000000000
 11
319.7467283460330
 21
510.4496355348020
 31
0.0000000000000000
  0
LINE
  5
336
100
AcDbEntity
  8
MAIN0
  6
PHANTOM
 62
3
100
AcDbLine
 10
321.0467283460330
 20
443.1996355348026
 30
0.0000000000000000
 11
321.0467283460330
 21
511.2001908847477
 31
0.0000000000000000
  0
LINE
  5
337
100
AcDbEntity
  8
MAIN0
  6
PHANTOM
 62
3
100
AcDbLine
 10
324.0467283460330
 20
457.1996355348026
 30
0.0000000000000000
 11
324.0467283460330
 21
505.1996355348026
 31
0.0000000000000000
  0
LINE
  5
338
100
AcDbEntity
  8
MAIN0
  6
PHANTOM
 62
3
100
AcDbLine
 10
321.0467283460330
 20
457.1996355348026
 30
0.0000000000000000
 11
324.0467283460330
 21
457.1996355348026
 31
0.0000000000000000
  0
LINE
  5
339
100
AcDbEntity
  8
MAIN0
  6
HIDDEN
 62
3
100
AcDbLine
 10
325.0967283460329
 20
422.1996355348026
 30
0.0000000000000000
 11
325.0967283460329
 21
517.1996355348026
 31
0.0000000000000000
  0
LINE
  5
33A
100
AcDbEntity
  8
MAIN0
  6
CONTINUOUS
 62
3
100
AcDbLine
 10
299.0467283460314
 20
424.6994703775712
 30
0.0000000000000000
 11
299.0467283460314
 21
424.4494703775584
 31
0.0000000000000000
  0
LINE
  5
33B
100
AcDbEntity
  8
MAIN0
  6
CONTINUOUS
 62
3
100
AcDbLine
 10
279.0467283460314
 20
424.6994703775712
 30
0.0000000000000000
 11
279.0467283460314
 21
424.4494703775455
 31
0.0000000000000000
  0
LINE
  5
33C
100
AcDbEntity
  8
MAIN0
  6
CONTINUOUS
 62
3
100
AcDbLine
 10
263.5467283460314
 20
427.4494703775712
 30
0.0000000000000000
 11
263.5467283460314
 21
424.4494703775355
 31
0.0000000000000000
  0
LINE
  5
33D
100
AcDbEntity
  8
MAIN0
  6
CONTINUOUS
 62
3
100
AcDbLine
 10
268.2467283460313
 20
427.4494703775712
 30
0.0000000000000000
 11
268.2467283460313
 21
424.4494703775386
 31
0.0000000000000000
  0
LINE
  5
33E
100
AcDbEntity
  8
MAIN0
  6
CONTINUOUS
 62
3
100
AcDbLine
 10
268.2467283460313
 20
427.4494703775712
 30
0.0000000000000000
 11
263.5467283460314
 21
427.4494703775712
 31
0.0000000000000000
  0
LINE
  5
33F
100
AcDbEntity
  8
MAIN0
  6
CONTINUOUS
 62
3
100
AcDbLine
 10
242.5467283460312
 20
424.4494703775220
 30
0.0000000000000000
 11
263.5467283460313
 21
424.4494703775355
 31
0.0000000000000000
  0
LINE
  5
340
100
AcDbEntity
  8
MAIN0
  6
CONTINUOUS
 62
3
100
AcDbLine
 10
268.2467283460314
 20
424.4494703775386
 30
0.0000000000000000
 11
279.0467283460313
 21
424.4494703775455
 31
0.0000000000000000
  0
LINE
  5
341
100
AcDbEntity
  8
MAIN0
  6
CONTINUOUS
 62
3
100
AcDbLine
 10
299.0467283460313
 20
424.4494703775584
 30
0.0000000000000000
 11
311.0467283460312
 21
424.4494703775661
 31
0.0000000000000000
  0
LINE
  5
342
100
AcDbEntity
  8
MAIN0
  6
CONTINUOUS
 62
3
100
AcDbLine
 10
299.0467283460314
 20
424.6994703775712
 30
0.0000000000000000
 11
279.0467283460314
 21
424.6994703775712
 31
0.0000000000000000
  0
LINE
  5
343
100
AcDbEntity
  8
MAIN0
  6
CONTINUOUS
 62
3
100
AcDbLine
 10
299.0467283460314
 20
388.1994703775712
 30
0.0000000000000000
 11
299.0467283460314
 21
388.4494703775840
 31
0.0000000000000000
  0
LINE
  5
344
100
AcDbEntity
  8
MAIN0
  6
CONTINUOUS
 62
3
100
AcDbLine
 10
279.0467283460314
 20
388.1994703775712
 30
0.0000000000000000
 11
279.0467283460314
 21
388.4494703775968
 31
0.0000000000000000
  0
LINE
  5
345
100
AcDbEntity
  8
MAIN0
  6
CONTINUOUS
 62
3
100
AcDbLine
 10
263.5467283460314
 20
385.4494703775712
 30
0.0000000000000000
 11
263.5467283460314
 21
388.4494703776069
 31
0.0000000000000000
  0
LINE
  5
346
100
AcDbEntity
  8
MAIN0
  6
CONTINUOUS
 62
3
100
AcDbLine
 10
268.2467283460313
 20
385.4494703775712
 30
0.0000000000000000
 11
268.2467283460313
 21
388.4494703776038
 31
0.0000000000000000
  0
LINE
  5
347
100
AcDbEntity
  8
MAIN0
  6
CONTINUOUS
 62
3
100
AcDbLine
 10
268.2467283460313
 20
385.4494703775712
 30
0.0000000000000000
 11
263.5467283460314
 21
385.4494703775712
 31
0.0000000000000000
  0
LINE
  5
348
100
AcDbEntity
  8
MAIN0
  6
CONTINUOUS
 62
3
100
AcDbLine
 10
268.2467283460314
 20
388.4494703776038
 30
0.0000000000000000
 11
279.0467283460314
 21
388.4494703775968
 31
0.0000000000000000
  0
LINE
  5
349
100
AcDbEntity
  8
MAIN0
  6
CONTINUOUS
 62
3
100
AcDbLine
 10
299.0467283460314
 20
388.4494703775840
 30
0.0000000000000000
 11
311.0467283460313
 21
388.4494703775762
 31
0.0000000000000000
  0
LINE
  5
34A
100
AcDbEntity
  8
MAIN0
  6
CONTINUOUS
 62
3
100
AcDbLine
 10
299.0467283460314
 20
388.1994703775712
 30
0.0000000000000000
 11
279.0467283460314
 21
388.1994703775712
 31
0.0000000000000000
  0
LINE
  5
34B
100
AcDbEntity
  8
MAIN0
  6
CONTINUOUS
 62
3
100
AcDbLine
 10
242.5467283460312
 20
388.4494703776203
 30
0.0000000000000000
 11
263.5467283460313
 21
388.4494703776069
 31
0.0000000000000000
  0
LINE
  5
34C
100
AcDbEntity
  8
MAIN0
  6
CONTINUOUS
 62
3
100
AcDbLine
 10
311.0467283460314
 20
384.8721193067109
 30
0.0000000000000000
 11
311.0467283460314
 21
388.4494703775712
 31
0.0000000000000000
  0
LINE
  5
34D
100
AcDbEntity
  8
MAIN0
  6
CONTINUOUS
 62
3
100
AcDbLine
 10
311.0467283460314
 20
424.4494703775661
 30
0.0000000000000000
 11
311.0467283460314
 21
428.0268214484315
 31
0.0000000000000000
  0
LINE
  5
34E
100
AcDbEntity
  8
MAIN0
  6
CONTINUOUS
 62
3
100
AcDbLine
 10
242.5467283460314
 20
386.4819502254305
 30
0.0000000000000000
 11
242.5467283460314
 21
388.4494703775712
 31
0.0000000000000000
  0
LINE
  5
34F
100
AcDbEntity
  8
MAIN0
  6
CONTINUOUS
 62
3
100
AcDbLine
 10
242.5467283460314
 20
424.4494703775712
 30
0.0000000000000000
 11
242.5467283460314
 21
426.4169905297119
 31
0.0000000000000000
  0
LINE
  5
350
100
AcDbEntity
  8
MAIN0
  6
CENTER
 62
3
100
AcDbLine
 10
708.6203343609174
 20
451.6698655432788
 30
0.0000000000000000
 11
739.3978422514510
 21
482.4473734338122
 31
0.0000000000000000
  0
LINE
  5
351
100
AcDbEntity
  8
MAIN0
  6
PHANTOM
 62
3
100
AcDbLine
 10
736.5854910482447
 20
469.0284205128075
 30
0.0000000000000000
 11
739.4139181729909
 21
471.8568476375538
 31
0.0000000000000000
  0
LINE
  5
352
100
AcDbEntity
  8
MAIN0
  6
PHANTOM
 62
3
100
AcDbLine
 10
725.9788893304501
 20
479.6350222306096
 30
0.0000000000000000
 11
736.5854910482445
 21
469.0284205128077
 31
0.0000000000000000
  0
LINE
  5
353
100
AcDbEntity
  8
MAIN0
  6
PHANTOM
 62
3
100
AcDbLine
 10
725.9788893304501
 20
479.6350222306095
 30
0.0000000000000000
 11
728.8073164551963
 21
482.4634493553557
 31
0.0000000000000000
  0
LINE
  5
354
100
AcDbEntity
  8
MAIN0
  6
PHANTOM
 62
3
100
AcDbLine
 10
728.8073164551963
 20
482.4634493553558
 30
0.0000000000000000
 11
739.4139181729909
 21
471.8568476375538
 31
0.0000000000000000
  0
LINE
  5
355
100
AcDbEntity
  8
MAIN0
  6
CONTINUOUS
 62
3
100
AcDbLine
 10
98.18499660650093
 20
192.0236260713659
 30
0.0000000000000000
 11
98.18499660646251
 21
157.4236260713659
 31
0.0000000000000000
  0
LINE
  5
356
100
AcDbEntity
  8
MAIN0
  6
CONTINUOUS
 62
3
100
AcDbLine
 10
98.38499660646221
 20
157.2236260713661
 30
0.0000000000000000
 11
102.6849966062837
 21
157.2236260713661
 31
0.0000000000000000
  0
LINE
  5
357
100
AcDbEntity
  8
MAIN0
  6
CONTINUOUS
 62
3
100
AcDbLine
 10
98.38499660650109
 20
192.2236260713661
 30
0.0000000000000000
 11
102.6849966063030
 21
192.2236260713661
 31
0.0000000000000000
  0
LINE
  5
358
100
AcDbEntity
  8
MAIN0
  6
CONTINUOUS
 62
3
100
AcDbLine
 10
102.8849966063074
 20
200.2236260713661
 30
0.0000000000000000
 11
118.4849966063682
 21
200.2236260713661
 31
0.0000000000000000
  0
LINE
  5
359
100
AcDbEntity
  8
MAIN0
  6
CONTINUOUS
 62
3
100
AcDbLine
 10
102.8849966062792
 20
149.2236260713661
 30
0.0000000000000000
 11
118.4849966063964
 21
149.2236260713661
 31
0.0000000000000000
  0
LINE
  5
35A
100
AcDbEntity
  8
MAIN0
  6
CONTINUOUS
 62
3
100
AcDbLine
 10
102.6849966063073
 20
200.0236260713661
 30
0.0000000000000000
 11
102.6849966063030
 21
192.2236260713659
 31
0.0000000000000000
  0
LINE
  5
35B
100
AcDbEntity
  8
MAIN0
  6
CONTINUOUS
 62
3
100
AcDbLine
 10
102.6849966062836
 20
157.2236260713659
 30
0.0000000000000000
 11
102.6849966062792
 21
149.4236260713659
 31
0.0000000000000000
  0
LINE
  5
35C
100
AcDbEntity
  8
MAIN0
  6
CONTINUOUS
 62
3
100
AcDbLine
 10
118.6849966063919
 20
157.2236260713661
 30
0.0000000000000000
 11
138.8189712028998
 21
157.2236260713661
 31
0.0000000000000000
  0
LINE
  5
35D
100
AcDbEntity
  8
MAIN0
  6
CONTINUOUS
 62
3
100
AcDbLine
 10
118.6849966063726
 20
192.2236260713661
 30
0.0000000000000000
 11
138.8189712028998
 21
192.2236260713661
 31
0.0000000000000000
  0
LINE
  5
35E
100
AcDbEntity
  8
MAIN0
  6
CONTINUOUS
 62
3
100
AcDbLine
 10
118.6849966063684
 20
200.0236260713658
 30
0.0000000000000000
 11
118.6849966063727
 21
192.2236260713659
 31
0.0000000000000000
  0
LINE
  5
35F
100
AcDbEntity
  8
MAIN0
  6
CONTINUOUS
 62
3
100
AcDbLine
 10
118.6849966063920
 20
157.2236260713659
 30
0.0000000000000000
 11
118.6849966063963
 21
149.4236260713657
 31
0.0000000000000000
  0
LINE
  5
360
100
AcDbEntity
  8
MAIN0
  6
CONTINUOUS
 62
3
100
AcDbLine
 10
135.7849966061981
 20
167.7236260713661
 30
0.0000000000000000
 11
138.8189712029107
 21
167.7236260713661
 31
0.0000000000000000
  0
LINE
  5
361
100
AcDbEntity
  8
MAIN0
  6
CONTINUOUS
 62
3
100
AcDbLine
 10
135.7849966061981
 20
181.7236260713661
 30
0.0000000000000000
 11
138.8189712029107
 21
181.7236260713661
 31
0.0000000000000000
  0
LINE
  5
362
100
AcDbEntity
  8
MAIN0
  6
CONTINUOUS
 62
3
100
AcDbLine
 10
138.3849966066651
 20
192.2236260713659
 30
0.0000000000000000
 11
138.3849966066535
 21
181.7236260713659
 31
0.0000000000000000
  0
LINE
  5
363
100
AcDbEntity
  8
MAIN0
  6
CONTINUOUS
 62
3
100
AcDbLine
 10
139.6849966065706
 20
191.7236260714320
 30
0.0000000000000000
 11
139.6849966065706
 21
182.2236260712928
 31
0.0000000000000000
  0
LINE
  5
364
100
AcDbEntity
  8
MAIN0
  6
CONTINUOUS
 62
3
100
AcDbLine
 10
120.2663674561502
 20
185.4736260713661
 30
0.0000000000000000
 11
125.4849966064701
 21
185.4736260713661
 31
0.0000000000000000
  0
LINE
  5
365
100
AcDbEntity
  8
MAIN0
  6
CONTINUOUS
 62
3
100
AcDbLine
 10
120.2663674562959
 20
163.9736260713661
 30
0.0000000000000000
 11
125.4849966064489
 21
163.9736260713661
 31
0.0000000000000000
  0
LINE
  5
366
100
AcDbEntity
  8
MAIN0
  6
CONTINUOUS
 62
3
100
AcDbLine
 10
116.6849966063893
 20
181.8922552216005
 30
0.0000000000000000
 11
116.6849966063973
 21
167.5549969212626
 31
0.0000000000000000
  0
LINE
  5
367
100
AcDbEntity
  8
MAIN0
  6
CONTINUOUS
 62
3
100
AcDbLine
 10
138.8189712029104
 20
181.7236260713657
 30
0.0000000000000000
 11
139.6849966065705
 21
182.2236260712927
 31
0.0000000000000000
  0
LINE
  5
368
100
AcDbEntity
  8
MAIN0
  6
CONTINUOUS
 62
3
100
AcDbLine
 10
138.3849966066651
 20
157.2236260713659
 30
0.0000000000000000
 11
138.3849966066535
 21
167.7236260713659
 31
0.0000000000000000
  0
LINE
  5
369
100
AcDbEntity
  8
MAIN0
  6
CONTINUOUS
 62
3
100
AcDbLine
 10
139.6849966065706
 20
157.7236260713001
 30
0.0000000000000000
 11
139.6849966065706
 21
167.2236260714390
 31
0.0000000000000000
  0
LINE
  5
36A
100
AcDbEntity
  8
MAIN0
  6
CONTINUOUS
 62
3
100
AcDbLine
 10
138.8189712029105
 20
167.7236260713661
 30
0.0000000000000000
 11
139.6849966065706
 21
167.2236260714392
 31
0.0000000000000000
  0
LINE
  5
36B
100
AcDbEntity
  8
MAIN0
  6
CONTINUOUS
 62
3
100
AcDbLine
 10
98.38499660650132
 20
192.2236260713662
 30
0.0000000000000000
 11
98.18499660650082
 21
192.0236260713660
 31
0.0000000000000000
  0
LINE
  5
36C
100
AcDbEntity
  8
MAIN0
  6
CONTINUOUS
 62
3
100
AcDbLine
 10
98.18499660646251
 20
157.4236260713660
 30
0.0000000000000000
 11
98.38499660646232
 21
157.2236260713659
 31
0.0000000000000000
  0
LINE
  5
36D
100
AcDbEntity
  8
MAIN0
  6
CONTINUOUS
 62
3
100
AcDbLine
 10
102.8849966063075
 20
200.2236260713659
 30
0.0000000000000000
 11
102.6849966063074
 21
200.0236260713660
 31
0.0000000000000000
  0
LINE
  5
36E
100
AcDbEntity
  8
MAIN0
  6
CONTINUOUS
 62
3
100
AcDbLine
 10
102.6849966062794
 20
149.4236260713660
 30
0.0000000000000000
 11
102.8849966062793
 21
149.2236260713660
 31
0.0000000000000000
  0
LINE
  5
36F
100
AcDbEntity
  8
MAIN0
  6
CONTINUOUS
 62
3
100
AcDbLine
 10
118.6849966063962
 20
149.4236260713657
 30
0.0000000000000000
 11
118.4849966063964
 21
149.2236260713657
 31
0.0000000000000000
  0
LINE
  5
370
100
AcDbEntity
  8
MAIN0
  6
CONTINUOUS
 62
3
100
AcDbLine
 10
118.4849966063682
 20
200.2236260713657
 30
0.0000000000000000
 11
118.6849966063683
 21
200.0236260713658
 31
0.0000000000000000
  0
LINE
  5
371
100
AcDbEntity
  8
MAIN0
  6
CONTINUOUS
 62
3
100
AcDbLine
 10
116.9193111814484
 20
166.9893114963137
 30
0.0000000000000000
 11
119.7006820313467
 21
164.2079406464169
 31
0.0000000000000000
  0
LINE
  5
372
100
AcDbEntity
  8
MAIN0
  6
CONTINUOUS
 62
3
100
AcDbLine
 10
116.9193111814403
 20
182.4579406462358
 30
0.0000000000000000
 11
119.7006820315199
 21
185.2393114963154
 31
0.0000000000000000
  0
ARC
  5
373
100
AcDbEntity
  8
MAIN0
  6
CONTINUOUS
 62
3
100
AcDbCircle
 10
120.2663674564690
 20
184.6736260713659
 30
0.0000000000000000
 40
0.8000000000000000
100
AcDbArc
 50
90.00000000000000
 51
134.9999999999978
  0
ARC
  5
374
100
AcDbEntity
  8
MAIN0
  6
CONTINUOUS
 62
3
100
AcDbCircle
 10
117.4849966063894
 20
181.8922552212863
 30
0.0000000000000000
 40
0.8000000000000000
100
AcDbArc
 50
134.9999999999950
 51
180.0000000000000
  0
ARC
  5
375
100
AcDbEntity
  8
MAIN0
  6
CONTINUOUS
 62
3
100
AcDbCircle
 10
117.4849966063973
 20
167.5549969212633
 30
0.0000000000000000
 40
0.8000000000000000
100
AcDbArc
 50
180.0000000000000
 51
225.0000000000179
  0
ARC
  5
376
100
AcDbEntity
  8
MAIN0
  6
CONTINUOUS
 62
3
100
AcDbCircle
 10
120.2663674562959
 20
164.7736260713663
 30
0.0000000000000000
 40
0.8000000000000000
100
AcDbArc
 50
225.0000000000158
 51
270.0000000000000
  0
ARC
  5
377
100
AcDbEntity
  8
MAIN0
  6
CONTINUOUS
 62
3
100
AcDbCircle
 10
125.4849966064701
 20
184.2736260713658
 30
0.0000000000000000
 40
1.200000000000000
100
AcDbArc
 50
0.0000000000000000
 51
90.00000000000000
  0
ARC
  5
378
100
AcDbEntity
  8
MAIN0
  6
CONTINUOUS
 62
3
100
AcDbCircle
 10
125.4849966064489
 20
165.1736260713659
 30
0.0000000000000000
 40
1.200000000000000
100
AcDbArc
 50
270.0000000000000
 51
360.0000000000000
  0
LINE
  5
379
100
AcDbEntity
  8
MAIN0
  6
CONTINUOUS
 62
3
100
AcDbLine
 10
126.6849966064683
 20
182.6236260708485
 30
0.0000000000000000
 11
127.2849966059509
 21
182.0236260713658
 31
0.0000000000000000
  0
LINE
  5
37A
100
AcDbEntity
  8
MAIN0
  6
CONTINUOUS
 62
3
100
AcDbLine
 10
135.7849966061981
 20
182.0236260713658
 30
0.0000000000000000
 11
127.2849966059509
 21
182.0236260713658
 31
0.0000000000000000
  0
LINE
  5
37B
100
AcDbEntity
  8
MAIN0
  6
CONTINUOUS
 62
3
100
AcDbLine
 10
135.7849966061981
 20
182.0236260713658
 30
0.0000000000000000
 11
135.7849966061981
 21
181.7236260713658
 31
0.0000000000000000
  0
LINE
  5
37C
100
AcDbEntity
  8
MAIN0
  6
CONTINUOUS
 62
3
100
AcDbLine
 10
126.6849966064683
 20
166.8236260718831
 30
0.0000000000000000
 11
127.2849966059509
 21
167.4236260713658
 31
0.0000000000000000
  0
LINE
  5
37D
100
AcDbEntity
  8
MAIN0
  6
CONTINUOUS
 62
3
100
AcDbLine
 10
135.7849966061981
 20
167.4236260713659
 30
0.0000000000000000
 11
135.7849966061981
 21
167.7236260713661
 31
0.0000000000000000
  0
LINE
  5
37E
100
AcDbEntity
  8
MAIN0
  6
CONTINUOUS
 62
3
100
AcDbLine
 10
135.7849966061981
 20
167.4236260713659
 30
0.0000000000000000
 11
127.2849966059509
 21
167.4236260713659
 31
0.0000000000000000
  0
LINE
  5
37F
100
AcDbEntity
  8
MAIN0
  6
CONTINUOUS
 62
3
100
AcDbLine
 10
138.8189712028994
 20
192.2236260713658
 30
0.0000000000000000
 11
139.6849966065704
 21
191.7236260714318
 31
0.0000000000000000
  0
LINE
  5
380
100
AcDbEntity
  8
MAIN0
  6
CONTINUOUS
 62
3
100
AcDbLine
 10
138.8189712028996
 20
157.2236260713661
 30
0.0000000000000000
 11
139.6849966065704
 21
157.7236260713001
 31
0.0000000000000000
  0
LINE
  5
381
100
AcDbEntity
  8
MAIN0
  6
CONTINUOUS
 62
3
100
AcDbLine
 10
126.6849966064590
 20
181.7236260712506
 30
0.0000000000000000
 11
142.4849966064589
 21
181.7236260712506
 31
0.0000000000000000
  0
LINE
  5
382
100
AcDbEntity
  8
MAIN0
  6
CONTINUOUS
 62
3
100
AcDbLine
 10
117.1849966064590
 20
181.2236260714966
 30
0.0000000000000000
 11
117.1849966064601
 21
168.2236260712504
 31
0.0000000000000000
  0
LINE
  5
383
100
AcDbEntity
  8
MAIN0
  6
CONTINUOUS
 62
3
100
AcDbLine
 10
142.6849966064590
 20
181.5236260712506
 30
0.0000000000000000
 11
142.6849966064602
 21
167.9236260712505
 31
0.0000000000000000
  0
LINE
  5
384
100
AcDbEntity
  8
MAIN0
  6
CONTINUOUS
 62
3
100
AcDbLine
 10
126.6849966064600
 20
167.7236260712506
 30
0.0000000000000000
 11
142.4849966064603
 21
167.7236260712506
 31
0.0000000000000000
  0
LINE
  5
385
100
AcDbEntity
  8
MAIN0
  6
CONTINUOUS
 62
3
100
AcDbLine
 10
120.6849966064603
 20
164.7236260712506
 30
0.0000000000000000
 11
126.0849966064602
 21
164.7236260712506
 31
0.0000000000000000
  0
LINE
  5
386
100
AcDbEntity
  8
MAIN0
  6
CONTINUOUS
 62
3
100
AcDbLine
 10
126.6849966064601
 20
165.3236260712506
 30
0.0000000000000000
 11
126.0849966064603
 21
164.7236260712506
 31
0.0000000000000000
  0
LINE
  5
387
100
AcDbEntity
  8
MAIN0
  6
CONTINUOUS
 62
3
100
AcDbLine
 10
126.6849966064586
 20
184.2736260713658
 30
0.0000000000000000
 11
126.6849966064589
 21
181.7236260712503
 31
0.0000000000000000
  0
LINE
  5
388
100
AcDbEntity
  8
MAIN0
  6
CONTINUOUS
 62
3
100
AcDbLine
 10
126.6849966064599
 20
167.7236260712503
 30
0.0000000000000000
 11
126.6849966064601
 21
165.1736260713658
 31
0.0000000000000000
  0
LINE
  5
389
100
AcDbEntity
  8
MAIN0
  6
CONTINUOUS
 62
3
100
AcDbLine
 10
126.0849966064588
 20
184.7236260714980
 30
0.0000000000000000
 11
126.6849966064589
 21
184.1236260714981
 31
0.0000000000000000
  0
LINE
  5
38A
100
AcDbEntity
  8
MAIN0
  6
CONTINUOUS
 62
3
100
AcDbLine
 10
120.6849966064584
 20
184.7236260714969
 30
0.0000000000000000
 11
126.0849966064587
 21
184.7236260714979
 31
0.0000000000000000
  0
LINE
  5
38B
100
AcDbEntity
  8
MAIN0
  6
CONTINUOUS
 62
3
100
AcDbLine
 10
120.6849966064589
 20
184.7236260714971
 30
0.0000000000000000
 11
117.1849966064592
 21
181.2236260714965
 31
0.0000000000000000
  0
LINE
  5
38C
100
AcDbEntity
  8
MAIN0
  6
CONTINUOUS
 62
3
100
AcDbLine
 10
117.1849966064601
 20
168.2236260712506
 30
0.0000000000000000
 11
120.6849966064603
 21
164.7236260712506
 31
0.0000000000000000
  0
LINE
  5
38D
100
AcDbEntity
  8
MAIN0
  6
HIDDEN
 62
3
100
AcDbLine
 10
142.6849966064601
 20
168.7236260713756
 30
0.0000000000000000
 11
117.1849966064601
 21
168.7236260713756
 31
0.0000000000000000
  0
LINE
  5
38E
100
AcDbEntity
  8
MAIN0
  6
HIDDEN
 62
3
100
AcDbLine
 10
142.6849966064591
 20
180.7236260713756
 30
0.0000000000000000
 11
117.1849966064594
 21
180.7236260713756
 31
0.0000000000000000
  0
LINE
  5
38F
100
AcDbEntity
  8
MAIN0
  6
HIDDEN
 62
3
100
AcDbLine
 10
142.6849966064601
 20
169.6236260713757
 30
0.0000000000000000
 11
117.1849966064600
 21
169.6236260713757
 31
0.0000000000000000
  0
LINE
  5
390
100
AcDbEntity
  8
MAIN0
  6
HIDDEN
 62
3
100
AcDbLine
 10
117.1849966064591
 20
179.8236260713755
 30
0.0000000000000000
 11
142.6849966064592
 21
179.8236260713755
 31
0.0000000000000000
  0
LINE
  5
391
100
AcDbEntity
  8
MAIN0
  6
CONTINUOUS
 62
3
100
AcDbLine
 10
142.6849966064590
 20
181.5236260712505
 30
0.0000000000000000
 11
142.4849966064591
 21
181.7236260712505
 31
0.0000000000000000
  0
LINE
  5
392
100
AcDbEntity
  8
MAIN0
  6
CONTINUOUS
 62
3
100
AcDbLine
 10
142.6849966064605
 20
167.9236260712505
 30
0.0000000000000000
 11
142.4849966064604
 21
167.7236260712506
 31
0.0000000000000000
  0
LINE
  5
393
100
AcDbEntity
  8
MAIN0
  6
CONTINUOUS
 62
3
100
AcDbLine
 10
763.5157623248462
 20
368.8548323652010
 30
0.0000000000000000
 11
746.0157623248938
 21
338.5439432327182
 31
0.0000000000000000
  0
LINE
  5
394
100
AcDbEntity
  8
MAIN0
  6
HIDDEN
 62
3
100
AcDbLine
 10
711.5542380977740
 20
398.8548323651912
 30
0.0000000000000000
 11
694.0542380978216
 21
368.5439432327084
 31
0.0000000000000000
  0
LINE
  5
395
100
AcDbEntity
  8
MAIN0
  6
HIDDEN
 62
3
100
AcDbLine
 10
695.2850361991701
 20
381.6897480781411
 30
0.0000000000000000
 11
689.3850361991861
 21
371.4706483134755
 31
0.0000000000000000
  0
LINE
  5
396
100
AcDbEntity
  8
MAIN0
  6
HIDDEN
 62
3
100
AcDbLine
 10
706.6852402790053
 20
401.4350094588784
 30
0.0000000000000000
 11
695.2852402790052
 21
381.6896302525932
 31
0.0000000000000000
  0
LINE
  5
397
100
AcDbEntity
  8
MAIN0
  6
CONTINUOUS
 62
3
100
AcDbLine
 10
751.2657623248796
 20
347.6372099724630
 30
0.0000000000000000
 11
706.1458387877103
 21
373.6872099724629
 31
0.0000000000000000
  0
LINE
  5
398
100
AcDbEntity
  8
MAIN0
  6
CONTINUOUS
 62
3
100
AcDbLine
 10
718.0494286261630
 20
395.1048323652013
 30
0.0000000000000000
 11
712.9994286261767
 21
386.3579757869705
 31
0.0000000000000000
  0
LINE
  5
399
100
AcDbEntity
  8
MAIN0
  6
CONTINUOUS
 62
3
100
AcDbLine
 10
705.5994286261969
 20
373.5407998109491
 30
0.0000000000000000
 11
700.5494286262106
 21
364.7939432327185
 31
0.0000000000000000
  0
LINE
  5
39A
100
AcDbEntity
  8
MAIN0
  6
HIDDEN
 62
3
100
AcDbLine
 10
689.4582412799434
 20
371.1974432327185
 30
0.0000000000000000
 11
689.3850361991863
 21
371.4706483134755
 31
0.0000000000000000
  0
LINE
  5
39B
100
AcDbEntity
  8
MAIN0
  6
HIDDEN
 62
3
100
AcDbLine
 10
706.9584453597619
 20
401.5082145396357
 30
0.0000000000000000
 11
706.6852402790050
 21
401.4350094588788
 31
0.0000000000000000
  0
LINE
  5
39C
100
AcDbEntity
  8
MAIN0
  6
CONTINUOUS
 62
3
100
AcDbLine
 10
706.1458387877101
 20
373.6872099724629
 30
0.0000000000000000
 11
705.5994286261969
 21
373.5407998109489
 31
0.0000000000000000
  0
LINE
  5
39D
100
AcDbEntity
  8
MAIN0
  6
CONTINUOUS
 62
3
100
AcDbLine
 10
713.1458387876911
 20
385.8115656254563
 30
0.0000000000000000
 11
712.9994286261768
 21
386.3579757869703
 31
0.0000000000000000
  0
LINE
  5
39E
100
AcDbEntity
  8
MAIN0
  6
CONTINUOUS
 62
3
100
AcDbLine
 10
758.2657623248607
 20
359.7615656254560
 30
0.0000000000000000
 11
714.3713867665198
 21
385.1039951699747
 31
0.0000000000000000
  0
LINE
  5
39F
100
AcDbEntity
  8
MAIN0
  6
CONTINUOUS
 62
3
100
AcDbLine
 10
714.3713867665198
 20
385.1039951699747
 30
0.0000000000000000
 11
713.1458387876915
 21
385.8115656254560
 31
0.0000000000000000
  0
LINE
  5
3A0
100
AcDbEntity
  8
MAIN0
  6
CONTINUOUS
 62
3
100
AcDbLine
 10
746.9446438104274
 20
338.0076532570001
 30
0.0000000000000000
 11
700.4628260858244
 21
364.8439432327227
 31
0.0000000000000000
  0
LINE
  5
3A1
100
AcDbEntity
  8
MAIN0
  6
HIDDEN
 62
3
100
AcDbLine
 10
700.4628260858244
 20
364.8439432327227
 30
0.0000000000000000
 11
689.4582412799434
 21
371.1974432327182
 31
0.0000000000000000
  0
LINE
  5
3A2
100
AcDbEntity
  8
MAIN0
  6
CONTINUOUS
 62
3
100
AcDbLine
 10
764.4446438104280
 20
368.3185423894551
 30
0.0000000000000000
 11
717.9628260858244
 21
395.1548323651781
 31
0.0000000000000000
  0
LINE
  5
3A3
100
AcDbEntity
  8
MAIN0
  6
HIDDEN
 62
3
100
AcDbLine
 10
717.9628260858244
 20
395.1548323651781
 30
0.0000000000000000
 11
706.9584453597621
 21
401.5082145396353
 31
0.0000000000000000
  0
ARC
  5
3A4
100
AcDbEntity
  8
MAIN0
  6
CONTINUOUS
 62
3
100
AcDbCircle
 10
710.8582743529989
 20
379.0493877989597
 30
0.0000000000000000
 40
7.300000000000000
100
AcDbArc
 50
197.8377097291849
 51
227.8497641628015
  0
ARC
  5
3A5
100
AcDbEntity
  8
MAIN0
  6
CONTINUOUS
 62
3
100
AcDbCircle
 10
710.8582743529989
 20
379.0493877989597
 30
0.0000000000000000
 40
7.300000000000000
100
AcDbArc
 50
72.15023583734629
 51
102.1622902708486
  0
ARC
  5
3A6
100
AcDbEntity
  8
MAIN0
  6
HIDDEN
 62
3
100
AcDbCircle
 10
710.8582743529989
 20
379.0493877989597
 30
0.0000000000000000
 40
7.300000000000000
100
AcDbArc
 50
102.1622902708486
 51
197.8377097291846
  0
LINE
  5
3A7
100
AcDbEntity
  8
MAIN0
  6
CENTER
 62
3
100
AcDbLine
 10
744.9363322639015
 20
374.1743155239174
 30
0.0000000000000000
 11
732.1235387862090
 21
351.9819062336669
 31
0.0000000000000000
  0
LINE
  5
3A8
100
AcDbEntity
  8
MAIN0
  6
CENTER
 62
3
100
AcDbLine
 10
723.2856971692904
 20
386.6743155239174
 30
0.0000000000000000
 11
710.4729036915979
 21
364.4819062336669
 31
0.0000000000000000
  0
LINE
  5
3A9
100
AcDbEntity
  8
MAIN0
  6
CONTINUOUS
 62
3
100
AcDbLine
 10
745.4200908493447
 20
351.0122099724572
 30
0.0000000000000000
 11
706.4489476790761
 21
373.5122099724391
 31
0.0000000000000000
  0
LINE
  5
3AA
100
AcDbEntity
  8
MAIN0
  6
CONTINUOUS
 62
3
100
AcDbLine
 10
706.4489476790759
 20
373.5122099724393
 30
0.0000000000000000
 11
705.3508714677074
 21
377.6102861838451
 31
0.0000000000000000
  0
LINE
  5
3AB
100
AcDbEntity
  8
MAIN0
  6
CONTINUOUS
 62
3
100
AcDbLine
 10
713.4489476790766
 20
385.6365656254214
 30
0.0000000000000000
 11
709.3508714676697
 21
384.5384894140548
 31
0.0000000000000000
  0
LINE
  5
3AC
100
AcDbEntity
  8
MAIN0
  6
CONTINUOUS
 62
3
100
AcDbLine
 10
752.4200908493409
 20
363.1365656254416
 30
0.0000000000000000
 11
745.4200908493442
 21
351.0122099724575
 31
0.0000000000000000
  0
LINE
  5
3AD
100
AcDbEntity
  8
MAIN0
  6
CONTINUOUS
 62
3
100
AcDbLine
 10
705.3564196252713
 20
405.3198958746405
 30
0.0000000000000000
 11
719.2128260858237
 21
397.3198958746397
 31
0.0000000000000000
  0
LINE
  5
3AE
100
AcDbEntity
  8
MAIN0
  6
CONTINUOUS
 62
3
100
AcDbLine
 10
719.2128260858236
 20
397.3198958746397
 30
0.0000000000000000
 11
712.7878260857743
 21
386.1914694359164
 31
0.0000000000000000
  0
LINE
  5
3AF
100
AcDbEntity
  8
MAIN0
  6
CONTINUOUS
 62
3
100
AcDbLine
 10
705.3564196252712
 20
405.3198958746404
 30
0.0000000000000000
 11
685.3564196252816
 21
370.6788797232568
 31
0.0000000000000000
  0
CIRCLE
  5
3B0
100
AcDbEntity
  8
MAIN0
  6
CONTINUOUS
 62
3
100
AcDbCircle
 10
711.6523143091738
 20
393.0247053462554
 30
0.0000000000000000
 40
3.150000000000000
  0
LINE
  5
3B1
100
AcDbEntity
  8
MAIN0
  6
CENTER
 62
3
100
AcDbLine
 10
709.0773143091740
 20
388.5646745167657
 30
0.0000000000000000
 11
714.2273143091740
 21
397.4847361757454
 31
0.0000000000000000
  0
LINE
  5
3B2
100
AcDbEntity
  8
MAIN0
  6
CENTER
 62
3
100
AcDbLine
 10
716.1123451386638
 20
390.4497053462554
 30
0.0000000000000000
 11
707.1922834796840
 21
395.5997053462555
 31
0.0000000000000000
  0
LINE
  5
3B3
100
AcDbEntity
  8
MAIN0
  6
CONTINUOUS
 62
3
100
AcDbLine
 10
685.3564196252818
 20
370.6788797232569
 30
0.0000000000000000
 11
699.2128260858237
 21
362.6788797232621
 31
0.0000000000000000
  0
LINE
  5
3B4
100
AcDbEntity
  8
MAIN0
  6
CONTINUOUS
 62
3
100
AcDbLine
 10
699.2128260858236
 20
362.6788797232622
 30
0.0000000000000000
 11
705.6378260857744
 21
373.8073061617992
 31
0.0000000000000000
  0
CIRCLE
  5
3B5
100
AcDbEntity
  8
MAIN0
  6
CONTINUOUS
 62
3
100
AcDbCircle
 10
699.1523143091738
 20
371.3740702516445
 30
0.0000000000000000
 40
3.150000000000000
  0
LINE
  5
3B6
100
AcDbEntity
  8
MAIN0
  6
CENTER
 62
3
100
AcDbLine
 10
701.7273143091740
 20
375.8341010811344
 30
0.0000000000000000
 11
696.5773143091740
 21
366.9140394221547
 31
0.0000000000000000
  0
LINE
  5
3B7
100
AcDbEntity
  8
MAIN0
  6
CENTER
 62
3
100
AcDbLine
 10
703.6123451386638
 20
368.7990702516444
 30
0.0000000000000000
 11
694.6922834796840
 21
373.9490702516445
 31
0.0000000000000000
  0
LINE
  5
3B8
100
AcDbEntity
  8
MAIN0
  6
CONTINUOUS
 62
3
100
AcDbLine
 10
710.1897498744210
 20
387.6914694359165
 30
0.0000000000000000
 11
703.0397498744247
 21
375.3073061617969
 31
0.0000000000000000
  0
LINE
  5
3B9
100
AcDbEntity
  8
MAIN0
  6
CONTINUOUS
 62
3
100
AcDbLine
 10
710.1897498744212
 20
387.6914694359166
 30
0.0000000000000000
 11
712.7878260857744
 21
386.1914694359166
 31
0.0000000000000000
  0
LINE
  5
3BA
100
AcDbEntity
  8
MAIN0
  6
CONTINUOUS
 62
3
100
AcDbLine
 10
703.0397498744208
 20
375.3073061617993
 30
0.0000000000000000
 11
705.6378260857745
 21
373.8073061617990
 31
0.0000000000000000
  0
LINE
  5
3BB
100
AcDbEntity
  8
MAIN0
  6
HIDDEN
 62
3
100
AcDbLine
 10
637.8999391952689
 20
509.1288662191529
 30
0.0000000000000000
 11
645.6499391954008
 21
511.9496355347663
 31
0.0000000000000000
  0
LINE
  5
3BC
100
AcDbEntity
  8
MAIN0
  6
HIDDEN
 62
3
100
AcDbLine
 10
688.8999391952690
 20
509.1288662191532
 30
0.0000000000000000
 11
681.1499391951371
 21
511.9496355347665
 31
0.0000000000000000
  0
LINE
  5
3BD
100
AcDbEntity
  8
MAIN0
  6
CONTINUOUS
 62
3
100
AcDbLine
 10
563.2841160656860
 20
368.8548323652010
 30
0.0000000000000000
 11
580.7841160656385
 21
338.5439432327182
 31
0.0000000000000000
  0
LINE
  5
3BE
100
AcDbEntity
  8
MAIN0
  6
HIDDEN
 62
3
100
AcDbLine
 10
615.2456402927583
 20
398.8548323651912
 30
0.0000000000000000
 11
632.7456402927107
 21
368.5439432327084
 31
0.0000000000000000
  0
LINE
  5
3BF
100
AcDbEntity
  8
MAIN0
  6
HIDDEN
 62
3
100
AcDbLine
 10
631.5148421913622
 20
381.6897480781411
 30
0.0000000000000000
 11
637.4148421913461
 21
371.4706483134755
 31
0.0000000000000000
  0
LINE
  5
3C0
100
AcDbEntity
  8
MAIN0
  6
HIDDEN
 62
3
100
AcDbLine
 10
620.1146381115270
 20
401.4350094588785
 30
0.0000000000000000
 11
631.5146381115270
 21
381.6896302525932
 31
0.0000000000000000
  0
LINE
  5
3C1
100
AcDbEntity
  8
MAIN0
  6
CONTINUOUS
 62
3
100
AcDbLine
 10
575.5341160656526
 20
347.6372099724630
 30
0.0000000000000000
 11
620.6540396028220
 21
373.6872099724630
 31
0.0000000000000000
  0
LINE
  5
3C2
100
AcDbEntity
  8
MAIN0
  6
CONTINUOUS
 62
3
100
AcDbLine
 10
608.7504497643693
 20
395.1048323652013
 30
0.0000000000000000
 11
613.8004497643556
 21
386.3579757869705
 31
0.0000000000000000
  0
LINE
  5
3C3
100
AcDbEntity
  8
MAIN0
  6
CONTINUOUS
 62
3
100
AcDbLine
 10
621.2004497643354
 20
373.5407998109491
 30
0.0000000000000000
 11
626.2504497643216
 21
364.7939432327185
 31
0.0000000000000000
  0
LINE
  5
3C4
100
AcDbEntity
  8
MAIN0
  6
HIDDEN
 62
3
100
AcDbLine
 10
637.3416371105888
 20
371.1974432327185
 30
0.0000000000000000
 11
637.4148421913459
 21
371.4706483134755
 31
0.0000000000000000
  0
LINE
  5
3C5
100
AcDbEntity
  8
MAIN0
  6
HIDDEN
 62
3
100
AcDbLine
 10
619.8414330307703
 20
401.5082145396357
 30
0.0000000000000000
 11
620.1146381115271
 21
401.4350094588788
 31
0.0000000000000000
  0
LINE
  5
3C6
100
AcDbEntity
  8
MAIN0
  6
CONTINUOUS
 62
3
100
AcDbLine
 10
620.6540396028222
 20
373.6872099724630
 30
0.0000000000000000
 11
621.2004497643353
 21
373.5407998109489
 31
0.0000000000000000
  0
LINE
  5
3C7
100
AcDbEntity
  8
MAIN0
  6
CONTINUOUS
 62
3
100
AcDbLine
 10
613.6540396028411
 20
385.8115656254563
 30
0.0000000000000000
 11
613.8004497643553
 21
386.3579757869703
 31
0.0000000000000000
  0
LINE
  5
3C8
100
AcDbEntity
  8
MAIN0
  6
CONTINUOUS
 62
3
100
AcDbLine
 10
568.5341160656716
 20
359.7615656254561
 30
0.0000000000000000
 11
612.4284916240125
 21
385.1039951699747
 31
0.0000000000000000
  0
LINE
  5
3C9
100
AcDbEntity
  8
MAIN0
  6
CONTINUOUS
 62
3
100
AcDbLine
 10
612.4284916240125
 20
385.1039951699747
 30
0.0000000000000000
 11
613.6540396028408
 21
385.8115656254560
 31
0.0000000000000000
  0
LINE
  5
3CA
100
AcDbEntity
  8
MAIN0
  6
CONTINUOUS
 62
3
100
AcDbLine
 10
579.8552345801049
 20
338.0076532570001
 30
0.0000000000000000
 11
626.3370523047079
 21
364.8439432327227
 31
0.0000000000000000
  0
LINE
  5
3CB
100
AcDbEntity
  8
MAIN0
  6
HIDDEN
 62
3
100
AcDbLine
 10
626.3370523047079
 20
364.8439432327227
 30
0.0000000000000000
 11
637.3416371105889
 21
371.1974432327182
 31
0.0000000000000000
  0
LINE
  5
3CC
100
AcDbEntity
  8
MAIN0
  6
CONTINUOUS
 62
3
100
AcDbLine
 10
562.3552345801041
 20
368.3185423894551
 30
0.0000000000000000
 11
608.8370523047079
 21
395.1548323651781
 31
0.0000000000000000
  0
LINE
  5
3CD
100
AcDbEntity
  8
MAIN0
  6
HIDDEN
 62
3
100
AcDbLine
 10
608.8370523047079
 20
395.1548323651781
 30
0.0000000000000000
 11
619.8414330307701
 21
401.5082145396353
 31
0.0000000000000000
  0
ARC
  5
3CE
100
AcDbEntity
  8
MAIN0
  6
CONTINUOUS
 62
3
100
AcDbCircle
 10
615.9416040375334
 20
379.0493877989597
 30
0.0000000000000000
 40
7.300000000000000
100
AcDbArc
 50
312.1502358371985
 51
342.1622902708151
  0
ARC
  5
3CF
100
AcDbEntity
  8
MAIN0
  6
CONTINUOUS
 62
3
100
AcDbCircle
 10
615.9416040375334
 20
379.0493877989597
 30
0.0000000000000000
 40
7.300000000000000
100
AcDbArc
 50
77.83770972915139
 51
107.8497641626537
  0
ARC
  5
3D0
100
AcDbEntity
  8
MAIN0
  6
HIDDEN
 62
3
100
AcDbCircle
 10
615.9416040375334
 20
379.0493877989597
 30
0.0000000000000000
 40
7.300000000000000
100
AcDbArc
 50
342.1622902708155
 51
437.8377097291514
  0
LINE
  5
3D1
100
AcDbEntity
  8
MAIN0
  6
CENTER
 62
3
100
AcDbLine
 10
581.8635461266308
 20
374.1743155239174
 30
0.0000000000000000
 11
594.6763396043233
 21
351.9819062336669
 31
0.0000000000000000
  0
LINE
  5
3D2
100
AcDbEntity
  8
MAIN0
  6
CENTER
 62
3
100
AcDbLine
 10
603.5141812212419
 20
386.6743155239174
 30
0.0000000000000000
 11
616.3269746989344
 21
364.4819062336669
 31
0.0000000000000000
  0
LINE
  5
3D3
100
AcDbEntity
  8
MAIN0
  6
CONTINUOUS
 62
3
100
AcDbLine
 10
581.3797875411876
 20
351.0122099724572
 30
0.0000000000000000
 11
620.3509307114562
 21
373.5122099724392
 31
0.0000000000000000
  0
LINE
  5
3D4
100
AcDbEntity
  8
MAIN0
  6
CONTINUOUS
 62
3
100
AcDbLine
 10
620.3509307114563
 20
373.5122099724394
 30
0.0000000000000000
 11
621.4490069228248
 21
377.6102861838452
 31
0.0000000000000000
  0
LINE
  5
3D5
100
AcDbEntity
  8
MAIN0
  6
CONTINUOUS
 62
3
100
AcDbLine
 10
613.3509307114556
 20
385.6365656254214
 30
0.0000000000000000
 11
617.4490069228626
 21
384.5384894140548
 31
0.0000000000000000
  0
LINE
  5
3D6
100
AcDbEntity
  8
MAIN0
  6
CONTINUOUS
 62
3
100
AcDbLine
 10
574.3797875411913
 20
363.1365656254416
 30
0.0000000000000000
 11
581.3797875411881
 21
351.0122099724576
 31
0.0000000000000000
  0
LINE
  5
3D7
100
AcDbEntity
  8
MAIN0
  6
CONTINUOUS
 62
3
100
AcDbLine
 10
621.4434587652609
 20
405.3198958746405
 30
0.0000000000000000
 11
607.5870523047084
 21
397.3198958746397
 31
0.0000000000000000
  0
LINE
  5
3D8
100
AcDbEntity
  8
MAIN0
  6
CONTINUOUS
 62
3
100
AcDbLine
 10
607.5870523047086
 20
397.3198958746397
 30
0.0000000000000000
 11
614.0120523047580
 21
386.1914694359165
 31
0.0000000000000000
  0
LINE
  5
3D9
100
AcDbEntity
  8
MAIN0
  6
CONTINUOUS
 62
3
100
AcDbLine
 10
621.4434587652611
 20
405.3198958746404
 30
0.0000000000000000
 11
641.4434587652506
 21
370.6788797232568
 31
0.0000000000000000
  0
CIRCLE
  5
3DA
100
AcDbEntity
  8
MAIN0
  6
CONTINUOUS
 62
3
100
AcDbCircle
 10
615.1475640813585
 20
393.0247053462554
 30
0.0000000000000000
 40
3.150000000000000
  0
LINE
  5
3DB
100
AcDbEntity
  8
MAIN0
  6
CENTER
 62
3
100
AcDbLine
 10
617.7225640813582
 20
388.5646745167657
 30
0.0000000000000000
 11
612.5725640813582
 21
397.4847361757454
 31
0.0000000000000000
  0
LINE
  5
3DC
100
AcDbEntity
  8
MAIN0
  6
CENTER
 62
3
100
AcDbLine
 10
610.6875332518683
 20
390.4497053462554
 30
0.0000000000000000
 11
619.6075949108483
 21
395.5997053462555
 31
0.0000000000000000
  0
LINE
  5
3DD
100
AcDbEntity
  8
MAIN0
  6
CONTINUOUS
 62
3
100
AcDbLine
 10
641.4434587652504
 20
370.6788797232569
 30
0.0000000000000000
 11
627.5870523047084
 21
362.6788797232621
 31
0.0000000000000000
  0
LINE
  5
3DE
100
AcDbEntity
  8
MAIN0
  6
CONTINUOUS
 62
3
100
AcDbLine
 10
627.5870523047087
 20
362.6788797232622
 30
0.0000000000000000
 11
621.1620523047578
 21
373.8073061617993
 31
0.0000000000000000
  0
CIRCLE
  5
3DF
100
AcDbEntity
  8
MAIN0
  6
CONTINUOUS
 62
3
100
AcDbCircle
 10
627.6475640813585
 20
371.3740702516445
 30
0.0000000000000000
 40
3.150000000000000
  0
LINE
  5
3E0
100
AcDbEntity
  8
MAIN0
  6
CENTER
 62
3
100
AcDbLine
 10
625.0725640813582
 20
375.8341010811344
 30
0.0000000000000000
 11
630.2225640813582
 21
366.9140394221547
 31
0.0000000000000000
  0
LINE
  5
3E1
100
AcDbEntity
  8
MAIN0
  6
CENTER
 62
3
100
AcDbLine
 10
623.1875332518683
 20
368.7990702516444
 30
0.0000000000000000
 11
632.1075949108482
 21
373.9490702516445
 31
0.0000000000000000
  0
LINE
  5
3E2
100
AcDbEntity
  8
MAIN0
  6
CONTINUOUS
 62
3
100
AcDbLine
 10
616.6101285161112
 20
387.6914694359165
 30
0.0000000000000000
 11
623.7601285161076
 21
375.3073061617969
 31
0.0000000000000000
  0
LINE
  5
3E3
100
AcDbEntity
  8
MAIN0
  6
CONTINUOUS
 62
3
100
AcDbLine
 10
616.6101285161110
 20
387.6914694359166
 30
0.0000000000000000
 11
614.0120523047577
 21
386.1914694359166
 31
0.0000000000000000
  0
LINE
  5
3E4
100
AcDbEntity
  8
MAIN0
  6
CONTINUOUS
 62
3
100
AcDbLine
 10
623.7601285161115
 20
375.3073061617993
 30
0.0000000000000000
 11
621.1620523047578
 21
373.8073061617990
 31
0.0000000000000000
  0
LINE
  5
3E5
100
AcDbEntity
  8
MAIN0
  6
CONTINUOUS
 62
3
100
AcDbLine
 10
316.1467283459693
 20
459.3496355348026
 30
0.0000000000000000
 11
318.1467283459693
 21
459.3496355348026
 31
0.0000000000000000
  0
LINE
  5
3E6
100
AcDbEntity
  8
MAIN0
  6
CONTINUOUS
 62
3
100
AcDbLine
 10
316.1467283459693
 20
443.3496355348026
 30
0.0000000000000000
 11
318.1467283459693
 21
443.3496355348026
 31
0.0000000000000000
  0
LINE
  5
3E7
100
AcDbEntity
  8
MAIN0
  6
CONTINUOUS
 62
3
100
AcDbLine
 10
318.1467283459693
 20
443.3496355348026
 30
0.0000000000000000
 11
318.1467283459693
 21
459.3496355348026
 31
0.0000000000000000
  0
LINE
  5
3E8
100
AcDbEntity
  8
MAIN0
  6
CONTINUOUS
 62
3
100
AcDbLine
 10
316.1467283459692
 20
443.3496355348026
 30
0.0000000000000000
 11
316.1467283459742
 21
459.4496355348027
 31
0.0000000000000000
  0
ELLIPSE
  5
3E9
100
AcDbEntity
  8
MAIN0
  6
CONTINUOUS
 62
3
100
AcDbEllipse
 10
265.8967283460314
 20
425.9494703775533
 30
0.0000000000000000
 11
-2.350000000000000
 21
0.0000000000000000
 31
0.0000000000000000
210
0.0000000000000000
220
0.0000000000000000
230
1.000000000000000
 40
0.6382978723404255
 41
0.0000000000000000
 42
6.283185307179586
  0
ELLIPSE
  5
3EA
100
AcDbEntity
  8
MAIN0
  6
CONTINUOUS
 62
3
100
AcDbEllipse
 10
265.8967283460314
 20
386.9494703775890
 30
0.0000000000000000
 11
-2.350000000000000
 21
0.0000000000000000
 31
0.0000000000000000
210
0.0000000000000000
220
0.0000000000000000
230
1.000000000000000
 40
0.6382978723404255
 41
0.0000000000000000
 42
6.283185307179586
  0
LINE
  5
3EB
100
AcDbEntity
  8
MAIN0
  6
CONTINUOUS
 62
3
100
AcDbLine
 10
709.3508714676693
 20
384.5384894140549
 30
0.0000000000000000
 11
705.3508714677074
 21
377.6102861838445
 31
0.0000000000000000
  0
CIRCLE
  5
3EC
100
AcDbEntity
  8
MAIN0
  6
CONTINUOUS
 62
3
100
AcDbCircle
 10
716.8771509093003
 20
375.5743877989599
 30
0.0000000000000000
 40
6.000000000000000
  0
CIRCLE
  5
3ED
100
AcDbEntity
  8
MAIN0
  6
CONTINUOUS
 62
3
100
AcDbCircle
 10
716.8771509093003
 20
375.5743877989599
 30
0.0000000000000000
 40
5.100000000000000
  0
CIRCLE
  5
3EE
100
AcDbEntity
  8
MAIN0
  6
CONTINUOUS
 62
3
100
AcDbCircle
 10
738.5277860039114
 20
363.0743877989599
 30
0.0000000000000000
 40
6.000000000000000
  0
CIRCLE
  5
3EF
100
AcDbEntity
  8
MAIN0
  6
CONTINUOUS
 62
3
100
AcDbCircle
 10
738.5277860039114
 20
363.0743877989599
 30
0.0000000000000000
 40
5.100000000000000
  0
LINE
  5
3F0
100
AcDbEntity
  8
MAIN0
  6
CONTINUOUS
 62
3
100
AcDbLine
 10
617.4490069228630
 20
384.5384894140549
 30
0.0000000000000000
 11
621.4490069228248
 21
377.6102861838445
 31
0.0000000000000000
  0
CIRCLE
  5
3F1
100
AcDbEntity
  8
MAIN0
  6
CONTINUOUS
 62
3
100
AcDbCircle
 10
609.9227274812320
 20
375.5743877989599
 30
0.0000000000000000
 40
6.000000000000000
  0
CIRCLE
  5
3F2
100
AcDbEntity
  8
MAIN0
  6
CONTINUOUS
 62
3
100
AcDbCircle
 10
609.9227274812320
 20
375.5743877989599
 30
0.0000000000000000
 40
5.100000000000000
  0
CIRCLE
  5
3F3
100
AcDbEntity
  8
MAIN0
  6
CONTINUOUS
 62
3
100
AcDbCircle
 10
588.2720923866209
 20
363.0743877989599
 30
0.0000000000000000
 40
6.000000000000000
  0
CIRCLE
  5
3F4
100
AcDbEntity
  8
MAIN0
  6
CONTINUOUS
 62
3
100
AcDbCircle
 10
588.2720923866209
 20
363.0743877989599
 30
0.0000000000000000
 40
5.100000000000000
  0
LINE
  5
3F5
100
AcDbEntity
  8
MAIN0
  6
CONTINUOUS
 62
3
100
AcDbLine
 10
316.1467283459732
 20
459.4496355348026
 30
0.0000000000000000
 11
319.7467283462185
 21
459.4496355348026
 31
0.0000000000000000
  0
LINE
  5
3F6
100
AcDbEntity
  8
MAIN0
  6
HIDDEN
 62
3
100
AcDbLine
 10
279.5467283460324
 20
511.9496355348028
 30
0.0000000000000000
 11
316.0467283460325
 21
511.9496355348026
 31
0.0000000000000000
  0
LINE
  5
3F7
100
AcDbEntity
  8
MAIN0
  6
CONTINUOUS
 62
3
100
AcDbLine
 10
316.0467283460325
 20
511.9496355348026
 30
0.0000000000000000
 11
319.7467283458451
 21
511.9496355348026
 31
0.0000000000000000
  0
LINE
  5
3F8
100
AcDbEntity
  8
AIR-DIAGRAM0
  6
CONTINUOUS
 62
3
100
AcDbLine
 10
325.0832049117657
 20
105.9951345692549
 30
0.0000000000000000
 11
313.0832049117657
 21
105.9951345692550
 31
0.0000000000000000
  0
LINE
  5
3F9
100
AcDbEntity
  8
AIR-DIAGRAM0
  6
CONTINUOUS
 62
3
100
AcDbLine
 10
313.0832049117664
 20
105.9951345692563
 30
0.0000000000000000
 11
313.0832049117554
 21
114.9951345692563
 31
0.0000000000000000
  0
LINE
  5
3FA
100
AcDbEntity
  8
AIR-DIAGRAM0
  6
CONTINUOUS
 62
3
100
AcDbLine
 10
325.0832049117576
 20
114.9951345692550
 30
0.0000000000000000
 11
313.0832049117549
 21
114.9951345692550
 31
0.0000000000000000
  0
LINE
  5
3FB
100
AcDbEntity
  8
AIR-DIAGRAM0
  6
CONTINUOUS
 62
3
100
AcDbLine
 10
325.0832049117662
 20
105.9951345692541
 30
0.0000000000000000
 11
325.0832049117581
 21
114.9951345692541
 31
0.0000000000000000
  0
LINE
  5
3FC
100
AcDbEntity
  8
AIR-DIAGRAM0
  6
CONTINUOUS
 62
3
100
AcDbLine
 10
313.0832049117658
 20
105.9951345692550
 30
0.0000000000000000
 11
301.0832049117631
 21
105.9951345692550
 31
0.0000000000000000
  0
LINE
  5
3FD
100
AcDbEntity
  8
AIR-DIAGRAM0
  6
CONTINUOUS
 62
3
100
AcDbLine
 10
301.0832049117635
 20
105.9951345692541
 30
0.0000000000000000
 11
301.0832049117553
 21
114.9951345692541
 31
0.0000000000000000
  0
LINE
  5
3FE
100
AcDbEntity
  8
AIR-DIAGRAM0
  6
CONTINUOUS
 62
3
100
AcDbLine
 10
313.0832049117549
 20
114.9951345692550
 30
0.0000000000000000
 11
301.0832049117549
 21
114.9951345692550
 31
0.0000000000000000
  0
LINE
  5
3FF
100
AcDbEntity
  8
AIR-DIAGRAM0
  6
CONTINUOUS
 62
3
100
AcDbLine
 10
337.0832049117685
 20
105.9951345692550
 30
0.0000000000000000
 11
325.0832049117658
 21
105.9951345692550
 31
0.0000000000000000
  0
LINE
  5
400
100
AcDbEntity
  8
AIR-DIAGRAM0
  6
CONTINUOUS
 62
3
100
AcDbLine
 10
337.0832049117576
 20
114.9951345692550
 30
0.0000000000000000
 11
325.0832049117576
 21
114.9951345692550
 31
0.0000000000000000
  0
LINE
  5
401
100
AcDbEntity
  8
AIR-DIAGRAM0
  6
CONTINUOUS
 62
3
100
AcDbLine
 10
337.0832049117691
 20
105.9951345692562
 30
0.0000000000000000
 11
337.0832049117582
 21
114.9951345692562
 31
0.0000000000000000
  0
LINE
  5
402
100
AcDbEntity
  8
AIR-DIAGRAM0
  6
CONTINUOUS
 62
3
100
AcDbLine
 10
319.9462140111779
 20
108.2451345692551
 30
0.0000000000000000
 11
318.2201958123557
 21
108.2451345692551
 31
0.0000000000000000
  0
LINE
  5
403
100
AcDbEntity
  8
AIR-DIAGRAM0
  6
CONTINUOUS
 62
3
100
AcDbLine
 10
319.0832049117782
 20
73.17287588388231
 30
0.0000000000000000
 11
319.0832049117668
 21
108.2451345692551
 31
0.0000000000000000
  0
LINE
  5
404
100
AcDbEntity
  8
AIR-DIAGRAM0
  6
CONTINUOUS
 62
3
100
AcDbLine
 10
301.0832049117603
 20
107.6302469993513
 30
0.0000000000000000
 11
295.0832049117603
 21
107.6302469993513
 31
0.0000000000000000
  0
LINE
  5
405
100
AcDbEntity
  8
AIR-DIAGRAM0
  6
CONTINUOUS
 62
3
100
AcDbLine
 10
295.0832049117623
 20
107.6302469993508
 30
0.0000000000000000
 11
295.0832049117601
 21
109.8802469993513
 31
0.0000000000000000
  0
LINE
  5
406
100
AcDbEntity
  8
AIR-DIAGRAM0
  6
CONTINUOUS
 62
3
100
AcDbLine
 10
301.0832049117603
 20
109.8802469993513
 30
0.0000000000000000
 11
295.0832049117603
 21
109.8802469993513
 31
0.0000000000000000
  0
LINE
  5
407
100
AcDbEntity
  8
AIR-DIAGRAM0
  6
CONTINUOUS
 62
3
100
AcDbLine
 10
296.5832049117599
 20
112.4783232106999
 30
0.0000000000000000
 11
295.0832049117595
 21
109.8802469993462
 31
0.0000000000000000
  0
LINE
  5
408
100
AcDbEntity
  8
AIR-DIAGRAM0
  6
CONTINUOUS
 62
3
100
AcDbLine
 10
298.0832049117598
 20
109.8802469993460
 30
0.0000000000000000
 11
296.5832049117597
 21
112.4783232106994
 31
0.0000000000000000
  0
LINE
  5
409
100
AcDbEntity
  8
AIR-DIAGRAM0
  6
CONTINUOUS
 62
3
100
AcDbLine
 10
299.5832049117531
 20
112.4783232107024
 30
0.0000000000000000
 11
301.0832049117580
 21
109.8802469993513
 31
0.0000000000000000
  0
LINE
  5
40A
100
AcDbEntity
  8
AIR-DIAGRAM0
  6
CONTINUOUS
 62
3
100
AcDbLine
 10
298.0832049117573
 20
109.8802469993459
 30
0.0000000000000000
 11
299.5832049117527
 21
112.4783232107021
 31
0.0000000000000000
  0
LINE
  5
40B
100
AcDbEntity
  8
AIR-DIAGRAM0
  6
CONTINUOUS
 62
3
100
AcDbLine
 10
298.7327239645773
 20
107.6302469993512
 30
0.0000000000000000
 11
297.4336858588974
 21
109.8802469993512
 31
0.0000000000000000
  0
LINE
  5
40C
100
AcDbEntity
  8
AIR-DIAGRAM0
  6
CONTINUOUS
 62
3
100
AcDbLine
 10
316.4582049117582
 20
100.9951345692551
 30
0.0000000000000000
 11
316.4582049117693
 21
143.7451345692550
 31
0.0000000000000000
  0
LINE
  5
40D
100
AcDbEntity
  8
AIR-DIAGRAM0
  6
CONTINUOUS
 62
3
100
AcDbLine
 10
316.4582049117612
 20
105.9951345692550
 30
0.0000000000000000
 11
315.5392666755205
 21
109.0008461054874
 31
0.0000000000000000
  0
LINE
  5
40E
100
AcDbEntity
  8
AIR-DIAGRAM0
  6
CONTINUOUS
 62
3
100
AcDbLine
 10
316.4582049117607
 20
105.9951345692548
 30
0.0000000000000000
 11
317.3771431479989
 21
109.0008461054799
 31
0.0000000000000000
  0
LINE
  5
40F
100
AcDbEntity
  8
AIR-DIAGRAM0
  6
CONTINUOUS
 62
3
100
AcDbLine
 10
321.7082049117582
 20
100.9951345691907
 30
0.0000000000000000
 11
321.7082049117693
 21
143.7451345692550
 31
0.0000000000000000
  0
LINE
  5
410
100
AcDbEntity
  8
AIR-DIAGRAM0
  6
CONTINUOUS
 62
3
100
AcDbLine
 10
321.7082049117611
 20
105.9951345692550
 30
0.0000000000000000
 11
320.7892666755205
 21
109.0008461054875
 31
0.0000000000000000
  0
LINE
  5
411
100
AcDbEntity
  8
AIR-DIAGRAM0
  6
CONTINUOUS
 62
3
100
AcDbLine
 10
321.7082049117607
 20
105.9951345692550
 30
0.0000000000000000
 11
322.6271431479989
 21
109.0008461054802
 31
0.0000000000000000
  0
LINE
  5
412
100
AcDbEntity
  8
AIR-DIAGRAM0
  6
CONTINUOUS
 62
3
100
AcDbLine
 10
337.0832049117737
 20
107.6302469993700
 30
0.0000000000000000
 11
343.0832049117736
 21
107.6302469993763
 31
0.0000000000000000
  0
LINE
  5
413
100
AcDbEntity
  8
AIR-DIAGRAM0
  6
CONTINUOUS
 62
3
100
AcDbLine
 10
343.0832049117719
 20
107.6302469993759
 30
0.0000000000000000
 11
343.0832049117718
 21
109.8802469993766
 31
0.0000000000000000
  0
LINE
  5
414
100
AcDbEntity
  8
AIR-DIAGRAM0
  6
CONTINUOUS
 62
3
100
AcDbLine
 10
337.0832049117715
 20
109.8802469993700
 30
0.0000000000000000
 11
343.0832049117714
 21
109.8802469993763
 31
0.0000000000000000
  0
LINE
  5
415
100
AcDbEntity
  8
AIR-DIAGRAM0
  6
CONTINUOUS
 62
3
100
AcDbLine
 10
341.5832049117695
 20
112.4783232107234
 30
0.0000000000000000
 11
343.0832049117726
 21
109.8802469993712
 31
0.0000000000000000
  0
LINE
  5
416
100
AcDbEntity
  8
AIR-DIAGRAM0
  6
CONTINUOUS
 62
3
100
AcDbLine
 10
340.0832049117720
 20
109.8802469993679
 30
0.0000000000000000
 11
341.5832049117694
 21
112.4783232107230
 31
0.0000000000000000
  0
LINE
  5
417
100
AcDbEntity
  8
AIR-DIAGRAM0
  6
CONTINUOUS
 62
3
100
AcDbLine
 10
338.5832049117762
 20
112.4783232107231
 30
0.0000000000000000
 11
337.0832049117738
 21
109.8802469993704
 31
0.0000000000000000
  0
LINE
  5
418
100
AcDbEntity
  8
AIR-DIAGRAM0
  6
CONTINUOUS
 62
3
100
AcDbLine
 10
340.0832049117747
 20
109.8802469993681
 30
0.0000000000000000
 11
338.5832049117766
 21
112.4783232107229
 31
0.0000000000000000
  0
LINE
  5
419
100
AcDbEntity
  8
AIR-DIAGRAM0
  6
CONTINUOUS
 62
3
100
AcDbLine
 10
339.4336858589568
 20
107.6302469993726
 30
0.0000000000000000
 11
340.7327239646344
 21
109.8802469993739
 31
0.0000000000000000
  0
LINE
  5
41A
100
AcDbEntity
  8
AIR-DIAGRAM0
  6
CONTINUOUS
 62
3
100
AcDbLine
 10
304.4582049117634
 20
105.9951345692550
 30
0.0000000000000000
 11
304.4582049117622
 21
108.2451345692487
 31
0.0000000000000000
  0
LINE
  5
41B
100
AcDbEntity
  8
AIR-DIAGRAM0
  6
CONTINUOUS
 62
3
100
AcDbLine
 10
305.3212140111734
 20
108.2451345692486
 30
0.0000000000000000
 11
303.5951958123512
 21
108.2451345692486
 31
0.0000000000000000
  0
LINE
  5
41C
100
AcDbEntity
  8
AIR-DIAGRAM0
  6
CONTINUOUS
 62
3
100
AcDbLine
 10
333.7082049117724
 20
105.9951345692706
 30
0.0000000000000000
 11
333.7082049117713
 21
108.2451345692642
 31
0.0000000000000000
  0
LINE
  5
41D
100
AcDbEntity
  8
AIR-DIAGRAM0
  6
CONTINUOUS
 62
3
100
AcDbLine
 10
332.8451958123602
 20
108.2451345692629
 30
0.0000000000000000
 11
334.5712140111824
 21
108.2451345692648
 31
0.0000000000000000
  0
LINE
  5
41E
100
AcDbEntity
  8
AIR-DIAGRAM0
  6
CONTINUOUS
 62
3
100
AcDbLine
 10
308.4582049117581
 20
92.62013456932958
 30
0.0000000000000000
 11
308.4582049117581
 21
80.62013456932964
 31
0.0000000000000000
  0
LINE
  5
41F
100
AcDbEntity
  8
AIR-DIAGRAM0
  6
CONTINUOUS
 62
3
100
AcDbLine
 10
314.4582049117581
 20
92.62013456932962
 30
0.0000000000000000
 11
314.4582049117581
 21
80.62013456932962
 31
0.0000000000000000
  0
LINE
  5
420
100
AcDbEntity
  8
AIR-DIAGRAM0
  6
CONTINUOUS
 62
3
100
AcDbLine
 10
314.4582049117581
 20
92.62013456932979
 30
0.0000000000000000
 11
308.4582049117581
 21
92.62013456932979
 31
0.0000000000000000
  0
LINE
  5
421
100
AcDbEntity
  8
AIR-DIAGRAM0
  6
CONTINUOUS
 62
3
100
AcDbLine
 10
314.4582049117581
 20
80.62013456932979
 30
0.0000000000000000
 11
308.4582049117581
 21
80.62013456932979
 31
0.0000000000000000
  0
LINE
  5
422
100
AcDbEntity
  8
AIR-DIAGRAM0
  6
CONTINUOUS
 62
3
100
AcDbLine
 10
314.4582049117578
 20
80.62013456881243
 30
0.0000000000000000
 11
311.4582049117576
 21
77.62013456880665
 31
0.0000000000000000
  0
LINE
  5
423
100
AcDbEntity
  8
AIR-DIAGRAM0
  6
CONTINUOUS
 62
3
100
AcDbLine
 10
308.4582049117580
 20
80.62013456881222
 30
0.0000000000000000
 11
311.4582049117578
 21
77.62013456880668
 31
0.0000000000000000
  0
LINE
  5
424
100
AcDbEntity
  8
AIR-DIAGRAM0
  6
CONTINUOUS
 62
3
100
AcDbLine
 10
311.4582049117581
 20
90.62013456932979
 30
0.0000000000000000
 11
308.4582049117581
 21
90.62013456932979
 31
0.0000000000000000
  0
LINE
  5
425
100
AcDbEntity
  8
AIR-DIAGRAM0
  6
CONTINUOUS
 62
3
100
AcDbLine
 10
311.4582049117581
 20
82.62013456932979
 30
0.0000000000000000
 11
308.4582049117581
 21
82.62013456932979
 31
0.0000000000000000
  0
LINE
  5
426
100
AcDbEntity
  8
AIR-DIAGRAM0
  6
CONTINUOUS
 62
3
100
AcDbLine
 10
314.4582049117581
 20
86.62013456932979
 30
0.0000000000000000
 11
311.4582049117581
 21
86.62013456932979
 31
0.0000000000000000
  0
LINE
  5
427
100
AcDbEntity
  8
AIR-DIAGRAM0
  6
CONTINUOUS
 62
3
100
AcDbLine
 10
323.7082049117581
 20
92.62013456932959
 30
0.0000000000000000
 11
323.7082049117581
 21
80.62013456932965
 31
0.0000000000000000
  0
LINE
  5
428
100
AcDbEntity
  8
AIR-DIAGRAM0
  6
CONTINUOUS
 62
3
100
AcDbLine
 10
329.7082049117581
 20
92.62013456932958
 30
0.0000000000000000
 11
329.7082049117581
 21
80.62013456932959
 31
0.0000000000000000
  0
LINE
  5
429
100
AcDbEntity
  8
AIR-DIAGRAM0
  6
CONTINUOUS
 62
3
100
AcDbLine
 10
329.7082049117581
 20
92.62013456932976
 30
0.0000000000000000
 11
323.7082049117581
 21
92.62013456932982
 31
0.0000000000000000
  0
LINE
  5
42A
100
AcDbEntity
  8
AIR-DIAGRAM0
  6
CONTINUOUS
 62
3
100
AcDbLine
 10
329.7082049117581
 20
80.62013456932976
 30
0.0000000000000000
 11
323.7082049117581
 21
80.62013456932982
 31
0.0000000000000000
  0
LINE
  5
42B
100
AcDbEntity
  8
AIR-DIAGRAM0
  6
CONTINUOUS
 62
3
100
AcDbLine
 10
329.7082049117580
 20
80.62013456881269
 30
0.0000000000000000
 11
326.7082049117579
 21
77.62013456880685
 31
0.0000000000000000
  0
LINE
  5
42C
100
AcDbEntity
  8
AIR-DIAGRAM0
  6
CONTINUOUS
 62
3
100
AcDbLine
 10
323.7082049117583
 20
80.62013456881243
 30
0.0000000000000000
 11
326.7082049117581
 21
77.62013456880706
 31
0.0000000000000000
  0
LINE
  5
42D
100
AcDbEntity
  8
AIR-DIAGRAM0
  6
CONTINUOUS
 62
3
100
AcDbLine
 10
326.7082049117582
 20
90.62013456932978
 30
0.0000000000000000
 11
323.7082049117582
 21
90.62013456932984
 31
0.0000000000000000
  0
LINE
  5
42E
100
AcDbEntity
  8
AIR-DIAGRAM0
  6
CONTINUOUS
 62
3
100
AcDbLine
 10
326.7082049117581
 20
82.62013456932978
 30
0.0000000000000000
 11
323.7082049117581
 21
82.62013456932984
 31
0.0000000000000000
  0
LINE
  5
42F
100
AcDbEntity
  8
AIR-DIAGRAM0
  6
CONTINUOUS
 62
3
100
AcDbLine
 10
329.7082049117582
 20
86.62013456932968
 30
0.0000000000000000
 11
326.7082049117582
 21
86.62013456932968
 31
0.0000000000000000
  0
MTEXT
  5
430
100
AcDbEntity
  8
AIR-DIAGRAM0
  6
CONTINUOUS
 62
3
100
AcDbMText
 10
328.7418184881622
 20
97.22214503718030
 30
0.0000000000000000
 40
3.099999904632568
 41
0.0000000000000000
 71
     1
 72
     1
  1
{\H0.91x;{EXH2}}
 11
1.000000000000000
 21
0.0000000000000000
 31
0.0000000000000000
  7
STANDARD
  0
MTEXT
  5
431
100
AcDbEntity
  8
AIR-DIAGRAM0
  6
CONTINUOUS
 62
3
100
AcDbMText
 10
299.3410675845592
 20
97.39925224201633
 30
0.0000000000000000
 40
3.099999904632568
 41
0.0000000000000000
 71
     1
 72
     1
  1
{\H0.91x;{EXH1}}
 11
1.000000000000000
 21
0.0000000000000000
 31
0.0000000000000000
  7
STANDARD
  0
MTEXT
  5
432
100
AcDbEntity
  8
AIR-DIAGRAM0
  6
CONTINUOUS
 62
3
100
AcDbMText
 10
293.0133398026481
 20
118.9433093630438
 30
0.0000000000000000
 40
3.099999904632568
 41
0.0000000000000000
 71
     1
 72
     1
  1
{\H0.91x;{SOL1}}
 11
1.000000000000000
 21
0.0000000000000000
 31
0.0000000000000000
  7
STANDARD
  0
MTEXT
  5
433
100
AcDbEntity
  8
AIR-DIAGRAM0
  6
CONTINUOUS
 62
3
100
AcDbMText
 10
334.5816616381691
 20
119.1297153854922
 30
0.0000000000000000
 40
3.099999904632568
 41
0.0000000000000000
 71
     1
 72
     1
  1
{\H0.91x;{SOL2}}
 11
1.000000000000000
 21
0.0000000000000000
 31
0.0000000000000000
  7
STANDARD
  0
LINE
  5
434
100
AcDbEntity
  8
AIR-DIAGRAM0
  6
PHANTOM
 62
3
100
AcDbLine
 10
337.3332049117695
 20
147.1158822192843
 30
0.0000000000000000
 11
301.3332049117695
 21
147.1158822192870
 31
0.0000000000000000
  0
LINE
  5
435
100
AcDbEntity
  8
AIR-DIAGRAM0
  6
PHANTOM
 62
3
100
AcDbLine
 10
337.3332049117693
 20
187.2023762252343
 30
0.0000000000000000
 11
301.3332049117693
 21
187.2023762252370
 31
0.0000000000000000
  0
LINE
  5
436
100
AcDbEntity
  8
AIR-DIAGRAM0
  6
PHANTOM
 62
3
100
AcDbLine
 10
301.3332049117693
 20
147.1158822192869
 30
0.0000000000000000
 11
301.3332049117693
 21
187.2023762252370
 31
0.0000000000000000
  0
LINE
  5
437
100
AcDbEntity
  8
AIR-DIAGRAM0
  6
PHANTOM
 62
3
100
AcDbLine
 10
337.3332049117693
 20
147.1158822192842
 30
0.0000000000000000
 11
337.3332049117693
 21
187.2023762252343
 31
0.0000000000000000
  0
LINE
  5
438
100
AcDbEntity
  8
AIR-DIAGRAM0
  6
CONTINUOUS
 62
3
100
AcDbLine
 10
317.5832049117456
 20
162.7451345692549
 30
0.0000000000000000
 11
317.5832049117402
 21
167.7451345692549
 31
0.0000000000000000
  0
LINE
  5
439
100
AcDbEntity
  8
AIR-DIAGRAM0
  6
CONTINUOUS
 62
3
100
AcDbLine
 10
312.5832049117456
 20
162.7451345692552
 30
0.0000000000000000
 11
312.5832049117402
 21
167.7451345692549
 31
0.0000000000000000
  0
LINE
  5
43A
100
AcDbEntity
  8
AIR-DIAGRAM0
  6
CONTINUOUS
 62
3
100
AcDbLine
 10
317.5832049117448
 20
162.7451345692552
 30
0.0000000000000000
 11
312.5832049117448
 21
162.7451345692553
 31
0.0000000000000000
  0
LINE
  5
43B
100
AcDbEntity
  8
AIR-DIAGRAM0
  6
CONTINUOUS
 62
3
100
AcDbLine
 10
317.5832049117394
 20
167.7451345692552
 30
0.0000000000000000
 11
312.5832049117394
 21
167.7451345692553
 31
0.0000000000000000
  0
LINE
  5
43C
100
AcDbEntity
  8
AIR-DIAGRAM0
  6
CONTINUOUS
 62
3
100
AcDbLine
 10
325.5832049117456
 20
162.7451345692552
 30
0.0000000000000000
 11
325.5832049117402
 21
167.7451345692546
 31
0.0000000000000000
  0
LINE
  5
43D
100
AcDbEntity
  8
AIR-DIAGRAM0
  6
CONTINUOUS
 62
3
100
AcDbLine
 10
320.5832049117456
 20
162.7451345692546
 30
0.0000000000000000
 11
320.5832049117402
 21
167.7451345692546
 31
0.0000000000000000
  0
LINE
  5
43E
100
AcDbEntity
  8
AIR-DIAGRAM0
  6
CONTINUOUS
 62
3
100
AcDbLine
 10
325.5832049117449
 20
162.7451345692552
 30
0.0000000000000000
 11
320.5832049117449
 21
162.7451345692552
 31
0.0000000000000000
  0
LINE
  5
43F
100
AcDbEntity
  8
AIR-DIAGRAM0
  6
CONTINUOUS
 62
3
100
AcDbLine
 10
325.5832049117394
 20
167.7451345692552
 30
0.0000000000000000
 11
320.5832049117394
 21
167.7451345692552
 31
0.0000000000000000
  0
CIRCLE
  5
440
100
AcDbEntity
  8
AIR-DIAGRAM0
  6
CONTINUOUS
 62
3
100
AcDbCircle
 10
315.0900890932058
 20
165.8584645063384
 30
0.0000000000000000
 40
0.9393980633231109
  0
LINE
  5
441
100
AcDbEntity
  8
AIR-DIAGRAM0
  6
CONTINUOUS
 62
3
100
AcDbLine
 10
315.1043161858250
 20
164.5069221858957
 30
0.0000000000000000
 11
313.4966916255728
 21
166.1145467461516
 31
0.0000000000000000
  0
LINE
  5
442
100
AcDbEntity
  8
AIR-DIAGRAM0
  6
CONTINUOUS
 62
3
100
AcDbLine
 10
315.1043161858273
 20
164.5069221858936
 30
0.0000000000000000
 11
316.5981261760581
 21
166.0007321761263
 31
0.0000000000000000
  0
LINE
  5
443
100
AcDbEntity
  8
AIR-DIAGRAM0
  6
CONTINUOUS
 62
3
100
AcDbLine
 10
315.0832049117410
 20
166.7978373446830
 30
0.0000000000000000
 11
315.0832049117324
 21
173.7451345692550
 31
0.0000000000000000
  0
CIRCLE
  5
444
100
AcDbEntity
  8
AIR-DIAGRAM0
  6
CONTINUOUS
 62
3
100
AcDbCircle
 10
323.0763207302767
 20
165.8584645063475
 30
0.0000000000000000
 40
0.9393980633231109
  0
LINE
  5
445
100
AcDbEntity
  8
AIR-DIAGRAM0
  6
CONTINUOUS
 62
3
100
AcDbLine
 10
323.0620936376615
 20
164.5069221859038
 30
0.0000000000000000
 11
324.6697181979124
 21
166.1145467461637
 31
0.0000000000000000
  0
LINE
  5
446
100
AcDbEntity
  8
AIR-DIAGRAM0
  6
CONTINUOUS
 62
3
100
AcDbLine
 10
323.0620936376585
 20
164.5069221859046
 30
0.0000000000000000
 11
321.5682836474265
 21
166.0007321761310
 31
0.0000000000000000
  0
LINE
  5
447
100
AcDbEntity
  8
AIR-DIAGRAM0
  6
CONTINUOUS
 62
3
100
AcDbLine
 10
323.0832049117390
 20
166.7978373446912
 30
0.0000000000000000
 11
323.0832049117295
 21
173.7451345692549
 31
0.0000000000000000
  0
LINE
  5
448
100
AcDbEntity
  8
AIR-DIAGRAM0
  6
CENTER
 62
3
100
AcDbLine
 10
316.5832049117460
 20
161.2081597536982
 30
0.0000000000000000
 11
316.5832049117442
 21
162.7451345692554
 31
0.0000000000000000
  0
LINE
  5
449
100
AcDbEntity
  8
AIR-DIAGRAM0
  6
CENTER
 62
3
100
AcDbLine
 10
321.5832049117425
 20
160.2081597537000
 30
0.0000000000000000
 11
321.5832049117407
 21
162.7451345692627
 31
0.0000000000000000
  0
LINE
  5
44A
100
AcDbEntity
  8
AIR-DIAGRAM0
  6
CENTER
 62
3
100
AcDbLine
 10
315.0832049117466
 20
160.2081597536953
 30
0.0000000000000000
 11
321.5832049117412
 21
160.2081597537007
 31
0.0000000000000000
  0
POLYLINE
  5
44B
100
AcDbEntity
  8
AIR-DIAGRAM0
  6
CENTER
 62
3
100
AcDb2dPolyline
 66
     1
 10
0.0000000000000000
 20
0.0000000000000000
 30
0.0000000000000000
 70
     1
 40
0.5000000000000000
 41
0.5000000000000000
  0
VERTEX
  5
44C
100
AcDbEntity
  8
AIR-DIAGRAM0
  6
CENTER
 62
3
100
AcDbVertex
100
AcDb2dVertex
 10
315.3332049117466
 20
160.2081597536953
 30
0.0000000000000000
 42
1.000000000000000
  0
VERTEX
  5
44D
100
AcDbEntity
  8
AIR-DIAGRAM0
  6
CENTER
 62
3
100
AcDbVertex
100
AcDb2dVertex
 10
314.8332049117466
 20
160.2081597536953
 30
0.0000000000000000
 42
1.000000000000000
  0
SEQEND
  5
44E
100
AcDbEntity
  8
AIR-DIAGRAM0
  6
CENTER
 62
3
  0
ARC
  5
44F
100
AcDbEntity
  8
AIR-DIAGRAM0
  6
CENTER
 62
3
100
AcDbCircle
 10
321.5832049117394
 20
161.2081597537000
 30
0.0000000000000000
 40
0.4761701236253962
100
AcDbArc
 50
179.9999999999999
 51
359.9999999999999
  0
LINE
  5
450
100
AcDbEntity
  8
AIR-DIAGRAM0
  6
CONTINUOUS
 62
3
100
AcDbLine
 10
322.0593750353669
 20
161.2081597537035
 30
0.0000000000000000
 11
323.0832049117467
 21
161.2081597537035
 31
0.0000000000000000
  0
POLYLINE
  5
451
100
AcDbEntity
  8
AIR-DIAGRAM0
  6
CONTINUOUS
 62
3
100
AcDb2dPolyline
 66
     1
 10
0.0000000000000000
 20
0.0000000000000000
 30
0.0000000000000000
 70
     1
 40
0.5000000000000000
 41
0.5000000000000000
  0
VERTEX
  5
452
100
AcDbEntity
  8
AIR-DIAGRAM0
  6
CONTINUOUS
 62
3
100
AcDbVertex
100
AcDb2dVertex
 10
323.3332049117467
 20
161.2081597537035
 30
0.0000000000000000
 42
1.000000000000000
  0
VERTEX
  5
453
100
AcDbEntity
  8
AIR-DIAGRAM0
  6
CONTINUOUS
 62
3
100
AcDbVertex
100
AcDb2dVertex
 10
322.8332049117467
 20
161.2081597537035
 30
0.0000000000000000
 42
1.000000000000000
  0
SEQEND
  5
454
100
AcDbEntity
  8
AIR-DIAGRAM0
  6
CONTINUOUS
 62
3
  0
LINE
  5
455
100
AcDbEntity
  8
AIR-DIAGRAM0
  6
CENTER
 62
3
100
AcDbLine
 10
316.5832049117468
 20
161.2081597536982
 30
0.0000000000000000
 11
321.1070347881138
 21
161.2081597537000
 31
0.0000000000000000
  0
LINE
  5
456
100
AcDbEntity
  8
AIR-DIAGRAM0
  6
CONTINUOUS
 62
3
100
AcDbLine
 10
323.0832049117491
 20
143.7451345692550
 30
0.0000000000000000
 11
321.7082049117692
 21
143.7451345692550
 31
0.0000000000000000
  0
LINE
  5
457
100
AcDbEntity
  8
AIR-DIAGRAM0
  6
CONTINUOUS
 62
3
100
AcDbLine
 10
316.4582049117692
 20
143.7451345692550
 30
0.0000000000000000
 11
315.0832049117491
 21
143.7451345692550
 31
0.0000000000000000
  0
LINE
  5
458
100
AcDbEntity
  8
AIR-DIAGRAM0
  6
CONTINUOUS
 62
3
100
AcDbLine
 10
315.0832049117493
 20
143.7451345692550
 30
0.0000000000000000
 11
315.0832049117434
 21
164.5280334599813
 31
0.0000000000000000
  0
LINE
  5
459
100
AcDbEntity
  8
AIR-DIAGRAM0
  6
CONTINUOUS
 62
3
100
AcDbLine
 10
323.0832049117489
 20
143.7451345692550
 30
0.0000000000000000
 11
323.0832049117431
 21
164.5069221859037
 31
0.0000000000000000
  0
LINE
  5
45A
100
AcDbEntity
  8
AIR-DIAGRAM0
  6
CONTINUOUS
 62
3
100
AcDbLine
 10
329.0832049117294
 20
173.7451345692549
 30
0.0000000000000000
 11
309.0832049117324
 21
173.7451345692550
 31
0.0000000000000000
  0
LINE
  5
45B
100
AcDbEntity
  8
AIR-DIAGRAM0
  6
CONTINUOUS
 62
3
100
AcDbLine
 10
329.0832049117209
 20
181.7451345692549
 30
0.0000000000000000
 11
309.0832049117248
 21
181.7451345692550
 31
0.0000000000000000
  0
LINE
  5
45C
100
AcDbEntity
  8
AIR-DIAGRAM0
  6
CONTINUOUS
 62
3
100
AcDbLine
 10
309.0832049117323
 20
173.7451345692550
 30
0.0000000000000000
 11
309.0832049117247
 21
181.7451345692552
 31
0.0000000000000000
  0
LINE
  5
45D
100
AcDbEntity
  8
AIR-DIAGRAM0
  6
CONTINUOUS
 62
3
100
AcDbLine
 10
329.0832049117293
 20
173.7451345692550
 30
0.0000000000000000
 11
329.0832049117209
 21
181.7451345692550
 31
0.0000000000000000
  0
LINE
  5
45E
100
AcDbEntity
  8
AIR-DIAGRAM0
  6
CONTINUOUS
 62
3
100
AcDbLine
 10
319.0832049117293
 20
173.7451345692444
 30
0.0000000000000000
 11
319.0832049117209
 21
181.7451345692444
 31
0.0000000000000000
  0
LINE
  5
45F
100
AcDbEntity
  8
AIR-DIAGRAM0
  6
CONTINUOUS
 62
3
100
AcDbLine
 10
335.0832049117251
 20
177.7451345692549
 30
0.0000000000000000
 11
319.0832049117250
 21
177.7451345692549
 31
0.0000000000000000
  0
MTEXT
  5
460
100
AcDbEntity
  8
AIR-DIAGRAM0
  6
CONTINUOUS
 62
3
100
AcDbMText
 10
303.7800877295616
 20
197.6684015030596
 30
0.0000000000000000
 40
3.099999904632568
 41
0.0000000000000000
 71
     1
 72
     1
  1
{\H0.93x;{ ロータリチャック\PROTARY CHUCK}}
 11
1.000000000000000
 21
0.0000000000000000
 31
0.0000000000000000
  7
KNJYOKO
  0
LINE
  5
461
100
AcDbEntity
  8
AIR-DIAGRAM0
  6
CONTINUOUS
 62
3
100
AcDbLine
 10
311.4582049117581
 20
92.62013456932966
 30
0.0000000000000000
 11
311.4582049117581
 21
100.9951345692549
 31
0.0000000000000000
  0
LINE
  5
462
100
AcDbEntity
  8
AIR-DIAGRAM0
  6
CONTINUOUS
 62
3
100
AcDbLine
 10
311.4582049117582
 20
100.9951345692550
 30
0.0000000000000000
 11
316.4582049117582
 21
100.9951345692550
 31
0.0000000000000000
  0
LINE
  5
463
100
AcDbEntity
  8
AIR-DIAGRAM0
  6
CONTINUOUS
 62
3
100
AcDbLine
 10
326.7082049117582
 20
92.62013456932979
 30
0.0000000000000000
 11
326.7082049117582
 21
100.9951345691751
 31
0.0000000000000000
  0
LINE
  5
464
100
AcDbEntity
  8
AIR-DIAGRAM0
  6
CONTINUOUS
 62
3
100
AcDbLine
 10
321.7082049117582
 20
100.9951345691907
 30
0.0000000000000000
 11
326.7082049117582
 21
100.9951345691750
 31
0.0000000000000000
  0
LINE
  5
465
100
AcDbEntity
  8
AIR-DIAGRAM0
  6
CONTINUOUS
 62
3
100
AcDbLine
 10
325.2476170359848
 20
157.2473032099803
 30
0.0000000000000000
 11
327.7251975159936
 21
157.3101988739116
 31
0.0000000000000000
  0
LINE
  5
466
100
AcDbEntity
  8
AIR-DIAGRAM0
  6
CONTINUOUS
 62
3
100
AcDbLine
 10
325.2476170359848
 20
157.2473032099804
 30
0.0000000000000000
 11
326.5719085795756
 21
155.4019126665042
 31
0.0000000000000000
  0
LINE
  5
467
100
AcDbEntity
  8
AIR-DIAGRAM0
  6
CONTINUOUS
 62
3
100
AcDbLine
 10
312.9187927875076
 20
157.2473032099804
 30
0.0000000000000000
 11
310.7490719945991
 21
157.3023835720165
 31
0.0000000000000000
  0
LINE
  5
468
100
AcDbEntity
  8
AIR-DIAGRAM0
  6
CONTINUOUS
 62
3
100
AcDbLine
 10
312.9187927875076
 20
157.2473032099803
 30
0.0000000000000000
 11
311.7591238797577
 21
155.6313131009406
 31
0.0000000000000000
  0
LINE
  5
469
100
AcDbEntity
  8
AIR-DIAGRAM0
  6
CONTINUOUS
 62
3
100
AcDbLine
 10
321.3232049117772
 20
41.43546536258863
 30
0.0000000000000000
 11
321.8026335367214
 21
42.26586009959262
 31
0.0000000000000000
  0
LINE
  5
46A
100
AcDbEntity
  8
AIR-DIAGRAM0
  6
CONTINUOUS
 62
3
100
AcDbLine
 10
319.0832049117772
 20
65.25327993459311
 30
0.0000000000000000
 11
319.0832049117772
 21
60.09337199799322
 31
0.0000000000000000
  0
MTEXT
  5
46B
100
AcDbEntity
  8
AIR-DIAGRAM0
  6
CONTINUOUS
 62
3
100
AcDbMText
 10
330.9120726589282
 20
65.01922426647431
 30
0.0000000000000000
 40
3.000000000000000
 41
0.0000000000000000
 71
     1
 72
     1
  1
{\H0.59x;{AIR LUBRICATOR UNIT\Pwith AUTO DRAIN　FILTER\Pオートドレン付エアルブリケータユニット\P(参考相当品)}}
 11
1.000000000000000
 21
0.0000000000000000
 31
0.0000000000000000
  7
KNJYOKO
  0
MTEXT
  5
46C
100
AcDbEntity
  8
AIR-DIAGRAM0
  6
CONTINUOUS
 62
3
100
AcDbMText
 10
330.9812822940079
 20
49.20315709550445
 30
0.0000000000000000
 40
3.000000000000000
 41
0.0000000000000000
 71
     1
 72
     1
  1
{\H0.63x;{AC30A-02CG(SMC)}}
 11
1.000000000000000
 21
0.0000000000000000
 31
0.0000000000000000
  7
STANDARD
  0
LINE
  5
46D
100
AcDbEntity
  8
AIR-DIAGRAM0
  6
CONTINUOUS
 62
4
100
AcDbLine
 10
316.2832049117777
 20
54.20521037769547
 30
0.0000000000000000
 11
321.8832049117776
 21
54.20521037769547
 31
0.0000000000000000
  0
LINE
  5
46E
100
AcDbEntity
  8
AIR-DIAGRAM0
  6
CONTINUOUS
 62
4
100
AcDbLine
 10
319.7451702002099
 20
52.06525664994580
 30
0.0000000000000000
 11
319.0832049117781
 21
54.20521037769594
 31
0.0000000000000000
  0
LINE
  5
46F
100
AcDbEntity
  8
AIR-DIAGRAM0
  6
CONTINUOUS
 62
4
100
AcDbLine
 10
318.4212396233468
 20
52.06525664994551
 30
0.0000000000000000
 11
319.0832049117784
 21
54.20521037769567
 31
0.0000000000000000
  0
LINE
  5
470
100
AcDbEntity
  8
AIR-DIAGRAM0
  6
CONTINUOUS
 62
4
100
AcDbLine
 10
321.8832049117772
 20
48.60521037769544
 30
0.0000000000000000
 11
321.8832049117772
 21
54.20521037769547
 31
0.0000000000000000
  0
LINE
  5
471
100
AcDbEntity
  8
AIR-DIAGRAM0
  6
CONTINUOUS
 62
4
100
AcDbLine
 10
316.2832049117777
 20
48.60521037769544
 30
0.0000000000000000
 11
316.2832049117777
 21
54.20521037769547
 31
0.0000000000000000
  0
LINE
  5
472
100
AcDbEntity
  8
AIR-DIAGRAM0
  6
CONTINUOUS
 62
4
100
AcDbLine
 10
316.2832049117777
 20
48.60521037769544
 30
0.0000000000000000
 11
321.8832049117776
 21
48.60521037769544
 31
0.0000000000000000
  0
LINE
  5
473
100
AcDbEntity
  8
AIR-DIAGRAM0
  6
HIDDEN
 62
4
100
AcDbLine
 10
321.8832049117775
 20
51.40521037769562
 30
0.0000000000000000
 11
324.6832049117772
 21
51.40521037769562
 31
0.0000000000000000
  0
LINE
  5
474
100
AcDbEntity
  8
AIR-DIAGRAM0
  6
HIDDEN
 62
4
100
AcDbLine
 10
324.6832049117772
 20
51.40521037769562
 30
0.0000000000000000
 11
324.6832049117772
 21
58.12521037769565
 31
0.0000000000000000
  0
LINE
  5
475
100
AcDbEntity
  8
AIR-DIAGRAM0
  6
CONTINUOUS
 62
4
100
AcDbLine
 10
313.7432049117776
 20
55.21536502097988
 30
0.0000000000000000
 11
310.3832049117774
 21
61.03505573441196
 31
0.0000000000000000
  0
LINE
  5
476
100
AcDbEntity
  8
AIR-DIAGRAM0
  6
CONTINUOUS
 62
4
100
AcDbLine
 10
310.8799030194470
 20
58.85081879904111
 30
0.0000000000000000
 11
310.3832049117772
 21
61.03505573441176
 31
0.0000000000000000
  0
LINE
  5
477
100
AcDbEntity
  8
AIR-DIAGRAM0
  6
CONTINUOUS
 62
4
100
AcDbLine
 10
315.1234069371330
 20
42.26586009959175
 30
0.0000000000000000
 11
319.0832049117774
 21
38.30606212494720
 31
0.0000000000000000
  0
LINE
  5
478
100
AcDbEntity
  8
AIR-DIAGRAM0
  6
CONTINUOUS
 62
4
100
AcDbLine
 10
319.0832049117780
 20
38.30606212494728
 30
0.0000000000000000
 11
323.0430028864226
 21
42.26586009959185
 31
0.0000000000000000
  0
LINE
  5
479
100
AcDbEntity
  8
AIR-DIAGRAM0
  6
CONTINUOUS
 62
4
100
AcDbLine
 10
315.1234069371332
 20
42.26586009959202
 30
0.0000000000000000
 11
319.0832049117778
 21
46.22565807423658
 31
0.0000000000000000
  0
LINE
  5
47A
100
AcDbEntity
  8
AIR-DIAGRAM0
  6
CONTINUOUS
 62
4
100
AcDbLine
 10
319.0832049117781
 20
46.22565807423634
 30
0.0000000000000000
 11
323.0430028864228
 21
42.26586009959161
 31
0.0000000000000000
  0
LINE
  5
47B
100
AcDbEntity
  8
AIR-DIAGRAM0
  6
HIDDEN
 62
4
100
AcDbLine
 10
315.1234069371334
 20
42.26586009959212
 30
0.0000000000000000
 11
321.3232049117771
 21
42.26586009959212
 31
0.0000000000000000
  0
LINE
  5
47C
100
AcDbEntity
  8
AIR-DIAGRAM0
  6
CONTINUOUS
 62
4
100
AcDbLine
 10
319.0832049117775
 20
36.10586009966559
 30
0.0000000000000000
 11
319.0832049117775
 21
38.30606212494737
 31
0.0000000000000000
  0
LINE
  5
47D
100
AcDbEntity
  8
AIR-DIAGRAM0
  6
CONTINUOUS
 62
4
100
AcDbLine
 10
321.3232049117771
 20
40.54606212494682
 30
0.0000000000000000
 11
321.3232049117771
 21
43.98565807423674
 31
0.0000000000000000
  0
LINE
  5
47E
100
AcDbEntity
  8
AIR-DIAGRAM0
  6
CONTINUOUS
 62
4
100
AcDbLine
 10
312.0264605318581
 20
59.51278408747328
 30
0.0000000000000000
 11
310.3832049117776
 21
61.03505573441222
 31
0.0000000000000000
  0
LINE
  5
47F
100
AcDbEntity
  8
AIR-DIAGRAM0
  6
CONTINUOUS
 62
4
100
AcDbLine
 10
315.9832049117775
 20
58.12521037769565
 30
0.0000000000000000
 11
319.0832049117775
 21
58.12521037769565
 31
0.0000000000000000
  0
POLYLINE
  5
480
100
AcDbEntity
  8
AIR-DIAGRAM0
  6
CONTINUOUS
 62
4
100
AcDb2dPolyline
 66
     1
 10
0.0000000000000000
 20
0.0000000000000000
 30
0.0000000000000000
 70
     1
 40
0.5000000000000000
 41
0.5000000000000000
  0
VERTEX
  5
481
100
AcDbEntity
  8
AIR-DIAGRAM0
  6
CONTINUOUS
 62
4
100
AcDbVertex
100
AcDb2dVertex
 10
319.3332049117775
 20
58.12521037769565
 30
0.0000000000000000
 42
1.000000000000000
  0
VERTEX
  5
482
100
AcDbEntity
  8
AIR-DIAGRAM0
  6
CONTINUOUS
 62
4
100
AcDbVertex
100
AcDb2dVertex
 10
318.8332049117775
 20
58.12521037769565
 30
0.0000000000000000
 42
1.000000000000000
  0
SEQEND
  5
483
100
AcDbEntity
  8
AIR-DIAGRAM0
  6
CONTINUOUS
 62
4
  0
LINE
  5
484
100
AcDbEntity
  8
AIR-DIAGRAM0
  6
HIDDEN
 62
4
100
AcDbLine
 10
319.0832049117775
 20
58.12521037769565
 30
0.0000000000000000
 11
324.6832049117775
 21
58.12521037769565
 31
0.0000000000000000
  0
LINE
  5
485
100
AcDbEntity
  8
AIR-DIAGRAM0
  6
CONTINUOUS
 62
4
100
AcDbLine
 10
316.2832049117775
 20
52.52521037769587
 30
0.0000000000000000
 11
315.6829987207318
 21
50.28521037769585
 31
0.0000000000000000
  0
LINE
  5
486
100
AcDbEntity
  8
AIR-DIAGRAM0
  6
CONTINUOUS
 62
4
100
AcDbLine
 10
315.0827925296861
 20
52.52521037769620
 30
0.0000000000000000
 11
315.6829987207320
 21
50.28521037769605
 31
0.0000000000000000
  0
LINE
  5
487
100
AcDbEntity
  8
AIR-DIAGRAM0
  6
CONTINUOUS
 62
4
100
AcDbLine
 10
315.0827925296858
 20
52.52521037769658
 30
0.0000000000000000
 11
314.4825863386399
 21
50.28521037769626
 31
0.0000000000000000
  0
LINE
  5
488
100
AcDbEntity
  8
AIR-DIAGRAM0
  6
CONTINUOUS
 62
4
100
AcDbLine
 10
313.8823801475954
 20
52.52521037769631
 30
0.0000000000000000
 11
314.4825863386413
 21
50.28521037769615
 31
0.0000000000000000
  0
CIRCLE
  5
489
100
AcDbEntity
  8
AIR-DIAGRAM0
  6
CONTINUOUS
 62
4
100
AcDbCircle
 10
312.0632049117775
 20
58.12521037769565
 30
0.0000000000000000
 40
3.919999999999999
  0
LINE
  5
48A
100
AcDbEntity
  8
AIR-DIAGRAM0
  6
CONTINUOUS
 62
3
100
AcDbLine
 10
317.4666241580030
 20
33.30586009959128
 30
0.0000000000000000
 11
319.0832049117776
 21
36.10586009966570
 31
0.0000000000000000
  0
LINE
  5
48B
100
AcDbEntity
  8
AIR-DIAGRAM0
  6
CONTINUOUS
 62
3
100
AcDbLine
 10
320.6997856655503
 20
33.30586009959345
 30
0.0000000000000000
 11
319.0832049117773
 21
36.10586009966563
 31
0.0000000000000000
  0
LINE
  5
48C
100
AcDbEntity
  8
AIR-DIAGRAM0
  6
CONTINUOUS
 62
3
100
AcDbLine
 10
317.4666241580034
 20
33.30586009959074
 30
0.0000000000000000
 11
320.6997856655509
 21
33.30586009959330
 31
0.0000000000000000
  0
LINE
  5
48D
100
AcDbEntity
  8
AIR-DIAGRAM0
  6
CONTINUOUS
 62
3
100
AcDbLine
 10
323.0430028864229
 20
42.26586009959235
 30
0.0000000000000000
 11
325.2432049117772
 21
42.26586009959235
 31
0.0000000000000000
  0
LINE
  5
48E
100
AcDbEntity
  8
AIR-DIAGRAM0
  6
CONTINUOUS
 62
4
100
AcDbLine
 10
319.0832049117775
 20
46.22565807423641
 30
0.0000000000000000
 11
319.0832049117775
 21
47.82606212494713
 31
0.0000000000000000
  0
LINE
  5
48F
100
AcDbEntity
  8
AIR-DIAGRAM0
  6
CONTINUOUS
 62
4
100
AcDbLine
 10
319.0832049117772
 20
46.40500835233895
 30
0.0000000000000000
 11
319.0832049117772
 21
60.09337199799320
 31
0.0000000000000000
  0
LINE
  5
490
100
AcDbEntity
  8
AIR-DIAGRAM0
  6
CONTINUOUS
 62
4
100
AcDbLine
 10
319.0832049117773
 20
75.76969847932170
 30
0.0000000000000000
 11
319.0832049117773
 21
85.78872425323547
 31
0.0000000000000000
  0
LINE
  5
491
100
AcDbEntity
  8
AIR-DIAGRAM0
  6
PHANTOM
 62
3
100
AcDbLine
 10
288.4339368626505
 20
122.1580999472787
 30
0.0000000000000000
 11
350.0335245166131
 21
122.1580999472787
 31
0.0000000000000000
  0
LINE
  5
492
100
AcDbEntity
  8
AIR-DIAGRAM0
  6
PHANTOM
 62
3
100
AcDbLine
 10
288.4339368626505
 20
74.07619566797777
 30
0.0000000000000000
 11
350.0335245166265
 21
74.07619566797777
 31
0.0000000000000000
  0
LINE
  5
493
100
AcDbEntity
  8
AIR-DIAGRAM0
  6
PHANTOM
 62
3
100
AcDbLine
 10
288.4339368626505
 20
30.44315441303453
 30
0.0000000000000000
 11
350.0335245166385
 21
30.44315441303453
 31
0.0000000000000000
  0
LINE
  5
494
100
AcDbEntity
  8
AIR-DIAGRAM0
  6
PHANTOM
 62
3
100
AcDbLine
 10
288.4339368626505
 20
30.44315441303453
 30
0.0000000000000000
 11
288.4339368626505
 21
51.87540504369108
 31
0.0000000000000000
  0
LINE
  5
495
100
AcDbEntity
  8
AIR-DIAGRAM0
  6
PHANTOM
 62
3
100
AcDbLine
 10
288.4339368626505
 20
62.97266532824287
 30
0.0000000000000000
 11
288.4339368626505
 21
122.1580999472787
 31
0.0000000000000000
  0
LINE
  5
496
100
AcDbEntity
  8
AIR-DIAGRAM0
  6
PHANTOM
 62
3
100
AcDbLine
 10
350.0335245166385
 20
30.44315441303462
 30
0.0000000000000000
 11
350.0335245166358
 21
40.14348845430283
 31
0.0000000000000000
  0
LINE
  5
497
100
AcDbEntity
  8
AIR-DIAGRAM0
  6
CONTINUOUS
 62
4
100
AcDbLine
 10
315.1234069371329
 20
69.21307790923837
 30
0.0000000000000000
 11
319.0832049117774
 21
73.17287588388285
 31
0.0000000000000000
  0
LINE
  5
498
100
AcDbEntity
  8
AIR-DIAGRAM0
  6
CONTINUOUS
 62
4
100
AcDbLine
 10
315.1234069371326
 20
69.21307790923801
 30
0.0000000000000000
 11
319.0832049117771
 21
65.25327993459348
 31
0.0000000000000000
  0
LINE
  5
499
100
AcDbEntity
  8
AIR-DIAGRAM0
  6
CONTINUOUS
 62
4
100
AcDbLine
 10
319.0832049117776
 20
65.25327993459359
 30
0.0000000000000000
 11
323.0430028864222
 21
69.21307790923817
 31
0.0000000000000000
  0
LINE
  5
49A
100
AcDbEntity
  8
AIR-DIAGRAM0
  6
CONTINUOUS
 62
4
100
AcDbLine
 10
319.0832049117778
 20
73.17287588388265
 30
0.0000000000000000
 11
323.0430028864225
 21
69.21307790923792
 31
0.0000000000000000
  0
LINE
  5
49B
100
AcDbEntity
  8
AIR-DIAGRAM0
  6
CONTINUOUS
 62
3
100
AcDbLine
 10
315.1234069370586
 20
69.21307790916387
 30
0.0000000000000000
 11
316.8432049117772
 21
69.21307790916355
 31
0.0000000000000000
  0
MTEXT
  5
49C
100
AcDbEntity
  8
AIR-DIAGRAM0
  6
CONTINUOUS
 62
3
100
AcDbMText
 10
339.0971762058658
 20
89.82659547922819
 30
0.0000000000000000
 40
3.000000000000000
 41
0.0000000000000000
 71
     1
 72
     1
  1
{\H0.63x;{SIRENCER\Pサイレンサ\PAN200-02}}
 11
1.000000000000000
 21
0.0000000000000000
 31
0.0000000000000000
  7
KNJYOKO
  0
LINE
  5
49D
100
AcDbEntity
  8
AIR-DIAGRAM0
  6
PHANTOM
 62
3
100
AcDbLine
 10
350.0335245166282
 20
67.38120084963873
 30
0.0000000000000000
 11
350.0335245166250
 21
79.00837639872918
 31
0.0000000000000000
  0
MTEXT
  5
49E
100
AcDbEntity
  8
AIR-DIAGRAM0
  6
CONTINUOUS
 62
3
100
AcDbMText
 10
297.5751072046897
 20
139.2095404237082
 30
0.0000000000000000
 40
3.099999904632568
 41
0.0000000000000000
 71
     1
 72
     1
  1
{\H0.92x;{A(開)\P(OPEN)}}
 11
1.000000000000000
 21
-2.021286199229721e-015
 31
0.0000000000000000
  7
KNJYOKO
  0
MTEXT
  5
49F
100
AcDbEntity
  8
AIR-DIAGRAM0
  6
CONTINUOUS
 62
3
100
AcDbMText
 10
324.0635093516589
 20
139.4065691956834
 30
0.0000000000000000
 40
3.099999904632568
 41
0.0000000000000000
 71
     1
 72
     1
  1
{\H0.92x;{B(閉)\P(CLOSE)}}
 11
1.000000000000000
 21
-2.021286199229721e-015
 31
0.0000000000000000
  7
KNJYOKO
  0
MTEXT
  5
4A0
100
AcDbEntity
  8
AIR-DIAGRAM0
  6
CONTINUOUS
 62
4
100
AcDbMText
 10
347.2820634995875
 20
106.5464247533392
 30
0.0000000000000000
 40
3.000000000000000
 41
0.0000000000000000
 71
     1
 72
     1
  1
{\H0.63x;{VFS3400-5DZ-02\P}
 11
1.000000000000000
 21
0.0000000000000000
 31
0.0000000000000000
  7
STANDARD
  0
MTEXT
  5
4A1
100
AcDbEntity
  8
AIR-DIAGRAM0
  6
CONTINUOUS
 62
4
100
AcDbMText
 10
347.0069904686291
 20
114.6740327024358
 30
0.0000000000000000
 40
3.000000000000000
 41
0.0000000000000000
 71
     1
 72
     1
  1
{\H0.59x;{ソレノイドバルブ(参考相当品)\PSOLENOID VALVE}}
 11
1.000000000000000
 21
0.0000000000000000
 31
0.0000000000000000
  7
KNJYOKO
  0
LINE
  5
4A2
100
AcDbEntity
  8
AIR-DIAGRAM0
  6
PHANTOM
 62
3
100
AcDbLine
 10
350.0335245166215
 20
91.90736977902634
 30
0.0000000000000000
 11
350.0335245166194
 21
99.16118954063444
 31
0.0000000000000000
  0
LINE
  5
4A3
100
AcDbEntity
  8
AIR-DIAGRAM0
  6
PHANTOM
 62
3
100
AcDbLine
 10
350.0335245166148
 20
115.8900970227568
 30
0.0000000000000000
 11
350.0335245166131
 21
122.1580999472787
 31
0.0000000000000000
  0
MTEXT
  5
4A4
100
AcDbEntity
  8
AIR-DIAGRAM0
  6
CONTINUOUS
 62
3
100
AcDbMText
 10
299.7156529022334
 20
27.55768032851196
 30
0.0000000000000000
 40
5.000000000000000
 41
0.0000000000000000
 71
     1
 72
     1
  1
{\H0.59x;{　　エアー回路図\PＡＩＲ　ＤＩＡＧＲＡＭ\P}
 11
1.000000000000000
 21
0.0000000000000000
 31
0.0000000000000000
  7
KNJYOKO
  0
LINE
  5
4A5
100
AcDbEntity
  8
AIR-DIAGRAM0
  6
CONTINUOUS
 62
3
100
AcDbLine
 10
298.6692432737158
 20
22.25049205384124
 30
0.0000000000000000
 11
339.9998700483311
 21
22.25049205384529
 31
0.0000000000000000
  0
ELLIPSE
  5
4A6
100
AcDbEntity
  8
AIR-DIAGRAM0
  6
CONTINUOUS
 62
3
100
AcDbEllipse
 10
319.0832049117462
 20
153.6655501106431
 30
0.0000000000000000
 11
10.50000000000000
 21
0.0000000000000000
 31
0.0000000000000000
210
0.0000000000000000
220
0.0000000000000000
230
1.000000000000000
 40
0.4213826500238095
 41
0.0000000000000000
 42
6.283185307179586
  0
MTEXT
  5
4A7
100
AcDbEntity
  8
AIR-DIAGRAM0
  6
CONTINUOUS
 62
3
100
AcDbMText
 10
346.7179723529220
 20
102.9447201423776
 30
0.0000000000000000
 40
3.000000000000000
 41
0.0000000000000000
 71
     1
 72
     1
  1
{\H0.63x;{(OR EQUIVALANT)}}
 11
1.000000000000000
 21
0.0000000000000000
 31
0.0000000000000000
  7
STANDARD
  0
MTEXT
  5
4A8
100
AcDbEntity
  8
AIR-DIAGRAM0
  6
CONTINUOUS
 62
3
100
AcDbMText
 10
330.4362156088890
 20
45.42596966146923
 30
0.0000000000000000
 40
3.000000000000000
 41
0.0000000000000000
 71
     1
 72
     1
  1
{\H0.63x;{(OR EQUIVALANT)}}
 11
1.000000000000000
 21
0.0000000000000000
 31
0.0000000000000000
  7
STANDARD
  0
LEADER
  5
4A9
100
AcDbEntity
  8
AIR-DIAGRAM0
  6
CONTINUOUS
 62
3
100
AcDbLeader
  3
AIR-DIAGRAM002
 73
     3
 74
     0
 75
     0
 76
     2
 10
309.7082049117633
 20
105.9951345692487
 30
0.0000000000000000
 10
309.7082049117552
 20
114.9951345692552
 30
0.0000000000000000
1001
ACAD
1000
DSTYLE
1002
{
1070
   173
1070
     1
1070
     6
1000
_OPEN
1070
     7
1000
_OPEN
1002
}
  0
LEADER
  5
4AA
100
AcDbEntity
  8
AIR-DIAGRAM0
  6
CONTINUOUS
 62
3
100
AcDbLeader
  3
AIR-DIAGRAM002
 73
     3
 74
     0
 75
     0
 76
     2
 10
304.4582049117579
 20
114.9951345692487
 30
0.0000000000000000
 10
307.4582049117614
 20
105.9951345692552
 30
0.0000000000000000
1001
ACAD
1000
DSTYLE
1002
{
1070
   173
1070
     1
1070
     6
1000
_OPEN
1070
     7
1000
_OPEN
1002
}
  0
LEADER
  5
4AB
100
AcDbEntity
  8
AIR-DIAGRAM0
  6
CONTINUOUS
 62
3
100
AcDbLeader
  3
AIR-DIAGRAM002
 73
     3
 74
     0
 75
     0
 76
     2
 10
328.4582049117724
 20
105.9951345692585
 30
0.0000000000000000
 10
328.4582049117712
 20
114.9951345692550
 30
0.0000000000000000
1001
ACAD
1000
DSTYLE
1002
{
1070
   173
1070
     1
1070
     6
1000
_OPEN
1070
     7
1000
_OPEN
1002
}
  0
LEADER
  5
4AC
100
AcDbEntity
  8
AIR-DIAGRAM0
  6
CONTINUOUS
 62
3
100
AcDbLeader
  3
AIR-DIAGRAM002
 73
     3
 74
     0
 75
     0
 76
     2
 10
333.7082049117683
 20
114.9951345692640
 30
0.0000000000000000
 10
330.7082049117705
 20
105.9951345692553
 30
0.0000000000000000
1001
ACAD
1000
DSTYLE
1002
{
1070
   173
1070
     1
1070
     6
1000
_OPEN
1070
     7
1000
_OPEN
1002
}
  0
LEADER
  5
4AD
100
AcDbEntity
  8
AIR-DIAGRAM0
  6
CONTINUOUS
 62
3
100
AcDbLeader
  3
AIR-DIAGRAM002
 73
     0
 74
     0
 75
     1
 40
3.000000000000000
 41
23.40099938011173
 76
     3
 10
341.9765686283466
 20
121.9951345692552
 30
0.0000000000000000
 10
345.8312948801727
 20
131.9962453741567
 30
0.0000000000000000
 10
347.5102948801726
 20
131.9962453741567
 30
0.0000000000000000
340
4AE
213
-0.001000000000033197
223
-0.5000000000000000
233
0.0000000000000000
1001
ACAD
1000
DSTYLE
1002
{
1070
   147
1040
0.0
1070
    77
1070
     1
1070
   173
1070
     1
1070
     6
1000
_OPEN
1070
     7
1000
_OPEN
1002
}
  0
MTEXT
  5
4AE
102
{ACAD_REACTORS
330
4AD
102
}
100
AcDbEntity
  8
AIR-DIAGRAM0
  6
CONTINUOUS
 62
3
100
AcDbMText
 10
347.5112948801727
 20
135.4962453741567
 30
0.0000000000000000
 40
3.000000000000000
 41
0.0000000000000000
 71
     1
 72
     1
  1
{\H0.60x;{客先にて手配願います。\PCUSTOMER MUST\PPREPARE}}
 11
1.000000000000000
 21
0.0000000000000000
 31
0.0000000000000000
  7
KNJYOKO
  0
INSERT
  5
4B9
100
AcDbEntity
  8
AIR-DIAGRAM0
  6
CONTINUOUS
 62
1
100
AcDbBlockReference
  2
M2
 10
0.0000000000000000
 20
0.0000000000000000
 30
0.0000000000000000
 50
0.0000000000000000
  0
LEADER
  5
4BA
100
AcDbEntity
  8
AIR-DIAGRAM0
  6
CONTINUOUS
 62
3
100
AcDbLeader
  3
AIR-DIAGRAM002
 73
     0
 75
     1
 40
3.000000000000000
 41
28.79899923706057
 76
     3
 10
286.9871428595362
 20
56.07824059515236
 30
0.0000000000000000
 10
274.6821045915804
 20
42.01652110571517
 30
0.0000000000000000
 10
273.0011045915804
 20
42.01652110571517
 30
0.0000000000000000
340
4BB
213
0.0000000000000000
223
-0.5000000000000000
233
0.0000000000000000
1001
ACAD
1000
DSTYLE
1002
{
1070
   147
1040
0.0
1070
    77
1070
     1
1070
   173
1070
     1
1070
     6
1000
_OPEN
1070
     7
1000
_OPEN
1002
}
  0
MTEXT
  5
4BB
102
{ACAD_REACTORS
330
4BA
102
}
100
AcDbEntity
  8
AIR-DIAGRAM0
  6
CONTINUOUS
 62
3
100
AcDbMText
 10
244.2021053545199
 20
45.51652110571517
 30
0.0000000000000000
 40
3.000000000000000
 41
0.0000000000000000
 71
     1
 72
     1
  1
{\H0.63x;{最高使用エア圧力　\PMAX Permissible \Pair press\PMAX 0.7MPa\P(7.0kgf/cm2)}}
 11
1.000000000000000
 21
0.0000000000000000
 31
0.0000000000000000
  7
KNJYOKO
  0
HATCH
  5
4BC
100
AcDbEntity
  8
AIR-DIAGRAM0
  6
CONTINUOUS
 62
3
100
AcDbHatch
 10
0.000000
 20
0.000000
 30
0.000000
210
0.000000
220
0.000000
230
1.000000
  2
SOLID
 70
1
 71
0
 91
1
 92
7
 72
0
 73
1
 93
3
 10
321.3232049117771
 20
43.09625483659679
 10
321.8026335367214
 20
42.26586009959269
 10
321.3232049117771
 20
41.43546536258882
 97
0
 75
0
 76
1
 47
0.100000
 98
1
 10
0.000000
 20
0.000000
  0
LINE
  5
4BD
100
AcDbEntity
  8
WAKU0
  6
CONTINUOUS
 62
3
100
AcDbLine
 10
412.0000000000000
 20
51.00000000000000
 30
0.0000000000000000
 11
582.0000000000000
 21
51.00000000000000
 31
0.0000000000000000
  0
LINE
  5
4BE
100
AcDbEntity
  8
WAKU0
  6
CONTINUOUS
 62
3
100
AcDbLine
 10
412.0000000000000
 20
51.00000000000000
 30
0.0000000000000000
 11
412.0000000000000
 21
12.00000000000000
 31
0.0000000000000000
  0
LINE
  5
4BF
100
AcDbEntity
  8
WAKU0
  6
CONTINUOUS
 62
3
100
AcDbLine
 10
484.0000000000000
 20
51.00000000000000
 30
0.0000000000000000
 11
484.0000000000000
 21
12.00000000000000
 31
0.0000000000000000
  0
LINE
  5
4C0
100
AcDbEntity
  8
WAKU0
  6
CONTINUOUS
 62
3
100
AcDbLine
 10
504.0000000000000
 20
51.00000000000000
 30
0.0000000000000000
 11
504.0000000000000
 21
12.00000000000000
 31
0.0000000000000000
  0
LINE
  5
4C1
100
AcDbEntity
  8
WAKU0
  6
CONTINUOUS
 62
3
100
AcDbLine
 10
516.0000000000000
 20
51.00000000000000
 30
0.0000000000000000
 11
516.0000000000000
 21
12.00000000000000
 31
0.0000000000000000
  0
LINE
  5
4C2
100
AcDbEntity
  8
WAKU0
  6
CONTINUOUS
 62
3
100
AcDbLine
 10
516.0000000000000
 20
37.00000000000000
 30
0.0000000000000000
 11
582.0000000000000
 21
37.00000000000000
 31
0.0000000000000000
  0
LINE
  5
4C3
100
AcDbEntity
  8
WAKU0
  6
CONTINUOUS
 62
3
100
AcDbLine
 10
504.0000000000000
 20
23.00000000000000
 30
0.0000000000000000
 11
582.0000000000000
 21
23.00000000000000
 31
0.0000000000000000
  0
LINE
  5
4C4
100
AcDbEntity
  8
WAKU0
  6
CONTINUOUS
 62
3
100
AcDbLine
 10
547.0000000000000
 20
51.00000000000000
 30
0.0000000000000000
 11
547.0000000000000
 21
44.00000000000000
 31
0.0000000000000000
  0
LINE
  5
4C5
100
AcDbEntity
  8
WAKU0
  6
CONTINUOUS
 62
3
100
AcDbLine
 10
559.0000000000000
 20
51.00000000000000
 30
0.0000000000000000
 11
559.0000000000000
 21
44.00000000000000
 31
0.0000000000000000
  0
LINE
  5
4C6
100
AcDbEntity
  8
WAKU0
  6
CONTINUOUS
 62
3
100
AcDbLine
 10
484.0000000000000
 20
31.50000000000000
 30
0.0000000000000000
 11
504.0000000000000
 21
31.50000000000000
 31
0.0000000000000000
  0
LINE
  5
4C7
100
AcDbEntity
  8
WAKU0
  6
CONTINUOUS
 62
3
100
AcDbLine
 10
504.0000000000000
 20
44.00000000000000
 30
0.0000000000000000
 11
582.0000000000000
 21
44.00000000000000
 31
0.0000000000000000
  0
LINE
  5
4C8
100
AcDbEntity
  8
WAKU0
  6
CONTINUOUS
 62
3
100
AcDbLine
 10
412.0000000000000
 20
37.00000000000000
 30
0.0000000000000000
 11
484.0000000000000
 21
37.00000000000000
 31
0.0000000000000000
  0
LINE
  5
4C9
100
AcDbEntity
  8
WAKU0
  6
CONTINUOUS
 62
3
100
AcDbLine
 10
412.0000000000000
 20
23.00000000000000
 30
0.0000000000000000
 11
484.0000000000000
 21
23.00000000000000
 31
0.0000000000000000
  0
LINE
  5
4CA
100
AcDbEntity
  8
WAKU0
  6
CONTINUOUS
 62
3
100
AcDbLine
 10
460.0000000000000
 20
37.00000000000000
 30
0.0000000000000000
 11
460.0000000000000
 21
12.00000000000000
 31
0.0000000000000000
  0
LINE
  5
4CB
100
AcDbEntity
  8
WAKU0
  6
CONTINUOUS
 62
3
100
AcDbLine
 10
436.0000000000000
 20
37.00000000000000
 30
0.0000000000000000
 11
436.0000000000000
 21
23.00000000000000
 31
0.0000000000000000
  0
LINE
  5
4CC
100
AcDbEntity
  8
WAKU0
  6
CONTINUOUS
 62
3
100
AcDbLine
 10
472.0000000000000
 20
26.00000000000000
 30
0.0000000000000000
 11
472.0000000000000
 21
23.00000000000000
 31
0.0000000000000000
  0
LINE
  5
4CD
100
AcDbEntity
  8
WAKU0
  6
CONTINUOUS
 62
3
100
AcDbLine
 10
448.0000000000000
 20
26.00000000000000
 30
0.0000000000000000
 11
448.0000000000000
 21
23.00000000000000
 31
0.0000000000000000
  0
LINE
  5
4CE
100
AcDbEntity
  8
WAKU0
  6
CONTINUOUS
 62
3
100
AcDbLine
 10
424.0000000000000
 20
26.00000000000000
 30
0.0000000000000000
 11
424.0000000000000
 21
23.00000000000000
 31
0.0000000000000000
  0
LINE
  5
4CF
100
AcDbEntity
  8
WAKU0
  6
CONTINUOUS
 62
3
100
AcDbLine
 10
430.0000000000000
 20
51.00000000000000
 30
0.0000000000000000
 11
430.0000000000000
 21
37.00000000000000
 31
0.0000000000000000
  0
LINE
  5
4D0
100
AcDbEntity
  8
WAKU0
  6
CONTINUOUS
 62
3
100
AcDbLine
 10
412.0000000000000
 20
45.00000000000000
 30
0.0000000000000000
 11
484.0000000000000
 21
45.00000000000000
 31
0.0000000000000000
  0
LINE
  5
4D1
100
AcDbEntity
  8
WAKU0
  6
HIDDEN
 62
3
100
AcDbLine
 10
532.5000000000000
 20
23.00000000000000
 30
0.0000000000000000
 11
532.5000000000000
 21
12.00000000000000
 31
0.0000000000000000
  0
LINE
  5
4D2
100
AcDbEntity
  8
WAKU0
  6
HIDDEN
 62
3
100
AcDbLine
 10
544.9000000000000
 20
23.00000000000000
 30
0.0000000000000000
 11
544.9000000000000
 21
12.00000000000000
 31
0.0000000000000000
  0
MTEXT
  5
4D3
100
AcDbEntity
  8
WAKU0
  6
CONTINUOUS
 62
3
100
AcDbMText
 10
516.4820000243485
 20
49.04999995231628
 30
0.0000000000000000
 40
3.099999904632568
 41
0.0000000000000000
 71
     1
 72
     1
  1
{\H0.92x;{NRC08}}
 11
1.000000000000000
 21
0.0000000000000000
 31
0.0000000000000000
  7
STANDARD
  0
MTEXT
  5
4D4
100
AcDbEntity
  8
WAKU0
  6
CONTINUOUS
 62
3
100
AcDbMText
 10
516.6199999901653
 20
42.50000000000000
 30
0.0000000000000000
 40
4.000000000000000
 41
0.0000000000000000
 71
     1
 72
     1
  1
{\H0.94x;{ＲＯＴＡＲＹ　ＣＨＵＣＫ　８}}
 11
1.000000000000000
 21
0.0000000000000000
 31
0.0000000000000000
  7
KNJYOKO
  0
MTEXT
  5
4D5
100
AcDbEntity
  8
WAKU0
  6
CONTINUOUS
 62
3
100
AcDbMText
 10
516.6199999901653
 20
34.83333333333333
 30
0.0000000000000000
 40
4.000000000000000
 41
0.0000000000000000
 71
     1
 72
     1
  1
{\H0.94x;{ＮＲＣ０８　ガイケイ\P　　ＯＵＴＳＩＤＥ　ＶＩＥＷ}}
 11
1.000000000000000
 21
0.0000000000000000
 31
0.0000000000000000
  7
KNJYOKO
  0
MTEXT
  5
4D6
100
AcDbEntity
  8
WAKU0
  6
CONTINUOUS
 62
3
100
AcDbMText
 10
490.0049998760223
 20
39.29999995231628
 30
0.0000000000000000
 40
3.099999904632568
 41
0.0000000000000000
 71
     1
 72
     1
  1
{\H0.90x;{2:3}}
 11
1.000000000000000
 21
0.0000000000000000
 31
0.0000000000000000
  7
STANDARD
  0
MTEXT
  5
4D7
100
AcDbEntity
  8
WAKU0
  6
CONTINUOUS
 62
3
100
AcDbMText
 10
546.4000001549721
 20
20.15000009536743
 30
0.0000000000000000
 40
5.300000190734863
 41
0.0000000000000000
 71
     1
 72
     1
  1
{\H0.90x;{2641}}
 11
1.000000000000000
 21
0.0000000000000000
 31
0.0000000000000000
  7
STANDARD
  0
MTEXT
  5
4D8
100
AcDbEntity
  8
WAKU0
  6
CONTINUOUS
 62
3
100
AcDbMText
 10
534.3000000834466
 20
20.15000009536743
 30
0.0000000000000000
 40
5.300000190734863
 41
0.0000000000000000
 71
     1
 72
     1
  1
{\H0.87x;{24}}
 11
1.000000000000000
 21
0.0000000000000000
 31
0.0000000000000000
  7
STANDARD
  0
MTEXT
  5
4D9
100
AcDbEntity
  8
WAKU0
  6
CONTINUOUS
 62
3
100
AcDbMText
 10
517.5000001192093
 20
20.15000009536743
 30
0.0000000000000000
 40
5.300000190734863
 41
0.0000000000000000
 71
     1
 72
     1
  1
{\H0.89x;{61P}}
 11
1.000000000000000
 21
0.0000000000000000
 31
0.0000000000000000
  7
STANDARD
  0
MTEXT
  5
4DA
100
AcDbEntity
  8
WAKU0
  6
CONTINUOUS
 62
3
100
AcDbMText
 10
572.0000000476837
 20
20.15000009536743
 30
0.0000000000000000
 40
5.300000190734863
 41
0.0000000000000000
 71
     1
 72
     1
  1
{\H0.81x;{4}}
 11
1.000000000000000
 21
0.0000000000000000
 31
0.0000000000000000
  7
STANDARD
  0
MTEXT
  5
4DB
100
AcDbEntity
  8
WAKU0
  6
CONTINUOUS
 62
3
100
AcDbMText
 10
461.3850002884865
 20
33.00000000000000
 30
0.0000000000000000
 40
3.000000000000000
 41
0.0000000000000000
 71
     7
 72
     1
  1
{\H0.93x;{DRAWN BY}}
 11
1.000000000000000
 21
0.0000000000000000
 31
0.0000000000000000
  7
STANDARD
  0
MTEXT
  5
4DC
100
AcDbEntity
  8
WAKU0
  6
CONTINUOUS
 62
3
100
AcDbMText
 10
441.2149997949600
 20
32.95000004768372
 30
0.0000000000000000
 40
3.099999904632568
 41
0.0000000000000000
 71
     7
 72
     1
  1
{\H0.92x;{CHIEF}}
 11
1.000000000000000
 21
0.0000000000000000
 31
0.0000000000000000
  7
STANDARD
  0
MTEXT
  5
4DD
100
AcDbEntity
  8
WAKU0
  6
CONTINUOUS
 62
3
100
AcDbMText
 10
414.4249997138977
 20
32.95000004768372
 30
0.0000000000000000
 40
3.099999904632568
 41
0.0000000000000000
 71
     7
 72
     1
  1
{\H0.92x;{MANAGER}}
 11
1.000000000000000
 21
0.0000000000000000
 31
0.0000000000000000
  7
STANDARD
  0
MTEXT
  5
4DE
100
AcDbEntity
  8
WAKU0
  6
CONTINUOUS
 62
3
100
AcDbMText
 10
416.6599994301796
 20
18.13333336512248
 30
0.0000000000000000
 40
3.099999904632568
 41
0.0000000000000000
 71
     7
 72
     1
  1
{\H0.93x;{KITAGAWA IRON\PWORKS CO.,LTD.}}
 11
1.000000000000000
 21
0.0000000000000000
 31
0.0000000000000000
  7
STANDARD
  0
MTEXT
  5
4DF
100
AcDbEntity
  8
WAKU0
  6
CONTINUOUS
 62
3
100
AcDbMText
 10
413.0850002169609
 20
46.50000000000000
 30
0.0000000000000000
 40
3.000000000000000
 41
0.0000000000000000
 71
     7
 72
     1
  1
{\H0.92x;{CAREER}}
 11
1.000000000000000
 21
0.0000000000000000
 31
0.0000000000000000
  7
STANDARD
  0
MTEXT
  5
4E0
100
AcDbEntity
  8
WAKU0
  6
CONTINUOUS
 62
3
100
AcDbMText
 10
466.6099998354912
 20
18.95000004768372
 30
0.0000000000000000
 40
3.099999904632568
 41
0.0000000000000000
 71
     7
 72
     1
  1
{\H0.91x;{DATE}}
 11
1.000000000000000
 21
0.0000000000000000
 31
0.0000000000000000
  7
STANDARD
  0
MTEXT
  5
4E1
100
AcDbEntity
  8
WAKU0
  6
CONTINUOUS
 62
3
100
AcDbMText
 10
485.9000002145767
 20
26.50000000000000
 30
0.0000000000000000
 40
3.000000000000000
 41
0.0000000000000000
 71
     7
 72
     1
  1
{\H0.63x;{3RD ANGLE}}
 11
1.000000000000000
 21
0.0000000000000000
 31
0.0000000000000000
  7
STANDARD
  0
MTEXT
  5
4E2
100
AcDbEntity
  8
WAKU0
  6
CONTINUOUS
 62
3
100
AcDbMText
 10
487.2149997949600
 20
45.95000004768372
 30
0.0000000000000000
 40
3.099999904632568
 41
0.0000000000000000
 71
     7
 72
     1
  1
{\H0.92x;{SCALE}}
 11
1.000000000000000
 21
0.0000000000000000
 31
0.0000000000000000
  7
STANDARD
  0
MTEXT
  5
4E3
100
AcDbEntity
  8
WAKU0
  6
CONTINUOUS
 62
3
100
AcDbMText
 10
577.7000000476837
 20
46.00000000000000
 30
0.0000000000000000
 40
3.000000000000000
 41
0.0000000000000000
 71
     7
 72
     1
  1
{\H0.63x;{kg}}
 11
1.000000000000000
 21
0.0000000000000000
 31
0.0000000000000000
  7
STANDARD
  0
MTEXT
  5
4E4
100
AcDbEntity
  8
WAKU0
  6
CONTINUOUS
 62
3
100
AcDbMText
 10
547.6000001430512
 20
46.00000000000000
 30
0.0000000000000000
 40
3.000000000000000
 41
0.0000000000000000
 71
     7
 72
     1
  1
{\H0.63x;{WEIGHT}}
 11
1.000000000000000
 21
0.0000000000000000
 31
0.0000000000000000
  7
STANDARD
  0
MTEXT
  5
4E5
100
AcDbEntity
  8
WAKU0
  6
CONTINUOUS
 62
3
100
AcDbMText
 10
506.0049998760223
 20
18.13333336512248
 30
0.0000000000000000
 40
3.099999904632568
 41
0.0000000000000000
 71
     7
 72
     1
  1
{\H0.90x;{DRW\PNO.}}
 11
1.000000000000000
 21
0.0000000000000000
 31
0.0000000000000000
  7
STANDARD
  0
MTEXT
  5
4E6
100
AcDbEntity
  8
WAKU0
  6
CONTINUOUS
 62
3
100
AcDbMText
 10
504.6099998354912
 20
31.95000004768372
 30
0.0000000000000000
 40
3.099999904632568
 41
0.0000000000000000
 71
     7
 72
     1
  1
{\H0.91x;{NAME}}
 11
1.000000000000000
 21
0.0000000000000000
 31
0.0000000000000000
  7
STANDARD
  0
MTEXT
  5
4E7
100
AcDbEntity
  8
WAKU0
  6
CONTINUOUS
 62
3
100
AcDbMText
 10
504.6099998354912
 20
45.95000004768372
 30
0.0000000000000000
 40
3.099999904632568
 41
0.0000000000000000
 71
     7
 72
     1
  1
{\H0.91x;{TYPE}}
 11
1.000000000000000
 21
0.0000000000000000
 31
0.0000000000000000
  7
STANDARD
  0
LINE
  5
4E8
100
AcDbEntity
  8
WAKU0
  6
HIDDEN
 62
3
100
AcDbLine
 10
579.1599564743885
 20
13.84999990463257
 30
0.0000000000000000
 11
568.9400436209789
 21
13.84999990463257
 31
0.0000000000000000
  0
LINE
  5
4E9
100
AcDbEntity
  8
WAKU0
  6
HIDDEN
 62
3
100
AcDbLine
 10
579.1599564743885
 20
13.84999990463250
 30
0.0000000000000000
 11
574.0500000476851
 21
22.70070406014901
 31
0.0000000000000000
  0
LINE
  5
4EA
100
AcDbEntity
  8
WAKU0
  6
HIDDEN
 62
3
100
AcDbLine
 10
574.0500000476851
 20
22.70070406014902
 30
0.0000000000000000
 11
568.9400436209789
 21
13.84999990463248
 31
0.0000000000000000
  0
LINE
  5
4EB
100
AcDbEntity
  8
WAKU0
  6
CONTINUOUS
 62
3
100
AcDbLine
 10
502.4713877753800
 20
15.78041421262812
 30
0.0000000000000000
 11
502.4713877753800
 21
21.78041421262815
 31
0.0000000000000000
  0
LINE
  5
4EC
100
AcDbEntity
  8
WAKU0
  6
CONTINUOUS
 62
3
100
AcDbLine
 10
495.9336941228225
 20
17.28041421262811
 30
0.0000000000000000
 11
495.9336941228225
 21
20.28041421262824
 31
0.0000000000000000
  0
LINE
  5
4ED
100
AcDbEntity
  8
WAKU0
  6
CENTER
 62
12
100
AcDbLine
 10
485.4321805514995
 20
18.78041421262813
 30
0.0000000000000000
 11
503.2765788964694
 21
18.78041421262813
 31
0.0000000000000000
  0
LINE
  5
4EE
100
AcDbEntity
  8
WAKU0
  6
CENTER
 62
12
100
AcDbLine
 10
489.4474565857986
 20
14.55921662918448
 30
0.0000000000000000
 11
489.4474565857986
 21
22.89865102149943
 31
0.0000000000000000
  0
LINE
  5
4EF
100
AcDbEntity
  8
WAKU0
  6
CONTINUOUS
 62
3
100
AcDbLine
 10
495.9336941228225
 20
20.28041421262797
 30
0.0000000000000000
 11
502.4713877753800
 21
21.78041421262795
 31
0.0000000000000000
  0
LINE
  5
4F0
100
AcDbEntity
  8
WAKU0
  6
CONTINUOUS
 62
3
100
AcDbLine
 10
495.9336941228225
 20
17.28041421262811
 30
0.0000000000000000
 11
502.4713877753799
 21
15.78041421262812
 31
0.0000000000000000
  0
CIRCLE
  5
4F1
100
AcDbEntity
  8
WAKU0
  6
CONTINUOUS
 62
3
100
AcDbCircle
 10
489.4474565857986
 20
18.78041421262813
 30
0.0000000000000000
 40
1.499999999999972
  0
CIRCLE
  5
4F2
100
AcDbEntity
  8
WAKU0
  6
CONTINUOUS
 62
3
100
AcDbCircle
 10
489.4474565857986
 20
18.78041421262813
 30
0.0000000000000000
 40
2.999999999999979
  0
ENDSEC
  0
SECTION
  2
OBJECTS
  0
DICTIONARY
  5
540
100
AcDbDictionary
  3
ACAD_GROUP
350
541
  3
ACAD_MLINESTYLE
350
542
  3
DWGPROPS
350
543
  0
DICTIONARY
  5
541
102
{ACAD_REACTORS
330
540
102
}
100
AcDbDictionary
  0
DICTIONARY
  5
542
102
{ACAD_REACTORS
330
540
102
}
100
AcDbDictionary
  3
STANDARD
350
544
  0
MLINESTYLE
  5
544
102
{ACAD_REACTORS
330
542
102
}
100
AcDbMlineStyle
  2
STANDARD
 70
     0
  3

 62
   256
 51
90.00
 52
90.00
 71
     2
 49
0.50
 62
   256
  6
BYLAYER
 49
-0.50
 62
   256
  6
BYLAYER
  0
XRECORD
  5
543
102
{ACAD_REACTORS
330
540
102
}
100
AcDbXrecord
280
     1
  1
DWGPROPS COOKIE
  2
ＮＲＣ０８　ガイケイ
  3

  4

  6
ロータリチャック　８
  7

  8

  9

300
=
301
=
302
=
303
=
304
=
305
=
306
=
307
=
308
=
309
=
 40
0.000000
 41
0.000000
 42
0.000000
  1

 90
        0
  0
ENDSEC
  0
EOF
