  0
SECTION
  2
HEADER
  9
$ACADVER
  1
AC1014
  9
$DWGCODEPAGE
  3
ANSI_932
  9
$LTSCALE
 40
20.0
  9
$FILLMODE
 70
     1
  9
$CLAYER
  8
0
  9
$PDMODE
 70
     0
  9
$SPLFRAME
 70
     0
  9
$SPLINETYPE
 70
     6
  9
$SPLINESEGS
 70
     8
  9
$DIMASZ
 40
2.000000
  9
$DIMEXE
 40
2.000000
  9
$DIMEXO
 40
0.800000
  9
$DIMTAD
 70
     1
  9
$DIMTIH
 70
     0
  9
$DIMTOH
 70
     0
  9
$DIMTVP
 40
0.500000
  9
$DIMTXT
 40
3.100000
  9
$EXTMIN
 10
0.000000
 20
0.000000
 30
0.000000
  9
$EXTMAX
 10
420.000000
 20
594.000000
 30
0.000000
  9
$MEASUREMENT
 70
  1
  9
$LIMMIN
 10
0.000000
 20
0.000000
  9
$LIMMAX
 10
420.000000
 20
594.000000
  9
$HANDLING
 70
     1
  9
$HANDSEED
  5
582
  9
$DIMBLK
  1
_OPEN
  9
$DIMDEC
 70
     3
  9
$DIMAUNIT
 70
     1
  9
$DIMZIN
 70
     8
  9
$DIMTOFL
 70
     1
  0
ENDSEC
  0
SECTION
  2
CLASSES
  0
ENDSEC
  0
SECTION
  2
TABLES
  0
TABLE
  2
VPORT
  5
530
100
AcDbSymbolTable
 70
     1
  0
VPORT
  5
531
100
AcDbSymbolTableRecord
100
AcDbViewportTableRecord
  2
*ACTIVE
 70
     0
 12
415.899181
 22
301.330335
 40
602.660669
 41
1.380210
  0
ENDTAB
  0
TABLE
  2
LTYPE
  5
532
100
AcDbSymbolTable
 70
     4
  0
LTYPE
  5
533
100
AcDbSymbolTableRecord
100
AcDbLinetypeTableRecord
  2
BYBLOCK
 70
     0
  3

 72
    65
 73
     0
 40
0.0
  0
LTYPE
  5
534
100
AcDbSymbolTableRecord
100
AcDbLinetypeTableRecord
  2
BYLAYER
 70
     0
  3

 72
    65
 73
     0
 40
0.0
  0
LTYPE
  5
535
100
AcDbSymbolTableRecord
100
AcDbLinetypeTableRecord
  2
CONTINUOUS
 70
     0
  3
Solid line (NEC CAE2D for Win R12.1 : 2018.06.08)
 72
    65
 73
     0
 40
0.0
  0
LTYPE
  5
536
100
AcDbSymbolTableRecord
100
AcDbLinetypeTableRecord
  2
HIDDEN
 70
     0
  3
__ __ __ __ __ __ __ __ __ __ __ __ __ __
 72
    65
 73
     2
 40
0.375
 49
0.25
 74
     0
 49
-0.125
 74
     0
  0
LTYPE
  5
537
100
AcDbSymbolTableRecord
100
AcDbLinetypeTableRecord
  2
CENTER
 70
     0
  3
____ _ ____ _ ____ _ ____ _ ____ _ ____
 72
    65
 73
     4
 40
2.0
 49
1.25
 74
     0
 49
-0.25
 74
     0
 49
0.25
 74
     0
 49
-0.25
 74
     0
  0
LTYPE
  5
538
100
AcDbSymbolTableRecord
100
AcDbLinetypeTableRecord
  2
PHANTOM
 70
     0
  3
______  __  __  ______  __  __  ______ 
 72
    65
 73
     6
 40
2.5
 49
1.25
 74
     0
 49
-0.25
 74
     0
 49
0.25
 74
     0
 49
-0.25
 74
     0
 49
0.25
 74
     0
 49
-0.25
 74
     0
  0
ENDTAB
  0
TABLE
  2
LAYER
  5
539
100
AcDbSymbolTable
 70
    19
  0
LAYER
  5
53A
100
AcDbSymbolTableRecord
100
AcDbLayerTableRecord
  2
0
 70
     0
 62
     7
  6
CONTINUOUS
  0
LAYER
  5
53B
100
AcDbSymbolTableRecord
100
AcDbLayerTableRecord
  2
MAIN0
 70
     0
 62
     7
  6
CONTINUOUS
  0
LAYER
  5
53C
100
AcDbSymbolTableRecord
100
AcDbLayerTableRecord
  2
MAIN1
 70
     0
 62
     7
  6
CONTINUOUS
  0
LAYER
  5
53D
100
AcDbSymbolTableRecord
100
AcDbLayerTableRecord
  2
MAIN2
 70
     0
 62
     7
  6
CONTINUOUS
  0
LAYER
  5
53E
100
AcDbSymbolTableRecord
100
AcDbLayerTableRecord
  2
MAIN3
 70
     0
 62
     7
  6
CONTINUOUS
  0
LAYER
  5
53F
100
AcDbSymbolTableRecord
100
AcDbLayerTableRecord
  2
MAIN4
 70
     0
 62
     7
  6
CONTINUOUS
  0
LAYER
  5
540
100
AcDbSymbolTableRecord
100
AcDbLayerTableRecord
  2
MAIN5
 70
     0
 62
     7
  6
CONTINUOUS
  0
LAYER
  5
541
100
AcDbSymbolTableRecord
100
AcDbLayerTableRecord
  2
MAIN6
 70
     0
 62
     7
  6
CONTINUOUS
  0
LAYER
  5
542
100
AcDbSymbolTableRecord
100
AcDbLayerTableRecord
  2
MAIN7
 70
     0
 62
     7
  6
CONTINUOUS
  0
LAYER
  5
543
100
AcDbSymbolTableRecord
100
AcDbLayerTableRecord
  2
MAIN8
 70
     0
 62
     7
  6
CONTINUOUS
  0
LAYER
  5
544
100
AcDbSymbolTableRecord
100
AcDbLayerTableRecord
  2
MAIN9
 70
     0
 62
     7
  6
CONTINUOUS
  0
LAYER
  5
545
100
AcDbSymbolTableRecord
100
AcDbLayerTableRecord
  2
MAIN1023
 70
     0
 62
    16
  6
CONTINUOUS
  0
LAYER
  5
546
100
AcDbSymbolTableRecord
100
AcDbLayerTableRecord
  2
AIR-DIAGRAM0
 70
     0
 62
     7
  6
CONTINUOUS
  0
LAYER
  5
547
100
AcDbSymbolTableRecord
100
AcDbLayerTableRecord
  2
AIR-DIAGRAM1
 70
     0
 62
     7
  6
CONTINUOUS
  0
LAYER
  5
548
100
AcDbSymbolTableRecord
100
AcDbLayerTableRecord
  2
AIR-DIAGRAM1023
 70
     0
 62
    16
  6
CONTINUOUS
  0
LAYER
  5
549
100
AcDbSymbolTableRecord
100
AcDbLayerTableRecord
  2
WAKU0
 70
     0
 62
     7
  6
CONTINUOUS
  0
LAYER
  5
54A
100
AcDbSymbolTableRecord
100
AcDbLayerTableRecord
  2
WAKU1
 70
     0
 62
     7
  6
CONTINUOUS
  0
LAYER
  5
54B
100
AcDbSymbolTableRecord
100
AcDbLayerTableRecord
  2
WAKU2
 70
     0
 62
     7
  6
CONTINUOUS
  0
LAYER
  5
54C
100
AcDbSymbolTableRecord
100
AcDbLayerTableRecord
  2
WAKU1023
 70
     0
 62
    16
  6
CONTINUOUS
  0
ENDTAB
  0
TABLE
  2
STYLE
  5
54D
100
AcDbSymbolTable
 70
     4
  0
STYLE
  5
54E
100
AcDbSymbolTableRecord
100
AcDbTextStyleTableRecord
  2
STANDARD
 70
    64
 40
0.0
 41
1.0
 50
0.0
 71
     0
 42
3.000000000000000
  3
TXT
  4

  0
STYLE
  5
54F
100
AcDbSymbolTableRecord
100
AcDbTextStyleTableRecord
  2
ANKTATE
 70
    68
 40
0.0
 41
1.0
 50
0.0
 71
     0
 42
3.000000000000000
  3
TXT
  4

  0
STYLE
  5
186
100
AcDbSymbolTableRecord
100
AcDbTextStyleTableRecord
  2
KNJYOKO
 70
    64
 40
0.0
 41
1.0
 50
0.0
 71
     0
 42
3.000000000000000
  3
TXT
  4
BIGFONT
  0
STYLE
  5
550
100
AcDbSymbolTableRecord
100
AcDbTextStyleTableRecord
  2
KNJTATE
 70
    68
 40
0.0
 41
1.0
 50
0.0
 71
     0
 42
3.000000000000000
  3
TXT
  4
BIGFONT
  0
ENDTAB
  0
TABLE
  2
VIEW
  5
551
100
AcDbSymbolTable
 70
     0
  0
ENDTAB
  0
TABLE
  2
UCS
  5
552
100
AcDbSymbolTable
 70
     0
  0
ENDTAB
  0
TABLE
  2
APPID
  5
553
100
AcDbSymbolTable
 70
     1
  0
APPID
  5
554
100
AcDbSymbolTableRecord
100
AcDbRegAppTableRecord
  2
ACAD
 70
     0
  0
ENDTAB
  0
TABLE
  2
DIMSTYLE
  5
555
100
AcDbSymbolTable
 70
     1
  0
DIMSTYLE
105
556
100
AcDbSymbolTableRecord
100
AcDbDimStyleTableRecord
  2
STANDARD
 70
     0
 41
2.000000
 44
2.000000
 42
0.800000
145
0.661290
140
3.100000
144
1.000000
146
0.903226
340
54E
  0
DIMSTYLE
105
557
100
AcDbSymbolTableRecord
100
AcDbDimStyleTableRecord
  2
MAIN001
 70
     0
 41
3.000000
 44
3.000000
 42
1.200000
145
0.607527
140
4.650000
144
1.000000
146
0.903226
 77
     1
 73
     0
 74
     0
271
     3
275
     1
 78
     8
172
     1
340
54E
  0
DIMSTYLE
105
558
100
AcDbSymbolTableRecord
100
AcDbDimStyleTableRecord
  2
AIR-DIAGRAM002
 70
     0
 41
2.000000
 44
2.000000
 42
0.800000
145
0.661290
140
3.100000
144
1.000000
146
0.903226
 77
     1
 73
     0
 74
     0
271
     3
275
     1
 78
     8
172
     1
340
54E
  0
DIMSTYLE
105
559
100
AcDbSymbolTableRecord
100
AcDbDimStyleTableRecord
  2
WAKU003
 70
     0
 41
2.000000
 44
2.000000
 42
0.800000
145
0.661290
140
3.100000
144
1.000000
146
0.903226
 77
     1
 73
     0
 74
     0
271
     3
275
     1
 78
     8
172
     1
340
54E
  0
ENDTAB
  0
TABLE
  2
BLOCK_RECORD
  5
55A
100
AcDbSymbolTable
 70
    40
  0
BLOCK_RECORD
  5
55B
100
AcDbSymbolTableRecord
100
AcDbBlockTableRecord
  2
*MODEL_SPACE
  0
BLOCK_RECORD
  5
55C
100
AcDbSymbolTableRecord
100
AcDbBlockTableRecord
  2
*PAPER_SPACE
  0
BLOCK_RECORD
  5
1
100
AcDbSymbolTableRecord
100
AcDbBlockTableRecord
  2
_NONE
  0
BLOCK_RECORD
  5
4
100
AcDbSymbolTableRecord
100
AcDbBlockTableRecord
  2
_CLOSED
  0
BLOCK_RECORD
  5
B
100
AcDbSymbolTableRecord
100
AcDbBlockTableRecord
  2
_DOT
  0
BLOCK_RECORD
  5
13
100
AcDbSymbolTableRecord
100
AcDbBlockTableRecord
  2
_OPEN
  0
BLOCK_RECORD
  5
19
100
AcDbSymbolTableRecord
100
AcDbBlockTableRecord
  2
_ORIGIN
  0
BLOCK_RECORD
  5
1E
100
AcDbSymbolTableRecord
100
AcDbBlockTableRecord
  2
_OPEN30
  0
BLOCK_RECORD
  5
24
100
AcDbSymbolTableRecord
100
AcDbBlockTableRecord
  2
_BOXFILLED
  0
BLOCK_RECORD
  5
29
100
AcDbSymbolTableRecord
100
AcDbBlockTableRecord
  2
_BOXBLANK
  0
BLOCK_RECORD
  5
31
100
AcDbSymbolTableRecord
100
AcDbBlockTableRecord
  2
_OBLIQUE
  0
BLOCK_RECORD
  5
35
100
AcDbSymbolTableRecord
100
AcDbBlockTableRecord
  2
_OPEN90
  0
BLOCK_RECORD
  5
3B
100
AcDbSymbolTableRecord
100
AcDbBlockTableRecord
  2
_CLOSEDBLANK
  0
BLOCK_RECORD
  5
41
100
AcDbSymbolTableRecord
100
AcDbBlockTableRecord
  2
_DOTBLANK
  0
BLOCK_RECORD
  5
55D
100
AcDbSymbolTableRecord
100
AcDbBlockTableRecord
  2
*D0
  0
BLOCK_RECORD
  5
55E
100
AcDbSymbolTableRecord
100
AcDbBlockTableRecord
  2
*D1
  0
BLOCK_RECORD
  5
55F
100
AcDbSymbolTableRecord
100
AcDbBlockTableRecord
  2
*D2
  0
BLOCK_RECORD
  5
560
100
AcDbSymbolTableRecord
100
AcDbBlockTableRecord
  2
*D3
  0
BLOCK_RECORD
  5
561
100
AcDbSymbolTableRecord
100
AcDbBlockTableRecord
  2
*D4
  0
BLOCK_RECORD
  5
562
100
AcDbSymbolTableRecord
100
AcDbBlockTableRecord
  2
*D5
  0
BLOCK_RECORD
  5
563
100
AcDbSymbolTableRecord
100
AcDbBlockTableRecord
  2
*D6
  0
BLOCK_RECORD
  5
564
100
AcDbSymbolTableRecord
100
AcDbBlockTableRecord
  2
*D7
  0
BLOCK_RECORD
  5
565
100
AcDbSymbolTableRecord
100
AcDbBlockTableRecord
  2
*D8
  0
BLOCK_RECORD
  5
566
100
AcDbSymbolTableRecord
100
AcDbBlockTableRecord
  2
*D9
  0
BLOCK_RECORD
  5
567
100
AcDbSymbolTableRecord
100
AcDbBlockTableRecord
  2
*D10
  0
BLOCK_RECORD
  5
568
100
AcDbSymbolTableRecord
100
AcDbBlockTableRecord
  2
*D11
  0
BLOCK_RECORD
  5
569
100
AcDbSymbolTableRecord
100
AcDbBlockTableRecord
  2
*D12
  0
BLOCK_RECORD
  5
56A
100
AcDbSymbolTableRecord
100
AcDbBlockTableRecord
  2
*D13
  0
BLOCK_RECORD
  5
56B
100
AcDbSymbolTableRecord
100
AcDbBlockTableRecord
  2
D14
  0
BLOCK_RECORD
  5
56C
100
AcDbSymbolTableRecord
100
AcDbBlockTableRecord
  2
*D15
  0
BLOCK_RECORD
  5
56D
100
AcDbSymbolTableRecord
100
AcDbBlockTableRecord
  2
*D16
  0
BLOCK_RECORD
  5
56E
100
AcDbSymbolTableRecord
100
AcDbBlockTableRecord
  2
M0
  0
BLOCK_RECORD
  5
56F
100
AcDbSymbolTableRecord
100
AcDbBlockTableRecord
  2
D17
  0
BLOCK_RECORD
  5
570
100
AcDbSymbolTableRecord
100
AcDbBlockTableRecord
  2
*D18
  0
BLOCK_RECORD
  5
571
100
AcDbSymbolTableRecord
100
AcDbBlockTableRecord
  2
*D19
  0
BLOCK_RECORD
  5
572
100
AcDbSymbolTableRecord
100
AcDbBlockTableRecord
  2
*D20
  0
BLOCK_RECORD
  5
573
100
AcDbSymbolTableRecord
100
AcDbBlockTableRecord
  2
*D21
  0
BLOCK_RECORD
  5
574
100
AcDbSymbolTableRecord
100
AcDbBlockTableRecord
  2
*D22
  0
BLOCK_RECORD
  5
575
100
AcDbSymbolTableRecord
100
AcDbBlockTableRecord
  2
*D23
  0
BLOCK_RECORD
  5
576
100
AcDbSymbolTableRecord
100
AcDbBlockTableRecord
  2
D24
  0
BLOCK_RECORD
  5
577
100
AcDbSymbolTableRecord
100
AcDbBlockTableRecord
  2
M1
  0
BLOCK_RECORD
  5
578
100
AcDbSymbolTableRecord
100
AcDbBlockTableRecord
  2
M2
  0
ENDTAB
  0
ENDSEC
  0
SECTION
  2
BLOCKS
  0
BLOCK
  5
579
100
AcDbEntity
  8
0
100
AcDbBlockBegin
  2
*MODEL_SPACE
 70
     0
 10
0.0
 20
0.0
 30
0.0
  3
*MODEL_SPACE
  1

  0
ENDBLK
  5
57A
100
AcDbEntity
  8
0
100
AcDbBlockEnd
  0
BLOCK
  5
57B
100
AcDbEntity
  8
0
100
AcDbBlockBegin
  2
*PAPER_SPACE
 70
     0
 10
0.0
 20
0.0
 30
0.0
  3
*PAPER_SPACE
  1

  0
ENDBLK
  5
57C
100
AcDbEntity
  8
0
100
AcDbBlockEnd
  0
BLOCK
  5
2
100
AcDbEntity
  8
0
100
AcDbBlockBegin
  2
_NONE
 70
     0
 10
0.0
 20
0.0
 30
0.0
  3
_NONE
  1

  0
ENDBLK
  5
3
100
AcDbEntity
  8
0
100
AcDbBlockEnd
  0
BLOCK
  5
5
100
AcDbEntity
  8
0
100
AcDbBlockBegin
  2
_CLOSED
 70
     0
 10
0.0
 20
0.0
 30
0.0
  3
_CLOSED
  1

  0
LINE
  5
6
100
AcDbEntity
  8
0
  6
BYBLOCK
 62
     0
100
AcDbLine
 10
-1.0
 20
0.166667
 30
0.0
 11
0.0
 21
0.0
 31
0.0
  0
LINE
  5
7
100
AcDbEntity
  8
0
  6
BYBLOCK
 62
     0
100
AcDbLine
 10
0.0
 20
0.0
 30
0.0
 11
-1.0
 21
-0.166667
 31
0.0
  0
LINE
  5
8
100
AcDbEntity
  8
0
  6
BYBLOCK
 62
     0
100
AcDbLine
 10
-1.0
 20
0.166667
 30
0.0
 11
-1.0
 21
-0.166667
 31
0.0
  0
LINE
  5
9
100
AcDbEntity
  8
0
  6
BYBLOCK
 62
     0
100
AcDbLine
 10
0.0
 20
0.0
 30
0.0
 11
-1.0
 21
0.0
 31
0.0
  0
ENDBLK
  5
A
100
AcDbEntity
  8
0
100
AcDbBlockEnd
  0
BLOCK
  5
C
100
AcDbEntity
  8
0
100
AcDbBlockBegin
  2
_DOT
 70
     0
 10
0.0
 20
0.0
 30
0.0
  3
_DOT
  1

  0
POLYLINE
  5
D
100
AcDbEntity
  8
0
  6
BYBLOCK
 62
     0
100
AcDb2dPolyline
 66
     1
 10
0.0
 20
0.0
 30
0.0
 70
     1
 40
0.5
 41
0.5
  0
VERTEX
  5
E
100
AcDbEntity
  8
0
  6
BYBLOCK
 62
     0
100
AcDbVertex
100
AcDb2dVertex
 10
-0.25
 20
0.0
 30
0.0
 42
1.0
  0
VERTEX
  5
F
100
AcDbEntity
  8
0
  6
BYBLOCK
 62
     0
100
AcDbVertex
100
AcDb2dVertex
 10
0.25
 20
0.0
 30
0.0
 42
1.0
  0
SEQEND
  5
10
100
AcDbEntity
  8
0
  6
BYBLOCK
 62
     0
  0
LINE
  5
11
100
AcDbEntity
  8
0
  6
BYBLOCK
 62
     0
100
AcDbLine
 10
-0.5
 20
0.0
 30
0.0
 11
-1.0
 21
0.0
 31
0.0
  0
ENDBLK
  5
12
100
AcDbEntity
  8
0
100
AcDbBlockEnd
  0
BLOCK
  5
14
100
AcDbEntity
  8
0
100
AcDbBlockBegin
  2
_OPEN
 70
     0
 10
0.0
 20
0.0
 30
0.0
  3
_OPEN
  1

  0
LINE
  5
15
100
AcDbEntity
  8
0
  6
BYBLOCK
 62
     0
100
AcDbLine
 10
-1.0
 20
0.166667
 30
0.0
 11
0.0
 21
0.0
 31
0.0
  0
LINE
  5
16
100
AcDbEntity
  8
0
  6
BYBLOCK
 62
     0
100
AcDbLine
 10
0.0
 20
0.0
 30
0.0
 11
-1.0
 21
-0.166667
 31
0.0
  0
LINE
  5
17
100
AcDbEntity
  8
0
  6
BYBLOCK
 62
     0
100
AcDbLine
 10
0.0
 20
0.0
 30
0.0
 11
-1.0
 21
0.0
 31
0.0
  0
ENDBLK
  5
18
100
AcDbEntity
  8
0
100
AcDbBlockEnd
  0
BLOCK
  5
1A
100
AcDbEntity
  8
0
100
AcDbBlockBegin
  2
_ORIGIN
 70
     0
 10
0.0
 20
0.0
 30
0.0
  3
_ORIGIN
  1

  0
CIRCLE
  5
1B
100
AcDbEntity
  8
0
  6
BYBLOCK
 62
     0
100
AcDbCircle
 10
0.0
 20
0.0
 30
0.0
 40
0.5
  0
LINE
  5
1C
100
AcDbEntity
  8
0
  6
BYBLOCK
 62
     0
100
AcDbLine
 10
0.0
 20
0.0
 30
0.0
 11
-1.0
 21
0.0
 31
0.0
  0
ENDBLK
  5
1D
100
AcDbEntity
  8
0
100
AcDbBlockEnd
  0
BLOCK
  5
1F
100
AcDbEntity
  8
0
100
AcDbBlockBegin
  2
_OPEN30
 70
     0
 10
0.0
 20
0.0
 30
0.0
  3
_OPEN30
  1

  0
LINE
  5
20
100
AcDbEntity
  8
0
  6
BYBLOCK
 62
     0
100
AcDbLine
 10
-1.0
 20
0.267949
 30
0.0
 11
0.0
 21
0.0
 31
0.0
  0
LINE
  5
21
100
AcDbEntity
  8
0
  6
BYBLOCK
 62
     0
100
AcDbLine
 10
0.0
 20
0.0
 30
0.0
 11
-1.0
 21
-0.267949
 31
0.0
  0
LINE
  5
22
100
AcDbEntity
  8
0
  6
BYBLOCK
 62
     0
100
AcDbLine
 10
0.0
 20
0.0
 30
0.0
 11
-1.0
 21
0.0
 31
0.0
  0
ENDBLK
  5
23
100
AcDbEntity
  8
0
100
AcDbBlockEnd
  0
BLOCK
  5
25
100
AcDbEntity
  8
0
100
AcDbBlockBegin
  2
_BOXFILLED
 70
     0
 10
0.0
 20
0.0
 30
0.0
  3
_BOXFILLED
  1

  0
SOLID
  5
26
100
AcDbEntity
  8
0
  6
BYBLOCK
 62
     0
100
AcDbTrace
 10
-0.5
 20
0.5
 30
0.0
 11
0.5
 21
0.5
 31
0.0
 12
-0.5
 22
-0.5
 32
0.0
 13
0.5
 23
-0.5
 33
0.0
  0
LINE
  5
27
100
AcDbEntity
  8
0
  6
BYBLOCK
 62
     0
100
AcDbLine
 10
-0.5
 20
0.0
 30
0.0
 11
-1.0
 21
0.0
 31
0.0
  0
ENDBLK
  5
28
100
AcDbEntity
  8
0
100
AcDbBlockEnd
  0
BLOCK
  5
2A
100
AcDbEntity
  8
0
100
AcDbBlockBegin
  2
_BOXBLANK
 70
     0
 10
0.0
 20
0.0
 30
0.0
  3
_BOXBLANK
  1

  0
LINE
  5
2B
100
AcDbEntity
  8
0
  6
BYBLOCK
 62
     0
100
AcDbLine
 10
-0.5
 20
-0.5
 30
0.0
 11
0.5
 21
-0.5
 31
0.0
  0
LINE
  5
2C
100
AcDbEntity
  8
0
  6
BYBLOCK
 62
     0
100
AcDbLine
 10
0.5
 20
-0.5
 30
0.0
 11
0.5
 21
0.5
 31
0.0
  0
LINE
  5
2D
100
AcDbEntity
  8
0
  6
BYBLOCK
 62
     0
100
AcDbLine
 10
0.5
 20
0.5
 30
0.0
 11
-0.5
 21
0.5
 31
0.0
  0
LINE
  5
2E
100
AcDbEntity
  8
0
  6
BYBLOCK
 62
     0
100
AcDbLine
 10
-0.5
 20
0.5
 30
0.0
 11
-0.5
 21
-0.5
 31
0.0
  0
LINE
  5
2F
100
AcDbEntity
  8
0
  6
BYBLOCK
 62
     0
100
AcDbLine
 10
-0.5
 20
0.0
 30
0.0
 11
-1.0
 21
0.0
 31
0.0
  0
ENDBLK
  5
30
100
AcDbEntity
  8
0
100
AcDbBlockEnd
  0
BLOCK
  5
32
100
AcDbEntity
  8
0
100
AcDbBlockBegin
  2
_OBLIQUE
 70
     0
 10
0.0
 20
0.0
 30
0.0
  3
_OBLIQUE
  1

  0
LINE
  5
33
100
AcDbEntity
  8
0
  6
BYBLOCK
 62
     0
100
AcDbLine
 10
-0.5
 20
-0.5
 30
0.0
 11
0.5
 21
0.5
 31
0.0
  0
ENDBLK
  5
34
100
AcDbEntity
  8
0
100
AcDbBlockEnd
  0
BLOCK
  5
36
100
AcDbEntity
  8
0
100
AcDbBlockBegin
  2
_OPEN90
 70
     0
 10
0.0
 20
0.0
 30
0.0
  3
_OPEN90
  1

  0
LINE
  5
37
100
AcDbEntity
  8
0
  6
BYBLOCK
 62
     0
100
AcDbLine
 10
-0.5
 20
0.5
 30
0.0
 11
0.0
 21
0.0
 31
0.0
  0
LINE
  5
38
100
AcDbEntity
  8
0
  6
BYBLOCK
 62
     0
100
AcDbLine
 10
0.0
 20
0.0
 30
0.0
 11
-0.5
 21
-0.5
 31
0.0
  0
LINE
  5
39
100
AcDbEntity
  8
0
  6
BYBLOCK
 62
     0
100
AcDbLine
 10
0.0
 20
0.0
 30
0.0
 11
-1.0
 21
0.0
 31
0.0
  0
ENDBLK
  5
3A
100
AcDbEntity
  8
0
100
AcDbBlockEnd
  0
BLOCK
  5
3C
100
AcDbEntity
  8
0
100
AcDbBlockBegin
  2
_CLOSEDBLANK
 70
     0
 10
0.0
 20
0.0
 30
0.0
  3
_CLOSEDBLANK
  1

  0
LINE
  5
3D
100
AcDbEntity
  8
0
  6
BYBLOCK
 62
     0
100
AcDbLine
 10
-1.0
 20
0.1666666666666666
 30
0.0
 11
0.0
 21
0.0
 31
0.0
  0
LINE
  5
3E
100
AcDbEntity
  8
0
  6
BYBLOCK
 62
     0
100
AcDbLine
 10
0.0
 20
0.0
 30
0.0
 11
-1.0
 21
-0.1666666666666666
 31
0.0
  0
LINE
  5
3F
100
AcDbEntity
  8
0
  6
BYBLOCK
 62
     0
100
AcDbLine
 10
-1.0
 20
0.1666666666666666
 30
0.0
 11
-1.0
 21
-0.1666666666666666
 31
0.0
  0
ENDBLK
  5
40
100
AcDbEntity
  8
0
100
AcDbBlockEnd
  0
BLOCK
  5
42
100
AcDbEntity
  8
0
100
AcDbBlockBegin
  2
_DOTBLANK
 70
     0
 10
0.0
 20
0.0
 30
0.0
  3
_DOTBLANK
  1

  0
CIRCLE
  5
43
100
AcDbEntity
  8
0
  6
BYBLOCK
 62
     0
100
AcDbCircle
 10
0.0
 20
0.0
 30
0.0
 40
0.5
  0
LINE
  5
44
100
AcDbEntity
  8
0
  6
BYBLOCK
 62
     0
100
AcDbLine
 10
-0.5
 20
0.0
 30
0.0
 11
-1.0
 21
0.0
 31
0.0
  0
ENDBLK
  5
45
100
AcDbEntity
  8
0
100
AcDbBlockEnd
  0
BLOCK
  5
49
100
AcDbEntity
  8
MAIN0
  6
CONTINUOUS
 62
3
100
AcDbBlockBegin
  2
*D0
 70
    65
 10
0.0
 20
0.0
 30
0.0
  0
LINE
  5
4A
100
AcDbEntity
  8
MAIN0
  6
BYBLOCK
 62
0
100
AcDbLine
 10
126.3684491363762
 20
134.2260060827611
 30
0.0000000000000000
 11
126.3684491363762
 21
110.2748260155480
 31
0.0000000000000000
  0
LINE
  5
4B
100
AcDbEntity
  8
MAIN0
  6
BYBLOCK
 62
0
100
AcDbLine
 10
126.3684491363762
 20
113.2748260155480
 30
0.0000000000000000
 11
130.3684491363762
 21
113.2748260155480
 31
0.0000000000000000
  0
INSERT
  5
4C
100
AcDbEntity
  8
MAIN0
  6
BYBLOCK
 62
0
100
AcDbBlockReference
  2
_OPEN
 10
126.3684491363762
 20
113.2748260155480
 30
0.0000000000000000
 41
3.000000000000000
 42
3.000000000000000
 43
3.000000000000000
 50
0.0000000000000000
  0
INSERT
  5
4D
100
AcDbEntity
  8
MAIN0
  6
BYBLOCK
 62
0
100
AcDbBlockReference
  2
_DOT
 10
131.3684491363762
 20
113.2748260155480
 30
0.0000000000000000
 41
1.500000000000000
 42
1.500000000000000
 43
1.500000000000000
 50
0.0000000000000000
  0
LINE
  5
4E
100
AcDbEntity
  8
MAIN0
  6
BYBLOCK
 62
0
100
AcDbLine
 10
123.3684491363762
 20
113.2748260155480
 30
0.0000000000000000
 11
118.5907032745609
 21
113.2748260155480
 31
0.0000000000000000
  0
LINE
  5
4F
100
AcDbEntity
  8
MAIN0
  6
BYBLOCK
 62
0
100
AcDbLine
 10
131.3684491363762
 20
147.0748259976665
 30
0.0000000000000000
 11
131.3684491363762
 21
110.2748260155480
 31
0.0000000000000000
  0
MTEXT
  5
50
100
AcDbEntity
  8
MAIN0
  6
BYBLOCK
 62
0
100
AcDbMText
 10
120.0907032745609
 20
116.3498259440224
 30
0.0000000000000000
 40
4.649999856948853
 41
0.0000000000000000
 71
     5
 72
     1
  1
\A1;5
 11
1.000000000000000
 21
0.0000000000000000
 31
0.0000000000000000
  7
STANDARD
  0
ENDBLK
  5
51
100
AcDbEntity
  8
MAIN0
  6
CONTINUOUS
 62
3
100
AcDbBlockEnd
  0
BLOCK
  5
53
100
AcDbEntity
  8
MAIN0
  6
CONTINUOUS
 62
3
100
AcDbBlockBegin
  2
*D1
 70
    65
 10
0.0
 20
0.0
 30
0.0
  0
LINE
  5
54
100
AcDbEntity
  8
MAIN0
  6
BYBLOCK
 62
0
100
AcDbLine
 10
131.3684491363762
 20
147.0748259976665
 30
0.0000000000000000
 11
131.3684491363762
 21
110.2748260155480
 31
0.0000000000000000
  0
LINE
  5
55
100
AcDbEntity
  8
MAIN0
  6
BYBLOCK
 62
0
100
AcDbLine
 10
132.3684491363762
 20
113.2748260155480
 30
0.0000000000000000
 11
134.3684491363762
 21
113.2748260155480
 31
0.0000000000000000
  0
INSERT
  5
56
100
AcDbEntity
  8
MAIN0
  6
BYBLOCK
 62
0
100
AcDbBlockReference
  2
_DOT
 10
131.3684491363762
 20
113.2748260155480
 30
0.0000000000000000
 41
1.500000000000000
 42
1.500000000000000
 43
1.500000000000000
 50
180.0000000000000
  0
INSERT
  5
57
100
AcDbEntity
  8
MAIN0
  6
BYBLOCK
 62
0
100
AcDbBlockReference
  2
_OPEN
 10
134.3684491363762
 20
113.2748260155480
 30
0.0000000000000000
 41
3.000000000000000
 42
3.000000000000000
 43
3.000000000000000
 50
180.0000000000000
  0
LINE
  5
58
100
AcDbEntity
  8
MAIN0
  6
BYBLOCK
 62
0
100
AcDbLine
 10
137.3684491363762
 20
113.2748260155480
 30
0.0000000000000000
 11
142.5133708550796
 21
113.2748260155480
 31
0.0000000000000000
  0
LINE
  5
59
100
AcDbEntity
  8
MAIN0
  6
BYBLOCK
 62
0
100
AcDbLine
 10
134.3684491363762
 20
158.2288458167105
 30
0.0000000000000000
 11
134.3684491363762
 21
110.2748260155480
 31
0.0000000000000000
  0
MTEXT
  5
5A
100
AcDbEntity
  8
MAIN0
  6
BYBLOCK
 62
0
100
AcDbMText
 10
141.0133708550796
 20
116.3498259440224
 30
0.0000000000000000
 40
4.649999856948853
 41
0.0000000000000000
 71
     5
 72
     1
  1
\A1;3
 11
1.000000000000000
 21
0.0000000000000000
 31
0.0000000000000000
  7
STANDARD
  0
ENDBLK
  5
5B
100
AcDbEntity
  8
MAIN0
  6
CONTINUOUS
 62
3
100
AcDbBlockEnd
  0
BLOCK
  5
5D
100
AcDbEntity
  8
MAIN0
  6
CONTINUOUS
 62
3
100
AcDbBlockBegin
  2
*D2
 70
    65
 10
0.0
 20
0.0
 30
0.0
  0
LINE
  5
5E
100
AcDbEntity
  8
MAIN0
  6
BYBLOCK
 62
0
100
AcDbLine
 10
135.3684491542576
 20
159.2748260155480
 30
0.0000000000000000
 11
157.3684491363764
 21
159.2748260155480
 31
0.0000000000000000
  0
LINE
  5
5F
100
AcDbEntity
  8
MAIN0
  6
BYBLOCK
 62
0
100
AcDbLine
 10
154.3684491363764
 20
162.2748260155480
 30
0.0000000000000000
 11
154.3684491363764
 21
172.2748260155479
 31
0.0000000000000000
  0
INSERT
  5
60
100
AcDbEntity
  8
MAIN0
  6
BYBLOCK
 62
0
100
AcDbBlockReference
  2
_OPEN
 10
154.3684491363764
 20
159.2748260155480
 30
0.0000000000000000
 41
3.000000000000000
 42
3.000000000000000
 43
3.000000000000000
 50
270.0000000000000
  0
INSERT
  5
61
100
AcDbEntity
  8
MAIN0
  6
BYBLOCK
 62
0
100
AcDbBlockReference
  2
_OPEN
 10
154.3684491363764
 20
175.2748260155479
 30
0.0000000000000000
 41
3.000000000000000
 42
3.000000000000000
 43
3.000000000000000
 50
90.00000000000000
  0
LINE
  5
62
100
AcDbEntity
  8
MAIN0
  6
BYBLOCK
 62
0
100
AcDbLine
 10
135.3684491542576
 20
175.2748260155479
 30
0.0000000000000000
 11
157.3684491363764
 21
175.2748260155479
 31
0.0000000000000000
  0
MTEXT
  5
63
100
AcDbEntity
  8
MAIN0
  6
BYBLOCK
 62
0
100
AcDbMText
 10
151.5434492079020
 20
167.2748260155479
 30
0.0000000000000000
 40
4.649999856948853
 41
0.0000000000000000
 71
     5
 72
     1
  1
\A1;16H8/h8
 11
6.123233995736766e-017
 21
1.000000000000000
 31
0.0000000000000000
  7
STANDARD
  0
ENDBLK
  5
64
100
AcDbEntity
  8
MAIN0
  6
CONTINUOUS
 62
3
100
AcDbBlockEnd
  0
BLOCK
  5
66
100
AcDbEntity
  8
MAIN0
  6
CONTINUOUS
 62
3
100
AcDbBlockBegin
  2
*D3
 70
    65
 10
0.0
 20
0.0
 30
0.0
  0
LINE
  5
67
100
AcDbEntity
  8
MAIN0
  6
BYBLOCK
 62
0
100
AcDbLine
 10
130.8363983466863
 20
147.2748260155479
 30
0.0000000000000000
 11
177.3684491363759
 21
147.2748260155479
 31
0.0000000000000000
  0
LINE
  5
68
100
AcDbEntity
  8
MAIN0
  6
BYBLOCK
 62
0
100
AcDbLine
 10
174.3684491363759
 20
150.2748260155479
 30
0.0000000000000000
 11
174.3684491363759
 21
184.2748260155479
 31
0.0000000000000000
  0
INSERT
  5
69
100
AcDbEntity
  8
MAIN0
  6
BYBLOCK
 62
0
100
AcDbBlockReference
  2
_OPEN
 10
174.3684491363759
 20
147.2748260155479
 30
0.0000000000000000
 41
3.000000000000000
 42
3.000000000000000
 43
3.000000000000000
 50
270.0000000000000
  0
INSERT
  5
6A
100
AcDbEntity
  8
MAIN0
  6
BYBLOCK
 62
0
100
AcDbBlockReference
  2
_OPEN
 10
174.3684491363759
 20
187.2748260155479
 30
0.0000000000000000
 41
3.000000000000000
 42
3.000000000000000
 43
3.000000000000000
 50
90.00000000000000
  0
LINE
  5
6B
100
AcDbEntity
  8
MAIN0
  6
BYBLOCK
 62
0
100
AcDbLine
 10
130.8363983466863
 20
187.2748260155479
 30
0.0000000000000000
 11
177.3684491363759
 21
187.2748260155479
 31
0.0000000000000000
  0
MTEXT
  5
6C
100
AcDbEntity
  8
MAIN0
  6
BYBLOCK
 62
0
100
AcDbMText
 10
171.5434492079015
 20
167.2748260155479
 30
0.0000000000000000
 40
4.649999856948853
 41
0.0000000000000000
 71
     5
 72
     1
  1
\A1;40
 11
6.123233995736766e-017
 21
1.000000000000000
 31
0.0000000000000000
  7
STANDARD
  0
ENDBLK
  5
6D
100
AcDbEntity
  8
MAIN0
  6
CONTINUOUS
 62
3
100
AcDbBlockEnd
  0
BLOCK
  5
17D
100
AcDbEntity
  8
MAIN0
  6
CONTINUOUS
 62
3
100
AcDbBlockBegin
  2
*D4
 70
    65
 10
0.0
 20
0.0
 30
0.0
  0
LINE
  5
17E
100
AcDbEntity
  8
MAIN0
  6
BYBLOCK
 62
0
100
AcDbLine
 10
185.4983628230375
 20
327.2606693931837
 30
0.0000000000000000
 11
143.7983628409189
 21
327.2606693931837
 31
0.0000000000000000
  0
LINE
  5
17F
100
AcDbEntity
  8
MAIN0
  6
BYBLOCK
 62
0
100
AcDbLine
 10
146.7983628409189
 20
330.2606693931837
 30
0.0000000000000000
 11
146.7983628409189
 21
464.2606693931837
 31
0.0000000000000000
  0
INSERT
  5
180
100
AcDbEntity
  8
MAIN0
  6
BYBLOCK
 62
0
100
AcDbBlockReference
  2
_OPEN
 10
146.7983628409189
 20
327.2606693931837
 30
0.0000000000000000
 41
3.000000000000000
 42
3.000000000000000
 43
3.000000000000000
 50
270.0000000000000
  0
INSERT
  5
181
100
AcDbEntity
  8
MAIN0
  6
BYBLOCK
 62
0
100
AcDbBlockReference
  2
_OPEN
 10
146.7983628409189
 20
467.2606693931837
 30
0.0000000000000000
 41
3.000000000000000
 42
3.000000000000000
 43
3.000000000000000
 50
90.00000000000000
  0
LINE
  5
182
100
AcDbEntity
  8
MAIN0
  6
BYBLOCK
 62
0
100
AcDbLine
 10
185.4983628230375
 20
467.2606693931837
 30
0.0000000000000000
 11
143.7983628409189
 21
467.2606693931837
 31
0.0000000000000000
  0
MTEXT
  5
183
100
AcDbEntity
  8
MAIN0
  6
BYBLOCK
 62
0
100
AcDbMText
 10
143.9733629124444
 20
397.2606693391670
 30
0.0000000000000000
 40
4.649999856948853
 41
0.0000000000000000
 71
     5
 72
     1
  1
\A1;\U+2205140H7\H0.903226x;\S＋0.04^ 　0;
 11
6.123233995736766e-017
 21
1.000000000000000
 31
0.0000000000000000
  7
KNJYOKO
  0
ENDBLK
  5
184
100
AcDbEntity
  8
MAIN0
  6
CONTINUOUS
 62
3
100
AcDbBlockEnd
  0
BLOCK
  5
187
100
AcDbEntity
  8
MAIN0
  6
CONTINUOUS
 62
3
100
AcDbBlockBegin
  2
*D5
 70
    65
 10
0.0
 20
0.0
 30
0.0
  0
LINE
  5
188
100
AcDbEntity
  8
MAIN0
  6
BYBLOCK
 62
0
100
AcDbLine
 10
353.8983628588003
 20
533.2606693931837
 30
0.0000000000000000
 11
409.7983628409189
 21
533.2606693931837
 31
0.0000000000000000
  0
LINE
  5
189
100
AcDbEntity
  8
MAIN0
  6
BYBLOCK
 62
0
100
AcDbLine
 10
406.7983628409189
 20
530.2606693931837
 30
0.0000000000000000
 11
406.7983628409189
 21
426.2606693931837
 31
0.0000000000000000
  0
INSERT
  5
18A
100
AcDbEntity
  8
MAIN0
  6
BYBLOCK
 62
0
100
AcDbBlockReference
  2
_OPEN
 10
406.7983628409189
 20
533.2606693931837
 30
0.0000000000000000
 41
3.000000000000000
 42
3.000000000000000
 43
3.000000000000000
 50
90.00000000000000
  0
INSERT
  5
18B
100
AcDbEntity
  8
MAIN0
  6
BYBLOCK
 62
0
100
AcDbBlockReference
  2
_OPEN
 10
406.7983628409189
 20
423.2606693931837
 30
0.0000000000000000
 41
3.000000000000000
 42
3.000000000000000
 43
3.000000000000000
 50
270.0000000000000
  0
LINE
  5
18C
100
AcDbEntity
  8
MAIN0
  6
BYBLOCK
 62
0
100
AcDbLine
 10
353.8983628588002
 20
423.2606693931837
 30
0.0000000000000000
 11
409.7983628409189
 21
423.2606693931837
 31
0.0000000000000000
  0
MTEXT
  5
18D
100
AcDbEntity
  8
MAIN0
  6
BYBLOCK
 62
0
100
AcDbMText
 10
403.9733629124444
 20
478.2606693931837
 30
0.0000000000000000
 40
4.649999856948853
 41
0.0000000000000000
 71
     5
 72
     1
  1
\A1;110
 11
6.123233995736766e-017
 21
1.000000000000000
 31
0.0000000000000000
  7
STANDARD
  0
ENDBLK
  5
18E
100
AcDbEntity
  8
MAIN0
  6
CONTINUOUS
 62
3
100
AcDbBlockEnd
  0
BLOCK
  5
190
100
AcDbEntity
  8
MAIN0
  6
CONTINUOUS
 62
3
100
AcDbBlockBegin
  2
*D6
 70
    65
 10
0.0
 20
0.0
 30
0.0
  0
LINE
  5
191
100
AcDbEntity
  8
MAIN0
  6
BYBLOCK
 62
0
100
AcDbLine
 10
306.6983628409189
 20
522.9606694110648
 30
0.0000000000000000
 11
306.6983628409189
 21
569.4278754614714
 31
0.0000000000000000
  0
LINE
  5
192
100
AcDbEntity
  8
MAIN0
  6
BYBLOCK
 62
0
100
AcDbLine
 10
309.6983628409189
 20
566.4278754614714
 30
0.0000000000000000
 11
349.6983628409189
 21
566.4278754614714
 31
0.0000000000000000
  0
INSERT
  5
193
100
AcDbEntity
  8
MAIN0
  6
BYBLOCK
 62
0
100
AcDbBlockReference
  2
_OPEN
 10
306.6983628409189
 20
566.4278754614714
 30
0.0000000000000000
 41
3.000000000000000
 42
3.000000000000000
 43
3.000000000000000
 50
180.0000000000000
  0
INSERT
  5
194
100
AcDbEntity
  8
MAIN0
  6
BYBLOCK
 62
0
100
AcDbBlockReference
  2
_OPEN
 10
352.6983628409189
 20
566.4278754614714
 30
0.0000000000000000
 41
3.000000000000000
 42
3.000000000000000
 43
3.000000000000000
 50
0.0000000000000000
  0
LINE
  5
195
100
AcDbEntity
  8
MAIN0
  6
BYBLOCK
 62
0
100
AcDbLine
 10
352.6983628409189
 20
534.4606694110651
 30
0.0000000000000000
 11
352.6983628409189
 21
569.4278754614714
 31
0.0000000000000000
  0
MTEXT
  5
196
100
AcDbEntity
  8
MAIN0
  6
BYBLOCK
 62
0
100
AcDbMText
 10
329.6983628409189
 20
569.2528753899459
 30
0.0000000000000000
 40
4.649999856948853
 41
0.0000000000000000
 71
     5
 72
     1
  1
\A1;46
 11
1.000000000000000
 21
0.0000000000000000
 31
0.0000000000000000
  7
STANDARD
  0
ENDBLK
  5
197
100
AcDbEntity
  8
MAIN0
  6
CONTINUOUS
 62
3
100
AcDbBlockEnd
  0
BLOCK
  5
199
100
AcDbEntity
  8
MAIN0
  6
CONTINUOUS
 62
3
100
AcDbBlockBegin
  2
*D7
 70
    65
 10
0.0
 20
0.0
 30
0.0
  0
LINE
  5
19A
100
AcDbEntity
  8
MAIN0
  6
BYBLOCK
 62
0
100
AcDbLine
 10
353.8983628588002
 20
423.2606693931837
 30
0.0000000000000000
 11
389.7983628409189
 21
423.2606693931837
 31
0.0000000000000000
  0
LINE
  5
19B
100
AcDbEntity
  8
MAIN0
  6
BYBLOCK
 62
0
100
AcDbLine
 10
386.7983628409189
 20
426.2606693931837
 30
0.0000000000000000
 11
386.7983628409189
 21
470.2606693931837
 31
0.0000000000000000
  0
INSERT
  5
19C
100
AcDbEntity
  8
MAIN0
  6
BYBLOCK
 62
0
100
AcDbBlockReference
  2
_OPEN
 10
386.7983628409189
 20
423.2606693931837
 30
0.0000000000000000
 41
3.000000000000000
 42
3.000000000000000
 43
3.000000000000000
 50
270.0000000000000
  0
INSERT
  5
19D
100
AcDbEntity
  8
MAIN0
  6
BYBLOCK
 62
0
100
AcDbBlockReference
  2
_OPEN
 10
386.7983628409189
 20
473.2606693931837
 30
0.0000000000000000
 41
3.000000000000000
 42
3.000000000000000
 43
3.000000000000000
 50
90.00000000000000
  0
LINE
  5
19E
100
AcDbEntity
  8
MAIN0
  6
BYBLOCK
 62
0
100
AcDbLine
 10
367.4623325620047
 20
473.2606693931837
 30
0.0000000000000000
 11
389.7983628409189
 21
473.2606693931837
 31
0.0000000000000000
  0
MTEXT
  5
19F
100
AcDbEntity
  8
MAIN0
  6
BYBLOCK
 62
0
100
AcDbMText
 10
383.9733629124444
 20
448.2606693931837
 30
0.0000000000000000
 40
4.649999856948853
 41
0.0000000000000000
 71
     5
 72
     1
  1
\A1;50
 11
6.123233995736766e-017
 21
1.000000000000000
 31
0.0000000000000000
  7
STANDARD
  0
ENDBLK
  5
1A0
100
AcDbEntity
  8
MAIN0
  6
CONTINUOUS
 62
3
100
AcDbBlockEnd
  0
BLOCK
  5
1A2
100
AcDbEntity
  8
MAIN0
  6
CONTINUOUS
 62
3
100
AcDbBlockBegin
  2
*D8
 70
    65
 10
0.0
 20
0.0
 30
0.0
  0
LINE
  5
1A3
100
AcDbEntity
  8
MAIN0
  6
BYBLOCK
 62
0
100
AcDbLine
 10
367.4623325620047
 20
473.2606693931837
 30
0.0000000000000000
 11
389.7983628409189
 21
473.2606693931837
 31
0.0000000000000000
  0
LINE
  5
1A4
100
AcDbEntity
  8
MAIN0
  6
BYBLOCK
 62
0
100
AcDbLine
 10
386.7983628409189
 20
476.2606693931837
 30
0.0000000000000000
 11
386.7983628409189
 21
500.2606693931837
 31
0.0000000000000000
  0
INSERT
  5
1A5
100
AcDbEntity
  8
MAIN0
  6
BYBLOCK
 62
0
100
AcDbBlockReference
  2
_OPEN
 10
386.7983628409189
 20
473.2606693931837
 30
0.0000000000000000
 41
3.000000000000000
 42
3.000000000000000
 43
3.000000000000000
 50
270.0000000000000
  0
INSERT
  5
1A6
100
AcDbEntity
  8
MAIN0
  6
BYBLOCK
 62
0
100
AcDbBlockReference
  2
_OPEN
 10
386.7983628409189
 20
503.2606693931837
 30
0.0000000000000000
 41
3.000000000000000
 42
3.000000000000000
 43
3.000000000000000
 50
90.00000000000000
  0
LINE
  5
1A7
100
AcDbEntity
  8
MAIN0
  6
BYBLOCK
 62
0
100
AcDbLine
 10
367.4623325620047
 20
503.2606693931837
 30
0.0000000000000000
 11
389.7983628409189
 21
503.2606693931837
 31
0.0000000000000000
  0
MTEXT
  5
1A8
100
AcDbEntity
  8
MAIN0
  6
BYBLOCK
 62
0
100
AcDbMText
 10
383.9733629124444
 20
488.2606693931837
 30
0.0000000000000000
 40
4.649999856948853
 41
0.0000000000000000
 71
     5
 72
     1
  1
\A1;30
 11
6.123233995736766e-017
 21
1.000000000000000
 31
0.0000000000000000
  7
STANDARD
  0
ENDBLK
  5
1A9
100
AcDbEntity
  8
MAIN0
  6
CONTINUOUS
 62
3
100
AcDbBlockEnd
  0
BLOCK
  5
1AB
100
AcDbEntity
  8
MAIN0
  6
CONTINUOUS
 62
3
100
AcDbBlockBegin
  2
*D9
 70
    65
 10
0.0
 20
0.0
 30
0.0
  0
LINE
  5
1AC
100
AcDbEntity
  8
MAIN0
  6
BYBLOCK
 62
0
100
AcDbLine
 10
641.7983628409188
 20
534.4606694110648
 30
0.0000000000000000
 11
641.7983628409188
 21
579.2606693931837
 31
0.0000000000000000
  0
LINE
  5
1AD
100
AcDbEntity
  8
MAIN0
  6
BYBLOCK
 62
0
100
AcDbLine
 10
644.7983628409188
 20
576.2606693931837
 30
0.0000000000000000
 11
678.7983628409188
 21
576.2606693931837
 31
0.0000000000000000
  0
INSERT
  5
1AE
100
AcDbEntity
  8
MAIN0
  6
BYBLOCK
 62
0
100
AcDbBlockReference
  2
_OPEN
 10
641.7983628409188
 20
576.2606693931837
 30
0.0000000000000000
 41
3.000000000000000
 42
3.000000000000000
 43
3.000000000000000
 50
180.0000000000000
  0
INSERT
  5
1AF
100
AcDbEntity
  8
MAIN0
  6
BYBLOCK
 62
0
100
AcDbBlockReference
  2
_OPEN
 10
681.7983628409188
 20
576.2606693931837
 30
0.0000000000000000
 41
3.000000000000000
 42
3.000000000000000
 43
3.000000000000000
 50
0.0000000000000000
  0
LINE
  5
1B0
100
AcDbEntity
  8
MAIN0
  6
BYBLOCK
 62
0
100
AcDbLine
 10
681.7983628409188
 20
534.4606694110648
 30
0.0000000000000000
 11
681.7983628409188
 21
579.2606693931837
 31
0.0000000000000000
  0
MTEXT
  5
1B1
100
AcDbEntity
  8
MAIN0
  6
BYBLOCK
 62
0
100
AcDbMText
 10
661.7983628409188
 20
579.0856693216581
 30
0.0000000000000000
 40
4.649999856948853
 41
0.0000000000000000
 71
     5
 72
     1
  1
\A1;40
 11
1.000000000000000
 21
0.0000000000000000
 31
0.0000000000000000
  7
STANDARD
  0
ENDBLK
  5
1B2
100
AcDbEntity
  8
MAIN0
  6
CONTINUOUS
 62
3
100
AcDbBlockEnd
  0
BLOCK
  5
1B4
100
AcDbEntity
  8
MAIN0
  6
CONTINUOUS
 62
3
100
AcDbBlockBegin
  2
*D10
 70
    65
 10
0.0
 20
0.0
 30
0.0
  0
LINE
  5
1B5
100
AcDbEntity
  8
MAIN0
  6
BYBLOCK
 62
0
100
AcDbLine
 10
231.7983628409189
 20
415.7606693931837
 30
0.0000000000000000
 11
231.7983628409189
 21
378.7606693931837
 31
0.0000000000000000
  0
INSERT
  5
1B6
100
AcDbEntity
  8
MAIN0
  6
BYBLOCK
 62
0
100
AcDbBlockReference
  2
_OPEN
 10
231.7983628409189
 20
418.7606693931837
 30
0.0000000000000000
 41
3.000000000000000
 42
3.000000000000000
 43
3.000000000000000
 50
90.00000000000000
  0
INSERT
  5
1B7
100
AcDbEntity
  8
MAIN0
  6
BYBLOCK
 62
0
100
AcDbBlockReference
  2
_OPEN
 10
231.7983628409189
 20
375.7606693931837
 30
0.0000000000000000
 41
3.000000000000000
 42
3.000000000000000
 43
3.000000000000000
 50
270.0000000000000
  0
MTEXT
  5
1B8
100
AcDbEntity
  8
MAIN0
  6
BYBLOCK
 62
0
100
AcDbMText
 10
228.7233629124444
 20
397.2606693931837
 30
0.0000000000000000
 40
4.649999856948853
 41
0.0000000000000000
 71
     5
 72
     1
  1
\A1;\U+220543
 11
6.123233995736766e-017
 21
1.000000000000000
 31
0.0000000000000000
  7
STANDARD
  0
ENDBLK
  5
1B9
100
AcDbEntity
  8
MAIN0
  6
CONTINUOUS
 62
3
100
AcDbBlockEnd
  0
BLOCK
  5
1BB
100
AcDbEntity
  8
MAIN0
  6
CONTINUOUS
 62
3
100
AcDbBlockBegin
  2
*D11
 70
    65
 10
0.0
 20
0.0
 30
0.0
  0
LINE
  5
1BC
100
AcDbEntity
  8
MAIN0
  6
BYBLOCK
 62
0
100
AcDbLine
 10
194.6983628409189
 20
468.4606694110651
 30
0.0000000000000000
 11
194.6983628409189
 21
501.6599919525322
 31
0.0000000000000000
  0
LINE
  5
1BD
100
AcDbEntity
  8
MAIN0
  6
BYBLOCK
 62
0
100
AcDbLine
 10
194.6983628409189
 20
498.6599919525322
 30
0.0000000000000000
 11
186.6983628409189
 21
498.6599919525322
 31
0.0000000000000000
  0
INSERT
  5
1BE
100
AcDbEntity
  8
MAIN0
  6
BYBLOCK
 62
0
100
AcDbBlockReference
  2
_OPEN
 10
194.6983628409189
 20
498.6599919525322
 30
0.0000000000000000
 41
3.000000000000000
 42
3.000000000000000
 43
3.000000000000000
 50
180.0000000000000
  0
INSERT
  5
1BF
100
AcDbEntity
  8
MAIN0
  6
BYBLOCK
 62
0
100
AcDbBlockReference
  2
_OPEN
 10
186.6983628409189
 20
498.6599919525322
 30
0.0000000000000000
 41
3.000000000000000
 42
3.000000000000000
 43
3.000000000000000
 50
360.0000000000000
  0
LINE
  5
1C0
100
AcDbEntity
  8
MAIN0
  6
BYBLOCK
 62
0
100
AcDbLine
 10
197.6983628409189
 20
498.6599919525322
 30
0.0000000000000000
 11
199.1983628409189
 21
498.6599919525322
 31
0.0000000000000000
  0
LINE
  5
1C1
100
AcDbEntity
  8
MAIN0
  6
BYBLOCK
 62
0
100
AcDbLine
 10
183.6983628409189
 20
498.6599919525322
 30
0.0000000000000000
 11
176.1118477925528
 21
498.6599919525322
 31
0.0000000000000000
  0
MTEXT
  5
1C2
100
AcDbEntity
  8
MAIN0
  6
BYBLOCK
 62
0
100
AcDbMText
 10
177.6118477925528
 20
501.7349918810066
 30
0.0000000000000000
 40
4.649999856948853
 41
0.0000000000000000
 71
     5
 72
     1
  1
\A1;8
 11
1.000000000000000
 21
0.0000000000000000
 31
0.0000000000000000
  7
STANDARD
  0
ENDBLK
  5
1C3
100
AcDbEntity
  8
MAIN0
  6
CONTINUOUS
 62
3
100
AcDbBlockEnd
  0
BLOCK
  5
1D7
100
AcDbEntity
  8
MAIN0
  6
CONTINUOUS
 62
3
100
AcDbBlockBegin
  2
*D12
 70
    65
 10
0.0
 20
0.0
 30
0.0
  0
LINE
  5
1D8
100
AcDbEntity
  8
MAIN0
  6
BYBLOCK
 62
0
100
AcDbLine
 10
367.4623325620047
 20
473.2606693931837
 30
0.0000000000000000
 11
369.7983628409189
 21
473.2606693931837
 31
0.0000000000000000
  0
LINE
  5
1D9
100
AcDbEntity
  8
MAIN0
  6
BYBLOCK
 62
0
100
AcDbLine
 10
366.7983628409189
 20
473.2606693931837
 30
0.0000000000000000
 11
366.7983628409189
 21
463.2606693931837
 31
0.0000000000000000
  0
INSERT
  5
1DA
100
AcDbEntity
  8
MAIN0
  6
BYBLOCK
 62
0
100
AcDbBlockReference
  2
_OPEN
 10
366.7983628409189
 20
473.2606693931837
 30
0.0000000000000000
 41
3.000000000000000
 42
3.000000000000000
 43
3.000000000000000
 50
270.0000000000000
  0
INSERT
  5
1DB
100
AcDbEntity
  8
MAIN0
  6
BYBLOCK
 62
0
100
AcDbBlockReference
  2
_OPEN
 10
366.7983628409189
 20
463.2606693931837
 30
0.0000000000000000
 41
3.000000000000000
 42
3.000000000000000
 43
3.000000000000000
 50
90.00000000000000
  0
LINE
  5
1DC
100
AcDbEntity
  8
MAIN0
  6
BYBLOCK
 62
0
100
AcDbLine
 10
366.7983628409189
 20
476.2606693931837
 30
0.0000000000000000
 11
366.7983628409189
 21
496.9928372034090
 31
0.0000000000000000
  0
LINE
  5
1DD
100
AcDbEntity
  8
MAIN0
  6
BYBLOCK
 62
0
100
AcDbLine
 10
366.7983628409189
 20
460.2606693931837
 30
0.0000000000000000
 11
366.7983628409189
 21
458.7606693931837
 31
0.0000000000000000
  0
LINE
  5
1DE
100
AcDbEntity
  8
MAIN0
  6
BYBLOCK
 62
0
100
AcDbLine
 10
311.8983628588003
 20
463.2606693931837
 30
0.0000000000000000
 11
369.7983628409189
 21
463.2606693931837
 31
0.0000000000000000
  0
MTEXT
  5
1DF
100
AcDbEntity
  8
MAIN0
  6
BYBLOCK
 62
0
100
AcDbMText
 10
363.7233629124444
 20
487.6178372034090
 30
0.0000000000000000
 40
4.649999856948853
 41
0.0000000000000000
 71
     5
 72
     1
  1
\A1;MAX 19
 11
6.123233995736766e-017
 21
1.000000000000000
 31
0.0000000000000000
  7
STANDARD
  0
ENDBLK
  5
1E0
100
AcDbEntity
  8
MAIN0
  6
CONTINUOUS
 62
3
100
AcDbBlockEnd
  0
BLOCK
  5
1E2
100
AcDbEntity
  8
MAIN0
  6
CONTINUOUS
 62
3
100
AcDbBlockBegin
  2
*D13
 70
    65
 10
0.0
 20
0.0
 30
0.0
  0
LINE
  5
1E3
100
AcDbEntity
  8
MAIN0
  6
BYBLOCK
 62
0
100
AcDbLine
 10
311.8983628588003
 20
463.2606693931837
 30
0.0000000000000000
 11
369.7983628409189
 21
463.2606693931837
 31
0.0000000000000000
  0
LINE
  5
1E4
100
AcDbEntity
  8
MAIN0
  6
BYBLOCK
 62
0
100
AcDbLine
 10
366.7983628409189
 20
460.2606693931837
 30
0.0000000000000000
 11
366.7983628409189
 21
400.2606693931837
 31
0.0000000000000000
  0
INSERT
  5
1E5
100
AcDbEntity
  8
MAIN0
  6
BYBLOCK
 62
0
100
AcDbBlockReference
  2
_OPEN
 10
366.7983628409189
 20
463.2606693931837
 30
0.0000000000000000
 41
3.000000000000000
 42
3.000000000000000
 43
3.000000000000000
 50
90.00000000000000
  0
INSERT
  5
1E6
100
AcDbEntity
  8
MAIN0
  6
BYBLOCK
 62
0
100
AcDbBlockReference
  2
_OPEN
 10
366.7983628409189
 20
397.2606693931837
 30
0.0000000000000000
 41
3.000000000000000
 42
3.000000000000000
 43
3.000000000000000
 50
270.0000000000000
  0
LINE
  5
1E7
100
AcDbEntity
  8
MAIN0
  6
BYBLOCK
 62
0
100
AcDbLine
 10
334.5297164664765
 20
397.2606693931837
 30
0.0000000000000000
 11
369.7983628409189
 21
397.2606693931837
 31
0.0000000000000000
  0
MTEXT
  5
1E8
100
AcDbEntity
  8
MAIN0
  6
BYBLOCK
 62
0
100
AcDbMText
 10
363.7233629124444
 20
437.9034542234380
 30
0.0000000000000000
 40
4.649999856948853
 41
0.0000000000000000
 71
     5
 72
     1
  1
\A1;MAX 66
 11
6.123233995736766e-017
 21
1.000000000000000
 31
0.0000000000000000
  7
STANDARD
  0
ENDBLK
  5
1E9
100
AcDbEntity
  8
MAIN0
  6
CONTINUOUS
 62
3
100
AcDbBlockEnd
  0
BLOCK
  5
1EC
100
AcDbEntity
  8
MAIN0
  6
CONTINUOUS
 62
3
100
AcDbBlockBegin
  2
D14
 70
    64
 10
0.0
 20
0.0
 30
0.0
  0
LINE
  5
1ED
100
AcDbEntity
  8
MAIN0
  6
BYBLOCK
 62
0
100
AcDbLine
 10
-49.59866378433367
 20
7.625000000000000
 30
0.0000000000000000
 11
-49.59866378433367
 21
-117.5000000000000
 31
0.0000000000000000
  0
LINE
  5
1EE
100
AcDbEntity
  8
MAIN0
  6
BYBLOCK
 62
0
100
AcDbLine
 10
-48.69866374857088
 20
-114.5000000000000
 30
0.0000000000000000
 11
-49.59866378433367
 21
-117.5000000000000
 31
0.0000000000000000
  0
LINE
  5
1EF
100
AcDbEntity
  8
MAIN0
  6
BYBLOCK
 62
0
100
AcDbLine
 10
-49.59866378433367
 20
-117.5000000000000
 30
0.0000000000000000
 11
-50.49866382009645
 21
-114.5000000000000
 31
0.0000000000000000
  0
LINE
  5
1F0
100
AcDbEntity
  8
MAIN0
  6
BYBLOCK
 62
0
100
AcDbLine
 10
-15.89866380221505
 20
-117.5000000000000
 30
0.0000000000000000
 11
-52.59866378433367
 21
-117.5000000000000
 31
0.0000000000000000
  0
MTEXT
  5
1F1
100
AcDbEntity
  8
MAIN0
  6
BYBLOCK
 62
0
100
AcDbMText
 10
-52.67366371280809
 20
1.587499909102917
 30
0.0000000000000000
 40
4.649999856948853
 41
0.0000000000000000
 71
     5
 72
     1
  1
\A1;\U+2205235\H0.903226x;\U+00B10.2
 11
6.123233995736766e-017
 21
1.000000000000000
 31
0.0000000000000000
  7
STANDARD
  0
ENDBLK
  5
1F2
100
AcDbEntity
  8
MAIN0
  6
CONTINUOUS
 62
3
100
AcDbBlockEnd
  0
BLOCK
  5
233
100
AcDbEntity
  8
MAIN0
  6
CONTINUOUS
 62
3
100
AcDbBlockBegin
  2
*D15
 70
    65
 10
0.0
 20
0.0
 30
0.0
  0
LINE
  5
234
100
AcDbEntity
  8
MAIN0
  6
BYBLOCK
 62
0
100
AcDbLine
 10
618.0918276793287
 20
234.1456595473332
 30
0.0000000000000000
 11
614.6932966322602
 21
221.4621690085732
 31
0.0000000000000000
  0
LINE
  5
235
100
AcDbEntity
  8
MAIN0
  6
BYBLOCK
 62
0
100
AcDbLine
 10
661.7983628409188
 20
228.3915850324185
 30
0.0000000000000000
 11
661.7983628409188
 21
215.2606693931836
 31
0.0000000000000000
  0
ARC
  5
236
100
AcDbEntity
  8
MAIN0
  6
BYBLOCK
 62
0
100
AcDbCircle
 10
661.7983628409188
 20
397.2606693931837
 30
0.0000000000000000
 40
179.0000000000000
100
AcDbArc
 50
255.9602644611131
 51
269.0397355388869
  0
INSERT
  5
237
100
AcDbEntity
  8
MAIN0
  6
BYBLOCK
 62
0
100
AcDbBlockReference
  2
_OPEN
 10
615.4697537675676
 20
224.3599464874404
 30
0.0000000000000000
 41
3.000000000000000
 42
3.000000000000000
 43
3.000000000000000
 50
165.0000000000000
  0
INSERT
  5
238
100
AcDbEntity
  8
MAIN0
  6
BYBLOCK
 62
0
100
AcDbBlockReference
  2
_OPEN
 10
661.7983628409188
 20
218.2606693931837
 30
0.0000000000000000
 41
3.000000000000000
 42
3.000000000000000
 43
3.000000000000000
 50
360.0000000000000
  0
MTEXT
  5
239
100
AcDbEntity
  8
MAIN0
  6
BYBLOCK
 62
0
100
AcDbMText
 10
638.8029109172153
 20
222.5928708697390
 30
0.0000000000000000
 40
4.649999856948853
 41
0.0000000000000000
 71
     5
 72
     1
  1
\A1;15\U+00B0
 11
0.9914448613738104
 21
-0.1305261922200517
 31
0.0000000000000000
  7
STANDARD
  0
ENDBLK
  5
23A
100
AcDbEntity
  8
MAIN0
  6
CONTINUOUS
 62
3
100
AcDbBlockEnd
  0
BLOCK
  5
23C
100
AcDbEntity
  8
MAIN0
  6
CONTINUOUS
 62
3
100
AcDbBlockBegin
  2
*D16
 70
    65
 10
0.0
 20
0.0
 30
0.0
  0
LINE
  5
23D
100
AcDbEntity
  8
MAIN0
  6
BYBLOCK
 62
0
100
AcDbLine
 10
661.7983628409188
 20
228.3915850324185
 30
0.0000000000000000
 11
661.7983628409188
 21
215.2606693931836
 31
0.0000000000000000
  0
LINE
  5
23E
100
AcDbEntity
  8
MAIN0
  6
BYBLOCK
 62
0
100
AcDbLine
 10
705.5048980025090
 20
234.1456595473332
 30
0.0000000000000000
 11
708.9034290495777
 21
221.4621690085731
 31
0.0000000000000000
  0
ARC
  5
23F
100
AcDbEntity
  8
MAIN0
  6
BYBLOCK
 62
0
100
AcDbCircle
 10
661.7983628409188
 20
397.2606693931837
 30
0.0000000000000000
 40
179.0000000000000
100
AcDbArc
 50
270.9602644611131
 51
284.0397355388868
  0
INSERT
  5
240
100
AcDbEntity
  8
MAIN0
  6
BYBLOCK
 62
0
100
AcDbBlockReference
  2
_OPEN
 10
661.7983628409188
 20
218.2606693931837
 30
0.0000000000000000
 41
3.000000000000000
 42
3.000000000000000
 43
3.000000000000000
 50
180.0000000000000
  0
INSERT
  5
241
100
AcDbEntity
  8
MAIN0
  6
BYBLOCK
 62
0
100
AcDbBlockReference
  2
_OPEN
 10
708.1269719142698
 20
224.3599464874404
 30
0.0000000000000000
 41
3.000000000000000
 42
3.000000000000000
 43
3.000000000000000
 50
14.99999999999994
  0
MTEXT
  5
242
100
AcDbEntity
  8
MAIN0
  6
BYBLOCK
 62
0
100
AcDbMText
 10
684.7938147646222
 20
222.5928708697390
 30
0.0000000000000000
 40
4.649999856948853
 41
0.0000000000000000
 71
     5
 72
     1
  1
\A1;15\U+00B0
 11
0.9914448613738105
 21
0.1305261922200506
 31
0.0000000000000000
  7
STANDARD
  0
ENDBLK
  5
243
100
AcDbEntity
  8
MAIN0
  6
CONTINUOUS
 62
3
100
AcDbBlockEnd
  0
BLOCK
  5
247
100
AcDbEntity
  8
MAIN0
  6
BYBLOCK
 62
2
100
AcDbBlockBegin
  2
M0
 70
    64
 10
0.0
 20
0.0
 30
0.0
  0
LINE
  5
248
100
AcDbEntity
  8
MAIN0
  6
BYBLOCK
 62
0
100
AcDbLine
 10
289.1983628409188
 20
543.2606693931837
 30
0.0000000000000000
 11
298.1983628409189
 21
543.2606693931837
 31
0.0000000000000000
  0
LINE
  5
249
100
AcDbEntity
  8
MAIN0
  6
BYBLOCK
 62
0
100
AcDbLine
 10
293.6983628409189
 20
543.2606693931837
 30
0.0000000000000000
 11
293.6983628409189
 21
561.2606693931837
 31
0.0000000000000000
  0
LINE
  5
24A
100
AcDbEntity
  8
MAIN0
  6
BYBLOCK
 62
0
100
AcDbLine
 10
293.6983628409188
 20
543.2606693931833
 30
0.0000000000000000
 11
291.7572200026500
 21
550.5051130903513
 31
0.0000000000000000
  0
LINE
  5
24B
100
AcDbEntity
  8
MAIN0
  6
BYBLOCK
 62
0
100
AcDbLine
 10
293.6983628409190
 20
543.2606693931838
 30
0.0000000000000000
 11
295.6395056791879
 21
550.5051130903518
 31
0.0000000000000000
  0
ENDBLK
  5
24C
100
AcDbEntity
  8
MAIN0
  6
BYBLOCK
 62
2
100
AcDbBlockEnd
  0
BLOCK
  5
250
100
AcDbEntity
  8
MAIN0
  6
CONTINUOUS
 62
3
100
AcDbBlockBegin
  2
D17
 70
    64
 10
0.0
 20
0.0
 30
0.0
  0
LINE
  5
251
100
AcDbEntity
  8
MAIN0
  6
BYBLOCK
 62
0
100
AcDbLine
 10
13.46864639232376
 20
-44.16077363484010
 30
0.0000000000000000
 11
13.46864639232376
 21
-126.5000000000000
 31
0.0000000000000000
  0
LINE
  5
252
100
AcDbEntity
  8
MAIN0
  6
BYBLOCK
 62
0
100
AcDbLine
 10
14.36864642808655
 20
-123.5000000000000
 30
0.0000000000000000
 11
13.46864639232376
 21
-126.5000000000000
 31
0.0000000000000000
  0
LINE
  5
253
100
AcDbEntity
  8
MAIN0
  6
BYBLOCK
 62
0
100
AcDbLine
 10
13.46864639232376
 20
-126.5000000000000
 30
0.0000000000000000
 11
12.56864635656098
 21
-123.5000000000000
 31
0.0000000000000000
  0
LINE
  5
254
100
AcDbEntity
  8
MAIN0
  6
BYBLOCK
 62
0
100
AcDbLine
 10
-27.43135358979481
 20
-126.5000000000000
 30
0.0000000000000000
 11
16.46864639232376
 21
-126.5000000000000
 31
0.0000000000000000
  0
MTEXT
  5
255
100
AcDbEntity
  8
MAIN0
  6
BYBLOCK
 62
0
100
AcDbMText
 10
10.39364646384934
 20
-60.00000000000000
 30
0.0000000000000000
 40
4.649999856948853
 41
0.0000000000000000
 71
     5
 72
     1
  1
\A1;\U+2205253
 11
6.123233995736766e-017
 21
1.000000000000000
 31
0.0000000000000000
  7
STANDARD
  0
ENDBLK
  5
256
100
AcDbEntity
  8
MAIN0
  6
CONTINUOUS
 62
3
100
AcDbBlockEnd
  0
BLOCK
  5
274
100
AcDbEntity
  8
MAIN0
  6
CONTINUOUS
 62
3
100
AcDbBlockBegin
  2
*D18
 70
    65
 10
0.0
 20
0.0
 30
0.0
  0
LINE
  5
275
100
AcDbEntity
  8
MAIN0
  6
BYBLOCK
 62
0
100
AcDbLine
 10
165.6983628409189
 20
273.5606693753025
 30
0.0000000000000000
 11
165.6983628409189
 21
254.2606693931837
 31
0.0000000000000000
  0
LINE
  5
276
100
AcDbEntity
  8
MAIN0
  6
BYBLOCK
 62
0
100
AcDbLine
 10
168.6983628409189
 20
257.2606693931837
 30
0.0000000000000000
 11
183.6983628409189
 21
257.2606693931837
 31
0.0000000000000000
  0
INSERT
  5
277
100
AcDbEntity
  8
MAIN0
  6
BYBLOCK
 62
0
100
AcDbBlockReference
  2
_OPEN
 10
165.6983628409189
 20
257.2606693931837
 30
0.0000000000000000
 41
3.000000000000000
 42
3.000000000000000
 43
3.000000000000000
 50
180.0000000000000
  0
INSERT
  5
278
100
AcDbEntity
  8
MAIN0
  6
BYBLOCK
 62
0
100
AcDbBlockReference
  2
_OPEN
 10
186.6983628409189
 20
257.2606693931837
 30
0.0000000000000000
 41
3.000000000000000
 42
3.000000000000000
 43
3.000000000000000
 50
0.0000000000000000
  0
LINE
  5
279
100
AcDbEntity
  8
MAIN0
  6
BYBLOCK
 62
0
100
AcDbLine
 10
186.6983628409189
 20
263.5606693753015
 30
0.0000000000000000
 11
186.6983628409189
 21
254.2606693931837
 31
0.0000000000000000
  0
MTEXT
  5
27A
100
AcDbEntity
  8
MAIN0
  6
BYBLOCK
 62
0
100
AcDbMText
 10
176.1983628409189
 20
260.0856693216581
 30
0.0000000000000000
 40
4.649999856948853
 41
0.0000000000000000
 71
     5
 72
     1
  1
\A1;21
 11
1.000000000000000
 21
0.0000000000000000
 31
0.0000000000000000
  7
STANDARD
  0
ENDBLK
  5
27B
100
AcDbEntity
  8
MAIN0
  6
CONTINUOUS
 62
3
100
AcDbBlockEnd
  0
BLOCK
  5
2A6
100
AcDbEntity
  8
MAIN0
  6
CONTINUOUS
 62
3
100
AcDbBlockBegin
  2
*D19
 70
    65
 10
0.0
 20
0.0
 30
0.0
  0
LINE
  5
2A7
100
AcDbEntity
  8
MAIN0
  6
BYBLOCK
 62
0
100
AcDbLine
 10
242.2983628230373
 20
554.7606693931837
 30
0.0000000000000000
 11
83.79836284091886
 21
554.7606693931837
 31
0.0000000000000000
  0
LINE
  5
2A8
100
AcDbEntity
  8
MAIN0
  6
BYBLOCK
 62
0
100
AcDbLine
 10
86.79836284091886
 20
551.7606693931837
 30
0.0000000000000000
 11
86.79836284091886
 21
242.7606693931837
 31
0.0000000000000000
  0
INSERT
  5
2A9
100
AcDbEntity
  8
MAIN0
  6
BYBLOCK
 62
0
100
AcDbBlockReference
  2
_OPEN
 10
86.79836284091886
 20
554.7606693931837
 30
0.0000000000000000
 41
3.000000000000000
 42
3.000000000000000
 43
3.000000000000000
 50
90.00000000000000
  0
INSERT
  5
2AA
100
AcDbEntity
  8
MAIN0
  6
BYBLOCK
 62
0
100
AcDbBlockReference
  2
_OPEN
 10
86.79836284091886
 20
239.7606693931837
 30
0.0000000000000000
 41
3.000000000000000
 42
3.000000000000000
 43
3.000000000000000
 50
270.0000000000000
  0
LINE
  5
2AB
100
AcDbEntity
  8
MAIN0
  6
BYBLOCK
 62
0
100
AcDbLine
 10
242.2983628230373
 20
239.7606693931837
 30
0.0000000000000000
 11
83.79836284091886
 21
239.7606693931837
 31
0.0000000000000000
  0
MTEXT
  5
2AC
100
AcDbEntity
  8
MAIN0
  6
BYBLOCK
 62
0
100
AcDbMText
 10
83.97336291244443
 20
397.2606693931837
 30
0.0000000000000000
 40
4.649999856948853
 41
0.0000000000000000
 71
     5
 72
     1
  1
\A1;\U+2205315
 11
6.123233995736766e-017
 21
1.000000000000000
 31
0.0000000000000000
  7
STANDARD
  0
ENDBLK
  5
2AD
100
AcDbEntity
  8
MAIN0
  6
CONTINUOUS
 62
3
100
AcDbBlockEnd
  0
BLOCK
  5
2AF
100
AcDbEntity
  8
MAIN0
  6
CONTINUOUS
 62
3
100
AcDbBlockBegin
  2
*D20
 70
    65
 10
0.0
 20
0.0
 30
0.0
  0
LINE
  5
2B0
100
AcDbEntity
  8
MAIN0
  6
BYBLOCK
 62
0
100
AcDbLine
 10
186.5983628230373
 20
548.7606693931837
 30
0.0000000000000000
 11
103.7983628409189
 21
548.7606693931837
 31
0.0000000000000000
  0
LINE
  5
2B1
100
AcDbEntity
  8
MAIN0
  6
BYBLOCK
 62
0
100
AcDbLine
 10
106.7983628409189
 20
545.7606693931837
 30
0.0000000000000000
 11
106.7983628409189
 21
248.7606693931837
 31
0.0000000000000000
  0
INSERT
  5
2B2
100
AcDbEntity
  8
MAIN0
  6
BYBLOCK
 62
0
100
AcDbBlockReference
  2
_OPEN
 10
106.7983628409189
 20
548.7606693931837
 30
0.0000000000000000
 41
3.000000000000000
 42
3.000000000000000
 43
3.000000000000000
 50
90.00000000000000
  0
INSERT
  5
2B3
100
AcDbEntity
  8
MAIN0
  6
BYBLOCK
 62
0
100
AcDbBlockReference
  2
_OPEN
 10
106.7983628409189
 20
245.7606693931837
 30
0.0000000000000000
 41
3.000000000000000
 42
3.000000000000000
 43
3.000000000000000
 50
270.0000000000000
  0
LINE
  5
2B4
100
AcDbEntity
  8
MAIN0
  6
BYBLOCK
 62
0
100
AcDbLine
 10
186.5983628230373
 20
245.7606693931837
 30
0.0000000000000000
 11
103.7983628409189
 21
245.7606693931837
 31
0.0000000000000000
  0
MTEXT
  5
2B5
100
AcDbEntity
  8
MAIN0
  6
BYBLOCK
 62
0
100
AcDbMText
 10
103.9733629124444
 20
397.2606693931837
 30
0.0000000000000000
 40
4.649999856948853
 41
0.0000000000000000
 71
     5
 72
     1
  1
\A1;\U+2205303
 11
6.123233995736766e-017
 21
1.000000000000000
 31
0.0000000000000000
  7
STANDARD
  0
ENDBLK
  5
2B6
100
AcDbEntity
  8
MAIN0
  6
CONTINUOUS
 62
3
100
AcDbBlockEnd
  0
BLOCK
  5
2C5
100
AcDbEntity
  8
MAIN0
  6
CONTINUOUS
 62
3
100
AcDbBlockBegin
  2
*D21
 70
    65
 10
0.0
 20
0.0
 30
0.0
  0
LINE
  5
2C6
100
AcDbEntity
  8
MAIN0
  6
BYBLOCK
 62
0
100
AcDbLine
 10
186.6983628409189
 20
263.5606693753015
 30
0.0000000000000000
 11
186.6983628409189
 21
214.2606693931837
 31
0.0000000000000000
  0
LINE
  5
2C7
100
AcDbEntity
  8
MAIN0
  6
BYBLOCK
 62
0
100
AcDbLine
 10
189.6983628409189
 20
217.2606693931837
 30
0.0000000000000000
 11
225.1983628409198
 21
217.2606693931837
 31
0.0000000000000000
  0
INSERT
  5
2C8
100
AcDbEntity
  8
MAIN0
  6
BYBLOCK
 62
0
100
AcDbBlockReference
  2
_OPEN
 10
186.6983628409189
 20
217.2606693931837
 30
0.0000000000000000
 41
3.000000000000000
 42
3.000000000000000
 43
3.000000000000000
 50
180.0000000000000
  0
INSERT
  5
2C9
100
AcDbEntity
  8
MAIN0
  6
BYBLOCK
 62
0
100
AcDbBlockReference
  2
_OPEN
 10
228.1983628409198
 20
217.2606693931837
 30
0.0000000000000000
 41
3.000000000000000
 42
3.000000000000000
 43
3.000000000000000
 50
0.0000000000000000
  0
LINE
  5
2CA
100
AcDbEntity
  8
MAIN0
  6
BYBLOCK
 62
0
100
AcDbLine
 10
228.1983628409198
 20
231.2465939463267
 30
0.0000000000000000
 11
228.1983628409198
 21
214.2606693931837
 31
0.0000000000000000
  0
MTEXT
  5
2CB
100
AcDbEntity
  8
MAIN0
  6
BYBLOCK
 62
0
100
AcDbMText
 10
207.4483628409193
 20
220.0856693216581
 30
0.0000000000000000
 40
4.649999856948853
 41
0.0000000000000000
 71
     5
 72
     1
  1
\A1;41.5
 11
1.000000000000000
 21
0.0000000000000000
 31
0.0000000000000000
  7
STANDARD
  0
ENDBLK
  5
2CC
100
AcDbEntity
  8
MAIN0
  6
CONTINUOUS
 62
3
100
AcDbBlockEnd
  0
BLOCK
  5
2CE
100
AcDbEntity
  8
MAIN0
  6
CONTINUOUS
 62
3
100
AcDbBlockBegin
  2
*D22
 70
    65
 10
0.0
 20
0.0
 30
0.0
  0
LINE
  5
2CF
100
AcDbEntity
  8
MAIN0
  6
BYBLOCK
 62
0
100
AcDbLine
 10
186.6983628409189
 20
530.9606694110657
 30
0.0000000000000000
 11
186.6983628409189
 21
580.2606693931837
 31
0.0000000000000000
  0
LINE
  5
2D0
100
AcDbEntity
  8
MAIN0
  6
BYBLOCK
 62
0
100
AcDbLine
 10
189.6983628409189
 20
577.2606693931837
 30
0.0000000000000000
 11
225.1983628409198
 21
577.2606693931837
 31
0.0000000000000000
  0
INSERT
  5
2D1
100
AcDbEntity
  8
MAIN0
  6
BYBLOCK
 62
0
100
AcDbBlockReference
  2
_OPEN
 10
186.6983628409189
 20
577.2606693931837
 30
0.0000000000000000
 41
3.000000000000000
 42
3.000000000000000
 43
3.000000000000000
 50
180.0000000000000
  0
INSERT
  5
2D2
100
AcDbEntity
  8
MAIN0
  6
BYBLOCK
 62
0
100
AcDbBlockReference
  2
_OPEN
 10
228.1983628409198
 20
577.2606693931837
 30
0.0000000000000000
 41
3.000000000000000
 42
3.000000000000000
 43
3.000000000000000
 50
0.0000000000000000
  0
LINE
  5
2D3
100
AcDbEntity
  8
MAIN0
  6
BYBLOCK
 62
0
100
AcDbLine
 10
228.1983628409198
 20
560.6668623450114
 30
0.0000000000000000
 11
228.1983628409198
 21
580.2606693931837
 31
0.0000000000000000
  0
MTEXT
  5
2D4
100
AcDbEntity
  8
MAIN0
  6
BYBLOCK
 62
0
100
AcDbMText
 10
207.4483628409193
 20
580.0856693216581
 30
0.0000000000000000
 40
4.649999856948853
 41
0.0000000000000000
 71
     5
 72
     1
  1
\A1;41.5
 11
1.000000000000000
 21
0.0000000000000000
 31
0.0000000000000000
  7
STANDARD
  0
ENDBLK
  5
2D5
100
AcDbEntity
  8
MAIN0
  6
CONTINUOUS
 62
3
100
AcDbBlockEnd
  0
BLOCK
  5
2D7
100
AcDbEntity
  8
MAIN0
  6
CONTINUOUS
 62
3
100
AcDbBlockBegin
  2
*D23
 70
    65
 10
0.0
 20
0.0
 30
0.0
  0
LINE
  5
2D8
100
AcDbEntity
  8
MAIN0
  6
BYBLOCK
 62
0
100
AcDbLine
 10
186.6983628409189
 20
530.9606694110657
 30
0.0000000000000000
 11
186.6983628409189
 21
600.2606693931837
 31
0.0000000000000000
  0
LINE
  5
2D9
100
AcDbEntity
  8
MAIN0
  6
BYBLOCK
 62
0
100
AcDbLine
 10
189.6983628409189
 20
597.2606693931837
 30
0.0000000000000000
 11
303.6983628409189
 21
597.2606693931837
 31
0.0000000000000000
  0
INSERT
  5
2DA
100
AcDbEntity
  8
MAIN0
  6
BYBLOCK
 62
0
100
AcDbBlockReference
  2
_OPEN
 10
186.6983628409189
 20
597.2606693931837
 30
0.0000000000000000
 41
3.000000000000000
 42
3.000000000000000
 43
3.000000000000000
 50
180.0000000000000
  0
INSERT
  5
2DB
100
AcDbEntity
  8
MAIN0
  6
BYBLOCK
 62
0
100
AcDbBlockReference
  2
_OPEN
 10
306.6983628409189
 20
597.2606693931837
 30
0.0000000000000000
 41
3.000000000000000
 42
3.000000000000000
 43
3.000000000000000
 50
0.0000000000000000
  0
LINE
  5
2DC
100
AcDbEntity
  8
MAIN0
  6
BYBLOCK
 62
0
100
AcDbLine
 10
306.6983628409189
 20
522.9606694110648
 30
0.0000000000000000
 11
306.6983628409189
 21
600.2606693931837
 31
0.0000000000000000
  0
MTEXT
  5
2DD
100
AcDbEntity
  8
MAIN0
  6
BYBLOCK
 62
0
100
AcDbMText
 10
246.6983628409189
 20
600.0856693216581
 30
0.0000000000000000
 40
4.649999856948853
 41
0.0000000000000000
 71
     5
 72
     1
  1
\A1;120
 11
1.000000000000000
 21
0.0000000000000000
 31
0.0000000000000000
  7
STANDARD
  0
ENDBLK
  5
2DE
100
AcDbEntity
  8
MAIN0
  6
CONTINUOUS
 62
3
100
AcDbBlockEnd
  0
BLOCK
  5
2E3
100
AcDbEntity
  8
MAIN0
  6
CONTINUOUS
 62
3
100
AcDbBlockBegin
  2
D24
 70
    64
 10
0.0
 20
0.0
 30
0.0
  0
LINE
  5
2E4
100
AcDbEntity
  8
MAIN0
  6
BYBLOCK
 62
0
100
AcDbLine
 10
33.46864639232376
 20
-92.67073870498507
 30
0.0000000000000000
 11
33.46864639232376
 21
-139.5000000000000
 31
0.0000000000000000
  0
LINE
  5
2E5
100
AcDbEntity
  8
MAIN0
  6
BYBLOCK
 62
0
100
AcDbLine
 10
34.36864642808655
 20
-136.5000000000000
 30
0.0000000000000000
 11
33.46864639232376
 21
-139.5000000000000
 31
0.0000000000000000
  0
LINE
  5
2E6
100
AcDbEntity
  8
MAIN0
  6
BYBLOCK
 62
0
100
AcDbLine
 10
33.46864639232376
 20
-139.5000000000000
 30
0.0000000000000000
 11
32.56864635656098
 21
-136.5000000000000
 31
0.0000000000000000
  0
LINE
  5
2E7
100
AcDbEntity
  8
MAIN0
  6
BYBLOCK
 62
0
100
AcDbLine
 10
-65.13135358979528
 20
-139.5000000000000
 30
0.0000000000000000
 11
36.46864639232376
 21
-139.5000000000000
 31
0.0000000000000000
  0
MTEXT
  5
2E8
100
AcDbEntity
  8
MAIN0
  6
BYBLOCK
 62
0
100
AcDbMText
 10
30.39364646384934
 20
-97.12073876026705
 30
0.0000000000000000
 40
4.649999856948853
 41
0.0000000000000000
 71
     5
 72
     1
  1
\A1;\U+2205279
 11
6.123233995736766e-017
 21
1.000000000000000
 31
0.0000000000000000
  7
STANDARD
  0
ENDBLK
  5
2E9
100
AcDbEntity
  8
MAIN0
  6
CONTINUOUS
 62
3
100
AcDbBlockEnd
  0
BLOCK
  5
31E
100
AcDbEntity
  8
MAIN0
  6
BYBLOCK
 62
3
100
AcDbBlockBegin
  2
M1
 70
    64
 10
0.0
 20
0.0
 30
0.0
  0
LINE
  5
31F
100
AcDbEntity
  8
MAIN0
  6
BYBLOCK
 62
0
100
AcDbLine
 10
218.1124285272801
 20
194.0621391625915
 30
0.0000000000000000
 11
335.8708885247828
 21
194.0621391625915
 31
0.0000000000000000
  0
LINE
  5
320
100
AcDbEntity
  8
MAIN0
  6
BYBLOCK
 62
0
100
AcDbLine
 10
218.1124285272801
 20
183.5621391625915
 30
0.0000000000000000
 11
335.8708885247867
 21
183.5621391625915
 31
0.0000000000000000
  0
LINE
  5
321
100
AcDbEntity
  8
MAIN0
  6
BYBLOCK
 62
0
100
AcDbLine
 10
218.1124285272801
 20
89.06211304702168
 30
0.0000000000000000
 11
218.1124285272801
 21
194.0621391625916
 31
0.0000000000000000
  0
LINE
  5
322
100
AcDbEntity
  8
MAIN0
  6
BYBLOCK
 62
0
100
AcDbLine
 10
218.1124285272801
 20
173.0621391625915
 30
0.0000000000000000
 11
335.8708885247905
 21
173.0621391625915
 31
0.0000000000000000
  0
LINE
  5
323
100
AcDbEntity
  8
MAIN0
  6
BYBLOCK
 62
0
100
AcDbLine
 10
218.1124285272801
 20
162.5621391625918
 30
0.0000000000000000
 11
335.8708885247944
 21
162.5621391625918
 31
0.0000000000000000
  0
MTEXT
  5
324
100
AcDbEntity
  8
MAIN0
  6
BYBLOCK
 62
0
100
AcDbMText
 10
311.1124285272797
 20
178.7621380181820
 30
0.0000000000000000
 40
4.199998855590820
 41
0.0000000000000000
 71
     1
 72
     1
  1
{\H0.58x;　　　　ｍｍ}
 11
1.000000000000000
 21
0.0000000000000000
 31
0.0000000000000000
  7
KNJYOKO
  0
MTEXT
  5
325
100
AcDbEntity
  8
MAIN0
  6
BYBLOCK
 62
0
100
AcDbMText
 10
311.1124285272797
 20
168.2621380181823
 30
0.0000000000000000
 40
4.199998855590820
 41
0.0000000000000000
 71
     1
 72
     1
  1
{\H0.58x;　　　　ｍｍ}
 11
1.000000000000000
 21
0.0000000000000000
 31
0.0000000000000000
  7
KNJYOKO
  0
MTEXT
  5
326
100
AcDbEntity
  8
MAIN0
  6
BYBLOCK
 62
0
100
AcDbMText
 10
311.1124285272797
 20
158.5121380181823
 30
0.0000000000000000
 40
4.199998855590820
 41
0.0000000000000000
 71
     1
 72
     1
  1
{\H0.58x;　　　　ｋＮ}
 11
1.000000000000000
 21
0.0000000000000000
 31
0.0000000000000000
  7
KNJYOKO
  0
ENDBLK
  5
327
100
AcDbEntity
  8
MAIN0
  6
BYBLOCK
 62
3
100
AcDbBlockEnd
  0
BLOCK
  5
51A
100
AcDbEntity
  8
WAKU0
  6
BYBLOCK
 62
1
100
AcDbBlockBegin
  2
M2
 70
    64
 10
0.0
 20
0.0
 30
0.0
  0
MTEXT
  5
51B
100
AcDbEntity
  8
WAKU0
  6
BYBLOCK
 62
0
100
AcDbMText
 10
418.0746025578259
 20
65.18658937141490
 30
0.0000000000000000
 40
3.000000000000000
 41
0.0000000000000000
 71
     1
 72
     1
  1
{\H0.63x;NOTICE\P要注意}
 11
1.000000000000000
 21
-1.130435886617454e-013
 31
0.0000000000000000
  7
KNJYOKO
  0
LINE
  5
51C
100
AcDbEntity
  8
WAKU0
  6
BYBLOCK
 62
0
100
AcDbLine
 10
417.0796374348612
 20
65.46173624443344
 30
0.0000000000000000
 11
429.0796374348612
 21
65.46173624443344
 31
0.0000000000000000
  0
LINE
  5
51D
100
AcDbEntity
  8
WAKU0
  6
BYBLOCK
 62
0
100
AcDbLine
 10
417.0796374348612
 20
65.46173624443344
 30
0.0000000000000000
 11
417.0796374348612
 21
58.46173624443344
 31
0.0000000000000000
  0
LINE
  5
51E
100
AcDbEntity
  8
WAKU0
  6
BYBLOCK
 62
0
100
AcDbLine
 10
417.0796374348612
 20
58.46173624443344
 30
0.0000000000000000
 11
429.0796374348612
 21
58.46173624443344
 31
0.0000000000000000
  0
LINE
  5
51F
100
AcDbEntity
  8
WAKU0
  6
BYBLOCK
 62
0
100
AcDbLine
 10
429.0796374348610
 20
68.96173624443408
 30
0.0000000000000000
 11
436.0796374348608
 21
61.96173624443391
 31
0.0000000000000000
  0
LINE
  5
520
100
AcDbEntity
  8
WAKU0
  6
BYBLOCK
 62
0
100
AcDbLine
 10
429.0796374348614
 20
54.96173624443367
 30
0.0000000000000000
 11
436.0796374348614
 21
61.96173624443333
 31
0.0000000000000000
  0
LINE
  5
521
100
AcDbEntity
  8
WAKU0
  6
BYBLOCK
 62
0
100
AcDbLine
 10
429.0796374348612
 20
58.46173624443344
 30
0.0000000000000000
 11
429.0796374348612
 21
54.96173624443389
 31
0.0000000000000000
  0
LINE
  5
522
100
AcDbEntity
  8
WAKU0
  6
BYBLOCK
 62
0
100
AcDbLine
 10
429.0796374348612
 20
68.96173624443367
 30
0.0000000000000000
 11
429.0796374348612
 21
65.46173624443344
 31
0.0000000000000000
  0
ENDBLK
  5
523
100
AcDbEntity
  8
WAKU0
  6
BYBLOCK
 62
1
100
AcDbBlockEnd
  0
ENDSEC
  0
SECTION
  2
ENTITIES
  0
LINE
  5
46
100
AcDbEntity
  8
MAIN0
  6
CENTER
 62
3
100
AcDbLine
 10
78.81531549292379
 20
167.2748260155479
 30
0.0000000000000000
 11
150.6865511268602
 21
167.2748260155479
 31
0.0000000000000000
  0
LINE
  5
47
100
AcDbEntity
  8
MAIN0
  6
CONTINUOUS
 62
3
100
AcDbLine
 10
126.3684491363762
 20
199.1236459304534
 30
0.0000000000000000
 11
126.3684491363762
 21
187.2748260155479
 31
0.0000000000000000
  0
LINE
  5
48
100
AcDbEntity
  8
MAIN0
  6
CONTINUOUS
 62
3
100
AcDbLine
 10
126.3684491363762
 20
135.4260061006425
 30
0.0000000000000000
 11
126.3684491363762
 21
147.2748260155479
 31
0.0000000000000000
  0
DIMENSION
  5
52
100
AcDbEntity
  8
MAIN0
  6
CONTINUOUS
 62
3
100
AcDbDimension
  2
*D0
 10
126.3684491363762
 20
113.2748260155480
 30
0.0000000000000000
 11
120.0907032745609
 21
114.0248260155480
 31
0.0000000000000000
 70
160
  3
MAIN001
100
AcDbAlignedDimension
 13
131.3684491363762
 23
148.2748260155479
 33
0.0000000000000000
 14
126.3684491363762
 24
135.4260061006425
 34
0.0000000000000000
100
AcDbRotatedDimension
1001
ACAD
1000
DSTYLE
1002
{
1070
   173
1070
     1
1070
     6
1000
_DOT
1070
     7
1000
_OPEN
1070
    41
1040
3.000000
1070
   287
1070
     0
1002
}
  0
DIMENSION
  5
5C
100
AcDbEntity
  8
MAIN0
  6
CONTINUOUS
 62
3
100
AcDbDimension
  2
*D1
 10
131.3684491363762
 20
113.2748260155480
 30
0.0000000000000000
 11
141.0133708550796
 21
114.0248260155480
 31
0.0000000000000000
 70
160
  3
MAIN001
100
AcDbAlignedDimension
 13
134.3684491363762
 23
159.4288458345919
 33
0.0000000000000000
 14
131.3684491363762
 24
148.2748260155479
 34
0.0000000000000000
100
AcDbRotatedDimension
1001
ACAD
1000
DSTYLE
1002
{
1070
   173
1070
     1
1070
     6
1000
_OPEN
1070
     7
1000
_DOT
1070
    41
1040
3.000000
1070
   287
1070
     0
1002
}
  0
DIMENSION
  5
65
100
AcDbEntity
  8
MAIN0
  6
CONTINUOUS
 62
3
100
AcDbDimension
  2
*D2
 10
154.3684491363764
 20
159.2748260155480
 30
0.0000000000000000
 11
153.8684491363764
 21
167.2748260155479
 31
0.0000000000000000
 70
32
  1
\A1;16H8/h8
  3
MAIN001
100
AcDbAlignedDimension
 13
134.1684491363762
 23
175.2748260155479
 33
0.0000000000000000
 14
134.1684491363762
 24
159.2748260155480
 34
0.0000000000000000
 50
90.00000000000000
100
AcDbRotatedDimension
1001
ACAD
1000
DSTYLE
1002
{
1070
   173
1070
     1
1070
     6
1000
_OPEN
1070
     7
1000
_OPEN
1070
    41
1040
3.000000
1002
}
  0
DIMENSION
  5
6E
100
AcDbEntity
  8
MAIN0
  6
CONTINUOUS
 62
3
100
AcDbDimension
  2
*D3
 10
174.3684491363759
 20
147.2748260155479
 30
0.0000000000000000
 11
173.8684491363759
 21
167.2748260155479
 31
0.0000000000000000
 70
32
  3
MAIN001
100
AcDbAlignedDimension
 13
129.6363983288049
 23
187.2748260155479
 33
0.0000000000000000
 14
129.6363983288049
 24
147.2748260155479
 34
0.0000000000000000
 50
90.00000000000000
100
AcDbRotatedDimension
1001
ACAD
1000
DSTYLE
1002
{
1070
   173
1070
     1
1070
     6
1000
_OPEN
1070
     7
1000
_OPEN
1070
    41
1040
3.000000
1002
}
  0
SPLINE
  5
6F
100
AcDbEntity
  8
MAIN0
  6
CONTINUOUS
 62
3
100
AcDbSpline
210
0.0000000000000000
220
0.0000000000000000
230
1.000000000000000
 70
     8
 71
     3
 72
     9
 73
     5
 74
     0
 42
1.000000000000000e-007
 43
1.000000000000000e-007
 12
-0.8107181653194999
 22
0.4109566471867368
 32
0.0000000000000000
 13
-0.04921875218698801
 23
-0.01070988267960615
 33
0.0000000000000000
 40
0.0000000000000000
 40
0.0000000000000000
 40
0.0000000000000000
 40
0.0000000000000000
 40
4.264889842613945
 40
8.036253722150818
 40
8.036253722150818
 40
8.036253722150818
 40
8.036253722150818
 10
126.3684491363762
 20
199.1421660657212
 30
0.0000000000000000
 10
125.2159079135449
 20
199.7263943425017
 30
0.0000000000000000
 10
123.0441956223236
 20
200.8272449710340
 30
0.0000000000000000
 10
118.5866577712556
 20
199.8572954029600
 30
0.0000000000000000
 10
118.5247838298576
 20
199.8438317813960
 30
0.0000000000000000
  0
SPLINE
  5
70
100
AcDbEntity
  8
MAIN0
  6
CONTINUOUS
 62
3
100
AcDbSpline
210
0.0000000000000000
220
0.0000000000000000
230
1.000000000000000
 70
     8
 71
     3
 72
    10
 73
     6
 74
     0
 42
1.000000000000000e-007
 43
1.000000000000000e-007
 12
-0.9494125293417142
 22
-0.3755563589311350
 32
0.0000000000000000
 13
-0.9946583278783692
 23
-0.1169179577696582
 33
0.0000000000000000
 40
0.0000000000000000
 40
0.0000000000000000
 40
0.0000000000000000
 40
0.0000000000000000
 40
5.003909636143367
 40
10.38844978651544
 40
13.43798081612112
 40
13.43798081612112
 40
13.43798081612112
 40
13.43798081612112
 10
126.3684491363762
 20
135.5243109382151
 30
0.0000000000000000
 10
124.7848576349601
 20
134.8978942437583
 30
0.0000000000000000
 10
121.4972161723752
 20
133.5974114515041
 30
0.0000000000000000
 10
116.9527638928988
 20
134.5685214851786
 30
0.0000000000000000
 10
114.1564241805374
 20
134.2398233591628
 30
0.0000000000000000
 10
113.1453437022972
 20
134.1209750457839
 30
0.0000000000000000
  0
LINE
  5
71
100
AcDbEntity
  8
MAIN0
  6
CONTINUOUS
 62
3
100
AcDbLine
 10
352.6983628409189
 20
533.2606693931837
 30
0.0000000000000000
 11
352.6983628409189
 21
423.2606693931837
 31
0.0000000000000000
  0
LINE
  5
72
100
AcDbEntity
  8
MAIN0
  6
CONTINUOUS
 62
3
100
AcDbLine
 10
306.7983628409188
 20
463.2606693931837
 30
0.0000000000000000
 11
310.6983628409189
 21
463.2606693931837
 31
0.0000000000000000
  0
LINE
  5
73
100
AcDbEntity
  8
MAIN0
  6
CONTINUOUS
 62
3
100
AcDbLine
 10
641.7983628409188
 20
423.2606693931834
 30
0.0000000000000000
 11
681.7983628409188
 21
423.2606693931835
 31
0.0000000000000000
  0
LINE
  5
74
100
AcDbEntity
  8
MAIN0
  6
CONTINUOUS
 62
3
100
AcDbLine
 10
641.7983628409188
 20
533.2606693931834
 30
0.0000000000000000
 11
641.7983628409188
 21
423.2606693931834
 31
0.0000000000000000
  0
LINE
  5
75
100
AcDbEntity
  8
MAIN0
  6
CONTINUOUS
 62
3
100
AcDbLine
 10
681.7983628409188
 20
533.2606693931834
 30
0.0000000000000000
 11
681.7983628409188
 21
423.2606693931834
 31
0.0000000000000000
  0
LINE
  5
76
100
AcDbEntity
  8
MAIN0
  6
CONTINUOUS
 62
3
100
AcDbLine
 10
267.9983628409187
 20
270.7606693931836
 30
0.0000000000000000
 11
304.6983628409189
 21
270.7606693931836
 31
0.0000000000000000
  0
LINE
  5
77
100
AcDbEntity
  8
MAIN0
  6
CONTINUOUS
 62
3
100
AcDbLine
 10
311.8983628409189
 20
533.2606693931837
 30
0.0000000000000000
 11
352.6983628409189
 21
533.2606693931837
 31
0.0000000000000000
  0
LINE
  5
78
100
AcDbEntity
  8
MAIN0
  6
CONTINUOUS
 62
3
100
AcDbLine
 10
641.7983628409188
 20
533.2606693931834
 30
0.0000000000000000
 11
681.7983628409188
 21
533.2606693931834
 31
0.0000000000000000
  0
LINE
  5
79
100
AcDbEntity
  8
MAIN0
  6
CONTINUOUS
 62
3
100
AcDbLine
 10
304.6983628409188
 20
523.7606693931834
 30
0.0000000000000000
 11
306.6983628409188
 21
521.7606693931834
 31
0.0000000000000000
  0
LINE
  5
7A
100
AcDbEntity
  8
MAIN0
  6
CONTINUOUS
 62
3
100
AcDbLine
 10
306.6983628409189
 20
272.7606693931838
 30
0.0000000000000000
 11
304.6983628409188
 21
270.7606693931838
 31
0.0000000000000000
  0
CIRCLE
  5
7B
100
AcDbEntity
  8
MAIN0
  6
CONTINUOUS
 62
3
100
AcDbCircle
 10
661.7983628409188
 20
397.2606693931834
 30
0.0000000000000000
 40
25.00000000000000
  0
CIRCLE
  5
7C
100
AcDbEntity
  8
MAIN0
  6
CONTINUOUS
 62
3
100
AcDbCircle
 10
717.0074823322200
 20
429.1356693931084
 30
0.0000000000000000
 40
4.250000000000000
  0
LINE
  5
7D
100
AcDbEntity
  8
MAIN0
  6
CONTINUOUS
 62
3
100
AcDbLine
 10
717.0074823322200
 20
431.4450704698671
 30
0.0000000000000000
 11
715.0074823322200
 21
430.2903699314878
 31
0.0000000000000000
  0
LINE
  5
7E
100
AcDbEntity
  8
MAIN0
  6
CONTINUOUS
 62
3
100
AcDbLine
 10
715.0074823322200
 20
430.2903699314877
 30
0.0000000000000000
 11
715.0074823322200
 21
427.9809688547293
 31
0.0000000000000000
  0
LINE
  5
7F
100
AcDbEntity
  8
MAIN0
  6
CONTINUOUS
 62
3
100
AcDbLine
 10
715.0074823322200
 20
427.9809688547294
 30
0.0000000000000000
 11
717.0074823322198
 21
426.8262683163502
 31
0.0000000000000000
  0
LINE
  5
80
100
AcDbEntity
  8
MAIN0
  6
CONTINUOUS
 62
3
100
AcDbLine
 10
717.0074823322200
 20
426.8262683163500
 30
0.0000000000000000
 11
719.0074823322200
 21
427.9809688547293
 31
0.0000000000000000
  0
LINE
  5
81
100
AcDbEntity
  8
MAIN0
  6
CONTINUOUS
 62
3
100
AcDbLine
 10
719.0074823322200
 20
427.9809688547293
 30
0.0000000000000000
 11
719.0074823322200
 21
430.2903699314877
 31
0.0000000000000000
  0
LINE
  5
82
100
AcDbEntity
  8
MAIN0
  6
CONTINUOUS
 62
3
100
AcDbLine
 10
719.0074823322198
 20
430.2903699314878
 30
0.0000000000000000
 11
717.0074823322200
 21
431.4450704698671
 31
0.0000000000000000
  0
CIRCLE
  5
83
100
AcDbEntity
  8
MAIN0
  6
CONTINUOUS
 62
3
100
AcDbCircle
 10
661.7983628409188
 20
503.2606693931834
 30
0.0000000000000000
 40
9.000000000000000
  0
LINE
  5
84
100
AcDbEntity
  8
MAIN0
  6
CONTINUOUS
 62
3
100
AcDbLine
 10
661.7983628409188
 20
509.0341720850796
 30
0.0000000000000000
 11
656.7983628409188
 21
506.1474207391315
 31
0.0000000000000000
  0
LINE
  5
85
100
AcDbEntity
  8
MAIN0
  6
CONTINUOUS
 62
3
100
AcDbLine
 10
656.7983628409188
 20
506.1474207391315
 30
0.0000000000000000
 11
656.7983628409188
 21
500.3739180472353
 31
0.0000000000000000
  0
LINE
  5
86
100
AcDbEntity
  8
MAIN0
  6
CONTINUOUS
 62
3
100
AcDbLine
 10
656.7983628409188
 20
500.3739180472354
 30
0.0000000000000000
 11
661.7983628409188
 21
497.4871667012872
 31
0.0000000000000000
  0
LINE
  5
87
100
AcDbEntity
  8
MAIN0
  6
CONTINUOUS
 62
3
100
AcDbLine
 10
661.7983628409189
 20
497.4871667012871
 30
0.0000000000000000
 11
666.7983628409189
 21
500.3739180472353
 31
0.0000000000000000
  0
LINE
  5
88
100
AcDbEntity
  8
MAIN0
  6
CONTINUOUS
 62
3
100
AcDbLine
 10
666.7983628409188
 20
500.3739180472353
 30
0.0000000000000000
 11
666.7983628409188
 21
506.1474207391315
 31
0.0000000000000000
  0
LINE
  5
89
100
AcDbEntity
  8
MAIN0
  6
CONTINUOUS
 62
3
100
AcDbLine
 10
666.7983628409188
 20
506.1474207391315
 30
0.0000000000000000
 11
661.7983628409188
 21
509.0341720850796
 31
0.0000000000000000
  0
CIRCLE
  5
8A
100
AcDbEntity
  8
MAIN0
  6
CONTINUOUS
 62
3
100
AcDbCircle
 10
661.7983628409188
 20
503.2606693931834
 30
0.0000000000000000
 40
9.500000000000000
  0
CIRCLE
  5
8B
100
AcDbEntity
  8
MAIN0
  6
CONTINUOUS
 62
3
100
AcDbCircle
 10
661.7983628409188
 20
473.2606693931834
 30
0.0000000000000000
 40
9.000000000000000
  0
LINE
  5
8C
100
AcDbEntity
  8
MAIN0
  6
CONTINUOUS
 62
3
100
AcDbLine
 10
661.7983628409189
 20
479.0341720850797
 30
0.0000000000000000
 11
656.7983628409189
 21
476.1474207391315
 31
0.0000000000000000
  0
LINE
  5
8D
100
AcDbEntity
  8
MAIN0
  6
CONTINUOUS
 62
3
100
AcDbLine
 10
656.7983628409188
 20
476.1474207391314
 30
0.0000000000000000
 11
656.7983628409188
 21
470.3739180472353
 31
0.0000000000000000
  0
LINE
  5
8E
100
AcDbEntity
  8
MAIN0
  6
CONTINUOUS
 62
3
100
AcDbLine
 10
656.7983628409188
 20
470.3739180472354
 30
0.0000000000000000
 11
661.7983628409188
 21
467.4871667012872
 31
0.0000000000000000
  0
LINE
  5
8F
100
AcDbEntity
  8
MAIN0
  6
CONTINUOUS
 62
3
100
AcDbLine
 10
661.7983628409188
 20
467.4871667012870
 30
0.0000000000000000
 11
666.7983628409188
 21
470.3739180472352
 31
0.0000000000000000
  0
LINE
  5
90
100
AcDbEntity
  8
MAIN0
  6
CONTINUOUS
 62
3
100
AcDbLine
 10
666.7983628409188
 20
470.3739180472353
 30
0.0000000000000000
 11
666.7983628409188
 21
476.1474207391314
 31
0.0000000000000000
  0
LINE
  5
91
100
AcDbEntity
  8
MAIN0
  6
CONTINUOUS
 62
3
100
AcDbLine
 10
666.7983628409188
 20
476.1474207391315
 30
0.0000000000000000
 11
661.7983628409188
 21
479.0341720850797
 31
0.0000000000000000
  0
CIRCLE
  5
92
100
AcDbEntity
  8
MAIN0
  6
CONTINUOUS
 62
3
100
AcDbCircle
 10
661.7983628409188
 20
473.2606693931834
 30
0.0000000000000000
 40
9.500000000000000
  0
CIRCLE
  5
93
100
AcDbEntity
  8
MAIN0
  6
CONTINUOUS
 62
3
100
AcDbCircle
 10
606.5892433497040
 20
429.1356693932585
 30
0.0000000000000000
 40
4.250000000000000
  0
LINE
  5
94
100
AcDbEntity
  8
MAIN0
  6
CONTINUOUS
 62
3
100
AcDbLine
 10
604.5892433497043
 20
427.9809688548791
 30
0.0000000000000000
 11
606.5892433497043
 21
426.8262683164998
 31
0.0000000000000000
  0
LINE
  5
95
100
AcDbEntity
  8
MAIN0
  6
CONTINUOUS
 62
3
100
AcDbLine
 10
606.5892433497040
 20
426.8262683164999
 30
0.0000000000000000
 11
608.5892433497040
 21
427.9809688548791
 31
0.0000000000000000
  0
LINE
  5
96
100
AcDbEntity
  8
MAIN0
  6
CONTINUOUS
 62
3
100
AcDbLine
 10
608.5892433497040
 20
427.9809688548791
 30
0.0000000000000000
 11
608.5892433497041
 21
430.2903699316377
 31
0.0000000000000000
  0
LINE
  5
97
100
AcDbEntity
  8
MAIN0
  6
CONTINUOUS
 62
3
100
AcDbLine
 10
608.5892433497041
 20
430.2903699316374
 30
0.0000000000000000
 11
606.5892433497041
 21
431.4450704700167
 31
0.0000000000000000
  0
LINE
  5
98
100
AcDbEntity
  8
MAIN0
  6
CONTINUOUS
 62
3
100
AcDbLine
 10
606.5892433497040
 20
431.4450704700169
 30
0.0000000000000000
 11
604.5892433497040
 21
430.2903699316377
 31
0.0000000000000000
  0
LINE
  5
99
100
AcDbEntity
  8
MAIN0
  6
CONTINUOUS
 62
3
100
AcDbLine
 10
604.5892433497041
 20
430.2903699316377
 30
0.0000000000000000
 11
604.5892433497040
 21
427.9809688548791
 31
0.0000000000000000
  0
CIRCLE
  5
9A
100
AcDbEntity
  8
MAIN0
  6
CONTINUOUS
 62
3
100
AcDbCircle
 10
661.7983628408322
 20
333.5106693931834
 30
0.0000000000000000
 40
4.250000000000000
  0
LINE
  5
9B
100
AcDbEntity
  8
MAIN0
  6
CONTINUOUS
 62
3
100
AcDbLine
 10
663.7983628408322
 20
332.3559688548043
 30
0.0000000000000000
 11
663.7983628408322
 21
334.6653699315627
 31
0.0000000000000000
  0
LINE
  5
9C
100
AcDbEntity
  8
MAIN0
  6
CONTINUOUS
 62
3
100
AcDbLine
 10
663.7983628408324
 20
334.6653699315627
 30
0.0000000000000000
 11
661.7983628408323
 21
335.8200704699420
 31
0.0000000000000000
  0
LINE
  5
9D
100
AcDbEntity
  8
MAIN0
  6
CONTINUOUS
 62
3
100
AcDbLine
 10
661.7983628408323
 20
335.8200704699417
 30
0.0000000000000000
 11
659.7983628408323
 21
334.6653699315625
 31
0.0000000000000000
  0
LINE
  5
9E
100
AcDbEntity
  8
MAIN0
  6
CONTINUOUS
 62
3
100
AcDbLine
 10
659.7983628408323
 20
334.6653699315627
 30
0.0000000000000000
 11
659.7983628408323
 21
332.3559688548043
 31
0.0000000000000000
  0
LINE
  5
9F
100
AcDbEntity
  8
MAIN0
  6
CONTINUOUS
 62
3
100
AcDbLine
 10
659.7983628408323
 20
332.3559688548043
 30
0.0000000000000000
 11
661.7983628408324
 21
331.2012683164249
 31
0.0000000000000000
  0
LINE
  5
A0
100
AcDbEntity
  8
MAIN0
  6
CONTINUOUS
 62
3
100
AcDbLine
 10
661.7983628408322
 20
331.2012683164247
 30
0.0000000000000000
 11
663.7983628408322
 21
332.3559688548040
 31
0.0000000000000000
  0
LINE
  5
A1
100
AcDbEntity
  8
MAIN0
  6
CONTINUOUS
 62
3
100
AcDbLine
 10
202.3983628409189
 20
418.7606693931837
 30
0.0000000000000000
 11
306.7983628409189
 21
418.7606693931837
 31
0.0000000000000000
  0
LINE
  5
A2
100
AcDbEntity
  8
MAIN0
  6
CONTINUOUS
 62
3
100
AcDbLine
 10
307.5983628409189
 20
422.2606693931837
 30
0.0000000000000000
 11
308.0983628409189
 21
422.2606693931837
 31
0.0000000000000000
  0
LINE
  5
A3
100
AcDbEntity
  8
MAIN0
  6
CONTINUOUS
 62
3
100
AcDbLine
 10
305.1983628409186
 20
523.2606693931837
 30
0.0000000000000000
 11
310.6983628409189
 21
523.2606693931837
 31
0.0000000000000000
  0
LINE
  5
A4
100
AcDbEntity
  8
MAIN0
  6
CONTINUOUS
 62
3
100
AcDbLine
 10
302.6983628409189
 20
371.2606708690328
 30
0.0000000000000000
 11
302.6983628409189
 21
362.9209174225127
 31
0.0000000000000000
  0
LINE
  5
A5
100
AcDbEntity
  8
MAIN0
  6
CONTINUOUS
 62
3
100
AcDbLine
 10
202.3983628409188
 20
375.7606693931837
 30
0.0000000000000000
 11
306.7983628409188
 21
375.7606693931837
 31
0.0000000000000000
  0
LINE
  5
A6
100
AcDbEntity
  8
MAIN0
  6
CONTINUOUS
 62
3
100
AcDbLine
 10
194.6983628409189
 20
372.2606693931837
 30
0.0000000000000000
 11
301.6983628409189
 21
372.2606693931837
 31
0.0000000000000000
  0
ARC
  5
A7
100
AcDbEntity
  8
MAIN0
  6
CONTINUOUS
 62
3
100
AcDbCircle
 10
301.6983628409189
 20
371.2606693931837
 30
0.0000000000000000
 40
1.000000000000000
100
AcDbArc
 50
0.0000000000000000
 51
89.99999999999882
  0
LINE
  5
A8
100
AcDbEntity
  8
MAIN0
  6
CONTINUOUS
 62
3
100
AcDbLine
 10
308.2983628409189
 20
422.0606693931836
 30
0.0000000000000000
 11
308.2983628409189
 21
397.2606693931837
 31
0.0000000000000000
  0
LINE
  5
A9
100
AcDbEntity
  8
MAIN0
  6
CONTINUOUS
 62
3
100
AcDbLine
 10
296.7983628409189
 20
418.5606693931836
 30
0.0000000000000000
 11
296.7983628409189
 21
397.2606693931837
 31
0.0000000000000000
  0
LINE
  5
AA
100
AcDbEntity
  8
MAIN0
  6
CONTINUOUS
 62
3
100
AcDbLine
 10
298.7983628409189
 20
418.5606693931836
 30
0.0000000000000000
 11
298.7983628409189
 21
416.0106693931837
 31
0.0000000000000000
  0
LINE
  5
AB
100
AcDbEntity
  8
MAIN0
  6
CONTINUOUS
 62
3
100
AcDbLine
 10
303.4983628409188
 20
418.5606693931836
 30
0.0000000000000000
 11
303.4983628409188
 21
416.0106693931837
 31
0.0000000000000000
  0
LINE
  5
AC
100
AcDbEntity
  8
MAIN0
  6
CONTINUOUS
 62
3
100
AcDbLine
 10
298.9983628409188
 20
415.8106693931836
 30
0.0000000000000000
 11
303.2983628409189
 21
415.8106693931836
 31
0.0000000000000000
  0
LINE
  5
AD
100
AcDbEntity
  8
MAIN0
  6
CONTINUOUS
 62
3
100
AcDbLine
 10
306.7983628409189
 20
420.8750287471286
 30
0.0000000000000000
 11
307.5983628409189
 21
422.2606693931837
 31
0.0000000000000000
  0
ARC
  5
AE
100
AcDbEntity
  8
MAIN0
  6
CONTINUOUS
 62
3
100
AcDbCircle
 10
303.2983628409189
 20
416.0106693931837
 30
0.0000000000000000
 40
0.2000000000000000
100
AcDbArc
 50
269.9999999999945
 51
359.9999999999934
  0
ARC
  5
AF
100
AcDbEntity
  8
MAIN0
  6
CONTINUOUS
 62
3
100
AcDbCircle
 10
298.9983628409188
 20
416.0106693931837
 30
0.0000000000000000
 40
0.2000000000000000
100
AcDbArc
 50
179.9999999999964
 51
269.9999999999906
  0
LINE
  5
B0
100
AcDbEntity
  8
MAIN0
  6
CONTINUOUS
 62
3
100
AcDbLine
 10
308.0983628409189
 20
422.2606693931837
 30
0.0000000000000000
 11
308.2983628409188
 21
422.0606693931837
 31
0.0000000000000000
  0
LINE
  5
B1
100
AcDbEntity
  8
MAIN0
  6
CONTINUOUS
 62
3
100
AcDbLine
 10
296.7983628409187
 20
418.5606693931837
 30
0.0000000000000000
 11
296.9983628409187
 21
418.7606693931837
 31
0.0000000000000000
  0
LINE
  5
B2
100
AcDbEntity
  8
MAIN0
  6
CONTINUOUS
 62
3
100
AcDbLine
 10
298.7983628409187
 20
418.5606693931837
 30
0.0000000000000000
 11
298.5983628409188
 21
418.7606693931837
 31
0.0000000000000000
  0
LINE
  5
B3
100
AcDbEntity
  8
MAIN0
  6
CONTINUOUS
 62
3
100
AcDbLine
 10
303.4983628409189
 20
418.5606693931836
 30
0.0000000000000000
 11
303.6983628409189
 21
418.7606693931836
 31
0.0000000000000000
  0
LINE
  5
B4
100
AcDbEntity
  8
MAIN0
  6
CONTINUOUS
 62
3
100
AcDbLine
 10
306.1983628409189
 20
418.7606693931837
 30
0.0000000000000000
 11
306.7983628409189
 21
419.3606693931837
 31
0.0000000000000000
  0
ELLIPSE
  5
B5
100
AcDbEntity
  8
MAIN0
  6
CONTINUOUS
 62
3
100
AcDbEllipse
 10
301.1483628409188
 20
417.2856693931838
 30
0.0000000000000000
 11
2.350000000000000
 21
0.0000000000000000
 31
0.0000000000000000
210
0.0000000000000000
220
0.0000000000000000
230
1.000000000000000
 40
0.6276595744680851
 41
0.0000000000000000
 42
6.283185307179586
  0
LINE
  5
B6
100
AcDbEntity
  8
MAIN0
  6
CONTINUOUS
 62
3
100
AcDbLine
 10
307.5983628409189
 20
372.2606693931838
 30
0.0000000000000000
 11
308.0983628409189
 21
372.2606693931838
 31
0.0000000000000000
  0
LINE
  5
B7
100
AcDbEntity
  8
MAIN0
  6
CONTINUOUS
 62
3
100
AcDbLine
 10
308.2983628409189
 20
372.4606693931838
 30
0.0000000000000000
 11
308.2983628409189
 21
397.2606693931838
 31
0.0000000000000000
  0
LINE
  5
B8
100
AcDbEntity
  8
MAIN0
  6
CONTINUOUS
 62
3
100
AcDbLine
 10
296.7983628409189
 20
375.9606693931838
 30
0.0000000000000000
 11
296.7983628409189
 21
397.2606693931838
 31
0.0000000000000000
  0
LINE
  5
B9
100
AcDbEntity
  8
MAIN0
  6
CONTINUOUS
 62
3
100
AcDbLine
 10
298.7983628409189
 20
375.9606693931838
 30
0.0000000000000000
 11
298.7983628409189
 21
378.5106693931838
 31
0.0000000000000000
  0
LINE
  5
BA
100
AcDbEntity
  8
MAIN0
  6
CONTINUOUS
 62
3
100
AcDbLine
 10
303.4983628409188
 20
375.9606693931838
 30
0.0000000000000000
 11
303.4983628409188
 21
378.5106693931838
 31
0.0000000000000000
  0
LINE
  5
BB
100
AcDbEntity
  8
MAIN0
  6
CONTINUOUS
 62
3
100
AcDbLine
 10
298.9983628409188
 20
378.7106693931838
 30
0.0000000000000000
 11
303.2983628409189
 21
378.7106693931838
 31
0.0000000000000000
  0
LINE
  5
BC
100
AcDbEntity
  8
MAIN0
  6
CONTINUOUS
 62
3
100
AcDbLine
 10
306.7983628409190
 20
373.6463100392388
 30
0.0000000000000000
 11
307.5983628409191
 21
372.2606693931836
 31
0.0000000000000000
  0
ARC
  5
BD
100
AcDbEntity
  8
MAIN0
  6
CONTINUOUS
 62
3
100
AcDbCircle
 10
303.2983628409189
 20
378.5106693931837
 30
0.0000000000000000
 40
0.2000000000000000
100
AcDbArc
 50
0.0000000000000000
 51
89.99999999999882
  0
ARC
  5
BE
100
AcDbEntity
  8
MAIN0
  6
CONTINUOUS
 62
3
100
AcDbCircle
 10
298.9983628409188
 20
378.5106693931837
 30
0.0000000000000000
 40
0.2000000000000000
100
AcDbArc
 50
90.00000000000281
 51
179.9999999999969
  0
LINE
  5
BF
100
AcDbEntity
  8
MAIN0
  6
CONTINUOUS
 62
3
100
AcDbLine
 10
308.0983628409188
 20
372.2606693931838
 30
0.0000000000000000
 11
308.2983628409187
 21
372.4606693931838
 31
0.0000000000000000
  0
LINE
  5
C0
100
AcDbEntity
  8
MAIN0
  6
CONTINUOUS
 62
3
100
AcDbLine
 10
296.7983628409190
 20
375.9606693931835
 30
0.0000000000000000
 11
296.9983628409190
 21
375.7606693931836
 31
0.0000000000000000
  0
LINE
  5
C1
100
AcDbEntity
  8
MAIN0
  6
CONTINUOUS
 62
3
100
AcDbLine
 10
298.7983628409189
 20
375.9606693931837
 30
0.0000000000000000
 11
298.5983628409189
 21
375.7606693931837
 31
0.0000000000000000
  0
LINE
  5
C2
100
AcDbEntity
  8
MAIN0
  6
CONTINUOUS
 62
3
100
AcDbLine
 10
303.4983628409188
 20
375.9606693931837
 30
0.0000000000000000
 11
303.6983628409188
 21
375.7606693931837
 31
0.0000000000000000
  0
LINE
  5
C3
100
AcDbEntity
  8
MAIN0
  6
CONTINUOUS
 62
3
100
AcDbLine
 10
306.1983628409187
 20
375.7606693931836
 30
0.0000000000000000
 11
306.7983628409188
 21
375.1606693931835
 31
0.0000000000000000
  0
ELLIPSE
  5
C4
100
AcDbEntity
  8
MAIN0
  6
CONTINUOUS
 62
3
100
AcDbEllipse
 10
301.1483628409188
 20
377.2356693931836
 30
0.0000000000000000
 11
2.350000000000000
 21
0.0000000000000000
 31
0.0000000000000000
210
0.0000000000000000
220
0.0000000000000000
230
1.000000000000000
 40
0.6276595744680851
 41
0.0000000000000000
 42
6.283185307179586
  0
LINE
  5
C5
100
AcDbEntity
  8
MAIN0
  6
CONTINUOUS
 62
3
100
AcDbLine
 10
201.7983628409189
 20
421.7987891778319
 30
0.0000000000000000
 11
201.7983628409189
 21
372.7225496085359
 31
0.0000000000000000
  0
LINE
  5
C6
100
AcDbEntity
  8
MAIN0
  6
CONTINUOUS
 62
3
100
AcDbLine
 10
297.1148967775710
 20
428.2606693931837
 30
0.0000000000000000
 11
302.6983628409189
 21
428.2606693931837
 31
0.0000000000000000
  0
LINE
  5
C7
100
AcDbEntity
  8
MAIN0
  6
CONTINUOUS
 62
3
100
AcDbLine
 10
302.6983628409189
 20
431.6004213638547
 30
0.0000000000000000
 11
302.6983628409189
 21
422.6606693931838
 31
0.0000000000000000
  0
LINE
  5
C8
100
AcDbEntity
  8
MAIN0
  6
CONTINUOUS
 62
3
100
AcDbLine
 10
295.9379714748210
 20
427.6330730540043
 30
0.0000000000000000
 11
301.1975858359951
 21
426.5151075096832
 31
0.0000000000000000
  0
LINE
  5
C9
100
AcDbEntity
  8
MAIN0
  6
CONTINUOUS
 62
3
100
AcDbLine
 10
306.7983628409189
 20
447.1606693931839
 30
0.0000000000000000
 11
308.7983628409189
 21
447.1606693931839
 31
0.0000000000000000
  0
LINE
  5
CA
100
AcDbEntity
  8
MAIN0
  6
CONTINUOUS
 62
3
100
AcDbLine
 10
308.7983628409189
 20
463.1606693931838
 30
0.0000000000000000
 11
308.7983628409189
 21
447.1606693931838
 31
0.0000000000000000
  0
LINE
  5
CB
100
AcDbEntity
  8
MAIN0
  6
CONTINUOUS
 62
3
100
AcDbLine
 10
306.7983628409189
 20
463.1606693931834
 30
0.0000000000000000
 11
308.7983628409189
 21
463.1606693931834
 31
0.0000000000000000
  0
LINE
  5
CC
100
AcDbEntity
  8
MAIN0
  6
CONTINUOUS
 62
3
100
AcDbLine
 10
310.6983628409190
 20
463.2606693931835
 30
0.0000000000000000
 11
311.6983628409188
 21
463.8380196623743
 31
0.0000000000000000
  0
LINE
  5
CD
100
AcDbEntity
  8
MAIN0
  6
CONTINUOUS
 62
3
100
AcDbLine
 10
310.6983628409188
 20
464.7606693931837
 30
0.0000000000000000
 11
311.6983628409188
 21
464.1833191239947
 31
0.0000000000000000
  0
LINE
  5
CE
100
AcDbEntity
  8
MAIN0
  6
CONTINUOUS
 62
3
100
AcDbLine
 10
310.6983628409188
 20
463.2606693931841
 30
0.0000000000000000
 11
311.6983628409189
 21
462.6833191239950
 31
0.0000000000000000
  0
LINE
  5
CF
100
AcDbEntity
  8
MAIN0
  6
HIDDEN
 62
3
100
AcDbLine
 10
310.6983628409189
 20
464.7606693931837
 30
0.0000000000000000
 11
311.6983628409189
 21
465.3380196623746
 31
0.0000000000000000
  0
LINE
  5
D0
100
AcDbEntity
  8
MAIN0
  6
CONTINUOUS
 62
3
100
AcDbLine
 10
310.6983628409190
 20
461.7606693931837
 30
0.0000000000000000
 11
311.6983628409188
 21
462.3380196623745
 31
0.0000000000000000
  0
LINE
  5
D1
100
AcDbEntity
  8
MAIN0
  6
CONTINUOUS
 62
3
100
AcDbLine
 10
311.8983628409189
 20
423.2606693931837
 30
0.0000000000000000
 11
352.6983628409188
 21
423.2606693931837
 31
0.0000000000000000
  0
LINE
  5
D2
100
AcDbEntity
  8
MAIN0
  6
CONTINUOUS
 62
3
100
AcDbLine
 10
310.6983628409190
 20
530.7606693931834
 30
0.0000000000000000
 11
311.6983628409188
 21
531.3380196623741
 31
0.0000000000000000
  0
LINE
  5
D3
100
AcDbEntity
  8
MAIN0
  6
CONTINUOUS
 62
3
100
AcDbLine
 10
310.6983628409187
 20
532.2606693931836
 30
0.0000000000000000
 11
311.6983628409188
 21
531.6833191239946
 31
0.0000000000000000
  0
LINE
  5
D4
100
AcDbEntity
  8
MAIN0
  6
CONTINUOUS
 62
3
100
AcDbLine
 10
310.6983628409187
 20
530.7606693931840
 30
0.0000000000000000
 11
311.6983628409188
 21
530.1833191239949
 31
0.0000000000000000
  0
LINE
  5
D5
100
AcDbEntity
  8
MAIN0
  6
CONTINUOUS
 62
3
100
AcDbLine
 10
310.6983628409190
 20
532.2606693931834
 30
0.0000000000000000
 11
311.6983628409190
 21
532.8380196623743
 31
0.0000000000000000
  0
LINE
  5
D6
100
AcDbEntity
  8
MAIN0
  6
CONTINUOUS
 62
3
100
AcDbLine
 10
310.6983628409189
 20
529.2606693931837
 30
0.0000000000000000
 11
311.6983628409188
 21
529.8380196623745
 31
0.0000000000000000
  0
LINE
  5
D7
100
AcDbEntity
  8
MAIN0
  6
CONTINUOUS
 62
3
100
AcDbLine
 10
311.8983628409190
 20
533.2606693931838
 30
0.0000000000000000
 11
311.6983628409190
 21
533.0606693931837
 31
0.0000000000000000
  0
LINE
  5
D8
100
AcDbEntity
  8
MAIN0
  6
CONTINUOUS
 62
3
100
AcDbLine
 10
311.6983628409189
 20
533.0606693931836
 30
0.0000000000000000
 11
311.6983628409189
 21
532.8380196623745
 31
0.0000000000000000
  0
LINE
  5
D9
100
AcDbEntity
  8
MAIN0
  6
CONTINUOUS
 62
3
100
AcDbLine
 10
310.6983628409188
 20
424.2606693931835
 30
0.0000000000000000
 11
311.6983628409188
 21
424.8380196623743
 31
0.0000000000000000
  0
LINE
  5
DA
100
AcDbEntity
  8
MAIN0
  6
CONTINUOUS
 62
3
100
AcDbLine
 10
310.6983628409187
 20
425.7606693931837
 30
0.0000000000000000
 11
311.6983628409187
 21
425.1833191239946
 31
0.0000000000000000
  0
LINE
  5
DB
100
AcDbEntity
  8
MAIN0
  6
CONTINUOUS
 62
3
100
AcDbLine
 10
310.6983628409186
 20
424.2606693931841
 30
0.0000000000000000
 11
311.6983628409187
 21
423.6833191239950
 31
0.0000000000000000
  0
LINE
  5
DC
100
AcDbEntity
  8
MAIN0
  6
CONTINUOUS
 62
3
100
AcDbLine
 10
310.6983628409188
 20
425.7606693931838
 30
0.0000000000000000
 11
311.6983628409188
 21
426.3380196623746
 31
0.0000000000000000
  0
LINE
  5
DD
100
AcDbEntity
  8
MAIN0
  6
CONTINUOUS
 62
3
100
AcDbLine
 10
311.6983628409188
 20
423.4606693931837
 30
0.0000000000000000
 11
311.8983628409188
 21
423.2606693931837
 31
0.0000000000000000
  0
LINE
  5
DE
100
AcDbEntity
  8
MAIN0
  6
PHANTOM
 62
3
100
AcDbLine
 10
311.6983628409189
 20
462.6833191239948
 30
0.0000000000000000
 11
311.6983628409189
 21
423.6833191239946
 31
0.0000000000000000
  0
LINE
  5
DF
100
AcDbEntity
  8
MAIN0
  6
CONTINUOUS
 62
3
100
AcDbLine
 10
311.6983628409189
 20
423.6833191239946
 30
0.0000000000000000
 11
311.6983628409189
 21
423.4606693931837
 31
0.0000000000000000
  0
LINE
  5
E0
100
AcDbEntity
  8
MAIN0
  6
CONTINUOUS
 62
3
100
AcDbLine
 10
306.6983628409189
 20
521.7606693931834
 30
0.0000000000000000
 11
306.6983628409189
 21
463.2606693931837
 31
0.0000000000000000
  0
LINE
  5
E1
100
AcDbEntity
  8
MAIN0
  6
CONTINUOUS
 62
3
100
AcDbLine
 10
310.6983628409189
 20
521.7606693931834
 30
0.0000000000000000
 11
311.6983628409188
 21
522.3380196623741
 31
0.0000000000000000
  0
LINE
  5
E2
100
AcDbEntity
  8
MAIN0
  6
CONTINUOUS
 62
3
100
AcDbLine
 10
310.6983628409187
 20
523.2606693931837
 30
0.0000000000000000
 11
311.6983628409187
 21
522.6833191239946
 31
0.0000000000000000
  0
LINE
  5
E3
100
AcDbEntity
  8
MAIN0
  6
CONTINUOUS
 62
3
100
AcDbLine
 10
310.6983628409187
 20
521.7606693931840
 30
0.0000000000000000
 11
311.6983628409187
 21
521.1833191239950
 31
0.0000000000000000
  0
LINE
  5
E4
100
AcDbEntity
  8
MAIN0
  6
CONTINUOUS
 62
3
100
AcDbLine
 10
310.6983628409188
 20
523.2606693931837
 30
0.0000000000000000
 11
311.6983628409189
 21
523.8380196623746
 31
0.0000000000000000
  0
LINE
  5
E5
100
AcDbEntity
  8
MAIN0
  6
CONTINUOUS
 62
3
100
AcDbLine
 10
310.6983628409189
 20
520.2606693931837
 30
0.0000000000000000
 11
311.6983628409188
 21
520.8380196623745
 31
0.0000000000000000
  0
LINE
  5
E6
100
AcDbEntity
  8
MAIN0
  6
CONTINUOUS
 62
3
100
AcDbLine
 10
311.6983628409188
 20
525.5606693931837
 30
0.0000000000000000
 11
311.6983628409188
 21
525.3380196623745
 31
0.0000000000000000
  0
LINE
  5
E7
100
AcDbEntity
  8
MAIN0
  6
PHANTOM
 62
3
100
AcDbLine
 10
310.6983628409189
 20
520.2606693931837
 30
0.0000000000000000
 11
310.6983628409189
 21
425.7606693931837
 31
0.0000000000000000
  0
LINE
  5
E8
100
AcDbEntity
  8
MAIN0
  6
PHANTOM
 62
3
100
AcDbLine
 10
310.6983628409189
 20
529.2606693931837
 30
0.0000000000000000
 11
310.6983628409189
 21
523.2606693931837
 31
0.0000000000000000
  0
LINE
  5
E9
100
AcDbEntity
  8
MAIN0
  6
PHANTOM
 62
3
100
AcDbLine
 10
311.6983628409189
 20
532.8380196623745
 30
0.0000000000000000
 11
311.6983628409189
 21
525.3380196623745
 31
0.0000000000000000
  0
LINE
  5
EA
100
AcDbEntity
  8
MAIN0
  6
PHANTOM
 62
3
100
AcDbLine
 10
311.6983628409189
 20
525.3380196623745
 30
0.0000000000000000
 11
311.6983628409189
 21
462.6833191239948
 31
0.0000000000000000
  0
LINE
  5
EB
100
AcDbEntity
  8
MAIN0
  6
HIDDEN
 62
3
100
AcDbLine
 10
352.6983628409182
 20
492.6606693931836
 30
0.0000000000000000
 11
352.0983628409182
 21
493.2606693931837
 31
0.0000000000000000
  0
LINE
  5
EC
100
AcDbEntity
  8
MAIN0
  6
HIDDEN
 62
3
100
AcDbLine
 10
352.0983628409182
 20
493.2606693931838
 30
0.0000000000000000
 11
325.6983628409183
 21
493.2606693931854
 31
0.0000000000000000
  0
LINE
  5
ED
100
AcDbEntity
  8
MAIN0
  6
HIDDEN
 62
3
100
AcDbLine
 10
325.6983628409183
 20
493.2606693931853
 30
0.0000000000000000
 11
325.6983628409195
 21
513.2606693931854
 31
0.0000000000000000
  0
LINE
  5
EE
100
AcDbEntity
  8
MAIN0
  6
HIDDEN
 62
3
100
AcDbLine
 10
325.6983628409195
 20
513.2606693931855
 30
0.0000000000000000
 11
352.0983628409195
 21
513.2606693931838
 31
0.0000000000000000
  0
LINE
  5
EF
100
AcDbEntity
  8
MAIN0
  6
HIDDEN
 62
3
100
AcDbLine
 10
352.0983628409194
 20
513.2606693931838
 30
0.0000000000000000
 11
352.6983628409196
 21
513.8606693931838
 31
0.0000000000000000
  0
LINE
  5
F0
100
AcDbEntity
  8
MAIN0
  6
HIDDEN
 62
3
100
AcDbLine
 10
325.6983628409184
 20
496.5106693931855
 30
0.0000000000000000
 11
316.2983628409185
 21
496.5106693931861
 31
0.0000000000000000
  0
LINE
  5
F1
100
AcDbEntity
  8
MAIN0
  6
HIDDEN
 62
3
100
AcDbLine
 10
316.2983628409185
 20
496.5106693931861
 30
0.0000000000000000
 11
315.6983628409184
 21
495.9106693931861
 31
0.0000000000000000
  0
LINE
  5
F2
100
AcDbEntity
  8
MAIN0
  6
HIDDEN
 62
3
100
AcDbLine
 10
325.6983628409193
 20
510.0106693931855
 30
0.0000000000000000
 11
316.2983628409193
 21
510.0106693931862
 31
0.0000000000000000
  0
LINE
  5
F3
100
AcDbEntity
  8
MAIN0
  6
HIDDEN
 62
3
100
AcDbLine
 10
316.2983628409193
 20
510.0106693931861
 30
0.0000000000000000
 11
315.6983628409192
 21
510.6106693931862
 31
0.0000000000000000
  0
LINE
  5
F4
100
AcDbEntity
  8
MAIN0
  6
HIDDEN
 62
3
100
AcDbLine
 10
325.6983628409184
 20
494.2606693931836
 30
0.0000000000000000
 11
336.4983628409184
 21
494.2606693931829
 31
0.0000000000000000
  0
LINE
  5
F5
100
AcDbEntity
  8
MAIN0
  6
HIDDEN
 62
3
100
AcDbLine
 10
336.4983628409183
 20
494.2606693931830
 30
0.0000000000000000
 11
337.6983628409185
 21
496.3391303622657
 31
0.0000000000000000
  0
LINE
  5
F6
100
AcDbEntity
  8
MAIN0
  6
HIDDEN
 62
3
100
AcDbLine
 10
337.6983628409185
 20
496.3391303622656
 30
0.0000000000000000
 11
337.6983628409193
 21
510.1822084241002
 31
0.0000000000000000
  0
LINE
  5
F7
100
AcDbEntity
  8
MAIN0
  6
HIDDEN
 62
3
100
AcDbLine
 10
337.6983628409193
 20
510.1822084241003
 30
0.0000000000000000
 11
336.4983628409194
 21
512.2606693931831
 31
0.0000000000000000
  0
LINE
  5
F8
100
AcDbEntity
  8
MAIN0
  6
HIDDEN
 62
3
100
AcDbLine
 10
336.4983628409195
 20
512.2606693931830
 30
0.0000000000000000
 11
325.6983628409195
 21
512.2606693931837
 31
0.0000000000000000
  0
LINE
  5
F9
100
AcDbEntity
  8
MAIN0
  6
HIDDEN
 62
3
100
AcDbLine
 10
336.4983628409184
 20
494.2606693931829
 30
0.0000000000000000
 11
336.4983628409195
 21
512.2606693931830
 31
0.0000000000000000
  0
LINE
  5
FA
100
AcDbEntity
  8
MAIN0
  6
HIDDEN
 62
3
100
AcDbLine
 10
325.6983628409186
 20
497.2606693931837
 30
0.0000000000000000
 11
306.6983628409188
 21
497.2606693931849
 31
0.0000000000000000
  0
LINE
  5
FB
100
AcDbEntity
  8
MAIN0
  6
HIDDEN
 62
3
100
AcDbLine
 10
306.6983628409188
 20
509.2606693931849
 30
0.0000000000000000
 11
325.6983628409193
 21
509.2606693931837
 31
0.0000000000000000
  0
LINE
  5
FC
100
AcDbEntity
  8
MAIN0
  6
HIDDEN
 62
3
100
AcDbLine
 10
325.6983628409186
 20
498.2078848931838
 30
0.0000000000000000
 11
306.6983628409188
 21
498.2078848931850
 31
0.0000000000000000
  0
LINE
  5
FD
100
AcDbEntity
  8
MAIN0
  6
HIDDEN
 62
3
100
AcDbLine
 10
325.6983628409192
 20
508.3134538931836
 30
0.0000000000000000
 11
306.6983628409189
 21
508.3134538931848
 31
0.0000000000000000
  0
LINE
  5
FE
100
AcDbEntity
  8
MAIN0
  6
PHANTOM
 62
3
100
AcDbLine
 10
314.6983628409189
 20
517.2606693931837
 30
0.0000000000000000
 11
314.6983628409189
 21
462.2606693931837
 31
0.0000000000000000
  0
LINE
  5
FF
100
AcDbEntity
  8
MAIN0
  6
PHANTOM
 62
3
100
AcDbLine
 10
311.6983628409189
 20
517.2606693931837
 30
0.0000000000000000
 11
314.6983628409190
 21
517.2606693931837
 31
0.0000000000000000
  0
LINE
  5
100
100
AcDbEntity
  8
MAIN0
  6
PHANTOM
 62
3
100
AcDbLine
 10
311.6983628409189
 20
462.2606693931837
 30
0.0000000000000000
 11
314.6983628409189
 21
462.2606693931837
 31
0.0000000000000000
  0
LINE
  5
101
100
AcDbEntity
  8
MAIN0
  6
HIDDEN
 62
3
100
AcDbLine
 10
352.6983628409183
 20
462.6606693931836
 30
0.0000000000000000
 11
352.0983628409183
 21
463.2606693931837
 31
0.0000000000000000
  0
LINE
  5
102
100
AcDbEntity
  8
MAIN0
  6
HIDDEN
 62
3
100
AcDbLine
 10
352.0983628409182
 20
463.2606693931838
 30
0.0000000000000000
 11
325.6983628409183
 21
463.2606693931854
 31
0.0000000000000000
  0
LINE
  5
103
100
AcDbEntity
  8
MAIN0
  6
HIDDEN
 62
3
100
AcDbLine
 10
325.6983628409182
 20
463.2606693931853
 30
0.0000000000000000
 11
325.6983628409195
 21
483.2606693931853
 31
0.0000000000000000
  0
LINE
  5
104
100
AcDbEntity
  8
MAIN0
  6
HIDDEN
 62
3
100
AcDbLine
 10
325.6983628409195
 20
483.2606693931854
 30
0.0000000000000000
 11
352.0983628409195
 21
483.2606693931838
 31
0.0000000000000000
  0
LINE
  5
105
100
AcDbEntity
  8
MAIN0
  6
HIDDEN
 62
3
100
AcDbLine
 10
352.0983628409195
 20
483.2606693931838
 30
0.0000000000000000
 11
352.6983628409196
 21
483.8606693931837
 31
0.0000000000000000
  0
LINE
  5
106
100
AcDbEntity
  8
MAIN0
  6
HIDDEN
 62
3
100
AcDbLine
 10
325.6983628409184
 20
466.5106693931855
 30
0.0000000000000000
 11
316.2983628409185
 21
466.5106693931861
 31
0.0000000000000000
  0
LINE
  5
107
100
AcDbEntity
  8
MAIN0
  6
HIDDEN
 62
3
100
AcDbLine
 10
316.2983628409185
 20
466.5106693931861
 30
0.0000000000000000
 11
315.6983628409184
 21
465.9106693931861
 31
0.0000000000000000
  0
LINE
  5
108
100
AcDbEntity
  8
MAIN0
  6
HIDDEN
 62
3
100
AcDbLine
 10
325.6983628409193
 20
480.0106693931855
 30
0.0000000000000000
 11
316.2983628409193
 21
480.0106693931861
 31
0.0000000000000000
  0
LINE
  5
109
100
AcDbEntity
  8
MAIN0
  6
HIDDEN
 62
3
100
AcDbLine
 10
316.2983628409192
 20
480.0106693931862
 30
0.0000000000000000
 11
315.6983628409192
 21
480.6106693931862
 31
0.0000000000000000
  0
LINE
  5
10A
100
AcDbEntity
  8
MAIN0
  6
HIDDEN
 62
3
100
AcDbLine
 10
325.6983628409184
 20
464.2606693931836
 30
0.0000000000000000
 11
336.4983628409184
 21
464.2606693931829
 31
0.0000000000000000
  0
LINE
  5
10B
100
AcDbEntity
  8
MAIN0
  6
HIDDEN
 62
3
100
AcDbLine
 10
336.4983628409183
 20
464.2606693931830
 30
0.0000000000000000
 11
337.6983628409185
 21
466.3391303622657
 31
0.0000000000000000
  0
LINE
  5
10C
100
AcDbEntity
  8
MAIN0
  6
HIDDEN
 62
3
100
AcDbLine
 10
337.6983628409185
 20
466.3391303622657
 30
0.0000000000000000
 11
337.6983628409193
 21
480.1822084241003
 31
0.0000000000000000
  0
LINE
  5
10D
100
AcDbEntity
  8
MAIN0
  6
HIDDEN
 62
3
100
AcDbLine
 10
337.6983628409194
 20
480.1822084241003
 30
0.0000000000000000
 11
336.4983628409195
 21
482.2606693931832
 31
0.0000000000000000
  0
LINE
  5
10E
100
AcDbEntity
  8
MAIN0
  6
HIDDEN
 62
3
100
AcDbLine
 10
336.4983628409195
 20
482.2606693931829
 30
0.0000000000000000
 11
325.6983628409195
 21
482.2606693931836
 31
0.0000000000000000
  0
LINE
  5
10F
100
AcDbEntity
  8
MAIN0
  6
HIDDEN
 62
3
100
AcDbLine
 10
336.4983628409184
 20
464.2606693931830
 30
0.0000000000000000
 11
336.4983628409195
 21
482.2606693931830
 31
0.0000000000000000
  0
LINE
  5
110
100
AcDbEntity
  8
MAIN0
  6
HIDDEN
 62
3
100
AcDbLine
 10
325.6983628409186
 20
467.2606693931837
 30
0.0000000000000000
 11
306.6983628409188
 21
467.2606693931849
 31
0.0000000000000000
  0
LINE
  5
111
100
AcDbEntity
  8
MAIN0
  6
HIDDEN
 62
3
100
AcDbLine
 10
306.6983628409188
 20
479.2606693931849
 30
0.0000000000000000
 11
325.6983628409193
 21
479.2606693931837
 31
0.0000000000000000
  0
LINE
  5
112
100
AcDbEntity
  8
MAIN0
  6
HIDDEN
 62
3
100
AcDbLine
 10
325.6983628409186
 20
468.2078848931838
 30
0.0000000000000000
 11
306.6983628409188
 21
468.2078848931850
 31
0.0000000000000000
  0
LINE
  5
113
100
AcDbEntity
  8
MAIN0
  6
HIDDEN
 62
3
100
AcDbLine
 10
325.6983628409193
 20
478.3134538931839
 30
0.0000000000000000
 11
306.6983628409189
 21
478.3134538931851
 31
0.0000000000000000
  0
LINE
  5
114
100
AcDbEntity
  8
MAIN0
  6
HIDDEN
 62
3
100
AcDbLine
 10
315.6983628409189
 20
533.2606693931837
 30
0.0000000000000000
 11
315.6983628409189
 21
509.2606693931843
 31
0.0000000000000000
  0
LINE
  5
115
100
AcDbEntity
  8
MAIN0
  6
HIDDEN
 62
3
100
AcDbLine
 10
315.6983628409189
 20
467.2606693931843
 30
0.0000000000000000
 11
315.6983628409189
 21
423.2606693931837
 31
0.0000000000000000
  0
LINE
  5
116
100
AcDbEntity
  8
MAIN0
  6
HIDDEN
 62
3
100
AcDbLine
 10
315.6983628409189
 20
497.2606693931843
 30
0.0000000000000000
 11
315.6983628409189
 21
479.2606693931843
 31
0.0000000000000000
  0
LINE
  5
117
100
AcDbEntity
  8
MAIN0
  6
CONTINUOUS
 62
3
100
AcDbLine
 10
684.2983628409188
 20
463.1606693931835
 30
0.0000000000000000
 11
684.2983628409188
 21
447.1606693931835
 31
0.0000000000000000
  0
LINE
  5
118
100
AcDbEntity
  8
MAIN0
  6
CONTINUOUS
 62
3
100
AcDbLine
 10
639.2983628409188
 20
463.1606693931835
 30
0.0000000000000000
 11
639.2983628409188
 21
447.1606693931835
 31
0.0000000000000000
  0
LINE
  5
119
100
AcDbEntity
  8
MAIN0
  6
CONTINUOUS
 62
3
100
AcDbLine
 10
681.7983628409188
 20
447.1606693931835
 30
0.0000000000000000
 11
684.2983628409188
 21
447.1606693931835
 31
0.0000000000000000
  0
LINE
  5
11A
100
AcDbEntity
  8
MAIN0
  6
CONTINUOUS
 62
3
100
AcDbLine
 10
639.2983628409189
 20
447.1606693931835
 30
0.0000000000000000
 11
641.7983628409188
 21
447.1606693931835
 31
0.0000000000000000
  0
LINE
  5
11B
100
AcDbEntity
  8
MAIN0
  6
CONTINUOUS
 62
3
100
AcDbLine
 10
639.2983628409188
 20
463.1606693931835
 30
0.0000000000000000
 11
641.7983628409188
 21
463.1606693931835
 31
0.0000000000000000
  0
LINE
  5
11C
100
AcDbEntity
  8
MAIN0
  6
CONTINUOUS
 62
3
100
AcDbLine
 10
681.7983628409188
 20
463.1606693931835
 30
0.0000000000000000
 11
684.2983628409188
 21
463.1606693931835
 31
0.0000000000000000
  0
LINE
  5
11D
100
AcDbEntity
  8
MAIN0
  6
CENTER
 62
3
100
AcDbLine
 10
298.4519116767041
 20
503.2606693931837
 30
0.0000000000000000
 11
366.2623325441233
 21
503.2606693931837
 31
0.0000000000000000
  0
LINE
  5
11E
100
AcDbEntity
  8
MAIN0
  6
CENTER
 62
3
100
AcDbLine
 10
298.4519116767041
 20
473.2606693931837
 30
0.0000000000000000
 11
366.2623325441233
 21
473.2606693931837
 31
0.0000000000000000
  0
LINE
  5
11F
100
AcDbEntity
  8
MAIN0
  6
CONTINUOUS
 62
3
100
AcDbLine
 10
194.6983628409189
 20
422.2606693931837
 30
0.0000000000000000
 11
302.2983617050064
 21
422.2606693931837
 31
0.0000000000000000
  0
ARC
  5
120
100
AcDbEntity
  8
MAIN0
  6
CONTINUOUS
 62
3
100
AcDbCircle
 10
302.2983628409189
 20
422.6606693931838
 30
0.0000000000000000
 40
0.4000000000000000
100
AcDbArc
 50
269.9999999999935
 51
359.9999999999934
  0
LINE
  5
121
100
AcDbEntity
  8
MAIN0
  6
CONTINUOUS
 62
3
100
AcDbLine
 10
201.7983628409189
 20
372.7225496085360
 30
0.0000000000000000
 11
202.5983628409186
 21
372.2606693931837
 31
0.0000000000000000
  0
LINE
  5
122
100
AcDbEntity
  8
MAIN0
  6
CONTINUOUS
 62
3
100
AcDbLine
 10
201.7983628409188
 20
421.7987891778320
 30
0.0000000000000000
 11
202.5983628409192
 21
422.2606693931839
 31
0.0000000000000000
  0
LINE
  5
123
100
AcDbEntity
  8
MAIN0
  6
CONTINUOUS
 62
3
100
AcDbLine
 10
202.3983628409188
 20
418.7606693931838
 30
0.0000000000000000
 11
201.7983628409189
 21
419.3606693931837
 31
0.0000000000000000
  0
LINE
  5
124
100
AcDbEntity
  8
MAIN0
  6
CONTINUOUS
 62
3
100
AcDbLine
 10
202.3983628409187
 20
375.7606693931836
 30
0.0000000000000000
 11
201.7983628409188
 21
375.1606693931836
 31
0.0000000000000000
  0
LINE
  5
125
100
AcDbEntity
  8
MAIN0
  6
CONTINUOUS
 62
3
100
AcDbLine
 10
306.6983628409189
 20
328.0606693931838
 30
0.0000000000000000
 11
306.6983628409189
 21
272.7606693931837
 31
0.0000000000000000
  0
LINE
  5
126
100
AcDbEntity
  8
MAIN0
  6
CENTER
 62
3
100
AcDbLine
 10
790.0909997511199
 20
323.1908809377994
 30
0.0000000000000000
 11
654.3866098662709
 21
401.5398469682766
 31
0.0000000000000000
  0
LINE
  5
127
100
AcDbEntity
  8
MAIN0
  6
CONTINUOUS
 62
3
100
AcDbLine
 10
221.6983628409189
 20
425.0442753552932
 30
0.0000000000000000
 11
221.6983628409189
 21
422.2606693931837
 31
0.0000000000000000
  0
LINE
  5
128
100
AcDbEntity
  8
MAIN0
  6
CONTINUOUS
 62
3
100
AcDbLine
 10
219.1983628409189
 20
425.2392282480029
 30
0.0000000000000000
 11
219.1983628409189
 21
422.2606693931837
 31
0.0000000000000000
  0
LINE
  5
129
100
AcDbEntity
  8
MAIN0
  6
CONTINUOUS
 62
3
100
AcDbLine
 10
211.6983628409189
 20
426.7756151009502
 30
0.0000000000000000
 11
211.6983628409189
 21
422.2606693931837
 31
0.0000000000000000
  0
LINE
  5
12A
100
AcDbEntity
  8
MAIN0
  6
CONTINUOUS
 62
3
100
AcDbLine
 10
208.7983628409189
 20
424.5606693931836
 30
0.0000000000000000
 11
208.7983628409189
 21
422.2606693931837
 31
0.0000000000000000
  0
LINE
  5
12B
100
AcDbEntity
  8
MAIN0
  6
CONTINUOUS
 62
3
100
AcDbLine
 10
204.6983628409189
 20
424.5606693931836
 30
0.0000000000000000
 11
204.6983628409189
 21
422.2606693931837
 31
0.0000000000000000
  0
LINE
  5
12C
100
AcDbEntity
  8
MAIN0
  6
CONTINUOUS
 62
3
100
AcDbLine
 10
204.8983628409190
 20
424.7606693931837
 30
0.0000000000000000
 11
208.5983628409187
 21
424.7606693931837
 31
0.0000000000000000
  0
ARC
  5
12D
100
AcDbEntity
  8
MAIN0
  6
CONTINUOUS
 62
3
100
AcDbCircle
 10
204.8983628409190
 20
424.5606693931836
 30
0.0000000000000000
 40
0.2000000000000000
100
AcDbArc
 50
89.99999999999186
 51
179.9999999999964
  0
ARC
  5
12E
100
AcDbEntity
  8
MAIN0
  6
CONTINUOUS
 62
3
100
AcDbCircle
 10
208.5983628409188
 20
424.5606693931836
 30
0.0000000000000000
 40
0.2000000000000000
100
AcDbArc
 50
0.0000000000000000
 51
90.00000000000452
  0
LINE
  5
12F
100
AcDbEntity
  8
MAIN0
  6
CONTINUOUS
 62
3
100
AcDbLine
 10
227.6983858359952
 20
425.1103700838618
 30
0.0000000000000000
 11
227.6983858359952
 21
422.8606693931836
 31
0.0000000000000000
  0
LINE
  5
130
100
AcDbEntity
  8
MAIN0
  6
CONTINUOUS
 62
3
100
AcDbLine
 10
300.9983858359952
 20
422.2606693931836
 30
0.0000000000000000
 11
301.1983858359952
 21
422.4606693931835
 31
0.0000000000000000
  0
LINE
  5
131
100
AcDbEntity
  8
MAIN0
  6
CONTINUOUS
 62
3
100
AcDbLine
 10
301.1983858359952
 20
422.2606693931837
 30
0.0000000000000000
 11
301.1983858359952
 21
428.2606693931837
 31
0.0000000000000000
  0
LINE
  5
132
100
AcDbEntity
  8
MAIN0
  6
HIDDEN
 62
3
100
AcDbLine
 10
301.1983858359952
 20
428.2606693931837
 30
0.0000000000000000
 11
301.1983858359952
 21
430.6561549086152
 31
0.0000000000000000
  0
LINE
  5
133
100
AcDbEntity
  8
MAIN0
  6
CONTINUOUS
 62
3
100
AcDbLine
 10
269.2983628409189
 20
523.7606693931837
 30
0.0000000000000000
 11
304.6983628409190
 21
523.7606693931837
 31
0.0000000000000000
  0
ELLIPSE
  5
134
100
AcDbEntity
  8
MAIN0
  6
CONTINUOUS
 62
3
100
AcDbEllipse
 10
206.7483628409189
 20
423.5106693931837
 30
0.0000000000000000
 11
2.050000000000000
 21
0.0000000000000000
 31
0.0000000000000000
210
0.0000000000000000
220
0.0000000000000000
230
1.000000000000000
 40
0.6097560975609757
 41
0.0000000000000000
 42
6.283185307179586
  0
LINE
  5
135
100
AcDbEntity
  8
MAIN0
  6
CONTINUOUS
 62
3
100
AcDbLine
 10
252.6983858359952
 20
425.0606693931836
 30
0.0000000000000000
 11
252.6983858359952
 21
422.4606693931837
 31
0.0000000000000000
  0
LINE
  5
136
100
AcDbEntity
  8
MAIN0
  6
CONTINUOUS
 62
3
100
AcDbLine
 10
257.3983858359952
 20
425.0606693931836
 30
0.0000000000000000
 11
257.3983858359952
 21
422.4606693931837
 31
0.0000000000000000
  0
LINE
  5
137
100
AcDbEntity
  8
MAIN0
  6
CONTINUOUS
 62
3
100
AcDbLine
 10
252.8983858359951
 20
425.2606693931837
 30
0.0000000000000000
 11
257.1983858359951
 21
425.2606693931837
 31
0.0000000000000000
  0
ARC
  5
138
100
AcDbEntity
  8
MAIN0
  6
CONTINUOUS
 62
3
100
AcDbCircle
 10
252.8983858359951
 20
425.0606693931836
 30
0.0000000000000000
 40
0.2000000000000000
100
AcDbArc
 50
89.99999999942553
 51
179.9999999999964
  0
ARC
  5
139
100
AcDbEntity
  8
MAIN0
  6
CONTINUOUS
 62
3
100
AcDbCircle
 10
257.1983858359952
 20
425.0606693931836
 30
0.0000000000000000
 40
0.2000000000000000
100
AcDbArc
 50
0.0000000000000000
 51
90.00000000000250
  0
ARC
  5
13A
100
AcDbEntity
  8
MAIN0
  6
CONTINUOUS
 62
3
100
AcDbCircle
 10
257.5983858359952
 20
422.4606693931837
 30
0.0000000000000000
 40
0.2000000000000000
100
AcDbArc
 50
179.9999999999964
 51
269.9999999999943
  0
ARC
  5
13B
100
AcDbEntity
  8
MAIN0
  6
CONTINUOUS
 62
3
100
AcDbCircle
 10
252.4983858359952
 20
422.4606693931837
 30
0.0000000000000000
 40
0.2000000000000000
100
AcDbArc
 50
269.9999999999943
 51
359.9999999999934
  0
ELLIPSE
  5
13C
100
AcDbEntity
  8
MAIN0
  6
CONTINUOUS
 62
3
100
AcDbEllipse
 10
255.0483858359952
 20
423.7606693931837
 30
0.0000000000000000
 11
-2.350000000000000
 21
0.0000000000000000
 31
0.0000000000000000
210
0.0000000000000000
220
0.0000000000000000
230
1.000000000000000
 40
0.6382978723404255
 41
0.0000000000000000
 42
6.283185307179586
  0
LINE
  5
13D
100
AcDbEntity
  8
MAIN0
  6
CONTINUOUS
 62
3
100
AcDbLine
 10
227.6983858359953
 20
422.8606693931837
 30
0.0000000000000000
 11
228.2983858359952
 21
422.2606693931838
 31
0.0000000000000000
  0
LINE
  5
13E
100
AcDbEntity
  8
MAIN0
  6
CONTINUOUS
 62
3
100
AcDbLine
 10
289.1983858359952
 20
422.2606693931837
 30
0.0000000000000000
 11
289.1983858359952
 21
422.5106693931837
 31
0.0000000000000000
  0
LINE
  5
13F
100
AcDbEntity
  8
MAIN0
  6
CONTINUOUS
 62
3
100
AcDbLine
 10
266.1983858359952
 20
422.2606693931837
 30
0.0000000000000000
 11
266.1983858359952
 21
422.5106693931837
 31
0.0000000000000000
  0
LINE
  5
140
100
AcDbEntity
  8
MAIN0
  6
CONTINUOUS
 62
3
100
AcDbLine
 10
266.1501771851494
 20
422.5106693931837
 30
0.0000000000000000
 11
289.1554172318529
 21
422.5106693931837
 31
0.0000000000000000
  0
LINE
  5
141
100
AcDbEntity
  8
MAIN0
  6
CONTINUOUS
 62
3
100
AcDbLine
 10
221.6983628409189
 20
369.4770634310742
 30
0.0000000000000000
 11
221.6983628409189
 21
372.2606693931837
 31
0.0000000000000000
  0
LINE
  5
142
100
AcDbEntity
  8
MAIN0
  6
CONTINUOUS
 62
3
100
AcDbLine
 10
219.1983628409189
 20
369.2821105383645
 30
0.0000000000000000
 11
219.1983628409189
 21
372.2606693931837
 31
0.0000000000000000
  0
LINE
  5
143
100
AcDbEntity
  8
MAIN0
  6
CONTINUOUS
 62
3
100
AcDbLine
 10
211.6983628409189
 20
367.7457236854172
 30
0.0000000000000000
 11
211.6983628409189
 21
372.2606693931837
 31
0.0000000000000000
  0
LINE
  5
144
100
AcDbEntity
  8
MAIN0
  6
CONTINUOUS
 62
3
100
AcDbLine
 10
208.7983628409189
 20
369.9606693931837
 30
0.0000000000000000
 11
208.7983628409189
 21
372.2606693931837
 31
0.0000000000000000
  0
LINE
  5
145
100
AcDbEntity
  8
MAIN0
  6
CONTINUOUS
 62
3
100
AcDbLine
 10
204.6983628409189
 20
369.9606693931837
 30
0.0000000000000000
 11
204.6983628409189
 21
372.2606693931837
 31
0.0000000000000000
  0
LINE
  5
146
100
AcDbEntity
  8
MAIN0
  6
CONTINUOUS
 62
3
100
AcDbLine
 10
204.8983628409190
 20
369.7606693931837
 30
0.0000000000000000
 11
208.5983628409187
 21
369.7606693931837
 31
0.0000000000000000
  0
ARC
  5
147
100
AcDbEntity
  8
MAIN0
  6
CONTINUOUS
 62
3
100
AcDbCircle
 10
204.8983628409190
 20
369.9606693931837
 30
0.0000000000000000
 40
0.2000000000000000
100
AcDbArc
 50
179.9999999999969
 51
270.0000000000015
  0
ARC
  5
148
100
AcDbEntity
  8
MAIN0
  6
CONTINUOUS
 62
3
100
AcDbCircle
 10
208.5983628409188
 20
369.9606693931837
 30
0.0000000000000000
 40
0.2000000000000000
100
AcDbArc
 50
269.9999999999888
 51
359.9999999999934
  0
LINE
  5
149
100
AcDbEntity
  8
MAIN0
  6
CONTINUOUS
 62
3
100
AcDbLine
 10
227.6983858359952
 20
369.4109687025056
 30
0.0000000000000000
 11
227.6983858359952
 21
371.6606693931838
 31
0.0000000000000000
  0
LINE
  5
14A
100
AcDbEntity
  8
MAIN0
  6
CONTINUOUS
 62
3
100
AcDbLine
 10
300.9983858359951
 20
372.2606693931837
 30
0.0000000000000000
 11
301.1983858359951
 21
372.0606693931837
 31
0.0000000000000000
  0
ELLIPSE
  5
14B
100
AcDbEntity
  8
MAIN0
  6
CONTINUOUS
 62
3
100
AcDbEllipse
 10
206.7483628409189
 20
371.0106693931837
 30
0.0000000000000000
 11
2.050000000000000
 21
0.0000000000000000
 31
0.0000000000000000
210
0.0000000000000000
220
0.0000000000000000
230
1.000000000000000
 40
0.6097560975609757
 41
0.0000000000000000
 42
6.283185307179586
  0
ARC
  5
14C
100
AcDbEntity
  8
MAIN0
  6
CONTINUOUS
 62
3
100
AcDbCircle
 10
241.1983858359951
 20
366.4106693931838
 30
0.0000000000000000
 40
0.2000000000000000
100
AcDbArc
 50
0.0000000000000000
 51
89.99999999999594
  0
LINE
  5
14D
100
AcDbEntity
  8
MAIN0
  6
CONTINUOUS
 62
3
100
AcDbLine
 10
252.6983858359952
 20
369.4606693931837
 30
0.0000000000000000
 11
252.6983858359952
 21
372.0606693931836
 31
0.0000000000000000
  0
LINE
  5
14E
100
AcDbEntity
  8
MAIN0
  6
CONTINUOUS
 62
3
100
AcDbLine
 10
257.3983858359952
 20
369.4606693931837
 30
0.0000000000000000
 11
257.3983858359952
 21
372.0606693931836
 31
0.0000000000000000
  0
LINE
  5
14F
100
AcDbEntity
  8
MAIN0
  6
CONTINUOUS
 62
3
100
AcDbLine
 10
252.8983858359951
 20
369.2606693931837
 30
0.0000000000000000
 11
257.1983858359951
 21
369.2606693931837
 31
0.0000000000000000
  0
ARC
  5
150
100
AcDbEntity
  8
MAIN0
  6
CONTINUOUS
 62
3
100
AcDbCircle
 10
252.8983858359951
 20
369.4606693931837
 30
0.0000000000000000
 40
0.2000000000000000
100
AcDbArc
 50
179.9999999999969
 51
270.0000000005678
  0
ARC
  5
151
100
AcDbEntity
  8
MAIN0
  6
CONTINUOUS
 62
3
100
AcDbCircle
 10
257.1983858359952
 20
369.4606693931837
 30
0.0000000000000000
 40
0.2000000000000000
100
AcDbArc
 50
269.9999999999909
 51
359.9999999999934
  0
ARC
  5
152
100
AcDbEntity
  8
MAIN0
  6
CONTINUOUS
 62
3
100
AcDbCircle
 10
257.5983858359952
 20
372.0606693931836
 30
0.0000000000000000
 40
0.2000000000000000
100
AcDbArc
 50
89.99999999999899
 51
179.9999999999969
  0
ARC
  5
153
100
AcDbEntity
  8
MAIN0
  6
CONTINUOUS
 62
3
100
AcDbCircle
 10
252.4983858359952
 20
372.0606693931836
 30
0.0000000000000000
 40
0.2000000000000000
100
AcDbArc
 50
0.0000000000000000
 51
89.99999999999899
  0
ELLIPSE
  5
154
100
AcDbEntity
  8
MAIN0
  6
CONTINUOUS
 62
3
100
AcDbEllipse
 10
255.0483858359952
 20
370.7606693931837
 30
0.0000000000000000
 11
2.350000000000000
 21
0.0000000000000000
 31
0.0000000000000000
210
0.0000000000000000
220
0.0000000000000000
230
1.000000000000000
 40
0.6382978723404255
 41
0.0000000000000000
 42
6.283185307179586
  0
LINE
  5
155
100
AcDbEntity
  8
MAIN0
  6
CONTINUOUS
 62
3
100
AcDbLine
 10
227.6983858359951
 20
371.6606693931837
 30
0.0000000000000000
 11
228.2983858359950
 21
372.2606693931836
 31
0.0000000000000000
  0
LINE
  5
156
100
AcDbEntity
  8
MAIN0
  6
CONTINUOUS
 62
3
100
AcDbLine
 10
289.1983858359952
 20
372.2606693931837
 30
0.0000000000000000
 11
289.1983858359952
 21
372.0106693931837
 31
0.0000000000000000
  0
LINE
  5
157
100
AcDbEntity
  8
MAIN0
  6
CONTINUOUS
 62
3
100
AcDbLine
 10
266.1983858359952
 20
372.2606693931837
 30
0.0000000000000000
 11
266.1983858359952
 21
372.0106693931837
 31
0.0000000000000000
  0
LINE
  5
158
100
AcDbEntity
  8
MAIN0
  6
CONTINUOUS
 62
3
100
AcDbLine
 10
266.1501771851494
 20
372.0106693931837
 30
0.0000000000000000
 11
289.1554172318529
 21
372.0106693931837
 31
0.0000000000000000
  0
LINE
  5
159
100
AcDbEntity
  8
MAIN0
  6
CONTINUOUS
 62
3
100
AcDbLine
 10
301.1983858359952
 20
363.8651838777522
 30
0.0000000000000000
 11
301.1983858359952
 21
372.2606693931837
 31
0.0000000000000000
  0
LINE
  5
15A
100
AcDbEntity
  8
MAIN0
  6
CONTINUOUS
 62
3
100
AcDbLine
 10
211.6983628409189
 20
367.7457236854172
 30
0.0000000000000000
 11
211.6983628409189
 21
372.2606693931837
 31
0.0000000000000000
  0
LINE
  5
15B
100
AcDbEntity
  8
MAIN0
  6
CONTINUOUS
 62
3
100
AcDbLine
 10
186.6983628409189
 20
327.2606693931837
 30
0.0000000000000000
 11
193.1983628409189
 21
327.2606693931837
 31
0.0000000000000000
  0
LINE
  5
15C
100
AcDbEntity
  8
MAIN0
  6
CONTINUOUS
 62
3
100
AcDbLine
 10
186.6983628409189
 20
467.2606693931837
 30
0.0000000000000000
 11
194.6983628409189
 21
467.2606693931837
 31
0.0000000000000000
  0
MTEXT
  5
15D
100
AcDbEntity
  8
MAIN0
  6
CONTINUOUS
 62
3
100
AcDbMText
 10
367.4715200117406
 20
428.5235047395208
 30
0.0000000000000000
 40
4.649999856948853
 41
0.0000000000000000
 71
     1
 72
     1
  1
{\H0.67x;{MIN 62.85}}
 11
6.123233995736766e-017
 21
1.000000000000000
 31
0.0000000000000000
  7
STANDARD
  0
MTEXT
  5
15E
100
AcDbEntity
  8
MAIN0
  6
CONTINUOUS
 62
3
100
AcDbMText
 10
367.4570061308147
 20
478.1929338016838
 30
0.0000000000000000
 40
4.649999856948853
 41
0.0000000000000000
 71
     1
 72
     1
  1
{\H0.66x;{MIN 8.5}}
 11
6.123233995736766e-017
 21
1.000000000000000
 31
0.0000000000000000
  7
STANDARD
  0
LINE
  5
15F
100
AcDbEntity
  8
MAIN0
  6
CONTINUOUS
 62
3
100
AcDbLine
 10
186.6983628409189
 20
327.2606693931837
 30
0.0000000000000000
 11
194.6983628409189
 21
327.2606693931837
 31
0.0000000000000000
  0
LINE
  5
160
100
AcDbEntity
  8
MAIN0
  6
CONTINUOUS
 62
3
100
AcDbLine
 10
187.7983628409187
 20
245.7606693931837
 30
0.0000000000000000
 11
187.1983628409188
 21
246.3606693931836
 31
0.0000000000000000
  0
LINE
  5
161
100
AcDbEntity
  8
MAIN0
  6
CONTINUOUS
 62
3
100
AcDbLine
 10
772.1479416144365
 20
419.8619689364836
 30
0.0000000000000000
 11
768.1064897301092
 21
419.8619689364836
 31
0.0000000000000000
  0
LINE
  5
162
100
AcDbEntity
  8
MAIN0
  6
CONTINUOUS
 62
3
100
AcDbLine
 10
768.1064897301089
 20
412.8619689364837
 30
0.0000000000000000
 11
772.1479416144364
 21
412.8619689364837
 31
0.0000000000000000
  0
LINE
  5
163
100
AcDbEntity
  8
MAIN0
  6
CONTINUOUS
 62
3
100
AcDbLine
 10
774.1686675566002
 20
416.3619689364832
 30
0.0000000000000000
 11
772.1479416144366
 21
419.8619689364831
 31
0.0000000000000000
  0
LINE
  5
164
100
AcDbEntity
  8
MAIN0
  6
CONTINUOUS
 62
3
100
AcDbLine
 10
768.1064897301092
 20
419.8619689364838
 30
0.0000000000000000
 11
766.0857637879453
 21
416.3619689364837
 31
0.0000000000000000
  0
LINE
  5
165
100
AcDbEntity
  8
MAIN0
  6
CONTINUOUS
 62
3
100
AcDbLine
 10
766.0857637879453
 20
416.3619689364836
 30
0.0000000000000000
 11
768.1064897301089
 21
412.8619689364837
 31
0.0000000000000000
  0
LINE
  5
166
100
AcDbEntity
  8
MAIN0
  6
CONTINUOUS
 62
3
100
AcDbLine
 10
772.1479416144366
 20
412.8619689364836
 30
0.0000000000000000
 11
774.1686675566002
 21
416.3619689364836
 31
0.0000000000000000
  0
CIRCLE
  5
167
100
AcDbEntity
  8
MAIN0
  6
CONTINUOUS
 62
3
100
AcDbCircle
 10
770.1272156722728
 20
416.3619689364834
 30
0.0000000000000000
 40
2.154065922853398
  0
CIRCLE
  5
168
100
AcDbEntity
  8
MAIN0
  6
CONTINUOUS
 62
3
100
AcDbCircle
 10
770.1272156722728
 20
416.3619689364834
 30
0.0000000000000000
 40
3.299999999999997
  0
CIRCLE
  5
169
100
AcDbEntity
  8
MAIN0
  6
CONTINUOUS
 62
3
100
AcDbCircle
 10
770.1272156722728
 20
416.3619689364834
 30
0.0000000000000000
 40
0.9914283891267653
  0
LINE
  5
16A
100
AcDbEntity
  8
MAIN0
  6
HIDDEN
 62
3
100
AcDbLine
 10
632.5483628409188
 20
473.2606693931834
 30
0.0000000000000000
 11
632.5483628409188
 21
520.3325487970506
 31
0.0000000000000000
  0
LINE
  5
16B
100
AcDbEntity
  8
MAIN0
  6
HIDDEN
 62
3
100
AcDbLine
 10
691.0483628409188
 20
473.2606693931834
 30
0.0000000000000000
 11
691.0483628409188
 21
520.3325487970508
 31
0.0000000000000000
  0
CIRCLE
  5
16C
100
AcDbEntity
  8
MAIN0
  6
CONTINUOUS
 62
3
100
AcDbCircle
 10
770.1272156722728
 20
416.3619689364834
 30
0.0000000000000000
 40
7.500000000000000
  0
LINE
  5
16D
100
AcDbEntity
  8
MAIN0
  6
CONTINUOUS
 62
3
100
AcDbLine
 10
724.2492953696208
 20
379.9539837787095
 30
0.0000000000000000
 11
720.8685549776064
 21
379.0481171208598
 31
0.0000000000000000
  0
LINE
  5
16E
100
AcDbEntity
  8
MAIN0
  6
CONTINUOUS
 62
3
100
AcDbLine
 10
722.1059918446886
 20
381.1914206457919
 30
0.0000000000000000
 11
723.0118585025382
 21
377.8106802537777
 31
0.0000000000000000
  0
LINE
  5
16F
100
AcDbEntity
  8
MAIN0
  6
HIDDEN
 62
3
100
AcDbLine
 10
505.2983628409175
 20
401.6606693928132
 30
0.0000000000000000
 11
506.2983628409178
 21
400.6606693928135
 31
0.0000000000000000
  0
LINE
  5
170
100
AcDbEntity
  8
MAIN0
  6
HIDDEN
 62
3
100
AcDbLine
 10
506.2983628409179
 20
400.6606693928133
 30
0.0000000000000000
 11
506.2983628409201
 21
393.8606693928134
 31
0.0000000000000000
  0
LINE
  5
171
100
AcDbEntity
  8
MAIN0
  6
HIDDEN
 62
3
100
AcDbLine
 10
506.2983628409201
 20
393.8606693928132
 30
0.0000000000000000
 11
505.2983628409203
 21
392.8606693928129
 31
0.0000000000000000
  0
LINE
  5
172
100
AcDbEntity
  8
MAIN0
  6
HIDDEN
 62
3
100
AcDbLine
 10
505.6983628409175
 20
401.2606693928130
 30
0.0000000000000000
 11
517.2983628409176
 21
401.2606693928166
 31
0.0000000000000000
  0
LINE
  5
173
100
AcDbEntity
  8
MAIN0
  6
HIDDEN
 62
3
100
AcDbLine
 10
517.2983628409179
 20
401.2606693928169
 30
0.0000000000000000
 11
517.2983628409204
 21
393.2606693928169
 31
0.0000000000000000
  0
LINE
  5
174
100
AcDbEntity
  8
MAIN0
  6
HIDDEN
 62
3
100
AcDbLine
 10
517.2983628409202
 20
393.2606693928166
 30
0.0000000000000000
 11
505.6983628409201
 21
393.2606693928130
 31
0.0000000000000000
  0
LINE
  5
175
100
AcDbEntity
  8
MAIN0
  6
HIDDEN
 62
3
100
AcDbLine
 10
506.2983628409179
 20
400.6606693928131
 30
0.0000000000000000
 11
522.2983628409179
 21
400.6606693928181
 31
0.0000000000000000
  0
LINE
  5
176
100
AcDbEntity
  8
MAIN0
  6
HIDDEN
 62
3
100
AcDbLine
 10
522.2983628409179
 20
400.6606693928187
 30
0.0000000000000000
 11
522.2983628409201
 21
393.8606693928187
 31
0.0000000000000000
  0
LINE
  5
177
100
AcDbEntity
  8
MAIN0
  6
HIDDEN
 62
3
100
AcDbLine
 10
522.2983628409201
 20
393.8606693928182
 30
0.0000000000000000
 11
506.2983628409200
 21
393.8606693928132
 31
0.0000000000000000
  0
LINE
  5
178
100
AcDbEntity
  8
MAIN0
  6
HIDDEN
 62
3
100
AcDbLine
 10
522.2983628409177
 20
400.6606693928187
 30
0.0000000000000000
 11
524.2613537561635
 21
397.2606693928193
 31
0.0000000000000000
  0
LINE
  5
179
100
AcDbEntity
  8
MAIN0
  6
HIDDEN
 62
3
100
AcDbLine
 10
524.2613537561635
 20
397.2606693928190
 30
0.0000000000000000
 11
522.2983628409198
 21
393.8606693928183
 31
0.0000000000000000
  0
MTEXT
  5
17A
100
AcDbEntity
  8
MAIN0
  6
CONTINUOUS
 62
3
100
AcDbMText
 10
636.5419298695883
 20
505.4274649253368
 30
0.0000000000000000
 40
4.649999856948853
 41
0.0000000000000000
 71
     1
 72
     1
  1
{\H0.81x;{3}}
 11
-1.000000000000000
 21
1.224646799147353e-016
 31
0.0000000000000000
  7
STANDARD
  0
MTEXT
  5
17B
100
AcDbEntity
  8
MAIN0
  6
CONTINUOUS
 62
3
100
AcDbMText
 10
580.7513865497820
 20
321.3045590649554
 30
0.0000000000000000
 40
4.649999856948853
 41
0.0000000000000000
 71
     1
 72
     1
  1
{\H0.81x;{2}}
 11
0.4999999999999993
 21
-0.8660254037844390
 31
0.0000000000000000
  7
STANDARD
  0
MTEXT
  5
17C
100
AcDbEntity
  8
MAIN0
  6
CONTINUOUS
 62
3
100
AcDbMText
 10
768.1017721033862
 20
365.0499841892577
 30
0.0000000000000000
 40
4.649999856948853
 41
0.0000000000000000
 71
     1
 72
     1
  1
{\H0.81x;{1}}
 11
0.5000000000000003
 21
0.8660254037844385
 31
0.0000000000000000
  7
STANDARD
  0
DIMENSION
  5
185
100
AcDbEntity
  8
MAIN0
  6
CONTINUOUS
 62
3
100
AcDbDimension
  2
*D4
 10
146.7983628409189
 20
327.2606693931837
 30
0.0000000000000000
 11
146.2983628409189
 21
391.0856692806799
 31
0.0000000000000000
 70
32
  1
\A1;\U+2205140H7\H0.903226x;\S＋0.04^ 　0;
  3
MAIN001
100
AcDbAlignedDimension
 13
186.6983628409189
 23
467.2606693931837
 33
0.0000000000000000
 14
186.6983628409189
 24
327.2606693931837
 34
0.0000000000000000
 50
90.00000000000000
100
AcDbRotatedDimension
1001
ACAD
1000
DSTYLE
1002
{
1070
   173
1070
     1
1070
     6
1000
_OPEN
1070
     7
1000
_OPEN
1070
    41
1040
3.000000
1070
   272
1070
     2
1070
    47
1040
0.040000
1070
    48
1040
0.000000
1070
    71
1070
     1
1070
   340
1005
186
1002
}
  0
DIMENSION
  5
18F
100
AcDbEntity
  8
MAIN0
  6
CONTINUOUS
 62
3
100
AcDbDimension
  2
*D5
 10
406.7983628409189
 20
533.2606693931837
 30
0.0000000000000000
 11
406.2983628409189
 21
478.2606693931837
 31
0.0000000000000000
 70
32
  3
MAIN001
100
AcDbAlignedDimension
 13
352.6983628409188
 23
423.2606693931837
 33
0.0000000000000000
 14
352.6983628409189
 24
533.2606693931837
 34
0.0000000000000000
 50
90.00000000000000
100
AcDbRotatedDimension
1001
ACAD
1000
DSTYLE
1002
{
1070
   173
1070
     1
1070
     6
1000
_OPEN
1070
     7
1000
_OPEN
1070
    41
1040
3.000000
1002
}
  0
DIMENSION
  5
198
100
AcDbEntity
  8
MAIN0
  6
CONTINUOUS
 62
3
100
AcDbDimension
  2
*D6
 10
306.6983628409189
 20
566.4278754614714
 30
0.0000000000000000
 11
329.6983628409189
 21
566.9278754614714
 31
0.0000000000000000
 70
32
  3
MAIN001
100
AcDbAlignedDimension
 13
352.6983628409189
 23
533.2606693931837
 33
0.0000000000000000
 14
306.6983628409189
 24
521.7606693931834
 34
0.0000000000000000
100
AcDbRotatedDimension
1001
ACAD
1000
DSTYLE
1002
{
1070
   173
1070
     1
1070
     6
1000
_OPEN
1070
     7
1000
_OPEN
1070
    41
1040
3.000000
1002
}
  0
DIMENSION
  5
1A1
100
AcDbEntity
  8
MAIN0
  6
CONTINUOUS
 62
3
100
AcDbDimension
  2
*D7
 10
386.7983628409189
 20
423.2606693931837
 30
0.0000000000000000
 11
386.2983628409189
 21
448.2606693931837
 31
0.0000000000000000
 70
32
  3
MAIN001
100
AcDbAlignedDimension
 13
366.2623325441233
 23
473.2606693931837
 33
0.0000000000000000
 14
352.6983628409188
 24
423.2606693931837
 34
0.0000000000000000
 50
90.00000000000000
100
AcDbRotatedDimension
1001
ACAD
1000
DSTYLE
1002
{
1070
   173
1070
     1
1070
     6
1000
_OPEN
1070
     7
1000
_OPEN
1070
    41
1040
3.000000
1002
}
  0
DIMENSION
  5
1AA
100
AcDbEntity
  8
MAIN0
  6
CONTINUOUS
 62
3
100
AcDbDimension
  2
*D8
 10
386.7983628409189
 20
473.2606693931837
 30
0.0000000000000000
 11
386.2983628409189
 21
488.2606693931837
 31
0.0000000000000000
 70
32
  3
MAIN001
100
AcDbAlignedDimension
 13
366.2623325441233
 23
503.2606693931837
 33
0.0000000000000000
 14
366.2623325441233
 24
473.2606693931837
 34
0.0000000000000000
 50
90.00000000000000
100
AcDbRotatedDimension
1001
ACAD
1000
DSTYLE
1002
{
1070
   173
1070
     1
1070
     6
1000
_OPEN
1070
     7
1000
_OPEN
1070
    41
1040
3.000000
1002
}
  0
DIMENSION
  5
1B3
100
AcDbEntity
  8
MAIN0
  6
CONTINUOUS
 62
3
100
AcDbDimension
  2
*D9
 10
641.7983628409188
 20
576.2606693931837
 30
0.0000000000000000
 11
661.7983628409188
 21
576.7606693931837
 31
0.0000000000000000
 70
32
  3
MAIN001
100
AcDbAlignedDimension
 13
681.7983628409188
 23
533.2606693931834
 33
0.0000000000000000
 14
641.7983628409188
 24
533.2606693931834
 34
0.0000000000000000
100
AcDbRotatedDimension
1001
ACAD
1000
DSTYLE
1002
{
1070
   173
1070
     1
1070
     6
1000
_OPEN
1070
     7
1000
_OPEN
1070
    41
1040
3.000000
1002
}
  0
DIMENSION
  5
1BA
100
AcDbEntity
  8
MAIN0
  6
CONTINUOUS
 62
3
100
AcDbDimension
  2
*D10
 10
231.7983628409189
 20
418.7606693931837
 30
0.0000000000000000
 11
231.0483628409189
 21
397.2606693931837
 31
0.0000000000000000
 70
160
  1
\A1;\U+220543
  3
MAIN001
100
AcDbAlignedDimension
 13
202.3983628409188
 23
375.7606693931837
 33
0.0000000000000000
 14
202.3983628409189
 24
418.7606693931837
 34
0.0000000000000000
 50
90.00000000000000
100
AcDbRotatedDimension
1001
ACAD
1000
DSTYLE
1002
{
1070
   173
1070
     1
1070
     6
1000
_OPEN
1070
     7
1000
_OPEN
1070
    41
1040
3.000000
1002
}
  0
DIMENSION
  5
1C4
100
AcDbEntity
  8
MAIN0
  6
CONTINUOUS
 62
3
100
AcDbDimension
  2
*D11
 10
194.6983628409189
 20
498.6599919525322
 30
0.0000000000000000
 11
177.6118477925528
 21
499.4099919525322
 31
0.0000000000000000
 70
160
  3
MAIN001
100
AcDbAlignedDimension
 13
186.6983628409189
 23
397.2606693931837
 33
0.0000000000000000
 14
194.6983628409189
 24
467.2606693931837
 34
0.0000000000000000
100
AcDbRotatedDimension
1001
ACAD
1000
DSTYLE
1002
{
1070
   173
1070
     1
1070
     6
1000
_OPEN
1070
     7
1000
_OPEN
1070
    41
1040
3.000000
1070
   287
1070
     0
1002
}
  0
LINE
  5
1C5
100
AcDbEntity
  8
MAIN0
  6
CENTER
 62
3
100
AcDbLine
 10
228.1983628409198
 20
559.4668623271300
 30
0.0000000000000000
 11
228.1983628409198
 21
527.8884238410722
 31
0.0000000000000000
  0
LINE
  5
1C6
100
AcDbEntity
  8
MAIN0
  6
HIDDEN
 62
3
100
AcDbLine
 10
221.9136128409199
 20
250.1606693931838
 30
0.0000000000000000
 11
221.6198628409199
 21
240.7606693931839
 31
0.0000000000000000
  0
LINE
  5
1C7
100
AcDbEntity
  8
MAIN0
  6
HIDDEN
 62
3
100
AcDbLine
 10
222.4758628409199
 20
240.7606693931838
 30
0.0000000000000000
 11
222.7696128409199
 21
250.1606693931837
 31
0.0000000000000000
  0
LINE
  5
1C8
100
AcDbEntity
  8
MAIN0
  6
HIDDEN
 62
3
100
AcDbLine
 10
233.9208628409197
 20
240.7606693931838
 30
0.0000000000000000
 11
233.6271128409197
 21
250.1606693931842
 31
0.0000000000000000
  0
LINE
  5
1C9
100
AcDbEntity
  8
MAIN0
  6
HIDDEN
 62
3
100
AcDbLine
 10
234.7768628409197
 20
240.7606693931839
 30
0.0000000000000000
 11
234.4831128409197
 21
250.1606693931842
 31
0.0000000000000000
  0
LINE
  5
1CA
100
AcDbEntity
  8
MAIN0
  6
HIDDEN
 62
3
100
AcDbLine
 10
234.4831128409196
 20
250.1606693931838
 30
0.0000000000000000
 11
221.9136128409197
 21
250.1606693931838
 31
0.0000000000000000
  0
LINE
  5
1CB
100
AcDbEntity
  8
MAIN0
  6
HIDDEN
 62
3
100
AcDbLine
 10
233.5983628409196
 20
250.6606693931838
 30
0.0000000000000000
 11
233.5983628409196
 21
256.2606693931837
 31
0.0000000000000000
  0
LINE
  5
1CC
100
AcDbEntity
  8
MAIN0
  6
HIDDEN
 62
3
100
AcDbLine
 10
233.5983628409196
 20
256.2606693931837
 30
0.0000000000000000
 11
222.7983628409197
 21
256.2606693931837
 31
0.0000000000000000
  0
LINE
  5
1CD
100
AcDbEntity
  8
MAIN0
  6
HIDDEN
 62
3
100
AcDbLine
 10
228.1983628353822
 20
259.3783608474658
 30
0.0000000000000000
 11
233.5983628409197
 21
256.2606693906149
 31
0.0000000000000000
  0
LINE
  5
1CE
100
AcDbEntity
  8
MAIN0
  6
HIDDEN
 62
3
100
AcDbLine
 10
228.1983628353818
 20
259.3783608474658
 30
0.0000000000000000
 11
222.7983628409198
 21
256.2606693970147
 31
0.0000000000000000
  0
LINE
  5
1CF
100
AcDbEntity
  8
MAIN0
  6
HIDDEN
 62
3
100
AcDbLine
 10
222.7983628409200
 20
250.6606693931838
 30
0.0000000000000000
 11
222.7983628409200
 21
256.2606693931837
 31
0.0000000000000000
  0
LINE
  5
1D0
100
AcDbEntity
  8
MAIN0
  6
CONTINUOUS
 62
3
100
AcDbLine
 10
258.9983628409199
 20
257.7606693931837
 30
0.0000000000000000
 11
266.9983628409184
 21
257.7606693931837
 31
0.0000000000000000
  0
LINE
  5
1D1
100
AcDbEntity
  8
MAIN0
  6
CONTINUOUS
 62
3
100
AcDbLine
 10
267.9983628409187
 20
258.7606693931837
 30
0.0000000000000000
 11
267.9983628409187
 21
370.2208974198271
 31
0.0000000000000000
  0
LINE
  5
1D2
100
AcDbEntity
  8
MAIN0
  6
CONTINUOUS
 62
3
100
AcDbLine
 10
266.9983628409186
 20
257.7606693931838
 30
0.0000000000000000
 11
267.9983628409184
 21
258.7606693931834
 31
0.0000000000000000
  0
LINE
  5
1D3
100
AcDbEntity
  8
MAIN0
  6
CENTER
 62
3
100
AcDbLine
 10
228.1983628409198
 20
232.4465939642081
 30
0.0000000000000000
 11
228.1983628409198
 21
266.7856161834026
 31
0.0000000000000000
  0
LINE
  5
1D4
100
AcDbEntity
  8
MAIN0
  6
CONTINUOUS
 62
3
100
AcDbLine
 10
267.9983628409187
 20
523.7606693931837
 30
0.0000000000000000
 11
269.2983628409189
 21
523.7606693931837
 31
0.0000000000000000
  0
LINE
  5
1D5
100
AcDbEntity
  8
MAIN0
  6
CENTER
 62
3
100
AcDbLine
 10
176.3970266252525
 20
397.2606693931837
 30
0.0000000000000000
 11
224.1483629839700
 21
397.2606693931837
 31
0.0000000000000000
  0
LINE
  5
1D6
100
AcDbEntity
  8
MAIN0
  6
CENTER
 62
3
100
AcDbLine
 10
233.2983628409189
 20
397.2606693931837
 30
0.0000000000000000
 11
333.3297164485951
 21
397.2606693931837
 31
0.0000000000000000
  0
DIMENSION
  5
1E1
100
AcDbEntity
  8
MAIN0
  6
CONTINUOUS
 62
3
100
AcDbDimension
  2
*D12
 10
366.7983628409189
 20
473.2606693931837
 30
0.0000000000000000
 11
366.0483628409189
 21
487.6178372034090
 31
0.0000000000000000
 70
160
  1
\A1;MAX 19
  3
MAIN001
100
AcDbAlignedDimension
 13
310.6983628409189
 23
463.2606693931837
 33
0.0000000000000000
 14
366.2623325441233
 24
473.2606693931837
 34
0.0000000000000000
 50
90.00000000000000
100
AcDbRotatedDimension
1001
ACAD
1000
DSTYLE
1002
{
1070
   173
1070
     1
1070
     6
1000
_OPEN
1070
     7
1000
_OPEN
1070
    41
1040
3.000000
1070
   287
1070
     0
1002
}
  0
DIMENSION
  5
1EA
100
AcDbEntity
  8
MAIN0
  6
CONTINUOUS
 62
3
100
AcDbDimension
  2
*D13
 10
366.7983628409189
 20
463.2606693931837
 30
0.0000000000000000
 11
366.0483628409189
 21
437.9034542234380
 31
0.0000000000000000
 70
160
  1
\A1;MAX 66
  3
MAIN001
100
AcDbAlignedDimension
 13
333.3297164485951
 23
397.2606693931837
 33
0.0000000000000000
 14
310.6983628409189
 24
463.2606693931837
 34
0.0000000000000000
 50
90.00000000000000
100
AcDbRotatedDimension
1001
ACAD
1000
DSTYLE
1002
{
1070
   173
1070
     1
1070
     6
1000
_OPEN
1070
     7
1000
_OPEN
1070
    41
1040
3.000000
1002
}
  0
LINE
  5
1EB
100
AcDbEntity
  8
MAIN0
  6
CONTINUOUS
 62
3
100
AcDbLine
 10
194.6983628409189
 20
327.2606693931837
 30
0.0000000000000000
 11
194.6983628409189
 21
467.2606693931837
 31
0.0000000000000000
  0
INSERT
  5
1F3
100
AcDbEntity
  8
MAIN0
  6
CONTINUOUS
 62
3
100
AcDbBlockReference
  2
D14
 10
176.3970266252525
 20
397.2606693931837
 30
0.0000000000000000
 50
0.0000000000000000
  0
LINE
  5
1F4
100
AcDbEntity
  8
MAIN0
  6
CONTINUOUS
 62
3
100
AcDbLine
 10
186.6983628409189
 20
264.7606693931829
 30
0.0000000000000000
 11
186.6983628409189
 21
529.7606693931843
 31
0.0000000000000000
  0
LINE
  5
1F5
100
AcDbEntity
  8
MAIN0
  6
CENTER
 62
3
100
AcDbLine
 10
597.2983628409189
 20
285.5433923049910
 30
0.0000000000000000
 11
608.7983628409188
 21
305.4619765920331
 31
0.0000000000000000
  0
ARC
  5
1F6
100
AcDbEntity
  8
MAIN0
  6
CENTER
 62
3
100
AcDbCircle
 10
661.7983628409188
 20
397.2606693931837
 30
0.0000000000000000
 40
117.5000000000000
100
AcDbArc
 50
234.3914236670420
 51
245.6085763329581
  0
CIRCLE
  5
1F7
100
AcDbEntity
  8
MAIN0
  6
CONTINUOUS
 62
3
100
AcDbCircle
 10
720.5483628409188
 20
295.5026844485121
 30
0.0000000000000000
 40
8.000000000000000
  0
LINE
  5
1F8
100
AcDbEntity
  8
MAIN0
  6
CONTINUOUS
 62
3
100
AcDbLine
 10
718.2389617641603
 20
299.5026844485121
 30
0.0000000000000000
 11
715.9295606874018
 21
295.5026844485121
 31
0.0000000000000000
  0
LINE
  5
1F9
100
AcDbEntity
  8
MAIN0
  6
CONTINUOUS
 62
3
100
AcDbLine
 10
715.9295606874018
 20
295.5026844485121
 30
0.0000000000000000
 11
718.2389617641604
 21
291.5026844485120
 31
0.0000000000000000
  0
LINE
  5
1FA
100
AcDbEntity
  8
MAIN0
  6
CONTINUOUS
 62
3
100
AcDbLine
 10
718.2389617641603
 20
291.5026844485121
 30
0.0000000000000000
 11
722.8577639176773
 21
291.5026844485121
 31
0.0000000000000000
  0
LINE
  5
1FB
100
AcDbEntity
  8
MAIN0
  6
CONTINUOUS
 62
3
100
AcDbLine
 10
722.8577639176773
 20
291.5026844485121
 30
0.0000000000000000
 11
725.1671649944358
 21
295.5026844485121
 31
0.0000000000000000
  0
LINE
  5
1FC
100
AcDbEntity
  8
MAIN0
  6
CONTINUOUS
 62
3
100
AcDbLine
 10
725.1671649944358
 20
295.5026844485120
 30
0.0000000000000000
 11
722.8577639176774
 21
299.5026844485121
 31
0.0000000000000000
  0
LINE
  5
1FD
100
AcDbEntity
  8
MAIN0
  6
CONTINUOUS
 62
3
100
AcDbLine
 10
722.8577639176773
 20
299.5026844485121
 30
0.0000000000000000
 11
718.2389617641602
 21
299.5026844485121
 31
0.0000000000000000
  0
LINE
  5
1FE
100
AcDbEntity
  8
MAIN0
  6
CENTER
 62
3
100
AcDbLine
 10
726.2983628409188
 20
285.5433923049910
 30
0.0000000000000000
 11
714.7983628409188
 21
305.4619765920332
 31
0.0000000000000000
  0
ARC
  5
1FF
100
AcDbEntity
  8
MAIN0
  6
CENTER
 62
3
100
AcDbCircle
 10
661.7983628409188
 20
397.2606693931837
 30
0.0000000000000000
 40
117.5000000000000
100
AcDbArc
 50
294.3914236670420
 51
305.6085763329580
  0
CIRCLE
  5
200
100
AcDbEntity
  8
MAIN0
  6
CONTINUOUS
 62
3
100
AcDbCircle
 10
779.2983628409188
 20
397.2606693931835
 30
0.0000000000000000
 40
8.000000000000000
  0
LINE
  5
201
100
AcDbEntity
  8
MAIN0
  6
CONTINUOUS
 62
3
100
AcDbLine
 10
774.6795606874018
 20
397.2606693931836
 30
0.0000000000000000
 11
776.9889617641603
 21
393.2606693931836
 31
0.0000000000000000
  0
LINE
  5
202
100
AcDbEntity
  8
MAIN0
  6
CONTINUOUS
 62
3
100
AcDbLine
 10
776.9889617641603
 20
393.2606693931835
 30
0.0000000000000000
 11
781.6077639176774
 21
393.2606693931835
 31
0.0000000000000000
  0
LINE
  5
203
100
AcDbEntity
  8
MAIN0
  6
CONTINUOUS
 62
3
100
AcDbLine
 10
781.6077639176773
 20
393.2606693931836
 30
0.0000000000000000
 11
783.9171649944358
 21
397.2606693931836
 31
0.0000000000000000
  0
LINE
  5
204
100
AcDbEntity
  8
MAIN0
  6
CONTINUOUS
 62
3
100
AcDbLine
 10
783.9171649944358
 20
397.2606693931835
 30
0.0000000000000000
 11
781.6077639176773
 21
401.2606693931836
 31
0.0000000000000000
  0
LINE
  5
205
100
AcDbEntity
  8
MAIN0
  6
CONTINUOUS
 62
3
100
AcDbLine
 10
781.6077639176774
 20
401.2606693931835
 30
0.0000000000000000
 11
776.9889617641604
 21
401.2606693931835
 31
0.0000000000000000
  0
LINE
  5
206
100
AcDbEntity
  8
MAIN0
  6
CONTINUOUS
 62
3
100
AcDbLine
 10
776.9889617641602
 20
401.2606693931836
 30
0.0000000000000000
 11
774.6795606874017
 21
397.2606693931835
 31
0.0000000000000000
  0
ARC
  5
207
100
AcDbEntity
  8
MAIN0
  6
CENTER
 62
3
100
AcDbCircle
 10
661.7983628409188
 20
397.2606693931837
 30
0.0000000000000000
 40
117.5000000000000
100
AcDbArc
 50
354.3914236670419
 51
365.6085763329579
  0
ARC
  5
208
100
AcDbEntity
  8
MAIN0
  6
CONTINUOUS
 62
3
100
AcDbCircle
 10
720.5483628409190
 20
499.0186543378550
 30
0.0000000000000000
 40
8.500000000000000
100
AcDbArc
 50
152.0728526833329
 51
327.9271473166669
  0
CIRCLE
  5
209
100
AcDbEntity
  8
MAIN0
  6
CONTINUOUS
 62
3
100
AcDbCircle
 10
720.5483628409190
 20
499.0186543378550
 30
0.0000000000000000
 40
8.000000000000000
  0
LINE
  5
20A
100
AcDbEntity
  8
MAIN0
  6
CONTINUOUS
 62
3
100
AcDbLine
 10
718.2389617641604
 20
495.0186543378550
 30
0.0000000000000000
 11
722.8577639176774
 21
495.0186543378550
 31
0.0000000000000000
  0
LINE
  5
20B
100
AcDbEntity
  8
MAIN0
  6
CONTINUOUS
 62
3
100
AcDbLine
 10
722.8577639176776
 20
495.0186543378549
 30
0.0000000000000000
 11
725.1671649944361
 21
499.0186543378550
 31
0.0000000000000000
  0
LINE
  5
20C
100
AcDbEntity
  8
MAIN0
  6
CONTINUOUS
 62
3
100
AcDbLine
 10
725.1671649944360
 20
499.0186543378550
 30
0.0000000000000000
 11
722.8577639176776
 21
503.0186543378550
 31
0.0000000000000000
  0
LINE
  5
20D
100
AcDbEntity
  8
MAIN0
  6
CONTINUOUS
 62
3
100
AcDbLine
 10
722.8577639176776
 20
503.0186543378550
 30
0.0000000000000000
 11
718.2389617641605
 21
503.0186543378550
 31
0.0000000000000000
  0
LINE
  5
20E
100
AcDbEntity
  8
MAIN0
  6
CONTINUOUS
 62
3
100
AcDbLine
 10
718.2389617641607
 20
503.0186543378550
 30
0.0000000000000000
 11
715.9295606874021
 21
499.0186543378550
 31
0.0000000000000000
  0
LINE
  5
20F
100
AcDbEntity
  8
MAIN0
  6
CONTINUOUS
 62
3
100
AcDbLine
 10
715.9295606874021
 20
499.0186543378550
 30
0.0000000000000000
 11
718.2389617641607
 21
495.0186543378550
 31
0.0000000000000000
  0
LINE
  5
210
100
AcDbEntity
  8
MAIN0
  6
CENTER
 62
3
100
AcDbLine
 10
726.2983628409190
 20
508.9779464813760
 30
0.0000000000000000
 11
714.7983628409189
 21
489.0593621943339
 31
0.0000000000000000
  0
ARC
  5
211
100
AcDbEntity
  8
MAIN0
  6
CENTER
 62
3
100
AcDbCircle
 10
661.7983628409188
 20
397.2606693931837
 30
0.0000000000000000
 40
117.5000000000000
100
AcDbArc
 50
54.39142366704189
 51
65.60857633295788
  0
CIRCLE
  5
212
100
AcDbEntity
  8
MAIN0
  6
CONTINUOUS
 62
3
100
AcDbCircle
 10
603.0483628409193
 20
499.0186543378554
 30
0.0000000000000000
 40
8.000000000000000
  0
LINE
  5
213
100
AcDbEntity
  8
MAIN0
  6
CONTINUOUS
 62
3
100
AcDbLine
 10
605.3577639176776
 20
495.0186543378554
 30
0.0000000000000000
 11
607.6671649944361
 21
499.0186543378553
 31
0.0000000000000000
  0
LINE
  5
214
100
AcDbEntity
  8
MAIN0
  6
CONTINUOUS
 62
3
100
AcDbLine
 10
607.6671649944362
 20
499.0186543378554
 30
0.0000000000000000
 11
605.3577639176779
 21
503.0186543378555
 31
0.0000000000000000
  0
LINE
  5
215
100
AcDbEntity
  8
MAIN0
  6
CONTINUOUS
 62
3
100
AcDbLine
 10
605.3577639176776
 20
503.0186543378553
 30
0.0000000000000000
 11
600.7389617641607
 21
503.0186543378554
 31
0.0000000000000000
  0
LINE
  5
216
100
AcDbEntity
  8
MAIN0
  6
CONTINUOUS
 62
3
100
AcDbLine
 10
600.7389617641607
 20
503.0186543378554
 30
0.0000000000000000
 11
598.4295606874021
 21
499.0186543378554
 31
0.0000000000000000
  0
LINE
  5
217
100
AcDbEntity
  8
MAIN0
  6
CONTINUOUS
 62
3
100
AcDbLine
 10
598.4295606874023
 20
499.0186543378555
 30
0.0000000000000000
 11
600.7389617641608
 21
495.0186543378554
 31
0.0000000000000000
  0
LINE
  5
218
100
AcDbEntity
  8
MAIN0
  6
CONTINUOUS
 62
3
100
AcDbLine
 10
600.7389617641607
 20
495.0186543378554
 30
0.0000000000000000
 11
605.3577639176777
 21
495.0186543378554
 31
0.0000000000000000
  0
LINE
  5
219
100
AcDbEntity
  8
MAIN0
  6
CENTER
 62
3
100
AcDbLine
 10
597.2983628409191
 20
508.9779464813765
 30
0.0000000000000000
 11
608.7983628409190
 21
489.0593621943343
 31
0.0000000000000000
  0
ARC
  5
21A
100
AcDbEntity
  8
MAIN0
  6
CENTER
 62
3
100
AcDbCircle
 10
661.7983628409188
 20
397.2606693931837
 30
0.0000000000000000
 40
117.5000000000000
100
AcDbArc
 50
114.3914236670418
 51
125.6085763329578
  0
CIRCLE
  5
21B
100
AcDbEntity
  8
MAIN0
  6
CONTINUOUS
 62
3
100
AcDbCircle
 10
544.2983628409189
 20
397.2606693931842
 30
0.0000000000000000
 40
8.000000000000000
  0
LINE
  5
21C
100
AcDbEntity
  8
MAIN0
  6
CONTINUOUS
 62
3
100
AcDbLine
 10
548.9171649944359
 20
397.2606693931841
 30
0.0000000000000000
 11
546.6077639176774
 21
401.2606693931841
 31
0.0000000000000000
  0
LINE
  5
21D
100
AcDbEntity
  8
MAIN0
  6
CONTINUOUS
 62
3
100
AcDbLine
 10
546.6077639176774
 20
401.2606693931843
 30
0.0000000000000000
 11
541.9889617641603
 21
401.2606693931843
 31
0.0000000000000000
  0
LINE
  5
21E
100
AcDbEntity
  8
MAIN0
  6
CONTINUOUS
 62
3
100
AcDbLine
 10
541.9889617641604
 20
401.2606693931842
 30
0.0000000000000000
 11
539.6795606874018
 21
397.2606693931843
 31
0.0000000000000000
  0
LINE
  5
21F
100
AcDbEntity
  8
MAIN0
  6
CONTINUOUS
 62
3
100
AcDbLine
 10
539.6795606874018
 20
397.2606693931842
 30
0.0000000000000000
 11
541.9889617641604
 21
393.2606693931841
 31
0.0000000000000000
  0
LINE
  5
220
100
AcDbEntity
  8
MAIN0
  6
CONTINUOUS
 62
3
100
AcDbLine
 10
541.9889617641603
 20
393.2606693931843
 30
0.0000000000000000
 11
546.6077639176774
 21
393.2606693931843
 31
0.0000000000000000
  0
LINE
  5
221
100
AcDbEntity
  8
MAIN0
  6
CONTINUOUS
 62
3
100
AcDbLine
 10
546.6077639176774
 20
393.2606693931842
 30
0.0000000000000000
 11
548.9171649944359
 21
397.2606693931842
 31
0.0000000000000000
  0
ARC
  5
222
100
AcDbEntity
  8
MAIN0
  6
CENTER
 62
3
100
AcDbCircle
 10
661.7983628409188
 20
397.2606693931837
 30
0.0000000000000000
 40
117.5000000000000
100
AcDbArc
 50
174.3914236670418
 51
185.6085763329577
  0
LINE
  5
223
100
AcDbEntity
  8
MAIN0
  6
CENTER
 62
3
100
AcDbLine
 10
600.3105591722717
 20
432.7606693932670
 30
0.0000000000000000
 11
612.8679275271363
 21
425.5106693932500
 31
0.0000000000000000
  0
ARC
  5
224
100
AcDbEntity
  8
MAIN0
  6
CENTER
 62
3
100
AcDbCircle
 10
661.7983628409188
 20
397.2606693931837
 30
0.0000000000000000
 40
63.75000000000001
100
AcDbArc
 50
143.4833016794163
 51
156.5166983204284
  0
LINE
  5
225
100
AcDbEntity
  8
MAIN0
  6
CENTER
 62
3
100
AcDbLine
 10
723.2861665096623
 20
432.7606693930999
 30
0.0000000000000000
 11
710.7287981547779
 21
425.5106693931169
 31
0.0000000000000000
  0
ARC
  5
226
100
AcDbEntity
  8
MAIN0
  6
CENTER
 62
3
100
AcDbCircle
 10
661.7983628409188
 20
397.2606693931837
 30
0.0000000000000000
 40
63.74999999999980
100
AcDbArc
 50
23.48330167941590
 51
36.51669832042811
  0
ARC
  5
227
100
AcDbEntity
  8
MAIN0
  6
CENTER
 62
3
100
AcDbCircle
 10
661.7983628409188
 20
397.2606693931837
 30
0.0000000000000000
 40
63.75000000000023
100
AcDbArc
 50
263.4833016794161
 51
276.5166983205839
  0
LINE
  5
228
100
AcDbEntity
  8
MAIN0
  6
CENTER
 62
3
100
AcDbLine
 10
674.2983628409188
 20
473.2606693931834
 30
0.0000000000000000
 11
649.2983628409188
 21
473.2606693931834
 31
0.0000000000000000
  0
LINE
  5
229
100
AcDbEntity
  8
MAIN0
  6
CENTER
 62
3
100
AcDbLine
 10
674.2983628409188
 20
503.2606693931834
 30
0.0000000000000000
 11
649.2983628409188
 21
503.2606693931834
 31
0.0000000000000000
  0
LINE
  5
22A
100
AcDbEntity
  8
MAIN0
  6
CENTER
 62
3
100
AcDbLine
 10
618.2730010155284
 20
234.8218076430077
 30
0.0000000000000000
 11
626.7283822295273
 21
266.3777199310149
 31
0.0000000000000000
  0
LINE
  5
22B
100
AcDbEntity
  8
MAIN0
  6
CENTER
 62
3
100
AcDbLine
 10
705.3237246663091
 20
234.8218076430077
 30
0.0000000000000000
 11
696.8683434523102
 21
266.3777199310149
 31
0.0000000000000000
  0
LINE
  5
22C
100
AcDbEntity
  8
MAIN0
  6
HIDDEN
 62
3
100
AcDbLine
 10
708.6179623456874
 20
247.9282378780802
 30
0.0000000000000000
 11
705.9412467122697
 21
256.7995933397697
 31
0.0000000000000000
  0
LINE
  5
22D
100
AcDbEntity
  8
MAIN0
  6
HIDDEN
 62
3
100
AcDbLine
 10
705.9412467122697
 20
256.7995933397697
 30
0.0000000000000000
 11
693.8000420387293
 21
253.5463673523536
 31
0.0000000000000000
  0
LINE
  5
22E
100
AcDbEntity
  8
MAIN0
  6
HIDDEN
 62
3
100
AcDbLine
 10
693.8000420387293
 20
253.5463673523537
 30
0.0000000000000000
 11
695.9176160323275
 21
244.5251903398198
 31
0.0000000000000000
  0
LINE
  5
22F
100
AcDbEntity
  8
MAIN0
  6
HIDDEN
 62
3
100
AcDbLine
 10
707.8008418665806
 20
247.6745005021610
 30
0.0000000000000000
 11
705.1144142049665
 21
256.5780442371620
 31
0.0000000000000000
  0
LINE
  5
230
100
AcDbEntity
  8
MAIN0
  6
HIDDEN
 62
3
100
AcDbLine
 10
696.7521318131463
 20
244.7140075659376
 30
0.0000000000000000
 11
694.6268745460329
 21
253.7679164549614
 31
0.0000000000000000
  0
LINE
  5
231
100
AcDbEntity
  8
MAIN0
  6
HIDDEN
 62
3
100
AcDbLine
 10
705.0866438374605
 20
256.5706031896153
 30
0.0000000000000000
 11
703.6372571848864
 21
261.9797878168341
 31
0.0000000000000000
  0
LINE
  5
232
100
AcDbEntity
  8
MAIN0
  6
HIDDEN
 62
3
100
AcDbLine
 10
693.2052582609645
 20
259.1845421297269
 30
0.0000000000000000
 11
694.6546449135385
 21
253.7753575025082
 31
0.0000000000000000
  0
DIMENSION
  5
23B
100
AcDbEntity
  8
MAIN0
  6
CONTINUOUS
 62
3
100
AcDbDimension
  2
*D15
 10
661.7983628409188
 20
229.5915850502999
 30
0.0000000000000000
 11
638.4994375296396
 21
220.2877616379585
 31
0.0000000000000000
 70
162
  3
MAIN001
100
AcDb2LineAngularDimension
 13
618.4024105380797
 23
235.3047705561522
 33
0.0000000000000000
 14
618.6612295831823
 24
236.2706963824412
 34
0.0000000000000000
 15
661.7983628409188
 25
230.5915850502999
 35
0.0000000000000000
 16
638.4341744335296
 26
219.7920392072716
 36
0.0000000000000000
1001
ACAD
1000
DSTYLE
1002
{
1070
   173
1070
     1
1070
     6
1000
_OPEN
1070
     7
1000
_OPEN
1070
    41
1040
3.000000
1002
}
  0
DIMENSION
  5
244
100
AcDbEntity
  8
MAIN0
  6
CONTINUOUS
 62
3
100
AcDbDimension
  2
*D16
 10
705.1943151437580
 20
235.3047705561522
 30
0.0000000000000000
 11
685.0972881521979
 21
220.2877616379586
 31
0.0000000000000000
 70
162
  3
MAIN001
100
AcDb2LineAngularDimension
 13
661.7983628409188
 23
229.5915850502999
 33
0.0000000000000000
 14
661.7983628409188
 24
230.5915850502999
 34
0.0000000000000000
 15
704.9354960986555
 25
236.2706963824412
 35
0.0000000000000000
 16
685.1625512483079
 26
219.7920392072716
 36
0.0000000000000000
1001
ACAD
1000
DSTYLE
1002
{
1070
   173
1070
     1
1070
     6
1000
_OPEN
1070
     7
1000
_OPEN
1070
    41
1040
3.000000
1002
}
  0
LINE
  5
245
100
AcDbEntity
  8
MAIN0
  6
CENTER
 62
3
100
AcDbLine
 10
780.4676970789019
 20
418.1852748019803
 30
0.0000000000000000
 11
759.7867342656434
 21
414.5386630709866
 31
0.0000000000000000
  0
ARC
  5
246
100
AcDbEntity
  8
MAIN0
  6
CENTER
 62
3
100
AcDbCircle
 10
661.7983628409188
 20
397.2606693931837
 30
0.0000000000000000
 40
110.0000000000000
100
AcDbArc
 50
4.530100325585125
 51
15.46989967434869
  0
INSERT
  5
24D
100
AcDbEntity
  8
MAIN0
  6
CONTINUOUS
 62
2
100
AcDbBlockReference
  2
M0
 10
0.0000000000000000
 20
0.0000000000000000
 30
0.0000000000000000
 50
0.0000000000000000
  0
MTEXT
  5
24E
100
AcDbEntity
  8
MAIN0
  6
CONTINUOUS
 62
3
100
AcDbMText
 10
297.1678252093919
 20
565.1785424455570
 30
0.0000000000000000
 40
7.500000000000000
 41
0.0000000000000000
 71
     1
 72
     1
  1
{\H0.82x;{C}}
 11
1.000000000000000
 21
0.0000000000000000
 31
0.0000000000000000
  7
STANDARD
  0
LINE
  5
24F
100
AcDbEntity
  8
MAIN0
  6
CONTINUOUS
 62
3
100
AcDbLine
 10
107.3697341719802
 20
92.64021860791104
 30
0.0000000000000000
 11
168.4162756979588
 21
92.64021860791104
 31
0.0000000000000000
  0
INSERT
  5
257
100
AcDbEntity
  8
MAIN0
  6
CONTINUOUS
 62
3
100
AcDbBlockReference
  2
D17
 10
333.3297164485951
 20
397.2606693931837
 30
0.0000000000000000
 50
0.0000000000000000
  0
LINE
  5
258
100
AcDbEntity
  8
MAIN0
  6
CONTINUOUS
 62
3
100
AcDbLine
 10
258.9983628409199
 20
536.7606693931837
 30
0.0000000000000000
 11
266.9983628409185
 21
536.7606693931837
 31
0.0000000000000000
  0
LINE
  5
259
100
AcDbEntity
  8
MAIN0
  6
CONTINUOUS
 62
3
100
AcDbLine
 10
267.9983628409187
 20
535.7606693931837
 30
0.0000000000000000
 11
267.9983628409187
 21
424.3004413665403
 31
0.0000000000000000
  0
LINE
  5
25A
100
AcDbEntity
  8
MAIN0
  6
CONTINUOUS
 62
3
100
AcDbLine
 10
266.9983628409186
 20
536.7606693931834
 30
0.0000000000000000
 11
267.9983628409184
 21
535.7606693931840
 31
0.0000000000000000
  0
LINE
  5
25B
100
AcDbEntity
  8
MAIN0
  6
CENTER
 62
3
100
AcDbLine
 10
661.7983628409188
 20
229.5915850503000
 30
0.0000000000000000
 11
661.7983628409188
 21
567.2606693931837
 31
0.0000000000000000
  0
LINE
  5
25C
100
AcDbEntity
  8
MAIN0
  6
HIDDEN
 62
3
100
AcDbLine
 10
818.2381787382177
 20
392.9208534962561
 30
0.0000000000000000
 11
817.2983628409197
 21
393.8606693935534
 31
0.0000000000000000
  0
LINE
  5
25D
100
AcDbEntity
  8
MAIN0
  6
HIDDEN
 62
3
100
AcDbLine
 10
817.2983628409197
 20
393.8606693935536
 30
0.0000000000000000
 11
817.2983628409177
 21
400.6606693935535
 31
0.0000000000000000
  0
LINE
  5
25E
100
AcDbEntity
  8
MAIN0
  6
HIDDEN
 62
3
100
AcDbLine
 10
817.2983628409177
 20
400.6606693935536
 30
0.0000000000000000
 11
818.2381787381978
 21
401.6004852908342
 31
0.0000000000000000
  0
LINE
  5
25F
100
AcDbEntity
  8
MAIN0
  6
HIDDEN
 62
3
100
AcDbLine
 10
817.8983628409201
 20
393.2606693935539
 30
0.0000000000000000
 11
806.2983628409202
 21
393.2606693935504
 31
0.0000000000000000
  0
LINE
  5
260
100
AcDbEntity
  8
MAIN0
  6
HIDDEN
 62
3
100
AcDbLine
 10
806.2983628409199
 20
393.2606693935501
 30
0.0000000000000000
 11
806.2983628409174
 21
401.2606693935501
 31
0.0000000000000000
  0
LINE
  5
261
100
AcDbEntity
  8
MAIN0
  6
HIDDEN
 62
3
100
AcDbLine
 10
806.2983628409174
 20
401.2606693935504
 30
0.0000000000000000
 11
817.8983628409176
 21
401.2606693935539
 31
0.0000000000000000
  0
LINE
  5
262
100
AcDbEntity
  8
MAIN0
  6
HIDDEN
 62
3
100
AcDbLine
 10
817.2983628409198
 20
393.8606693935538
 30
0.0000000000000000
 11
801.2983628409198
 21
393.8606693935489
 31
0.0000000000000000
  0
LINE
  5
263
100
AcDbEntity
  8
MAIN0
  6
HIDDEN
 62
3
100
AcDbLine
 10
801.2983628409197
 20
393.8606693935483
 30
0.0000000000000000
 11
801.2983628409177
 21
400.6606693935482
 31
0.0000000000000000
  0
LINE
  5
264
100
AcDbEntity
  8
MAIN0
  6
HIDDEN
 62
3
100
AcDbLine
 10
801.2983628409177
 20
400.6606693935488
 30
0.0000000000000000
 11
817.2983628409177
 21
400.6606693935538
 31
0.0000000000000000
  0
LINE
  5
265
100
AcDbEntity
  8
MAIN0
  6
HIDDEN
 62
3
100
AcDbLine
 10
801.2983628409199
 20
393.8606693935482
 30
0.0000000000000000
 11
799.3353719256741
 21
397.2606693935476
 31
0.0000000000000000
  0
LINE
  5
266
100
AcDbEntity
  8
MAIN0
  6
HIDDEN
 62
3
100
AcDbLine
 10
799.3353719256741
 20
397.2606693935480
 30
0.0000000000000000
 11
801.2983628409177
 21
400.6606693935486
 31
0.0000000000000000
  0
LINE
  5
267
100
AcDbEntity
  8
MAIN0
  6
HIDDEN
 62
3
100
AcDbLine
 10
232.5983628405490
 20
553.7606693931850
 30
0.0000000000000000
 11
231.5983628405493
 21
552.7606693931847
 31
0.0000000000000000
  0
LINE
  5
268
100
AcDbEntity
  8
MAIN0
  6
HIDDEN
 62
3
100
AcDbLine
 10
231.5983628405491
 20
552.7606693931846
 30
0.0000000000000000
 11
224.7983628405492
 21
552.7606693931825
 31
0.0000000000000000
  0
LINE
  5
269
100
AcDbEntity
  8
MAIN0
  6
HIDDEN
 62
3
100
AcDbLine
 10
224.7983628405490
 20
552.7606693931825
 30
0.0000000000000000
 11
223.7983628405488
 21
553.7606693931822
 31
0.0000000000000000
  0
LINE
  5
26A
100
AcDbEntity
  8
MAIN0
  6
HIDDEN
 62
3
100
AcDbLine
 10
232.1983628405488
 20
553.3606693931849
 30
0.0000000000000000
 11
232.1983628405524
 21
541.7606693931850
 31
0.0000000000000000
  0
LINE
  5
26B
100
AcDbEntity
  8
MAIN0
  6
HIDDEN
 62
3
100
AcDbLine
 10
232.1983628405527
 20
541.7606693931847
 30
0.0000000000000000
 11
224.1983628405527
 21
541.7606693931822
 31
0.0000000000000000
  0
LINE
  5
26C
100
AcDbEntity
  8
MAIN0
  6
HIDDEN
 62
3
100
AcDbLine
 10
224.1983628405524
 20
541.7606693931823
 30
0.0000000000000000
 11
224.1983628405488
 21
553.3606693931824
 31
0.0000000000000000
  0
LINE
  5
26D
100
AcDbEntity
  8
MAIN0
  6
HIDDEN
 62
3
100
AcDbLine
 10
231.5983628405490
 20
552.7606693931847
 30
0.0000000000000000
 11
231.5983628405540
 21
536.7606693931847
 31
0.0000000000000000
  0
LINE
  5
26E
100
AcDbEntity
  8
MAIN0
  6
HIDDEN
 62
3
100
AcDbLine
 10
231.5983628405545
 20
536.7606693931847
 30
0.0000000000000000
 11
224.7983628405546
 21
536.7606693931825
 31
0.0000000000000000
  0
LINE
  5
26F
100
AcDbEntity
  8
MAIN0
  6
HIDDEN
 62
3
100
AcDbLine
 10
224.7983628405540
 20
536.7606693931825
 30
0.0000000000000000
 11
224.7983628405490
 21
552.7606693931825
 31
0.0000000000000000
  0
LINE
  5
270
100
AcDbEntity
  8
MAIN0
  6
HIDDEN
 62
3
100
AcDbLine
 10
231.5983628405546
 20
536.7606693931848
 30
0.0000000000000000
 11
228.1983628405552
 21
534.7976784779389
 31
0.0000000000000000
  0
LINE
  5
271
100
AcDbEntity
  8
MAIN0
  6
HIDDEN
 62
3
100
AcDbLine
 10
228.1983628405549
 20
534.7976784779389
 30
0.0000000000000000
 11
224.7983628405542
 21
536.7606693931825
 31
0.0000000000000000
  0
CIRCLE
  5
272
100
AcDbEntity
  8
MAIN0
  6
CONTINUOUS
 62
3
100
AcDbCircle
 10
661.7983628409188
 20
397.2606693931837
 30
0.0000000000000000
 40
139.5000000000000
  0
LINE
  5
273
100
AcDbEntity
  8
MAIN0
  6
CONTINUOUS
 62
3
100
AcDbLine
 10
186.6983628409188
 20
264.7606693931830
 30
0.0000000000000000
 11
187.1983628409188
 21
264.7606693931837
 31
0.0000000000000000
  0
DIMENSION
  5
27C
100
AcDbEntity
  8
MAIN0
  6
CONTINUOUS
 62
3
100
AcDbDimension
  2
*D18
 10
165.6983628409189
 20
257.2606693931837
 30
0.0000000000000000
 11
176.1983628409189
 21
257.7606693931837
 31
0.0000000000000000
 70
32
  3
MAIN001
100
AcDbAlignedDimension
 13
186.6983628409189
 23
264.7606693931829
 33
0.0000000000000000
 14
165.6983628409189
 24
274.7606693931839
 34
0.0000000000000000
100
AcDbRotatedDimension
1001
ACAD
1000
DSTYLE
1002
{
1070
   173
1070
     1
1070
     6
1000
_OPEN
1070
     7
1000
_OPEN
1070
    41
1040
3.000000
1002
}
  0
LEADER
  5
27D
100
AcDbEntity
  8
MAIN0
  6
CONTINUOUS
 62
3
100
AcDbLeader
  3
MAIN001
 73
     0
 75
     1
 40
4.649999856948853
 41
28.72400085830691
 76
     3
 10
616.0340091962617
 20
251.4256064471018
 30
0.0000000000000000
 10
581.7983628409189
 20
227.2606693931837
 30
0.0000000000000000
 10
578.9083629246038
 20
227.2606693931837
 30
0.0000000000000000
340
27E
213
0.0000000000000000
223
-0.7500000000000000
233
0.0000000000000000
1001
ACAD
1000
DSTYLE
1002
{
1070
   147
1040
0.0
1070
    77
1070
     1
1070
   173
1070
     1
1070
     6
1000
_OPEN
1070
     7
1000
_OPEN
1002
}
  0
MTEXT
  5
27E
102
{ACAD_REACTORS
330
27D
102
}
100
AcDbEntity
  8
MAIN0
  6
CONTINUOUS
 62
3
100
AcDbMText
 10
550.1843620662969
 20
232.6606692501325
 30
0.0000000000000000
 40
4.649999856948853
 41
0.0000000000000000
 71
     1
 72
     1
  1
{\H0.92x;{2-Rc1/4}}
 11
1.000000000000000
 21
0.0000000000000000
 31
0.0000000000000000
  7
STANDARD
  0
LINE
  5
27F
100
AcDbEntity
  8
MAIN0
  6
CONTINUOUS
 62
3
100
AcDbLine
 10
186.6983628409188
 20
529.7606693931843
 30
0.0000000000000000
 11
187.1983628409188
 21
529.7606693931837
 31
0.0000000000000000
  0
LINE
  5
280
100
AcDbEntity
  8
MAIN0
  6
CONTINUOUS
 62
3
100
AcDbLine
 10
187.1983628409188
 20
548.1606693931838
 30
0.0000000000000000
 11
187.1983628409188
 21
529.7606693931837
 31
0.0000000000000000
  0
LINE
  5
281
100
AcDbEntity
  8
MAIN0
  6
CONTINUOUS
 62
3
100
AcDbLine
 10
187.7983628409187
 20
548.7606693931837
 30
0.0000000000000000
 11
187.1983628409188
 21
548.1606693931838
 31
0.0000000000000000
  0
ARC
  5
282
100
AcDbEntity
  8
MAIN0
  6
CONTINUOUS
 62
3
100
AcDbCircle
 10
661.7983628409188
 20
397.2606693931837
 30
0.0000000000000000
 40
126.5000000000000
100
AcDbArc
 50
339.0967911441929
 51
440.9032088558072
  0
ARC
  5
283
100
AcDbEntity
  8
MAIN0
  6
CONTINUOUS
 62
3
100
AcDbCircle
 10
661.7983628409188
 20
397.2606693931837
 30
0.0000000000000000
 40
126.5000000000000
100
AcDbArc
 50
99.09679114419286
 51
200.9032088558073
  0
ARC
  5
284
100
AcDbEntity
  8
MAIN0
  6
CONTINUOUS
 62
3
100
AcDbCircle
 10
661.7983628409188
 20
397.2606693931837
 30
0.0000000000000000
 40
126.5000000000000
100
AcDbArc
 50
219.0967911441930
 51
320.9032088558071
  0
LINE
  5
285
100
AcDbEntity
  8
MAIN0
  6
CONTINUOUS
 62
3
100
AcDbLine
 10
732.2666306772601
 20
502.3152896064123
 30
0.0000000000000000
 11
727.9095787733290
 21
494.7686543376698
 31
0.0000000000000000
  0
LINE
  5
286
100
AcDbEntity
  8
MAIN0
  6
CONTINUOUS
 62
3
100
AcDbLine
 10
717.5441988115977
 20
510.8152896071150
 30
0.0000000000000000
 11
713.1871469077585
 21
503.2686543383996
 31
0.0000000000000000
  0
ARC
  5
287
100
AcDbEntity
  8
MAIN0
  6
CONTINUOUS
 62
3
100
AcDbCircle
 10
603.0483628409193
 20
499.0186543378554
 30
0.0000000000000000
 40
8.500000000000000
100
AcDbArc
 50
212.0728526833328
 51
387.9271473166668
  0
LINE
  5
288
100
AcDbEntity
  8
MAIN0
  6
CONTINUOUS
 62
3
100
AcDbLine
 10
591.3300950039001
 20
502.3152896059575
 30
0.0000000000000000
 11
595.6871469077835
 21
494.7686543372677
 31
0.0000000000000000
  0
LINE
  5
289
100
AcDbEntity
  8
MAIN0
  6
CONTINUOUS
 62
3
100
AcDbLine
 10
606.0525268695075
 20
510.8152896067554
 30
0.0000000000000000
 11
610.4095787733686
 21
503.2686543379724
 31
0.0000000000000000
  0
ARC
  5
28A
100
AcDbEntity
  8
MAIN0
  6
CONTINUOUS
 62
3
100
AcDbCircle
 10
544.2983628409189
 20
397.2606693931841
 30
0.0000000000000000
 40
8.500000000000000
100
AcDbArc
 50
272.0728526833327
 51
447.9271473166667
  0
LINE
  5
28B
100
AcDbEntity
  8
MAIN0
  6
CONTINUOUS
 62
3
100
AcDbLine
 10
535.5842590332211
 20
388.7606693920265
 30
0.0000000000000000
 11
544.2983628409438
 21
388.7606693920520
 31
0.0000000000000000
  0
LINE
  5
28C
100
AcDbEntity
  8
MAIN0
  6
CONTINUOUS
 62
3
100
AcDbLine
 10
535.5842590331662
 20
405.7606693935268
 30
0.0000000000000000
 11
544.2983628409585
 21
405.7606693934864
 31
0.0000000000000000
  0
ARC
  5
28D
100
AcDbEntity
  8
MAIN0
  6
CONTINUOUS
 62
3
100
AcDbCircle
 10
603.0483628409183
 20
295.5026844485124
 30
0.0000000000000000
 40
8.500000000000000
100
AcDbArc
 50
332.0728526833327
 51
507.9271473166667
  0
LINE
  5
28E
100
AcDbEntity
  8
MAIN0
  6
CONTINUOUS
 62
3
100
AcDbLine
 10
606.0525268702397
 20
283.7060491792526
 30
0.0000000000000000
 11
610.4095787740789
 21
291.2526844479680
 31
0.0000000000000000
  0
LINE
  5
28F
100
AcDbEntity
  8
MAIN0
  6
CONTINUOUS
 62
3
100
AcDbLine
 10
591.3300950045777
 20
292.2060491799551
 30
0.0000000000000000
 11
595.6871469085088
 21
299.7526844486976
 31
0.0000000000000000
  0
ARC
  5
290
100
AcDbEntity
  8
MAIN0
  6
CONTINUOUS
 62
3
100
AcDbCircle
 10
720.5483628409183
 20
295.5026844485118
 30
0.0000000000000000
 40
8.500000000000000
100
AcDbArc
 50
32.07285268333258
 51
207.9271473166666
  0
LINE
  5
291
100
AcDbEntity
  8
MAIN0
  6
CONTINUOUS
 62
3
100
AcDbLine
 10
732.2666306779374
 20
292.2060491804095
 30
0.0000000000000000
 11
727.9095787740541
 21
299.7526844490993
 31
0.0000000000000000
  0
LINE
  5
292
100
AcDbEntity
  8
MAIN0
  6
CONTINUOUS
 62
3
100
AcDbLine
 10
717.5441988123305
 20
283.7060491796117
 30
0.0000000000000000
 11
713.1871469084695
 21
291.2526844483947
 31
0.0000000000000000
  0
ARC
  5
293
100
AcDbEntity
  8
MAIN0
  6
CONTINUOUS
 62
3
100
AcDbCircle
 10
779.2983628409188
 20
397.2606693931829
 30
0.0000000000000000
 40
8.500000000000000
100
AcDbArc
 50
92.07285268333251
 51
267.9271473166665
  0
LINE
  5
294
100
AcDbEntity
  8
MAIN0
  6
CONTINUOUS
 62
3
100
AcDbLine
 10
788.0124666486167
 20
405.7606693943404
 30
0.0000000000000000
 11
779.2983628408940
 21
405.7606693943149
 31
0.0000000000000000
  0
LINE
  5
295
100
AcDbEntity
  8
MAIN0
  6
CONTINUOUS
 62
3
100
AcDbLine
 10
788.0124666486720
 20
388.7606693928401
 30
0.0000000000000000
 11
779.2983628408799
 21
388.7606693928806
 31
0.0000000000000000
  0
LINE
  5
296
100
AcDbEntity
  8
MAIN0
  6
CENTER
 62
3
100
AcDbLine
 10
491.7983628409189
 20
397.2606693931834
 30
0.0000000000000000
 11
831.7983628409188
 21
397.2606693931834
 31
0.0000000000000000
  0
LINE
  5
297
100
AcDbEntity
  8
MAIN0
  6
CONTINUOUS
 62
3
100
AcDbLine
 10
187.7983628409187
 20
245.7606693931837
 30
0.0000000000000000
 11
205.6983628407151
 21
245.7606693931837
 31
0.0000000000000000
  0
LINE
  5
298
100
AcDbEntity
  8
MAIN0
  6
CONTINUOUS
 62
3
100
AcDbLine
 10
187.7983628409187
 20
548.7606693931837
 30
0.0000000000000000
 11
205.6983628407151
 21
548.7606693931837
 31
0.0000000000000000
  0
LINE
  5
299
100
AcDbEntity
  8
MAIN0
  6
CENTER
 62
3
100
AcDbLine
 10
533.5057259307179
 20
323.1908809377994
 30
0.0000000000000000
 11
669.2101158155667
 21
401.5398469682766
 31
0.0000000000000000
  0
ELLIPSE
  5
29A
100
AcDbEntity
  8
MAIN0
  6
CONTINUOUS
 62
3
100
AcDbEllipse
 10
661.7983628409520
 20
256.3869306826053
 30
0.0000000000000000
 11
0.0000000000000000
 21
-5.494954838488525
 31
0.0000000000000000
210
0.0000000000000000
220
0.0000000000000000
230
1.000000000000000
 40
0.5459461524300121
 41
4.706518180350063
 42
1.576667126829524
  0
LINE
  5
29B
100
AcDbEntity
  8
MAIN0
  6
CONTINUOUS
 62
3
100
AcDbLine
 10
664.7983628409188
 20
239.7606693931837
 30
0.0000000000000000
 11
664.7983628409188
 21
239.9020661670917
 31
0.0000000000000000
  0
LINE
  5
29C
100
AcDbEntity
  8
MAIN0
  6
CONTINUOUS
 62
3
100
AcDbLine
 10
658.7983628409188
 20
239.7606693931837
 30
0.0000000000000000
 11
658.7983628409188
 21
239.9020661670917
 31
0.0000000000000000
  0
LINE
  5
29D
100
AcDbEntity
  8
MAIN0
  6
CONTINUOUS
 62
3
100
AcDbLine
 10
205.6983628407152
 20
548.7606693931839
 30
0.0000000000000000
 11
207.0381088028672
 21
553.7606693931839
 31
0.0000000000000000
  0
LINE
  5
29E
100
AcDbEntity
  8
MAIN0
  6
CONTINUOUS
 62
3
100
AcDbLine
 10
207.0381088028672
 20
553.7606693931838
 30
0.0000000000000000
 11
211.8983628409209
 21
553.7606693931838
 31
0.0000000000000000
  0
LINE
  5
29F
100
AcDbEntity
  8
MAIN0
  6
CONTINUOUS
 62
3
100
AcDbLine
 10
211.8983628409185
 20
426.7143555523571
 30
0.0000000000000000
 11
211.8983628409209
 21
553.7606693931837
 31
0.0000000000000000
  0
LINE
  5
2A0
100
AcDbEntity
  8
MAIN0
  6
CONTINUOUS
 62
3
100
AcDbLine
 10
212.8983628409209
 20
552.2606693931837
 30
0.0000000000000000
 11
211.8983628409209
 21
552.2606693931837
 31
0.0000000000000000
  0
LINE
  5
2A1
100
AcDbEntity
  8
MAIN0
  6
CONTINUOUS
 62
3
100
AcDbLine
 10
212.8983628409196
 20
426.4263826586002
 30
0.0000000000000000
 11
212.8983628409184
 21
553.7606693931837
 31
0.0000000000000000
  0
LINE
  5
2A2
100
AcDbEntity
  8
MAIN0
  6
CONTINUOUS
 62
3
100
AcDbLine
 10
243.4983628409187
 20
553.7606693931837
 30
0.0000000000000000
 11
212.8983628409184
 21
553.7606693931837
 31
0.0000000000000000
  0
LINE
  5
2A3
100
AcDbEntity
  8
MAIN0
  6
CONTINUOUS
 62
3
100
AcDbLine
 10
243.4983628408725
 20
426.7468174913051
 30
0.0000000000000000
 11
243.4983628408725
 21
554.7606693931837
 31
0.0000000000000000
  0
LINE
  5
2A4
100
AcDbEntity
  8
MAIN0
  6
CONTINUOUS
 62
3
100
AcDbLine
 10
243.4983628409187
 20
554.7606693931837
 30
0.0000000000000000
 11
252.4468986240226
 21
554.7606693931838
 31
0.0000000000000000
  0
LINE
  5
2A5
100
AcDbEntity
  8
MAIN0
  6
CONTINUOUS
 62
3
100
AcDbLine
 10
258.9983628409190
 20
536.7606693931861
 30
0.0000000000000000
 11
252.4468986240226
 21
554.7606693931837
 31
0.0000000000000000
  0
DIMENSION
  5
2AE
100
AcDbEntity
  8
MAIN0
  6
CONTINUOUS
 62
3
100
AcDbDimension
  2
*D19
 10
86.79836284091886
 20
554.7606693931837
 30
0.0000000000000000
 11
86.29836284091886
 21
397.2606693931837
 31
0.0000000000000000
 70
32
  1
\A1;\U+2205315
  3
MAIN001
100
AcDbAlignedDimension
 13
243.4983628409187
 23
239.7606693931837
 33
0.0000000000000000
 14
243.4983628409187
 24
554.7606693931837
 34
0.0000000000000000
 50
90.00000000000000
100
AcDbRotatedDimension
1001
ACAD
1000
DSTYLE
1002
{
1070
   173
1070
     1
1070
     6
1000
_OPEN
1070
     7
1000
_OPEN
1070
    41
1040
3.000000
1002
}
  0
DIMENSION
  5
2B7
100
AcDbEntity
  8
MAIN0
  6
CONTINUOUS
 62
3
100
AcDbDimension
  2
*D20
 10
106.7983628409189
 20
548.7606693931837
 30
0.0000000000000000
 11
106.2983628409189
 21
397.2606693931837
 31
0.0000000000000000
 70
32
  1
\A1;\U+2205303
  3
MAIN001
100
AcDbAlignedDimension
 13
187.7983628409187
 23
245.7606693931837
 33
0.0000000000000000
 14
187.7983628409187
 24
548.7606693931837
 34
0.0000000000000000
 50
90.00000000000000
100
AcDbRotatedDimension
1001
ACAD
1000
DSTYLE
1002
{
1070
   173
1070
     1
1070
     6
1000
_OPEN
1070
     7
1000
_OPEN
1070
    41
1040
3.000000
1002
}
  0
LINE
  5
2B8
100
AcDbEntity
  8
MAIN0
  6
CONTINUOUS
 62
3
100
AcDbLine
 10
212.8983628409184
 20
240.7606693931836
 30
0.0000000000000000
 11
212.8983628409196
 21
368.0949561277671
 31
0.0000000000000000
  0
LINE
  5
2B9
100
AcDbEntity
  8
MAIN0
  6
CONTINUOUS
 62
3
100
AcDbLine
 10
658.7983628409188
 20
256.3869306826053
 30
0.0000000000000000
 11
658.7983628409188
 21
257.7929311882497
 31
0.0000000000000000
  0
LINE
  5
2BA
100
AcDbEntity
  8
MAIN0
  6
CONTINUOUS
 62
3
100
AcDbLine
 10
664.7983628409188
 20
256.3869306826053
 30
0.0000000000000000
 11
664.7983628409188
 21
257.7929311882497
 31
0.0000000000000000
  0
ELLIPSE
  5
2BB
100
AcDbEntity
  8
MAIN0
  6
CONTINUOUS
 62
3
100
AcDbEllipse
 10
661.7983628409520
 20
239.9020661670917
 30
0.0000000000000000
 11
0.0000000000000000
 21
5.494954838488525
 31
0.0000000000000000
210
0.0000000000000000
220
0.0000000000000000
230
1.000000000000000
 40
0.5459461524300121
 41
4.706518180350063
 42
1.576667126829524
  0
CIRCLE
  5
2BC
100
AcDbEntity
  8
MAIN0
  6
HIDDEN
 62
3
100
AcDbCircle
 10
661.7983628409188
 20
397.2606693931837
 30
0.0000000000000000
 40
156.5000000000000
  0
CIRCLE
  5
2BD
100
AcDbEntity
  8
MAIN0
  6
CONTINUOUS
 62
3
100
AcDbCircle
 10
661.7983628409188
 20
397.2606693931837
 30
0.0000000000000000
 40
157.5000000000000
  0
SPLINE
  5
2BE
100
AcDbEntity
  8
MAIN0
  6
CONTINUOUS
 62
3
100
AcDbSpline
210
0.0000000000000000
220
0.0000000000000000
230
1.000000000000000
 70
     8
 71
     3
 72
    13
 73
     9
 74
     0
 42
1.000000000000000e-007
 43
1.000000000000000e-007
 12
1.082864652030459
 22
0.3602102886329277
 32
0.0000000000000000
 13
0.8680384724191086
 23
-0.5715251790565290
 33
0.0000000000000000
 40
0.0000000000000000
 40
0.0000000000000000
 40
0.0000000000000000
 40
0.0000000000000000
 40
15.83852009183069
 40
55.24201416055117
 40
77.39348908264276
 40
105.8933378244316
 40
145.7489217347900
 40
168.1341087312433
 40
168.1341087312433
 40
168.1341087312433
 40
168.1341087312433
 10
186.6983628409189
 20
311.9113802090751
 30
0.0000000000000000
 10
192.4153540235581
 20
313.8131128403407
 30
0.0000000000000000
 10
212.3552288373670
 20
320.4460267954861
 30
0.0000000000000000
 10
186.5889068571722
 20
358.7367238511656
 30
0.0000000000000000
 10
221.8841764068342
 20
372.6517968081232
 30
0.0000000000000000
 10
250.1057166263977
 20
363.6974276578673
 30
0.0000000000000000
 10
282.3121670991343
 20
376.3715259894721
 30
0.0000000000000000
 10
300.3212949991797
 20
364.5141367437612
 30
0.0000000000000000
 10
306.7983628409189
 20
360.2495707416406
 30
0.0000000000000000
  0
SPLINE
  5
2BF
100
AcDbEntity
  8
MAIN0
  6
CONTINUOUS
 62
3
100
AcDbSpline
210
0.0000000000000000
220
0.0000000000000000
230
1.000000000000000
 70
     8
 71
     3
 72
    13
 73
     9
 74
     0
 42
1.000000000000000e-007
 43
1.000000000000000e-007
 12
1.082864652030459
 22
-0.3602102886329277
 32
0.0000000000000000
 13
0.8680384724191086
 23
0.5715251790565290
 33
0.0000000000000000
 40
0.0000000000000000
 40
0.0000000000000000
 40
0.0000000000000000
 40
0.0000000000000000
 40
15.83852009183069
 40
55.24201416055117
 40
77.39348908264276
 40
105.8933378244316
 40
145.7489217347900
 40
168.1341087312433
 40
168.1341087312433
 40
168.1341087312433
 40
168.1341087312433
 10
186.6983628409189
 20
482.6099585772922
 30
0.0000000000000000
 10
192.4153540235581
 20
480.7082259460266
 30
0.0000000000000000
 10
212.3552288373670
 20
474.0753119908812
 30
0.0000000000000000
 10
186.5889068571722
 20
435.7846149352018
 30
0.0000000000000000
 10
221.8841764068342
 20
421.8695419782442
 30
0.0000000000000000
 10
250.1057166263977
 20
430.8239111285001
 30
0.0000000000000000
 10
282.3121670991343
 20
418.1498127968953
 30
0.0000000000000000
 10
300.3212949991797
 20
430.0072020426061
 30
0.0000000000000000
 10
306.7983628409189
 20
434.2717680447267
 30
0.0000000000000000
  0
LINE
  5
2C0
100
AcDbEntity
  8
MAIN0
  6
CONTINUOUS
 62
3
100
AcDbLine
 10
258.9983628409199
 20
257.7606693931837
 30
0.0000000000000000
 11
258.9983629798503
 21
368.7793281925914
 31
0.0000000000000000
  0
LINE
  5
2C1
100
AcDbEntity
  8
MAIN0
  6
CONTINUOUS
 62
3
100
AcDbLine
 10
205.6983628407152
 20
245.7606693931834
 30
0.0000000000000000
 11
205.6983821286994
 21
365.2006162740572
 31
0.0000000000000000
  0
LINE
  5
2C2
100
AcDbEntity
  8
MAIN0
  6
CONTINUOUS
 62
3
100
AcDbLine
 10
205.6983628407152
 20
548.7606693931837
 30
0.0000000000000000
 11
205.6983821286994
 21
429.3207225123101
 31
0.0000000000000000
  0
LINE
  5
2C3
100
AcDbEntity
  8
MAIN0
  6
CONTINUOUS
 62
3
100
AcDbLine
 10
258.9983628409198
 20
536.7606693931837
 30
0.0000000000000000
 11
258.9983629798502
 21
425.7420105937759
 31
0.0000000000000000
  0
LINE
  5
2C4
100
AcDbEntity
  8
MAIN0
  6
CONTINUOUS
 62
3
100
AcDbLine
 10
306.7983628409189
 20
328.1606693931838
 30
0.0000000000000000
 11
306.7983628409189
 21
463.2606693931837
 31
0.0000000000000000
  0
DIMENSION
  5
2CD
100
AcDbEntity
  8
MAIN0
  6
CONTINUOUS
 62
3
100
AcDbDimension
  2
*D21
 10
186.6983628409189
 20
217.2606693931837
 30
0.0000000000000000
 11
207.4483628409193
 21
217.7606693931837
 31
0.0000000000000000
 70
32
  3
MAIN001
100
AcDbAlignedDimension
 13
228.1983628409198
 23
232.4465939642081
 33
0.0000000000000000
 14
186.6983628409189
 24
264.7606693931829
 34
0.0000000000000000
100
AcDbRotatedDimension
1001
ACAD
1000
DSTYLE
1002
{
1070
   173
1070
     1
1070
     6
1000
_OPEN
1070
     7
1000
_OPEN
1070
    41
1040
3.000000
1002
}
  0
DIMENSION
  5
2D6
100
AcDbEntity
  8
MAIN0
  6
CONTINUOUS
 62
3
100
AcDbDimension
  2
*D22
 10
186.6983628409189
 20
577.2606693931837
 30
0.0000000000000000
 11
207.4483628409193
 21
577.7606693931837
 31
0.0000000000000000
 70
32
  3
MAIN001
100
AcDbAlignedDimension
 13
228.1983628409198
 23
559.4668623271300
 33
0.0000000000000000
 14
186.6983628409189
 24
529.7606693931843
 34
0.0000000000000000
100
AcDbRotatedDimension
1001
ACAD
1000
DSTYLE
1002
{
1070
   173
1070
     1
1070
     6
1000
_OPEN
1070
     7
1000
_OPEN
1070
    41
1040
3.000000
1002
}
  0
DIMENSION
  5
2DF
100
AcDbEntity
  8
MAIN0
  6
CONTINUOUS
 62
3
100
AcDbDimension
  2
*D23
 10
186.6983628409189
 20
597.2606693931837
 30
0.0000000000000000
 11
246.6983628409189
 21
597.7606693931837
 31
0.0000000000000000
 70
32
  3
MAIN001
100
AcDbAlignedDimension
 13
306.6983628409189
 23
521.7606693931834
 33
0.0000000000000000
 14
186.6983628409189
 24
529.7606693931843
 34
0.0000000000000000
100
AcDbRotatedDimension
1001
ACAD
1000
DSTYLE
1002
{
1070
   173
1070
     1
1070
     6
1000
_OPEN
1070
     7
1000
_OPEN
1070
    41
1040
3.000000
1002
}
  0
MTEXT
  5
2E0
100
AcDbEntity
  8
MAIN0
  6
CONTINUOUS
 62
3
100
AcDbMText
 10
736.0891772256243
 20
445.8881402075695
 30
0.0000000000000000
 40
7.500000000000000
 41
0.0000000000000000
 71
     1
 72
     1
  1
{\H0.63x;{KITAGAWA}}
 11
-0.7071067811850446
 21
0.7071067811880505
 31
0.0000000000000000
  7
STANDARD
  0
MTEXT
  5
2E1
100
AcDbEntity
  8
MAIN0
  6
CONTINUOUS
 62
3
100
AcDbMText
 10
741.1065493119435
 20
457.4895403770402
 30
0.0000000000000000
 40
6.000000000000000
 41
0.0000000000000000
 71
     1
 72
     1
  1
{\H0.92x;{NRC10}}
 11
-0.7071067811850446
 21
0.7071067811880505
 31
0.0000000000000000
  7
STANDARD
  0
LINE
  5
2E2
100
AcDbEntity
  8
MAIN0
  6
CENTER
 62
3
100
AcDbLine
 10
721.5171398833711
 20
456.9794464352870
 30
0.0000000000000000
 11
749.6992572709432
 21
485.1615638228070
 31
0.0000000000000000
  0
INSERT
  5
2EA
100
AcDbEntity
  8
MAIN0
  6
CONTINUOUS
 62
3
100
AcDbBlockReference
  2
D24
 10
333.3297164485951
 20
397.2606693931837
 30
0.0000000000000000
 50
0.0000000000000000
  0
MTEXT
  5
2EB
100
AcDbEntity
  8
MAIN0
  6
CONTINUOUS
 62
3
100
AcDbMText
 10
107.9346467737854
 20
100.5420620794656
 30
0.0000000000000000
 40
7.500000000000000
 41
0.0000000000000000
 71
     1
 72
     1
  1
{\H0.93x;{  Ｃより見る\PVIEW FROM C}}
 11
1.000000000000000
 21
0.0000000000000000
 31
0.0000000000000000
  7
KNJYOKO
  0
MTEXT
  5
2EC
100
AcDbEntity
  8
MAIN0
  6
CONTINUOUS
 62
3
100
AcDbMText
 10
294.1508251749447
 20
179.4558801749886
 30
0.0000000000000000
 40
4.649999856948853
 41
0.0000000000000000
 71
     1
 72
     1
  1
{\H0.92x;{   15}}
 11
1.000000000000000
 21
0.0000000000000000
 31
0.0000000000000000
  7
STANDARD
  0
MTEXT
  5
2ED
100
AcDbEntity
  8
MAIN0
  6
CONTINUOUS
 62
3
100
AcDbMText
 10
293.2534974288365
 20
169.1353593520902
 30
0.0000000000000000
 40
4.649999856948853
 41
0.0000000000000000
 71
     1
 72
     1
  1
{\H0.92x;{    6.3}}
 11
1.000000000000000
 21
0.0000000000000000
 31
0.0000000000000000
  7
STANDARD
  0
MTEXT
  5
2EE
100
AcDbEntity
  8
MAIN0
  6
CONTINUOUS
 62
3
100
AcDbMText
 10
294.0684712630089
 20
159.5758297238246
 30
0.0000000000000000
 40
4.649999856948853
 41
0.0000000000000000
 71
     1
 72
     1
  1
{\H0.92x;{   48}}
 11
1.000000000000000
 21
0.0000000000000000
 31
0.0000000000000000
  7
STANDARD
  0
MTEXT
  5
2EF
100
AcDbEntity
  8
MAIN0
  6
CONTINUOUS
 62
3
100
AcDbMText
 10
220.1082858512834
 20
161.7489739206787
 30
0.0000000000000000
 40
4.649999856948853
 41
0.0000000000000000
 71
     1
 72
     1
  1
{\H0.93x;{静的把握力}}
 11
1.000000000000000
 21
0.0000000000000000
 31
0.0000000000000000
  7
KNJYOKO
  0
MTEXT
  5
2F0
100
AcDbEntity
  8
MAIN0
  6
CONTINUOUS
 62
3
100
AcDbMText
 10
220.1082858512834
 20
151.3890418521167
 30
0.0000000000000000
 40
4.649999856948853
 41
0.0000000000000000
 71
     1
 72
     1
  1
{\H0.93x;{最高使用エア圧力}}
 11
1.000000000000000
 21
0.0000000000000000
 31
0.0000000000000000
  7
KNJYOKO
  0
MTEXT
  5
2F1
100
AcDbEntity
  8
MAIN0
  6
CONTINUOUS
 62
3
100
AcDbMText
 10
218.5631155346045
 20
140.8813912791649
 30
0.0000000000000000
 40
4.649999856948853
 41
0.0000000000000000
 71
     1
 72
     1
  1
{\H0.94x;{質量（標準ソフトジョー付）}}
 11
1.000000000000000
 21
0.0000000000000000
 31
0.0000000000000000
  7
KNJYOKO
  0
MTEXT
  5
2F2
100
AcDbEntity
  8
MAIN0
  6
CONTINUOUS
 62
3
100
AcDbMText
 10
293.6124285272797
 20
138.7121129041710
 30
0.0000000000000000
 40
4.649999856948853
 41
0.0000000000000000
 71
     1
 72
     1
  1
{\H0.87x;{   42.5}}
 11
1.000000000000000
 21
0.0000000000000000
 31
0.0000000000000000
  7
STANDARD
  0
MTEXT
  5
2F3
100
AcDbEntity
  8
MAIN0
  6
CONTINUOUS
 62
3
100
AcDbMText
 10
218.5631155345716
 20
130.3813912791649
 30
0.0000000000000000
 40
4.649999856948853
 41
0.0000000000000000
 71
     1
 72
     1
  1
{\H0.93x;{使用最高回転速度}}
 11
1.000000000000000
 21
0.0000000000000000
 31
0.0000000000000000
  7
KNJYOKO
  0
MTEXT
  5
2F4
100
AcDbEntity
  8
MAIN0
  6
CONTINUOUS
 62
3
100
AcDbMText
 10
293.6124285272791
 20
124.9667277207229
 30
0.0000000000000000
 40
4.649999856948853
 41
0.0000000000000000
 71
     7
 72
     1
  1
{  53 min}
 11
1.000000000000000
 21
0.0000000000000000
 31
0.0000000000000000
  7
STANDARD
  0
MTEXT
  5
2F5
100
AcDbEntity
  8
MAIN0
  6
CONTINUOUS
 62
3
100
AcDbMText
 10
326.9024295024111
 20
127.2917276491974
 30
0.0000000000000000
 40
2.324999928474426
 41
0.0000000000000000
 71
     7
 72
     1
  1
{-1}
 11
1.000000000000000
 21
0.0000000000000000
 31
0.0000000000000000
  7
STANDARD
  0
LINE
  5
2F6
100
AcDbEntity
  8
MAIN0
  6
CONTINUOUS
 62
3
100
AcDbLine
 10
218.1124285272799
 20
120.5621130470217
 30
0.0000000000000000
 11
335.8708885248097
 21
120.5621130472032
 31
0.0000000000000000
  0
LINE
  5
2F7
100
AcDbEntity
  8
MAIN0
  6
CONTINUOUS
 62
3
100
AcDbLine
 10
218.1124285272800
 20
131.0621130469135
 30
0.0000000000000000
 11
335.8708885248060
 21
131.0621130468531
 31
0.0000000000000000
  0
LINE
  5
2F8
100
AcDbEntity
  8
MAIN0
  6
CONTINUOUS
 62
3
100
AcDbLine
 10
218.1124285272797
 20
141.5621391626227
 30
0.0000000000000000
 11
335.8708885248020
 21
141.5621391626227
 31
0.0000000000000000
  0
LINE
  5
2F9
100
AcDbEntity
  8
MAIN0
  6
CONTINUOUS
 62
3
100
AcDbLine
 10
218.1124285272797
 20
152.0621391626227
 30
0.0000000000000000
 11
335.8708885247982
 21
152.0621391626227
 31
0.0000000000000000
  0
MTEXT
  5
2FA
100
AcDbEntity
  8
MAIN0
  6
CONTINUOUS
 62
3
100
AcDbMText
 10
303.6398068417878
 20
151.1328279648976
 30
0.0000000000000000
 40
4.649999856948853
 41
0.0000000000000000
 71
     1
 72
     1
  1
{\H0.92x;{0.7MPa\P}
 11
1.000000000000000
 21
0.0000000000000000
 31
0.0000000000000000
  7
STANDARD
  0
MTEXT
  5
2FB
100
AcDbEntity
  8
MAIN0
  6
CONTINUOUS
 62
3
100
AcDbMText
 10
325.6124285272798
 20
138.2621119028130
 30
0.0000000000000000
 40
4.199998855590820
 41
0.0000000000000000
 71
     1
 72
     1
  1
{\H0.67x;{Kg}}
 11
1.000000000000000
 21
0.0000000000000000
 31
0.0000000000000000
  7
STANDARD
  0
LINE
  5
2FC
100
AcDbEntity
  8
MAIN0
  6
CONTINUOUS
 62
3
100
AcDbLine
 10
269.7982273315781
 20
110.0621130471027
 30
0.0000000000000000
 11
335.8708885248138
 21
110.0621130472031
 31
0.0000000000000000
  0
LINE
  5
2FD
100
AcDbEntity
  8
MAIN0
  6
CONTINUOUS
 62
3
100
AcDbLine
 10
218.1124285273127
 20
99.56211304702168
 30
0.0000000000000000
 11
335.8708885248175
 21
99.56211304720318
 31
0.0000000000000000
  0
LINE
  5
2FE
100
AcDbEntity
  8
MAIN0
  6
CONTINUOUS
 62
3
100
AcDbLine
 10
218.1124285273291
 20
89.06211304702168
 30
0.0000000000000000
 11
335.8708885248214
 21
89.06211304720318
 31
0.0000000000000000
  0
MTEXT
  5
2FF
100
AcDbEntity
  8
MAIN0
  6
CONTINUOUS
 62
3
100
AcDbMText
 10
219.8732868310753
 20
112.7121129041691
 30
0.0000000000000000
 40
4.649999856948853
 41
0.0000000000000000
 71
     1
 72
     1
  1
{\H0.91x;{把握径}}
 11
1.000000000000000
 21
0.0000000000000000
 31
0.0000000000000000
  7
KNJYOKO
  0
MTEXT
  5
300
100
AcDbEntity
  8
MAIN0
  6
CONTINUOUS
 62
3
100
AcDbMText
 10
273.7286263481184
 20
119.6624693662898
 30
0.0000000000000000
 40
4.649999856948853
 41
0.0000000000000000
 71
     1
 72
     1
  1
{\H0.89x;{最大}}
 11
1.000000000000000
 21
0.0000000000000000
 31
0.0000000000000000
  7
KNJYOKO
  0
MTEXT
  5
301
100
AcDbEntity
  8
MAIN0
  6
CONTINUOUS
 62
3
100
AcDbMText
 10
273.7286263481184
 20
109.1624693662897
 30
0.0000000000000000
 40
4.649999856948853
 41
0.0000000000000000
 71
     1
 72
     1
  1
{\H0.89x;{最小}}
 11
1.000000000000000
 21
0.0000000000000000
 31
0.0000000000000000
  7
KNJYOKO
  0
MTEXT
  5
302
100
AcDbEntity
  8
MAIN0
  6
CONTINUOUS
 62
3
100
AcDbMText
 10
325.8170578339381
 20
115.9683408743912
 30
0.0000000000000000
 40
4.199998855590820
 41
0.0000000000000000
 71
     1
 72
     1
  1
{\H0.67x;{mm}}
 11
1.000000000000000
 21
0.0000000000000000
 31
0.0000000000000000
  7
STANDARD
  0
MTEXT
  5
303
100
AcDbEntity
  8
MAIN0
  6
CONTINUOUS
 62
3
100
AcDbMText
 10
325.8170578339546
 20
105.4683408743912
 30
0.0000000000000000
 40
4.199998855590820
 41
0.0000000000000000
 71
     1
 72
     1
  1
{\H0.67x;{mm}}
 11
1.000000000000000
 21
0.0000000000000000
 31
0.0000000000000000
  7
STANDARD
  0
MTEXT
  5
304
100
AcDbEntity
  8
MAIN0
  6
CONTINUOUS
 62
3
100
AcDbMText
 10
306.0759700704753
 20
117.3156696218575
 30
0.0000000000000000
 40
4.649999856948853
 41
0.0000000000000000
 71
     1
 72
     1
  1
{\H0.90x;{254}}
 11
1.000000000000000
 21
0.0000000000000000
 31
0.0000000000000000
  7
STANDARD
  0
MTEXT
  5
305
100
AcDbEntity
  8
MAIN0
  6
CONTINUOUS
 62
3
100
AcDbMText
 10
310.3831159960353
 20
106.9067222785212
 30
0.0000000000000000
 40
4.649999856948853
 41
0.0000000000000000
 71
     1
 72
     1
  1
{\H0.88x;{50}}
 11
1.000000000000000
 21
0.0000000000000000
 31
0.0000000000000000
  7
STANDARD
  0
MTEXT
  5
306
100
AcDbEntity
  8
MAIN0
  6
CONTINUOUS
 62
3
100
AcDbMText
 10
218.5631155345388
 20
98.88136516356389
 30
0.0000000000000000
 40
4.649999856948853
 41
0.0000000000000000
 71
     1
 72
     1
  1
{\H0.93x;{回転抵抗トルク}}
 11
1.000000000000000
 21
0.0000000000000000
 31
0.0000000000000000
  7
KNJYOKO
  0
MTEXT
  5
307
100
AcDbEntity
  8
MAIN0
  6
CONTINUOUS
 62
3
100
AcDbMText
 10
326.0008766927730
 20
95.24615828213143
 30
0.0000000000000000
 40
4.199998855590820
 41
0.0000000000000000
 71
     1
 72
     1
  1
{\H0.67x;{Nm}}
 11
1.000000000000000
 21
0.0000000000000000
 31
0.0000000000000000
  7
STANDARD
  0
MTEXT
  5
308
100
AcDbEntity
  8
MAIN0
  6
CONTINUOUS
 62
3
100
AcDbMText
 10
310.4388366314183
 20
96.26423485418843
 30
0.0000000000000000
 40
4.649999856948853
 41
0.0000000000000000
 71
     1
 72
     1
  1
{\H0.88x;{10}}
 11
1.000000000000000
 21
0.0000000000000000
 31
0.0000000000000000
  7
STANDARD
  0
MTEXT
  5
309
100
AcDbEntity
  8
MAIN0
  6
CONTINUOUS
 62
3
100
AcDbMText
 10
218.5631155346041
 20
182.8814435104749
 30
0.0000000000000000
 40
4.649999856948853
 41
0.0000000000000000
 71
     1
 72
     1
  1
{\H0.94x;{プランジャストロ－ク}}
 11
1.000000000000000
 21
0.0000000000000000
 31
0.0000000000000000
  7
KNJYOKO
  0
MTEXT
  5
30A
100
AcDbEntity
  8
MAIN0
  6
CONTINUOUS
 62
3
100
AcDbMText
 10
218.5631155346038
 20
172.3814435105058
 30
0.0000000000000000
 40
4.649999856948853
 41
0.0000000000000000
 71
     1
 72
     1
  1
{\H0.93x;{ジョ－ストロ－ク}}
 11
1.000000000000000
 21
0.0000000000000000
 31
0.0000000000000000
  7
KNJYOKO
  0
MTEXT
  5
30B
100
AcDbEntity
  8
MAIN0
  6
CONTINUOUS
 62
3
100
AcDbMText
 10
218.5631155346041
 20
176.9814436535260
 30
0.0000000000000000
 40
3.750000000000000
 41
0.0000000000000000
 71
     1
 72
     1
  1
{\H0.63x;{Plunger stroke}}
 11
1.000000000000000
 21
0.0000000000000000
 31
0.0000000000000000
  7
STANDARD
  0
MTEXT
  5
30C
100
AcDbEntity
  8
MAIN0
  6
CONTINUOUS
 62
3
100
AcDbMText
 10
218.5631155346038
 20
166.4814436535569
 30
0.0000000000000000
 40
3.750000000000000
 41
0.0000000000000000
 71
     1
 72
     1
  1
{\H0.63x;{Jaw stroke}}
 11
1.000000000000000
 21
0.0000000000000000
 31
0.0000000000000000
  7
STANDARD
  0
MTEXT
  5
30D
100
AcDbEntity
  8
MAIN0
  6
CONTINUOUS
 62
3
100
AcDbMText
 10
220.0109799467479
 20
107.7634805876091
 30
0.0000000000000000
 40
3.750000000000000
 41
0.0000000000000000
 71
     1
 72
     1
  1
{\H0.63x;{Gripping diameter}}
 11
1.000000000000000
 21
0.0000000000000000
 31
0.0000000000000000
  7
STANDARD
  0
MTEXT
  5
30E
100
AcDbEntity
  8
MAIN0
  6
CONTINUOUS
 62
3
100
AcDbMText
 10
274.6995314163987
 20
113.9648252312390
 30
0.0000000000000000
 40
3.000000000000000
 41
0.0000000000000000
 71
     1
 72
     1
  1
{\H0.81x;{Max.}}
 11
1.000000000000000
 21
0.0000000000000000
 31
0.0000000000000000
  7
STANDARD
  0
MTEXT
  5
30F
100
AcDbEntity
  8
MAIN0
  6
CONTINUOUS
 62
3
100
AcDbMText
 10
274.4930071469198
 20
103.3288841628597
 30
0.0000000000000000
 40
3.000000000000000
 41
0.0000000000000000
 71
     1
 72
     1
  1
{\H0.81x;{Min.}}
 11
1.000000000000000
 21
0.0000000000000000
 31
0.0000000000000000
  7
STANDARD
  0
MTEXT
  5
310
100
AcDbEntity
  8
MAIN0
  6
CONTINUOUS
 62
3
100
AcDbMText
 10
218.5631155345716
 20
124.4813914222160
 30
0.0000000000000000
 40
3.750000000000000
 41
0.0000000000000000
 71
     1
 72
     1
  1
{\H0.63x;{MAX Permissible speed}}
 11
1.000000000000000
 21
0.0000000000000000
 31
0.0000000000000000
  7
STANDARD
  0
MTEXT
  5
311
100
AcDbEntity
  8
MAIN0
  6
CONTINUOUS
 62
3
100
AcDbMText
 10
218.5631155346043
 20
145.4814175378479
 30
0.0000000000000000
 40
3.750000000000000
 41
0.0000000000000000
 71
     1
 72
     1
  1
{\H0.63x;{MAX Permissible air press}}
 11
1.000000000000000
 21
0.0000000000000000
 31
0.0000000000000000
  7
STANDARD
  0
MTEXT
  5
312
100
AcDbEntity
  8
MAIN0
  6
CONTINUOUS
 62
3
100
AcDbMText
 10
218.5631155345388
 20
92.98136530661503
 30
0.0000000000000000
 40
3.750000000000000
 41
0.0000000000000000
 71
     1
 72
     1
  1
{\H0.63x;{MAX Rotation resistance torque}}
 11
1.000000000000000
 21
0.0000000000000000
 31
0.0000000000000000
  7
STANDARD
  0
MTEXT
  5
313
100
AcDbEntity
  8
MAIN0
  6
CONTINUOUS
 62
3
100
AcDbMText
 10
218.5631155346045
 20
134.9813914222160
 30
0.0000000000000000
 40
3.750000000000000
 41
0.0000000000000000
 71
     1
 72
     1
  1
{\H0.63x;{Mass(with standard soft jaw)}}
 11
1.000000000000000
 21
0.0000000000000000
 31
0.0000000000000000
  7
STANDARD
  0
MTEXT
  5
314
100
AcDbEntity
  8
MAIN0
  6
CONTINUOUS
 62
3
100
AcDbMText
 10
251.3220516014455
 20
157.8353095720444
 30
0.0000000000000000
 40
3.000000000000000
 41
0.0000000000000000
 71
     7
 72
     1
  1
{[エア圧 0.6MPa(6.0Kgf/cm}
 11
1.000000000000000
 21
0.0000000000000000
 31
0.0000000000000000
  7
KNJYOKO
  0
MTEXT
  5
315
100
AcDbEntity
  8
MAIN0
  6
CONTINUOUS
 62
3
100
AcDbMText
 10
290.0220531168936
 20
159.3353095720444
 30
0.0000000000000000
 40
1.500000000000000
 41
0.0000000000000000
 71
     7
 72
     1
  1
{2}
 11
1.000000000000000
 21
0.0000000000000000
 31
0.0000000000000000
  7
STANDARD
  0
MTEXT
  5
316
100
AcDbEntity
  8
MAIN0
  6
CONTINUOUS
 62
3
100
AcDbMText
 10
290.9220531526564
 20
157.8353095720444
 30
0.0000000000000000
 40
3.000000000000000
 41
0.0000000000000000
 71
     7
 72
     1
  1
{)]}
 11
1.000000000000000
 21
0.0000000000000000
 31
0.0000000000000000
  7
STANDARD
  0
MTEXT
  5
317
100
AcDbEntity
  8
MAIN0
  6
CONTINUOUS
 62
3
100
AcDbMText
 10
218.5631155346045
 20
155.9814175378170
 30
0.0000000000000000
 40
3.750000000000000
 41
0.0000000000000000
 71
     1
 72
     1
  1
{\H0.62x;{Static gripping force(AIR 0.6MPa)}}
 11
1.000000000000000
 21
0.0000000000000000
 31
0.0000000000000000
  7
STANDARD
  0
LINE
  5
318
100
AcDbEntity
  8
MAIN0
  6
CONTINUOUS
 62
3
100
AcDbLine
 10
294.4623356388892
 20
89.06211304713935
 30
0.0000000000000000
 11
294.4623356388892
 21
183.5621391625915
 31
0.0000000000000000
  0
LINE
  5
319
100
AcDbEntity
  8
MAIN0
  6
CONTINUOUS
 62
3
100
AcDbLine
 10
335.8708885248214
 20
89.06211304720324
 30
0.0000000000000000
 11
335.8708885247826
 21
194.0621391625915
 31
0.0000000000000000
  0
MTEXT
  5
31A
100
AcDbEntity
  8
MAIN0
  6
CONTINUOUS
 62
3
100
AcDbMText
 10
304.6757052685931
 20
142.5982053027647
 30
0.0000000000000000
 40
3.750000000000000
 41
0.0000000000000000
 71
     7
 72
     1
  1
{(7.0Kgf/cm}
 11
1.000000000000000
 21
0.0000000000000000
 31
0.0000000000000000
  7
STANDARD
  0
MTEXT
  5
31B
100
AcDbEntity
  8
MAIN0
  6
CONTINUOUS
 62
3
100
AcDbMText
 10
327.1757052685931
 20
144.4732053027647
 30
0.0000000000000000
 40
1.875000000000000
 41
0.0000000000000000
 71
     7
 72
     1
  1
{2}
 11
1.000000000000000
 21
0.0000000000000000
 31
0.0000000000000000
  7
STANDARD
  0
MTEXT
  5
31C
100
AcDbEntity
  8
MAIN0
  6
CONTINUOUS
 62
3
100
AcDbMText
 10
328.3007052685931
 20
142.5982053027647
 30
0.0000000000000000
 40
3.750000000000000
 41
0.0000000000000000
 71
     7
 72
     1
  1
{)}
 11
1.000000000000000
 21
0.0000000000000000
 31
0.0000000000000000
  7
STANDARD
  0
MTEXT
  5
31D
100
AcDbEntity
  8
MAIN0
  6
CONTINUOUS
 62
3
100
AcDbMText
 10
238.7304405393302
 20
192.3980615874935
 30
0.0000000000000000
 40
7.500000000000000
 41
0.0000000000000000
 71
     1
 72
     1
  1
{\H0.62x;{仕　様   SPECIFICATION}}
 11
1.000000000000000
 21
0.0000000000000000
 31
0.0000000000000000
  7
KNJYOKO
  0
INSERT
  5
328
100
AcDbEntity
  8
MAIN0
  6
CONTINUOUS
 62
3
100
AcDbBlockReference
  2
M1
 10
0.0000000000000000
 20
0.0000000000000000
 30
0.0000000000000000
 50
0.0000000000000000
  0
LEADER
  5
329
100
AcDbEntity
  8
MAIN0
  6
CONTINUOUS
 62
3
100
AcDbLeader
  3
MAIN001
 73
     0
 75
     1
 40
4.500000000000000
 41
37.79899899864199
 76
     3
 10
171.7141227820792
 20
274.7606693931839
 30
0.0000000000000000
 10
141.1236048594410
 20
223.5618159956090
 30
0.0000000000000000
 10
138.6026048594410
 20
223.5618159956090
 30
0.0000000000000000
340
32A
213
0.0000000000000000
223
-0.7500000000000000
233
0.0000000000000000
1001
ACAD
1000
DSTYLE
1002
{
1070
   147
1040
0.0
1070
    77
1070
     1
1070
   173
1070
     1
1070
     6
1000
_OPEN
1070
     7
1000
_OPEN
1002
}
  0
MTEXT
  5
32A
102
{ACAD_REACTORS
330
329
102
}
100
AcDbEntity
  8
MAIN0
  6
CONTINUOUS
 62
3
100
AcDbMText
 10
100.8036058607990
 20
228.8118159956090
 30
0.0000000000000000
 40
4.500000000000000
 41
0.0000000000000000
 71
     1
 72
     1
  1
{\H0.63x;{六角穴付ボルト\PM10X130（6本）\PHEX SOCKET\PHEAD CAP SCREW}}
 11
1.000000000000000
 21
0.0000000000000000
 31
0.0000000000000000
  7
KNJYOKO
  0
LEADER
  5
32B
100
AcDbEntity
  8
MAIN0
  6
CONTINUOUS
 62
3
100
AcDbLeader
  3
MAIN001
 73
     0
 74
     0
 75
     1
 40
4.500000000000000
 41
49.95099867677686
 76
     3
 10
311.6983628409189
 20
519.8178024329629
 30
0.0000000000000000
 10
360.7712541614829
 20
562.0877429140691
 30
0.0000000000000000
 10
363.2902541614830
 20
562.0877429140691
 30
0.0000000000000000
340
32C
213
0.0000000000000000
223
-0.7500000000000000
233
0.0000000000000000
1001
ACAD
1000
DSTYLE
1002
{
1070
   147
1040
0.0
1070
    77
1070
     1
1070
   173
1070
     1
1070
     6
1000
_OPEN
1070
     7
1000
_OPEN
1002
}
  0
MTEXT
  5
32C
102
{ACAD_REACTORS
330
32B
102
}
100
AcDbEntity
  8
MAIN0
  6
CONTINUOUS
 62
3
100
AcDbMText
 10
363.2912541614829
 20
567.3377429140691
 30
0.0000000000000000
 40
4.500000000000000
 41
0.0000000000000000
 71
     1
 72
     1
  1
{\H0.61x;{セレーションピッチ 1.5\PSERRATION PITCH 1.5}}
 11
1.000000000000000
 21
0.0000000000000000
 31
0.0000000000000000
  7
KNJYOKO
  0
LEADER
  5
32D
100
AcDbEntity
  8
MAIN0
  6
CONTINUOUS
 62
3
100
AcDbLeader
  3
MAIN001
 73
     0
 75
     1
 40
4.500000000000000
 41
35.09899907016751
 76
     3
 10
510.8238336453633
 20
401.2606693928146
 30
0.0000000000000000
 10
488.1860579868440
 20
455.6657713593723
 30
0.0000000000000000
 10
485.6650579868440
 20
455.6657713593723
 30
0.0000000000000000
340
32E
213
0.0000000000000000
223
-0.7500000000000000
233
0.0000000000000000
1001
ACAD
1000
DSTYLE
1002
{
1070
   147
1040
0.0
1070
    77
1070
     1
1070
   173
1070
     1
1070
     6
1000
_OPEN
1070
     7
1000
_OPEN
1002
}
  0
MTEXT
  5
32E
102
{ACAD_REACTORS
330
32D
102
}
100
AcDbEntity
  8
MAIN0
  6
CONTINUOUS
 62
3
100
AcDbMText
 10
450.5660589166765
 20
460.9157713593723
 30
0.0000000000000000
 40
4.500000000000000
 41
0.0000000000000000
 71
     1
 72
     1
  1
{\H0.63x;{4-M8 ネジ深12\P4-M8 DEPTH 12}}
 11
1.000000000000000
 21
0.0000000000000000
 31
0.0000000000000000
  7
KNJYOKO
  0
MTEXT
  5
32F
100
AcDbEntity
  8
MAIN0
  6
CONTINUOUS
 62
3
100
AcDbMText
 10
710.8500607824260
 20
227.1718166123276
 30
0.0000000000000000
 40
6.000000000000000
 41
0.0000000000000000
 71
     1
 72
     1
  1
{\H0.63x;{B (閉）\P(CLOSE)}}
 11
1.000000000000000
 21
0.0000000000000000
 31
0.0000000000000000
  7
KNJYOKO
  0
MTEXT
  5
330
100
AcDbEntity
  8
MAIN0
  6
CONTINUOUS
 62
3
100
AcDbMText
 10
604.8144754674188
 20
219.6886140653283
 30
0.0000000000000000
 40
6.000000000000000
 41
0.0000000000000000
 71
     1
 72
     1
  1
{\H0.63x;{A (開）\P(OPEN)}}
 11
1.000000000000000
 21
0.0000000000000000
 31
0.0000000000000000
  7
KNJYOKO
  0
LINE
  5
331
100
AcDbEntity
  8
MAIN0
  6
HIDDEN
 62
3
100
AcDbLine
 10
666.1381787378466
 20
553.7004852904825
 30
0.0000000000000000
 11
665.1983628405494
 21
552.7606693931846
 31
0.0000000000000000
  0
LINE
  5
332
100
AcDbEntity
  8
MAIN0
  6
HIDDEN
 62
3
100
AcDbLine
 10
665.1983628405492
 20
552.7606693931846
 30
0.0000000000000000
 11
658.3983628405492
 21
552.7606693931825
 31
0.0000000000000000
  0
LINE
  5
333
100
AcDbEntity
  8
MAIN0
  6
HIDDEN
 62
3
100
AcDbLine
 10
658.3983628405492
 20
552.7606693931825
 30
0.0000000000000000
 11
657.4585469432686
 21
553.7004852904626
 31
0.0000000000000000
  0
LINE
  5
334
100
AcDbEntity
  8
MAIN0
  6
HIDDEN
 62
3
100
AcDbLine
 10
665.7983628405489
 20
553.3606693931849
 30
0.0000000000000000
 11
665.7983628405523
 21
541.7606693931849
 31
0.0000000000000000
  0
LINE
  5
335
100
AcDbEntity
  8
MAIN0
  6
HIDDEN
 62
3
100
AcDbLine
 10
665.7983628405526
 20
541.7606693931848
 30
0.0000000000000000
 11
657.7983628405526
 21
541.7606693931823
 31
0.0000000000000000
  0
LINE
  5
336
100
AcDbEntity
  8
MAIN0
  6
HIDDEN
 62
3
100
AcDbLine
 10
657.7983628405523
 20
541.7606693931823
 30
0.0000000000000000
 11
657.7983628405489
 21
553.3606693931824
 31
0.0000000000000000
  0
LINE
  5
337
100
AcDbEntity
  8
MAIN0
  6
HIDDEN
 62
3
100
AcDbLine
 10
665.1983628405490
 20
552.7606693931846
 30
0.0000000000000000
 11
665.1983628405537
 21
536.7606693931846
 31
0.0000000000000000
  0
LINE
  5
338
100
AcDbEntity
  8
MAIN0
  6
HIDDEN
 62
3
100
AcDbLine
 10
665.1983628405544
 20
536.7606693931846
 30
0.0000000000000000
 11
658.3983628405545
 21
536.7606693931824
 31
0.0000000000000000
  0
LINE
  5
339
100
AcDbEntity
  8
MAIN0
  6
HIDDEN
 62
3
100
AcDbLine
 10
658.3983628405538
 20
536.7606693931825
 30
0.0000000000000000
 11
658.3983628405490
 21
552.7606693931825
 31
0.0000000000000000
  0
LINE
  5
33A
100
AcDbEntity
  8
MAIN0
  6
HIDDEN
 62
3
100
AcDbLine
 10
665.1983628405544
 20
536.7606693931848
 30
0.0000000000000000
 11
661.7983628405550
 21
534.7976784779389
 31
0.0000000000000000
  0
LINE
  5
33B
100
AcDbEntity
  8
MAIN0
  6
HIDDEN
 62
3
100
AcDbLine
 10
661.7983628405548
 20
534.7976784779387
 30
0.0000000000000000
 11
658.3983628405540
 21
536.7606693931824
 31
0.0000000000000000
  0
LINE
  5
33C
100
AcDbEntity
  8
MAIN0
  6
HIDDEN
 62
3
100
AcDbLine
 10
657.4585469439915
 20
240.8208534958848
 30
0.0000000000000000
 11
658.3983628412889
 21
241.7606693931827
 31
0.0000000000000000
  0
LINE
  5
33D
100
AcDbEntity
  8
MAIN0
  6
HIDDEN
 62
3
100
AcDbLine
 10
658.3983628412890
 20
241.7606693931828
 30
0.0000000000000000
 11
665.1983628412889
 21
241.7606693931849
 31
0.0000000000000000
  0
LINE
  5
33E
100
AcDbEntity
  8
MAIN0
  6
HIDDEN
 62
3
100
AcDbLine
 10
665.1983628412891
 20
241.7606693931849
 30
0.0000000000000000
 11
666.1381787385697
 21
240.8208534959048
 31
0.0000000000000000
  0
LINE
  5
33F
100
AcDbEntity
  8
MAIN0
  6
HIDDEN
 62
3
100
AcDbLine
 10
657.7983628412893
 20
241.1606693931824
 30
0.0000000000000000
 11
657.7983628412858
 21
252.7606693931825
 31
0.0000000000000000
  0
LINE
  5
340
100
AcDbEntity
  8
MAIN0
  6
HIDDEN
 62
3
100
AcDbLine
 10
657.7983628412856
 20
252.7606693931826
 30
0.0000000000000000
 11
665.7983628412856
 21
252.7606693931851
 31
0.0000000000000000
  0
LINE
  5
341
100
AcDbEntity
  8
MAIN0
  6
HIDDEN
 62
3
100
AcDbLine
 10
665.7983628412858
 20
252.7606693931851
 30
0.0000000000000000
 11
665.7983628412893
 21
241.1606693931850
 31
0.0000000000000000
  0
LINE
  5
342
100
AcDbEntity
  8
MAIN0
  6
HIDDEN
 62
3
100
AcDbLine
 10
658.3983628412892
 20
241.7606693931827
 30
0.0000000000000000
 11
658.3983628412842
 21
257.7606693931828
 31
0.0000000000000000
  0
LINE
  5
343
100
AcDbEntity
  8
MAIN0
  6
HIDDEN
 62
3
100
AcDbLine
 10
658.3983628412836
 20
257.7606693931828
 30
0.0000000000000000
 11
665.1983628412836
 21
257.7606693931850
 31
0.0000000000000000
  0
LINE
  5
344
100
AcDbEntity
  8
MAIN0
  6
HIDDEN
 62
3
100
AcDbLine
 10
665.1983628412842
 20
257.7606693931849
 30
0.0000000000000000
 11
665.1983628412892
 21
241.7606693931849
 31
0.0000000000000000
  0
LINE
  5
345
100
AcDbEntity
  8
MAIN0
  6
HIDDEN
 62
3
100
AcDbLine
 10
658.3983628412836
 20
257.7606693931826
 30
0.0000000000000000
 11
661.7983628412831
 21
259.7236603084284
 31
0.0000000000000000
  0
LINE
  5
346
100
AcDbEntity
  8
MAIN0
  6
HIDDEN
 62
3
100
AcDbLine
 10
661.7983628412833
 20
259.7236603084286
 30
0.0000000000000000
 11
665.1983628412839
 21
257.7606693931849
 31
0.0000000000000000
  0
MTEXT
  5
347
100
AcDbEntity
  8
MAIN0
  6
CONTINUOUS
 62
3
100
AcDbMText
 10
745.4150219773095
 20
466.7582509012330
 30
0.0000000000000000
 40
4.649999856948853
 41
0.0000000000000000
 71
     1
 72
     1
  1
{\H0.92x;{JAPAN}}
 11
-0.7071067811865459
 21
0.7071067811865491
 31
0.0000000000000000
  7
STANDARD
  0
LINE
  5
348
100
AcDbEntity
  8
MAIN0
  6
CENTER
 62
3
100
AcDbLine
 10
740.9813960215500
 20
487.7574110724076
 30
0.0000000000000000
 11
752.2951045205108
 21
476.4437025733988
 31
0.0000000000000000
  0
LINE
  5
349
100
AcDbEntity
  8
MAIN0
  6
CONTINUOUS
 62
3
100
AcDbLine
 10
722.1059918446463
 20
381.1914206457807
 30
0.0000000000000000
 11
723.0118585025050
 21
377.8106802537690
 31
0.0000000000000000
  0
LINE
  5
34A
100
AcDbEntity
  8
MAIN0
  6
CONTINUOUS
 62
3
100
AcDbLine
 10
724.2492953695813
 20
379.9539837787040
 30
0.0000000000000000
 11
720.8685549775696
 21
379.0481171208451
 31
0.0000000000000000
  0
ARC
  5
34B
100
AcDbEntity
  8
MAIN0
  6
CONTINUOUS
 62
3
100
AcDbCircle
 10
661.7983628408467
 20
397.2606693930318
 30
0.0000000000000000
 40
69.50000000000000
100
AcDbArc
 50
311.4779440495610
 51
313.2755167346310
  0
ARC
  5
34C
100
AcDbEntity
  8
MAIN0
  6
CONTINUOUS
 62
3
100
AcDbCircle
 10
661.7983628408467
 20
397.2606693930318
 30
0.0000000000000000
 40
69.50000000000000
100
AcDbArc
 50
346.7244832653560
 51
348.5220559504397
  0
LINE
  5
34D
100
AcDbEntity
  8
MAIN0
  6
CONTINUOUS
 62
3
100
AcDbLine
 10
769.7214112950369
 20
344.1888726232555
 30
0.0000000000000000
 11
761.7214112950408
 21
330.3324661627024
 31
0.0000000000000000
  0
LINE
  5
34E
100
AcDbEntity
  8
MAIN0
  6
CENTER
 62
3
100
AcDbLine
 10
760.0056019020281
 20
355.3605971179473
 30
0.0000000000000000
 11
747.1928084243357
 21
333.1681878276968
 31
0.0000000000000000
  0
LINE
  5
34F
100
AcDbEntity
  8
MAIN0
  6
CENTER
 62
3
100
AcDbLine
 10
734.0248397884950
 20
370.3605971179473
 30
0.0000000000000000
 11
721.2120463108024
 21
348.1681878276968
 31
0.0000000000000000
  0
LINE
  5
350
100
AcDbEntity
  8
MAIN0
  6
CONTINUOUS
 62
3
100
AcDbLine
 10
725.5541157020657
 20
369.6888726232355
 30
0.0000000000000000
 11
720.0900140868741
 21
368.2247710080848
 31
0.0000000000000000
  0
LINE
  5
351
100
AcDbEntity
  8
MAIN0
  6
CONTINUOUS
 62
3
100
AcDbLine
 10
717.5541157020653
 20
355.8324661626847
 30
0.0000000000000000
 11
716.0900140869120
 21
361.2965677778748
 31
0.0000000000000000
  0
LINE
  5
352
100
AcDbEntity
  8
MAIN0
  6
CONTINUOUS
 62
3
100
AcDbLine
 10
716.2630304897109
 20
391.7962409781698
 30
0.0000000000000000
 11
730.1194369502632
 21
383.7962409781690
 31
0.0000000000000000
  0
LINE
  5
353
100
AcDbEntity
  8
MAIN0
  6
CONTINUOUS
 62
3
100
AcDbLine
 10
730.1194369502632
 20
383.7962409781691
 30
0.0000000000000000
 11
722.9444369502143
 21
371.3687764337690
 31
0.0000000000000000
  0
LINE
  5
354
100
AcDbEntity
  8
MAIN0
  6
CONTINUOUS
 62
3
100
AcDbLine
 10
716.2630304897102
 20
391.7962409781701
 30
0.0000000000000000
 11
693.7630304897219
 21
352.8250978078636
 31
0.0000000000000000
  0
CIRCLE
  5
355
100
AcDbEntity
  8
MAIN0
  6
CONTINUOUS
 62
3
100
AcDbCircle
 10
722.5589251736135
 20
379.5010504497848
 30
0.0000000000000000
 40
3.150000000000000
  0
LINE
  5
356
100
AcDbEntity
  8
MAIN0
  6
CENTER
 62
3
100
AcDbLine
 10
719.9839251736134
 20
375.0410196202948
 30
0.0000000000000000
 11
725.1339251736135
 21
383.9610812792746
 31
0.0000000000000000
  0
LINE
  5
357
100
AcDbEntity
  8
MAIN0
  6
CENTER
 62
3
100
AcDbLine
 10
727.0189560031031
 20
376.9260504497847
 30
0.0000000000000000
 11
718.0988943441234
 21
382.0760504497847
 31
0.0000000000000000
  0
LINE
  5
358
100
AcDbEntity
  8
MAIN0
  6
CONTINUOUS
 62
3
100
AcDbLine
 10
693.7630304897213
 20
352.8250978078639
 30
0.0000000000000000
 11
707.6194369502632
 21
344.8250978078691
 31
0.0000000000000000
  0
LINE
  5
359
100
AcDbEntity
  8
MAIN0
  6
CONTINUOUS
 62
3
100
AcDbLine
 10
707.6194369502637
 20
344.8250978078692
 30
0.0000000000000000
 11
714.7944369502146
 21
357.2525623520824
 31
0.0000000000000000
  0
CIRCLE
  5
35A
100
AcDbEntity
  8
MAIN0
  6
CONTINUOUS
 62
3
100
AcDbCircle
 10
707.5589251736135
 20
353.5202883362517
 30
0.0000000000000000
 40
3.150000000000000
  0
LINE
  5
35B
100
AcDbEntity
  8
MAIN0
  6
CENTER
 62
3
100
AcDbLine
 10
710.1339251736135
 20
357.9803191657414
 30
0.0000000000000000
 11
704.9839251736134
 21
349.0602575067617
 31
0.0000000000000000
  0
LINE
  5
35C
100
AcDbEntity
  8
MAIN0
  6
CENTER
 62
3
100
AcDbLine
 10
712.0189560031031
 20
350.9452883362516
 30
0.0000000000000000
 11
703.0988943441234
 21
356.0952883362515
 31
0.0000000000000000
  0
LINE
  5
35D
100
AcDbEntity
  8
MAIN0
  6
CONTINUOUS
 62
3
100
AcDbLine
 10
720.3463607388605
 20
372.8687764337693
 30
0.0000000000000000
 11
712.1963607388648
 21
358.7525623520805
 31
0.0000000000000000
  0
LINE
  5
35E
100
AcDbEntity
  8
MAIN0
  6
CONTINUOUS
 62
3
100
AcDbLine
 10
720.3463607388605
 20
372.8687764337691
 30
0.0000000000000000
 11
722.9444369502139
 21
371.3687764337691
 31
0.0000000000000000
  0
LINE
  5
35F
100
AcDbEntity
  8
MAIN0
  6
CONTINUOUS
 62
3
100
AcDbLine
 10
712.1963607388602
 20
358.7525623520830
 30
0.0000000000000000
 11
714.7944369502139
 21
357.2525623520828
 31
0.0000000000000000
  0
LINE
  5
360
100
AcDbEntity
  8
MAIN0
  6
CONTINUOUS
 62
3
100
AcDbLine
 10
714.7560394906581
 20
356.9860560012145
 30
0.0000000000000000
 11
708.9560394906275
 21
346.9401613173326
 31
0.0000000000000000
  0
LINE
  5
361
100
AcDbEntity
  8
MAIN0
  6
CONTINUOUS
 62
3
100
AcDbLine
 10
766.9175637176700
 20
327.3324661626829
 30
0.0000000000000000
 11
715.3024496521728
 21
357.1324661627273
 31
0.0000000000000000
  0
LINE
  5
362
100
AcDbEntity
  8
MAIN0
  6
CONTINUOUS
 62
3
100
AcDbLine
 10
781.0425637176056
 20
351.7976838194178
 30
0.0000000000000000
 11
782.2372733254322
 21
358.5732186978563
 31
0.0000000000000000
  0
LINE
  5
363
100
AcDbEntity
  8
MAIN0
  6
CONTINUOUS
 62
3
100
AcDbLine
 10
723.1560394906740
 20
371.5352827847839
 30
0.0000000000000000
 11
728.9560394906659
 21
381.5811774686883
 31
0.0000000000000000
  0
LINE
  5
364
100
AcDbEntity
  8
MAIN0
  6
CONTINUOUS
 62
3
100
AcDbLine
 10
781.0425637176060
 20
351.7976838194196
 30
0.0000000000000000
 11
760.7925637177507
 21
316.7236549664905
 31
0.0000000000000000
  0
LINE
  5
365
100
AcDbEntity
  8
MAIN0
  6
HIDDEN
 62
3
100
AcDbLine
 10
722.4608489623538
 20
385.3311774686565
 30
0.0000000000000000
 11
702.4608489622558
 21
350.6901613173521
 31
0.0000000000000000
  0
LINE
  5
366
100
AcDbEntity
  8
MAIN0
  6
HIDDEN
 62
3
100
AcDbLine
 10
717.5632911717587
 20
387.9278436697597
 30
0.0000000000000000
 11
697.7632911718417
 21
353.6332376798476
 31
0.0000000000000000
  0
LINE
  5
367
100
AcDbEntity
  8
MAIN0
  6
CONTINUOUS
 62
3
100
AcDbLine
 10
715.3024496521728
 20
357.1324661627272
 30
0.0000000000000000
 11
714.7560394906581
 21
356.9860560012144
 31
0.0000000000000000
  0
LINE
  5
368
100
AcDbEntity
  8
MAIN0
  6
CONTINUOUS
 62
3
100
AcDbLine
 10
723.3024496521884
 20
370.9888726232695
 30
0.0000000000000000
 11
723.1560394906745
 21
371.5352827847838
 31
0.0000000000000000
  0
LINE
  5
369
100
AcDbEntity
  8
MAIN0
  6
HIDDEN
 62
3
100
AcDbLine
 10
697.8364962525989
 20
353.3600325990907
 30
0.0000000000000000
 11
697.7632911718417
 21
353.6332376798479
 31
0.0000000000000000
  0
LINE
  5
36A
100
AcDbEntity
  8
MAIN0
  6
HIDDEN
 62
3
100
AcDbLine
 10
717.8364962525145
 20
388.0010487505169
 30
0.0000000000000000
 11
717.5632911717582
 21
387.9278436697600
 31
0.0000000000000000
  0
LINE
  5
36B
100
AcDbEntity
  8
MAIN0
  6
CONTINUOUS
 62
3
100
AcDbLine
 10
774.9175637176855
 20
341.1888726232249
 30
0.0000000000000000
 11
724.5141541683080
 21
370.2892946947076
 31
0.0000000000000000
  0
LINE
  5
36C
100
AcDbEntity
  8
MAIN0
  6
CONTINUOUS
 62
3
100
AcDbLine
 10
724.5420579048275
 20
370.2731844649167
 30
0.0000000000000000
 11
723.3024496521881
 21
370.9888726232696
 31
0.0000000000000000
  0
LINE
  5
36D
100
AcDbEntity
  8
MAIN0
  6
CONTINUOUS
 62
3
100
AcDbLine
 10
760.7925637178455
 20
316.7236549665633
 30
0.0000000000000000
 11
755.5221331923661
 21
312.3012386564540
 31
0.0000000000000000
  0
ARC
  5
36E
100
AcDbEntity
  8
MAIN0
  6
CONTINUOUS
 62
3
100
AcDbCircle
 10
721.3809106214067
 20
362.8606693929124
 30
0.0000000000000000
 40
8.300000000000011
100
AcDbArc
 50
194.6964239940431
 51
224.5483065689931
  0
ARC
  5
36F
100
AcDbEntity
  8
MAIN0
  6
CONTINUOUS
 62
3
100
AcDbCircle
 10
721.3809106214067
 20
362.8606693929124
 30
0.0000000000000000
 40
8.300000000000011
100
AcDbArc
 50
75.45169343088250
 51
105.3035760059908
  0
ARC
  5
370
100
AcDbEntity
  8
MAIN0
  6
HIDDEN
 62
3
100
AcDbCircle
 10
721.3809106214067
 20
362.8606693929124
 30
0.0000000000000000
 40
8.300000000000011
100
AcDbArc
 50
105.3035760059908
 51
194.6964239940431
  0
LINE
  5
371
100
AcDbEntity
  8
MAIN0
  6
HIDDEN
 62
3
100
AcDbLine
 10
697.8364962525993
 20
353.3600325990905
 30
0.0000000000000000
 11
708.8694369502616
 21
346.9901613173256
 31
0.0000000000000000
  0
LINE
  5
372
100
AcDbEntity
  8
MAIN0
  6
CONTINUOUS
 62
3
100
AcDbLine
 10
708.8694369502614
 20
346.9901613173257
 30
0.0000000000000000
 11
760.9175637176586
 21
316.9401613172763
 31
0.0000000000000000
  0
LINE
  5
373
100
AcDbEntity
  8
MAIN0
  6
HIDDEN
 62
3
100
AcDbLine
 10
717.8364962525147
 20
388.0010487505169
 30
0.0000000000000000
 11
728.8694369502616
 21
381.6311774687033
 31
0.0000000000000000
  0
LINE
  5
374
100
AcDbEntity
  8
MAIN0
  6
CONTINUOUS
 62
3
100
AcDbLine
 10
728.8694369502614
 20
381.6311774687033
 30
0.0000000000000000
 11
780.9175637176970
 21
351.5811774686316
 31
0.0000000000000000
  0
LINE
  5
375
100
AcDbEntity
  8
MAIN0
  6
CONTINUOUS
 62
3
100
AcDbLine
 10
641.5483628413404
 20
523.2606693932514
 30
0.0000000000000000
 11
641.7983628409188
 21
523.2606693932511
 31
0.0000000000000000
  0
LINE
  5
376
100
AcDbEntity
  8
MAIN0
  6
HIDDEN
 62
3
100
AcDbLine
 10
641.7983628409188
 20
523.2606693932511
 30
0.0000000000000000
 11
681.7983628409188
 21
523.2606693932067
 31
0.0000000000000000
  0
LINE
  5
377
100
AcDbEntity
  8
MAIN0
  6
CONTINUOUS
 62
3
100
AcDbLine
 10
681.7983628409188
 20
523.2606693932067
 30
0.0000000000000000
 11
682.0483628409729
 21
523.2606693932064
 31
0.0000000000000000
  0
LINE
  5
378
100
AcDbEntity
  8
MAIN0
  6
HIDDEN
 62
3
100
AcDbLine
 10
632.5483628409189
 20
519.9849372847409
 30
0.0000000000000000
 11
635.0832227084736
 21
520.9075508245559
 31
0.0000000000000000
  0
LINE
  5
379
100
AcDbEntity
  8
MAIN0
  6
CONTINUOUS
 62
3
100
AcDbLine
 10
635.0832227084736
 20
520.9075508245559
 30
0.0000000000000000
 11
641.5483628413422
 21
523.2606693932520
 31
0.0000000000000000
  0
LINE
  5
37A
100
AcDbEntity
  8
MAIN0
  6
CONTINUOUS
 62
3
100
AcDbLine
 10
682.0483628408626
 20
523.2606693932521
 30
0.0000000000000000
 11
688.5135029742680
 21
520.9075508243604
 31
0.0000000000000000
  0
LINE
  5
37B
100
AcDbEntity
  8
MAIN0
  6
HIDDEN
 62
3
100
AcDbLine
 10
688.5135029742680
 20
520.9075508243606
 30
0.0000000000000000
 11
691.0483628409188
 21
519.9849372848746
 31
0.0000000000000000
  0
ARC
  5
37C
100
AcDbEntity
  8
MAIN0
  6
CONTINUOUS
 62
3
100
AcDbCircle
 10
661.7983628409188
 20
397.2606693931834
 30
0.0000000000000000
 40
69.50000000000000
100
AcDbArc
 50
311.4779440495814
 51
313.2755167346310
  0
ARC
  5
37D
100
AcDbEntity
  8
MAIN0
  6
CONTINUOUS
 62
3
100
AcDbCircle
 10
661.7983628409188
 20
397.2606693931834
 30
0.0000000000000000
 40
69.50000000000000
100
AcDbArc
 50
346.7244832653560
 51
348.5220559504197
  0
ARC
  5
37E
100
AcDbEntity
  8
MAIN0
  6
CONTINUOUS
 62
3
100
AcDbCircle
 10
661.7983628409188
 20
397.2606693931834
 30
0.0000000000000000
 40
69.50000000000000
100
AcDbArc
 50
348.8893167318713
 51
433.2755167346308
  0
LINE
  5
37F
100
AcDbEntity
  8
MAIN0
  6
CONTINUOUS
 62
3
100
AcDbLine
 10
599.3474303122173
 20
379.9539837787095
 30
0.0000000000000000
 11
602.7281707042314
 21
379.0481171208598
 31
0.0000000000000000
  0
LINE
  5
380
100
AcDbEntity
  8
MAIN0
  6
CONTINUOUS
 62
3
100
AcDbLine
 10
601.4907338371492
 20
381.1914206457919
 30
0.0000000000000000
 11
600.5848671792996
 21
377.8106802537777
 31
0.0000000000000000
  0
LINE
  5
381
100
AcDbEntity
  8
MAIN0
  6
CONTINUOUS
 62
3
100
AcDbLine
 10
601.4907338371916
 20
381.1914206457807
 30
0.0000000000000000
 11
600.5848671793328
 21
377.8106802537690
 31
0.0000000000000000
  0
LINE
  5
382
100
AcDbEntity
  8
MAIN0
  6
CONTINUOUS
 62
3
100
AcDbLine
 10
599.3474303122569
 20
379.9539837787040
 30
0.0000000000000000
 11
602.7281707042687
 21
379.0481171208451
 31
0.0000000000000000
  0
LINE
  5
383
100
AcDbEntity
  8
MAIN0
  6
CONTINUOUS
 62
3
100
AcDbLine
 10
553.8753143868012
 20
344.1888726232556
 30
0.0000000000000000
 11
561.8753143867972
 21
330.3324661627024
 31
0.0000000000000000
  0
LINE
  5
384
100
AcDbEntity
  8
MAIN0
  6
CENTER
 62
3
100
AcDbLine
 10
563.5911237798096
 20
355.3605971179472
 30
0.0000000000000000
 11
576.4039172575020
 21
333.1681878276968
 31
0.0000000000000000
  0
LINE
  5
385
100
AcDbEntity
  8
MAIN0
  6
CENTER
 62
3
100
AcDbLine
 10
589.5718858933427
 20
370.3605971179472
 30
0.0000000000000000
 11
602.3846793710352
 21
348.1681878276968
 31
0.0000000000000000
  0
LINE
  5
386
100
AcDbEntity
  8
MAIN0
  6
CONTINUOUS
 62
3
100
AcDbLine
 10
598.0426099797720
 20
369.6888726232355
 30
0.0000000000000000
 11
603.5067115949635
 21
368.2247710080848
 31
0.0000000000000000
  0
LINE
  5
387
100
AcDbEntity
  8
MAIN0
  6
CONTINUOUS
 62
3
100
AcDbLine
 10
606.0426099797726
 20
355.8324661626847
 30
0.0000000000000000
 11
607.5067115949258
 21
361.2965677778748
 31
0.0000000000000000
  0
LINE
  5
388
100
AcDbEntity
  8
MAIN0
  6
CONTINUOUS
 62
3
100
AcDbLine
 10
607.3336951921267
 20
391.7962409781696
 30
0.0000000000000000
 11
593.4772887315744
 21
383.7962409781688
 31
0.0000000000000000
  0
LINE
  5
389
100
AcDbEntity
  8
MAIN0
  6
CONTINUOUS
 62
3
100
AcDbLine
 10
593.4772887315744
 20
383.7962409781690
 30
0.0000000000000000
 11
600.6522887316235
 21
371.3687764337689
 31
0.0000000000000000
  0
LINE
  5
38A
100
AcDbEntity
  8
MAIN0
  6
CONTINUOUS
 62
3
100
AcDbLine
 10
607.3336951921274
 20
391.7962409781700
 30
0.0000000000000000
 11
629.8336951921158
 21
352.8250978078636
 31
0.0000000000000000
  0
CIRCLE
  5
38B
100
AcDbEntity
  8
MAIN0
  6
CONTINUOUS
 62
3
100
AcDbCircle
 10
601.0378005082242
 20
379.5010504497848
 30
0.0000000000000000
 40
3.150000000000000
  0
LINE
  5
38C
100
AcDbEntity
  8
MAIN0
  6
CENTER
 62
3
100
AcDbLine
 10
603.6128005082242
 20
375.0410196202948
 30
0.0000000000000000
 11
598.4628005082241
 21
383.9610812792745
 31
0.0000000000000000
  0
LINE
  5
38D
100
AcDbEntity
  8
MAIN0
  6
CENTER
 62
3
100
AcDbLine
 10
596.5777696787345
 20
376.9260504497847
 30
0.0000000000000000
 11
605.4978313377142
 21
382.0760504497847
 31
0.0000000000000000
  0
LINE
  5
38E
100
AcDbEntity
  8
MAIN0
  6
CONTINUOUS
 62
3
100
AcDbLine
 10
629.8336951921164
 20
352.8250978078638
 30
0.0000000000000000
 11
615.9772887315744
 21
344.8250978078690
 31
0.0000000000000000
  0
LINE
  5
38F
100
AcDbEntity
  8
MAIN0
  6
CONTINUOUS
 62
3
100
AcDbLine
 10
615.9772887315739
 20
344.8250978078691
 30
0.0000000000000000
 11
608.8022887316230
 21
357.2525623520824
 31
0.0000000000000000
  0
CIRCLE
  5
390
100
AcDbEntity
  8
MAIN0
  6
CONTINUOUS
 62
3
100
AcDbCircle
 10
616.0378005082242
 20
353.5202883362517
 30
0.0000000000000000
 40
3.150000000000000
  0
LINE
  5
391
100
AcDbEntity
  8
MAIN0
  6
CENTER
 62
3
100
AcDbLine
 10
613.4628005082241
 20
357.9803191657414
 30
0.0000000000000000
 11
618.6128005082242
 21
349.0602575067616
 31
0.0000000000000000
  0
LINE
  5
392
100
AcDbEntity
  8
MAIN0
  6
CENTER
 62
3
100
AcDbLine
 10
611.5777696787345
 20
350.9452883362515
 30
0.0000000000000000
 11
620.4978313377142
 21
356.0952883362515
 31
0.0000000000000000
  0
LINE
  5
393
100
AcDbEntity
  8
MAIN0
  6
CONTINUOUS
 62
3
100
AcDbLine
 10
603.2503649429771
 20
372.8687764337692
 30
0.0000000000000000
 11
611.4003649429728
 21
358.7525623520805
 31
0.0000000000000000
  0
LINE
  5
394
100
AcDbEntity
  8
MAIN0
  6
CONTINUOUS
 62
3
100
AcDbLine
 10
603.2503649429771
 20
372.8687764337691
 30
0.0000000000000000
 11
600.6522887316237
 21
371.3687764337691
 31
0.0000000000000000
  0
LINE
  5
395
100
AcDbEntity
  8
MAIN0
  6
CONTINUOUS
 62
3
100
AcDbLine
 10
611.4003649429774
 20
358.7525623520830
 30
0.0000000000000000
 11
608.8022887316236
 21
357.2525623520828
 31
0.0000000000000000
  0
LINE
  5
396
100
AcDbEntity
  8
MAIN0
  6
CONTINUOUS
 62
3
100
AcDbLine
 10
608.8406861911797
 20
356.9860560012145
 30
0.0000000000000000
 11
614.6406861912103
 21
346.9401613173325
 31
0.0000000000000000
  0
LINE
  5
397
100
AcDbEntity
  8
MAIN0
  6
CONTINUOUS
 62
3
100
AcDbLine
 10
556.6791619641679
 20
327.3324661626830
 30
0.0000000000000000
 11
608.2942760296651
 21
357.1324661627273
 31
0.0000000000000000
  0
LINE
  5
398
100
AcDbEntity
  8
MAIN0
  6
CONTINUOUS
 62
3
100
AcDbLine
 10
542.5541619642320
 20
351.7976838194178
 30
0.0000000000000000
 11
541.3594523564054
 21
358.5732186978563
 31
0.0000000000000000
  0
LINE
  5
399
100
AcDbEntity
  8
MAIN0
  6
CONTINUOUS
 62
3
100
AcDbLine
 10
600.4406861911639
 20
371.5352827847840
 30
0.0000000000000000
 11
594.6406861911720
 21
381.5811774686883
 31
0.0000000000000000
  0
LINE
  5
39A
100
AcDbEntity
  8
MAIN0
  6
CONTINUOUS
 62
3
100
AcDbLine
 10
542.5541619642318
 20
351.7976838194196
 30
0.0000000000000000
 11
562.8041619640869
 21
316.7236549664906
 31
0.0000000000000000
  0
LINE
  5
39B
100
AcDbEntity
  8
MAIN0
  6
HIDDEN
 62
3
100
AcDbLine
 10
601.1358767194839
 20
385.3311774686566
 30
0.0000000000000000
 11
621.1358767195820
 21
350.6901613173522
 31
0.0000000000000000
  0
LINE
  5
39C
100
AcDbEntity
  8
MAIN0
  6
HIDDEN
 62
3
100
AcDbLine
 10
606.0334345100791
 20
387.9278436697596
 30
0.0000000000000000
 11
625.8334345099960
 21
353.6332376798476
 31
0.0000000000000000
  0
LINE
  5
39D
100
AcDbEntity
  8
MAIN0
  6
CONTINUOUS
 62
3
100
AcDbLine
 10
608.2942760296652
 20
357.1324661627272
 30
0.0000000000000000
 11
608.8406861911799
 21
356.9860560012144
 31
0.0000000000000000
  0
LINE
  5
39E
100
AcDbEntity
  8
MAIN0
  6
CONTINUOUS
 62
3
100
AcDbLine
 10
600.2942760296494
 20
370.9888726232695
 30
0.0000000000000000
 11
600.4406861911632
 21
371.5352827847838
 31
0.0000000000000000
  0
LINE
  5
39F
100
AcDbEntity
  8
MAIN0
  6
HIDDEN
 62
3
100
AcDbLine
 10
625.7602294292386
 20
353.3600325990907
 30
0.0000000000000000
 11
625.8334345099959
 21
353.6332376798479
 31
0.0000000000000000
  0
LINE
  5
3A0
100
AcDbEntity
  8
MAIN0
  6
HIDDEN
 62
3
100
AcDbLine
 10
605.7602294293233
 20
388.0010487505169
 30
0.0000000000000000
 11
606.0334345100797
 21
387.9278436697600
 31
0.0000000000000000
  0
LINE
  5
3A1
100
AcDbEntity
  8
MAIN0
  6
CONTINUOUS
 62
3
100
AcDbLine
 10
548.6791619641522
 20
341.1888726232250
 30
0.0000000000000000
 11
599.0825715135297
 21
370.2892946947076
 31
0.0000000000000000
  0
LINE
  5
3A2
100
AcDbEntity
  8
MAIN0
  6
CONTINUOUS
 62
3
100
AcDbLine
 10
599.0546677770101
 20
370.2731844649167
 30
0.0000000000000000
 11
600.2942760296496
 21
370.9888726232696
 31
0.0000000000000000
  0
LINE
  5
3A3
100
AcDbEntity
  8
MAIN0
  6
CONTINUOUS
 62
3
100
AcDbLine
 10
562.8041619639923
 20
316.7236549665633
 30
0.0000000000000000
 11
568.0745924894716
 21
312.3012386564540
 31
0.0000000000000000
  0
ARC
  5
3A4
100
AcDbEntity
  8
MAIN0
  6
CONTINUOUS
 62
3
100
AcDbCircle
 10
602.2158150604311
 20
362.8606693929124
 30
0.0000000000000000
 40
8.300000000000011
100
AcDbArc
 50
315.4516934310069
 51
345.3035760059569
  0
ARC
  5
3A5
100
AcDbEntity
  8
MAIN0
  6
CONTINUOUS
 62
3
100
AcDbCircle
 10
602.2158150604311
 20
362.8606693929124
 30
0.0000000000000000
 40
8.300000000000011
100
AcDbArc
 50
74.69642399400925
 51
104.5483065691175
  0
ARC
  5
3A6
100
AcDbEntity
  8
MAIN0
  6
HIDDEN
 62
3
100
AcDbCircle
 10
602.2158150604311
 20
362.8606693929124
 30
0.0000000000000000
 40
8.300000000000011
100
AcDbArc
 50
345.3035760059569
 51
434.6964239940093
  0
LINE
  5
3A7
100
AcDbEntity
  8
MAIN0
  6
HIDDEN
 62
3
100
AcDbLine
 10
625.7602294292385
 20
353.3600325990905
 30
0.0000000000000000
 11
614.7272887315762
 21
346.9901613173256
 31
0.0000000000000000
  0
LINE
  5
3A8
100
AcDbEntity
  8
MAIN0
  6
CONTINUOUS
 62
3
100
AcDbLine
 10
614.7272887315764
 20
346.9901613173258
 30
0.0000000000000000
 11
562.6791619641792
 21
316.9401613172763
 31
0.0000000000000000
  0
LINE
  5
3A9
100
AcDbEntity
  8
MAIN0
  6
HIDDEN
 62
3
100
AcDbLine
 10
605.7602294293229
 20
388.0010487505168
 30
0.0000000000000000
 11
594.7272887315762
 21
381.6311774687033
 31
0.0000000000000000
  0
LINE
  5
3AA
100
AcDbEntity
  8
MAIN0
  6
CONTINUOUS
 62
3
100
AcDbLine
 10
594.7272887315764
 20
381.6311774687034
 30
0.0000000000000000
 11
542.6791619641408
 21
351.5811774686317
 31
0.0000000000000000
  0
ARC
  5
3AB
100
AcDbEntity
  8
MAIN0
  6
CONTINUOUS
 62
3
100
AcDbCircle
 10
661.7983628409188
 20
397.2606693931834
 30
0.0000000000000000
 40
69.50000000000000
100
AcDbArc
 50
226.7244832653560
 51
228.5220559504189
  0
ARC
  5
3AC
100
AcDbEntity
  8
MAIN0
  6
CONTINUOUS
 62
3
100
AcDbCircle
 10
661.7983628409188
 20
397.2606693931834
 30
0.0000000000000000
 40
69.50000000000000
100
AcDbArc
 50
228.8893167321632
 51
311.1106832678369
  0
ARC
  5
3AD
100
AcDbEntity
  8
MAIN0
  6
CONTINUOUS
 62
3
100
AcDbCircle
 10
661.7983628409188
 20
397.2606693931834
 30
0.0000000000000000
 40
69.50000000000000
100
AcDbArc
 50
106.7244832653588
 51
191.1106832681287
  0
ARC
  5
3AE
100
AcDbEntity
  8
MAIN0
  6
CONTINUOUS
 62
3
100
AcDbCircle
 10
661.7983628409188
 20
397.2606693931834
 30
0.0000000000000000
 40
69.50000000000000
100
AcDbArc
 50
191.4779440495800
 51
193.2755167346310
  0
LINE
  5
3AF
100
AcDbEntity
  8
MAIN0
  6
CONTINUOUS
 62
3
100
AcDbLine
 10
118.3684491363748
 20
175.2748260155480
 30
0.0000000000000000
 11
133.9684491363747
 21
175.2748260155480
 31
0.0000000000000000
  0
LINE
  5
3B0
100
AcDbEntity
  8
MAIN0
  6
CONTINUOUS
 62
3
100
AcDbLine
 10
108.8684491363748
 20
174.2748260157937
 30
0.0000000000000000
 11
108.8684491363761
 21
160.2748260155479
 31
0.0000000000000000
  0
LINE
  5
3B1
100
AcDbEntity
  8
MAIN0
  6
CONTINUOUS
 62
3
100
AcDbLine
 10
134.3684491363747
 20
174.8748260155480
 30
0.0000000000000000
 11
134.3684491363761
 21
159.6748260155481
 31
0.0000000000000000
  0
LINE
  5
3B2
100
AcDbEntity
  8
MAIN0
  6
CONTINUOUS
 62
3
100
AcDbLine
 10
118.3684491363758
 20
159.2748260155480
 30
0.0000000000000000
 11
133.9684491363763
 21
159.2748260155480
 31
0.0000000000000000
  0
LINE
  5
3B3
100
AcDbEntity
  8
MAIN0
  6
CONTINUOUS
 62
3
100
AcDbLine
 10
112.8684491363765
 20
156.2748260155480
 30
0.0000000000000000
 11
117.7684491363762
 21
156.2748260155480
 31
0.0000000000000000
  0
LINE
  5
3B4
100
AcDbEntity
  8
MAIN0
  6
CONTINUOUS
 62
3
100
AcDbLine
 10
118.3684491363745
 20
177.8248260156794
 30
0.0000000000000000
 11
118.3684491363748
 21
175.2748260155481
 31
0.0000000000000000
  0
LINE
  5
3B5
100
AcDbEntity
  8
MAIN0
  6
CONTINUOUS
 62
3
100
AcDbLine
 10
118.3684491363758
 20
159.2748260155482
 30
0.0000000000000000
 11
118.3684491363761
 21
156.7248260156665
 31
0.0000000000000000
  0
LINE
  5
3B6
100
AcDbEntity
  8
MAIN0
  6
CONTINUOUS
 62
3
100
AcDbLine
 10
112.8684491363746
 20
178.2748260157945
 30
0.0000000000000000
 11
117.7684491363745
 21
178.2748260157954
 31
0.0000000000000000
  0
LINE
  5
3B7
100
AcDbEntity
  8
MAIN0
  6
HIDDEN
 62
3
100
AcDbLine
 10
134.3684491363760
 20
161.2748260156730
 30
0.0000000000000000
 11
108.8684491363761
 21
161.2748260156730
 31
0.0000000000000000
  0
LINE
  5
3B8
100
AcDbEntity
  8
MAIN0
  6
HIDDEN
 62
3
100
AcDbLine
 10
134.3684491363749
 20
173.2748260156730
 30
0.0000000000000000
 11
108.8684491363750
 21
173.2748260156730
 31
0.0000000000000000
  0
LINE
  5
3B9
100
AcDbEntity
  8
MAIN0
  6
HIDDEN
 62
3
100
AcDbLine
 10
134.3684491363759
 20
162.1748260156731
 30
0.0000000000000000
 11
108.8684491363759
 21
162.1748260156731
 31
0.0000000000000000
  0
LINE
  5
3BA
100
AcDbEntity
  8
MAIN0
  6
HIDDEN
 62
3
100
AcDbLine
 10
108.8684491363750
 20
172.3748260156731
 30
0.0000000000000000
 11
134.3684491363750
 21
172.3748260156731
 31
0.0000000000000000
  0
LINE
  5
3BB
100
AcDbEntity
  8
MAIN0
  6
CONTINUOUS
 62
3
100
AcDbLine
 10
133.9684491363749
 20
175.2748260155481
 30
0.0000000000000000
 11
134.3684491363749
 21
174.8748260155482
 31
0.0000000000000000
  0
LINE
  5
3BC
100
AcDbEntity
  8
MAIN0
  6
CONTINUOUS
 62
3
100
AcDbLine
 10
134.3684491363762
 20
159.6748260155481
 30
0.0000000000000000
 11
133.9684491363763
 21
159.2748260155481
 31
0.0000000000000000
  0
LINE
  5
3BD
100
AcDbEntity
  8
MAIN0
  6
CONTINUOUS
 62
3
100
AcDbLine
 10
108.8684491363747
 20
174.2748260157937
 30
0.0000000000000000
 11
112.8684491363743
 21
178.2748260157944
 31
0.0000000000000000
  0
LINE
  5
3BE
100
AcDbEntity
  8
MAIN0
  6
CONTINUOUS
 62
3
100
AcDbLine
 10
108.8684491363762
 20
160.2748260155481
 30
0.0000000000000000
 11
112.8684491363765
 21
156.2748260155482
 31
0.0000000000000000
  0
LINE
  5
3BF
100
AcDbEntity
  8
MAIN0
  6
CONTINUOUS
 62
3
100
AcDbLine
 10
118.3684491363744
 20
177.6748260157955
 30
0.0000000000000000
 11
117.7684491363744
 21
178.2748260157953
 31
0.0000000000000000
  0
LINE
  5
3C0
100
AcDbEntity
  8
MAIN0
  6
CONTINUOUS
 62
3
100
AcDbLine
 10
118.3684491363762
 20
156.8748260155481
 30
0.0000000000000000
 11
117.7684491363762
 21
156.2748260155480
 31
0.0000000000000000
  0
LINE
  5
3C1
100
AcDbEntity
  8
MAIN0
  6
CONTINUOUS
 62
3
100
AcDbLine
 10
110.3684491371281
 20
196.0748260156779
 30
0.0000000000000000
 11
110.3684491371281
 21
187.2748260156779
 31
0.0000000000000000
  0
LINE
  5
3C2
100
AcDbEntity
  8
MAIN0
  6
CONTINUOUS
 62
3
100
AcDbLine
 10
94.36844913631103
 20
196.0748260156898
 30
0.0000000000000000
 11
94.36844913633055
 21
187.2748260156897
 31
0.0000000000000000
  0
LINE
  5
3C3
100
AcDbEntity
  8
MAIN0
  6
CONTINUOUS
 62
3
100
AcDbLine
 10
88.86844913712810
 20
187.0748260156938
 30
0.0000000000000000
 11
88.86844913712810
 21
147.4748260156938
 31
0.0000000000000000
  0
LINE
  5
3C4
100
AcDbEntity
  8
MAIN0
  6
CONTINUOUS
 62
3
100
AcDbLine
 10
94.56844913631059
 20
196.2748260156896
 30
0.0000000000000000
 11
110.1684491371281
 21
196.2748260156780
 31
0.0000000000000000
  0
LINE
  5
3C5
100
AcDbEntity
  8
MAIN0
  6
CONTINUOUS
 62
3
100
AcDbLine
 10
89.06844913712814
 20
187.2748260156936
 30
0.0000000000000000
 11
94.36844913633058
 21
187.2748260156897
 31
0.0000000000000000
  0
LINE
  5
3C6
100
AcDbEntity
  8
MAIN0
  6
CONTINUOUS
 62
3
100
AcDbLine
 10
110.3684491371281
 20
187.2748260156778
 30
0.0000000000000000
 11
130.5024237330570
 21
187.2748260156629
 31
0.0000000000000000
  0
LINE
  5
3C7
100
AcDbEntity
  8
MAIN0
  6
CONTINUOUS
 62
3
100
AcDbLine
 10
111.4427132049873
 20
178.8490900843913
 30
0.0000000000000000
 11
108.5441850676630
 21
175.9505619470689
 31
0.0000000000000000
  0
LINE
  5
3C8
100
AcDbEntity
  8
MAIN0
  6
CONTINUOUS
 62
3
100
AcDbLine
 10
117.1684491363748
 20
179.0248260156793
 30
0.0000000000000000
 11
111.8669772736992
 21
179.0248260156793
 31
0.0000000000000000
  0
ARC
  5
3C9
100
AcDbEntity
  8
MAIN0
  6
CONTINUOUS
 62
3
100
AcDbCircle
 10
108.9684491363747
 20
175.5262978783570
 30
0.0000000000000000
 40
0.6000000000000000
100
AcDbArc
 50
134.9999999999808
 51
180.0000000000000
  0
ARC
  5
3CA
100
AcDbEntity
  8
MAIN0
  6
CONTINUOUS
 62
3
100
AcDbCircle
 10
117.1684491363748
 20
177.8248260156794
 30
0.0000000000000000
 40
1.200000000000000
100
AcDbArc
 50
0.0000000000000000
 51
90.00000000000000
  0
LINE
  5
3CB
100
AcDbEntity
  8
MAIN0
  6
CONTINUOUS
 62
3
100
AcDbLine
 10
118.9684491362538
 20
175.5748260156793
 30
0.0000000000000000
 11
118.3684491363750
 21
176.1748260155590
 31
0.0000000000000000
  0
LINE
  5
3CC
100
AcDbEntity
  8
MAIN0
  6
CONTINUOUS
 62
3
100
AcDbLine
 10
127.4684491367556
 20
175.5748260156794
 30
0.0000000000000000
 11
118.9684491362538
 21
175.5748260156794
 31
0.0000000000000000
  0
LINE
  5
3CD
100
AcDbEntity
  8
MAIN0
  6
CONTINUOUS
 62
3
100
AcDbLine
 10
108.3684491365493
 20
175.5262978783570
 30
0.0000000000000000
 11
108.3684491365768
 21
159.0233541530017
 31
0.0000000000000000
  0
LINE
  5
3CE
100
AcDbEntity
  8
MAIN0
  6
CONTINUOUS
 62
3
100
AcDbLine
 10
110.3684491370854
 20
138.4748260156779
 30
0.0000000000000000
 11
110.3684491370984
 21
147.2748260156778
 31
0.0000000000000000
  0
LINE
  5
3CF
100
AcDbEntity
  8
MAIN0
  6
CONTINUOUS
 62
3
100
AcDbLine
 10
94.36844913626823
 20
138.4748260156896
 30
0.0000000000000000
 11
94.36844913630077
 21
147.2748260156897
 31
0.0000000000000000
  0
LINE
  5
3D0
100
AcDbEntity
  8
MAIN0
  6
CONTINUOUS
 62
3
100
AcDbLine
 10
94.56844913626765
 20
138.2748260156896
 30
0.0000000000000000
 11
110.1684491370852
 21
138.2748260156780
 31
0.0000000000000000
  0
LINE
  5
3D1
100
AcDbEntity
  8
MAIN0
  6
CONTINUOUS
 62
3
100
AcDbLine
 10
89.06844913712800
 20
147.2748260156936
 30
0.0000000000000000
 11
94.36844913630074
 21
147.2748260156897
 31
0.0000000000000000
  0
LINE
  5
3D2
100
AcDbEntity
  8
MAIN0
  6
CONTINUOUS
 62
3
100
AcDbLine
 10
110.3684491370984
 20
147.2748260156778
 30
0.0000000000000000
 11
130.5024237330275
 21
147.2748260156629
 31
0.0000000000000000
  0
LINE
  5
3D3
100
AcDbEntity
  8
MAIN0
  6
CONTINUOUS
 62
3
100
AcDbLine
 10
111.4427132049711
 20
155.7005619469628
 30
0.0000000000000000
 11
108.5441850676511
 21
158.5990900842895
 31
0.0000000000000000
  0
LINE
  5
3D4
100
AcDbEntity
  8
MAIN0
  6
CONTINUOUS
 62
3
100
AcDbLine
 10
117.1684491363575
 20
155.5248260156664
 30
0.0000000000000000
 11
111.8669772736825
 21
155.5248260156742
 31
0.0000000000000000
  0
ARC
  5
3D5
100
AcDbEntity
  8
MAIN0
  6
CONTINUOUS
 62
3
100
AcDbCircle
 10
108.9684491363634
 20
159.0233541530008
 30
0.0000000000000000
 40
0.6000000000000000
100
AcDbArc
 50
179.9999999999152
 51
224.9999999999344
  0
ARC
  5
3D6
100
AcDbEntity
  8
MAIN0
  6
CONTINUOUS
 62
3
100
AcDbCircle
 10
117.1684491363593
 20
156.7248260156663
 30
0.0000000000000000
 40
1.200000000000000
100
AcDbArc
 50
269.9999999999152
 51
360.0000000000000
  0
LINE
  5
3D7
100
AcDbEntity
  8
MAIN0
  6
CONTINUOUS
 62
3
100
AcDbLine
 10
118.9684491362417
 20
158.9748260156636
 30
0.0000000000000000
 11
118.3684491363619
 21
158.3748260157848
 31
0.0000000000000000
  0
LINE
  5
3D8
100
AcDbEntity
  8
MAIN0
  6
CONTINUOUS
 62
3
100
AcDbLine
 10
127.4684491367555
 20
158.9748260156511
 30
0.0000000000000000
 11
118.9684491362414
 21
158.9748260156637
 31
0.0000000000000000
  0
LINE
  5
3D9
100
AcDbEntity
  8
MAIN0
  6
CONTINUOUS
 62
3
100
AcDbLine
 10
130.0684491368237
 20
187.2748260156624
 30
0.0000000000000000
 11
130.0684491368104
 21
175.2748260156634
 31
0.0000000000000000
  0
LINE
  5
3DA
100
AcDbEntity
  8
MAIN0
  6
CONTINUOUS
 62
3
100
AcDbLine
 10
130.5024237330581
 20
187.2748260156623
 30
0.0000000000000000
 11
131.3684491367291
 21
186.7748260157282
 31
0.0000000000000000
  0
LINE
  5
3DB
100
AcDbEntity
  8
MAIN0
  6
CONTINUOUS
 62
3
100
AcDbLine
 10
130.5024237330819
 20
175.2748260156793
 30
0.0000000000000000
 11
131.3684491367420
 21
175.7748260156063
 31
0.0000000000000000
  0
LINE
  5
3DC
100
AcDbEntity
  8
MAIN0
  6
CONTINUOUS
 62
3
100
AcDbLine
 10
131.3684491367298
 20
186.7748260157279
 30
0.0000000000000000
 11
131.3684491367420
 21
175.7748260156060
 31
0.0000000000000000
  0
LINE
  5
3DD
100
AcDbEntity
  8
MAIN0
  6
CONTINUOUS
 62
3
100
AcDbLine
 10
130.0684491367941
 20
147.2748260156643
 30
0.0000000000000000
 11
130.0684491367985
 21
159.2748260156634
 31
0.0000000000000000
  0
LINE
  5
3DE
100
AcDbEntity
  8
MAIN0
  6
CONTINUOUS
 62
3
100
AcDbLine
 10
130.5024237330286
 20
147.2748260156638
 30
0.0000000000000000
 11
131.3684491367002
 21
147.7748260155965
 31
0.0000000000000000
  0
LINE
  5
3DF
100
AcDbEntity
  8
MAIN0
  6
CONTINUOUS
 62
3
100
AcDbLine
 10
130.5024237330699
 20
159.2748260156467
 30
0.0000000000000000
 11
131.3684491367292
 21
158.7748260157185
 31
0.0000000000000000
  0
LINE
  5
3E0
100
AcDbEntity
  8
MAIN0
  6
CONTINUOUS
 62
3
100
AcDbLine
 10
131.3684491367009
 20
147.7748260155967
 30
0.0000000000000000
 11
131.3684491367293
 21
158.7748260157182
 31
0.0000000000000000
  0
LINE
  5
3E1
100
AcDbEntity
  8
MAIN0
  6
CONTINUOUS
 62
3
100
AcDbLine
 10
127.4684491367555
 20
159.2748260156653
 30
0.0000000000000000
 11
130.5024237330415
 21
159.2748260156631
 31
0.0000000000000000
  0
LINE
  5
3E2
100
AcDbEntity
  8
MAIN0
  6
CONTINUOUS
 62
3
100
AcDbLine
 10
127.4684491367555
 20
175.2748260156653
 30
0.0000000000000000
 11
130.5024237330539
 21
175.2748260156631
 31
0.0000000000000000
  0
LINE
  5
3E3
100
AcDbEntity
  8
MAIN0
  6
CONTINUOUS
 62
3
100
AcDbLine
 10
127.4684491367556
 20
175.5748260156795
 30
0.0000000000000000
 11
127.4684491367556
 21
175.2748260156652
 31
0.0000000000000000
  0
LINE
  5
3E4
100
AcDbEntity
  8
MAIN0
  6
CONTINUOUS
 62
3
100
AcDbLine
 10
127.4684491367556
 20
159.2748260156652
 30
0.0000000000000000
 11
127.4684491367556
 21
158.9748260156526
 31
0.0000000000000000
  0
LINE
  5
3E5
100
AcDbEntity
  8
MAIN0
  6
CONTINUOUS
 62
3
100
AcDbLine
 10
94.56844913631059
 20
196.2748260156897
 30
0.0000000000000000
 11
94.36844913631109
 21
196.0748260156898
 31
0.0000000000000000
  0
LINE
  5
3E6
100
AcDbEntity
  8
MAIN0
  6
CONTINUOUS
 62
3
100
AcDbLine
 10
89.06844913712820
 20
187.2748260156936
 30
0.0000000000000000
 11
88.86844913712824
 21
187.0748260156938
 31
0.0000000000000000
  0
LINE
  5
3E7
100
AcDbEntity
  8
MAIN0
  6
CONTINUOUS
 62
3
100
AcDbLine
 10
88.86844913712821
 20
147.4748260156937
 30
0.0000000000000000
 11
89.06844913712820
 21
147.2748260156936
 31
0.0000000000000000
  0
LINE
  5
3E8
100
AcDbEntity
  8
MAIN0
  6
CONTINUOUS
 62
3
100
AcDbLine
 10
94.36844913626842
 20
138.4748260156897
 30
0.0000000000000000
 11
94.56844913626765
 21
138.2748260156896
 31
0.0000000000000000
  0
LINE
  5
3E9
100
AcDbEntity
  8
MAIN0
  6
CONTINUOUS
 62
3
100
AcDbLine
 10
110.1684491371281
 20
196.2748260156779
 30
0.0000000000000000
 11
110.3684491371281
 21
196.0748260156778
 31
0.0000000000000000
  0
LINE
  5
3EA
100
AcDbEntity
  8
MAIN0
  6
CONTINUOUS
 62
3
100
AcDbLine
 10
110.3684491370854
 20
138.4748260156777
 30
0.0000000000000000
 11
110.1684491370852
 21
138.2748260156779
 31
0.0000000000000000
  0
ARC
  5
3EB
100
AcDbEntity
  8
MAIN0
  6
CONTINUOUS
 62
3
100
AcDbCircle
 10
111.8669772736992
 20
178.4248260156794
 30
0.0000000000000000
 40
0.6000000000000000
100
AcDbArc
 50
90.00000000000000
 51
134.9999999999808
  0
ARC
  5
3EC
100
AcDbEntity
  8
MAIN0
  6
CONTINUOUS
 62
3
100
AcDbCircle
 10
111.8669772736834
 20
156.1248260156742
 30
0.0000000000000000
 40
0.6000000000000000
100
AcDbArc
 50
224.9999999999347
 51
270.0000000000000
  0
LINE
  5
3ED
100
AcDbEntity
  8
MAIN0
  6
CONTINUOUS
 62
3
100
AcDbLine
 10
118.3684491363749
 20
177.8248260156794
 30
0.0000000000000000
 11
118.3684491363750
 21
176.1748260155589
 31
0.0000000000000000
  0
LINE
  5
3EE
100
AcDbEntity
  8
MAIN0
  6
CONTINUOUS
 62
3
100
AcDbLine
 10
118.3684491363617
 20
158.3748260157850
 30
0.0000000000000000
 11
118.3684491363594
 21
156.8748260155481
 31
0.0000000000000000
  0
LINE
  5
3EF
100
AcDbEntity
  8
MAIN0
  6
CONTINUOUS
 62
3
100
AcDbLine
 10
708.0118585024425
 20
351.8299181400645
 30
0.0000000000000000
 11
707.1059918445744
 21
355.2106585320738
 31
0.0000000000000000
  0
LINE
  5
3F0
100
AcDbEntity
  8
MAIN0
  6
CONTINUOUS
 62
3
100
AcDbLine
 10
705.8685549775034
 20
353.0673550071351
 30
0.0000000000000000
 11
709.2492953695128
 21
353.9732216650032
 31
0.0000000000000000
  0
LINE
  5
3F1
100
AcDbEntity
  8
MAIN0
  6
CONTINUOUS
 62
3
100
AcDbLine
 10
615.5848671792467
 20
351.8299181404108
 30
0.0000000000000000
 11
616.4907338371054
 21
355.2106585324226
 31
0.0000000000000000
  0
LINE
  5
3F2
100
AcDbEntity
  8
MAIN0
  6
CONTINUOUS
 62
3
100
AcDbLine
 10
617.7281707041935
 20
353.0673550075296
 30
0.0000000000000000
 11
614.3474303121793
 21
353.9732216653793
 31
0.0000000000000000
  0
LINE
  5
3F3
100
AcDbEntity
  8
MAIN0
  6
CENTER
 62
3
100
AcDbLine
 10
161.6983628409189
 20
279.7606693931837
 30
0.0000000000000000
 11
191.6983628409189
 21
279.7606693931837
 31
0.0000000000000000
  0
CIRCLE
  5
3F4
100
AcDbEntity
  8
MAIN0
  6
CONTINUOUS
 62
3
100
AcDbCircle
 10
603.0483628409189
 20
295.5026844485121
 30
0.0000000000000000
 40
8.000000000000000
  0
LINE
  5
3F5
100
AcDbEntity
  8
MAIN0
  6
CONTINUOUS
 62
3
100
AcDbLine
 10
605.3577639176774
 20
299.5026844485121
 30
0.0000000000000000
 11
600.7389617641604
 21
299.5026844485121
 31
0.0000000000000000
  0
LINE
  5
3F6
100
AcDbEntity
  8
MAIN0
  6
CONTINUOUS
 62
3
100
AcDbLine
 10
600.7389617641604
 20
299.5026844485121
 30
0.0000000000000000
 11
598.4295606874019
 21
295.5026844485121
 31
0.0000000000000000
  0
LINE
  5
3F7
100
AcDbEntity
  8
MAIN0
  6
CONTINUOUS
 62
3
100
AcDbLine
 10
598.4295606874019
 20
295.5026844485121
 30
0.0000000000000000
 11
600.7389617641604
 21
291.5026844485121
 31
0.0000000000000000
  0
LINE
  5
3F8
100
AcDbEntity
  8
MAIN0
  6
CONTINUOUS
 62
3
100
AcDbLine
 10
600.7389617641604
 20
291.5026844485121
 30
0.0000000000000000
 11
605.3577639176774
 21
291.5026844485121
 31
0.0000000000000000
  0
LINE
  5
3F9
100
AcDbEntity
  8
MAIN0
  6
CONTINUOUS
 62
3
100
AcDbLine
 10
605.3577639176774
 20
291.5026844485121
 30
0.0000000000000000
 11
607.6671649944360
 21
295.5026844485121
 31
0.0000000000000000
  0
LINE
  5
3FA
100
AcDbEntity
  8
MAIN0
  6
CONTINUOUS
 62
3
100
AcDbLine
 10
607.6671649944360
 20
295.5026844485121
 30
0.0000000000000000
 11
605.3577639176774
 21
299.5026844485122
 31
0.0000000000000000
  0
LINE
  5
3FB
100
AcDbEntity
  8
MAIN0
  6
HIDDEN
 62
3
100
AcDbLine
 10
614.9787633361502
 20
247.9282378780802
 30
0.0000000000000000
 11
617.6554789695679
 21
256.7995933397697
 31
0.0000000000000000
  0
LINE
  5
3FC
100
AcDbEntity
  8
MAIN0
  6
HIDDEN
 62
3
100
AcDbLine
 10
617.6554789695679
 20
256.7995933397698
 30
0.0000000000000000
 11
629.7966836431083
 21
253.5463673523537
 31
0.0000000000000000
  0
LINE
  5
3FD
100
AcDbEntity
  8
MAIN0
  6
HIDDEN
 62
3
100
AcDbLine
 10
629.7966836431082
 20
253.5463673523537
 30
0.0000000000000000
 11
627.6791096495101
 21
244.5251903398199
 31
0.0000000000000000
  0
LINE
  5
3FE
100
AcDbEntity
  8
MAIN0
  6
HIDDEN
 62
3
100
AcDbLine
 10
615.7958838152572
 20
247.6745005021610
 30
0.0000000000000000
 11
618.4823114768714
 21
256.5780442371620
 31
0.0000000000000000
  0
LINE
  5
3FF
100
AcDbEntity
  8
MAIN0
  6
HIDDEN
 62
3
100
AcDbLine
 10
626.8445938686914
 20
244.7140075659377
 30
0.0000000000000000
 11
628.9698511358048
 21
253.7679164549615
 31
0.0000000000000000
  0
LINE
  5
400
100
AcDbEntity
  8
MAIN0
  6
HIDDEN
 62
3
100
AcDbLine
 10
618.5100818443771
 20
256.5706031896153
 30
0.0000000000000000
 11
619.9594684969511
 21
261.9797878168341
 31
0.0000000000000000
  0
LINE
  5
401
100
AcDbEntity
  8
MAIN0
  6
HIDDEN
 62
3
100
AcDbLine
 10
630.3914674208731
 20
259.1845421297269
 30
0.0000000000000000
 11
628.9420807682990
 21
253.7753575025081
 31
0.0000000000000000
  0
LINE
  5
402
100
AcDbEntity
  8
MAIN0
  6
CONTINUOUS
 62
3
100
AcDbLine
 10
187.1983628409188
 20
246.3606693931835
 30
0.0000000000000000
 11
187.1983628409188
 21
264.7606693931837
 31
0.0000000000000000
  0
LINE
  5
403
100
AcDbEntity
  8
MAIN0
  6
CONTINUOUS
 62
3
100
AcDbLine
 10
205.6983628407152
 20
245.7606693931834
 30
0.0000000000000000
 11
207.0381088028672
 21
240.7606693931835
 31
0.0000000000000000
  0
LINE
  5
404
100
AcDbEntity
  8
MAIN0
  6
CONTINUOUS
 62
3
100
AcDbLine
 10
207.0381088028672
 20
240.7606693931835
 30
0.0000000000000000
 11
211.8983628409209
 21
240.7606693931835
 31
0.0000000000000000
  0
LINE
  5
405
100
AcDbEntity
  8
MAIN0
  6
CONTINUOUS
 62
3
100
AcDbLine
 10
211.8983628409185
 20
367.8069832340102
 30
0.0000000000000000
 11
211.8983628409209
 21
240.7606693931836
 31
0.0000000000000000
  0
LINE
  5
406
100
AcDbEntity
  8
MAIN0
  6
CONTINUOUS
 62
3
100
AcDbLine
 10
212.8983628409209
 20
242.2606693931837
 30
0.0000000000000000
 11
211.8983628409209
 21
242.2606693931837
 31
0.0000000000000000
  0
LINE
  5
407
100
AcDbEntity
  8
MAIN0
  6
CONTINUOUS
 62
3
100
AcDbLine
 10
243.4983628409186
 20
240.7606693931836
 30
0.0000000000000000
 11
212.8983628409184
 21
240.7606693931836
 31
0.0000000000000000
  0
LINE
  5
408
100
AcDbEntity
  8
MAIN0
  6
CONTINUOUS
 62
3
100
AcDbLine
 10
243.4983628408725
 20
367.7745212950622
 30
0.0000000000000000
 11
243.4983628408725
 21
239.7606693931837
 31
0.0000000000000000
  0
LINE
  5
409
100
AcDbEntity
  8
MAIN0
  6
CONTINUOUS
 62
3
100
AcDbLine
 10
243.4983628409186
 20
239.7606693931837
 30
0.0000000000000000
 11
252.4468986240225
 21
239.7606693931836
 31
0.0000000000000000
  0
LINE
  5
40A
100
AcDbEntity
  8
MAIN0
  6
CONTINUOUS
 62
3
100
AcDbLine
 10
258.9983628409190
 20
257.7606693931813
 30
0.0000000000000000
 11
252.4468986240226
 21
239.7606693931836
 31
0.0000000000000000
  0
LINE
  5
40B
100
AcDbEntity
  8
MAIN0
  6
CENTER
 62
3
100
AcDbLine
 10
738.1529688968030
 20
484.9289839476624
 30
0.0000000000000000
 11
749.4666773957637
 21
473.6152754486536
 31
0.0000000000000000
  0
LINE
  5
40C
100
AcDbEntity
  8
MAIN0
  6
CENTER
 62
3
100
AcDbLine
 10
749.4666773957638
 20
473.6152754486535
 30
0.0000000000000000
 11
752.2951045205127
 21
476.4437025733971
 31
0.0000000000000000
  0
LINE
  5
40D
100
AcDbEntity
  8
MAIN0
  6
CENTER
 62
3
100
AcDbLine
 10
738.1529688968028
 20
484.9289839476622
 30
0.0000000000000000
 11
740.9813960215518
 21
487.7574110724059
 31
0.0000000000000000
  0
CIRCLE
  5
40E
100
AcDbEntity
  8
MAIN0
  6
CONTINUOUS
 62
3
100
AcDbCircle
 10
661.7983628409188
 20
295.2606693931837
 30
0.0000000000000000
 40
12.70000000000016
  0
CIRCLE
  5
40F
100
AcDbEntity
  8
MAIN0
  6
CONTINUOUS
 62
3
100
AcDbCircle
 10
661.7983628409188
 20
302.2606693931837
 30
0.0000000000000000
 40
1.550000000000000
  0
CIRCLE
  5
410
100
AcDbEntity
  8
MAIN0
  6
CONTINUOUS
 62
3
100
AcDbCircle
 10
661.7983628409188
 20
288.2606693931837
 30
0.0000000000000000
 40
1.550000000000000
  0
LINE
  5
411
100
AcDbEntity
  8
MAIN0
  6
CENTER
 62
3
100
AcDbLine
 10
689.0145760958828
 20
288.1024001871342
 30
0.0000000000000000
 11
683.9342162882896
 21
308.4786104389305
 31
0.0000000000000000
  0
CIRCLE
  5
412
100
AcDbEntity
  8
MAIN0
  6
CONTINUOUS
 62
3
100
AcDbCircle
 10
637.1223294897513
 20
298.2905053130323
 30
0.0000000000000000
 40
7.500000000000256
  0
CIRCLE
  5
413
100
AcDbEntity
  8
MAIN0
  6
CONTINUOUS
 62
3
100
AcDbCircle
 10
637.1223294897513
 20
298.2905053130323
 30
0.0000000000000000
 40
7.000000000000000
  0
LINE
  5
414
100
AcDbEntity
  8
MAIN0
  6
CONTINUOUS
 62
3
100
AcDbLine
 10
639.6471391065301
 20
296.8909804892595
 30
0.0000000000000000
 11
639.5967583487551
 21
299.7772921689952
 31
0.0000000000000000
  0
LINE
  5
415
100
AcDbEntity
  8
MAIN0
  6
CONTINUOUS
 62
3
100
AcDbLine
 10
634.6479006307482
 20
296.8037184570692
 30
0.0000000000000000
 11
634.5975198729732
 21
299.6900301368052
 31
0.0000000000000000
  0
LINE
  5
416
100
AcDbEntity
  8
MAIN0
  6
CONTINUOUS
 62
3
100
AcDbLine
 10
637.1727102475263
 20
295.4041936332964
 30
0.0000000000000000
 11
639.6471391065300
 21
296.8909804892595
 31
0.0000000000000000
  0
LINE
  5
417
100
AcDbEntity
  8
MAIN0
  6
CONTINUOUS
 62
3
100
AcDbLine
 10
634.5975198729732
 20
299.6900301368052
 30
0.0000000000000000
 11
637.0719487319764
 21
301.1768169927680
 31
0.0000000000000000
  0
LINE
  5
418
100
AcDbEntity
  8
MAIN0
  6
CONTINUOUS
 62
3
100
AcDbLine
 10
634.6479006307484
 20
296.8037184570690
 30
0.0000000000000000
 11
637.1727102475264
 21
295.4041936332964
 31
0.0000000000000000
  0
LINE
  5
419
100
AcDbEntity
  8
MAIN0
  6
CONTINUOUS
 62
3
100
AcDbLine
 10
637.0719487319766
 20
301.1768169927681
 30
0.0000000000000000
 11
639.5967583487550
 21
299.7772921689952
 31
0.0000000000000000
  0
LINE
  5
41A
100
AcDbEntity
  8
MAIN0
  6
CENTER
 62
3
100
AcDbLine
 10
634.5821495859550
 20
288.1024001871341
 30
0.0000000000000000
 11
639.6625093935484
 21
308.4786104389305
 31
0.0000000000000000
  0
ARC
  5
41B
100
AcDbEntity
  8
MAIN0
  6
CENTER
 62
3
100
AcDbCircle
 10
661.7983628409188
 20
397.2606693931837
 30
0.0000000000000000
 40
102.0000000000000
100
AcDbArc
 50
250.1009554102244
 51
289.8990445897757
  0
ARC
  5
41C
100
AcDbEntity
  8
MAIN0
  6
CENTER
 62
3
100
AcDbCircle
 10
661.7983628409188
 20
295.2606693931837
 30
0.0000000000000000
 40
7.000000000000000
100
AcDbArc
 50
238.2215603313518
 51
303.7750083214802
  0
ARC
  5
41D
100
AcDbEntity
  8
MAIN0
  6
CENTER
 62
3
100
AcDbCircle
 10
661.7983628409188
 20
295.2606693931837
 30
0.0000000000000000
 40
7.000000000000000
100
AcDbArc
 50
58.22156033135177
 51
123.7750083214802
  0
LINE
  5
41E
100
AcDbEntity
  8
MAIN0
  6
CONTINUOUS
 62
3
100
AcDbLine
 10
720.0900140868744
 20
368.2247710080848
 30
0.0000000000000000
 11
716.0900140869123
 21
361.2965677778743
 31
0.0000000000000000
  0
CIRCLE
  5
41F
100
AcDbEntity
  8
MAIN0
  6
CONTINUOUS
 62
3
100
AcDbCircle
 10
727.6162935285051
 20
359.2606693929897
 30
0.0000000000000000
 40
6.000000000000000
  0
CIRCLE
  5
420
100
AcDbEntity
  8
MAIN0
  6
CONTINUOUS
 62
3
100
AcDbCircle
 10
727.6162935285051
 20
359.2606693929897
 30
0.0000000000000000
 40
5.100000000000000
  0
CIRCLE
  5
421
100
AcDbEntity
  8
MAIN0
  6
CONTINUOUS
 62
3
100
AcDbCircle
 10
753.5970556420383
 20
344.2606693929896
 30
0.0000000000000000
 40
6.000000000000000
  0
CIRCLE
  5
422
100
AcDbEntity
  8
MAIN0
  6
CONTINUOUS
 62
3
100
AcDbCircle
 10
753.5970556420383
 20
344.2606693929896
 30
0.0000000000000000
 40
5.100000000000000
  0
LINE
  5
423
100
AcDbEntity
  8
MAIN0
  6
CONTINUOUS
 62
3
100
AcDbLine
 10
603.5067115949635
 20
368.2247710080849
 30
0.0000000000000000
 11
607.5067115949255
 21
361.2965677778744
 31
0.0000000000000000
  0
CIRCLE
  5
424
100
AcDbEntity
  8
MAIN0
  6
CONTINUOUS
 62
3
100
AcDbCircle
 10
595.9804321533326
 20
359.2606693929897
 30
0.0000000000000000
 40
6.000000000000000
  0
CIRCLE
  5
425
100
AcDbEntity
  8
MAIN0
  6
CONTINUOUS
 62
3
100
AcDbCircle
 10
595.9804321533326
 20
359.2606693929897
 30
0.0000000000000000
 40
5.100000000000000
  0
CIRCLE
  5
426
100
AcDbEntity
  8
MAIN0
  6
CONTINUOUS
 62
3
100
AcDbCircle
 10
569.9996700397994
 20
344.2606693929896
 30
0.0000000000000000
 40
6.000000000000000
  0
CIRCLE
  5
427
100
AcDbEntity
  8
MAIN0
  6
CONTINUOUS
 62
3
100
AcDbCircle
 10
569.9996700397994
 20
344.2606693929896
 30
0.0000000000000000
 40
5.100000000000000
  0
LINE
  5
428
100
AcDbEntity
  8
MAIN0
  6
CONTINUOUS
 62
3
100
AcDbLine
 10
186.6983628409188
 20
274.7606693931839
 30
0.0000000000000000
 11
165.6983628409189
 21
274.7606693931839
 31
0.0000000000000000
  0
LINE
  5
429
100
AcDbEntity
  8
MAIN0
  6
CONTINUOUS
 62
3
100
AcDbLine
 10
165.6983628409189
 20
274.7606693931839
 30
0.0000000000000000
 11
165.6983628409189
 21
284.7606693931839
 31
0.0000000000000000
  0
LINE
  5
42A
100
AcDbEntity
  8
MAIN0
  6
CONTINUOUS
 62
3
100
AcDbLine
 10
165.6983628409189
 20
284.7606693931839
 30
0.0000000000000000
 11
186.6983628409188
 21
284.7606693931839
 31
0.0000000000000000
  0
LINE
  5
42B
100
AcDbEntity
  8
MAIN0
  6
CONTINUOUS
 62
3
100
AcDbLine
 10
186.6983628409189
 20
275.5725683931839
 30
0.0000000000000000
 11
165.6983628409189
 21
275.5725683931839
 31
0.0000000000000000
  0
LINE
  5
42C
100
AcDbEntity
  8
MAIN0
  6
CONTINUOUS
 62
3
100
AcDbLine
 10
186.6983628409189
 20
283.9487703931839
 30
0.0000000000000000
 11
165.6983628409189
 21
283.9487703931839
 31
0.0000000000000000
  0
CIRCLE
  5
42D
100
AcDbEntity
  8
MAIN0
  6
CONTINUOUS
 62
3
100
AcDbCircle
 10
686.4743961920863
 20
298.2905053130323
 30
0.0000000000000000
 40
7.500000000000256
  0
CIRCLE
  5
42E
100
AcDbEntity
  8
MAIN0
  6
CONTINUOUS
 62
3
100
AcDbCircle
 10
686.4743961920863
 20
298.2905053130323
 30
0.0000000000000000
 40
7.000000000000000
  0
LINE
  5
42F
100
AcDbEntity
  8
MAIN0
  6
CONTINUOUS
 62
3
100
AcDbLine
 10
683.9495865753077
 20
296.8909804892595
 30
0.0000000000000000
 11
683.9999673330827
 21
299.7772921689952
 31
0.0000000000000000
  0
LINE
  5
430
100
AcDbEntity
  8
MAIN0
  6
CONTINUOUS
 62
3
100
AcDbLine
 10
688.9488250510897
 20
296.8037184570692
 30
0.0000000000000000
 11
688.9992058088646
 21
299.6900301368052
 31
0.0000000000000000
  0
LINE
  5
431
100
AcDbEntity
  8
MAIN0
  6
CONTINUOUS
 62
3
100
AcDbLine
 10
686.4240154343111
 20
295.4041936332963
 30
0.0000000000000000
 11
683.9495865753077
 21
296.8909804892593
 31
0.0000000000000000
  0
LINE
  5
432
100
AcDbEntity
  8
MAIN0
  6
CONTINUOUS
 62
3
100
AcDbLine
 10
688.9992058088648
 20
299.6900301368050
 30
0.0000000000000000
 11
686.5247769498612
 21
301.1768169927680
 31
0.0000000000000000
  0
LINE
  5
433
100
AcDbEntity
  8
MAIN0
  6
CONTINUOUS
 62
3
100
AcDbLine
 10
688.9488250510899
 20
296.8037184570695
 30
0.0000000000000000
 11
686.4240154343115
 21
295.4041936332966
 31
0.0000000000000000
  0
LINE
  5
434
100
AcDbEntity
  8
MAIN0
  6
CONTINUOUS
 62
3
100
AcDbLine
 10
686.5247769498614
 20
301.1768169927681
 30
0.0000000000000000
 11
683.9999673330825
 21
299.7772921689950
 31
0.0000000000000000
  0
LINE
  5
435
100
AcDbEntity
  8
WAKU0
  6
CONTINUOUS
 62
3
100
AcDbLine
 10
555.4406760812542
 20
50.72034075954136
 30
0.0000000000000000
 11
725.4406760812542
 21
50.72034075954136
 31
0.0000000000000000
  0
LINE
  5
436
100
AcDbEntity
  8
WAKU0
  6
CONTINUOUS
 62
3
100
AcDbLine
 10
555.4406760812542
 20
50.72034075954136
 30
0.0000000000000000
 11
555.4406760812542
 21
11.72034075954136
 31
0.0000000000000000
  0
LINE
  5
437
100
AcDbEntity
  8
WAKU0
  6
CONTINUOUS
 62
3
100
AcDbLine
 10
627.4406760812542
 20
50.72034075954136
 30
0.0000000000000000
 11
627.4406760812542
 21
11.72034075954136
 31
0.0000000000000000
  0
LINE
  5
438
100
AcDbEntity
  8
WAKU0
  6
CONTINUOUS
 62
3
100
AcDbLine
 10
647.4406760812542
 20
50.72034075954136
 30
0.0000000000000000
 11
647.4406760812542
 21
11.72034075954136
 31
0.0000000000000000
  0
LINE
  5
439
100
AcDbEntity
  8
WAKU0
  6
CONTINUOUS
 62
3
100
AcDbLine
 10
659.4406760812542
 20
50.72034075954136
 30
0.0000000000000000
 11
659.4406760812542
 21
11.72034075954136
 31
0.0000000000000000
  0
LINE
  5
43A
100
AcDbEntity
  8
WAKU0
  6
CONTINUOUS
 62
3
100
AcDbLine
 10
659.4406760812542
 20
36.72034075954136
 30
0.0000000000000000
 11
725.4406760812542
 21
36.72034075954136
 31
0.0000000000000000
  0
LINE
  5
43B
100
AcDbEntity
  8
WAKU0
  6
CONTINUOUS
 62
3
100
AcDbLine
 10
647.4406760812542
 20
22.72034075954136
 30
0.0000000000000000
 11
725.4406760812542
 21
22.72034075954136
 31
0.0000000000000000
  0
LINE
  5
43C
100
AcDbEntity
  8
WAKU0
  6
CONTINUOUS
 62
3
100
AcDbLine
 10
690.4406760812542
 20
50.72034075954136
 30
0.0000000000000000
 11
690.4406760812542
 21
43.72034075954136
 31
0.0000000000000000
  0
LINE
  5
43D
100
AcDbEntity
  8
WAKU0
  6
CONTINUOUS
 62
3
100
AcDbLine
 10
702.4406760812542
 20
50.72034075954136
 30
0.0000000000000000
 11
702.4406760812542
 21
43.72034075954136
 31
0.0000000000000000
  0
LINE
  5
43E
100
AcDbEntity
  8
WAKU0
  6
CONTINUOUS
 62
3
100
AcDbLine
 10
627.4406760812542
 20
31.22034075954136
 30
0.0000000000000000
 11
647.4406760812542
 21
31.22034075954136
 31
0.0000000000000000
  0
LINE
  5
43F
100
AcDbEntity
  8
WAKU0
  6
CONTINUOUS
 62
3
100
AcDbLine
 10
647.4406760812542
 20
43.72034075954136
 30
0.0000000000000000
 11
725.4406760812542
 21
43.72034075954136
 31
0.0000000000000000
  0
LINE
  5
440
100
AcDbEntity
  8
WAKU0
  6
CONTINUOUS
 62
3
100
AcDbLine
 10
555.4406760812542
 20
36.72034075954136
 30
0.0000000000000000
 11
627.4406760812542
 21
36.72034075954136
 31
0.0000000000000000
  0
LINE
  5
441
100
AcDbEntity
  8
WAKU0
  6
CONTINUOUS
 62
3
100
AcDbLine
 10
555.4406760812542
 20
22.72034075954136
 30
0.0000000000000000
 11
627.4406760812542
 21
22.72034075954136
 31
0.0000000000000000
  0
LINE
  5
442
100
AcDbEntity
  8
WAKU0
  6
CONTINUOUS
 62
3
100
AcDbLine
 10
603.4406760812542
 20
36.72034075954136
 30
0.0000000000000000
 11
603.4406760812542
 21
11.72034075954136
 31
0.0000000000000000
  0
LINE
  5
443
100
AcDbEntity
  8
WAKU0
  6
CONTINUOUS
 62
3
100
AcDbLine
 10
579.4406760812542
 20
36.72034075954136
 30
0.0000000000000000
 11
579.4406760812542
 21
22.72034075954136
 31
0.0000000000000000
  0
LINE
  5
444
100
AcDbEntity
  8
WAKU0
  6
CONTINUOUS
 62
3
100
AcDbLine
 10
615.4406760812542
 20
25.72034075954136
 30
0.0000000000000000
 11
615.4406760812542
 21
22.72034075954136
 31
0.0000000000000000
  0
LINE
  5
445
100
AcDbEntity
  8
WAKU0
  6
CONTINUOUS
 62
3
100
AcDbLine
 10
591.4406760812542
 20
25.72034075954136
 30
0.0000000000000000
 11
591.4406760812542
 21
22.72034075954136
 31
0.0000000000000000
  0
LINE
  5
446
100
AcDbEntity
  8
WAKU0
  6
CONTINUOUS
 62
3
100
AcDbLine
 10
567.4406760812542
 20
25.72034075954136
 30
0.0000000000000000
 11
567.4406760812542
 21
22.72034075954136
 31
0.0000000000000000
  0
LINE
  5
447
100
AcDbEntity
  8
WAKU0
  6
CONTINUOUS
 62
3
100
AcDbLine
 10
573.4406760812542
 20
50.72034075954136
 30
0.0000000000000000
 11
573.4406760812542
 21
36.72034075954136
 31
0.0000000000000000
  0
LINE
  5
448
100
AcDbEntity
  8
WAKU0
  6
CONTINUOUS
 62
3
100
AcDbLine
 10
555.4406760812542
 20
44.72034075954136
 30
0.0000000000000000
 11
627.4406760812542
 21
44.72034075954136
 31
0.0000000000000000
  0
LINE
  5
449
100
AcDbEntity
  8
WAKU0
  6
HIDDEN
 62
3
100
AcDbLine
 10
675.9406760812542
 20
22.72034075954136
 30
0.0000000000000000
 11
675.9406760812542
 21
11.72034075954136
 31
0.0000000000000000
  0
LINE
  5
44A
100
AcDbEntity
  8
WAKU0
  6
HIDDEN
 62
3
100
AcDbLine
 10
688.3406760812542
 20
22.72034075954136
 30
0.0000000000000000
 11
688.3406760812542
 21
11.72034075954136
 31
0.0000000000000000
  0
MTEXT
  5
44B
100
AcDbEntity
  8
WAKU0
  6
CONTINUOUS
 62
3
100
AcDbMText
 10
659.9226761056027
 20
48.77034071185764
 30
0.0000000000000000
 40
3.099999904632568
 41
0.0000000000000000
 71
     1
 72
     1
  1
{\H0.92x;{NRC10}}
 11
1.000000000000000
 21
0.0000000000000000
 31
0.0000000000000000
  7
STANDARD
  0
MTEXT
  5
44C
100
AcDbEntity
  8
WAKU0
  6
CONTINUOUS
 62
3
100
AcDbMText
 10
659.9206761074802
 20
42.22034075954136
 30
0.0000000000000000
 40
4.000000000000000
 41
0.0000000000000000
 71
     1
 72
     1
  1
{\H0.59x;{ＲＯＴＡＲＹ　ＣＨＵＣＫ　１０}}
 11
1.000000000000000
 21
0.0000000000000000
 31
0.0000000000000000
  7
KNJYOKO
  0
MTEXT
  5
44D
100
AcDbEntity
  8
WAKU0
  6
CONTINUOUS
 62
3
100
AcDbMText
 10
660.0606760714195
 20
34.55367409287469
 30
0.0000000000000000
 40
4.000000000000000
 41
0.0000000000000000
 71
     1
 72
     1
  1
{\H0.94x;{ＮＲＣ１０　ガイケイ\P　　ＯＵＴＳＩＤＥ　ＶＩＥＷ}}
 11
1.000000000000000
 21
0.0000000000000000
 31
0.0000000000000000
  7
KNJYOKO
  0
MTEXT
  5
44E
100
AcDbEntity
  8
WAKU0
  6
CONTINUOUS
 62
3
100
AcDbMText
 10
633.4456759572765
 20
39.02034071185764
 30
0.0000000000000000
 40
3.099999904632568
 41
0.0000000000000000
 71
     1
 72
     1
  1
{\H0.90x;{2:3}}
 11
1.000000000000000
 21
0.0000000000000000
 31
0.0000000000000000
  7
STANDARD
  0
MTEXT
  5
44F
100
AcDbEntity
  8
WAKU0
  6
CONTINUOUS
 62
3
100
AcDbMText
 10
689.8406762362263
 20
19.87034085490879
 30
0.0000000000000000
 40
5.300000190734863
 41
0.0000000000000000
 71
     1
 72
     1
  1
{\H0.90x;{2644}}
 11
1.000000000000000
 21
0.0000000000000000
 31
0.0000000000000000
  7
STANDARD
  0
MTEXT
  5
450
100
AcDbEntity
  8
WAKU0
  6
CONTINUOUS
 62
3
100
AcDbMText
 10
677.7406761647007
 20
19.87034085490879
 30
0.0000000000000000
 40
5.300000190734863
 41
0.0000000000000000
 71
     1
 72
     1
  1
{\H0.87x;{24}}
 11
1.000000000000000
 21
0.0000000000000000
 31
0.0000000000000000
  7
STANDARD
  0
MTEXT
  5
451
100
AcDbEntity
  8
WAKU0
  6
CONTINUOUS
 62
3
100
AcDbMText
 10
660.9406762004635
 20
19.87034085490879
 30
0.0000000000000000
 40
5.300000190734863
 41
0.0000000000000000
 71
     1
 72
     1
  1
{\H0.89x;{61P}}
 11
1.000000000000000
 21
0.0000000000000000
 31
0.0000000000000000
  7
STANDARD
  0
MTEXT
  5
452
100
AcDbEntity
  8
WAKU0
  6
CONTINUOUS
 62
3
100
AcDbMText
 10
715.4406761289379
 20
19.87034085490879
 30
0.0000000000000000
 40
5.300000190734863
 41
0.0000000000000000
 71
     1
 72
     1
  1
{\H0.81x;{5}}
 11
1.000000000000000
 21
0.0000000000000000
 31
0.0000000000000000
  7
STANDARD
  0
MTEXT
  5
453
100
AcDbEntity
  8
WAKU0
  6
CONTINUOUS
 62
3
100
AcDbMText
 10
604.8256763697407
 20
32.72034075954136
 30
0.0000000000000000
 40
3.000000000000000
 41
0.0000000000000000
 71
     7
 72
     1
  1
{\H0.93x;{DRAWN BY}}
 11
1.000000000000000
 21
0.0000000000000000
 31
0.0000000000000000
  7
STANDARD
  0
MTEXT
  5
454
100
AcDbEntity
  8
WAKU0
  6
CONTINUOUS
 62
3
100
AcDbMText
 10
584.6556758762142
 20
32.67034080722507
 30
0.0000000000000000
 40
3.099999904632568
 41
0.0000000000000000
 71
     7
 72
     1
  1
{\H0.92x;{CHIEF}}
 11
1.000000000000000
 21
0.0000000000000000
 31
0.0000000000000000
  7
STANDARD
  0
MTEXT
  5
455
100
AcDbEntity
  8
WAKU0
  6
CONTINUOUS
 62
3
100
AcDbMText
 10
557.8656757951519
 20
32.67034080722507
 30
0.0000000000000000
 40
3.099999904632568
 41
0.0000000000000000
 71
     7
 72
     1
  1
{\H0.92x;{MANAGER}}
 11
1.000000000000000
 21
0.0000000000000000
 31
0.0000000000000000
  7
STANDARD
  0
MTEXT
  5
456
100
AcDbEntity
  8
WAKU0
  6
CONTINUOUS
 62
3
100
AcDbMText
 10
560.1006755114338
 20
17.85367412466384
 30
0.0000000000000000
 40
3.099999904632568
 41
0.0000000000000000
 71
     7
 72
     1
  1
{\H0.93x;{KITAGAWA IRON\PWORKS CO.,LTD.}}
 11
1.000000000000000
 21
0.0000000000000000
 31
0.0000000000000000
  7
STANDARD
  0
MTEXT
  5
457
100
AcDbEntity
  8
WAKU0
  6
CONTINUOUS
 62
3
100
AcDbMText
 10
556.5256762982151
 20
46.22034075954136
 30
0.0000000000000000
 40
3.000000000000000
 41
0.0000000000000000
 71
     7
 72
     1
  1
{\H0.92x;{CAREER}}
 11
1.000000000000000
 21
0.0000000000000000
 31
0.0000000000000000
  7
STANDARD
  0
MTEXT
  5
458
100
AcDbEntity
  8
WAKU0
  6
CONTINUOUS
 62
3
100
AcDbMText
 10
610.0506759167454
 20
18.67034080722507
 30
0.0000000000000000
 40
3.099999904632568
 41
0.0000000000000000
 71
     7
 72
     1
  1
{\H0.91x;{DATE}}
 11
1.000000000000000
 21
0.0000000000000000
 31
0.0000000000000000
  7
STANDARD
  0
MTEXT
  5
459
100
AcDbEntity
  8
WAKU0
  6
CONTINUOUS
 62
3
100
AcDbMText
 10
629.3406762958309
 20
26.22034075954136
 30
0.0000000000000000
 40
3.000000000000000
 41
0.0000000000000000
 71
     7
 72
     1
  1
{\H0.63x;{3RD ANGLE}}
 11
1.000000000000000
 21
0.0000000000000000
 31
0.0000000000000000
  7
STANDARD
  0
MTEXT
  5
45A
100
AcDbEntity
  8
WAKU0
  6
CONTINUOUS
 62
3
100
AcDbMText
 10
630.6556758762142
 20
45.67034080722507
 30
0.0000000000000000
 40
3.099999904632568
 41
0.0000000000000000
 71
     7
 72
     1
  1
{\H0.92x;{SCALE}}
 11
1.000000000000000
 21
0.0000000000000000
 31
0.0000000000000000
  7
STANDARD
  0
MTEXT
  5
45B
100
AcDbEntity
  8
WAKU0
  6
CONTINUOUS
 62
3
100
AcDbMText
 10
721.1406761289379
 20
45.72034075954136
 30
0.0000000000000000
 40
3.000000000000000
 41
0.0000000000000000
 71
     7
 72
     1
  1
{\H0.63x;{kg}}
 11
1.000000000000000
 21
0.0000000000000000
 31
0.0000000000000000
  7
STANDARD
  0
MTEXT
  5
45C
100
AcDbEntity
  8
WAKU0
  6
CONTINUOUS
 62
3
100
AcDbMText
 10
691.0406762243053
 20
45.72034075954136
 30
0.0000000000000000
 40
3.000000000000000
 41
0.0000000000000000
 71
     7
 72
     1
  1
{\H0.63x;{WEIGHT}}
 11
1.000000000000000
 21
0.0000000000000000
 31
0.0000000000000000
  7
STANDARD
  0
MTEXT
  5
45D
100
AcDbEntity
  8
WAKU0
  6
CONTINUOUS
 62
3
100
AcDbMText
 10
649.4456759572765
 20
17.85367412466384
 30
0.0000000000000000
 40
3.099999904632568
 41
0.0000000000000000
 71
     7
 72
     1
  1
{\H0.90x;{DRW\PNO.}}
 11
1.000000000000000
 21
0.0000000000000000
 31
0.0000000000000000
  7
STANDARD
  0
MTEXT
  5
45E
100
AcDbEntity
  8
WAKU0
  6
CONTINUOUS
 62
3
100
AcDbMText
 10
648.0506759167454
 20
31.67034080722507
 30
0.0000000000000000
 40
3.099999904632568
 41
0.0000000000000000
 71
     7
 72
     1
  1
{\H0.91x;{NAME}}
 11
1.000000000000000
 21
0.0000000000000000
 31
0.0000000000000000
  7
STANDARD
  0
MTEXT
  5
45F
100
AcDbEntity
  8
WAKU0
  6
CONTINUOUS
 62
3
100
AcDbMText
 10
648.0506759167454
 20
45.67034080722507
 30
0.0000000000000000
 40
3.099999904632568
 41
0.0000000000000000
 71
     7
 72
     1
  1
{\H0.91x;{TYPE}}
 11
1.000000000000000
 21
0.0000000000000000
 31
0.0000000000000000
  7
STANDARD
  0
LINE
  5
460
100
AcDbEntity
  8
WAKU0
  6
HIDDEN
 62
3
100
AcDbLine
 10
722.6006325556427
 20
13.57034066417393
 30
0.0000000000000000
 11
712.3807197022331
 21
13.57034066417393
 31
0.0000000000000000
  0
LINE
  5
461
100
AcDbEntity
  8
WAKU0
  6
HIDDEN
 62
3
100
AcDbLine
 10
722.6006325556427
 20
13.57034066417386
 30
0.0000000000000000
 11
717.4906761289393
 21
22.42104481969037
 31
0.0000000000000000
  0
LINE
  5
462
100
AcDbEntity
  8
WAKU0
  6
HIDDEN
 62
3
100
AcDbLine
 10
717.4906761289393
 20
22.42104481969037
 30
0.0000000000000000
 11
712.3807197022331
 21
13.57034066417384
 31
0.0000000000000000
  0
LINE
  5
463
100
AcDbEntity
  8
WAKU0
  6
CONTINUOUS
 62
3
100
AcDbLine
 10
455.1756994870906
 20
110.0863936745889
 30
0.0000000000000000
 11
443.1756994870906
 21
110.0863936745889
 31
0.0000000000000000
  0
LINE
  5
464
100
AcDbEntity
  8
WAKU0
  6
CONTINUOUS
 62
3
100
AcDbLine
 10
443.1756994870913
 20
110.0863936745903
 30
0.0000000000000000
 11
443.1756994870804
 21
119.0863936745903
 31
0.0000000000000000
  0
LINE
  5
465
100
AcDbEntity
  8
WAKU0
  6
CONTINUOUS
 62
3
100
AcDbLine
 10
455.1756994870825
 20
119.0863936745889
 30
0.0000000000000000
 11
443.1756994870798
 21
119.0863936745890
 31
0.0000000000000000
  0
LINE
  5
466
100
AcDbEntity
  8
WAKU0
  6
CONTINUOUS
 62
3
100
AcDbLine
 10
455.1756994870911
 20
110.0863936745880
 30
0.0000000000000000
 11
455.1756994870829
 21
119.0863936745881
 31
0.0000000000000000
  0
LINE
  5
467
100
AcDbEntity
  8
WAKU0
  6
CONTINUOUS
 62
3
100
AcDbLine
 10
443.1756994870907
 20
110.0863936745889
 30
0.0000000000000000
 11
431.1756994870880
 21
110.0863936745889
 31
0.0000000000000000
  0
LINE
  5
468
100
AcDbEntity
  8
WAKU0
  6
CONTINUOUS
 62
3
100
AcDbLine
 10
431.1756994870884
 20
110.0863936745880
 30
0.0000000000000000
 11
431.1756994870802
 21
119.0863936745880
 31
0.0000000000000000
  0
LINE
  5
469
100
AcDbEntity
  8
WAKU0
  6
CONTINUOUS
 62
3
100
AcDbLine
 10
443.1756994870798
 20
119.0863936745889
 30
0.0000000000000000
 11
431.1756994870798
 21
119.0863936745889
 31
0.0000000000000000
  0
LINE
  5
46A
100
AcDbEntity
  8
WAKU0
  6
CONTINUOUS
 62
3
100
AcDbLine
 10
467.1756994870934
 20
110.0863936745889
 30
0.0000000000000000
 11
455.1756994870907
 21
110.0863936745889
 31
0.0000000000000000
  0
LINE
  5
46B
100
AcDbEntity
  8
WAKU0
  6
CONTINUOUS
 62
3
100
AcDbLine
 10
467.1756994870825
 20
119.0863936745889
 30
0.0000000000000000
 11
455.1756994870825
 21
119.0863936745889
 31
0.0000000000000000
  0
LINE
  5
46C
100
AcDbEntity
  8
WAKU0
  6
CONTINUOUS
 62
3
100
AcDbLine
 10
467.1756994870940
 20
110.0863936745902
 30
0.0000000000000000
 11
467.1756994870831
 21
119.0863936745902
 31
0.0000000000000000
  0
LINE
  5
46D
100
AcDbEntity
  8
WAKU0
  6
CONTINUOUS
 62
3
100
AcDbLine
 10
450.0387085865028
 20
112.3363936745890
 30
0.0000000000000000
 11
448.3126903876806
 21
112.3363936745890
 31
0.0000000000000000
  0
LINE
  5
46E
100
AcDbEntity
  8
WAKU0
  6
CONTINUOUS
 62
3
100
AcDbLine
 10
449.1756994871031
 20
77.26413498921626
 30
0.0000000000000000
 11
449.1756994870917
 21
112.3363936745890
 31
0.0000000000000000
  0
LINE
  5
46F
100
AcDbEntity
  8
WAKU0
  6
CONTINUOUS
 62
3
100
AcDbLine
 10
431.1756994870852
 20
111.7215061046852
 30
0.0000000000000000
 11
425.1756994870853
 21
111.7215061046852
 31
0.0000000000000000
  0
LINE
  5
470
100
AcDbEntity
  8
WAKU0
  6
CONTINUOUS
 62
3
100
AcDbLine
 10
425.1756994870871
 20
111.7215061046847
 30
0.0000000000000000
 11
425.1756994870849
 21
113.9715061046853
 31
0.0000000000000000
  0
LINE
  5
471
100
AcDbEntity
  8
WAKU0
  6
CONTINUOUS
 62
3
100
AcDbLine
 10
431.1756994870852
 20
113.9715061046852
 30
0.0000000000000000
 11
425.1756994870853
 21
113.9715061046852
 31
0.0000000000000000
  0
LINE
  5
472
100
AcDbEntity
  8
WAKU0
  6
CONTINUOUS
 62
3
100
AcDbLine
 10
426.6756994870847
 20
116.5695823160339
 30
0.0000000000000000
 11
425.1756994870843
 21
113.9715061046802
 31
0.0000000000000000
  0
LINE
  5
473
100
AcDbEntity
  8
WAKU0
  6
CONTINUOUS
 62
3
100
AcDbLine
 10
428.1756994870848
 20
113.9715061046799
 30
0.0000000000000000
 11
426.6756994870847
 21
116.5695823160334
 31
0.0000000000000000
  0
LINE
  5
474
100
AcDbEntity
  8
WAKU0
  6
CONTINUOUS
 62
3
100
AcDbLine
 10
429.6756994870780
 20
116.5695823160364
 30
0.0000000000000000
 11
431.1756994870830
 21
113.9715061046853
 31
0.0000000000000000
  0
LINE
  5
475
100
AcDbEntity
  8
WAKU0
  6
CONTINUOUS
 62
3
100
AcDbLine
 10
428.1756994870823
 20
113.9715061046799
 30
0.0000000000000000
 11
429.6756994870777
 21
116.5695823160361
 31
0.0000000000000000
  0
LINE
  5
476
100
AcDbEntity
  8
WAKU0
  6
CONTINUOUS
 62
3
100
AcDbLine
 10
428.8252185399022
 20
111.7215061046852
 30
0.0000000000000000
 11
427.5261804342223
 21
113.9715061046852
 31
0.0000000000000000
  0
LINE
  5
477
100
AcDbEntity
  8
WAKU0
  6
CONTINUOUS
 62
3
100
AcDbLine
 10
446.5506994870830
 20
105.0863936745891
 30
0.0000000000000000
 11
446.5506994870941
 21
147.8363936745890
 31
0.0000000000000000
  0
LINE
  5
478
100
AcDbEntity
  8
WAKU0
  6
CONTINUOUS
 62
3
100
AcDbLine
 10
446.5506994870859
 20
110.0863936745888
 30
0.0000000000000000
 11
445.6317612508453
 21
113.0921052108213
 31
0.0000000000000000
  0
LINE
  5
479
100
AcDbEntity
  8
WAKU0
  6
CONTINUOUS
 62
3
100
AcDbLine
 10
446.5506994870855
 20
110.0863936745887
 30
0.0000000000000000
 11
447.4696377233238
 21
113.0921052108138
 31
0.0000000000000000
  0
LINE
  5
47A
100
AcDbEntity
  8
WAKU0
  6
CONTINUOUS
 62
3
100
AcDbLine
 10
451.8006994870830
 20
105.0863936745247
 30
0.0000000000000000
 11
451.8006994870941
 21
147.8363936745889
 31
0.0000000000000000
  0
LINE
  5
47B
100
AcDbEntity
  8
WAKU0
  6
CONTINUOUS
 62
3
100
AcDbLine
 10
451.8006994870859
 20
110.0863936745889
 30
0.0000000000000000
 11
450.8817612508453
 21
113.0921052108213
 31
0.0000000000000000
  0
LINE
  5
47C
100
AcDbEntity
  8
WAKU0
  6
CONTINUOUS
 62
3
100
AcDbLine
 10
451.8006994870854
 20
110.0863936745889
 30
0.0000000000000000
 11
452.7196377233237
 21
113.0921052108141
 31
0.0000000000000000
  0
LINE
  5
47D
100
AcDbEntity
  8
WAKU0
  6
CONTINUOUS
 62
3
100
AcDbLine
 10
467.1756994870987
 20
111.7215061047039
 30
0.0000000000000000
 11
473.1756994870986
 21
111.7215061047102
 31
0.0000000000000000
  0
LINE
  5
47E
100
AcDbEntity
  8
WAKU0
  6
CONTINUOUS
 62
3
100
AcDbLine
 10
473.1756994870968
 20
111.7215061047099
 30
0.0000000000000000
 11
473.1756994870967
 21
113.9715061047105
 31
0.0000000000000000
  0
LINE
  5
47F
100
AcDbEntity
  8
WAKU0
  6
CONTINUOUS
 62
3
100
AcDbLine
 10
467.1756994870964
 20
113.9715061047039
 30
0.0000000000000000
 11
473.1756994870964
 21
113.9715061047102
 31
0.0000000000000000
  0
LINE
  5
480
100
AcDbEntity
  8
WAKU0
  6
CONTINUOUS
 62
3
100
AcDbLine
 10
471.6756994870945
 20
116.5695823160573
 30
0.0000000000000000
 11
473.1756994870975
 21
113.9715061047050
 31
0.0000000000000000
  0
LINE
  5
481
100
AcDbEntity
  8
WAKU0
  6
CONTINUOUS
 62
3
100
AcDbLine
 10
470.1756994870970
 20
113.9715061047018
 30
0.0000000000000000
 11
471.6756994870943
 21
116.5695823160569
 31
0.0000000000000000
  0
LINE
  5
482
100
AcDbEntity
  8
WAKU0
  6
CONTINUOUS
 62
3
100
AcDbLine
 10
468.6756994871010
 20
116.5695823160571
 30
0.0000000000000000
 11
467.1756994870987
 21
113.9715061047044
 31
0.0000000000000000
  0
LINE
  5
483
100
AcDbEntity
  8
WAKU0
  6
CONTINUOUS
 62
3
100
AcDbLine
 10
470.1756994870996
 20
113.9715061047020
 30
0.0000000000000000
 11
468.6756994871015
 21
116.5695823160568
 31
0.0000000000000000
  0
LINE
  5
484
100
AcDbEntity
  8
WAKU0
  6
CONTINUOUS
 62
3
100
AcDbLine
 10
469.5261804342817
 20
111.7215061047064
 30
0.0000000000000000
 11
470.8252185399593
 21
113.9715061047078
 31
0.0000000000000000
  0
LINE
  5
485
100
AcDbEntity
  8
WAKU0
  6
CONTINUOUS
 62
3
100
AcDbLine
 10
434.5506994870883
 20
110.0863936745890
 30
0.0000000000000000
 11
434.5506994870871
 21
112.3363936745826
 31
0.0000000000000000
  0
LINE
  5
486
100
AcDbEntity
  8
WAKU0
  6
CONTINUOUS
 62
3
100
AcDbLine
 10
435.4137085864983
 20
112.3363936745825
 30
0.0000000000000000
 11
433.6876903876761
 21
112.3363936745825
 31
0.0000000000000000
  0
LINE
  5
487
100
AcDbEntity
  8
WAKU0
  6
CONTINUOUS
 62
3
100
AcDbLine
 10
463.8006994870973
 20
110.0863936746046
 30
0.0000000000000000
 11
463.8006994870962
 21
112.3363936745981
 31
0.0000000000000000
  0
LINE
  5
488
100
AcDbEntity
  8
WAKU0
  6
CONTINUOUS
 62
3
100
AcDbLine
 10
462.9376903876851
 20
112.3363936745968
 30
0.0000000000000000
 11
464.6637085865073
 21
112.3363936745986
 31
0.0000000000000000
  0
LINE
  5
489
100
AcDbEntity
  8
WAKU0
  6
CONTINUOUS
 62
3
100
AcDbLine
 10
438.5506994870830
 20
96.71139367466353
 30
0.0000000000000000
 11
438.5506994870830
 21
84.71139367466358
 31
0.0000000000000000
  0
LINE
  5
48A
100
AcDbEntity
  8
WAKU0
  6
CONTINUOUS
 62
3
100
AcDbLine
 10
444.5506994870830
 20
96.71139367466357
 30
0.0000000000000000
 11
444.5506994870830
 21
84.71139367466357
 31
0.0000000000000000
  0
LINE
  5
48B
100
AcDbEntity
  8
WAKU0
  6
CONTINUOUS
 62
3
100
AcDbLine
 10
444.5506994870830
 20
96.71139367466367
 30
0.0000000000000000
 11
438.5506994870830
 21
96.71139367466367
 31
0.0000000000000000
  0
LINE
  5
48C
100
AcDbEntity
  8
WAKU0
  6
CONTINUOUS
 62
3
100
AcDbLine
 10
444.5506994870830
 20
84.71139367466367
 30
0.0000000000000000
 11
438.5506994870830
 21
84.71139367466367
 31
0.0000000000000000
  0
LINE
  5
48D
100
AcDbEntity
  8
WAKU0
  6
CONTINUOUS
 62
3
100
AcDbLine
 10
444.5506994870827
 20
84.71139367414622
 30
0.0000000000000000
 11
441.5506994870826
 21
81.71139367414044
 31
0.0000000000000000
  0
LINE
  5
48E
100
AcDbEntity
  8
WAKU0
  6
CONTINUOUS
 62
3
100
AcDbLine
 10
438.5506994870830
 20
84.71139367414608
 30
0.0000000000000000
 11
441.5506994870827
 21
81.71139367414060
 31
0.0000000000000000
  0
LINE
  5
48F
100
AcDbEntity
  8
WAKU0
  6
CONTINUOUS
 62
3
100
AcDbLine
 10
441.5506994870830
 20
94.71139367466367
 30
0.0000000000000000
 11
438.5506994870830
 21
94.71139367466367
 31
0.0000000000000000
  0
LINE
  5
490
100
AcDbEntity
  8
WAKU0
  6
CONTINUOUS
 62
3
100
AcDbLine
 10
441.5506994870830
 20
86.71139367466367
 30
0.0000000000000000
 11
438.5506994870830
 21
86.71139367466367
 31
0.0000000000000000
  0
LINE
  5
491
100
AcDbEntity
  8
WAKU0
  6
CONTINUOUS
 62
3
100
AcDbLine
 10
444.5506994870830
 20
90.71139367466367
 30
0.0000000000000000
 11
441.5506994870830
 21
90.71139367466367
 31
0.0000000000000000
  0
LINE
  5
492
100
AcDbEntity
  8
WAKU0
  6
CONTINUOUS
 62
3
100
AcDbLine
 10
453.8006994870830
 20
96.71139367466354
 30
0.0000000000000000
 11
453.8006994870830
 21
84.71139367466360
 31
0.0000000000000000
  0
LINE
  5
493
100
AcDbEntity
  8
WAKU0
  6
CONTINUOUS
 62
3
100
AcDbLine
 10
459.8006994870830
 20
96.71139367466353
 30
0.0000000000000000
 11
459.8006994870830
 21
84.71139367466353
 31
0.0000000000000000
  0
LINE
  5
494
100
AcDbEntity
  8
WAKU0
  6
CONTINUOUS
 62
3
100
AcDbLine
 10
459.8006994870830
 20
96.71139367466363
 30
0.0000000000000000
 11
453.8006994870830
 21
96.71139367466368
 31
0.0000000000000000
  0
LINE
  5
495
100
AcDbEntity
  8
WAKU0
  6
CONTINUOUS
 62
3
100
AcDbLine
 10
459.8006994870830
 20
84.71139367466363
 30
0.0000000000000000
 11
453.8006994870830
 21
84.71139367466368
 31
0.0000000000000000
  0
LINE
  5
496
100
AcDbEntity
  8
WAKU0
  6
CONTINUOUS
 62
3
100
AcDbLine
 10
459.8006994870830
 20
84.71139367414651
 30
0.0000000000000000
 11
456.8006994870829
 21
81.71139367414067
 31
0.0000000000000000
  0
LINE
  5
497
100
AcDbEntity
  8
WAKU0
  6
CONTINUOUS
 62
3
100
AcDbLine
 10
453.8006994870832
 20
84.71139367414635
 30
0.0000000000000000
 11
456.8006994870830
 21
81.71139367414098
 31
0.0000000000000000
  0
LINE
  5
498
100
AcDbEntity
  8
WAKU0
  6
CONTINUOUS
 62
3
100
AcDbLine
 10
456.8006994870831
 20
94.71139367466364
 30
0.0000000000000000
 11
453.8006994870831
 21
94.71139367466370
 31
0.0000000000000000
  0
LINE
  5
499
100
AcDbEntity
  8
WAKU0
  6
CONTINUOUS
 62
3
100
AcDbLine
 10
456.8006994870830
 20
86.71139367466364
 30
0.0000000000000000
 11
453.8006994870830
 21
86.71139367466370
 31
0.0000000000000000
  0
LINE
  5
49A
100
AcDbEntity
  8
WAKU0
  6
CONTINUOUS
 62
3
100
AcDbLine
 10
459.8006994870831
 20
90.71139367466356
 30
0.0000000000000000
 11
456.8006994870831
 21
90.71139367466356
 31
0.0000000000000000
  0
MTEXT
  5
49B
100
AcDbEntity
  8
WAKU0
  6
CONTINUOUS
 62
3
100
AcDbMText
 10
458.8343130634871
 20
101.3134041425142
 30
0.0000000000000000
 40
3.099999904632568
 41
0.0000000000000000
 71
     1
 72
     1
  1
{\H0.91x;{EXH2}}
 11
1.000000000000000
 21
0.0000000000000000
 31
0.0000000000000000
  7
STANDARD
  0
MTEXT
  5
49C
100
AcDbEntity
  8
WAKU0
  6
CONTINUOUS
 62
3
100
AcDbMText
 10
429.4335621598841
 20
101.4905113473502
 30
0.0000000000000000
 40
3.099999904632568
 41
0.0000000000000000
 71
     1
 72
     1
  1
{\H0.91x;{EXH1}}
 11
1.000000000000000
 21
0.0000000000000000
 31
0.0000000000000000
  7
STANDARD
  0
MTEXT
  5
49D
100
AcDbEntity
  8
WAKU0
  6
CONTINUOUS
 62
3
100
AcDbMText
 10
423.1058343779731
 20
123.0345684683776
 30
0.0000000000000000
 40
3.099999904632568
 41
0.0000000000000000
 71
     1
 72
     1
  1
{\H0.91x;{SOL1}}
 11
1.000000000000000
 21
0.0000000000000000
 31
0.0000000000000000
  7
STANDARD
  0
MTEXT
  5
49E
100
AcDbEntity
  8
WAKU0
  6
CONTINUOUS
 62
3
100
AcDbMText
 10
464.6741562134940
 20
123.2209744908261
 30
0.0000000000000000
 40
3.099999904632568
 41
0.0000000000000000
 71
     1
 72
     1
  1
{\H0.91x;{SOL2}}
 11
1.000000000000000
 21
0.0000000000000000
 31
0.0000000000000000
  7
STANDARD
  0
LINE
  5
49F
100
AcDbEntity
  8
WAKU0
  6
PHANTOM
 62
3
100
AcDbLine
 10
467.4256994870944
 20
151.2071413246183
 30
0.0000000000000000
 11
431.4256994870944
 21
151.2071413246209
 31
0.0000000000000000
  0
LINE
  5
4A0
100
AcDbEntity
  8
WAKU0
  6
PHANTOM
 62
3
100
AcDbLine
 10
467.4256994870941
 20
191.2936353305683
 30
0.0000000000000000
 11
431.4256994870941
 21
191.2936353305710
 31
0.0000000000000000
  0
LINE
  5
4A1
100
AcDbEntity
  8
WAKU0
  6
PHANTOM
 62
3
100
AcDbLine
 10
431.4256994870942
 20
151.2071413246209
 30
0.0000000000000000
 11
431.4256994870942
 21
191.2936353305710
 31
0.0000000000000000
  0
LINE
  5
4A2
100
AcDbEntity
  8
WAKU0
  6
PHANTOM
 62
3
100
AcDbLine
 10
467.4256994870942
 20
151.2071413246182
 30
0.0000000000000000
 11
467.4256994870942
 21
191.2936353305683
 31
0.0000000000000000
  0
LINE
  5
4A3
100
AcDbEntity
  8
WAKU0
  6
CONTINUOUS
 62
3
100
AcDbLine
 10
447.6756994870706
 20
166.8363936745889
 30
0.0000000000000000
 11
447.6756994870651
 21
171.8363936745889
 31
0.0000000000000000
  0
LINE
  5
4A4
100
AcDbEntity
  8
WAKU0
  6
CONTINUOUS
 62
3
100
AcDbLine
 10
442.6756994870706
 20
166.8363936745892
 30
0.0000000000000000
 11
442.6756994870651
 21
171.8363936745889
 31
0.0000000000000000
  0
LINE
  5
4A5
100
AcDbEntity
  8
WAKU0
  6
CONTINUOUS
 62
3
100
AcDbLine
 10
447.6756994870697
 20
166.8363936745892
 30
0.0000000000000000
 11
442.6756994870697
 21
166.8363936745892
 31
0.0000000000000000
  0
LINE
  5
4A6
100
AcDbEntity
  8
WAKU0
  6
CONTINUOUS
 62
3
100
AcDbLine
 10
447.6756994870643
 20
171.8363936745892
 30
0.0000000000000000
 11
442.6756994870643
 21
171.8363936745892
 31
0.0000000000000000
  0
LINE
  5
4A7
100
AcDbEntity
  8
WAKU0
  6
CONTINUOUS
 62
3
100
AcDbLine
 10
455.6756994870706
 20
166.8363936745892
 30
0.0000000000000000
 11
455.6756994870651
 21
171.8363936745885
 31
0.0000000000000000
  0
LINE
  5
4A8
100
AcDbEntity
  8
WAKU0
  6
CONTINUOUS
 62
3
100
AcDbLine
 10
450.6756994870706
 20
166.8363936745886
 30
0.0000000000000000
 11
450.6756994870651
 21
171.8363936745885
 31
0.0000000000000000
  0
LINE
  5
4A9
100
AcDbEntity
  8
WAKU0
  6
CONTINUOUS
 62
3
100
AcDbLine
 10
455.6756994870698
 20
166.8363936745891
 30
0.0000000000000000
 11
450.6756994870698
 21
166.8363936745891
 31
0.0000000000000000
  0
LINE
  5
4AA
100
AcDbEntity
  8
WAKU0
  6
CONTINUOUS
 62
3
100
AcDbLine
 10
455.6756994870643
 20
171.8363936745891
 30
0.0000000000000000
 11
450.6756994870643
 21
171.8363936745891
 31
0.0000000000000000
  0
CIRCLE
  5
4AB
100
AcDbEntity
  8
WAKU0
  6
CONTINUOUS
 62
3
100
AcDbCircle
 10
445.1825836685307
 20
169.9497236116723
 30
0.0000000000000000
 40
0.9393980633231109
  0
LINE
  5
4AC
100
AcDbEntity
  8
WAKU0
  6
CONTINUOUS
 62
3
100
AcDbLine
 10
445.1968107611501
 20
168.5981812912296
 30
0.0000000000000000
 11
443.5891862008979
 21
170.2058058514855
 31
0.0000000000000000
  0
LINE
  5
4AD
100
AcDbEntity
  8
WAKU0
  6
CONTINUOUS
 62
3
100
AcDbLine
 10
445.1968107611521
 20
168.5981812912276
 30
0.0000000000000000
 11
446.6906207513829
 21
170.0919912814603
 31
0.0000000000000000
  0
LINE
  5
4AE
100
AcDbEntity
  8
WAKU0
  6
CONTINUOUS
 62
3
100
AcDbLine
 10
445.1756994870660
 20
170.8890964500168
 30
0.0000000000000000
 11
445.1756994870574
 21
177.8363936745889
 31
0.0000000000000000
  0
CIRCLE
  5
4AF
100
AcDbEntity
  8
WAKU0
  6
CONTINUOUS
 62
3
100
AcDbCircle
 10
453.1688153056016
 20
169.9497236116814
 30
0.0000000000000000
 40
0.9393980633231109
  0
LINE
  5
4B0
100
AcDbEntity
  8
WAKU0
  6
CONTINUOUS
 62
3
100
AcDbLine
 10
453.1545882129865
 20
168.5981812912377
 30
0.0000000000000000
 11
454.7622127732374
 21
170.2058058514977
 31
0.0000000000000000
  0
LINE
  5
4B1
100
AcDbEntity
  8
WAKU0
  6
CONTINUOUS
 62
3
100
AcDbLine
 10
453.1545882129834
 20
168.5981812912385
 30
0.0000000000000000
 11
451.6607782227515
 21
170.0919912814649
 31
0.0000000000000000
  0
LINE
  5
4B2
100
AcDbEntity
  8
WAKU0
  6
CONTINUOUS
 62
3
100
AcDbLine
 10
453.1756994870638
 20
170.8890964500251
 30
0.0000000000000000
 11
453.1756994870544
 21
177.8363936745888
 31
0.0000000000000000
  0
LINE
  5
4B3
100
AcDbEntity
  8
WAKU0
  6
CENTER
 62
3
100
AcDbLine
 10
446.6756994870710
 20
165.2994188590321
 30
0.0000000000000000
 11
446.6756994870692
 21
166.8363936745893
 31
0.0000000000000000
  0
LINE
  5
4B4
100
AcDbEntity
  8
WAKU0
  6
CENTER
 62
3
100
AcDbLine
 10
451.6756994870673
 20
164.2994188590339
 30
0.0000000000000000
 11
451.6756994870655
 21
166.8363936745965
 31
0.0000000000000000
  0
LINE
  5
4B5
100
AcDbEntity
  8
WAKU0
  6
CENTER
 62
3
100
AcDbLine
 10
445.1756994870715
 20
164.2994188590293
 30
0.0000000000000000
 11
451.6756994870661
 21
164.2994188590347
 31
0.0000000000000000
  0
POLYLINE
  5
4B6
100
AcDbEntity
  8
WAKU0
  6
CENTER
 62
3
100
AcDb2dPolyline
 66
     1
 10
0.0000000000000000
 20
0.0000000000000000
 30
0.0000000000000000
 70
     1
 40
0.5000000000000000
 41
0.5000000000000000
  0
VERTEX
  5
4B7
100
AcDbEntity
  8
WAKU0
  6
CENTER
 62
3
100
AcDbVertex
100
AcDb2dVertex
 10
445.4256994870715
 20
164.2994188590293
 30
0.0000000000000000
 42
1.000000000000000
  0
VERTEX
  5
4B8
100
AcDbEntity
  8
WAKU0
  6
CENTER
 62
3
100
AcDbVertex
100
AcDb2dVertex
 10
444.9256994870715
 20
164.2994188590293
 30
0.0000000000000000
 42
1.000000000000000
  0
SEQEND
  5
4B9
100
AcDbEntity
  8
WAKU0
  6
CENTER
 62
3
  0
ARC
  5
4BA
100
AcDbEntity
  8
WAKU0
  6
CENTER
 62
3
100
AcDbCircle
 10
451.6756994870643
 20
165.2994188590338
 30
0.0000000000000000
 40
0.4761701236253962
100
AcDbArc
 50
179.9999999999999
 51
359.9999999999999
  0
LINE
  5
4BB
100
AcDbEntity
  8
WAKU0
  6
CONTINUOUS
 62
3
100
AcDbLine
 10
452.1518696106919
 20
165.2994188590374
 30
0.0000000000000000
 11
453.1756994870716
 21
165.2994188590374
 31
0.0000000000000000
  0
POLYLINE
  5
4BC
100
AcDbEntity
  8
WAKU0
  6
CONTINUOUS
 62
3
100
AcDb2dPolyline
 66
     1
 10
0.0000000000000000
 20
0.0000000000000000
 30
0.0000000000000000
 70
     1
 40
0.5000000000000000
 41
0.5000000000000000
  0
VERTEX
  5
4BD
100
AcDbEntity
  8
WAKU0
  6
CONTINUOUS
 62
3
100
AcDbVertex
100
AcDb2dVertex
 10
453.4256994870716
 20
165.2994188590374
 30
0.0000000000000000
 42
1.000000000000000
  0
VERTEX
  5
4BE
100
AcDbEntity
  8
WAKU0
  6
CONTINUOUS
 62
3
100
AcDbVertex
100
AcDb2dVertex
 10
452.9256994870716
 20
165.2994188590374
 30
0.0000000000000000
 42
1.000000000000000
  0
SEQEND
  5
4BF
100
AcDbEntity
  8
WAKU0
  6
CONTINUOUS
 62
3
  0
LINE
  5
4C0
100
AcDbEntity
  8
WAKU0
  6
CENTER
 62
3
100
AcDbLine
 10
446.6756994870716
 20
165.2994188590321
 30
0.0000000000000000
 11
451.1995293634386
 21
165.2994188590340
 31
0.0000000000000000
  0
LINE
  5
4C1
100
AcDbEntity
  8
WAKU0
  6
CONTINUOUS
 62
3
100
AcDbLine
 10
453.1756994870740
 20
147.8363936745889
 30
0.0000000000000000
 11
451.8006994870941
 21
147.8363936745889
 31
0.0000000000000000
  0
LINE
  5
4C2
100
AcDbEntity
  8
WAKU0
  6
CONTINUOUS
 62
3
100
AcDbLine
 10
446.5506994870941
 20
147.8363936745889
 30
0.0000000000000000
 11
445.1756994870740
 21
147.8363936745889
 31
0.0000000000000000
  0
LINE
  5
4C3
100
AcDbEntity
  8
WAKU0
  6
CONTINUOUS
 62
3
100
AcDbLine
 10
445.1756994870742
 20
147.8363936745889
 30
0.0000000000000000
 11
445.1756994870683
 21
168.6192925653152
 31
0.0000000000000000
  0
LINE
  5
4C4
100
AcDbEntity
  8
WAKU0
  6
CONTINUOUS
 62
3
100
AcDbLine
 10
453.1756994870738
 20
147.8363936745890
 30
0.0000000000000000
 11
453.1756994870680
 21
168.5981812912376
 31
0.0000000000000000
  0
LINE
  5
4C5
100
AcDbEntity
  8
WAKU0
  6
CONTINUOUS
 62
3
100
AcDbLine
 10
459.1756994870543
 20
177.8363936745888
 30
0.0000000000000000
 11
439.1756994870573
 21
177.8363936745888
 31
0.0000000000000000
  0
LINE
  5
4C6
100
AcDbEntity
  8
WAKU0
  6
CONTINUOUS
 62
3
100
AcDbLine
 10
459.1756994870459
 20
185.8363936745888
 30
0.0000000000000000
 11
439.1756994870498
 21
185.8363936745888
 31
0.0000000000000000
  0
LINE
  5
4C7
100
AcDbEntity
  8
WAKU0
  6
CONTINUOUS
 62
3
100
AcDbLine
 10
439.1756994870572
 20
177.8363936745890
 30
0.0000000000000000
 11
439.1756994870496
 21
185.8363936745891
 31
0.0000000000000000
  0
LINE
  5
4C8
100
AcDbEntity
  8
WAKU0
  6
CONTINUOUS
 62
3
100
AcDbLine
 10
459.1756994870542
 20
177.8363936745888
 30
0.0000000000000000
 11
459.1756994870458
 21
185.8363936745888
 31
0.0000000000000000
  0
LINE
  5
4C9
100
AcDbEntity
  8
WAKU0
  6
CONTINUOUS
 62
3
100
AcDbLine
 10
449.1756994870542
 20
177.8363936745783
 30
0.0000000000000000
 11
449.1756994870458
 21
185.8363936745783
 31
0.0000000000000000
  0
LINE
  5
4CA
100
AcDbEntity
  8
WAKU0
  6
CONTINUOUS
 62
3
100
AcDbLine
 10
465.1756994870500
 20
181.8363936745888
 30
0.0000000000000000
 11
449.1756994870499
 21
181.8363936745888
 31
0.0000000000000000
  0
MTEXT
  5
4CB
100
AcDbEntity
  8
WAKU0
  6
CONTINUOUS
 62
3
100
AcDbMText
 10
433.8725823048865
 20
201.7596606083935
 30
0.0000000000000000
 40
3.099999904632568
 41
0.0000000000000000
 71
     1
 72
     1
  1
{\H0.93x;{ ロータリチャック\PROTARY CHUCK}}
 11
1.000000000000000
 21
0.0000000000000000
 31
0.0000000000000000
  7
KNJYOKO
  0
LINE
  5
4CC
100
AcDbEntity
  8
WAKU0
  6
CONTINUOUS
 62
3
100
AcDbLine
 10
441.5506994870830
 20
96.71139367466363
 30
0.0000000000000000
 11
441.5506994870830
 21
105.0863936745888
 31
0.0000000000000000
  0
LINE
  5
4CD
100
AcDbEntity
  8
WAKU0
  6
CONTINUOUS
 62
3
100
AcDbLine
 10
441.5506994870831
 20
105.0863936745889
 30
0.0000000000000000
 11
446.5506994870831
 21
105.0863936745889
 31
0.0000000000000000
  0
LINE
  5
4CE
100
AcDbEntity
  8
WAKU0
  6
CONTINUOUS
 62
3
100
AcDbLine
 10
456.8006994870831
 20
96.71139367466367
 30
0.0000000000000000
 11
456.8006994870831
 21
105.0863936745089
 31
0.0000000000000000
  0
LINE
  5
4CF
100
AcDbEntity
  8
WAKU0
  6
CONTINUOUS
 62
3
100
AcDbLine
 10
451.8006994870831
 20
105.0863936745246
 30
0.0000000000000000
 11
456.8006994870831
 21
105.0863936745089
 31
0.0000000000000000
  0
LINE
  5
4D0
100
AcDbEntity
  8
WAKU0
  6
CONTINUOUS
 62
3
100
AcDbLine
 10
455.3401116113096
 20
161.3385623153143
 30
0.0000000000000000
 11
457.8176920913184
 21
161.4014579792456
 31
0.0000000000000000
  0
LINE
  5
4D1
100
AcDbEntity
  8
WAKU0
  6
CONTINUOUS
 62
3
100
AcDbLine
 10
455.3401116113098
 20
161.3385623153143
 30
0.0000000000000000
 11
456.6644031549005
 21
159.4931717718381
 31
0.0000000000000000
  0
LINE
  5
4D2
100
AcDbEntity
  8
WAKU0
  6
CONTINUOUS
 62
3
100
AcDbLine
 10
443.0112873628325
 20
161.3385623153142
 30
0.0000000000000000
 11
440.8415665699239
 21
161.3936426773504
 31
0.0000000000000000
  0
LINE
  5
4D3
100
AcDbEntity
  8
WAKU0
  6
CONTINUOUS
 62
3
100
AcDbLine
 10
443.0112873628323
 20
161.3385623153143
 30
0.0000000000000000
 11
441.8516184550825
 21
159.7225722062746
 31
0.0000000000000000
  0
LINE
  5
4D4
100
AcDbEntity
  8
WAKU0
  6
CONTINUOUS
 62
3
100
AcDbLine
 10
451.4156994871021
 20
45.52672446792249
 30
0.0000000000000000
 11
451.8951281120463
 21
46.35711920492648
 31
0.0000000000000000
  0
LINE
  5
4D5
100
AcDbEntity
  8
WAKU0
  6
CONTINUOUS
 62
3
100
AcDbLine
 10
449.1756994871021
 20
69.34453903992704
 30
0.0000000000000000
 11
449.1756994871021
 21
64.18463110332715
 31
0.0000000000000000
  0
MTEXT
  5
4D6
100
AcDbEntity
  8
WAKU0
  6
CONTINUOUS
 62
3
100
AcDbMText
 10
461.0045672342531
 20
69.11048337180819
 30
0.0000000000000000
 40
3.000000000000000
 41
0.0000000000000000
 71
     1
 72
     1
  1
{\H0.59x;{AIR LUBRICATOR UNIT\Pwith AUTO DRAIN　FILTER\Pオートドレン付エアルブリケータユニット\P(参考相当品)}}
 11
1.000000000000000
 21
0.0000000000000000
 31
0.0000000000000000
  7
KNJYOKO
  0
MTEXT
  5
4D7
100
AcDbEntity
  8
WAKU0
  6
CONTINUOUS
 62
3
100
AcDbMText
 10
461.0737768693328
 20
53.29441620083833
 30
0.0000000000000000
 40
3.000000000000000
 41
0.0000000000000000
 71
     1
 72
     1
  1
{\H0.63x;{AC30A-02CG(SMC)}}
 11
1.000000000000000
 21
0.0000000000000000
 31
0.0000000000000000
  7
STANDARD
  0
LINE
  5
4D8
100
AcDbEntity
  8
WAKU0
  6
CONTINUOUS
 62
4
100
AcDbLine
 10
446.3756994871026
 20
58.29646948302934
 30
0.0000000000000000
 11
451.9756994871025
 21
58.29646948302934
 31
0.0000000000000000
  0
LINE
  5
4D9
100
AcDbEntity
  8
WAKU0
  6
CONTINUOUS
 62
4
100
AcDbLine
 10
449.8376647755349
 20
56.15651575527971
 30
0.0000000000000000
 11
449.1756994871032
 21
58.29646948302987
 31
0.0000000000000000
  0
LINE
  5
4DA
100
AcDbEntity
  8
WAKU0
  6
CONTINUOUS
 62
4
100
AcDbLine
 10
448.5137341986719
 20
56.15651575527941
 30
0.0000000000000000
 11
449.1756994871034
 21
58.29646948302958
 31
0.0000000000000000
  0
LINE
  5
4DB
100
AcDbEntity
  8
WAKU0
  6
CONTINUOUS
 62
4
100
AcDbLine
 10
451.9756994871021
 20
52.69646948302932
 30
0.0000000000000000
 11
451.9756994871021
 21
58.29646948302934
 31
0.0000000000000000
  0
LINE
  5
4DC
100
AcDbEntity
  8
WAKU0
  6
CONTINUOUS
 62
4
100
AcDbLine
 10
446.3756994871026
 20
52.69646948302932
 30
0.0000000000000000
 11
446.3756994871026
 21
58.29646948302934
 31
0.0000000000000000
  0
LINE
  5
4DD
100
AcDbEntity
  8
WAKU0
  6
CONTINUOUS
 62
4
100
AcDbLine
 10
446.3756994871026
 20
52.69646948302932
 30
0.0000000000000000
 11
451.9756994871025
 21
52.69646948302932
 31
0.0000000000000000
  0
LINE
  5
4DE
100
AcDbEntity
  8
WAKU0
  6
HIDDEN
 62
4
100
AcDbLine
 10
451.9756994871024
 20
55.49646948302950
 30
0.0000000000000000
 11
454.7756994871021
 21
55.49646948302950
 31
0.0000000000000000
  0
LINE
  5
4DF
100
AcDbEntity
  8
WAKU0
  6
HIDDEN
 62
4
100
AcDbLine
 10
454.7756994871021
 20
55.49646948302950
 30
0.0000000000000000
 11
454.7756994871021
 21
62.21646948302953
 31
0.0000000000000000
  0
LINE
  5
4E0
100
AcDbEntity
  8
WAKU0
  6
CONTINUOUS
 62
4
100
AcDbLine
 10
443.8356994871025
 20
59.30662412631374
 30
0.0000000000000000
 11
440.4756994871024
 21
65.12631483974583
 31
0.0000000000000000
  0
LINE
  5
4E1
100
AcDbEntity
  8
WAKU0
  6
CONTINUOUS
 62
4
100
AcDbLine
 10
440.9723975947719
 20
62.94207790437505
 30
0.0000000000000000
 11
440.4756994871021
 21
65.12631483974568
 31
0.0000000000000000
  0
LINE
  5
4E2
100
AcDbEntity
  8
WAKU0
  6
CONTINUOUS
 62
4
100
AcDbLine
 10
445.2159015124578
 20
46.35711920492562
 30
0.0000000000000000
 11
449.1756994871023
 21
42.39732123028108
 31
0.0000000000000000
  0
LINE
  5
4E3
100
AcDbEntity
  8
WAKU0
  6
CONTINUOUS
 62
4
100
AcDbLine
 10
449.1756994871030
 20
42.39732123028111
 30
0.0000000000000000
 11
453.1354974617476
 21
46.35711920492570
 31
0.0000000000000000
  0
LINE
  5
4E4
100
AcDbEntity
  8
WAKU0
  6
CONTINUOUS
 62
4
100
AcDbLine
 10
445.2159015124582
 20
46.35711920492591
 30
0.0000000000000000
 11
449.1756994871029
 21
50.31691717957047
 31
0.0000000000000000
  0
LINE
  5
4E5
100
AcDbEntity
  8
WAKU0
  6
CONTINUOUS
 62
4
100
AcDbLine
 10
449.1756994871031
 20
50.31691717957034
 30
0.0000000000000000
 11
453.1354974617477
 21
46.35711920492560
 31
0.0000000000000000
  0
LINE
  5
4E6
100
AcDbEntity
  8
WAKU0
  6
HIDDEN
 62
4
100
AcDbLine
 10
445.2159015124583
 20
46.35711920492605
 30
0.0000000000000000
 11
451.4156994871020
 21
46.35711920492605
 31
0.0000000000000000
  0
LINE
  5
4E7
100
AcDbEntity
  8
WAKU0
  6
CONTINUOUS
 62
4
100
AcDbLine
 10
449.1756994871024
 20
40.19711920499952
 30
0.0000000000000000
 11
449.1756994871024
 21
42.39732123028125
 31
0.0000000000000000
  0
LINE
  5
4E8
100
AcDbEntity
  8
WAKU0
  6
CONTINUOUS
 62
4
100
AcDbLine
 10
451.4156994871020
 20
44.63732123028075
 30
0.0000000000000000
 11
451.4156994871020
 21
48.07691717957061
 31
0.0000000000000000
  0
LINE
  5
4E9
100
AcDbEntity
  8
WAKU0
  6
CONTINUOUS
 62
4
100
AcDbLine
 10
442.1189551071830
 20
63.60404319280704
 30
0.0000000000000000
 11
440.4756994871025
 21
65.12631483974599
 31
0.0000000000000000
  0
LINE
  5
4EA
100
AcDbEntity
  8
WAKU0
  6
CONTINUOUS
 62
4
100
AcDbLine
 10
446.0756994871024
 20
62.21646948302953
 30
0.0000000000000000
 11
449.1756994871024
 21
62.21646948302953
 31
0.0000000000000000
  0
POLYLINE
  5
4EB
100
AcDbEntity
  8
WAKU0
  6
CONTINUOUS
 62
4
100
AcDb2dPolyline
 66
     1
 10
0.0000000000000000
 20
0.0000000000000000
 30
0.0000000000000000
 70
     1
 40
0.5000000000000000
 41
0.5000000000000000
  0
VERTEX
  5
4EC
100
AcDbEntity
  8
WAKU0
  6
CONTINUOUS
 62
4
100
AcDbVertex
100
AcDb2dVertex
 10
449.4256994871024
 20
62.21646948302953
 30
0.0000000000000000
 42
1.000000000000000
  0
VERTEX
  5
4ED
100
AcDbEntity
  8
WAKU0
  6
CONTINUOUS
 62
4
100
AcDbVertex
100
AcDb2dVertex
 10
448.9256994871024
 20
62.21646948302953
 30
0.0000000000000000
 42
1.000000000000000
  0
SEQEND
  5
4EE
100
AcDbEntity
  8
WAKU0
  6
CONTINUOUS
 62
4
  0
LINE
  5
4EF
100
AcDbEntity
  8
WAKU0
  6
HIDDEN
 62
4
100
AcDbLine
 10
449.1756994871024
 20
62.21646948302953
 30
0.0000000000000000
 11
454.7756994871024
 21
62.21646948302953
 31
0.0000000000000000
  0
LINE
  5
4F0
100
AcDbEntity
  8
WAKU0
  6
CONTINUOUS
 62
4
100
AcDbLine
 10
446.3756994871024
 20
56.61646948302980
 30
0.0000000000000000
 11
445.7754932960567
 21
54.37646948302978
 31
0.0000000000000000
  0
LINE
  5
4F1
100
AcDbEntity
  8
WAKU0
  6
CONTINUOUS
 62
4
100
AcDbLine
 10
445.1752871050109
 20
56.61646948303017
 30
0.0000000000000000
 11
445.7754932960568
 21
54.37646948303001
 31
0.0000000000000000
  0
LINE
  5
4F2
100
AcDbEntity
  8
WAKU0
  6
CONTINUOUS
 62
4
100
AcDbLine
 10
445.1752871050106
 20
56.61646948303057
 30
0.0000000000000000
 11
444.5750809139646
 21
54.37646948303024
 31
0.0000000000000000
  0
LINE
  5
4F3
100
AcDbEntity
  8
WAKU0
  6
CONTINUOUS
 62
4
100
AcDbLine
 10
443.9748747229202
 20
56.61646948303017
 30
0.0000000000000000
 11
444.5750809139660
 21
54.37646948303001
 31
0.0000000000000000
  0
CIRCLE
  5
4F4
100
AcDbEntity
  8
WAKU0
  6
CONTINUOUS
 62
4
100
AcDbCircle
 10
442.1556994871024
 20
62.21646948302953
 30
0.0000000000000000
 40
3.919999999999999
  0
LINE
  5
4F5
100
AcDbEntity
  8
WAKU0
  6
CONTINUOUS
 62
3
100
AcDbLine
 10
447.5591187333279
 20
37.39711920492512
 30
0.0000000000000000
 11
449.1756994871024
 21
40.19711920499954
 31
0.0000000000000000
  0
LINE
  5
4F6
100
AcDbEntity
  8
WAKU0
  6
CONTINUOUS
 62
3
100
AcDbLine
 10
450.7922802408751
 20
37.39711920492736
 30
0.0000000000000000
 11
449.1756994871022
 21
40.19711920499957
 31
0.0000000000000000
  0
LINE
  5
4F7
100
AcDbEntity
  8
WAKU0
  6
CONTINUOUS
 62
3
100
AcDbLine
 10
447.5591187333283
 20
37.39711920492465
 30
0.0000000000000000
 11
450.7922802408758
 21
37.39711920492721
 31
0.0000000000000000
  0
LINE
  5
4F8
100
AcDbEntity
  8
WAKU0
  6
CONTINUOUS
 62
3
100
AcDbLine
 10
453.1354974617478
 20
46.35711920492622
 30
0.0000000000000000
 11
455.3356994871021
 21
46.35711920492622
 31
0.0000000000000000
  0
LINE
  5
4F9
100
AcDbEntity
  8
WAKU0
  6
CONTINUOUS
 62
4
100
AcDbLine
 10
449.1756994871024
 20
50.31691717957028
 30
0.0000000000000000
 11
449.1756994871024
 21
51.91732123028100
 31
0.0000000000000000
  0
LINE
  5
4FA
100
AcDbEntity
  8
WAKU0
  6
CONTINUOUS
 62
4
100
AcDbLine
 10
449.1756994871021
 20
50.49626745767291
 30
0.0000000000000000
 11
449.1756994871021
 21
64.18463110332715
 31
0.0000000000000000
  0
LINE
  5
4FB
100
AcDbEntity
  8
WAKU0
  6
CONTINUOUS
 62
4
100
AcDbLine
 10
449.1756994871022
 20
79.86095758465558
 30
0.0000000000000000
 11
449.1756994871022
 21
89.87998335856941
 31
0.0000000000000000
  0
LINE
  5
4FC
100
AcDbEntity
  8
WAKU0
  6
PHANTOM
 62
3
100
AcDbLine
 10
418.5264314379754
 20
126.2493590526127
 30
0.0000000000000000
 11
480.1260190919380
 21
126.2493590526127
 31
0.0000000000000000
  0
LINE
  5
4FD
100
AcDbEntity
  8
WAKU0
  6
PHANTOM
 62
3
100
AcDbLine
 10
418.5264314379754
 20
78.16745477331170
 30
0.0000000000000000
 11
480.1260190919514
 21
78.16745477331170
 31
0.0000000000000000
  0
LINE
  5
4FE
100
AcDbEntity
  8
WAKU0
  6
PHANTOM
 62
3
100
AcDbLine
 10
418.5264314379754
 20
34.53441351836847
 30
0.0000000000000000
 11
480.1260190919634
 21
34.53441351836847
 31
0.0000000000000000
  0
LINE
  5
4FF
100
AcDbEntity
  8
WAKU0
  6
PHANTOM
 62
3
100
AcDbLine
 10
418.5264314379754
 20
34.53441351836847
 30
0.0000000000000000
 11
418.5264314379754
 21
55.96666414902495
 31
0.0000000000000000
  0
LINE
  5
500
100
AcDbEntity
  8
WAKU0
  6
PHANTOM
 62
3
100
AcDbLine
 10
418.5264314379754
 20
67.06392443357680
 30
0.0000000000000000
 11
418.5264314379754
 21
126.2493590526127
 31
0.0000000000000000
  0
LINE
  5
501
100
AcDbEntity
  8
WAKU0
  6
PHANTOM
 62
3
100
AcDbLine
 10
480.1260190919634
 20
34.53441351836855
 30
0.0000000000000000
 11
480.1260190919608
 21
44.23474755963675
 31
0.0000000000000000
  0
LINE
  5
502
100
AcDbEntity
  8
WAKU0
  6
CONTINUOUS
 62
4
100
AcDbLine
 10
445.2159015124578
 20
73.30433701457223
 30
0.0000000000000000
 11
449.1756994871025
 21
77.26413498921679
 31
0.0000000000000000
  0
LINE
  5
503
100
AcDbEntity
  8
WAKU0
  6
CONTINUOUS
 62
4
100
AcDbLine
 10
445.2159015124574
 20
73.30433701457196
 30
0.0000000000000000
 11
449.1756994871018
 21
69.34453903992744
 31
0.0000000000000000
  0
LINE
  5
504
100
AcDbEntity
  8
WAKU0
  6
CONTINUOUS
 62
4
100
AcDbLine
 10
449.1756994871026
 20
69.34453903992744
 30
0.0000000000000000
 11
453.1354974617473
 21
73.30433701457201
 31
0.0000000000000000
  0
LINE
  5
505
100
AcDbEntity
  8
WAKU0
  6
CONTINUOUS
 62
4
100
AcDbLine
 10
449.1756994871028
 20
77.26413498921666
 30
0.0000000000000000
 11
453.1354974617474
 21
73.30433701457191
 31
0.0000000000000000
  0
LINE
  5
506
100
AcDbEntity
  8
WAKU0
  6
CONTINUOUS
 62
3
100
AcDbLine
 10
445.2159015123835
 20
73.30433701449778
 30
0.0000000000000000
 11
446.9356994871021
 21
73.30433701449744
 31
0.0000000000000000
  0
MTEXT
  5
507
100
AcDbEntity
  8
WAKU0
  6
CONTINUOUS
 62
3
100
AcDbMText
 10
469.1896707811907
 20
93.91785458456212
 30
0.0000000000000000
 40
3.000000000000000
 41
0.0000000000000000
 71
     1
 72
     1
  1
{\H0.63x;{SIRENCER\Pサイレンサ\PAN200-02}}
 11
1.000000000000000
 21
0.0000000000000000
 31
0.0000000000000000
  7
KNJYOKO
  0
LINE
  5
508
100
AcDbEntity
  8
WAKU0
  6
PHANTOM
 62
3
100
AcDbLine
 10
480.1260190919531
 20
71.47245995497258
 30
0.0000000000000000
 11
480.1260190919499
 21
83.09963550406303
 31
0.0000000000000000
  0
MTEXT
  5
509
100
AcDbEntity
  8
WAKU0
  6
CONTINUOUS
 62
3
100
AcDbMText
 10
427.6676017800147
 20
143.3007995290421
 30
0.0000000000000000
 40
3.099999904632568
 41
0.0000000000000000
 71
     1
 72
     1
  1
{\H0.92x;{A(開)\P(OPEN)}}
 11
1.000000000000000
 21
-2.021286199229721e-015
 31
0.0000000000000000
  7
KNJYOKO
  0
MTEXT
  5
50A
100
AcDbEntity
  8
WAKU0
  6
CONTINUOUS
 62
3
100
AcDbMText
 10
454.1560039269838
 20
143.4978283010174
 30
0.0000000000000000
 40
3.099999904632568
 41
0.0000000000000000
 71
     1
 72
     1
  1
{\H0.92x;{B(閉)\P(CLOSE)}}
 11
1.000000000000000
 21
-2.021286199229721e-015
 31
0.0000000000000000
  7
KNJYOKO
  0
MTEXT
  5
50B
100
AcDbEntity
  8
WAKU0
  6
CONTINUOUS
 62
4
100
AcDbMText
 10
477.3745580749124
 20
110.6376838586731
 30
0.0000000000000000
 40
3.000000000000000
 41
0.0000000000000000
 71
     1
 72
     1
  1
{\H0.63x;{VFS3400-5DZ-02\P}
 11
1.000000000000000
 21
0.0000000000000000
 31
0.0000000000000000
  7
STANDARD
  0
MTEXT
  5
50C
100
AcDbEntity
  8
WAKU0
  6
CONTINUOUS
 62
4
100
AcDbMText
 10
477.0994850439540
 20
118.7652918077698
 30
0.0000000000000000
 40
3.000000000000000
 41
0.0000000000000000
 71
     1
 72
     1
  1
{\H0.59x;{ソレノイドバルブ(参考相当品)\PSOLENOID VALVE}}
 11
1.000000000000000
 21
0.0000000000000000
 31
0.0000000000000000
  7
KNJYOKO
  0
LINE
  5
50D
100
AcDbEntity
  8
WAKU0
  6
PHANTOM
 62
3
100
AcDbLine
 10
480.1260190919464
 20
95.99862888436026
 30
0.0000000000000000
 11
480.1260190919444
 21
103.2524486459684
 31
0.0000000000000000
  0
LINE
  5
50E
100
AcDbEntity
  8
WAKU0
  6
PHANTOM
 62
3
100
AcDbLine
 10
480.1260190919397
 20
119.9813561280907
 30
0.0000000000000000
 11
480.1260190919379
 21
126.2493590526127
 31
0.0000000000000000
  0
MTEXT
  5
50F
100
AcDbEntity
  8
WAKU0
  6
CONTINUOUS
 62
3
100
AcDbMText
 10
429.8081474775584
 20
31.64893943384584
 30
0.0000000000000000
 40
5.000000000000000
 41
0.0000000000000000
 71
     1
 72
     1
  1
{\H0.59x;{　　エアー回路図\PＡＩＲ　ＤＩＡＧＲＡＭ\P}
 11
1.000000000000000
 21
0.0000000000000000
 31
0.0000000000000000
  7
KNJYOKO
  0
LINE
  5
510
100
AcDbEntity
  8
WAKU0
  6
CONTINUOUS
 62
3
100
AcDbLine
 10
428.7617378490407
 20
26.34175115917509
 30
0.0000000000000000
 11
470.0923646236560
 21
26.34175115917914
 31
0.0000000000000000
  0
ELLIPSE
  5
511
100
AcDbEntity
  8
WAKU0
  6
CONTINUOUS
 62
3
100
AcDbEllipse
 10
449.1756994870711
 20
157.7568092159771
 30
0.0000000000000000
 11
10.50000000000000
 21
0.0000000000000000
 31
0.0000000000000000
210
0.0000000000000000
220
0.0000000000000000
230
1.000000000000000
 40
0.4213826500238095
 41
0.0000000000000000
 42
6.283185307179586
  0
MTEXT
  5
512
100
AcDbEntity
  8
WAKU0
  6
CONTINUOUS
 62
3
100
AcDbMText
 10
476.8104669282469
 20
107.0359792477115
 30
0.0000000000000000
 40
3.000000000000000
 41
0.0000000000000000
 71
     1
 72
     1
  1
{\H0.63x;{(OR EQUIVALANT)}}
 11
1.000000000000000
 21
0.0000000000000000
 31
0.0000000000000000
  7
STANDARD
  0
MTEXT
  5
513
100
AcDbEntity
  8
WAKU0
  6
CONTINUOUS
 62
3
100
AcDbMText
 10
460.5287101842139
 20
49.51722876680316
 30
0.0000000000000000
 40
3.000000000000000
 41
0.0000000000000000
 71
     1
 72
     1
  1
{\H0.63x;{(OR EQUIVALANT)}}
 11
1.000000000000000
 21
0.0000000000000000
 31
0.0000000000000000
  7
STANDARD
  0
LEADER
  5
514
100
AcDbEntity
  8
WAKU0
  6
CONTINUOUS
 62
3
100
AcDbLeader
  3
WAKU003
 73
     3
 74
     0
 75
     0
 76
     2
 10
439.8006994870882
 20
110.0863936745826
 30
0.0000000000000000
 10
439.8006994870801
 20
119.0863936745891
 30
0.0000000000000000
1001
ACAD
1000
DSTYLE
1002
{
1070
   173
1070
     1
1070
     6
1000
_OPEN
1070
     7
1000
_OPEN
1002
}
  0
LEADER
  5
515
100
AcDbEntity
  8
WAKU0
  6
CONTINUOUS
 62
3
100
AcDbLeader
  3
WAKU003
 73
     3
 74
     0
 75
     0
 76
     2
 10
434.5506994870829
 20
119.0863936745826
 30
0.0000000000000000
 10
437.5506994870864
 20
110.0863936745890
 30
0.0000000000000000
1001
ACAD
1000
DSTYLE
1002
{
1070
   173
1070
     1
1070
     6
1000
_OPEN
1070
     7
1000
_OPEN
1002
}
  0
LEADER
  5
516
100
AcDbEntity
  8
WAKU0
  6
CONTINUOUS
 62
3
100
AcDbLeader
  3
WAKU003
 73
     3
 74
     0
 75
     0
 76
     2
 10
458.5506994870972
 20
110.0863936745924
 30
0.0000000000000000
 10
458.5506994870960
 20
119.0863936745890
 30
0.0000000000000000
1001
ACAD
1000
DSTYLE
1002
{
1070
   173
1070
     1
1070
     6
1000
_OPEN
1070
     7
1000
_OPEN
1002
}
  0
LEADER
  5
517
100
AcDbEntity
  8
WAKU0
  6
CONTINUOUS
 62
3
100
AcDbLeader
  3
WAKU003
 73
     3
 74
     0
 75
     0
 76
     2
 10
463.8006994870930
 20
119.0863936745980
 30
0.0000000000000000
 10
460.8006994870952
 20
110.0863936745892
 30
0.0000000000000000
1001
ACAD
1000
DSTYLE
1002
{
1070
   173
1070
     1
1070
     6
1000
_OPEN
1070
     7
1000
_OPEN
1002
}
  0
LEADER
  5
518
100
AcDbEntity
  8
WAKU0
  6
CONTINUOUS
 62
3
100
AcDbLeader
  3
WAKU003
 73
     0
 74
     0
 75
     1
 40
3.000000000000000
 41
23.40099938011173
 76
     3
 10
472.0690632036715
 20
126.0863936745891
 30
0.0000000000000000
 10
475.9237894554976
 20
136.0875044794906
 30
0.0000000000000000
 10
477.6027894554975
 20
136.0875044794906
 30
0.0000000000000000
340
519
213
-0.001000000000033197
223
-0.5000000000000000
233
0.0000000000000000
1001
ACAD
1000
DSTYLE
1002
{
1070
   147
1040
0.0
1070
    77
1070
     1
1070
   173
1070
     1
1070
     6
1000
_OPEN
1070
     7
1000
_OPEN
1002
}
  0
MTEXT
  5
519
102
{ACAD_REACTORS
330
518
102
}
100
AcDbEntity
  8
WAKU0
  6
CONTINUOUS
 62
3
100
AcDbMText
 10
477.6037894554976
 20
139.5875044794906
 30
0.0000000000000000
 40
3.000000000000000
 41
0.0000000000000000
 71
     1
 72
     1
  1
{\H0.60x;{客先にて手配願います。\PCUSTOMER MUST\PPREPARE}}
 11
1.000000000000000
 21
0.0000000000000000
 31
0.0000000000000000
  7
KNJYOKO
  0
INSERT
  5
524
100
AcDbEntity
  8
WAKU0
  6
CONTINUOUS
 62
1
100
AcDbBlockReference
  2
M2
 10
0.0000000000000000
 20
0.0000000000000000
 30
0.0000000000000000
 50
0.0000000000000000
  0
HATCH
  5
525
100
AcDbEntity
  8
WAKU0
  6
CONTINUOUS
 62
3
100
AcDbHatch
 10
0.000000
 20
0.000000
 30
0.000000
210
0.000000
220
0.000000
230
1.000000
  2
SOLID
 70
1
 71
0
 91
1
 92
7
 72
0
 73
1
 93
3
 10
451.4156994871020
 20
47.18751394193072
 10
451.8951281120463
 20
46.35711920492662
 10
451.4156994871020
 20
45.52672446792269
 97
0
 75
0
 76
1
 47
0.100000
 98
1
 10
0.000000
 20
0.000000
  0
LINE
  5
526
100
AcDbEntity
  8
WAKU0
  6
CONTINUOUS
 62
3
100
AcDbLine
 10
645.9120638566342
 20
15.50075497216948
 30
0.0000000000000000
 11
645.9120638566342
 21
21.50075497216950
 31
0.0000000000000000
  0
LINE
  5
527
100
AcDbEntity
  8
WAKU0
  6
CONTINUOUS
 62
3
100
AcDbLine
 10
639.3743702040767
 20
17.00075497216947
 30
0.0000000000000000
 11
639.3743702040767
 21
20.00075497216960
 31
0.0000000000000000
  0
LINE
  5
528
100
AcDbEntity
  8
WAKU0
  6
CENTER
 62
12
100
AcDbLine
 10
628.8728566327537
 20
18.50075497216949
 30
0.0000000000000000
 11
646.7172549777235
 21
18.50075497216949
 31
0.0000000000000000
  0
LINE
  5
529
100
AcDbEntity
  8
WAKU0
  6
CENTER
 62
12
100
AcDbLine
 10
632.8881326670528
 20
14.27955738872584
 30
0.0000000000000000
 11
632.8881326670528
 21
22.61899178104079
 31
0.0000000000000000
  0
LINE
  5
52A
100
AcDbEntity
  8
WAKU0
  6
CONTINUOUS
 62
3
100
AcDbLine
 10
639.3743702040767
 20
20.00075497216933
 30
0.0000000000000000
 11
645.9120638566342
 21
21.50075497216930
 31
0.0000000000000000
  0
LINE
  5
52B
100
AcDbEntity
  8
WAKU0
  6
CONTINUOUS
 62
3
100
AcDbLine
 10
639.3743702040767
 20
17.00075497216947
 30
0.0000000000000000
 11
645.9120638566341
 21
15.50075497216948
 31
0.0000000000000000
  0
CIRCLE
  5
52C
100
AcDbEntity
  8
WAKU0
  6
CONTINUOUS
 62
3
100
AcDbCircle
 10
632.8881326670528
 20
18.50075497216949
 30
0.0000000000000000
 40
1.499999999999972
  0
CIRCLE
  5
52D
100
AcDbEntity
  8
WAKU0
  6
CONTINUOUS
 62
3
100
AcDbCircle
 10
632.8881326670528
 20
18.50075497216949
 30
0.0000000000000000
 40
2.999999999999979
  0
LEADER
  5
52E
100
AcDbEntity
  8
WAKU0
  6
CONTINUOUS
 62
3
100
AcDbLeader
  3
WAKU003
 73
     0
 75
     1
 40
3.000000000000000
 41
28.79899923706057
 76
     3
 10
417.0796374348612
 20
59.79586620308254
 30
0.0000000000000000
 10
404.7745991669054
 20
45.73414671364536
 30
0.0000000000000000
 10
403.0935991669055
 20
45.73414671364536
 30
0.0000000000000000
340
52F
213
0.0000000000000000
223
-0.5000000000000000
233
0.0000000000000000
1001
ACAD
1000
DSTYLE
1002
{
1070
   147
1040
0.0
1070
    77
1070
     1
1070
   173
1070
     1
1070
     6
1000
_OPEN
1070
     7
1000
_OPEN
1002
}
  0
MTEXT
  5
52F
102
{ACAD_REACTORS
330
52E
102
}
100
AcDbEntity
  8
WAKU0
  6
CONTINUOUS
 62
3
100
AcDbMText
 10
374.2945999298449
 20
49.23414671364536
 30
0.0000000000000000
 40
3.000000000000000
 41
0.0000000000000000
 71
     1
 72
     1
  1
{\H0.63x;{最高使用エア圧力\PMAX Permissible \Pair press\PMAX 0.7MPa\P(7.0kgf/cm2)}}
 11
1.000000000000000
 21
0.0000000000000000
 31
0.0000000000000000
  7
KNJYOKO
  0
ENDSEC
  0
SECTION
  2
OBJECTS
  0
DICTIONARY
  5
57D
100
AcDbDictionary
  3
ACAD_GROUP
350
57E
  3
ACAD_MLINESTYLE
350
57F
  3
DWGPROPS
350
580
  0
DICTIONARY
  5
57E
102
{ACAD_REACTORS
330
57D
102
}
100
AcDbDictionary
  0
DICTIONARY
  5
57F
102
{ACAD_REACTORS
330
57D
102
}
100
AcDbDictionary
  3
STANDARD
350
581
  0
MLINESTYLE
  5
581
102
{ACAD_REACTORS
330
57F
102
}
100
AcDbMlineStyle
  2
STANDARD
 70
     0
  3

 62
   256
 51
90.00
 52
90.00
 71
     2
 49
0.50
 62
   256
  6
BYLAYER
 49
-0.50
 62
   256
  6
BYLAYER
  0
XRECORD
  5
580
102
{ACAD_REACTORS
330
57D
102
}
100
AcDbXrecord
280
     1
  1
DWGPROPS COOKIE
  2
ＮＲＣ１０　ガイケイ
  3

  4

  6
ロータリチャック　１０
  7

  8

  9

300
=
301
=
302
=
303
=
304
=
305
=
306
=
307
=
308
=
309
=
 40
0.000000
 41
0.000000
 42
0.000000
  1

 90
        0
  0
ENDSEC
  0
EOF
