  0
SECTION
  2
HEADER
  9
$ACADVER
  1
AC1014
  9
$DWGCODEPAGE
  3
ANSI_932
  9
$LTSCALE
 40
20.0
  9
$FILLMODE
 70
     1
  9
$CLAYER
  8
0
  9
$PDMODE
 70
     0
  9
$SPLFRAME
 70
     0
  9
$SPLINETYPE
 70
     6
  9
$SPLINESEGS
 70
     8
  9
$DIMASZ
 40
2.000000
  9
$DIMEXE
 40
2.000000
  9
$DIMEXO
 40
0.800000
  9
$DIMTAD
 70
     1
  9
$DIMTIH
 70
     0
  9
$DIMTOH
 70
     0
  9
$DIMTVP
 40
0.500000
  9
$DIMTXT
 40
3.100000
  9
$EXTMIN
 10
0.000000
 20
0.000000
 30
0.000000
  9
$EXTMAX
 10
420.000000
 20
594.000000
 30
0.000000
  9
$MEASUREMENT
 70
  1
  9
$LIMMIN
 10
0.000000
 20
0.000000
  9
$LIMMAX
 10
420.000000
 20
594.000000
  9
$HANDLING
 70
     1
  9
$HANDSEED
  5
63F
  9
$DIMBLK
  1
_OPEN
  9
$DIMDEC
 70
     3
  9
$DIMAUNIT
 70
     1
  9
$DIMZIN
 70
     8
  9
$DIMTOFL
 70
     1
  0
ENDSEC
  0
SECTION
  2
CLASSES
  0
ENDSEC
  0
SECTION
  2
TABLES
  0
TABLE
  2
VPORT
  5
5DF
100
AcDbSymbolTable
 70
     1
  0
VPORT
  5
5E0
100
AcDbSymbolTableRecord
100
AcDbViewportTableRecord
  2
*ACTIVE
 70
     0
 12
304.081716
 22
204.938476
 40
385.876953
 41
1.440450
  0
ENDTAB
  0
TABLE
  2
LTYPE
  5
5E1
100
AcDbSymbolTable
 70
     4
  0
LTYPE
  5
5E2
100
AcDbSymbolTableRecord
100
AcDbLinetypeTableRecord
  2
BYBLOCK
 70
     0
  3

 72
    65
 73
     0
 40
0.0
  0
LTYPE
  5
5E3
100
AcDbSymbolTableRecord
100
AcDbLinetypeTableRecord
  2
BYLAYER
 70
     0
  3

 72
    65
 73
     0
 40
0.0
  0
LTYPE
  5
5E4
100
AcDbSymbolTableRecord
100
AcDbLinetypeTableRecord
  2
CONTINUOUS
 70
     0
  3
Solid line (NEC CAE2D for Win R12.1 : 2019.06.20)
 72
    65
 73
     0
 40
0.0
  0
LTYPE
  5
5E5
100
AcDbSymbolTableRecord
100
AcDbLinetypeTableRecord
  2
HIDDEN
 70
     0
  3
__ __ __ __ __ __ __ __ __ __ __ __ __ __
 72
    65
 73
     2
 40
0.375
 49
0.25
 74
     0
 49
-0.125
 74
     0
  0
LTYPE
  5
5E6
100
AcDbSymbolTableRecord
100
AcDbLinetypeTableRecord
  2
CENTER
 70
     0
  3
____ _ ____ _ ____ _ ____ _ ____ _ ____
 72
    65
 73
     4
 40
2.0
 49
1.25
 74
     0
 49
-0.25
 74
     0
 49
0.25
 74
     0
 49
-0.25
 74
     0
  0
LTYPE
  5
5E7
100
AcDbSymbolTableRecord
100
AcDbLinetypeTableRecord
  2
PHANTOM
 70
     0
  3
______  __  __  ______  __  __  ______ 
 72
    65
 73
     6
 40
2.5
 49
1.25
 74
     0
 49
-0.25
 74
     0
 49
0.25
 74
     0
 49
-0.25
 74
     0
 49
0.25
 74
     0
 49
-0.25
 74
     0
  0
ENDTAB
  0
TABLE
  2
LAYER
  5
5E8
100
AcDbSymbolTable
 70
    15
  0
LAYER
  5
5E9
100
AcDbSymbolTableRecord
100
AcDbLayerTableRecord
  2
0
 70
     0
 62
     7
  6
CONTINUOUS
  0
LAYER
  5
5EA
100
AcDbSymbolTableRecord
100
AcDbLayerTableRecord
  2
MAIN0
 70
     0
 62
     7
  6
CONTINUOUS
  0
LAYER
  5
5EB
100
AcDbSymbolTableRecord
100
AcDbLayerTableRecord
  2
MAIN1
 70
     0
 62
     7
  6
CONTINUOUS
  0
LAYER
  5
5EC
100
AcDbSymbolTableRecord
100
AcDbLayerTableRecord
  2
MAIN2
 70
     0
 62
     7
  6
CONTINUOUS
  0
LAYER
  5
5ED
100
AcDbSymbolTableRecord
100
AcDbLayerTableRecord
  2
MAIN3
 70
     0
 62
     7
  6
CONTINUOUS
  0
LAYER
  5
5EE
100
AcDbSymbolTableRecord
100
AcDbLayerTableRecord
  2
MAIN4
 70
     0
 62
     7
  6
CONTINUOUS
  0
LAYER
  5
5EF
100
AcDbSymbolTableRecord
100
AcDbLayerTableRecord
  2
MAIN5
 70
     0
 62
     7
  6
CONTINUOUS
  0
LAYER
  5
5F0
100
AcDbSymbolTableRecord
100
AcDbLayerTableRecord
  2
MAIN6
 70
     0
 62
     7
  6
CONTINUOUS
  0
LAYER
  5
5F1
100
AcDbSymbolTableRecord
100
AcDbLayerTableRecord
  2
MAIN7
 70
     0
 62
     7
  6
CONTINUOUS
  0
LAYER
  5
5F2
100
AcDbSymbolTableRecord
100
AcDbLayerTableRecord
  2
MAIN8
 70
     0
 62
     7
  6
CONTINUOUS
  0
LAYER
  5
5F3
100
AcDbSymbolTableRecord
100
AcDbLayerTableRecord
  2
MAIN9
 70
     0
 62
     7
  6
CONTINUOUS
  0
LAYER
  5
5F4
100
AcDbSymbolTableRecord
100
AcDbLayerTableRecord
  2
MAIN10
 70
     0
 62
     7
  6
CONTINUOUS
  0
LAYER
  5
5F5
100
AcDbSymbolTableRecord
100
AcDbLayerTableRecord
  2
MAIN1023
 70
     0
 62
    16
  6
CONTINUOUS
  0
LAYER
  5
5F6
100
AcDbSymbolTableRecord
100
AcDbLayerTableRecord
  2
WAKU0
 70
     0
 62
     7
  6
CONTINUOUS
  0
LAYER
  5
5F7
100
AcDbSymbolTableRecord
100
AcDbLayerTableRecord
  2
WAKU1023
 70
     0
 62
    16
  6
CONTINUOUS
  0
ENDTAB
  0
TABLE
  2
STYLE
  5
5F8
100
AcDbSymbolTable
 70
     4
  0
STYLE
  5
5F9
100
AcDbSymbolTableRecord
100
AcDbTextStyleTableRecord
  2
STANDARD
 70
    64
 40
0.0
 41
1.0
 50
0.0
 71
     0
 42
3.099999904632568
  3
TXT
  4

  0
STYLE
  5
5FA
100
AcDbSymbolTableRecord
100
AcDbTextStyleTableRecord
  2
ANKTATE
 70
    68
 40
0.0
 41
1.0
 50
0.0
 71
     0
 42
3.099999904632568
  3
TXT
  4

  0
STYLE
  5
216
100
AcDbSymbolTableRecord
100
AcDbTextStyleTableRecord
  2
KNJYOKO
 70
    64
 40
0.0
 41
1.0
 50
0.0
 71
     0
 42
3.099999904632568
  3
TXT
  4
BIGFONT
  0
STYLE
  5
5FB
100
AcDbSymbolTableRecord
100
AcDbTextStyleTableRecord
  2
KNJTATE
 70
    68
 40
0.0
 41
1.0
 50
0.0
 71
     0
 42
3.099999904632568
  3
TXT
  4
BIGFONT
  0
ENDTAB
  0
TABLE
  2
VIEW
  5
5FC
100
AcDbSymbolTable
 70
     0
  0
ENDTAB
  0
TABLE
  2
UCS
  5
5FD
100
AcDbSymbolTable
 70
     0
  0
ENDTAB
  0
TABLE
  2
APPID
  5
5FE
100
AcDbSymbolTable
 70
     1
  0
APPID
  5
5FF
100
AcDbSymbolTableRecord
100
AcDbRegAppTableRecord
  2
ACAD
 70
     0
  0
ENDTAB
  0
TABLE
  2
DIMSTYLE
  5
600
100
AcDbSymbolTable
 70
     1
  0
DIMSTYLE
105
601
100
AcDbSymbolTableRecord
100
AcDbDimStyleTableRecord
  2
STANDARD
 70
     0
 41
2.000000
 44
2.000000
 42
0.800000
145
0.661290
140
3.100000
144
1.000000
146
0.903226
340
5F9
  0
DIMSTYLE
105
602
100
AcDbSymbolTableRecord
100
AcDbDimStyleTableRecord
  2
MAIN001
 70
     0
 41
2.000000
 44
2.000000
 42
0.800000
145
0.661290
140
3.100000
144
1.000000
146
0.903226
 77
     1
 73
     0
 74
     0
271
     3
275
     1
 78
     8
172
     1
340
5F9
  0
DIMSTYLE
105
603
100
AcDbSymbolTableRecord
100
AcDbDimStyleTableRecord
  2
WAKU002
 70
     0
 41
2.000000
 44
2.000000
 42
0.800000
145
0.661290
140
3.100000
144
1.000000
146
0.903226
 77
     1
 73
     0
 74
     0
271
     3
275
     1
 78
     8
172
     1
340
5F9
  0
ENDTAB
  0
TABLE
  2
BLOCK_RECORD
  5
604
100
AcDbSymbolTable
 70
    59
  0
BLOCK_RECORD
  5
605
100
AcDbSymbolTableRecord
100
AcDbBlockTableRecord
  2
*MODEL_SPACE
  0
BLOCK_RECORD
  5
606
100
AcDbSymbolTableRecord
100
AcDbBlockTableRecord
  2
*PAPER_SPACE
  0
BLOCK_RECORD
  5
1
100
AcDbSymbolTableRecord
100
AcDbBlockTableRecord
  2
_NONE
  0
BLOCK_RECORD
  5
4
100
AcDbSymbolTableRecord
100
AcDbBlockTableRecord
  2
_CLOSED
  0
BLOCK_RECORD
  5
B
100
AcDbSymbolTableRecord
100
AcDbBlockTableRecord
  2
_DOT
  0
BLOCK_RECORD
  5
13
100
AcDbSymbolTableRecord
100
AcDbBlockTableRecord
  2
_OPEN
  0
BLOCK_RECORD
  5
19
100
AcDbSymbolTableRecord
100
AcDbBlockTableRecord
  2
_ORIGIN
  0
BLOCK_RECORD
  5
1E
100
AcDbSymbolTableRecord
100
AcDbBlockTableRecord
  2
_OPEN30
  0
BLOCK_RECORD
  5
24
100
AcDbSymbolTableRecord
100
AcDbBlockTableRecord
  2
_BOXFILLED
  0
BLOCK_RECORD
  5
29
100
AcDbSymbolTableRecord
100
AcDbBlockTableRecord
  2
_BOXBLANK
  0
BLOCK_RECORD
  5
31
100
AcDbSymbolTableRecord
100
AcDbBlockTableRecord
  2
_OBLIQUE
  0
BLOCK_RECORD
  5
35
100
AcDbSymbolTableRecord
100
AcDbBlockTableRecord
  2
_OPEN90
  0
BLOCK_RECORD
  5
3B
100
AcDbSymbolTableRecord
100
AcDbBlockTableRecord
  2
_CLOSEDBLANK
  0
BLOCK_RECORD
  5
41
100
AcDbSymbolTableRecord
100
AcDbBlockTableRecord
  2
_DOTBLANK
  0
BLOCK_RECORD
  5
607
100
AcDbSymbolTableRecord
100
AcDbBlockTableRecord
  2
*D0
  0
BLOCK_RECORD
  5
608
100
AcDbSymbolTableRecord
100
AcDbBlockTableRecord
  2
*D1
  0
BLOCK_RECORD
  5
609
100
AcDbSymbolTableRecord
100
AcDbBlockTableRecord
  2
*D2
  0
BLOCK_RECORD
  5
60A
100
AcDbSymbolTableRecord
100
AcDbBlockTableRecord
  2
*D3
  0
BLOCK_RECORD
  5
60B
100
AcDbSymbolTableRecord
100
AcDbBlockTableRecord
  2
*D4
  0
BLOCK_RECORD
  5
60C
100
AcDbSymbolTableRecord
100
AcDbBlockTableRecord
  2
*D5
  0
BLOCK_RECORD
  5
60D
100
AcDbSymbolTableRecord
100
AcDbBlockTableRecord
  2
*D6
  0
BLOCK_RECORD
  5
60E
100
AcDbSymbolTableRecord
100
AcDbBlockTableRecord
  2
*D7
  0
BLOCK_RECORD
  5
60F
100
AcDbSymbolTableRecord
100
AcDbBlockTableRecord
  2
*D8
  0
BLOCK_RECORD
  5
610
100
AcDbSymbolTableRecord
100
AcDbBlockTableRecord
  2
*D9
  0
BLOCK_RECORD
  5
611
100
AcDbSymbolTableRecord
100
AcDbBlockTableRecord
  2
*D10
  0
BLOCK_RECORD
  5
612
100
AcDbSymbolTableRecord
100
AcDbBlockTableRecord
  2
*D11
  0
BLOCK_RECORD
  5
613
100
AcDbSymbolTableRecord
100
AcDbBlockTableRecord
  2
*D12
  0
BLOCK_RECORD
  5
614
100
AcDbSymbolTableRecord
100
AcDbBlockTableRecord
  2
*D13
  0
BLOCK_RECORD
  5
615
100
AcDbSymbolTableRecord
100
AcDbBlockTableRecord
  2
*D14
  0
BLOCK_RECORD
  5
616
100
AcDbSymbolTableRecord
100
AcDbBlockTableRecord
  2
*D15
  0
BLOCK_RECORD
  5
617
100
AcDbSymbolTableRecord
100
AcDbBlockTableRecord
  2
*D16
  0
BLOCK_RECORD
  5
618
100
AcDbSymbolTableRecord
100
AcDbBlockTableRecord
  2
D17
  0
BLOCK_RECORD
  5
619
100
AcDbSymbolTableRecord
100
AcDbBlockTableRecord
  2
D18
  0
BLOCK_RECORD
  5
61A
100
AcDbSymbolTableRecord
100
AcDbBlockTableRecord
  2
*D19
  0
BLOCK_RECORD
  5
61B
100
AcDbSymbolTableRecord
100
AcDbBlockTableRecord
  2
*D20
  0
BLOCK_RECORD
  5
61C
100
AcDbSymbolTableRecord
100
AcDbBlockTableRecord
  2
*D21
  0
BLOCK_RECORD
  5
61D
100
AcDbSymbolTableRecord
100
AcDbBlockTableRecord
  2
*D22
  0
BLOCK_RECORD
  5
61E
100
AcDbSymbolTableRecord
100
AcDbBlockTableRecord
  2
*D23
  0
BLOCK_RECORD
  5
61F
100
AcDbSymbolTableRecord
100
AcDbBlockTableRecord
  2
*D24
  0
BLOCK_RECORD
  5
620
100
AcDbSymbolTableRecord
100
AcDbBlockTableRecord
  2
*D25
  0
BLOCK_RECORD
  5
621
100
AcDbSymbolTableRecord
100
AcDbBlockTableRecord
  2
D26
  0
BLOCK_RECORD
  5
622
100
AcDbSymbolTableRecord
100
AcDbBlockTableRecord
  2
*D27
  0
BLOCK_RECORD
  5
623
100
AcDbSymbolTableRecord
100
AcDbBlockTableRecord
  2
*D28
  0
BLOCK_RECORD
  5
624
100
AcDbSymbolTableRecord
100
AcDbBlockTableRecord
  2
*D29
  0
BLOCK_RECORD
  5
625
100
AcDbSymbolTableRecord
100
AcDbBlockTableRecord
  2
*D30
  0
BLOCK_RECORD
  5
626
100
AcDbSymbolTableRecord
100
AcDbBlockTableRecord
  2
*D31
  0
BLOCK_RECORD
  5
627
100
AcDbSymbolTableRecord
100
AcDbBlockTableRecord
  2
*D32
  0
BLOCK_RECORD
  5
628
100
AcDbSymbolTableRecord
100
AcDbBlockTableRecord
  2
*D33
  0
BLOCK_RECORD
  5
629
100
AcDbSymbolTableRecord
100
AcDbBlockTableRecord
  2
*D34
  0
BLOCK_RECORD
  5
62A
100
AcDbSymbolTableRecord
100
AcDbBlockTableRecord
  2
*D35
  0
BLOCK_RECORD
  5
62B
100
AcDbSymbolTableRecord
100
AcDbBlockTableRecord
  2
*D36
  0
BLOCK_RECORD
  5
62C
100
AcDbSymbolTableRecord
100
AcDbBlockTableRecord
  2
*D37
  0
BLOCK_RECORD
  5
62D
100
AcDbSymbolTableRecord
100
AcDbBlockTableRecord
  2
*D38
  0
BLOCK_RECORD
  5
62E
100
AcDbSymbolTableRecord
100
AcDbBlockTableRecord
  2
D39
  0
BLOCK_RECORD
  5
62F
100
AcDbSymbolTableRecord
100
AcDbBlockTableRecord
  2
M0
  0
BLOCK_RECORD
  5
630
100
AcDbSymbolTableRecord
100
AcDbBlockTableRecord
  2
M1
  0
BLOCK_RECORD
  5
631
100
AcDbSymbolTableRecord
100
AcDbBlockTableRecord
  2
M2
  0
BLOCK_RECORD
  5
632
100
AcDbSymbolTableRecord
100
AcDbBlockTableRecord
  2
*D40
  0
BLOCK_RECORD
  5
633
100
AcDbSymbolTableRecord
100
AcDbBlockTableRecord
  2
*D41
  0
BLOCK_RECORD
  5
634
100
AcDbSymbolTableRecord
100
AcDbBlockTableRecord
  2
*D42
  0
BLOCK_RECORD
  5
635
100
AcDbSymbolTableRecord
100
AcDbBlockTableRecord
  2
*D43
  0
ENDTAB
  0
ENDSEC
  0
SECTION
  2
BLOCKS
  0
BLOCK
  5
636
100
AcDbEntity
  8
0
100
AcDbBlockBegin
  2
*MODEL_SPACE
 70
     0
 10
0.0
 20
0.0
 30
0.0
  3
*MODEL_SPACE
  1

  0
ENDBLK
  5
637
100
AcDbEntity
  8
0
100
AcDbBlockEnd
  0
BLOCK
  5
638
100
AcDbEntity
  8
0
100
AcDbBlockBegin
  2
*PAPER_SPACE
 70
     0
 10
0.0
 20
0.0
 30
0.0
  3
*PAPER_SPACE
  1

  0
ENDBLK
  5
639
100
AcDbEntity
  8
0
100
AcDbBlockEnd
  0
BLOCK
  5
2
100
AcDbEntity
  8
0
100
AcDbBlockBegin
  2
_NONE
 70
     0
 10
0.0
 20
0.0
 30
0.0
  3
_NONE
  1

  0
ENDBLK
  5
3
100
AcDbEntity
  8
0
100
AcDbBlockEnd
  0
BLOCK
  5
5
100
AcDbEntity
  8
0
100
AcDbBlockBegin
  2
_CLOSED
 70
     0
 10
0.0
 20
0.0
 30
0.0
  3
_CLOSED
  1

  0
LINE
  5
6
100
AcDbEntity
  8
0
  6
BYBLOCK
 62
     0
100
AcDbLine
 10
-1.0
 20
0.166667
 30
0.0
 11
0.0
 21
0.0
 31
0.0
  0
LINE
  5
7
100
AcDbEntity
  8
0
  6
BYBLOCK
 62
     0
100
AcDbLine
 10
0.0
 20
0.0
 30
0.0
 11
-1.0
 21
-0.166667
 31
0.0
  0
LINE
  5
8
100
AcDbEntity
  8
0
  6
BYBLOCK
 62
     0
100
AcDbLine
 10
-1.0
 20
0.166667
 30
0.0
 11
-1.0
 21
-0.166667
 31
0.0
  0
LINE
  5
9
100
AcDbEntity
  8
0
  6
BYBLOCK
 62
     0
100
AcDbLine
 10
0.0
 20
0.0
 30
0.0
 11
-1.0
 21
0.0
 31
0.0
  0
ENDBLK
  5
A
100
AcDbEntity
  8
0
100
AcDbBlockEnd
  0
BLOCK
  5
C
100
AcDbEntity
  8
0
100
AcDbBlockBegin
  2
_DOT
 70
     0
 10
0.0
 20
0.0
 30
0.0
  3
_DOT
  1

  0
POLYLINE
  5
D
100
AcDbEntity
  8
0
  6
BYBLOCK
 62
     0
100
AcDb2dPolyline
 66
     1
 10
0.0
 20
0.0
 30
0.0
 70
     1
 40
0.5
 41
0.5
  0
VERTEX
  5
E
100
AcDbEntity
  8
0
  6
BYBLOCK
 62
     0
100
AcDbVertex
100
AcDb2dVertex
 10
-0.25
 20
0.0
 30
0.0
 42
1.0
  0
VERTEX
  5
F
100
AcDbEntity
  8
0
  6
BYBLOCK
 62
     0
100
AcDbVertex
100
AcDb2dVertex
 10
0.25
 20
0.0
 30
0.0
 42
1.0
  0
SEQEND
  5
10
100
AcDbEntity
  8
0
  6
BYBLOCK
 62
     0
  0
LINE
  5
11
100
AcDbEntity
  8
0
  6
BYBLOCK
 62
     0
100
AcDbLine
 10
-0.5
 20
0.0
 30
0.0
 11
-1.0
 21
0.0
 31
0.0
  0
ENDBLK
  5
12
100
AcDbEntity
  8
0
100
AcDbBlockEnd
  0
BLOCK
  5
14
100
AcDbEntity
  8
0
100
AcDbBlockBegin
  2
_OPEN
 70
     0
 10
0.0
 20
0.0
 30
0.0
  3
_OPEN
  1

  0
LINE
  5
15
100
AcDbEntity
  8
0
  6
BYBLOCK
 62
     0
100
AcDbLine
 10
-1.0
 20
0.166667
 30
0.0
 11
0.0
 21
0.0
 31
0.0
  0
LINE
  5
16
100
AcDbEntity
  8
0
  6
BYBLOCK
 62
     0
100
AcDbLine
 10
0.0
 20
0.0
 30
0.0
 11
-1.0
 21
-0.166667
 31
0.0
  0
LINE
  5
17
100
AcDbEntity
  8
0
  6
BYBLOCK
 62
     0
100
AcDbLine
 10
0.0
 20
0.0
 30
0.0
 11
-1.0
 21
0.0
 31
0.0
  0
ENDBLK
  5
18
100
AcDbEntity
  8
0
100
AcDbBlockEnd
  0
BLOCK
  5
1A
100
AcDbEntity
  8
0
100
AcDbBlockBegin
  2
_ORIGIN
 70
     0
 10
0.0
 20
0.0
 30
0.0
  3
_ORIGIN
  1

  0
CIRCLE
  5
1B
100
AcDbEntity
  8
0
  6
BYBLOCK
 62
     0
100
AcDbCircle
 10
0.0
 20
0.0
 30
0.0
 40
0.5
  0
LINE
  5
1C
100
AcDbEntity
  8
0
  6
BYBLOCK
 62
     0
100
AcDbLine
 10
0.0
 20
0.0
 30
0.0
 11
-1.0
 21
0.0
 31
0.0
  0
ENDBLK
  5
1D
100
AcDbEntity
  8
0
100
AcDbBlockEnd
  0
BLOCK
  5
1F
100
AcDbEntity
  8
0
100
AcDbBlockBegin
  2
_OPEN30
 70
     0
 10
0.0
 20
0.0
 30
0.0
  3
_OPEN30
  1

  0
LINE
  5
20
100
AcDbEntity
  8
0
  6
BYBLOCK
 62
     0
100
AcDbLine
 10
-1.0
 20
0.267949
 30
0.0
 11
0.0
 21
0.0
 31
0.0
  0
LINE
  5
21
100
AcDbEntity
  8
0
  6
BYBLOCK
 62
     0
100
AcDbLine
 10
0.0
 20
0.0
 30
0.0
 11
-1.0
 21
-0.267949
 31
0.0
  0
LINE
  5
22
100
AcDbEntity
  8
0
  6
BYBLOCK
 62
     0
100
AcDbLine
 10
0.0
 20
0.0
 30
0.0
 11
-1.0
 21
0.0
 31
0.0
  0
ENDBLK
  5
23
100
AcDbEntity
  8
0
100
AcDbBlockEnd
  0
BLOCK
  5
25
100
AcDbEntity
  8
0
100
AcDbBlockBegin
  2
_BOXFILLED
 70
     0
 10
0.0
 20
0.0
 30
0.0
  3
_BOXFILLED
  1

  0
SOLID
  5
26
100
AcDbEntity
  8
0
  6
BYBLOCK
 62
     0
100
AcDbTrace
 10
-0.5
 20
0.5
 30
0.0
 11
0.5
 21
0.5
 31
0.0
 12
-0.5
 22
-0.5
 32
0.0
 13
0.5
 23
-0.5
 33
0.0
  0
LINE
  5
27
100
AcDbEntity
  8
0
  6
BYBLOCK
 62
     0
100
AcDbLine
 10
-0.5
 20
0.0
 30
0.0
 11
-1.0
 21
0.0
 31
0.0
  0
ENDBLK
  5
28
100
AcDbEntity
  8
0
100
AcDbBlockEnd
  0
BLOCK
  5
2A
100
AcDbEntity
  8
0
100
AcDbBlockBegin
  2
_BOXBLANK
 70
     0
 10
0.0
 20
0.0
 30
0.0
  3
_BOXBLANK
  1

  0
LINE
  5
2B
100
AcDbEntity
  8
0
  6
BYBLOCK
 62
     0
100
AcDbLine
 10
-0.5
 20
-0.5
 30
0.0
 11
0.5
 21
-0.5
 31
0.0
  0
LINE
  5
2C
100
AcDbEntity
  8
0
  6
BYBLOCK
 62
     0
100
AcDbLine
 10
0.5
 20
-0.5
 30
0.0
 11
0.5
 21
0.5
 31
0.0
  0
LINE
  5
2D
100
AcDbEntity
  8
0
  6
BYBLOCK
 62
     0
100
AcDbLine
 10
0.5
 20
0.5
 30
0.0
 11
-0.5
 21
0.5
 31
0.0
  0
LINE
  5
2E
100
AcDbEntity
  8
0
  6
BYBLOCK
 62
     0
100
AcDbLine
 10
-0.5
 20
0.5
 30
0.0
 11
-0.5
 21
-0.5
 31
0.0
  0
LINE
  5
2F
100
AcDbEntity
  8
0
  6
BYBLOCK
 62
     0
100
AcDbLine
 10
-0.5
 20
0.0
 30
0.0
 11
-1.0
 21
0.0
 31
0.0
  0
ENDBLK
  5
30
100
AcDbEntity
  8
0
100
AcDbBlockEnd
  0
BLOCK
  5
32
100
AcDbEntity
  8
0
100
AcDbBlockBegin
  2
_OBLIQUE
 70
     0
 10
0.0
 20
0.0
 30
0.0
  3
_OBLIQUE
  1

  0
LINE
  5
33
100
AcDbEntity
  8
0
  6
BYBLOCK
 62
     0
100
AcDbLine
 10
-0.5
 20
-0.5
 30
0.0
 11
0.5
 21
0.5
 31
0.0
  0
ENDBLK
  5
34
100
AcDbEntity
  8
0
100
AcDbBlockEnd
  0
BLOCK
  5
36
100
AcDbEntity
  8
0
100
AcDbBlockBegin
  2
_OPEN90
 70
     0
 10
0.0
 20
0.0
 30
0.0
  3
_OPEN90
  1

  0
LINE
  5
37
100
AcDbEntity
  8
0
  6
BYBLOCK
 62
     0
100
AcDbLine
 10
-0.5
 20
0.5
 30
0.0
 11
0.0
 21
0.0
 31
0.0
  0
LINE
  5
38
100
AcDbEntity
  8
0
  6
BYBLOCK
 62
     0
100
AcDbLine
 10
0.0
 20
0.0
 30
0.0
 11
-0.5
 21
-0.5
 31
0.0
  0
LINE
  5
39
100
AcDbEntity
  8
0
  6
BYBLOCK
 62
     0
100
AcDbLine
 10
0.0
 20
0.0
 30
0.0
 11
-1.0
 21
0.0
 31
0.0
  0
ENDBLK
  5
3A
100
AcDbEntity
  8
0
100
AcDbBlockEnd
  0
BLOCK
  5
3C
100
AcDbEntity
  8
0
100
AcDbBlockBegin
  2
_CLOSEDBLANK
 70
     0
 10
0.0
 20
0.0
 30
0.0
  3
_CLOSEDBLANK
  1

  0
LINE
  5
3D
100
AcDbEntity
  8
0
  6
BYBLOCK
 62
     0
100
AcDbLine
 10
-1.0
 20
0.1666666666666666
 30
0.0
 11
0.0
 21
0.0
 31
0.0
  0
LINE
  5
3E
100
AcDbEntity
  8
0
  6
BYBLOCK
 62
     0
100
AcDbLine
 10
0.0
 20
0.0
 30
0.0
 11
-1.0
 21
-0.1666666666666666
 31
0.0
  0
LINE
  5
3F
100
AcDbEntity
  8
0
  6
BYBLOCK
 62
     0
100
AcDbLine
 10
-1.0
 20
0.1666666666666666
 30
0.0
 11
-1.0
 21
-0.1666666666666666
 31
0.0
  0
ENDBLK
  5
40
100
AcDbEntity
  8
0
100
AcDbBlockEnd
  0
BLOCK
  5
42
100
AcDbEntity
  8
0
100
AcDbBlockBegin
  2
_DOTBLANK
 70
     0
 10
0.0
 20
0.0
 30
0.0
  3
_DOTBLANK
  1

  0
CIRCLE
  5
43
100
AcDbEntity
  8
0
  6
BYBLOCK
 62
     0
100
AcDbCircle
 10
0.0
 20
0.0
 30
0.0
 40
0.5
  0
LINE
  5
44
100
AcDbEntity
  8
0
  6
BYBLOCK
 62
     0
100
AcDbLine
 10
-0.5
 20
0.0
 30
0.0
 11
-1.0
 21
0.0
 31
0.0
  0
ENDBLK
  5
45
100
AcDbEntity
  8
0
100
AcDbBlockEnd
  0
BLOCK
  5
140
100
AcDbEntity
  8
MAIN0
  6
CONTINUOUS
 62
3
100
AcDbBlockBegin
  2
*D0
 70
    65
 10
0.0
 20
0.0
 30
0.0
  0
LINE
  5
141
100
AcDbEntity
  8
MAIN0
  6
BYBLOCK
 62
0
100
AcDbLine
 10
443.5764684591400
 20
174.4711886760480
 30
0.0000000000000000
 11
443.5764684591400
 21
139.2291937367059
 31
0.0000000000000000
  0
LINE
  5
142
100
AcDbEntity
  8
MAIN0
  6
BYBLOCK
 62
0
100
AcDbLine
 10
445.5764684591400
 20
141.2291937367059
 30
0.0000000000000000
 11
471.5764684591400
 21
141.2291937367059
 31
0.0000000000000000
  0
INSERT
  5
143
100
AcDbEntity
  8
MAIN0
  6
BYBLOCK
 62
0
100
AcDbBlockReference
  2
_OPEN
 10
443.5764684591400
 20
141.2291937367059
 30
0.0000000000000000
 41
2.000000000000000
 42
2.000000000000000
 43
2.000000000000000
 50
180.0000000000000
  0
INSERT
  5
144
100
AcDbEntity
  8
MAIN0
  6
BYBLOCK
 62
0
100
AcDbBlockReference
  2
_OPEN
 10
473.5764684591400
 20
141.2291937367059
 30
0.0000000000000000
 41
2.000000000000000
 42
2.000000000000000
 43
2.000000000000000
 50
0.0000000000000000
  0
LINE
  5
145
100
AcDbEntity
  8
MAIN0
  6
BYBLOCK
 62
0
100
AcDbLine
 10
473.5764684591400
 20
175.6321682255622
 30
0.0000000000000000
 11
473.5764684591400
 21
139.2291937367059
 31
0.0000000000000000
  0
MTEXT
  5
146
100
AcDbEntity
  8
MAIN0
  6
BYBLOCK
 62
0
100
AcDbMText
 10
458.3708569417578
 20
143.2791936890222
 30
0.0000000000000000
 40
3.099999904632568
 41
0.0000000000000000
 71
     5
 72
     1
  1
\A1;30
 11
1.000000000000000
 21
0.0000000000000000
 31
0.0000000000000000
  7
STANDARD
  0
ENDBLK
  5
147
100
AcDbEntity
  8
MAIN0
  6
CONTINUOUS
 62
3
100
AcDbBlockEnd
  0
BLOCK
  5
149
100
AcDbEntity
  8
MAIN0
  6
CONTINUOUS
 62
3
100
AcDbBlockBegin
  2
*D1
 70
    65
 10
0.0
 20
0.0
 30
0.0
  0
LINE
  5
14A
100
AcDbEntity
  8
MAIN0
  6
BYBLOCK
 62
0
100
AcDbLine
 10
344.2111535575367
 20
266.2718104526010
 30
0.0000000000000000
 11
344.2111535575367
 21
225.2718104526010
 31
0.0000000000000000
  0
INSERT
  5
14B
100
AcDbEntity
  8
MAIN0
  6
BYBLOCK
 62
0
100
AcDbBlockReference
  2
_OPEN
 10
344.2111535575367
 20
268.2718104526010
 30
0.0000000000000000
 41
2.000000000000000
 42
2.000000000000000
 43
2.000000000000000
 50
90.00000000000000
  0
INSERT
  5
14C
100
AcDbEntity
  8
MAIN0
  6
BYBLOCK
 62
0
100
AcDbBlockReference
  2
_OPEN
 10
344.2111535575367
 20
223.2718104526010
 30
0.0000000000000000
 41
2.000000000000000
 42
2.000000000000000
 43
2.000000000000000
 50
270.0000000000000
  0
LINE
  5
14D
100
AcDbEntity
  8
MAIN0
  6
BYBLOCK
 62
0
100
AcDbLine
 10
435.3061084319123
 20
223.2718104526010
 30
0.0000000000000000
 11
342.2111535575367
 21
223.2718104526010
 31
0.0000000000000000
  0
MTEXT
  5
14E
100
AcDbEntity
  8
MAIN0
  6
BYBLOCK
 62
0
100
AcDbMText
 10
342.1611536052204
 20
245.7718104526010
 30
0.0000000000000000
 40
3.099999904632568
 41
0.0000000000000000
 71
     5
 72
     1
  1
\A1;45
 11
6.123233995736766e-017
 21
1.000000000000000
 31
0.0000000000000000
  7
STANDARD
  0
ENDBLK
  5
14F
100
AcDbEntity
  8
MAIN0
  6
CONTINUOUS
 62
3
100
AcDbBlockEnd
  0
BLOCK
  5
151
100
AcDbEntity
  8
MAIN0
  6
CONTINUOUS
 62
3
100
AcDbBlockBegin
  2
*D2
 70
    65
 10
0.0
 20
0.0
 30
0.0
  0
LINE
  5
152
100
AcDbEntity
  8
MAIN0
  6
BYBLOCK
 62
0
100
AcDbLine
 10
435.3061084319123
 20
223.2718104526010
 30
0.0000000000000000
 11
342.2111535575367
 21
223.2718104526010
 31
0.0000000000000000
  0
LINE
  5
153
100
AcDbEntity
  8
MAIN0
  6
BYBLOCK
 62
0
100
AcDbLine
 10
344.2111535575367
 20
221.2718104526010
 30
0.0000000000000000
 11
344.2111535575367
 21
185.2718104526010
 31
0.0000000000000000
  0
INSERT
  5
154
100
AcDbEntity
  8
MAIN0
  6
BYBLOCK
 62
0
100
AcDbBlockReference
  2
_OPEN
 10
344.2111535575367
 20
223.2718104526010
 30
0.0000000000000000
 41
2.000000000000000
 42
2.000000000000000
 43
2.000000000000000
 50
90.00000000000000
  0
INSERT
  5
155
100
AcDbEntity
  8
MAIN0
  6
BYBLOCK
 62
0
100
AcDbBlockReference
  2
_OPEN
 10
344.2111535575367
 20
183.2718104526010
 30
0.0000000000000000
 41
2.000000000000000
 42
2.000000000000000
 43
2.000000000000000
 50
270.0000000000000
  0
LINE
  5
156
100
AcDbEntity
  8
MAIN0
  6
BYBLOCK
 62
0
100
AcDbLine
 10
433.3711376182444
 20
183.2718104526010
 30
0.0000000000000000
 11
342.2111535575367
 21
183.2718104526010
 31
0.0000000000000000
  0
MTEXT
  5
157
100
AcDbEntity
  8
MAIN0
  6
BYBLOCK
 62
0
100
AcDbMText
 10
342.1611536052204
 20
203.2718104526010
 30
0.0000000000000000
 40
3.099999904632568
 41
0.0000000000000000
 71
     5
 72
     1
  1
\A1;40
 11
6.123233995736766e-017
 21
1.000000000000000
 31
0.0000000000000000
  7
STANDARD
  0
ENDBLK
  5
158
100
AcDbEntity
  8
MAIN0
  6
CONTINUOUS
 62
3
100
AcDbBlockEnd
  0
BLOCK
  5
18F
100
AcDbEntity
  8
MAIN0
  6
CONTINUOUS
 62
3
100
AcDbBlockBegin
  2
*D3
 70
    65
 10
0.0
 20
0.0
 30
0.0
  0
LINE
  5
190
100
AcDbEntity
  8
MAIN0
  6
BYBLOCK
 62
0
100
AcDbLine
 10
77.05930677650429
 20
273.7718104526010
 30
0.0000000000000000
 11
57.49635084325499
 21
273.7718104526010
 31
0.0000000000000000
  0
LINE
  5
191
100
AcDbEntity
  8
MAIN0
  6
BYBLOCK
 62
0
100
AcDbLine
 10
59.49635084325499
 20
271.7718104526010
 30
0.0000000000000000
 11
59.49635084325499
 21
264.7718104526010
 31
0.0000000000000000
  0
INSERT
  5
192
100
AcDbEntity
  8
MAIN0
  6
BYBLOCK
 62
0
100
AcDbBlockReference
  2
_OPEN
 10
59.49635084325499
 20
273.7718104526010
 30
0.0000000000000000
 41
2.000000000000000
 42
2.000000000000000
 43
2.000000000000000
 50
90.00000000000000
  0
INSERT
  5
193
100
AcDbEntity
  8
MAIN0
  6
BYBLOCK
 62
0
100
AcDbBlockReference
  2
_OPEN
 10
59.49635084325499
 20
262.7718104526010
 30
0.0000000000000000
 41
2.000000000000000
 42
2.000000000000000
 43
2.000000000000000
 50
270.0000000000000
  0
LINE
  5
194
100
AcDbEntity
  8
MAIN0
  6
BYBLOCK
 62
0
100
AcDbLine
 10
77.05930677650429
 20
262.7718104526010
 30
0.0000000000000000
 11
57.49635084325499
 21
262.7718104526010
 31
0.0000000000000000
  0
MTEXT
  5
195
100
AcDbEntity
  8
MAIN0
  6
BYBLOCK
 62
0
100
AcDbMText
 10
57.44635089093870
 20
268.2718104526010
 30
0.0000000000000000
 40
3.099999904632568
 41
0.0000000000000000
 71
     5
 72
     1
  1
\A1;\U+220511
 11
6.123233995736766e-017
 21
1.000000000000000
 31
0.0000000000000000
  7
STANDARD
  0
ENDBLK
  5
196
100
AcDbEntity
  8
MAIN0
  6
CONTINUOUS
 62
3
100
AcDbBlockEnd
  0
BLOCK
  5
198
100
AcDbEntity
  8
MAIN0
  6
CONTINUOUS
 62
3
100
AcDbBlockBegin
  2
*D4
 70
    65
 10
0.0
 20
0.0
 30
0.0
  0
LINE
  5
199
100
AcDbEntity
  8
MAIN0
  6
BYBLOCK
 62
0
100
AcDbLine
 10
74.45930677650424
 20
270.7718104526010
 30
0.0000000000000000
 11
64.93054503958828
 21
270.7718104526010
 31
0.0000000000000000
  0
LINE
  5
19A
100
AcDbEntity
  8
MAIN0
  6
BYBLOCK
 62
0
100
AcDbLine
 10
66.93054503958828
 20
270.7718104526010
 30
0.0000000000000000
 11
66.93054503958828
 21
265.7718104526010
 31
0.0000000000000000
  0
INSERT
  5
19B
100
AcDbEntity
  8
MAIN0
  6
BYBLOCK
 62
0
100
AcDbBlockReference
  2
_OPEN
 10
66.93054503958828
 20
270.7718104526010
 30
0.0000000000000000
 41
2.000000000000000
 42
2.000000000000000
 43
2.000000000000000
 50
270.0000000000000
  0
INSERT
  5
19C
100
AcDbEntity
  8
MAIN0
  6
BYBLOCK
 62
0
100
AcDbBlockReference
  2
_OPEN
 10
66.93054503958828
 20
265.7718104526010
 30
0.0000000000000000
 41
2.000000000000000
 42
2.000000000000000
 43
2.000000000000000
 50
90.00000000000000
  0
LINE
  5
19D
100
AcDbEntity
  8
MAIN0
  6
BYBLOCK
 62
0
100
AcDbLine
 10
66.93054503958828
 20
272.7718104526010
 30
0.0000000000000000
 11
66.93054503958828
 21
273.7718104526010
 31
0.0000000000000000
  0
LINE
  5
19E
100
AcDbEntity
  8
MAIN0
  6
BYBLOCK
 62
0
100
AcDbLine
 10
66.93054503958828
 20
263.7718104526010
 30
0.0000000000000000
 11
66.93054503958828
 21
262.7718104526010
 31
0.0000000000000000
  0
LINE
  5
19F
100
AcDbEntity
  8
MAIN0
  6
BYBLOCK
 62
0
100
AcDbLine
 10
74.45930677650435
 20
265.7718104526010
 30
0.0000000000000000
 11
64.93054503958828
 21
265.7718104526010
 31
0.0000000000000000
  0
MTEXT
  5
1A0
100
AcDbEntity
  8
MAIN0
  6
BYBLOCK
 62
0
100
AcDbMText
 10
64.88054508727200
 20
268.2718104526010
 30
0.0000000000000000
 40
3.099999904632568
 41
0.0000000000000000
 71
     5
 72
     1
  1
\A1;\U+22055
 11
6.123233995736766e-017
 21
1.000000000000000
 31
0.0000000000000000
  7
STANDARD
  0
ENDBLK
  5
1A1
100
AcDbEntity
  8
MAIN0
  6
CONTINUOUS
 62
3
100
AcDbBlockEnd
  0
BLOCK
  5
1A3
100
AcDbEntity
  8
MAIN0
  6
CONTINUOUS
 62
3
100
AcDbBlockBegin
  2
*D5
 70
    65
 10
0.0
 20
0.0
 30
0.0
  0
LINE
  5
1A4
100
AcDbEntity
  8
MAIN0
  6
BYBLOCK
 62
0
100
AcDbLine
 10
75.05930677650417
 20
275.7718104526010
 30
0.0000000000000000
 11
49.95441410918295
 21
275.7718104526010
 31
0.0000000000000000
  0
LINE
  5
1A5
100
AcDbEntity
  8
MAIN0
  6
BYBLOCK
 62
0
100
AcDbLine
 10
51.95441410918295
 20
273.7718104526010
 30
0.0000000000000000
 11
51.95441410918295
 21
262.7718104526010
 31
0.0000000000000000
  0
INSERT
  5
1A6
100
AcDbEntity
  8
MAIN0
  6
BYBLOCK
 62
0
100
AcDbBlockReference
  2
_OPEN
 10
51.95441410918295
 20
275.7718104526010
 30
0.0000000000000000
 41
2.000000000000000
 42
2.000000000000000
 43
2.000000000000000
 50
90.00000000000000
  0
INSERT
  5
1A7
100
AcDbEntity
  8
MAIN0
  6
BYBLOCK
 62
0
100
AcDbBlockReference
  2
_OPEN
 10
51.95441410918295
 20
260.7718104526010
 30
0.0000000000000000
 41
2.000000000000000
 42
2.000000000000000
 43
2.000000000000000
 50
270.0000000000000
  0
LINE
  5
1A8
100
AcDbEntity
  8
MAIN0
  6
BYBLOCK
 62
0
100
AcDbLine
 10
75.05930677650417
 20
260.7718104526010
 30
0.0000000000000000
 11
49.95441410918295
 21
260.7718104526010
 31
0.0000000000000000
  0
MTEXT
  5
1A9
100
AcDbEntity
  8
MAIN0
  6
BYBLOCK
 62
0
100
AcDbMText
 10
49.90441415686667
 20
268.2718104526010
 30
0.0000000000000000
 40
3.099999904632568
 41
0.0000000000000000
 71
     5
 72
     1
  1
\A1;\U+220515h8
 11
6.123233995736766e-017
 21
1.000000000000000
 31
0.0000000000000000
  7
STANDARD
  0
ENDBLK
  5
1AA
100
AcDbEntity
  8
MAIN0
  6
CONTINUOUS
 62
3
100
AcDbBlockEnd
  0
BLOCK
  5
1AC
100
AcDbEntity
  8
MAIN0
  6
CONTINUOUS
 62
3
100
AcDbBlockBegin
  2
*D6
 70
    65
 10
0.0
 20
0.0
 30
0.0
  0
LINE
  5
1AD
100
AcDbEntity
  8
MAIN0
  6
BYBLOCK
 62
0
100
AcDbLine
 10
147.5593809502149
 20
288.2718104526009
 30
0.0000000000000000
 11
43.16666695775430
 21
288.2718104526009
 31
0.0000000000000000
  0
LINE
  5
1AE
100
AcDbEntity
  8
MAIN0
  6
BYBLOCK
 62
0
100
AcDbLine
 10
45.16666695775430
 20
286.2718104526009
 30
0.0000000000000000
 11
45.16666695775430
 21
250.2718104526009
 31
0.0000000000000000
  0
INSERT
  5
1AF
100
AcDbEntity
  8
MAIN0
  6
BYBLOCK
 62
0
100
AcDbBlockReference
  2
_OPEN
 10
45.16666695775430
 20
288.2718104526009
 30
0.0000000000000000
 41
2.000000000000000
 42
2.000000000000000
 43
2.000000000000000
 50
90.00000000000000
  0
INSERT
  5
1B0
100
AcDbEntity
  8
MAIN0
  6
BYBLOCK
 62
0
100
AcDbBlockReference
  2
_OPEN
 10
45.16666695775430
 20
248.2718104526009
 30
0.0000000000000000
 41
2.000000000000000
 42
2.000000000000000
 43
2.000000000000000
 50
270.0000000000000
  0
LINE
  5
1B1
100
AcDbEntity
  8
MAIN0
  6
BYBLOCK
 62
0
100
AcDbLine
 10
147.5593809502149
 20
248.2718104526009
 30
0.0000000000000000
 11
43.16666695775430
 21
248.2718104526009
 31
0.0000000000000000
  0
MTEXT
  5
1B2
100
AcDbEntity
  8
MAIN0
  6
BYBLOCK
 62
0
100
AcDbMText
 10
43.11666700543802
 20
268.2718104526009
 30
0.0000000000000000
 40
3.099999904632568
 41
0.0000000000000000
 71
     5
 72
     1
  1
\A1;\U+220540
 11
6.123233995736766e-017
 21
1.000000000000000
 31
0.0000000000000000
  7
STANDARD
  0
ENDBLK
  5
1B3
100
AcDbEntity
  8
MAIN0
  6
CONTINUOUS
 62
3
100
AcDbBlockEnd
  0
BLOCK
  5
1B5
100
AcDbEntity
  8
MAIN0
  6
CONTINUOUS
 62
3
100
AcDbBlockBegin
  2
*D7
 70
    65
 10
0.0
 20
0.0
 30
0.0
  0
LINE
  5
1B6
100
AcDbEntity
  8
MAIN0
  6
BYBLOCK
 62
0
100
AcDbLine
 10
156.1593809502150
 20
353.2718104526009
 30
0.0000000000000000
 11
35.62473226906420
 21
353.2718104526009
 31
0.0000000000000000
  0
LINE
  5
1B7
100
AcDbEntity
  8
MAIN0
  6
BYBLOCK
 62
0
100
AcDbLine
 10
37.62473226906420
 20
351.2718104526009
 30
0.0000000000000000
 11
37.62473226906420
 21
185.2718104520974
 31
0.0000000000000000
  0
INSERT
  5
1B8
100
AcDbEntity
  8
MAIN0
  6
BYBLOCK
 62
0
100
AcDbBlockReference
  2
_OPEN
 10
37.62473226906420
 20
353.2718104526009
 30
0.0000000000000000
 41
2.000000000000000
 42
2.000000000000000
 43
2.000000000000000
 50
90.00000000000000
  0
INSERT
  5
1B9
100
AcDbEntity
  8
MAIN0
  6
BYBLOCK
 62
0
100
AcDbBlockReference
  2
_OPEN
 10
37.62473226906420
 20
183.2718104520974
 30
0.0000000000000000
 41
2.000000000000000
 42
2.000000000000000
 43
2.000000000000000
 50
270.0000000000000
  0
LINE
  5
1BA
100
AcDbEntity
  8
MAIN0
  6
BYBLOCK
 62
0
100
AcDbLine
 10
156.1593809500817
 20
183.2718104520974
 30
0.0000000000000000
 11
35.62473226906420
 21
183.2718104520974
 31
0.0000000000000000
  0
MTEXT
  5
1BB
100
AcDbEntity
  8
MAIN0
  6
BYBLOCK
 62
0
100
AcDbMText
 10
35.57473231674791
 20
268.2718104523491
 30
0.0000000000000000
 40
3.099999904632568
 41
0.0000000000000000
 71
     5
 72
     1
  1
\A1;\U+2205170G7
 11
6.123233995736766e-017
 21
1.000000000000000
 31
0.0000000000000000
  7
STANDARD
  0
ENDBLK
  5
1BC
100
AcDbEntity
  8
MAIN0
  6
CONTINUOUS
 62
3
100
AcDbBlockEnd
  0
BLOCK
  5
1BE
100
AcDbEntity
  8
MAIN0
  6
CONTINUOUS
 62
3
100
AcDbBlockBegin
  2
*D8
 70
    65
 10
0.0
 20
0.0
 30
0.0
  0
LINE
  5
1BF
100
AcDbEntity
  8
MAIN0
  6
BYBLOCK
 62
0
100
AcDbLine
 10
157.5593809502151
 20
373.2718104526010
 30
0.0000000000000000
 11
27.76343248262921
 21
373.2718104526010
 31
0.0000000000000000
  0
LINE
  5
1C0
100
AcDbEntity
  8
MAIN0
  6
BYBLOCK
 62
0
100
AcDbLine
 10
29.76343248262921
 20
371.2718104526010
 30
0.0000000000000000
 11
29.76343248262921
 21
165.2718104526010
 31
0.0000000000000000
  0
INSERT
  5
1C1
100
AcDbEntity
  8
MAIN0
  6
BYBLOCK
 62
0
100
AcDbBlockReference
  2
_OPEN
 10
29.76343248262921
 20
373.2718104526010
 30
0.0000000000000000
 41
2.000000000000000
 42
2.000000000000000
 43
2.000000000000000
 50
90.00000000000000
  0
INSERT
  5
1C2
100
AcDbEntity
  8
MAIN0
  6
BYBLOCK
 62
0
100
AcDbBlockReference
  2
_OPEN
 10
29.76343248262921
 20
163.2718104526010
 30
0.0000000000000000
 41
2.000000000000000
 42
2.000000000000000
 43
2.000000000000000
 50
270.0000000000000
  0
LINE
  5
1C3
100
AcDbEntity
  8
MAIN0
  6
BYBLOCK
 62
0
100
AcDbLine
 10
156.5593809495463
 20
163.2718104526010
 30
0.0000000000000000
 11
27.76343248262921
 21
163.2718104526010
 31
0.0000000000000000
  0
MTEXT
  5
1C4
100
AcDbEntity
  8
MAIN0
  6
BYBLOCK
 62
0
100
AcDbMText
 10
27.71343253031293
 20
268.2718104526010
 30
0.0000000000000000
 40
3.099999904632568
 41
0.0000000000000000
 71
     5
 72
     1
  1
\A1;\U+2205210
 11
6.123233995736766e-017
 21
1.000000000000000
 31
0.0000000000000000
  7
STANDARD
  0
ENDBLK
  5
1C5
100
AcDbEntity
  8
MAIN0
  6
CONTINUOUS
 62
3
100
AcDbBlockEnd
  0
BLOCK
  5
1CB
100
AcDbEntity
  8
MAIN0
  6
CONTINUOUS
 62
3
100
AcDbBlockBegin
  2
*D9
 70
    65
 10
0.0
 20
0.0
 30
0.0
  0
LINE
  5
1CC
100
AcDbEntity
  8
MAIN0
  6
BYBLOCK
 62
0
100
AcDbLine
 10
74.85930678842513
 20
275.5718104645220
 30
0.0000000000000000
 11
74.85930678842513
 21
312.7069793580508
 31
0.0000000000000000
  0
LINE
  5
1CD
100
AcDbEntity
  8
MAIN0
  6
BYBLOCK
 62
0
100
AcDbLine
 10
76.85930678842513
 20
310.7069793580508
 30
0.0000000000000000
 11
87.85930678842513
 21
310.7069793580508
 31
0.0000000000000000
  0
INSERT
  5
1CE
100
AcDbEntity
  8
MAIN0
  6
BYBLOCK
 62
0
100
AcDbBlockReference
  2
_OPEN
 10
74.85930678842513
 20
310.7069793580508
 30
0.0000000000000000
 41
2.000000000000000
 42
2.000000000000000
 43
2.000000000000000
 50
180.0000000000000
  0
INSERT
  5
1CF
100
AcDbEntity
  8
MAIN0
  6
BYBLOCK
 62
0
100
AcDbBlockReference
  2
_OPEN
 10
89.85930678842512
 20
310.7069793580508
 30
0.0000000000000000
 41
2.000000000000000
 42
2.000000000000000
 43
2.000000000000000
 50
0.0000000000000000
  0
LINE
  5
1D0
100
AcDbEntity
  8
MAIN0
  6
BYBLOCK
 62
0
100
AcDbLine
 10
89.85930678842512
 20
276.5718104645219
 30
0.0000000000000000
 11
89.85930678842512
 21
312.7069793580508
 31
0.0000000000000000
  0
MTEXT
  5
1D1
100
AcDbEntity
  8
MAIN0
  6
BYBLOCK
 62
0
100
AcDbMText
 10
82.35930678842513
 20
312.7569793103671
 30
0.0000000000000000
 40
3.099999904632568
 41
0.0000000000000000
 71
     5
 72
     1
  1
\A1;15
 11
1.000000000000000
 21
0.0000000000000000
 31
0.0000000000000000
  7
STANDARD
  0
ENDBLK
  5
1D2
100
AcDbEntity
  8
MAIN0
  6
CONTINUOUS
 62
3
100
AcDbBlockEnd
  0
BLOCK
  5
1D4
100
AcDbEntity
  8
MAIN0
  6
CONTINUOUS
 62
3
100
AcDbBlockBegin
  2
*D10
 70
    65
 10
0.0
 20
0.0
 30
0.0
  0
LINE
  5
1D5
100
AcDbEntity
  8
MAIN0
  6
BYBLOCK
 62
0
100
AcDbLine
 10
74.85930678842513
 20
275.5718104645220
 30
0.0000000000000000
 11
74.85930678842513
 21
323.2567030387528
 31
0.0000000000000000
  0
LINE
  5
1D6
100
AcDbEntity
  8
MAIN0
  6
BYBLOCK
 62
0
100
AcDbLine
 10
76.85930678842513
 20
321.2567030387528
 30
0.0000000000000000
 11
120.3593809621359
 21
321.2567030387528
 31
0.0000000000000000
  0
INSERT
  5
1D7
100
AcDbEntity
  8
MAIN0
  6
BYBLOCK
 62
0
100
AcDbBlockReference
  2
_OPEN
 10
74.85930678842513
 20
321.2567030387528
 30
0.0000000000000000
 41
2.000000000000000
 42
2.000000000000000
 43
2.000000000000000
 50
180.0000000000000
  0
INSERT
  5
1D8
100
AcDbEntity
  8
MAIN0
  6
BYBLOCK
 62
0
100
AcDbBlockReference
  2
_OPEN
 10
122.3593809621359
 20
321.2567030387528
 30
0.0000000000000000
 41
2.000000000000000
 42
2.000000000000000
 43
2.000000000000000
 50
0.0000000000000000
  0
LINE
  5
1D9
100
AcDbEntity
  8
MAIN0
  6
BYBLOCK
 62
0
100
AcDbLine
 10
122.3593809621359
 20
286.0718104645170
 30
0.0000000000000000
 11
122.3593809621359
 21
323.2567030387528
 31
0.0000000000000000
  0
MTEXT
  5
1DA
100
AcDbEntity
  8
MAIN0
  6
BYBLOCK
 62
0
100
AcDbMText
 10
98.60934387528050
 20
323.3067029910691
 30
0.0000000000000000
 40
3.099999904632568
 41
0.0000000000000000
 71
     5
 72
     1
  1
\A1;47.5
 11
1.000000000000000
 21
0.0000000000000000
 31
0.0000000000000000
  7
STANDARD
  0
ENDBLK
  5
1DB
100
AcDbEntity
  8
MAIN0
  6
CONTINUOUS
 62
3
100
AcDbBlockEnd
  0
BLOCK
  5
1DD
100
AcDbEntity
  8
MAIN0
  6
CONTINUOUS
 62
3
100
AcDbBlockBegin
  2
*D11
 70
    65
 10
0.0
 20
0.0
 30
0.0
  0
LINE
  5
1DE
100
AcDbEntity
  8
MAIN0
  6
BYBLOCK
 62
0
100
AcDbLine
 10
159.3593809621359
 20
332.2284342523822
 30
0.0000000000000000
 11
76.85930678842513
 21
332.2284342523822
 31
0.0000000000000000
  0
INSERT
  5
1DF
100
AcDbEntity
  8
MAIN0
  6
BYBLOCK
 62
0
100
AcDbBlockReference
  2
_OPEN
 10
161.3593809621359
 20
332.2284342523822
 30
0.0000000000000000
 41
2.000000000000000
 42
2.000000000000000
 43
2.000000000000000
 50
360.0000000000000
  0
INSERT
  5
1E0
100
AcDbEntity
  8
MAIN0
  6
BYBLOCK
 62
0
100
AcDbBlockReference
  2
_OPEN
 10
74.85930678842513
 20
332.2284342523822
 30
0.0000000000000000
 41
2.000000000000000
 42
2.000000000000000
 43
2.000000000000000
 50
180.0000000000000
  0
LINE
  5
1E1
100
AcDbEntity
  8
MAIN0
  6
BYBLOCK
 62
0
100
AcDbLine
 10
74.85930678842513
 20
275.5718104645220
 30
0.0000000000000000
 11
74.85930678842513
 21
334.2284342523822
 31
0.0000000000000000
  0
MTEXT
  5
1E2
100
AcDbEntity
  8
MAIN0
  6
BYBLOCK
 62
0
100
AcDbMText
 10
118.1093438752805
 20
334.2784342046984
 30
0.0000000000000000
 40
3.099999904632568
 41
0.0000000000000000
 71
     5
 72
     1
  1
\A1;MAX 91.8
 11
1.000000000000000
 21
0.0000000000000000
 31
0.0000000000000000
  7
STANDARD
  0
ENDBLK
  5
1E3
100
AcDbEntity
  8
MAIN0
  6
CONTINUOUS
 62
3
100
AcDbBlockEnd
  0
BLOCK
  5
1E6
100
AcDbEntity
  8
MAIN0
  6
CONTINUOUS
 62
3
100
AcDbBlockBegin
  2
*D12
 70
    65
 10
0.0
 20
0.0
 30
0.0
  0
LINE
  5
1E7
100
AcDbEntity
  8
MAIN0
  6
BYBLOCK
 62
0
100
AcDbLine
 10
144.3593809621359
 20
208.3968104645219
 30
0.0000000000000000
 11
144.3593809621359
 21
216.9154231271079
 31
0.0000000000000000
  0
LINE
  5
1E8
100
AcDbEntity
  8
MAIN0
  6
BYBLOCK
 62
0
100
AcDbLine
 10
146.3593809621359
 20
214.9154231271079
 30
0.0000000000000000
 11
159.3593809620037
 21
214.9154231271079
 31
0.0000000000000000
  0
INSERT
  5
1E9
100
AcDbEntity
  8
MAIN0
  6
BYBLOCK
 62
0
100
AcDbBlockReference
  2
_OPEN
 10
144.3593809621359
 20
214.9154231271079
 30
0.0000000000000000
 41
2.000000000000000
 42
2.000000000000000
 43
2.000000000000000
 50
180.0000000000000
  0
INSERT
  5
1EA
100
AcDbEntity
  8
MAIN0
  6
BYBLOCK
 62
0
100
AcDbBlockReference
  2
_OPEN
 10
161.3593809620037
 20
214.9154231271079
 30
0.0000000000000000
 41
2.000000000000000
 42
2.000000000000000
 43
2.000000000000000
 50
0.0000000000000000
  0
MTEXT
  5
1EB
100
AcDbEntity
  8
MAIN0
  6
BYBLOCK
 62
0
100
AcDbMText
 10
151.1024280629177
 20
216.9654230794242
 30
0.0000000000000000
 40
3.099999904632568
 41
0.0000000000000000
 71
     5
 72
     1
  1
\A1;17
 11
1.000000000000000
 21
0.0000000000000000
 31
0.0000000000000000
  7
STANDARD
  0
ENDBLK
  5
1EC
100
AcDbEntity
  8
MAIN0
  6
CONTINUOUS
 62
3
100
AcDbBlockEnd
  0
BLOCK
  5
1F0
100
AcDbEntity
  8
MAIN0
  6
CONTINUOUS
 62
3
100
AcDbBlockBegin
  2
*D13
 70
    65
 10
0.0
 20
0.0
 30
0.0
  0
LINE
  5
1F1
100
AcDbEntity
  8
MAIN0
  6
BYBLOCK
 62
0
100
AcDbLine
 10
295.3593067884252
 20
251.4718104406800
 30
0.0000000000000000
 11
295.3593067884252
 21
124.3932163604604
 31
0.0000000000000000
  0
LINE
  5
1F2
100
AcDbEntity
  8
MAIN0
  6
BYBLOCK
 62
0
100
AcDbLine
 10
293.3593067884252
 20
126.3932163604604
 30
0.0000000000000000
 11
252.3593809621359
 21
126.3932163604604
 31
0.0000000000000000
  0
INSERT
  5
1F3
100
AcDbEntity
  8
MAIN0
  6
BYBLOCK
 62
0
100
AcDbBlockReference
  2
_OPEN
 10
295.3593067884252
 20
126.3932163604604
 30
0.0000000000000000
 41
2.000000000000000
 42
2.000000000000000
 43
2.000000000000000
 50
360.0000000000000
  0
INSERT
  5
1F4
100
AcDbEntity
  8
MAIN0
  6
BYBLOCK
 62
0
100
AcDbBlockReference
  2
_OPEN
 10
250.3593809621359
 20
126.3932163604604
 30
0.0000000000000000
 41
2.000000000000000
 42
2.000000000000000
 43
2.000000000000000
 50
180.0000000000000
  0
LINE
  5
1F5
100
AcDbEntity
  8
MAIN0
  6
BYBLOCK
 62
0
100
AcDbLine
 10
250.3593809621359
 20
163.4718104406801
 30
0.0000000000000000
 11
250.3593809621359
 21
124.3932163604604
 31
0.0000000000000000
  0
MTEXT
  5
1F6
100
AcDbEntity
  8
MAIN0
  6
BYBLOCK
 62
0
100
AcDbMText
 10
272.8593438752805
 20
128.4432163127767
 30
0.0000000000000000
 40
3.099999904632568
 41
0.0000000000000000
 71
     5
 72
     1
  1
\A1;45
 11
1.000000000000000
 21
0.0000000000000000
 31
0.0000000000000000
  7
STANDARD
  0
ENDBLK
  5
1F7
100
AcDbEntity
  8
MAIN0
  6
CONTINUOUS
 62
3
100
AcDbBlockEnd
  0
BLOCK
  5
1F9
100
AcDbEntity
  8
MAIN0
  6
CONTINUOUS
 62
3
100
AcDbBlockBegin
  2
*D14
 70
    65
 10
0.0
 20
0.0
 30
0.0
  0
LINE
  5
1FA
100
AcDbEntity
  8
MAIN0
  6
BYBLOCK
 62
0
100
AcDbLine
 10
250.3593809621359
 20
163.4718104406801
 30
0.0000000000000000
 11
250.3593809621359
 21
124.3932163604604
 31
0.0000000000000000
  0
LINE
  5
1FB
100
AcDbEntity
  8
MAIN0
  6
BYBLOCK
 62
0
100
AcDbLine
 10
248.3593809621359
 20
126.3932163604604
 30
0.0000000000000000
 11
158.3593809619729
 21
126.3932163604604
 31
0.0000000000000000
  0
INSERT
  5
1FC
100
AcDbEntity
  8
MAIN0
  6
BYBLOCK
 62
0
100
AcDbBlockReference
  2
_OPEN
 10
250.3593809621359
 20
126.3932163604604
 30
0.0000000000000000
 41
2.000000000000000
 42
2.000000000000000
 43
2.000000000000000
 50
360.0000000000000
  0
INSERT
  5
1FD
100
AcDbEntity
  8
MAIN0
  6
BYBLOCK
 62
0
100
AcDbBlockReference
  2
_OPEN
 10
156.3593809619729
 20
126.3932163604604
 30
0.0000000000000000
 41
2.000000000000000
 42
2.000000000000000
 43
2.000000000000000
 50
180.0000000000000
  0
LINE
  5
1FE
100
AcDbEntity
  8
MAIN0
  6
BYBLOCK
 62
0
100
AcDbLine
 10
156.3593809619729
 20
163.4718104401774
 30
0.0000000000000000
 11
156.3593809619729
 21
124.3932163604604
 31
0.0000000000000000
  0
MTEXT
  5
1FF
100
AcDbEntity
  8
MAIN0
  6
BYBLOCK
 62
0
100
AcDbMText
 10
203.3593809620544
 20
128.4432163127767
 30
0.0000000000000000
 40
3.099999904632568
 41
0.0000000000000000
 71
     5
 72
     1
  1
\A1;94
 11
1.000000000000000
 21
0.0000000000000000
 31
0.0000000000000000
  7
STANDARD
  0
ENDBLK
  5
200
100
AcDbEntity
  8
MAIN0
  6
CONTINUOUS
 62
3
100
AcDbBlockEnd
  0
BLOCK
  5
202
100
AcDbEntity
  8
MAIN0
  6
CONTINUOUS
 62
3
100
AcDbBlockBegin
  2
*D15
 70
    65
 10
0.0
 20
0.0
 30
0.0
  0
LINE
  5
203
100
AcDbEntity
  8
MAIN0
  6
BYBLOCK
 62
0
100
AcDbLine
 10
156.3593809619761
 20
163.4718104401774
 30
0.0000000000000000
 11
156.3593809620302
 21
150.3569624207697
 31
0.0000000000000000
  0
LINE
  5
204
100
AcDbEntity
  8
MAIN0
  6
BYBLOCK
 62
0
100
AcDbLine
 10
156.3593809620220
 20
152.3569624207697
 30
0.0000000000000000
 11
161.3593809620037
 21
152.3569624207697
 31
0.0000000000000000
  0
INSERT
  5
205
100
AcDbEntity
  8
MAIN0
  6
BYBLOCK
 62
0
100
AcDbBlockReference
  2
_OPEN
 10
156.3593809620220
 20
152.3569624207697
 30
0.0000000000000000
 41
2.000000000000000
 42
2.000000000000000
 43
2.000000000000000
 50
0.0000000000000000
  0
INSERT
  5
206
100
AcDbEntity
  8
MAIN0
  6
BYBLOCK
 62
0
100
AcDbBlockReference
  2
_OPEN
 10
161.3593809620037
 20
152.3569624207697
 30
0.0000000000000000
 41
2.000000000000000
 42
2.000000000000000
 43
2.000000000000000
 50
180.0000000000000
  0
LINE
  5
207
100
AcDbEntity
  8
MAIN0
  6
BYBLOCK
 62
0
100
AcDbLine
 10
154.3593809620220
 20
152.3569624207697
 30
0.0000000000000000
 11
146.8559811130840
 21
152.3569624207697
 31
0.0000000000000000
  0
LINE
  5
208
100
AcDbEntity
  8
MAIN0
  6
BYBLOCK
 62
0
100
AcDbLine
 10
163.3593809620037
 20
152.3569624207697
 30
0.0000000000000000
 11
164.3593809620037
 21
152.3569624207697
 31
0.0000000000000000
  0
LINE
  5
209
100
AcDbEntity
  8
MAIN0
  6
BYBLOCK
 62
0
100
AcDbLine
 10
161.3593809620037
 20
183.1218104401697
 30
0.0000000000000000
 11
161.3593809620037
 21
150.3569624207697
 31
0.0000000000000000
  0
MTEXT
  5
20A
100
AcDbEntity
  8
MAIN0
  6
BYBLOCK
 62
0
100
AcDbMText
 10
147.9059806389280
 20
154.4069623730860
 30
0.0000000000000000
 40
3.099999904632568
 41
0.0000000000000000
 71
     5
 72
     1
  1
\A1;5
 11
1.000000000000000
 21
0.0000000000000000
 31
0.0000000000000000
  7
STANDARD
  0
ENDBLK
  5
20B
100
AcDbEntity
  8
MAIN0
  6
CONTINUOUS
 62
3
100
AcDbBlockEnd
  0
BLOCK
  5
20D
100
AcDbEntity
  8
MAIN0
  6
CONTINUOUS
 62
3
100
AcDbBlockBegin
  2
*D16
 70
    65
 10
0.0
 20
0.0
 30
0.0
  0
LINE
  5
20E
100
AcDbEntity
  8
MAIN0
  6
BYBLOCK
 62
0
100
AcDbLine
 10
250.3593809621359
 20
373.0718104645219
 30
0.0000000000000000
 11
250.3593809621359
 21
385.2971877418643
 31
0.0000000000000000
  0
LINE
  5
20F
100
AcDbEntity
  8
MAIN0
  6
BYBLOCK
 62
0
100
AcDbLine
 10
248.3593809621359
 20
383.2971877418643
 30
0.0000000000000000
 11
237.3593809621365
 21
383.2971877418643
 31
0.0000000000000000
  0
INSERT
  5
210
100
AcDbEntity
  8
MAIN0
  6
BYBLOCK
 62
0
100
AcDbBlockReference
  2
_OPEN
 10
250.3593809621359
 20
383.2971877418643
 30
0.0000000000000000
 41
2.000000000000000
 42
2.000000000000000
 43
2.000000000000000
 50
360.0000000000000
  0
INSERT
  5
211
100
AcDbEntity
  8
MAIN0
  6
BYBLOCK
 62
0
100
AcDbBlockReference
  2
_OPEN
 10
235.3593809621365
 20
383.2971877418643
 30
0.0000000000000000
 41
2.000000000000000
 42
2.000000000000000
 43
2.000000000000000
 50
180.0000000000000
  0
LINE
  5
212
100
AcDbEntity
  8
MAIN0
  6
BYBLOCK
 62
0
100
AcDbLine
 10
235.3593809621365
 20
351.5255406627268
 30
0.0000000000000000
 11
235.3593809621365
 21
385.2971877418643
 31
0.0000000000000000
  0
MTEXT
  5
213
100
AcDbEntity
  8
MAIN0
  6
BYBLOCK
 62
0
100
AcDbMText
 10
242.6308810731647
 20
385.3471876941806
 30
0.0000000000000000
 40
3.099999904632568
 41
0.0000000000000000
 71
     5
 72
     1
  1
\A1;（15）
 11
1.000000000000000
 21
0.0000000000000000
 31
0.0000000000000000
  7
KNJYOKO
  0
ENDBLK
  5
214
100
AcDbEntity
  8
MAIN0
  6
CONTINUOUS
 62
3
100
AcDbBlockEnd
  0
BLOCK
  5
21A
100
AcDbEntity
  8
MAIN0
  6
CONTINUOUS
 62
3
100
AcDbBlockBegin
  2
D17
 70
    64
 10
0.0
 20
0.0
 30
0.0
  0
LINE
  5
21B
100
AcDbEntity
  8
MAIN0
  6
BYBLOCK
 62
0
100
AcDbLine
 10
-255.2338485878626
 20
2.246507343784268
 30
0.0000000000000000
 11
-255.2338485878626
 21
53.99999999999990
 31
0.0000000000000000
  0
LINE
  5
21C
100
AcDbEntity
  8
MAIN0
  6
BYBLOCK
 62
0
100
AcDbLine
 10
-255.8338486117044
 20
51.99999999999990
 30
0.0000000000000000
 11
-255.2338485878626
 21
53.99999999999990
 31
0.0000000000000000
  0
LINE
  5
21D
100
AcDbEntity
  8
MAIN0
  6
BYBLOCK
 62
0
100
AcDbLine
 10
-255.2338485878626
 20
53.99999999999990
 30
0.0000000000000000
 11
-254.6338485640207
 21
51.99999999999990
 31
0.0000000000000000
  0
LINE
  5
21E
100
AcDbEntity
  8
MAIN0
  6
BYBLOCK
 62
0
100
AcDbLine
 10
-305.1351408550671
 20
53.99999999999992
 30
0.0000000000000000
 11
-253.2338485878626
 21
53.99999999999990
 31
0.0000000000000000
  0
MTEXT
  5
21F
100
AcDbEntity
  8
MAIN0
  6
BYBLOCK
 62
0
100
AcDbMText
 10
-257.2838485401788
 20
13.25927000856812
 30
0.0000000000000000
 40
3.099999904632568
 41
0.0000000000000000
 71
     5
 72
     1
  1
\A1;\U+2205108
 11
6.123233995736766e-017
 21
1.000000000000000
 31
0.0000000000000000
  7
STANDARD
  0
ENDBLK
  5
220
100
AcDbEntity
  8
MAIN0
  6
CONTINUOUS
 62
3
100
AcDbBlockEnd
  0
BLOCK
  5
222
100
AcDbEntity
  8
MAIN0
  6
CONTINUOUS
 62
3
100
AcDbBlockBegin
  2
D18
 70
    64
 10
0.0
 20
0.0
 30
0.0
  0
LINE
  5
223
100
AcDbEntity
  8
MAIN0
  6
BYBLOCK
 62
0
100
AcDbLine
 10
240.9543591783541
 20
-4.687454620828921
 30
0.0000000000000000
 11
240.9543591783541
 21
-24.50000000000006
 31
0.0000000000000000
  0
LINE
  5
224
100
AcDbEntity
  8
MAIN0
  6
BYBLOCK
 62
0
100
AcDbLine
 10
241.5543592021959
 20
-22.50000000000006
 30
0.0000000000000000
 11
240.9543591783541
 21
-24.50000000000006
 31
0.0000000000000000
  0
LINE
  5
225
100
AcDbEntity
  8
MAIN0
  6
BYBLOCK
 62
0
100
AcDbLine
 10
240.9543591783541
 20
-24.50000000000006
 30
0.0000000000000000
 11
240.3543591545122
 21
-22.50000000000006
 31
0.0000000000000000
  0
LINE
  5
226
100
AcDbEntity
  8
MAIN0
  6
BYBLOCK
 62
0
100
AcDbLine
 10
188.4571233027654
 20
-24.50000000000006
 30
0.0000000000000000
 11
242.9543591783541
 21
-24.50000000000006
 31
0.0000000000000000
  0
MTEXT
  5
227
100
AcDbEntity
  8
MAIN0
  6
BYBLOCK
 62
0
100
AcDbMText
 10
238.9043592260378
 20
-10.08745462306410
 30
0.0000000000000000
 40
3.099999904632568
 41
0.0000000000000000
 71
     5
 72
     1
  1
\A1;\U+220549
 11
6.123233995736766e-017
 21
1.000000000000000
 31
0.0000000000000000
  7
STANDARD
  0
ENDBLK
  5
228
100
AcDbEntity
  8
MAIN0
  6
CONTINUOUS
 62
3
100
AcDbBlockEnd
  0
BLOCK
  5
22A
100
AcDbEntity
  8
MAIN0
  6
CONTINUOUS
 62
3
100
AcDbBlockBegin
  2
*D19
 70
    65
 10
0.0
 20
0.0
 30
0.0
  0
LINE
  5
22B
100
AcDbEntity
  8
MAIN0
  6
BYBLOCK
 62
0
100
AcDbLine
 10
295.7170504190685
 20
294.0718104645219
 30
0.0000000000000000
 11
295.7170504190685
 21
361.2322659338262
 31
0.0000000000000000
  0
LINE
  5
22C
100
AcDbEntity
  8
MAIN0
  6
BYBLOCK
 62
0
100
AcDbLine
 10
293.7170504190685
 20
359.2322659338262
 30
0.0000000000000000
 11
284.7170504190548
 21
359.2322659338262
 31
0.0000000000000000
  0
INSERT
  5
22D
100
AcDbEntity
  8
MAIN0
  6
BYBLOCK
 62
0
100
AcDbBlockReference
  2
_OPEN
 10
295.7170504190685
 20
359.2322659338262
 30
0.0000000000000000
 41
2.000000000000000
 42
2.000000000000000
 43
2.000000000000000
 50
360.0000000000000
  0
INSERT
  5
22E
100
AcDbEntity
  8
MAIN0
  6
BYBLOCK
 62
0
100
AcDbBlockReference
  2
_OPEN
 10
282.7170504190548
 20
359.2322659338262
 30
0.0000000000000000
 41
2.000000000000000
 42
2.000000000000000
 43
2.000000000000000
 50
180.0000000000000
  0
LINE
  5
22F
100
AcDbEntity
  8
MAIN0
  6
BYBLOCK
 62
0
100
AcDbLine
 10
282.7170504190548
 20
297.8305262310305
 30
0.0000000000000000
 11
282.7170504190548
 21
361.2322659338262
 31
0.0000000000000000
  0
MTEXT
  5
230
100
AcDbEntity
  8
MAIN0
  6
BYBLOCK
 62
0
100
AcDbMText
 10
289.2170504190616
 20
361.2822658861425
 30
0.0000000000000000
 40
3.099999904632568
 41
0.0000000000000000
 71
     5
 72
     1
  1
\A1;13
 11
1.000000000000000
 21
0.0000000000000000
 31
0.0000000000000000
  7
STANDARD
  0
ENDBLK
  5
231
100
AcDbEntity
  8
MAIN0
  6
CONTINUOUS
 62
3
100
AcDbBlockEnd
  0
BLOCK
  5
236
100
AcDbEntity
  8
MAIN0
  6
CONTINUOUS
 62
3
100
AcDbBlockBegin
  2
*D20
 70
    65
 10
0.0
 20
0.0
 30
0.0
  0
LINE
  5
237
100
AcDbEntity
  8
MAIN0
  6
BYBLOCK
 62
0
100
AcDbLine
 10
458.5764684591400
 20
268.2718104526010
 30
0.0000000000000000
 11
387.2916504353026
 21
236.6099292812558
 31
0.0000000000000000
  0
INSERT
  5
238
100
AcDbEntity
  8
MAIN0
  6
BYBLOCK
 62
0
100
AcDbBlockReference
  2
_OPEN
 10
385.4638345885375
 20
235.7980861742982
 30
0.0000000000000000
 41
2.000000000000000
 42
2.000000000000000
 43
2.000000000000000
 50
203.9488893219143
  0
MTEXT
  5
239
100
AcDbEntity
  8
MAIN0
  6
BYBLOCK
 62
0
100
AcDbMText
 10
395.7049296470548
 20
242.5898876337056
 30
0.0000000000000000
 40
3.099999904632568
 41
0.0000000000000000
 71
     5
 72
     1
  1
\A1;Ｒ80
 11
0.9139079233825305
 21
0.4059215534787858
 31
0.0000000000000000
  7
KNJYOKO
  0
ENDBLK
  5
23A
100
AcDbEntity
  8
MAIN0
  6
CONTINUOUS
 62
3
100
AcDbBlockEnd
  0
BLOCK
  5
23C
100
AcDbEntity
  8
MAIN0
  6
CONTINUOUS
 62
3
100
AcDbBlockBegin
  2
*D21
 70
    65
 10
0.0
 20
0.0
 30
0.0
  0
LINE
  5
23D
100
AcDbEntity
  8
MAIN0
  6
BYBLOCK
 62
0
100
AcDbLine
 10
491.1193158341515
 20
324.1629431099976
 30
0.0000000000000000
 11
426.0336210841285
 21
212.3806777952044
 31
0.0000000000000000
  0
INSERT
  5
23E
100
AcDbEntity
  8
MAIN0
  6
BYBLOCK
 62
0
100
AcDbBlockReference
  2
_OPEN
 10
492.1256659655782
 20
325.8913121137053
 30
0.0000000000000000
 41
2.000000000000000
 42
2.000000000000000
 43
2.000000000000000
 50
59.78971607981572
  0
INSERT
  5
23F
100
AcDbEntity
  8
MAIN0
  6
BYBLOCK
 62
0
100
AcDbBlockReference
  2
_OPEN
 10
425.0272709527018
 20
210.6523087914967
 30
0.0000000000000000
 41
2.000000000000000
 42
2.000000000000000
 43
2.000000000000000
 50
239.7897160798157
  0
LINE
  5
240
100
AcDbEntity
  8
MAIN0
  6
BYBLOCK
 62
0
100
AcDbLine
 10
492.1256659655782
 20
325.8913121137053
 30
0.0000000000000000
 11
503.1884000515627
 21
344.8911473533236
 31
0.0000000000000000
  0
MTEXT
  5
241
100
AcDbEntity
  8
MAIN0
  6
BYBLOCK
 62
0
100
AcDbMText
 10
498.3726130144710
 20
340.6943404897458
 30
0.0000000000000000
 40
3.099999904632568
 41
0.0000000000000000
 71
     5
 72
     1
  1
\A1;\U+2205133.4
 11
0.5031750657133586
 21
0.8641845018538329
 31
0.0000000000000000
  7
STANDARD
  0
ENDBLK
  5
242
100
AcDbEntity
  8
MAIN0
  6
CONTINUOUS
 62
3
100
AcDbBlockEnd
  0
BLOCK
  5
244
100
AcDbEntity
  8
MAIN0
  6
CONTINUOUS
 62
3
100
AcDbBlockBegin
  2
*D22
 70
    65
 10
0.0
 20
0.0
 30
0.0
  0
LINE
  5
245
100
AcDbEntity
  8
MAIN0
  6
BYBLOCK
 62
0
100
AcDbLine
 10
237.8593809621359
 20
159.2592954891590
 30
0.0000000000000000
 11
237.8593809621359
 21
150.1501949464199
 31
0.0000000000000000
  0
LINE
  5
246
100
AcDbEntity
  8
MAIN0
  6
BYBLOCK
 62
0
100
AcDbLine
 10
239.8593809621359
 20
152.1501949464199
 30
0.0000000000000000
 11
248.3593809621359
 21
152.1501949464199
 31
0.0000000000000000
  0
INSERT
  5
247
100
AcDbEntity
  8
MAIN0
  6
BYBLOCK
 62
0
100
AcDbBlockReference
  2
_OPEN
 10
237.8593809621359
 20
152.1501949464199
 30
0.0000000000000000
 41
2.000000000000000
 42
2.000000000000000
 43
2.000000000000000
 50
180.0000000000000
  0
INSERT
  5
248
100
AcDbEntity
  8
MAIN0
  6
BYBLOCK
 62
0
100
AcDbBlockReference
  2
_OPEN
 10
250.3593809621359
 20
152.1501949464199
 30
0.0000000000000000
 41
2.000000000000000
 42
2.000000000000000
 43
2.000000000000000
 50
0.0000000000000000
  0
LINE
  5
249
100
AcDbEntity
  8
MAIN0
  6
BYBLOCK
 62
0
100
AcDbLine
 10
250.3593809621359
 20
163.4718104406801
 30
0.0000000000000000
 11
250.3593809621359
 21
150.1501949464199
 31
0.0000000000000000
  0
MTEXT
  5
24A
100
AcDbEntity
  8
MAIN0
  6
BYBLOCK
 62
0
100
AcDbMText
 10
244.1093809621359
 20
154.2001948987362
 30
0.0000000000000000
 40
3.099999904632568
 41
0.0000000000000000
 71
     5
 72
     1
  1
\A1;12.5
 11
1.000000000000000
 21
0.0000000000000000
 31
0.0000000000000000
  7
STANDARD
  0
ENDBLK
  5
24B
100
AcDbEntity
  8
MAIN0
  6
CONTINUOUS
 62
3
100
AcDbBlockEnd
  0
BLOCK
  5
259
100
AcDbEntity
  8
MAIN0
  6
CONTINUOUS
 62
3
100
AcDbBlockBegin
  2
*D23
 70
    65
 10
0.0
 20
0.0
 30
0.0
  0
LINE
  5
25A
100
AcDbEntity
  8
MAIN0
  6
BYBLOCK
 62
0
100
AcDbLine
 10
250.3593809621359
 20
163.4718104406801
 30
0.0000000000000000
 11
250.3593809621359
 21
141.3342594750950
 31
0.0000000000000000
  0
LINE
  5
25B
100
AcDbEntity
  8
MAIN0
  6
BYBLOCK
 62
0
100
AcDbLine
 10
248.3593809621359
 20
143.3342594750950
 30
0.0000000000000000
 11
222.3593809621359
 21
143.3342594750950
 31
0.0000000000000000
  0
INSERT
  5
25C
100
AcDbEntity
  8
MAIN0
  6
BYBLOCK
 62
0
100
AcDbBlockReference
  2
_OPEN
 10
250.3593809621359
 20
143.3342594750950
 30
0.0000000000000000
 41
2.000000000000000
 42
2.000000000000000
 43
2.000000000000000
 50
360.0000000000000
  0
INSERT
  5
25D
100
AcDbEntity
  8
MAIN0
  6
BYBLOCK
 62
0
100
AcDbBlockReference
  2
_OPEN
 10
220.3593809621359
 20
143.3342594750950
 30
0.0000000000000000
 41
2.000000000000000
 42
2.000000000000000
 43
2.000000000000000
 50
180.0000000000000
  0
LINE
  5
25E
100
AcDbEntity
  8
MAIN0
  6
BYBLOCK
 62
0
100
AcDbLine
 10
220.3593809621359
 20
159.2779389571407
 30
0.0000000000000000
 11
220.3593809621359
 21
141.3342594750950
 31
0.0000000000000000
  0
MTEXT
  5
25F
100
AcDbEntity
  8
MAIN0
  6
BYBLOCK
 62
0
100
AcDbMText
 10
235.3593809621359
 20
145.3842594274113
 30
0.0000000000000000
 40
3.099999904632568
 41
0.0000000000000000
 71
     5
 72
     1
  1
\A1;30
 11
1.000000000000000
 21
0.0000000000000000
 31
0.0000000000000000
  7
STANDARD
  0
ENDBLK
  5
260
100
AcDbEntity
  8
MAIN0
  6
CONTINUOUS
 62
3
100
AcDbBlockEnd
  0
BLOCK
  5
270
100
AcDbEntity
  8
MAIN0
  6
CONTINUOUS
 62
3
100
AcDbBlockBegin
  2
*D24
 70
    65
 10
0.0
 20
0.0
 30
0.0
  0
LINE
  5
271
100
AcDbEntity
  8
MAIN0
  6
BYBLOCK
 62
0
100
AcDbLine
 10
441.0764684591400
 20
323.2718104526010
 30
0.0000000000000000
 11
441.0764684591400
 21
396.2769527440009
 31
0.0000000000000000
  0
LINE
  5
272
100
AcDbEntity
  8
MAIN0
  6
BYBLOCK
 62
0
100
AcDbLine
 10
443.0764684591400
 20
394.2769527440009
 30
0.0000000000000000
 11
474.0764684591400
 21
394.2769527440009
 31
0.0000000000000000
  0
INSERT
  5
273
100
AcDbEntity
  8
MAIN0
  6
BYBLOCK
 62
0
100
AcDbBlockReference
  2
_OPEN
 10
441.0764684591400
 20
394.2769527440009
 30
0.0000000000000000
 41
2.000000000000000
 42
2.000000000000000
 43
2.000000000000000
 50
180.0000000000000
  0
INSERT
  5
274
100
AcDbEntity
  8
MAIN0
  6
BYBLOCK
 62
0
100
AcDbBlockReference
  2
_OPEN
 10
476.0764684591400
 20
394.2769527440009
 30
0.0000000000000000
 41
2.000000000000000
 42
2.000000000000000
 43
2.000000000000000
 50
0.0000000000000000
  0
LINE
  5
275
100
AcDbEntity
  8
MAIN0
  6
BYBLOCK
 62
0
100
AcDbLine
 10
476.0764684591400
 20
323.2718104526010
 30
0.0000000000000000
 11
476.0764684591400
 21
396.2769527440009
 31
0.0000000000000000
  0
MTEXT
  5
276
100
AcDbEntity
  8
MAIN0
  6
BYBLOCK
 62
0
100
AcDbMText
 10
458.5764684591400
 20
396.3269526963172
 30
0.0000000000000000
 40
3.099999904632568
 41
0.0000000000000000
 71
     5
 72
     1
  1
\A1;35
 11
1.000000000000000
 21
0.0000000000000000
 31
0.0000000000000000
  7
STANDARD
  0
ENDBLK
  5
277
100
AcDbEntity
  8
MAIN0
  6
CONTINUOUS
 62
3
100
AcDbBlockEnd
  0
BLOCK
  5
282
100
AcDbEntity
  8
MAIN0
  6
CONTINUOUS
 62
3
100
AcDbBlockBegin
  2
*D25
 70
    65
 10
0.0
 20
0.0
 30
0.0
  0
LINE
  5
283
100
AcDbEntity
  8
MAIN0
  6
BYBLOCK
 62
0
100
AcDbLine
 10
295.5170504309705
 20
324.2718104526010
 30
0.0000000000000000
 11
332.2075118869798
 21
324.2718104526010
 31
0.0000000000000000
  0
LINE
  5
284
100
AcDbEntity
  8
MAIN0
  6
BYBLOCK
 62
0
100
AcDbLine
 10
330.2075118869798
 20
322.2718104526010
 30
0.0000000000000000
 11
330.2075118869798
 21
270.2718104526010
 31
0.0000000000000000
  0
INSERT
  5
285
100
AcDbEntity
  8
MAIN0
  6
BYBLOCK
 62
0
100
AcDbBlockReference
  2
_OPEN
 10
330.2075118869798
 20
324.2718104526010
 30
0.0000000000000000
 41
2.000000000000000
 42
2.000000000000000
 43
2.000000000000000
 50
90.00000000000000
  0
INSERT
  5
286
100
AcDbEntity
  8
MAIN0
  6
BYBLOCK
 62
0
100
AcDbBlockReference
  2
_OPEN
 10
330.2075118869798
 20
268.2718104526010
 30
0.0000000000000000
 41
2.000000000000000
 42
2.000000000000000
 43
2.000000000000000
 50
270.0000000000000
  0
MTEXT
  5
287
100
AcDbEntity
  8
MAIN0
  6
BYBLOCK
 62
0
100
AcDbMText
 10
328.1575119346636
 20
296.2718104526010
 30
0.0000000000000000
 40
3.099999904632568
 41
0.0000000000000000
 71
     5
 72
     1
  1
\A1;MAX 57.2
 11
6.123233995736766e-017
 21
1.000000000000000
 31
0.0000000000000000
  7
STANDARD
  0
ENDBLK
  5
288
100
AcDbEntity
  8
MAIN0
  6
CONTINUOUS
 62
3
100
AcDbBlockEnd
  0
BLOCK
  5
28C
100
AcDbEntity
  8
MAIN0
  6
CONTINUOUS
 62
3
100
AcDbBlockBegin
  2
D26
 70
    64
 10
0.0
 20
0.0
 30
0.0
  0
LINE
  5
28D
100
AcDbEntity
  8
MAIN0
  6
BYBLOCK
 62
0
100
AcDbLine
 10
240.1454361577135
 20
7.276048624028639
 30
0.0000000000000000
 11
240.1454361577135
 21
24.99999999999994
 31
0.0000000000000000
  0
LINE
  5
28E
100
AcDbEntity
  8
MAIN0
  6
BYBLOCK
 62
0
100
AcDbLine
 10
239.5454361338716
 20
22.99999999999994
 30
0.0000000000000000
 11
240.1454361577135
 21
24.99999999999994
 31
0.0000000000000000
  0
LINE
  5
28F
100
AcDbEntity
  8
MAIN0
  6
BYBLOCK
 62
0
100
AcDbLine
 10
240.1454361577135
 20
24.99999999999994
 30
0.0000000000000000
 11
240.7454361815553
 21
22.99999999999994
 31
0.0000000000000000
  0
LINE
  5
290
100
AcDbEntity
  8
MAIN0
  6
BYBLOCK
 62
0
100
AcDbLine
 10
222.9065048684590
 20
24.99999999999994
 30
0.0000000000000000
 11
242.1454361577135
 21
24.99999999999994
 31
0.0000000000000000
  0
MTEXT
  5
291
100
AcDbEntity
  8
MAIN0
  6
BYBLOCK
 62
0
100
AcDbMText
 10
238.0954362053972
 20
14.77604865196832
 30
0.0000000000000000
 40
3.099999904632568
 41
0.0000000000000000
 71
     5
 72
     1
  1
\A1;\U+220550h6
 11
6.123233995736766e-017
 21
1.000000000000000
 31
0.0000000000000000
  7
STANDARD
  0
ENDBLK
  5
292
100
AcDbEntity
  8
MAIN0
  6
CONTINUOUS
 62
3
100
AcDbBlockEnd
  0
BLOCK
  5
294
100
AcDbEntity
  8
MAIN0
  6
CONTINUOUS
 62
3
100
AcDbBlockBegin
  2
*D27
 70
    65
 10
0.0
 20
0.0
 30
0.0
  0
LINE
  5
295
100
AcDbEntity
  8
MAIN0
  6
BYBLOCK
 62
0
100
AcDbLine
 10
296.5170504309734
 20
293.2718104526010
 30
0.0000000000000000
 11
315.7559817202279
 21
293.2718104526010
 31
0.0000000000000000
  0
LINE
  5
296
100
AcDbEntity
  8
MAIN0
  6
BYBLOCK
 62
0
100
AcDbLine
 10
313.7559817202279
 20
295.2718104526010
 30
0.0000000000000000
 11
313.7559817202279
 21
311.2718104526010
 31
0.0000000000000000
  0
INSERT
  5
297
100
AcDbEntity
  8
MAIN0
  6
BYBLOCK
 62
0
100
AcDbBlockReference
  2
_OPEN
 10
313.7559817202279
 20
293.2718104526010
 30
0.0000000000000000
 41
2.000000000000000
 42
2.000000000000000
 43
2.000000000000000
 50
270.0000000000000
  0
INSERT
  5
298
100
AcDbEntity
  8
MAIN0
  6
BYBLOCK
 62
0
100
AcDbBlockReference
  2
_OPEN
 10
313.7559817202279
 20
313.2718104526010
 30
0.0000000000000000
 41
2.000000000000000
 42
2.000000000000000
 43
2.000000000000000
 50
90.00000000000000
  0
LINE
  5
299
100
AcDbEntity
  8
MAIN0
  6
BYBLOCK
 62
0
100
AcDbLine
 10
281.9620635865472
 20
313.2718104526010
 30
0.0000000000000000
 11
315.7559817202279
 21
313.2718104526010
 31
0.0000000000000000
  0
MTEXT
  5
29A
100
AcDbEntity
  8
MAIN0
  6
BYBLOCK
 62
0
100
AcDbMText
 10
311.7059817679116
 20
303.2718104526010
 30
0.0000000000000000
 40
3.099999904632568
 41
0.0000000000000000
 71
     5
 72
     1
  1
\A1;20
 11
6.123233995736766e-017
 21
1.000000000000000
 31
0.0000000000000000
  7
STANDARD
  0
ENDBLK
  5
29B
100
AcDbEntity
  8
MAIN0
  6
CONTINUOUS
 62
3
100
AcDbBlockEnd
  0
BLOCK
  5
2CF
100
AcDbEntity
  8
MAIN0
  6
CONTINUOUS
 62
3
100
AcDbBlockBegin
  2
*D28
 70
    65
 10
0.0
 20
0.0
 30
0.0
  0
LINE
  5
2D0
100
AcDbEntity
  8
MAIN0
  6
BYBLOCK
 62
0
100
AcDbLine
 10
458.5764684591400
 20
159.2592954891591
 30
0.0000000000000000
 11
458.5764684591400
 21
151.2718104525998
 31
0.0000000000000000
  0
LINE
  5
2D1
100
AcDbEntity
  8
MAIN0
  6
BYBLOCK
 62
0
100
AcDbLine
 10
479.3096408258869
 20
190.8945577778251
 30
0.0000000000000000
 11
488.8582967361377
 21
155.2584887767795
 31
0.0000000000000000
  0
ARC
  5
2D2
100
AcDbEntity
  8
MAIN0
  6
BYBLOCK
 62
0
100
AcDbCircle
 10
458.5764684591400
 20
268.2718104526004
 30
0.0000000000000000
 40
115.0000000000006
100
AcDbArc
 50
270.9964483393580
 51
284.0035516606434
  0
INSERT
  5
2D3
100
AcDbEntity
  8
MAIN0
  6
BYBLOCK
 62
0
100
AcDbBlockReference
  2
_OPEN
 10
458.5764684591400
 20
153.2718104525998
 30
0.0000000000000000
 41
2.000000000000000
 42
2.000000000000000
 43
2.000000000000000
 50
180.0000000000000
  0
INSERT
  5
2D4
100
AcDbEntity
  8
MAIN0
  6
BYBLOCK
 62
0
100
AcDbBlockReference
  2
_OPEN
 10
488.3406586459327
 20
157.1903404293576
 30
0.0000000000000000
 41
2.000000000000000
 42
2.000000000000000
 43
2.000000000000000
 50
15.00000000000136
  0
MTEXT
  5
2D5
100
AcDbEntity
  8
MAIN0
  6
BYBLOCK
 62
0
100
AcDbMText
 10
480.8710502046872
 20
157.5439723288340
 30
0.0000000000000000
 40
3.099999904632568
 41
0.0000000000000000
 71
     5
 72
     1
  1
\A1;15\U+00B0
 11
0.9803261449935382
 21
0.1973845217895979
 31
0.0000000000000000
  7
STANDARD
  0
ENDBLK
  5
2D6
100
AcDbEntity
  8
MAIN0
  6
CONTINUOUS
 62
3
100
AcDbBlockEnd
  0
BLOCK
  5
2D8
100
AcDbEntity
  8
MAIN0
  6
CONTINUOUS
 62
3
100
AcDbBlockBegin
  2
*D29
 70
    65
 10
0.0
 20
0.0
 30
0.0
  0
LINE
  5
2D9
100
AcDbEntity
  8
MAIN0
  6
BYBLOCK
 62
0
100
AcDbLine
 10
479.3096408258869
 20
190.8945577778251
 30
0.0000000000000000
 11
488.8582967361377
 21
155.2584887767795
 31
0.0000000000000000
  0
LINE
  5
2DA
100
AcDbEntity
  8
MAIN0
  6
BYBLOCK
 62
0
100
AcDbLine
 10
541.3121591090190
 20
220.5043371839270
 30
0.0000000000000000
 11
559.9014407017203
 21
209.7718104522545
 31
0.0000000000000000
  0
ARC
  5
2DB
100
AcDbEntity
  8
MAIN0
  6
BYBLOCK
 62
0
100
AcDbCircle
 10
458.5764684591400
 20
268.2718104526004
 30
0.0000000000000000
 40
115.0000000000006
100
AcDbArc
 50
285.9964483393593
 51
329.0035516604467
  0
INSERT
  5
2DC
100
AcDbEntity
  8
MAIN0
  6
BYBLOCK
 62
0
100
AcDbBlockReference
  2
_OPEN
 10
488.3406586459327
 20
157.1903404293576
 30
0.0000000000000000
 41
2.000000000000000
 42
2.000000000000000
 43
2.000000000000000
 50
195.0000000000014
  0
INSERT
  5
2DD
100
AcDbEntity
  8
MAIN0
  6
BYBLOCK
 62
0
100
AcDbBlockReference
  2
_OPEN
 10
558.1693898941549
 20
210.7718104522604
 30
0.0000000000000000
 41
2.000000000000000
 42
2.000000000000000
 43
2.000000000000000
 50
59.99999999980457
  0
MTEXT
  5
2DE
100
AcDbEntity
  8
MAIN0
  6
BYBLOCK
 62
0
100
AcDbMText
 10
527.3360718945518
 20
178.6625506287584
 30
0.0000000000000000
 40
3.099999904632568
 41
0.0000000000000000
 71
     5
 72
     1
  1
\A1;45\U+00B0
 11
0.7933533402922657
 21
0.6087614290073777
 31
0.0000000000000000
  7
STANDARD
  0
ENDBLK
  5
2DF
100
AcDbEntity
  8
MAIN0
  6
CONTINUOUS
 62
3
100
AcDbBlockEnd
  0
BLOCK
  5
2E1
100
AcDbEntity
  8
MAIN0
  6
CONTINUOUS
 62
3
100
AcDbBlockBegin
  2
*D30
 70
    65
 10
0.0
 20
0.0
 30
0.0
  0
LINE
  5
2E2
100
AcDbEntity
  8
MAIN0
  6
BYBLOCK
 62
0
100
AcDbLine
 10
541.3121591090190
 20
220.5043371839270
 30
0.0000000000000000
 11
559.9014407017203
 21
209.7718104522545
 31
0.0000000000000000
  0
LINE
  5
2E3
100
AcDbEntity
  8
MAIN0
  6
BYBLOCK
 62
0
100
AcDbLine
 10
535.9537211339159
 20
289.0049828193486
 30
0.0000000000000000
 11
571.5897901349606
 21
298.5536387295996
 31
0.0000000000000000
  0
ARC
  5
2E4
100
AcDbEntity
  8
MAIN0
  6
BYBLOCK
 62
0
100
AcDbCircle
 10
458.5764684591400
 20
268.2718104526004
 30
0.0000000000000000
 40
115.0000000000006
100
AcDbArc
 50
330.9964483391626
 51
374.0035516606442
  0
INSERT
  5
2E5
100
AcDbEntity
  8
MAIN0
  6
BYBLOCK
 62
0
100
AcDbBlockReference
  2
_OPEN
 10
558.1693898941549
 20
210.7718104522604
 30
0.0000000000000000
 41
2.000000000000000
 42
2.000000000000000
 43
2.000000000000000
 50
239.9999999998046
  0
INSERT
  5
2E6
100
AcDbEntity
  8
MAIN0
  6
BYBLOCK
 62
0
100
AcDbBlockReference
  2
_OPEN
 10
569.6579384823823
 20
298.0360006393945
 30
0.0000000000000000
 41
2.000000000000000
 42
2.000000000000000
 43
2.000000000000000
 50
105.0000000000021
  0
MTEXT
  5
2E7
100
AcDbEntity
  8
MAIN0
  6
BYBLOCK
 62
0
100
AcDbMText
 10
570.5601655985633
 20
253.5288770349326
 30
0.0000000000000000
 40
3.099999904632568
 41
0.0000000000000000
 71
     5
 72
     1
  1
\A1;45\U+00B0
 11
0.1305261922217237
 21
0.9914448613735902
 31
0.0000000000000000
  7
STANDARD
  0
ENDBLK
  5
2E8
100
AcDbEntity
  8
MAIN0
  6
CONTINUOUS
 62
3
100
AcDbBlockEnd
  0
BLOCK
  5
2EA
100
AcDbEntity
  8
MAIN0
  6
CONTINUOUS
 62
3
100
AcDbBlockBegin
  2
*D31
 70
    65
 10
0.0
 20
0.0
 30
0.0
  0
LINE
  5
2EB
100
AcDbEntity
  8
MAIN0
  6
BYBLOCK
 62
0
100
AcDbLine
 10
535.9537211339159
 20
289.0049828193486
 30
0.0000000000000000
 11
571.5897901349606
 21
298.5536387295996
 31
0.0000000000000000
  0
LINE
  5
2EC
100
AcDbEntity
  8
MAIN0
  6
BYBLOCK
 62
0
100
AcDbLine
 10
552.9840757479120
 20
322.7780679343219
 30
0.0000000000000000
 11
559.9014407019196
 21
326.7718104526011
 31
0.0000000000000000
  0
ARC
  5
2ED
100
AcDbEntity
  8
MAIN0
  6
BYBLOCK
 62
0
100
AcDbCircle
 10
458.5764684591400
 20
268.2718104526004
 30
0.0000000000000000
 40
115.0000000000006
100
AcDbArc
 50
15.99644833936008
 51
29.00355166064226
  0
INSERT
  5
2EE
100
AcDbEntity
  8
MAIN0
  6
BYBLOCK
 62
0
100
AcDbBlockReference
  2
_OPEN
 10
569.6579384823823
 20
298.0360006393946
 30
0.0000000000000000
 41
2.000000000000000
 42
2.000000000000000
 43
2.000000000000000
 50
285.0000000000022
  0
INSERT
  5
2EF
100
AcDbEntity
  8
MAIN0
  6
BYBLOCK
 62
0
100
AcDbBlockReference
  2
_OPEN
 10
558.1693898943507
 20
325.7718104526011
 30
0.0000000000000000
 41
2.000000000000000
 42
2.000000000000000
 43
2.000000000000000
 50
120.0000000000002
  0
MTEXT
  5
2F0
100
AcDbEntity
  8
MAIN0
  6
BYBLOCK
 62
0
100
AcDbMText
 10
562.9286617003436
 20
311.4959041564874
 30
0.0000000000000000
 40
3.099999904632568
 41
0.0000000000000000
 71
     5
 72
     1
  1
\A1;15\U+00B0
 11
-0.3826834323651086
 21
0.9238795325112790
 31
0.0000000000000000
  7
STANDARD
  0
ENDBLK
  5
2F1
100
AcDbEntity
  8
MAIN0
  6
CONTINUOUS
 62
3
100
AcDbBlockEnd
  0
BLOCK
  5
2F3
100
AcDbEntity
  8
MAIN0
  6
CONTINUOUS
 62
3
100
AcDbBlockBegin
  2
*D32
 70
    65
 10
0.0
 20
0.0
 30
0.0
  0
LINE
  5
2F4
100
AcDbEntity
  8
MAIN0
  6
BYBLOCK
 62
0
100
AcDbLine
 10
552.9840757479120
 20
322.7780679343219
 30
0.0000000000000000
 11
559.9014407019196
 21
326.7718104526011
 31
0.0000000000000000
  0
LINE
  5
2F5
100
AcDbEntity
  8
MAIN0
  6
BYBLOCK
 62
0
100
AcDbLine
 10
515.2205487671696
 20
324.9158907606338
 30
0.0000000000000000
 11
541.3079618579637
 21
351.0033038514297
 31
0.0000000000000000
  0
ARC
  5
2F6
100
AcDbEntity
  8
MAIN0
  6
BYBLOCK
 62
0
100
AcDbCircle
 10
458.5764684591400
 20
268.2718104526004
 30
0.0000000000000000
 40
115.0000000000006
100
AcDbArc
 50
30.99644833935816
 51
44.00355166064399
  0
INSERT
  5
2F7
100
AcDbEntity
  8
MAIN0
  6
BYBLOCK
 62
0
100
AcDbBlockReference
  2
_OPEN
 10
558.1693898943507
 20
325.7718104526011
 30
0.0000000000000000
 41
2.000000000000000
 42
2.000000000000000
 43
2.000000000000000
 50
300.0000000000002
  0
INSERT
  5
2F8
100
AcDbEntity
  8
MAIN0
  6
BYBLOCK
 62
0
100
AcDbBlockReference
  2
_OPEN
 10
539.8937482955906
 20
349.5890902890566
 30
0.0000000000000000
 41
2.000000000000000
 42
2.000000000000000
 43
2.000000000000000
 50
135.0000000000019
  0
MTEXT
  5
2F9
100
AcDbEntity
  8
MAIN0
  6
BYBLOCK
 62
0
100
AcDbMText
 10
551.4384769023982
 20
339.5273356890452
 30
0.0000000000000000
 40
3.099999904632568
 41
0.0000000000000000
 71
     5
 72
     1
  1
\A1;15\U+00B0
 11
0.6087614290087354
 21
-0.7933533402912238
 31
0.0000000000000000
  7
STANDARD
  0
ENDBLK
  5
2FA
100
AcDbEntity
  8
MAIN0
  6
CONTINUOUS
 62
3
100
AcDbBlockEnd
  0
BLOCK
  5
2FC
100
AcDbEntity
  8
MAIN0
  6
CONTINUOUS
 62
3
100
AcDbBlockBegin
  2
*D33
 70
    65
 10
0.0
 20
0.0
 30
0.0
  0
LINE
  5
2FD
100
AcDbEntity
  8
MAIN0
  6
BYBLOCK
 62
0
100
AcDbLine
 10
515.2205487671696
 20
324.9158907606338
 30
0.0000000000000000
 11
541.3079618579637
 21
351.0033038514297
 31
0.0000000000000000
  0
LINE
  5
2FE
100
AcDbEntity
  8
MAIN0
  6
BYBLOCK
 62
0
100
AcDbLine
 10
458.5764684591400
 20
380.7718104483481
 30
0.0000000000000000
 11
458.5764684591400
 21
385.2718104526010
 31
0.0000000000000000
  0
ARC
  5
2FF
100
AcDbEntity
  8
MAIN0
  6
BYBLOCK
 62
0
100
AcDbCircle
 10
458.5764684591400
 20
268.2718104526004
 30
0.0000000000000000
 40
115.0000000000006
100
AcDbArc
 50
45.99644833935989
 51
89.00355166064205
  0
INSERT
  5
300
100
AcDbEntity
  8
MAIN0
  6
BYBLOCK
 62
0
100
AcDbBlockReference
  2
_OPEN
 10
539.8937482955906
 20
349.5890902890566
 30
0.0000000000000000
 41
2.000000000000000
 42
2.000000000000000
 43
2.000000000000000
 50
315.0000000000019
  0
INSERT
  5
301
100
AcDbEntity
  8
MAIN0
  6
BYBLOCK
 62
0
100
AcDbBlockReference
  2
_OPEN
 10
458.5764684591400
 20
383.2718104526010
 30
0.0000000000000000
 41
2.000000000000000
 42
2.000000000000000
 43
2.000000000000000
 50
180.0000000000000
  0
MTEXT
  5
302
100
AcDbEntity
  8
MAIN0
  6
BYBLOCK
 62
0
100
AcDbMText
 10
503.3695641992244
 20
376.4119096889938
 30
0.0000000000000000
 40
3.099999904632568
 41
0.0000000000000000
 71
     5
 72
     1
  1
\A1;45\U+00B0
 11
0.9238795325112933
 21
-0.3826834323650740
 31
0.0000000000000000
  7
STANDARD
  0
ENDBLK
  5
303
100
AcDbEntity
  8
MAIN0
  6
CONTINUOUS
 62
3
100
AcDbBlockEnd
  0
BLOCK
  5
305
100
AcDbEntity
  8
MAIN0
  6
CONTINUOUS
 62
3
100
AcDbBlockBegin
  2
*D34
 70
    65
 10
0.0
 20
0.0
 30
0.0
  0
LINE
  5
306
100
AcDbEntity
  8
MAIN0
  6
BYBLOCK
 62
0
100
AcDbLine
 10
441.2764684472190
 20
324.2718104526010
 30
0.0000000000000000
 11
433.3958223900523
 21
324.2718104526010
 31
0.0000000000000000
  0
LINE
  5
307
100
AcDbEntity
  8
MAIN0
  6
BYBLOCK
 62
0
100
AcDbLine
 10
435.3958223900523
 20
322.2718104526010
 30
0.0000000000000000
 11
435.3958223900523
 21
290.2718104526010
 31
0.0000000000000000
  0
INSERT
  5
308
100
AcDbEntity
  8
MAIN0
  6
BYBLOCK
 62
0
100
AcDbBlockReference
  2
_OPEN
 10
435.3958223900523
 20
324.2718104526010
 30
0.0000000000000000
 41
2.000000000000000
 42
2.000000000000000
 43
2.000000000000000
 50
90.00000000000000
  0
INSERT
  5
309
100
AcDbEntity
  8
MAIN0
  6
BYBLOCK
 62
0
100
AcDbBlockReference
  2
_OPEN
 10
435.3958223900523
 20
288.2718104526010
 30
0.0000000000000000
 41
2.000000000000000
 42
2.000000000000000
 43
2.000000000000000
 50
270.0000000000000
  0
LINE
  5
30A
100
AcDbEntity
  8
MAIN0
  6
BYBLOCK
 62
0
100
AcDbLine
 10
440.8764684472191
 20
288.2718104526010
 30
0.0000000000000000
 11
433.3958223900523
 21
288.2718104526010
 31
0.0000000000000000
  0
MTEXT
  5
30B
100
AcDbEntity
  8
MAIN0
  6
BYBLOCK
 62
0
100
AcDbMText
 10
433.3458224377360
 20
314.0033358139935
 30
0.0000000000000000
 40
3.099999904632568
 41
0.0000000000000000
 71
     5
 72
     1
  1
\A1;36
 11
6.123233995736766e-017
 21
1.000000000000000
 31
0.0000000000000000
  7
STANDARD
  0
ENDBLK
  5
30C
100
AcDbEntity
  8
MAIN0
  6
CONTINUOUS
 62
3
100
AcDbBlockEnd
  0
BLOCK
  5
30E
100
AcDbEntity
  8
MAIN0
  6
CONTINUOUS
 62
3
100
AcDbBlockBegin
  2
*D35
 70
    65
 10
0.0
 20
0.0
 30
0.0
  0
LINE
  5
30F
100
AcDbEntity
  8
MAIN0
  6
BYBLOCK
 62
0
100
AcDbLine
 10
74.85930678842513
 20
275.5718104645220
 30
0.0000000000000000
 11
74.85930678842513
 21
302.3067314878816
 31
0.0000000000000000
  0
LINE
  5
310
100
AcDbEntity
  8
MAIN0
  6
BYBLOCK
 62
0
100
AcDbLine
 10
74.85930678842513
 20
300.3067314878816
 30
0.0000000000000000
 11
76.85930678842510
 21
300.3067314878816
 31
0.0000000000000000
  0
INSERT
  5
311
100
AcDbEntity
  8
MAIN0
  6
BYBLOCK
 62
0
100
AcDbBlockReference
  2
_OPEN
 10
74.85930678842513
 20
300.3067314878816
 30
0.0000000000000000
 41
2.000000000000000
 42
2.000000000000000
 43
2.000000000000000
 50
0.0000000000000000
  0
INSERT
  5
312
100
AcDbEntity
  8
MAIN0
  6
BYBLOCK
 62
0
100
AcDbBlockReference
  2
_DOT
 10
77.85930678842510
 20
300.3067314878816
 30
0.0000000000000000
 41
1.000000000000000
 42
1.000000000000000
 43
1.000000000000000
 50
0.0000000000000000
  0
LINE
  5
313
100
AcDbEntity
  8
MAIN0
  6
BYBLOCK
 62
0
100
AcDbLine
 10
72.85930678842513
 20
300.3067314878816
 30
0.0000000000000000
 11
67.77027080057113
 21
300.3067314878816
 31
0.0000000000000000
  0
LINE
  5
314
100
AcDbEntity
  8
MAIN0
  6
BYBLOCK
 62
0
100
AcDbLine
 10
77.85930678842510
 20
276.5718104645219
 30
0.0000000000000000
 11
77.85930678842510
 21
302.3067314878816
 31
0.0000000000000000
  0
MTEXT
  5
315
100
AcDbEntity
  8
MAIN0
  6
BYBLOCK
 62
0
100
AcDbMText
 10
68.82027092900552
 20
302.3567314401979
 30
0.0000000000000000
 40
3.099999904632568
 41
0.0000000000000000
 71
     5
 72
     1
  1
\A1;3
 11
1.000000000000000
 21
0.0000000000000000
 31
0.0000000000000000
  7
STANDARD
  0
ENDBLK
  5
316
100
AcDbEntity
  8
MAIN0
  6
CONTINUOUS
 62
3
100
AcDbBlockEnd
  0
BLOCK
  5
318
100
AcDbEntity
  8
MAIN0
  6
CONTINUOUS
 62
3
100
AcDbBlockBegin
  2
*D36
 70
    65
 10
0.0
 20
0.0
 30
0.0
  0
LINE
  5
319
100
AcDbEntity
  8
MAIN0
  6
BYBLOCK
 62
0
100
AcDbLine
 10
77.85930678842510
 20
276.5718104645219
 30
0.0000000000000000
 11
77.85930678842510
 21
302.3067314878816
 31
0.0000000000000000
  0
LINE
  5
31A
100
AcDbEntity
  8
MAIN0
  6
BYBLOCK
 62
0
100
AcDbLine
 10
78.85930678842510
 20
300.3067314878816
 30
0.0000000000000000
 11
81.05930678842515
 21
300.3067314878816
 31
0.0000000000000000
  0
INSERT
  5
31B
100
AcDbEntity
  8
MAIN0
  6
BYBLOCK
 62
0
100
AcDbBlockReference
  2
_DOT
 10
77.85930678842510
 20
300.3067314878816
 30
0.0000000000000000
 41
1.000000000000000
 42
1.000000000000000
 43
1.000000000000000
 50
180.0000000000000
  0
INSERT
  5
31C
100
AcDbEntity
  8
MAIN0
  6
BYBLOCK
 62
0
100
AcDbBlockReference
  2
_OPEN
 10
81.05930678842515
 20
300.3067314878816
 30
0.0000000000000000
 41
2.000000000000000
 42
2.000000000000000
 43
2.000000000000000
 50
180.0000000000000
  0
LINE
  5
31D
100
AcDbEntity
  8
MAIN0
  6
BYBLOCK
 62
0
100
AcDbLine
 10
83.05930678842515
 20
300.3067314878816
 30
0.0000000000000000
 11
88.05226247308701
 21
300.3067314878816
 31
0.0000000000000000
  0
LINE
  5
31E
100
AcDbEntity
  8
MAIN0
  6
BYBLOCK
 62
0
100
AcDbLine
 10
81.05930678842515
 20
276.5718104645219
 30
0.0000000000000000
 11
81.05930678842515
 21
302.3067314878816
 31
0.0000000000000000
  0
MTEXT
  5
31F
100
AcDbEntity
  8
MAIN0
  6
BYBLOCK
 62
0
100
AcDbMText
 10
85.40226224198111
 20
302.3567314401979
 30
0.0000000000000000
 40
3.099999904632568
 41
0.0000000000000000
 71
     5
 72
     1
  1
\A1;3.2
 11
1.000000000000000
 21
0.0000000000000000
 31
0.0000000000000000
  7
STANDARD
  0
ENDBLK
  5
320
100
AcDbEntity
  8
MAIN0
  6
CONTINUOUS
 62
3
100
AcDbBlockEnd
  0
BLOCK
  5
323
100
AcDbEntity
  8
MAIN0
  6
CONTINUOUS
 62
3
100
AcDbBlockBegin
  2
*D37
 70
    65
 10
0.0
 20
0.0
 30
0.0
  0
LINE
  5
324
100
AcDbEntity
  8
MAIN0
  6
BYBLOCK
 62
0
100
AcDbLine
 10
213.8593809621347
 20
163.1479849122014
 30
0.0000000000000000
 11
213.8593809621347
 21
132.8302667104648
 31
0.0000000000000000
  0
LINE
  5
325
100
AcDbEntity
  8
MAIN0
  6
BYBLOCK
 62
0
100
AcDbLine
 10
215.8593809621347
 20
134.8302667104648
 30
0.0000000000000000
 11
248.3593809621359
 21
134.8302667104648
 31
0.0000000000000000
  0
INSERT
  5
326
100
AcDbEntity
  8
MAIN0
  6
BYBLOCK
 62
0
100
AcDbBlockReference
  2
_OPEN
 10
213.8593809621347
 20
134.8302667104648
 30
0.0000000000000000
 41
2.000000000000000
 42
2.000000000000000
 43
2.000000000000000
 50
180.0000000000000
  0
INSERT
  5
327
100
AcDbEntity
  8
MAIN0
  6
BYBLOCK
 62
0
100
AcDbBlockReference
  2
_OPEN
 10
250.3593809621359
 20
134.8302667104648
 30
0.0000000000000000
 41
2.000000000000000
 42
2.000000000000000
 43
2.000000000000000
 50
0.0000000000000000
  0
LINE
  5
328
100
AcDbEntity
  8
MAIN0
  6
BYBLOCK
 62
0
100
AcDbLine
 10
250.3593809621359
 20
163.4718104406801
 30
0.0000000000000000
 11
250.3593809621359
 21
132.8302667104648
 31
0.0000000000000000
  0
MTEXT
  5
329
100
AcDbEntity
  8
MAIN0
  6
BYBLOCK
 62
0
100
AcDbMText
 10
232.1093809621353
 20
136.8802666627811
 30
0.0000000000000000
 40
3.099999904632568
 41
0.0000000000000000
 71
     5
 72
     1
  1
\A1;36.5
 11
1.000000000000000
 21
0.0000000000000000
 31
0.0000000000000000
  7
STANDARD
  0
ENDBLK
  5
32A
100
AcDbEntity
  8
MAIN0
  6
CONTINUOUS
 62
3
100
AcDbBlockEnd
  0
BLOCK
  5
33A
100
AcDbEntity
  8
MAIN1
  6
CONTINUOUS
 62
3
100
AcDbBlockBegin
  2
*D38
 70
    65
 10
0.0
 20
0.0
 30
0.0
  0
LINE
  5
33B
100
AcDbEntity
  8
MAIN1
  6
BYBLOCK
 62
0
100
AcDbLine
 10
272.7170504190494
 20
324.0718104645215
 30
0.0000000000000000
 11
272.7170504190548
 21
355.7979405324692
 31
0.0000000000000000
  0
LINE
  5
33C
100
AcDbEntity
  8
MAIN1
  6
BYBLOCK
 62
0
100
AcDbLine
 10
270.7170504190545
 20
353.7979405324692
 30
0.0000000000000000
 11
253.2170504190524
 21
353.7979405324692
 31
0.0000000000000000
  0
INSERT
  5
33D
100
AcDbEntity
  8
MAIN1
  6
BYBLOCK
 62
0
100
AcDbBlockReference
  2
_OPEN
 10
272.7170504190545
 20
353.7979405324692
 30
0.0000000000000000
 41
2.000000000000000
 42
2.000000000000000
 43
2.000000000000000
 50
360.0000000000000
  0
INSERT
  5
33E
100
AcDbEntity
  8
MAIN1
  6
BYBLOCK
 62
0
100
AcDbBlockReference
  2
_OPEN
 10
251.2170504190524
 20
353.7979405324692
 30
0.0000000000000000
 41
2.000000000000000
 42
2.000000000000000
 43
2.000000000000000
 50
180.0000000000000
  0
LINE
  5
33F
100
AcDbEntity
  8
MAIN1
  6
BYBLOCK
 62
0
100
AcDbLine
 10
251.2170504190524
 20
329.2536100202469
 30
0.0000000000000000
 11
251.2170504190524
 21
355.7979405324692
 31
0.0000000000000000
  0
MTEXT
  5
340
100
AcDbEntity
  8
MAIN1
  6
BYBLOCK
 62
0
100
AcDbMText
 10
259.5236790989940
 20
355.8479404847855
 30
0.0000000000000000
 40
3.099999904632568
 41
0.0000000000000000
 71
     5
 72
     1
  1
\A1;21.5
 11
1.000000000000000
 21
0.0000000000000000
 31
0.0000000000000000
  7
STANDARD
  0
ENDBLK
  5
341
100
AcDbEntity
  8
MAIN1
  6
CONTINUOUS
 62
3
100
AcDbBlockEnd
  0
BLOCK
  5
343
100
AcDbEntity
  8
MAIN1
  6
CONTINUOUS
 62
3
100
AcDbBlockBegin
  2
D39
 70
    64
 10
0.0
 20
0.0
 30
0.0
  0
LINE
  5
344
100
AcDbEntity
  8
MAIN1
  6
BYBLOCK
 62
0
100
AcDbLine
 10
-236.8521451607041
 20
6.316954677474121
 30
0.0000000000000000
 11
-236.8521451607040
 21
57.99999999999995
 31
0.0000000000000000
  0
LINE
  5
345
100
AcDbEntity
  8
MAIN1
  6
BYBLOCK
 62
0
100
AcDbLine
 10
-237.4521451845459
 20
55.99999999999995
 30
0.0000000000000000
 11
-236.8521451607040
 21
57.99999999999995
 31
0.0000000000000000
  0
LINE
  5
346
100
AcDbEntity
  8
MAIN1
  6
BYBLOCK
 62
0
100
AcDbLine
 10
-236.8521451607040
 20
57.99999999999995
 30
0.0000000000000000
 11
-236.2521451368622
 21
55.99999999999995
 31
0.0000000000000000
  0
LINE
  5
347
100
AcDbEntity
  8
MAIN1
  6
BYBLOCK
 62
0
100
AcDbLine
 10
-317.8844207961657
 20
57.99999999999999
 30
0.0000000000000000
 11
-234.8521451607040
 21
57.99999999999995
 31
0.0000000000000000
  0
MTEXT
  5
348
100
AcDbEntity
  8
MAIN1
  6
BYBLOCK
 62
0
100
AcDbMText
 10
-238.9021451130203
 20
12.76695468045435
 30
0.0000000000000000
 40
3.099999904632568
 41
0.0000000000000000
 71
     5
 72
     1
  1
\A1;\U+2205116
 11
6.123233995736766e-017
 21
1.000000000000000
 31
0.0000000000000000
  7
STANDARD
  0
ENDBLK
  5
349
100
AcDbEntity
  8
MAIN1
  6
CONTINUOUS
 62
3
100
AcDbBlockEnd
  0
BLOCK
  5
383
100
AcDbEntity
  8
MAIN0
  6
BYBLOCK
 62
3
100
AcDbBlockBegin
  2
M0
 70
    64
 10
0.0
 20
0.0
 30
0.0
  0
LINE
  5
384
100
AcDbEntity
  8
MAIN0
  6
BYBLOCK
 62
0
100
AcDbLine
 10
436.8593809621366
 20
102.7718104526007
 30
0.0000000000000000
 11
563.2593824880156
 21
102.7718104526007
 31
0.0000000000000000
  0
LINE
  5
385
100
AcDbEntity
  8
MAIN0
  6
BYBLOCK
 62
0
100
AcDbLine
 10
436.8593809621366
 20
97.77181045260073
 30
0.0000000000000000
 11
563.2593824880156
 21
97.77181045260073
 31
0.0000000000000000
  0
MTEXT
  5
386
100
AcDbEntity
  8
MAIN0
  6
BYBLOCK
 62
0
100
AcDbMText
 10
437.8593809621366
 20
106.3718103572333
 30
0.0000000000000000
 40
3.099999904632568
 41
0.0000000000000000
 71
     1
 72
     1
  1
{\H0.88x;1.}
 11
1.000000000000000
 21
0.0000000000000000
 31
0.0000000000000000
  7
STANDARD
  0
MTEXT
  5
387
100
AcDbEntity
  8
MAIN0
  6
BYBLOCK
 62
0
100
AcDbMText
 10
437.8593809621366
 20
101.3718103572333
 30
0.0000000000000000
 40
3.099999904632568
 41
0.0000000000000000
 71
     1
 72
     1
  1
{\H0.88x;2.}
 11
1.000000000000000
 21
0.0000000000000000
 31
0.0000000000000000
  7
STANDARD
  0
MTEXT
  5
388
100
AcDbEntity
  8
MAIN0
  6
BYBLOCK
 62
0
100
AcDbMText
 10
438.3593809621366
 20
116.7718104526010
 30
0.0000000000000000
 40
6.000000000000000
 41
0.0000000000000000
 71
     1
 72
     1
  1
{\H0.80x;注　記}
 11
1.000000000000000
 21
0.0000000000000000
 31
0.0000000000000000
  7
KNJYOKO
  0
LINE
  5
389
100
AcDbEntity
  8
MAIN0
  6
BYBLOCK
 62
0
100
AcDbLine
 10
456.8593809621366
 20
118.2718104526010
 30
0.0000000000000000
 11
456.8593809621366
 21
109.2718104526010
 31
0.0000000000000000
  0
LINE
  5
38A
100
AcDbEntity
  8
MAIN0
  6
BYBLOCK
 62
0
100
AcDbLine
 10
436.8593809621366
 20
109.2718104526010
 30
0.0000000000000000
 11
456.8593809621366
 21
109.2718104526010
 31
0.0000000000000000
  0
LINE
  5
38B
100
AcDbEntity
  8
MAIN0
  6
BYBLOCK
 62
0
100
AcDbLine
 10
436.8593809621366
 20
118.2718104526010
 30
0.0000000000000000
 11
436.8593809621366
 21
109.2718104526010
 31
0.0000000000000000
  0
LINE
  5
38C
100
AcDbEntity
  8
MAIN0
  6
BYBLOCK
 62
0
100
AcDbLine
 10
436.8593809621366
 20
118.2718104526010
 30
0.0000000000000000
 11
456.8593809621366
 21
118.2718104526010
 31
0.0000000000000000
  0
ENDBLK
  5
38D
100
AcDbEntity
  8
MAIN0
  6
BYBLOCK
 62
3
100
AcDbBlockEnd
  0
BLOCK
  5
38F
100
AcDbEntity
  8
MAIN0
  6
BYBLOCK
 62
3
100
AcDbBlockBegin
  2
M1
 70
    64
 10
0.0
 20
0.0
 30
0.0
  0
LINE
  5
390
100
AcDbEntity
  8
MAIN0
  6
BYBLOCK
 62
0
100
AcDbLine
 10
436.8593809621366
 20
72.77181045260073
 30
0.0000000000000000
 11
563.2593824880155
 21
72.77181045260073
 31
0.0000000000000000
  0
LINE
  5
391
100
AcDbEntity
  8
MAIN0
  6
BYBLOCK
 62
0
100
AcDbLine
 10
436.8593809621366
 20
67.77181045260073
 30
0.0000000000000000
 11
563.2593824880156
 21
67.77181045260073
 31
0.0000000000000000
  0
LINE
  5
392
100
AcDbEntity
  8
MAIN0
  6
BYBLOCK
 62
0
100
AcDbLine
 10
436.8593809621366
 20
62.77181045260079
 30
0.0000000000000000
 11
563.2593824880155
 21
62.77181045260079
 31
0.0000000000000000
  0
LINE
  5
393
100
AcDbEntity
  8
MAIN0
  6
BYBLOCK
 62
0
100
AcDbLine
 10
436.8593809621366
 20
57.77181045260079
 30
0.0000000000000000
 11
563.2593824880156
 21
57.77181045260079
 31
0.0000000000000000
  0
MTEXT
  5
394
100
AcDbEntity
  8
MAIN0
  6
BYBLOCK
 62
0
100
AcDbMText
 10
437.8593809621366
 20
76.37181035723330
 30
0.0000000000000000
 40
3.099999904632568
 41
0.0000000000000000
 71
     1
 72
     1
  1
{\H0.88x;1.}
 11
1.000000000000000
 21
0.0000000000000000
 31
0.0000000000000000
  7
STANDARD
  0
MTEXT
  5
395
100
AcDbEntity
  8
MAIN0
  6
BYBLOCK
 62
0
100
AcDbMText
 10
437.8593809621366
 20
66.37181035723336
 30
0.0000000000000000
 40
3.099999904632568
 41
0.0000000000000000
 71
     1
 72
     1
  1
{\H0.88x;2.}
 11
1.000000000000000
 21
0.0000000000000000
 31
0.0000000000000000
  7
STANDARD
  0
MTEXT
  5
396
100
AcDbEntity
  8
MAIN0
  6
BYBLOCK
 62
0
100
AcDbMText
 10
438.1437846318614
 20
85.42318656220544
 30
0.0000000000000000
 40
3.302752256393433
 41
0.0000000000000000
 71
     1
 72
     1
  1
{\H0.92x;NOTICE}
 11
1.000000000000000
 21
0.0000000000000000
 31
0.0000000000000000
  7
STANDARD
  0
LINE
  5
397
100
AcDbEntity
  8
MAIN0
  6
BYBLOCK
 62
0
100
AcDbLine
 10
456.8593809621366
 20
88.27181045260102
 30
0.0000000000000000
 11
456.8593809621366
 21
79.27181045260102
 31
0.0000000000000000
  0
LINE
  5
398
100
AcDbEntity
  8
MAIN0
  6
BYBLOCK
 62
0
100
AcDbLine
 10
436.8593809621366
 20
79.27181045260102
 30
0.0000000000000000
 11
456.8593809621366
 21
79.27181045260102
 31
0.0000000000000000
  0
LINE
  5
399
100
AcDbEntity
  8
MAIN0
  6
BYBLOCK
 62
0
100
AcDbLine
 10
436.8593809621366
 20
88.27181045260102
 30
0.0000000000000000
 11
436.8593809621366
 21
79.27181045260102
 31
0.0000000000000000
  0
LINE
  5
39A
100
AcDbEntity
  8
MAIN0
  6
BYBLOCK
 62
0
100
AcDbLine
 10
436.8593809621366
 20
88.27181045260102
 30
0.0000000000000000
 11
456.8593809621366
 21
88.27181045260102
 31
0.0000000000000000
  0
ENDBLK
  5
39B
100
AcDbEntity
  8
MAIN0
  6
BYBLOCK
 62
3
100
AcDbBlockEnd
  0
BLOCK
  5
3A9
100
AcDbEntity
  8
MAIN0
  6
BYBLOCK
 62
3
100
AcDbBlockBegin
  2
M2
 70
    64
 10
0.0
 20
0.0
 30
0.0
  0
LINE
  5
3AA
100
AcDbEntity
  8
MAIN0
  6
BYBLOCK
 62
0
100
AcDbLine
 10
35.80472196936503
 20
150.8783585589857
 30
0.0000000000000000
 11
112.8047219693650
 21
150.8783585589857
 31
0.0000000000000000
  0
LINE
  5
3AB
100
AcDbEntity
  8
MAIN0
  6
BYBLOCK
 62
0
100
AcDbLine
 10
35.80472196936503
 20
140.8783585589857
 30
0.0000000000000000
 11
112.8047219693650
 21
140.8783585589857
 31
0.0000000000000000
  0
LINE
  5
3AC
100
AcDbEntity
  8
MAIN0
  6
BYBLOCK
 62
0
100
AcDbLine
 10
35.80472196936503
 20
55.87835855898572
 30
0.0000000000000000
 11
35.80472196936503
 21
150.8783585589857
 31
0.0000000000000000
  0
LINE
  5
3AD
100
AcDbEntity
  8
MAIN0
  6
BYBLOCK
 62
0
100
AcDbLine
 10
35.80472196936503
 20
133.8783585589859
 30
0.0000000000000000
 11
112.8047219693650
 21
133.8783585589859
 31
0.0000000000000000
  0
LINE
  5
3AE
100
AcDbEntity
  8
MAIN0
  6
BYBLOCK
 62
0
100
AcDbLine
 10
35.80472196936503
 20
126.8783585589859
 30
0.0000000000000000
 11
112.8047219693650
 21
126.8783585589859
 31
0.0000000000000000
  0
LINE
  5
3AF
100
AcDbEntity
  8
MAIN0
  6
BYBLOCK
 62
0
100
AcDbLine
 10
35.80472196936503
 20
116.8783585589858
 30
0.0000000000000000
 11
112.8047219693650
 21
116.8783585589858
 31
0.0000000000000000
  0
LINE
  5
3B0
100
AcDbEntity
  8
MAIN0
  6
BYBLOCK
 62
0
100
AcDbLine
 10
35.80472196936503
 20
106.8783585589858
 30
0.0000000000000000
 11
112.8047219693650
 21
106.8783585589858
 31
0.0000000000000000
  0
LINE
  5
3B1
100
AcDbEntity
  8
MAIN0
  6
BYBLOCK
 62
0
100
AcDbLine
 10
35.80472196936503
 20
99.87835855898578
 30
0.0000000000000000
 11
112.8047219693650
 21
99.87835855898578
 31
0.0000000000000000
  0
LINE
  5
3B2
100
AcDbEntity
  8
MAIN0
  6
BYBLOCK
 62
0
100
AcDbLine
 10
35.80472196936503
 20
92.87835855898578
 30
0.0000000000000000
 11
112.8047219693650
 21
92.87835855898578
 31
0.0000000000000000
  0
LINE
  5
3B3
100
AcDbEntity
  8
MAIN0
  6
BYBLOCK
 62
0
100
AcDbLine
 10
35.80472196936503
 20
82.87835855898572
 30
0.0000000000000000
 11
112.8047219693650
 21
82.87835855898572
 31
0.0000000000000000
  0
LINE
  5
3B4
100
AcDbEntity
  8
MAIN0
  6
BYBLOCK
 62
0
100
AcDbLine
 10
35.80472196936503
 20
72.87835855898572
 30
0.0000000000000000
 11
112.8047219693650
 21
72.87835855898572
 31
0.0000000000000000
  0
LINE
  5
3B5
100
AcDbEntity
  8
MAIN0
  6
BYBLOCK
 62
0
100
AcDbLine
 10
35.80472196936503
 20
65.87835855898572
 30
0.0000000000000000
 11
112.8047219693650
 21
65.87835855898572
 31
0.0000000000000000
  0
LINE
  5
3B6
100
AcDbEntity
  8
MAIN0
  6
BYBLOCK
 62
0
100
AcDbLine
 10
35.80472196936501
 20
55.87835855898572
 30
0.0000000000000000
 11
112.8047219693650
 21
55.87835855898550
 31
0.0000000000000000
  0
LINE
  5
3B7
100
AcDbEntity
  8
MAIN0
  6
BYBLOCK
 62
0
100
AcDbLine
 10
82.80472196936492
 20
55.87835855898561
 30
0.0000000000000000
 11
82.80472196936492
 21
140.8783585589857
 31
0.0000000000000000
  0
LINE
  5
3B8
100
AcDbEntity
  8
MAIN0
  6
BYBLOCK
 62
0
100
AcDbLine
 10
112.8047219693650
 20
55.87835855898550
 30
0.0000000000000000
 11
112.8047219693650
 21
150.8783585589857
 31
0.0000000000000000
  0
MTEXT
  5
3B9
100
AcDbEntity
  8
MAIN0
  6
BYBLOCK
 62
0
100
AcDbMText
 10
38.87823042348023
 20
137.1416530189939
 30
0.0000000000000000
 40
2.399999618530273
 41
0.0000000000000000
 71
     1
 72
     1
  1
{\H0.93x;プランジャストロ－ク}
 11
1.000000000000000
 21
0.0000000000000000
 31
0.0000000000000000
  7
KNJYOKO
  0
MTEXT
  5
3BA
100
AcDbEntity
  8
MAIN0
  6
BYBLOCK
 62
0
100
AcDbMText
 10
38.87823042348025
 20
130.1416530189942
 30
0.0000000000000000
 40
2.399999618530273
 41
0.0000000000000000
 71
     1
 72
     1
  1
{\H0.94x;ジョーストローク(直径で)}
 11
1.000000000000000
 21
0.0000000000000000
 31
0.0000000000000000
  7
KNJYOKO
  0
MTEXT
  5
3BB
100
AcDbEntity
  8
MAIN0
  6
BYBLOCK
 62
0
100
AcDbMText
 10
38.87823042348025
 20
121.1416530189942
 30
0.0000000000000000
 40
2.399999618530273
 41
0.0000000000000000
 71
     1
 72
     1
  1
{\H0.93x;許容最大入力　}
 11
1.000000000000000
 21
0.0000000000000000
 31
0.0000000000000000
  7
KNJYOKO
  0
MTEXT
  5
3BC
100
AcDbEntity
  8
MAIN0
  6
BYBLOCK
 62
0
100
AcDbMText
 10
38.87823042348024
 20
113.1416530189941
 30
0.0000000000000000
 40
2.399999618530273
 41
0.0000000000000000
 71
     1
 72
     1
  1
{\H0.93x;最大静的把握力　　}
 11
1.000000000000000
 21
0.0000000000000000
 31
0.0000000000000000
  7
KNJYOKO
  0
MTEXT
  5
3BD
100
AcDbEntity
  8
MAIN0
  6
BYBLOCK
 62
0
100
AcDbMText
 10
38.87823042348023
 20
103.1416530189941
 30
0.0000000000000000
 40
2.399999618530273
 41
0.0000000000000000
 71
     1
 72
     1
  1
{\H0.93x;許容最高回転速度　}
 11
1.000000000000000
 21
0.0000000000000000
 31
0.0000000000000000
  7
KNJYOKO
  0
MTEXT
  5
3BE
100
AcDbEntity
  8
MAIN0
  6
BYBLOCK
 62
0
100
AcDbMText
 10
38.87823042348023
 20
96.14165301899405
 30
0.0000000000000000
 40
2.399999618530273
 41
0.0000000000000000
 71
     1
 72
     1
  1
{\H0.94x;質量（標準ソフトジョー付）\P}
 11
1.000000000000000
 21
0.0000000000000000
 31
0.0000000000000000
  7
KNJYOKO
  0
MTEXT
  5
3BF
100
AcDbEntity
  8
MAIN0
  6
BYBLOCK
 62
0
100
AcDbMText
 10
38.95226611518383
 20
90.18726968760612
 30
0.0000000000000000
 40
2.499999046325684
 41
0.0000000000000000
 71
     1
 72
     1
  1
{\H0.75x;MOMENT OF INERTIA\P慣性モーメント}
 11
1.000000000000000
 21
0.0000000000000000
 31
0.0000000000000000
  7
KNJYOKO
  0
MTEXT
  5
3C0
100
AcDbEntity
  8
MAIN0
  6
BYBLOCK
 62
0
100
AcDbMText
 10
38.87823042348022
 20
69.14165301899399
 30
0.0000000000000000
 40
2.399999618530273
 41
0.0000000000000000
 71
     1
 72
     1
  1
{\H0.93x;使用シリンダ}
 11
1.000000000000000
 21
0.0000000000000000
 31
0.0000000000000000
  7
KNJYOKO
  0
MTEXT
  5
3C1
100
AcDbEntity
  8
MAIN0
  6
BYBLOCK
 62
0
100
AcDbMText
 10
38.68829677902934
 20
60.25884855727132
 30
0.0000000000000000
 40
2.399999618530273
 41
0.0000000000000000
 71
     1
 72
     1
  1
{\H0.93x;許容最大油圧力}
 11
1.000000000000000
 21
0.0000000000000000
 31
0.0000000000000000
  7
KNJYOKO
  0
MTEXT
  5
3C2
100
AcDbEntity
  8
MAIN0
  6
BYBLOCK
 62
0
100
AcDbMText
 10
97.80472196936503
 20
137.6783577960462
 30
0.0000000000000000
 40
2.799999237060547
 41
0.0000000000000000
 71
     1
 72
     1
  1
{\H0.58x;　　　　ｍｍ}
 11
1.000000000000000
 21
0.0000000000000000
 31
0.0000000000000000
  7
KNJYOKO
  0
MTEXT
  5
3C3
100
AcDbEntity
  8
MAIN0
  6
BYBLOCK
 62
0
100
AcDbMText
 10
97.80472196936503
 20
130.6783577960462
 30
0.0000000000000000
 40
2.799999237060547
 41
0.0000000000000000
 71
     1
 72
     1
  1
{\H0.58x;　　　　ｍｍ}
 11
1.000000000000000
 21
0.0000000000000000
 31
0.0000000000000000
  7
KNJYOKO
  0
MTEXT
  5
3C4
100
AcDbEntity
  8
MAIN0
  6
BYBLOCK
 62
0
100
AcDbMText
 10
97.80472196936503
 20
96.67835779604610
 30
0.0000000000000000
 40
2.799999237060547
 41
0.0000000000000000
 71
     1
 72
     1
  1
{\H0.58x;　　　　ｋｇ}
 11
1.000000000000000
 21
0.0000000000000000
 31
0.0000000000000000
  7
KNJYOKO
  0
MTEXT
  5
3C5
100
AcDbEntity
  8
MAIN0
  6
BYBLOCK
 62
0
100
AcDbMText
 10
97.80472196936503
 20
103.6783577960461
 30
0.0000000000000000
 40
2.799999237060547
 41
0.0000000000000000
 71
     1
 72
     1
  1
{\H0.58x;　　ｍｉｎ}
 11
1.000000000000000
 21
0.0000000000000000
 31
0.0000000000000000
  7
KNJYOKO
  0
MTEXT
  5
3C6
100
AcDbEntity
  8
MAIN0
  6
BYBLOCK
 62
0
100
AcDbMText
 10
62.67616266533426
 20
145.1939476040995
 30
0.0000000000000000
 40
3.100000381469727
 41
0.0000000000000000
 71
     1
 72
     1
  1
{\H0.93x;仕　　　様}
 11
1.000000000000000
 21
0.0000000000000000
 31
0.0000000000000000
  7
KNJYOKO
  0
MTEXT
  5
3C7
100
AcDbEntity
  8
MAIN0
  6
BYBLOCK
 62
0
100
AcDbMText
 10
96.80472196936503
 20
120.1783577960461
 30
0.0000000000000000
 40
2.799999237060547
 41
0.0000000000000000
 71
     1
 72
     1
  1
{\H0.60x;　　　ｋｇｆ)}
 11
1.000000000000000
 21
0.0000000000000000
 31
0.0000000000000000
  7
KNJYOKO
  0
MTEXT
  5
3C8
100
AcDbEntity
  8
MAIN0
  6
BYBLOCK
 62
0
100
AcDbMText
 10
84.80472196936503
 20
120.1783577960461
 30
0.0000000000000000
 40
2.799999237060547
 41
0.0000000000000000
 71
     1
 72
     1
  1
{\H0.60x;(}
 11
1.000000000000000
 21
0.0000000000000000
 31
0.0000000000000000
  7
STANDARD
  0
MTEXT
  5
3C9
100
AcDbEntity
  8
MAIN0
  6
BYBLOCK
 62
0
100
AcDbMText
 10
97.80472196936503
 20
124.1783577960462
 30
0.0000000000000000
 40
2.799999237060547
 41
0.0000000000000000
 71
     1
 72
     1
  1
{\H0.58x;　　　　ｋＮ}
 11
1.000000000000000
 21
0.0000000000000000
 31
0.0000000000000000
  7
KNJYOKO
  0
MTEXT
  5
3CA
100
AcDbEntity
  8
MAIN0
  6
BYBLOCK
 62
0
100
AcDbMText
 10
96.80472196936503
 20
110.1783577960461
 30
0.0000000000000000
 40
2.799999237060547
 41
0.0000000000000000
 71
     1
 72
     1
  1
{\H0.60x;　　　ｋｇｆ)}
 11
1.000000000000000
 21
0.0000000000000000
 31
0.0000000000000000
  7
KNJYOKO
  0
MTEXT
  5
3CB
100
AcDbEntity
  8
MAIN0
  6
BYBLOCK
 62
0
100
AcDbMText
 10
84.80472196936503
 20
110.1783577960461
 30
0.0000000000000000
 40
2.799999237060547
 41
0.0000000000000000
 71
     1
 72
     1
  1
{\H0.60x;(}
 11
1.000000000000000
 21
0.0000000000000000
 31
0.0000000000000000
  7
STANDARD
  0
MTEXT
  5
3CC
100
AcDbEntity
  8
MAIN0
  6
BYBLOCK
 62
0
100
AcDbMText
 10
97.40472282767195
 20
86.47835894045548
 30
0.0000000000000000
 40
2.799999237060547
 41
0.0000000000000000
 71
     7
 72
     1
  1
　　　Ｋg・ｍ
 11
1.000000000000000
 21
0.0000000000000000
 31
0.0000000000000000
  7
KNJYOKO
  0
MTEXT
  5
3CD
100
AcDbEntity
  8
MAIN0
  6
BYBLOCK
 62
0
100
AcDbMText
 10
111.4047228276720
 20
87.87835855898575
 30
0.0000000000000000
 40
1.399999618530273
 41
0.0000000000000000
 71
     7
 72
     1
  1
2
 11
1.000000000000000
 21
0.0000000000000000
 31
0.0000000000000000
  7
STANDARD
  0
MTEXT
  5
3CE
100
AcDbEntity
  8
MAIN0
  6
BYBLOCK
 62
0
100
AcDbMText
 10
96.80472196936503
 20
59.17835779604593
 30
0.0000000000000000
 40
2.799999237060547
 41
0.0000000000000000
 71
     1
 72
     1
  1
{\H0.62x;ｋｇｆ／ｃｍ )}
 11
1.000000000000000
 21
0.0000000000000000
 31
0.0000000000000000
  7
KNJYOKO
  0
MTEXT
  5
3CF
100
AcDbEntity
  8
MAIN0
  6
BYBLOCK
 62
0
100
AcDbMText
 10
108.8580178027308
 20
59.58876258720790
 30
0.0000000000000000
 40
2.000000000000000
 41
0.0000000000000000
 71
     1
 72
     1
  1
{\H0.81x;2}
 11
1.000000000000000
 21
0.0000000000000000
 31
0.0000000000000000
  7
STANDARD
  0
MTEXT
  5
3D0
100
AcDbEntity
  8
MAIN0
  6
BYBLOCK
 62
0
100
AcDbMText
 10
84.80472196936503
 20
59.17835779604593
 30
0.0000000000000000
 40
2.799999237060547
 41
0.0000000000000000
 71
     1
 72
     1
  1
{\H0.60x;(}
 11
1.000000000000000
 21
0.0000000000000000
 31
0.0000000000000000
  7
STANDARD
  0
MTEXT
  5
3D1
100
AcDbEntity
  8
MAIN0
  6
BYBLOCK
 62
0
100
AcDbMText
 10
97.80472196936503
 20
63.17835779604593
 30
0.0000000000000000
 40
2.799999237060547
 41
0.0000000000000000
 71
     1
 72
     1
  1
{\H0.58x;　　　ＭＰａ}
 11
1.000000000000000
 21
0.0000000000000000
 31
0.0000000000000000
  7
KNJYOKO
  0
MTEXT
  5
3D2
100
AcDbEntity
  8
MAIN0
  6
BYBLOCK
 62
0
100
AcDbMText
 10
97.80472196936503
 20
114.1783577960461
 30
0.0000000000000000
 40
2.799999237060547
 41
0.0000000000000000
 71
     1
 72
     1
  1
{\H0.58x;　　　　ｋＮ}
 11
1.000000000000000
 21
0.0000000000000000
 31
0.0000000000000000
  7
KNJYOKO
  0
MTEXT
  5
3D3
100
AcDbEntity
  8
MAIN0
  6
BYBLOCK
 62
0
100
AcDbMText
 10
107.9593902176850
 20
104.3479023489409
 30
0.0000000000000000
 40
2.000000000000000
 41
0.0000000000000000
 71
     1
 72
     1
  1
{\H0.88x;-1}
 11
1.000000000000000
 21
0.0000000000000000
 31
0.0000000000000000
  7
STANDARD
  0
MTEXT
  5
3D4
100
AcDbEntity
  8
MAIN0
  6
BYBLOCK
 62
0
100
AcDbMText
 10
38.87823042348023
 20
140.2416524467894
 30
0.0000000000000000
 40
2.499999046325684
 41
0.0000000000000000
 71
     1
 72
     1
  1
{\H0.75x;PLUNGER STROKE}
 11
1.000000000000000
 21
0.0000000000000000
 31
0.0000000000000000
  7
STANDARD
  0
MTEXT
  5
3D5
100
AcDbEntity
  8
MAIN0
  6
BYBLOCK
 62
0
100
AcDbMText
 10
38.87823042348025
 20
133.2416524467896
 30
0.0000000000000000
 40
2.499999046325684
 41
0.0000000000000000
 71
     1
 72
     1
  1
{\H0.75x;JAW STROKE (IN DIA)}
 11
1.000000000000000
 21
0.0000000000000000
 31
0.0000000000000000
  7
STANDARD
  0
MTEXT
  5
3D6
100
AcDbEntity
  8
MAIN0
  6
BYBLOCK
 62
0
100
AcDbMText
 10
38.87823042348025
 20
124.2416534004639
 30
0.0000000000000000
 40
2.500000000000000
 41
0.0000000000000000
 71
     1
 72
     1
  1
{\H0.63x;MAX PERMISSIBLE INPUT FORCE}
 11
1.000000000000000
 21
0.0000000000000000
 31
0.0000000000000000
  7
STANDARD
  0
MTEXT
  5
3D7
100
AcDbEntity
  8
MAIN0
  6
BYBLOCK
 62
0
100
AcDbMText
 10
38.87823042348024
 20
116.2416534004638
 30
0.0000000000000000
 40
2.500000000000000
 41
0.0000000000000000
 71
     1
 72
     1
  1
{\H0.63x;MAX STATIC GRIPPING FORCE}
 11
1.000000000000000
 21
0.0000000000000000
 31
0.0000000000000000
  7
STANDARD
  0
MTEXT
  5
3D8
100
AcDbEntity
  8
MAIN0
  6
BYBLOCK
 62
0
100
AcDbMText
 10
38.87823042348023
 20
106.2416524467895
 30
0.0000000000000000
 40
2.499999046325684
 41
0.0000000000000000
 71
     1
 72
     1
  1
{\H0.75x;MAX PERMISSIBLE SPEED}
 11
1.000000000000000
 21
0.0000000000000000
 31
0.0000000000000000
  7
STANDARD
  0
MTEXT
  5
3D9
100
AcDbEntity
  8
MAIN0
  6
BYBLOCK
 62
0
100
AcDbMText
 10
38.87823042348023
 20
99.24165244678946
 30
0.0000000000000000
 40
2.499999046325684
 41
0.0000000000000000
 71
     1
 72
     1
  1
{\H0.75x;MASS(WITH STD SOFT JAWS)}
 11
1.000000000000000
 21
0.0000000000000000
 31
0.0000000000000000
  7
STANDARD
  0
MTEXT
  5
3DA
100
AcDbEntity
  8
MAIN0
  6
BYBLOCK
 62
0
100
AcDbMText
 10
38.95226611518383
 20
72.76535895376239
 30
0.0000000000000000
 40
2.499999046325684
 41
0.0000000000000000
 71
     1
 72
     1
  1
{\H0.75x;OPERATING CYLINDER}
 11
1.000000000000000
 21
0.0000000000000000
 31
0.0000000000000000
  7
STANDARD
  0
MTEXT
  5
3DB
100
AcDbEntity
  8
MAIN0
  6
BYBLOCK
 62
0
100
AcDbMText
 10
38.55631211095211
 20
63.92241987243760
 30
0.0000000000000000
 40
2.500000000000000
 41
0.0000000000000000
 71
     1
 72
     1
  1
{\H0.63x;MAX PERMISSIBLE OIL PRESS}
 11
1.000000000000000
 21
0.0000000000000000
 31
0.0000000000000000
  7
STANDARD
  0
MTEXT
  5
3DC
100
AcDbEntity
  8
MAIN0
  6
BYBLOCK
 62
0
100
AcDbMText
 10
52.87296957631079
 20
149.2384831115678
 30
0.0000000000000000
 40
3.100000381469727
 41
0.0000000000000000
 71
     1
 72
     1
  1
{\H0.94x;SPECIFICATIONS}
 11
1.000000000000000
 21
0.0000000000000000
 31
0.0000000000000000
  7
STANDARD
  0
ENDBLK
  5
3DD
100
AcDbEntity
  8
MAIN0
  6
BYBLOCK
 62
3
100
AcDbBlockEnd
  0
BLOCK
  5
3DF
100
AcDbEntity
  8
MAIN0
  6
CONTINUOUS
 62
3
100
AcDbBlockBegin
  2
*D40
 70
    65
 10
0.0
 20
0.0
 30
0.0
  0
LINE
  5
3E0
100
AcDbEntity
  8
MAIN0
  6
BYBLOCK
 62
0
100
AcDbLine
 10
300.4244504190780
 20
274.1602820553021
 30
0.0000000000000000
 11
300.4244504190780
 21
222.3940215867793
 31
0.0000000000000000
  0
LINE
  5
3E1
100
AcDbEntity
  8
MAIN0
  6
BYBLOCK
 62
0
100
AcDbLine
 10
300.4244504190780
 20
224.3940215867793
 30
0.0000000000000000
 11
295.3593067884252
 21
224.3940215867793
 31
0.0000000000000000
  0
INSERT
  5
3E2
100
AcDbEntity
  8
MAIN0
  6
BYBLOCK
 62
0
100
AcDbBlockReference
  2
_OPEN
 10
300.4244504190780
 20
224.3940215867793
 30
0.0000000000000000
 41
2.000000000000000
 42
2.000000000000000
 43
2.000000000000000
 50
180.0000000000000
  0
INSERT
  5
3E3
100
AcDbEntity
  8
MAIN0
  6
BYBLOCK
 62
0
100
AcDbBlockReference
  2
_OPEN
 10
295.3593067884252
 20
224.3940215867793
 30
0.0000000000000000
 41
2.000000000000000
 42
2.000000000000000
 43
2.000000000000000
 50
360.0000000000000
  0
LINE
  5
3E4
100
AcDbEntity
  8
MAIN0
  6
BYBLOCK
 62
0
100
AcDbLine
 10
302.4244504190780
 20
224.3940215867793
 30
0.0000000000000000
 11
317.8306679941512
 21
224.3940215867793
 31
0.0000000000000000
  0
LINE
  5
3E5
100
AcDbEntity
  8
MAIN0
  6
BYBLOCK
 62
0
100
AcDbLine
 10
293.3593067884252
 20
224.3940215867793
 30
0.0000000000000000
 11
292.3593067884252
 21
224.3940215867793
 31
0.0000000000000000
  0
LINE
  5
3E6
100
AcDbEntity
  8
MAIN0
  6
BYBLOCK
 62
0
100
AcDbLine
 10
295.3593067884252
 20
251.4718104406800
 30
0.0000000000000000
 11
295.3593067884252
 21
222.3940215867793
 31
0.0000000000000000
  0
MTEXT
  5
3E7
100
AcDbEntity
  8
MAIN0
  6
BYBLOCK
 62
0
100
AcDbMText
 10
310.9806670763379
 20
226.4440215390955
 30
0.0000000000000000
 40
3.099999904632568
 41
0.0000000000000000
 71
     5
 72
     1
  1
\A1;MAX 5.1
 11
1.000000000000000
 21
0.0000000000000000
 31
0.0000000000000000
  7
STANDARD
  0
ENDBLK
  5
3E8
100
AcDbEntity
  8
MAIN0
  6
CONTINUOUS
 62
3
100
AcDbBlockEnd
  0
BLOCK
  5
3EA
100
AcDbEntity
  8
MAIN0
  6
CONTINUOUS
 62
3
100
AcDbBlockBegin
  2
*D41
 70
    65
 10
0.0
 20
0.0
 30
0.0
  0
LINE
  5
3EB
100
AcDbEntity
  8
MAIN0
  6
BYBLOCK
 62
0
100
AcDbLine
 10
295.7170504190449
 20
345.0718104645220
 30
0.0000000000000000
 11
295.7170504190449
 21
370.4095578301725
 31
0.0000000000000000
  0
LINE
  5
3EC
100
AcDbEntity
  8
MAIN0
  6
BYBLOCK
 62
0
100
AcDbLine
 10
293.7170504190449
 20
368.4095578301725
 30
0.0000000000000000
 11
274.7170504190449
 21
368.4095578301725
 31
0.0000000000000000
  0
INSERT
  5
3ED
100
AcDbEntity
  8
MAIN0
  6
BYBLOCK
 62
0
100
AcDbBlockReference
  2
_OPEN
 10
295.7170504190449
 20
368.4095578301725
 30
0.0000000000000000
 41
2.000000000000000
 42
2.000000000000000
 43
2.000000000000000
 50
360.0000000000000
  0
INSERT
  5
3EE
100
AcDbEntity
  8
MAIN0
  6
BYBLOCK
 62
0
100
AcDbBlockReference
  2
_OPEN
 10
272.7170504190449
 20
368.4095578301725
 30
0.0000000000000000
 41
2.000000000000000
 42
2.000000000000000
 43
2.000000000000000
 50
180.0000000000000
  0
LINE
  5
3EF
100
AcDbEntity
  8
MAIN0
  6
BYBLOCK
 62
0
100
AcDbLine
 10
272.7170504190449
 20
323.0930575534311
 30
0.0000000000000000
 11
272.7170504190449
 21
370.4095578301725
 31
0.0000000000000000
  0
MTEXT
  5
3F0
100
AcDbEntity
  8
MAIN0
  6
BYBLOCK
 62
0
100
AcDbMText
 10
284.2170504190449
 20
370.4595577824888
 30
0.0000000000000000
 40
3.099999904632568
 41
0.0000000000000000
 71
     5
 72
     1
  1
\A1;23
 11
1.000000000000000
 21
0.0000000000000000
 31
0.0000000000000000
  7
STANDARD
  0
ENDBLK
  5
3F1
100
AcDbEntity
  8
MAIN0
  6
CONTINUOUS
 62
3
100
AcDbBlockEnd
  0
BLOCK
  5
3F3
100
AcDbEntity
  8
MAIN0
  6
CONTINUOUS
 62
3
100
AcDbBlockBegin
  2
*D42
 70
    65
 10
0.0
 20
0.0
 30
0.0
  0
LINE
  5
3F4
100
AcDbEntity
  8
MAIN0
  6
BYBLOCK
 62
0
100
AcDbLine
 10
272.7170504190449
 20
323.0930575534311
 30
0.0000000000000000
 11
272.7170504190449
 21
370.4095578301725
 31
0.0000000000000000
  0
LINE
  5
3F5
100
AcDbEntity
  8
MAIN0
  6
BYBLOCK
 62
0
100
AcDbLine
 10
270.7170504190449
 20
368.4095578301725
 30
0.0000000000000000
 11
267.7170504190524
 21
368.4095578301725
 31
0.0000000000000000
  0
INSERT
  5
3F6
100
AcDbEntity
  8
MAIN0
  6
BYBLOCK
 62
0
100
AcDbBlockReference
  2
_OPEN
 10
272.7170504190449
 20
368.4095578301725
 30
0.0000000000000000
 41
2.000000000000000
 42
2.000000000000000
 43
2.000000000000000
 50
360.0000000000000
  0
INSERT
  5
3F7
100
AcDbEntity
  8
MAIN0
  6
BYBLOCK
 62
0
100
AcDbBlockReference
  2
_OPEN
 10
265.7170504190524
 20
368.4095578301725
 30
0.0000000000000000
 41
2.000000000000000
 42
2.000000000000000
 43
2.000000000000000
 50
180.0000000000000
  0
LINE
  5
3F8
100
AcDbEntity
  8
MAIN0
  6
BYBLOCK
 62
0
100
AcDbLine
 10
265.7170504190524
 20
325.6383539790219
 30
0.0000000000000000
 11
265.7170504190524
 21
370.4095578301725
 31
0.0000000000000000
  0
MTEXT
  5
3F9
100
AcDbEntity
  8
MAIN0
  6
BYBLOCK
 62
0
100
AcDbMText
 10
269.2170504190487
 20
370.4595577824888
 30
0.0000000000000000
 40
3.099999904632568
 41
0.0000000000000000
 71
     5
 72
     1
  1
\A1;7
 11
1.000000000000000
 21
0.0000000000000000
 31
0.0000000000000000
  7
STANDARD
  0
ENDBLK
  5
3FA
100
AcDbEntity
  8
MAIN0
  6
CONTINUOUS
 62
3
100
AcDbBlockEnd
  0
BLOCK
  5
3FD
100
AcDbEntity
  8
MAIN0
  6
CONTINUOUS
 62
3
100
AcDbBlockBegin
  2
*D43
 70
    65
 10
0.0
 20
0.0
 30
0.0
  0
LINE
  5
3FE
100
AcDbEntity
  8
MAIN0
  6
BYBLOCK
 62
0
100
AcDbLine
 10
295.7170504190780
 20
275.3339686958856
 30
0.0000000000000000
 11
295.7170504190780
 21
232.3397414162620
 31
0.0000000000000000
  0
LINE
  5
3FF
100
AcDbEntity
  8
MAIN0
  6
BYBLOCK
 62
0
100
AcDbLine
 10
295.7170504190780
 20
234.3397414162620
 30
0.0000000000000000
 11
295.3593067884252
 21
234.3397414162620
 31
0.0000000000000000
  0
INSERT
  5
400
100
AcDbEntity
  8
MAIN0
  6
BYBLOCK
 62
0
100
AcDbBlockReference
  2
_OPEN
 10
295.7170504190780
 20
234.3397414162620
 30
0.0000000000000000
 41
2.000000000000000
 42
2.000000000000000
 43
2.000000000000000
 50
180.0000000000000
  0
INSERT
  5
401
100
AcDbEntity
  8
MAIN0
  6
BYBLOCK
 62
0
100
AcDbBlockReference
  2
_OPEN
 10
295.3593067884252
 20
234.3397414162620
 30
0.0000000000000000
 41
2.000000000000000
 42
2.000000000000000
 43
2.000000000000000
 50
360.0000000000000
  0
LINE
  5
402
100
AcDbEntity
  8
MAIN0
  6
BYBLOCK
 62
0
100
AcDbLine
 10
297.7170504190780
 20
234.3397414162620
 30
0.0000000000000000
 11
298.7170504190780
 21
234.3397414162620
 31
0.0000000000000000
  0
LINE
  5
403
100
AcDbEntity
  8
MAIN0
  6
BYBLOCK
 62
0
100
AcDbLine
 10
293.3593067884252
 20
234.3397414162620
 30
0.0000000000000000
 11
285.2836346387670
 21
234.3397414162620
 31
0.0000000000000000
  0
LINE
  5
404
100
AcDbEntity
  8
MAIN0
  6
BYBLOCK
 62
0
100
AcDbLine
 10
295.3593067884252
 20
251.4718104406800
 30
0.0000000000000000
 11
295.3593067884252
 21
232.3397414162620
 31
0.0000000000000000
  0
MTEXT
  5
405
100
AcDbEntity
  8
MAIN0
  6
BYBLOCK
 62
0
100
AcDbMText
 10
287.9336347731536
 20
236.3897413685783
 30
0.0000000000000000
 40
3.099999904632568
 41
0.0000000000000000
 71
     5
 72
     1
  1
\A1;0.4
 11
1.000000000000000
 21
0.0000000000000000
 31
0.0000000000000000
  7
STANDARD
  0
ENDBLK
  5
406
100
AcDbEntity
  8
MAIN0
  6
CONTINUOUS
 62
3
100
AcDbBlockEnd
  0
ENDSEC
  0
SECTION
  2
ENTITIES
  0
LINE
  5
46
100
AcDbEntity
  8
MAIN0
  6
CONTINUOUS
 62
3
100
AcDbLine
 10
204.8593067884251
 20
254.0718104526010
 30
0.0000000000000000
 11
204.8593067884251
 21
282.4718104526010
 31
0.0000000000000000
  0
LINE
  5
47
100
AcDbEntity
  8
MAIN0
  6
CONTINUOUS
 62
3
100
AcDbLine
 10
148.3593809621358
 20
288.2718104526009
 30
0.0000000000000000
 11
180.3591996056204
 21
288.2718104526009
 31
0.0000000000000000
  0
LINE
  5
48
100
AcDbEntity
  8
MAIN0
  6
CONTINUOUS
 62
3
100
AcDbLine
 10
148.3593809621359
 20
288.2718104526010
 30
0.0000000000000000
 11
147.3593809621359
 21
287.2718104526010
 31
0.0000000000000000
  0
LINE
  5
49
100
AcDbEntity
  8
MAIN0
  6
CONTINUOUS
 62
3
100
AcDbLine
 10
147.3593809621359
 20
287.2718104526010
 30
0.0000000000000000
 11
147.3593809621359
 21
278.2718104526010
 31
0.0000000000000000
  0
LINE
  5
4A
100
AcDbEntity
  8
MAIN0
  6
CONTINUOUS
 62
3
100
AcDbLine
 10
180.9354942437117
 20
287.9718104526010
 30
0.0000000000000000
 11
182.2591996056203
 21
287.9718104526010
 31
0.0000000000000000
  0
LINE
  5
4B
100
AcDbEntity
  8
MAIN0
  6
CONTINUOUS
 62
3
100
AcDbLine
 10
180.3591996056203
 20
288.2718104526010
 30
0.0000000000000000
 11
180.9354942437116
 21
287.9718104526010
 31
0.0000000000000000
  0
LINE
  5
4C
100
AcDbEntity
  8
MAIN0
  6
CONTINUOUS
 62
3
100
AcDbLine
 10
182.6591996056203
 20
288.3718104526009
 30
0.0000000000000000
 11
182.6591996056204
 21
290.1955158145096
 31
0.0000000000000000
  0
LINE
  5
4D
100
AcDbEntity
  8
MAIN0
  6
CONTINUOUS
 62
3
100
AcDbLine
 10
182.3591996056203
 20
290.7718104526011
 30
0.0000000000000000
 11
182.3591996056203
 21
292.6995541931493
 31
0.0000000000000000
  0
LINE
  5
4E
100
AcDbEntity
  8
MAIN0
  6
CONTINUOUS
 62
3
100
AcDbLine
 10
210.8593809621359
 20
292.9800845198610
 30
0.0000000000000000
 11
210.8593809621359
 21
286.3718104526009
 31
0.0000000000000000
  0
LINE
  5
4F
100
AcDbEntity
  8
MAIN0
  6
CONTINUOUS
 62
3
100
AcDbLine
 10
212.2830863240446
 20
285.9718104526009
 30
0.0000000000000000
 11
211.2593809621359
 21
285.9718104526009
 31
0.0000000000000000
  0
LINE
  5
50
100
AcDbEntity
  8
MAIN0
  6
CONTINUOUS
 62
3
100
AcDbLine
 10
212.8593809621359
 20
286.2718104526009
 30
0.0000000000000000
 11
212.2830863240446
 21
285.9718104526009
 31
0.0000000000000000
  0
LINE
  5
51
100
AcDbEntity
  8
MAIN0
  6
CONTINUOUS
 62
3
100
AcDbLine
 10
212.8593809621360
 20
286.2718104526009
 30
0.0000000000000000
 11
235.3593067884252
 21
286.2718104526009
 31
0.0000000000000000
  0
LINE
  5
52
100
AcDbEntity
  8
MAIN0
  6
CONTINUOUS
 62
3
100
AcDbLine
 10
231.9932813846095
 20
286.2718104526009
 30
0.0000000000000000
 11
232.8593067883943
 21
285.7718104526010
 31
0.0000000000000000
  0
LINE
  5
53
100
AcDbEntity
  8
MAIN0
  6
CONTINUOUS
 62
3
100
AcDbLine
 10
232.8593067883943
 20
285.7718104526009
 30
0.0000000000000000
 11
233.3593067883936
 21
285.7718104526009
 31
0.0000000000000000
  0
LINE
  5
54
100
AcDbEntity
  8
MAIN0
  6
CONTINUOUS
 62
3
100
AcDbLine
 10
233.3593067883936
 20
285.7718104526009
 30
0.0000000000000000
 11
234.3593067884252
 21
285.1944601833934
 31
0.0000000000000000
  0
LINE
  5
55
100
AcDbEntity
  8
MAIN0
  6
CONTINUOUS
 62
3
100
AcDbLine
 10
234.3593067884252
 20
285.1944601833934
 30
0.0000000000000000
 11
234.3593067884251
 21
268.2718104526010
 31
0.0000000000000000
  0
LINE
  5
56
100
AcDbEntity
  8
MAIN0
  6
CONTINUOUS
 62
3
100
AcDbLine
 10
233.3593067884255
 20
282.4718104526006
 30
0.0000000000000000
 11
234.3593067884253
 21
283.0491607217903
 31
0.0000000000000000
  0
LINE
  5
57
100
AcDbEntity
  8
MAIN0
  6
CONTINUOUS
 62
3
100
AcDbLine
 10
204.8593067884252
 20
282.4718104526025
 30
0.0000000000000000
 11
233.3593067884257
 21
282.4718104526007
 31
0.0000000000000000
  0
LINE
  5
58
100
AcDbEntity
  8
MAIN0
  6
CONTINUOUS
 62
3
100
AcDbLine
 10
204.8593067884252
 20
282.4718104526022
 30
0.0000000000000000
 11
204.8593067884252
 21
268.2718104526010
 31
0.0000000000000000
  0
LINE
  5
59
100
AcDbEntity
  8
MAIN0
  6
CONTINUOUS
 62
3
100
AcDbLine
 10
204.8593067884252
 20
278.7718104526032
 30
0.0000000000000000
 11
147.9593809621339
 21
278.7718104526068
 31
0.0000000000000000
  0
LINE
  5
5A
100
AcDbEntity
  8
MAIN0
  6
CONTINUOUS
 62
3
100
AcDbLine
 10
182.6591996056204
 20
290.1955158145095
 30
0.0000000000000000
 11
182.3591996056204
 21
290.7718104526009
 31
0.0000000000000000
  0
ARC
  5
5B
100
AcDbEntity
  8
MAIN0
  6
CONTINUOUS
 62
3
100
AcDbCircle
 10
182.2591996056203
 20
288.3718104526009
 30
0.0000000000000000
 40
0.4000000000000000
100
AcDbArc
 50
270.0000000000000
 51
360.0000000000000
  0
LINE
  5
5C
100
AcDbEntity
  8
MAIN0
  6
CONTINUOUS
 62
3
100
AcDbLine
 10
162.3593067884250
 20
255.7718104526009
 30
0.0000000000000000
 11
163.8026824614036
 21
253.2718104525935
 31
0.0000000000000000
  0
LINE
  5
5D
100
AcDbEntity
  8
MAIN0
  6
CONTINUOUS
 62
3
100
AcDbLine
 10
162.3593067884253
 20
250.7718104526009
 30
0.0000000000000000
 11
163.8026824614036
 21
253.2718104525935
 31
0.0000000000000000
  0
LINE
  5
5E
100
AcDbEntity
  8
MAIN0
  6
CONTINUOUS
 62
3
100
AcDbLine
 10
162.3593067884252
 20
250.7718104526009
 30
0.0000000000000000
 11
162.3593067884252
 21
255.7718104526009
 31
0.0000000000000000
  0
LINE
  5
5F
100
AcDbEntity
  8
MAIN0
  6
CONTINUOUS
 62
3
100
AcDbLine
 10
147.3593067884252
 20
250.7718104526009
 30
0.0000000000000000
 11
162.3593067884252
 21
250.7718104526009
 31
0.0000000000000000
  0
LINE
  5
60
100
AcDbEntity
  8
MAIN0
  6
CONTINUOUS
 62
3
100
AcDbLine
 10
147.3593067884252
 20
255.7718104526009
 30
0.0000000000000000
 11
162.3593067884250
 21
255.7718104526009
 31
0.0000000000000000
  0
LINE
  5
61
100
AcDbEntity
  8
MAIN0
  6
CONTINUOUS
 62
3
100
AcDbLine
 10
147.3593067884252
 20
255.0303609921080
 30
0.0000000000000000
 11
147.3593067884252
 21
258.2718104526010
 31
0.0000000000000000
  0
LINE
  5
62
100
AcDbEntity
  8
MAIN0
  6
CONTINUOUS
 62
3
100
AcDbLine
 10
147.3593067884252
 20
249.2718846263116
 30
0.0000000000000000
 11
147.3593067884252
 21
251.5132599130936
 31
0.0000000000000000
  0
CIRCLE
  5
63
100
AcDbEntity
  8
MAIN0
  6
CONTINUOUS
 62
3
100
AcDbCircle
 10
148.9181525152368
 20
253.2718104526008
 30
0.0000000000000000
 40
2.350000000000000
  0
LINE
  5
64
100
AcDbEntity
  8
MAIN0
  6
CENTER
 62
3
100
AcDbLine
 10
143.4191593747131
 20
253.2718104526009
 30
0.0000000000000000
 11
167.3207100692293
 21
253.2718104526009
 31
0.0000000000000000
  0
LINE
  5
65
100
AcDbEntity
  8
MAIN0
  6
CONTINUOUS
 62
3
100
AcDbLine
 10
150.4560811461997
 20
255.0486828526522
 30
0.0000000000000000
 11
150.9650057080874
 21
251.0151402073111
 31
0.0000000000000000
  0
LINE
  5
66
100
AcDbEntity
  8
MAIN0
  6
CONTINUOUS
 62
3
100
AcDbLine
 10
150.9650057080874
 20
251.0151402073111
 30
0.0000000000000000
 11
151.6040402213627
 21
255.3286243907810
 31
0.0000000000000000
  0
LINE
  5
67
100
AcDbEntity
  8
MAIN0
  6
CONTINUOUS
 62
3
100
AcDbLine
 10
152.1791710395381
 20
251.0151402073111
 30
0.0000000000000000
 11
152.8182055528134
 21
255.3286243907810
 31
0.0000000000000000
  0
LINE
  5
68
100
AcDbEntity
  8
MAIN0
  6
CONTINUOUS
 62
3
100
AcDbLine
 10
152.7983053736683
 20
255.1942981435947
 30
0.0000000000000000
 11
153.3933375898505
 21
251.0790439024109
 31
0.0000000000000000
  0
LINE
  5
69
100
AcDbEntity
  8
MAIN0
  6
CONTINUOUS
 62
3
100
AcDbLine
 10
154.0124719239808
 20
255.2582018386944
 30
0.0000000000000000
 11
154.6075041401629
 21
251.1429475975106
 31
0.0000000000000000
  0
LINE
  5
6A
100
AcDbEntity
  8
MAIN0
  6
CONTINUOUS
 62
3
100
AcDbLine
 10
154.6075029213013
 20
251.0790439024108
 30
0.0000000000000000
 11
155.2465374345767
 21
255.3925280858808
 31
0.0000000000000000
  0
LINE
  5
6B
100
AcDbEntity
  8
MAIN0
  6
CONTINUOUS
 62
3
100
AcDbLine
 10
155.8216694716138
 20
251.1429475975105
 30
0.0000000000000000
 11
156.4607039848891
 21
255.4564317809805
 31
0.0000000000000000
  0
LINE
  5
6C
100
AcDbEntity
  8
MAIN0
  6
CONTINUOUS
 62
3
100
AcDbLine
 10
156.4408038057440
 20
255.3221055337941
 30
0.0000000000000000
 11
157.0358360219262
 21
251.2068512926103
 31
0.0000000000000000
  0
LINE
  5
6D
100
AcDbEntity
  8
MAIN0
  6
CONTINUOUS
 62
3
100
AcDbLine
 10
157.0358348030646
 20
251.1429475975105
 30
0.0000000000000000
 11
157.6748693163399
 21
255.4564317809805
 31
0.0000000000000000
  0
LINE
  5
6E
100
AcDbEntity
  8
MAIN0
  6
CONTINUOUS
 62
3
100
AcDbLine
 10
158.8691356875072
 20
255.3860092288938
 30
0.0000000000000000
 11
159.4641679036894
 21
251.2707549877101
 31
0.0000000000000000
  0
LINE
  5
6F
100
AcDbEntity
  8
MAIN0
  6
CONTINUOUS
 62
3
100
AcDbLine
 10
160.0833010189580
 20
255.3860092288938
 30
0.0000000000000000
 11
160.6783332351401
 21
251.2707549877100
 31
0.0000000000000000
  0
LINE
  5
70
100
AcDbEntity
  8
MAIN0
  6
CONTINUOUS
 62
3
100
AcDbLine
 10
161.2974675692704
 20
255.4499129239936
 30
0.0000000000000000
 11
161.8924997854526
 21
251.3346586828098
 31
0.0000000000000000
  0
LINE
  5
71
100
AcDbEntity
  8
MAIN0
  6
CONTINUOUS
 62
3
100
AcDbLine
 10
161.8924985665909
 20
251.2707549877100
 30
0.0000000000000000
 11
162.5315330798663
 21
255.5842391711800
 31
0.0000000000000000
  0
LINE
  5
72
100
AcDbEntity
  8
MAIN0
  6
CONTINUOUS
 62
3
100
AcDbLine
 10
160.6783332351402
 20
251.2707549877100
 30
0.0000000000000000
 11
161.3173677484155
 21
255.5842391711800
 31
0.0000000000000000
  0
LINE
  5
73
100
AcDbEntity
  8
MAIN0
  6
CONTINUOUS
 62
3
100
AcDbLine
 10
159.4641666848278
 20
251.2068512926103
 30
0.0000000000000000
 11
160.1032011981031
 21
255.5203354760802
 31
0.0000000000000000
  0
LINE
  5
74
100
AcDbEntity
  8
MAIN0
  6
CONTINUOUS
 62
3
100
AcDbLine
 10
158.2500013533770
 20
251.2068512926103
 30
0.0000000000000000
 11
158.8890358666523
 21
255.5203354760802
 31
0.0000000000000000
  0
LINE
  5
75
100
AcDbEntity
  8
MAIN0
  6
CONTINUOUS
 62
3
100
AcDbLine
 10
157.6549691371948
 20
255.3221055337941
 30
0.0000000000000000
 11
158.2500013533769
 21
251.2068512926103
 31
0.0000000000000000
  0
LINE
  5
76
100
AcDbEntity
  8
MAIN0
  6
CONTINUOUS
 62
3
100
AcDbLine
 10
155.2266372554315
 20
255.2582018386944
 30
0.0000000000000000
 11
155.8216694716138
 21
251.1429475975106
 31
0.0000000000000000
  0
LINE
  5
77
100
AcDbEntity
  8
MAIN0
  6
CONTINUOUS
 62
3
100
AcDbLine
 10
153.3933375898506
 20
251.0790439024108
 30
0.0000000000000000
 11
154.0323721031259
 21
255.3925280858808
 31
0.0000000000000000
  0
LINE
  5
78
100
AcDbEntity
  8
MAIN0
  6
CONTINUOUS
 62
3
100
AcDbLine
 10
151.5841400422175
 20
255.1942981435947
 30
0.0000000000000000
 11
152.1791722583997
 21
251.0790439024109
 31
0.0000000000000000
  0
LINE
  5
79
100
AcDbEntity
  8
MAIN0
  6
CONTINUOUS
 62
3
100
AcDbLine
 10
147.9593809621351
 20
278.7718104526056
 30
0.0000000000000000
 11
147.3593809621352
 21
279.3718104526056
 31
0.0000000000000000
  0
LINE
  5
7A
100
AcDbEntity
  8
MAIN0
  6
CONTINUOUS
 62
3
100
AcDbLine
 10
235.3593067884252
 20
286.7718104526009
 30
0.0000000000000000
 11
235.3593067884252
 21
283.9643698731190
 31
0.0000000000000000
  0
LINE
  5
7B
100
AcDbEntity
  8
MAIN0
  6
CONTINUOUS
 62
3
100
AcDbLine
 10
219.8593809621359
 20
288.4718104526010
 30
0.0000000000000000
 11
219.8593809621359
 21
286.2718104526009
 31
0.0000000000000000
  0
LINE
  5
7C
100
AcDbEntity
  8
MAIN0
  6
CONTINUOUS
 62
3
100
AcDbLine
 10
224.5593809621359
 20
288.4718104526010
 30
0.0000000000000000
 11
224.5593809621359
 21
286.2718104526009
 31
0.0000000000000000
  0
LINE
  5
7D
100
AcDbEntity
  8
MAIN0
  6
CONTINUOUS
 62
3
100
AcDbLine
 10
220.6593809621359
 20
289.2718104526009
 30
0.0000000000000000
 11
223.7593809621359
 21
289.2718104526009
 31
0.0000000000000000
  0
ELLIPSE
  5
7E
100
AcDbEntity
  8
MAIN0
  6
CONTINUOUS
 62
3
100
AcDbEllipse
 10
222.2093809621359
 20
287.7718104526009
 30
0.0000000000000000
 11
2.350000000000000
 21
0.0000000000000000
 31
0.0000000000000000
210
0.0000000000000000
220
0.0000000000000000
230
1.000000000000000
 40
0.6382978723404255
 41
0.0000000000000000
 42
6.283185307179586
  0
ARC
  5
7F
100
AcDbEntity
  8
MAIN0
  6
CONTINUOUS
 62
3
100
AcDbCircle
 10
220.6593809621359
 20
288.4718104526010
 30
0.0000000000000000
 40
0.8000000000000000
100
AcDbArc
 50
90.00000000000000
 51
180.0000000000000
  0
ARC
  5
80
100
AcDbEntity
  8
MAIN0
  6
CONTINUOUS
 62
3
100
AcDbCircle
 10
223.7593809621359
 20
288.4718104526010
 30
0.0000000000000000
 40
0.8000000000000000
100
AcDbArc
 50
0.0000000000000000
 51
90.00000000000000
  0
LINE
  5
81
100
AcDbEntity
  8
MAIN0
  6
CONTINUOUS
 62
3
100
AcDbLine
 10
241.3593067884584
 20
286.2718104526006
 30
0.0000000000000000
 11
248.8648602878861
 21
273.2718104526009
 31
0.0000000000000000
  0
LINE
  5
82
100
AcDbEntity
  8
MAIN0
  6
CONTINUOUS
 62
3
100
AcDbLine
 10
248.8648602879091
 20
273.2718104526009
 30
0.0000000000000000
 11
279.3015717615062
 21
273.2718104526009
 31
0.0000000000000000
  0
LINE
  5
83
100
AcDbEntity
  8
MAIN0
  6
CONTINUOUS
 62
3
100
AcDbLine
 10
282.3593067884252
 20
268.2718104526009
 30
0.0000000000000000
 11
282.3593067884252
 21
274.2718104526009
 31
0.0000000000000000
  0
LINE
  5
84
100
AcDbEntity
  8
MAIN0
  6
CONTINUOUS
 62
3
100
AcDbLine
 10
282.3593067884252
 20
274.2718104526009
 30
0.0000000000000000
 11
295.3593067884252
 21
274.2718104526009
 31
0.0000000000000000
  0
LINE
  5
85
100
AcDbEntity
  8
MAIN0
  6
CONTINUOUS
 62
3
100
AcDbLine
 10
279.3593067884252
 20
273.2718104526011
 30
0.0000000000000000
 11
279.3593067884252
 21
273.3718104526009
 31
0.0000000000000000
  0
LINE
  5
86
100
AcDbEntity
  8
MAIN0
  6
CONTINUOUS
 62
3
100
AcDbLine
 10
279.3593067884252
 20
273.3718104526009
 30
0.0000000000000000
 11
293.4540509000995
 21
273.3718104526009
 31
0.0000000000000000
  0
LINE
  5
87
100
AcDbEntity
  8
MAIN0
  6
CONTINUOUS
 62
3
100
AcDbLine
 10
279.3015717615062
 20
273.2718104526009
 30
0.0000000000000000
 11
279.3593067884252
 21
273.3718104526009
 31
0.0000000000000000
  0
LINE
  5
88
100
AcDbEntity
  8
MAIN0
  6
CONTINUOUS
 62
3
100
AcDbLine
 10
293.4540509000995
 20
273.3718104526009
 30
0.0000000000000000
 11
295.3593067884251
 21
274.4718104526009
 31
0.0000000000000000
  0
LINE
  5
89
100
AcDbEntity
  8
MAIN0
  6
CONTINUOUS
 62
3
100
AcDbLine
 10
217.8593809621359
 20
286.2718104526009
 30
0.0000000000000000
 11
216.8593809621359
 21
287.2718104526009
 31
0.0000000000000000
  0
LINE
  5
8A
100
AcDbEntity
  8
MAIN0
  6
CONTINUOUS
 62
3
100
AcDbLine
 10
250.3593809621359
 20
372.2718104526010
 30
0.0000000000000000
 11
249.3593809621359
 21
373.2718104526010
 31
0.0000000000000000
  0
LINE
  5
8B
100
AcDbEntity
  8
MAIN0
  6
PHANTOM
 62
3
100
AcDbLine
 10
252.1593809621359
 20
292.7718104526010
 30
0.0000000000000000
 11
263.6368749240796
 21
292.7718104526010
 31
0.0000000000000000
  0
LINE
  5
8C
100
AcDbEntity
  8
MAIN0
  6
PHANTOM
 62
3
100
AcDbLine
 10
250.3593809621359
 20
296.7718104526010
 30
0.0000000000000000
 11
250.3593809621359
 21
328.6674510211184
 31
0.0000000000000000
  0
LINE
  5
8D
100
AcDbEntity
  8
MAIN0
  6
CONTINUOUS
 62
3
100
AcDbLine
 10
250.3593809621359
 20
328.6674510211184
 30
0.0000000000000000
 11
250.3593809621359
 21
372.2718104526010
 31
0.0000000000000000
  0
ARC
  5
8E
100
AcDbEntity
  8
MAIN0
  6
CONTINUOUS
 62
3
100
AcDbCircle
 10
277.2170504190524
 20
297.9718104526010
 30
0.0000000000000000
 40
5.000000000000000
100
AcDbArc
 50
154.1580672368325
 51
289.9484435888031
  0
LINE
  5
8F
100
AcDbEntity
  8
MAIN0
  6
CONTINUOUS
 62
3
100
AcDbLine
 10
265.7170504190524
 20
322.2718104526010
 30
0.0000000000000000
 11
272.7170504190525
 21
322.2718104526010
 31
0.0000000000000000
  0
LINE
  5
90
100
AcDbEntity
  8
MAIN0
  6
CONTINUOUS
 62
3
100
AcDbLine
 10
265.7170504190524
 20
322.2718104526010
 30
0.0000000000000000
 11
265.7170504190524
 21
324.8383539671009
 31
0.0000000000000000
  0
LINE
  5
91
100
AcDbEntity
  8
MAIN0
  6
CONTINUOUS
 62
3
100
AcDbLine
 10
295.7170504190780
 20
276.1339687078066
 30
0.0000000000000000
 11
295.7170504190685
 21
293.2718104526010
 31
0.0000000000000000
  0
LINE
  5
92
100
AcDbEntity
  8
MAIN0
  6
PHANTOM
 62
3
100
AcDbLine
 10
295.3593067884249
 20
284.2718104526010
 30
0.0000000000000000
 11
263.6368749240796
 21
292.7718104526010
 31
0.0000000000000000
  0
LINE
  5
93
100
AcDbEntity
  8
MAIN0
  6
CONTINUOUS
 62
3
100
AcDbLine
 10
295.3593067884252
 20
268.2718104526009
 30
0.0000000000000000
 11
295.3593067884252
 21
276.2231642127671
 31
0.0000000000000000
  0
LINE
  5
94
100
AcDbEntity
  8
MAIN0
  6
PHANTOM
 62
3
100
AcDbLine
 10
295.3593067884252
 20
276.2231642127671
 30
0.0000000000000000
 11
295.3593067884252
 21
284.2718104526010
 31
0.0000000000000000
  0
LINE
  5
95
100
AcDbEntity
  8
MAIN0
  6
CONTINUOUS
 62
3
100
AcDbLine
 10
148.3593809621359
 20
248.2718104526009
 30
0.0000000000000000
 11
147.3593809621359
 21
249.2718104526009
 31
0.0000000000000000
  0
LINE
  5
96
100
AcDbEntity
  8
MAIN0
  6
CONTINUOUS
 62
3
100
AcDbLine
 10
231.9932813846095
 20
250.2718104526009
 30
0.0000000000000000
 11
232.8593067883943
 21
250.7718104526009
 31
0.0000000000000000
  0
LINE
  5
97
100
AcDbEntity
  8
MAIN0
  6
CONTINUOUS
 62
3
100
AcDbLine
 10
232.8593067883943
 20
250.7718104526009
 30
0.0000000000000000
 11
233.3593067883936
 21
250.7718104526009
 31
0.0000000000000000
  0
LINE
  5
98
100
AcDbEntity
  8
MAIN0
  6
CONTINUOUS
 62
3
100
AcDbLine
 10
233.3593067883936
 20
250.7718104526010
 30
0.0000000000000000
 11
234.3593067884252
 21
251.3491607218085
 31
0.0000000000000000
  0
LINE
  5
99
100
AcDbEntity
  8
MAIN0
  6
CONTINUOUS
 62
3
100
AcDbLine
 10
234.3593067884252
 20
251.3491607218085
 30
0.0000000000000000
 11
234.3593067884251
 21
268.2718104526010
 31
0.0000000000000000
  0
LINE
  5
9A
100
AcDbEntity
  8
MAIN0
  6
CONTINUOUS
 62
3
100
AcDbLine
 10
233.3593067884255
 20
254.0718104526013
 30
0.0000000000000000
 11
234.3593067884253
 21
253.4944601834116
 31
0.0000000000000000
  0
LINE
  5
9B
100
AcDbEntity
  8
MAIN0
  6
CONTINUOUS
 62
3
100
AcDbLine
 10
204.8593067884252
 20
254.0718104525993
 30
0.0000000000000000
 11
233.3593067884257
 21
254.0718104526011
 31
0.0000000000000000
  0
LINE
  5
9C
100
AcDbEntity
  8
MAIN0
  6
CONTINUOUS
 62
3
100
AcDbLine
 10
204.8593067884252
 20
254.0718104525996
 30
0.0000000000000000
 11
204.8593067884252
 21
268.2718104526009
 31
0.0000000000000000
  0
LINE
  5
9D
100
AcDbEntity
  8
MAIN0
  6
CONTINUOUS
 62
3
100
AcDbLine
 10
204.8593067884252
 20
257.7718104525986
 30
0.0000000000000000
 11
147.9593809621339
 21
257.7718104525950
 31
0.0000000000000000
  0
LINE
  5
9E
100
AcDbEntity
  8
MAIN0
  6
CONTINUOUS
 62
3
100
AcDbLine
 10
147.9593809621351
 20
257.7718104525962
 30
0.0000000000000000
 11
147.3593809621351
 21
257.1718104525962
 31
0.0000000000000000
  0
LINE
  5
9F
100
AcDbEntity
  8
MAIN0
  6
CONTINUOUS
 62
3
100
AcDbLine
 10
235.3593067884252
 20
249.7718104526011
 30
0.0000000000000000
 11
235.3593067884252
 21
252.5792510320829
 31
0.0000000000000000
  0
LINE
  5
A0
100
AcDbEntity
  8
MAIN0
  6
CONTINUOUS
 62
3
100
AcDbLine
 10
219.8593809621359
 20
248.0718104526009
 30
0.0000000000000000
 11
219.8593809621359
 21
250.2718104526009
 31
0.0000000000000000
  0
LINE
  5
A1
100
AcDbEntity
  8
MAIN0
  6
CONTINUOUS
 62
3
100
AcDbLine
 10
224.5593809621359
 20
248.0718104526009
 30
0.0000000000000000
 11
224.5593809621359
 21
250.2718104526009
 31
0.0000000000000000
  0
LINE
  5
A2
100
AcDbEntity
  8
MAIN0
  6
CONTINUOUS
 62
3
100
AcDbLine
 10
220.6593809621359
 20
247.2718104526009
 30
0.0000000000000000
 11
223.7593809621359
 21
247.2718104526009
 31
0.0000000000000000
  0
ELLIPSE
  5
A3
100
AcDbEntity
  8
MAIN0
  6
CONTINUOUS
 62
3
100
AcDbEllipse
 10
222.2093809621359
 20
248.7718104526009
 30
0.0000000000000000
 11
2.350000000000000
 21
0.0000000000000000
 31
0.0000000000000000
210
0.0000000000000000
220
0.0000000000000000
230
1.000000000000000
 40
0.6382978723404255
 41
0.0000000000000000
 42
6.283185307179586
  0
ARC
  5
A4
100
AcDbEntity
  8
MAIN0
  6
CONTINUOUS
 62
3
100
AcDbCircle
 10
220.6593809621359
 20
248.0718104526009
 30
0.0000000000000000
 40
0.8000000000000000
100
AcDbArc
 50
180.0000000000000
 51
270.0000000000000
  0
ARC
  5
A5
100
AcDbEntity
  8
MAIN0
  6
CONTINUOUS
 62
3
100
AcDbCircle
 10
223.7593809621359
 20
248.0718104526009
 30
0.0000000000000000
 40
0.8000000000000000
100
AcDbArc
 50
270.0000000000000
 51
360.0000000000000
  0
LINE
  5
A6
100
AcDbEntity
  8
MAIN0
  6
CONTINUOUS
 62
3
100
AcDbLine
 10
241.3593067884585
 20
250.2718104526012
 30
0.0000000000000000
 11
248.8648602878861
 21
263.2718104526009
 31
0.0000000000000000
  0
LINE
  5
A7
100
AcDbEntity
  8
MAIN0
  6
CONTINUOUS
 62
3
100
AcDbLine
 10
248.8648602879091
 20
263.2718104526009
 30
0.0000000000000000
 11
279.3015717615062
 21
263.2718104526009
 31
0.0000000000000000
  0
LINE
  5
A8
100
AcDbEntity
  8
MAIN0
  6
CONTINUOUS
 62
3
100
AcDbLine
 10
282.3593067884252
 20
268.2718104526009
 30
0.0000000000000000
 11
282.3593067884252
 21
262.2718104526009
 31
0.0000000000000000
  0
LINE
  5
A9
100
AcDbEntity
  8
MAIN0
  6
CONTINUOUS
 62
3
100
AcDbLine
 10
282.3593067884252
 20
262.2718104526009
 30
0.0000000000000000
 11
295.0128966269114
 21
262.2718104526009
 31
0.0000000000000000
  0
LINE
  5
AA
100
AcDbEntity
  8
MAIN0
  6
CONTINUOUS
 62
3
100
AcDbLine
 10
279.3593067884252
 20
263.2718104526011
 30
0.0000000000000000
 11
279.3593067884252
 21
263.1718104526009
 31
0.0000000000000000
  0
LINE
  5
AB
100
AcDbEntity
  8
MAIN0
  6
CONTINUOUS
 62
3
100
AcDbLine
 10
279.3593067884252
 20
263.1718104526009
 30
0.0000000000000000
 11
293.4540509000995
 21
263.1718104526009
 31
0.0000000000000000
  0
LINE
  5
AC
100
AcDbEntity
  8
MAIN0
  6
CONTINUOUS
 62
3
100
AcDbLine
 10
279.3015717615062
 20
263.2718104526010
 30
0.0000000000000000
 11
279.3593067884252
 21
263.1718104526009
 31
0.0000000000000000
  0
LINE
  5
AD
100
AcDbEntity
  8
MAIN0
  6
CONTINUOUS
 62
3
100
AcDbLine
 10
293.4540509000995
 20
263.1718104526009
 30
0.0000000000000000
 11
295.3593067884251
 21
262.0718104526009
 31
0.0000000000000000
  0
LINE
  5
AE
100
AcDbEntity
  8
MAIN0
  6
CONTINUOUS
 62
3
100
AcDbLine
 10
216.8593809621359
 20
249.2718104526009
 30
0.0000000000000000
 11
216.8593809621359
 21
244.2026650883617
 31
0.0000000000000000
  0
LINE
  5
AF
100
AcDbEntity
  8
MAIN0
  6
CONTINUOUS
 62
3
100
AcDbLine
 10
217.8593809621359
 20
250.2718104526009
 30
0.0000000000000000
 11
216.8593809621359
 21
249.2718104526009
 31
0.0000000000000000
  0
LINE
  5
B0
100
AcDbEntity
  8
MAIN0
  6
CONTINUOUS
 62
3
100
AcDbLine
 10
250.3593809621359
 20
164.2718104526010
 30
0.0000000000000000
 11
249.3593809621359
 21
163.2718104526010
 31
0.0000000000000000
  0
LINE
  5
B1
100
AcDbEntity
  8
MAIN0
  6
CONTINUOUS
 62
3
100
AcDbLine
 10
252.1593809621359
 20
243.7718104526010
 30
0.0000000000000000
 11
263.6368749240796
 21
243.7718104526010
 31
0.0000000000000000
  0
LINE
  5
B2
100
AcDbEntity
  8
MAIN0
  6
CONTINUOUS
 62
3
100
AcDbLine
 10
250.3593809621358
 20
239.7718104526010
 30
0.0000000000000000
 11
249.9593809621359
 21
240.5402033033895
 31
0.0000000000000000
  0
LINE
  5
B3
100
AcDbEntity
  8
MAIN0
  6
CONTINUOUS
 62
3
100
AcDbLine
 10
249.9593809621359
 20
240.5402033033894
 30
0.0000000000000000
 11
249.9593809621359
 21
243.7718104526010
 31
0.0000000000000000
  0
LINE
  5
B4
100
AcDbEntity
  8
MAIN0
  6
CONTINUOUS
 62
3
100
AcDbLine
 10
250.3593809621359
 20
244.1718104526010
 30
0.0000000000000000
 11
251.3909881113474
 21
244.1718104526010
 31
0.0000000000000000
  0
LINE
  5
B5
100
AcDbEntity
  8
MAIN0
  6
CONTINUOUS
 62
3
100
AcDbLine
 10
251.3909881113474
 20
244.1718104526010
 30
0.0000000000000000
 11
252.1593809621359
 21
243.7718104526010
 31
0.0000000000000000
  0
ARC
  5
B6
100
AcDbEntity
  8
MAIN0
  6
CONTINUOUS
 62
3
100
AcDbCircle
 10
250.3593809621359
 20
243.7718104526010
 30
0.0000000000000000
 40
0.4000000000000000
100
AcDbArc
 50
90.00000000000000
 51
180.0000000000000
  0
LINE
  5
B7
100
AcDbEntity
  8
MAIN0
  6
CONTINUOUS
 62
3
100
AcDbLine
 10
250.3593809621359
 20
239.7718104526009
 30
0.0000000000000000
 11
250.3593809621359
 21
164.2718104526010
 31
0.0000000000000000
  0
LINE
  5
B8
100
AcDbEntity
  8
MAIN0
  6
CONTINUOUS
 62
3
100
AcDbLine
 10
295.3593067884249
 20
252.2718104526009
 30
0.0000000000000000
 11
263.6368749240796
 21
243.7718104526010
 31
0.0000000000000000
  0
LINE
  5
B9
100
AcDbEntity
  8
MAIN0
  6
CONTINUOUS
 62
3
100
AcDbLine
 10
295.3593067884252
 20
268.2718104526010
 30
0.0000000000000000
 11
295.3593067884252
 21
252.2718104526010
 31
0.0000000000000000
  0
LINE
  5
BA
100
AcDbEntity
  8
MAIN0
  6
CONTINUOUS
 62
3
100
AcDbLine
 10
164.8593809621359
 20
345.2718104526009
 30
0.0000000000000000
 11
164.8593809621359
 21
303.2718104526009
 31
0.0000000000000000
  0
LINE
  5
BB
100
AcDbEntity
  8
MAIN0
  6
CONTINUOUS
 62
3
100
AcDbLine
 10
164.8593809621359
 20
303.2718104526009
 30
0.0000000000000000
 11
171.2987874847266
 21
303.2718104526009
 31
0.0000000000000000
  0
LINE
  5
BC
100
AcDbEntity
  8
MAIN0
  6
CONTINUOUS
 62
3
100
AcDbLine
 10
157.3593809621360
 20
373.2718104526009
 30
0.0000000000000000
 11
156.3593809621360
 21
372.2718104526009
 31
0.0000000000000000
  0
LINE
  5
BD
100
AcDbEntity
  8
MAIN0
  6
CONTINUOUS
 62
3
100
AcDbLine
 10
156.9593809621359
 20
353.2718104526010
 30
0.0000000000000000
 11
156.3593809621359
 21
353.8718104526009
 31
0.0000000000000000
  0
LINE
  5
BE
100
AcDbEntity
  8
MAIN0
  6
CONTINUOUS
 62
3
100
AcDbLine
 10
177.3591996056203
 20
289.2718104526009
 30
0.0000000000000000
 11
177.3591996056203
 21
296.0048734487172
 31
0.0000000000000000
  0
LINE
  5
BF
100
AcDbEntity
  8
MAIN0
  6
CONTINUOUS
 62
3
100
AcDbLine
 10
177.3591996056203
 20
289.2718104526009
 30
0.0000000000000000
 11
176.3591996056203
 21
288.2718104526009
 31
0.0000000000000000
  0
LINE
  5
C0
100
AcDbEntity
  8
MAIN0
  6
CONTINUOUS
 62
3
100
AcDbLine
 10
161.6593809621359
 20
316.2718104526010
 30
0.0000000000000000
 11
161.6593809621359
 21
288.6718104526009
 31
0.0000000000000000
  0
LINE
  5
C1
100
AcDbEntity
  8
MAIN0
  6
CONTINUOUS
 62
3
100
AcDbLine
 10
163.3582702622429
 20
324.2718104526009
 30
0.0000000000000000
 11
164.8593809621359
 21
326.8718104526009
 31
0.0000000000000000
  0
LINE
  5
C2
100
AcDbEntity
  8
MAIN0
  6
CONTINUOUS
 62
3
100
AcDbLine
 10
163.3582702622429
 20
324.2718104526009
 30
0.0000000000000000
 11
164.8593809621359
 21
321.6718104526009
 31
0.0000000000000000
  0
LINE
  5
C3
100
AcDbEntity
  8
MAIN0
  6
CONTINUOUS
 62
3
100
AcDbLine
 10
161.3593809621359
 20
316.2718104526010
 30
0.0000000000000000
 11
161.6593809621359
 21
316.2718104526010
 31
0.0000000000000000
  0
LINE
  5
C4
100
AcDbEntity
  8
MAIN0
  6
CENTER
 62
3
100
AcDbLine
 10
133.6555268619076
 20
201.5968104526010
 30
0.0000000000000000
 11
255.6477007039264
 21
201.5968104526010
 31
0.0000000000000000
  0
LINE
  5
C5
100
AcDbEntity
  8
MAIN0
  6
CONTINUOUS
 62
3
100
AcDbLine
 10
216.8593809621359
 20
292.9090978816506
 30
0.0000000000000000
 11
216.8593809621359
 21
287.2718104526009
 31
0.0000000000000000
  0
LINE
  5
C6
100
AcDbEntity
  8
MAIN0
  6
CENTER
 62
3
100
AcDbLine
 10
73.61054556251438
 20
268.2718104526010
 30
0.0000000000000000
 11
578.6521912860404
 21
268.2718104526010
 31
0.0000000000000000
  0
CIRCLE
  5
C7
100
AcDbEntity
  8
MAIN0
  6
CONTINUOUS
 62
3
100
AcDbCircle
 10
458.5764684591400
 20
268.2718104526010
 30
0.0000000000000000
 40
105.0000000000000
  0
LINE
  5
C8
100
AcDbEntity
  8
MAIN0
  6
CONTINUOUS
 62
3
100
AcDbLine
 10
212.8593809621362
 20
250.2718104526009
 30
0.0000000000000000
 11
235.3593067884252
 21
250.2718104526009
 31
0.0000000000000000
  0
LINE
  5
C9
100
AcDbEntity
  8
MAIN0
  6
CONTINUOUS
 62
3
100
AcDbLine
 10
210.8593809621359
 20
243.9518079051124
 30
0.0000000000000000
 11
210.8593809621359
 21
250.1718104526011
 31
0.0000000000000000
  0
LINE
  5
CA
100
AcDbEntity
  8
MAIN0
  6
CONTINUOUS
 62
3
100
AcDbLine
 10
212.2830863240446
 20
250.5718104526010
 30
0.0000000000000000
 11
211.2593809621359
 21
250.5718104526010
 31
0.0000000000000000
  0
LINE
  5
CB
100
AcDbEntity
  8
MAIN0
  6
CONTINUOUS
 62
3
100
AcDbLine
 10
212.8593809621359
 20
250.2718104526011
 30
0.0000000000000000
 11
212.2830863240446
 21
250.5718104526011
 31
0.0000000000000000
  0
LINE
  5
CC
100
AcDbEntity
  8
MAIN0
  6
CONTINUOUS
 62
3
100
AcDbLine
 10
161.3593809621359
 20
288.2718104526009
 30
0.0000000000000000
 11
161.3593809621359
 21
352.6218104526008
 31
0.0000000000000000
  0
LINE
  5
CD
100
AcDbEntity
  8
MAIN0
  6
CONTINUOUS
 62
3
100
AcDbLine
 10
161.3593809621360
 20
352.6218104526008
 30
0.0000000000000000
 11
161.7593809621360
 21
353.0218104526009
 31
0.0000000000000000
  0
LINE
  5
CE
100
AcDbEntity
  8
MAIN0
  6
CONTINUOUS
 62
3
100
AcDbLine
 10
162.3600863240446
 20
353.5718104526010
 30
0.0000000000000000
 11
160.3596756002273
 21
353.5718104526010
 31
0.0000000000000000
  0
LINE
  5
CF
100
AcDbEntity
  8
MAIN0
  6
CONTINUOUS
 62
3
100
AcDbLine
 10
160.3596756002272
 20
353.5718104526010
 30
0.0000000000000000
 11
159.7833809621359
 21
353.2718104526010
 31
0.0000000000000000
  0
LINE
  5
D0
100
AcDbEntity
  8
MAIN0
  6
CONTINUOUS
 62
3
100
AcDbLine
 10
156.9593809621359
 20
353.2718104526009
 30
0.0000000000000000
 11
159.7833809621357
 21
353.2718104526009
 31
0.0000000000000000
  0
LINE
  5
D1
100
AcDbEntity
  8
MAIN0
  6
CONTINUOUS
 62
3
100
AcDbLine
 10
161.7593809621360
 20
353.0218104526009
 30
0.0000000000000000
 11
166.9847865848165
 21
353.0218104526009
 31
0.0000000000000000
  0
LINE
  5
D2
100
AcDbEntity
  8
MAIN0
  6
CONTINUOUS
 62
3
100
AcDbLine
 10
162.3600863240446
 20
353.5718104526010
 30
0.0000000000000000
 11
163.4166264938790
 21
353.0218104526009
 31
0.0000000000000000
  0
LINE
  5
D3
100
AcDbEntity
  8
MAIN0
  6
CONTINUOUS
 62
3
100
AcDbLine
 10
157.3593809614673
 20
163.2718104526010
 30
0.0000000000000000
 11
249.3593809621359
 21
163.2718104526010
 31
0.0000000000000000
  0
LINE
  5
D4
100
AcDbEntity
  8
MAIN0
  6
CONTINUOUS
 62
3
100
AcDbLine
 10
148.3593809621358
 20
248.2718104526009
 30
0.0000000000000000
 11
180.3591996066237
 21
248.2718104526009
 31
0.0000000000000000
  0
LINE
  5
D5
100
AcDbEntity
  8
MAIN0
  6
CONTINUOUS
 62
3
100
AcDbLine
 10
180.9354942436808
 20
248.5718104520613
 30
0.0000000000000000
 11
182.2591996055894
 21
248.5718104520593
 31
0.0000000000000000
  0
LINE
  5
D6
100
AcDbEntity
  8
MAIN0
  6
CONTINUOUS
 62
3
100
AcDbLine
 10
180.3591996055889
 20
248.2718104520623
 30
0.0000000000000000
 11
180.9354942436808
 21
248.5718104520614
 31
0.0000000000000000
  0
LINE
  5
D7
100
AcDbEntity
  8
MAIN0
  6
CONTINUOUS
 62
3
100
AcDbLine
 10
182.6591996055888
 20
248.1718104520587
 30
0.0000000000000000
 11
182.6591996055860
 21
246.3481050901500
 31
0.0000000000000000
  0
LINE
  5
D8
100
AcDbEntity
  8
MAIN0
  6
CONTINUOUS
 62
3
100
AcDbLine
 10
182.3591996055851
 20
245.7718104520590
 30
0.0000000000000000
 11
182.3591996055845
 21
245.4510035893313
 31
0.0000000000000000
  0
LINE
  5
D9
100
AcDbEntity
  8
MAIN0
  6
CONTINUOUS
 62
3
100
AcDbLine
 10
182.6591996055860
 20
246.3481050901501
 30
0.0000000000000000
 11
182.3591996055851
 21
245.7718104520592
 31
0.0000000000000000
  0
ARC
  5
DA
100
AcDbEntity
  8
MAIN0
  6
CONTINUOUS
 62
3
100
AcDbCircle
 10
182.2591996055888
 20
248.1718104520593
 30
0.0000000000000000
 40
0.4000000000000000
100
AcDbArc
 50
359.9999999999102
 51
449.9999999999102
  0
LINE
  5
DB
100
AcDbEntity
  8
MAIN0
  6
CONTINUOUS
 62
3
100
AcDbLine
 10
156.3593809619729
 20
164.2718104520984
 30
0.0000000000000000
 11
156.3593809620220
 21
195.5968104526010
 31
0.0000000000000000
  0
LINE
  5
DC
100
AcDbEntity
  8
MAIN0
  6
CONTINUOUS
 62
3
100
AcDbLine
 10
157.3593809619714
 20
163.2718104520968
 30
0.0000000000000000
 11
156.3593809619729
 21
164.2718104520984
 31
0.0000000000000000
  0
LINE
  5
DD
100
AcDbEntity
  8
MAIN0
  6
CONTINUOUS
 62
3
100
AcDbLine
 10
156.9593809620026
 20
183.2718104520974
 30
0.0000000000000000
 11
156.3593809620017
 21
182.6718104520983
 31
0.0000000000000000
  0
LINE
  5
DE
100
AcDbEntity
  8
MAIN0
  6
CONTINUOUS
 62
3
100
AcDbLine
 10
177.3591996055874
 20
247.2718104520670
 30
0.0000000000000000
 11
176.3591996055889
 21
248.2718104520686
 31
0.0000000000000000
  0
LINE
  5
DF
100
AcDbEntity
  8
MAIN0
  6
CONTINUOUS
 62
3
100
AcDbLine
 10
161.6593809620607
 20
220.2718104520900
 30
0.0000000000000000
 11
161.6593809621039
 21
247.8718104520901
 31
0.0000000000000000
  0
LINE
  5
E0
100
AcDbEntity
  8
MAIN0
  6
CONTINUOUS
 62
3
100
AcDbLine
 10
161.6593809621039
 20
247.8718104520901
 30
0.0000000000000000
 11
162.0593809621046
 21
248.2718104520894
 31
0.0000000000000000
  0
LINE
  5
E1
100
AcDbEntity
  8
MAIN0
  6
CONTINUOUS
 62
3
100
AcDbLine
 10
161.3593809620575
 20
220.2718104520905
 30
0.0000000000000000
 11
161.6593809620575
 21
220.2718104520900
 31
0.0000000000000000
  0
LINE
  5
E2
100
AcDbEntity
  8
MAIN0
  6
CONTINUOUS
 62
3
100
AcDbLine
 10
161.3593809620037
 20
183.9218104520906
 30
0.0000000000000000
 11
161.7593809620031
 21
183.5218104520899
 31
0.0000000000000000
  0
LINE
  5
E3
100
AcDbEntity
  8
MAIN0
  6
CONTINUOUS
 62
3
100
AcDbLine
 10
162.3600863239109
 20
182.9718104520889
 30
0.0000000000000000
 11
160.3596756000935
 21
182.9718104520921
 31
0.0000000000000000
  0
LINE
  5
E4
100
AcDbEntity
  8
MAIN0
  6
CONTINUOUS
 62
3
100
AcDbLine
 10
160.3596756000935
 20
182.9718104520921
 30
0.0000000000000000
 11
159.7833809620026
 21
183.2718104520930
 31
0.0000000000000000
  0
LINE
  5
E5
100
AcDbEntity
  8
MAIN0
  6
CONTINUOUS
 62
3
100
AcDbLine
 10
156.9593809620027
 20
183.2718104520974
 30
0.0000000000000000
 11
159.7833809620026
 21
183.2718104520930
 31
0.0000000000000000
  0
LINE
  5
E6
100
AcDbEntity
  8
MAIN0
  6
CONTINUOUS
 62
3
100
AcDbLine
 10
161.7593809620016
 20
183.5218104520914
 30
0.0000000000000000
 11
171.9463606778086
 21
183.5218104520755
 31
0.0000000000000000
  0
LINE
  5
E7
100
AcDbEntity
  8
MAIN0
  6
CONTINUOUS
 62
3
100
AcDbLine
 10
162.3600863239108
 20
182.9718104520889
 30
0.0000000000000000
 11
163.4166264937461
 21
183.5218104520873
 31
0.0000000000000000
  0
LINE
  5
E8
100
AcDbEntity
  8
MAIN0
  6
CONTINUOUS
 62
3
100
AcDbLine
 10
161.3593809621045
 20
248.2718104520905
 30
0.0000000000000000
 11
161.3593809620037
 21
183.9218104520906
 31
0.0000000000000000
  0
LINE
  5
E9
100
AcDbEntity
  8
MAIN0
  6
CONTINUOUS
 62
3
100
AcDbLine
 10
177.3591996055874
 20
247.2718104520670
 30
0.0000000000000000
 11
177.3591996055814
 21
243.4682902752386
 31
0.0000000000000000
  0
LINE
  5
EA
100
AcDbEntity
  8
MAIN0
  6
CONTINUOUS
 62
3
100
AcDbLine
 10
438.5764684591400
 20
296.7462412949324
 30
0.0000000000000000
 11
438.5764684591400
 21
308.0551784340368
 31
0.0000000000000000
  0
LINE
  5
EB
100
AcDbEntity
  8
MAIN0
  6
CONTINUOUS
 62
3
100
AcDbLine
 10
478.5764684591400
 20
296.7462412949324
 30
0.0000000000000000
 11
478.5764684591400
 21
308.0551784340368
 31
0.0000000000000000
  0
ARC
  5
EC
100
AcDbEntity
  8
MAIN0
  6
CONTINUOUS
 62
3
100
AcDbCircle
 10
458.5764684591400
 20
268.2718104526010
 30
0.0000000000000000
 40
25.00000000000000
100
AcDbArc
 50
46.30945352765689
 51
133.6905464723431
  0
ELLIPSE
  5
ED
100
AcDbEntity
  8
MAIN0
  6
CONTINUOUS
 62
3
100
AcDbEllipse
 10
458.5764684591400
 20
296.7462412949324
 30
0.0000000000000000
 11
0.0000000000000000
 21
20.61227258690002
 31
0.0000000000000000
210
0.0000000000000000
220
0.0000000000000000
230
1.000000000000000
 40
0.9702957262806071
 41
1.570796326794897
 42
4.712388980384690
  0
ELLIPSE
  5
EE
100
AcDbEntity
  8
MAIN0
  6
CONTINUOUS
 62
3
100
AcDbEllipse
 10
458.5764684591400
 20
302.4807853602872
 30
0.0000000000000000
 11
0.0000000000000000
 21
20.61227258690002
 31
0.0000000000000000
210
0.0000000000000000
220
0.0000000000000000
230
1.000000000000000
 40
0.9702957262806071
 41
4.712388980384690
 42
5.217749490668851
  0
CIRCLE
  5
EF
100
AcDbEntity
  8
MAIN0
  6
CONTINUOUS
 62
3
100
AcDbCircle
 10
505.7228130947520
 20
315.4181550882151
 30
0.0000000000000000
 40
6.750000000000000
  0
CIRCLE
  5
F0
100
AcDbEntity
  8
MAIN0
  6
CONTINUOUS
 62
3
100
AcDbCircle
 10
505.7228130947517
 20
315.4181550882154
 30
0.0000000000000000
 40
9.500000000000000
  0
LINE
  5
F1
100
AcDbEntity
  8
MAIN0
  6
CENTER
 62
3
100
AcDbLine
 10
494.4323197439345
 20
304.1276617373976
 30
0.0000000000000000
 11
514.6548633337910
 21
324.3502053272552
 31
0.0000000000000000
  0
CIRCLE
  5
F2
100
AcDbEntity
  8
MAIN0
  6
CONTINUOUS
 62
3
100
AcDbCircle
 10
522.9795729269631
 20
285.5285702848135
 30
0.0000000000000000
 40
9.500000000000000
  0
CIRCLE
  5
F3
100
AcDbEntity
  8
MAIN0
  6
CONTINUOUS
 62
3
100
AcDbCircle
 10
522.9795729269632
 20
285.5285702848132
 30
0.0000000000000000
 40
6.750000000000000
  0
LINE
  5
F4
100
AcDbEntity
  8
MAIN0
  6
CENTER
 62
3
100
AcDbLine
 10
511.3756773358327
 20
282.4193158321147
 30
0.0000000000000000
 11
535.1809804613699
 21
288.7979275801812
 31
0.0000000000000000
  0
ARC
  5
F5
100
AcDbEntity
  8
MAIN0
  6
CENTER
 62
3
100
AcDbCircle
 10
458.5764684591400
 20
268.2718104526010
 30
0.0000000000000000
 40
66.67500000000000
100
AcDbArc
 50
358.9788271770803
 51
430.3303048781196
  0
ARC
  5
F6
100
AcDbEntity
  8
MAIN0
  6
HIDDEN
 62
3
100
AcDbCircle
 10
458.5764684591400
 20
268.2718104526010
 30
0.0000000000000000
 40
24.69999999999997
100
AcDbArc
 50
46.13952053591246
 51
133.8604794640876
  0
ARC
  5
F7
100
AcDbEntity
  8
MAIN0
  6
CONTINUOUS
 62
3
100
AcDbCircle
 10
458.5764684591400
 20
268.2718104526010
 30
0.0000000000000000
 40
24.50000000000000
100
AcDbArc
 50
133.9700134004243
 51
150.0000000006986
  0
ARC
  5
F8
100
AcDbEntity
  8
MAIN0
  6
CONTINUOUS
 62
3
100
AcDbCircle
 10
458.5764684591400
 20
268.2718104526010
 30
0.0000000000000000
 40
24.50000000000000
100
AcDbArc
 50
30.00000000069865
 51
46.02998659957581
  0
LINE
  5
F9
100
AcDbEntity
  8
MAIN0
  6
CENTER
 62
3
100
AcDbLine
 10
237.8593809621359
 20
253.7129421469542
 30
0.0000000000000000
 11
237.8593809621359
 21
160.0592955010799
 31
0.0000000000000000
  0
LINE
  5
FA
100
AcDbEntity
  8
MAIN0
  6
CONTINUOUS
 62
3
100
AcDbLine
 10
164.8593067884387
 20
276.9186454520756
 30
0.0000000000000000
 11
91.00614178844222
 21
276.9186454521914
 31
0.0000000000000000
  0
LINE
  5
FB
100
AcDbEntity
  8
MAIN0
  6
CONTINUOUS
 62
3
100
AcDbLine
 10
89.85930678843685
 20
275.7718104521934
 30
0.0000000000000000
 11
92.35930678844872
 21
278.2718104521892
 31
0.0000000000000000
  0
LINE
  5
FC
100
AcDbEntity
  8
MAIN0
  6
CONTINUOUS
 62
3
100
AcDbLine
 10
161.6593809621039
 20
288.6718104531119
 30
0.0000000000000000
 11
162.0593809621046
 21
288.2718104531125
 31
0.0000000000000000
  0
LINE
  5
FD
100
AcDbEntity
  8
MAIN0
  6
CONTINUOUS
 62
3
100
AcDbLine
 10
248.8648602879091
 20
263.2718104526009
 30
0.0000000000000000
 11
248.8648602879091
 21
273.2718104526009
 31
0.0000000000000000
  0
LINE
  5
FE
100
AcDbEntity
  8
MAIN0
  6
CENTER
 62
3
100
AcDbLine
 10
213.8593809621359
 20
195.4744512612821
 30
0.0000000000000000
 11
213.8593809621359
 21
160.5391255576554
 31
0.0000000000000000
  0
LINE
  5
FF
100
AcDbEntity
  8
MAIN0
  6
CONTINUOUS
 62
3
100
AcDbLine
 10
206.3593809621359
 20
174.2718104526010
 30
0.0000000000000000
 11
221.3593809621359
 21
174.2718104526010
 31
0.0000000000000000
  0
LINE
  5
100
100
AcDbEntity
  8
MAIN0
  6
CONTINUOUS
 62
3
100
AcDbLine
 10
206.3593809621359
 20
174.2718104526010
 30
0.0000000000000000
 11
206.3593809621359
 21
164.2718104526010
 31
0.0000000000000000
  0
LINE
  5
101
100
AcDbEntity
  8
MAIN0
  6
CONTINUOUS
 62
3
100
AcDbLine
 10
221.3593809621359
 20
174.2718104526010
 30
0.0000000000000000
 11
221.3593809621359
 21
164.2718104526010
 31
0.0000000000000000
  0
LINE
  5
102
100
AcDbEntity
  8
MAIN0
  6
CONTINUOUS
 62
3
100
AcDbLine
 10
221.3593809621359
 20
164.2718104526010
 30
0.0000000000000000
 11
222.3593809621359
 21
163.2718104526010
 31
0.0000000000000000
  0
LINE
  5
103
100
AcDbEntity
  8
MAIN0
  6
CONTINUOUS
 62
3
100
AcDbLine
 10
206.3593809621359
 20
164.2718104526010
 30
0.0000000000000000
 11
205.3593809621359
 21
163.2718104526010
 31
0.0000000000000000
  0
ARC
  5
104
100
AcDbEntity
  8
MAIN0
  6
CENTER
 62
3
100
AcDbCircle
 10
458.5764684591400
 20
268.2718104526010
 30
0.0000000000000000
 40
80.00000000000000
100
AcDbArc
 50
80.90753698459331
 51
100.5219289455165
  0
LINE
  5
105
100
AcDbEntity
  8
MAIN0
  6
CONTINUOUS
 62
3
100
AcDbLine
 10
443.9168879913777
 20
236.7140869557466
 30
0.0000000000000000
 11
434.1230611391121
 21
231.0596183861945
 31
0.0000000000000000
  0
LINE
  5
106
100
AcDbEntity
  8
MAIN0
  6
CONTINUOUS
 62
3
100
AcDbLine
 10
423.9168879913779
 20
271.3551031071242
 30
0.0000000000000000
 11
414.1230611391121
 21
265.7006345375721
 31
0.0000000000000000
  0
ELLIPSE
  5
107
100
AcDbEntity
  8
MAIN0
  6
CONTINUOUS
 62
3
100
AcDbEllipse
 10
424.1230611391121
 20
248.3801264618832
 30
0.0000000000000000
 11
-17.85075168998502
 21
-10.30613629344997
 31
0.0000000000000000
210
0.0000000000000000
220
0.0000000000000000
230
1.000000000000000
 40
0.9702957262806071
 41
4.712388980384690
 42
1.570796326794899
  0
ARC
  5
108
100
AcDbEntity
  8
MAIN0
  6
CONTINUOUS
 62
3
100
AcDbCircle
 10
458.5764684591400
 20
268.2718104526010
 30
0.0000000000000000
 40
53.99999999999999
100
AcDbArc
 50
197.5826435702040
 51
222.4173564297958
  0
ELLIPSE
  5
109
100
AcDbEntity
  8
MAIN0
  6
CONTINUOUS
 62
3
100
AcDbEllipse
 10
427.4391564611969
 20
250.2946749887474
 30
0.0000000000000000
 11
-17.85075168998502
 21
-10.30613629344997
 31
0.0000000000000000
210
0.0000000000000000
220
0.0000000000000000
230
1.000000000000000
 40
0.9702957262806071
 41
5.663739311245381
 42
0.6194459959342069
  0
ARC
  5
10A
100
AcDbEntity
  8
MAIN0
  6
CONTINUOUS
 62
3
100
AcDbCircle
 10
458.5764684591400
 20
268.2718104526010
 30
0.0000000000000000
 40
25.00000000000000
100
AcDbArc
 50
166.3094535276568
 51
253.6905464723430
  0
ELLIPSE
  5
10B
100
AcDbEntity
  8
MAIN0
  6
CONTINUOUS
 62
3
100
AcDbEllipse
 10
433.9168879913779
 20
254.0345950314354
 30
0.0000000000000000
 11
-17.85075168998502
 21
-10.30613629344997
 31
0.0000000000000000
210
0.0000000000000000
220
0.0000000000000000
230
1.000000000000000
 40
0.9702957262806071
 41
1.570796326794896
 42
4.712388980384692
  0
ELLIPSE
  5
10C
100
AcDbEntity
  8
MAIN0
  6
CONTINUOUS
 62
3
100
AcDbEllipse
 10
428.9506271516593
 20
251.1673229987580
 30
0.0000000000000000
 11
-17.85075168998502
 21
-10.30613629344997
 31
0.0000000000000000
210
0.0000000000000000
220
0.0000000000000000
230
1.000000000000000
 40
0.9702957262806071
 41
0.3518884646392245
 42
1.570796326794896
  0
ELLIPSE
  5
10D
100
AcDbEntity
  8
MAIN0
  6
CONTINUOUS
 62
3
100
AcDbEllipse
 10
428.9506271516593
 20
251.1673229987580
 30
0.0000000000000000
 11
-17.85075168998502
 21
-10.30613629344997
 31
0.0000000000000000
210
0.0000000000000000
220
0.0000000000000000
230
1.000000000000000
 40
0.9702957262806071
 41
4.712388980384690
 42
5.931296842540366
  0
ARC
  5
10E
100
AcDbEntity
  8
MAIN0
  6
CONTINUOUS
 62
3
100
AcDbCircle
 10
458.5764684591400
 20
268.2718104526010
 30
0.0000000000000000
 40
31.40587221086024
100
AcDbArc
 50
171.3196373547802
 51
248.6803626452196
  0
CIRCLE
  5
10F
100
AcDbEntity
  8
MAIN0
  6
CONTINUOUS
 62
3
100
AcDbCircle
 10
394.1733639913159
 20
285.5285702848104
 30
0.0000000000000000
 40
6.750000000000000
  0
CIRCLE
  5
110
100
AcDbEntity
  8
MAIN0
  6
CONTINUOUS
 62
3
100
AcDbCircle
 10
394.1733639913159
 20
285.5285702848099
 30
0.0000000000000000
 40
9.500000000000000
  0
LINE
  5
111
100
AcDbEntity
  8
MAIN0
  6
CENTER
 62
3
100
AcDbLine
 10
409.5964647297919
 20
281.3959628971519
 30
0.0000000000000000
 11
381.9719564569089
 21
288.7979275801770
 31
0.0000000000000000
  0
CIRCLE
  5
112
100
AcDbEntity
  8
MAIN0
  6
CONTINUOUS
 62
3
100
AcDbCircle
 10
411.4301238235256
 20
315.4181550882128
 30
0.0000000000000000
 40
9.500000000000000
  0
CIRCLE
  5
113
100
AcDbEntity
  8
MAIN0
  6
CONTINUOUS
 62
3
100
AcDbCircle
 10
411.4301238235258
 20
315.4181550882130
 30
0.0000000000000000
 40
6.750000000000000
  0
LINE
  5
114
100
AcDbEntity
  8
MAIN0
  6
CENTER
 62
3
100
AcDbLine
 10
419.9247649619578
 20
306.9235139497811
 30
0.0000000000000000
 11
402.4980735844857
 21
324.3502053272521
 31
0.0000000000000000
  0
ARC
  5
115
100
AcDbEntity
  8
MAIN0
  6
CENTER
 62
3
100
AcDbCircle
 10
458.5764684591400
 20
268.2718104526010
 30
0.0000000000000000
 40
66.67500000000000
100
AcDbArc
 50
118.9788271770802
 51
178.8853917818752
  0
ARC
  5
116
100
AcDbEntity
  8
MAIN0
  6
HIDDEN
 62
3
100
AcDbCircle
 10
458.5764684591400
 20
268.2718104526010
 30
0.0000000000000000
 40
24.69999999999997
100
AcDbArc
 50
166.1395205359123
 51
253.8604794640874
  0
LINE
  5
117
100
AcDbEntity
  8
MAIN0
  6
CENTER
 62
3
100
AcDbLine
 10
412.5045857442590
 20
258.0706521151292
 30
0.0000000000000000
 11
427.0189616857459
 21
232.9310155443182
 31
0.0000000000000000
  0
CIRCLE
  5
118
100
AcDbEntity
  8
MAIN0
  6
CONTINUOUS
 62
3
100
AcDbCircle
 10
419.6053252886836
 20
245.7718104528722
 30
0.0000000000000000
 40
6.000000000000000
  0
CIRCLE
  5
119
100
AcDbEntity
  8
MAIN0
  6
CONTINUOUS
 62
3
100
AcDbCircle
 10
419.6053252886836
 20
245.7718104528722
 30
0.0000000000000000
 40
5.100000000000001
  0
ARC
  5
11A
100
AcDbEntity
  8
MAIN0
  6
CONTINUOUS
 62
3
100
AcDbCircle
 10
458.5764684591400
 20
268.2718104526010
 30
0.0000000000000000
 40
24.50000000000000
100
AcDbArc
 50
253.9700134004241
 51
270.0000000006984
  0
ARC
  5
11B
100
AcDbEntity
  8
MAIN0
  6
CONTINUOUS
 62
3
100
AcDbCircle
 10
458.5764684591400
 20
268.2718104526010
 30
0.0000000000000000
 40
24.50000000000000
100
AcDbArc
 50
150.0000000006985
 51
166.0299865995757
  0
ARC
  5
11C
100
AcDbEntity
  8
MAIN0
  6
CENTER
 62
3
100
AcDbCircle
 10
458.5764684591400
 20
268.2718104526010
 30
0.0000000000000000
 40
80.00000000000000
100
AcDbArc
 50
200.9144615057843
 51
213.4689760237901
  0
LINE
  5
11D
100
AcDbEntity
  8
MAIN0
  6
CONTINUOUS
 62
3
100
AcDbLine
 10
493.2360489269021
 20
271.3551031071239
 30
0.0000000000000000
 11
503.0298757791677
 21
265.7006345375717
 31
0.0000000000000000
  0
LINE
  5
11E
100
AcDbEntity
  8
MAIN0
  6
CONTINUOUS
 62
3
100
AcDbLine
 10
473.2360489269018
 20
236.7140869557464
 30
0.0000000000000000
 11
483.0298757791675
 21
231.0596183861942
 31
0.0000000000000000
  0
ELLIPSE
  5
11F
100
AcDbEntity
  8
MAIN0
  6
CONTINUOUS
 62
3
100
AcDbEllipse
 10
493.0298757791677
 20
248.3801264618830
 30
0.0000000000000000
 11
17.85075168998496
 21
-10.30613629345008
 31
0.0000000000000000
210
0.0000000000000000
220
0.0000000000000000
230
1.000000000000000
 40
0.9702957262806071
 41
4.712388980384688
 42
1.570796326794899
  0
ARC
  5
120
100
AcDbEntity
  8
MAIN0
  6
CONTINUOUS
 62
3
100
AcDbCircle
 10
458.5764684591400
 20
268.2718104526010
 30
0.0000000000000000
 40
53.99999999999999
100
AcDbArc
 50
317.5826435702039
 51
342.4173564297957
  0
ELLIPSE
  5
121
100
AcDbEntity
  8
MAIN0
  6
CONTINUOUS
 62
3
100
AcDbEllipse
 10
489.7137804570829
 20
250.2946749887472
 30
0.0000000000000000
 11
17.85075168998496
 21
-10.30613629345008
 31
0.0000000000000000
210
0.0000000000000000
220
0.0000000000000000
230
1.000000000000000
 40
0.9702957262806071
 41
5.663739311245376
 42
0.6194459959342077
  0
ARC
  5
122
100
AcDbEntity
  8
MAIN0
  6
CONTINUOUS
 62
3
100
AcDbCircle
 10
458.5764684591400
 20
268.2718104526010
 30
0.0000000000000000
 40
25.00000000000000
100
AcDbArc
 50
286.3094535276567
 51
373.6905464723429
  0
ELLIPSE
  5
123
100
AcDbEntity
  8
MAIN0
  6
CONTINUOUS
 62
3
100
AcDbEllipse
 10
483.2360489269020
 20
254.0345950314352
 30
0.0000000000000000
 11
17.85075168998496
 21
-10.30613629345008
 31
0.0000000000000000
210
0.0000000000000000
220
0.0000000000000000
230
1.000000000000000
 40
0.9702957262806071
 41
1.570796326794894
 42
4.712388980384692
  0
ELLIPSE
  5
124
100
AcDbEntity
  8
MAIN0
  6
CONTINUOUS
 62
3
100
AcDbEllipse
 10
488.2023097666205
 20
251.1673229987578
 30
0.0000000000000000
 11
17.85075168998496
 21
-10.30613629345008
 31
0.0000000000000000
210
0.0000000000000000
220
0.0000000000000000
230
1.000000000000000
 40
0.9702957262806071
 41
0.3518884646392261
 42
1.570796326794894
  0
ELLIPSE
  5
125
100
AcDbEntity
  8
MAIN0
  6
CONTINUOUS
 62
3
100
AcDbEllipse
 10
488.2023097666205
 20
251.1673229987578
 30
0.0000000000000000
 11
17.85075168998496
 21
-10.30613629345008
 31
0.0000000000000000
210
0.0000000000000000
220
0.0000000000000000
230
1.000000000000000
 40
0.9702957262806071
 41
4.712388980384692
 42
5.931296842540367
  0
ARC
  5
126
100
AcDbEntity
  8
MAIN0
  6
CONTINUOUS
 62
3
100
AcDbCircle
 10
458.5764684591400
 20
268.2718104526010
 30
0.0000000000000000
 40
31.40587221086024
100
AcDbArc
 50
291.3196373547801
 51
368.6803626452194
  0
CIRCLE
  5
127
100
AcDbEntity
  8
MAIN0
  6
CONTINUOUS
 62
3
100
AcDbCircle
 10
475.8332282913517
 20
203.8687059847776
 30
0.0000000000000000
 40
6.750000000000000
  0
CIRCLE
  5
128
100
AcDbEntity
  8
MAIN0
  6
CONTINUOUS
 62
3
100
AcDbCircle
 10
475.8332282913520
 20
203.8687059847778
 30
0.0000000000000000
 40
9.500000000000000
  0
LINE
  5
129
100
AcDbEntity
  8
MAIN0
  6
CENTER
 62
3
100
AcDbLine
 10
471.7006209036931
 20
219.2918067232537
 30
0.0000000000000000
 11
479.1025855867196
 21
191.6672984503710
 31
0.0000000000000000
  0
CIRCLE
  5
12A
100
AcDbEntity
  8
MAIN0
  6
CONTINUOUS
 62
3
100
AcDbCircle
 10
441.3197086269311
 20
203.8687059847769
 30
0.0000000000000000
 40
9.500000000000000
  0
CIRCLE
  5
12B
100
AcDbEntity
  8
MAIN0
  6
CONTINUOUS
 62
3
100
AcDbCircle
 10
441.3197086269307
 20
203.8687059847770
 30
0.0000000000000000
 40
6.750000000000000
  0
LINE
  5
12C
100
AcDbEntity
  8
MAIN0
  6
CENTER
 62
3
100
AcDbLine
 10
444.4289630796292
 20
215.4726015759075
 30
0.0000000000000000
 11
438.0503513315639
 21
191.6672984503699
 31
0.0000000000000000
  0
ARC
  5
12D
100
AcDbEntity
  8
MAIN0
  6
CENTER
 62
3
100
AcDbCircle
 10
458.5764684591400
 20
268.2718104526010
 30
0.0000000000000000
 40
66.67500000000000
100
AcDbArc
 50
228.3777712834771
 51
298.8853917818751
  0
ARC
  5
12E
100
AcDbEntity
  8
MAIN0
  6
HIDDEN
 62
3
100
AcDbCircle
 10
458.5764684591400
 20
268.2718104526010
 30
0.0000000000000000
 40
24.69999999999997
100
AcDbArc
 50
286.1395205359122
 51
373.8604794640874
  0
LINE
  5
12F
100
AcDbEntity
  8
MAIN0
  6
CENTER
 62
3
100
AcDbLine
 10
490.4468720848583
 20
233.4729687900728
 30
0.0000000000000000
 11
504.9612480263455
 21
258.6126053608837
 31
0.0000000000000000
  0
CIRCLE
  5
130
100
AcDbEntity
  8
MAIN0
  6
CONTINUOUS
 62
3
100
AcDbCircle
 10
497.5476116292832
 20
245.7718104523299
 30
0.0000000000000000
 40
6.000000000000000
  0
CIRCLE
  5
131
100
AcDbEntity
  8
MAIN0
  6
CONTINUOUS
 62
3
100
AcDbCircle
 10
497.5476116292832
 20
245.7718104523299
 30
0.0000000000000000
 40
5.100000000000001
  0
ARC
  5
132
100
AcDbEntity
  8
MAIN0
  6
CONTINUOUS
 62
3
100
AcDbCircle
 10
458.5764684591400
 20
268.2718104526010
 30
0.0000000000000000
 40
24.50000000000000
100
AcDbArc
 50
13.97001340042402
 51
30.00000000069836
  0
ARC
  5
133
100
AcDbEntity
  8
MAIN0
  6
CONTINUOUS
 62
3
100
AcDbCircle
 10
458.5764684591400
 20
268.2718104526010
 30
0.0000000000000000
 40
24.50000000000000
100
AcDbArc
 50
270.0000000006984
 51
286.0299865995756
  0
ARC
  5
134
100
AcDbEntity
  8
MAIN0
  6
CENTER
 62
3
100
AcDbCircle
 10
458.5764684591400
 20
268.2718104526010
 30
0.0000000000000000
 40
80.00000000000000
100
AcDbArc
 50
327.2543476309097
 51
333.7643149477324
  0
LINE
  5
135
100
AcDbEntity
  8
MAIN0
  6
CENTER
 62
3
100
AcDbLine
 10
231.5481711940410
 20
313.2718104526010
 30
0.0000000000000000
 11
281.1620635746263
 21
313.2718104526010
 31
0.0000000000000000
  0
LINE
  5
136
100
AcDbEntity
  8
MAIN0
  6
CONTINUOUS
 62
3
100
AcDbLine
 10
233.2466153822610
 20
332.7280199604007
 30
0.0000000000000000
 11
233.2949997613809
 21
332.9220791056560
 31
0.0000000000000000
  0
LINE
  5
137
100
AcDbEntity
  8
MAIN0
  6
CONTINUOUS
 62
3
100
AcDbLine
 10
232.7130831400031
 20
332.6549217629453
 30
0.0000000000000000
 11
232.7614675191230
 21
332.8489809082005
 31
0.0000000000000000
  0
LINE
  5
138
100
AcDbEntity
  8
MAIN0
  6
CENTER
 62
3
100
AcDbLine
 10
434.1711376301653
 20
183.2718104526010
 30
0.0000000000000000
 11
449.2638864672828
 21
183.2718104526010
 31
0.0000000000000000
  0
LINE
  5
139
100
AcDbEntity
  8
MAIN0
  6
CENTER
 62
3
100
AcDbLine
 10
466.4851039341065
 20
183.2718104526010
 30
0.0000000000000000
 11
480.8038688537865
 21
183.2718104526010
 31
0.0000000000000000
  0
LINE
  5
13A
100
AcDbEntity
  8
MAIN0
  6
CENTER
 62
3
100
AcDbLine
 10
436.1061084438332
 20
223.2718104526010
 30
0.0000000000000000
 11
449.8443799153980
 21
223.2718104526010
 31
0.0000000000000000
  0
LINE
  5
13B
100
AcDbEntity
  8
MAIN0
  6
CENTER
 62
3
100
AcDbLine
 10
465.7111126699527
 20
223.2718104526010
 30
0.0000000000000000
 11
479.6428819575559
 21
223.2718104526010
 31
0.0000000000000000
  0
LINE
  5
13C
100
AcDbEntity
  8
MAIN0
  6
CENTER
 62
3
100
AcDbLine
 10
473.5764684591400
 20
176.4321682374831
 30
0.0000000000000000
 11
473.5764684591400
 21
189.9769418930094
 31
0.0000000000000000
  0
LINE
  5
13D
100
AcDbEntity
  8
MAIN0
  6
CENTER
 62
3
100
AcDbLine
 10
473.5764684591400
 20
216.6794935719853
 30
0.0000000000000000
 11
473.5764684591400
 21
229.6437811261127
 31
0.0000000000000000
  0
LINE
  5
13E
100
AcDbEntity
  8
MAIN0
  6
CENTER
 62
3
100
AcDbLine
 10
443.5764684591400
 20
175.2711886879689
 30
0.0000000000000000
 11
443.5764684591400
 21
189.9769418930094
 31
0.0000000000000000
  0
LINE
  5
13F
100
AcDbEntity
  8
MAIN0
  6
CENTER
 62
3
100
AcDbLine
 10
443.5764684591400
 20
217.8404731214995
 30
0.0000000000000000
 11
443.5764684591400
 21
230.6112702063049
 31
0.0000000000000000
  0
DIMENSION
  5
148
100
AcDbEntity
  8
MAIN0
  6
CONTINUOUS
 62
3
100
AcDbDimension
  2
*D0
 10
443.5764684591400
 20
141.2291937367059
 30
0.0000000000000000
 11
458.3708569417578
 21
141.7291937367059
 31
0.0000000000000000
 70
160
  3
MAIN001
100
AcDbAlignedDimension
 13
473.5764684591400
 23
176.4321682374831
 33
0.0000000000000000
 14
443.5764684591400
 24
175.2711886879689
 34
0.0000000000000000
100
AcDbRotatedDimension
1001
ACAD
1000
DSTYLE
1002
{
1070
   173
1070
     1
1070
     6
1000
_OPEN
1070
     7
1000
_OPEN
1070
    41
1040
2.000000
1002
}
  0
DIMENSION
  5
150
100
AcDbEntity
  8
MAIN0
  6
CONTINUOUS
 62
3
100
AcDbDimension
  2
*D1
 10
344.2111535575367
 20
268.2718104526010
 30
0.0000000000000000
 11
343.7111535575367
 21
245.7718104526010
 31
0.0000000000000000
 70
32
  3
MAIN001
100
AcDbAlignedDimension
 13
436.1061084438332
 23
223.2718104526010
 33
0.0000000000000000
 14
73.61054556251438
 24
268.2718104526010
 34
0.0000000000000000
 50
90.00000000000000
100
AcDbRotatedDimension
1001
ACAD
1000
DSTYLE
1002
{
1070
   173
1070
     1
1070
     6
1000
_OPEN
1070
     7
1000
_OPEN
1070
    41
1040
2.000000
1002
}
  0
DIMENSION
  5
159
100
AcDbEntity
  8
MAIN0
  6
CONTINUOUS
 62
3
100
AcDbDimension
  2
*D2
 10
344.2111535575367
 20
223.2718104526010
 30
0.0000000000000000
 11
343.7111535575367
 21
203.2718104526010
 31
0.0000000000000000
 70
32
  3
MAIN001
100
AcDbAlignedDimension
 13
434.1711376301653
 23
183.2718104526010
 33
0.0000000000000000
 14
436.1061084438332
 24
223.2718104526010
 34
0.0000000000000000
 50
90.00000000000000
100
AcDbRotatedDimension
1001
ACAD
1000
DSTYLE
1002
{
1070
   173
1070
     1
1070
     6
1000
_OPEN
1070
     7
1000
_OPEN
1070
    41
1040
2.000000
1002
}
  0
LEADER
  5
15A
100
AcDbEntity
  8
MAIN0
  6
CONTINUOUS
 62
3
100
AcDbLeader
  3
MAIN001
 73
     0
 75
     1
 40
3.099999904632568
 41
42.15900121831896
 76
     3
 10
441.0994914885337
 20
181.5793019335424
 30
0.0000000000000000
 10
413.7092948988104
 20
135.7766898924663
 30
0.0000000000000000
 10
411.7822949546004
 20
135.7766898924663
 30
0.0000000000000000
340
15B
213
0.0000000000000000
223
-0.5000000000000000
233
0.0000000000000000
1001
ACAD
1000
DSTYLE
1002
{
1070
   147
1040
0.0
1070
    77
1070
     1
1070
   173
1070
     1
1070
     6
1000
_OPEN
1070
     7
1000
_OPEN
1002
}
  0
MTEXT
  5
15B
102
{ACAD_REACTORS
330
15A
102
}
100
AcDbEntity
  8
MAIN0
  6
CONTINUOUS
 62
3
100
AcDbMText
 10
369.6232937362814
 20
139.3766897970989
 30
0.0000000000000000
 40
3.099999904632568
 41
0.0000000000000000
 71
     1
 72
     1
  1
{\H0.93x;{3×4-M6 ネジ深11\P3×4-M6 DEPTH 11}}
 11
1.000000000000000
 21
0.0000000000000000
 31
0.0000000000000000
  7
KNJYOKO
  0
CIRCLE
  5
15C
100
AcDbEntity
  8
MAIN0
  6
CONTINUOUS
 62
3
100
AcDbCircle
 10
539.6886277808173
 20
297.7814293958343
 30
0.0000000000000000
 40
3.000000000000000
  0
LINE
  5
15D
100
AcDbEntity
  8
MAIN0
  6
CENTER
 62
3
100
AcDbLine
 10
544.3912931953046
 20
289.6361739669453
 30
0.0000000000000000
 11
536.8449187767459
 21
302.7068778728270
 31
0.0000000000000000
  0
LINE
  5
15E
100
AcDbEntity
  8
MAIN0
  6
CENTER
 62
3
100
AcDbLine
 10
546.6173694750594
 20
301.7817402781504
 30
0.0000000000000000
 11
533.8818136177098
 21
294.4288636756301
 31
0.0000000000000000
  0
CIRCLE
  5
15F
100
AcDbEntity
  8
MAIN0
  6
CONTINUOUS
 62
3
100
AcDbCircle
 10
539.6886277808173
 20
297.7814293958343
 30
0.0000000000000000
 40
2.500000000000000
  0
LINE
  5
160
100
AcDbEntity
  8
MAIN0
  6
CENTER
 62
3
100
AcDbLine
 10
528.2343100433341
 20
317.6208896831927
 30
0.0000000000000000
 11
521.0749275834941
 21
330.0213038544531
 31
0.0000000000000000
  0
CIRCLE
  5
161
100
AcDbEntity
  8
MAIN0
  6
CONTINUOUS
 62
3
100
AcDbCircle
 10
524.6886277808173
 20
323.7621915093674
 30
0.0000000000000000
 40
3.000000000000000
  0
CIRCLE
  5
162
100
AcDbEntity
  8
MAIN0
  6
CONTINUOUS
 62
3
100
AcDbCircle
 10
524.6886277808173
 20
323.7621915093674
 30
0.0000000000000000
 40
2.500000000000000
  0
LINE
  5
163
100
AcDbEntity
  8
MAIN0
  6
CENTER
 62
3
100
AcDbLine
 10
530.6119316919059
 20
327.1820126169264
 30
0.0000000000000000
 11
518.8818136177098
 21
320.4096257891633
 31
0.0000000000000000
  0
LINE
  5
164
100
AcDbEntity
  8
MAIN0
  6
CENTER
 62
3
100
AcDbLine
 10
495.7567255178500
 20
307.0583499496755
 30
0.0000000000000000
 11
484.5293231540092
 21
300.5762061726117
 31
0.0000000000000000
  0
LINE
  5
165
100
AcDbEntity
  8
MAIN0
  6
CENTER
 62
3
100
AcDbLine
 10
493.9802895240333
 20
296.9505935861284
 30
0.0000000000000000
 11
487.0144048802317
 21
309.0158597088566
 31
0.0000000000000000
  0
CIRCLE
  5
166
100
AcDbEntity
  8
MAIN0
  6
CONTINUOUS
 62
3
100
AcDbCircle
 10
490.0476116294398
 20
303.7621915093675
 30
0.0000000000000000
 40
2.500000000000000
  0
CIRCLE
  5
167
100
AcDbEntity
  8
MAIN0
  6
CONTINUOUS
 62
3
100
AcDbCircle
 10
490.0476116294398
 20
303.7621915093675
 30
0.0000000000000000
 40
3.000000000000000
  0
CIRCLE
  5
168
100
AcDbEntity
  8
MAIN0
  6
CONTINUOUS
 62
3
100
AcDbCircle
 10
505.0476116294398
 20
277.7814293958344
 30
0.0000000000000000
 40
3.000000000000000
  0
LINE
  5
169
100
AcDbEntity
  8
MAIN0
  6
CENTER
 62
3
100
AcDbLine
 10
508.7827916370931
 20
271.3119078471632
 30
0.0000000000000000
 11
501.9136559013107
 21
283.2095999456253
 31
0.0000000000000000
  0
CIRCLE
  5
16A
100
AcDbEntity
  8
MAIN0
  6
CONTINUOUS
 62
3
100
AcDbCircle
 10
505.0476116294398
 20
277.7814293958344
 30
0.0000000000000000
 40
2.500000000000000
  0
LINE
  5
16B
100
AcDbEntity
  8
MAIN0
  6
CENTER
 62
3
100
AcDbLine
 10
509.7512877346965
 20
280.4970980613852
 30
0.0000000000000000
 11
498.6914530326786
 21
274.1116995189825
 31
0.0000000000000000
  0
CIRCLE
  5
16C
100
AcDbEntity
  8
MAIN0
  6
CONTINUOUS
 62
3
100
AcDbCircle
 10
392.4643091374629
 20
323.7621915093678
 30
0.0000000000000000
 40
3.000000000000000
  0
LINE
  5
16D
100
AcDbEntity
  8
MAIN0
  6
CENTER
 62
3
100
AcDbLine
 10
397.1669745519503
 20
331.9074469382568
 30
0.0000000000000000
 11
389.6206001333916
 21
318.8367430323751
 31
0.0000000000000000
  0
LINE
  5
16E
100
AcDbEntity
  8
MAIN0
  6
CENTER
 62
3
100
AcDbLine
 10
385.5355674432208
 20
327.7625023916839
 30
0.0000000000000000
 11
398.2711233005703
 21
320.4096257891636
 31
0.0000000000000000
  0
CIRCLE
  5
16F
100
AcDbEntity
  8
MAIN0
  6
CONTINUOUS
 62
3
100
AcDbCircle
 10
392.4643091374629
 20
323.7621915093678
 30
0.0000000000000000
 40
2.500000000000000
  0
LINE
  5
170
100
AcDbEntity
  8
MAIN0
  6
CENTER
 62
3
100
AcDbLine
 10
381.0099913999796
 20
303.9227312220095
 30
0.0000000000000000
 11
373.8506089401395
 21
291.5223170507491
 31
0.0000000000000000
  0
CIRCLE
  5
171
100
AcDbEntity
  8
MAIN0
  6
CONTINUOUS
 62
3
100
AcDbCircle
 10
377.4643091374628
 20
297.7814293958348
 30
0.0000000000000000
 40
3.000000000000000
  0
CIRCLE
  5
172
100
AcDbEntity
  8
MAIN0
  6
CONTINUOUS
 62
3
100
AcDbCircle
 10
377.4643091374628
 20
297.7814293958348
 30
0.0000000000000000
 40
2.500000000000000
  0
LINE
  5
173
100
AcDbEntity
  8
MAIN0
  6
CENTER
 62
3
100
AcDbLine
 10
371.5410052263742
 20
301.2012505033937
 30
0.0000000000000000
 11
383.2711233005702
 21
294.4288636756305
 31
0.0000000000000000
  0
LINE
  5
174
100
AcDbEntity
  8
MAIN0
  6
CENTER
 62
3
100
AcDbLine
 10
406.3962114004301
 20
281.0775878361425
 30
0.0000000000000000
 11
417.6236137642708
 21
274.5954440590787
 31
0.0000000000000000
  0
LINE
  5
175
100
AcDbEntity
  8
MAIN0
  6
CENTER
 62
3
100
AcDbLine
 10
416.0380031834339
 20
284.5930273190737
 30
0.0000000000000000
 11
409.0721185396322
 21
272.5277611963455
 31
0.0000000000000000
  0
CIRCLE
  5
176
100
AcDbEntity
  8
MAIN0
  6
CONTINUOUS
 62
3
100
AcDbCircle
 10
412.1053252888403
 20
277.7814293958346
 30
0.0000000000000000
 40
2.500000000000000
  0
CIRCLE
  5
177
100
AcDbEntity
  8
MAIN0
  6
CONTINUOUS
 62
3
100
AcDbCircle
 10
412.1053252888403
 20
277.7814293958346
 30
0.0000000000000000
 40
3.000000000000000
  0
CIRCLE
  5
178
100
AcDbEntity
  8
MAIN0
  6
CONTINUOUS
 62
3
100
AcDbCircle
 10
427.1053252888404
 20
303.7621915093677
 30
0.0000000000000000
 40
3.000000000000000
  0
LINE
  5
179
100
AcDbEntity
  8
MAIN0
  6
CENTER
 62
3
100
AcDbLine
 10
430.8405052964938
 20
310.2317130580389
 30
0.0000000000000000
 11
423.9713695607113
 21
298.3340209595767
 31
0.0000000000000000
  0
CIRCLE
  5
17A
100
AcDbEntity
  8
MAIN0
  6
CONTINUOUS
 62
3
100
AcDbCircle
 10
427.1053252888404
 20
303.7621915093677
 30
0.0000000000000000
 40
2.500000000000000
  0
LINE
  5
17B
100
AcDbEntity
  8
MAIN0
  6
CENTER
 62
3
100
AcDbLine
 10
422.4016491835836
 20
306.4778601749184
 30
0.0000000000000000
 11
433.4614838856013
 21
300.0924616325157
 31
0.0000000000000000
  0
LINE
  5
17C
100
AcDbEntity
  8
MAIN0
  6
CONTINUOUS
 62
3
100
AcDbLine
 10
272.7170504190524
 20
300.1512599243713
 30
0.0000000000000000
 11
272.7170504190524
 21
322.2718104526010
 31
0.0000000000000000
  0
ARC
  5
17D
100
AcDbEntity
  8
MAIN0
  6
CONTINUOUS
 62
3
100
AcDbCircle
 10
458.5764684591400
 20
268.2718104526010
 30
0.0000000000000000
 40
31.40587221086024
100
AcDbArc
 50
51.31963735478033
 51
56.13619690115578
  0
ARC
  5
17E
100
AcDbEntity
  8
MAIN0
  6
CONTINUOUS
 62
3
100
AcDbCircle
 10
458.5764684591400
 20
268.2718104526010
 30
0.0000000000000000
 40
31.40587221086024
100
AcDbArc
 50
123.8638030988442
 51
128.6803626452196
  0
LINE
  5
17F
100
AcDbEntity
  8
MAIN0
  6
CONTINUOUS
 62
3
100
AcDbLine
 10
170.3591996056203
 20
288.2718104526009
 30
0.0000000000000000
 11
170.3591996056203
 21
290.7718104526010
 31
0.0000000000000000
  0
LINE
  5
180
100
AcDbEntity
  8
MAIN0
  6
CONTINUOUS
 62
3
100
AcDbLine
 10
166.3591996056203
 20
288.2718104526009
 30
0.0000000000000000
 11
166.3591996056203
 21
290.7718104526010
 31
0.0000000000000000
  0
LINE
  5
181
100
AcDbEntity
  8
MAIN0
  6
CONTINUOUS
 62
3
100
AcDbLine
 10
166.3591996056203
 20
290.7718104526010
 30
0.0000000000000000
 11
170.3591996056203
 21
290.7718104526010
 31
0.0000000000000000
  0
ELLIPSE
  5
182
100
AcDbEntity
  8
MAIN0
  6
CONTINUOUS
 62
3
100
AcDbEllipse
 10
168.3591996056203
 20
289.5218104526010
 30
0.0000000000000000
 11
2.000000000000000
 21
0.0000000000000000
 31
0.0000000000000000
210
0.0000000000000000
220
0.0000000000000000
230
1.000000000000000
 40
0.6250000000000000
 41
0.0000000000000000
 42
6.283185307179586
  0
LINE
  5
183
100
AcDbEntity
  8
MAIN0
  6
CONTINUOUS
 62
3
100
AcDbLine
 10
170.3591996056203
 20
248.2718104526011
 30
0.0000000000000000
 11
170.3591996056203
 21
245.7718104526010
 31
0.0000000000000000
  0
LINE
  5
184
100
AcDbEntity
  8
MAIN0
  6
CONTINUOUS
 62
3
100
AcDbLine
 10
166.3591996056203
 20
248.2718104526011
 30
0.0000000000000000
 11
166.3591996056203
 21
245.7718104526010
 31
0.0000000000000000
  0
LINE
  5
185
100
AcDbEntity
  8
MAIN0
  6
CONTINUOUS
 62
3
100
AcDbLine
 10
166.3591996056203
 20
245.7718104526010
 30
0.0000000000000000
 11
170.3591996056203
 21
245.7718104526010
 31
0.0000000000000000
  0
ELLIPSE
  5
186
100
AcDbEntity
  8
MAIN0
  6
CONTINUOUS
 62
3
100
AcDbEllipse
 10
168.3591996056203
 20
247.0218104526011
 30
0.0000000000000000
 11
-2.000000000000000
 21
0.0000000000000000
 31
0.0000000000000000
210
0.0000000000000000
220
0.0000000000000000
230
1.000000000000000
 40
0.6250000000000000
 41
0.0000000000000000
 42
6.283185307179586
  0
LINE
  5
187
100
AcDbEntity
  8
MAIN0
  6
CONTINUOUS
 62
3
100
AcDbLine
 10
234.0831351712962
 20
294.7474626363888
 30
0.0000000000000000
 11
233.3210812001574
 21
291.6910310986193
 31
0.0000000000000000
  0
LINE
  5
188
100
AcDbEntity
  8
MAIN0
  6
CENTER
 62
3
100
AcDbLine
 10
246.4087830389493
 20
286.3130191753043
 30
0.0000000000000000
 11
251.2765435737067
 21
305.8365403171343
 31
0.0000000000000000
  0
LINE
  5
189
100
AcDbEntity
  8
MAIN0
  6
CONTINUOUS
 62
3
100
AcDbLine
 10
251.8698365155687
 20
299.9489773474762
 30
0.0000000000000000
 11
250.4130888542158
 21
302.3734125912273
 31
0.0000000000000000
  0
LINE
  5
18A
100
AcDbEntity
  8
MAIN0
  6
CONTINUOUS
 62
3
100
AcDbLine
 10
250.4130888542157
 20
302.3734125912273
 30
0.0000000000000000
 11
247.9886536104646
 21
300.9166649298745
 31
0.0000000000000000
  0
LINE
  5
18B
100
AcDbEntity
  8
MAIN0
  6
CENTER
 62
3
100
AcDbLine
 10
282.7170504190589
 20
276.9360944404763
 30
0.0000000000000000
 11
282.7170504190548
 21
297.0305262191096
 31
0.0000000000000000
  0
LINE
  5
18C
100
AcDbEntity
  8
MAIN0
  6
CONTINUOUS
 62
3
100
AcDbLine
 10
279.7170504190556
 20
280.1232167532742
 30
0.0000000000000000
 11
280.2170504190557
 21
280.6232167532743
 31
0.0000000000000000
  0
LINE
  5
18D
100
AcDbEntity
  8
MAIN0
  6
CONTINUOUS
 62
3
100
AcDbLine
 10
280.2170504190558
 20
280.6232167532743
 30
0.0000000000000000
 11
285.2170504190617
 21
280.6232167532743
 31
0.0000000000000000
  0
LINE
  5
18E
100
AcDbEntity
  8
MAIN0
  6
CONTINUOUS
 62
3
100
AcDbLine
 10
287.7098888660807
 20
278.1303783062575
 30
0.0000000000000000
 11
285.2170504190617
 21
280.6232167532743
 31
0.0000000000000000
  0
DIMENSION
  5
197
100
AcDbEntity
  8
MAIN0
  6
CONTINUOUS
 62
3
100
AcDbDimension
  2
*D3
 10
59.49635084325499
 20
273.7718104526010
 30
0.0000000000000000
 11
58.99635084325499
 21
268.2718104526010
 31
0.0000000000000000
 70
32
  1
\A1;\U+220511
  3
MAIN001
100
AcDbAlignedDimension
 13
77.85930678842522
 23
262.7718104526010
 33
0.0000000000000000
 14
77.85930678842522
 24
273.7718104526010
 34
0.0000000000000000
 50
90.00000000000000
100
AcDbRotatedDimension
1001
ACAD
1000
DSTYLE
1002
{
1070
   173
1070
     1
1070
     6
1000
_OPEN
1070
     7
1000
_OPEN
1070
    41
1040
2.000000
1002
}
  0
DIMENSION
  5
1A2
100
AcDbEntity
  8
MAIN0
  6
CONTINUOUS
 62
3
100
AcDbDimension
  2
*D4
 10
66.93054503958828
 20
270.7718104526010
 30
0.0000000000000000
 11
66.43054503958828
 21
268.2718104526010
 31
0.0000000000000000
 70
32
  1
\A1;\U+22055
  3
MAIN001
100
AcDbAlignedDimension
 13
75.25930678842528
 23
265.7718104526010
 33
0.0000000000000000
 14
75.25930678842516
 24
270.7718104526010
 34
0.0000000000000000
 50
90.00000000000000
100
AcDbRotatedDimension
1001
ACAD
1000
DSTYLE
1002
{
1070
   173
1070
     1
1070
     6
1000
_OPEN
1070
     7
1000
_OPEN
1070
    41
1040
2.000000
1070
   287
1070
     0
1002
}
  0
DIMENSION
  5
1AB
100
AcDbEntity
  8
MAIN0
  6
CONTINUOUS
 62
3
100
AcDbDimension
  2
*D5
 10
51.95441410918295
 20
275.7718104526010
 30
0.0000000000000000
 11
51.45441410918295
 21
268.2718104526010
 31
0.0000000000000000
 70
32
  1
\A1;\U+220515h8
  3
MAIN001
100
AcDbAlignedDimension
 13
75.85930678842510
 23
260.7718104526010
 33
0.0000000000000000
 14
75.85930678842510
 24
275.7718104526010
 34
0.0000000000000000
 50
90.00000000000000
100
AcDbRotatedDimension
1001
ACAD
1000
DSTYLE
1002
{
1070
   173
1070
     1
1070
     6
1000
_OPEN
1070
     7
1000
_OPEN
1070
    41
1040
2.000000
1002
}
  0
DIMENSION
  5
1B4
100
AcDbEntity
  8
MAIN0
  6
CONTINUOUS
 62
3
100
AcDbDimension
  2
*D6
 10
45.16666695775430
 20
288.2718104526009
 30
0.0000000000000000
 11
44.66666695775430
 21
268.2718104526009
 31
0.0000000000000000
 70
32
  1
\A1;\U+220540
  3
MAIN001
100
AcDbAlignedDimension
 13
148.3593809621358
 23
248.2718104526009
 33
0.0000000000000000
 14
148.3593809621358
 24
288.2718104526009
 34
0.0000000000000000
 50
90.00000000000000
100
AcDbRotatedDimension
1001
ACAD
1000
DSTYLE
1002
{
1070
   173
1070
     1
1070
     6
1000
_OPEN
1070
     7
1000
_OPEN
1070
    41
1040
2.000000
1002
}
  0
DIMENSION
  5
1BD
100
AcDbEntity
  8
MAIN0
  6
CONTINUOUS
 62
3
100
AcDbDimension
  2
*D7
 10
37.62473226906420
 20
353.2718104526009
 30
0.0000000000000000
 11
37.12473226906420
 21
268.2718104523491
 31
0.0000000000000000
 70
32
  1
\A1;\U+2205170G7
  3
MAIN001
100
AcDbAlignedDimension
 13
156.9593809620027
 23
183.2718104520974
 33
0.0000000000000000
 14
156.9593809621359
 24
353.2718104526009
 34
0.0000000000000000
 50
90.00000000000000
100
AcDbRotatedDimension
1001
ACAD
1000
DSTYLE
1002
{
1070
   173
1070
     1
1070
     6
1000
_OPEN
1070
     7
1000
_OPEN
1070
    41
1040
2.000000
1002
}
  0
DIMENSION
  5
1C6
100
AcDbEntity
  8
MAIN0
  6
CONTINUOUS
 62
3
100
AcDbDimension
  2
*D8
 10
29.76343248262921
 20
373.2718104526010
 30
0.0000000000000000
 11
29.26343248262921
 21
268.2718104526010
 31
0.0000000000000000
 70
32
  1
\A1;\U+2205210
  3
MAIN001
100
AcDbAlignedDimension
 13
157.3593809614673
 23
163.2718104526010
 33
0.0000000000000000
 14
158.3593809621360
 24
373.2718104526010
 34
0.0000000000000000
 50
90.00000000000000
100
AcDbRotatedDimension
1001
ACAD
1000
DSTYLE
1002
{
1070
   173
1070
     1
1070
     6
1000
_OPEN
1070
     7
1000
_OPEN
1070
    41
1040
2.000000
1002
}
  0
LEADER
  5
1C7
100
AcDbEntity
  8
MAIN0
  6
CONTINUOUS
 62
3
100
AcDbLeader
  3
MAIN001
 73
     0
 75
     1
 40
3.099999904632568
 41
7.989000247955318
 76
     3
 10
103.7595098212256
 20
258.2718104526010
 30
0.0000000000000000
 10
89.50486648461279
 20
222.0743824171381
 30
0.0000000000000000
 10
87.57786654040274
 20
222.0743824171381
 30
0.0000000000000000
340
1C8
213
0.0000000000000000
223
-0.5000000000000000
233
0.0000000000000000
1001
ACAD
1000
DSTYLE
1002
{
1070
   147
1040
0.0
1070
    77
1070
     1
1070
   173
1070
     1
1070
     6
1000
_OPEN
1070
     7
1000
_OPEN
1002
}
  0
MTEXT
  5
1C8
102
{ACAD_REACTORS
330
1C7
102
}
100
AcDbEntity
  8
MAIN0
  6
CONTINUOUS
 62
3
100
AcDbMText
 10
79.58886629244742
 20
225.6743823217707
 30
0.0000000000000000
 40
3.099999904632568
 41
0.0000000000000000
 71
     1
 72
     1
  1
{\H0.90x;{M20}}
 11
1.000000000000000
 21
0.0000000000000000
 31
0.0000000000000000
  7
STANDARD
  0
LINE
  5
1C9
100
AcDbEntity
  8
MAIN0
  6
CONTINUOUS
 62
3
100
AcDbLine
 10
156.3593809621359
 20
207.5968104526010
 30
0.0000000000000000
 11
156.3593809621359
 21
248.2718104526009
 31
0.0000000000000000
  0
LINE
  5
1CA
100
AcDbEntity
  8
MAIN0
  6
CONTINUOUS
 62
3
100
AcDbLine
 10
156.3593809621359
 20
288.2718104526009
 30
0.0000000000000000
 11
156.3593809621359
 21
372.2718104526009
 31
0.0000000000000000
  0
DIMENSION
  5
1D3
100
AcDbEntity
  8
MAIN0
  6
CONTINUOUS
 62
3
100
AcDbDimension
  2
*D9
 10
74.85930678842513
 20
310.7069793580508
 30
0.0000000000000000
 11
82.35930678842513
 21
311.2069793580508
 31
0.0000000000000000
 70
32
  3
MAIN001
100
AcDbAlignedDimension
 13
89.85930678842512
 23
275.7718104526010
 33
0.0000000000000000
 14
74.85930678842513
 24
274.7718104526010
 34
0.0000000000000000
100
AcDbRotatedDimension
1001
ACAD
1000
DSTYLE
1002
{
1070
   173
1070
     1
1070
     6
1000
_OPEN
1070
     7
1000
_OPEN
1070
    41
1040
2.000000
1002
}
  0
DIMENSION
  5
1DC
100
AcDbEntity
  8
MAIN0
  6
CONTINUOUS
 62
3
100
AcDbDimension
  2
*D10
 10
74.85930678842513
 20
321.2567030387528
 30
0.0000000000000000
 11
98.60934387528050
 21
321.7567030387528
 31
0.0000000000000000
 70
32
  3
MAIN001
100
AcDbAlignedDimension
 13
122.3593809621359
 23
285.2718104525961
 33
0.0000000000000000
 14
74.85930678842513
 24
274.7718104526010
 34
0.0000000000000000
100
AcDbRotatedDimension
1001
ACAD
1000
DSTYLE
1002
{
1070
   173
1070
     1
1070
     6
1000
_OPEN
1070
     7
1000
_OPEN
1070
    41
1040
2.000000
1002
}
  0
DIMENSION
  5
1E4
100
AcDbEntity
  8
MAIN0
  6
CONTINUOUS
 62
3
100
AcDbDimension
  2
*D11
 10
161.3593809621359
 20
332.2284342523822
 30
0.0000000000000000
 11
118.1093438752805
 21
332.7284342523822
 31
0.0000000000000000
 70
32
  1
\A1;MAX 91.8
  3
MAIN001
100
AcDbAlignedDimension
 13
74.85930678842513
 23
274.7718104526010
 33
0.0000000000000000
 14
161.3593809621359
 24
352.6218104526008
 34
0.0000000000000000
100
AcDbRotatedDimension
1001
ACAD
1000
DSTYLE
1002
{
1070
   173
1070
     1
1070
     6
1000
_OPEN
1070
     7
1000
_OPEN
1070
    41
1040
2.000000
1002
}
  0
MTEXT
  5
1E5
100
AcDbEntity
  8
MAIN0
  6
CONTINUOUS
 62
3
100
AcDbMText
 10
110.2593439706480
 20
331.7284342523822
 30
0.0000000000000000
 40
3.099999904632568
 41
0.0000000000000000
 71
     1
 72
     1
  1
{\H0.66x;{MIN 81.5}}
 11
1.000000000000000
 21
0.0000000000000000
 31
0.0000000000000000
  7
STANDARD
  0
DIMENSION
  5
1ED
100
AcDbEntity
  8
MAIN0
  6
CONTINUOUS
 62
3
100
AcDbDimension
  2
*D12
 10
144.3593809621359
 20
214.9154231271079
 30
0.0000000000000000
 11
151.1024280629177
 21
215.4154231271079
 31
0.0000000000000000
 70
160
  3
MAIN001
100
AcDbAlignedDimension
 13
161.3593809620037
 23
183.9218104520906
 33
0.0000000000000000
 14
144.3593809621359
 24
207.5968104526010
 34
0.0000000000000000
100
AcDbRotatedDimension
1001
ACAD
1000
DSTYLE
1002
{
1070
   173
1070
     1
1070
     6
1000
_OPEN
1070
     7
1000
_OPEN
1070
    41
1040
2.000000
1002
}
  0
LEADER
  5
1EE
100
AcDbEntity
  8
MAIN0
  6
CONTINUOUS
 62
3
100
AcDbLeader
  3
MAIN001
 73
     0
 75
     1
 40
3.099999904632568
 41
7.989000247955318
 76
     3
 10
149.2034822865947
 20
195.5968104526010
 30
0.0000000000000000
 10
137.8097595621924
 20
169.9735755731996
 30
0.0000000000000000
 10
135.8827596179824
 20
169.9735755731996
 30
0.0000000000000000
340
1EF
213
0.0000000000000000
223
-0.5000000000000000
233
0.0000000000000000
1001
ACAD
1000
DSTYLE
1002
{
1070
   147
1040
0.0
1070
    77
1070
     1
1070
   173
1070
     1
1070
     6
1000
_OPEN
1070
     7
1000
_OPEN
1002
}
  0
MTEXT
  5
1EF
102
{ACAD_REACTORS
330
1EE
102
}
100
AcDbEntity
  8
MAIN0
  6
CONTINUOUS
 62
3
100
AcDbMText
 10
127.8937593700271
 20
173.5735754778322
 30
0.0000000000000000
 40
3.099999904632568
 41
0.0000000000000000
 71
     1
 72
     1
  1
{\H0.90x;{M12}}
 11
1.000000000000000
 21
0.0000000000000000
 31
0.0000000000000000
  7
STANDARD
  0
DIMENSION
  5
1F8
100
AcDbEntity
  8
MAIN0
  6
CONTINUOUS
 62
3
100
AcDbDimension
  2
*D13
 10
295.3593067884252
 20
126.3932163604604
 30
0.0000000000000000
 11
272.8593438752805
 21
126.8932163604604
 31
0.0000000000000000
 70
32
  3
MAIN001
100
AcDbAlignedDimension
 13
250.3593809621359
 23
164.2718104526010
 33
0.0000000000000000
 14
295.3593067884252
 24
252.2718104526010
 34
0.0000000000000000
100
AcDbRotatedDimension
1001
ACAD
1000
DSTYLE
1002
{
1070
   173
1070
     1
1070
     6
1000
_OPEN
1070
     7
1000
_OPEN
1070
    41
1040
2.000000
1002
}
  0
DIMENSION
  5
201
100
AcDbEntity
  8
MAIN0
  6
CONTINUOUS
 62
3
100
AcDbDimension
  2
*D14
 10
250.3593809621359
 20
126.3932163604604
 30
0.0000000000000000
 11
203.3593809620544
 21
126.8932163604604
 31
0.0000000000000000
 70
32
  3
MAIN001
100
AcDbAlignedDimension
 13
156.3593809619729
 23
164.2718104520984
 33
0.0000000000000000
 14
250.3593809621359
 24
164.2718104526010
 34
0.0000000000000000
100
AcDbRotatedDimension
1001
ACAD
1000
DSTYLE
1002
{
1070
   173
1070
     1
1070
     6
1000
_OPEN
1070
     7
1000
_OPEN
1070
    41
1040
2.000000
1002
}
  0
DIMENSION
  5
20C
100
AcDbEntity
  8
MAIN0
  6
CONTINUOUS
 62
3
100
AcDbDimension
  2
*D15
 10
156.3593809620220
 20
152.3569624207697
 30
0.0000000000000000
 11
147.9059806389280
 21
152.8569624207697
 31
0.0000000000000000
 70
160
  3
MAIN001
100
AcDbAlignedDimension
 13
161.3593809620037
 23
183.9218104520906
 33
0.0000000000000000
 14
156.3593809619729
 24
164.2718104520984
 34
0.0000000000000000
100
AcDbRotatedDimension
1001
ACAD
1000
DSTYLE
1002
{
1070
   173
1070
     1
1070
     6
1000
_OPEN
1070
     7
1000
_OPEN
1070
    41
1040
2.000000
1070
   287
1070
     0
1002
}
  0
DIMENSION
  5
215
100
AcDbEntity
  8
MAIN0
  6
CONTINUOUS
 62
3
100
AcDbDimension
  2
*D16
 10
250.3593809621359
 20
383.2971877418643
 30
0.0000000000000000
 11
242.6308810731647
 21
383.7971877418643
 31
0.0000000000000000
 70
160
  1
\A1;（15）
  3
MAIN001
100
AcDbAlignedDimension
 13
235.3593809621365
 23
350.7255406508058
 33
0.0000000000000000
 14
250.3593809621359
 24
372.2718104526010
 34
0.0000000000000000
100
AcDbRotatedDimension
1001
ACAD
1000
DSTYLE
1002
{
1070
   173
1070
     1
1070
     6
1000
_OPEN
1070
     7
1000
_OPEN
1070
    41
1040
2.000000
1070
   340
1005
216
1002
}
  0
LINE
  5
217
100
AcDbEntity
  8
MAIN0
  6
PHANTOM
 62
3
100
AcDbLine
 10
297.0123261474982
 20
292.0981238120174
 30
0.0000000000000000
 11
300.4244504190555
 21
292.0981238120174
 31
0.0000000000000000
  0
LINE
  5
218
100
AcDbEntity
  8
MAIN0
  6
PHANTOM
 62
3
100
AcDbLine
 10
300.4244504190780
 20
274.9602820672230
 30
0.0000000000000000
 11
300.4244504190685
 21
292.0981238120174
 31
0.0000000000000000
  0
LINE
  5
219
100
AcDbEntity
  8
MAIN0
  6
PHANTOM
 62
3
100
AcDbLine
 10
298.2875283776084
 20
275.4930765720540
 30
0.0000000000000000
 11
300.4244504190780
 21
274.9602820672230
 31
0.0000000000000000
  0
INSERT
  5
221
100
AcDbEntity
  8
MAIN0
  6
CONTINUOUS
 62
3
100
AcDbBlockReference
  2
D17
 10
578.6521912860404
 20
268.2718104526010
 30
0.0000000000000000
 50
0.0000000000000000
  0
INSERT
  5
229
100
AcDbEntity
  8
MAIN0
  6
CONTINUOUS
 62
3
100
AcDbBlockReference
  2
D18
 10
73.61054556251438
 20
268.2718104526010
 30
0.0000000000000000
 50
0.0000000000000000
  0
DIMENSION
  5
232
100
AcDbEntity
  8
MAIN0
  6
CONTINUOUS
 62
3
100
AcDbDimension
  2
*D19
 10
295.7170504190685
 20
359.2322659338262
 30
0.0000000000000000
 11
289.2170504190616
 21
359.7322659338262
 31
0.0000000000000000
 70
32
  3
MAIN001
100
AcDbAlignedDimension
 13
282.7170504190548
 23
297.0305262191096
 33
0.0000000000000000
 14
295.7170504190685
 24
293.2718104526010
 34
0.0000000000000000
100
AcDbRotatedDimension
1001
ACAD
1000
DSTYLE
1002
{
1070
   173
1070
     1
1070
     6
1000
_OPEN
1070
     7
1000
_OPEN
1070
    41
1040
2.000000
1002
}
  0
MTEXT
  5
233
100
AcDbEntity
  8
MAIN0
  6
CONTINUOUS
 62
3
100
AcDbMText
 10
330.9262288995375
 20
288.2270413138124
 30
0.0000000000000000
 40
3.099999904632568
 41
0.0000000000000000
 71
     1
 72
     1
  1
{\H0.66x;{MIN 54.8}}
 11
1.393499969507555e-015
 21
1.000000000000000
 31
0.0000000000000000
  7
STANDARD
  0
LEADER
  5
234
100
AcDbEntity
  8
MAIN0
  6
CONTINUOUS
 62
3
100
AcDbLeader
  3
MAIN001
 73
     0
 75
     1
 40
3.099999904632568
 41
35.88900105857857
 76
     3
 10
456.0768493146683
 20
349.9306968660093
 30
0.0000000000000000
 10
432.1386140166772
 20
387.0471860157740
 30
0.0000000000000000
 10
430.2116140724672
 20
387.0471860157741
 30
0.0000000000000000
340
235
213
0.0000000000000000
223
-0.5000000000000000
233
0.0000000000000000
1001
ACAD
1000
DSTYLE
1002
{
1070
   147
1040
0.0
1070
    77
1070
     1
1070
   173
1070
     1
1070
     6
1000
_OPEN
1070
     7
1000
_OPEN
1002
}
  0
MTEXT
  5
235
102
{ACAD_REACTORS
330
234
102
}
100
AcDbEntity
  8
MAIN0
  6
CONTINUOUS
 62
3
100
AcDbMText
 10
394.3226130138886
 20
390.6471859204066
 30
0.0000000000000000
 40
3.099999904632568
 41
0.0000000000000000
 71
     1
 72
     1
  1
{\H0.93x;{3-M6ネジ深15\P3-M6 DEPTH 15}}
 11
1.000000000000000
 21
0.0000000000000000
 31
0.0000000000000000
  7
KNJYOKO
  0
DIMENSION
  5
23B
100
AcDbEntity
  8
MAIN0
  6
CONTINUOUS
 62
3
100
AcDbDimension
  2
*D20
 10
458.5764684591400
 20
268.2718104526010
 30
0.0000000000000000
 11
396.3341080355910
 21
241.1733303960413
 31
0.0000000000000000
 70
164
  3
MAIN001
100
AcDbRadialDimension
 15
385.4638345885375
 25
235.7980861742982
 35
0.0000000000000000
1001
ACAD
1000
DSTYLE
1002
{
1070
   173
1070
     1
1070
     6
1000
_OPEN
1070
     7
1000
_OPEN
1070
    41
1040
2.000000
1070
   340
1005
216
1002
}
  0
DIMENSION
  5
243
100
AcDbEntity
  8
MAIN0
  6
CONTINUOUS
 62
3
100
AcDbDimension
  2
*D21
 10
492.1256659655782
 20
325.8913121137053
 30
0.0000000000000000
 11
499.7120989511369
 21
339.9144191618833
 31
0.0000000000000000
 70
163
  3
MAIN001
100
AcDbDiametricDimension
 15
425.0272709527018
 25
210.6523087914967
 35
0.0000000000000000
1001
ACAD
1000
DSTYLE
1002
{
1070
   287
1070
     2
1070
   173
1070
     1
1070
     6
1000
_OPEN
1070
     7
1000
_OPEN
1070
    41
1040
2.000000
1002
}
  0
DIMENSION
  5
24C
100
AcDbEntity
  8
MAIN0
  6
CONTINUOUS
 62
3
100
AcDbDimension
  2
*D22
 10
237.8593809621359
 20
152.1501949464199
 30
0.0000000000000000
 11
244.1093809621359
 21
152.6501949464199
 31
0.0000000000000000
 70
32
  3
MAIN001
100
AcDbAlignedDimension
 13
250.3593809621359
 23
164.2718104526010
 33
0.0000000000000000
 14
237.8593809621359
 24
160.0592955010799
 34
0.0000000000000000
100
AcDbRotatedDimension
1001
ACAD
1000
DSTYLE
1002
{
1070
   173
1070
     1
1070
     6
1000
_OPEN
1070
     7
1000
_OPEN
1070
    41
1040
2.000000
1002
}
  0
ARC
  5
24D
100
AcDbEntity
  8
MAIN0
  6
CONTINUOUS
 62
3
100
AcDbCircle
 10
458.5764684591400
 20
268.2718104526010
 30
0.0000000000000000
 40
16.00000000000000
100
AcDbArc
 50
134.5135841008839
 51
165.4864158991160
  0
ARC
  5
24E
100
AcDbEntity
  8
MAIN0
  6
CONTINUOUS
 62
3
100
AcDbCircle
 10
458.5764684591400
 20
268.2718104526010
 30
0.0000000000000000
 40
16.00000000000000
100
AcDbArc
 50
254.5135841008837
 51
285.4864158991156
  0
ARC
  5
24F
100
AcDbEntity
  8
MAIN0
  6
CONTINUOUS
 62
3
100
AcDbCircle
 10
458.5764684591400
 20
268.2718104526010
 30
0.0000000000000000
 40
16.00000000000000
100
AcDbArc
 50
14.51358410088356
 51
45.48641589911606
  0
ARC
  5
250
100
AcDbEntity
  8
MAIN0
  6
CONTINUOUS
 62
3
100
AcDbCircle
 10
211.2593809621359
 20
286.3718104526009
 30
0.0000000000000000
 40
0.4000000000000000
100
AcDbArc
 50
180.0000000000000
 51
270.0000000000000
  0
ARC
  5
251
100
AcDbEntity
  8
MAIN0
  6
CONTINUOUS
 62
3
100
AcDbCircle
 10
211.2593809621359
 20
250.1718104526011
 30
0.0000000000000000
 40
0.4000000000000000
100
AcDbArc
 50
90.00000000000000
 51
180.0000000000000
  0
LINE
  5
252
100
AcDbEntity
  8
MAIN0
  6
CONTINUOUS
 62
3
100
AcDbLine
 10
235.3593067884252
 20
286.7718104526009
 30
0.0000000000000000
 11
241.3593067884252
 21
286.7718104526009
 31
0.0000000000000000
  0
LINE
  5
253
100
AcDbEntity
  8
MAIN0
  6
CONTINUOUS
 62
3
100
AcDbLine
 10
241.3593067884252
 20
286.7718104526009
 30
0.0000000000000000
 11
241.3593067884251
 21
268.2718104526010
 31
0.0000000000000000
  0
LINE
  5
254
100
AcDbEntity
  8
MAIN0
  6
CONTINUOUS
 62
3
100
AcDbLine
 10
235.3593067884252
 20
249.7718104526011
 30
0.0000000000000000
 11
241.3593067884252
 21
249.7718104526011
 31
0.0000000000000000
  0
LINE
  5
255
100
AcDbEntity
  8
MAIN0
  6
CONTINUOUS
 62
3
100
AcDbLine
 10
241.3593067884252
 20
249.7718104526011
 30
0.0000000000000000
 11
241.3593067884251
 21
268.2718104526011
 31
0.0000000000000000
  0
LEADER
  5
256
100
AcDbEntity
  8
MAIN0
  6
CONTINUOUS
 62
3
100
AcDbLeader
  3
MAIN001
 73
     0
 74
     0
 75
     1
 40
3.099999904632568
 41
37.45919201973192
 76
     3
 10
364.7120934426366
 20
237.9445460668265
 30
0.0000000000000000
 10
358.0072499560481
 20
163.4901391313466
 30
0.0000000000000000
 10
359.9322499002582
 20
163.4901391313466
 30
0.0000000000000000
340
257
213
1.220809119908893
223
-0.5000000000000000
233
0.0000000000000000
1001
ACAD
1000
DSTYLE
1002
{
1070
   147
1040
0.0
1070
    77
1070
     1
1070
   173
1070
     1
1070
     6
1000
_OPEN
1070
     7
1000
_OPEN
1002
}
  0
MTEXT
  5
257
102
{ACAD_REACTORS
330
256
102
}
100
AcDbEntity
  8
MAIN0
  6
CONTINUOUS
 62
3
100
AcDbMText
 10
358.7114407803493
 20
167.0901390359791
 30
0.0000000000000000
 40
3.099999904632568
 41
0.0000000000000000
 71
     1
 72
     1
  1
{\H0.93x;{2-M10 ネジ深20\P吊ボルト用\P2-M10 DEPTH 20\PFOR LIFTING}}
 11
1.000000000000000
 21
0.0000000000000000
 31
0.0000000000000000
  7
KNJYOKO
  0
LINE
  5
258
100
AcDbEntity
  8
MAIN0
  6
CENTER
 62
3
100
AcDbLine
 10
220.3593809621359
 20
192.8680505979252
 30
0.0000000000000000
 11
220.3593809621359
 21
160.0779389690616
 31
0.0000000000000000
  0
DIMENSION
  5
261
100
AcDbEntity
  8
MAIN0
  6
CONTINUOUS
 62
3
100
AcDbDimension
  2
*D23
 10
250.3593809621359
 20
143.3342594750950
 30
0.0000000000000000
 11
235.3593809621359
 21
143.8342594750950
 31
0.0000000000000000
 70
32
  3
MAIN001
100
AcDbAlignedDimension
 13
220.3593809621359
 23
160.0779389690616
 33
0.0000000000000000
 14
250.3593809621359
 24
164.2718104526010
 34
0.0000000000000000
100
AcDbRotatedDimension
1001
ACAD
1000
DSTYLE
1002
{
1070
   173
1070
     1
1070
     6
1000
_OPEN
1070
     7
1000
_OPEN
1070
    41
1040
2.000000
1002
}
  0
CIRCLE
  5
262
100
AcDbEntity
  8
MAIN0
  6
HIDDEN
 62
3
100
AcDbCircle
 10
458.5764684591400
 20
268.2718104526010
 30
0.0000000000000000
 40
18.50000000000000
  0
ARC
  5
263
100
AcDbEntity
  8
MAIN0
  6
CONTINUOUS
 62
3
100
AcDbCircle
 10
458.5764684591400
 20
268.2718104526010
 30
0.0000000000000000
 40
28.50000000000000
100
AcDbArc
 50
251.2571276777308
 51
288.7428723222688
  0
ARC
  5
264
100
AcDbEntity
  8
MAIN0
  6
CONTINUOUS
 62
3
100
AcDbCircle
 10
458.5764684591400
 20
268.2718104526010
 30
0.0000000000000000
 40
28.50000000000000
100
AcDbArc
 50
11.25712767773057
 51
48.74287227679454
  0
ARC
  5
265
100
AcDbEntity
  8
MAIN0
  6
CONTINUOUS
 62
3
100
AcDbCircle
 10
458.5764684591400
 20
268.2718104526010
 30
0.0000000000000000
 40
28.50000000000000
100
AcDbArc
 50
131.2571277232055
 51
168.7428723222690
  0
LINE
  5
266
100
AcDbEntity
  8
MAIN0
  6
CENTER
 62
3
100
AcDbLine
 10
160.3026999076920
 20
206.2718104523340
 30
0.0000000000000000
 11
170.1231102670835
 21
206.2718104523263
 31
0.0000000000000000
  0
LINE
  5
267
100
AcDbEntity
  8
MAIN0
  6
CONTINUOUS
 62
3
100
AcDbLine
 10
230.2019522661921
 20
295.7151502187872
 30
0.0000000000000000
 11
234.0831351712962
 21
294.7474626363888
 31
0.0000000000000000
  0
LINE
  5
268
100
AcDbEntity
  8
MAIN0
  6
CONTINUOUS
 62
3
100
AcDbLine
 10
230.2019522661921
 20
295.7151502187872
 30
0.0000000000000000
 11
229.4398982950533
 21
292.6587186810176
 31
0.0000000000000000
  0
ELLIPSE
  5
269
100
AcDbEntity
  8
MAIN0
  6
CONTINUOUS
 62
3
100
AcDbEllipse
 10
231.7615167331747
 20
293.7030906587032
 30
0.0000000000000000
 11
1.940591452552032
 21
-0.4838437911991806
 31
0.0000000000000000
210
0.0000000000000000
220
0.0000000000000000
230
1.000000000000000
 40
0.7875000000000001
 41
0.0000000000000000
 42
6.283185307179586
  0
LINE
  5
26A
100
AcDbEntity
  8
MAIN0
  6
CONTINUOUS
 62
3
100
AcDbLine
 10
242.2359030530024
 20
327.4464286118905
 30
0.0000000000000000
 11
242.9979570241411
 21
330.5028601496601
 31
0.0000000000000000
  0
LINE
  5
26B
100
AcDbEntity
  8
MAIN0
  6
CONTINUOUS
 62
3
100
AcDbLine
 10
238.3547201478983
 20
328.4141161942889
 30
0.0000000000000000
 11
242.2359030530024
 21
327.4464286118905
 31
0.0000000000000000
  0
LINE
  5
26C
100
AcDbEntity
  8
MAIN0
  6
CONTINUOUS
 62
3
100
AcDbLine
 10
238.3547201478983
 20
328.4141161942889
 30
0.0000000000000000
 11
239.1167741190370
 21
331.4705477320584
 31
0.0000000000000000
  0
ELLIPSE
  5
26D
100
AcDbEntity
  8
MAIN0
  6
CONTINUOUS
 62
3
100
AcDbEllipse
 10
240.6763385860197
 20
329.4584881719744
 30
0.0000000000000000
 11
1.940591452552032
 21
-0.4838437911991806
 31
0.0000000000000000
210
0.0000000000000000
220
0.0000000000000000
230
1.000000000000000
 40
0.7875000000000001
 41
0.0000000000000000
 42
6.283185307179586
  0
ELLIPSE
  5
26E
100
AcDbEntity
  8
MAIN0
  6
CONTINUOUS
 62
3
100
AcDbEllipse
 10
458.5764684591402
 20
304.2260813803085
 30
0.0000000000000000
 11
0.0000000000000000
 21
20.61227258690002
 31
0.0000000000000000
210
0.0000000000000000
220
0.0000000000000000
230
1.000000000000000
 40
0.9702957262806071
 41
6.048184968404652
 42
0.2350003387749453
  0
ELLIPSE
  5
26F
100
AcDbEntity
  8
MAIN0
  6
CONTINUOUS
 62
3
100
AcDbEllipse
 10
458.5764684591402
 20
302.4807853602872
 30
0.0000000000000000
 11
0.0000000000000000
 21
20.61227258690002
 31
0.0000000000000000
210
0.0000000000000000
220
0.0000000000000000
230
1.000000000000000
 40
0.9702957262806071
 41
1.065435816510763
 42
1.570796326794899
  0
DIMENSION
  5
278
100
AcDbEntity
  8
MAIN0
  6
CONTINUOUS
 62
3
100
AcDbDimension
  2
*D24
 10
441.0764684591400
 20
394.2769527440009
 30
0.0000000000000000
 11
458.5764684591400
 21
394.7769527440009
 31
0.0000000000000000
 70
32
  3
MAIN001
100
AcDbAlignedDimension
 13
476.0764684591400
 23
313.2718104526010
 33
0.0000000000000000
 14
441.0764684591400
 24
313.2718104526010
 34
0.0000000000000000
100
AcDbRotatedDimension
1001
ACAD
1000
DSTYLE
1002
{
1070
   173
1070
     1
1070
     6
1000
_OPEN
1070
     7
1000
_OPEN
1070
    41
1040
2.000000
1002
}
  0
LINE
  5
279
100
AcDbEntity
  8
MAIN0
  6
CONTINUOUS
 62
3
100
AcDbLine
 10
271.1170504190528
 20
308.1718104526011
 30
0.0000000000000000
 11
271.1170504190500
 21
318.3718104526010
 31
0.0000000000000000
  0
LINE
  5
27A
100
AcDbEntity
  8
MAIN0
  6
CONTINUOUS
 62
3
100
AcDbLine
 10
278.9229226299756
 20
293.2718104526010
 30
0.0000000000000000
 11
279.7170504190555
 21
293.2718104526010
 31
0.0000000000000000
  0
LINE
  5
27B
100
AcDbEntity
  8
MAIN0
  6
CONTINUOUS
 62
3
100
AcDbLine
 10
285.7170504190555
 20
293.2718104526010
 30
0.0000000000000000
 11
295.7170504190685
 21
293.2718104526010
 31
0.0000000000000000
  0
LINE
  5
27C
100
AcDbEntity
  8
MAIN0
  6
PHANTOM
 62
3
100
AcDbLine
 10
300.4244504190361
 20
322.0981238120209
 30
0.0000000000000000
 11
299.4244504190359
 21
323.0981238120209
 31
0.0000000000000000
  0
LINE
  5
27D
100
AcDbEntity
  8
MAIN0
  6
PHANTOM
 62
3
100
AcDbLine
 10
300.4244504190423
 20
292.0981238120174
 30
0.0000000000000000
 11
300.4244504190361
 21
322.0981238120209
 31
0.0000000000000000
  0
LINE
  5
27E
100
AcDbEntity
  8
MAIN0
  6
PHANTOM
 62
3
100
AcDbLine
 10
278.4244504190402
 20
323.0981238120208
 30
0.0000000000000000
 11
299.4244504190359
 21
323.0981238120208
 31
0.0000000000000000
  0
LINE
  5
27F
100
AcDbEntity
  8
MAIN0
  6
PHANTOM
 62
3
100
AcDbLine
 10
290.7266534517902
 20
324.5160561618422
 30
0.0000000000000000
 11
289.7266534517900
 21
325.5160561618422
 31
0.0000000000000000
  0
LINE
  5
280
100
AcDbEntity
  8
MAIN0
  6
PHANTOM
 62
3
100
AcDbLine
 10
290.7266534517943
 20
304.5160561618421
 30
0.0000000000000000
 11
290.7266534517902
 21
324.5160561618422
 31
0.0000000000000000
  0
LINE
  5
281
100
AcDbEntity
  8
MAIN0
  6
PHANTOM
 62
3
100
AcDbLine
 10
268.7266534517900
 20
325.5160561618421
 30
0.0000000000000000
 11
289.7266534517900
 21
325.5160561618421
 31
0.0000000000000000
  0
DIMENSION
  5
289
100
AcDbEntity
  8
MAIN0
  6
CONTINUOUS
 62
3
100
AcDbDimension
  2
*D25
 10
330.2075118869798
 20
324.2718104526010
 30
0.0000000000000000
 11
329.7075118869798
 21
296.2718104526010
 31
0.0000000000000000
 70
32
  1
\A1;MAX 57.2
  3
MAIN001
100
AcDbAlignedDimension
 13
73.61054556251438
 23
268.2718104526010
 33
0.0000000000000000
 14
294.7170504190496
 24
324.2718104526010
 34
0.0000000000000000
 50
90.00000000000000
100
AcDbRotatedDimension
1001
ACAD
1000
DSTYLE
1002
{
1070
   173
1070
     1
1070
     6
1000
_OPEN
1070
     7
1000
_OPEN
1070
    41
1040
2.000000
1002
}
  0
LEADER
  5
28A
100
AcDbEntity
  8
MAIN0
  6
CONTINUOUS
 62
3
100
AcDbLeader
  3
MAIN001
 73
     0
 74
     0
 75
     1
 40
3.099999904632568
 41
33.10100097751615
 76
     3
 10
263.1014371456753
 20
319.2718104526010
 30
0.0000000000000000
 10
333.1306033422011
 20
356.4216106894135
 30
0.0000000000000000
 10
335.0556032864112
 20
356.4216106894135
 30
0.0000000000000000
340
28B
213
0.0000000000000000
223
-0.5000000000000000
233
0.0000000000000000
1001
ACAD
1000
DSTYLE
1002
{
1070
   147
1040
0.0
1070
    77
1070
     1
1070
   173
1070
     1
1070
     6
1000
_OPEN
1070
     7
1000
_OPEN
1002
}
  0
MTEXT
  5
28B
102
{ACAD_REACTORS
330
28A
102
}
100
AcDbEntity
  8
MAIN0
  6
CONTINUOUS
 62
3
100
AcDbMText
 10
335.0566032864111
 20
360.0216105940461
 30
0.0000000000000000
 40
3.099999904632568
 41
0.0000000000000000
 71
     1
 72
     1
  1
{\H0.93x;{M12 ネジ深18\PM12 DEPTH 18}}
 11
1.000000000000000
 21
0.0000000000000000
 31
0.0000000000000000
  7
KNJYOKO
  0
INSERT
  5
293
100
AcDbEntity
  8
MAIN0
  6
CONTINUOUS
 62
3
100
AcDbBlockReference
  2
D26
 10
73.61054556251438
 20
268.2718104526010
 30
0.0000000000000000
 50
0.0000000000000000
  0
DIMENSION
  5
29C
100
AcDbEntity
  8
MAIN0
  6
CONTINUOUS
 62
3
100
AcDbDimension
  2
*D27
 10
313.7559817202279
 20
293.2718104526010
 30
0.0000000000000000
 11
313.2559817202279
 21
303.2718104526010
 31
0.0000000000000000
 70
32
  3
MAIN001
100
AcDbAlignedDimension
 13
281.1620635746263
 23
313.2718104526010
 33
0.0000000000000000
 14
295.7170504190524
 24
293.2718104526010
 34
0.0000000000000000
 50
90.00000000000000
100
AcDbRotatedDimension
1001
ACAD
1000
DSTYLE
1002
{
1070
   173
1070
     1
1070
     6
1000
_OPEN
1070
     7
1000
_OPEN
1070
    41
1040
2.000000
1002
}
  0
ELLIPSE
  5
29D
100
AcDbEntity
  8
MAIN0
  6
CONTINUOUS
 62
3
100
AcDbEllipse
 10
458.5764684591402
 20
308.0551784340368
 30
0.0000000000000000
 11
0.0000000000000000
 21
20.61227258690002
 31
0.0000000000000000
210
0.0000000000000000
220
0.0000000000000000
230
1.000000000000000
 40
0.9702957262806071
 41
4.712388980384690
 42
5.217749490668878
  0
ELLIPSE
  5
29E
100
AcDbEntity
  8
MAIN0
  6
CONTINUOUS
 62
3
100
AcDbEllipse
 10
458.5764684591402
 20
308.0551784340368
 30
0.0000000000000000
 11
0.0000000000000000
 21
20.61227258690002
 31
0.0000000000000000
210
0.0000000000000000
220
0.0000000000000000
230
1.000000000000000
 40
0.9702957262806071
 41
5.617909291426576
 42
0.6652760157530168
  0
ELLIPSE
  5
29F
100
AcDbEntity
  8
MAIN0
  6
CONTINUOUS
 62
3
100
AcDbEllipse
 10
458.5764684591402
 20
308.0551784340368
 30
0.0000000000000000
 11
0.0000000000000000
 21
20.61227258690002
 31
0.0000000000000000
210
0.0000000000000000
220
0.0000000000000000
230
1.000000000000000
 40
0.9702957262806071
 41
1.065435816510766
 42
1.570796326794896
  0
SPLINE
  5
2A0
100
AcDbEntity
  8
MAIN0
  6
CONTINUOUS
 62
3
100
AcDbSpline
210
0.0000000000000000
220
0.0000000000000000
230
1.000000000000000
 70
     8
 71
     3
 72
    17
 73
    13
 74
     0
 42
1.000000000000000e-007
 43
1.000000000000000e-007
 12
1.045726908430410
 22
-0.2060906044906119
 32
0.0000000000000000
 13
1.166479489057814
 23
0.2984206020791973
 33
0.0000000000000000
 40
0.0000000000000000
 40
0.0000000000000000
 40
0.0000000000000000
 40
0.0000000000000000
 40
7.019793152554802
 40
24.13029526184499
 40
68.45418748389935
 40
83.75620019464637
 40
115.5267621452221
 40
121.5490079613351
 40
133.7672733248002
 40
179.1544017221845
 40
187.5315726195017
 40
207.2732355287031
 40
207.2732355287031
 40
207.2732355287031
 40
207.2732355287031
 10
156.3593809621359
 20
361.3226177010979
 30
0.0000000000000000
 10
158.8063098258833
 20
360.8403798963615
 30
0.0000000000000000
 10
167.2175428471106
 20
359.1827041840113
 30
0.0000000000000000
 10
169.2340302369011
 20
331.6032754817206
 30
0.0000000000000000
 10
163.6562125324919
 20
304.4139496486820
 30
0.0000000000000000
 10
192.4810821943480
 20
285.3632009983086
 30
0.0000000000000000
 10
209.5893486203150
 20
296.1846333433263
 30
0.0000000000000000
 10
227.8762199829899
 20
289.7448176463552
 30
0.0000000000000000
 10
231.8512264214819
 20
318.5317131669477
 30
0.0000000000000000
 10
233.7564303317313
 20
334.5774427912567
 30
0.0000000000000000
 10
231.7499517104670
 20
361.4589022275618
 30
0.0000000000000000
 10
242.6832993409769
 20
364.2559819989971
 30
0.0000000000000000
 10
250.3593809621359
 20
366.2197549761332
 30
0.0000000000000000
  0
LINE
  5
2A1
100
AcDbEntity
  8
MAIN0
  6
CONTINUOUS
 62
3
100
AcDbLine
 10
227.1242592627219
 20
293.2360723362544
 30
0.0000000000000000
 11
295.7170504190780
 21
276.1339687078066
 31
0.0000000000000000
  0
LINE
  5
2A2
100
AcDbEntity
  8
MAIN0
  6
CENTER
 62
3
100
AcDbLine
 10
230.9960445964525
 20
312.8830004185558
 30
0.0000000000000000
 11
302.6904410566749
 21
295.0075797340874
 31
0.0000000000000000
  0
LINE
  5
2A3
100
AcDbEntity
  8
MAIN0
  6
CENTER
 62
3
100
AcDbLine
 10
230.2848384459051
 20
307.3919490662571
 30
0.0000000000000000
 11
254.1513191981468
 21
301.4413670854075
 31
0.0000000000000000
  0
LINE
  5
2A4
100
AcDbEntity
  8
MAIN0
  6
CONTINUOUS
 62
3
100
AcDbLine
 10
164.8593809621359
 20
345.2718104526009
 30
0.0000000000000000
 11
167.9105064004423
 21
345.2718104526009
 31
0.0000000000000000
  0
LINE
  5
2A5
100
AcDbEntity
  8
MAIN0
  6
CONTINUOUS
 62
3
100
AcDbLine
 10
157.3593809621360
 20
373.2718104526010
 30
0.0000000000000000
 11
249.3593809621360
 21
373.2718104526009
 31
0.0000000000000000
  0
LINE
  5
2A6
100
AcDbEntity
  8
MAIN0
  6
CENTER
 62
3
100
AcDbLine
 10
156.7949742588037
 20
324.2718104526009
 30
0.0000000000000000
 11
167.4649721769968
 21
324.2718104526009
 31
0.0000000000000000
  0
LINE
  5
2A7
100
AcDbEntity
  8
MAIN0
  6
CONTINUOUS
 62
3
100
AcDbLine
 10
232.8017716066285
 20
332.8389319705564
 30
0.0000000000000000
 11
233.2466153822610
 21
332.7280199604007
 31
0.0000000000000000
  0
SPLINE
  5
2A8
100
AcDbEntity
  8
MAIN0
  6
CONTINUOUS
 62
3
100
AcDbSpline
210
0.0000000000000000
220
0.0000000000000000
230
1.000000000000000
 70
     8
 71
     3
 72
    21
 73
    17
 74
     0
 42
1.000000000000000e-007
 43
1.000000000000000e-007
 12
0.2537195258606033
 22
0.9708949302284182
 32
0.0000000000000000
 13
-1.047140311718607
 23
-0.06977199654239996
 33
0.0000000000000000
 40
0.0000000000000000
 40
0.0000000000000000
 40
0.0000000000000000
 40
0.0000000000000000
 40
11.18613241290574
 40
32.34441899546656
 40
40.47312273304355
 40
54.80954504494709
 40
87.27468234979762
 40
96.55884184704250
 40
114.3808527905722
 40
142.6958015251900
 40
151.5838997155103
 40
178.2790918967120
 40
185.6855413448030
 40
205.1001714186137
 40
214.8839253504171
 40
225.0665004576428
 40
225.0665004576428
 40
225.0665004576428
 40
225.0665004576428
 10
197.6131067547818
 20
163.2718104526010
 30
0.0000000000000000
 10
198.5591534921206
 20
166.8919968687856
 30
0.0000000000000000
 10
201.2946237093761
 20
177.3596743434131
 30
0.0000000000000000
 10
208.4447959408404
 20
188.9909208820555
 30
0.0000000000000000
 10
217.9001264619947
 20
200.3747726424878
 30
0.0000000000000000
 10
226.1601623201040
 20
214.4419562736758
 30
0.0000000000000000
 10
242.8721637304034
 20
241.8271898640315
 30
0.0000000000000000
 10
219.9534482304094
 20
244.9958258394163
 30
0.0000000000000000
 10
203.0161591549051
 20
242.2333957438238
 30
0.0000000000000000
 10
181.7717653511612
 20
249.5406528843741
 30
0.0000000000000000
 10
166.2573183425979
 20
232.3717561271238
 30
0.0000000000000000
 10
170.3544690880000
 20
216.5622026775407
 30
0.0000000000000000
 10
169.9788989540633
 20
198.9381104404290
 30
0.0000000000000000
 10
175.0976724304154
 20
186.5099936235691
 30
0.0000000000000000
 10
166.8827585905482
 20
173.9986908921253
 30
0.0000000000000000
 10
159.9135759192798
 20
173.5343273452332
 30
0.0000000000000000
 10
156.3593809619870
 20
173.2975078135085
 30
0.0000000000000000
  0
LINE
  5
2A9
100
AcDbEntity
  8
MAIN0
  6
HIDDEN
 62
3
100
AcDbLine
 10
458.5764684591410
 20
195.4744512612821
 30
0.0000000000000000
 11
458.5764684591410
 21
160.5391255576555
 31
0.0000000000000000
  0
LINE
  5
2AA
100
AcDbEntity
  8
MAIN0
  6
HIDDEN
 62
3
100
AcDbLine
 10
451.0764684591410
 20
174.2718104526010
 30
0.0000000000000000
 11
466.0764684591410
 21
174.2718104526010
 31
0.0000000000000000
  0
LINE
  5
2AB
100
AcDbEntity
  8
MAIN0
  6
HIDDEN
 62
3
100
AcDbLine
 10
451.0764684591410
 20
174.2718104526010
 30
0.0000000000000000
 11
451.0764684591410
 21
164.2718104526010
 31
0.0000000000000000
  0
LINE
  5
2AC
100
AcDbEntity
  8
MAIN0
  6
HIDDEN
 62
3
100
AcDbLine
 10
466.0764684591410
 20
174.2718104526010
 30
0.0000000000000000
 11
466.0764684591410
 21
164.2718104526010
 31
0.0000000000000000
  0
LINE
  5
2AD
100
AcDbEntity
  8
MAIN0
  6
HIDDEN
 62
3
100
AcDbLine
 10
466.0764684591409
 20
164.2718104526010
 30
0.0000000000000000
 11
467.0764684591409
 21
163.2718104526010
 31
0.0000000000000000
  0
LINE
  5
2AE
100
AcDbEntity
  8
MAIN0
  6
HIDDEN
 62
3
100
AcDbLine
 10
451.0764684591409
 20
164.2718104526010
 30
0.0000000000000000
 11
450.0764684591410
 21
163.2718104526011
 31
0.0000000000000000
  0
LINE
  5
2AF
100
AcDbEntity
  8
MAIN0
  6
HIDDEN
 62
3
100
AcDbLine
 10
455.2764684591409
 20
174.2718104526010
 30
0.0000000000000000
 11
456.0764684591409
 21
175.0718104526010
 31
0.0000000000000000
  0
LINE
  5
2B0
100
AcDbEntity
  8
MAIN0
  6
HIDDEN
 62
3
100
AcDbLine
 10
456.0764684591410
 20
175.0718104526010
 30
0.0000000000000000
 11
461.0764684591410
 21
175.0718104526010
 31
0.0000000000000000
  0
LINE
  5
2B1
100
AcDbEntity
  8
MAIN0
  6
HIDDEN
 62
3
100
AcDbLine
 10
461.0764684591410
 20
175.0718104526010
 30
0.0000000000000000
 11
461.8764684591411
 21
174.2718104526010
 31
0.0000000000000000
  0
LINE
  5
2B2
100
AcDbEntity
  8
MAIN0
  6
HIDDEN
 62
3
100
AcDbLine
 10
455.5764684591410
 20
174.5718104526010
 30
0.0000000000000000
 11
455.5764684591410
 21
182.2718104526010
 31
0.0000000000000000
  0
LINE
  5
2B3
100
AcDbEntity
  8
MAIN0
  6
HIDDEN
 62
3
100
AcDbLine
 10
455.5764684591410
 20
182.2718104526010
 30
0.0000000000000000
 11
461.5764684591410
 21
182.2718104526010
 31
0.0000000000000000
  0
LINE
  5
2B4
100
AcDbEntity
  8
MAIN0
  6
HIDDEN
 62
3
100
AcDbLine
 10
461.5764684591410
 20
182.2718104526010
 30
0.0000000000000000
 11
461.5764684591410
 21
174.5718104526010
 31
0.0000000000000000
  0
LINE
  5
2B5
100
AcDbEntity
  8
MAIN0
  6
HIDDEN
 62
3
100
AcDbLine
 10
456.0764684591410
 20
175.0718104526010
 30
0.0000000000000000
 11
456.0764684591410
 21
192.3314689204012
 31
0.0000000000000000
  0
LINE
  5
2B6
100
AcDbEntity
  8
MAIN0
  6
HIDDEN
 62
3
100
AcDbLine
 10
461.0764684591410
 20
193.7291052670632
 30
0.0000000000000000
 11
461.0764684591410
 21
175.0718104526010
 31
0.0000000000000000
  0
LINE
  5
2B7
100
AcDbEntity
  8
MAIN0
  6
HIDDEN
 62
12
100
AcDbLine
 10
461.0764684591409
 20
179.6718104526011
 30
0.0000000000000000
 11
456.0764684591408
 21
179.6718104526011
 31
0.0000000000000000
  0
LINE
  5
2B8
100
AcDbEntity
  8
MAIN0
  6
HIDDEN
 62
12
100
AcDbLine
 10
460.7305343819945
 20
166.1718104526010
 30
0.0000000000000000
 11
456.4224025362875
 21
166.1718104526010
 31
0.0000000000000000
  0
LINE
  5
2B9
100
AcDbEntity
  8
MAIN0
  6
HIDDEN
 62
12
100
AcDbLine
 10
462.6179203434681
 20
174.2718104526010
 30
0.0000000000000000
 11
454.5350165748133
 21
174.2718104526010
 31
0.0000000000000000
  0
LINE
  5
2BA
100
AcDbEntity
  8
MAIN0
  6
HIDDEN
 62
12
100
AcDbLine
 10
461.5764684591410
 20
174.2718104526010
 30
0.0000000000000000
 11
461.5764684591410
 21
179.1718104526010
 31
0.0000000000000000
  0
LINE
  5
2BB
100
AcDbEntity
  8
MAIN0
  6
HIDDEN
 62
12
100
AcDbLine
 10
462.6179203434681
 20
171.9718104526010
 30
0.0000000000000000
 11
462.6179203434681
 21
174.2718104526010
 31
0.0000000000000000
  0
LINE
  5
2BC
100
AcDbEntity
  8
MAIN0
  6
HIDDEN
 62
12
100
AcDbLine
 10
455.5764684591409
 20
174.2718104526010
 30
0.0000000000000000
 11
455.5764684591409
 21
179.1718104526010
 31
0.0000000000000000
  0
LINE
  5
2BD
100
AcDbEntity
  8
MAIN0
  6
HIDDEN
 62
12
100
AcDbLine
 10
454.5350165748133
 20
171.9718104526010
 30
0.0000000000000000
 11
454.5350165748133
 21
174.2718104526010
 31
0.0000000000000000
  0
LINE
  5
2BE
100
AcDbEntity
  8
MAIN0
  6
HIDDEN
 62
12
100
AcDbLine
 10
462.6179203434681
 20
171.9718104526010
 30
0.0000000000000000
 11
454.5350165748133
 21
171.9718104526010
 31
0.0000000000000000
  0
LINE
  5
2BF
100
AcDbEntity
  8
MAIN0
  6
HIDDEN
 62
12
100
AcDbLine
 10
461.3780254106639
 20
170.6335356710816
 30
0.0000000000000000
 11
461.6819246148439
 21
169.7881177870777
 31
0.0000000000000000
  0
LINE
  5
2C0
100
AcDbEntity
  8
MAIN0
  6
HIDDEN
 62
12
100
AcDbLine
 10
455.4710116352711
 20
169.7881159283034
 30
0.0000000000000000
 11
455.7749115076176
 21
170.6335356710816
 31
0.0000000000000000
  0
LINE
  5
2C1
100
AcDbEntity
  8
MAIN0
  6
HIDDEN
 62
12
100
AcDbLine
 10
460.5971944013045
 20
171.9718104526010
 30
0.0000000000000000
 11
460.5971944013045
 21
174.2718104526010
 31
0.0000000000000000
  0
LINE
  5
2C2
100
AcDbEntity
  8
MAIN0
  6
HIDDEN
 62
12
100
AcDbLine
 10
456.5557425169772
 20
171.9718104526010
 30
0.0000000000000000
 11
456.5557425169772
 21
174.2718104526010
 31
0.0000000000000000
  0
LINE
  5
2C3
100
AcDbEntity
  8
MAIN0
  6
HIDDEN
 62
12
100
AcDbLine
 10
461.2764684591410
 20
179.4718104526010
 30
0.0000000000000000
 11
461.2764684591410
 21
175.3448341151289
 31
0.0000000000000000
  0
LINE
  5
2C4
100
AcDbEntity
  8
MAIN0
  6
HIDDEN
 62
12
100
AcDbLine
 10
455.8764684591409
 20
179.4718104526011
 30
0.0000000000000000
 11
455.8764684591409
 21
175.3448341151279
 31
0.0000000000000000
  0
LINE
  5
2C5
100
AcDbEntity
  8
MAIN0
  6
HIDDEN
 62
12
100
AcDbLine
 10
461.5764684591410
 20
175.3448341151288
 30
0.0000000000000000
 11
455.5764684591408
 21
175.3448341151288
 31
0.0000000000000000
  0
LINE
  5
2C6
100
AcDbEntity
  8
MAIN0
  6
HIDDEN
 62
12
100
AcDbLine
 10
461.0764684591409
 20
179.6718104526011
 30
0.0000000000000000
 11
461.5764684591408
 21
179.1718104526012
 31
0.0000000000000000
  0
LINE
  5
2C7
100
AcDbEntity
  8
MAIN0
  6
HIDDEN
 62
12
100
AcDbLine
 10
456.0764684591406
 20
179.6718104526011
 30
0.0000000000000000
 11
455.5764684591406
 21
179.1718104526011
 31
0.0000000000000000
  0
LINE
  5
2C8
100
AcDbEntity
  8
MAIN0
  6
HIDDEN
 62
12
100
AcDbLine
 10
461.5764684591410
 20
179.1718104526010
 30
0.0000000000000000
 11
455.5764684591408
 21
179.1718104526010
 31
0.0000000000000000
  0
ARC
  5
2C9
100
AcDbEntity
  8
MAIN0
  6
HIDDEN
 62
12
100
AcDbCircle
 10
462.3190727910802
 20
170.9718104526010
 30
0.0000000000000000
 40
1.000000000000000
100
AcDbArc
 50
89.99999999999970
 51
199.7717992487710
  0
ARC
  5
2CA
100
AcDbEntity
  8
MAIN0
  6
HIDDEN
 62
12
100
AcDbCircle
 10
454.8338641272017
 20
170.9718104526010
 30
0.0000000000000000
 40
1.000000000000000
100
AcDbArc
 50
340.2282007512279
 51
449.9999999999999
  0
ARC
  5
2CB
100
AcDbEntity
  8
MAIN0
  6
HIDDEN
 62
12
100
AcDbCircle
 10
458.5764684591410
 20
168.6718104526010
 30
0.0000000000000000
 40
3.299999999999997
100
AcDbArc
 50
160.2282116100356
 51
229.2509456225276
  0
ARC
  5
2CC
100
AcDbEntity
  8
MAIN0
  6
HIDDEN
 62
12
100
AcDbCircle
 10
458.5764684591410
 20
168.6718104526010
 30
0.0000000000000000
 40
3.299999999999997
100
AcDbArc
 50
310.7490543774720
 51
379.7718095177823
  0
ARC
  5
2CD
100
AcDbEntity
  8
MAIN0
  6
HIDDEN
 62
12
100
AcDbCircle
 10
458.5764684591410
 20
166.3024617030097
 30
0.0000000000000000
 40
1.000000000000000
100
AcDbArc
 50
187.5072271955753
 51
352.4927728044244
  0
LINE
  5
2CE
100
AcDbEntity
  8
MAIN0
  6
HIDDEN
 62
3
100
AcDbLine
 10
458.5764684591398
 20
163.9479849241224
 30
0.0000000000000000
 11
458.5764684591351
 21
180.8457189234832
 31
0.0000000000000000
  0
DIMENSION
  5
2D7
100
AcDbEntity
  8
MAIN0
  6
CONTINUOUS
 62
3
100
AcDbDimension
  2
*D28
 10
479.1025855867194
 20
191.6672984503711
 30
0.0000000000000000
 11
481.1769962040490
 21
156.0244668508396
 31
0.0000000000000000
 70
162
  3
MAIN001
100
AcDb2LineAngularDimension
 13
458.5764684591400
 23
160.0592955010800
 33
0.0000000000000000
 14
458.5764684591400
 24
161.0592955010800
 34
0.0000000000000000
 15
478.8437665416169
 25
192.6332242766601
 35
0.0000000000000000
 16
473.5869805644472
 26
154.2556513946117
 36
0.0000000000000000
1001
ACAD
1000
DSTYLE
1002
{
1070
   173
1070
     1
1070
     6
1000
_OPEN
1070
     7
1000
_OPEN
1070
    41
1040
2.000000
1002
}
  0
DIMENSION
  5
2E0
100
AcDbEntity
  8
MAIN0
  6
CONTINUOUS
 62
3
100
AcDbDimension
  2
*D29
 10
540.6193387756690
 20
220.9043371898898
 30
0.0000000000000000
 11
528.2796520804852
 21
177.4328529891354
 31
0.0000000000000000
 70
162
  3
MAIN001
100
AcDb2LineAngularDimension
 13
479.1025855867194
 23
191.6672984503711
 33
0.0000000000000000
 14
478.8437665416169
 24
192.6332242766601
 34
0.0000000000000000
 15
539.7533133718863
 25
221.4043371898928
 35
0.0000000000000000
 16
528.5840327949887
 26
177.0361763189893
 36
0.0000000000000000
1001
ACAD
1000
DSTYLE
1002
{
1070
   173
1070
     1
1070
     6
1000
_OPEN
1070
     7
1000
_OPEN
1070
    41
1040
2.000000
1002
}
  0
DIMENSION
  5
2E9
100
AcDbEntity
  8
MAIN0
  6
CONTINUOUS
 62
3
100
AcDbDimension
  2
*D30
 10
535.1809804613699
 20
288.7979275801812
 30
0.0000000000000000
 11
572.0969050864167
 21
253.3265614432129
 31
0.0000000000000000
 70
162
  3
MAIN001
100
AcDb2LineAngularDimension
 13
540.6193387756690
 23
220.9043371898898
 33
0.0000000000000000
 14
539.7533133718863
 24
221.4043371898928
 34
0.0000000000000000
 15
534.2150546350808
 25
288.5391085350786
 35
0.0000000000000000
 16
572.5926275171034
 26
253.2612983471021
 36
0.0000000000000000
1001
ACAD
1000
DSTYLE
1002
{
1070
   173
1070
     1
1070
     6
1000
_OPEN
1070
     7
1000
_OPEN
1070
    41
1040
2.000000
1002
}
  0
DIMENSION
  5
2F2
100
AcDbEntity
  8
MAIN0
  6
CONTINUOUS
 62
3
100
AcDbDimension
  2
*D31
 10
552.2912554145606
 20
322.3780679283614
 30
0.0000000000000000
 11
564.3606749316821
 21
312.0890634584056
 31
0.0000000000000000
 70
162
  3
MAIN001
100
AcDb2LineAngularDimension
 13
535.1809804613699
 23
288.7979275801812
 33
0.0000000000000000
 14
534.2150546350808
 24
288.5391085350786
 34
0.0000000000000000
 15
551.4252300107762
 25
321.8780679283614
 35
0.0000000000000000
 16
564.8226146979376
 26
312.2804051745881
 36
0.0000000000000000
1001
ACAD
1000
DSTYLE
1002
{
1070
   173
1070
     1
1070
     6
1000
_OPEN
1070
     7
1000
_OPEN
1070
    41
1040
2.000000
1002
}
  0
DIMENSION
  5
2FB
100
AcDbEntity
  8
MAIN0
  6
CONTINUOUS
 62
3
100
AcDbDimension
  2
*D32
 10
514.6548633337909
 20
324.3502053272552
 30
0.0000000000000000
 11
550.2087792627768
 21
338.5837555031097
 31
0.0000000000000000
 70
162
  3
MAIN001
100
AcDb2LineAngularDimension
 13
552.2912554145606
 23
322.3780679283614
 33
0.0000000000000000
 14
551.4252300107762
 24
321.8780679283614
 34
0.0000000000000000
 15
513.9477565526044
 25
323.6430985460686
 35
0.0000000000000000
 16
549.8121025926312
 26
338.2793747886054
 36
0.0000000000000000
1001
ACAD
1000
DSTYLE
1002
{
1070
   173
1070
     1
1070
     6
1000
_OPEN
1070
     7
1000
_OPEN
1070
    41
1040
2.000000
1002
}
  0
DIMENSION
  5
304
100
AcDbEntity
  8
MAIN0
  6
CONTINUOUS
 62
3
100
AcDbDimension
  2
*D33
 10
458.5764684591400
 20
381.8390566470022
 30
0.0000000000000000
 11
502.7764048973063
 21
374.9798964576553
 31
0.0000000000000000
 70
162
  3
MAIN001
100
AcDb2LineAngularDimension
 13
514.6548633337909
 23
324.3502053272552
 33
0.0000000000000000
 14
513.9477565526044
 24
323.6430985460686
 34
0.0000000000000000
 15
458.5764684591400
 25
380.8390566470022
 35
0.0000000000000000
 16
502.5850631811238
 26
374.5179566913997
 36
0.0000000000000000
1001
ACAD
1000
DSTYLE
1002
{
1070
   173
1070
     1
1070
     6
1000
_OPEN
1070
     7
1000
_OPEN
1070
    41
1040
2.000000
1002
}
  0
DIMENSION
  5
30D
100
AcDbEntity
  8
MAIN0
  6
CONTINUOUS
 62
3
100
AcDbDimension
  2
*D34
 10
435.3958223900523
 20
324.2718104526010
 30
0.0000000000000000
 11
434.8958223900523
 21
314.0033358139935
 31
0.0000000000000000
 70
160
  3
MAIN001
100
AcDbAlignedDimension
 13
441.6764684591400
 23
288.2718104526010
 33
0.0000000000000000
 14
442.0764684591400
 24
324.2718104526010
 34
0.0000000000000000
 50
90.00000000000000
100
AcDbRotatedDimension
1001
ACAD
1000
DSTYLE
1002
{
1070
   173
1070
     1
1070
     6
1000
_OPEN
1070
     7
1000
_OPEN
1070
    41
1040
2.000000
1002
}
  0
DIMENSION
  5
317
100
AcDbEntity
  8
MAIN0
  6
CONTINUOUS
 62
3
100
AcDbDimension
  2
*D35
 10
74.85930678842513
 20
300.3067314878816
 30
0.0000000000000000
 11
68.82027092900552
 21
300.8067314878816
 31
0.0000000000000000
 70
160
  3
MAIN001
100
AcDbAlignedDimension
 13
77.85930678842510
 23
275.7718104526010
 33
0.0000000000000000
 14
74.85930678842513
 24
274.7718104526010
 34
0.0000000000000000
100
AcDbRotatedDimension
1001
ACAD
1000
DSTYLE
1002
{
1070
   173
1070
     1
1070
     6
1000
_DOT
1070
     7
1000
_OPEN
1070
    41
1040
2.000000
1070
   287
1070
     0
1002
}
  0
DIMENSION
  5
321
100
AcDbEntity
  8
MAIN0
  6
CONTINUOUS
 62
3
100
AcDbDimension
  2
*D36
 10
77.85930678842510
 20
300.3067314878816
 30
0.0000000000000000
 11
85.40226224198111
 21
300.8067314878816
 31
0.0000000000000000
 70
160
  3
MAIN001
100
AcDbAlignedDimension
 13
81.05930678842515
 23
275.7718104526010
 33
0.0000000000000000
 14
77.85930678842510
 24
275.7718104526010
 34
0.0000000000000000
100
AcDbRotatedDimension
1001
ACAD
1000
DSTYLE
1002
{
1070
   173
1070
     1
1070
     6
1000
_OPEN
1070
     7
1000
_DOT
1070
    41
1040
2.000000
1070
   287
1070
     0
1002
}
  0
LINE
  5
322
100
AcDbEntity
  8
MAIN0
  6
CENTER
 62
3
100
AcDbLine
 10
377.4928331926489
 20
315.0854691002549
 30
0.0000000000000000
 11
468.3063295931793
 21
262.6542725073322
 31
0.0000000000000000
  0
DIMENSION
  5
32B
100
AcDbEntity
  8
MAIN0
  6
CONTINUOUS
 62
3
100
AcDbDimension
  2
*D37
 10
213.8593809621347
 20
134.8302667104648
 30
0.0000000000000000
 11
232.1093809621353
 21
135.3302667104648
 31
0.0000000000000000
 70
32
  3
MAIN001
100
AcDbAlignedDimension
 13
250.3593809621359
 23
164.2718104526010
 33
0.0000000000000000
 14
213.8593809621347
 24
163.9479849241223
 34
0.0000000000000000
100
AcDbRotatedDimension
1001
ACAD
1000
DSTYLE
1002
{
1070
   173
1070
     1
1070
     6
1000
_OPEN
1070
     7
1000
_OPEN
1070
    41
1040
2.000000
1002
}
  0
LINE
  5
32C
100
AcDbEntity
  8
MAIN0
  6
CONTINUOUS
 62
3
100
AcDbLine
 10
251.2170504190524
 20
326.3718104526010
 30
0.0000000000000000
 11
251.2170504190524
 21
328.4536100083259
 31
0.0000000000000000
  0
ELLIPSE
  5
32D
100
AcDbEntity
  8
MAIN0
  6
CONTINUOUS
 62
3
100
AcDbEllipse
 10
458.5764684591128
 20
308.9200030378787
 30
0.0000000000000000
 11
-20.00000000000000
 21
0.0000000000000000
 31
0.0000000000000000
210
0.0000000000000000
220
0.0000000000000000
230
1.000000000000000
 40
0.9702957262750005
 41
4.142520185675156
 42
5.282257775094227
  0
ARC
  5
32E
100
AcDbEntity
  8
MAIN0
  6
CONTINUOUS
 62
3
100
AcDbCircle
 10
458.5764684590490
 20
268.2718104526010
 30
0.0000000000000000
 40
58.00000000000001
100
AcDbArc
 50
79.27811505385392
 51
100.7218849460224
  0
ELLIPSE
  5
32F
100
AcDbEntity
  8
MAIN0
  6
CONTINUOUS
 62
3
100
AcDbEllipse
 10
423.3741010623809
 20
247.9477141599386
 30
0.0000000000000000
 11
9.999999999999986
 21
-17.32050807568878
 31
0.0000000000000000
210
0.0000000000000000
220
0.0000000000000000
230
1.000000000000000
 40
0.9702957262750005
 41
4.142520185675155
 42
5.282257775094224
  0
ARC
  5
330
100
AcDbEntity
  8
MAIN0
  6
CONTINUOUS
 62
3
100
AcDbCircle
 10
458.5764684591854
 20
268.2718104525223
 30
0.0000000000000000
 40
58.00000000000001
100
AcDbArc
 50
199.2781150538539
 51
220.7218849460224
  0
ELLIPSE
  5
331
100
AcDbEntity
  8
MAIN0
  6
CONTINUOUS
 62
3
100
AcDbEllipse
 10
493.7788358559263
 20
247.9477141599857
 30
0.0000000000000000
 11
10.00000000000001
 21
17.32050807568877
 31
0.0000000000000000
210
0.0000000000000000
220
0.0000000000000000
230
1.000000000000000
 40
0.9702957262750005
 41
4.142520185675155
 42
5.282257775094224
  0
ARC
  5
332
100
AcDbEntity
  8
MAIN0
  6
CONTINUOUS
 62
3
100
AcDbCircle
 10
458.5764684591854
 20
268.2718104526798
 30
0.0000000000000000
 40
58.00000000000001
100
AcDbArc
 50
319.2781150538539
 51
340.7218849460224
  0
LINE
  5
333
100
AcDbEntity
  8
MAIN0
  6
CONTINUOUS
 62
3
100
AcDbLine
 10
254.2170504190523
 20
326.2718104526010
 30
0.0000000000000000
 11
259.9677704779538
 21
326.2718104526010
 31
0.0000000000000000
  0
ARC
  5
334
100
AcDbEntity
  8
MAIN0
  6
CONTINUOUS
 62
3
100
AcDbCircle
 10
251.6170504190524
 20
326.3718104526010
 30
0.0000000000000000
 40
0.4000000000000000
100
AcDbArc
 50
180.0000000000000
 51
270.0000000000000
  0
LINE
  5
335
100
AcDbEntity
  8
MAIN0
  6
CONTINUOUS
 62
3
100
AcDbLine
 10
251.6170504190524
 20
325.9718104526011
 30
0.0000000000000000
 11
253.6407557809611
 21
325.9718104526011
 31
0.0000000000000000
  0
LINE
  5
336
100
AcDbEntity
  8
MAIN0
  6
CONTINUOUS
 62
3
100
AcDbLine
 10
253.6407557809611
 20
325.9718104526011
 30
0.0000000000000000
 11
254.2170504190524
 21
326.2718104526011
 31
0.0000000000000000
  0
LINE
  5
337
100
AcDbEntity
  8
MAIN0
  6
CONTINUOUS
 62
3
100
AcDbLine
 10
232.8098232080674
 20
333.0430472067199
 30
0.0000000000000000
 11
251.2170504190524
 21
328.4536100083259
 31
0.0000000000000000
  0
LINE
  5
338
100
AcDbEntity
  8
MAIN1
  6
PHANTOM
 62
3
100
AcDbLine
 10
251.5691192554294
 20
328.3658293884888
 30
0.0000000000000000
 11
259.0352711783120
 21
326.5043086406333
 31
0.0000000000000000
  0
LINE
  5
339
100
AcDbEntity
  8
MAIN0
  6
CONTINUOUS
 62
3
100
AcDbLine
 10
259.9677704779542
 20
326.2718104526009
 30
0.0000000000000000
 11
265.7170504190524
 21
324.8383539671011
 31
0.0000000000000000
  0
DIMENSION
  5
342
100
AcDbEntity
  8
MAIN1
  6
CONTINUOUS
 62
3
100
AcDbDimension
  2
*D38
 10
272.7170504190545
 20
353.7979405324692
 30
0.0000000000000000
 11
259.5236790989940
 21
354.2979405324692
 31
0.0000000000000000
 70
160
  3
MAIN001
100
AcDbAlignedDimension
 13
251.2170504190524
 23
328.4536100083259
 33
0.0000000000000000
 14
272.7170504190493
 24
323.2718104526006
 34
0.0000000000000000
100
AcDbRotatedDimension
1001
ACAD
1000
DSTYLE
1002
{
1070
   173
1070
     1
1070
     6
1000
_OPEN
1070
     7
1000
_OPEN
1070
    41
1040
2.000000
1002
}
  0
INSERT
  5
34A
100
AcDbEntity
  8
MAIN1
  6
CONTINUOUS
 62
3
100
AcDbBlockReference
  2
D39
 10
578.6521912860404
 20
268.2718104526010
 30
0.0000000000000000
 50
0.0000000000000000
  0
LINE
  5
34B
100
AcDbEntity
  8
MAIN0
  6
HIDDEN
 62
3
100
AcDbLine
 10
531.8527761417125
 20
292.3060616872236
 30
0.0000000000000000
 11
530.5826275561411
 21
287.5658026327094
 31
0.0000000000000000
  0
LINE
  5
34C
100
AcDbEntity
  8
MAIN0
  6
HIDDEN
 62
3
100
AcDbLine
 10
531.8527761417125
 20
292.3060616872236
 30
0.0000000000000000
 11
534.0527380250840
 21
284.0956921637666
 31
0.0000000000000000
  0
LINE
  5
34D
100
AcDbEntity
  8
MAIN0
  6
HIDDEN
 62
3
100
AcDbLine
 10
530.5826275561410
 20
287.5658026327094
 30
0.0000000000000000
 11
534.0527380250838
 21
284.0956921637666
 31
0.0000000000000000
  0
LINE
  5
34E
100
AcDbEntity
  8
MAIN0
  6
HIDDEN
 62
3
100
AcDbLine
 10
557.7395882862595
 20
299.2424120959712
 30
0.0000000000000000
 11
531.8527761417125
 21
292.3060616872236
 31
0.0000000000000000
  0
LINE
  5
34F
100
AcDbEntity
  8
MAIN0
  6
HIDDEN
 62
3
100
AcDbLine
 10
558.2699183721494
 20
300.1609707495149
 30
0.0000000000000000
 11
539.3860684681981
 21
295.1010584177606
 31
0.0000000000000000
  0
LINE
  5
350
100
AcDbEntity
  8
MAIN0
  6
HIDDEN
 62
3
100
AcDbLine
 10
539.3860684681981
 20
295.1010584177606
 30
0.0000000000000000
 11
541.9742589192234
 21
285.4418001548700
 31
0.0000000000000000
  0
LINE
  5
351
100
AcDbEntity
  8
MAIN0
  6
HIDDEN
 62
3
100
AcDbLine
 10
541.9742589192234
 20
285.4418001548700
 30
0.0000000000000000
 11
560.8581088231747
 21
290.5017124866242
 31
0.0000000000000000
  0
LINE
  5
352
100
AcDbEntity
  8
MAIN0
  6
HIDDEN
 62
3
100
AcDbLine
 10
534.0527380250840
 20
284.0956921637666
 30
0.0000000000000000
 11
559.9395501696309
 21
291.0320425725141
 31
0.0000000000000000
  0
LINE
  5
353
100
AcDbEntity
  8
MAIN0
  6
HIDDEN
 62
3
100
AcDbLine
 10
557.7395882862595
 20
299.2424120959712
 30
0.0000000000000000
 11
559.9395501696309
 21
291.0320425725141
 31
0.0000000000000000
  0
LINE
  5
354
100
AcDbEntity
  8
MAIN0
  6
HIDDEN
 62
3
100
AcDbLine
 10
559.9395501696309
 20
291.0320425725141
 30
0.0000000000000000
 11
561.4092440153008
 21
290.1835144350902
 31
0.0000000000000000
  0
LINE
  5
355
100
AcDbEntity
  8
MAIN0
  6
HIDDEN
 62
3
100
AcDbLine
 10
558.5881164236834
 20
300.7121059416411
 30
0.0000000000000000
 11
557.7395882862595
 21
299.2424120959712
 31
0.0000000000000000
  0
LINE
  5
356
100
AcDbEntity
  8
MAIN0
  6
HIDDEN
 62
3
100
AcDbLine
 10
357.2133867486490
 20
245.5115783326880
 30
0.0000000000000000
 11
359.4133486320204
 21
237.3012088092309
 31
0.0000000000000000
  0
LINE
  5
357
100
AcDbEntity
  8
MAIN0
  6
HIDDEN
 62
3
100
AcDbLine
 10
355.7436929029791
 20
246.3601064701118
 30
0.0000000000000000
 11
357.2133867486490
 21
245.5115783326879
 31
0.0000000000000000
  0
LINE
  5
358
100
AcDbEntity
  8
MAIN1
  6
HIDDEN
 62
3
100
AcDbLine
 10
356.2948280951053
 20
246.0419084185779
 30
0.0000000000000000
 11
375.1786779990566
 21
251.1018207503321
 31
0.0000000000000000
  0
LINE
  5
359
100
AcDbEntity
  8
MAIN0
  6
HIDDEN
 62
3
100
AcDbLine
 10
357.2133867486490
 20
245.5115783326880
 30
0.0000000000000000
 11
383.1001988931960
 21
252.4479287414355
 31
0.0000000000000000
  0
LINE
  5
35A
100
AcDbEntity
  8
MAIN0
  6
HIDDEN
 62
3
100
AcDbLine
 10
375.1786779990566
 20
251.1018207503321
 30
0.0000000000000000
 11
377.7668684500818
 21
241.4425624874415
 31
0.0000000000000000
  0
LINE
  5
35B
100
AcDbEntity
  8
MAIN0
  6
HIDDEN
 62
3
100
AcDbLine
 10
383.1001988931960
 20
252.4479287414355
 30
0.0000000000000000
 11
385.3001607765675
 21
244.2375592179784
 31
0.0000000000000000
  0
LINE
  5
35C
100
AcDbEntity
  8
MAIN0
  6
HIDDEN
 62
3
100
AcDbLine
 10
383.1001988931960
 20
252.4479287414355
 30
0.0000000000000000
 11
386.5703093621389
 21
248.9778182724927
 31
0.0000000000000000
  0
LINE
  5
35D
100
AcDbEntity
  8
MAIN0
  6
HIDDEN
 62
3
100
AcDbLine
 10
386.5703093621389
 20
248.9778182724927
 30
0.0000000000000000
 11
385.3001607765675
 21
244.2375592179784
 31
0.0000000000000000
  0
LINE
  5
35E
100
AcDbEntity
  8
MAIN0
  6
HIDDEN
 62
3
100
AcDbLine
 10
385.3001607765675
 20
244.2375592179784
 30
0.0000000000000000
 11
359.4133486320204
 21
237.3012088092309
 31
0.0000000000000000
  0
LINE
  5
35F
100
AcDbEntity
  8
MAIN0
  6
HIDDEN
 62
3
100
AcDbLine
 10
377.7668684500818
 20
241.4425624874415
 30
0.0000000000000000
 11
358.8830185461305
 21
236.3826501556872
 31
0.0000000000000000
  0
LINE
  5
360
100
AcDbEntity
  8
MAIN0
  6
HIDDEN
 62
3
100
AcDbLine
 10
359.4133486320204
 20
237.3012088092309
 30
0.0000000000000000
 11
358.5648204945966
 21
235.8315149635610
 31
0.0000000000000000
  0
LINE
  5
361
100
AcDbEntity
  8
MAIN0
  6
CENTER
 62
3
100
AcDbLine
 10
353.5031760257896
 20
240.1175065990056
 30
0.0000000000000000
 11
574.5607102479710
 21
299.3496943746544
 31
0.0000000000000000
  0
LEADER
  5
362
100
AcDbEntity
  8
MAIN1
  6
CONTINUOUS
 62
3
100
AcDbLeader
  3
MAIN001
 73
     3
 74
     0
 75
     0
 76
     6
 10
254.5043168734278
 20
327.6340024284434
 30
0.0000000000000000
 10
255.7165344953034
 20
328.3623762591198
 30
0.0000000000000000
 10
253.2920992515522
 20
326.9056285977669
 30
0.0000000000000000
 10
254.5043168734278
 20
327.6340024284434
 30
0.0000000000000000
 10
255.2326907041042
 20
326.4217848065678
 30
0.0000000000000000
 10
253.7759430427514
 20
328.8462200503190
 30
0.0000000000000000
1001
ACAD
1000
DSTYLE
1002
{
1070
   173
1070
     1
1070
     6
1000
_NONE
1070
     7
1000
_NONE
1002
}
  0
LINE
  5
363
100
AcDbEntity
  8
MAIN0
  6
CENTER
 62
3
100
AcDbLine
 10
458.5764684591400
 20
307.2476263473121
 30
0.0000000000000000
 11
458.5764684591400
 21
380.7718104526010
 31
0.0000000000000000
  0
LINE
  5
364
100
AcDbEntity
  8
MAIN0
  6
CENTER
 62
3
100
AcDbLine
 10
458.5764684591400
 20
157.9493397876049
 30
0.0000000000000000
 11
458.5764684591400
 21
281.3018405771857
 31
0.0000000000000000
  0
LINE
  5
365
100
AcDbEntity
  8
MAIN0
  6
CENTER
 62
3
100
AcDbLine
 10
458.5764684591400
 20
288.9518401957160
 30
0.0000000000000000
 11
458.5764684591400
 21
300.2476263473121
 31
0.0000000000000000
  0
LINE
  5
366
100
AcDbEntity
  8
MAIN0
  6
CENTER
 62
3
100
AcDbLine
 10
447.2921313590199
 20
261.7567953905742
 30
0.0000000000000000
 11
539.6601037253469
 21
315.0854691007475
 31
0.0000000000000000
  0
LINE
  5
367
100
AcDbEntity
  8
MAIN0
  6
CENTER
 62
3
100
AcDbLine
 10
376.5335981422875
 20
220.9043371904501
 30
0.0000000000000000
 11
398.0895139339320
 21
233.3496509753790
 31
0.0000000000000000
  0
LINE
  5
368
100
AcDbEntity
  8
MAIN0
  6
CENTER
 62
3
100
AcDbLine
 10
404.1516917604238
 20
236.8496509753778
 30
0.0000000000000000
 11
440.6670373504306
 21
257.9317955813104
 31
0.0000000000000000
  0
LINE
  5
369
100
AcDbEntity
  8
MAIN0
  6
CENTER
 62
3
100
AcDbLine
 10
476.6419605278273
 20
257.8416937433455
 30
0.0000000000000000
 11
513.3780002045485
 21
236.6321313470196
 31
0.0000000000000000
  0
LINE
  5
36A
100
AcDbEntity
  8
MAIN0
  6
CENTER
 62
3
100
AcDbLine
 10
519.4401780310387
 20
233.1321313470183
 30
0.0000000000000000
 11
540.6193387756690
 21
220.9043371898898
 31
0.0000000000000000
  0
MTEXT
  5
36B
100
AcDbEntity
  8
MAIN0
  6
CONTINUOUS
 62
3
100
AcDbMText
 10
327.9991430161275
 20
340.0860447331022
 30
0.0000000000000000
 40
3.000000000000000
 41
0.0000000000000000
 71
     1
 72
     1
  1
{\H0.63x;{HEX SOCKET HEAD CAP SCREW}}
 11
1.000000000000000
 21
0.0000000000000000
 31
0.0000000000000000
  7
STANDARD
  0
LEADER
  5
36C
100
AcDbEntity
  8
MAIN0
  6
CONTINUOUS
 62
3
100
AcDbLeader
  3
MAIN001
 73
     0
 74
     0
 75
     1
 40
3.099999904632568
 41
45.00099999999992
 76
     3
 10
285.2290715262252
 20
300.6577643785344
 30
0.0000000000000000
 10
326.0731430719174
 20
340.5860447331021
 30
0.0000000000000000
 10
327.9981430161275
 20
340.5860447331021
 30
0.0000000000000000
340
36D
213
0.0000000000000000
223
-0.5000000000000000
233
0.0000000000000000
1001
ACAD
1000
DSTYLE
1002
{
1070
   147
1040
0.0
1070
    77
1070
     1
1070
   173
1070
     1
1070
     6
1000
_OPEN
1070
     7
1000
_OPEN
1002
}
  0
MTEXT
  5
36D
102
{ACAD_REACTORS
330
36C
102
}
100
AcDbEntity
  8
MAIN0
  6
CONTINUOUS
 62
3
100
AcDbMText
 10
327.9991430161275
 20
344.1860446377347
 30
0.0000000000000000
 40
3.099999904632568
 41
0.0000000000000000
 71
     1
 72
     1
  1
{\H0.94x;{六角穴付ボルト M6×12}}
 11
1.000000000000000
 21
0.0000000000000000
 31
0.0000000000000000
  7
KNJYOKO
  0
MTEXT
  5
36E
100
AcDbEntity
  8
MAIN0
  6
CONTINUOUS
 62
3
100
AcDbMText
 10
207.8593809621366
 20
117.2718104526010
 30
0.0000000000000000
 40
6.000000000000000
 41
0.0000000000000000
 71
     1
 72
     1
  1
{\H0.92x;{把握範囲}}
 11
1.000000000000000
 21
0.0000000000000000
 31
0.0000000000000000
  7
KNJYOKO
  0
MTEXT
  5
36F
100
AcDbEntity
  8
MAIN0
  6
CONTINUOUS
 62
3
100
AcDbMText
 10
207.8593809621366
 20
108.2718104526010
 30
0.0000000000000000
 40
4.000000000000000
 41
0.0000000000000000
 71
     1
 72
     1
  1
{\H0.94x;{マスタージョーのみで対応する場合：\U+2205５０～\U+2205７４\P}
 11
1.000000000000000
 21
0.0000000000000000
 31
0.0000000000000000
  7
KNJYOKO
  0
MTEXT
  5
370
100
AcDbEntity
  8
MAIN0
  6
CONTINUOUS
 62
3
100
AcDbMText
 10
230.3593809621366
 20
102.2718104526010
 30
0.0000000000000000
 40
4.000000000000000
 41
0.0000000000000000
 71
     1
 72
     1
  1
{\H0.94x;{ジョー付で対応する場合：\U+2205７４～\U+2205１４８\P}
 11
1.000000000000000
 21
0.0000000000000000
 31
0.0000000000000000
  7
KNJYOKO
  0
MTEXT
  5
371
100
AcDbEntity
  8
MAIN0
  6
CONTINUOUS
 62
3
100
AcDbMText
 10
224.6293784396680
 20
95.00657321855539
 30
0.0000000000000000
 40
3.099999904632568
 41
0.0000000000000000
 71
     1
 72
     1
  1
{\H0.94x;{ジョー型式：ＳＢＥ０８：　\U+2205７４～\U+2205１０８}}
 11
1.000000000000000
 21
0.0000000000000000
 31
0.0000000000000000
  7
KNJYOKO
  0
MTEXT
  5
372
100
AcDbEntity
  8
MAIN0
  6
CONTINUOUS
 62
3
100
AcDbMText
 10
224.6293727176221
 20
89.90657331392282
 30
0.0000000000000000
 40
3.099999904632568
 41
0.0000000000000000
 71
     1
 72
     1
  1
{\H0.94x;{ジョー型式：ＳＢＥ０８Ａ：\U+2205１１３～\U+2205１４８(オプション）\P}
 11
1.000000000000000
 21
0.0000000000000000
 31
0.0000000000000000
  7
KNJYOKO
  0
MTEXT
  5
373
100
AcDbEntity
  8
MAIN0
  6
CONTINUOUS
 62
3
100
AcDbMText
 10
224.6293727176221
 20
83.80657340929025
 30
0.0000000000000000
 40
3.719999790191650
 41
0.0000000000000000
 71
     1
 72
     1
  1
{\H0.94x;{※オプションのソフトジョーの場合\P　・六角アナツキボルト　Ｍ１２×２５：３本\P　・スパナボウ　１０　　　　　　　　：１本\P　　が、付属されます。}}
 11
1.000000000000000
 21
0.0000000000000000
 31
0.0000000000000000
  7
KNJYOKO
  0
MTEXT
  5
374
100
AcDbEntity
  8
MAIN0
  6
CONTINUOUS
 62
3
100
AcDbMText
 10
207.8593809621366
 20
62.27181045260102
 30
0.0000000000000000
 40
6.000000000000000
 41
0.0000000000000000
 71
     1
 72
     1
  1
{\H0.93x;{GRIPPING RANGE}}
 11
1.000000000000000
 21
0.0000000000000000
 31
0.0000000000000000
  7
STANDARD
  0
MTEXT
  5
375
100
AcDbEntity
  8
MAIN0
  6
CONTINUOUS
 62
3
100
AcDbMText
 10
207.8593809621366
 20
53.27181045260102
 30
0.0000000000000000
 40
4.000000000000000
 41
0.0000000000000000
 71
     1
 72
     1
  1
{\H0.94x;{WHEN GRIPPING BY MASTER JAW：\U+2205５０～\U+2205７４}}
 11
1.000000000000000
 21
0.0000000000000000
 31
0.0000000000000000
  7
KNJYOKO
  0
MTEXT
  5
376
100
AcDbEntity
  8
MAIN0
  6
CONTINUOUS
 62
3
100
AcDbMText
 10
233.0593779103788
 20
47.27181045260102
 30
0.0000000000000000
 40
4.000000000000000
 41
0.0000000000000000
 71
     1
 72
     1
  1
{\H0.94x;{WHEN GRIPPING BY JAW：\U+2205７４～\U+2205１４８\P}
 11
1.000000000000000
 21
0.0000000000000000
 31
0.0000000000000000
  7
KNJYOKO
  0
MTEXT
  5
377
100
AcDbEntity
  8
MAIN0
  6
CONTINUOUS
 62
3
100
AcDbMText
 10
244.9093772189649
 20
41.27181045260102
 30
0.0000000000000000
 40
3.099999904632568
 41
0.0000000000000000
 71
     1
 72
     1
  1
{\H0.94x;{JAW TYPE：ＳＢＥ０８：　\U+2205７４～\U+2205１０８}}
 11
1.000000000000000
 21
0.0000000000000000
 31
0.0000000000000000
  7
KNJYOKO
  0
MTEXT
  5
378
100
AcDbEntity
  8
MAIN0
  6
CONTINUOUS
 62
3
100
AcDbMText
 10
244.9093772189649
 20
36.17181054796845
 30
0.0000000000000000
 40
3.099999904632568
 41
0.0000000000000000
 71
     1
 72
     1
  1
{\H0.94x;{JAW TYPE：ＳＢＥ０８Ａ：\U+2205１１３～\U+2205１４８(OPTION）}}
 11
1.000000000000000
 21
0.0000000000000000
 31
0.0000000000000000
  7
KNJYOKO
  0
MTEXT
  5
379
100
AcDbEntity
  8
MAIN0
  6
CONTINUOUS
 62
3
100
AcDbMText
 10
244.9093772189649
 20
30.07181064333588
 30
0.0000000000000000
 40
3.719999790191650
 41
0.0000000000000000
 71
     1
 72
     1
  1
{\H0.94x;{※OPTIONAL ACCESSORIES SOFT JAW}}
 11
1.000000000000000
 21
0.0000000000000000
 31
0.0000000000000000
  7
KNJYOKO
  0
MTEXT
  5
37A
100
AcDbEntity
  8
MAIN0
  6
CONTINUOUS
 62
3
100
AcDbMText
 10
249.0853720920118
 20
24.35181085314423
 30
0.0000000000000000
 40
3.719999790191650
 41
0.0000000000000000
 71
     1
 72
     1
  1
{\H0.94x;{・HEX SOCKET HEAD CAP SCREW M12×25：3 PCS}}
 11
1.000000000000000
 21
0.0000000000000000
 31
0.0000000000000000
  7
KNJYOKO
  0
MTEXT
  5
37B
100
AcDbEntity
  8
MAIN0
  6
CONTINUOUS
 62
3
100
AcDbMText
 10
249.0853720920118
 20
18.63181106295258
 30
0.0000000000000000
 40
3.719999790191650
 41
0.0000000000000000
 71
     1
 72
     1
  1
{\H0.94x;{・HEX SOCKET SCREW KEY 10}}
 11
1.000000000000000
 21
0.0000000000000000
 31
0.0000000000000000
  7
KNJYOKO
  0
MTEXT
  5
37C
100
AcDbEntity
  8
MAIN0
  6
CONTINUOUS
 62
3
100
AcDbMText
 10
361.2253772037062
 20
18.63181106295258
 30
0.0000000000000000
 40
3.719999790191650
 41
0.0000000000000000
 71
     1
 72
     1
  1
{\H0.92x;{：1 PCS}}
 11
1.000000000000000
 21
0.0000000000000000
 31
0.0000000000000000
  7
KNJYOKO
  0
MTEXT
  5
37D
100
AcDbEntity
  8
MAIN0
  6
CONTINUOUS
 62
3
100
AcDbMText
 10
446.8593809621366
 20
106.3718103572333
 30
0.0000000000000000
 40
3.099999904632568
 41
0.0000000000000000
 71
     1
 72
     1
  1
{\H0.94x;{チャックへの給油は北川が指定するグリースを使用して下さい。}}
 11
1.000000000000000
 21
0.0000000000000000
 31
0.0000000000000000
  7
KNJYOKO
  0
MTEXT
  5
37E
100
AcDbEntity
  8
MAIN0
  6
CONTINUOUS
 62
3
100
AcDbMText
 10
446.8593809621366
 20
101.3718103572333
 30
0.0000000000000000
 40
3.099999904632568
 41
0.0000000000000000
 71
     1
 72
     1
  1
{\H0.94x;{給油期間は使用条件に合わせて短縮して下さい。}}
 11
1.000000000000000
 21
0.0000000000000000
 31
0.0000000000000000
  7
KNJYOKO
  0
MTEXT
  5
37F
100
AcDbEntity
  8
MAIN0
  6
CONTINUOUS
 62
3
100
AcDbMText
 10
446.8593809621366
 20
76.37181035723330
 30
0.0000000000000000
 40
3.099999904632568
 41
0.0000000000000000
 71
     1
 72
     1
  1
{\H0.71x;{LUBRICATE THE CHUCK WITH GREASE GUN USING LUBRICATION}}
 11
1.000000000000000
 21
0.0000000000000000
 31
0.0000000000000000
  7
STANDARD
  0
MTEXT
  5
380
100
AcDbEntity
  8
MAIN0
  6
CONTINUOUS
 62
3
100
AcDbMText
 10
446.8593809621366
 20
71.37181035723330
 30
0.0000000000000000
 40
3.099999904632568
 41
0.0000000000000000
 71
     1
 72
     1
  1
{\H0.70x;{GREASE SPECIIFIED BY KITAGAWA.}}
 11
1.000000000000000
 21
0.0000000000000000
 31
0.0000000000000000
  7
STANDARD
  0
MTEXT
  5
381
100
AcDbEntity
  8
MAIN0
  6
CONTINUOUS
 62
3
100
AcDbMText
 10
446.8593809621366
 20
66.37181035723336
 30
0.0000000000000000
 40
3.099999904632568
 41
0.0000000000000000
 71
     1
 72
     1
  1
{\H0.71x;{PERIOD OF LUBRICATION SHOULD BE SHORTENED IN ACCORDANCE}}
 11
1.000000000000000
 21
0.0000000000000000
 31
0.0000000000000000
  7
STANDARD
  0
MTEXT
  5
382
100
AcDbEntity
  8
MAIN0
  6
CONTINUOUS
 62
3
100
AcDbMText
 10
446.8593809621366
 20
61.37181035723336
 30
0.0000000000000000
 40
3.099999904632568
 41
0.0000000000000000
 71
     1
 72
     1
  1
{\H0.70x;{WITH THE APPLICATION OF COOLANT ETC.}}
 11
1.000000000000000
 21
0.0000000000000000
 31
0.0000000000000000
  7
STANDARD
  0
INSERT
  5
38E
100
AcDbEntity
  8
MAIN0
  6
CONTINUOUS
 62
3
100
AcDbBlockReference
  2
M0
 10
0.0000000000000000
 20
0.0000000000000000
 30
0.0000000000000000
 50
0.0000000000000000
  0
INSERT
  5
39C
100
AcDbEntity
  8
MAIN0
  6
CONTINUOUS
 62
3
100
AcDbBlockReference
  2
M1
 10
0.0000000000000000
 20
0.0000000000000000
 30
0.0000000000000000
 50
0.0000000000000000
  0
MTEXT
  5
39D
100
AcDbEntity
  8
MAIN0
  6
CONTINUOUS
 62
3
100
AcDbMText
 10
84.80472196936503
 20
138.9783584636185
 30
0.0000000000000000
 40
3.099999904632568
 41
0.0000000000000000
 71
     1
 72
     1
  1
{\H0.91x;{10.3}}
 11
1.000000000000000
 21
0.0000000000000000
 31
0.0000000000000000
  7
STANDARD
  0
MTEXT
  5
39E
100
AcDbEntity
  8
MAIN0
  6
CONTINUOUS
 62
3
100
AcDbMText
 10
84.80472196936503
 20
131.9783584636186
 30
0.0000000000000000
 40
3.099999904632568
 41
0.0000000000000000
 71
     1
 72
     1
  1
{\H0.90x;{4.8}}
 11
1.000000000000000
 21
0.0000000000000000
 31
0.0000000000000000
  7
STANDARD
  0
MTEXT
  5
39F
100
AcDbEntity
  8
MAIN0
  6
CONTINUOUS
 62
3
100
AcDbMText
 10
84.80472196936503
 20
125.4783584636186
 30
0.0000000000000000
 40
3.099999904632568
 41
0.0000000000000000
 71
     1
 72
     1
  1
{\H0.91x;{24.8}}
 11
1.000000000000000
 21
0.0000000000000000
 31
0.0000000000000000
  7
STANDARD
  0
MTEXT
  5
3A0
100
AcDbEntity
  8
MAIN0
  6
CONTINUOUS
 62
3
100
AcDbMText
 10
87.80472196936503
 20
120.9783584636186
 30
0.0000000000000000
 40
3.099999904632568
 41
0.0000000000000000
 71
     1
 72
     1
  1
{\H0.91x;{2529}}
 11
1.000000000000000
 21
0.0000000000000000
 31
0.0000000000000000
  7
STANDARD
  0
MTEXT
  5
3A1
100
AcDbEntity
  8
MAIN0
  6
CONTINUOUS
 62
3
100
AcDbMText
 10
84.80472196936503
 20
97.97835846361852
 30
0.0000000000000000
 40
3.099999904632568
 41
0.0000000000000000
 71
     1
 72
     1
  1
{\H0.91x;{26.8}}
 11
1.000000000000000
 21
0.0000000000000000
 31
0.0000000000000000
  7
STANDARD
  0
MTEXT
  5
3A2
100
AcDbEntity
  8
MAIN0
  6
CONTINUOUS
 62
3
100
AcDbMText
 10
84.00972201228032
 20
89.42835851130201
 30
0.0000000000000000
 40
3.099999904632568
 41
0.0000000000000000
 71
     1
 72
     1
  1
{\H0.92x;{0.144}}
 11
1.000000000000000
 21
0.0000000000000000
 31
0.0000000000000000
  7
STANDARD
  0
MTEXT
  5
3A3
100
AcDbEntity
  8
MAIN0
  6
CONTINUOUS
 62
3
100
AcDbMText
 10
84.80472196936503
 20
70.97835846361852
 30
0.0000000000000000
 40
3.099999904632568
 41
0.0000000000000000
 71
     1
 72
     1
  1
{\H0.92x;{Y1020R}}
 11
1.000000000000000
 21
0.0000000000000000
 31
0.0000000000000000
  7
STANDARD
  0
MTEXT
  5
3A4
100
AcDbEntity
  8
MAIN0
  6
CONTINUOUS
 62
3
100
AcDbMText
 10
84.80472196936503
 20
115.4783584636185
 30
0.0000000000000000
 40
3.099999904632568
 41
0.0000000000000000
 71
     1
 72
     1
  1
{\H0.88x;{80}}
 11
1.000000000000000
 21
0.0000000000000000
 31
0.0000000000000000
  7
STANDARD
  0
MTEXT
  5
3A5
100
AcDbEntity
  8
MAIN0
  6
CONTINUOUS
 62
3
100
AcDbMText
 10
87.80472196936503
 20
110.9783584636185
 30
0.0000000000000000
 40
3.099999904632568
 41
0.0000000000000000
 71
     1
 72
     1
  1
{\H0.91x;{8158}}
 11
1.000000000000000
 21
0.0000000000000000
 31
0.0000000000000000
  7
STANDARD
  0
MTEXT
  5
3A6
100
AcDbEntity
  8
MAIN0
  6
CONTINUOUS
 62
3
100
AcDbMText
 10
84.80472196936503
 20
104.9783584636185
 30
0.0000000000000000
 40
3.099999904632568
 41
0.0000000000000000
 71
     1
 72
     1
  1
{\H0.91x;{5000}}
 11
1.000000000000000
 21
0.0000000000000000
 31
0.0000000000000000
  7
STANDARD
  0
MTEXT
  5
3A7
100
AcDbEntity
  8
MAIN0
  6
CONTINUOUS
 62
3
100
AcDbMText
 10
84.80472196936503
 20
64.47835846361835
 30
0.0000000000000000
 40
3.099999904632568
 41
0.0000000000000000
 71
     1
 72
     1
  1
{\H0.90x;{3.4}}
 11
1.000000000000000
 21
0.0000000000000000
 31
0.0000000000000000
  7
STANDARD
  0
MTEXT
  5
3A8
100
AcDbEntity
  8
MAIN0
  6
CONTINUOUS
 62
3
100
AcDbMText
 10
87.80472196936503
 20
59.87835855898578
 30
0.0000000000000000
 40
3.000000000000000
 41
0.0000000000000000
 71
     1
 72
     1
  1
{\H0.55x;{34.5}}
 11
1.000000000000000
 21
0.0000000000000000
 31
0.0000000000000000
  7
STANDARD
  0
INSERT
  5
3DE
100
AcDbEntity
  8
MAIN0
  6
CONTINUOUS
 62
3
100
AcDbBlockReference
  2
M2
 10
0.0000000000000000
 20
0.0000000000000000
 30
0.0000000000000000
 50
0.0000000000000000
  0
DIMENSION
  5
3E9
100
AcDbEntity
  8
MAIN0
  6
CONTINUOUS
 62
3
100
AcDbDimension
  2
*D40
 10
300.4244504190780
 20
224.3940215867793
 30
0.0000000000000000
 11
310.9806670763379
 21
224.8940215867793
 31
0.0000000000000000
 70
160
  1
\A1;MAX 5.1
  3
MAIN001
100
AcDbAlignedDimension
 13
295.3593067884252
 23
252.2718104526010
 33
0.0000000000000000
 14
300.4244504190780
 24
274.9602820672230
 34
0.0000000000000000
100
AcDbRotatedDimension
1001
ACAD
1000
DSTYLE
1002
{
1070
   173
1070
     1
1070
     6
1000
_OPEN
1070
     7
1000
_OPEN
1070
    41
1040
2.000000
1070
   287
1070
     0
1002
}
  0
DIMENSION
  5
3F2
100
AcDbEntity
  8
MAIN0
  6
CONTINUOUS
 62
3
100
AcDbDimension
  2
*D41
 10
295.7170504190449
 20
368.4095578301725
 30
0.0000000000000000
 11
284.2170504190449
 21
368.9095578301725
 31
0.0000000000000000
 70
32
  3
MAIN001
100
AcDbAlignedDimension
 13
272.7170504190449
 23
344.2718104526010
 33
0.0000000000000000
 14
295.7170504190449
 24
344.2718104526010
 34
0.0000000000000000
100
AcDbRotatedDimension
1001
ACAD
1000
DSTYLE
1002
{
1070
   173
1070
     1
1070
     6
1000
_OPEN
1070
     7
1000
_OPEN
1070
    41
1040
2.000000
1002
}
  0
DIMENSION
  5
3FB
100
AcDbEntity
  8
MAIN0
  6
CONTINUOUS
 62
3
100
AcDbDimension
  2
*D42
 10
272.7170504190449
 20
368.4095578301725
 30
0.0000000000000000
 11
269.2170504190487
 21
368.9095578301725
 31
0.0000000000000000
 70
32
  3
MAIN001
100
AcDbAlignedDimension
 13
265.7170504190524
 23
324.8383539671010
 33
0.0000000000000000
 14
272.7170504190449
 24
344.2718104526010
 34
0.0000000000000000
100
AcDbRotatedDimension
1001
ACAD
1000
DSTYLE
1002
{
1070
   173
1070
     1
1070
     6
1000
_OPEN
1070
     7
1000
_OPEN
1070
    41
1040
2.000000
1002
}
  0
MTEXT
  5
3FC
100
AcDbEntity
  8
MAIN0
  6
CONTINUOUS
 62
3
100
AcDbMText
 10
304.1425705324356
 20
223.9342088447892
 30
0.0000000000000000
 40
3.099999904632568
 41
0.0000000000000000
 71
     1
 72
     1
  1
{\H0.66x;{MIN -4.6}}
 11
1.000000000000000
 21
0.0000000000000000
 31
0.0000000000000000
  7
STANDARD
  0
DIMENSION
  5
407
100
AcDbEntity
  8
MAIN0
  6
CONTINUOUS
 62
3
100
AcDbDimension
  2
*D43
 10
295.7170504190780
 20
234.3397414162620
 30
0.0000000000000000
 11
287.9336347731536
 21
234.8397414162620
 31
0.0000000000000000
 70
160
  3
MAIN001
100
AcDbAlignedDimension
 13
295.3593067884252
 23
252.2718104526010
 33
0.0000000000000000
 14
295.7170504190780
 24
276.1339687078066
 34
0.0000000000000000
100
AcDbRotatedDimension
1001
ACAD
1000
DSTYLE
1002
{
1070
   173
1070
     1
1070
     6
1000
_OPEN
1070
     7
1000
_OPEN
1070
    41
1040
2.000000
1070
   287
1070
     0
1002
}
  0
LINE
  5
408
100
AcDbEntity
  8
MAIN0
  6
PHANTOM
 62
3
100
AcDbLine
 10
250.3593809621359
 20
296.7718104526010
 30
0.0000000000000000
 11
249.9593809621359
 21
296.0034176018125
 31
0.0000000000000000
  0
LINE
  5
409
100
AcDbEntity
  8
MAIN0
  6
PHANTOM
 62
3
100
AcDbLine
 10
249.9593809621359
 20
296.0034176018125
 30
0.0000000000000000
 11
249.9593809621359
 21
292.7718104526010
 31
0.0000000000000000
  0
LINE
  5
40A
100
AcDbEntity
  8
MAIN0
  6
PHANTOM
 62
3
100
AcDbLine
 10
250.3593809621359
 20
292.3718104526010
 30
0.0000000000000000
 11
251.3909881113474
 21
292.3718104526010
 31
0.0000000000000000
  0
LINE
  5
40B
100
AcDbEntity
  8
MAIN0
  6
PHANTOM
 62
3
100
AcDbLine
 10
251.3909881113474
 20
292.3718104526009
 30
0.0000000000000000
 11
252.1593809621359
 21
292.7718104526010
 31
0.0000000000000000
  0
ARC
  5
40C
100
AcDbEntity
  8
MAIN0
  6
PHANTOM
 62
3
100
AcDbCircle
 10
250.3593809621359
 20
292.7718104526010
 30
0.0000000000000000
 40
0.4000000000000000
100
AcDbArc
 50
180.0000000000000
 51
270.0000000000000
  0
LINE
  5
40D
100
AcDbEntity
  8
MAIN0
  6
CONTINUOUS
 62
3
100
AcDbLine
 10
224.8593067884251
 20
257.7359120677360
 30
0.0000000000000000
 11
224.8593067884251
 21
278.8077088374658
 31
0.0000000000000000
  0
LINE
  5
40E
100
AcDbEntity
  8
MAIN0
  6
CONTINUOUS
 62
3
100
AcDbLine
 10
222.8593067884251
 20
254.2718104526009
 30
0.0000000000000000
 11
222.8593067884251
 21
282.2718104526009
 31
0.0000000000000000
  0
LINE
  5
40F
100
AcDbEntity
  8
MAIN0
  6
CONTINUOUS
 62
3
100
AcDbLine
 10
204.8593067884252
 20
258.2718104526010
 30
0.0000000000000000
 11
92.35930678843307
 21
258.2718104526010
 31
0.0000000000000000
  0
LINE
  5
410
100
AcDbEntity
  8
MAIN0
  6
CONTINUOUS
 62
3
100
AcDbLine
 10
92.35930678886042
 20
278.2718104526010
 30
0.0000000000000000
 11
204.8593067884252
 21
278.2718104526010
 31
0.0000000000000000
  0
LINE
  5
411
100
AcDbEntity
  8
MAIN0
  6
CONTINUOUS
 62
3
100
AcDbLine
 10
164.8593067884251
 20
259.6249754526010
 30
0.0000000000000000
 11
91.00614178842866
 21
259.6249754526010
 31
0.0000000000000000
  0
LINE
  5
412
100
AcDbEntity
  8
MAIN0
  6
HIDDEN
 62
3
100
AcDbLine
 10
74.85930678842524
 20
265.3718104526009
 30
0.0000000000000000
 11
75.25930678842525
 21
265.7718104526010
 31
0.0000000000000000
  0
LINE
  5
413
100
AcDbEntity
  8
MAIN0
  6
CONTINUOUS
 62
3
100
AcDbLine
 10
89.85930678842512
 20
275.7718104526010
 30
0.0000000000000000
 11
89.85930678842509
 21
260.7718104526010
 31
0.0000000000000000
  0
LINE
  5
414
100
AcDbEntity
  8
MAIN0
  6
CONTINUOUS
 62
3
100
AcDbLine
 10
89.85930678842510
 20
260.7718104526007
 30
0.0000000000000000
 11
92.35930678843306
 21
258.2718104526010
 31
0.0000000000000000
  0
LINE
  5
415
100
AcDbEntity
  8
MAIN0
  6
CONTINUOUS
 62
3
100
AcDbLine
 10
77.85930678842510
 20
275.7718104526010
 30
0.0000000000000000
 11
77.85930678842507
 21
260.7718104526010
 31
0.0000000000000000
  0
LINE
  5
416
100
AcDbEntity
  8
MAIN0
  6
CONTINUOUS
 62
3
100
AcDbLine
 10
81.05930678842515
 20
275.7718104526010
 30
0.0000000000000000
 11
81.05930678842509
 21
260.7718104526010
 31
0.0000000000000000
  0
LINE
  5
417
100
AcDbEntity
  8
MAIN0
  6
CONTINUOUS
 62
3
100
AcDbLine
 10
77.85930678842522
 20
273.7718104526010
 30
0.0000000000000000
 11
81.05930678842512
 21
273.7718104526010
 31
0.0000000000000000
  0
LINE
  5
418
100
AcDbEntity
  8
MAIN0
  6
CONTINUOUS
 62
3
100
AcDbLine
 10
77.85930678842522
 20
262.7718104526010
 30
0.0000000000000000
 11
81.05930678842512
 21
262.7718104526010
 31
0.0000000000000000
  0
LINE
  5
419
100
AcDbEntity
  8
MAIN0
  6
CONTINUOUS
 62
3
100
AcDbLine
 10
75.85930678842510
 20
275.7718104526010
 30
0.0000000000000000
 11
77.85930678842513
 21
275.7718104526010
 31
0.0000000000000000
  0
LINE
  5
41A
100
AcDbEntity
  8
MAIN0
  6
CONTINUOUS
 62
3
100
AcDbLine
 10
81.05930678842515
 20
275.7718104526010
 30
0.0000000000000000
 11
89.85930678842510
 21
275.7718104526010
 31
0.0000000000000000
  0
LINE
  5
41B
100
AcDbEntity
  8
MAIN0
  6
CONTINUOUS
 62
3
100
AcDbLine
 10
75.85930678842510
 20
260.7718104526010
 30
0.0000000000000000
 11
77.85930678842507
 21
260.7718104526010
 31
0.0000000000000000
  0
LINE
  5
41C
100
AcDbEntity
  8
MAIN0
  6
CONTINUOUS
 62
3
100
AcDbLine
 10
81.05930678842509
 20
260.7718104526010
 30
0.0000000000000000
 11
89.85930678842510
 21
260.7718104526010
 31
0.0000000000000000
  0
LINE
  5
41D
100
AcDbEntity
  8
MAIN0
  6
CONTINUOUS
 62
3
100
AcDbLine
 10
74.85930678842513
 20
274.7718104526010
 30
0.0000000000000000
 11
74.85930678842510
 21
261.7718104526010
 31
0.0000000000000000
  0
LINE
  5
41E
100
AcDbEntity
  8
MAIN0
  6
CONTINUOUS
 62
3
100
AcDbLine
 10
74.85930678842513
 20
261.7718104526010
 30
0.0000000000000000
 11
75.85930678842513
 21
260.7718104526010
 31
0.0000000000000000
  0
LINE
  5
41F
100
AcDbEntity
  8
MAIN0
  6
CONTINUOUS
 62
3
100
AcDbLine
 10
74.85930678842507
 20
274.7718104526010
 30
0.0000000000000000
 11
75.85930678842507
 21
275.7718104526010
 31
0.0000000000000000
  0
LINE
  5
420
100
AcDbEntity
  8
MAIN0
  6
HIDDEN
 62
3
100
AcDbLine
 10
74.85930678842519
 20
271.1718104526009
 30
0.0000000000000000
 11
75.25930678842516
 21
270.7718104526010
 31
0.0000000000000000
  0
LINE
  5
421
100
AcDbEntity
  8
MAIN0
  6
HIDDEN
 62
3
100
AcDbLine
 10
75.25930678842516
 20
270.7718104526010
 30
0.0000000000000000
 11
215.5891361962074
 21
270.7718104526010
 31
0.0000000000000000
  0
LINE
  5
422
100
AcDbEntity
  8
MAIN0
  6
HIDDEN
 62
3
100
AcDbLine
 10
75.25930678842528
 20
265.7718104526010
 30
0.0000000000000000
 11
215.5891361962074
 21
265.7718104526010
 31
0.0000000000000000
  0
LINE
  5
423
100
AcDbEntity
  8
MAIN0
  6
CONTINUOUS
 62
3
100
AcDbLine
 10
92.35930678842513
 20
258.2718104526010
 30
0.0000000000000000
 11
92.35930678842513
 21
278.2718104526009
 31
0.0000000000000000
  0
LINE
  5
424
100
AcDbEntity
  8
MAIN0
  6
HIDDEN
 62
3
100
AcDbLine
 10
215.5891361962074
 20
270.7718104526010
 30
0.0000000000000000
 11
216.8593067884255
 21
272.9718104526009
 31
0.0000000000000000
  0
LINE
  5
425
100
AcDbEntity
  8
MAIN0
  6
HIDDEN
 62
3
100
AcDbLine
 10
216.8593067884254
 20
272.9718104526010
 30
0.0000000000000000
 11
224.8593067884255
 21
272.9718104526010
 31
0.0000000000000000
  0
LINE
  5
426
100
AcDbEntity
  8
MAIN0
  6
HIDDEN
 62
3
100
AcDbLine
 10
216.8593067884253
 20
270.6718104526010
 30
0.0000000000000000
 11
224.8593067884253
 21
270.6718104526010
 31
0.0000000000000000
  0
LINE
  5
427
100
AcDbEntity
  8
MAIN0
  6
HIDDEN
 62
3
100
AcDbLine
 10
216.8593067884251
 20
268.2718104526010
 30
0.0000000000000000
 11
216.8593067884254
 21
272.9718104526010
 31
0.0000000000000000
  0
LINE
  5
428
100
AcDbEntity
  8
MAIN0
  6
HIDDEN
 62
3
100
AcDbLine
 10
215.5891361962074
 20
270.7718104526009
 30
0.0000000000000000
 11
215.5891361962074
 21
265.7718104526010
 31
0.0000000000000000
  0
LINE
  5
429
100
AcDbEntity
  8
MAIN0
  6
HIDDEN
 62
3
100
AcDbLine
 10
216.8593067884251
 20
268.2718104526010
 30
0.0000000000000000
 11
216.8593067884254
 21
263.5718104526010
 31
0.0000000000000000
  0
LINE
  5
42A
100
AcDbEntity
  8
MAIN0
  6
HIDDEN
 62
3
100
AcDbLine
 10
215.5891361962074
 20
265.7718104526010
 30
0.0000000000000000
 11
216.8593067884255
 21
263.5718104526010
 31
0.0000000000000000
  0
LINE
  5
42B
100
AcDbEntity
  8
MAIN0
  6
HIDDEN
 62
3
100
AcDbLine
 10
216.8593067884254
 20
263.5718104526010
 30
0.0000000000000000
 11
224.8593067884255
 21
263.5718104526010
 31
0.0000000000000000
  0
LINE
  5
42C
100
AcDbEntity
  8
MAIN0
  6
HIDDEN
 62
3
100
AcDbLine
 10
216.8593067884253
 20
265.8718104526009
 30
0.0000000000000000
 11
224.8593067884253
 21
265.8718104526009
 31
0.0000000000000000
  0
LINE
  5
42D
100
AcDbEntity
  8
MAIN0
  6
CONTINUOUS
 62
3
100
AcDbLine
 10
164.8593067884251
 20
258.2718104526010
 30
0.0000000000000000
 11
164.8593067884251
 21
278.2718104526010
 31
0.0000000000000000
  0
LINE
  5
42E
100
AcDbEntity
  8
MAIN0
  6
CONTINUOUS
 62
3
100
AcDbLine
 10
222.8593067884267
 20
282.2718104526009
 30
0.0000000000000000
 11
224.8593067884251
 21
278.8077088374658
 31
0.0000000000000000
  0
LINE
  5
42F
100
AcDbEntity
  8
MAIN0
  6
CONTINUOUS
 62
3
100
AcDbLine
 10
224.8593067884252
 20
257.7359120677361
 30
0.0000000000000000
 11
222.8593067884267
 21
254.2718104526009
 31
0.0000000000000000
  0
LINE
  5
430
100
AcDbEntity
  8
MAIN0
  6
CONTINUOUS
 62
3
100
AcDbLine
 10
215.8593067884251
 20
279.4718104526010
 30
0.0000000000000000
 11
220.5593067884251
 21
279.4718104526010
 31
0.0000000000000000
  0
LINE
  5
431
100
AcDbEntity
  8
MAIN0
  6
CONTINUOUS
 62
3
100
AcDbLine
 10
215.8593067884251
 20
257.0718104526010
 30
0.0000000000000000
 11
220.5593067884251
 21
257.0718104526010
 31
0.0000000000000000
  0
LINE
  5
432
100
AcDbEntity
  8
MAIN0
  6
CONTINUOUS
 62
3
100
AcDbLine
 10
215.8593067884251
 20
254.2718104526009
 30
0.0000000000000000
 11
215.8593067884251
 21
268.2718104526010
 31
0.0000000000000000
  0
LINE
  5
433
100
AcDbEntity
  8
MAIN0
  6
CONTINUOUS
 62
3
100
AcDbLine
 10
215.8593067884251
 20
268.2718104526010
 30
0.0000000000000000
 11
215.8593067884251
 21
282.2718104526009
 31
0.0000000000000000
  0
LINE
  5
434
100
AcDbEntity
  8
MAIN0
  6
CONTINUOUS
 62
3
100
AcDbLine
 10
220.5593067884251
 20
254.2718104526009
 30
0.0000000000000000
 11
220.5593067884251
 21
268.2718104526010
 31
0.0000000000000000
  0
LINE
  5
435
100
AcDbEntity
  8
MAIN0
  6
CONTINUOUS
 62
3
100
AcDbLine
 10
220.5593067884251
 20
268.2718104526010
 30
0.0000000000000000
 11
220.5593067884251
 21
282.2718104526009
 31
0.0000000000000000
  0
LINE
  5
436
100
AcDbEntity
  8
MAIN0
  6
CONTINUOUS
 62
3
100
AcDbLine
 10
204.8593067884237
 20
254.2718104526009
 30
0.0000000000000000
 11
215.8593067884251
 21
254.2718104526009
 31
0.0000000000000000
  0
LINE
  5
437
100
AcDbEntity
  8
MAIN0
  6
CONTINUOUS
 62
3
100
AcDbLine
 10
220.5593067884251
 20
254.2718104526009
 30
0.0000000000000000
 11
222.8593067884251
 21
254.2718104526009
 31
0.0000000000000000
  0
LINE
  5
438
100
AcDbEntity
  8
MAIN0
  6
CONTINUOUS
 62
3
100
AcDbLine
 10
215.8593067884251
 20
282.2718104526009
 30
0.0000000000000000
 11
204.8593067884252
 21
282.2718104526009
 31
0.0000000000000000
  0
LINE
  5
439
100
AcDbEntity
  8
MAIN0
  6
CONTINUOUS
 62
3
100
AcDbLine
 10
222.8593067884251
 20
282.2718104526009
 30
0.0000000000000000
 11
220.5593067884251
 21
282.2718104526009
 31
0.0000000000000000
  0
ELLIPSE
  5
43A
100
AcDbEntity
  8
MAIN0
  6
CONTINUOUS
 62
3
100
AcDbEllipse
 10
218.2093067884251
 20
280.9718104526010
 30
0.0000000000000000
 11
-2.350000000000000
 21
0.0000000000000000
 31
0.0000000000000000
210
0.0000000000000000
220
0.0000000000000000
230
1.000000000000000
 40
0.6382978723404255
 41
0.0000000000000000
 42
6.283185307179586
  0
ELLIPSE
  5
43B
100
AcDbEntity
  8
MAIN0
  6
CONTINUOUS
 62
3
100
AcDbEllipse
 10
218.2093067884251
 20
255.5718104526010
 30
0.0000000000000000
 11
-2.350000000000000
 21
0.0000000000000000
 31
0.0000000000000000
210
0.0000000000000000
220
0.0000000000000000
230
1.000000000000000
 40
0.6382978723404255
 41
0.0000000000000000
 42
6.283185307179586
  0
LINE
  5
43C
100
AcDbEntity
  8
MAIN0
  6
CONTINUOUS
 62
3
100
AcDbLine
 10
204.8593067884237
 20
254.2718104526009
 30
0.0000000000000000
 11
204.8593067884218
 21
282.2718104526010
 31
0.0000000000000000
  0
LINE
  5
43D
100
AcDbEntity
  8
MAIN0
  6
CENTER
 62
3
100
AcDbLine
 10
76.97213662786467
 20
268.2718104523993
 30
0.0000000000000000
 11
224.1599437333225
 21
268.2718104522839
 31
0.0000000000000000
  0
CIRCLE
  5
43E
100
AcDbEntity
  8
MAIN0
  6
CONTINUOUS
 62
3
100
AcDbCircle
 10
458.5764684591400
 20
268.2718104526010
 30
0.0000000000000000
 40
6.000000000000000
  0
CIRCLE
  5
43F
100
AcDbEntity
  8
MAIN0
  6
CONTINUOUS
 62
3
100
AcDbCircle
 10
458.5764684591400
 20
268.2718104526010
 30
0.0000000000000000
 40
5.052784500000000
  0
LINE
  5
440
100
AcDbEntity
  8
MAIN0
  6
CONTINUOUS
 62
3
100
AcDbLine
 10
458.5764684591400
 20
271.7359120677388
 30
0.0000000000000000
 11
455.5764684591400
 21
270.0038612601699
 31
0.0000000000000000
  0
LINE
  5
441
100
AcDbEntity
  8
MAIN0
  6
CONTINUOUS
 62
3
100
AcDbLine
 10
455.5764684591400
 20
270.0038612601699
 30
0.0000000000000000
 11
455.5764684591400
 21
266.5397596450322
 31
0.0000000000000000
  0
LINE
  5
442
100
AcDbEntity
  8
MAIN0
  6
CONTINUOUS
 62
3
100
AcDbLine
 10
455.5764684591400
 20
266.5397596450322
 30
0.0000000000000000
 11
458.5764684591400
 21
264.8077088374633
 31
0.0000000000000000
  0
LINE
  5
443
100
AcDbEntity
  8
MAIN0
  6
CONTINUOUS
 62
3
100
AcDbLine
 10
458.5764684591400
 20
264.8077088374633
 30
0.0000000000000000
 11
461.5764684591400
 21
266.5397596450322
 31
0.0000000000000000
  0
LINE
  5
444
100
AcDbEntity
  8
MAIN0
  6
CONTINUOUS
 62
3
100
AcDbLine
 10
461.5764684591400
 20
266.5397596450322
 30
0.0000000000000000
 11
461.5764684591400
 21
270.0038612601699
 31
0.0000000000000000
  0
LINE
  5
445
100
AcDbEntity
  8
MAIN0
  6
CONTINUOUS
 62
3
100
AcDbLine
 10
461.5764684591400
 20
270.0038612601699
 30
0.0000000000000000
 11
458.5764684591400
 21
271.7359120677388
 31
0.0000000000000000
  0
LINE
  5
446
100
AcDbEntity
  8
MAIN0
  6
CONTINUOUS
 62
3
100
AcDbLine
 10
234.9593809621359
 20
163.2718104526009
 30
0.0000000000000000
 11
235.7593809621359
 21
164.0718104526009
 31
0.0000000000000000
  0
LINE
  5
447
100
AcDbEntity
  8
MAIN0
  6
CONTINUOUS
 62
3
100
AcDbLine
 10
235.7593809621359
 20
164.0718104526010
 30
0.0000000000000000
 11
239.9593809621359
 21
164.0718104526010
 31
0.0000000000000000
  0
LINE
  5
448
100
AcDbEntity
  8
MAIN0
  6
CONTINUOUS
 62
3
100
AcDbLine
 10
239.9593809621359
 20
164.0718104526009
 30
0.0000000000000000
 11
240.7593809621359
 21
163.2718104526009
 31
0.0000000000000000
  0
LINE
  5
449
100
AcDbEntity
  8
MAIN0
  6
CONTINUOUS
 62
3
100
AcDbLine
 10
235.3593809621359
 20
163.6718104526010
 30
0.0000000000000000
 11
235.3593809621359
 21
169.2718104526010
 31
0.0000000000000000
  0
LINE
  5
44A
100
AcDbEntity
  8
MAIN0
  6
CONTINUOUS
 62
3
100
AcDbLine
 10
235.3593809621359
 20
169.2718104526010
 30
0.0000000000000000
 11
240.3593809621359
 21
169.2718104526010
 31
0.0000000000000000
  0
LINE
  5
44B
100
AcDbEntity
  8
MAIN0
  6
CONTINUOUS
 62
3
100
AcDbLine
 10
240.3593809621359
 20
169.2718104526010
 30
0.0000000000000000
 11
240.3593809621359
 21
163.6718104526010
 31
0.0000000000000000
  0
LINE
  5
44C
100
AcDbEntity
  8
MAIN0
  6
CONTINUOUS
 62
3
100
AcDbLine
 10
239.9593809621359
 20
164.0718104526010
 30
0.0000000000000000
 11
239.9593811589566
 21
249.7718104526011
 31
0.0000000000000000
  0
LINE
  5
44D
100
AcDbEntity
  8
MAIN0
  6
CONTINUOUS
 62
3
100
AcDbLine
 10
235.7593809621359
 20
164.0718104526010
 30
0.0000000000000000
 11
235.7593809792984
 21
249.7718104526011
 31
0.0000000000000000
  0
LINE
  5
44E
100
AcDbEntity
  8
MAIN0
  6
HIDDEN
 62
3
100
AcDbLine
 10
250.3593809621359
 20
191.4968104526010
 30
0.0000000000000000
 11
249.7593809621359
 21
192.0968104526010
 31
0.0000000000000000
  0
LINE
  5
44F
100
AcDbEntity
  8
MAIN0
  6
HIDDEN
 62
3
100
AcDbLine
 10
249.7593809621359
 20
192.0968104526010
 30
0.0000000000000000
 11
234.3593809621359
 21
192.0968104526010
 31
0.0000000000000000
  0
LINE
  5
450
100
AcDbEntity
  8
MAIN0
  6
HIDDEN
 62
3
100
AcDbLine
 10
234.3593809621359
 20
192.0968104526010
 30
0.0000000000000000
 11
234.3593809621359
 21
211.0968104526010
 31
0.0000000000000000
  0
LINE
  5
451
100
AcDbEntity
  8
MAIN0
  6
HIDDEN
 62
3
100
AcDbLine
 10
234.3593809621359
 20
211.0968104526010
 30
0.0000000000000000
 11
249.7593809621359
 21
211.0968104526010
 31
0.0000000000000000
  0
LINE
  5
452
100
AcDbEntity
  8
MAIN0
  6
HIDDEN
 62
3
100
AcDbLine
 10
249.7593809621359
 20
211.0968104526010
 30
0.0000000000000000
 11
250.3593809621359
 21
211.6968104526010
 31
0.0000000000000000
  0
LINE
  5
453
100
AcDbEntity
  8
MAIN0
  6
HIDDEN
 62
3
100
AcDbLine
 10
234.3593809621359
 20
192.5968104526010
 30
0.0000000000000000
 11
245.1593809621359
 21
192.5968104526010
 31
0.0000000000000000
  0
LINE
  5
454
100
AcDbEntity
  8
MAIN0
  6
HIDDEN
 62
3
100
AcDbLine
 10
245.1593809621359
 20
192.5968104526010
 30
0.0000000000000000
 11
246.3593809621359
 21
194.6752714216836
 31
0.0000000000000000
  0
LINE
  5
455
100
AcDbEntity
  8
MAIN0
  6
HIDDEN
 62
3
100
AcDbLine
 10
246.3593809621359
 20
194.6752714216836
 30
0.0000000000000000
 11
246.3593809621359
 21
208.5183494835183
 31
0.0000000000000000
  0
LINE
  5
456
100
AcDbEntity
  8
MAIN0
  6
HIDDEN
 62
3
100
AcDbLine
 10
246.3593809621359
 20
208.5183494835183
 30
0.0000000000000000
 11
245.1593809621359
 21
210.5968104526010
 31
0.0000000000000000
  0
LINE
  5
457
100
AcDbEntity
  8
MAIN0
  6
HIDDEN
 62
3
100
AcDbLine
 10
245.1593809621359
 20
210.5968104526010
 30
0.0000000000000000
 11
234.3593809621359
 21
210.5968104526010
 31
0.0000000000000000
  0
LINE
  5
458
100
AcDbEntity
  8
MAIN0
  6
HIDDEN
 62
3
100
AcDbLine
 10
245.1593809621359
 20
192.5968104526010
 30
0.0000000000000000
 11
245.1593809621359
 21
210.5968104526010
 31
0.0000000000000000
  0
LINE
  5
459
100
AcDbEntity
  8
MAIN0
  6
CONTINUOUS
 62
3
100
AcDbLine
 10
144.3593809621359
 20
195.5968104526010
 30
0.0000000000000000
 11
144.3593809621359
 21
207.5968104526010
 31
0.0000000000000000
  0
LINE
  5
45A
100
AcDbEntity
  8
MAIN0
  6
HIDDEN
 62
3
100
AcDbLine
 10
180.3593809621359
 20
195.5968104526010
 30
0.0000000000000000
 11
180.3593809621359
 21
207.5968104526010
 31
0.0000000000000000
  0
LINE
  5
45B
100
AcDbEntity
  8
MAIN0
  6
CONTINUOUS
 62
3
100
AcDbLine
 10
144.3593809621359
 20
207.5968104526010
 30
0.0000000000000000
 11
161.3593809620408
 21
207.5968104526010
 31
0.0000000000000000
  0
LINE
  5
45C
100
AcDbEntity
  8
MAIN0
  6
HIDDEN
 62
3
100
AcDbLine
 10
161.3593809620408
 20
207.5968104526010
 30
0.0000000000000000
 11
234.3593809621359
 21
207.5968104526010
 31
0.0000000000000000
  0
LINE
  5
45D
100
AcDbEntity
  8
MAIN0
  6
CONTINUOUS
 62
3
100
AcDbLine
 10
144.3593809621359
 20
206.6495949526010
 30
0.0000000000000000
 11
161.3593809620393
 21
206.6495949526010
 31
0.0000000000000000
  0
LINE
  5
45E
100
AcDbEntity
  8
MAIN0
  6
HIDDEN
 62
3
100
AcDbLine
 10
161.3593809620393
 20
206.6495949526010
 30
0.0000000000000000
 11
180.3593809621359
 21
206.6495949526010
 31
0.0000000000000000
  0
LINE
  5
45F
100
AcDbEntity
  8
MAIN0
  6
CONTINUOUS
 62
3
100
AcDbLine
 10
144.3593809621359
 20
196.5440259526010
 30
0.0000000000000000
 11
161.3593809620234
 21
196.5440259526010
 31
0.0000000000000000
  0
LINE
  5
460
100
AcDbEntity
  8
MAIN0
  6
HIDDEN
 62
3
100
AcDbLine
 10
161.3593809620234
 20
196.5440259526010
 30
0.0000000000000000
 11
180.3593809621359
 21
196.5440259526010
 31
0.0000000000000000
  0
LINE
  5
461
100
AcDbEntity
  8
MAIN0
  6
CONTINUOUS
 62
3
100
AcDbLine
 10
144.3593809621359
 20
195.5968104526010
 30
0.0000000000000000
 11
161.3593809620220
 21
195.5968104526010
 31
0.0000000000000000
  0
LINE
  5
462
100
AcDbEntity
  8
MAIN0
  6
HIDDEN
 62
3
100
AcDbLine
 10
161.3593809620220
 20
195.5968104526010
 30
0.0000000000000000
 11
234.3593809621359
 21
195.5968104526010
 31
0.0000000000000000
  0
LINE
  5
463
100
AcDbEntity
  8
MAIN0
  6
CONTINUOUS
 62
3
100
AcDbLine
 10
124.3593809621358
 20
287.2718104525965
 30
0.0000000000000000
 11
146.9593809621359
 21
287.2718104526009
 31
0.0000000000000000
  0
LINE
  5
464
100
AcDbEntity
  8
MAIN0
  6
CONTINUOUS
 62
3
100
AcDbLine
 10
124.3593809621359
 20
249.2718104525964
 30
0.0000000000000000
 11
146.9593809621359
 21
249.2718104526009
 31
0.0000000000000000
  0
LINE
  5
465
100
AcDbEntity
  8
MAIN0
  6
CENTER
 62
3
100
AcDbLine
 10
119.5157861098774
 20
268.2718104525955
 30
0.0000000000000000
 11
153.3749787668218
 21
268.2718104526022
 31
0.0000000000000000
  0
LINE
  5
466
100
AcDbEntity
  8
MAIN0
  6
CONTINUOUS
 62
3
100
AcDbLine
 10
122.3593809621359
 20
285.2718104525961
 30
0.0000000000000000
 11
124.3593809621359
 21
287.2718104525965
 31
0.0000000000000000
  0
LINE
  5
467
100
AcDbEntity
  8
MAIN0
  6
CONTINUOUS
 62
3
100
AcDbLine
 10
122.3593809621359
 20
251.2718104525961
 30
0.0000000000000000
 11
124.3593809621359
 21
249.2718104525964
 31
0.0000000000000000
  0
LINE
  5
468
100
AcDbEntity
  8
MAIN0
  6
CONTINUOUS
 62
3
100
AcDbLine
 10
146.9593809621358
 20
287.2718104526009
 30
0.0000000000000000
 11
147.3593809621358
 21
286.8718104526010
 31
0.0000000000000000
  0
LINE
  5
469
100
AcDbEntity
  8
MAIN0
  6
CONTINUOUS
 62
3
100
AcDbLine
 10
147.3593809621359
 20
249.6718104526010
 30
0.0000000000000000
 11
146.9593809621359
 21
249.2718104526009
 31
0.0000000000000000
  0
LINE
  5
46A
100
AcDbEntity
  8
MAIN0
  6
CENTER
 62
3
100
AcDbLine
 10
143.7500327204188
 20
253.2718104526003
 30
0.0000000000000000
 11
150.6249923176373
 21
253.2718104526016
 31
0.0000000000000000
  0
LINE
  5
46B
100
AcDbEntity
  8
MAIN0
  6
CONTINUOUS
 62
3
100
AcDbLine
 10
146.2046804237567
 20
253.2718104526001
 30
0.0000000000000000
 11
147.3593809621359
 21
255.2718104526010
 31
0.0000000000000000
  0
LINE
  5
46C
100
AcDbEntity
  8
MAIN0
  6
CONTINUOUS
 62
3
100
AcDbLine
 10
146.2046804237567
 20
253.2718104526001
 30
0.0000000000000000
 11
147.3593809621359
 21
251.2718104526011
 31
0.0000000000000000
  0
LINE
  5
46D
100
AcDbEntity
  8
MAIN0
  6
CONTINUOUS
 62
3
100
AcDbLine
 10
147.3593809621359
 20
249.6718104526009
 30
0.0000000000000000
 11
147.3593809621359
 21
251.2718104526011
 31
0.0000000000000000
  0
LINE
  5
46E
100
AcDbEntity
  8
MAIN0
  6
CONTINUOUS
 62
3
100
AcDbLine
 10
122.3593809621359
 20
251.2718104525961
 30
0.0000000000000000
 11
122.3593809621359
 21
259.6249754528366
 31
0.0000000000000000
  0
LINE
  5
46F
100
AcDbEntity
  8
MAIN0
  6
CONTINUOUS
 62
3
100
AcDbLine
 10
122.3593809621359
 20
276.9186454528366
 30
0.0000000000000000
 11
122.3593809621359
 21
285.2718104525961
 31
0.0000000000000000
  0
LINE
  5
470
100
AcDbEntity
  8
MAIN0
  6
CONTINUOUS
 62
3
100
AcDbLine
 10
147.3593809621359
 20
255.2718104526009
 30
0.0000000000000000
 11
147.3593809621359
 21
258.2718104526010
 31
0.0000000000000000
  0
LINE
  5
471
100
AcDbEntity
  8
MAIN0
  6
CONTINUOUS
 62
3
100
AcDbLine
 10
147.3593809621359
 20
278.2718104528366
 30
0.0000000000000000
 11
147.3593809621359
 21
286.8718104526010
 31
0.0000000000000000
  0
LINE
  5
472
100
AcDbEntity
  8
MAIN0
  6
CENTER
 62
3
100
AcDbLine
 10
135.3593809621359
 20
275.3745629629958
 30
0.0000000000000000
 11
135.3593809621359
 21
289.1193577429242
 31
0.0000000000000000
  0
LINE
  5
473
100
AcDbEntity
  8
MAIN0
  6
CONTINUOUS
 62
3
100
AcDbLine
 10
210.5593809621359
 20
174.2718104526010
 30
0.0000000000000000
 11
211.3593809621359
 21
175.0718104526010
 31
0.0000000000000000
  0
LINE
  5
474
100
AcDbEntity
  8
MAIN0
  6
CONTINUOUS
 62
3
100
AcDbLine
 10
211.3593809621359
 20
175.0718104526010
 30
0.0000000000000000
 11
216.3593809621359
 21
175.0718104526010
 31
0.0000000000000000
  0
LINE
  5
475
100
AcDbEntity
  8
MAIN0
  6
CONTINUOUS
 62
3
100
AcDbLine
 10
216.3593809621359
 20
175.0718104526009
 30
0.0000000000000000
 11
217.1593809621359
 21
174.2718104526009
 31
0.0000000000000000
  0
LINE
  5
476
100
AcDbEntity
  8
MAIN0
  6
CONTINUOUS
 62
3
100
AcDbLine
 10
210.8593809621359
 20
174.5718104526010
 30
0.0000000000000000
 11
210.8593809621359
 21
182.2718104526010
 31
0.0000000000000000
  0
LINE
  5
477
100
AcDbEntity
  8
MAIN0
  6
CONTINUOUS
 62
3
100
AcDbLine
 10
210.8593809621359
 20
182.2718104526010
 30
0.0000000000000000
 11
216.8593809621359
 21
182.2718104526010
 31
0.0000000000000000
  0
LINE
  5
478
100
AcDbEntity
  8
MAIN0
  6
CONTINUOUS
 62
3
100
AcDbLine
 10
216.8593809621359
 20
182.2718104526010
 30
0.0000000000000000
 11
216.8593809621359
 21
174.5718104526010
 31
0.0000000000000000
  0
LINE
  5
479
100
AcDbEntity
  8
MAIN0
  6
CONTINUOUS
 62
3
100
AcDbLine
 10
211.3593809621359
 20
175.0718104526010
 30
0.0000000000000000
 11
211.3593809621359
 21
192.3314689204011
 31
0.0000000000000000
  0
LINE
  5
47A
100
AcDbEntity
  8
MAIN0
  6
CONTINUOUS
 62
3
100
AcDbLine
 10
216.3593809621359
 20
198.7405113179281
 30
0.0000000000000000
 11
216.3593809621359
 21
175.0718104526010
 31
0.0000000000000000
  0
LINE
  5
47B
100
AcDbEntity
  8
MAIN0
  6
CONTINUOUS
 62
3
100
AcDbLine
 10
250.3593809621366
 20
344.9720758295060
 30
0.0000000000000000
 11
249.5593809621366
 21
345.7720758295060
 31
0.0000000000000000
  0
LINE
  5
47C
100
AcDbEntity
  8
MAIN0
  6
CONTINUOUS
 62
3
100
AcDbLine
 10
249.5593809621366
 20
345.7720758295060
 30
0.0000000000000000
 11
249.5593809621366
 21
350.7720758295060
 31
0.0000000000000000
  0
LINE
  5
47D
100
AcDbEntity
  8
MAIN0
  6
CONTINUOUS
 62
3
100
AcDbLine
 10
249.5593809621366
 20
350.7720758295060
 30
0.0000000000000000
 11
250.3593809621366
 21
351.5720758295060
 31
0.0000000000000000
  0
LINE
  5
47E
100
AcDbEntity
  8
MAIN0
  6
CONTINUOUS
 62
3
100
AcDbLine
 10
232.7753090114716
 20
345.2720758295060
 30
0.0000000000000000
 11
250.0593809621366
 21
345.2720758295060
 31
0.0000000000000000
  0
LINE
  5
47F
100
AcDbEntity
  8
MAIN0
  6
CONTINUOUS
 62
3
100
AcDbLine
 10
232.5322751523981
 20
351.2720758295060
 30
0.0000000000000000
 11
250.0593809621366
 21
351.2720758295060
 31
0.0000000000000000
  0
LINE
  5
480
100
AcDbEntity
  8
MAIN0
  6
CONTINUOUS
 62
3
100
AcDbLine
 10
232.7901559241032
 20
345.7720758295060
 30
0.0000000000000000
 11
249.5593809621366
 21
345.7720758295060
 31
0.0000000000000000
  0
LINE
  5
481
100
AcDbEntity
  8
MAIN0
  6
CONTINUOUS
 62
3
100
AcDbLine
 10
232.5479961097323
 20
350.7720758295060
 30
0.0000000000000000
 11
249.5593809621366
 21
350.7720758295060
 31
0.0000000000000000
  0
LINE
  5
482
100
AcDbEntity
  8
MAIN0
  6
CONTINUOUS
 62
3
100
AcDbLine
 10
234.8593809621365
 20
345.5915660545903
 30
0.0000000000000000
 11
235.3593809621365
 21
346.4575914583747
 31
0.0000000000000000
  0
LINE
  5
483
100
AcDbEntity
  8
MAIN0
  6
CONTINUOUS
 62
3
100
AcDbLine
 10
235.3593809621365
 20
346.4575914583747
 30
0.0000000000000000
 11
235.3593809621365
 21
350.7255406508058
 31
0.0000000000000000
  0
LINE
  5
484
100
AcDbEntity
  8
MAIN0
  6
CONTINUOUS
 62
3
100
AcDbLine
 10
235.3593809621365
 20
350.7255406508058
 30
0.0000000000000000
 11
234.8593809621365
 21
351.5915660545903
 31
0.0000000000000000
  0
LINE
  5
485
100
AcDbEntity
  8
MAIN0
  6
CONTINUOUS
 62
3
100
AcDbLine
 10
234.8593809621365
 20
345.5915660545903
 30
0.0000000000000000
 11
234.8593809621365
 21
351.5915660545903
 31
0.0000000000000000
  0
LINE
  5
486
100
AcDbEntity
  8
MAIN0
  6
CONTINUOUS
 62
3
100
AcDbLine
 10
232.7973141916703
 20
345.5915660545903
 30
0.0000000000000000
 11
234.8593809621365
 21
345.5915660545903
 31
0.0000000000000000
  0
LINE
  5
487
100
AcDbEntity
  8
MAIN0
  6
CONTINUOUS
 62
3
100
AcDbLine
 10
232.5252635495591
 20
351.5915660545903
 30
0.0000000000000000
 11
234.8593809621365
 21
351.5915660545903
 31
0.0000000000000000
  0
LINE
  5
488
100
AcDbEntity
  8
MAIN0
  6
CONTINUOUS
 62
3
100
AcDbLine
 10
232.7753090114716
 20
346.1328320545903
 30
0.0000000000000000
 11
235.1718810329397
 21
346.1328320545903
 31
0.0000000000000000
  0
LINE
  5
489
100
AcDbEntity
  8
MAIN0
  6
CONTINUOUS
 62
3
100
AcDbLine
 10
232.5385907288506
 20
351.0503000545903
 30
0.0000000000000000
 11
235.1718810329397
 21
351.0503000545903
 31
0.0000000000000000
  0
LINE
  5
48A
100
AcDbEntity
  8
MAIN0
  6
CONTINUOUS
 62
3
100
AcDbLine
 10
272.7170504190524
 20
306.5718104526010
 30
0.0000000000000000
 11
271.1170504190524
 21
308.1718104526011
 31
0.0000000000000000
  0
LINE
  5
48B
100
AcDbEntity
  8
MAIN0
  6
CONTINUOUS
 62
3
100
AcDbLine
 10
271.1170504190524
 20
318.3718104526010
 30
0.0000000000000000
 11
272.7170504190524
 21
319.9718104526010
 31
0.0000000000000000
  0
LINE
  5
48C
100
AcDbEntity
  8
MAIN0
  6
CONTINUOUS
 62
3
100
AcDbLine
 10
272.0170504190525
 20
307.2718104526010
 30
0.0000000000000000
 11
254.7170504190524
 21
307.2718104526010
 31
0.0000000000000000
  0
LINE
  5
48D
100
AcDbEntity
  8
MAIN0
  6
CONTINUOUS
 62
3
100
AcDbLine
 10
254.7170504190524
 20
307.2718104526010
 30
0.0000000000000000
 11
254.7170504190524
 21
319.2718104526010
 31
0.0000000000000000
  0
LINE
  5
48E
100
AcDbEntity
  8
MAIN0
  6
CONTINUOUS
 62
3
100
AcDbLine
 10
254.7170504190524
 20
319.2718104526010
 30
0.0000000000000000
 11
272.0170504190525
 21
319.2718104526010
 31
0.0000000000000000
  0
LINE
  5
48F
100
AcDbEntity
  8
MAIN0
  6
CONTINUOUS
 62
3
100
AcDbLine
 10
271.1170504190524
 20
308.1718104526011
 30
0.0000000000000000
 11
244.7170504190524
 21
308.1718104526011
 31
0.0000000000000000
  0
LINE
  5
490
100
AcDbEntity
  8
MAIN0
  6
CONTINUOUS
 62
3
100
AcDbLine
 10
244.7170504190524
 20
308.1718104526011
 30
0.0000000000000000
 11
244.7170504190524
 21
318.3718104526010
 31
0.0000000000000000
  0
LINE
  5
491
100
AcDbEntity
  8
MAIN0
  6
CONTINUOUS
 62
3
100
AcDbLine
 10
244.7170504190524
 20
318.3718104526010
 30
0.0000000000000000
 11
271.1170504190524
 21
318.3718104526010
 31
0.0000000000000000
  0
LINE
  5
492
100
AcDbEntity
  8
MAIN0
  6
CONTINUOUS
 62
3
100
AcDbLine
 10
244.7170504190524
 20
308.1718104526011
 30
0.0000000000000000
 11
241.7725640461853
 21
313.2718104526010
 31
0.0000000000000000
  0
LINE
  5
493
100
AcDbEntity
  8
MAIN0
  6
CONTINUOUS
 62
3
100
AcDbLine
 10
241.7725640461853
 20
313.2718104526010
 30
0.0000000000000000
 11
244.7170504190524
 21
318.3718104526010
 31
0.0000000000000000
  0
CIRCLE
  5
494
100
AcDbEntity
  8
MAIN0
  6
CONTINUOUS
 62
3
100
AcDbCircle
 10
473.5764684591400
 20
183.2718104526010
 30
0.0000000000000000
 40
3.000000000000000
  0
CIRCLE
  5
495
100
AcDbEntity
  8
MAIN0
  6
CONTINUOUS
 62
3
100
AcDbCircle
 10
473.5764684591400
 20
183.2718104526010
 30
0.0000000000000000
 40
2.500000000000000
  0
CIRCLE
  5
496
100
AcDbEntity
  8
MAIN0
  6
CONTINUOUS
 62
3
100
AcDbCircle
 10
473.5764684591400
 20
223.2718104526010
 30
0.0000000000000000
 40
3.000000000000000
  0
CIRCLE
  5
497
100
AcDbEntity
  8
MAIN0
  6
CONTINUOUS
 62
3
100
AcDbCircle
 10
473.5764684591400
 20
223.2718104526010
 30
0.0000000000000000
 40
2.500000000000000
  0
CIRCLE
  5
498
100
AcDbEntity
  8
MAIN0
  6
CONTINUOUS
 62
3
100
AcDbCircle
 10
443.5764684591400
 20
223.2718104526010
 30
0.0000000000000000
 40
3.000000000000000
  0
CIRCLE
  5
499
100
AcDbEntity
  8
MAIN0
  6
CONTINUOUS
 62
3
100
AcDbCircle
 10
443.5764684591400
 20
223.2718104526010
 30
0.0000000000000000
 40
2.500000000000000
  0
CIRCLE
  5
49A
100
AcDbEntity
  8
MAIN0
  6
CONTINUOUS
 62
3
100
AcDbCircle
 10
443.5764684591400
 20
183.2718104526010
 30
0.0000000000000000
 40
3.000000000000000
  0
CIRCLE
  5
49B
100
AcDbEntity
  8
MAIN0
  6
CONTINUOUS
 62
3
100
AcDbCircle
 10
443.5764684591400
 20
183.2718104526010
 30
0.0000000000000000
 40
2.500000000000000
  0
LINE
  5
49C
100
AcDbEntity
  8
MAIN0
  6
CONTINUOUS
 62
3
100
AcDbLine
 10
268.3593067884252
 20
272.2718104526011
 30
0.0000000000000000
 11
268.3593067884251
 21
264.2718104526011
 31
0.0000000000000000
  0
LINE
  5
49D
100
AcDbEntity
  8
MAIN0
  6
CONTINUOUS
 62
3
100
AcDbLine
 10
268.3593067884252
 20
272.2718104526011
 30
0.0000000000000000
 11
269.3593067884252
 21
273.2718104526011
 31
0.0000000000000000
  0
LINE
  5
49E
100
AcDbEntity
  8
MAIN0
  6
CONTINUOUS
 62
3
100
AcDbLine
 10
268.3593067884251
 20
264.2718104526011
 30
0.0000000000000000
 11
269.3593067884251
 21
263.2718104526011
 31
0.0000000000000000
  0
LINE
  5
49F
100
AcDbEntity
  8
MAIN0
  6
CONTINUOUS
 62
3
100
AcDbLine
 10
271.3593067884252
 20
271.7718104526011
 30
0.0000000000000000
 11
273.8593067884252
 21
271.7718104526011
 31
0.0000000000000000
  0
LINE
  5
4A0
100
AcDbEntity
  8
MAIN0
  6
CONTINUOUS
 62
3
100
AcDbLine
 10
271.3593067884252
 20
264.7718104526011
 30
0.0000000000000000
 11
273.8593067884251
 21
264.7718104526011
 31
0.0000000000000000
  0
LINE
  5
4A1
100
AcDbEntity
  8
MAIN0
  6
CENTER
 62
3
100
AcDbLine
 10
266.0445450766553
 20
268.2718104526011
 30
0.0000000000000000
 11
296.8441722432821
 21
268.2718104526010
 31
0.0000000000000000
  0
LINE
  5
4A2
100
AcDbEntity
  8
MAIN0
  6
CONTINUOUS
 62
3
100
AcDbLine
 10
269.3593067884251
 20
263.2718104526011
 30
0.0000000000000000
 11
271.3593067884251
 21
263.2718104526011
 31
0.0000000000000000
  0
LINE
  5
4A3
100
AcDbEntity
  8
MAIN0
  6
CONTINUOUS
 62
3
100
AcDbLine
 10
269.3593067884252
 20
273.2718104526011
 30
0.0000000000000000
 11
271.3593067884252
 21
273.2718104526011
 31
0.0000000000000000
  0
LINE
  5
4A4
100
AcDbEntity
  8
MAIN0
  6
CONTINUOUS
 62
3
100
AcDbLine
 10
282.3593067884251
 20
263.2718104526010
 30
0.0000000000000000
 11
282.3593067884252
 21
273.2718104526010
 31
0.0000000000000000
  0
LINE
  5
4A5
100
AcDbEntity
  8
MAIN0
  6
CONTINUOUS
 62
3
100
AcDbLine
 10
273.8593067884251
 20
263.2718104526011
 30
0.0000000000000000
 11
282.3593067884251
 21
263.2718104526010
 31
0.0000000000000000
  0
LINE
  5
4A6
100
AcDbEntity
  8
MAIN0
  6
CONTINUOUS
 62
3
100
AcDbLine
 10
273.8593067884252
 20
273.2718104526011
 30
0.0000000000000000
 11
282.3593067884252
 21
273.2718104526010
 31
0.0000000000000000
  0
LINE
  5
4A7
100
AcDbEntity
  8
MAIN0
  6
CONTINUOUS
 62
3
100
AcDbLine
 10
283.3593067884250
 20
262.2718104526010
 30
0.0000000000000000
 11
282.3593067884252
 21
263.2718104526010
 31
0.0000000000000000
  0
LINE
  5
4A8
100
AcDbEntity
  8
MAIN0
  6
CONTINUOUS
 62
3
100
AcDbLine
 10
283.3593067884250
 20
274.2718104526010
 30
0.0000000000000000
 11
282.3593067884252
 21
273.2718104526010
 31
0.0000000000000000
  0
LINE
  5
4A9
100
AcDbEntity
  8
MAIN0
  6
CONTINUOUS
 62
3
100
AcDbLine
 10
283.3593067884250
 20
262.2718104526010
 30
0.0000000000000000
 11
283.3593067884250
 21
274.2718104526010
 31
0.0000000000000000
  0
LINE
  5
4AA
100
AcDbEntity
  8
MAIN0
  6
CONTINUOUS
 62
3
100
AcDbLine
 10
273.8593067884252
 20
273.2718104526011
 30
0.0000000000000000
 11
273.8593067884251
 21
263.2718104526011
 31
0.0000000000000000
  0
LINE
  5
4AB
100
AcDbEntity
  8
MAIN0
  6
CONTINUOUS
 62
3
100
AcDbLine
 10
271.3593067884252
 20
273.2718104526011
 30
0.0000000000000000
 11
271.3593067884251
 21
263.2718104526011
 31
0.0000000000000000
  0
LINE
  5
4AC
100
AcDbEntity
  8
MAIN0
  6
CONTINUOUS
 62
3
100
AcDbLine
 10
283.3593067884250
 20
262.2718104526010
 30
0.0000000000000000
 11
292.3593067884251
 21
262.2718104526010
 31
0.0000000000000000
  0
LINE
  5
4AD
100
AcDbEntity
  8
MAIN0
  6
CONTINUOUS
 62
3
100
AcDbLine
 10
292.3593067884251
 20
262.2718104526010
 30
0.0000000000000000
 11
293.3593067884251
 21
264.0038612601699
 31
0.0000000000000000
  0
LINE
  5
4AE
100
AcDbEntity
  8
MAIN0
  6
CONTINUOUS
 62
3
100
AcDbLine
 10
293.3593067884251
 20
264.0038612601699
 30
0.0000000000000000
 11
293.3593067884252
 21
272.5397596450321
 31
0.0000000000000000
  0
LINE
  5
4AF
100
AcDbEntity
  8
MAIN0
  6
CONTINUOUS
 62
3
100
AcDbLine
 10
293.3593067884252
 20
272.5397596450321
 30
0.0000000000000000
 11
292.3593067884252
 21
274.2718104526010
 31
0.0000000000000000
  0
LINE
  5
4B0
100
AcDbEntity
  8
MAIN0
  6
CONTINUOUS
 62
3
100
AcDbLine
 10
292.3593067884252
 20
274.2718104526010
 30
0.0000000000000000
 11
283.3593067884250
 21
274.2718104526010
 31
0.0000000000000000
  0
LINE
  5
4B1
100
AcDbEntity
  8
MAIN0
  6
CONTINUOUS
 62
3
100
AcDbLine
 10
268.3593067884252
 20
272.2718104526011
 30
0.0000000000000000
 11
268.3593067884252
 21
264.2718104526011
 31
0.0000000000000000
  0
LINE
  5
4B2
100
AcDbEntity
  8
MAIN0
  6
CONTINUOUS
 62
3
100
AcDbLine
 10
292.3593067884251
 20
262.2718104526010
 30
0.0000000000000000
 11
292.3593067884252
 21
274.2718104526010
 31
0.0000000000000000
  0
LINE
  5
4B3
100
AcDbEntity
  8
MAIN0
  6
CONTINUOUS
 62
3
100
AcDbLine
 10
282.4120912884251
 20
263.2190259526010
 30
0.0000000000000000
 11
292.9061819123307
 21
263.2190259526010
 31
0.0000000000000000
  0
LINE
  5
4B4
100
AcDbEntity
  8
MAIN0
  6
CONTINUOUS
 62
3
100
AcDbLine
 10
282.4120912884251
 20
273.3245949526011
 30
0.0000000000000000
 11
292.9061819123307
 21
273.3245949526010
 31
0.0000000000000000
  0
LINE
  5
4B5
100
AcDbEntity
  8
MAIN0
  6
HIDDEN
 62
3
100
AcDbLine
 10
268.3593067884251
 20
264.2718104526011
 30
0.0000000000000000
 11
272.3593067884251
 21
268.2718104526011
 31
0.0000000000000000
  0
LINE
  5
4B6
100
AcDbEntity
  8
MAIN0
  6
HIDDEN
 62
3
100
AcDbLine
 10
272.3593067884251
 20
268.2718104526011
 30
0.0000000000000000
 11
268.3593067884252
 21
272.2718104526011
 31
0.0000000000000000
  0
ELLIPSE
  5
4B7
100
AcDbEntity
  8
MAIN0
  6
CONTINUOUS
 62
3
100
AcDbEllipse
 10
272.6093067884252
 20
272.5218104526011
 30
0.0000000000000000
 11
1.250000000000000
 21
0.0000000000000000
 31
0.0000000000000000
210
0.0000000000000000
220
0.0000000000000000
230
1.000000000000000
 40
0.6000000000000000
 41
0.0000000000000000
 42
6.283185307179586
  0
ELLIPSE
  5
4B8
100
AcDbEntity
  8
MAIN0
  6
CONTINUOUS
 62
3
100
AcDbEllipse
 10
272.6093067884251
 20
264.0218104526011
 30
0.0000000000000000
 11
1.250000000000000
 21
0.0000000000000000
 31
0.0000000000000000
210
0.0000000000000000
220
0.0000000000000000
230
1.000000000000000
 40
0.6000000000000000
 41
0.0000000000000000
 42
6.283185307179586
  0
LINE
  5
4B9
100
AcDbEntity
  8
MAIN0
  6
CONTINUOUS
 62
3
100
AcDbLine
 10
236.5593809621359
 20
169.2718104526010
 30
0.0000000000000000
 11
235.3593809621359
 21
168.0718104526009
 31
0.0000000000000000
  0
LINE
  5
4BA
100
AcDbEntity
  8
MAIN0
  6
CONTINUOUS
 62
3
100
AcDbLine
 10
235.3593809621359
 20
168.0718104526010
 30
0.0000000000000000
 11
235.3593809621359
 21
164.7718104526010
 31
0.0000000000000000
  0
LINE
  5
4BB
100
AcDbEntity
  8
MAIN0
  6
CONTINUOUS
 62
3
100
AcDbLine
 10
235.3593809621359
 20
164.7718104526010
 30
0.0000000000000000
 11
236.2254063659204
 21
164.2718104526010
 31
0.0000000000000000
  0
LINE
  5
4BC
100
AcDbEntity
  8
MAIN0
  6
CONTINUOUS
 62
3
100
AcDbLine
 10
236.2254063659204
 20
164.2718104526010
 30
0.0000000000000000
 11
239.4933555583515
 21
164.2718104526010
 31
0.0000000000000000
  0
LINE
  5
4BD
100
AcDbEntity
  8
MAIN0
  6
CONTINUOUS
 62
3
100
AcDbLine
 10
239.4933555583515
 20
164.2718104526010
 30
0.0000000000000000
 11
240.3593809621359
 21
164.7718104526010
 31
0.0000000000000000
  0
LINE
  5
4BE
100
AcDbEntity
  8
MAIN0
  6
CONTINUOUS
 62
3
100
AcDbLine
 10
240.3593809621359
 20
164.7718104526010
 30
0.0000000000000000
 11
240.3593809621359
 21
168.0718104526010
 31
0.0000000000000000
  0
LINE
  5
4BF
100
AcDbEntity
  8
MAIN0
  6
CONTINUOUS
 62
3
100
AcDbLine
 10
240.3593809621359
 20
168.0718104526009
 30
0.0000000000000000
 11
239.1593809621359
 21
169.2718104526010
 31
0.0000000000000000
  0
LINE
  5
4C0
100
AcDbEntity
  8
MAIN0
  6
CONTINUOUS
 62
3
100
AcDbLine
 10
239.1593809621359
 20
169.2718104526010
 30
0.0000000000000000
 11
236.5593809621359
 21
169.2718104526010
 31
0.0000000000000000
  0
LINE
  5
4C1
100
AcDbEntity
  8
MAIN0
  6
CONTINUOUS
 62
3
100
AcDbLine
 10
235.3593809621359
 20
168.0718104526010
 30
0.0000000000000000
 11
240.3593809621359
 21
168.0718104526010
 31
0.0000000000000000
  0
LINE
  5
4C2
100
AcDbEntity
  8
MAIN0
  6
CONTINUOUS
 62
3
100
AcDbLine
 10
235.3593809621359
 20
164.7718104526010
 30
0.0000000000000000
 11
240.3593809621359
 21
164.7718104526010
 31
0.0000000000000000
  0
LINE
  5
4C3
100
AcDbEntity
  8
MAIN0
  6
CONTINUOUS
 62
3
100
AcDbLine
 10
235.7923937621359
 20
168.5048232526009
 30
0.0000000000000000
 11
235.7923937621359
 21
164.5218103959584
 31
0.0000000000000000
  0
LINE
  5
4C4
100
AcDbEntity
  8
MAIN0
  6
CONTINUOUS
 62
3
100
AcDbLine
 10
239.9263681621359
 20
168.5048232526009
 30
0.0000000000000000
 11
239.9263681621359
 21
164.5218103959584
 31
0.0000000000000000
  0
LINE
  5
4C5
100
AcDbEntity
  8
MAIN0
  6
HIDDEN
 62
3
100
AcDbLine
 10
236.6093809621359
 20
169.2718104526010
 30
0.0000000000000000
 11
237.8593809621359
 21
168.0218104526010
 31
0.0000000000000000
  0
LINE
  5
4C6
100
AcDbEntity
  8
MAIN0
  6
HIDDEN
 62
3
100
AcDbLine
 10
237.8593809621359
 20
168.0218104526010
 30
0.0000000000000000
 11
239.1093809621359
 21
169.2718104526010
 31
0.0000000000000000
  0
LINE
  5
4C7
100
AcDbEntity
  8
MAIN0
  6
CONTINUOUS
 62
3
100
AcDbLine
 10
137.8593809621358
 20
278.2718104526010
 30
0.0000000000000000
 11
139.3593809621358
 21
279.7718104526010
 31
0.0000000000000000
  0
LINE
  5
4C8
100
AcDbEntity
  8
MAIN0
  6
CONTINUOUS
 62
3
100
AcDbLine
 10
139.3593809621359
 20
279.7718104526010
 30
0.0000000000000000
 11
139.3593809621359
 21
285.6718104526010
 31
0.0000000000000000
  0
LINE
  5
4C9
100
AcDbEntity
  8
MAIN0
  6
CONTINUOUS
 62
3
100
AcDbLine
 10
139.3593809621359
 20
285.6718104526010
 30
0.0000000000000000
 11
138.3201504775946
 21
286.2718104526010
 31
0.0000000000000000
  0
LINE
  5
4CA
100
AcDbEntity
  8
MAIN0
  6
CONTINUOUS
 62
3
100
AcDbLine
 10
138.3201504775946
 20
286.2718104526010
 30
0.0000000000000000
 11
132.3986114466772
 21
286.2718104526010
 31
0.0000000000000000
  0
LINE
  5
4CB
100
AcDbEntity
  8
MAIN0
  6
CONTINUOUS
 62
3
100
AcDbLine
 10
132.3986114466772
 20
286.2718104526010
 30
0.0000000000000000
 11
131.3593809621358
 21
285.6718104526010
 31
0.0000000000000000
  0
LINE
  5
4CC
100
AcDbEntity
  8
MAIN0
  6
CONTINUOUS
 62
3
100
AcDbLine
 10
131.3593809621359
 20
285.6718104526010
 30
0.0000000000000000
 11
131.3593809621359
 21
279.7718104526010
 31
0.0000000000000000
  0
LINE
  5
4CD
100
AcDbEntity
  8
MAIN0
  6
CONTINUOUS
 62
3
100
AcDbLine
 10
131.3593809621358
 20
279.7718104526010
 30
0.0000000000000000
 11
132.8593809621358
 21
278.2718104526010
 31
0.0000000000000000
  0
LINE
  5
4CE
100
AcDbEntity
  8
MAIN0
  6
CONTINUOUS
 62
3
100
AcDbLine
 10
132.8593809621359
 20
278.2718104526010
 30
0.0000000000000000
 11
137.8593809621359
 21
278.2718104526010
 31
0.0000000000000000
  0
LINE
  5
4CF
100
AcDbEntity
  8
MAIN0
  6
CONTINUOUS
 62
3
100
AcDbLine
 10
139.3593809621359
 20
279.7718104526010
 30
0.0000000000000000
 11
131.3593809621359
 21
279.7718104526010
 31
0.0000000000000000
  0
LINE
  5
4D0
100
AcDbEntity
  8
MAIN0
  6
CONTINUOUS
 62
3
100
AcDbLine
 10
139.3593809621359
 20
285.6718104526010
 30
0.0000000000000000
 11
131.3593809621359
 21
285.6718104526010
 31
0.0000000000000000
  0
LINE
  5
4D1
100
AcDbEntity
  8
MAIN0
  6
CONTINUOUS
 62
3
100
AcDbLine
 10
138.6827984621359
 20
279.0952279526010
 30
0.0000000000000000
 11
138.6827984621359
 21
286.0624355411050
 31
0.0000000000000000
  0
LINE
  5
4D2
100
AcDbEntity
  8
MAIN0
  6
CONTINUOUS
 62
3
100
AcDbLine
 10
132.0359634621359
 20
279.0952279526010
 30
0.0000000000000000
 11
132.0359634621359
 21
286.0624355411050
 31
0.0000000000000000
  0
LINE
  5
4D3
100
AcDbEntity
  8
MAIN0
  6
HIDDEN
 62
3
100
AcDbLine
 10
137.8593809621359
 20
278.2718104526010
 30
0.0000000000000000
 11
135.3593809621359
 21
280.7718104526010
 31
0.0000000000000000
  0
LINE
  5
4D4
100
AcDbEntity
  8
MAIN0
  6
HIDDEN
 62
3
100
AcDbLine
 10
135.3593809621359
 20
280.7718104526010
 30
0.0000000000000000
 11
132.8593809621359
 21
278.2718104526010
 31
0.0000000000000000
  0
LINE
  5
4D5
100
AcDbEntity
  8
MAIN0
  6
CONTINUOUS
 62
3
100
AcDbLine
 10
244.5765116249593
 20
288.8847371096641
 30
0.0000000000000000
 11
245.0613986737095
 21
289.1760866419346
 31
0.0000000000000000
  0
LINE
  5
4D6
100
AcDbEntity
  8
MAIN0
  6
CONTINUOUS
 62
3
100
AcDbLine
 10
245.0613986737095
 20
289.1760866419346
 30
0.0000000000000000
 11
247.9886536104646
 21
300.9166649298745
 31
0.0000000000000000
  0
LINE
  5
4D7
100
AcDbEntity
  8
MAIN0
  6
CONTINUOUS
 62
3
100
AcDbLine
 10
251.8698365155687
 20
299.9489773474762
 30
0.0000000000000000
 11
248.9425815788136
 21
288.2083990595363
 31
0.0000000000000000
  0
LINE
  5
4D8
100
AcDbEntity
  8
MAIN0
  6
CONTINUOUS
 62
3
100
AcDbLine
 10
248.9425815788136
 20
288.2083990595363
 30
0.0000000000000000
 11
249.2339311110842
 21
287.7235120107860
 31
0.0000000000000000
  0
LINE
  5
4D9
100
AcDbEntity
  8
MAIN0
  6
CONTINUOUS
 62
3
100
AcDbLine
 10
252.8375240979669
 20
303.8301602525802
 30
0.0000000000000000
 11
251.8698365155686
 21
299.9489773474762
 31
0.0000000000000000
  0
LINE
  5
4DA
100
AcDbEntity
  8
MAIN0
  6
CONTINUOUS
 62
3
100
AcDbLine
 10
252.8375240979669
 20
303.8301602525802
 30
0.0000000000000000
 11
253.4740813042857
 21
301.6102214569336
 31
0.0000000000000000
  0
LINE
  5
4DB
100
AcDbEntity
  8
MAIN0
  6
CONTINUOUS
 62
3
100
AcDbLine
 10
253.4740813042857
 20
301.6102214569336
 30
0.0000000000000000
 11
251.8698365155686
 21
299.9489773474762
 31
0.0000000000000000
  0
LINE
  5
4DC
100
AcDbEntity
  8
MAIN0
  6
CONTINUOUS
 62
3
100
AcDbLine
 10
230.5479604281477
 20
309.3875675129950
 30
0.0000000000000000
 11
252.8375240979669
 21
303.8301602525802
 31
0.0000000000000000
  0
LINE
  5
4DD
100
AcDbEntity
  8
MAIN0
  6
CONTINUOUS
 62
3
100
AcDbLine
 10
230.0181462986441
 20
305.3972156280079
 30
0.0000000000000000
 11
247.9886536104646
 21
300.9166649298745
 31
0.0000000000000000
  0
LINE
  5
4DE
100
AcDbEntity
  8
MAIN0
  6
CONTINUOUS
 62
3
100
AcDbLine
 10
286.0170504190555
 20
293.2718104526010
 30
0.0000000000000000
 11
285.2170504190555
 21
292.4718104526010
 31
0.0000000000000000
  0
LINE
  5
4DF
100
AcDbEntity
  8
MAIN0
  6
CONTINUOUS
 62
3
100
AcDbLine
 10
280.2170504190555
 20
292.4718104526010
 30
0.0000000000000000
 11
279.4170504190556
 21
293.2718104526010
 31
0.0000000000000000
  0
LINE
  5
4E0
100
AcDbEntity
  8
MAIN0
  6
CONTINUOUS
 62
3
100
AcDbLine
 10
285.7170504190555
 20
292.9718104526010
 30
0.0000000000000000
 11
285.7170504190555
 21
280.1232167532809
 31
0.0000000000000000
  0
LINE
  5
4E1
100
AcDbEntity
  8
MAIN0
  6
CONTINUOUS
 62
3
100
AcDbLine
 10
279.7170504190555
 20
280.1232167533017
 30
0.0000000000000000
 11
279.7170504190555
 21
292.9718104526010
 31
0.0000000000000000
  0
LINE
  5
4E2
100
AcDbEntity
  8
MAIN0
  6
CONTINUOUS
 62
3
100
AcDbLine
 10
285.2170504190555
 20
292.4718104526010
 30
0.0000000000000000
 11
285.2170504190555
 21
280.6232167532743
 31
0.0000000000000000
  0
LINE
  5
4E3
100
AcDbEntity
  8
MAIN0
  6
CONTINUOUS
 62
3
100
AcDbLine
 10
280.2170504190555
 20
280.6232167532742
 30
0.0000000000000000
 11
280.2170504190555
 21
292.4718104526010
 31
0.0000000000000000
  0
CIRCLE
  5
4E4
100
AcDbEntity
  8
MAIN0
  6
CONTINUOUS
 62
3
100
AcDbCircle
 10
458.5764684591400
 20
348.2718104526010
 30
0.0000000000000000
 40
3.000000000000000
  0
CIRCLE
  5
4E5
100
AcDbEntity
  8
MAIN0
  6
CONTINUOUS
 62
3
100
AcDbCircle
 10
458.5764684591400
 20
348.2718104526010
 30
0.0000000000000000
 40
2.500000000000000
  0
CIRCLE
  5
4E6
100
AcDbEntity
  8
MAIN0
  6
CONTINUOUS
 62
3
100
AcDbCircle
 10
527.8585007617348
 20
228.2718104523235
 30
0.0000000000000000
 40
3.000000000000000
  0
CIRCLE
  5
4E7
100
AcDbEntity
  8
MAIN0
  6
CONTINUOUS
 62
3
100
AcDbCircle
 10
527.8585007617348
 20
228.2718104523235
 30
0.0000000000000000
 40
2.500000000000000
  0
CIRCLE
  5
4E8
100
AcDbEntity
  8
MAIN0
  6
CONTINUOUS
 62
3
100
AcDbCircle
 10
389.2944361562247
 20
228.2718104528785
 30
0.0000000000000000
 40
3.000000000000000
  0
CIRCLE
  5
4E9
100
AcDbEntity
  8
MAIN0
  6
CONTINUOUS
 62
3
100
AcDbCircle
 10
389.2944361562247
 20
228.2718104528785
 30
0.0000000000000000
 40
2.500000000000000
  0
LINE
  5
4EA
100
AcDbEntity
  8
MAIN0
  6
HIDDEN
 62
3
100
AcDbLine
 10
456.4764684591399
 20
164.0718104526010
 30
0.0000000000000000
 11
456.4764684763264
 21
249.8913860812166
 31
0.0000000000000000
  0
LINE
  5
4EB
100
AcDbEntity
  8
MAIN0
  6
HIDDEN
 62
3
100
AcDbLine
 10
458.5764684591400
 20
253.7129421469543
 30
0.0000000000000000
 11
458.5764684591400
 21
160.0592955010800
 31
0.0000000000000000
  0
LINE
  5
4EC
100
AcDbEntity
  8
MAIN0
  6
HIDDEN
 62
3
100
AcDbLine
 10
460.6764684591399
 20
164.0718104526010
 30
0.0000000000000000
 11
460.6764686562353
 21
249.8913861056987
 31
0.0000000000000000
  0
LINE
  5
4ED
100
AcDbEntity
  8
MAIN0
  6
HIDDEN
 62
3
100
AcDbLine
 10
456.0764684591400
 20
164.7718104526010
 30
0.0000000000000000
 11
461.0764684591400
 21
164.7718104526010
 31
0.0000000000000000
  0
LINE
  5
4EE
100
AcDbEntity
  8
MAIN0
  6
HIDDEN
 62
3
100
AcDbLine
 10
456.9424938629244
 20
164.2718104526010
 30
0.0000000000000000
 11
460.2104430553555
 21
164.2718104526010
 31
0.0000000000000000
  0
LINE
  5
4EF
100
AcDbEntity
  8
MAIN0
  6
HIDDEN
 62
3
100
AcDbLine
 10
456.0764684591400
 20
164.7718104526010
 30
0.0000000000000000
 11
456.9424938629245
 21
164.2718104526010
 31
0.0000000000000000
  0
LINE
  5
4F0
100
AcDbEntity
  8
MAIN0
  6
HIDDEN
 62
3
100
AcDbLine
 10
456.4764684591399
 20
164.0718104526010
 30
0.0000000000000000
 11
460.6764684591400
 21
164.0718104526010
 31
0.0000000000000000
  0
LINE
  5
4F1
100
AcDbEntity
  8
MAIN0
  6
HIDDEN
 62
3
100
AcDbLine
 10
455.6764684591400
 20
163.2718104526010
 30
0.0000000000000000
 11
456.4764684591400
 21
164.0718104526010
 31
0.0000000000000000
  0
LINE
  5
4F2
100
AcDbEntity
  8
MAIN0
  6
HIDDEN
 62
3
100
AcDbLine
 10
456.0764684591400
 20
163.6718104526011
 30
0.0000000000000000
 11
456.0764684591400
 21
169.2718104526010
 31
0.0000000000000000
  0
LINE
  5
4F3
100
AcDbEntity
  8
MAIN0
  6
HIDDEN
 62
3
100
AcDbLine
 10
460.2104430553555
 20
164.2718104526010
 30
0.0000000000000000
 11
461.0764684591400
 21
164.7718104526010
 31
0.0000000000000000
  0
LINE
  5
4F4
100
AcDbEntity
  8
MAIN0
  6
HIDDEN
 62
3
100
AcDbLine
 10
461.0764684591400
 20
169.2718104526010
 30
0.0000000000000000
 11
461.0764684591400
 21
163.6718104526011
 31
0.0000000000000000
  0
LINE
  5
4F5
100
AcDbEntity
  8
MAIN0
  6
HIDDEN
 62
3
100
AcDbLine
 10
460.6434556591399
 20
168.5048232526010
 30
0.0000000000000000
 11
460.6434556591399
 21
164.5218103959585
 31
0.0000000000000000
  0
LINE
  5
4F6
100
AcDbEntity
  8
MAIN0
  6
HIDDEN
 62
3
100
AcDbLine
 10
456.5094812591400
 20
168.5048232526010
 30
0.0000000000000000
 11
456.5094812591400
 21
164.5218103959585
 31
0.0000000000000000
  0
LINE
  5
4F7
100
AcDbEntity
  8
MAIN0
  6
HIDDEN
 62
3
100
AcDbLine
 10
456.0764684591400
 20
168.0718104526010
 30
0.0000000000000000
 11
461.0764684591400
 21
168.0718104526010
 31
0.0000000000000000
  0
LINE
  5
4F8
100
AcDbEntity
  8
MAIN0
  6
HIDDEN
 62
3
100
AcDbLine
 10
457.2764684591400
 20
169.2718104526010
 30
0.0000000000000000
 11
456.0764684591400
 21
168.0718104526010
 31
0.0000000000000000
  0
LINE
  5
4F9
100
AcDbEntity
  8
MAIN0
  6
HIDDEN
 62
3
100
AcDbLine
 10
457.3264684591400
 20
169.2718104526011
 30
0.0000000000000000
 11
458.5764684591400
 21
168.0218104526011
 31
0.0000000000000000
  0
LINE
  5
4FA
100
AcDbEntity
  8
MAIN0
  6
HIDDEN
 62
3
100
AcDbLine
 10
459.8764684591399
 20
169.2718104526010
 30
0.0000000000000000
 11
457.2764684591400
 21
169.2718104526010
 31
0.0000000000000000
  0
LINE
  5
4FB
100
AcDbEntity
  8
MAIN0
  6
HIDDEN
 62
3
100
AcDbLine
 10
461.0764684591400
 20
168.0718104526010
 30
0.0000000000000000
 11
459.8764684591399
 21
169.2718104526011
 31
0.0000000000000000
  0
LINE
  5
4FC
100
AcDbEntity
  8
MAIN0
  6
HIDDEN
 62
3
100
AcDbLine
 10
456.0764684591400
 20
169.2718104526010
 30
0.0000000000000000
 11
461.0764684591400
 21
169.2718104526010
 31
0.0000000000000000
  0
LINE
  5
4FD
100
AcDbEntity
  8
MAIN0
  6
HIDDEN
 62
3
100
AcDbLine
 10
458.5764684591399
 20
168.0218104526011
 30
0.0000000000000000
 11
459.8264684591400
 21
169.2718104526011
 31
0.0000000000000000
  0
LINE
  5
4FE
100
AcDbEntity
  8
MAIN0
  6
HIDDEN
 62
3
100
AcDbLine
 10
460.6764684591400
 20
164.0718104526010
 30
0.0000000000000000
 11
461.4764684591401
 21
163.2718104526010
 31
0.0000000000000000
  0
LINE
  5
4FF
100
AcDbEntity
  8
MAIN0
  6
HIDDEN
 62
3
100
AcDbLine
 10
456.0764684591400
 20
168.0718104526010
 30
0.0000000000000000
 11
456.0764684591400
 21
164.7718104526010
 31
0.0000000000000000
  0
LINE
  5
500
100
AcDbEntity
  8
MAIN0
  6
HIDDEN
 62
3
100
AcDbLine
 10
461.0764684591400
 20
164.7718104526010
 30
0.0000000000000000
 11
461.0764684591400
 21
168.0718104526010
 31
0.0000000000000000
  0
LINE
  5
501
100
AcDbEntity
  8
MAIN0
  6
HIDDEN
 62
3
100
AcDbLine
 10
549.8663155334787
 20
318.5531571046536
 30
0.0000000000000000
 11
475.5443828885044
 21
275.6433693052298
 31
0.0000000000000000
  0
LINE
  5
502
100
AcDbEntity
  8
MAIN0
  6
HIDDEN
 62
3
100
AcDbLine
 10
471.1848182621820
 20
275.5512446054244
 30
0.0000000000000000
 11
552.2912554145606
 21
322.3780679283614
 31
0.0000000000000000
  0
LINE
  5
503
100
AcDbEntity
  8
MAIN0
  6
HIDDEN
 62
3
100
AcDbLine
 10
547.7663155334785
 20
322.1904638005482
 30
0.0000000000000000
 11
473.4443827773476
 21
279.2806761446890
 31
0.0000000000000000
  0
LINE
  5
504
100
AcDbEntity
  8
MAIN0
  6
HIDDEN
 62
3
100
AcDbLine
 10
549.4600977508294
 20
317.8567469431398
 30
0.0000000000000000
 11
546.9600977508294
 21
322.1868739620620
 31
0.0000000000000000
  0
LINE
  5
505
100
AcDbEntity
  8
MAIN0
  6
HIDDEN
 62
3
100
AcDbLine
 10
549.4600977508294
 20
318.8567469431397
 30
0.0000000000000000
 11
547.8261231546139
 21
321.6868739620620
 31
0.0000000000000000
  0
LINE
  5
506
100
AcDbEntity
  8
MAIN0
  6
HIDDEN
 62
3
100
AcDbLine
 10
549.4600977508294
 20
317.8567469431398
 30
0.0000000000000000
 11
549.4600977508294
 21
318.8567469431398
 31
0.0000000000000000
  0
LINE
  5
507
100
AcDbEntity
  8
MAIN0
  6
HIDDEN
 62
3
100
AcDbLine
 10
549.8663155334785
 20
318.5531571046535
 30
0.0000000000000000
 11
547.7663155334785
 21
322.1904638005482
 31
0.0000000000000000
  0
LINE
  5
508
100
AcDbEntity
  8
MAIN0
  6
HIDDEN
 62
3
100
AcDbLine
 10
550.9591358565061
 20
318.2603367816260
 30
0.0000000000000000
 11
549.8663155334787
 21
318.5531571046535
 31
0.0000000000000000
  0
LINE
  5
509
100
AcDbEntity
  8
MAIN0
  6
HIDDEN
 62
3
100
AcDbLine
 10
550.4127256949922
 20
318.4067469431398
 30
0.0000000000000000
 11
545.5629834337995
 21
315.6067469431398
 31
0.0000000000000000
  0
LINE
  5
50A
100
AcDbEntity
  8
MAIN0
  6
HIDDEN
 62
3
100
AcDbLine
 10
547.8261231546138
 20
321.6868739620620
 30
0.0000000000000000
 11
546.9600977508294
 21
322.1868739620620
 31
0.0000000000000000
  0
LINE
  5
50B
100
AcDbEntity
  8
MAIN0
  6
HIDDEN
 62
3
100
AcDbLine
 10
543.0629834337995
 20
319.9368739620620
 30
0.0000000000000000
 11
547.9127256949922
 21
322.7368739620619
 31
0.0000000000000000
  0
LINE
  5
50C
100
AcDbEntity
  8
MAIN0
  6
HIDDEN
 62
3
100
AcDbLine
 10
543.9437202333770
 20
319.9453674770981
 30
0.0000000000000000
 11
547.3931105508294
 21
321.9368739054194
 31
0.0000000000000000
  0
LINE
  5
50D
100
AcDbEntity
  8
MAIN0
  6
HIDDEN
 62
3
100
AcDbLine
 10
546.0107074333770
 20
316.3652406281036
 30
0.0000000000000000
 11
549.4600977508295
 21
318.3567470564249
 31
0.0000000000000000
  0
LINE
  5
50E
100
AcDbEntity
  8
MAIN0
  6
HIDDEN
 62
3
100
AcDbLine
 10
546.6022139183407
 20
316.2067469431398
 30
0.0000000000000000
 11
544.1022139183407
 21
320.5368739620620
 31
0.0000000000000000
  0
LINE
  5
50F
100
AcDbEntity
  8
MAIN0
  6
HIDDEN
 62
3
100
AcDbLine
 10
544.9629834337994
 20
316.6459774276811
 30
0.0000000000000000
 11
546.6022139183408
 21
316.2067469431398
 31
0.0000000000000000
  0
LINE
  5
510
100
AcDbEntity
  8
MAIN0
  6
HIDDEN
 62
3
100
AcDbLine
 10
544.9379834337993
 20
316.6892786978702
 30
0.0000000000000000
 11
545.3955151885299
 21
318.3968104526008
 31
0.0000000000000000
  0
LINE
  5
511
100
AcDbEntity
  8
MAIN0
  6
HIDDEN
 62
3
100
AcDbLine
 10
543.6629834337995
 20
318.8976434775206
 30
0.0000000000000000
 11
544.9629834337994
 21
316.6459774276811
 31
0.0000000000000000
  0
LINE
  5
512
100
AcDbEntity
  8
MAIN0
  6
HIDDEN
 62
3
100
AcDbLine
 10
544.1022139183407
 20
320.5368739620620
 30
0.0000000000000000
 11
543.6629834337994
 21
318.8976434775206
 31
0.0000000000000000
  0
LINE
  5
513
100
AcDbEntity
  8
MAIN0
  6
HIDDEN
 62
3
100
AcDbLine
 10
545.5629834337995
 20
315.6067469431398
 30
0.0000000000000000
 11
543.0629834337995
 21
319.9368739620620
 31
0.0000000000000000
  0
LINE
  5
514
100
AcDbEntity
  8
MAIN0
  6
HIDDEN
 62
3
100
AcDbLine
 10
545.3955151885299
 20
318.3968104526008
 30
0.0000000000000000
 11
543.6879834337993
 21
318.8543422073313
 31
0.0000000000000000
  0
LINE
  5
515
100
AcDbEntity
  8
MAIN0
  6
HIDDEN
 62
3
100
AcDbLine
 10
547.7663155334786
 20
322.1904638005482
 30
0.0000000000000000
 11
548.0591358565062
 21
323.2832841235758
 31
0.0000000000000000
  0
LINE
  5
516
100
AcDbEntity
  8
MAIN0
  6
HIDDEN
 62
3
100
AcDbLine
 10
546.6022139183407
 20
316.2067469431397
 30
0.0000000000000000
 11
549.4600977508294
 21
317.8567469431398
 31
0.0000000000000000
  0
LINE
  5
517
100
AcDbEntity
  8
MAIN0
  6
HIDDEN
 62
3
100
AcDbLine
 10
546.9600977508294
 20
322.1868739620620
 30
0.0000000000000000
 11
544.1022139183407
 21
320.5368739620619
 31
0.0000000000000000
  0
LINE
  5
518
100
AcDbEntity
  8
MAIN0
  6
HIDDEN
 62
3
100
AcDbLine
 10
369.3866213848017
 20
322.1904638005487
 30
0.0000000000000000
 11
443.7085540125893
 21
279.2806759713567
 31
0.0000000000000000
  0
LINE
  5
519
100
AcDbEntity
  8
MAIN0
  6
HIDDEN
 62
3
100
AcDbLine
 10
445.9681186560978
 20
275.5512446054244
 30
0.0000000000000000
 11
364.8616815037195
 21
322.3780679283619
 31
0.0000000000000000
  0
LINE
  5
51A
100
AcDbEntity
  8
MAIN0
  6
HIDDEN
 62
3
100
AcDbLine
 10
367.2866213848016
 20
318.5531571046541
 30
0.0000000000000000
 11
441.6085539438368
 21
275.6433691074154
 31
0.0000000000000000
  0
LINE
  5
51B
100
AcDbEntity
  8
MAIN0
  6
HIDDEN
 62
3
100
AcDbLine
 10
370.1928391674507
 20
322.1868739620624
 30
0.0000000000000000
 11
367.6928391674506
 21
317.8567469431402
 31
0.0000000000000000
  0
LINE
  5
51C
100
AcDbEntity
  8
MAIN0
  6
HIDDEN
 62
3
100
AcDbLine
 10
369.3268137636663
 20
321.6868739620624
 30
0.0000000000000000
 11
367.6928391674508
 21
318.8567469431403
 31
0.0000000000000000
  0
LINE
  5
51D
100
AcDbEntity
  8
MAIN0
  6
HIDDEN
 62
3
100
AcDbLine
 10
370.1928391674506
 20
322.1868739620624
 30
0.0000000000000000
 11
369.3268137636662
 21
321.6868739620624
 31
0.0000000000000000
  0
LINE
  5
51E
100
AcDbEntity
  8
MAIN0
  6
HIDDEN
 62
3
100
AcDbLine
 10
369.3866213848016
 20
322.1904638005486
 30
0.0000000000000000
 11
367.2866213848016
 21
318.5531571046540
 31
0.0000000000000000
  0
LINE
  5
51F
100
AcDbEntity
  8
MAIN0
  6
HIDDEN
 62
3
100
AcDbLine
 10
369.0938010617742
 20
323.2832841235762
 30
0.0000000000000000
 11
369.3866213848017
 21
322.1904638005487
 31
0.0000000000000000
  0
LINE
  5
520
100
AcDbEntity
  8
MAIN0
  6
HIDDEN
 62
3
100
AcDbLine
 10
369.2402112232879
 20
322.7368739620624
 30
0.0000000000000000
 11
374.0899534844807
 21
319.9368739620625
 31
0.0000000000000000
  0
LINE
  5
521
100
AcDbEntity
  8
MAIN0
  6
HIDDEN
 62
3
100
AcDbLine
 10
367.6928391674507
 20
318.8567469431403
 30
0.0000000000000000
 11
367.6928391674507
 21
317.8567469431403
 31
0.0000000000000000
  0
LINE
  5
522
100
AcDbEntity
  8
MAIN0
  6
HIDDEN
 62
3
100
AcDbLine
 10
371.5899534844806
 20
315.6067469431403
 30
0.0000000000000000
 11
366.7402112232879
 21
318.4067469431402
 31
0.0000000000000000
  0
LINE
  5
523
100
AcDbEntity
  8
MAIN0
  6
HIDDEN
 62
3
100
AcDbLine
 10
371.1422294849032
 20
316.3652406281041
 30
0.0000000000000000
 11
367.6928391674507
 21
318.3567470564254
 31
0.0000000000000000
  0
LINE
  5
524
100
AcDbEntity
  8
MAIN0
  6
HIDDEN
 62
3
100
AcDbLine
 10
373.2092166849031
 20
319.9453674770987
 30
0.0000000000000000
 11
369.7598263674507
 21
321.9368739054199
 31
0.0000000000000000
  0
LINE
  5
525
100
AcDbEntity
  8
MAIN0
  6
HIDDEN
 62
3
100
AcDbLine
 10
373.0507229999394
 20
320.5368739620624
 30
0.0000000000000000
 11
370.5507229999394
 21
316.2067469431402
 31
0.0000000000000000
  0
LINE
  5
526
100
AcDbEntity
  8
MAIN0
  6
HIDDEN
 62
3
100
AcDbLine
 10
373.4899534844807
 20
318.8976434775211
 30
0.0000000000000000
 11
373.0507229999394
 21
320.5368739620625
 31
0.0000000000000000
  0
LINE
  5
527
100
AcDbEntity
  8
MAIN0
  6
HIDDEN
 62
3
100
AcDbLine
 10
373.4649534844807
 20
318.8543422073319
 30
0.0000000000000000
 11
371.7574217297502
 21
318.3968104526014
 31
0.0000000000000000
  0
LINE
  5
528
100
AcDbEntity
  8
MAIN0
  6
HIDDEN
 62
3
100
AcDbLine
 10
372.1899534844807
 20
316.6459774276815
 30
0.0000000000000000
 11
373.4899534844807
 21
318.8976434775211
 31
0.0000000000000000
  0
LINE
  5
529
100
AcDbEntity
  8
MAIN0
  6
HIDDEN
 62
3
100
AcDbLine
 10
370.5507229999394
 20
316.2067469431402
 30
0.0000000000000000
 11
372.1899534844807
 21
316.6459774276815
 31
0.0000000000000000
  0
LINE
  5
52A
100
AcDbEntity
  8
MAIN0
  6
HIDDEN
 62
3
100
AcDbLine
 10
374.0899534844807
 20
319.9368739620624
 30
0.0000000000000000
 11
371.5899534844807
 21
315.6067469431402
 31
0.0000000000000000
  0
LINE
  5
52B
100
AcDbEntity
  8
MAIN0
  6
HIDDEN
 62
3
100
AcDbLine
 10
371.7574217297502
 20
318.3968104526013
 30
0.0000000000000000
 11
372.2149534844807
 21
316.6892786978708
 31
0.0000000000000000
  0
LINE
  5
52C
100
AcDbEntity
  8
MAIN0
  6
HIDDEN
 62
3
100
AcDbLine
 10
367.2866213848017
 20
318.5531571046540
 30
0.0000000000000000
 11
366.1938010617741
 21
318.2603367816265
 31
0.0000000000000000
  0
LINE
  5
52D
100
AcDbEntity
  8
MAIN0
  6
HIDDEN
 62
3
100
AcDbLine
 10
373.0507229999394
 20
320.5368739620624
 30
0.0000000000000000
 11
370.1928391674506
 21
322.1868739620625
 31
0.0000000000000000
  0
LINE
  5
52E
100
AcDbEntity
  8
MAIN0
  6
HIDDEN
 62
3
100
AcDbLine
 10
367.6928391674506
 20
317.8567469431403
 30
0.0000000000000000
 11
370.5507229999394
 21
316.2067469431402
 31
0.0000000000000000
  0
LINE
  5
52F
100
AcDbEntity
  8
MAIN0
  6
HIDDEN
 62
3
100
AcDbLine
 10
214.9093809621359
 20
163.2718104526010
 30
0.0000000000000000
 11
216.1093809621359
 21
164.4718104526010
 31
0.0000000000000000
  0
LINE
  5
530
100
AcDbEntity
  8
MAIN0
  6
HIDDEN
 62
3
100
AcDbLine
 10
216.1093809621359
 20
164.4718104526010
 30
0.0000000000000000
 11
224.6093809621359
 21
164.4718104526010
 31
0.0000000000000000
  0
LINE
  5
531
100
AcDbEntity
  8
MAIN0
  6
HIDDEN
 62
3
100
AcDbLine
 10
224.6093809621359
 20
164.4718104526010
 30
0.0000000000000000
 11
225.8093809621359
 21
163.2718104526010
 31
0.0000000000000000
  0
LINE
  5
532
100
AcDbEntity
  8
MAIN0
  6
HIDDEN
 62
3
100
AcDbLine
 10
215.3593809621359
 20
163.7218104526010
 30
0.0000000000000000
 11
215.3593809621359
 21
183.2718104526010
 31
0.0000000000000000
  0
LINE
  5
533
100
AcDbEntity
  8
MAIN0
  6
HIDDEN
 62
3
100
AcDbLine
 10
215.3593809621359
 20
183.2718104526010
 30
0.0000000000000000
 11
225.3593809621359
 21
183.2718104526010
 31
0.0000000000000000
  0
LINE
  5
534
100
AcDbEntity
  8
MAIN0
  6
HIDDEN
 62
3
100
AcDbLine
 10
225.3593809621359
 20
183.2718104526010
 30
0.0000000000000000
 11
225.3593809621359
 21
163.7218104526010
 31
0.0000000000000000
  0
LINE
  5
535
100
AcDbEntity
  8
MAIN0
  6
HIDDEN
 62
3
100
AcDbLine
 10
216.1093809621359
 20
164.4718104526010
 30
0.0000000000000000
 11
216.1093809621359
 21
191.2718104526010
 31
0.0000000000000000
  0
LINE
  5
536
100
AcDbEntity
  8
MAIN0
  6
HIDDEN
 62
3
100
AcDbLine
 10
216.1093809621359
 20
191.2718104526010
 30
0.0000000000000000
 11
224.6093809621359
 21
191.2718104526010
 31
0.0000000000000000
  0
LINE
  5
537
100
AcDbEntity
  8
MAIN0
  6
HIDDEN
 62
3
100
AcDbLine
 10
224.6093809621359
 20
191.2718104526010
 30
0.0000000000000000
 11
224.6093809621359
 21
164.4718104526010
 31
0.0000000000000000
  0
LINE
  5
538
100
AcDbEntity
  8
MAIN0
  6
HIDDEN
 62
3
100
AcDbLine
 10
216.1093809621359
 20
191.2718104526010
 30
0.0000000000000000
 11
220.3593809621359
 21
193.7255490966569
 31
0.0000000000000000
  0
LINE
  5
539
100
AcDbEntity
  8
MAIN0
  6
HIDDEN
 62
3
100
AcDbLine
 10
220.3593809621359
 20
193.7255490966569
 30
0.0000000000000000
 11
224.6093809621359
 21
191.2718104526010
 31
0.0000000000000000
  0
LINE
  5
53A
100
AcDbEntity
  8
MAIN0
  6
CONTINUOUS
 62
3
100
AcDbLine
 10
161.3593809620418
 20
210.6718104523332
 30
0.0000000000000000
 11
162.3593809620418
 21
209.6718104523332
 31
0.0000000000000000
  0
LINE
  5
53B
100
AcDbEntity
  8
MAIN0
  6
CONTINUOUS
 62
3
100
AcDbLine
 10
162.3593809620418
 20
209.6718104523332
 30
0.0000000000000000
 11
162.3593809620418
 21
202.8718104523332
 31
0.0000000000000000
  0
LINE
  5
53C
100
AcDbEntity
  8
MAIN0
  6
CONTINUOUS
 62
3
100
AcDbLine
 10
162.3593809620418
 20
202.8718104523332
 30
0.0000000000000000
 11
161.3593809620418
 21
201.8718104523332
 31
0.0000000000000000
  0
LINE
  5
53D
100
AcDbEntity
  8
MAIN0
  6
CONTINUOUS
 62
3
100
AcDbLine
 10
161.7593809620418
 20
210.2718104523332
 30
0.0000000000000000
 11
170.0545073843972
 21
210.2718104523332
 31
0.0000000000000000
  0
LINE
  5
53E
100
AcDbEntity
  8
MAIN0
  6
CONTINUOUS
 62
3
100
AcDbLine
 10
161.7593809620418
 20
202.2718104523332
 30
0.0000000000000000
 11
170.1231102670835
 21
202.2718104523332
 31
0.0000000000000000
  0
LINE
  5
53F
100
AcDbEntity
  8
MAIN0
  6
CONTINUOUS
 62
3
100
AcDbLine
 10
162.3593809620418
 20
209.6718104523332
 30
0.0000000000000000
 11
170.0470376483195
 21
209.6718104523332
 31
0.0000000000000000
  0
LINE
  5
540
100
AcDbEntity
  8
MAIN0
  6
CONTINUOUS
 62
3
100
AcDbLine
 10
170.3635274923644
 20
202.8718104523332
 30
0.0000000000000000
 11
162.3593809620418
 21
202.8718104523332
 31
0.0000000000000000
  0
LINE
  5
541
100
AcDbEntity
  8
MAIN0
  6
CENTER
 62
3
100
AcDbLine
 10
446.3003823222136
 20
268.2718104526010
 30
0.0000000000000000
 11
473.2707847840999
 21
268.2718104526010
 31
0.0000000000000000
  0
LINE
  5
542
100
AcDbEntity
  8
MAIN0
  6
CONTINUOUS
 62
3
100
AcDbLine
 10
441.0764684591400
 20
288.8718104526010
 30
0.0000000000000000
 11
441.0764684591400
 21
323.2718104526011
 31
0.0000000000000000
  0
LINE
  5
543
100
AcDbEntity
  8
MAIN0
  6
CONTINUOUS
 62
3
100
AcDbLine
 10
476.0764684591400
 20
288.8718104526010
 30
0.0000000000000000
 11
476.0764684591400
 21
323.2718104526009
 31
0.0000000000000000
  0
MTEXT
  5
544
100
AcDbEntity
  8
MAIN0
  6
CONTINUOUS
 62
3
100
AcDbMText
 10
456.4972754979579
 20
305.7476263473121
 30
0.0000000000000000
 40
4.000000000000000
 41
0.0000000000000000
 71
     1
 72
     1
  1
{\H0.84x;{３}}
 11
1.000000000000000
 21
-4.685821458330097e-015
 31
0.0000000000000000
  7
KNJYOKO
  0
LINE
  5
545
100
AcDbEntity
  8
MAIN0
  6
CONTINUOUS
 62
3
100
AcDbLine
 10
441.6764684591400
 20
288.2718104526010
 30
0.0000000000000000
 11
443.5764684591400
 21
288.2718104526010
 31
0.0000000000000000
  0
LINE
  5
546
100
AcDbEntity
  8
MAIN0
  6
CONTINUOUS
 62
3
100
AcDbLine
 10
473.5764684591400
 20
288.2718104526010
 30
0.0000000000000000
 11
475.4764684591401
 21
288.2718104526010
 31
0.0000000000000000
  0
ARC
  5
547
100
AcDbEntity
  8
MAIN0
  6
CONTINUOUS
 62
3
100
AcDbCircle
 10
458.5764684591400
 20
268.2718104526010
 30
0.0000000000000000
 40
25.00000000000000
100
AcDbArc
 50
53.13010235415588
 51
126.8698976458441
  0
LINE
  5
548
100
AcDbEntity
  8
MAIN0
  6
CONTINUOUS
 62
3
100
AcDbLine
 10
475.4764684591401
 20
288.2718104526010
 30
0.0000000000000000
 11
476.0764684591400
 21
288.8718104526009
 31
0.0000000000000000
  0
LINE
  5
549
100
AcDbEntity
  8
MAIN0
  6
CONTINUOUS
 62
3
100
AcDbLine
 10
441.6764684591401
 20
288.2718104526010
 30
0.0000000000000000
 11
441.0764684591400
 21
288.8718104526010
 31
0.0000000000000000
  0
LINE
  5
54A
100
AcDbEntity
  8
MAIN0
  6
CONTINUOUS
 62
3
100
AcDbLine
 10
442.0764684591400
 20
324.2718104526010
 30
0.0000000000000000
 11
475.0764684591400
 21
324.2718104526010
 31
0.0000000000000000
  0
LINE
  5
54B
100
AcDbEntity
  8
MAIN0
  6
CONTINUOUS
 62
3
100
AcDbLine
 10
475.0764684591399
 20
324.2718104526010
 30
0.0000000000000000
 11
476.0764684591400
 21
323.2718104526010
 31
0.0000000000000000
  0
LINE
  5
54C
100
AcDbEntity
  8
MAIN0
  6
CONTINUOUS
 62
3
100
AcDbLine
 10
442.0764684591399
 20
324.2718104526011
 30
0.0000000000000000
 11
441.0764684591399
 21
323.2718104526010
 31
0.0000000000000000
  0
LINE
  5
54D
100
AcDbEntity
  8
MAIN0
  6
CENTER
 62
3
100
AcDbLine
 10
458.5764684591400
 20
256.8660179474224
 30
0.0000000000000000
 11
458.5764684591400
 21
281.3018405771857
 31
0.0000000000000000
  0
LINE
  5
54E
100
AcDbEntity
  8
MAIN0
  6
CENTER
 62
3
100
AcDbLine
 10
458.5764684591401
 20
288.9518401957160
 30
0.0000000000000000
 11
458.5764684591400
 21
300.2476263473121
 31
0.0000000000000000
  0
LINE
  5
54F
100
AcDbEntity
  8
MAIN0
  6
CENTER
 62
3
100
AcDbLine
 10
458.5764684591401
 20
307.2476263473121
 30
0.0000000000000000
 11
458.5764684591400
 21
319.8822748457457
 31
0.0000000000000000
  0
LINE
  5
550
100
AcDbEntity
  8
MAIN0
  6
CONTINUOUS
 62
3
100
AcDbLine
 10
295.7170504190556
 20
293.2718104526010
 30
0.0000000000000000
 11
295.7170504190493
 21
323.2718104526015
 31
0.0000000000000000
  0
LINE
  5
551
100
AcDbEntity
  8
MAIN0
  6
CONTINUOUS
 62
3
100
AcDbLine
 10
272.7170504190514
 20
298.2718104526010
 30
0.0000000000000000
 11
277.7170504190525
 21
293.2718104526010
 31
0.0000000000000000
  0
LINE
  5
552
100
AcDbEntity
  8
MAIN0
  6
CONTINUOUS
 62
3
100
AcDbLine
 10
272.7170504190545
 20
298.2718104525979
 30
0.0000000000000000
 11
272.7170504190493
 21
323.2718104526006
 31
0.0000000000000000
  0
LINE
  5
553
100
AcDbEntity
  8
MAIN0
  6
CONTINUOUS
 62
3
100
AcDbLine
 10
273.7170504190496
 20
324.2718104526010
 30
0.0000000000000000
 11
294.7170504190496
 21
324.2718104526010
 31
0.0000000000000000
  0
LINE
  5
554
100
AcDbEntity
  8
MAIN0
  6
CONTINUOUS
 62
3
100
AcDbLine
 10
295.7170504190498
 20
323.2718104526010
 30
0.0000000000000000
 11
294.7170504190496
 21
324.2718104526010
 31
0.0000000000000000
  0
LINE
  5
555
100
AcDbEntity
  8
MAIN0
  6
CONTINUOUS
 62
3
100
AcDbLine
 10
273.7170504190495
 20
324.2718104526010
 30
0.0000000000000000
 11
272.7170504190498
 21
323.2718104526010
 31
0.0000000000000000
  0
LINE
  5
556
100
AcDbEntity
  8
MAIN0
  6
CENTER
 62
3
100
AcDbLine
 10
282.7170504190532
 20
289.3747768888275
 30
0.0000000000000000
 11
282.7170504190472
 21
318.5558713794888
 31
0.0000000000000000
  0
LINE
  5
557
100
AcDbEntity
  8
MAIN0
  6
CONTINUOUS
 62
3
100
AcDbLine
 10
288.6170504190496
 20
324.2718104526010
 30
0.0000000000000000
 11
288.2170504190495
 21
323.8718104526010
 31
0.0000000000000000
  0
LINE
  5
558
100
AcDbEntity
  8
MAIN0
  6
CONTINUOUS
 62
3
100
AcDbLine
 10
288.2170504190496
 20
323.8718104526010
 30
0.0000000000000000
 11
288.2170504190496
 21
297.2718104526010
 31
0.0000000000000000
  0
LINE
  5
559
100
AcDbEntity
  8
MAIN0
  6
CONTINUOUS
 62
3
100
AcDbLine
 10
288.2170504190481
 20
297.2718104526010
 30
0.0000000000000000
 11
277.2170504190481
 21
297.2718104526010
 31
0.0000000000000000
  0
LINE
  5
55A
100
AcDbEntity
  8
MAIN0
  6
CONTINUOUS
 62
3
100
AcDbLine
 10
277.2170504190496
 20
297.2718104526010
 30
0.0000000000000000
 11
277.2170504190496
 21
323.8718104526010
 31
0.0000000000000000
  0
LINE
  5
55B
100
AcDbEntity
  8
MAIN0
  6
CONTINUOUS
 62
3
100
AcDbLine
 10
277.2170504190495
 20
323.8718104526010
 30
0.0000000000000000
 11
276.8170504190496
 21
324.2718104526010
 31
0.0000000000000000
  0
LINE
  5
55C
100
AcDbEntity
  8
MAIN0
  6
CONTINUOUS
 62
3
100
AcDbLine
 10
286.0170504190481
 20
297.2718104526010
 30
0.0000000000000000
 11
286.0170504190481
 21
293.6718104526010
 31
0.0000000000000000
  0
LINE
  5
55D
100
AcDbEntity
  8
MAIN0
  6
CONTINUOUS
 62
3
100
AcDbLine
 10
286.0170504190480
 20
293.6718104526010
 30
0.0000000000000000
 11
286.4170504190481
 21
293.2718104526010
 31
0.0000000000000000
  0
LINE
  5
55E
100
AcDbEntity
  8
MAIN0
  6
CONTINUOUS
 62
3
100
AcDbLine
 10
279.4170504190481
 20
297.2718104526010
 30
0.0000000000000000
 11
279.4170504190481
 21
293.6718104526010
 31
0.0000000000000000
  0
LINE
  5
55F
100
AcDbEntity
  8
MAIN0
  6
CONTINUOUS
 62
3
100
AcDbLine
 10
279.4170504190481
 20
293.6718104526010
 30
0.0000000000000000
 11
279.0170504190481
 21
293.2718104526010
 31
0.0000000000000000
  0
LINE
  5
560
100
AcDbEntity
  8
MAIN0
  6
CONTINUOUS
 62
3
100
AcDbLine
 10
277.7170504190524
 20
293.2718104526010
 30
0.0000000000000000
 11
280.2170504190555
 21
293.2718104526010
 31
0.0000000000000000
  0
LINE
  5
561
100
AcDbEntity
  8
MAIN0
  6
CONTINUOUS
 62
3
100
AcDbLine
 10
285.1757844190481
 20
293.2718104526010
 30
0.0000000000000000
 11
295.7170504190524
 21
293.2718104526010
 31
0.0000000000000000
  0
LINE
  5
562
100
AcDbEntity
  8
MAIN0
  6
CONTINUOUS
 62
3
100
AcDbLine
 10
287.7170504190481
 20
297.2718104526010
 30
0.0000000000000000
 11
287.7170504190481
 21
302.6718104526010
 31
0.0000000000000000
  0
LINE
  5
563
100
AcDbEntity
  8
MAIN0
  6
CONTINUOUS
 62
3
100
AcDbLine
 10
287.7170504190481
 20
302.6718104526010
 30
0.0000000000000000
 11
286.6778199345068
 21
303.2718104526010
 31
0.0000000000000000
  0
LINE
  5
564
100
AcDbEntity
  8
MAIN0
  6
CONTINUOUS
 62
3
100
AcDbLine
 10
286.6778199345067
 20
303.2718104526010
 30
0.0000000000000000
 11
278.7562809035894
 21
303.2718104526010
 31
0.0000000000000000
  0
LINE
  5
565
100
AcDbEntity
  8
MAIN0
  6
CONTINUOUS
 62
3
100
AcDbLine
 10
278.7562809035894
 20
303.2718104526010
 30
0.0000000000000000
 11
277.7170504190481
 21
302.6718104526010
 31
0.0000000000000000
  0
LINE
  5
566
100
AcDbEntity
  8
MAIN0
  6
CONTINUOUS
 62
3
100
AcDbLine
 10
277.7170504190481
 20
302.6718104526010
 30
0.0000000000000000
 11
277.7170504190481
 21
297.2718104526010
 31
0.0000000000000000
  0
LINE
  5
567
100
AcDbEntity
  8
MAIN0
  6
CONTINUOUS
 62
3
100
AcDbLine
 10
287.7170504190481
 20
302.6718104526010
 30
0.0000000000000000
 11
277.7170504190481
 21
302.6718104526010
 31
0.0000000000000000
  0
LINE
  5
568
100
AcDbEntity
  8
MAIN0
  6
CONTINUOUS
 62
3
100
AcDbLine
 10
285.7170504190481
 20
297.2718104526010
 30
0.0000000000000000
 11
285.7170504190481
 21
285.2718104526010
 31
0.0000000000000000
  0
LINE
  5
569
100
AcDbEntity
  8
MAIN0
  6
CONTINUOUS
 62
3
100
AcDbLine
 10
285.7170504190481
 20
285.2718104526010
 30
0.0000000000000000
 11
279.7170504190481
 21
285.2718104526010
 31
0.0000000000000000
  0
LINE
  5
56A
100
AcDbEntity
  8
MAIN0
  6
CONTINUOUS
 62
3
100
AcDbLine
 10
279.7170504190481
 20
285.2718104526010
 30
0.0000000000000000
 11
279.7170504190481
 21
297.2718104526010
 31
0.0000000000000000
  0
LINE
  5
56B
100
AcDbEntity
  8
MAIN0
  6
CONTINUOUS
 62
3
100
AcDbLine
 10
285.1757844190481
 20
297.2718104526010
 30
0.0000000000000000
 11
285.1757844190481
 21
285.2718104526010
 31
0.0000000000000000
  0
LINE
  5
56C
100
AcDbEntity
  8
MAIN0
  6
CONTINUOUS
 62
3
100
AcDbLine
 10
280.2583164190481
 20
297.2718104526010
 30
0.0000000000000000
 11
280.2583164190481
 21
285.2718104526010
 31
0.0000000000000000
  0
MTEXT
  5
56D
100
AcDbEntity
  8
MAIN0
  6
CONTINUOUS
 62
3
100
AcDbMText
 10
456.4502428659419
 20
287.4518401957160
 30
0.0000000000000000
 40
4.649999618530273
 41
0.0000000000000000
 71
     1
 72
     1
  1
{\H0.81x;{3}}
 11
1.000000000000000
 21
0.0000000000000000
 31
0.0000000000000000
  7
STANDARD
  0
MTEXT
  5
56E
100
AcDbEntity
  8
MAIN0
  6
CONTINUOUS
 62
3
100
AcDbMText
 10
443.0291882528603
 20
256.8404302031573
 30
0.0000000000000000
 40
4.649999618530273
 41
0.0000000000000000
 71
     1
 72
     1
  1
{\H0.81x;{2}}
 11
-0.4999999999999983
 21
0.8660254037844396
 31
0.0000000000000000
  7
STANDARD
  0
MTEXT
  5
56F
100
AcDbEntity
  8
MAIN0
  6
CONTINUOUS
 62
3
100
AcDbMText
 10
476.2499742586177
 20
260.5231609589296
 30
0.0000000000000000
 40
4.649999618530273
 41
0.0000000000000000
 71
     1
 72
     1
  1
{\H0.81x;{1}}
 11
-0.5000000000000034
 21
-0.8660254037844366
 31
0.0000000000000000
  7
STANDARD
  0
LINE
  5
570
100
AcDbEntity
  8
MAIN0
  6
CONTINUOUS
 62
3
100
AcDbLine
 10
147.3593809621359
 20
257.5218104526010
 30
0.0000000000000000
 11
145.3593809621359
 21
259.5218104526010
 31
0.0000000000000000
  0
LINE
  5
571
100
AcDbEntity
  8
MAIN0
  6
CONTINUOUS
 62
3
100
AcDbLine
 10
145.3593809621359
 20
277.0218104526010
 30
0.0000000000000000
 11
147.3593809621359
 21
279.0218104526010
 31
0.0000000000000000
  0
LINE
  5
572
100
AcDbEntity
  8
MAIN0
  6
CONTINUOUS
 62
3
100
AcDbLine
 10
122.3593809621359
 20
258.2718104526010
 30
0.0000000000000000
 11
146.6093809621359
 21
258.2718104526010
 31
0.0000000000000000
  0
LINE
  5
573
100
AcDbEntity
  8
MAIN0
  6
CONTINUOUS
 62
3
100
AcDbLine
 10
122.3593809621359
 20
278.2718104526010
 30
0.0000000000000000
 11
146.6093809621359
 21
278.2718104526010
 31
0.0000000000000000
  0
LINE
  5
574
100
AcDbEntity
  8
MAIN0
  6
CONTINUOUS
 62
3
100
AcDbLine
 10
122.3593809621359
 20
259.5218104526010
 30
0.0000000000000000
 11
145.3593809621359
 21
259.5218104526010
 31
0.0000000000000000
  0
LINE
  5
575
100
AcDbEntity
  8
MAIN0
  6
CONTINUOUS
 62
3
100
AcDbLine
 10
122.3593809621359
 20
277.0218104526010
 30
0.0000000000000000
 11
145.3593809621359
 21
277.0218104526010
 31
0.0000000000000000
  0
LINE
  5
576
100
AcDbEntity
  8
MAIN0
  6
CONTINUOUS
 62
3
100
AcDbLine
 10
139.7593809621359
 20
287.2718104525986
 30
0.0000000000000000
 11
138.7593809621359
 21
286.2718104525986
 31
0.0000000000000000
  0
LINE
  5
577
100
AcDbEntity
  8
MAIN0
  6
CONTINUOUS
 62
3
100
AcDbLine
 10
138.7593809621359
 20
286.2718104525986
 30
0.0000000000000000
 11
131.9593809621359
 21
286.2718104525986
 31
0.0000000000000000
  0
LINE
  5
578
100
AcDbEntity
  8
MAIN0
  6
CONTINUOUS
 62
3
100
AcDbLine
 10
131.9593809621359
 20
286.2718104525986
 30
0.0000000000000000
 11
130.9593809621359
 21
287.2718104525986
 31
0.0000000000000000
  0
LINE
  5
579
100
AcDbEntity
  8
MAIN0
  6
CONTINUOUS
 62
3
100
AcDbLine
 10
139.3593809621359
 20
286.8718104525986
 30
0.0000000000000000
 11
139.3593809621359
 21
277.0218104526010
 31
0.0000000000000000
  0
LINE
  5
57A
100
AcDbEntity
  8
MAIN0
  6
CONTINUOUS
 62
3
100
AcDbLine
 10
131.3593809621359
 20
277.0218104526010
 30
0.0000000000000000
 11
131.3593809621359
 21
286.8718104525986
 31
0.0000000000000000
  0
LINE
  5
57B
100
AcDbEntity
  8
MAIN0
  6
CONTINUOUS
 62
3
100
AcDbLine
 10
138.7593809621359
 20
286.2718104525986
 30
0.0000000000000000
 11
138.7593809621359
 21
277.0218104526010
 31
0.0000000000000000
  0
LINE
  5
57C
100
AcDbEntity
  8
MAIN0
  6
CONTINUOUS
 62
3
100
AcDbLine
 10
131.9593809621359
 20
277.0218104526010
 30
0.0000000000000000
 11
131.9593809621359
 21
286.2718104525986
 31
0.0000000000000000
  0
LINE
  5
57D
100
AcDbEntity
  8
MAIN0
  6
CONTINUOUS
 62
3
100
AcDbLine
 10
250.3593809621360
 20
329.1674510211074
 30
0.0000000000000000
 11
249.4266728467550
 21
328.9000012727623
 31
0.0000000000000000
  0
LINE
  5
57E
100
AcDbEntity
  8
MAIN0
  6
CENTER
 62
3
100
AcDbLine
 10
232.2470183450953
 20
348.2720758295060
 30
0.0000000000000000
 11
252.0791271551213
 21
348.2720758295060
 31
0.0000000000000000
  0
LINE
  5
57F
100
AcDbEntity
  8
MAIN0
  6
CENTER
 62
12
100
AcDbLine
 10
546.1598394764466
 20
245.0143310855277
 30
0.0000000000000000
 11
556.0619269182874
 21
243.2683259041967
 31
0.0000000000000000
  0
LINE
  5
580
100
AcDbEntity
  8
MAIN0
  6
PHANTOM
 62
12
100
AcDbLine
 10
551.3421914353540
 20
252.2239555067309
 30
0.0000000000000000
 11
555.2814224474030
 21
251.5293627960631
 31
0.0000000000000000
  0
LINE
  5
581
100
AcDbEntity
  8
MAIN0
  6
PHANTOM
 62
12
100
AcDbLine
 10
548.5638205926831
 20
236.4670314585355
 30
0.0000000000000000
 11
552.5030516047320
 21
235.7724387478677
 31
0.0000000000000000
  0
LINE
  5
582
100
AcDbEntity
  8
MAIN0
  6
PHANTOM
 62
12
100
AcDbLine
 10
552.5030516047318
 20
235.7724387478679
 30
0.0000000000000000
 11
555.2814224474028
 21
251.5293627960631
 31
0.0000000000000000
  0
LINE
  5
583
100
AcDbEntity
  8
MAIN0
  6
PHANTOM
 62
12
100
AcDbLine
 10
548.5638205926831
 20
236.4670314585356
 30
0.0000000000000000
 11
551.3421914353540
 21
252.2239555067309
 31
0.0000000000000000
  0
MTEXT
  5
584
100
AcDbEntity
  8
MAIN0
  6
CONTINUOUS
 62
3
100
AcDbMText
 10
401.9225140406984
 20
237.7107000450428
 30
0.0000000000000000
 40
4.000000000000000
 41
0.0000000000000000
 71
     1
 72
     1
  1
{\H0.84x;{２}}
 11
0.4999999999999962
 21
-0.8660254037844408
 31
0.0000000000000000
  7
KNJYOKO
  0
MTEXT
  5
585
100
AcDbEntity
  8
MAIN0
  6
CONTINUOUS
 62
3
100
AcDbMText
 10
513.7568715326137
 20
234.2883557367598
 30
0.0000000000000000
 40
4.000000000000000
 41
0.0000000000000000
 71
     1
 72
     1
  1
{\H0.84x;{１}}
 11
0.4999999999999999
 21
0.8660254037844387
 31
0.0000000000000000
  7
KNJYOKO
  0
MTEXT
  5
586
100
AcDbEntity
  8
MAIN0
  6
CONTINUOUS
 62
3
100
AcDbMText
 10
516.6934372530619
 20
213.9333531835736
 30
0.0000000000000000
 40
4.500000000000000
 41
0.0000000000000000
 71
     5
 72
     1
  1
{\H0.70x;{KITAGAWA}}
 11
0.5000000000006618
 21
0.8660254037840566
 31
0.0000000000000000
  7
STANDARD
  0
MTEXT
  5
587
100
AcDbEntity
  8
MAIN0
  6
CONTINUOUS
 62
4
100
AcDbMText
 10
522.5726023777053
 20
211.1163658855482
 30
0.0000000000000000
 40
4.000000000000000
 41
0.0000000000000000
 71
     5
 72
     1
  1
{\H0.78x;{JAPAN}}
 11
0.5000000000001511
 21
0.8660254037843514
 31
0.0000000000000000
  7
STANDARD
  0
MTEXT
  5
588
100
AcDbEntity
  8
MAIN0
  6
CONTINUOUS
 62
4
100
AcDbMText
 10
532.9434372531091
 20
242.0791788067105
 30
0.0000000000000000
 40
4.500000000000000
 41
0.0000000000000000
 71
     5
 72
     1
  1
{\H0.70x;{PUE08}}
 11
0.5000000000006618
 21
0.8660254037840566
 31
0.0000000000000000
  7
STANDARD
  0
LINE
  5
589
100
AcDbEntity
  8
MAIN0
  6
CONTINUOUS
 62
3
100
AcDbLine
 10
216.3593809621359
 20
179.6718104526010
 30
0.0000000000000000
 11
211.3593809621358
 21
179.6718104526009
 31
0.0000000000000000
  0
LINE
  5
58A
100
AcDbEntity
  8
MAIN0
  6
CONTINUOUS
 62
3
100
AcDbLine
 10
216.0134468849894
 20
166.1718104526009
 30
0.0000000000000000
 11
211.7053150392824
 21
166.1718104526009
 31
0.0000000000000000
  0
LINE
  5
58B
100
AcDbEntity
  8
MAIN0
  6
CONTINUOUS
 62
3
100
AcDbLine
 10
217.9008328464630
 20
174.2718104526009
 30
0.0000000000000000
 11
209.8179290778082
 21
174.2718104526009
 31
0.0000000000000000
  0
LINE
  5
58C
100
AcDbEntity
  8
MAIN0
  6
CONTINUOUS
 62
3
100
AcDbLine
 10
216.8593809621360
 20
174.2718104526009
 30
0.0000000000000000
 11
216.8593809621360
 21
179.1718104526009
 31
0.0000000000000000
  0
LINE
  5
58D
100
AcDbEntity
  8
MAIN0
  6
CONTINUOUS
 62
3
100
AcDbLine
 10
217.9008328464630
 20
171.9718104526010
 30
0.0000000000000000
 11
217.9008328464630
 21
174.2718104526010
 31
0.0000000000000000
  0
LINE
  5
58E
100
AcDbEntity
  8
MAIN0
  6
CONTINUOUS
 62
3
100
AcDbLine
 10
210.8593809621358
 20
174.2718104526010
 30
0.0000000000000000
 11
210.8593809621358
 21
179.1718104526009
 31
0.0000000000000000
  0
LINE
  5
58F
100
AcDbEntity
  8
MAIN0
  6
CONTINUOUS
 62
3
100
AcDbLine
 10
209.8179290778082
 20
171.9718104526010
 30
0.0000000000000000
 11
209.8179290778082
 21
174.2718104526010
 31
0.0000000000000000
  0
LINE
  5
590
100
AcDbEntity
  8
MAIN0
  6
CONTINUOUS
 62
3
100
AcDbLine
 10
217.9008328464630
 20
171.9718104526010
 30
0.0000000000000000
 11
209.8179290778082
 21
171.9718104526010
 31
0.0000000000000000
  0
LINE
  5
591
100
AcDbEntity
  8
MAIN0
  6
CONTINUOUS
 62
3
100
AcDbLine
 10
216.6609379136589
 20
170.6335356710815
 30
0.0000000000000000
 11
216.9648371178388
 21
169.7881177870776
 31
0.0000000000000000
  0
LINE
  5
592
100
AcDbEntity
  8
MAIN0
  6
CONTINUOUS
 62
3
100
AcDbLine
 10
210.7539241382661
 20
169.7881159283033
 30
0.0000000000000000
 11
211.0578240106127
 21
170.6335356710815
 31
0.0000000000000000
  0
LINE
  5
593
100
AcDbEntity
  8
MAIN0
  6
CONTINUOUS
 62
3
100
AcDbLine
 10
215.8801069042994
 20
171.9718104526010
 30
0.0000000000000000
 11
215.8801069042994
 21
174.2718104526010
 31
0.0000000000000000
  0
LINE
  5
594
100
AcDbEntity
  8
MAIN0
  6
CONTINUOUS
 62
3
100
AcDbLine
 10
211.8386550199721
 20
171.9718104526010
 30
0.0000000000000000
 11
211.8386550199721
 21
174.2718104526010
 31
0.0000000000000000
  0
LINE
  5
595
100
AcDbEntity
  8
MAIN0
  6
CONTINUOUS
 62
12
100
AcDbLine
 10
216.5593809621360
 20
179.4718104526009
 30
0.0000000000000000
 11
216.5593809621360
 21
175.3448341151288
 31
0.0000000000000000
  0
LINE
  5
596
100
AcDbEntity
  8
MAIN0
  6
CONTINUOUS
 62
12
100
AcDbLine
 10
211.1593809621359
 20
179.4718104526011
 30
0.0000000000000000
 11
211.1593809621359
 21
175.3448341151278
 31
0.0000000000000000
  0
LINE
  5
597
100
AcDbEntity
  8
MAIN0
  6
CONTINUOUS
 62
3
100
AcDbLine
 10
216.8593809621359
 20
175.3448341151288
 30
0.0000000000000000
 11
210.8593809621357
 21
175.3448341151288
 31
0.0000000000000000
  0
LINE
  5
598
100
AcDbEntity
  8
MAIN0
  6
CONTINUOUS
 62
3
100
AcDbLine
 10
216.3593809621358
 20
179.6718104526010
 30
0.0000000000000000
 11
216.8593809621357
 21
179.1718104526011
 31
0.0000000000000000
  0
LINE
  5
599
100
AcDbEntity
  8
MAIN0
  6
CONTINUOUS
 62
3
100
AcDbLine
 10
211.3593809621356
 20
179.6718104526011
 30
0.0000000000000000
 11
210.8593809621356
 21
179.1718104526011
 31
0.0000000000000000
  0
LINE
  5
59A
100
AcDbEntity
  8
MAIN0
  6
CONTINUOUS
 62
3
100
AcDbLine
 10
216.8593809621359
 20
179.1718104526009
 30
0.0000000000000000
 11
210.8593809621357
 21
179.1718104526009
 31
0.0000000000000000
  0
ARC
  5
59B
100
AcDbEntity
  8
MAIN0
  6
CONTINUOUS
 62
3
100
AcDbCircle
 10
217.6019852940751
 20
170.9718104526010
 30
0.0000000000000000
 40
1.000000000000000
100
AcDbArc
 50
89.99999999999970
 51
199.7717992487710
  0
ARC
  5
59C
100
AcDbEntity
  8
MAIN0
  6
CONTINUOUS
 62
3
100
AcDbCircle
 10
210.1167766301966
 20
170.9718104526009
 30
0.0000000000000000
 40
1.000000000000000
100
AcDbArc
 50
340.2282007512279
 51
449.9999999999999
  0
ARC
  5
59D
100
AcDbEntity
  8
MAIN0
  6
CONTINUOUS
 62
3
100
AcDbCircle
 10
213.8593809621359
 20
168.6718104526009
 30
0.0000000000000000
 40
3.299999999999997
100
AcDbArc
 50
160.2282116100356
 51
229.2509456225276
  0
ARC
  5
59E
100
AcDbEntity
  8
MAIN0
  6
CONTINUOUS
 62
3
100
AcDbCircle
 10
213.8593809621359
 20
168.6718104526009
 30
0.0000000000000000
 40
3.299999999999997
100
AcDbArc
 50
310.7490543774720
 51
379.7718095177823
  0
ARC
  5
59F
100
AcDbEntity
  8
MAIN0
  6
CONTINUOUS
 62
3
100
AcDbCircle
 10
213.8593809621359
 20
166.3024617030096
 30
0.0000000000000000
 40
1.000000000000000
100
AcDbArc
 50
187.5072271955753
 51
352.4927728044244
  0
LINE
  5
5A0
100
AcDbEntity
  8
MAIN0
  6
CENTER
 62
3
100
AcDbLine
 10
213.8593809621347
 20
163.9479849241223
 30
0.0000000000000000
 11
213.8593809621301
 21
180.8457189234831
 31
0.0000000000000000
  0
LINE
  5
5A1
100
AcDbEntity
  8
MAIN0
  6
HIDDEN
 62
3
100
AcDbLine
 10
464.4764684591399
 20
324.2718104526010
 30
0.0000000000000000
 11
464.0764684591399
 21
323.8718104526010
 31
0.0000000000000000
  0
LINE
  5
5A2
100
AcDbEntity
  8
MAIN0
  6
HIDDEN
 62
3
100
AcDbLine
 10
464.0764684591400
 20
323.8718104526010
 30
0.0000000000000000
 11
464.0764684591400
 21
297.2718104526010
 31
0.0000000000000000
  0
LINE
  5
5A3
100
AcDbEntity
  8
MAIN0
  6
HIDDEN
 62
3
100
AcDbLine
 10
464.0764684591400
 20
297.2718104526010
 30
0.0000000000000000
 11
453.0764684591400
 21
297.2718104526010
 31
0.0000000000000000
  0
LINE
  5
5A4
100
AcDbEntity
  8
MAIN0
  6
HIDDEN
 62
3
100
AcDbLine
 10
453.0764684591400
 20
297.2718104526010
 30
0.0000000000000000
 11
453.0764684591400
 21
323.8718104526010
 31
0.0000000000000000
  0
LINE
  5
5A5
100
AcDbEntity
  8
MAIN0
  6
HIDDEN
 62
3
100
AcDbLine
 10
453.0764684591400
 20
323.8718104526010
 30
0.0000000000000000
 11
452.6764684591400
 21
324.2718104526010
 31
0.0000000000000000
  0
LINE
  5
5A6
100
AcDbEntity
  8
MAIN0
  6
HIDDEN
 62
3
100
AcDbLine
 10
461.8764684591400
 20
293.0530533592835
 30
0.0000000000000000
 11
461.8764684591400
 21
297.2718104526010
 31
0.0000000000000000
  0
LINE
  5
5A7
100
AcDbEntity
  8
MAIN0
  6
HIDDEN
 62
3
100
AcDbLine
 10
455.2764684591400
 20
293.0530533592835
 30
0.0000000000000000
 11
455.2764684591400
 21
297.2718104526010
 31
0.0000000000000000
  0
LINE
  5
5A8
100
AcDbEntity
  8
WAKU0
  6
CONTINUOUS
 62
3
100
AcDbLine
 10
412.0000000000000
 20
51.00000000000000
 30
0.0000000000000000
 11
582.0000000000000
 21
51.00000000000000
 31
0.0000000000000000
  0
LINE
  5
5A9
100
AcDbEntity
  8
WAKU0
  6
CONTINUOUS
 62
3
100
AcDbLine
 10
412.0000000000000
 20
51.00000000000000
 30
0.0000000000000000
 11
412.0000000000000
 21
12.00000000000000
 31
0.0000000000000000
  0
LINE
  5
5AA
100
AcDbEntity
  8
WAKU0
  6
CONTINUOUS
 62
3
100
AcDbLine
 10
484.0000000000000
 20
51.00000000000000
 30
0.0000000000000000
 11
484.0000000000000
 21
12.00000000000000
 31
0.0000000000000000
  0
LINE
  5
5AB
100
AcDbEntity
  8
WAKU0
  6
CONTINUOUS
 62
3
100
AcDbLine
 10
504.0000000000000
 20
51.00000000000000
 30
0.0000000000000000
 11
504.0000000000000
 21
12.00000000000000
 31
0.0000000000000000
  0
LINE
  5
5AC
100
AcDbEntity
  8
WAKU0
  6
CONTINUOUS
 62
3
100
AcDbLine
 10
516.0000000000000
 20
51.00000000000000
 30
0.0000000000000000
 11
516.0000000000000
 21
12.00000000000000
 31
0.0000000000000000
  0
LINE
  5
5AD
100
AcDbEntity
  8
WAKU0
  6
CONTINUOUS
 62
3
100
AcDbLine
 10
516.0000000000000
 20
37.00000000000000
 30
0.0000000000000000
 11
582.0000000000000
 21
37.00000000000000
 31
0.0000000000000000
  0
LINE
  5
5AE
100
AcDbEntity
  8
WAKU0
  6
CONTINUOUS
 62
3
100
AcDbLine
 10
504.0000000000000
 20
23.00000000000000
 30
0.0000000000000000
 11
582.0000000000000
 21
23.00000000000000
 31
0.0000000000000000
  0
LINE
  5
5AF
100
AcDbEntity
  8
WAKU0
  6
CONTINUOUS
 62
3
100
AcDbLine
 10
547.0000000000000
 20
51.00000000000000
 30
0.0000000000000000
 11
547.0000000000000
 21
44.00000000000000
 31
0.0000000000000000
  0
LINE
  5
5B0
100
AcDbEntity
  8
WAKU0
  6
CONTINUOUS
 62
3
100
AcDbLine
 10
559.0000000000000
 20
51.00000000000000
 30
0.0000000000000000
 11
559.0000000000000
 21
44.00000000000000
 31
0.0000000000000000
  0
LINE
  5
5B1
100
AcDbEntity
  8
WAKU0
  6
CONTINUOUS
 62
3
100
AcDbLine
 10
484.0000000000000
 20
31.50000000000000
 30
0.0000000000000000
 11
504.0000000000000
 21
31.50000000000000
 31
0.0000000000000000
  0
LINE
  5
5B2
100
AcDbEntity
  8
WAKU0
  6
CONTINUOUS
 62
3
100
AcDbLine
 10
504.0000000000000
 20
44.00000000000000
 30
0.0000000000000000
 11
582.0000000000000
 21
44.00000000000000
 31
0.0000000000000000
  0
LINE
  5
5B3
100
AcDbEntity
  8
WAKU0
  6
CONTINUOUS
 62
3
100
AcDbLine
 10
412.0000000000000
 20
37.00000000000000
 30
0.0000000000000000
 11
484.0000000000000
 21
37.00000000000000
 31
0.0000000000000000
  0
LINE
  5
5B4
100
AcDbEntity
  8
WAKU0
  6
CONTINUOUS
 62
3
100
AcDbLine
 10
412.0000000000000
 20
23.00000000000000
 30
0.0000000000000000
 11
484.0000000000000
 21
23.00000000000000
 31
0.0000000000000000
  0
LINE
  5
5B5
100
AcDbEntity
  8
WAKU0
  6
CONTINUOUS
 62
3
100
AcDbLine
 10
460.0000000000000
 20
37.00000000000000
 30
0.0000000000000000
 11
460.0000000000000
 21
12.00000000000000
 31
0.0000000000000000
  0
LINE
  5
5B6
100
AcDbEntity
  8
WAKU0
  6
CONTINUOUS
 62
3
100
AcDbLine
 10
436.0000000000000
 20
37.00000000000000
 30
0.0000000000000000
 11
436.0000000000000
 21
23.00000000000000
 31
0.0000000000000000
  0
LINE
  5
5B7
100
AcDbEntity
  8
WAKU0
  6
CONTINUOUS
 62
3
100
AcDbLine
 10
472.0000000000000
 20
26.00000000000000
 30
0.0000000000000000
 11
472.0000000000000
 21
23.00000000000000
 31
0.0000000000000000
  0
LINE
  5
5B8
100
AcDbEntity
  8
WAKU0
  6
CONTINUOUS
 62
3
100
AcDbLine
 10
448.0000000000000
 20
26.00000000000000
 30
0.0000000000000000
 11
448.0000000000000
 21
23.00000000000000
 31
0.0000000000000000
  0
LINE
  5
5B9
100
AcDbEntity
  8
WAKU0
  6
CONTINUOUS
 62
3
100
AcDbLine
 10
424.0000000000000
 20
26.00000000000000
 30
0.0000000000000000
 11
424.0000000000000
 21
23.00000000000000
 31
0.0000000000000000
  0
LINE
  5
5BA
100
AcDbEntity
  8
WAKU0
  6
CONTINUOUS
 62
3
100
AcDbLine
 10
430.0000000000000
 20
51.00000000000000
 30
0.0000000000000000
 11
430.0000000000000
 21
37.00000000000000
 31
0.0000000000000000
  0
LINE
  5
5BB
100
AcDbEntity
  8
WAKU0
  6
CONTINUOUS
 62
3
100
AcDbLine
 10
412.0000000000000
 20
45.00000000000000
 30
0.0000000000000000
 11
484.0000000000000
 21
45.00000000000000
 31
0.0000000000000000
  0
LINE
  5
5BC
100
AcDbEntity
  8
WAKU0
  6
HIDDEN
 62
3
100
AcDbLine
 10
532.5000000000000
 20
23.00000000000000
 30
0.0000000000000000
 11
532.5000000000000
 21
12.00000000000000
 31
0.0000000000000000
  0
LINE
  5
5BD
100
AcDbEntity
  8
WAKU0
  6
HIDDEN
 62
3
100
AcDbLine
 10
544.9000000000000
 20
23.00000000000000
 30
0.0000000000000000
 11
544.9000000000000
 21
12.00000000000000
 31
0.0000000000000000
  0
MTEXT
  5
5BE
100
AcDbEntity
  8
WAKU0
  6
CONTINUOUS
 62
3
100
AcDbMText
 10
516.4820000243485
 20
49.04999995231628
 30
0.0000000000000000
 40
3.099999904632568
 41
0.0000000000000000
 71
     1
 72
     1
  1
{\H0.92x;{PUE08}}
 11
1.000000000000000
 21
0.0000000000000000
 31
0.0000000000000000
  7
STANDARD
  0
MTEXT
  5
5BF
100
AcDbEntity
  8
WAKU0
  6
CONTINUOUS
 62
3
100
AcDbMText
 10
516.4659999916852
 20
43.50000000000000
 30
0.0000000000000000
 40
3.000000000000000
 41
0.0000000000000000
 71
     1
 72
     1
  1
{\H0.94x;{プルロック　８\PＰＵＬＬ　ＬＯＣＫ　８}}
 11
1.000000000000000
 21
0.0000000000000000
 31
0.0000000000000000
  7
KNJYOKO
  0
MTEXT
  5
5C0
100
AcDbEntity
  8
WAKU0
  6
CONTINUOUS
 62
3
100
AcDbMText
 10
516.4800000262260
 20
34.83333333333333
 30
0.0000000000000000
 40
4.000000000000000
 41
0.0000000000000000
 71
     1
 72
     1
  1
{\H0.66x;{ＰＵＥ０８　ガイケイ\PＰＵＥ０８　ＯＵＴＳＩＤＥ　ＶＩＥＷ}}
 11
1.000000000000000
 21
0.0000000000000000
 31
0.0000000000000000
  7
KNJYOKO
  0
MTEXT
  5
5C1
100
AcDbEntity
  8
WAKU0
  6
CONTINUOUS
 62
3
100
AcDbMText
 10
490.0049998760223
 20
39.29999995231628
 30
0.0000000000000000
 40
3.099999904632568
 41
0.0000000000000000
 71
     1
 72
     1
  1
{\H0.90x;{1:1}}
 11
1.000000000000000
 21
0.0000000000000000
 31
0.0000000000000000
  7
STANDARD
  0
MTEXT
  5
5C2
100
AcDbEntity
  8
WAKU0
  6
CONTINUOUS
 62
3
100
AcDbMText
 10
546.4000001549721
 20
20.15000009536743
 30
0.0000000000000000
 40
5.300000190734863
 41
0.0000000000000000
 71
     1
 72
     1
  1
{\H0.90x;{3934}}
 11
1.000000000000000
 21
0.0000000000000000
 31
0.0000000000000000
  7
STANDARD
  0
MTEXT
  5
5C3
100
AcDbEntity
  8
WAKU0
  6
CONTINUOUS
 62
3
100
AcDbMText
 10
534.3000000834466
 20
20.15000009536743
 30
0.0000000000000000
 40
5.300000190734863
 41
0.0000000000000000
 71
     1
 72
     1
  1
{\H0.87x;{25}}
 11
1.000000000000000
 21
0.0000000000000000
 31
0.0000000000000000
  7
STANDARD
  0
MTEXT
  5
5C4
100
AcDbEntity
  8
WAKU0
  6
CONTINUOUS
 62
3
100
AcDbMText
 10
517.5000001192093
 20
20.15000009536743
 30
0.0000000000000000
 40
5.300000190734863
 41
0.0000000000000000
 71
     1
 72
     1
  1
{\H0.89x;{61P}}
 11
1.000000000000000
 21
0.0000000000000000
 31
0.0000000000000000
  7
STANDARD
  0
MTEXT
  5
5C5
100
AcDbEntity
  8
WAKU0
  6
CONTINUOUS
 62
3
100
AcDbMText
 10
572.0000000476837
 20
20.15000009536743
 30
0.0000000000000000
 40
5.300000190734863
 41
0.0000000000000000
 71
     1
 72
     1
  1
{\H0.81x;{5}}
 11
1.000000000000000
 21
0.0000000000000000
 31
0.0000000000000000
  7
STANDARD
  0
MTEXT
  5
5C6
100
AcDbEntity
  8
WAKU0
  6
CONTINUOUS
 62
3
100
AcDbMText
 10
572.0000000819564
 20
44.84999990463257
 30
0.0000000000000000
 40
5.300000190734863
 41
0.0000000000000000
 71
     7
 72
     1
  1
{\H0.81x;{ }}
 11
1.000000000000000
 21
0.0000000000000000
 31
0.0000000000000000
  7
STANDARD
  0
MTEXT
  5
5C7
100
AcDbEntity
  8
WAKU0
  6
CONTINUOUS
 62
3
100
AcDbMText
 10
461.3850002884865
 20
33.00000000000000
 30
0.0000000000000000
 40
3.000000000000000
 41
0.0000000000000000
 71
     7
 72
     1
  1
{\H0.93x;{DRAWN BY}}
 11
1.000000000000000
 21
0.0000000000000000
 31
0.0000000000000000
  7
STANDARD
  0
MTEXT
  5
5C8
100
AcDbEntity
  8
WAKU0
  6
CONTINUOUS
 62
3
100
AcDbMText
 10
441.2149997949600
 20
32.95000004768372
 30
0.0000000000000000
 40
3.099999904632568
 41
0.0000000000000000
 71
     7
 72
     1
  1
{\H0.92x;{CHIEF}}
 11
1.000000000000000
 21
0.0000000000000000
 31
0.0000000000000000
  7
STANDARD
  0
MTEXT
  5
5C9
100
AcDbEntity
  8
WAKU0
  6
CONTINUOUS
 62
3
100
AcDbMText
 10
414.4249997138977
 20
32.95000004768372
 30
0.0000000000000000
 40
3.099999904632568
 41
0.0000000000000000
 71
     7
 72
     1
  1
{\H0.92x;{MANAGER}}
 11
1.000000000000000
 21
0.0000000000000000
 31
0.0000000000000000
  7
STANDARD
  0
MTEXT
  5
5CA
100
AcDbEntity
  8
WAKU0
  6
CONTINUOUS
 62
3
100
AcDbMText
 10
416.6599994301796
 20
18.13333336512248
 30
0.0000000000000000
 40
3.099999904632568
 41
0.0000000000000000
 71
     7
 72
     1
  1
{\H0.93x;{KITAGAWA IRON\PWORKS CO.,LTD.}}
 11
1.000000000000000
 21
0.0000000000000000
 31
0.0000000000000000
  7
STANDARD
  0
MTEXT
  5
5CB
100
AcDbEntity
  8
WAKU0
  6
CONTINUOUS
 62
3
100
AcDbMText
 10
413.0850002169609
 20
46.50000000000000
 30
0.0000000000000000
 40
3.000000000000000
 41
0.0000000000000000
 71
     7
 72
     1
  1
{\H0.92x;{CAREER}}
 11
1.000000000000000
 21
0.0000000000000000
 31
0.0000000000000000
  7
STANDARD
  0
MTEXT
  5
5CC
100
AcDbEntity
  8
WAKU0
  6
CONTINUOUS
 62
3
100
AcDbMText
 10
466.6099998354912
 20
18.95000004768372
 30
0.0000000000000000
 40
3.099999904632568
 41
0.0000000000000000
 71
     7
 72
     1
  1
{\H0.91x;{DATE}}
 11
1.000000000000000
 21
0.0000000000000000
 31
0.0000000000000000
  7
STANDARD
  0
MTEXT
  5
5CD
100
AcDbEntity
  8
WAKU0
  6
CONTINUOUS
 62
3
100
AcDbMText
 10
485.9000002145767
 20
26.50000000000000
 30
0.0000000000000000
 40
3.000000000000000
 41
0.0000000000000000
 71
     7
 72
     1
  1
{\H0.63x;{3RD ANGLE}}
 11
1.000000000000000
 21
0.0000000000000000
 31
0.0000000000000000
  7
STANDARD
  0
MTEXT
  5
5CE
100
AcDbEntity
  8
WAKU0
  6
CONTINUOUS
 62
3
100
AcDbMText
 10
487.2149997949600
 20
45.95000004768372
 30
0.0000000000000000
 40
3.099999904632568
 41
0.0000000000000000
 71
     7
 72
     1
  1
{\H0.92x;{SCALE}}
 11
1.000000000000000
 21
0.0000000000000000
 31
0.0000000000000000
  7
STANDARD
  0
MTEXT
  5
5CF
100
AcDbEntity
  8
WAKU0
  6
CONTINUOUS
 62
3
100
AcDbMText
 10
577.7000000476837
 20
46.00000000000000
 30
0.0000000000000000
 40
3.000000000000000
 41
0.0000000000000000
 71
     7
 72
     1
  1
{\H0.63x;{kg}}
 11
1.000000000000000
 21
0.0000000000000000
 31
0.0000000000000000
  7
STANDARD
  0
MTEXT
  5
5D0
100
AcDbEntity
  8
WAKU0
  6
CONTINUOUS
 62
3
100
AcDbMText
 10
547.6000001430512
 20
46.00000000000000
 30
0.0000000000000000
 40
3.000000000000000
 41
0.0000000000000000
 71
     7
 72
     1
  1
{\H0.63x;{WEIGHT}}
 11
1.000000000000000
 21
0.0000000000000000
 31
0.0000000000000000
  7
STANDARD
  0
MTEXT
  5
5D1
100
AcDbEntity
  8
WAKU0
  6
CONTINUOUS
 62
3
100
AcDbMText
 10
506.0049998760223
 20
18.13333336512248
 30
0.0000000000000000
 40
3.099999904632568
 41
0.0000000000000000
 71
     7
 72
     1
  1
{\H0.90x;{DRW\PNO.}}
 11
1.000000000000000
 21
0.0000000000000000
 31
0.0000000000000000
  7
STANDARD
  0
MTEXT
  5
5D2
100
AcDbEntity
  8
WAKU0
  6
CONTINUOUS
 62
3
100
AcDbMText
 10
504.6099998354912
 20
31.95000004768372
 30
0.0000000000000000
 40
3.099999904632568
 41
0.0000000000000000
 71
     7
 72
     1
  1
{\H0.91x;{NAME}}
 11
1.000000000000000
 21
0.0000000000000000
 31
0.0000000000000000
  7
STANDARD
  0
MTEXT
  5
5D3
100
AcDbEntity
  8
WAKU0
  6
CONTINUOUS
 62
3
100
AcDbMText
 10
504.6099998354912
 20
45.95000004768372
 30
0.0000000000000000
 40
3.099999904632568
 41
0.0000000000000000
 71
     7
 72
     1
  1
{\H0.91x;{TYPE}}
 11
1.000000000000000
 21
0.0000000000000000
 31
0.0000000000000000
  7
STANDARD
  0
LINE
  5
5D4
100
AcDbEntity
  8
WAKU0
  6
HIDDEN
 62
3
100
AcDbLine
 10
579.1599564743885
 20
13.84999990463257
 30
0.0000000000000000
 11
568.9400436209789
 21
13.84999990463257
 31
0.0000000000000000
  0
LINE
  5
5D5
100
AcDbEntity
  8
WAKU0
  6
HIDDEN
 62
3
100
AcDbLine
 10
579.1599564743885
 20
13.84999990463250
 30
0.0000000000000000
 11
574.0500000476851
 21
22.70070406014901
 31
0.0000000000000000
  0
LINE
  5
5D6
100
AcDbEntity
  8
WAKU0
  6
HIDDEN
 62
3
100
AcDbLine
 10
574.0500000476851
 20
22.70070406014902
 30
0.0000000000000000
 11
568.9400436209789
 21
13.84999990463248
 31
0.0000000000000000
  0
LINE
  5
5D7
100
AcDbEntity
  8
WAKU0
  6
CONTINUOUS
 62
3
100
AcDbLine
 10
502.4713877753800
 20
15.78041421262812
 30
0.0000000000000000
 11
502.4713877753800
 21
21.78041421262815
 31
0.0000000000000000
  0
LINE
  5
5D8
100
AcDbEntity
  8
WAKU0
  6
CONTINUOUS
 62
3
100
AcDbLine
 10
495.9336941228225
 20
17.28041421262811
 30
0.0000000000000000
 11
495.9336941228225
 21
20.28041421262824
 31
0.0000000000000000
  0
LINE
  5
5D9
100
AcDbEntity
  8
WAKU0
  6
CENTER
 62
12
100
AcDbLine
 10
485.4321805514995
 20
18.78041421262813
 30
0.0000000000000000
 11
503.2765788964694
 21
18.78041421262813
 31
0.0000000000000000
  0
LINE
  5
5DA
100
AcDbEntity
  8
WAKU0
  6
CENTER
 62
12
100
AcDbLine
 10
489.4474565857986
 20
14.55921662918448
 30
0.0000000000000000
 11
489.4474565857986
 21
22.89865102149943
 31
0.0000000000000000
  0
LINE
  5
5DB
100
AcDbEntity
  8
WAKU0
  6
CONTINUOUS
 62
3
100
AcDbLine
 10
495.9336941228225
 20
20.28041421262797
 30
0.0000000000000000
 11
502.4713877753800
 21
21.78041421262795
 31
0.0000000000000000
  0
LINE
  5
5DC
100
AcDbEntity
  8
WAKU0
  6
CONTINUOUS
 62
3
100
AcDbLine
 10
495.9336941228225
 20
17.28041421262811
 30
0.0000000000000000
 11
502.4713877753799
 21
15.78041421262812
 31
0.0000000000000000
  0
CIRCLE
  5
5DD
100
AcDbEntity
  8
WAKU0
  6
CONTINUOUS
 62
3
100
AcDbCircle
 10
489.4474565857986
 20
18.78041421262813
 30
0.0000000000000000
 40
1.499999999999972
  0
CIRCLE
  5
5DE
100
AcDbEntity
  8
WAKU0
  6
CONTINUOUS
 62
3
100
AcDbCircle
 10
489.4474565857986
 20
18.78041421262813
 30
0.0000000000000000
 40
2.999999999999979
  0
ENDSEC
  0
SECTION
  2
OBJECTS
  0
DICTIONARY
  5
63A
100
AcDbDictionary
  3
ACAD_GROUP
350
63B
  3
ACAD_MLINESTYLE
350
63C
  3
DWGPROPS
350
63D
  0
DICTIONARY
  5
63B
102
{ACAD_REACTORS
330
63A
102
}
100
AcDbDictionary
  0
DICTIONARY
  5
63C
102
{ACAD_REACTORS
330
63A
102
}
100
AcDbDictionary
  3
STANDARD
350
63E
  0
MLINESTYLE
  5
63E
102
{ACAD_REACTORS
330
63C
102
}
100
AcDbMlineStyle
  2
STANDARD
 70
     0
  3

 62
   256
 51
90.00
 52
90.00
 71
     2
 49
0.50
 62
   256
  6
BYLAYER
 49
-0.50
 62
   256
  6
BYLAYER
  0
XRECORD
  5
63D
102
{ACAD_REACTORS
330
63A
102
}
100
AcDbXrecord
280
     1
  1
DWGPROPS COOKIE
  2
ＰＵＥ０６　クミタテ
  3

  4

  6
プルロック　６
  7

  8

  9

300
=
301
=
302
=
303
=
304
=
305
=
306
=
307
=
308
=
309
=
 40
0.000000
 41
0.000000
 42
0.000000
  1

 90
        0
  0
ENDSEC
  0
EOF
