  0
SECTION
  2
HEADER
  9
$ACADVER
  1
AC1014
  9
$DWGCODEPAGE
  3
ANSI_932
  9
$LTSCALE
 40
20.0
  9
$FILLMODE
 70
     1
  9
$CLAYER
  8
0
  9
$PDMODE
 70
     0
  9
$SPLFRAME
 70
     0
  9
$SPLINETYPE
 70
     6
  9
$SPLINESEGS
 70
     8
  9
$DIMASZ
 40
2.000000
  9
$DIMEXE
 40
2.000000
  9
$DIMEXO
 40
0.800000
  9
$DIMTAD
 70
     1
  9
$DIMTIH
 70
     0
  9
$DIMTOH
 70
     0
  9
$DIMTVP
 40
0.500000
  9
$DIMTXT
 40
3.100000
  9
$EXTMIN
 10
0.000000
 20
0.000000
 30
0.000000
  9
$EXTMAX
 10
420.000000
 20
594.000000
 30
0.000000
  9
$MEASUREMENT
 70
  1
  9
$LIMMIN
 10
0.000000
 20
0.000000
  9
$LIMMAX
 10
420.000000
 20
594.000000
  9
$HANDLING
 70
     1
  9
$HANDSEED
  5
524
  9
$DIMBLK
  1
_OPEN
  9
$DIMDEC
 70
     3
  9
$DIMAUNIT
 70
     1
  9
$DIMZIN
 70
     8
  9
$DIMTOFL
 70
     1
  0
ENDSEC
  0
SECTION
  2
CLASSES
  0
ENDSEC
  0
SECTION
  2
TABLES
  0
TABLE
  2
VPORT
  5
4CE
100
AcDbSymbolTable
 70
     1
  0
VPORT
  5
4CF
100
AcDbSymbolTableRecord
100
AcDbViewportTableRecord
  2
*ACTIVE
 70
     0
 12
297.000000
 22
210.000000
 40
420.000000
 41
1.414286
  0
ENDTAB
  0
TABLE
  2
LTYPE
  5
4D0
100
AcDbSymbolTable
 70
     4
  0
LTYPE
  5
4D1
100
AcDbSymbolTableRecord
100
AcDbLinetypeTableRecord
  2
BYBLOCK
 70
     0
  3

 72
    65
 73
     0
 40
0.0
  0
LTYPE
  5
4D2
100
AcDbSymbolTableRecord
100
AcDbLinetypeTableRecord
  2
BYLAYER
 70
     0
  3

 72
    65
 73
     0
 40
0.0
  0
LTYPE
  5
4D3
100
AcDbSymbolTableRecord
100
AcDbLinetypeTableRecord
  2
CONTINUOUS
 70
     0
  3
Solid line (NEC CAE2D for Win R12.1 : 2018.06.08)
 72
    65
 73
     0
 40
0.0
  0
LTYPE
  5
4D4
100
AcDbSymbolTableRecord
100
AcDbLinetypeTableRecord
  2
HIDDEN
 70
     0
  3
__ __ __ __ __ __ __ __ __ __ __ __ __ __
 72
    65
 73
     2
 40
0.375
 49
0.25
 74
     0
 49
-0.125
 74
     0
  0
LTYPE
  5
4D5
100
AcDbSymbolTableRecord
100
AcDbLinetypeTableRecord
  2
CENTER
 70
     0
  3
____ _ ____ _ ____ _ ____ _ ____ _ ____
 72
    65
 73
     4
 40
2.0
 49
1.25
 74
     0
 49
-0.25
 74
     0
 49
0.25
 74
     0
 49
-0.25
 74
     0
  0
LTYPE
  5
4D6
100
AcDbSymbolTableRecord
100
AcDbLinetypeTableRecord
  2
PHANTOM
 70
     0
  3
______  __  __  ______  __  __  ______ 
 72
    65
 73
     6
 40
2.5
 49
1.25
 74
     0
 49
-0.25
 74
     0
 49
0.25
 74
     0
 49
-0.25
 74
     0
 49
0.25
 74
     0
 49
-0.25
 74
     0
  0
ENDTAB
  0
TABLE
  2
LAYER
  5
4D7
100
AcDbSymbolTable
 70
    12
  0
LAYER
  5
4D8
100
AcDbSymbolTableRecord
100
AcDbLayerTableRecord
  2
0
 70
     0
 62
     7
  6
CONTINUOUS
  0
LAYER
  5
4D9
100
AcDbSymbolTableRecord
100
AcDbLayerTableRecord
  2
MAIN0
 70
     0
 62
     7
  6
CONTINUOUS
  0
LAYER
  5
4DA
100
AcDbSymbolTableRecord
100
AcDbLayerTableRecord
  2
MAIN1
 70
     0
 62
     7
  6
CONTINUOUS
  0
LAYER
  5
4DB
100
AcDbSymbolTableRecord
100
AcDbLayerTableRecord
  2
MAIN2
 70
     0
 62
     7
  6
CONTINUOUS
  0
LAYER
  5
4DC
100
AcDbSymbolTableRecord
100
AcDbLayerTableRecord
  2
MAIN3
 70
     0
 62
     7
  6
CONTINUOUS
  0
LAYER
  5
4DD
100
AcDbSymbolTableRecord
100
AcDbLayerTableRecord
  2
MAIN5
 70
     0
 62
     7
  6
CONTINUOUS
  0
LAYER
  5
4DE
100
AcDbSymbolTableRecord
100
AcDbLayerTableRecord
  2
MAIN6
 70
     0
 62
     7
  6
CONTINUOUS
  0
LAYER
  5
4DF
100
AcDbSymbolTableRecord
100
AcDbLayerTableRecord
  2
MAIN7
 70
     0
 62
     7
  6
CONTINUOUS
  0
LAYER
  5
4E0
100
AcDbSymbolTableRecord
100
AcDbLayerTableRecord
  2
MAIN9
 70
     0
 62
     7
  6
CONTINUOUS
  0
LAYER
  5
4E1
100
AcDbSymbolTableRecord
100
AcDbLayerTableRecord
  2
MAIN1023
 70
     0
 62
    16
  6
CONTINUOUS
  0
LAYER
  5
4E2
100
AcDbSymbolTableRecord
100
AcDbLayerTableRecord
  2
WAKU0
 70
     0
 62
     7
  6
CONTINUOUS
  0
LAYER
  5
4E3
100
AcDbSymbolTableRecord
100
AcDbLayerTableRecord
  2
WAKU1023
 70
     0
 62
    16
  6
CONTINUOUS
  0
ENDTAB
  0
TABLE
  2
STYLE
  5
4E4
100
AcDbSymbolTable
 70
     4
  0
STYLE
  5
4E5
100
AcDbSymbolTableRecord
100
AcDbTextStyleTableRecord
  2
STANDARD
 70
    64
 40
0.0
 41
1.0
 50
0.0
 71
     0
 42
3.099999904632568
  3
TXT
  4

  0
STYLE
  5
4E6
100
AcDbSymbolTableRecord
100
AcDbTextStyleTableRecord
  2
ANKTATE
 70
    68
 40
0.0
 41
1.0
 50
0.0
 71
     0
 42
3.099999904632568
  3
TXT
  4

  0
STYLE
  5
230
100
AcDbSymbolTableRecord
100
AcDbTextStyleTableRecord
  2
KNJYOKO
 70
    64
 40
0.0
 41
1.0
 50
0.0
 71
     0
 42
3.099999904632568
  3
TXT
  4
BIGFONT
  0
STYLE
  5
4E7
100
AcDbSymbolTableRecord
100
AcDbTextStyleTableRecord
  2
KNJTATE
 70
    68
 40
0.0
 41
1.0
 50
0.0
 71
     0
 42
3.099999904632568
  3
TXT
  4
BIGFONT
  0
ENDTAB
  0
TABLE
  2
VIEW
  5
4E8
100
AcDbSymbolTable
 70
     0
  0
ENDTAB
  0
TABLE
  2
UCS
  5
4E9
100
AcDbSymbolTable
 70
     0
  0
ENDTAB
  0
TABLE
  2
APPID
  5
4EA
100
AcDbSymbolTable
 70
     1
  0
APPID
  5
4EB
100
AcDbSymbolTableRecord
100
AcDbRegAppTableRecord
  2
ACAD
 70
     0
  0
ENDTAB
  0
TABLE
  2
DIMSTYLE
  5
4EC
100
AcDbSymbolTable
 70
     1
  0
DIMSTYLE
105
4ED
100
AcDbSymbolTableRecord
100
AcDbDimStyleTableRecord
  2
STANDARD
 70
     0
 41
2.000000
 44
2.000000
 42
0.800000
145
0.661290
140
3.100000
144
1.000000
146
0.903226
340
4E5
  0
DIMSTYLE
105
4EE
100
AcDbSymbolTableRecord
100
AcDbDimStyleTableRecord
  2
MAIN001
 70
     0
 41
2.000000
 44
2.000000
 42
0.800000
145
0.661290
140
3.100000
144
1.000000
146
0.903226
 77
     1
 73
     0
 74
     0
271
     3
275
     1
 78
     8
172
     1
340
4E5
  0
DIMSTYLE
105
4EF
100
AcDbSymbolTableRecord
100
AcDbDimStyleTableRecord
  2
WAKU002
 70
     0
 41
2.000000
 44
2.000000
 42
0.800000
145
0.661290
140
3.100000
144
1.000000
146
0.903226
 77
     1
 73
     0
 74
     0
271
     3
275
     1
 78
     8
172
     1
340
4E5
  0
ENDTAB
  0
TABLE
  2
BLOCK_RECORD
  5
4F0
100
AcDbSymbolTable
 70
    53
  0
BLOCK_RECORD
  5
4F1
100
AcDbSymbolTableRecord
100
AcDbBlockTableRecord
  2
*MODEL_SPACE
  0
BLOCK_RECORD
  5
4F2
100
AcDbSymbolTableRecord
100
AcDbBlockTableRecord
  2
*PAPER_SPACE
  0
BLOCK_RECORD
  5
1
100
AcDbSymbolTableRecord
100
AcDbBlockTableRecord
  2
_NONE
  0
BLOCK_RECORD
  5
4
100
AcDbSymbolTableRecord
100
AcDbBlockTableRecord
  2
_CLOSED
  0
BLOCK_RECORD
  5
B
100
AcDbSymbolTableRecord
100
AcDbBlockTableRecord
  2
_DOT
  0
BLOCK_RECORD
  5
13
100
AcDbSymbolTableRecord
100
AcDbBlockTableRecord
  2
_OPEN
  0
BLOCK_RECORD
  5
19
100
AcDbSymbolTableRecord
100
AcDbBlockTableRecord
  2
_ORIGIN
  0
BLOCK_RECORD
  5
1E
100
AcDbSymbolTableRecord
100
AcDbBlockTableRecord
  2
_OPEN30
  0
BLOCK_RECORD
  5
24
100
AcDbSymbolTableRecord
100
AcDbBlockTableRecord
  2
_BOXFILLED
  0
BLOCK_RECORD
  5
29
100
AcDbSymbolTableRecord
100
AcDbBlockTableRecord
  2
_BOXBLANK
  0
BLOCK_RECORD
  5
31
100
AcDbSymbolTableRecord
100
AcDbBlockTableRecord
  2
_OBLIQUE
  0
BLOCK_RECORD
  5
35
100
AcDbSymbolTableRecord
100
AcDbBlockTableRecord
  2
_OPEN90
  0
BLOCK_RECORD
  5
3B
100
AcDbSymbolTableRecord
100
AcDbBlockTableRecord
  2
_CLOSEDBLANK
  0
BLOCK_RECORD
  5
41
100
AcDbSymbolTableRecord
100
AcDbBlockTableRecord
  2
_DOTBLANK
  0
BLOCK_RECORD
  5
4F3
100
AcDbSymbolTableRecord
100
AcDbBlockTableRecord
  2
*D0
  0
BLOCK_RECORD
  5
4F4
100
AcDbSymbolTableRecord
100
AcDbBlockTableRecord
  2
*D1
  0
BLOCK_RECORD
  5
4F5
100
AcDbSymbolTableRecord
100
AcDbBlockTableRecord
  2
*D2
  0
BLOCK_RECORD
  5
4F6
100
AcDbSymbolTableRecord
100
AcDbBlockTableRecord
  2
*D3
  0
BLOCK_RECORD
  5
4F7
100
AcDbSymbolTableRecord
100
AcDbBlockTableRecord
  2
*D4
  0
BLOCK_RECORD
  5
4F8
100
AcDbSymbolTableRecord
100
AcDbBlockTableRecord
  2
*D5
  0
BLOCK_RECORD
  5
4F9
100
AcDbSymbolTableRecord
100
AcDbBlockTableRecord
  2
*D6
  0
BLOCK_RECORD
  5
4FA
100
AcDbSymbolTableRecord
100
AcDbBlockTableRecord
  2
*D7
  0
BLOCK_RECORD
  5
4FB
100
AcDbSymbolTableRecord
100
AcDbBlockTableRecord
  2
*D8
  0
BLOCK_RECORD
  5
4FC
100
AcDbSymbolTableRecord
100
AcDbBlockTableRecord
  2
*D9
  0
BLOCK_RECORD
  5
4FD
100
AcDbSymbolTableRecord
100
AcDbBlockTableRecord
  2
*D10
  0
BLOCK_RECORD
  5
4FE
100
AcDbSymbolTableRecord
100
AcDbBlockTableRecord
  2
*D11
  0
BLOCK_RECORD
  5
4FF
100
AcDbSymbolTableRecord
100
AcDbBlockTableRecord
  2
*D12
  0
BLOCK_RECORD
  5
500
100
AcDbSymbolTableRecord
100
AcDbBlockTableRecord
  2
*D13
  0
BLOCK_RECORD
  5
501
100
AcDbSymbolTableRecord
100
AcDbBlockTableRecord
  2
*D14
  0
BLOCK_RECORD
  5
502
100
AcDbSymbolTableRecord
100
AcDbBlockTableRecord
  2
*D15
  0
BLOCK_RECORD
  5
503
100
AcDbSymbolTableRecord
100
AcDbBlockTableRecord
  2
*D16
  0
BLOCK_RECORD
  5
504
100
AcDbSymbolTableRecord
100
AcDbBlockTableRecord
  2
*D17
  0
BLOCK_RECORD
  5
505
100
AcDbSymbolTableRecord
100
AcDbBlockTableRecord
  2
*D18
  0
BLOCK_RECORD
  5
506
100
AcDbSymbolTableRecord
100
AcDbBlockTableRecord
  2
*D19
  0
BLOCK_RECORD
  5
507
100
AcDbSymbolTableRecord
100
AcDbBlockTableRecord
  2
*D20
  0
BLOCK_RECORD
  5
508
100
AcDbSymbolTableRecord
100
AcDbBlockTableRecord
  2
*D21
  0
BLOCK_RECORD
  5
509
100
AcDbSymbolTableRecord
100
AcDbBlockTableRecord
  2
*D22
  0
BLOCK_RECORD
  5
50A
100
AcDbSymbolTableRecord
100
AcDbBlockTableRecord
  2
*D23
  0
BLOCK_RECORD
  5
50B
100
AcDbSymbolTableRecord
100
AcDbBlockTableRecord
  2
*D24
  0
BLOCK_RECORD
  5
50C
100
AcDbSymbolTableRecord
100
AcDbBlockTableRecord
  2
*D25
  0
BLOCK_RECORD
  5
50D
100
AcDbSymbolTableRecord
100
AcDbBlockTableRecord
  2
*D26
  0
BLOCK_RECORD
  5
50E
100
AcDbSymbolTableRecord
100
AcDbBlockTableRecord
  2
*D27
  0
BLOCK_RECORD
  5
50F
100
AcDbSymbolTableRecord
100
AcDbBlockTableRecord
  2
*D28
  0
BLOCK_RECORD
  5
510
100
AcDbSymbolTableRecord
100
AcDbBlockTableRecord
  2
*D29
  0
BLOCK_RECORD
  5
511
100
AcDbSymbolTableRecord
100
AcDbBlockTableRecord
  2
*D30
  0
BLOCK_RECORD
  5
512
100
AcDbSymbolTableRecord
100
AcDbBlockTableRecord
  2
*D31
  0
BLOCK_RECORD
  5
513
100
AcDbSymbolTableRecord
100
AcDbBlockTableRecord
  2
D32
  0
BLOCK_RECORD
  5
514
100
AcDbSymbolTableRecord
100
AcDbBlockTableRecord
  2
*D33
  0
BLOCK_RECORD
  5
515
100
AcDbSymbolTableRecord
100
AcDbBlockTableRecord
  2
D34
  0
BLOCK_RECORD
  5
516
100
AcDbSymbolTableRecord
100
AcDbBlockTableRecord
  2
*D35
  0
BLOCK_RECORD
  5
517
100
AcDbSymbolTableRecord
100
AcDbBlockTableRecord
  2
*D36
  0
BLOCK_RECORD
  5
518
100
AcDbSymbolTableRecord
100
AcDbBlockTableRecord
  2
*D37
  0
BLOCK_RECORD
  5
519
100
AcDbSymbolTableRecord
100
AcDbBlockTableRecord
  2
*D38
  0
BLOCK_RECORD
  5
51A
100
AcDbSymbolTableRecord
100
AcDbBlockTableRecord
  2
*D39
  0
BLOCK_RECORD
  5
51B
100
AcDbSymbolTableRecord
100
AcDbBlockTableRecord
  2
*D40
  0
ENDTAB
  0
ENDSEC
  0
SECTION
  2
BLOCKS
  0
BLOCK
  5
51C
100
AcDbEntity
  8
0
100
AcDbBlockBegin
  2
*MODEL_SPACE
 70
     0
 10
0.0
 20
0.0
 30
0.0
  3
*MODEL_SPACE
  1

  0
ENDBLK
  5
51D
100
AcDbEntity
  8
0
100
AcDbBlockEnd
  0
BLOCK
  5
51E
100
AcDbEntity
  8
0
100
AcDbBlockBegin
  2
*PAPER_SPACE
 70
     0
 10
0.0
 20
0.0
 30
0.0
  3
*PAPER_SPACE
  1

  0
ENDBLK
  5
51F
100
AcDbEntity
  8
0
100
AcDbBlockEnd
  0
BLOCK
  5
2
100
AcDbEntity
  8
0
100
AcDbBlockBegin
  2
_NONE
 70
     0
 10
0.0
 20
0.0
 30
0.0
  3
_NONE
  1

  0
ENDBLK
  5
3
100
AcDbEntity
  8
0
100
AcDbBlockEnd
  0
BLOCK
  5
5
100
AcDbEntity
  8
0
100
AcDbBlockBegin
  2
_CLOSED
 70
     0
 10
0.0
 20
0.0
 30
0.0
  3
_CLOSED
  1

  0
LINE
  5
6
100
AcDbEntity
  8
0
  6
BYBLOCK
 62
     0
100
AcDbLine
 10
-1.0
 20
0.166667
 30
0.0
 11
0.0
 21
0.0
 31
0.0
  0
LINE
  5
7
100
AcDbEntity
  8
0
  6
BYBLOCK
 62
     0
100
AcDbLine
 10
0.0
 20
0.0
 30
0.0
 11
-1.0
 21
-0.166667
 31
0.0
  0
LINE
  5
8
100
AcDbEntity
  8
0
  6
BYBLOCK
 62
     0
100
AcDbLine
 10
-1.0
 20
0.166667
 30
0.0
 11
-1.0
 21
-0.166667
 31
0.0
  0
LINE
  5
9
100
AcDbEntity
  8
0
  6
BYBLOCK
 62
     0
100
AcDbLine
 10
0.0
 20
0.0
 30
0.0
 11
-1.0
 21
0.0
 31
0.0
  0
ENDBLK
  5
A
100
AcDbEntity
  8
0
100
AcDbBlockEnd
  0
BLOCK
  5
C
100
AcDbEntity
  8
0
100
AcDbBlockBegin
  2
_DOT
 70
     0
 10
0.0
 20
0.0
 30
0.0
  3
_DOT
  1

  0
POLYLINE
  5
D
100
AcDbEntity
  8
0
  6
BYBLOCK
 62
     0
100
AcDb2dPolyline
 66
     1
 10
0.0
 20
0.0
 30
0.0
 70
     1
 40
0.5
 41
0.5
  0
VERTEX
  5
E
100
AcDbEntity
  8
0
  6
BYBLOCK
 62
     0
100
AcDbVertex
100
AcDb2dVertex
 10
-0.25
 20
0.0
 30
0.0
 42
1.0
  0
VERTEX
  5
F
100
AcDbEntity
  8
0
  6
BYBLOCK
 62
     0
100
AcDbVertex
100
AcDb2dVertex
 10
0.25
 20
0.0
 30
0.0
 42
1.0
  0
SEQEND
  5
10
100
AcDbEntity
  8
0
  6
BYBLOCK
 62
     0
  0
LINE
  5
11
100
AcDbEntity
  8
0
  6
BYBLOCK
 62
     0
100
AcDbLine
 10
-0.5
 20
0.0
 30
0.0
 11
-1.0
 21
0.0
 31
0.0
  0
ENDBLK
  5
12
100
AcDbEntity
  8
0
100
AcDbBlockEnd
  0
BLOCK
  5
14
100
AcDbEntity
  8
0
100
AcDbBlockBegin
  2
_OPEN
 70
     0
 10
0.0
 20
0.0
 30
0.0
  3
_OPEN
  1

  0
LINE
  5
15
100
AcDbEntity
  8
0
  6
BYBLOCK
 62
     0
100
AcDbLine
 10
-1.0
 20
0.166667
 30
0.0
 11
0.0
 21
0.0
 31
0.0
  0
LINE
  5
16
100
AcDbEntity
  8
0
  6
BYBLOCK
 62
     0
100
AcDbLine
 10
0.0
 20
0.0
 30
0.0
 11
-1.0
 21
-0.166667
 31
0.0
  0
LINE
  5
17
100
AcDbEntity
  8
0
  6
BYBLOCK
 62
     0
100
AcDbLine
 10
0.0
 20
0.0
 30
0.0
 11
-1.0
 21
0.0
 31
0.0
  0
ENDBLK
  5
18
100
AcDbEntity
  8
0
100
AcDbBlockEnd
  0
BLOCK
  5
1A
100
AcDbEntity
  8
0
100
AcDbBlockBegin
  2
_ORIGIN
 70
     0
 10
0.0
 20
0.0
 30
0.0
  3
_ORIGIN
  1

  0
CIRCLE
  5
1B
100
AcDbEntity
  8
0
  6
BYBLOCK
 62
     0
100
AcDbCircle
 10
0.0
 20
0.0
 30
0.0
 40
0.5
  0
LINE
  5
1C
100
AcDbEntity
  8
0
  6
BYBLOCK
 62
     0
100
AcDbLine
 10
0.0
 20
0.0
 30
0.0
 11
-1.0
 21
0.0
 31
0.0
  0
ENDBLK
  5
1D
100
AcDbEntity
  8
0
100
AcDbBlockEnd
  0
BLOCK
  5
1F
100
AcDbEntity
  8
0
100
AcDbBlockBegin
  2
_OPEN30
 70
     0
 10
0.0
 20
0.0
 30
0.0
  3
_OPEN30
  1

  0
LINE
  5
20
100
AcDbEntity
  8
0
  6
BYBLOCK
 62
     0
100
AcDbLine
 10
-1.0
 20
0.267949
 30
0.0
 11
0.0
 21
0.0
 31
0.0
  0
LINE
  5
21
100
AcDbEntity
  8
0
  6
BYBLOCK
 62
     0
100
AcDbLine
 10
0.0
 20
0.0
 30
0.0
 11
-1.0
 21
-0.267949
 31
0.0
  0
LINE
  5
22
100
AcDbEntity
  8
0
  6
BYBLOCK
 62
     0
100
AcDbLine
 10
0.0
 20
0.0
 30
0.0
 11
-1.0
 21
0.0
 31
0.0
  0
ENDBLK
  5
23
100
AcDbEntity
  8
0
100
AcDbBlockEnd
  0
BLOCK
  5
25
100
AcDbEntity
  8
0
100
AcDbBlockBegin
  2
_BOXFILLED
 70
     0
 10
0.0
 20
0.0
 30
0.0
  3
_BOXFILLED
  1

  0
SOLID
  5
26
100
AcDbEntity
  8
0
  6
BYBLOCK
 62
     0
100
AcDbTrace
 10
-0.5
 20
0.5
 30
0.0
 11
0.5
 21
0.5
 31
0.0
 12
-0.5
 22
-0.5
 32
0.0
 13
0.5
 23
-0.5
 33
0.0
  0
LINE
  5
27
100
AcDbEntity
  8
0
  6
BYBLOCK
 62
     0
100
AcDbLine
 10
-0.5
 20
0.0
 30
0.0
 11
-1.0
 21
0.0
 31
0.0
  0
ENDBLK
  5
28
100
AcDbEntity
  8
0
100
AcDbBlockEnd
  0
BLOCK
  5
2A
100
AcDbEntity
  8
0
100
AcDbBlockBegin
  2
_BOXBLANK
 70
     0
 10
0.0
 20
0.0
 30
0.0
  3
_BOXBLANK
  1

  0
LINE
  5
2B
100
AcDbEntity
  8
0
  6
BYBLOCK
 62
     0
100
AcDbLine
 10
-0.5
 20
-0.5
 30
0.0
 11
0.5
 21
-0.5
 31
0.0
  0
LINE
  5
2C
100
AcDbEntity
  8
0
  6
BYBLOCK
 62
     0
100
AcDbLine
 10
0.5
 20
-0.5
 30
0.0
 11
0.5
 21
0.5
 31
0.0
  0
LINE
  5
2D
100
AcDbEntity
  8
0
  6
BYBLOCK
 62
     0
100
AcDbLine
 10
0.5
 20
0.5
 30
0.0
 11
-0.5
 21
0.5
 31
0.0
  0
LINE
  5
2E
100
AcDbEntity
  8
0
  6
BYBLOCK
 62
     0
100
AcDbLine
 10
-0.5
 20
0.5
 30
0.0
 11
-0.5
 21
-0.5
 31
0.0
  0
LINE
  5
2F
100
AcDbEntity
  8
0
  6
BYBLOCK
 62
     0
100
AcDbLine
 10
-0.5
 20
0.0
 30
0.0
 11
-1.0
 21
0.0
 31
0.0
  0
ENDBLK
  5
30
100
AcDbEntity
  8
0
100
AcDbBlockEnd
  0
BLOCK
  5
32
100
AcDbEntity
  8
0
100
AcDbBlockBegin
  2
_OBLIQUE
 70
     0
 10
0.0
 20
0.0
 30
0.0
  3
_OBLIQUE
  1

  0
LINE
  5
33
100
AcDbEntity
  8
0
  6
BYBLOCK
 62
     0
100
AcDbLine
 10
-0.5
 20
-0.5
 30
0.0
 11
0.5
 21
0.5
 31
0.0
  0
ENDBLK
  5
34
100
AcDbEntity
  8
0
100
AcDbBlockEnd
  0
BLOCK
  5
36
100
AcDbEntity
  8
0
100
AcDbBlockBegin
  2
_OPEN90
 70
     0
 10
0.0
 20
0.0
 30
0.0
  3
_OPEN90
  1

  0
LINE
  5
37
100
AcDbEntity
  8
0
  6
BYBLOCK
 62
     0
100
AcDbLine
 10
-0.5
 20
0.5
 30
0.0
 11
0.0
 21
0.0
 31
0.0
  0
LINE
  5
38
100
AcDbEntity
  8
0
  6
BYBLOCK
 62
     0
100
AcDbLine
 10
0.0
 20
0.0
 30
0.0
 11
-0.5
 21
-0.5
 31
0.0
  0
LINE
  5
39
100
AcDbEntity
  8
0
  6
BYBLOCK
 62
     0
100
AcDbLine
 10
0.0
 20
0.0
 30
0.0
 11
-1.0
 21
0.0
 31
0.0
  0
ENDBLK
  5
3A
100
AcDbEntity
  8
0
100
AcDbBlockEnd
  0
BLOCK
  5
3C
100
AcDbEntity
  8
0
100
AcDbBlockBegin
  2
_CLOSEDBLANK
 70
     0
 10
0.0
 20
0.0
 30
0.0
  3
_CLOSEDBLANK
  1

  0
LINE
  5
3D
100
AcDbEntity
  8
0
  6
BYBLOCK
 62
     0
100
AcDbLine
 10
-1.0
 20
0.1666666666666666
 30
0.0
 11
0.0
 21
0.0
 31
0.0
  0
LINE
  5
3E
100
AcDbEntity
  8
0
  6
BYBLOCK
 62
     0
100
AcDbLine
 10
0.0
 20
0.0
 30
0.0
 11
-1.0
 21
-0.1666666666666666
 31
0.0
  0
LINE
  5
3F
100
AcDbEntity
  8
0
  6
BYBLOCK
 62
     0
100
AcDbLine
 10
-1.0
 20
0.1666666666666666
 30
0.0
 11
-1.0
 21
-0.1666666666666666
 31
0.0
  0
ENDBLK
  5
40
100
AcDbEntity
  8
0
100
AcDbBlockEnd
  0
BLOCK
  5
42
100
AcDbEntity
  8
0
100
AcDbBlockBegin
  2
_DOTBLANK
 70
     0
 10
0.0
 20
0.0
 30
0.0
  3
_DOTBLANK
  1

  0
CIRCLE
  5
43
100
AcDbEntity
  8
0
  6
BYBLOCK
 62
     0
100
AcDbCircle
 10
0.0
 20
0.0
 30
0.0
 40
0.5
  0
LINE
  5
44
100
AcDbEntity
  8
0
  6
BYBLOCK
 62
     0
100
AcDbLine
 10
-0.5
 20
0.0
 30
0.0
 11
-1.0
 21
0.0
 31
0.0
  0
ENDBLK
  5
45
100
AcDbEntity
  8
0
100
AcDbBlockEnd
  0
BLOCK
  5
190
100
AcDbEntity
  8
MAIN0
  6
CONTINUOUS
 62
3
100
AcDbBlockBegin
  2
*D0
 70
    65
 10
0.0
 20
0.0
 30
0.0
  0
LINE
  5
191
100
AcDbEntity
  8
MAIN0
  6
BYBLOCK
 62
0
100
AcDbLine
 10
109.0315762941872
 20
165.8789252738142
 30
0.0000000000000000
 11
71.91515400421697
 21
165.8789252738142
 31
0.0000000000000000
  0
LINE
  5
192
100
AcDbEntity
  8
MAIN0
  6
BYBLOCK
 62
0
100
AcDbLine
 10
73.91515400421697
 20
167.8789252738142
 30
0.0000000000000000
 11
73.91515400421697
 21
366.8789252738142
 31
0.0000000000000000
  0
INSERT
  5
193
100
AcDbEntity
  8
MAIN0
  6
BYBLOCK
 62
0
100
AcDbBlockReference
  2
_OPEN
 10
73.91515400421697
 20
165.8789252738142
 30
0.0000000000000000
 41
2.000000000000000
 42
2.000000000000000
 43
2.000000000000000
 50
270.0000000000000
  0
INSERT
  5
194
100
AcDbEntity
  8
MAIN0
  6
BYBLOCK
 62
0
100
AcDbBlockReference
  2
_OPEN
 10
73.91515400421697
 20
368.8789252738142
 30
0.0000000000000000
 41
2.000000000000000
 42
2.000000000000000
 43
2.000000000000000
 50
90.00000000000000
  0
LINE
  5
195
100
AcDbEntity
  8
MAIN0
  6
BYBLOCK
 62
0
100
AcDbLine
 10
109.0315762941892
 20
368.8789252738142
 30
0.0000000000000000
 11
71.91515400421697
 21
368.8789252738142
 31
0.0000000000000000
  0
MTEXT
  5
196
100
AcDbEntity
  8
MAIN0
  6
BYBLOCK
 62
0
100
AcDbMText
 10
71.86515405190069
 20
267.3789252738142
 30
0.0000000000000000
 40
3.099999904632568
 41
0.0000000000000000
 71
     5
 72
     1
  1
\A1;\U+2205203h7
 11
1.002670741233467e-011
 21
1.000000000000000
 31
0.0000000000000000
  7
STANDARD
  0
ENDBLK
  5
197
100
AcDbEntity
  8
MAIN0
  6
CONTINUOUS
 62
3
100
AcDbBlockEnd
  0
BLOCK
  5
199
100
AcDbEntity
  8
MAIN0
  6
CONTINUOUS
 62
3
100
AcDbBlockBegin
  2
*D1
 70
    65
 10
0.0
 20
0.0
 30
0.0
  0
LINE
  5
19A
100
AcDbEntity
  8
MAIN0
  6
BYBLOCK
 62
0
100
AcDbLine
 10
109.8315763061089
 20
165.0789252618933
 30
0.0000000000000000
 11
109.8315763061089
 21
119.9569239625737
 31
0.0000000000000000
  0
LINE
  5
19B
100
AcDbEntity
  8
MAIN0
  6
BYBLOCK
 62
0
100
AcDbLine
 10
111.8315763061089
 20
121.9569239625737
 30
0.0000000000000000
 11
137.8315763061080
 21
121.9569239625737
 31
0.0000000000000000
  0
INSERT
  5
19C
100
AcDbEntity
  8
MAIN0
  6
BYBLOCK
 62
0
100
AcDbBlockReference
  2
_OPEN
 10
109.8315763061089
 20
121.9569239625737
 30
0.0000000000000000
 41
2.000000000000000
 42
2.000000000000000
 43
2.000000000000000
 50
180.0000000000000
  0
INSERT
  5
19D
100
AcDbEntity
  8
MAIN0
  6
BYBLOCK
 62
0
100
AcDbBlockReference
  2
_OPEN
 10
139.8315763061080
 20
121.9569239625737
 30
0.0000000000000000
 41
2.000000000000000
 42
2.000000000000000
 43
2.000000000000000
 50
0.0000000000000000
  0
LINE
  5
19E
100
AcDbEntity
  8
MAIN0
  6
BYBLOCK
 62
0
100
AcDbLine
 10
139.8315763061080
 20
157.2024021102985
 30
0.0000000000000000
 11
139.8315763061080
 21
119.9569239625737
 31
0.0000000000000000
  0
MTEXT
  5
19F
100
AcDbEntity
  8
MAIN0
  6
BYBLOCK
 62
0
100
AcDbMText
 10
121.8075887741562
 20
124.0069239148900
 30
0.0000000000000000
 40
3.099999904632568
 41
0.0000000000000000
 71
     5
 72
     1
  1
\A1;30
 11
1.000000000000000
 21
0.0000000000000000
 31
0.0000000000000000
  7
STANDARD
  0
ENDBLK
  5
1A0
100
AcDbEntity
  8
MAIN0
  6
CONTINUOUS
 62
3
100
AcDbBlockEnd
  0
BLOCK
  5
1A2
100
AcDbEntity
  8
MAIN0
  6
CONTINUOUS
 62
3
100
AcDbBlockBegin
  2
*D2
 70
    65
 10
0.0
 20
0.0
 30
0.0
  0
LINE
  5
1A3
100
AcDbEntity
  8
MAIN0
  6
BYBLOCK
 62
0
100
AcDbLine
 10
109.8315763061089
 20
165.0789252618933
 30
0.0000000000000000
 11
109.8315763061089
 21
108.6880695321353
 31
0.0000000000000000
  0
LINE
  5
1A4
100
AcDbEntity
  8
MAIN0
  6
BYBLOCK
 62
0
100
AcDbLine
 10
111.8315763061089
 20
110.6880695321353
 30
0.0000000000000000
 11
122.8315763061080
 21
110.6880695321353
 31
0.0000000000000000
  0
INSERT
  5
1A5
100
AcDbEntity
  8
MAIN0
  6
BYBLOCK
 62
0
100
AcDbBlockReference
  2
_OPEN
 10
109.8315763061089
 20
110.6880695321353
 30
0.0000000000000000
 41
2.000000000000000
 42
2.000000000000000
 43
2.000000000000000
 50
180.0000000000000
  0
INSERT
  5
1A6
100
AcDbEntity
  8
MAIN0
  6
BYBLOCK
 62
0
100
AcDbBlockReference
  2
_OPEN
 10
124.8315763061080
 20
110.6880695321353
 30
0.0000000000000000
 41
2.000000000000000
 42
2.000000000000000
 43
2.000000000000000
 50
0.0000000000000000
  0
LINE
  5
1A7
100
AcDbEntity
  8
MAIN0
  6
BYBLOCK
 62
0
100
AcDbLine
 10
124.8315763061080
 20
163.5789252618931
 30
0.0000000000000000
 11
124.8315763061080
 21
108.6880695321353
 31
0.0000000000000000
  0
MTEXT
  5
1A8
100
AcDbEntity
  8
MAIN0
  6
BYBLOCK
 62
0
100
AcDbMText
 10
117.3315763061085
 20
112.7380694844516
 30
0.0000000000000000
 40
3.099999904632568
 41
0.0000000000000000
 71
     5
 72
     1
  1
\A1;15
 11
1.000000000000000
 21
0.0000000000000000
 31
0.0000000000000000
  7
STANDARD
  0
ENDBLK
  5
1A9
100
AcDbEntity
  8
MAIN0
  6
CONTINUOUS
 62
3
100
AcDbBlockEnd
  0
BLOCK
  5
1AB
100
AcDbEntity
  8
MAIN0
  6
CONTINUOUS
 62
3
100
AcDbBlockBegin
  2
*D3
 70
    65
 10
0.0
 20
0.0
 30
0.0
  0
LINE
  5
1AC
100
AcDbEntity
  8
MAIN0
  6
BYBLOCK
 62
0
100
AcDbLine
 10
124.8315763061080
 20
163.5789252618931
 30
0.0000000000000000
 11
124.8315763061080
 21
108.6880695321353
 31
0.0000000000000000
  0
LINE
  5
1AD
100
AcDbEntity
  8
MAIN0
  6
BYBLOCK
 62
0
100
AcDbLine
 10
126.8315763061080
 20
110.6880695321353
 30
0.0000000000000000
 11
152.8315763061080
 21
110.6880695321353
 31
0.0000000000000000
  0
INSERT
  5
1AE
100
AcDbEntity
  8
MAIN0
  6
BYBLOCK
 62
0
100
AcDbBlockReference
  2
_OPEN
 10
124.8315763061080
 20
110.6880695321353
 30
0.0000000000000000
 41
2.000000000000000
 42
2.000000000000000
 43
2.000000000000000
 50
180.0000000000000
  0
INSERT
  5
1AF
100
AcDbEntity
  8
MAIN0
  6
BYBLOCK
 62
0
100
AcDbBlockReference
  2
_OPEN
 10
154.8315763061080
 20
110.6880695321353
 30
0.0000000000000000
 41
2.000000000000000
 42
2.000000000000000
 43
2.000000000000000
 50
0.0000000000000000
  0
LINE
  5
1B0
100
AcDbEntity
  8
MAIN0
  6
BYBLOCK
 62
0
100
AcDbLine
 10
154.8315763061080
 20
163.5789252618928
 30
0.0000000000000000
 11
154.8315763061080
 21
108.6880695321353
 31
0.0000000000000000
  0
MTEXT
  5
1B1
100
AcDbEntity
  8
MAIN0
  6
BYBLOCK
 62
0
100
AcDbMText
 10
139.8315763061080
 20
112.7380694844516
 30
0.0000000000000000
 40
3.099999904632568
 41
0.0000000000000000
 71
     5
 72
     1
  1
\A1;30
 11
1.000000000000000
 21
0.0000000000000000
 31
0.0000000000000000
  7
STANDARD
  0
ENDBLK
  5
1B2
100
AcDbEntity
  8
MAIN0
  6
CONTINUOUS
 62
3
100
AcDbBlockEnd
  0
BLOCK
  5
1B4
100
AcDbEntity
  8
MAIN0
  6
CONTINUOUS
 62
3
100
AcDbBlockBegin
  2
*D4
 70
    65
 10
0.0
 20
0.0
 30
0.0
  0
LINE
  5
1B5
100
AcDbEntity
  8
MAIN0
  6
BYBLOCK
 62
0
100
AcDbLine
 10
154.8315763061080
 20
163.5789252618928
 30
0.0000000000000000
 11
154.8315763061080
 21
108.6880695321353
 31
0.0000000000000000
  0
LINE
  5
1B6
100
AcDbEntity
  8
MAIN0
  6
BYBLOCK
 62
0
100
AcDbLine
 10
156.8315763061080
 20
110.6880695321353
 30
0.0000000000000000
 11
202.8315763061093
 21
110.6880695321353
 31
0.0000000000000000
  0
INSERT
  5
1B7
100
AcDbEntity
  8
MAIN0
  6
BYBLOCK
 62
0
100
AcDbBlockReference
  2
_OPEN
 10
154.8315763061080
 20
110.6880695321353
 30
0.0000000000000000
 41
2.000000000000000
 42
2.000000000000000
 43
2.000000000000000
 50
180.0000000000000
  0
INSERT
  5
1B8
100
AcDbEntity
  8
MAIN0
  6
BYBLOCK
 62
0
100
AcDbBlockReference
  2
_OPEN
 10
204.8315763061093
 20
110.6880695321353
 30
0.0000000000000000
 41
2.000000000000000
 42
2.000000000000000
 43
2.000000000000000
 50
0.0000000000000000
  0
LINE
  5
1B9
100
AcDbEntity
  8
MAIN0
  6
BYBLOCK
 62
0
100
AcDbLine
 10
204.8315763061093
 20
185.6789252618925
 30
0.0000000000000000
 11
204.8315763061093
 21
108.6880695321353
 31
0.0000000000000000
  0
MTEXT
  5
1BA
100
AcDbEntity
  8
MAIN0
  6
BYBLOCK
 62
0
100
AcDbMText
 10
179.8315763061087
 20
112.7380694844516
 30
0.0000000000000000
 40
3.099999904632568
 41
0.0000000000000000
 71
     5
 72
     1
  1
\A1;50
 11
1.000000000000000
 21
0.0000000000000000
 31
0.0000000000000000
  7
STANDARD
  0
ENDBLK
  5
1BB
100
AcDbEntity
  8
MAIN0
  6
CONTINUOUS
 62
3
100
AcDbBlockEnd
  0
BLOCK
  5
1BD
100
AcDbEntity
  8
MAIN0
  6
CONTINUOUS
 62
3
100
AcDbBlockBegin
  2
*D5
 70
    65
 10
0.0
 20
0.0
 30
0.0
  0
LINE
  5
1BE
100
AcDbEntity
  8
MAIN0
  6
BYBLOCK
 62
0
100
AcDbLine
 10
109.8315763061089
 20
165.0789252618933
 30
0.0000000000000000
 11
109.8315763061089
 21
96.88259031396879
 31
0.0000000000000000
  0
LINE
  5
1BF
100
AcDbEntity
  8
MAIN0
  6
BYBLOCK
 62
0
100
AcDbLine
 10
111.8315763061089
 20
98.88259031396879
 30
0.0000000000000000
 11
202.8315763061093
 21
98.88259031396879
 31
0.0000000000000000
  0
INSERT
  5
1C0
100
AcDbEntity
  8
MAIN0
  6
BYBLOCK
 62
0
100
AcDbBlockReference
  2
_OPEN
 10
109.8315763061089
 20
98.88259031396879
 30
0.0000000000000000
 41
2.000000000000000
 42
2.000000000000000
 43
2.000000000000000
 50
180.0000000000000
  0
INSERT
  5
1C1
100
AcDbEntity
  8
MAIN0
  6
BYBLOCK
 62
0
100
AcDbBlockReference
  2
_OPEN
 10
204.8315763061093
 20
98.88259031396879
 30
0.0000000000000000
 41
2.000000000000000
 42
2.000000000000000
 43
2.000000000000000
 50
0.0000000000000000
  0
LINE
  5
1C2
100
AcDbEntity
  8
MAIN0
  6
BYBLOCK
 62
0
100
AcDbLine
 10
204.8315763061093
 20
185.6789252618925
 30
0.0000000000000000
 11
204.8315763061093
 21
96.88259031396879
 31
0.0000000000000000
  0
MTEXT
  5
1C3
100
AcDbEntity
  8
MAIN0
  6
BYBLOCK
 62
0
100
AcDbMText
 10
157.3315763061091
 20
100.9325902662851
 30
0.0000000000000000
 40
3.099999904632568
 41
0.0000000000000000
 71
     5
 72
     1
  1
\A1;95
 11
1.000000000000000
 21
0.0000000000000000
 31
0.0000000000000000
  7
STANDARD
  0
ENDBLK
  5
1C4
100
AcDbEntity
  8
MAIN0
  6
CONTINUOUS
 62
3
100
AcDbBlockEnd
  0
BLOCK
  5
1C6
100
AcDbEntity
  8
MAIN0
  6
CONTINUOUS
 62
3
100
AcDbBlockBegin
  2
*D6
 70
    65
 10
0.0
 20
0.0
 30
0.0
  0
LINE
  5
1C7
100
AcDbEntity
  8
MAIN0
  6
BYBLOCK
 62
0
100
AcDbLine
 10
182.7932693933560
 20
259.3789252738123
 30
0.0000000000000000
 11
182.7932693933560
 21
275.3789252738141
 31
0.0000000000000000
  0
INSERT
  5
1C8
100
AcDbEntity
  8
MAIN0
  6
BYBLOCK
 62
0
100
AcDbBlockReference
  2
_OPEN
 10
182.7932693933560
 20
257.3789252738123
 30
0.0000000000000000
 41
2.000000000000000
 42
2.000000000000000
 43
2.000000000000000
 50
270.0000000000000
  0
INSERT
  5
1C9
100
AcDbEntity
  8
MAIN0
  6
BYBLOCK
 62
0
100
AcDbBlockReference
  2
_OPEN
 10
182.7932693933560
 20
277.3789252738141
 30
0.0000000000000000
 41
2.000000000000000
 42
2.000000000000000
 43
2.000000000000000
 50
90.00000000000000
  0
MTEXT
  5
1CA
100
AcDbEntity
  8
MAIN0
  6
BYBLOCK
 62
0
100
AcDbMText
 10
180.7432694410397
 20
267.3789252738133
 30
0.0000000000000000
 40
3.099999904632568
 41
0.0000000000000000
 71
     5
 72
     1
  1
\A1;\U+220520
 11
1.002670741233467e-011
 21
1.000000000000000
 31
0.0000000000000000
  7
STANDARD
  0
ENDBLK
  5
1CB
100
AcDbEntity
  8
MAIN0
  6
CONTINUOUS
 62
3
100
AcDbBlockEnd
  0
BLOCK
  5
1CD
100
AcDbEntity
  8
MAIN0
  6
CONTINUOUS
 62
3
100
AcDbBlockBegin
  2
*D7
 70
    65
 10
0.0
 20
0.0
 30
0.0
  0
LINE
  5
1CE
100
AcDbEntity
  8
MAIN0
  6
BYBLOCK
 62
0
100
AcDbLine
 10
204.8315763061099
 20
349.0789252857342
 30
0.0000000000000000
 11
204.8315763061099
 21
381.8120178778709
 31
0.0000000000000000
  0
LINE
  5
1CF
100
AcDbEntity
  8
MAIN0
  6
BYBLOCK
 62
0
100
AcDbLine
 10
206.8315763061099
 20
379.8120178778709
 30
0.0000000000000000
 11
238.8315763061108
 21
379.8120178778709
 31
0.0000000000000000
  0
INSERT
  5
1D0
100
AcDbEntity
  8
MAIN0
  6
BYBLOCK
 62
0
100
AcDbBlockReference
  2
_OPEN
 10
204.8315763061099
 20
379.8120178778709
 30
0.0000000000000000
 41
2.000000000000000
 42
2.000000000000000
 43
2.000000000000000
 50
180.0000000000000
  0
INSERT
  5
1D1
100
AcDbEntity
  8
MAIN0
  6
BYBLOCK
 62
0
100
AcDbBlockReference
  2
_OPEN
 10
240.8315763061108
 20
379.8120178778709
 30
0.0000000000000000
 41
2.000000000000000
 42
2.000000000000000
 43
2.000000000000000
 50
0.0000000000000000
  0
LINE
  5
1D2
100
AcDbEntity
  8
MAIN0
  6
BYBLOCK
 62
0
100
AcDbLine
 10
240.8315763061108
 20
356.9289252857338
 30
0.0000000000000000
 11
240.8315763061108
 21
381.8120178778709
 31
0.0000000000000000
  0
MTEXT
  5
1D3
100
AcDbEntity
  8
MAIN0
  6
BYBLOCK
 62
0
100
AcDbMText
 10
222.8315763061103
 20
381.8620178301871
 30
0.0000000000000000
 40
3.099999904632568
 41
0.0000000000000000
 71
     5
 72
     1
  1
\A1;36
 11
1.000000000000000
 21
0.0000000000000000
 31
0.0000000000000000
  7
STANDARD
  0
ENDBLK
  5
1D4
100
AcDbEntity
  8
MAIN0
  6
CONTINUOUS
 62
3
100
AcDbBlockEnd
  0
BLOCK
  5
1D6
100
AcDbEntity
  8
MAIN0
  6
CONTINUOUS
 62
3
100
AcDbBlockBegin
  2
*D8
 70
    65
 10
0.0
 20
0.0
 30
0.0
  0
LINE
  5
1D7
100
AcDbEntity
  8
MAIN0
  6
BYBLOCK
 62
0
100
AcDbLine
 10
204.8315763061090
 20
33.51310693786411
 30
0.0000000000000000
 11
204.8315763061090
 21
24.26739580484306
 31
0.0000000000000000
  0
LINE
  5
1D8
100
AcDbEntity
  8
MAIN0
  6
BYBLOCK
 62
0
100
AcDbLine
 10
204.8315763061090
 20
26.26739580484306
 30
0.0000000000000000
 11
208.8315763061090
 21
26.26739580484306
 31
0.0000000000000000
  0
INSERT
  5
1D9
100
AcDbEntity
  8
MAIN0
  6
BYBLOCK
 62
0
100
AcDbBlockReference
  2
_OPEN
 10
204.8315763061090
 20
26.26739580484306
 30
0.0000000000000000
 41
2.000000000000000
 42
2.000000000000000
 43
2.000000000000000
 50
0.0000000000000000
  0
INSERT
  5
1DA
100
AcDbEntity
  8
MAIN0
  6
BYBLOCK
 62
0
100
AcDbBlockReference
  2
_DOT
 10
209.8315763061090
 20
26.26739580484306
 30
0.0000000000000000
 41
1.000000000000000
 42
1.000000000000000
 43
1.000000000000000
 50
0.0000000000000000
  0
LINE
  5
1DB
100
AcDbEntity
  8
MAIN0
  6
BYBLOCK
 62
0
100
AcDbLine
 10
202.8315763061090
 20
26.26739580484306
 30
0.0000000000000000
 11
201.8315763061090
 21
26.26739580484306
 31
0.0000000000000000
  0
LINE
  5
1DC
100
AcDbEntity
  8
MAIN0
  6
BYBLOCK
 62
0
100
AcDbLine
 10
209.8315763061090
 20
43.77151737009507
 30
0.0000000000000000
 11
209.8315763061090
 21
24.26739580484306
 31
0.0000000000000000
  0
MTEXT
  5
1DD
100
AcDbEntity
  8
MAIN0
  6
BYBLOCK
 62
0
100
AcDbMText
 10
207.3315763061090
 20
28.31739575715935
 30
0.0000000000000000
 40
3.099999904632568
 41
0.0000000000000000
 71
     5
 72
     1
  1
\A1;5
 11
1.000000000000000
 21
0.0000000000000000
 31
0.0000000000000000
  7
STANDARD
  0
ENDBLK
  5
1DE
100
AcDbEntity
  8
MAIN0
  6
CONTINUOUS
 62
3
100
AcDbBlockEnd
  0
BLOCK
  5
1E0
100
AcDbEntity
  8
MAIN0
  6
CONTINUOUS
 62
3
100
AcDbBlockBegin
  2
*D9
 70
    65
 10
0.0
 20
0.0
 30
0.0
  0
LINE
  5
1E1
100
AcDbEntity
  8
MAIN0
  6
BYBLOCK
 62
0
100
AcDbLine
 10
209.8315763061090
 20
43.77151737009507
 30
0.0000000000000000
 11
209.8315763061090
 21
24.26739580484306
 31
0.0000000000000000
  0
LINE
  5
1E2
100
AcDbEntity
  8
MAIN0
  6
BYBLOCK
 62
0
100
AcDbLine
 10
210.8315763061090
 20
26.26739580484306
 30
0.0000000000000000
 11
212.8315763061090
 21
26.26739580484306
 31
0.0000000000000000
  0
INSERT
  5
1E3
100
AcDbEntity
  8
MAIN0
  6
BYBLOCK
 62
0
100
AcDbBlockReference
  2
_DOT
 10
209.8315763061090
 20
26.26739580484306
 30
0.0000000000000000
 41
1.000000000000000
 42
1.000000000000000
 43
1.000000000000000
 50
180.0000000000000
  0
INSERT
  5
1E4
100
AcDbEntity
  8
MAIN0
  6
BYBLOCK
 62
0
100
AcDbBlockReference
  2
_OPEN
 10
212.8315763061090
 20
26.26739580484306
 30
0.0000000000000000
 41
2.000000000000000
 42
2.000000000000000
 43
2.000000000000000
 50
180.0000000000000
  0
LINE
  5
1E5
100
AcDbEntity
  8
MAIN0
  6
BYBLOCK
 62
0
100
AcDbLine
 10
214.8315763061090
 20
26.26739580484306
 30
0.0000000000000000
 11
217.2138089721246
 21
26.26739580484306
 31
0.0000000000000000
  0
LINE
  5
1E6
100
AcDbEntity
  8
MAIN0
  6
BYBLOCK
 62
0
100
AcDbLine
 10
212.8315763061090
 20
52.27151737009518
 30
0.0000000000000000
 11
212.8315763061090
 21
24.26739580484306
 31
0.0000000000000000
  0
MTEXT
  5
1E7
100
AcDbEntity
  8
MAIN0
  6
BYBLOCK
 62
0
100
AcDbMText
 10
216.1638088747982
 20
28.31739575715935
 30
0.0000000000000000
 40
3.099999904632568
 41
0.0000000000000000
 71
     5
 72
     1
  1
\A1;3
 11
1.000000000000000
 21
0.0000000000000000
 31
0.0000000000000000
  7
STANDARD
  0
ENDBLK
  5
1E8
100
AcDbEntity
  8
MAIN0
  6
CONTINUOUS
 62
3
100
AcDbBlockEnd
  0
BLOCK
  5
1EA
100
AcDbEntity
  8
MAIN0
  6
CONTINUOUS
 62
3
100
AcDbBlockBegin
  2
*D10
 70
    65
 10
0.0
 20
0.0
 30
0.0
  0
LINE
  5
1EB
100
AcDbEntity
  8
MAIN0
  6
BYBLOCK
 62
0
100
AcDbLine
 10
213.6315763180299
 20
53.07151738201611
 30
0.0000000000000000
 11
226.3101666648787
 21
53.07151738201611
 31
0.0000000000000000
  0
LINE
  5
1EC
100
AcDbEntity
  8
MAIN0
  6
BYBLOCK
 62
0
100
AcDbLine
 10
224.3101666648787
 20
55.07151738201611
 30
0.0000000000000000
 11
224.3101666648787
 21
63.07151738201611
 31
0.0000000000000000
  0
INSERT
  5
1ED
100
AcDbEntity
  8
MAIN0
  6
BYBLOCK
 62
0
100
AcDbBlockReference
  2
_OPEN
 10
224.3101666648787
 20
53.07151738201611
 30
0.0000000000000000
 41
2.000000000000000
 42
2.000000000000000
 43
2.000000000000000
 50
270.0000000000000
  0
INSERT
  5
1EE
100
AcDbEntity
  8
MAIN0
  6
BYBLOCK
 62
0
100
AcDbBlockReference
  2
_OPEN
 10
224.3101666648787
 20
65.07151738201611
 30
0.0000000000000000
 41
2.000000000000000
 42
2.000000000000000
 43
2.000000000000000
 50
90.00000000000000
  0
LINE
  5
1EF
100
AcDbEntity
  8
MAIN0
  6
BYBLOCK
 62
0
100
AcDbLine
 10
213.6315763180299
 20
65.07151738201611
 30
0.0000000000000000
 11
226.3101666648787
 21
65.07151738201611
 31
0.0000000000000000
  0
MTEXT
  5
1F0
100
AcDbEntity
  8
MAIN0
  6
BYBLOCK
 62
0
100
AcDbMText
 10
222.2601667125624
 20
59.07151738201611
 30
0.0000000000000000
 40
3.099999904632568
 41
0.0000000000000000
 71
     5
 72
     1
  1
\A1;12
 11
6.123233995736766e-017
 21
1.000000000000000
 31
0.0000000000000000
  7
STANDARD
  0
ENDBLK
  5
1F1
100
AcDbEntity
  8
MAIN0
  6
CONTINUOUS
 62
3
100
AcDbBlockEnd
  0
BLOCK
  5
1F3
100
AcDbEntity
  8
MAIN0
  6
CONTINUOUS
 62
3
100
AcDbBlockBegin
  2
*D11
 70
    65
 10
0.0
 20
0.0
 30
0.0
  0
LINE
  5
1F4
100
AcDbEntity
  8
MAIN0
  6
BYBLOCK
 62
0
100
AcDbLine
 10
208.8995255104614
 20
43.57151738201608
 30
0.0000000000000000
 11
241.3849267538756
 21
43.57151738201608
 31
0.0000000000000000
  0
LINE
  5
1F5
100
AcDbEntity
  8
MAIN0
  6
BYBLOCK
 62
0
100
AcDbLine
 10
239.3849267538756
 20
45.57151738201608
 30
0.0000000000000000
 11
239.3849267538756
 21
72.57151738201611
 31
0.0000000000000000
  0
INSERT
  5
1F6
100
AcDbEntity
  8
MAIN0
  6
BYBLOCK
 62
0
100
AcDbBlockReference
  2
_OPEN
 10
239.3849267538756
 20
43.57151738201608
 30
0.0000000000000000
 41
2.000000000000000
 42
2.000000000000000
 43
2.000000000000000
 50
270.0000000000000
  0
INSERT
  5
1F7
100
AcDbEntity
  8
MAIN0
  6
BYBLOCK
 62
0
100
AcDbBlockReference
  2
_OPEN
 10
239.3849267538756
 20
74.57151738201611
 30
0.0000000000000000
 41
2.000000000000000
 42
2.000000000000000
 43
2.000000000000000
 50
90.00000000000000
  0
LINE
  5
1F8
100
AcDbEntity
  8
MAIN0
  6
BYBLOCK
 62
0
100
AcDbLine
 10
208.8995255104615
 20
74.57151738201611
 30
0.0000000000000000
 11
241.3849267538756
 21
74.57151738201611
 31
0.0000000000000000
  0
MTEXT
  5
1F9
100
AcDbEntity
  8
MAIN0
  6
BYBLOCK
 62
0
100
AcDbMText
 10
237.3349268015593
 20
59.07151738201611
 30
0.0000000000000000
 40
3.099999904632568
 41
0.0000000000000000
 71
     5
 72
     1
  1
\A1;31
 11
1.002670741233467e-011
 21
1.000000000000000
 31
0.0000000000000000
  7
STANDARD
  0
ENDBLK
  5
1FA
100
AcDbEntity
  8
MAIN0
  6
CONTINUOUS
 62
3
100
AcDbBlockEnd
  0
BLOCK
  5
1FD
100
AcDbEntity
  8
MAIN0
  6
CONTINUOUS
 62
3
100
AcDbBlockBegin
  2
*D12
 70
    65
 10
0.0
 20
0.0
 30
0.0
  0
LINE
  5
1FE
100
AcDbEntity
  8
MAIN0
  6
BYBLOCK
 62
0
100
AcDbLine
 10
478.3750464245715
 20
214.7948982193165
 30
0.0000000000000000
 11
494.2638093546838
 21
205.6215166644798
 31
0.0000000000000000
  0
LINE
  5
1FF
100
AcDbEntity
  8
MAIN0
  6
BYBLOCK
 62
0
100
AcDbLine
 10
509.3712989392816
 20
267.3789252738142
 30
0.0000000000000000
 11
510.8116571182421
 21
267.3789252738212
 31
0.0000000000000000
  0
ARC
  5
200
100
AcDbEntity
  8
MAIN0
  6
BYBLOCK
 62
0
100
AcDbCircle
 10
387.2968398998967
 20
267.3789252738114
 30
0.0000000000000000
 40
121.5148172183454
100
AcDbArc
 50
330.9430253991989
 51
359.0569746007100
  0
INSERT
  5
201
100
AcDbEntity
  8
MAIN0
  6
BYBLOCK
 62
0
100
AcDbBlockReference
  2
_OPEN
 10
492.5317585471170
 20
206.6215166644836
 30
0.0000000000000000
 41
2.000000000000000
 42
2.000000000000000
 43
2.000000000000000
 50
239.9999999999155
  0
INSERT
  5
202
100
AcDbEntity
  8
MAIN0
  6
BYBLOCK
 62
0
100
AcDbBlockReference
  2
_OPEN
 10
508.8116571182421
 20
267.3789252737973
 30
0.0000000000000000
 41
2.000000000000000
 42
2.000000000000000
 43
2.000000000000000
 50
89.99999999999335
  0
MTEXT
  5
203
100
AcDbEntity
  8
MAIN0
  6
BYBLOCK
 62
0
100
AcDbMText
 10
502.6909922300379
 20
236.4591553455936
 30
0.0000000000000000
 40
3.099999904632568
 41
0.0000000000000000
 71
     5
 72
     1
  1
\A1;30\U+00B0
 11
0.2588190451128618
 21
0.9659258262862974
 31
0.0000000000000000
  7
STANDARD
  0
ENDBLK
  5
204
100
AcDbEntity
  8
MAIN0
  6
CONTINUOUS
 62
3
100
AcDbBlockEnd
  0
BLOCK
  5
206
100
AcDbEntity
  8
MAIN0
  6
CONTINUOUS
 62
3
100
AcDbBlockBegin
  2
*D13
 70
    65
 10
0.0
 20
0.0
 30
0.0
  0
LINE
  5
207
100
AcDbEntity
  8
MAIN0
  6
BYBLOCK
 62
0
100
AcDbLine
 10
509.3712989392816
 20
267.3789252738142
 30
0.0000000000000000
 11
510.8116571182421
 21
267.3789252738212
 31
0.0000000000000000
  0
LINE
  5
208
100
AcDbEntity
  8
MAIN0
  6
BYBLOCK
 62
0
100
AcDbLine
 10
463.9767389353025
 20
311.6500856231975
 30
0.0000000000000000
 11
494.2638093548593
 21
329.1363338828391
 31
0.0000000000000000
  0
ARC
  5
209
100
AcDbEntity
  8
MAIN0
  6
BYBLOCK
 62
0
100
AcDbCircle
 10
387.2968398998966
 20
267.3789252738114
 30
0.0000000000000000
 40
121.5148172183455
100
AcDbArc
 50
0.9430253992832766
 51
29.05697460063898
  0
INSERT
  5
20A
100
AcDbEntity
  8
MAIN0
  6
BYBLOCK
 62
0
100
AcDbBlockReference
  2
_OPEN
 10
508.8116571182421
 20
267.3789252738114
 30
0.0000000000000000
 41
2.000000000000000
 42
2.000000000000000
 43
2.000000000000000
 50
270.0000000000000
  0
INSERT
  5
20B
100
AcDbEntity
  8
MAIN0
  6
BYBLOCK
 62
0
100
AcDbBlockReference
  2
_OPEN
 10
492.5317585472890
 20
328.1363338828414
 30
0.0000000000000000
 41
2.000000000000000
 42
2.000000000000000
 43
2.000000000000000
 50
119.9999999999223
  0
MTEXT
  5
20C
100
AcDbEntity
  8
MAIN0
  6
BYBLOCK
 62
0
100
AcDbMText
 10
502.6909922300754
 20
298.2986952018890
 30
0.0000000000000000
 40
3.099999904632568
 41
0.0000000000000000
 71
     5
 72
     1
  1
\A1;30\U+00B0
 11
-0.2588190450921804
 21
0.9659258262918390
 31
0.0000000000000000
  7
STANDARD
  0
ENDBLK
  5
20D
100
AcDbEntity
  8
MAIN0
  6
CONTINUOUS
 62
3
100
AcDbBlockEnd
  0
BLOCK
  5
20F
100
AcDbEntity
  8
MAIN0
  6
CONTINUOUS
 62
3
100
AcDbBlockBegin
  2
*D14
 70
    65
 10
0.0
 20
0.0
 30
0.0
  0
LINE
  5
210
100
AcDbEntity
  8
MAIN0
  6
BYBLOCK
 62
0
100
AcDbLine
 10
463.9767389353025
 20
311.6500856231975
 30
0.0000000000000000
 11
494.2638093548593
 21
329.1363338828391
 31
0.0000000000000000
  0
LINE
  5
211
100
AcDbEntity
  8
MAIN0
  6
BYBLOCK
 62
0
100
AcDbLine
 10
460.3052340652023
 20
340.3873194390608
 30
0.0000000000000000
 11
474.6350047320393
 21
354.7170901058869
 31
0.0000000000000000
  0
ARC
  5
212
100
AcDbEntity
  8
MAIN0
  6
BYBLOCK
 62
0
100
AcDbCircle
 10
387.2968398998972
 20
267.3789252738118
 30
0.0000000000000000
 40
121.5148172183449
100
AcDbArc
 50
30.94302539920548
 51
44.05697460069477
  0
INSERT
  5
213
100
AcDbEntity
  8
MAIN0
  6
BYBLOCK
 62
0
100
AcDbBlockReference
  2
_OPEN
 10
492.5317585472891
 20
328.1363338828413
 30
0.0000000000000000
 41
2.000000000000000
 42
2.000000000000000
 43
2.000000000000000
 50
299.9999999999222
  0
INSERT
  5
214
100
AcDbEntity
  8
MAIN0
  6
BYBLOCK
 62
0
100
AcDbBlockReference
  2
_OPEN
 10
473.2207911696656
 20
353.3028765435143
 30
0.0000000000000000
 41
2.000000000000000
 42
2.000000000000000
 43
2.000000000000000
 50
134.9999999999780
  0
MTEXT
  5
215
100
AcDbEntity
  8
MAIN0
  6
BYBLOCK
 62
0
100
AcDbMText
 10
485.3274003447731
 20
342.6004199497517
 30
0.0000000000000000
 40
3.099999904632568
 41
0.0000000000000000
 71
     5
 72
     1
  1
\A1;15\U+00B0
 11
0.6087614290158924
 21
-0.7933533402857321
 31
0.0000000000000000
  7
STANDARD
  0
ENDBLK
  5
216
100
AcDbEntity
  8
MAIN0
  6
CONTINUOUS
 62
3
100
AcDbBlockEnd
  0
BLOCK
  5
218
100
AcDbEntity
  8
MAIN0
  6
CONTINUOUS
 62
3
100
AcDbBlockBegin
  2
*D15
 70
    65
 10
0.0
 20
0.0
 30
0.0
  0
LINE
  5
219
100
AcDbEntity
  8
MAIN0
  6
BYBLOCK
 62
0
100
AcDbLine
 10
460.3052340652023
 20
340.3873194390608
 30
0.0000000000000000
 11
474.6350047320393
 21
354.7170901058869
 31
0.0000000000000000
  0
LINE
  5
21A
100
AcDbEntity
  8
MAIN0
  6
BYBLOCK
 62
0
100
AcDbLine
 10
387.2968398998964
 20
385.6970722095298
 30
0.0000000000000000
 11
387.2968398998964
 21
390.8937424921567
 31
0.0000000000000000
  0
ARC
  5
21B
100
AcDbEntity
  8
MAIN0
  6
BYBLOCK
 62
0
100
AcDbCircle
 10
387.2968398998964
 20
267.3789252738109
 30
0.0000000000000000
 40
121.5148172183458
100
AcDbArc
 50
45.94302539926127
 51
89.05697460071671
  0
INSERT
  5
21C
100
AcDbEntity
  8
MAIN0
  6
BYBLOCK
 62
0
100
AcDbBlockReference
  2
_OPEN
 10
473.2207911696655
 20
353.3028765435141
 30
0.0000000000000000
 41
2.000000000000000
 42
2.000000000000000
 43
2.000000000000000
 50
314.9999999999781
  0
INSERT
  5
21D
100
AcDbEntity
  8
MAIN0
  6
BYBLOCK
 62
0
100
AcDbBlockReference
  2
_OPEN
 10
387.2968398998964
 20
388.8937424921567
 30
0.0000000000000000
 41
2.000000000000000
 42
2.000000000000000
 43
2.000000000000000
 50
180.0000000000000
  0
MTEXT
  5
21E
100
AcDbEntity
  8
MAIN0
  6
BYBLOCK
 62
0
100
AcDbMText
 10
434.5830482543379
 20
381.5379307962816
 30
0.0000000000000000
 40
3.099999904632568
 41
0.0000000000000000
 71
     5
 72
     1
  1
\A1;45\U+00B0
 11
0.9238795325150055
 21
-0.3826834323561117
 31
0.0000000000000000
  7
STANDARD
  0
ENDBLK
  5
21F
100
AcDbEntity
  8
MAIN0
  6
CONTINUOUS
 62
3
100
AcDbBlockEnd
  0
BLOCK
  5
221
100
AcDbEntity
  8
MAIN0
  6
CONTINUOUS
 62
3
100
AcDbBlockBegin
  2
*D16
 70
    65
 10
0.0
 20
0.0
 30
0.0
  0
LINE
  5
222
100
AcDbEntity
  8
MAIN0
  6
BYBLOCK
 62
0
100
AcDbLine
 10
387.2968398998964
 20
385.6970722095298
 30
0.0000000000000000
 11
387.2968398998964
 21
390.8937424921567
 31
0.0000000000000000
  0
LINE
  5
223
100
AcDbEntity
  8
MAIN0
  6
BYBLOCK
 62
0
100
AcDbLine
 10
334.9193897843452
 20
358.0993300448516
 30
0.0000000000000000
 11
325.5394312907239
 21
374.3458947286910
 31
0.0000000000000000
  0
ARC
  5
224
100
AcDbEntity
  8
MAIN0
  6
BYBLOCK
 62
0
100
AcDbCircle
 10
387.2968398998964
 20
267.3789252738118
 30
0.0000000000000000
 40
121.5148172183457
100
AcDbArc
 50
90.94302539928333
 51
119.0569746007166
  0
INSERT
  5
225
100
AcDbEntity
  8
MAIN0
  6
BYBLOCK
 62
0
100
AcDbBlockReference
  2
_OPEN
 10
387.2968398998964
 20
388.8937424921575
 30
0.0000000000000000
 41
2.000000000000000
 42
2.000000000000000
 43
2.000000000000000
 50
360.0000000000000
  0
INSERT
  5
226
100
AcDbEntity
  8
MAIN0
  6
BYBLOCK
 62
0
100
AcDbBlockReference
  2
_OPEN
 10
326.5394312907239
 20
372.6138439211220
 30
0.0000000000000000
 41
2.000000000000000
 42
2.000000000000000
 43
2.000000000000000
 50
209.9999999999999
  0
MTEXT
  5
227
100
AcDbEntity
  8
MAIN0
  6
BYBLOCK
 62
0
100
AcDbMText
 10
355.3159119115032
 20
386.7333733996371
 30
0.0000000000000000
 40
3.099999904632568
 41
0.0000000000000000
 71
     5
 72
     1
  1
\A1;30\U+00B0
 11
0.9659258262864734
 21
0.2588190451122051
 31
0.0000000000000000
  7
STANDARD
  0
ENDBLK
  5
228
100
AcDbEntity
  8
MAIN0
  6
CONTINUOUS
 62
3
100
AcDbBlockEnd
  0
BLOCK
  5
22A
100
AcDbEntity
  8
MAIN0
  6
CONTINUOUS
 62
3
100
AcDbBlockBegin
  2
*D17
 70
    65
 10
0.0
 20
0.0
 30
0.0
  0
LINE
  5
22B
100
AcDbEntity
  8
MAIN0
  6
BYBLOCK
 62
0
100
AcDbLine
 10
387.2968398998964
 20
267.3789252738114
 30
0.0000000000000000
 11
436.3382693055335
 21
287.4771391708702
 31
0.0000000000000000
  0
INSERT
  5
22C
100
AcDbEntity
  8
MAIN0
  6
BYBLOCK
 62
0
100
AcDbBlockReference
  2
_OPEN
 10
438.1888892831047
 20
288.2355623367969
 30
0.0000000000000000
 41
2.000000000000000
 42
2.000000000000000
 43
2.000000000000000
 50
22.28485484392018
  0
MTEXT
  5
22D
100
AcDbEntity
  8
MAIN0
  6
BYBLOCK
 62
0
100
AcDbMText
 10
412.2084678660927
 20
279.8047911640761
 30
0.0000000000000000
 40
3.099999904632568
 41
0.0000000000000000
 71
     5
 72
     1
  1
\A1;Ｒ55
 11
0.9253099887856032
 21
0.3792115829633727
 31
0.0000000000000000
  7
KNJYOKO
  0
ENDBLK
  5
22E
100
AcDbEntity
  8
MAIN0
  6
CONTINUOUS
 62
3
100
AcDbBlockEnd
  0
BLOCK
  5
231
100
AcDbEntity
  8
MAIN0
  6
CONTINUOUS
 62
3
100
AcDbBlockBegin
  2
*D18
 70
    65
 10
0.0
 20
0.0
 30
0.0
  0
LINE
  5
232
100
AcDbEntity
  8
MAIN0
  6
BYBLOCK
 62
0
100
AcDbLine
 10
363.7968398998964
 20
157.5857563790181
 30
0.0000000000000000
 11
363.7968398998964
 21
116.1336154998745
 31
0.0000000000000000
  0
LINE
  5
233
100
AcDbEntity
  8
MAIN0
  6
BYBLOCK
 62
0
100
AcDbLine
 10
365.7968398998964
 20
118.1336154998745
 30
0.0000000000000000
 11
408.7968398998966
 21
118.1336154998745
 31
0.0000000000000000
  0
INSERT
  5
234
100
AcDbEntity
  8
MAIN0
  6
BYBLOCK
 62
0
100
AcDbBlockReference
  2
_OPEN
 10
363.7968398998964
 20
118.1336154998745
 30
0.0000000000000000
 41
2.000000000000000
 42
2.000000000000000
 43
2.000000000000000
 50
180.0000000000000
  0
INSERT
  5
235
100
AcDbEntity
  8
MAIN0
  6
BYBLOCK
 62
0
100
AcDbBlockReference
  2
_OPEN
 10
410.7968398998966
 20
118.1336154998745
 30
0.0000000000000000
 41
2.000000000000000
 42
2.000000000000000
 43
2.000000000000000
 50
0.0000000000000000
  0
LINE
  5
236
100
AcDbEntity
  8
MAIN0
  6
BYBLOCK
 62
0
100
AcDbLine
 10
410.7968398998966
 20
157.5857563790181
 30
0.0000000000000000
 11
410.7968398998966
 21
116.1336154998745
 31
0.0000000000000000
  0
MTEXT
  5
237
100
AcDbEntity
  8
MAIN0
  6
BYBLOCK
 62
0
100
AcDbMText
 10
387.2968398998965
 20
120.1836154521908
 30
0.0000000000000000
 40
3.099999904632568
 41
0.0000000000000000
 71
     5
 72
     1
  1
\A1;47
 11
1.000000000000000
 21
0.0000000000000000
 31
0.0000000000000000
  7
STANDARD
  0
ENDBLK
  5
238
100
AcDbEntity
  8
MAIN0
  6
CONTINUOUS
 62
3
100
AcDbBlockEnd
  0
BLOCK
  5
23A
100
AcDbEntity
  8
MAIN0
  6
CONTINUOUS
 62
3
100
AcDbBlockBegin
  2
*D19
 70
    65
 10
0.0
 20
0.0
 30
0.0
  0
LINE
  5
23B
100
AcDbEntity
  8
MAIN0
  6
BYBLOCK
 62
0
100
AcDbLine
 10
347.2968398998964
 20
163.5789252618908
 30
0.0000000000000000
 11
347.2968398998965
 21
106.4091391613248
 31
0.0000000000000000
  0
LINE
  5
23C
100
AcDbEntity
  8
MAIN0
  6
BYBLOCK
 62
0
100
AcDbLine
 10
349.2968398998965
 20
108.4091391613248
 30
0.0000000000000000
 11
425.2968398998965
 21
108.4091391613248
 31
0.0000000000000000
  0
INSERT
  5
23D
100
AcDbEntity
  8
MAIN0
  6
BYBLOCK
 62
0
100
AcDbBlockReference
  2
_OPEN
 10
347.2968398998965
 20
108.4091391613248
 30
0.0000000000000000
 41
2.000000000000000
 42
2.000000000000000
 43
2.000000000000000
 50
180.0000000000000
  0
INSERT
  5
23E
100
AcDbEntity
  8
MAIN0
  6
BYBLOCK
 62
0
100
AcDbBlockReference
  2
_OPEN
 10
427.2968398998965
 20
108.4091391613248
 30
0.0000000000000000
 41
2.000000000000000
 42
2.000000000000000
 43
2.000000000000000
 50
0.0000000000000000
  0
LINE
  5
23F
100
AcDbEntity
  8
MAIN0
  6
BYBLOCK
 62
0
100
AcDbLine
 10
427.2968398998965
 20
163.5789252618909
 30
0.0000000000000000
 11
427.2968398998965
 21
106.4091391613248
 31
0.0000000000000000
  0
MTEXT
  5
240
100
AcDbEntity
  8
MAIN0
  6
BYBLOCK
 62
0
100
AcDbMText
 10
387.2968398998965
 20
110.4591391136411
 30
0.0000000000000000
 40
3.099999904632568
 41
0.0000000000000000
 71
     5
 72
     1
  1
\A1;80
 11
1.000000000000000
 21
0.0000000000000000
 31
0.0000000000000000
  7
STANDARD
  0
ENDBLK
  5
241
100
AcDbEntity
  8
MAIN0
  6
CONTINUOUS
 62
3
100
AcDbBlockEnd
  0
BLOCK
  5
243
100
AcDbEntity
  8
MAIN0
  6
CONTINUOUS
 62
3
100
AcDbBlockBegin
  2
*D20
 70
    65
 10
0.0
 20
0.0
 30
0.0
  0
LINE
  5
244
100
AcDbEntity
  8
MAIN0
  6
BYBLOCK
 62
0
100
AcDbLine
 10
372.7968398998964
 20
199.9794184225620
 30
0.0000000000000000
 11
401.7968398998964
 21
199.9794184225620
 31
0.0000000000000000
  0
INSERT
  5
245
100
AcDbEntity
  8
MAIN0
  6
BYBLOCK
 62
0
100
AcDbBlockReference
  2
_OPEN
 10
370.7968398998964
 20
199.9794184225620
 30
0.0000000000000000
 41
2.000000000000000
 42
2.000000000000000
 43
2.000000000000000
 50
180.0000000000000
  0
INSERT
  5
246
100
AcDbEntity
  8
MAIN0
  6
BYBLOCK
 62
0
100
AcDbBlockReference
  2
_OPEN
 10
403.7968398998964
 20
199.9794184225620
 30
0.0000000000000000
 41
2.000000000000000
 42
2.000000000000000
 43
2.000000000000000
 50
0.0000000000000000
  0
MTEXT
  5
247
100
AcDbEntity
  8
MAIN0
  6
BYBLOCK
 62
0
100
AcDbMText
 10
387.2968398998964
 20
202.0294183748783
 30
0.0000000000000000
 40
3.099999904632568
 41
0.0000000000000000
 71
     5
 72
     1
  1
\A1;33
 11
1.000000000000000
 21
0.0000000000000000
 31
0.0000000000000000
  7
STANDARD
  0
ENDBLK
  5
248
100
AcDbEntity
  8
MAIN0
  6
CONTINUOUS
 62
3
100
AcDbBlockEnd
  0
BLOCK
  5
24A
100
AcDbEntity
  8
MAIN0
  6
CONTINUOUS
 62
3
100
AcDbBlockBegin
  2
*D21
 70
    65
 10
0.0
 20
0.0
 30
0.0
  0
LINE
  5
24B
100
AcDbEntity
  8
MAIN0
  6
BYBLOCK
 62
0
100
AcDbLine
 10
274.3448384907495
 20
267.3789252738125
 30
0.0000000000000000
 11
268.8816073702353
 21
267.3789252738125
 31
0.0000000000000000
  0
LINE
  5
24C
100
AcDbEntity
  8
MAIN0
  6
BYBLOCK
 62
0
100
AcDbLine
 10
270.8816073702353
 20
265.3789252738125
 30
0.0000000000000000
 11
270.8816073702353
 21
166.3789252738118
 31
0.0000000000000000
  0
INSERT
  5
24D
100
AcDbEntity
  8
MAIN0
  6
BYBLOCK
 62
0
100
AcDbBlockReference
  2
_OPEN
 10
270.8816073702353
 20
267.3789252738125
 30
0.0000000000000000
 41
2.000000000000000
 42
2.000000000000000
 43
2.000000000000000
 50
90.00000000000000
  0
INSERT
  5
24E
100
AcDbEntity
  8
MAIN0
  6
BYBLOCK
 62
0
100
AcDbBlockReference
  2
_OPEN
 10
270.8816073702353
 20
164.3789252738118
 30
0.0000000000000000
 41
2.000000000000000
 42
2.000000000000000
 43
2.000000000000000
 50
270.0000000000000
  0
LINE
  5
24F
100
AcDbEntity
  8
MAIN0
  6
BYBLOCK
 62
0
100
AcDbLine
 10
346.4968398879755
 20
164.3789252738118
 30
0.0000000000000000
 11
268.8816073702353
 21
164.3789252738118
 31
0.0000000000000000
  0
MTEXT
  5
250
100
AcDbEntity
  8
MAIN0
  6
BYBLOCK
 62
0
100
AcDbMText
 10
268.8316074179190
 20
215.8789252738122
 30
0.0000000000000000
 40
3.099999904632568
 41
0.0000000000000000
 71
     5
 72
     1
  1
\A1;103
 11
2.670658493096113e-014
 21
1.000000000000000
 31
0.0000000000000000
  7
STANDARD
  0
ENDBLK
  5
251
100
AcDbEntity
  8
MAIN0
  6
CONTINUOUS
 62
3
100
AcDbBlockEnd
  0
BLOCK
  5
253
100
AcDbEntity
  8
MAIN0
  6
CONTINUOUS
 62
3
100
AcDbBlockBegin
  2
*D22
 70
    65
 10
0.0
 20
0.0
 30
0.0
  0
LINE
  5
254
100
AcDbEntity
  8
MAIN0
  6
BYBLOCK
 62
0
100
AcDbLine
 10
440.0395092606759
 20
288.9939855027237
 30
0.0000000000000000
 11
452.9938491036742
 21
294.3029476642108
 31
0.0000000000000000
  0
INSERT
  5
255
100
AcDbEntity
  8
MAIN0
  6
BYBLOCK
 62
0
100
AcDbBlockReference
  2
_OPEN
 10
438.1888892831046
 20
288.2355623367969
 30
0.0000000000000000
 41
2.000000000000000
 42
2.000000000000000
 43
2.000000000000000
 50
202.2848548439201
  0
INSERT
  5
256
100
AcDbEntity
  8
MAIN0
  6
BYBLOCK
 62
0
100
AcDbBlockReference
  2
_OPEN
 10
454.8444690812455
 20
295.0613708301376
 30
0.0000000000000000
 41
2.000000000000000
 42
2.000000000000000
 43
2.000000000000000
 50
22.28485484392008
  0
MTEXT
  5
257
100
AcDbEntity
  8
MAIN0
  6
BYBLOCK
 62
0
100
AcDbMText
 10
445.7392954551823
 20
293.5453520163555
 30
0.0000000000000000
 40
3.099999904632568
 41
0.0000000000000000
 71
     5
 72
     1
  1
\A1;18
 11
0.9253099887856050
 21
0.3792115829633684
 31
0.0000000000000000
  7
STANDARD
  0
ENDBLK
  5
258
100
AcDbEntity
  8
MAIN0
  6
CONTINUOUS
 62
3
100
AcDbBlockEnd
  0
BLOCK
  5
25A
100
AcDbEntity
  8
MAIN0
  6
CONTINUOUS
 62
3
100
AcDbBlockBegin
  2
*D23
 70
    65
 10
0.0
 20
0.0
 30
0.0
  0
LINE
  5
25B
100
AcDbEntity
  8
MAIN0
  6
BYBLOCK
 62
0
100
AcDbLine
 10
314.6722156815724
 20
213.3797219727698
 30
0.0000000000000000
 11
459.9214641182203
 21
321.3781285748530
 31
0.0000000000000000
  0
INSERT
  5
25C
100
AcDbEntity
  8
MAIN0
  6
BYBLOCK
 62
0
100
AcDbBlockReference
  2
_OPEN
 10
313.0672516104492
 20
212.1863694136308
 30
0.0000000000000000
 41
2.000000000000000
 42
2.000000000000000
 43
2.000000000000000
 50
216.6322227444805
  0
INSERT
  5
25D
100
AcDbEntity
  8
MAIN0
  6
BYBLOCK
 62
0
100
AcDbBlockReference
  2
_OPEN
 10
461.5264281893435
 20
322.5714811339921
 30
0.0000000000000000
 41
2.000000000000000
 42
2.000000000000000
 43
2.000000000000000
 50
36.63222274448052
  0
MTEXT
  5
25E
100
AcDbEntity
  8
MAIN0
  6
BYBLOCK
 62
0
100
AcDbMText
 10
436.2825027709029
 20
306.3574713848720
 30
0.0000000000000000
 40
3.099999904632568
 41
0.0000000000000000
 71
     5
 72
     1
  1
\A1;\U+2205185\H0.903226x;\U+00B10.2
 11
0.8024820355615914
 21
0.5966762795695206
 31
0.0000000000000000
  7
STANDARD
  0
ENDBLK
  5
25F
100
AcDbEntity
  8
MAIN0
  6
CONTINUOUS
 62
3
100
AcDbBlockEnd
  0
BLOCK
  5
269
100
AcDbEntity
  8
MAIN0
  6
CONTINUOUS
 62
3
100
AcDbBlockBegin
  2
*D24
 70
    65
 10
0.0
 20
0.0
 30
0.0
  0
LINE
  5
26A
100
AcDbEntity
  8
MAIN0
  6
BYBLOCK
 62
0
100
AcDbLine
 10
241.6315763180310
 20
284.1289252738129
 30
0.0000000000000000
 11
271.3315763061097
 21
284.1289252738129
 31
0.0000000000000000
  0
LINE
  5
26B
100
AcDbEntity
  8
MAIN0
  6
BYBLOCK
 62
0
100
AcDbLine
 10
269.3315763061097
 20
286.1289252738129
 30
0.0000000000000000
 11
269.3315763061097
 21
319.1289252738128
 31
0.0000000000000000
  0
INSERT
  5
26C
100
AcDbEntity
  8
MAIN0
  6
BYBLOCK
 62
0
100
AcDbBlockReference
  2
_OPEN
 10
269.3315763061097
 20
284.1289252738129
 30
0.0000000000000000
 41
2.000000000000000
 42
2.000000000000000
 43
2.000000000000000
 50
270.0000000000000
  0
INSERT
  5
26D
100
AcDbEntity
  8
MAIN0
  6
BYBLOCK
 62
0
100
AcDbBlockReference
  2
_OPEN
 10
269.3315763061097
 20
321.1289252738128
 30
0.0000000000000000
 41
2.000000000000000
 42
2.000000000000000
 43
2.000000000000000
 50
90.00000000000000
  0
LINE
  5
26E
100
AcDbEntity
  8
MAIN0
  6
BYBLOCK
 62
0
100
AcDbLine
 10
246.5106764292465
 20
321.1289252738128
 30
0.0000000000000000
 11
271.3315763061097
 21
321.1289252738128
 31
0.0000000000000000
  0
MTEXT
  5
26F
100
AcDbEntity
  8
MAIN0
  6
BYBLOCK
 62
0
100
AcDbMText
 10
267.2815763537934
 20
302.6289252738128
 30
0.0000000000000000
 40
3.099999904632568
 41
0.0000000000000000
 71
     5
 72
     1
  1
\A1;37
 11
6.123233995736766e-017
 21
1.000000000000000
 31
0.0000000000000000
  7
STANDARD
  0
ENDBLK
  5
270
100
AcDbEntity
  8
MAIN0
  6
CONTINUOUS
 62
3
100
AcDbBlockEnd
  0
BLOCK
  5
272
100
AcDbEntity
  8
MAIN0
  6
CONTINUOUS
 62
3
100
AcDbBlockBegin
  2
*D25
 70
    65
 10
0.0
 20
0.0
 30
0.0
  0
LINE
  5
273
100
AcDbEntity
  8
MAIN0
  6
BYBLOCK
 62
0
100
AcDbLine
 10
246.5106764292465
 20
321.1289252738128
 30
0.0000000000000000
 11
271.3315763061097
 21
321.1289252738128
 31
0.0000000000000000
  0
LINE
  5
274
100
AcDbEntity
  8
MAIN0
  6
BYBLOCK
 62
0
100
AcDbLine
 10
269.3315763061097
 20
323.1289252738128
 30
0.0000000000000000
 11
269.3315763061097
 21
339.1289252738128
 31
0.0000000000000000
  0
INSERT
  5
275
100
AcDbEntity
  8
MAIN0
  6
BYBLOCK
 62
0
100
AcDbBlockReference
  2
_OPEN
 10
269.3315763061097
 20
321.1289252738128
 30
0.0000000000000000
 41
2.000000000000000
 42
2.000000000000000
 43
2.000000000000000
 50
270.0000000000000
  0
INSERT
  5
276
100
AcDbEntity
  8
MAIN0
  6
BYBLOCK
 62
0
100
AcDbBlockReference
  2
_OPEN
 10
269.3315763061097
 20
341.1289252738128
 30
0.0000000000000000
 41
2.000000000000000
 42
2.000000000000000
 43
2.000000000000000
 50
90.00000000000000
  0
LINE
  5
277
100
AcDbEntity
  8
MAIN0
  6
BYBLOCK
 62
0
100
AcDbLine
 10
246.5106764292465
 20
341.1289252738128
 30
0.0000000000000000
 11
271.3315763061097
 21
341.1289252738128
 31
0.0000000000000000
  0
MTEXT
  5
278
100
AcDbEntity
  8
MAIN0
  6
BYBLOCK
 62
0
100
AcDbMText
 10
267.2815763537934
 20
331.1289252738128
 30
0.0000000000000000
 40
3.099999904632568
 41
0.0000000000000000
 71
     5
 72
     1
  1
\A1;20
 11
6.123233995736766e-017
 21
1.000000000000000
 31
0.0000000000000000
  7
STANDARD
  0
ENDBLK
  5
279
100
AcDbEntity
  8
MAIN0
  6
CONTINUOUS
 62
3
100
AcDbBlockEnd
  0
BLOCK
  5
27B
100
AcDbEntity
  8
MAIN0
  6
CONTINUOUS
 62
3
100
AcDbBlockBegin
  2
*D26
 70
    65
 10
0.0
 20
0.0
 30
0.0
  0
LINE
  5
27C
100
AcDbEntity
  8
MAIN0
  6
BYBLOCK
 62
0
100
AcDbLine
 10
241.6315763180317
 20
356.1289252738129
 30
0.0000000000000000
 11
281.3315763061097
 21
356.1289252738129
 31
0.0000000000000000
  0
LINE
  5
27D
100
AcDbEntity
  8
MAIN0
  6
BYBLOCK
 62
0
100
AcDbLine
 10
279.3315763061097
 20
354.1289252738129
 30
0.0000000000000000
 11
279.3315763061097
 21
286.1289252738129
 31
0.0000000000000000
  0
INSERT
  5
27E
100
AcDbEntity
  8
MAIN0
  6
BYBLOCK
 62
0
100
AcDbBlockReference
  2
_OPEN
 10
279.3315763061097
 20
356.1289252738129
 30
0.0000000000000000
 41
2.000000000000000
 42
2.000000000000000
 43
2.000000000000000
 50
90.00000000000000
  0
INSERT
  5
27F
100
AcDbEntity
  8
MAIN0
  6
BYBLOCK
 62
0
100
AcDbBlockReference
  2
_OPEN
 10
279.3315763061097
 20
284.1289252738129
 30
0.0000000000000000
 41
2.000000000000000
 42
2.000000000000000
 43
2.000000000000000
 50
270.0000000000000
  0
LINE
  5
280
100
AcDbEntity
  8
MAIN0
  6
BYBLOCK
 62
0
100
AcDbLine
 10
241.6315763180310
 20
284.1289252738129
 30
0.0000000000000000
 11
281.3315763061097
 21
284.1289252738129
 31
0.0000000000000000
  0
MTEXT
  5
281
100
AcDbEntity
  8
MAIN0
  6
BYBLOCK
 62
0
100
AcDbMText
 10
277.2815763537934
 20
320.1289252738129
 30
0.0000000000000000
 40
3.099999904632568
 41
0.0000000000000000
 71
     5
 72
     1
  1
\A1;72
 11
6.123233995736766e-017
 21
1.000000000000000
 31
0.0000000000000000
  7
STANDARD
  0
ENDBLK
  5
282
100
AcDbEntity
  8
MAIN0
  6
CONTINUOUS
 62
3
100
AcDbBlockEnd
  0
BLOCK
  5
284
100
AcDbEntity
  8
MAIN0
  6
CONTINUOUS
 62
3
100
AcDbBlockBegin
  2
*D27
 70
    65
 10
0.0
 20
0.0
 30
0.0
  0
LINE
  5
285
100
AcDbEntity
  8
MAIN0
  6
BYBLOCK
 62
0
100
AcDbLine
 10
109.8315763061101
 20
369.6789252857351
 30
0.0000000000000000
 11
109.8315763061101
 21
391.7265519961644
 31
0.0000000000000000
  0
LINE
  5
286
100
AcDbEntity
  8
MAIN0
  6
BYBLOCK
 62
0
100
AcDbLine
 10
111.8315763061101
 20
389.7265519961644
 30
0.0000000000000000
 11
238.8315763061108
 21
389.7265519961644
 31
0.0000000000000000
  0
INSERT
  5
287
100
AcDbEntity
  8
MAIN0
  6
BYBLOCK
 62
0
100
AcDbBlockReference
  2
_OPEN
 10
109.8315763061101
 20
389.7265519961644
 30
0.0000000000000000
 41
2.000000000000000
 42
2.000000000000000
 43
2.000000000000000
 50
180.0000000000000
  0
INSERT
  5
288
100
AcDbEntity
  8
MAIN0
  6
BYBLOCK
 62
0
100
AcDbBlockReference
  2
_OPEN
 10
240.8315763061108
 20
389.7265519961644
 30
0.0000000000000000
 41
2.000000000000000
 42
2.000000000000000
 43
2.000000000000000
 50
0.0000000000000000
  0
LINE
  5
289
100
AcDbEntity
  8
MAIN0
  6
BYBLOCK
 62
0
100
AcDbLine
 10
240.8315763061108
 20
356.9289252857338
 30
0.0000000000000000
 11
240.8315763061108
 21
391.7265519961644
 31
0.0000000000000000
  0
MTEXT
  5
28A
100
AcDbEntity
  8
MAIN0
  6
BYBLOCK
 62
0
100
AcDbMText
 10
175.3315763061104
 20
391.7765519484807
 30
0.0000000000000000
 40
3.099999904632568
 41
0.0000000000000000
 71
     5
 72
     1
  1
\A1;131
 11
1.000000000000000
 21
0.0000000000000000
 31
0.0000000000000000
  7
STANDARD
  0
ENDBLK
  5
28B
100
AcDbEntity
  8
MAIN0
  6
CONTINUOUS
 62
3
100
AcDbBlockEnd
  0
BLOCK
  5
29B
100
AcDbEntity
  8
MAIN0
  6
CONTINUOUS
 62
3
100
AcDbBlockBegin
  2
*D28
 70
    65
 10
0.0
 20
0.0
 30
0.0
  0
LINE
  5
29C
100
AcDbEntity
  8
MAIN0
  6
BYBLOCK
 62
0
100
AcDbLine
 10
109.5315762941891
 20
254.8789252738141
 30
0.0000000000000000
 11
84.74347069610968
 21
254.8789252738131
 31
0.0000000000000000
  0
LINE
  5
29D
100
AcDbEntity
  8
MAIN0
  6
BYBLOCK
 62
0
100
AcDbLine
 10
86.74347069610968
 20
256.8789252738132
 30
0.0000000000000000
 11
86.74347069610968
 21
277.8789252738132
 31
0.0000000000000000
  0
INSERT
  5
29E
100
AcDbEntity
  8
MAIN0
  6
BYBLOCK
 62
0
100
AcDbBlockReference
  2
_OPEN
 10
86.74347069610968
 20
254.8789252738132
 30
0.0000000000000000
 41
2.000000000000000
 42
2.000000000000000
 43
2.000000000000000
 50
270.0000000000000
  0
INSERT
  5
29F
100
AcDbEntity
  8
MAIN0
  6
BYBLOCK
 62
0
100
AcDbBlockReference
  2
_OPEN
 10
86.74347069610968
 20
279.8789252738132
 30
0.0000000000000000
 41
2.000000000000000
 42
2.000000000000000
 43
2.000000000000000
 50
90.00000000000000
  0
LINE
  5
2A0
100
AcDbEntity
  8
MAIN0
  6
BYBLOCK
 62
0
100
AcDbLine
 10
109.5315762941881
 20
279.8789252738141
 30
0.0000000000000000
 11
84.74347069610968
 21
279.8789252738131
 31
0.0000000000000000
  0
MTEXT
  5
2A1
100
AcDbEntity
  8
MAIN0
  6
BYBLOCK
 62
0
100
AcDbMText
 10
84.69347074379340
 20
267.3789252738132
 30
0.0000000000000000
 40
3.099999904632568
 41
0.0000000000000000
 71
     5
 72
     1
  1
\A1;\U+220525H7
 11
1.002670741233467e-011
 21
1.000000000000000
 31
0.0000000000000000
  7
STANDARD
  0
ENDBLK
  5
2A2
100
AcDbEntity
  8
MAIN0
  6
CONTINUOUS
 62
3
100
AcDbBlockEnd
  0
BLOCK
  5
2B0
100
AcDbEntity
  8
MAIN0
  6
CONTINUOUS
 62
3
100
AcDbBlockBegin
  2
*D29
 70
    65
 10
0.0
 20
0.0
 30
0.0
  0
LINE
  5
2B1
100
AcDbEntity
  8
MAIN0
  6
BYBLOCK
 62
0
100
AcDbLine
 10
124.8315763061080
 20
163.5789252618931
 30
0.0000000000000000
 11
124.8315763061080
 21
86.15034020111602
 31
0.0000000000000000
  0
LINE
  5
2B2
100
AcDbEntity
  8
MAIN0
  6
BYBLOCK
 62
0
100
AcDbLine
 10
126.8315763061080
 20
88.15034020111602
 30
0.0000000000000000
 11
167.8315763061077
 21
88.15034020111602
 31
0.0000000000000000
  0
INSERT
  5
2B3
100
AcDbEntity
  8
MAIN0
  6
BYBLOCK
 62
0
100
AcDbBlockReference
  2
_OPEN
 10
124.8315763061080
 20
88.15034020111602
 30
0.0000000000000000
 41
2.000000000000000
 42
2.000000000000000
 43
2.000000000000000
 50
180.0000000000000
  0
INSERT
  5
2B4
100
AcDbEntity
  8
MAIN0
  6
BYBLOCK
 62
0
100
AcDbBlockReference
  2
_OPEN
 10
169.8315763061077
 20
88.15034020111602
 30
0.0000000000000000
 41
2.000000000000000
 42
2.000000000000000
 43
2.000000000000000
 50
0.0000000000000000
  0
LINE
  5
2B5
100
AcDbEntity
  8
MAIN0
  6
BYBLOCK
 62
0
100
AcDbLine
 10
169.8315763061077
 20
129.0789252618927
 30
0.0000000000000000
 11
169.8315763061077
 21
86.15034020111602
 31
0.0000000000000000
  0
MTEXT
  5
2B6
100
AcDbEntity
  8
MAIN0
  6
BYBLOCK
 62
0
100
AcDbMText
 10
147.3315763061079
 20
90.20034015343231
 30
0.0000000000000000
 40
3.099999904632568
 41
0.0000000000000000
 71
     5
 72
     1
  1
\A1;（45）
 11
1.000000000000000
 21
0.0000000000000000
 31
0.0000000000000000
  7
KNJYOKO
  0
ENDBLK
  5
2B7
100
AcDbEntity
  8
MAIN0
  6
CONTINUOUS
 62
3
100
AcDbBlockEnd
  0
BLOCK
  5
2BA
100
AcDbEntity
  8
MAIN0
  6
CONTINUOUS
 62
3
100
AcDbBlockBegin
  2
*D30
 70
    65
 10
0.0
 20
0.0
 30
0.0
  0
LINE
  5
2BB
100
AcDbEntity
  8
MAIN0
  6
BYBLOCK
 62
0
100
AcDbLine
 10
170.6315763180286
 20
129.3789252738136
 30
0.0000000000000000
 11
186.6815236626264
 21
129.3789252738136
 31
0.0000000000000000
  0
LINE
  5
2BC
100
AcDbEntity
  8
MAIN0
  6
BYBLOCK
 62
0
100
AcDbLine
 10
184.6815236626264
 20
131.3789252738136
 30
0.0000000000000000
 11
184.6815236626264
 21
182.3789252738136
 31
0.0000000000000000
  0
INSERT
  5
2BD
100
AcDbEntity
  8
MAIN0
  6
BYBLOCK
 62
0
100
AcDbBlockReference
  2
_OPEN
 10
184.6815236626264
 20
129.3789252738136
 30
0.0000000000000000
 41
2.000000000000000
 42
2.000000000000000
 43
2.000000000000000
 50
270.0000000000000
  0
INSERT
  5
2BE
100
AcDbEntity
  8
MAIN0
  6
BYBLOCK
 62
0
100
AcDbBlockReference
  2
_OPEN
 10
184.6815236626264
 20
184.3789252738136
 30
0.0000000000000000
 41
2.000000000000000
 42
2.000000000000000
 43
2.000000000000000
 50
90.00000000000000
  0
LINE
  5
2BF
100
AcDbEntity
  8
MAIN0
  6
BYBLOCK
 62
0
100
AcDbLine
 10
170.6315763180292
 20
184.3789252738136
 30
0.0000000000000000
 11
186.6815236626264
 21
184.3789252738136
 31
0.0000000000000000
  0
MTEXT
  5
2C0
100
AcDbEntity
  8
MAIN0
  6
BYBLOCK
 62
0
100
AcDbMText
 10
182.6315237103102
 20
156.8789252738136
 30
0.0000000000000000
 40
3.099999904632568
 41
0.0000000000000000
 71
     5
 72
     1
  1
\A1;（55）
 11
1.002670741233467e-011
 21
1.000000000000000
 31
0.0000000000000000
  7
KNJYOKO
  0
ENDBLK
  5
2C1
100
AcDbEntity
  8
MAIN0
  6
CONTINUOUS
 62
3
100
AcDbBlockEnd
  0
BLOCK
  5
2C9
100
AcDbEntity
  8
MAIN0
  6
CONTINUOUS
 62
3
100
AcDbBlockBegin
  2
*D31
 70
    65
 10
0.0
 20
0.0
 30
0.0
  0
LINE
  5
2CA
100
AcDbEntity
  8
MAIN0
  6
BYBLOCK
 62
0
100
AcDbLine
 10
109.8315763061089
 20
240.1862246659144
 30
0.0000000000000000
 11
114.9315763061093
 21
240.1862246659144
 31
0.0000000000000000
  0
INSERT
  5
2CB
100
AcDbEntity
  8
MAIN0
  6
BYBLOCK
 62
0
100
AcDbBlockReference
  2
_OPEN
 10
109.8315763061089
 20
240.1862246659144
 30
0.0000000000000000
 41
2.000000000000000
 42
2.000000000000000
 43
2.000000000000000
 50
0.0000000000000000
  0
INSERT
  5
2CC
100
AcDbEntity
  8
MAIN0
  6
BYBLOCK
 62
0
100
AcDbBlockReference
  2
_OPEN
 10
114.9315763061093
 20
240.1862246659144
 30
0.0000000000000000
 41
2.000000000000000
 42
2.000000000000000
 43
2.000000000000000
 50
180.0000000000000
  0
LINE
  5
2CD
100
AcDbEntity
  8
MAIN0
  6
BYBLOCK
 62
0
100
AcDbLine
 10
107.8315763061089
 20
240.1862246659144
 30
0.0000000000000000
 11
106.8315763061089
 21
240.1862246659144
 31
0.0000000000000000
  0
LINE
  5
2CE
100
AcDbEntity
  8
MAIN0
  6
BYBLOCK
 62
0
100
AcDbLine
 10
116.9315763061093
 20
240.1862246659144
 30
0.0000000000000000
 11
124.1847777907894
 21
240.1862246659144
 31
0.0000000000000000
  0
LINE
  5
2CF
100
AcDbEntity
  8
MAIN0
  6
BYBLOCK
 62
0
100
AcDbLine
 10
114.9315763061093
 20
254.5408054772462
 30
0.0000000000000000
 11
114.9315763061093
 21
238.1862246659144
 31
0.0000000000000000
  0
MTEXT
  5
2D0
100
AcDbEntity
  8
MAIN0
  6
BYBLOCK
 62
0
100
AcDbMText
 10
121.0347779410197
 20
242.2362246182307
 30
0.0000000000000000
 40
3.099999904632568
 41
0.0000000000000000
 71
     5
 72
     1
  1
\A1;5.1
 11
1.000000000000000
 21
0.0000000000000000
 31
0.0000000000000000
  7
STANDARD
  0
ENDBLK
  5
2D1
100
AcDbEntity
  8
MAIN0
  6
CONTINUOUS
 62
3
100
AcDbBlockEnd
  0
BLOCK
  5
2D9
100
AcDbEntity
  8
MAIN0
  6
CONTINUOUS
 62
3
100
AcDbBlockBegin
  2
D32
 70
    64
 10
0.0
 20
0.0
 30
0.0
  0
LINE
  5
2DA
100
AcDbEntity
  8
MAIN0
  6
BYBLOCK
 62
0
100
AcDbLine
 10
-21.56450022570535
 20
-44.87866222207107
 30
0.0000000000000000
 11
-21.56450022570571
 21
-82.49999999999976
 31
0.0000000000000000
  0
LINE
  5
2DB
100
AcDbEntity
  8
MAIN0
  6
BYBLOCK
 62
0
100
AcDbLine
 10
-20.96450020186384
 20
-80.49999999999976
 30
0.0000000000000000
 11
-21.56450022570571
 21
-82.49999999999976
 31
0.0000000000000000
  0
LINE
  5
2DC
100
AcDbEntity
  8
MAIN0
  6
BYBLOCK
 62
0
100
AcDbLine
 10
-21.56450022570571
 20
-82.49999999999976
 30
0.0000000000000000
 11
-22.16450024954755
 21
-80.49999999999976
 31
0.0000000000000000
  0
LINE
  5
2DD
100
AcDbEntity
  8
MAIN0
  6
BYBLOCK
 62
0
100
AcDbLine
 10
-54.57828269777647
 20
-82.49999999999943
 30
0.0000000000000000
 11
-19.56450022570573
 21
-82.49999999999977
 31
0.0000000000000000
  0
MTEXT
  5
2DE
100
AcDbEntity
  8
MAIN0
  6
BYBLOCK
 62
0
100
AcDbMText
 10
-23.61450017802169
 20
-51.32866222505128
 30
0.0000000000000000
 40
3.099999904632568
 41
0.0000000000000000
 71
     5
 72
     1
  1
\A1;\U+2205165
 11
6.123233995736766e-017
 21
1.000000000000000
 31
0.0000000000000000
  7
STANDARD
  0
ENDBLK
  5
2DF
100
AcDbEntity
  8
MAIN0
  6
CONTINUOUS
 62
3
100
AcDbBlockEnd
  0
BLOCK
  5
2F1
100
AcDbEntity
  8
MAIN0
  6
CONTINUOUS
 62
3
100
AcDbBlockBegin
  2
*D33
 70
    65
 10
0.0
 20
0.0
 30
0.0
  0
LINE
  5
2F2
100
AcDbEntity
  8
MAIN0
  6
BYBLOCK
 62
0
100
AcDbLine
 10
404.7968398998964
 20
296.0916404340378
 30
0.0000000000000000
 11
404.7968398998964
 21
285.6399811534911
 31
0.0000000000000000
  0
LINE
  5
2F3
100
AcDbEntity
  8
MAIN0
  6
BYBLOCK
 62
0
100
AcDbLine
 10
402.7968398998964
 20
287.6399811534911
 30
0.0000000000000000
 11
371.7968398998964
 21
287.6399811534911
 31
0.0000000000000000
  0
INSERT
  5
2F4
100
AcDbEntity
  8
MAIN0
  6
BYBLOCK
 62
0
100
AcDbBlockReference
  2
_OPEN
 10
404.7968398998964
 20
287.6399811534911
 30
0.0000000000000000
 41
2.000000000000000
 42
2.000000000000000
 43
2.000000000000000
 50
360.0000000000000
  0
INSERT
  5
2F5
100
AcDbEntity
  8
MAIN0
  6
BYBLOCK
 62
0
100
AcDbBlockReference
  2
_OPEN
 10
369.7968398998964
 20
287.6399811534911
 30
0.0000000000000000
 41
2.000000000000000
 42
2.000000000000000
 43
2.000000000000000
 50
180.0000000000000
  0
LINE
  5
2F6
100
AcDbEntity
  8
MAIN0
  6
BYBLOCK
 62
0
100
AcDbLine
 10
369.7968398998964
 20
296.0916404340377
 30
0.0000000000000000
 11
369.7968398998964
 21
285.6399811534911
 31
0.0000000000000000
  0
MTEXT
  5
2F7
100
AcDbEntity
  8
MAIN0
  6
BYBLOCK
 62
0
100
AcDbMText
 10
387.2968398998964
 20
289.6899811058074
 30
0.0000000000000000
 40
3.099999904632568
 41
0.0000000000000000
 71
     5
 72
     1
  1
\A1;35
 11
1.000000000000000
 21
0.0000000000000000
 31
0.0000000000000000
  7
STANDARD
  0
ENDBLK
  5
2F8
100
AcDbEntity
  8
MAIN0
  6
CONTINUOUS
 62
3
100
AcDbBlockEnd
  0
BLOCK
  5
2FB
100
AcDbEntity
  8
MAIN0
  6
CONTINUOUS
 62
3
100
AcDbBlockBegin
  2
D34
 70
    64
 10
0.0
 20
0.0
 30
0.0
  0
LINE
  5
2FC
100
AcDbEntity
  8
MAIN0
  6
BYBLOCK
 62
0
100
AcDbLine
 10
-43.70393224310378
 20
-23.96589122516048
 30
0.0000000000000000
 11
-43.70393224310402
 21
-48.00000000001039
 31
0.0000000000000000
  0
LINE
  5
2FD
100
AcDbEntity
  8
MAIN0
  6
BYBLOCK
 62
0
100
AcDbLine
 10
-43.10393221926214
 20
-46.00000000001040
 30
0.0000000000000000
 11
-43.70393224310402
 21
-48.00000000001039
 31
0.0000000000000000
  0
LINE
  5
2FE
100
AcDbEntity
  8
MAIN0
  6
BYBLOCK
 62
0
100
AcDbLine
 10
-43.70393224310402
 20
-48.00000000001039
 30
0.0000000000000000
 11
-44.30393226694586
 21
-46.00000000001038
 31
0.0000000000000000
  0
LINE
  5
2FF
100
AcDbEntity
  8
MAIN0
  6
BYBLOCK
 62
0
100
AcDbLine
 10
-51.97828269777590
 20
-48.00000000001031
 30
0.0000000000000000
 11
-41.70393224310402
 21
-48.00000000001040
 31
0.0000000000000000
  0
MTEXT
  5
300
100
AcDbEntity
  8
MAIN0
  6
BYBLOCK
 62
0
100
AcDbMText
 10
-45.75393219542012
 20
-29.36589122739565
 30
0.0000000000000000
 40
3.099999904632568
 41
0.0000000000000000
 71
     5
 72
     1
  1
\A1;\U+220596
 11
6.123233995736766e-017
 21
1.000000000000000
 31
0.0000000000000000
  7
STANDARD
  0
ENDBLK
  5
301
100
AcDbEntity
  8
MAIN0
  6
CONTINUOUS
 62
3
100
AcDbBlockEnd
  0
BLOCK
  5
303
100
AcDbEntity
  8
MAIN0
  6
CONTINUOUS
 62
3
100
AcDbBlockBegin
  2
*D35
 70
    65
 10
0.0
 20
0.0
 30
0.0
  0
LINE
  5
304
100
AcDbEntity
  8
MAIN0
  6
BYBLOCK
 62
0
100
AcDbLine
 10
204.8315763061094
 20
209.9531308169095
 30
0.0000000000000000
 11
205.8315763061088
 21
209.9531308169095
 31
0.0000000000000000
  0
INSERT
  5
305
100
AcDbEntity
  8
MAIN0
  6
BYBLOCK
 62
0
100
AcDbBlockReference
  2
_OPEN
 10
204.8315763061094
 20
209.9531308169095
 30
0.0000000000000000
 41
2.000000000000000
 42
2.000000000000000
 43
2.000000000000000
 50
0.0000000000000000
  0
INSERT
  5
306
100
AcDbEntity
  8
MAIN0
  6
BYBLOCK
 62
0
100
AcDbBlockReference
  2
_OPEN
 10
205.8315763061088
 20
209.9531308169095
 30
0.0000000000000000
 41
2.000000000000000
 42
2.000000000000000
 43
2.000000000000000
 50
180.0000000000000
  0
LINE
  5
307
100
AcDbEntity
  8
MAIN0
  6
BYBLOCK
 62
0
100
AcDbLine
 10
202.8315763061094
 20
209.9531308169095
 30
0.0000000000000000
 11
201.8315763061094
 21
209.9531308169095
 31
0.0000000000000000
  0
LINE
  5
308
100
AcDbEntity
  8
MAIN0
  6
BYBLOCK
 62
0
100
AcDbLine
 10
207.8315763061088
 20
209.9531308169095
 30
0.0000000000000000
 11
213.1251506392998
 21
209.9531308169095
 31
0.0000000000000000
  0
LINE
  5
309
100
AcDbEntity
  8
MAIN0
  6
BYBLOCK
 62
0
100
AcDbLine
 10
205.8315763061088
 20
218.5789252618815
 30
0.0000000000000000
 11
205.8315763061088
 21
207.9531308169095
 31
0.0000000000000000
  0
MTEXT
  5
30A
100
AcDbEntity
  8
MAIN0
  6
BYBLOCK
 62
0
100
AcDbMText
 10
210.4751506659135
 20
212.0031307692258
 30
0.0000000000000000
 40
3.099999904632568
 41
0.0000000000000000
 71
     5
 72
     1
  1
\A1;0.1
 11
1.000000000000000
 21
0.0000000000000000
 31
0.0000000000000000
  7
STANDARD
  0
ENDBLK
  5
30B
100
AcDbEntity
  8
MAIN0
  6
CONTINUOUS
 62
3
100
AcDbBlockEnd
  0
BLOCK
  5
30D
100
AcDbEntity
  8
MAIN0
  6
CONTINUOUS
 62
3
100
AcDbBlockBegin
  2
*D36
 70
    65
 10
0.0
 20
0.0
 30
0.0
  0
LINE
  5
30E
100
AcDbEntity
  8
MAIN0
  6
BYBLOCK
 62
0
100
AcDbLine
 10
204.9315763061094
 20
286.9762102718288
 30
0.0000000000000000
 11
206.9315763061097
 21
286.9762102718288
 31
0.0000000000000000
  0
INSERT
  5
30F
100
AcDbEntity
  8
MAIN0
  6
BYBLOCK
 62
0
100
AcDbBlockReference
  2
_OPEN
 10
204.9315763061094
 20
286.9762102718288
 30
0.0000000000000000
 41
2.000000000000000
 42
2.000000000000000
 43
2.000000000000000
 50
0.0000000000000000
  0
INSERT
  5
310
100
AcDbEntity
  8
MAIN0
  6
BYBLOCK
 62
0
100
AcDbBlockReference
  2
_OPEN
 10
206.9315763061097
 20
286.9762102718288
 30
0.0000000000000000
 41
2.000000000000000
 42
2.000000000000000
 43
2.000000000000000
 50
180.0000000000000
  0
LINE
  5
311
100
AcDbEntity
  8
MAIN0
  6
BYBLOCK
 62
0
100
AcDbLine
 10
202.9315763061094
 20
286.9762102718288
 30
0.0000000000000000
 11
199.8802691047239
 21
286.9762102718288
 31
0.0000000000000000
  0
LINE
  5
312
100
AcDbEntity
  8
MAIN0
  6
BYBLOCK
 62
0
100
AcDbLine
 10
208.9315763061097
 20
286.9762102718288
 30
0.0000000000000000
 11
209.9315763061097
 21
286.9762102718288
 31
0.0000000000000000
  0
LINE
  5
313
100
AcDbEntity
  8
MAIN0
  6
BYBLOCK
 62
0
100
AcDbLine
 10
206.9315763061097
 20
295.9789252618922
 30
0.0000000000000000
 11
206.9315763061097
 21
284.9762102718288
 31
0.0000000000000000
  0
MTEXT
  5
314
100
AcDbEntity
  8
MAIN0
  6
BYBLOCK
 62
0
100
AcDbMText
 10
200.9302690898290
 20
289.0262102241451
 30
0.0000000000000000
 40
3.099999904632568
 41
0.0000000000000000
 71
     5
 72
     1
  1
\A1;2
 11
1.000000000000000
 21
0.0000000000000000
 31
0.0000000000000000
  7
STANDARD
  0
ENDBLK
  5
315
100
AcDbEntity
  8
MAIN0
  6
CONTINUOUS
 62
3
100
AcDbBlockEnd
  0
BLOCK
  5
317
100
AcDbEntity
  8
MAIN0
  6
CONTINUOUS
 62
3
100
AcDbBlockBegin
  2
*D37
 70
    65
 10
0.0
 20
0.0
 30
0.0
  0
LINE
  5
318
100
AcDbEntity
  8
MAIN0
  6
BYBLOCK
 62
0
100
AcDbLine
 10
204.1315762941887
 20
311.7789252738132
 30
0.0000000000000000
 11
186.1400099713991
 21
311.7789252738132
 31
0.0000000000000000
  0
LINE
  5
319
100
AcDbEntity
  8
MAIN0
  6
BYBLOCK
 62
0
100
AcDbLine
 10
188.1400099713991
 20
309.7789252738132
 30
0.0000000000000000
 11
188.1400099713991
 21
298.7789252738131
 31
0.0000000000000000
  0
INSERT
  5
31A
100
AcDbEntity
  8
MAIN0
  6
BYBLOCK
 62
0
100
AcDbBlockReference
  2
_OPEN
 10
188.1400099713991
 20
311.7789252738132
 30
0.0000000000000000
 41
2.000000000000000
 42
2.000000000000000
 43
2.000000000000000
 50
90.00000000000000
  0
INSERT
  5
31B
100
AcDbEntity
  8
MAIN0
  6
BYBLOCK
 62
0
100
AcDbBlockReference
  2
_OPEN
 10
188.1400099713991
 20
296.7789252738131
 30
0.0000000000000000
 41
2.000000000000000
 42
2.000000000000000
 43
2.000000000000000
 50
270.0000000000000
  0
LINE
  5
31C
100
AcDbEntity
  8
MAIN0
  6
BYBLOCK
 62
0
100
AcDbLine
 10
204.1315762941887
 20
296.7789252738132
 30
0.0000000000000000
 11
186.1400099713991
 21
296.7789252738131
 31
0.0000000000000000
  0
MTEXT
  5
31D
100
AcDbEntity
  8
MAIN0
  6
BYBLOCK
 62
0
100
AcDbMText
 10
186.0900100190829
 20
304.2789252738131
 30
0.0000000000000000
 40
3.099999904632568
 41
0.0000000000000000
 71
     5
 72
     1
  1
\A1;15
 11
6.123233995736766e-017
 21
1.000000000000000
 31
0.0000000000000000
  7
STANDARD
  0
ENDBLK
  5
31E
100
AcDbEntity
  8
MAIN0
  6
CONTINUOUS
 62
3
100
AcDbBlockEnd
  0
BLOCK
  5
320
100
AcDbEntity
  8
MAIN0
  6
CONTINUOUS
 62
3
100
AcDbBlockBegin
  2
*D38
 70
    65
 10
0.0
 20
0.0
 30
0.0
  0
LINE
  5
321
100
AcDbEntity
  8
MAIN0
  6
BYBLOCK
 62
0
100
AcDbLine
 10
204.1315762941887
 20
296.7789252738132
 30
0.0000000000000000
 11
186.1400099713991
 21
296.7789252738132
 31
0.0000000000000000
  0
LINE
  5
322
100
AcDbEntity
  8
MAIN0
  6
BYBLOCK
 62
0
100
AcDbLine
 10
188.1400099713991
 20
294.7789252738132
 30
0.0000000000000000
 11
188.1400099713991
 21
269.3789252738134
 31
0.0000000000000000
  0
INSERT
  5
323
100
AcDbEntity
  8
MAIN0
  6
BYBLOCK
 62
0
100
AcDbBlockReference
  2
_OPEN
 10
188.1400099713991
 20
296.7789252738132
 30
0.0000000000000000
 41
2.000000000000000
 42
2.000000000000000
 43
2.000000000000000
 50
90.00000000000000
  0
INSERT
  5
324
100
AcDbEntity
  8
MAIN0
  6
BYBLOCK
 62
0
100
AcDbBlockReference
  2
_OPEN
 10
188.1400099713991
 20
267.3789252738134
 30
0.0000000000000000
 41
2.000000000000000
 42
2.000000000000000
 43
2.000000000000000
 50
270.0000000000000
  0
LINE
  5
325
100
AcDbEntity
  8
MAIN0
  6
BYBLOCK
 62
0
100
AcDbLine
 10
188.1400099713991
 20
267.3789252738134
 30
0.0000000000000000
 11
188.1400099713991
 21
232.7438811759130
 31
0.0000000000000000
  0
MTEXT
  5
326
100
AcDbEntity
  8
MAIN0
  6
BYBLOCK
 62
0
100
AcDbMText
 10
186.0900100190829
 20
240.6438803925245
 30
0.0000000000000000
 40
3.099999904632568
 41
0.0000000000000000
 71
     5
 72
     1
  1
\A1;MAX 29.4
 11
6.123233995736766e-017
 21
1.000000000000000
 31
0.0000000000000000
  7
STANDARD
  0
ENDBLK
  5
327
100
AcDbEntity
  8
MAIN0
  6
CONTINUOUS
 62
3
100
AcDbBlockEnd
  0
BLOCK
  5
33F
100
AcDbEntity
  8
MAIN0
  6
CONTINUOUS
 62
3
100
AcDbBlockBegin
  2
*D39
 70
    65
 10
0.0
 20
0.0
 30
0.0
  0
LINE
  5
340
100
AcDbEntity
  8
MAIN0
  6
BYBLOCK
 62
0
100
AcDbLine
 10
254.3315763061097
 20
269.3789252738134
 30
0.0000000000000000
 11
254.3315763061097
 21
309.8789252738131
 31
0.0000000000000000
  0
INSERT
  5
341
100
AcDbEntity
  8
MAIN0
  6
BYBLOCK
 62
0
100
AcDbBlockReference
  2
_OPEN
 10
254.3315763061097
 20
267.3789252738134
 30
0.0000000000000000
 41
2.000000000000000
 42
2.000000000000000
 43
2.000000000000000
 50
270.0000000000000
  0
INSERT
  5
342
100
AcDbEntity
  8
MAIN0
  6
BYBLOCK
 62
0
100
AcDbBlockReference
  2
_OPEN
 10
254.3315763061097
 20
311.8789252738131
 30
0.0000000000000000
 41
2.000000000000000
 42
2.000000000000000
 43
2.000000000000000
 50
90.00000000000000
  0
LINE
  5
343
100
AcDbEntity
  8
MAIN0
  6
BYBLOCK
 62
0
100
AcDbLine
 10
209.6315763180306
 20
311.8789252738131
 30
0.0000000000000000
 11
256.3315763061097
 21
311.8789252738131
 31
0.0000000000000000
  0
MTEXT
  5
344
100
AcDbEntity
  8
MAIN0
  6
BYBLOCK
 62
0
100
AcDbMText
 10
252.2815763537934
 20
293.7788156329079
 30
0.0000000000000000
 40
3.099999904632568
 41
0.0000000000000000
 71
     5
 72
     1
  1
\A1;MAX 44.5
 11
6.123233995736766e-017
 21
1.000000000000000
 31
0.0000000000000000
  7
STANDARD
  0
ENDBLK
  5
345
100
AcDbEntity
  8
MAIN0
  6
CONTINUOUS
 62
3
100
AcDbBlockEnd
  0
BLOCK
  5
347
100
AcDbEntity
  8
MAIN0
  6
CONTINUOUS
 62
3
100
AcDbBlockBegin
  2
*D40
 70
    65
 10
0.0
 20
0.0
 30
0.0
  0
LINE
  5
348
100
AcDbEntity
  8
MAIN0
  6
BYBLOCK
 62
0
100
AcDbLine
 10
209.6315763180306
 20
311.8789252738131
 30
0.0000000000000000
 11
256.3315763061097
 21
311.8789252738131
 31
0.0000000000000000
  0
LINE
  5
349
100
AcDbEntity
  8
MAIN0
  6
BYBLOCK
 62
0
100
AcDbLine
 10
254.3315763061097
 20
311.8789252738131
 30
0.0000000000000000
 11
254.3315763061097
 21
321.1289252738128
 31
0.0000000000000000
  0
INSERT
  5
34A
100
AcDbEntity
  8
MAIN0
  6
BYBLOCK
 62
0
100
AcDbBlockReference
  2
_OPEN
 10
254.3315763061097
 20
311.8789252738131
 30
0.0000000000000000
 41
2.000000000000000
 42
2.000000000000000
 43
2.000000000000000
 50
90.00000000000000
  0
INSERT
  5
34B
100
AcDbEntity
  8
MAIN0
  6
BYBLOCK
 62
0
100
AcDbBlockReference
  2
_OPEN
 10
254.3315763061097
 20
321.1289252738128
 30
0.0000000000000000
 41
2.000000000000000
 42
2.000000000000000
 43
2.000000000000000
 50
270.0000000000000
  0
LINE
  5
34C
100
AcDbEntity
  8
MAIN0
  6
BYBLOCK
 62
0
100
AcDbLine
 10
254.3315763061097
 20
309.8789252738131
 30
0.0000000000000000
 11
254.3315763061097
 21
308.8789252738131
 31
0.0000000000000000
  0
LINE
  5
34D
100
AcDbEntity
  8
MAIN0
  6
BYBLOCK
 62
0
100
AcDbLine
 10
254.3315763061097
 20
323.1289252738128
 30
0.0000000000000000
 11
254.3315763061097
 21
338.3003711203704
 31
0.0000000000000000
  0
LINE
  5
34E
100
AcDbEntity
  8
MAIN0
  6
BYBLOCK
 62
0
100
AcDbLine
 10
246.5106764292465
 20
321.1289252738128
 30
0.0000000000000000
 11
256.3315763061097
 21
321.1289252738128
 31
0.0000000000000000
  0
MTEXT
  5
34F
100
AcDbEntity
  8
MAIN0
  6
BYBLOCK
 62
0
100
AcDbMText
 10
252.2815763537934
 20
330.4003709818952
 30
0.0000000000000000
 40
3.099999904632568
 41
0.0000000000000000
 71
     5
 72
     1
  1
\A1;MAX 9.25
 11
6.123233995736766e-017
 21
1.000000000000000
 31
0.0000000000000000
  7
STANDARD
  0
ENDBLK
  5
350
100
AcDbEntity
  8
MAIN0
  6
CONTINUOUS
 62
3
100
AcDbBlockEnd
  0
ENDSEC
  0
SECTION
  2
ENTITIES
  0
LINE
  5
46
100
AcDbEntity
  8
MAIN0
  6
CONTINUOUS
 62
3
100
AcDbLine
 10
124.8315763061101
 20
368.8789252738140
 30
0.0000000000000000
 11
124.8315763061093
 21
285.8478528278595
 31
0.0000000000000000
  0
LINE
  5
47
100
AcDbEntity
  8
MAIN0
  6
CONTINUOUS
 62
3
100
AcDbLine
 10
203.2315763061099
 20
349.8789252738133
 30
0.0000000000000000
 11
124.8315763061099
 21
349.8789252738141
 31
0.0000000000000000
  0
LINE
  5
48
100
AcDbEntity
  8
MAIN0
  6
CONTINUOUS
 62
3
100
AcDbLine
 10
203.2315763061090
 20
184.8789252738132
 30
0.0000000000000000
 11
124.8315763061082
 21
184.8789252738140
 31
0.0000000000000000
  0
LINE
  5
49
100
AcDbEntity
  8
MAIN0
  6
CONTINUOUS
 62
3
100
AcDbLine
 10
204.8315763061090
 20
186.4789252738132
 30
0.0000000000000000
 11
203.2315763061090
 21
184.8789252738131
 31
0.0000000000000000
  0
LINE
  5
4A
100
AcDbEntity
  8
MAIN0
  6
CONTINUOUS
 62
3
100
AcDbLine
 10
131.8315763061096
 20
283.8596417980915
 30
0.0000000000000000
 11
131.8315763061095
 21
279.8789252738139
 31
0.0000000000000000
  0
LINE
  5
4B
100
AcDbEntity
  8
MAIN0
  6
CONTINUOUS
 62
3
100
AcDbLine
 10
114.9315763061095
 20
279.4170450584609
 30
0.0000000000000000
 11
114.9315763061093
 21
255.3408054891672
 31
0.0000000000000000
  0
LINE
  5
4C
100
AcDbEntity
  8
MAIN0
  6
CONTINUOUS
 62
3
100
AcDbLine
 10
200.9315763061093
 20
279.8789252738132
 30
0.0000000000000000
 11
110.3315763061096
 21
279.8789252738141
 31
0.0000000000000000
  0
LINE
  5
4D
100
AcDbEntity
  8
MAIN0
  6
CONTINUOUS
 62
3
100
AcDbLine
 10
114.7315763061147
 20
279.8789252738141
 30
0.0000000000000000
 11
114.9315763061095
 21
279.4170450584608
 31
0.0000000000000000
  0
LINE
  5
4E
100
AcDbEntity
  8
MAIN0
  6
CONTINUOUS
 62
3
100
AcDbLine
 10
123.8315763061095
 20
286.1049933703486
 30
0.0000000000000000
 11
123.8315763061095
 21
279.8789252738140
 31
0.0000000000000000
  0
LINE
  5
4F
100
AcDbEntity
  8
MAIN0
  6
CONTINUOUS
 62
3
100
AcDbLine
 10
121.8315763061096
 20
282.3789252738139
 30
0.0000000000000000
 11
121.8315763061096
 21
279.8789252738141
 31
0.0000000000000000
  0
LINE
  5
50
100
AcDbEntity
  8
MAIN0
  6
CONTINUOUS
 62
3
100
AcDbLine
 10
117.7315763061095
 20
282.3789252738140
 30
0.0000000000000000
 11
117.7315763061096
 21
279.8789252738140
 31
0.0000000000000000
  0
LINE
  5
51
100
AcDbEntity
  8
MAIN0
  6
CONTINUOUS
 62
3
100
AcDbLine
 10
114.9315763061093
 20
255.3408054891671
 30
0.0000000000000000
 11
114.9315763061095
 21
279.3910285232334
 31
0.0000000000000000
  0
LINE
  5
52
100
AcDbEntity
  8
MAIN0
  6
CONTINUOUS
 62
3
100
AcDbLine
 10
121.8315763061096
 20
282.3789252738140
 30
0.0000000000000000
 11
117.7315763061095
 21
282.3789252738141
 31
0.0000000000000000
  0
ELLIPSE
  5
53
100
AcDbEntity
  8
MAIN0
  6
CONTINUOUS
 62
3
100
AcDbEllipse
 10
119.7815763061095
 20
281.1289252738140
 30
0.0000000000000000
 11
-2.050000000000000
 21
0.0000000000000000
 31
0.0000000000000000
210
0.0000000000000000
220
0.0000000000000000
230
1.000000000000000
 40
0.6097560975609757
 41
0.0000000000000000
 42
6.283185307179586
  0
ARC
  5
54
100
AcDbEntity
  8
MAIN0
  6
CONTINUOUS
 62
3
100
AcDbCircle
 10
200.9315763061095
 20
280.2789252738132
 30
0.0000000000000000
 40
0.4000000000000000
100
AcDbArc
 50
269.9999999994183
 51
359.9999999999898
  0
LINE
  5
55
100
AcDbEntity
  8
MAIN0
  6
CONTINUOUS
 62
3
100
AcDbLine
 10
208.8315763061096
 20
311.8789252738131
 30
0.0000000000000000
 11
204.9315763061097
 21
311.8789252738132
 31
0.0000000000000000
  0
LINE
  5
56
100
AcDbEntity
  8
MAIN0
  6
CONTINUOUS
 62
3
100
AcDbLine
 10
208.8315763061100
 20
355.3789252738133
 30
0.0000000000000000
 11
208.8315763061096
 21
299.7640105699222
 31
0.0000000000000000
  0
LINE
  5
57
100
AcDbEntity
  8
MAIN0
  6
CONTINUOUS
 62
3
100
AcDbLine
 10
209.8315763061100
 20
312.4562755430088
 30
0.0000000000000000
 11
208.8315763061098
 21
311.8789252738133
 31
0.0000000000000000
  0
LINE
  5
58
100
AcDbEntity
  8
MAIN0
  6
CONTINUOUS
 62
3
100
AcDbLine
 10
206.9315763061098
 20
311.7789252738131
 30
0.0000000000000000
 11
206.9315763061097
 21
296.7789252738131
 31
0.0000000000000000
  0
LINE
  5
59
100
AcDbEntity
  8
MAIN0
  6
CONTINUOUS
 62
3
100
AcDbLine
 10
206.9315763061097
 20
311.7789252738131
 30
0.0000000000000000
 11
204.9315763061097
 21
311.7789252738132
 31
0.0000000000000000
  0
LINE
  5
5A
100
AcDbEntity
  8
MAIN0
  6
CONTINUOUS
 62
3
100
AcDbLine
 10
206.9315763061097
 20
296.7789252738131
 30
0.0000000000000000
 11
204.9315763061097
 21
296.7789252738132
 31
0.0000000000000000
  0
LINE
  5
5B
100
AcDbEntity
  8
MAIN0
  6
CONTINUOUS
 62
3
100
AcDbLine
 10
204.8315763061100
 20
348.2789252738131
 30
0.0000000000000000
 11
203.2315763061099
 21
349.8789252738133
 31
0.0000000000000000
  0
LINE
  5
5C
100
AcDbEntity
  8
MAIN0
  6
CONTINUOUS
 62
3
100
AcDbLine
 10
199.8315351763296
 20
282.2902100819659
 30
0.0000000000000000
 11
199.8315351763296
 21
279.8789252738133
 31
0.0000000000000000
  0
LINE
  5
5D
100
AcDbEntity
  8
MAIN0
  6
CONTINUOUS
 62
3
100
AcDbLine
 10
132.8274351763296
 20
283.6457978200825
 30
0.0000000000000000
 11
132.8274351763296
 21
279.8789252738138
 31
0.0000000000000000
  0
LINE
  5
5E
100
AcDbEntity
  8
MAIN0
  6
CONTINUOUS
 62
3
100
AcDbLine
 10
189.8315351763296
 20
280.1289252738133
 30
0.0000000000000000
 11
189.8315351763296
 21
279.8789252738135
 31
0.0000000000000000
  0
LINE
  5
5F
100
AcDbEntity
  8
MAIN0
  6
CONTINUOUS
 62
3
100
AcDbLine
 10
172.8315351763296
 20
280.1289252738134
 30
0.0000000000000000
 11
172.8315351763296
 21
279.8789252738137
 31
0.0000000000000000
  0
LINE
  5
60
100
AcDbEntity
  8
MAIN0
  6
CONTINUOUS
 62
3
100
AcDbLine
 10
189.8315351763296
 20
280.1289252738133
 30
0.0000000000000000
 11
172.8315351763296
 21
280.1289252738135
 31
0.0000000000000000
  0
LINE
  5
61
100
AcDbEntity
  8
MAIN0
  6
CONTINUOUS
 62
3
100
AcDbLine
 10
159.8315351763296
 20
282.8789252738137
 30
0.0000000000000000
 11
159.8315351763296
 21
279.8789252738136
 31
0.0000000000000000
  0
LINE
  5
62
100
AcDbEntity
  8
MAIN0
  6
CONTINUOUS
 62
3
100
AcDbLine
 10
164.5315351763297
 20
282.8789252738136
 30
0.0000000000000000
 11
164.5315351763296
 21
279.8789252738135
 31
0.0000000000000000
  0
LINE
  5
63
100
AcDbEntity
  8
MAIN0
  6
CONTINUOUS
 62
3
100
AcDbLine
 10
164.5315351763297
 20
282.8789252738136
 30
0.0000000000000000
 11
159.8315351763296
 21
282.8789252738137
 31
0.0000000000000000
  0
ELLIPSE
  5
64
100
AcDbEntity
  8
MAIN0
  6
CONTINUOUS
 62
3
100
AcDbEllipse
 10
162.1815351763297
 20
281.3789252738137
 30
0.0000000000000000
 11
-2.350000000000000
 21
0.0000000000000000
 31
0.0000000000000000
210
0.0000000000000000
220
0.0000000000000000
230
1.000000000000000
 40
0.6382978723404255
 41
0.0000000000000000
 42
6.283185307179586
  0
LINE
  5
65
100
AcDbEntity
  8
MAIN0
  6
CONTINUOUS
 62
3
100
AcDbLine
 10
131.8315763061092
 20
250.7315576663548
 30
0.0000000000000000
 11
131.8315763061093
 21
254.8789252738138
 31
0.0000000000000000
  0
LINE
  5
66
100
AcDbEntity
  8
MAIN0
  6
CONTINUOUS
 62
3
100
AcDbLine
 10
114.7315763061144
 20
254.8789252738139
 30
0.0000000000000000
 11
114.9315763061093
 21
255.3408054891671
 31
0.0000000000000000
  0
LINE
  5
67
100
AcDbEntity
  8
MAIN0
  6
CONTINUOUS
 62
3
100
AcDbLine
 10
123.8315763061091
 20
249.2760028818398
 30
0.0000000000000000
 11
123.8315763061092
 21
254.8789252738139
 31
0.0000000000000000
  0
LINE
  5
68
100
AcDbEntity
  8
MAIN0
  6
CONTINUOUS
 62
3
100
AcDbLine
 10
121.8315763061093
 20
252.3789252738140
 30
0.0000000000000000
 11
121.8315763061093
 21
254.8789252738139
 31
0.0000000000000000
  0
LINE
  5
69
100
AcDbEntity
  8
MAIN0
  6
CONTINUOUS
 62
3
100
AcDbLine
 10
117.7315763061091
 20
252.3789252738140
 30
0.0000000000000000
 11
117.7315763061093
 21
254.8789252738140
 31
0.0000000000000000
  0
LINE
  5
6A
100
AcDbEntity
  8
MAIN0
  6
CONTINUOUS
 62
3
100
AcDbLine
 10
121.8315763061093
 20
252.3789252738139
 30
0.0000000000000000
 11
117.7315763061091
 21
252.3789252738139
 31
0.0000000000000000
  0
ELLIPSE
  5
6B
100
AcDbEntity
  8
MAIN0
  6
CONTINUOUS
 62
3
100
AcDbEllipse
 10
119.7815763061093
 20
253.6289252738140
 30
0.0000000000000000
 11
-2.050000000000000
 21
0.0000000000000000
 31
0.0000000000000000
210
0.0000000000000000
220
0.0000000000000000
230
1.000000000000000
 40
0.6097560975609757
 41
0.0000000000000000
 42
6.283185307179586
  0
LINE
  5
6C
100
AcDbEntity
  8
MAIN0
  6
CONTINUOUS
 62
3
100
AcDbLine
 10
199.8315351763292
 20
248.2895931685478
 30
0.0000000000000000
 11
199.8315351763293
 21
254.8789252738132
 31
0.0000000000000000
  0
LINE
  5
6D
100
AcDbEntity
  8
MAIN0
  6
CONTINUOUS
 62
3
100
AcDbLine
 10
132.8274351763292
 20
250.9181873023169
 30
0.0000000000000000
 11
132.8274351763293
 21
254.8789252738139
 31
0.0000000000000000
  0
LINE
  5
6E
100
AcDbEntity
  8
MAIN0
  6
CONTINUOUS
 62
3
100
AcDbLine
 10
189.8315351763293
 20
254.6289252738133
 30
0.0000000000000000
 11
189.8315351763293
 21
254.8789252738130
 31
0.0000000000000000
  0
LINE
  5
6F
100
AcDbEntity
  8
MAIN0
  6
CONTINUOUS
 62
3
100
AcDbLine
 10
172.8315351763293
 20
254.6289252738135
 30
0.0000000000000000
 11
172.8315351763293
 21
254.8789252738132
 31
0.0000000000000000
  0
LINE
  5
70
100
AcDbEntity
  8
MAIN0
  6
CONTINUOUS
 62
3
100
AcDbLine
 10
189.8315351763293
 20
254.6289252738133
 30
0.0000000000000000
 11
172.8315351763293
 21
254.6289252738134
 31
0.0000000000000000
  0
LINE
  5
71
100
AcDbEntity
  8
MAIN0
  6
CONTINUOUS
 62
3
100
AcDbLine
 10
159.8315351763293
 20
251.8789252738135
 30
0.0000000000000000
 11
159.8315351763294
 21
254.8789252738136
 31
0.0000000000000000
  0
LINE
  5
72
100
AcDbEntity
  8
MAIN0
  6
CONTINUOUS
 62
3
100
AcDbLine
 10
164.5315351763294
 20
251.8789252738135
 30
0.0000000000000000
 11
164.5315351763294
 21
254.8789252738135
 31
0.0000000000000000
  0
LINE
  5
73
100
AcDbEntity
  8
MAIN0
  6
CONTINUOUS
 62
3
100
AcDbLine
 10
164.5315351763294
 20
251.8789252738135
 30
0.0000000000000000
 11
159.8315351763293
 21
251.8789252738135
 31
0.0000000000000000
  0
ELLIPSE
  5
74
100
AcDbEntity
  8
MAIN0
  6
CONTINUOUS
 62
3
100
AcDbEllipse
 10
162.1815351763294
 20
253.3789252738135
 30
0.0000000000000000
 11
2.350000000000000
 21
0.0000000000000000
 31
0.0000000000000000
210
0.0000000000000000
220
0.0000000000000000
230
1.000000000000000
 40
0.6382978723404255
 41
0.0000000000000000
 42
6.283185307179586
  0
LINE
  5
75
100
AcDbEntity
  8
MAIN0
  6
CONTINUOUS
 62
3
100
AcDbLine
 10
200.9315763061097
 20
254.8789252738132
 30
0.0000000000000000
 11
110.3315763061094
 21
254.8789252738141
 31
0.0000000000000000
  0
LINE
  5
76
100
AcDbEntity
  8
MAIN0
  6
CONTINUOUS
 62
3
100
AcDbLine
 10
204.8315763061099
 20
348.2789252738133
 30
0.0000000000000000
 11
204.8315763061098
 21
311.7789252738132
 31
0.0000000000000000
  0
LINE
  5
77
100
AcDbEntity
  8
MAIN0
  6
PHANTOM
 62
3
100
AcDbLine
 10
117.3315763061082
 20
171.6631524774889
 30
0.0000000000000000
 11
117.3315763061085
 21
214.5538683385213
 31
0.0000000000000000
  0
LINE
  5
78
100
AcDbEntity
  8
MAIN0
  6
PHANTOM
 62
3
100
AcDbLine
 10
126.5858589263442
 20
191.1289252738140
 30
0.0000000000000000
 11
112.0038819414909
 21
191.1289252738141
 31
0.0000000000000000
  0
LINE
  5
79
100
AcDbEntity
  8
MAIN0
  6
CONTINUOUS
 62
3
100
AcDbLine
 10
209.9315763061105
 20
356.1289252738131
 30
0.0000000000000000
 11
209.9315763061100
 21
299.1289252738131
 31
0.0000000000000000
  0
LINE
  5
7A
100
AcDbEntity
  8
MAIN0
  6
CONTINUOUS
 62
3
100
AcDbLine
 10
208.9315763061101
 20
311.8789252738131
 30
0.0000000000000000
 11
204.9315763061101
 21
311.8789252738132
 31
0.0000000000000000
  0
LINE
  5
7B
100
AcDbEntity
  8
MAIN0
  6
CONTINUOUS
 62
3
100
AcDbLine
 10
208.9315763061105
 20
350.8789252738131
 30
0.0000000000000000
 11
170.3315763061099
 21
350.8789252738135
 31
0.0000000000000000
  0
LINE
  5
7C
100
AcDbEntity
  8
MAIN0
  6
CONTINUOUS
 62
3
100
AcDbLine
 10
210.9315763061100
 20
299.1289252738131
 30
0.0000000000000000
 11
209.9315763061100
 21
299.1289252738131
 31
0.0000000000000000
  0
LINE
  5
7D
100
AcDbEntity
  8
MAIN0
  6
CONTINUOUS
 62
3
100
AcDbLine
 10
240.8315763061108
 20
356.1289252738129
 30
0.0000000000000000
 11
209.9315763061102
 21
356.1289252738131
 31
0.0000000000000000
  0
LINE
  5
7E
100
AcDbEntity
  8
MAIN0
  6
CONTINUOUS
 62
3
100
AcDbLine
 10
209.9315763061102
 20
356.1289252738131
 30
0.0000000000000000
 11
208.9315763061103
 21
355.5515750046236
 31
0.0000000000000000
  0
LINE
  5
7F
100
AcDbEntity
  8
MAIN0
  6
CONTINUOUS
 62
3
100
AcDbLine
 10
210.9315763061100
 20
299.1289252738131
 30
0.0000000000000000
 11
210.9315763061099
 21
284.1289252738131
 31
0.0000000000000000
  0
LINE
  5
80
100
AcDbEntity
  8
MAIN0
  6
CONTINUOUS
 62
3
100
AcDbLine
 10
208.9315763061100
 20
299.7062755430030
 30
0.0000000000000000
 11
209.9315763061101
 21
299.1289252738132
 31
0.0000000000000000
  0
LINE
  5
81
100
AcDbEntity
  8
MAIN0
  6
PHANTOM
 62
3
100
AcDbLine
 10
208.9315763061103
 20
350.8789252738130
 30
0.0000000000000000
 11
209.9315763061105
 21
350.3015750046234
 31
0.0000000000000000
  0
LINE
  5
82
100
AcDbEntity
  8
MAIN0
  6
CONTINUOUS
 62
3
100
AcDbLine
 10
209.9315763061098
 20
312.4562755430018
 30
0.0000000000000000
 11
208.9315763061102
 21
311.8789252738133
 31
0.0000000000000000
  0
LINE
  5
83
100
AcDbEntity
  8
MAIN0
  6
CENTER
 62
3
100
AcDbLine
 10
245.7106764173256
 20
341.1289252738128
 30
0.0000000000000000
 11
202.4424955256128
 21
341.1289252738132
 31
0.0000000000000000
  0
LINE
  5
84
100
AcDbEntity
  8
MAIN0
  6
CONTINUOUS
 62
3
100
AcDbLine
 10
201.3315763061096
 20
280.2789252738133
 30
0.0000000000000000
 11
201.3315763061096
 21
282.3627380307636
 31
0.0000000000000000
  0
LINE
  5
85
100
AcDbEntity
  8
MAIN0
  6
CONTINUOUS
 62
3
100
AcDbLine
 10
124.8315763061101
 20
368.8789252738140
 30
0.0000000000000000
 11
109.8315763061101
 21
368.8789252738142
 31
0.0000000000000000
  0
LINE
  5
86
100
AcDbEntity
  8
MAIN0
  6
CONTINUOUS
 62
3
100
AcDbLine
 10
109.8315763061089
 20
165.8789252738142
 30
0.0000000000000000
 11
109.8315763061101
 21
368.8789252738142
 31
0.0000000000000000
  0
LINE
  5
87
100
AcDbEntity
  8
MAIN0
  6
CENTER
 62
3
100
AcDbLine
 10
101.4874551117414
 20
359.8789252738141
 30
0.0000000000000000
 11
131.8945207808418
 21
359.8789252738141
 31
0.0000000000000000
  0
LINE
  5
88
100
AcDbEntity
  8
MAIN0
  6
CONTINUOUS
 62
3
100
AcDbLine
 10
124.8315763061081
 20
165.8789252738141
 30
0.0000000000000000
 11
109.8315763061081
 21
165.8789252738142
 31
0.0000000000000000
  0
LINE
  5
89
100
AcDbEntity
  8
MAIN0
  6
CONTINUOUS
 62
3
100
AcDbLine
 10
240.8315763061108
 20
356.1289252738129
 30
0.0000000000000000
 11
240.8315763061101
 21
284.1289252738129
 31
0.0000000000000000
  0
LINE
  5
8A
100
AcDbEntity
  8
MAIN0
  6
CONTINUOUS
 62
3
100
AcDbLine
 10
240.8315763061101
 20
284.1289252738129
 30
0.0000000000000000
 11
210.9315763061099
 21
284.1289252738131
 31
0.0000000000000000
  0
LINE
  5
8B
100
AcDbEntity
  8
MAIN0
  6
CONTINUOUS
 62
3
100
AcDbLine
 10
114.9315763061095
 20
277.3789252738141
 30
0.0000000000000000
 11
204.9315763061093
 21
277.3789252738141
 31
0.0000000000000000
  0
LINE
  5
8C
100
AcDbEntity
  8
MAIN0
  6
CONTINUOUS
 62
3
100
AcDbLine
 10
206.4315763061096
 20
267.3789252738132
 30
0.0000000000000000
 11
206.4315763061099
 21
280.8789252738141
 31
0.0000000000000000
  0
LINE
  5
8D
100
AcDbEntity
  8
MAIN0
  6
CONTINUOUS
 62
3
100
AcDbLine
 10
196.9315763061096
 20
267.3789252738133
 30
0.0000000000000000
 11
196.9315763061098
 21
276.9789252738141
 31
0.0000000000000000
  0
LINE
  5
8E
100
AcDbEntity
  8
MAIN0
  6
CONTINUOUS
 62
3
100
AcDbLine
 10
205.7315763061095
 20
280.8789252738141
 30
0.0000000000000000
 11
206.4315763061099
 21
280.8789252738141
 31
0.0000000000000000
  0
LINE
  5
8F
100
AcDbEntity
  8
MAIN0
  6
CONTINUOUS
 62
3
100
AcDbLine
 10
198.9315763061098
 20
275.5789252738141
 30
0.0000000000000000
 11
198.9315763061098
 21
277.3789252738141
 31
0.0000000000000000
  0
LINE
  5
90
100
AcDbEntity
  8
MAIN0
  6
CONTINUOUS
 62
3
100
AcDbLine
 10
202.1315763061098
 20
275.5789252738141
 30
0.0000000000000000
 11
202.1315763061098
 21
277.3789252738141
 31
0.0000000000000000
  0
LINE
  5
91
100
AcDbEntity
  8
MAIN0
  6
CONTINUOUS
 62
3
100
AcDbLine
 10
199.0598584834290
 20
275.3789252738141
 30
0.0000000000000000
 11
201.9315763061098
 21
275.3789252738141
 31
0.0000000000000000
  0
ARC
  5
92
100
AcDbEntity
  8
MAIN0
  6
CONTINUOUS
 62
3
100
AcDbCircle
 10
199.1315763061098
 20
275.5789252738141
 30
0.0000000000000000
 40
0.2000000000000000
100
AcDbArc
 50
179.9999999999964
 51
270.0000000005678
  0
LINE
  5
93
100
AcDbEntity
  8
MAIN0
  6
CONTINUOUS
 62
3
100
AcDbLine
 10
204.9315763061094
 20
279.4932846277579
 30
0.0000000000000000
 11
205.7315763061094
 21
280.8789252738142
 31
0.0000000000000000
  0
ARC
  5
94
100
AcDbEntity
  8
MAIN0
  6
CONTINUOUS
 62
3
100
AcDbCircle
 10
201.9315763061098
 20
275.5789252738141
 30
0.0000000000000000
 40
0.2000000000000000
100
AcDbArc
 50
270.0000000005678
 51
359.9999999999934
  0
LINE
  5
95
100
AcDbEntity
  8
MAIN0
  6
CONTINUOUS
 62
3
100
AcDbLine
 10
196.9315763061098
 20
276.9789252738141
 30
0.0000000000000000
 11
197.3315763061098
 21
277.3789252738141
 31
0.0000000000000000
  0
LINE
  5
96
100
AcDbEntity
  8
MAIN0
  6
CONTINUOUS
 62
3
100
AcDbLine
 10
204.5315763061092
 20
277.5789252738270
 30
0.0000000000000000
 11
204.9315763061093
 21
277.9789252738270
 31
0.0000000000000000
  0
ELLIPSE
  5
97
100
AcDbEntity
  8
MAIN0
  6
CONTINUOUS
 62
3
100
AcDbEllipse
 10
200.5315763061098
 20
276.3789252738141
 30
0.0000000000000000
 11
1.600000000000000
 21
0.0000000000000000
 31
0.0000000000000000
210
0.0000000000000000
220
0.0000000000000000
230
1.000000000000000
 40
0.6250000000000000
 41
0.0000000000000000
 42
6.283185222885889
  0
LINE
  5
98
100
AcDbEntity
  8
MAIN0
  6
CENTER
 62
3
100
AcDbLine
 10
245.7106764173255
 20
321.1289252738128
 30
0.0000000000000000
 11
202.4424955256126
 21
321.1289252738132
 31
0.0000000000000000
  0
LINE
  5
99
100
AcDbEntity
  8
MAIN0
  6
HIDDEN
 62
3
100
AcDbLine
 10
220.8315763061101
 20
313.1289252738129
 30
0.0000000000000000
 11
229.8315763061101
 21
313.1289252738123
 31
0.0000000000000000
  0
LINE
  5
9A
100
AcDbEntity
  8
MAIN0
  6
HIDDEN
 62
3
100
AcDbLine
 10
229.8315763061101
 20
313.1289252738123
 30
0.0000000000000000
 11
230.8315763061102
 21
314.8609760813811
 31
0.0000000000000000
  0
LINE
  5
9B
100
AcDbEntity
  8
MAIN0
  6
HIDDEN
 62
3
100
AcDbLine
 10
230.8315763061102
 20
314.8609760813811
 30
0.0000000000000000
 11
230.8315763061110
 21
327.3968744662433
 31
0.0000000000000000
  0
LINE
  5
9C
100
AcDbEntity
  8
MAIN0
  6
HIDDEN
 62
3
100
AcDbLine
 10
230.8315763061110
 20
327.3968744662433
 30
0.0000000000000000
 11
229.8315763061111
 21
329.1289252738122
 31
0.0000000000000000
  0
LINE
  5
9D
100
AcDbEntity
  8
MAIN0
  6
HIDDEN
 62
3
100
AcDbLine
 10
229.8315763061111
 20
329.1289252738123
 30
0.0000000000000000
 11
220.8315763061111
 21
329.1289252738129
 31
0.0000000000000000
  0
LINE
  5
9E
100
AcDbEntity
  8
MAIN0
  6
HIDDEN
 62
3
100
AcDbLine
 10
229.8315763061101
 20
313.1289252738123
 30
0.0000000000000000
 11
229.8315763061111
 21
329.1289252738123
 31
0.0000000000000000
  0
LINE
  5
9F
100
AcDbEntity
  8
MAIN0
  6
HIDDEN
 62
3
100
AcDbLine
 10
220.8315763061103
 20
316.1289252738129
 30
0.0000000000000000
 11
207.1094002655212
 21
316.1289252738137
 31
0.0000000000000000
  0
LINE
  5
A0
100
AcDbEntity
  8
MAIN0
  6
HIDDEN
 62
3
100
AcDbLine
 10
207.1094002655218
 20
326.1289252738137
 30
0.0000000000000000
 11
220.8315763061110
 21
326.1289252738129
 31
0.0000000000000000
  0
LINE
  5
A1
100
AcDbEntity
  8
MAIN0
  6
HIDDEN
 62
3
100
AcDbLine
 10
220.8315763061103
 20
316.9408242738128
 30
0.0000000000000000
 11
211.6501838886513
 21
316.9408242738134
 31
0.0000000000000000
  0
LINE
  5
A2
100
AcDbEntity
  8
MAIN0
  6
HIDDEN
 62
3
100
AcDbLine
 10
220.8315763061109
 20
325.3170262738129
 30
0.0000000000000000
 11
211.6501838886519
 21
325.3170262738134
 31
0.0000000000000000
  0
LINE
  5
A3
100
AcDbEntity
  8
MAIN0
  6
HIDDEN
 62
3
100
AcDbLine
 10
240.8315763061100
 20
312.0289252738129
 30
0.0000000000000000
 11
240.2315763061101
 21
312.6289252738129
 31
0.0000000000000000
  0
LINE
  5
A4
100
AcDbEntity
  8
MAIN0
  6
HIDDEN
 62
3
100
AcDbLine
 10
240.2315763061101
 20
312.6289252738129
 30
0.0000000000000000
 11
220.8315763061101
 21
312.6289252738141
 31
0.0000000000000000
  0
LINE
  5
A5
100
AcDbEntity
  8
MAIN0
  6
HIDDEN
 62
3
100
AcDbLine
 10
220.8315763061100
 20
312.6289252738141
 30
0.0000000000000000
 11
220.8315763061111
 21
329.6289252738141
 31
0.0000000000000000
  0
LINE
  5
A6
100
AcDbEntity
  8
MAIN0
  6
HIDDEN
 62
3
100
AcDbLine
 10
220.8315763061112
 20
329.6289252738141
 30
0.0000000000000000
 11
240.2315763061112
 21
329.6289252738129
 31
0.0000000000000000
  0
LINE
  5
A7
100
AcDbEntity
  8
MAIN0
  6
HIDDEN
 62
3
100
AcDbLine
 10
240.2315763061112
 20
329.6289252738129
 30
0.0000000000000000
 11
240.8315763061112
 21
330.2289252738128
 31
0.0000000000000000
  0
LINE
  5
A8
100
AcDbEntity
  8
MAIN0
  6
HIDDEN
 62
3
100
AcDbLine
 10
220.8315763061103
 20
315.6289252738141
 30
0.0000000000000000
 11
214.2315763061102
 21
315.6289252738145
 31
0.0000000000000000
  0
LINE
  5
A9
100
AcDbEntity
  8
MAIN0
  6
HIDDEN
 62
3
100
AcDbLine
 10
214.2315763061103
 20
315.6289252738145
 30
0.0000000000000000
 11
213.8315763061103
 21
315.2289252738145
 31
0.0000000000000000
  0
LINE
  5
AA
100
AcDbEntity
  8
MAIN0
  6
HIDDEN
 62
3
100
AcDbLine
 10
220.8315763061110
 20
326.6289252738141
 30
0.0000000000000000
 11
214.2315763061109
 21
326.6289252738145
 31
0.0000000000000000
  0
LINE
  5
AB
100
AcDbEntity
  8
MAIN0
  6
HIDDEN
 62
3
100
AcDbLine
 10
214.2315763061109
 20
326.6289252738145
 30
0.0000000000000000
 11
213.8315763061110
 21
327.0289252738145
 31
0.0000000000000000
  0
LINE
  5
AC
100
AcDbEntity
  8
MAIN0
  6
HIDDEN
 62
3
100
AcDbLine
 10
213.8315763061105
 20
356.1289252738131
 30
0.0000000000000000
 11
213.8315763061104
 21
346.1289252738133
 31
0.0000000000000000
  0
LINE
  5
AD
100
AcDbEntity
  8
MAIN0
  6
HIDDEN
 62
3
100
AcDbLine
 10
213.8315763061102
 20
316.1289252738133
 30
0.0000000000000000
 11
213.8315763061099
 21
284.1289252738131
 31
0.0000000000000000
  0
LINE
  5
AE
100
AcDbEntity
  8
MAIN0
  6
HIDDEN
 62
3
100
AcDbLine
 10
213.8315763061103
 20
336.1289252738133
 30
0.0000000000000000
 11
213.8315763061102
 21
326.1289252738133
 31
0.0000000000000000
  0
LINE
  5
AF
100
AcDbEntity
  8
MAIN0
  6
CONTINUOUS
 62
3
100
AcDbLine
 10
206.4315763061096
 20
267.3789252738132
 30
0.0000000000000000
 11
206.4315763061096
 21
253.8789252738123
 31
0.0000000000000000
  0
LINE
  5
B0
100
AcDbEntity
  8
MAIN0
  6
CONTINUOUS
 62
3
100
AcDbLine
 10
196.9315763061096
 20
267.3789252738133
 30
0.0000000000000000
 11
196.9315763061096
 21
257.7789252738125
 31
0.0000000000000000
  0
LINE
  5
B1
100
AcDbEntity
  8
MAIN0
  6
CONTINUOUS
 62
3
100
AcDbLine
 10
205.7315763061092
 20
253.8789252738123
 30
0.0000000000000000
 11
206.4315763061097
 21
253.8789252738123
 31
0.0000000000000000
  0
LINE
  5
B2
100
AcDbEntity
  8
MAIN0
  6
CONTINUOUS
 62
3
100
AcDbLine
 10
198.9315763061096
 20
259.1789252738125
 30
0.0000000000000000
 11
198.9315763061096
 21
257.3789252738125
 31
0.0000000000000000
  0
LINE
  5
B3
100
AcDbEntity
  8
MAIN0
  6
CONTINUOUS
 62
3
100
AcDbLine
 10
202.1315763061096
 20
259.1789252738124
 30
0.0000000000000000
 11
202.1315763061096
 21
257.3789252738124
 31
0.0000000000000000
  0
LINE
  5
B4
100
AcDbEntity
  8
MAIN0
  6
CONTINUOUS
 62
3
100
AcDbLine
 10
199.0598584834289
 20
259.3789252738125
 30
0.0000000000000000
 11
201.9315763061096
 21
259.3789252738124
 31
0.0000000000000000
  0
ARC
  5
B5
100
AcDbEntity
  8
MAIN0
  6
CONTINUOUS
 62
3
100
AcDbCircle
 10
199.1315763061096
 20
259.1789252738125
 30
0.0000000000000000
 40
0.2000000000000000
100
AcDbArc
 50
89.99999999943105
 51
180.0000000000025
  0
LINE
  5
B6
100
AcDbEntity
  8
MAIN0
  6
CONTINUOUS
 62
3
100
AcDbLine
 10
204.8315763061094
 20
255.4377710006253
 30
0.0000000000000000
 11
205.7315763061091
 21
253.8789252738123
 31
0.0000000000000000
  0
ARC
  5
B7
100
AcDbEntity
  8
MAIN0
  6
CONTINUOUS
 62
3
100
AcDbCircle
 10
201.9315763061096
 20
259.1789252738124
 30
0.0000000000000000
 40
0.2000000000000000
100
AcDbArc
 50
5.546887364472373e-012
 51
89.99999999943105
  0
LINE
  5
B8
100
AcDbEntity
  8
MAIN0
  6
CONTINUOUS
 62
3
100
AcDbLine
 10
196.9315763061096
 20
257.7789252738125
 30
0.0000000000000000
 11
197.3315763061096
 21
257.3789252738125
 31
0.0000000000000000
  0
LINE
  5
B9
100
AcDbEntity
  8
MAIN0
  6
CONTINUOUS
 62
3
100
AcDbLine
 10
204.3315763061092
 20
257.3789252737996
 30
0.0000000000000000
 11
204.8315763061094
 21
256.8789252737994
 31
0.0000000000000000
  0
ELLIPSE
  5
BA
100
AcDbEntity
  8
MAIN0
  6
CONTINUOUS
 62
3
100
AcDbEllipse
 10
200.5315763061096
 20
258.3789252738125
 30
0.0000000000000000
 11
1.600000000000000
 21
0.0000000000000000
 31
0.0000000000000000
210
0.0000000000000000
220
0.0000000000000000
230
1.000000000000000
 40
0.6250000000000000
 41
0.0000000000000000
 42
6.283185222885889
  0
LINE
  5
BB
100
AcDbEntity
  8
MAIN0
  6
CONTINUOUS
 62
3
100
AcDbLine
 10
206.4315763061096
 20
267.3789252738132
 30
0.0000000000000000
 11
206.4315763061099
 21
280.8789252738141
 31
0.0000000000000000
  0
LINE
  5
BC
100
AcDbEntity
  8
MAIN0
  6
CONTINUOUS
 62
3
100
AcDbLine
 10
196.9315763061096
 20
267.3789252738133
 30
0.0000000000000000
 11
196.9315763061098
 21
276.9789252738141
 31
0.0000000000000000
  0
LINE
  5
BD
100
AcDbEntity
  8
MAIN0
  6
CONTINUOUS
 62
3
100
AcDbLine
 10
205.7315763061095
 20
280.8789252738141
 30
0.0000000000000000
 11
206.4315763061099
 21
280.8789252738141
 31
0.0000000000000000
  0
LINE
  5
BE
100
AcDbEntity
  8
MAIN0
  6
CONTINUOUS
 62
3
100
AcDbLine
 10
198.9315763061098
 20
275.5789252738141
 30
0.0000000000000000
 11
198.9315763061098
 21
277.3789252738141
 31
0.0000000000000000
  0
LINE
  5
BF
100
AcDbEntity
  8
MAIN0
  6
CONTINUOUS
 62
3
100
AcDbLine
 10
202.1315763061098
 20
275.5789252738141
 30
0.0000000000000000
 11
202.1315763061098
 21
277.3789252738141
 31
0.0000000000000000
  0
LINE
  5
C0
100
AcDbEntity
  8
MAIN0
  6
CONTINUOUS
 62
3
100
AcDbLine
 10
199.0598584834290
 20
275.3789252738141
 30
0.0000000000000000
 11
201.9315763061098
 21
275.3789252738141
 31
0.0000000000000000
  0
ARC
  5
C1
100
AcDbEntity
  8
MAIN0
  6
CONTINUOUS
 62
3
100
AcDbCircle
 10
199.1315763061098
 20
275.5789252738141
 30
0.0000000000000000
 40
0.2000000000000000
100
AcDbArc
 50
179.9999999999964
 51
270.0000000005678
  0
LINE
  5
C2
100
AcDbEntity
  8
MAIN0
  6
CONTINUOUS
 62
3
100
AcDbLine
 10
204.9315763061094
 20
279.4932846277579
 30
0.0000000000000000
 11
205.7315763061094
 21
280.8789252738142
 31
0.0000000000000000
  0
ARC
  5
C3
100
AcDbEntity
  8
MAIN0
  6
CONTINUOUS
 62
3
100
AcDbCircle
 10
201.9315763061098
 20
275.5789252738141
 30
0.0000000000000000
 40
0.2000000000000000
100
AcDbArc
 50
270.0000000005678
 51
359.9999999999934
  0
LINE
  5
C4
100
AcDbEntity
  8
MAIN0
  6
CONTINUOUS
 62
3
100
AcDbLine
 10
196.9315763061098
 20
276.9789252738141
 30
0.0000000000000000
 11
197.3315763061098
 21
277.3789252738141
 31
0.0000000000000000
  0
LINE
  5
C5
100
AcDbEntity
  8
MAIN0
  6
CONTINUOUS
 62
3
100
AcDbLine
 10
204.3315763060964
 20
277.3789252738141
 30
0.0000000000000000
 11
204.9315763061093
 21
277.9789252738270
 31
0.0000000000000000
  0
ELLIPSE
  5
C6
100
AcDbEntity
  8
MAIN0
  6
CONTINUOUS
 62
3
100
AcDbEllipse
 10
200.5315763061098
 20
276.3789252738141
 30
0.0000000000000000
 11
1.600000000000000
 21
0.0000000000000000
 31
0.0000000000000000
210
0.0000000000000000
220
0.0000000000000000
230
1.000000000000000
 40
0.6250000000000000
 41
0.0000000000000000
 42
6.283185222885889
  0
LINE
  5
C7
100
AcDbEntity
  8
MAIN0
  6
CONTINUOUS
 62
3
100
AcDbLine
 10
114.9315763061093
 20
257.3789252738141
 30
0.0000000000000000
 11
204.8315763061094
 21
257.3789252738123
 31
0.0000000000000000
  0
ARC
  5
C8
100
AcDbEntity
  8
MAIN0
  6
CONTINUOUS
 62
3
100
AcDbCircle
 10
200.9315763061097
 20
254.4789252738132
 30
0.0000000000000000
 40
0.4000000000000000
100
AcDbArc
 50
0.0000000000000000
 51
89.99999999942553
  0
LINE
  5
C9
100
AcDbEntity
  8
MAIN0
  6
PHANTOM
 62
3
100
AcDbLine
 10
205.8315763061088
 20
219.3789252738024
 30
0.0000000000000000
 11
205.8315763061091
 21
246.8784590605276
 31
0.0000000000000000
  0
LINE
  5
CA
100
AcDbEntity
  8
MAIN0
  6
CONTINUOUS
 62
3
100
AcDbLine
 10
204.9315763061094
 20
277.3789252738141
 30
0.0000000000000000
 11
204.9315763061097
 21
311.7789252738132
 31
0.0000000000000000
  0
LINE
  5
CB
100
AcDbEntity
  8
MAIN0
  6
PHANTOM
 62
3
100
AcDbLine
 10
139.8315763061080
 20
158.0024021222195
 30
0.0000000000000000
 11
139.8315763061082
 21
180.4014133489713
 31
0.0000000000000000
  0
LINE
  5
CC
100
AcDbEntity
  8
MAIN0
  6
CONTINUOUS
 62
3
100
AcDbLine
 10
154.8315763061080
 20
164.3789252738137
 30
0.0000000000000000
 11
154.8315763061082
 21
184.3789252738137
 31
0.0000000000000000
  0
LINE
  5
CD
100
AcDbEntity
  8
MAIN0
  6
CONTINUOUS
 62
3
100
AcDbLine
 10
203.2315763061083
 20
184.8789252738133
 30
0.0000000000000000
 11
124.8315763061083
 21
184.8789252738140
 31
0.0000000000000000
  0
ARC
  5
CE
100
AcDbEntity
  8
MAIN0
  6
CENTER
 62
3
100
AcDbCircle
 10
387.2968398998964
 20
267.3789252738114
 30
0.0000000000000000
 40
92.50000000000000
100
AcDbArc
 50
292.4004883948562
 51
607.5518120962815
  0
LINE
  5
CF
100
AcDbEntity
  8
MAIN0
  6
CENTER
 62
3
100
AcDbLine
 10
376.2968398998964
 20
183.7736110712673
 30
0.0000000000000000
 11
376.2968398998964
 21
167.7068988895011
 31
0.0000000000000000
  0
LINE
  5
D0
100
AcDbEntity
  8
MAIN0
  6
CENTER
 62
3
100
AcDbLine
 10
363.7968398998964
 20
184.8774279921350
 30
0.0000000000000000
 11
363.7968398998964
 21
158.3857563909390
 31
0.0000000000000000
  0
LINE
  5
D1
100
AcDbEntity
  8
MAIN0
  6
CONTINUOUS
 62
3
100
AcDbLine
 10
154.8315763061080
 20
164.3789252738137
 30
0.0000000000000000
 11
124.8315763061080
 21
164.3789252738140
 31
0.0000000000000000
  0
LINE
  5
D2
100
AcDbEntity
  8
MAIN0
  6
CONTINUOUS
 62
3
100
AcDbLine
 10
387.2968398998964
 20
164.3789252738114
 30
0.0000000000000000
 11
347.2968398998964
 21
164.3789252738118
 31
0.0000000000000000
  0
LINE
  5
D3
100
AcDbEntity
  8
MAIN0
  6
CONTINUOUS
 62
3
100
AcDbLine
 10
387.2968398998964
 20
184.3789252738114
 30
0.0000000000000000
 11
347.2968398998964
 21
184.3789252738118
 31
0.0000000000000000
  0
LINE
  5
D4
100
AcDbEntity
  8
MAIN0
  6
PHANTOM
 62
3
100
AcDbLine
 10
142.5565976737454
 20
176.8789252738138
 30
0.0000000000000000
 11
115.3095483133172
 21
176.8789252738141
 31
0.0000000000000000
  0
LINE
  5
D5
100
AcDbEntity
  8
MAIN0
  6
CENTER
 62
3
100
AcDbLine
 10
428.3155903369205
 20
176.8789252738110
 30
0.0000000000000000
 11
343.1988274495939
 21
176.8789252738119
 31
0.0000000000000000
  0
LINE
  5
D6
100
AcDbEntity
  8
MAIN0
  6
PHANTOM
 62
3
100
AcDbLine
 10
363.7968398998964
 20
169.3789252738117
 30
0.0000000000000000
 11
358.2305898998966
 21
169.3789252738117
 31
0.0000000000000000
  0
LINE
  5
D7
100
AcDbEntity
  8
MAIN0
  6
PHANTOM
 62
3
100
AcDbLine
 10
363.7968398998964
 20
163.3789252738117
 30
0.0000000000000000
 11
355.7968398998964
 21
163.3789252738118
 31
0.0000000000000000
  0
LINE
  5
D8
100
AcDbEntity
  8
MAIN0
  6
PHANTOM
 62
3
100
AcDbLine
 10
355.7968398998964
 20
164.3789252738117
 30
0.0000000000000000
 11
355.7968398998964
 21
163.3789252738118
 31
0.0000000000000000
  0
LINE
  5
D9
100
AcDbEntity
  8
MAIN0
  6
PHANTOM
 62
3
100
AcDbLine
 10
359.8975959791397
 20
168.6880710453607
 30
0.0000000000000000
 11
363.7968398998964
 21
168.6880710453607
 31
0.0000000000000000
  0
LINE
  5
DA
100
AcDbEntity
  8
MAIN0
  6
PHANTOM
 62
3
100
AcDbLine
 10
358.8975959791397
 20
167.6880710453607
 30
0.0000000000000000
 11
358.8975959791397
 21
163.3789252738118
 31
0.0000000000000000
  0
ARC
  5
DB
100
AcDbEntity
  8
MAIN0
  6
PHANTOM
 62
3
100
AcDbCircle
 10
359.8975959791397
 20
167.6880710453607
 30
0.0000000000000000
 40
1.000000000000000
100
AcDbArc
 50
89.99999999942553
 51
179.9999999999964
  0
LINE
  5
DC
100
AcDbEntity
  8
MAIN0
  6
PHANTOM
 62
3
100
AcDbLine
 10
363.7968398998965
 20
169.3789252738117
 30
0.0000000000000000
 11
369.3630898998964
 21
169.3789252738117
 31
0.0000000000000000
  0
LINE
  5
DD
100
AcDbEntity
  8
MAIN0
  6
PHANTOM
 62
3
100
AcDbLine
 10
367.6960838206532
 20
168.6880710453607
 30
0.0000000000000000
 11
363.7968398998964
 21
168.6880710453607
 31
0.0000000000000000
  0
ARC
  5
DE
100
AcDbEntity
  8
MAIN0
  6
PHANTOM
 62
3
100
AcDbCircle
 10
367.6960838206532
 20
167.6880710453607
 30
0.0000000000000000
 40
1.000000000000000
100
AcDbArc
 50
3.740332305401095e-012
 51
90.00000000057460
  0
LINE
  5
DF
100
AcDbEntity
  8
MAIN0
  6
PHANTOM
 62
3
100
AcDbLine
 10
368.6960838206532
 20
167.6880710453607
 30
0.0000000000000000
 11
368.6960838206532
 21
163.3789252738118
 31
0.0000000000000000
  0
LINE
  5
E0
100
AcDbEntity
  8
MAIN0
  6
PHANTOM
 62
3
100
AcDbLine
 10
371.7968398998965
 20
164.3789252738118
 30
0.0000000000000000
 11
371.7968398998965
 21
163.3789252738118
 31
0.0000000000000000
  0
LINE
  5
E1
100
AcDbEntity
  8
MAIN0
  6
PHANTOM
 62
3
100
AcDbLine
 10
363.7968398998965
 20
163.3789252738117
 30
0.0000000000000000
 11
371.7968398998966
 21
163.3789252738118
 31
0.0000000000000000
  0
LINE
  5
E2
100
AcDbEntity
  8
MAIN0
  6
CENTER
 62
3
100
AcDbLine
 10
398.2968398998966
 20
183.7736110712673
 30
0.0000000000000000
 11
398.2968398998966
 21
167.7068988895011
 31
0.0000000000000000
  0
LINE
  5
E3
100
AcDbEntity
  8
MAIN0
  6
CENTER
 62
3
100
AcDbLine
 10
410.7968398998966
 20
184.8774279921350
 30
0.0000000000000000
 11
410.7968398998966
 21
158.3857563909391
 31
0.0000000000000000
  0
LINE
  5
E4
100
AcDbEntity
  8
MAIN0
  6
CONTINUOUS
 62
3
100
AcDbLine
 10
387.2968398998966
 20
164.3789252738114
 30
0.0000000000000000
 11
427.2968398998965
 21
164.3789252738119
 31
0.0000000000000000
  0
LINE
  5
E5
100
AcDbEntity
  8
MAIN0
  6
CONTINUOUS
 62
3
100
AcDbLine
 10
387.2968398998965
 20
184.3789252738114
 30
0.0000000000000000
 11
427.2968398998966
 21
184.3789252738119
 31
0.0000000000000000
  0
LINE
  5
E6
100
AcDbEntity
  8
MAIN0
  6
PHANTOM
 62
3
100
AcDbLine
 10
417.3753398998966
 20
164.3789252738119
 30
0.0000000000000000
 11
417.0815898998963
 21
173.7789252738119
 31
0.0000000000000000
  0
LINE
  5
E7
100
AcDbEntity
  8
MAIN0
  6
PHANTOM
 62
3
100
AcDbLine
 10
417.0815898998962
 20
173.7789252738119
 30
0.0000000000000000
 11
404.5120898998963
 21
173.7789252738115
 31
0.0000000000000000
  0
LINE
  5
E8
100
AcDbEntity
  8
MAIN0
  6
PHANTOM
 62
3
100
AcDbLine
 10
404.5120898998962
 20
173.7789252738115
 30
0.0000000000000000
 11
404.2183398998965
 21
164.3789252738115
 31
0.0000000000000000
  0
LINE
  5
E9
100
AcDbEntity
  8
MAIN0
  6
PHANTOM
 62
3
100
AcDbLine
 10
416.5193398998966
 20
164.3789252738118
 30
0.0000000000000000
 11
416.2255898998963
 21
173.7789252738119
 31
0.0000000000000000
  0
LINE
  5
EA
100
AcDbEntity
  8
MAIN0
  6
PHANTOM
 62
3
100
AcDbLine
 10
405.0743398998965
 20
164.3789252738115
 30
0.0000000000000000
 11
405.3680898998962
 21
173.7789252738115
 31
0.0000000000000000
  0
LINE
  5
EB
100
AcDbEntity
  8
MAIN0
  6
PHANTOM
 62
3
100
AcDbLine
 10
416.1968398998963
 20
173.7789252738119
 30
0.0000000000000000
 11
416.1968398998961
 21
179.3789252738119
 31
0.0000000000000000
  0
LINE
  5
EC
100
AcDbEntity
  8
MAIN0
  6
PHANTOM
 62
3
100
AcDbLine
 10
416.1968398998961
 20
179.3789252738118
 30
0.0000000000000000
 11
405.3968398998961
 21
179.3789252738115
 31
0.0000000000000000
  0
LINE
  5
ED
100
AcDbEntity
  8
MAIN0
  6
PHANTOM
 62
3
100
AcDbLine
 10
405.3968398998961
 20
179.3789252738115
 30
0.0000000000000000
 11
405.3968398998963
 21
173.7789252738115
 31
0.0000000000000000
  0
LINE
  5
EE
100
AcDbEntity
  8
MAIN0
  6
PHANTOM
 62
3
100
AcDbLine
 10
416.1968398998961
 20
179.3789252738118
 30
0.0000000000000000
 11
410.7968398998960
 21
182.4966167274356
 31
0.0000000000000000
  0
LINE
  5
EF
100
AcDbEntity
  8
MAIN0
  6
PHANTOM
 62
3
100
AcDbLine
 10
410.7968398998959
 20
182.4966167274356
 30
0.0000000000000000
 11
405.3968398998960
 21
179.3789252738115
 31
0.0000000000000000
  0
LINE
  5
F0
100
AcDbEntity
  8
MAIN0
  6
PHANTOM
 62
3
100
AcDbLine
 10
410.7968398998966
 20
169.3789252738117
 30
0.0000000000000000
 11
416.3630898998964
 21
169.3789252738117
 31
0.0000000000000000
  0
LINE
  5
F1
100
AcDbEntity
  8
MAIN0
  6
PHANTOM
 62
3
100
AcDbLine
 10
410.7968398998966
 20
163.3789252738117
 30
0.0000000000000000
 11
418.7968398998966
 21
163.3789252738118
 31
0.0000000000000000
  0
LINE
  5
F2
100
AcDbEntity
  8
MAIN0
  6
PHANTOM
 62
3
100
AcDbLine
 10
418.7968398998966
 20
164.3789252738118
 30
0.0000000000000000
 11
418.7968398998966
 21
163.3789252738118
 31
0.0000000000000000
  0
LINE
  5
F3
100
AcDbEntity
  8
MAIN0
  6
PHANTOM
 62
3
100
AcDbLine
 10
414.6960838206533
 20
168.6880710453607
 30
0.0000000000000000
 11
410.7968398998966
 21
168.6880710453607
 31
0.0000000000000000
  0
LINE
  5
F4
100
AcDbEntity
  8
MAIN0
  6
PHANTOM
 62
3
100
AcDbLine
 10
415.6960838206533
 20
167.6880710453607
 30
0.0000000000000000
 11
415.6960838206533
 21
163.3789252738118
 31
0.0000000000000000
  0
ARC
  5
F5
100
AcDbEntity
  8
MAIN0
  6
PHANTOM
 62
3
100
AcDbCircle
 10
414.6960838206533
 20
167.6880710453607
 30
0.0000000000000000
 40
1.000000000000000
100
AcDbArc
 50
3.663998993045972e-012
 51
90.00000000057453
  0
LINE
  5
F6
100
AcDbEntity
  8
MAIN0
  6
PHANTOM
 62
3
100
AcDbLine
 10
410.7968398998965
 20
169.3789252738117
 30
0.0000000000000000
 11
405.2305898998966
 21
169.3789252738117
 31
0.0000000000000000
  0
LINE
  5
F7
100
AcDbEntity
  8
MAIN0
  6
PHANTOM
 62
3
100
AcDbLine
 10
406.8975959791398
 20
168.6880710453607
 30
0.0000000000000000
 11
410.7968398998965
 21
168.6880710453607
 31
0.0000000000000000
  0
ARC
  5
F8
100
AcDbEntity
  8
MAIN0
  6
PHANTOM
 62
3
100
AcDbCircle
 10
406.8975959791398
 20
167.6880710453607
 30
0.0000000000000000
 40
1.000000000000000
100
AcDbArc
 50
89.99999999942543
 51
179.9999999999963
  0
LINE
  5
F9
100
AcDbEntity
  8
MAIN0
  6
PHANTOM
 62
3
100
AcDbLine
 10
405.8975959791398
 20
167.6880710453607
 30
0.0000000000000000
 11
405.8975959791398
 21
163.3789252738118
 31
0.0000000000000000
  0
LINE
  5
FA
100
AcDbEntity
  8
MAIN0
  6
PHANTOM
 62
3
100
AcDbLine
 10
402.7968398998965
 20
164.3789252738118
 30
0.0000000000000000
 11
402.7968398998965
 21
163.3789252738118
 31
0.0000000000000000
  0
LINE
  5
FB
100
AcDbEntity
  8
MAIN0
  6
PHANTOM
 62
3
100
AcDbLine
 10
410.7968398998965
 20
163.3789252738117
 30
0.0000000000000000
 11
402.7968398998964
 21
163.3789252738118
 31
0.0000000000000000
  0
CIRCLE
  5
FC
100
AcDbEntity
  8
MAIN0
  6
CONTINUOUS
 62
3
100
AcDbCircle
 10
376.2968398998964
 20
176.8789252738116
 30
0.0000000000000000
 40
5.500000000000000
  0
CIRCLE
  5
FD
100
AcDbEntity
  8
MAIN0
  6
CONTINUOUS
 62
3
100
AcDbCircle
 10
398.2968398998966
 20
176.8789252738113
 30
0.0000000000000000
 40
5.500000000000000
  0
LINE
  5
FE
100
AcDbEntity
  8
MAIN0
  6
CENTER
 62
3
100
AcDbLine
 10
162.4218534094996
 20
59.07151738201611
 30
0.0000000000000000
 11
215.7038091935021
 21
59.07151738201611
 31
0.0000000000000000
  0
LINE
  5
FF
100
AcDbEntity
  8
MAIN0
  6
CONTINUOUS
 62
3
100
AcDbLine
 10
204.8315763061090
 20
43.57151738201611
 30
0.0000000000000000
 11
204.8315763061090
 21
34.31310694978504
 31
0.0000000000000000
  0
LINE
  5
100
100
AcDbEntity
  8
MAIN0
  6
CONTINUOUS
 62
3
100
AcDbLine
 10
204.8315763061091
 20
83.76926539433475
 30
0.0000000000000000
 11
204.8315763061091
 21
74.57151738201611
 31
0.0000000000000000
  0
LINE
  5
101
100
AcDbEntity
  8
MAIN0
  6
CONTINUOUS
 62
3
100
AcDbLine
 10
208.8315763061090
 20
74.14886765120593
 30
0.0000000000000000
 11
208.8315763061090
 21
65.49416711282731
 31
0.0000000000000000
  0
LINE
  5
102
100
AcDbEntity
  8
MAIN0
  6
CONTINUOUS
 62
3
100
AcDbLine
 10
208.8315763061091
 20
43.99416711282629
 30
0.0000000000000000
 11
208.8315763061090
 21
52.64886765120491
 31
0.0000000000000000
  0
SPLINE
  5
103
100
AcDbEntity
  8
MAIN0
  6
CONTINUOUS
 62
3
100
AcDbSpline
210
0.0000000000000000
220
0.0000000000000000
230
1.000000000000000
 70
     8
 71
     3
 72
    10
 73
     6
 74
     0
 42
1.000000000000000e-007
 43
1.000000000000000e-007
 12
-0.9493655079074870
 22
-0.3715351203537907
 32
0.0000000000000000
 13
-0.9826108496681627
 23
-0.2287616611011742
 33
0.0000000000000000
 40
0.0000000000000000
 40
0.0000000000000000
 40
0.0000000000000000
 40
0.0000000000000000
 40
1.869231956714330
 40
3.889389605560871
 40
6.384939262287395
 40
6.384939262287395
 40
6.384939262287395
 40
6.384939262287395
 10
204.8315763061090
 20
34.31310694978504
 30
0.0000000000000000
 10
204.2400481907813
 20
34.08161184311604
 30
0.0000000000000000
 10
203.0092307446702
 20
33.59993023138114
 30
0.0000000000000000
 10
200.8473966964277
 20
34.02528062210556
 30
0.0000000000000000
 10
199.3683356989671
 20
33.68094038734895
 30
0.0000000000000000
 10
198.5509509761054
 20
33.49064502573788
 30
0.0000000000000000
  0
SPLINE
  5
104
100
AcDbEntity
  8
MAIN0
  6
CONTINUOUS
 62
3
100
AcDbSpline
210
0.0000000000000000
220
0.0000000000000000
230
1.000000000000000
 70
     8
 71
     3
 72
    10
 73
     6
 74
     0
 42
1.000000000000000e-007
 43
1.000000000000000e-007
 12
-0.9379339174996062
 22
0.3847192668568198
 32
0.0000000000000000
 13
-0.9951126918254545
 23
0.07653676490568273
 33
0.0000000000000000
 40
0.0000000000000000
 40
0.0000000000000000
 40
0.0000000000000000
 40
0.0000000000000000
 40
1.418650845669134
 40
3.736500160511184
 40
5.457819694106710
 40
5.457819694106710
 40
5.457819694106710
 40
5.457819694106710
 10
204.8315763061091
 20
83.76926539433475
 30
0.0000000000000000
 10
204.3880427243615
 20
83.95119283209198
 30
0.0000000000000000
 10
203.2198459799327
 20
84.43036069954613
 30
0.0000000000000000
 10
201.3589594954938
 20
84.14568565098696
 30
0.0000000000000000
 10
200.0191501003251
 20
84.24873395650940
 30
0.0000000000000000
 10
199.4481811288024
 20
84.29264869933286
 30
0.0000000000000000
  0
LINE
  5
105
100
AcDbEntity
  8
MAIN0
  6
CENTER
 62
3
100
AcDbLine
 10
508.5712989273607
 20
267.3789252738102
 30
0.0000000000000000
 11
275.1448385026704
 21
267.3789252738125
 31
0.0000000000000000
  0
LINE
  5
106
100
AcDbEntity
  8
MAIN0
  6
PHANTOM
 62
3
100
AcDbLine
 10
133.2530763061080
 20
164.3789252738141
 30
0.0000000000000000
 11
133.5468263061083
 21
173.7789252738141
 31
0.0000000000000000
  0
LINE
  5
107
100
AcDbEntity
  8
MAIN0
  6
PHANTOM
 62
3
100
AcDbLine
 10
133.5468263061083
 20
173.7789252738141
 30
0.0000000000000000
 11
146.1163263061083
 21
173.7789252738137
 31
0.0000000000000000
  0
LINE
  5
108
100
AcDbEntity
  8
MAIN0
  6
PHANTOM
 62
3
100
AcDbLine
 10
146.1163263061083
 20
173.7789252738137
 30
0.0000000000000000
 11
146.4100763061081
 21
164.3789252738137
 31
0.0000000000000000
  0
LINE
  5
109
100
AcDbEntity
  8
MAIN0
  6
PHANTOM
 62
3
100
AcDbLine
 10
134.1090763061081
 20
164.3789252738141
 30
0.0000000000000000
 11
134.4028263061083
 21
173.7789252738140
 31
0.0000000000000000
  0
LINE
  5
10A
100
AcDbEntity
  8
MAIN0
  6
PHANTOM
 62
3
100
AcDbLine
 10
145.5540763061081
 20
164.3789252738137
 30
0.0000000000000000
 11
145.2603263061083
 21
173.7789252738137
 31
0.0000000000000000
  0
LINE
  5
10B
100
AcDbEntity
  8
MAIN0
  6
PHANTOM
 62
3
100
AcDbLine
 10
134.4315763061083
 20
173.7789252738140
 30
0.0000000000000000
 11
134.4315763061085
 21
177.7887998981622
 31
0.0000000000000000
  0
LINE
  5
10C
100
AcDbEntity
  8
MAIN0
  6
PHANTOM
 62
3
100
AcDbLine
 10
145.2315763061085
 20
178.3837038888557
 30
0.0000000000000000
 11
145.2315763061083
 21
173.7789252738137
 31
0.0000000000000000
  0
LINE
  5
10D
100
AcDbEntity
  8
MAIN0
  6
PHANTOM
 62
3
100
AcDbLine
 10
139.8315763061080
 20
169.3789252738139
 30
0.0000000000000000
 11
134.2653263061082
 21
169.3789252738139
 31
0.0000000000000000
  0
LINE
  5
10E
100
AcDbEntity
  8
MAIN0
  6
PHANTOM
 62
3
100
AcDbLine
 10
139.8315763061080
 20
163.3789252738139
 30
0.0000000000000000
 11
131.8315763061080
 21
163.3789252738139
 31
0.0000000000000000
  0
LINE
  5
10F
100
AcDbEntity
  8
MAIN0
  6
PHANTOM
 62
3
100
AcDbLine
 10
131.8315763061081
 20
164.3789252738139
 30
0.0000000000000000
 11
131.8315763061081
 21
163.3789252738139
 31
0.0000000000000000
  0
LINE
  5
110
100
AcDbEntity
  8
MAIN0
  6
PHANTOM
 62
3
100
AcDbLine
 10
135.9323323853513
 20
168.6880710453629
 30
0.0000000000000000
 11
139.8315763061081
 21
168.6880710453629
 31
0.0000000000000000
  0
LINE
  5
111
100
AcDbEntity
  8
MAIN0
  6
PHANTOM
 62
3
100
AcDbLine
 10
134.9323323853513
 20
167.6880710453629
 30
0.0000000000000000
 11
134.9323323853513
 21
163.3789252738139
 31
0.0000000000000000
  0
ARC
  5
112
100
AcDbEntity
  8
MAIN0
  6
PHANTOM
 62
3
100
AcDbCircle
 10
135.9323323853513
 20
167.6880710453629
 30
0.0000000000000000
 40
1.000000000000000
100
AcDbArc
 50
89.99999999942553
 51
179.9999999999964
  0
LINE
  5
113
100
AcDbEntity
  8
MAIN0
  6
PHANTOM
 62
3
100
AcDbLine
 10
139.8315763061081
 20
169.3789252738139
 30
0.0000000000000000
 11
145.3978263061079
 21
169.3789252738139
 31
0.0000000000000000
  0
LINE
  5
114
100
AcDbEntity
  8
MAIN0
  6
PHANTOM
 62
3
100
AcDbLine
 10
143.7308202268648
 20
168.6880710453629
 30
0.0000000000000000
 11
139.8315763061081
 21
168.6880710453629
 31
0.0000000000000000
  0
ARC
  5
115
100
AcDbEntity
  8
MAIN0
  6
PHANTOM
 62
3
100
AcDbCircle
 10
143.7308202268648
 20
167.6880710453629
 30
0.0000000000000000
 40
1.000000000000000
100
AcDbArc
 50
3.740332305401095e-012
 51
90.00000000057460
  0
LINE
  5
116
100
AcDbEntity
  8
MAIN0
  6
PHANTOM
 62
3
100
AcDbLine
 10
144.7308202268648
 20
167.6880710453629
 30
0.0000000000000000
 11
144.7308202268648
 21
163.3789252738140
 31
0.0000000000000000
  0
LINE
  5
117
100
AcDbEntity
  8
MAIN0
  6
PHANTOM
 62
3
100
AcDbLine
 10
147.8315763061081
 20
164.3789252738140
 30
0.0000000000000000
 11
147.8315763061081
 21
163.3789252738140
 31
0.0000000000000000
  0
LINE
  5
118
100
AcDbEntity
  8
MAIN0
  6
PHANTOM
 62
3
100
AcDbLine
 10
139.8315763061081
 20
163.3789252738139
 30
0.0000000000000000
 11
147.8315763061082
 21
163.3789252738140
 31
0.0000000000000000
  0
LINE
  5
119
100
AcDbEntity
  8
MAIN0
  6
CONTINUOUS
 62
3
100
AcDbLine
 10
204.8315763061094
 20
257.3789252738123
 30
0.0000000000000000
 11
204.8315763061093
 21
186.4789252738134
 31
0.0000000000000000
  0
LINE
  5
11A
100
AcDbEntity
  8
MAIN0
  6
PHANTOM
 62
3
100
AcDbLine
 10
130.7069005929070
 20
207.3789252738140
 30
0.0000000000000000
 11
106.9985117294117
 21
207.3789252738142
 31
0.0000000000000000
  0
LINE
  5
11B
100
AcDbEntity
  8
MAIN0
  6
CONTINUOUS
 62
3
100
AcDbLine
 10
129.3315763061092
 20
250.0748877593873
 30
0.0000000000000000
 11
129.3315763061093
 21
254.8789252738139
 31
0.0000000000000000
  0
LINE
  5
11C
100
AcDbEntity
  8
MAIN0
  6
CENTER
 62
3
100
AcDbLine
 10
446.5925381495453
 20
326.6746235234143
 30
0.0000000000000000
 11
459.7395486318235
 21
339.8216340056824
 31
0.0000000000000000
  0
CIRCLE
  5
11D
100
AcDbEntity
  8
MAIN0
  6
CONTINUOUS
 62
3
100
AcDbCircle
 10
452.7042171596774
 20
332.7863025335417
 30
0.0000000000000000
 40
5.500000000000000
  0
LINE
  5
11E
100
AcDbEntity
  8
MAIN0
  6
CENTER
 62
3
100
AcDbLine
 10
308.5715023780487
 20
221.9268304636711
 30
0.0000000000000000
 11
391.8028645634309
 21
269.9804798262701
 31
0.0000000000000000
  0
LINE
  5
11F
100
AcDbEntity
  8
MAIN0
  6
CENTER
 62
3
100
AcDbLine
 10
417.0271002328896
 20
284.5436990800887
 30
0.0000000000000000
 11
463.2839186019506
 21
311.2500856172380
 31
0.0000000000000000
  0
LINE
  5
120
100
AcDbEntity
  8
MAIN0
  6
CENTER
 62
3
100
AcDbLine
 10
335.4079622109201
 20
177.5047527687783
 30
0.0000000000000000
 11
345.2892629434979
 21
194.6196676824704
 31
0.0000000000000000
  0
LINE
  5
121
100
AcDbEntity
  8
MAIN0
  6
CENTER
 62
3
100
AcDbLine
 10
410.1411912914312
 20
306.9465025499059
 30
0.0000000000000000
 11
439.2742900094880
 21
357.4065097114997
 31
0.0000000000000000
  0
LINE
  5
122
100
AcDbEntity
  8
MAIN0
  6
CENTER
 62
3
100
AcDbLine
 10
328.0011416502936
 20
326.6746235234603
 30
0.0000000000000000
 11
314.8541311680254
 21
339.8216340057386
 31
0.0000000000000000
  0
CIRCLE
  5
123
100
AcDbEntity
  8
MAIN0
  6
CONTINUOUS
 62
3
100
AcDbCircle
 10
321.8894626401661
 20
332.7863025335924
 30
0.0000000000000000
 40
5.500000000000000
  0
LINE
  5
124
100
AcDbEntity
  8
MAIN0
  6
CENTER
 62
3
100
AcDbLine
 10
328.0011416502475
 20
208.0832270242086
 30
0.0000000000000000
 11
314.8541311679692
 21
194.9362165419404
 31
0.0000000000000000
  0
CIRCLE
  5
125
100
AcDbEntity
  8
MAIN0
  6
CONTINUOUS
 62
3
100
AcDbCircle
 10
321.8894626401155
 20
201.9715480140812
 30
0.0000000000000000
 40
5.500000000000000
  0
LINE
  5
126
100
AcDbEntity
  8
MAIN0
  6
CENTER
 62
3
100
AcDbLine
 10
446.5925381494992
 20
208.0832270241626
 30
0.0000000000000000
 11
459.7395486317674
 21
194.9362165418843
 31
0.0000000000000000
  0
CIRCLE
  5
127
100
AcDbEntity
  8
MAIN0
  6
CONTINUOUS
 62
3
100
AcDbCircle
 10
452.7042171596268
 20
201.9715480140305
 30
0.0000000000000000
 40
5.500000000000000
  0
LINE
  5
128
100
AcDbEntity
  8
MAIN0
  6
CENTER
 62
3
100
AcDbLine
 10
439.1857175888719
 20
177.5047527687778
 30
0.0000000000000000
 11
421.9043685023492
 21
207.4369274099695
 31
0.0000000000000000
  0
CIRCLE
  5
129
100
AcDbEntity
  8
MAIN0
  6
CONTINUOUS
 62
3
100
AcDbCircle
 10
433.5468398998960
 20
187.2715754237506
 30
0.0000000000000000
 40
5.000000000000000
  0
LINE
  5
12A
100
AcDbEntity
  8
MAIN0
  6
CENTER
 62
3
100
AcDbLine
 10
345.4890927342387
 20
339.7920675147251
 30
0.0000000000000000
 11
335.3193897903056
 21
357.4065097115002
 31
0.0000000000000000
  0
CIRCLE
  5
12B
100
AcDbEntity
  8
MAIN0
  6
CONTINUOUS
 62
3
100
AcDbCircle
 10
341.0468398998968
 20
347.4862751238722
 30
0.0000000000000000
 40
5.000000000000000
  0
CIRCLE
  5
12C
100
AcDbEntity
  8
MAIN0
  6
CONTINUOUS
 62
3
100
AcDbCircle
 10
341.0468398998968
 20
347.4862751238722
 30
0.0000000000000000
 40
4.250000000000000
  0
CIRCLE
  5
12D
100
AcDbEntity
  8
MAIN0
  6
CONTINUOUS
 62
3
100
AcDbCircle
 10
433.5468398998960
 20
187.2715754237506
 30
0.0000000000000000
 40
4.250000000000000
  0
CIRCLE
  5
12E
100
AcDbEntity
  8
MAIN0
  6
CONTINUOUS
 62
3
100
AcDbCircle
 10
479.7968398998964
 20
267.3789252738109
 30
0.0000000000000000
 40
5.000000000000000
  0
CIRCLE
  5
12F
100
AcDbEntity
  8
MAIN0
  6
CONTINUOUS
 62
3
100
AcDbCircle
 10
294.7968398998964
 20
267.3789252738118
 30
0.0000000000000000
 40
5.000000000000000
  0
CIRCLE
  5
130
100
AcDbEntity
  8
MAIN0
  6
CONTINUOUS
 62
3
100
AcDbCircle
 10
294.7968398998964
 20
267.3789252738118
 30
0.0000000000000000
 40
4.250000000000000
  0
CIRCLE
  5
131
100
AcDbEntity
  8
MAIN0
  6
CONTINUOUS
 62
3
100
AcDbCircle
 10
479.7968398998964
 20
267.3789252738109
 30
0.0000000000000000
 40
4.250000000000000
  0
LINE
  5
132
100
AcDbEntity
  8
MAIN0
  6
CONTINUOUS
 62
3
100
AcDbLine
 10
371.7968398998964
 20
356.1289252738129
 30
0.0000000000000000
 11
402.7968398998964
 21
356.1289252738129
 31
0.0000000000000000
  0
LINE
  5
133
100
AcDbEntity
  8
MAIN0
  6
CENTER
 62
3
100
AcDbLine
 10
373.9893977170037
 20
341.1289252738130
 30
0.0000000000000000
 11
400.8805632959475
 21
341.1289252738130
 31
0.0000000000000000
  0
LINE
  5
134
100
AcDbEntity
  8
MAIN0
  6
CENTER
 62
3
100
AcDbLine
 10
372.9191488689669
 20
321.1289252738130
 30
0.0000000000000000
 11
401.7267996203554
 21
321.1289252738130
 31
0.0000000000000000
  0
LINE
  5
135
100
AcDbEntity
  8
MAIN0
  6
HIDDEN
 62
3
100
AcDbLine
 10
374.2968398998968
 20
350.8789252738134
 30
0.0000000000000000
 11
400.2968398998966
 21
350.8789252738134
 31
0.0000000000000000
  0
ARC
  5
136
100
AcDbEntity
  8
MAIN0
  6
CENTER
 62
3
100
AcDbCircle
 10
387.2968398998964
 20
267.3789252738114
 30
0.0000000000000000
 40
55.00000000000000
100
AcDbArc
 50
20.06523372111925
 51
37.23675516785433
  0
ARC
  5
137
100
AcDbEntity
  8
MAIN0
  6
CENTER
 62
3
100
AcDbCircle
 10
387.2968398998964
 20
267.3789252738114
 30
0.0000000000000000
 40
73.00000000000000
100
AcDbArc
 50
19.60150872646555
 51
35.71796913530852
  0
ARC
  5
138
100
AcDbEntity
  8
MAIN0
  6
CENTER
 62
3
100
AcDbCircle
 10
387.2968398998964
 20
267.3789252738114
 30
0.0000000000000000
 40
70.00000000000000
100
AcDbArc
 50
6.779547251583914
 51
23.22685599202151
  0
LINE
  5
139
100
AcDbEntity
  8
MAIN0
  6
CENTER
 62
3
100
AcDbLine
 10
446.6398950276179
 20
283.2798489717433
 30
0.0000000000000000
 11
463.0233671509397
 21
287.6697870964227
 31
0.0000000000000000
  0
CIRCLE
  5
13A
100
AcDbEntity
  8
MAIN0
  6
CONTINUOUS
 62
3
100
AcDbCircle
 10
454.9116477400967
 20
285.4962584310508
 30
0.0000000000000000
 40
7.500000000000000
  0
ARC
  5
13B
100
AcDbEntity
  8
MAIN0
  6
CENTER
 62
3
100
AcDbCircle
 10
387.2968398998964
 20
267.3789252738114
 30
0.0000000000000000
 40
42.25000000000000
100
AcDbArc
 50
21.16919355016960
 51
38.45986014007009
  0
LINE
  5
13C
100
AcDbEntity
  8
MAIN0
  6
CENTER
 62
3
100
AcDbLine
 10
467.5129077124233
 20
292.7715992681741
 30
0.0000000000000000
 11
444.2987605166375
 21
279.3689051357217
 31
0.0000000000000000
  0
LINE
  5
13D
100
AcDbEntity
  8
MAIN0
  6
CONTINUOUS
 62
3
100
AcDbLine
 10
371.7968398998964
 20
356.1289252738129
 30
0.0000000000000000
 11
371.7968398998964
 21
289.6137528310974
 31
0.0000000000000000
  0
LINE
  5
13E
100
AcDbEntity
  8
MAIN0
  6
CONTINUOUS
 62
3
100
AcDbLine
 10
402.7968398998964
 20
356.1289252738129
 30
0.0000000000000000
 11
402.7968398998964
 21
289.6137528310971
 31
0.0000000000000000
  0
LINE
  5
13F
100
AcDbEntity
  8
MAIN0
  6
CENTER
 62
3
100
AcDbLine
 10
376.2968398998964
 20
311.0655896773551
 30
0.0000000000000000
 11
376.2968398998964
 21
302.4774176159168
 31
0.0000000000000000
  0
LINE
  5
140
100
AcDbEntity
  8
MAIN0
  6
CENTER
 62
3
100
AcDbLine
 10
398.2968398998964
 20
311.0655896773551
 30
0.0000000000000000
 11
398.2968398998964
 21
302.4774176159168
 31
0.0000000000000000
  0
LINE
  5
141
100
AcDbEntity
  8
MAIN0
  6
CONTINUOUS
 62
3
100
AcDbLine
 10
369.7968398998964
 20
311.8916404459587
 30
0.0000000000000000
 11
369.7968398998964
 21
296.8916404459587
 31
0.0000000000000000
  0
LINE
  5
142
100
AcDbEntity
  8
MAIN0
  6
CONTINUOUS
 62
3
100
AcDbLine
 10
404.7968398998964
 20
311.8916404459587
 30
0.0000000000000000
 11
404.7968398998964
 21
296.8916404459587
 31
0.0000000000000000
  0
LINE
  5
143
100
AcDbEntity
  8
MAIN0
  6
CENTER
 62
3
100
AcDbLine
 10
372.1864904535106
 20
307.3789252738132
 30
0.0000000000000000
 11
382.3724683468561
 21
307.3789252738132
 31
0.0000000000000000
  0
LINE
  5
144
100
AcDbEntity
  8
MAIN0
  6
CENTER
 62
3
100
AcDbLine
 10
392.7581605408358
 20
307.3789252738132
 30
0.0000000000000000
 11
401.9455059797879
 21
307.3789252738132
 31
0.0000000000000000
  0
CIRCLE
  5
145
100
AcDbEntity
  8
MAIN0
  6
CONTINUOUS
 62
3
100
AcDbCircle
 10
454.9116477401132
 20
285.4962584310552
 30
0.0000000000000000
 40
4.000000000000000
  0
CIRCLE
  5
146
100
AcDbEntity
  8
MAIN0
  6
CONTINUOUS
 62
3
100
AcDbCircle
 10
454.9116477401132
 20
285.4962584310552
 30
0.0000000000000000
 40
2.500000000000000
  0
CIRCLE
  5
147
100
AcDbEntity
  8
MAIN0
  6
CONTINUOUS
 62
3
100
AcDbCircle
 10
454.9116477401132
 20
285.4962584310552
 30
0.0000000000000000
 40
1.000000000000000
  0
LINE
  5
148
100
AcDbEntity
  8
MAIN0
  6
HIDDEN
 62
3
100
AcDbLine
 10
364.7968398998964
 20
299.8789252738134
 30
0.0000000000000000
 11
371.7968398998964
 21
299.8789252738134
 31
0.0000000000000000
  0
LINE
  5
149
100
AcDbEntity
  8
MAIN0
  6
HIDDEN
 62
3
100
AcDbLine
 10
402.7968398998964
 20
299.8789252738134
 30
0.0000000000000000
 11
409.7968398998964
 21
299.8789252738134
 31
0.0000000000000000
  0
LINE
  5
14A
100
AcDbEntity
  8
MAIN0
  6
CENTER
 62
3
100
AcDbLine
 10
477.6822260912209
 20
215.1948982252785
 30
0.0000000000000000
 11
297.8938023668023
 21
318.9957930600756
 31
0.0000000000000000
  0
ARC
  5
14B
100
AcDbEntity
  8
MAIN0
  6
CENTER
 62
3
100
AcDbCircle
 10
387.2968398998964
 20
267.3789252738114
 30
0.0000000000000000
 40
55.00000000000000
100
AcDbArc
 50
143.3866406545161
 51
157.2367551678543
  0
ARC
  5
14C
100
AcDbEntity
  8
MAIN0
  6
CENTER
 62
3
100
AcDbCircle
 10
387.2968398998964
 20
267.3789252738114
 30
0.0000000000000000
 40
73.00000000000000
100
AcDbArc
 50
144.7183175941363
 51
155.7179691353085
  0
ARC
  5
14D
100
AcDbEntity
  8
MAIN0
  6
CENTER
 62
3
100
AcDbCircle
 10
387.2968398998964
 20
267.3789252738114
 30
0.0000000000000000
 40
42.25000000000000
100
AcDbArc
 50
141.1691935501696
 51
158.4598601400701
  0
CIRCLE
  5
14E
100
AcDbEntity
  8
MAIN0
  6
CONTINUOUS
 62
3
100
AcDbCircle
 10
350.7072665900327
 20
288.5039252738612
 30
0.0000000000000000
 40
4.250000000000000
  0
LINE
  5
14F
100
AcDbEntity
  8
MAIN0
  6
CONTINUOUS
 62
3
100
AcDbLine
 10
348.7072665900327
 20
287.3492247354819
 30
0.0000000000000000
 11
350.7072665900328
 21
286.1945241971027
 31
0.0000000000000000
  0
LINE
  5
150
100
AcDbEntity
  8
MAIN0
  6
CONTINUOUS
 62
3
100
AcDbLine
 10
350.7072665900327
 20
286.1945241971027
 30
0.0000000000000000
 11
352.7072665900326
 21
287.3492247354819
 31
0.0000000000000000
  0
LINE
  5
151
100
AcDbEntity
  8
MAIN0
  6
CONTINUOUS
 62
3
100
AcDbLine
 10
352.7072665900326
 20
287.3492247354819
 30
0.0000000000000000
 11
352.7072665900327
 21
289.6586258122405
 31
0.0000000000000000
  0
LINE
  5
152
100
AcDbEntity
  8
MAIN0
  6
CONTINUOUS
 62
3
100
AcDbLine
 10
352.7072665900327
 20
289.6586258122404
 30
0.0000000000000000
 11
350.7072665900327
 21
290.8133263506197
 31
0.0000000000000000
  0
LINE
  5
153
100
AcDbEntity
  8
MAIN0
  6
CONTINUOUS
 62
3
100
AcDbLine
 10
350.7072665900326
 20
290.8133263506197
 30
0.0000000000000000
 11
348.7072665900327
 21
289.6586258122405
 31
0.0000000000000000
  0
LINE
  5
154
100
AcDbEntity
  8
MAIN0
  6
CONTINUOUS
 62
3
100
AcDbLine
 10
348.7072665900327
 20
289.6586258122405
 30
0.0000000000000000
 11
348.7072665900327
 21
287.3492247354819
 31
0.0000000000000000
  0
CIRCLE
  5
155
100
AcDbEntity
  8
MAIN0
  6
CONTINUOUS
 62
3
100
AcDbCircle
 10
339.6654426917897
 20
294.8789252738762
 30
0.0000000000000000
 40
4.000000000000000
  0
CIRCLE
  5
156
100
AcDbEntity
  8
MAIN0
  6
CONTINUOUS
 62
3
100
AcDbCircle
 10
339.6654426917897
 20
294.8789252738762
 30
0.0000000000000000
 40
3.400000000000000
  0
CIRCLE
  5
157
100
AcDbEntity
  8
MAIN0
  6
CONTINUOUS
 62
3
100
AcDbCircle
 10
324.0769854236820
 20
303.8789252738974
 30
0.0000000000000000
 40
4.000000000000000
  0
CIRCLE
  5
158
100
AcDbEntity
  8
MAIN0
  6
CONTINUOUS
 62
3
100
AcDbCircle
 10
324.0769854236820
 20
303.8789252738974
 30
0.0000000000000000
 40
3.400000000000000
  0
ARC
  5
159
100
AcDbEntity
  8
MAIN0
  6
CENTER
 62
3
100
AcDbCircle
 10
387.2968398998964
 20
267.3789252738114
 30
0.0000000000000000
 40
55.00000000000000
100
AcDbArc
 50
263.3866406545161
 51
277.2367551678543
  0
ARC
  5
15A
100
AcDbEntity
  8
MAIN0
  6
CENTER
 62
3
100
AcDbCircle
 10
387.2968398998964
 20
267.3789252738114
 30
0.0000000000000000
 40
73.00000000000000
100
AcDbArc
 50
264.7183175941362
 51
275.7179691353085
  0
ARC
  5
15B
100
AcDbEntity
  8
MAIN0
  6
CENTER
 62
3
100
AcDbCircle
 10
387.2968398998964
 20
267.3789252738114
 30
0.0000000000000000
 40
42.25000000000000
100
AcDbArc
 50
261.1691935501696
 51
278.4598601400700
  0
CIRCLE
  5
15C
100
AcDbEntity
  8
MAIN0
  6
CONTINUOUS
 62
3
100
AcDbCircle
 10
387.2968398998390
 20
225.1289252738114
 30
0.0000000000000000
 40
4.250000000000000
  0
LINE
  5
15D
100
AcDbEntity
  8
MAIN0
  6
CONTINUOUS
 62
3
100
AcDbLine
 10
389.2968398998390
 20
223.9742247354322
 30
0.0000000000000000
 11
389.2968398998390
 21
226.2836258121907
 31
0.0000000000000000
  0
LINE
  5
15E
100
AcDbEntity
  8
MAIN0
  6
CONTINUOUS
 62
3
100
AcDbLine
 10
389.2968398998390
 20
226.2836258121907
 30
0.0000000000000000
 11
387.2968398998391
 21
227.4383263505699
 31
0.0000000000000000
  0
LINE
  5
15F
100
AcDbEntity
  8
MAIN0
  6
CONTINUOUS
 62
3
100
AcDbLine
 10
387.2968398998391
 20
227.4383263505699
 30
0.0000000000000000
 11
385.2968398998390
 21
226.2836258121906
 31
0.0000000000000000
  0
LINE
  5
160
100
AcDbEntity
  8
MAIN0
  6
CONTINUOUS
 62
3
100
AcDbLine
 10
385.2968398998390
 20
226.2836258121907
 30
0.0000000000000000
 11
385.2968398998390
 21
223.9742247354322
 31
0.0000000000000000
  0
LINE
  5
161
100
AcDbEntity
  8
MAIN0
  6
CONTINUOUS
 62
3
100
AcDbLine
 10
385.2968398998391
 20
223.9742247354321
 30
0.0000000000000000
 11
387.2968398998390
 21
222.8195241970529
 31
0.0000000000000000
  0
LINE
  5
162
100
AcDbEntity
  8
MAIN0
  6
CONTINUOUS
 62
3
100
AcDbLine
 10
387.2968398998390
 20
222.8195241970529
 30
0.0000000000000000
 11
389.2968398998390
 21
223.9742247354321
 31
0.0000000000000000
  0
CIRCLE
  5
163
100
AcDbEntity
  8
MAIN0
  6
CONTINUOUS
 62
3
100
AcDbCircle
 10
387.2968398998216
 20
212.3789252738114
 30
0.0000000000000000
 40
4.000000000000000
  0
CIRCLE
  5
164
100
AcDbEntity
  8
MAIN0
  6
CONTINUOUS
 62
3
100
AcDbCircle
 10
387.2968398998216
 20
212.3789252738114
 30
0.0000000000000000
 40
3.400000000000000
  0
CIRCLE
  5
165
100
AcDbEntity
  8
MAIN0
  6
CONTINUOUS
 62
3
100
AcDbCircle
 10
387.2968398997972
 20
194.3789252738114
 30
0.0000000000000000
 40
4.000000000000000
  0
CIRCLE
  5
166
100
AcDbEntity
  8
MAIN0
  6
CONTINUOUS
 62
3
100
AcDbCircle
 10
387.2968398997972
 20
194.3789252738114
 30
0.0000000000000000
 40
3.400000000000000
  0
LINE
  5
167
100
AcDbEntity
  8
MAIN0
  6
CONTINUOUS
 62
3
100
AcDbLine
 10
381.2968398998971
 20
284.1289252738129
 30
0.0000000000000000
 11
393.2968398998964
 21
284.1289252738129
 31
0.0000000000000000
  0
LINE
  5
168
100
AcDbEntity
  8
MAIN0
  6
CONTINUOUS
 62
3
100
AcDbLine
 10
393.2968398998963
 20
284.1289252738128
 30
0.0000000000000000
 11
402.7968398998963
 21
289.6137528310971
 31
0.0000000000000000
  0
LINE
  5
169
100
AcDbEntity
  8
MAIN0
  6
CONTINUOUS
 62
3
100
AcDbLine
 10
371.7968398998964
 20
289.6137528310975
 30
0.0000000000000000
 11
381.2968398998970
 21
284.1289252738128
 31
0.0000000000000000
  0
LINE
  5
16A
100
AcDbEntity
  8
MAIN0
  6
CONTINUOUS
 62
3
100
AcDbLine
 10
402.7968398998965
 20
296.8916404459587
 30
0.0000000000000000
 11
404.7968398998964
 21
296.8916404459587
 31
0.0000000000000000
  0
LINE
  5
16B
100
AcDbEntity
  8
MAIN0
  6
CONTINUOUS
 62
3
100
AcDbLine
 10
369.7968398998964
 20
296.8916404459587
 30
0.0000000000000000
 11
371.7968398998964
 21
296.8916404459587
 31
0.0000000000000000
  0
LINE
  5
16C
100
AcDbEntity
  8
MAIN0
  6
HIDDEN
 62
3
100
AcDbLine
 10
371.7968398998964
 20
296.8916404459587
 30
0.0000000000000000
 11
402.7968398998965
 21
296.8916404459587
 31
0.0000000000000000
  0
LINE
  5
16D
100
AcDbEntity
  8
MAIN0
  6
HIDDEN
 62
3
100
AcDbLine
 10
400.2968398998966
 20
350.8789252738131
 30
0.0000000000000000
 11
402.7968398998964
 21
349.9689996881494
 31
0.0000000000000000
  0
LINE
  5
16E
100
AcDbEntity
  8
MAIN0
  6
CONTINUOUS
 62
3
100
AcDbLine
 10
402.7968398998964
 20
349.9689996881494
 30
0.0000000000000000
 11
409.7968398998964
 21
347.4212080482910
 31
0.0000000000000000
  0
LINE
  5
16F
100
AcDbEntity
  8
MAIN0
  6
CONTINUOUS
 62
3
100
AcDbLine
 10
364.7968398998964
 20
347.4212080482769
 30
0.0000000000000000
 11
371.7968398998964
 21
349.9689996881458
 31
0.0000000000000000
  0
LINE
  5
170
100
AcDbEntity
  8
MAIN0
  6
HIDDEN
 62
3
100
AcDbLine
 10
371.7968398998964
 20
349.9689996881458
 30
0.0000000000000000
 11
374.2968398998968
 21
350.8789252738135
 31
0.0000000000000000
  0
CIRCLE
  5
171
100
AcDbEntity
  8
MAIN0
  6
CONTINUOUS
 62
3
100
AcDbCircle
 10
387.2968398998964
 20
341.1289252738130
 30
0.0000000000000000
 40
8.500000000000000
  0
LINE
  5
172
100
AcDbEntity
  8
MAIN0
  6
CONTINUOUS
 62
3
100
AcDbLine
 10
369.7968398998964
 20
311.8916404459587
 30
0.0000000000000000
 11
371.7968398998964
 21
311.8916404459587
 31
0.0000000000000000
  0
LINE
  5
173
100
AcDbEntity
  8
MAIN0
  6
CONTINUOUS
 62
3
100
AcDbLine
 10
402.7968398998964
 20
311.8916404459587
 30
0.0000000000000000
 11
404.7968398998964
 21
311.8916404459587
 31
0.0000000000000000
  0
CIRCLE
  5
174
100
AcDbEntity
  8
MAIN0
  6
CONTINUOUS
 62
3
100
AcDbCircle
 10
387.2968398998964
 20
321.1289252738130
 30
0.0000000000000000
 40
8.000000000000000
  0
LINE
  5
175
100
AcDbEntity
  8
MAIN0
  6
CONTINUOUS
 62
3
100
AcDbLine
 10
387.2968398998963
 20
325.7477274273299
 30
0.0000000000000000
 11
383.2968398998963
 21
323.4383263505714
 31
0.0000000000000000
  0
LINE
  5
176
100
AcDbEntity
  8
MAIN0
  6
CONTINUOUS
 62
3
100
AcDbLine
 10
383.2968398998964
 20
323.4383263505714
 30
0.0000000000000000
 11
383.2968398998964
 21
318.8195241970545
 31
0.0000000000000000
  0
LINE
  5
177
100
AcDbEntity
  8
MAIN0
  6
CONTINUOUS
 62
3
100
AcDbLine
 10
383.2968398998964
 20
318.8195241970545
 30
0.0000000000000000
 11
387.2968398998963
 21
316.5101231202960
 31
0.0000000000000000
  0
LINE
  5
178
100
AcDbEntity
  8
MAIN0
  6
CONTINUOUS
 62
3
100
AcDbLine
 10
387.2968398998963
 20
316.5101231202959
 30
0.0000000000000000
 11
391.2968398998963
 21
318.8195241970545
 31
0.0000000000000000
  0
LINE
  5
179
100
AcDbEntity
  8
MAIN0
  6
CONTINUOUS
 62
3
100
AcDbLine
 10
391.2968398998964
 20
318.8195241970545
 30
0.0000000000000000
 11
391.2968398998964
 21
323.4383263505714
 31
0.0000000000000000
  0
LINE
  5
17A
100
AcDbEntity
  8
MAIN0
  6
CONTINUOUS
 62
3
100
AcDbLine
 10
391.2968398998963
 20
323.4383263505715
 30
0.0000000000000000
 11
387.2968398998964
 21
325.7477274273300
 31
0.0000000000000000
  0
CIRCLE
  5
17B
100
AcDbEntity
  8
MAIN0
  6
CONTINUOUS
 62
3
100
AcDbCircle
 10
387.2968398998964
 20
321.1289252738130
 30
0.0000000000000000
 40
8.500000000000000
  0
ARC
  5
17C
100
AcDbEntity
  8
MAIN0
  6
CONTINUOUS
 62
3
100
AcDbCircle
 10
387.2968398998964
 20
267.3789252738114
 30
0.0000000000000000
 40
82.50000000000000
100
AcDbArc
 50
100.8290184956322
 51
199.1709815043577
  0
ARC
  5
17D
100
AcDbEntity
  8
MAIN0
  6
CONTINUOUS
 62
3
100
AcDbCircle
 10
387.2968398998964
 20
267.3789252738114
 30
0.0000000000000000
 40
48.00000000000000
100
AcDbArc
 50
108.8394045472719
 51
191.1605954527179
  0
CIRCLE
  5
17E
100
AcDbEntity
  8
MAIN0
  6
CONTINUOUS
 62
3
100
AcDbCircle
 10
387.2968398998964
 20
267.3789252738114
 30
0.0000000000000000
 40
13.50000000000000
  0
ARC
  5
17F
100
AcDbEntity
  8
MAIN0
  6
CONTINUOUS
 62
3
100
AcDbCircle
 10
387.2968398998964
 20
267.3789252738114
 30
0.0000000000000000
 40
48.00000000000000
100
AcDbArc
 50
228.8394045472688
 51
311.1605954527179
  0
ARC
  5
180
100
AcDbEntity
  8
MAIN0
  6
CONTINUOUS
 62
3
100
AcDbCircle
 10
387.2968398998964
 20
267.3789252738114
 30
0.0000000000000000
 40
48.00000000000000
100
AcDbArc
 50
348.8394045472689
 51
431.1605954527180
  0
ARC
  5
181
100
AcDbEntity
  8
MAIN0
  6
CONTINUOUS
 62
3
100
AcDbCircle
 10
387.2968398998964
 20
267.3789252738114
 30
0.0000000000000000
 40
82.50000000000000
100
AcDbArc
 50
220.8290184956291
 51
319.1709815043576
  0
ARC
  5
182
100
AcDbEntity
  8
MAIN0
  6
CONTINUOUS
 62
3
100
AcDbCircle
 10
387.2968398998964
 20
267.3789252738114
 30
0.0000000000000000
 40
82.50000000000000
100
AcDbArc
 50
340.8290184956291
 51
439.1709815043577
  0
CIRCLE
  5
183
100
AcDbEntity
  8
MAIN0
  6
CONTINUOUS
 62
3
100
AcDbCircle
 10
467.4041897498943
 20
221.1289252737028
 30
0.0000000000000000
 40
5.000000000000000
  0
CIRCLE
  5
184
100
AcDbEntity
  8
MAIN0
  6
CONTINUOUS
 62
3
100
AcDbCircle
 10
307.1894900498987
 20
313.6289252739203
 30
0.0000000000000000
 40
5.000000000000000
  0
LINE
  5
185
100
AcDbEntity
  8
MAIN0
  6
CENTER
 62
3
100
AcDbLine
 10
370.7968398998964
 20
218.5471749782485
 30
0.0000000000000000
 11
370.7968398998964
 21
198.0618841563751
 31
0.0000000000000000
  0
LINE
  5
186
100
AcDbEntity
  8
MAIN0
  6
CENTER
 62
3
100
AcDbLine
 10
403.7968398998964
 20
218.5471749782485
 30
0.0000000000000000
 11
403.7968398998964
 21
198.0618841563750
 31
0.0000000000000000
  0
LINE
  5
187
100
AcDbEntity
  8
MAIN0
  6
CENTER
 62
3
100
AcDbLine
 10
379.7842975731275
 20
209.3789252738115
 30
0.0000000000000000
 11
358.3197973474219
 21
209.3789252738117
 31
0.0000000000000000
  0
LINE
  5
188
100
AcDbEntity
  8
MAIN0
  6
CENTER
 62
3
100
AcDbLine
 10
414.1274651820281
 20
209.3789252738112
 30
0.0000000000000000
 11
393.7362145317791
 21
209.3789252738114
 31
0.0000000000000000
  0
CIRCLE
  5
189
100
AcDbEntity
  8
MAIN0
  6
PHANTOM
 62
3
100
AcDbCircle
 10
363.7968398998964
 20
176.8789252738117
 30
0.0000000000000000
 40
2.500000000000000
  0
CIRCLE
  5
18A
100
AcDbEntity
  8
MAIN0
  6
PHANTOM
 62
3
100
AcDbCircle
 10
363.7968398998964
 20
176.8789252738117
 30
0.0000000000000000
 40
5.000000000000000
  0
ARC
  5
18B
100
AcDbEntity
  8
MAIN0
  6
CONTINUOUS
 62
3
100
AcDbCircle
 10
387.2968398998964
 20
267.3789252738114
 30
0.0000000000000000
 40
101.5000000000000
100
AcDbArc
 50
293.2091488561420
 51
606.7908511438412
  0
ARC
  5
18C
100
AcDbEntity
  8
MAIN0
  6
HIDDEN
 62
3
100
AcDbCircle
 10
387.2968398998964
 20
267.3789252738114
 30
0.0000000000000000
 40
101.5000000000000
100
AcDbArc
 50
246.7908511438478
 51
293.2091488561487
  0
ARC
  5
18D
100
AcDbEntity
  8
MAIN0
  6
PHANTOM
 62
3
100
AcDbCircle
 10
387.2968398998964
 20
267.3789252738114
 30
0.0000000000000000
 40
41.00000000000000
100
AcDbArc
 50
277.2942216319644
 51
291.6309090131266
  0
LINE
  5
18E
100
AcDbEntity
  8
MAIN0
  6
PHANTOM
 62
3
100
AcDbLine
 10
375.2574205109904
 20
221.0262442462033
 30
0.0000000000000000
 11
361.0627597626590
 21
166.3757199386276
 31
0.0000000000000000
  0
LINE
  5
18F
100
AcDbEntity
  8
MAIN0
  6
PHANTOM
 62
3
100
AcDbLine
 10
395.5141781341523
 20
235.7415476092866
 30
0.0000000000000000
 11
413.4919229591916
 21
166.5258616569685
 31
0.0000000000000000
  0
DIMENSION
  5
198
100
AcDbEntity
  8
MAIN0
  6
CONTINUOUS
 62
3
100
AcDbDimension
  2
*D0
 10
73.91515400421697
 20
165.8789252738142
 30
0.0000000000000000
 11
73.41515400421697
 21
267.3789252738142
 31
0.0000000000000000
 70
32
  1
\A1;\U+2205203h7
  3
MAIN001
100
AcDbAlignedDimension
 13
109.8315763061101
 23
368.8789252738142
 33
0.0000000000000000
 14
109.8315763061081
 24
165.8789252738142
 34
0.0000000000000000
 50
90.00000000000000
100
AcDbRotatedDimension
1001
ACAD
1000
DSTYLE
1002
{
1070
   173
1070
     1
1070
     6
1000
_OPEN
1070
     7
1000
_OPEN
1070
    41
1040
2.000000
1002
}
  0
DIMENSION
  5
1A1
100
AcDbEntity
  8
MAIN0
  6
CONTINUOUS
 62
3
100
AcDbDimension
  2
*D1
 10
109.8315763061089
 20
121.9569239625737
 30
0.0000000000000000
 11
121.8075887741562
 21
122.4569239625737
 31
0.0000000000000000
 70
160
  3
MAIN001
100
AcDbAlignedDimension
 13
139.8315763061080
 23
158.0024021222195
 33
0.0000000000000000
 14
109.8315763061089
 24
165.8789252738142
 34
0.0000000000000000
100
AcDbRotatedDimension
1001
ACAD
1000
DSTYLE
1002
{
1070
   173
1070
     1
1070
     6
1000
_OPEN
1070
     7
1000
_OPEN
1070
    41
1040
2.000000
1002
}
  0
DIMENSION
  5
1AA
100
AcDbEntity
  8
MAIN0
  6
CONTINUOUS
 62
3
100
AcDbDimension
  2
*D2
 10
109.8315763061089
 20
110.6880695321353
 30
0.0000000000000000
 11
117.3315763061085
 21
111.1880695321353
 31
0.0000000000000000
 70
32
  3
MAIN001
100
AcDbAlignedDimension
 13
124.8315763061080
 23
164.3789252738140
 33
0.0000000000000000
 14
109.8315763061089
 24
165.8789252738142
 34
0.0000000000000000
100
AcDbRotatedDimension
1001
ACAD
1000
DSTYLE
1002
{
1070
   173
1070
     1
1070
     6
1000
_OPEN
1070
     7
1000
_OPEN
1070
    41
1040
2.000000
1002
}
  0
DIMENSION
  5
1B3
100
AcDbEntity
  8
MAIN0
  6
CONTINUOUS
 62
3
100
AcDbDimension
  2
*D3
 10
124.8315763061080
 20
110.6880695321353
 30
0.0000000000000000
 11
139.8315763061080
 21
111.1880695321353
 31
0.0000000000000000
 70
32
  3
MAIN001
100
AcDbAlignedDimension
 13
154.8315763061080
 23
164.3789252738137
 33
0.0000000000000000
 14
124.8315763061080
 24
164.3789252738140
 34
0.0000000000000000
100
AcDbRotatedDimension
1001
ACAD
1000
DSTYLE
1002
{
1070
   173
1070
     1
1070
     6
1000
_OPEN
1070
     7
1000
_OPEN
1070
    41
1040
2.000000
1002
}
  0
DIMENSION
  5
1BC
100
AcDbEntity
  8
MAIN0
  6
CONTINUOUS
 62
3
100
AcDbDimension
  2
*D4
 10
154.8315763061080
 20
110.6880695321353
 30
0.0000000000000000
 11
179.8315763061087
 21
111.1880695321353
 31
0.0000000000000000
 70
32
  3
MAIN001
100
AcDbAlignedDimension
 13
204.8315763061093
 23
186.4789252738134
 33
0.0000000000000000
 14
154.8315763061080
 24
164.3789252738137
 34
0.0000000000000000
100
AcDbRotatedDimension
1001
ACAD
1000
DSTYLE
1002
{
1070
   173
1070
     1
1070
     6
1000
_OPEN
1070
     7
1000
_OPEN
1070
    41
1040
2.000000
1002
}
  0
DIMENSION
  5
1C5
100
AcDbEntity
  8
MAIN0
  6
CONTINUOUS
 62
3
100
AcDbDimension
  2
*D5
 10
109.8315763061089
 20
98.88259031396879
 30
0.0000000000000000
 11
157.3315763061091
 21
99.38259031396879
 31
0.0000000000000000
 70
32
  3
MAIN001
100
AcDbAlignedDimension
 13
204.8315763061093
 23
186.4789252738134
 33
0.0000000000000000
 14
109.8315763061089
 24
165.8789252738142
 34
0.0000000000000000
100
AcDbRotatedDimension
1001
ACAD
1000
DSTYLE
1002
{
1070
   173
1070
     1
1070
     6
1000
_OPEN
1070
     7
1000
_OPEN
1070
    41
1040
2.000000
1002
}
  0
DIMENSION
  5
1CC
100
AcDbEntity
  8
MAIN0
  6
CONTINUOUS
 62
3
100
AcDbDimension
  2
*D6
 10
182.7932693933560
 20
257.3789252738123
 30
0.0000000000000000
 11
182.2932693933560
 21
267.3789252738133
 31
0.0000000000000000
 70
32
  1
\A1;\U+220520
  3
MAIN001
100
AcDbAlignedDimension
 13
204.9315763061093
 23
277.3789252738141
 33
0.0000000000000000
 14
204.9315763061092
 24
257.3789252738123
 34
0.0000000000000000
 50
90.00000000000000
100
AcDbRotatedDimension
1001
ACAD
1000
DSTYLE
1002
{
1070
   173
1070
     1
1070
     6
1000
_OPEN
1070
     7
1000
_OPEN
1070
    41
1040
2.000000
1002
}
  0
DIMENSION
  5
1D5
100
AcDbEntity
  8
MAIN0
  6
CONTINUOUS
 62
3
100
AcDbDimension
  2
*D7
 10
204.8315763061099
 20
379.8120178778709
 30
0.0000000000000000
 11
222.8315763061103
 21
380.3120178778709
 31
0.0000000000000000
 70
32
  3
MAIN001
100
AcDbAlignedDimension
 13
240.8315763061108
 23
356.1289252738129
 33
0.0000000000000000
 14
204.8315763061099
 24
348.2789252738133
 34
0.0000000000000000
100
AcDbRotatedDimension
1001
ACAD
1000
DSTYLE
1002
{
1070
   173
1070
     1
1070
     6
1000
_OPEN
1070
     7
1000
_OPEN
1070
    41
1040
2.000000
1002
}
  0
DIMENSION
  5
1DF
100
AcDbEntity
  8
MAIN0
  6
CONTINUOUS
 62
3
100
AcDbDimension
  2
*D8
 10
204.8315763061090
 20
26.26739580484306
 30
0.0000000000000000
 11
207.3315763061090
 21
26.76739580484306
 31
0.0000000000000000
 70
32
  3
MAIN001
100
AcDbAlignedDimension
 13
209.8315763061090
 23
44.57151738201600
 33
0.0000000000000000
 14
204.8315763061090
 24
34.31310694978504
 34
0.0000000000000000
100
AcDbRotatedDimension
1001
ACAD
1000
DSTYLE
1002
{
1070
   173
1070
     1
1070
     6
1000
_DOT
1070
     7
1000
_OPEN
1070
    41
1040
2.000000
1070
   287
1070
     0
1002
}
  0
DIMENSION
  5
1E9
100
AcDbEntity
  8
MAIN0
  6
CONTINUOUS
 62
3
100
AcDbDimension
  2
*D9
 10
209.8315763061090
 20
26.26739580484306
 30
0.0000000000000000
 11
216.1638088747982
 21
26.76739580484306
 31
0.0000000000000000
 70
160
  3
MAIN001
100
AcDbAlignedDimension
 13
212.8315763061090
 23
53.07151738201611
 33
0.0000000000000000
 14
209.8315763061090
 24
44.57151738201600
 34
0.0000000000000000
100
AcDbRotatedDimension
1001
ACAD
1000
DSTYLE
1002
{
1070
   173
1070
     1
1070
     6
1000
_OPEN
1070
     7
1000
_DOT
1070
    41
1040
2.000000
1070
   287
1070
     0
1002
}
  0
DIMENSION
  5
1F2
100
AcDbEntity
  8
MAIN0
  6
CONTINUOUS
 62
3
100
AcDbDimension
  2
*D10
 10
224.3101666648787
 20
53.07151738201611
 30
0.0000000000000000
 11
223.8101666648787
 21
59.07151738201611
 31
0.0000000000000000
 70
32
  3
MAIN001
100
AcDbAlignedDimension
 13
212.8315763061090
 23
65.07151738201611
 33
0.0000000000000000
 14
212.8315763061090
 24
53.07151738201611
 34
0.0000000000000000
 50
90.00000000000000
100
AcDbRotatedDimension
1001
ACAD
1000
DSTYLE
1002
{
1070
   173
1070
     1
1070
     6
1000
_OPEN
1070
     7
1000
_OPEN
1070
    41
1040
2.000000
1002
}
  0
DIMENSION
  5
1FB
100
AcDbEntity
  8
MAIN0
  6
CONTINUOUS
 62
3
100
AcDbDimension
  2
*D11
 10
239.3849267538756
 20
43.57151738201608
 30
0.0000000000000000
 11
238.8849267538756
 21
59.07151738201611
 31
0.0000000000000000
 70
32
  3
MAIN001
100
AcDbAlignedDimension
 13
208.0995254985406
 23
74.57151738201611
 33
0.0000000000000000
 14
208.0995254985405
 24
43.57151738201608
 34
0.0000000000000000
 50
90.00000000000000
100
AcDbRotatedDimension
1001
ACAD
1000
DSTYLE
1002
{
1070
   173
1070
     1
1070
     6
1000
_OPEN
1070
     7
1000
_OPEN
1070
    41
1040
2.000000
1002
}
  0
MTEXT
  5
1FC
100
AcDbEntity
  8
MAIN0
  6
CONTINUOUS
 62
3
100
AcDbMText
 10
227.4155620862142
 20
52.69532348985820
 30
0.0000000000000000
 40
3.099999904632568
 41
0.0000000000000000
 71
     1
 72
     1
  1
{\H0.92x;{H8/h8}}
 11
1.002670741233467e-011
 21
1.000000000000000
 31
0.0000000000000000
  7
STANDARD
  0
DIMENSION
  5
205
100
AcDbEntity
  8
MAIN0
  6
CONTINUOUS
 62
3
100
AcDbDimension
  2
*D12
 10
508.5712989273607
 20
267.3789252738102
 30
0.0000000000000000
 11
504.1881772147227
 21
236.0579858380102
 31
0.0000000000000000
 70
162
  3
MAIN001
100
AcDb2LineAngularDimension
 13
477.6822260912209
 23
215.1948982252785
 33
0.0000000000000000
 14
476.8162006874371
 24
215.6948982252797
 34
0.0000000000000000
 15
507.5712989273607
 25
267.3789252738102
 35
0.0000000000000000
 16
504.6711401278671
 26
235.9285763154585
 36
0.0000000000000000
1001
ACAD
1000
DSTYLE
1002
{
1070
   173
1070
     1
1070
     6
1000
_OPEN
1070
     7
1000
_OPEN
1070
    41
1040
2.000000
1002
}
  0
DIMENSION
  5
20E
100
AcDbEntity
  8
MAIN0
  6
CONTINUOUS
 62
3
100
AcDbDimension
  2
*D13
 10
463.2839186019506
 20
311.2500856172380
 30
0.0000000000000000
 11
504.1881772147688
 21
298.6998647094404
 31
0.0000000000000000
 70
162
  3
MAIN001
100
AcDb2LineAngularDimension
 13
508.5712989273607
 23
267.3789252738102
 33
0.0000000000000000
 14
507.5712989273607
 24
267.3789252738102
 34
0.0000000000000000
 15
462.4178931981655
 25
310.7500856172392
 35
0.0000000000000000
 16
504.6711401279134
 26
298.8292742319914
 36
0.0000000000000000
1001
ACAD
1000
DSTYLE
1002
{
1070
   173
1070
     1
1070
     6
1000
_OPEN
1070
     7
1000
_OPEN
1070
    41
1040
2.000000
1002
}
  0
DIMENSION
  5
217
100
AcDbEntity
  8
MAIN0
  6
CONTINUOUS
 62
3
100
AcDbDimension
  2
*D14
 10
459.7395486318235
 20
339.8216340056824
 30
0.0000000000000000
 11
484.0977027051603
 21
341.6568397638050
 31
0.0000000000000000
 70
162
  3
MAIN001
100
AcDb2LineAngularDimension
 13
463.2839186019506
 23
311.2500856172380
 33
0.0000000000000000
 14
462.4178931981655
 24
310.7500856172392
 34
0.0000000000000000
 15
459.0324418506366
 25
339.1145272244962
 35
0.0000000000000000
 16
483.7010260350144
 26
341.3524590493010
 36
0.0000000000000000
1001
ACAD
1000
DSTYLE
1002
{
1070
   173
1070
     1
1070
     6
1000
_OPEN
1070
     7
1000
_OPEN
1070
    41
1040
2.000000
1002
}
  0
DIMENSION
  5
220
100
AcDbEntity
  8
MAIN0
  6
CONTINUOUS
 62
3
100
AcDbDimension
  2
*D15
 10
387.2968398998964
 20
384.8970721976089
 30
0.0000000000000000
 11
433.9898889524337
 21
380.1059175649374
 31
0.0000000000000000
 70
162
  3
MAIN001
100
AcDb2LineAngularDimension
 13
459.7395486318235
 23
339.8216340056824
 33
0.0000000000000000
 14
459.0324418506367
 24
339.1145272244962
 34
0.0000000000000000
 15
387.2968398998964
 25
383.8970721976089
 35
0.0000000000000000
 16
433.7985472362510
 26
379.6439777986818
 36
0.0000000000000000
1001
ACAD
1000
DSTYLE
1002
{
1070
   173
1070
     1
1070
     6
1000
_OPEN
1070
     7
1000
_OPEN
1070
    41
1040
2.000000
1002
}
  0
DIMENSION
  5
229
100
AcDbEntity
  8
MAIN0
  6
CONTINUOUS
 62
3
100
AcDbDimension
  2
*D16
 10
335.3193897903057
 20
357.4065097115002
 30
0.0000000000000000
 11
355.7170814190857
 21
385.2361884149520
 31
0.0000000000000000
 70
162
  3
MAIN001
100
AcDb2LineAngularDimension
 13
387.2968398998964
 23
384.8970721976089
 33
0.0000000000000000
 14
387.2968398998964
 24
383.8970721976089
 34
0.0000000000000000
 15
335.8193897903057
 25
356.5404843077157
 35
0.0000000000000000
 16
355.8464909416369
 26
384.7532255018075
 36
0.0000000000000000
1001
ACAD
1000
DSTYLE
1002
{
1070
   173
1070
     1
1070
     6
1000
_OPEN
1070
     7
1000
_OPEN
1070
    41
1040
2.000000
1002
}
  0
DIMENSION
  5
22F
100
AcDbEntity
  8
MAIN0
  6
CONTINUOUS
 62
3
100
AcDbDimension
  2
*D17
 10
387.2968398998964
 20
267.3789252738114
 30
0.0000000000000000
 11
412.7962458016037
 21
278.3705607255806
 31
0.0000000000000000
 70
164
  3
MAIN001
100
AcDbRadialDimension
 15
438.1888892831047
 25
288.2355623367969
 35
0.0000000000000000
1001
ACAD
1000
DSTYLE
1002
{
1070
   173
1070
     1
1070
     6
1000
_OPEN
1070
     7
1000
_OPEN
1070
    41
1040
2.000000
1070
   340
1005
230
1002
}
  0
DIMENSION
  5
239
100
AcDbEntity
  8
MAIN0
  6
CONTINUOUS
 62
3
100
AcDbDimension
  2
*D18
 10
363.7968398998964
 20
118.1336154998745
 30
0.0000000000000000
 11
387.2968398998965
 21
118.6336154998745
 31
0.0000000000000000
 70
32
  3
MAIN001
100
AcDbAlignedDimension
 13
410.7968398998966
 23
158.3857563909391
 33
0.0000000000000000
 14
363.7968398998964
 24
158.3857563909390
 34
0.0000000000000000
100
AcDbRotatedDimension
1001
ACAD
1000
DSTYLE
1002
{
1070
   173
1070
     1
1070
     6
1000
_OPEN
1070
     7
1000
_OPEN
1070
    41
1040
2.000000
1002
}
  0
DIMENSION
  5
242
100
AcDbEntity
  8
MAIN0
  6
CONTINUOUS
 62
3
100
AcDbDimension
  2
*D19
 10
347.2968398998965
 20
108.4091391613248
 30
0.0000000000000000
 11
387.2968398998965
 21
108.9091391613248
 31
0.0000000000000000
 70
32
  3
MAIN001
100
AcDbAlignedDimension
 13
427.2968398998965
 23
164.3789252738118
 33
0.0000000000000000
 14
347.2968398998964
 24
164.3789252738118
 34
0.0000000000000000
100
AcDbRotatedDimension
1001
ACAD
1000
DSTYLE
1002
{
1070
   173
1070
     1
1070
     6
1000
_OPEN
1070
     7
1000
_OPEN
1070
    41
1040
2.000000
1002
}
  0
DIMENSION
  5
249
100
AcDbEntity
  8
MAIN0
  6
CONTINUOUS
 62
3
100
AcDbDimension
  2
*D20
 10
370.7968398998964
 20
199.9794184225620
 30
0.0000000000000000
 11
387.2968398998964
 21
200.4794184225620
 31
0.0000000000000000
 70
32
  3
MAIN001
100
AcDbAlignedDimension
 13
403.7968398998964
 23
218.5471749782485
 33
0.0000000000000000
 14
370.7968398998964
 24
218.5471749782485
 34
0.0000000000000000
100
AcDbRotatedDimension
1001
ACAD
1000
DSTYLE
1002
{
1070
   173
1070
     1
1070
     6
1000
_OPEN
1070
     7
1000
_OPEN
1070
    41
1040
2.000000
1002
}
  0
DIMENSION
  5
252
100
AcDbEntity
  8
MAIN0
  6
CONTINUOUS
 62
3
100
AcDbDimension
  2
*D21
 10
270.8816073702353
 20
267.3789252738125
 30
0.0000000000000000
 11
270.3816073702353
 21
215.8789252738122
 31
0.0000000000000000
 70
32
  3
MAIN001
100
AcDbAlignedDimension
 13
347.2968398998964
 23
164.3789252738118
 33
0.0000000000000000
 14
275.1448385026704
 24
267.3789252738125
 34
0.0000000000000000
 50
90.00000000000000
100
AcDbRotatedDimension
1001
ACAD
1000
DSTYLE
1002
{
1070
   173
1070
     1
1070
     6
1000
_OPEN
1070
     7
1000
_OPEN
1070
    41
1040
2.000000
1002
}
  0
DIMENSION
  5
259
100
AcDbEntity
  8
MAIN0
  6
CONTINUOUS
 62
3
100
AcDbDimension
  2
*D22
 10
438.1888892831046
 20
288.2355623367969
 30
0.0000000000000000
 11
446.3270733906933
 21
292.1111215778600
 31
0.0000000000000000
 70
33
  3
MAIN001
100
AcDbAlignedDimension
 13
454.8444690812455
 23
295.0613708301377
 33
0.0000000000000000
 14
438.1888892831045
 24
288.2355623367969
 34
0.0000000000000000
 50
22.28485484391995
1001
ACAD
1000
DSTYLE
1002
{
1070
   173
1070
     1
1070
     6
1000
_OPEN
1070
     7
1000
_OPEN
1070
    41
1040
2.000000
1002
}
  0
DIMENSION
  5
260
100
AcDbEntity
  8
MAIN0
  6
CONTINUOUS
 62
3
100
AcDbDimension
  2
*D23
 10
313.0672516104492
 20
212.1863694136308
 30
0.0000000000000000
 11
434.3184155688399
 21
302.9655896028849
 31
0.0000000000000000
 70
163
  3
MAIN001
100
AcDbDiametricDimension
 15
461.5264281893435
 25
322.5714811339921
 35
0.0000000000000000
1001
ACAD
1000
DSTYLE
1002
{
1070
   287
1070
     2
1070
   173
1070
     1
1070
     6
1000
_OPEN
1070
     7
1000
_OPEN
1070
    41
1040
2.000000
1070
   272
1070
     1
1070
    47
1040
0.200000
1070
    48
1040
0.200000
1070
    71
1070
     1
1002
}
  0
LEADER
  5
261
100
AcDbEntity
  8
MAIN0
  6
CONTINUOUS
 62
3
100
AcDbLeader
  3
MAIN001
 73
     0
 74
     0
 75
     1
 40
3.099999904632568
 41
14.26100040769575
 76
     3
 10
454.0893454486561
 20
338.1090292429522
 30
0.0000000000000000
 10
476.9111529063879
 20
368.2620517704589
 30
0.0000000000000000
 10
478.8361528505980
 20
368.2620517704589
 30
0.0000000000000000
340
262
213
0.0000000000000000
223
-0.5000000000000000
233
0.0000000000000000
1001
ACAD
1000
DSTYLE
1002
{
1070
   147
1040
0.0
1070
    77
1070
     1
1070
   173
1070
     1
1070
     6
1000
_OPEN
1070
     7
1000
_OPEN
1002
}
  0
MTEXT
  5
262
102
{ACAD_REACTORS
330
261
102
}
100
AcDbEntity
  8
MAIN0
  6
CONTINUOUS
 62
3
100
AcDbMText
 10
478.8371528505979
 20
368.7620517704589
 30
0.0000000000000000
 40
3.099999904632568
 41
0.0000000000000000
 71
     7
 72
     1
  1
{\H0.92x;{4-\U+220511}}
 11
1.000000000000000
 21
0.0000000000000000
 31
0.0000000000000000
  7
STANDARD
  0
LEADER
  5
263
100
AcDbEntity
  8
MAIN0
  6
CONTINUOUS
 62
3
100
AcDbLeader
  3
MAIN001
 73
     0
 74
     0
 75
     1
 40
3.099999904632568
 41
19.84100056982038
 76
     3
 10
468.4774127364585
 20
216.2454641628604
 30
0.0000000000000000
 10
487.1067987016551
 20
179.9110704779500
 30
0.0000000000000000
 10
489.0317986458651
 20
179.9110704779500
 30
0.0000000000000000
340
264
213
0.0000000000000000
223
-0.5000000000000000
233
0.0000000000000000
1001
ACAD
1000
DSTYLE
1002
{
1070
   147
1040
0.0
1070
    77
1070
     1
1070
   173
1070
     1
1070
     6
1000
_OPEN
1070
     7
1000
_OPEN
1002
}
  0
MTEXT
  5
264
102
{ACAD_REACTORS
330
263
102
}
100
AcDbEntity
  8
MAIN0
  6
CONTINUOUS
 62
3
100
AcDbMText
 10
489.0327986458651
 20
180.4110704779500
 30
0.0000000000000000
 40
3.099999904632568
 41
0.0000000000000000
 71
     7
 72
     1
  1
{\H0.93x;{2-\U+220510H7}}
 11
1.000000000000000
 21
0.0000000000000000
 31
0.0000000000000000
  7
STANDARD
  0
LEADER
  5
265
100
AcDbEntity
  8
MAIN0
  6
CONTINUOUS
 62
3
100
AcDbLeader
  3
MAIN001
 73
     0
 75
     1
 40
3.099999904632568
 41
13.56900041008004
 76
     3
 10
336.5972029623336
 20
349.7667862779501
 30
0.0000000000000000
 10
326.8442414667506
 20
360.4529248946661
 30
0.0000000000000000
 10
324.9172415225406
 20
360.4529248946661
 30
0.0000000000000000
340
266
213
0.0000000000000000
223
-0.5000000000000000
233
0.0000000000000000
1001
ACAD
1000
DSTYLE
1002
{
1070
   147
1040
0.0
1070
    77
1070
     1
1070
   173
1070
     1
1070
     6
1000
_OPEN
1070
     7
1000
_OPEN
1002
}
  0
MTEXT
  5
266
102
{ACAD_REACTORS
330
265
102
}
100
AcDbEntity
  8
MAIN0
  6
CONTINUOUS
 62
3
100
AcDbMText
 10
311.3482411124605
 20
360.9529248946661
 30
0.0000000000000000
 40
3.099999904632568
 41
0.0000000000000000
 71
     7
 72
     1
  1
{\H0.92x;{6-M10}}
 11
1.000000000000000
 21
0.0000000000000000
 31
0.0000000000000000
  7
STANDARD
  0
LEADER
  5
267
100
AcDbEntity
  8
MAIN0
  6
CONTINUOUS
 62
3
100
AcDbLeader
  3
MAIN001
 73
     0
 74
     0
 75
     1
 40
3.099999904632568
 41
26.11100072956083
 76
     3
 10
452.3750969444421
 20
307.4210065678785
 30
0.0000000000000000
 10
497.8390488145078
 20
345.7243429095822
 30
0.0000000000000000
 10
499.7640487587179
 20
345.7243429095822
 30
0.0000000000000000
340
268
213
0.0000000000000000
223
-0.5000000000000000
233
0.0000000000000000
1001
ACAD
1000
DSTYLE
1002
{
1070
   147
1040
0.0
1070
    77
1070
     1
1070
   173
1070
     1
1070
     6
1000
_OPEN
1070
     7
1000
_OPEN
1002
}
  0
MTEXT
  5
268
102
{ACAD_REACTORS
330
267
102
}
100
AcDbEntity
  8
MAIN0
  6
CONTINUOUS
 62
3
100
AcDbMText
 10
499.7650487587179
 20
346.2243429095822
 30
0.0000000000000000
 40
3.099999904632568
 41
0.0000000000000000
 71
     7
 72
     1
  1
{\H0.93x;{6-M8 深さ15\P}
 11
1.000000000000000
 21
0.0000000000000000
 31
0.0000000000000000
  7
KNJYOKO
  0
DIMENSION
  5
271
100
AcDbEntity
  8
MAIN0
  6
CONTINUOUS
 62
3
100
AcDbDimension
  2
*D24
 10
269.3315763061097
 20
284.1289252738129
 30
0.0000000000000000
 11
268.8315763061097
 21
302.6289252738128
 31
0.0000000000000000
 70
32
  3
MAIN001
100
AcDbAlignedDimension
 13
245.7106764173255
 23
321.1289252738128
 33
0.0000000000000000
 14
240.8315763061101
 24
284.1289252738129
 34
0.0000000000000000
 50
90.00000000000000
100
AcDbRotatedDimension
1001
ACAD
1000
DSTYLE
1002
{
1070
   173
1070
     1
1070
     6
1000
_OPEN
1070
     7
1000
_OPEN
1070
    41
1040
2.000000
1002
}
  0
DIMENSION
  5
27A
100
AcDbEntity
  8
MAIN0
  6
CONTINUOUS
 62
3
100
AcDbDimension
  2
*D25
 10
269.3315763061097
 20
321.1289252738128
 30
0.0000000000000000
 11
268.8315763061097
 21
331.1289252738128
 31
0.0000000000000000
 70
32
  3
MAIN001
100
AcDbAlignedDimension
 13
245.7106764173255
 23
341.1289252738128
 33
0.0000000000000000
 14
245.7106764173255
 24
321.1289252738128
 34
0.0000000000000000
 50
90.00000000000000
100
AcDbRotatedDimension
1001
ACAD
1000
DSTYLE
1002
{
1070
   173
1070
     1
1070
     6
1000
_OPEN
1070
     7
1000
_OPEN
1070
    41
1040
2.000000
1002
}
  0
DIMENSION
  5
283
100
AcDbEntity
  8
MAIN0
  6
CONTINUOUS
 62
3
100
AcDbDimension
  2
*D26
 10
279.3315763061097
 20
356.1289252738129
 30
0.0000000000000000
 11
278.8315763061097
 21
320.1289252738129
 31
0.0000000000000000
 70
32
  3
MAIN001
100
AcDbAlignedDimension
 13
240.8315763061101
 23
284.1289252738129
 33
0.0000000000000000
 14
240.8315763061107
 24
356.1289252738129
 34
0.0000000000000000
 50
90.00000000000000
100
AcDbRotatedDimension
1001
ACAD
1000
DSTYLE
1002
{
1070
   173
1070
     1
1070
     6
1000
_OPEN
1070
     7
1000
_OPEN
1070
    41
1040
2.000000
1002
}
  0
DIMENSION
  5
28C
100
AcDbEntity
  8
MAIN0
  6
CONTINUOUS
 62
3
100
AcDbDimension
  2
*D27
 10
109.8315763061101
 20
389.7265519961644
 30
0.0000000000000000
 11
175.3315763061104
 21
390.2265519961644
 31
0.0000000000000000
 70
32
  3
MAIN001
100
AcDbAlignedDimension
 13
240.8315763061108
 23
356.1289252738129
 33
0.0000000000000000
 14
109.8315763061101
 24
368.8789252738142
 34
0.0000000000000000
100
AcDbRotatedDimension
1001
ACAD
1000
DSTYLE
1002
{
1070
   173
1070
     1
1070
     6
1000
_OPEN
1070
     7
1000
_OPEN
1070
    41
1040
2.000000
1002
}
  0
MTEXT
  5
28D
100
AcDbEntity
  8
MAIN0
  6
CONTINUOUS
 62
3
100
AcDbMText
 10
255.5513412518507
 20
286.5073891366358
 30
0.0000000000000000
 40
3.099999904632568
 41
0.0000000000000000
 71
     1
 72
     1
  1
{\H0.66x;{MIN 41.9}}
 11
6.123233995736766e-017
 21
1.000000000000000
 31
0.0000000000000000
  7
STANDARD
  0
LEADER
  5
28E
100
AcDbEntity
  8
MAIN0
  6
CONTINUOUS
 62
3
100
AcDbLeader
  3
MAIN001
 73
     0
 75
     1
 40
3.099999904632568
 41
19.14900057220456
 76
     3
 10
357.3400261169072
 20
168.2728842181525
 30
0.0000000000000000
 10
339.8302516990058
 20
143.4162570085589
 30
0.0000000000000000
 10
337.9032517547958
 20
143.4162570085589
 30
0.0000000000000000
340
28F
213
0.0000000000000000
223
-0.5000000000000000
233
0.0000000000000000
1001
ACAD
1000
DSTYLE
1002
{
1070
   147
1040
0.0
1070
    77
1070
     1
1070
   173
1070
     1
1070
     6
1000
_OPEN
1070
     7
1000
_OPEN
1002
}
  0
MTEXT
  5
28F
102
{ACAD_REACTORS
330
28E
102
}
100
AcDbEntity
  8
MAIN0
  6
CONTINUOUS
 62
3
100
AcDbMText
 10
318.7542511825913
 20
143.9162570085589
 30
0.0000000000000000
 40
3.099999904632568
 41
0.0000000000000000
 71
     7
 72
     1
  1
{\H0.92x;{2-Rc1/4}}
 11
1.000000000000000
 21
0.0000000000000000
 31
0.0000000000000000
  7
STANDARD
  0
LINE
  5
290
100
AcDbEntity
  8
MAIN0
  6
HIDDEN
 62
3
100
AcDbLine
 10
461.8264626322497
 20
295.2620313623060
 30
0.0000000000000000
 11
467.9778526958309
 21
284.6075112350019
 31
0.0000000000000000
  0
LINE
  5
291
100
AcDbEntity
  8
MAIN0
  6
HIDDEN
 62
3
100
AcDbLine
 10
464.3937172449215
 20
296.7442365040056
 30
0.0000000000000000
 11
461.8264626322497
 21
295.2620313623059
 31
0.0000000000000000
  0
LINE
  5
292
100
AcDbEntity
  8
MAIN0
  6
CONTINUOUS
 62
3
100
AcDbLine
 10
405.5224973275896
 20
334.7986233924052
 30
0.0000000000000000
 11
436.6484285613452
 21
316.8280586157567
 31
0.0000000000000000
  0
MTEXT
  5
293
100
AcDbEntity
  8
MAIN0
  6
CONTINUOUS
 62
3
100
AcDbMText
 10
428.7913028915593
 20
322.5555052451523
 30
0.0000000000000000
 40
4.000000000000000
 41
0.0000000000000000
 71
     1
 72
     1
  1
{\H0.92x;{AS 06}}
 11
-0.8660254037844387
 21
0.4999999999999999
 31
0.0000000000000000
  7
STANDARD
  0
MTEXT
  5
294
100
AcDbEntity
  8
MAIN0
  6
CONTINUOUS
 62
3
100
AcDbMText
 10
433.5401130424813
 20
312.6722956730163
 30
0.0000000000000000
 40
5.000000000000000
 41
0.0000000000000000
 71
     1
 72
     1
  1
{\H0.93x;{KITAGAWA}}
 11
-0.8660254037844387
 21
0.4999999999999999
 31
0.0000000000000000
  7
STANDARD
  0
LEADER
  5
295
100
AcDbEntity
  8
MAIN0
  6
CONTINUOUS
 62
3
100
AcDbLeader
  3
MAIN001
 73
     0
 75
     1
 40
3.099999904632568
 41
40.89400099420547
 76
     3
 10
208.6325190649610
 20
345.8536774317919
 30
0.0000000000000000
 10
196.8670729143597
 20
375.5689734597825
 30
0.0000000000000000
 10
194.9400729701497
 20
375.5689734597825
 30
0.0000000000000000
340
296
213
0.0000000000000000
223
-0.5000000000000000
233
0.0000000000000000
1001
ACAD
1000
DSTYLE
1002
{
1070
   147
1040
0.0
1070
    77
1070
     1
1070
   173
1070
     1
1070
     6
1000
_OPEN
1070
     7
1000
_OPEN
1002
}
  0
MTEXT
  5
296
102
{ACAD_REACTORS
330
295
102
}
100
AcDbEntity
  8
MAIN0
  6
CONTINUOUS
 62
3
100
AcDbMText
 10
154.0460719759442
 20
376.0689734597825
 30
0.0000000000000000
 40
3.099999904632568
 41
0.0000000000000000
 71
     7
 72
     1
  1
{\H0.94x;{セレーションピッチ 1.5}}
 11
1.000000000000000
 21
0.0000000000000000
 31
0.0000000000000000
  7
KNJYOKO
  0
SPLINE
  5
297
100
AcDbEntity
  8
MAIN0
  6
CONTINUOUS
 62
3
100
AcDbSpline
210
0.0000000000000000
220
0.0000000000000000
230
1.000000000000000
 70
     8
 71
     3
 72
    17
 73
    13
 74
     0
 42
1.000000000000000e-007
 43
1.000000000000000e-007
 12
0.9959312760084629
 22
-0.1141101595691083
 32
0.0000000000000000
 13
0.9988084759292519
 23
0.04760426996853084
 33
0.0000000000000000
 40
0.0000000000000000
 40
0.0000000000000000
 40
0.0000000000000000
 40
0.0000000000000000
 40
8.957840171682333
 40
21.36326267076747
 40
30.19297914738948
 40
38.99409731860003
 40
49.56368911077788
 40
61.42755881275998
 40
72.97670773090648
 40
85.36441273794269
 40
93.40847900043001
 40
95.97946836602438
 40
95.97946836602438
 40
95.97946836602438
 40
95.97946836602438
 10
109.8315763061096
 20
288.6843248044863
 30
0.0000000000000000
 10
112.8053740369308
 20
288.3435979473578
 30
0.0000000000000000
 10
119.8974878540646
 20
287.5310095099317
 30
0.0000000000000000
 10
129.4802755945773
 20
284.3471804072633
 30
0.0000000000000000
 10
139.3103856384061
 20
282.2174031057726
 30
0.0000000000000000
 10
148.7930576858145
 20
282.4311779098312
 30
0.0000000000000000
 10
158.9935549792333
 20
284.7942826138793
 30
0.0000000000000000
 10
170.4122078216096
 20
284.1177534788487
 30
0.0000000000000000
 10
182.2097592304028
 20
282.5349574726640
 30
0.0000000000000000
 10
192.8867774474705
 20
281.7980688883200
 30
0.0000000000000000
 10
200.5414651382200
 20
282.3532108922354
 30
0.0000000000000000
 10
204.0756009828162
 20
282.5216515501855
 30
0.0000000000000000
 10
204.9315763061094
 20
282.5624482408009
 30
0.0000000000000000
  0
SPLINE
  5
298
100
AcDbEntity
  8
MAIN0
  6
CONTINUOUS
 62
3
100
AcDbSpline
210
0.0000000000000000
220
0.0000000000000000
230
1.000000000000000
 70
     8
 71
     3
 72
    16
 73
    12
 74
     0
 42
1.000000000000000e-007
 43
1.000000000000000e-007
 12
0.9935369631504045
 22
0.1097515283909303
 32
0.0000000000000000
 13
0.9785921840639702
 23
-0.2121744558597385
 33
0.0000000000000000
 40
0.0000000000000000
 40
0.0000000000000000
 40
0.0000000000000000
 40
0.0000000000000000
 40
6.728706533904663
 40
17.21486307943538
 40
26.34526936250401
 40
36.80657488752541
 40
48.15181730223477
 40
61.03578106624705
 40
75.70498559409366
 40
87.59966901820246
 40
95.67056630467879
 40
95.67056630467879
 40
95.67056630467879
 40
95.67056630467879
 10
109.8315763061094
 20
248.2544563967192
 30
0.0000000000000000
 10
112.0599825246514
 20
248.5006183387826
 30
0.0000000000000000
 10
117.7611834529822
 20
249.1304041834521
 30
0.0000000000000000
 10
126.6184271692083
 20
249.0845818926192
 30
0.0000000000000000
 10
136.2689207580607
 20
252.1184797606345
 30
0.0000000000000000
 10
146.7332690940327
 20
252.2307110727957
 30
0.0000000000000000
 10
158.0514260118459
 20
249.5780940260045
 30
0.0000000000000000
 10
171.0950857606445
 20
250.0582671760709
 30
0.0000000000000000
 10
184.2087355428918
 20
249.7348199742523
 30
0.0000000000000000
 10
195.7861502272407
 20
249.2170200789307
 30
0.0000000000000000
 10
202.2988706384662
 20
247.8049580045334
 30
0.0000000000000000
 10
204.9315763061091
 20
247.2341452578474
 30
0.0000000000000000
  0
MTEXT
  5
299
100
AcDbEntity
  8
MAIN0
  6
CONTINUOUS
 62
3
100
AcDbMText
 10
415.1882060757849
 20
161.0351097152417
 30
0.0000000000000000
 40
5.000000000000000
 41
0.0000000000000000
 71
     1
 72
     1
  1
{\H0.92x;{開\PＯＰＥＮ}}
 11
1.000000000000000
 21
0.0000000000000000
 31
0.0000000000000000
  7
KNJYOKO
  0
MTEXT
  5
29A
100
AcDbEntity
  8
MAIN0
  6
CONTINUOUS
 62
3
100
AcDbMText
 10
355.8989674393527
 20
161.1674497373751
 30
0.0000000000000000
 40
5.000000000000000
 41
0.0000000000000000
 71
     1
 72
     1
  1
{\H0.92x;{閉\PＣＬＯＳＥ}}
 11
1.000000000000000
 21
0.0000000000000000
 31
0.0000000000000000
  7
KNJYOKO
  0
DIMENSION
  5
2A3
100
AcDbEntity
  8
MAIN0
  6
CONTINUOUS
 62
3
100
AcDbDimension
  2
*D28
 10
86.74347069610968
 20
254.8789252738132
 30
0.0000000000000000
 11
86.24347069610968
 21
267.3789252738132
 31
0.0000000000000000
 70
32
  1
\A1;\U+220525H7
  3
MAIN001
100
AcDbAlignedDimension
 13
110.3315763061090
 23
279.8789252738141
 33
0.0000000000000000
 14
110.3315763061100
 24
254.8789252738141
 34
0.0000000000000000
 50
90.00000000000000
100
AcDbRotatedDimension
1001
ACAD
1000
DSTYLE
1002
{
1070
   173
1070
     1
1070
     6
1000
_OPEN
1070
     7
1000
_OPEN
1070
    41
1040
2.000000
1002
}
  0
LINE
  5
2A4
100
AcDbEntity
  8
MAIN0
  6
PHANTOM
 62
3
100
AcDbLine
 10
169.8315763061077
 20
129.3789252738136
 30
0.0000000000000000
 11
169.8315763061082
 21
184.3789252738136
 31
0.0000000000000000
  0
LINE
  5
2A5
100
AcDbEntity
  8
MAIN0
  6
CONTINUOUS
 62
3
100
AcDbLine
 10
124.8315763061082
 20
184.3789252738140
 30
0.0000000000000000
 11
154.8315763061082
 21
184.3789252738137
 31
0.0000000000000000
  0
LINE
  5
2A6
100
AcDbEntity
  8
MAIN0
  6
PHANTOM
 62
3
100
AcDbLine
 10
154.8315763061082
 20
184.3789252738137
 30
0.0000000000000000
 11
169.8315763061083
 21
184.3789252738136
 31
0.0000000000000000
  0
LINE
  5
2A7
100
AcDbEntity
  8
MAIN0
  6
PHANTOM
 62
3
100
AcDbLine
 10
124.8315763061077
 20
129.8789252738140
 30
0.0000000000000000
 11
124.8315763061080
 21
164.3789252738140
 31
0.0000000000000000
  0
LINE
  5
2A8
100
AcDbEntity
  8
MAIN0
  6
CONTINUOUS
 62
3
100
AcDbLine
 10
124.8315763061080
 20
164.3789252738140
 30
0.0000000000000000
 11
124.8315763061089
 21
249.2999646641938
 31
0.0000000000000000
  0
LINE
  5
2A9
100
AcDbEntity
  8
MAIN0
  6
PHANTOM
 62
3
100
AcDbLine
 10
427.2968398998966
 20
129.3789252738110
 30
0.0000000000000000
 11
347.2968398998959
 21
129.3789252738118
 31
0.0000000000000000
  0
LINE
  5
2AA
100
AcDbEntity
  8
MAIN0
  6
PHANTOM
 62
3
100
AcDbLine
 10
427.2968398998965
 20
129.3789252738110
 30
0.0000000000000000
 11
427.2968398998966
 21
164.3789252738119
 31
0.0000000000000000
  0
LINE
  5
2AB
100
AcDbEntity
  8
MAIN0
  6
CONTINUOUS
 62
3
100
AcDbLine
 10
427.2968398998966
 20
164.3789252738119
 30
0.0000000000000000
 11
427.2968398998966
 21
184.3789252738118
 31
0.0000000000000000
  0
LINE
  5
2AC
100
AcDbEntity
  8
MAIN0
  6
PHANTOM
 62
3
100
AcDbLine
 10
347.2968398998966
 20
129.3789252738118
 30
0.0000000000000000
 11
347.2968398998964
 21
164.3789252738118
 31
0.0000000000000000
  0
LINE
  5
2AD
100
AcDbEntity
  8
MAIN0
  6
CONTINUOUS
 62
3
100
AcDbLine
 10
347.2968398998964
 20
164.3789252738118
 30
0.0000000000000000
 11
347.2968398998964
 21
184.3789252738118
 31
0.0000000000000000
  0
LINE
  5
2AE
100
AcDbEntity
  8
MAIN0
  6
HIDDEN
 62
3
100
AcDbLine
 10
109.8315763061101
 20
365.3789252738141
 30
0.0000000000000000
 11
124.8315763061100
 21
365.3789252738141
 31
0.0000000000000000
  0
LINE
  5
2AF
100
AcDbEntity
  8
MAIN0
  6
HIDDEN
 62
3
100
AcDbLine
 10
109.8315763061100
 20
354.3789252738141
 30
0.0000000000000000
 11
124.8315763061099
 21
354.3789252738141
 31
0.0000000000000000
  0
DIMENSION
  5
2B8
100
AcDbEntity
  8
MAIN0
  6
CONTINUOUS
 62
3
100
AcDbDimension
  2
*D29
 10
124.8315763061080
 20
88.15034020111602
 30
0.0000000000000000
 11
147.3315763061079
 21
88.65034020111602
 31
0.0000000000000000
 70
32
  1
\A1;（45）
  3
MAIN001
100
AcDbAlignedDimension
 13
169.8315763061077
 23
129.8789252738136
 33
0.0000000000000000
 14
124.8315763061080
 24
164.3789252738140
 34
0.0000000000000000
100
AcDbRotatedDimension
1001
ACAD
1000
DSTYLE
1002
{
1070
   173
1070
     1
1070
     6
1000
_OPEN
1070
     7
1000
_OPEN
1070
    41
1040
2.000000
1070
   340
1005
230
1002
}
  0
LINE
  5
2B9
100
AcDbEntity
  8
MAIN0
  6
PHANTOM
 62
3
100
AcDbLine
 10
169.8315763061077
 20
129.3789252738136
 30
0.0000000000000000
 11
124.8315763061078
 21
129.3789252738140
 31
0.0000000000000000
  0
DIMENSION
  5
2C2
100
AcDbEntity
  8
MAIN0
  6
CONTINUOUS
 62
3
100
AcDbDimension
  2
*D30
 10
184.6815236626264
 20
129.3789252738136
 30
0.0000000000000000
 11
184.1815236626264
 21
156.8789252738136
 31
0.0000000000000000
 70
32
  1
\A1;（55）
  3
MAIN001
100
AcDbAlignedDimension
 13
169.8315763061083
 23
184.3789252738136
 33
0.0000000000000000
 14
169.8315763061077
 24
129.3789252738136
 34
0.0000000000000000
 50
90.00000000000000
100
AcDbRotatedDimension
1001
ACAD
1000
DSTYLE
1002
{
1070
   173
1070
     1
1070
     6
1000
_OPEN
1070
     7
1000
_OPEN
1070
    41
1040
2.000000
1070
   340
1005
230
1002
}
  0
LEADER
  5
2C3
100
AcDbEntity
  8
MAIN0
  6
CONTINUOUS
 62
3
100
AcDbLeader
  3
MAIN001
 73
     0
 74
     0
 75
     1
 40
3.099999904632568
 41
10.78100032901764
 76
     3
 10
169.8315763061078
 20
145.3506188024587
 30
0.0000000000000000
 10
185.0181113155793
 20
121.5808162381198
 30
0.0000000000000000
 10
186.9431112597893
 20
121.5808162381198
 30
0.0000000000000000
340
2C4
213
-0.001000000000004775
223
-0.5000000000000000
233
0.0000000000000000
1001
ACAD
1000
DSTYLE
1002
{
1070
   147
1040
0.0
1070
    77
1070
     1
1070
   173
1070
     1
1070
     6
1000
_OPEN
1070
     7
1000
_OPEN
1002
}
  0
MTEXT
  5
2C4
102
{ACAD_REACTORS
330
2C3
102
}
100
AcDbEntity
  8
MAIN0
  6
CONTINUOUS
 62
3
100
AcDbMText
 10
186.9441112597893
 20
122.0808162381198
 30
0.0000000000000000
 40
3.099999904632568
 41
0.0000000000000000
 71
     7
 72
     1
  1
{\H0.91x;{LV-3}}
 11
1.000000000000000
 21
0.0000000000000000
 31
0.0000000000000000
  7
STANDARD
  0
LEADER
  5
2C5
100
AcDbEntity
  8
MAIN0
  6
CONTINUOUS
 62
3
100
AcDbLeader
  3
MAIN001
 73
     0
 75
     1
 40
3.099999904632568
 41
19.14900057220459
 76
     3
 10
114.1903328046131
 20
202.6355114143925
 30
0.0000000000000000
 10
87.26486695687893
 20
152.8711138197376
 30
0.0000000000000000
 10
85.33786701266888
 20
152.8711138197376
 30
0.0000000000000000
340
2C6
213
0.0000000000000000
223
-0.5000000000000000
233
0.0000000000000000
1001
ACAD
1000
DSTYLE
1002
{
1070
   147
1040
0.0
1070
    77
1070
     1
1070
   173
1070
     1
1070
     6
1000
_OPEN
1070
     7
1000
_OPEN
1002
}
  0
MTEXT
  5
2C6
102
{ACAD_REACTORS
330
2C5
102
}
100
AcDbEntity
  8
MAIN0
  6
CONTINUOUS
 62
3
100
AcDbMText
 10
66.18886644046430
 20
153.3711138197376
 30
0.0000000000000000
 40
3.099999904632568
 41
0.0000000000000000
 71
     7
 72
     1
  1
{\H0.92x;{2-Rc1/8}}
 11
1.000000000000000
 21
0.0000000000000000
 31
0.0000000000000000
  7
STANDARD
  0
MTEXT
  5
2C7
100
AcDbEntity
  8
MAIN0
  6
CONTINUOUS
 62
3
100
AcDbMText
 10
54.90924311849732
 20
150.3744706140299
 30
0.0000000000000000
 40
3.099999904632568
 41
0.0000000000000000
 71
     1
 72
     1
  1
{\H0.94x;{マルチプレートに取付}}
 11
1.000000000000000
 21
0.0000000000000000
 31
0.0000000000000000
  7
KNJYOKO
  0
MTEXT
  5
2C8
100
AcDbEntity
  8
MAIN0
  6
CONTINUOUS
 62
3
100
AcDbMText
 10
55.08413904966105
 20
146.1769816095499
 30
0.0000000000000000
 40
3.099999904632568
 41
0.0000000000000000
 71
     1
 72
     1
  1
{\H0.94x;{以外は止栓とする．}}
 11
1.000000000000000
 21
0.0000000000000000
 31
0.0000000000000000
  7
KNJYOKO
  0
DIMENSION
  5
2D2
100
AcDbEntity
  8
MAIN0
  6
CONTINUOUS
 62
3
100
AcDbDimension
  2
*D31
 10
109.8315763061089
 20
240.1862246659144
 30
0.0000000000000000
 11
121.0347779410197
 21
240.6862246659144
 31
0.0000000000000000
 70
160
  3
MAIN001
100
AcDbAlignedDimension
 13
114.9315763061093
 23
255.3408054891672
 33
0.0000000000000000
 14
109.8315763061089
 24
165.8789252738142
 34
0.0000000000000000
100
AcDbRotatedDimension
1001
ACAD
1000
DSTYLE
1002
{
1070
   173
1070
     1
1070
     6
1000
_OPEN
1070
     7
1000
_OPEN
1070
    41
1040
2.000000
1070
   287
1070
     0
1002
}
  0
MTEXT
  5
2D3
100
AcDbEntity
  8
MAIN0
  6
CONTINUOUS
 62
3
100
AcDbMText
 10
255.5513412518507
 20
322.6001176628431
 30
0.0000000000000000
 40
3.099999904632568
 41
0.0000000000000000
 71
     1
 72
     1
  1
{\H0.66x;{MIN 4.75}}
 11
6.123233995736766e-017
 21
1.000000000000000
 31
0.0000000000000000
  7
STANDARD
  0
MTEXT
  5
2D4
100
AcDbEntity
  8
MAIN0
  6
CONTINUOUS
 62
3
100
AcDbMText
 10
154.2163573590928
 20
374.6508378128728
 30
0.0000000000000000
 40
3.000000000000000
 41
0.0000000000000000
 71
     1
 72
     1
  1
{\H0.61x;{SERRATION PITCH 1.5}}
 11
1.000000000000000
 21
0.0000000000000000
 31
0.0000000000000000
  7
STANDARD
  0
MTEXT
  5
2D5
100
AcDbEntity
  8
MAIN0
  6
CONTINUOUS
 62
3
100
AcDbMText
 10
499.2218890778776
 20
345.2505445236923
 30
0.0000000000000000
 40
3.099999904632568
 41
0.0000000000000000
 71
     1
 72
     1
  1
{\H0.93x;{DEPTH 15}}
 11
1.000000000000000
 21
0.0000000000000000
 31
0.0000000000000000
  7
STANDARD
  0
MTEXT
  5
2D6
100
AcDbEntity
  8
MAIN0
  6
CONTINUOUS
 62
3
100
AcDbMText
 10
41.06076110865125
 20
141.4247609907513
 30
0.0000000000000000
 40
3.099999904632568
 41
0.0000000000000000
 71
     1
 72
     1
  1
{\H0.71x;{(WHEN SETTING ON MULTI-PLATE,\P THIS SOCKET SET SCREW MUST BE\P TAKEN OFF.)}}
 11
1.000000000000000
 21
0.0000000000000000
 31
0.0000000000000000
  7
STANDARD
  0
MTEXT
  5
2D7
100
AcDbEntity
  8
MAIN0
  6
CONTINUOUS
 62
3
100
AcDbMText
 10
429.8492101052520
 20
327.6817924519674
 30
0.0000000000000000
 40
3.000000000000000
 41
0.0000000000000000
 71
     1
 72
     1
  1
{\H0.92x;{JAPAN}}
 11
-0.8660254037844372
 21
0.5000000000000027
 31
0.0000000000000000
  7
STANDARD
  0
LINE
  5
2D8
100
AcDbEntity
  8
MAIN0
  6
CENTER
 62
3
100
AcDbLine
 10
387.2968398998964
 20
267.3789252738113
 30
0.0000000000000000
 11
451.9326275678973
 21
327.6527723786129
 31
0.0000000000000000
  0
INSERT
  5
2E0
100
AcDbEntity
  8
MAIN0
  6
CONTINUOUS
 62
3
100
AcDbBlockReference
  2
D32
 10
258.6098590158057
 20
267.3789252738127
 30
0.0000000000000000
 50
0.0000000000000000
  0
LINE
  5
2E1
100
AcDbEntity
  8
MAIN0
  6
CENTER
 62
3
100
AcDbLine
 10
90.55627538280695
 20
267.3789252738143
 30
0.0000000000000000
 11
177.6932694887234
 21
267.3789252738135
 31
0.0000000000000000
  0
LINE
  5
2E2
100
AcDbEntity
  8
MAIN0
  6
CENTER
 62
3
100
AcDbLine
 10
183.7932693933560
 20
267.3789252738134
 30
0.0000000000000000
 11
258.6098590158057
 21
267.3789252738127
 31
0.0000000000000000
  0
MTEXT
  5
2E3
100
AcDbEntity
  8
MAIN0
  6
CONTINUOUS
 62
3
100
AcDbMText
 10
472.0726770699126
 20
84.68633008542170
 30
0.0000000000000000
 40
2.000000000000000
 41
0.0000000000000000
 71
     1
 72
     1
  1
{\H0.63x;{AIR CONSUMPTION (PER 10mm OF PLUNGER }}
 11
1.000000000000000
 21
0.0000000000000000
 31
0.0000000000000000
  7
STANDARD
  0
MTEXT
  5
2E4
100
AcDbEntity
  8
MAIN0
  6
CONTINUOUS
 62
3
100
AcDbMText
 10
472.0726770699128
 20
78.08632970395198
 30
0.0000000000000000
 40
2.399999618530273
 41
0.0000000000000000
 71
     1
 72
     1
  1
{\H0.92x;{空気消費量}}
 11
1.000000000000000
 21
0.0000000000000000
 31
0.0000000000000000
  7
KNJYOKO
  0
MTEXT
  5
2E5
100
AcDbEntity
  8
MAIN0
  6
CONTINUOUS
 62
3
100
AcDbMText
 10
472.0726770699126
 20
75.18633008542170
 30
0.0000000000000000
 40
2.500000000000000
 41
0.0000000000000000
 71
     1
 72
     1
  1
{\H0.59x;{(プランジャストローク10mm当り圧力0.6MPa時)}}
 11
1.000000000000000
 21
0.0000000000000000
 31
0.0000000000000000
  7
KNJYOKO
  0
MTEXT
  5
2E6
100
AcDbEntity
  8
MAIN0
  6
CONTINUOUS
 62
3
100
AcDbMText
 10
472.0726770699126
 20
81.68633008542170
 30
0.0000000000000000
 40
2.000000000000000
 41
0.0000000000000000
 71
     1
 72
     1
  1
{\H0.62x;{STROKE ON PRESSURE OF 0.6MPa)}}
 11
1.000000000000000
 21
0.0000000000000000
 31
0.0000000000000000
  7
STANDARD
  0
MTEXT
  5
2E7
100
AcDbEntity
  8
MAIN0
  6
CONTINUOUS
 62
4
100
AcDbMText
 10
534.2005338735579
 20
80.48636781466033
 30
0.0000000000000000
 40
2.799999237060547
 41
0.0000000000000000
 71
     1
 72
     1
  1
{\H0.58x;{　　　　Ｎ}}
 11
1.000000000000000
 21
0.0000000000000000
 31
0.0000000000000000
  7
KNJYOKO
  0
MTEXT
  5
2E8
100
AcDbEntity
  8
MAIN0
  6
CONTINUOUS
 62
3
100
AcDbMText
 10
527.2005338735576
 20
95.28636848222874
 30
0.0000000000000000
 40
3.099999904632568
 41
0.0000000000000000
 71
     1
 72
     1
  1
{\H0.76x;{0.7}}
 11
1.000000000000000
 21
0.0000000000000000
 31
0.0000000000000000
  7
STANDARD
  0
MTEXT
  5
2E9
100
AcDbEntity
  8
MAIN0
  6
CONTINUOUS
 62
3
100
AcDbMText
 10
527.2005338735580
 20
80.78636848223235
 30
0.0000000000000000
 40
3.099999904632568
 41
0.0000000000000000
 71
     1
 72
     1
  1
{\H0.81x;{1.04}}
 11
1.000000000000000
 21
0.0000000000000000
 31
0.0000000000000000
  7
STANDARD
  0
SPLINE
  5
2EA
100
AcDbEntity
  8
MAIN0
  6
CONTINUOUS
 62
3
100
AcDbSpline
210
0.0000000000000000
220
0.0000000000000000
230
1.000000000000000
 70
     8
 71
     3
 72
    14
 73
    10
 74
     0
 42
1.000000000000000e-007
 43
1.000000000000000e-007
 12
1.205313937519350
 22
0.3012197250381519
 32
0.0000000000000000
 13
0.9118704780830740
 23
0.7328372388452635
 33
0.0000000000000000
 40
0.0000000000000000
 40
0.0000000000000000
 40
0.0000000000000000
 40
0.0000000000000000
 40
0.5828484074954654
 40
2.017389827489209
 40
3.123506893394179
 40
4.885508420049012
 40
6.048697447303496
 40
6.384151807376483
 40
6.831490023551860
 40
6.831490023551860
 40
6.831490023551860
 40
6.831490023551860
 10
544.9076654827113
 20
77.89856204143715
 30
0.0000000000000000
 10
545.1418372523831
 20
77.95708385378538
 30
0.0000000000000000
 10
545.9523666112103
 20
78.15964305682945
 30
0.0000000000000000
 10
546.4840932516732
 20
79.31928435813234
 30
0.0000000000000000
 10
546.6229003789987
 20
81.82746384525999
 30
0.0000000000000000
 10
545.3746548230658
 20
79.40131537484666
 30
0.0000000000000000
 10
545.2836472883670
 20
77.49672343636030
 30
0.0000000000000000
 10
546.1372798376808
 20
77.79159518476470
 30
0.0000000000000000
 10
546.3752149845952
 20
77.98281503482048
 30
0.0000000000000000
 10
546.5111864889449
 20
78.09209040254444
 30
0.0000000000000000
  0
LEADER
  5
2EB
100
AcDbEntity
  8
MAIN0
  6
CONTINUOUS
 62
3
100
AcDbLeader
  3
MAIN001
 73
     0
 74
     0
 75
     1
 40
3.099999904632568
 41
23.98100055551529
 76
     3
 10
226.4170287319869
 20
339.0775576086058
 30
0.0000000000000000
 10
246.8463682072129
 20
373.3950017796917
 30
0.0000000000000000
 10
248.7713681514229
 20
373.3950017796917
 30
0.0000000000000000
340
2EC
213
-0.001000000000004775
223
-0.5000000000000000
233
0.0000000000000000
1001
ACAD
1000
DSTYLE
1002
{
1070
   147
1040
0.0
1070
    77
1070
     1
1070
   173
1070
     1
1070
     6
1000
_DOT
1070
     7
1000
_DOT
1002
}
  0
MTEXT
  5
2EC
102
{ACAD_REACTORS
330
2EB
102
}
100
AcDbEntity
  8
MAIN0
  6
CONTINUOUS
 62
3
100
AcDbMText
 10
248.7723681514229
 20
376.9950016843243
 30
0.0000000000000000
 40
3.099999904632568
 41
0.0000000000000000
 71
     1
 72
     1
  1
{\H0.93x;{六角穴付ボルト\PM10×30}}
 11
1.000000000000000
 21
0.0000000000000000
 31
0.0000000000000000
  7
KNJYOKO
  0
LEADER
  5
2ED
100
AcDbEntity
  8
MAIN0
  6
CONTINUOUS
 62
3
100
AcDbLeader
  3
MAIN001
 73
     0
 74
     0
 75
     1
 40
3.099999904632568
 41
20.50100047683716
 76
     3
 10
238.4034242637715
 20
338.7778961559005
 30
0.0000000000000000
 10
248.8915182207956
 20
355.8585079398445
 30
0.0000000000000000
 10
250.8165181650056
 20
355.8585079398445
 30
0.0000000000000000
340
2EE
213
-0.001000000000004775
223
-0.5000000000000000
233
0.0000000000000000
1001
ACAD
1000
DSTYLE
1002
{
1070
   147
1040
0.0
1070
    77
1070
     1
1070
   173
1070
     1
1070
     6
1000
_DOT
1070
     7
1000
_DOT
1002
}
  0
MTEXT
  5
2EE
102
{ACAD_REACTORS
330
2ED
102
}
100
AcDbEntity
  8
MAIN0
  6
CONTINUOUS
 62
3
100
AcDbMText
 10
250.8175181650056
 20
359.4585078444770
 30
0.0000000000000000
 40
3.099999904632568
 41
0.0000000000000000
 71
     1
 72
     1
  1
{\H0.93x;{ソフトジョー\PSB06B1}}
 11
1.000000000000000
 21
0.0000000000000000
 31
0.0000000000000000
  7
KNJYOKO
  0
MTEXT
  5
2EF
100
AcDbEntity
  8
MAIN0
  6
CONTINUOUS
 62
3
100
AcDbMText
 10
248.9496937018885
 20
380.7700176072297
 30
0.0000000000000000
 40
3.000000000000000
 41
0.0000000000000000
 71
     1
 72
     1
  1
{\H0.63x;{HEX SOCKET HEAD CAP SCREW}}
 11
1.000000000000000
 21
0.0000000000000000
 31
0.0000000000000000
  7
STANDARD
  0
MTEXT
  5
2F0
100
AcDbEntity
  8
MAIN0
  6
CONTINUOUS
 62
3
100
AcDbMText
 10
251.0480371392977
 20
363.1818752660671
 30
0.0000000000000000
 40
3.000000000000000
 41
0.0000000000000000
 71
     1
 72
     1
  1
{\H0.63x;{SOFT JAW}}
 11
1.000000000000000
 21
0.0000000000000000
 31
0.0000000000000000
  7
STANDARD
  0
DIMENSION
  5
2F9
100
AcDbEntity
  8
MAIN0
  6
CONTINUOUS
 62
3
100
AcDbDimension
  2
*D33
 10
404.7968398998964
 20
287.6399811534911
 30
0.0000000000000000
 11
387.2968398998964
 21
288.1399811534911
 31
0.0000000000000000
 70
32
  3
MAIN001
100
AcDbAlignedDimension
 13
369.7968398998964
 23
296.8916404459587
 33
0.0000000000000000
 14
404.7968398998964
 24
296.8916404459587
 34
0.0000000000000000
100
AcDbRotatedDimension
1001
ACAD
1000
DSTYLE
1002
{
1070
   173
1070
     1
1070
     6
1000
_OPEN
1070
     7
1000
_OPEN
1070
    41
1040
2.000000
1002
}
  0
LINE
  5
2FA
100
AcDbEntity
  8
MAIN0
  6
PHANTOM
 62
3
100
AcDbLine
 10
196.8315763061092
 20
219.3789252738024
 30
0.0000000000000000
 11
205.8315763061088
 21
219.3789252738024
 31
0.0000000000000000
  0
INSERT
  5
302
100
AcDbEntity
  8
MAIN0
  6
CONTINUOUS
 62
3
100
AcDbBlockReference
  2
D34
 10
258.6098590158057
 20
267.3789252738127
 30
0.0000000000000000
 50
0.0000000000000000
  0
DIMENSION
  5
30C
100
AcDbEntity
  8
MAIN0
  6
CONTINUOUS
 62
3
100
AcDbDimension
  2
*D35
 10
204.8315763061094
 20
209.9531308169095
 30
0.0000000000000000
 11
210.4751506659135
 21
210.4531308169095
 31
0.0000000000000000
 70
160
  1
\A1;0.1
  3
MAIN001
100
AcDbAlignedDimension
 13
205.8315763061088
 23
219.3789252738024
 33
0.0000000000000000
 14
204.8315763061094
 24
219.6789252738025
 34
0.0000000000000000
100
AcDbRotatedDimension
1001
ACAD
1000
DSTYLE
1002
{
1070
   173
1070
     1
1070
     6
1000
_OPEN
1070
     7
1000
_OPEN
1070
    41
1040
2.000000
1070
   287
1070
     0
1002
}
  0
DIMENSION
  5
316
100
AcDbEntity
  8
MAIN0
  6
CONTINUOUS
 62
3
100
AcDbDimension
  2
*D36
 10
204.9315763061094
 20
286.9762102718288
 30
0.0000000000000000
 11
200.9302690898290
 21
287.4762102718288
 31
0.0000000000000000
 70
160
  3
MAIN001
100
AcDbAlignedDimension
 13
206.9315763061097
 23
296.7789252738131
 33
0.0000000000000000
 14
204.9315763061094
 24
277.3789252738150
 34
0.0000000000000000
100
AcDbRotatedDimension
1001
ACAD
1000
DSTYLE
1002
{
1070
   173
1070
     1
1070
     6
1000
_OPEN
1070
     7
1000
_OPEN
1070
    41
1040
2.000000
1070
   287
1070
     0
1002
}
  0
DIMENSION
  5
31F
100
AcDbEntity
  8
MAIN0
  6
CONTINUOUS
 62
3
100
AcDbDimension
  2
*D37
 10
188.1400099713991
 20
311.7789252738132
 30
0.0000000000000000
 11
187.6400099713991
 21
304.2789252738131
 31
0.0000000000000000
 70
32
  3
MAIN001
100
AcDbAlignedDimension
 13
204.9315763061097
 23
296.7789252738132
 33
0.0000000000000000
 14
204.9315763061097
 24
311.7789252738132
 34
0.0000000000000000
 50
90.00000000000000
100
AcDbRotatedDimension
1001
ACAD
1000
DSTYLE
1002
{
1070
   173
1070
     1
1070
     6
1000
_OPEN
1070
     7
1000
_OPEN
1070
    41
1040
2.000000
1002
}
  0
DIMENSION
  5
328
100
AcDbEntity
  8
MAIN0
  6
CONTINUOUS
 62
3
100
AcDbDimension
  2
*D38
 10
188.1400099713991
 20
296.7789252738132
 30
0.0000000000000000
 11
187.6400099713991
 21
240.6438803925245
 31
0.0000000000000000
 70
160
  1
\A1;MAX 29.4
  3
MAIN001
100
AcDbAlignedDimension
 13
183.7932693933560
 23
267.3789252738134
 33
0.0000000000000000
 14
204.9315763061097
 24
296.7789252738132
 34
0.0000000000000000
 50
90.00000000000000
100
AcDbRotatedDimension
1001
ACAD
1000
DSTYLE
1002
{
1070
   173
1070
     1
1070
     6
1000
_OPEN
1070
     7
1000
_OPEN
1070
    41
1040
2.000000
1002
}
  0
MTEXT
  5
329
100
AcDbEntity
  8
MAIN0
  6
CONTINUOUS
 62
3
100
AcDbMText
 10
188.4835788315246
 20
232.8175888258922
 30
0.0000000000000000
 40
3.099999904632568
 41
0.0000000000000000
 71
     1
 72
     1
  1
{\H0.66x;{MIN 26.8}}
 11
6.123233995736766e-017
 21
1.000000000000000
 31
0.0000000000000000
  7
STANDARD
  0
LINE
  5
32A
100
AcDbEntity
  8
MAIN0
  6
CENTER
 62
3
100
AcDbLine
 10
387.2968398998964
 20
292.9983293686706
 30
0.0000000000000000
 11
387.2968398998964
 21
384.8970721976089
 31
0.0000000000000000
  0
LINE
  5
32B
100
AcDbEntity
  8
MAIN0
  6
CENTER
 62
3
100
AcDbLine
 10
387.2968398998964
 20
125.8802283544526
 30
0.0000000000000000
 11
387.2968398998964
 21
198.9794184225620
 31
0.0000000000000000
  0
LINE
  5
32C
100
AcDbEntity
  8
MAIN0
  6
CENTER
 62
3
100
AcDbLine
 10
387.2968398998964
 20
205.0794183271946
 30
0.0000000000000000
 11
387.2968398998964
 21
286.8983294640380
 31
0.0000000000000000
  0
LEADER
  5
32D
100
AcDbEntity
  8
MAIN0
  6
CONTINUOUS
 62
3
100
AcDbLeader
  3
MAIN001
 73
     0
 74
     0
 75
     1
 40
3.099999904632568
 41
30.94100071287156
 76
     3
 10
205.8315763061090
 20
240.3124801544329
 30
0.0000000000000000
 10
221.7374001233943
 20
253.5948103546641
 30
0.0000000000000000
 10
223.6624000676043
 20
253.5948103546641
 30
0.0000000000000000
340
32E
213
-0.001000000000004775
223
-0.5000000000000000
233
0.0000000000000000
1001
ACAD
1000
DSTYLE
1002
{
1070
   147
1040
0.0
1070
    77
1070
     1
1070
   173
1070
     1
1070
     6
1000
_OPEN
1070
     7
1000
_OPEN
1002
}
  0
MTEXT
  5
32E
102
{ACAD_REACTORS
330
32D
102
}
100
AcDbEntity
  8
MAIN0
  6
CONTINUOUS
 62
3
100
AcDbMText
 10
223.6634000676043
 20
257.1948102592967
 30
0.0000000000000000
 40
3.099999904632568
 41
0.0000000000000000
 71
     1
 72
     1
  1
{\H0.94x;{スリーブカバー端面}}
 11
1.000000000000000
 21
0.0000000000000000
 31
0.0000000000000000
  7
KNJYOKO
  0
LINE
  5
32F
100
AcDbEntity
  8
MAIN0
  6
PHANTOM
 62
3
100
AcDbLine
 10
197.8315763061092
 20
230.8289252738131
 30
0.0000000000000000
 11
196.8315763061092
 21
229.8289252738131
 31
0.0000000000000000
  0
LINE
  5
330
100
AcDbEntity
  8
MAIN0
  6
PHANTOM
 62
3
100
AcDbLine
 10
200.3315763061092
 20
230.8289252738132
 30
0.0000000000000000
 11
197.8315763061092
 21
230.8289252738132
 31
0.0000000000000000
  0
ARC
  5
331
100
AcDbEntity
  8
MAIN0
  6
PHANTOM
 62
3
100
AcDbCircle
 10
200.3315763061092
 20
231.8289252738132
 30
0.0000000000000000
 40
1.000000000000000
100
AcDbArc
 50
270.0000000000000
 51
360.0000000000000
  0
LINE
  5
332
100
AcDbEntity
  8
MAIN0
  6
PHANTOM
 62
3
100
AcDbLine
 10
201.3315763061097
 20
231.8289252738132
 30
0.0000000000000000
 11
201.3315763058932
 21
247.9969469511451
 31
0.0000000000000000
  0
LINE
  5
333
100
AcDbEntity
  8
MAIN0
  6
CONTINUOUS
 62
3
100
AcDbLine
 10
201.3315763058932
 20
247.9969469511451
 30
0.0000000000000000
 11
201.3315763061096
 21
254.4843645710509
 31
0.0000000000000000
  0
MTEXT
  5
334
100
AcDbEntity
  8
MAIN0
  6
CONTINUOUS
 62
3
100
AcDbMText
 10
223.7242565063477
 20
252.5495528280540
 30
0.0000000000000000
 40
3.099999904632568
 41
0.0000000000000000
 71
     1
 72
     1
  1
{\H0.71x;{SLEEVE COVER\P       SURFACE}}
 11
1.000000000000000
 21
0.0000000000000000
 31
0.0000000000000000
  7
STANDARD
  0
LINE
  5
335
100
AcDbEntity
  8
MAIN0
  6
PHANTOM
 62
3
100
AcDbLine
 10
196.8315763061092
 20
219.3789252738024
 30
0.0000000000000000
 11
196.8315763061092
 21
229.8289252738131
 31
0.0000000000000000
  0
LEADER
  5
336
100
AcDbEntity
  8
MAIN0
  6
CONTINUOUS
 62
3
100
AcDbLeader
  3
MAIN001
 73
     0
 74
     0
 75
     1
 40
3.099999904632568
 41
17.02100039815903
 76
     3
 10
204.8315763061093
 20
195.7412447284312
 30
0.0000000000000000
 10
218.9263785594795
 20
173.2655061461484
 30
0.0000000000000000
 10
220.8513785036896
 20
173.2655061461484
 30
0.0000000000000000
340
337
213
-0.001000000000004775
223
-0.5000000000000000
233
0.0000000000000000
1001
ACAD
1000
DSTYLE
1002
{
1070
   147
1040
0.0
1070
    77
1070
     1
1070
   173
1070
     1
1070
     6
1000
_OPEN
1070
     7
1000
_OPEN
1002
}
  0
MTEXT
  5
337
102
{ACAD_REACTORS
330
336
102
}
100
AcDbEntity
  8
MAIN0
  6
CONTINUOUS
 62
3
100
AcDbMText
 10
220.8523785036896
 20
176.8655060507810
 30
0.0000000000000000
 40
3.099999904632568
 41
0.0000000000000000
 71
     1
 72
     1
  1
{\H0.93x;{ボデー端面}}
 11
1.000000000000000
 21
0.0000000000000000
 31
0.0000000000000000
  7
KNJYOKO
  0
MTEXT
  5
338
100
AcDbEntity
  8
MAIN0
  6
CONTINUOUS
 62
3
100
AcDbMText
 10
219.1837047375732
 20
171.5006817748822
 30
0.0000000000000000
 40
3.099999904632568
 41
0.0000000000000000
 71
     1
 72
     1
  1
{\H0.71x;{BODY SURFACE}}
 11
1.000000000000000
 21
0.0000000000000000
 31
0.0000000000000000
  7
STANDARD
  0
LINE
  5
339
100
AcDbEntity
  8
MAIN0
  6
PHANTOM
 62
3
100
AcDbLine
 10
417.5516493715132
 20
199.9760580956553
 30
0.0000000000000000
 11
430.5420304282799
 21
207.4760580956553
 31
0.0000000000000000
  0
LINE
  5
33A
100
AcDbEntity
  8
MAIN0
  6
PHANTOM
 62
3
100
AcDbLine
 10
417.5516493715134
 20
199.9760580956552
 30
0.0000000000000000
 11
419.5516493715132
 21
196.5119564805175
 31
0.0000000000000000
  0
LINE
  5
33B
100
AcDbEntity
  8
MAIN0
  6
PHANTOM
 62
3
100
AcDbLine
 10
419.5516493715134
 20
196.5119564805175
 30
0.0000000000000000
 11
432.5420304282800
 21
204.0119564805174
 31
0.0000000000000000
  0
LINE
  5
33C
100
AcDbEntity
  8
MAIN0
  6
PHANTOM
 62
3
100
AcDbLine
 10
430.5420304282802
 20
207.4760580956548
 30
0.0000000000000000
 11
432.5420304282802
 21
204.0119564805170
 31
0.0000000000000000
  0
ARC
  5
33D
100
AcDbEntity
  8
MAIN0
  6
CENTER
 62
3
100
AcDbCircle
 10
387.2968398998964
 20
267.3789252738113
 30
0.0000000000000000
 40
60.30132668523942
100
AcDbArc
 50
244.2056110690751
 51
295.2073400317298
  0
LINE
  5
33E
100
AcDbEntity
  8
MAIN0
  6
CONTINUOUS
 62
3
100
AcDbLine
 10
170.3315763061099
 20
350.8789252738136
 30
0.0000000000000000
 11
170.3315763061098
 21
349.8789252738136
 31
0.0000000000000000
  0
DIMENSION
  5
346
100
AcDbEntity
  8
MAIN0
  6
CONTINUOUS
 62
3
100
AcDbDimension
  2
*D39
 10
254.3315763061097
 20
267.3789252738134
 30
0.0000000000000000
 11
253.8315763061097
 21
293.7788156329079
 31
0.0000000000000000
 70
160
  1
\A1;MAX 44.5
  3
MAIN001
100
AcDbAlignedDimension
 13
208.8315763061096
 23
311.8789252738131
 33
0.0000000000000000
 14
183.7932693933560
 24
267.3789252738134
 34
0.0000000000000000
 50
90.00000000000000
100
AcDbRotatedDimension
1001
ACAD
1000
DSTYLE
1002
{
1070
   173
1070
     1
1070
     6
1000
_OPEN
1070
     7
1000
_OPEN
1070
    41
1040
2.000000
1002
}
  0
DIMENSION
  5
351
100
AcDbEntity
  8
MAIN0
  6
CONTINUOUS
 62
3
100
AcDbDimension
  2
*D40
 10
254.3315763061097
 20
311.8789252738131
 30
0.0000000000000000
 11
253.8315763061097
 21
330.4003709818952
 31
0.0000000000000000
 70
160
  1
\A1;MAX 9.25
  3
MAIN001
100
AcDbAlignedDimension
 13
245.7106764173255
 23
321.1289252738128
 33
0.0000000000000000
 14
208.8315763061096
 24
311.8789252738131
 34
0.0000000000000000
 50
90.00000000000000
100
AcDbRotatedDimension
1001
ACAD
1000
DSTYLE
1002
{
1070
   173
1070
     1
1070
     6
1000
_OPEN
1070
     7
1000
_OPEN
1070
    41
1040
2.000000
1070
   287
1070
     0
1002
}
  0
LINE
  5
352
100
AcDbEntity
  8
MAIN0
  6
HIDDEN
 62
3
100
AcDbLine
 10
364.7968398998964
 20
299.8789252738134
 30
0.0000000000000000
 11
364.7968398998964
 21
346.7514646057492
 31
0.0000000000000000
  0
LINE
  5
353
100
AcDbEntity
  8
MAIN0
  6
CONTINUOUS
 62
3
100
AcDbLine
 10
364.7968398998964
 20
346.7514646057492
 30
0.0000000000000000
 11
364.7968398998964
 21
347.4212080482769
 31
0.0000000000000000
  0
LINE
  5
354
100
AcDbEntity
  8
MAIN0
  6
HIDDEN
 62
3
100
AcDbLine
 10
409.7968398998964
 20
299.8789252738134
 30
0.0000000000000000
 11
409.7968398998964
 21
346.7514646057492
 31
0.0000000000000000
  0
LINE
  5
355
100
AcDbEntity
  8
MAIN0
  6
CONTINUOUS
 62
3
100
AcDbLine
 10
409.7968398998964
 20
346.7514646057492
 30
0.0000000000000000
 11
409.7968398998964
 21
347.4212080482911
 31
0.0000000000000000
  0
MTEXT
  5
356
100
AcDbEntity
  8
MAIN0
  6
CONTINUOUS
 62
3
100
AcDbMText
 10
460.6236369896711
 20
246.6443501369462
 30
0.0000000000000000
 40
4.000000000000000
 41
0.0000000000000000
 71
     1
 72
     1
  1
{\H0.81x;{1}}
 11
0.5000000000000001
 21
0.8660254037844386
 31
0.0000000000000000
  7
STANDARD
  0
LINE
  5
357
100
AcDbEntity
  8
MAIN0
  6
CONTINUOUS
 62
3
100
AcDbLine
 10
421.5079581919008
 20
267.8343863402803
 30
0.0000000000000000
 11
434.4983392486674
 21
260.3343863402803
 31
0.0000000000000000
  0
LINE
  5
358
100
AcDbEntity
  8
MAIN0
  6
CONTINUOUS
 62
3
100
AcDbLine
 10
425.7922503354249
 20
252.2549980073252
 30
0.0000000000000000
 11
428.8233392486704
 21
250.5049980073252
 31
0.0000000000000000
  0
LINE
  5
359
100
AcDbEntity
  8
MAIN0
  6
CONTINUOUS
 62
3
100
AcDbLine
 10
425.7922503354247
 20
252.2549980073252
 30
0.0000000000000000
 11
419.6422503354280
 21
241.6028855407748
 31
0.0000000000000000
  0
LINE
  5
35A
100
AcDbEntity
  8
MAIN0
  6
CONTINUOUS
 62
3
100
AcDbLine
 10
434.4983392486673
 20
260.3343863402803
 30
0.0000000000000000
 11
428.8233392486702
 21
250.5049980073252
 31
0.0000000000000000
  0
LINE
  5
35B
100
AcDbEntity
  8
MAIN0
  6
CONTINUOUS
 62
3
100
AcDbLine
 10
421.5079581919009
 20
267.8343863402804
 30
0.0000000000000000
 11
404.0079581919100
 21
237.5234972078198
 31
0.0000000000000000
  0
CIRCLE
  5
35C
100
AcDbEntity
  8
MAIN0
  6
CONTINUOUS
 62
3
100
AcDbCircle
 10
427.4378274720176
 20
256.9052212156803
 30
0.0000000000000000
 40
3.150000000000000
  0
LINE
  5
35D
100
AcDbEntity
  8
MAIN0
  6
CENTER
 62
3
100
AcDbLine
 10
424.8628274720176
 20
252.4451903861906
 30
0.0000000000000000
 11
430.0128274720176
 21
261.3652520451703
 31
0.0000000000000000
  0
LINE
  5
35E
100
AcDbEntity
  8
MAIN0
  6
CENTER
 62
3
100
AcDbLine
 10
431.8978583015074
 20
254.3302212156804
 30
0.0000000000000000
 11
422.9777966425277
 21
259.4802212156804
 31
0.0000000000000000
  0
LINE
  5
35F
100
AcDbEntity
  8
MAIN0
  6
CONTINUOUS
 62
3
100
AcDbLine
 10
404.0079581919009
 20
237.5234972078250
 30
0.0000000000000000
 11
416.9983392486674
 21
230.0234972078250
 31
0.0000000000000000
  0
LINE
  5
360
100
AcDbEntity
  8
MAIN0
  6
CONTINUOUS
 62
3
100
AcDbLine
 10
419.6422503354248
 20
241.6028855407766
 30
0.0000000000000000
 11
422.6733392486704
 21
239.8528855407766
 31
0.0000000000000000
  0
LINE
  5
361
100
AcDbEntity
  8
MAIN0
  6
CONTINUOUS
 62
3
100
AcDbLine
 10
416.9983392486673
 20
230.0234972078249
 30
0.0000000000000000
 11
422.6733392486702
 21
239.8528855407766
 31
0.0000000000000000
  0
CIRCLE
  5
362
100
AcDbEntity
  8
MAIN0
  6
CONTINUOUS
 62
3
100
AcDbCircle
 10
416.4378274720176
 20
237.8526623324227
 30
0.0000000000000000
 40
3.150000000000000
  0
LINE
  5
363
100
AcDbEntity
  8
MAIN0
  6
CENTER
 62
3
100
AcDbLine
 10
419.0128274720176
 20
242.3126931619127
 30
0.0000000000000000
 11
413.8628274720176
 21
233.3926315029329
 31
0.0000000000000000
  0
LINE
  5
364
100
AcDbEntity
  8
MAIN0
  6
CENTER
 62
3
100
AcDbLine
 10
420.8978583015074
 20
235.2776623324229
 30
0.0000000000000000
 11
411.9777966425278
 21
240.4276623324229
 31
0.0000000000000000
  0
LINE
  5
365
100
AcDbEntity
  8
MAIN0
  6
HIDDEN
 62
3
100
AcDbLine
 10
463.0018160291497
 20
249.6514210403310
 30
0.0000000000000000
 11
467.2854848506253
 21
247.1782436931251
 31
0.0000000000000000
  0
LINE
  5
366
100
AcDbEntity
  8
MAIN0
  6
CONTINUOUS
 62
3
100
AcDbLine
 10
467.2854848506252
 20
247.1782436931252
 30
0.0000000000000000
 11
467.8654651010252
 21
246.8433919394310
 31
0.0000000000000000
  0
LINE
  5
367
100
AcDbEntity
  8
MAIN0
  6
HIDDEN
 62
3
100
AcDbLine
 10
440.5018160290970
 20
210.6802778700617
 30
0.0000000000000000
 11
444.7854848505725
 21
208.2071005228558
 31
0.0000000000000000
  0
LINE
  5
368
100
AcDbEntity
  8
MAIN0
  6
CONTINUOUS
 62
3
100
AcDbLine
 10
444.7854848505724
 20
208.2071005228558
 30
0.0000000000000000
 11
445.3654771121629
 21
207.8722418344975
 31
0.0000000000000000
  0
LINE
  5
369
100
AcDbEntity
  8
MAIN0
  6
CONTINUOUS
 62
3
100
AcDbLine
 10
356.9184154606976
 20
239.0900991995022
 30
0.0000000000000000
 11
359.3932891948506
 21
236.6152254653492
 31
0.0000000000000000
  0
LINE
  5
36A
100
AcDbEntity
  8
MAIN0
  6
CONTINUOUS
 62
3
100
AcDbLine
 10
356.9184154606977
 20
236.6152254653495
 30
0.0000000000000000
 11
359.3932891948508
 21
239.0900991995023
 31
0.0000000000000000
  0
LINE
  5
36B
100
AcDbEntity
  8
MAIN0
  6
CONTINUOUS
 62
3
100
AcDbLine
 10
345.9184154606978
 20
258.1426580827599
 30
0.0000000000000000
 11
348.3932891948507
 21
255.6677843486070
 31
0.0000000000000000
  0
LINE
  5
36C
100
AcDbEntity
  8
MAIN0
  6
CONTINUOUS
 62
3
100
AcDbLine
 10
345.9184154606976
 20
255.6677843486070
 30
0.0000000000000000
 11
348.3932891948506
 21
258.1426580827599
 31
0.0000000000000000
  0
MTEXT
  5
36D
100
AcDbEntity
  8
MAIN0
  6
CONTINUOUS
 62
3
100
AcDbMText
 10
332.6767534969683
 20
214.2433767848377
 30
0.0000000000000000
 40
4.000000000000000
 41
0.0000000000000000
 71
     1
 72
     1
  1
{\H0.81x;{2}}
 11
0.4999999999999993
 21
-0.8660254037844390
 31
0.0000000000000000
  7
STANDARD
  0
LINE
  5
36E
100
AcDbEntity
  8
MAIN0
  6
CONTINUOUS
 62
3
100
AcDbLine
 10
370.5857216078908
 20
237.5234972078279
 30
0.0000000000000000
 11
357.5953405511243
 21
230.0234972078279
 31
0.0000000000000000
  0
LINE
  5
36F
100
AcDbEntity
  8
MAIN0
  6
CONTINUOUS
 62
3
100
AcDbLine
 10
354.9514294643668
 20
241.6028855407796
 30
0.0000000000000000
 11
351.9203405511213
 21
239.8528855407796
 31
0.0000000000000000
  0
LINE
  5
370
100
AcDbEntity
  8
MAIN0
  6
CONTINUOUS
 62
3
100
AcDbLine
 10
354.9514294643671
 20
241.6028855407798
 30
0.0000000000000000
 11
348.8014294643639
 21
252.2549980073265
 31
0.0000000000000000
  0
LINE
  5
371
100
AcDbEntity
  8
MAIN0
  6
CONTINUOUS
 62
3
100
AcDbLine
 10
357.5953405511244
 20
230.0234972078282
 30
0.0000000000000000
 11
351.9203405511215
 21
239.8528855407799
 31
0.0000000000000000
  0
LINE
  5
372
100
AcDbEntity
  8
MAIN0
  6
CONTINUOUS
 62
3
100
AcDbLine
 10
370.5857216078911
 20
237.5234972078280
 30
0.0000000000000000
 11
353.0857216078820
 21
267.8343863402780
 31
0.0000000000000000
  0
CIRCLE
  5
373
100
AcDbEntity
  8
MAIN0
  6
CONTINUOUS
 62
3
100
AcDbCircle
 10
358.1558523277741
 20
237.8526623324259
 30
0.0000000000000000
 40
3.150000000000000
  0
LINE
  5
374
100
AcDbEntity
  8
MAIN0
  6
CENTER
 62
3
100
AcDbLine
 10
355.5808523277741
 20
242.3126931619156
 30
0.0000000000000000
 11
360.7308523277741
 21
233.3926315029360
 31
0.0000000000000000
  0
LINE
  5
375
100
AcDbEntity
  8
MAIN0
  6
CONTINUOUS
 62
3
100
AcDbLine
 10
353.0857216078908
 20
267.8343863402832
 30
0.0000000000000000
 11
340.0953405511243
 21
260.3343863402832
 31
0.0000000000000000
  0
LINE
  5
376
100
AcDbEntity
  8
MAIN0
  6
CONTINUOUS
 62
3
100
AcDbLine
 10
348.8014294643668
 20
252.2549980073281
 30
0.0000000000000000
 11
345.7703405511213
 21
250.5049980073281
 31
0.0000000000000000
  0
LINE
  5
377
100
AcDbEntity
  8
MAIN0
  6
CONTINUOUS
 62
3
100
AcDbLine
 10
340.0953405511243
 20
260.3343863402835
 30
0.0000000000000000
 11
345.7703405511214
 21
250.5049980073283
 31
0.0000000000000000
  0
CIRCLE
  5
378
100
AcDbEntity
  8
MAIN0
  6
CONTINUOUS
 62
3
100
AcDbCircle
 10
347.1558523277743
 20
256.9052212156835
 30
0.0000000000000000
 40
3.150000000000000
  0
LINE
  5
379
100
AcDbEntity
  8
MAIN0
  6
CENTER
 62
3
100
AcDbLine
 10
349.7308523277741
 20
252.4451903861936
 30
0.0000000000000000
 11
344.5808523277741
 21
261.3652520451733
 31
0.0000000000000000
  0
LINE
  5
37A
100
AcDbEntity
  8
MAIN0
  6
CENTER
 62
3
100
AcDbLine
 10
342.6958214982843
 20
254.3302212156835
 30
0.0000000000000000
 11
351.6158831572640
 21
259.4802212156835
 31
0.0000000000000000
  0
LINE
  5
37B
100
AcDbEntity
  8
MAIN0
  6
CONTINUOUS
 62
3
100
AcDbLine
 10
306.7282146987142
 20
246.8433919396546
 30
0.0000000000000000
 11
307.3081949491117
 21
247.1782436933452
 31
0.0000000000000000
  0
LINE
  5
37C
100
AcDbEntity
  8
MAIN0
  6
HIDDEN
 62
3
100
AcDbLine
 10
307.3081949491119
 20
247.1782436933453
 30
0.0000000000000000
 11
317.3192735892787
 21
252.9581426411060
 31
0.0000000000000000
  0
LINE
  5
37D
100
AcDbEntity
  8
MAIN0
  6
CONTINUOUS
 62
3
100
AcDbLine
 10
329.2282026874639
 20
207.8722418346562
 30
0.0000000000000000
 11
329.8081949490586
 21
208.2071005230148
 31
0.0000000000000000
  0
LINE
  5
37E
100
AcDbEntity
  8
MAIN0
  6
HIDDEN
 62
3
100
AcDbLine
 10
329.8081949490589
 20
208.2071005230150
 30
0.0000000000000000
 11
339.8192735892257
 21
213.9869994707757
 31
0.0000000000000000
  0
LINE
  5
37F
100
AcDbEntity
  8
MAIN0
  6
HIDDEN
 62
3
100
AcDbLine
 10
220.8315763061101
 20
333.1289252738129
 30
0.0000000000000000
 11
229.8315763061101
 21
333.1289252738123
 31
0.0000000000000000
  0
LINE
  5
380
100
AcDbEntity
  8
MAIN0
  6
HIDDEN
 62
3
100
AcDbLine
 10
229.8315763061101
 20
333.1289252738123
 30
0.0000000000000000
 11
230.8315763061102
 21
334.8609760813811
 31
0.0000000000000000
  0
LINE
  5
381
100
AcDbEntity
  8
MAIN0
  6
HIDDEN
 62
3
100
AcDbLine
 10
230.8315763061102
 20
334.8609760813811
 30
0.0000000000000000
 11
230.8315763061110
 21
347.3968744662433
 31
0.0000000000000000
  0
LINE
  5
382
100
AcDbEntity
  8
MAIN0
  6
HIDDEN
 62
3
100
AcDbLine
 10
230.8315763061110
 20
347.3968744662433
 30
0.0000000000000000
 11
229.8315763061111
 21
349.1289252738122
 31
0.0000000000000000
  0
LINE
  5
383
100
AcDbEntity
  8
MAIN0
  6
HIDDEN
 62
3
100
AcDbLine
 10
229.8315763061111
 20
349.1289252738122
 30
0.0000000000000000
 11
220.8315763061111
 21
349.1289252738128
 31
0.0000000000000000
  0
LINE
  5
384
100
AcDbEntity
  8
MAIN0
  6
HIDDEN
 62
3
100
AcDbLine
 10
229.8315763061101
 20
333.1289252738123
 30
0.0000000000000000
 11
229.8315763061111
 21
349.1289252738123
 31
0.0000000000000000
  0
LINE
  5
385
100
AcDbEntity
  8
MAIN0
  6
HIDDEN
 62
3
100
AcDbLine
 10
220.8315763061103
 20
336.1289252738129
 30
0.0000000000000000
 11
207.1094002655225
 21
336.1289252738137
 31
0.0000000000000000
  0
LINE
  5
386
100
AcDbEntity
  8
MAIN0
  6
HIDDEN
 62
3
100
AcDbLine
 10
207.1094002655231
 20
346.1289252738137
 30
0.0000000000000000
 11
220.8315763061110
 21
346.1289252738129
 31
0.0000000000000000
  0
LINE
  5
387
100
AcDbEntity
  8
MAIN0
  6
HIDDEN
 62
3
100
AcDbLine
 10
220.8315763061104
 20
336.9408242738128
 30
0.0000000000000000
 11
211.6501838886526
 21
336.9408242738134
 31
0.0000000000000000
  0
LINE
  5
388
100
AcDbEntity
  8
MAIN0
  6
HIDDEN
 62
3
100
AcDbLine
 10
220.8315763061109
 20
345.3170262738129
 30
0.0000000000000000
 11
211.6501838886532
 21
345.3170262738134
 31
0.0000000000000000
  0
LINE
  5
389
100
AcDbEntity
  8
MAIN0
  6
HIDDEN
 62
3
100
AcDbLine
 10
240.8315763061100
 20
332.0289252738128
 30
0.0000000000000000
 11
240.2315763061101
 21
332.6289252738129
 31
0.0000000000000000
  0
LINE
  5
38A
100
AcDbEntity
  8
MAIN0
  6
HIDDEN
 62
3
100
AcDbLine
 10
240.2315763061101
 20
332.6289252738129
 30
0.0000000000000000
 11
220.8315763061100
 21
332.6289252738141
 31
0.0000000000000000
  0
LINE
  5
38B
100
AcDbEntity
  8
MAIN0
  6
HIDDEN
 62
3
100
AcDbLine
 10
220.8315763061101
 20
332.6289252738141
 30
0.0000000000000000
 11
220.8315763061112
 21
349.6289252738141
 31
0.0000000000000000
  0
LINE
  5
38C
100
AcDbEntity
  8
MAIN0
  6
HIDDEN
 62
3
100
AcDbLine
 10
220.8315763061112
 20
349.6289252738141
 30
0.0000000000000000
 11
240.2315763061112
 21
349.6289252738129
 31
0.0000000000000000
  0
LINE
  5
38D
100
AcDbEntity
  8
MAIN0
  6
HIDDEN
 62
3
100
AcDbLine
 10
240.2315763061112
 20
349.6289252738129
 30
0.0000000000000000
 11
240.8315763061112
 21
350.2289252738128
 31
0.0000000000000000
  0
LINE
  5
38E
100
AcDbEntity
  8
MAIN0
  6
HIDDEN
 62
3
100
AcDbLine
 10
220.8315763061103
 20
335.6289252738141
 30
0.0000000000000000
 11
214.2315763061102
 21
335.6289252738145
 31
0.0000000000000000
  0
LINE
  5
38F
100
AcDbEntity
  8
MAIN0
  6
HIDDEN
 62
3
100
AcDbLine
 10
214.2315763061103
 20
335.6289252738145
 30
0.0000000000000000
 11
213.8315763061102
 21
335.2289252738145
 31
0.0000000000000000
  0
LINE
  5
390
100
AcDbEntity
  8
MAIN0
  6
HIDDEN
 62
3
100
AcDbLine
 10
220.8315763061110
 20
346.6289252738141
 30
0.0000000000000000
 11
214.2315763061109
 21
346.6289252738145
 31
0.0000000000000000
  0
LINE
  5
391
100
AcDbEntity
  8
MAIN0
  6
HIDDEN
 62
3
100
AcDbLine
 10
214.2315763061109
 20
346.6289252738145
 30
0.0000000000000000
 11
213.8315763061110
 21
347.0289252738145
 31
0.0000000000000000
  0
LINE
  5
392
100
AcDbEntity
  8
MAIN0
  6
PHANTOM
 62
3
100
AcDbLine
 10
357.2183398998964
 20
164.3789252738119
 30
0.0000000000000000
 11
357.5120898998967
 21
173.7789252738119
 31
0.0000000000000000
  0
LINE
  5
393
100
AcDbEntity
  8
MAIN0
  6
PHANTOM
 62
3
100
AcDbLine
 10
357.5120898998967
 20
173.7789252738119
 30
0.0000000000000000
 11
370.0815898998967
 21
173.7789252738115
 31
0.0000000000000000
  0
LINE
  5
394
100
AcDbEntity
  8
MAIN0
  6
PHANTOM
 62
3
100
AcDbLine
 10
370.0815898998967
 20
173.7789252738115
 30
0.0000000000000000
 11
370.3753398998965
 21
164.3789252738114
 31
0.0000000000000000
  0
LINE
  5
395
100
AcDbEntity
  8
MAIN0
  6
PHANTOM
 62
3
100
AcDbLine
 10
358.0743398998965
 20
164.3789252738118
 30
0.0000000000000000
 11
358.3680898998968
 21
173.7789252738118
 31
0.0000000000000000
  0
LINE
  5
396
100
AcDbEntity
  8
MAIN0
  6
PHANTOM
 62
3
100
AcDbLine
 10
369.5193398998964
 20
164.3789252738115
 30
0.0000000000000000
 11
369.2255898998967
 21
173.7789252738115
 31
0.0000000000000000
  0
LINE
  5
397
100
AcDbEntity
  8
MAIN0
  6
PHANTOM
 62
3
100
AcDbLine
 10
358.3968398998967
 20
173.7789252738118
 30
0.0000000000000000
 11
358.3968398998969
 21
179.3789252738118
 31
0.0000000000000000
  0
LINE
  5
398
100
AcDbEntity
  8
MAIN0
  6
PHANTOM
 62
3
100
AcDbLine
 10
358.3968398998969
 20
179.3789252738118
 30
0.0000000000000000
 11
369.1968398998969
 21
179.3789252738115
 31
0.0000000000000000
  0
LINE
  5
399
100
AcDbEntity
  8
MAIN0
  6
PHANTOM
 62
3
100
AcDbLine
 10
369.1968398998969
 20
179.3789252738115
 30
0.0000000000000000
 11
369.1968398998967
 21
173.7789252738115
 31
0.0000000000000000
  0
LINE
  5
39A
100
AcDbEntity
  8
MAIN0
  6
PHANTOM
 62
3
100
AcDbLine
 10
358.3968398998970
 20
179.3789252738118
 30
0.0000000000000000
 11
363.7968398998971
 21
182.4966167274355
 31
0.0000000000000000
  0
LINE
  5
39B
100
AcDbEntity
  8
MAIN0
  6
PHANTOM
 62
3
100
AcDbLine
 10
363.7968398998970
 20
182.4966167274356
 30
0.0000000000000000
 11
369.1968398998969
 21
179.3789252738115
 31
0.0000000000000000
  0
CIRCLE
  5
39C
100
AcDbEntity
  8
MAIN0
  6
CONTINUOUS
 62
3
100
AcDbCircle
 10
376.2968398998964
 20
176.8789252738116
 30
0.0000000000000000
 40
5.000000000000000
  0
LINE
  5
39D
100
AcDbEntity
  8
MAIN0
  6
CONTINUOUS
 62
3
100
AcDbLine
 10
376.2968398998964
 20
179.7656766197596
 30
0.0000000000000000
 11
373.7968398998964
 21
178.3223009467856
 31
0.0000000000000000
  0
LINE
  5
39E
100
AcDbEntity
  8
MAIN0
  6
CONTINUOUS
 62
3
100
AcDbLine
 10
373.7968398998964
 20
178.3223009467856
 30
0.0000000000000000
 11
373.7968398998964
 21
175.4355496008375
 31
0.0000000000000000
  0
LINE
  5
39F
100
AcDbEntity
  8
MAIN0
  6
CONTINUOUS
 62
3
100
AcDbLine
 10
373.7968398998964
 20
175.4355496008375
 30
0.0000000000000000
 11
376.2968398998964
 21
173.9921739278634
 31
0.0000000000000000
  0
LINE
  5
3A0
100
AcDbEntity
  8
MAIN0
  6
CONTINUOUS
 62
3
100
AcDbLine
 10
376.2968398998964
 20
173.9921739278634
 30
0.0000000000000000
 11
378.7968398998964
 21
175.4355496008375
 31
0.0000000000000000
  0
LINE
  5
3A1
100
AcDbEntity
  8
MAIN0
  6
CONTINUOUS
 62
3
100
AcDbLine
 10
378.7968398998964
 20
175.4355496008375
 30
0.0000000000000000
 11
378.7968398998964
 21
178.3223009467856
 31
0.0000000000000000
  0
LINE
  5
3A2
100
AcDbEntity
  8
MAIN0
  6
CONTINUOUS
 62
3
100
AcDbLine
 10
378.7968398998964
 20
178.3223009467856
 30
0.0000000000000000
 11
376.2968398998964
 21
179.7656766197596
 31
0.0000000000000000
  0
LINE
  5
3A3
100
AcDbEntity
  8
MAIN0
  6
PHANTOM
 62
3
100
AcDbLine
 10
109.8315763061092
 20
212.2585502738141
 30
0.0000000000000000
 11
116.5315763061092
 21
212.0491752738141
 31
0.0000000000000000
  0
LINE
  5
3A4
100
AcDbEntity
  8
MAIN0
  6
PHANTOM
 62
3
100
AcDbLine
 10
116.5315763061092
 20
212.0491752738142
 30
0.0000000000000000
 11
116.5315763061092
 21
202.7086752738142
 31
0.0000000000000000
  0
LINE
  5
3A5
100
AcDbEntity
  8
MAIN0
  6
PHANTOM
 62
3
100
AcDbLine
 10
116.5315763061092
 20
202.7086752738142
 30
0.0000000000000000
 11
109.8315763061091
 21
202.4993002738142
 31
0.0000000000000000
  0
LINE
  5
3A6
100
AcDbEntity
  8
MAIN0
  6
PHANTOM
 62
3
100
AcDbLine
 10
109.8315763061092
 20
211.6775502738142
 30
0.0000000000000000
 11
116.5315763061092
 21
211.4681752738142
 31
0.0000000000000000
  0
LINE
  5
3A7
100
AcDbEntity
  8
MAIN0
  6
PHANTOM
 62
3
100
AcDbLine
 10
109.8315763061092
 20
203.0803002738142
 30
0.0000000000000000
 11
116.5315763061092
 21
203.2896752738142
 31
0.0000000000000000
  0
LINE
  5
3A8
100
AcDbEntity
  8
MAIN0
  6
PHANTOM
 62
3
100
AcDbLine
 10
116.5315763061092
 20
211.4789252738142
 30
0.0000000000000000
 11
121.5516054008791
 21
211.4789252738142
 31
0.0000000000000000
  0
LINE
  5
3A9
100
AcDbEntity
  8
MAIN0
  6
PHANTOM
 62
3
100
AcDbLine
 10
121.3780097666779
 20
203.2789252738142
 30
0.0000000000000000
 11
116.5315763061092
 21
203.2789252738142
 31
0.0000000000000000
  0
CIRCLE
  5
3AA
100
AcDbEntity
  8
MAIN0
  6
CONTINUOUS
 62
3
100
AcDbCircle
 10
433.5468398998968
 20
347.4862751238718
 30
0.0000000000000000
 40
5.000000000000000
  0
CIRCLE
  5
3AB
100
AcDbEntity
  8
MAIN0
  6
CONTINUOUS
 62
3
100
AcDbCircle
 10
433.5468398998968
 20
347.4862751238718
 30
0.0000000000000000
 40
4.250000000000000
  0
CIRCLE
  5
3AC
100
AcDbEntity
  8
MAIN0
  6
CONTINUOUS
 62
3
100
AcDbCircle
 10
341.0468398998960
 20
187.2715754237511
 30
0.0000000000000000
 40
5.000000000000000
  0
CIRCLE
  5
3AD
100
AcDbEntity
  8
MAIN0
  6
CONTINUOUS
 62
3
100
AcDbCircle
 10
341.0468398998960
 20
187.2715754237511
 30
0.0000000000000000
 40
4.250000000000000
  0
CIRCLE
  5
3AE
100
AcDbEntity
  8
MAIN0
  6
CONTINUOUS
 62
3
100
AcDbCircle
 10
423.8864132098177
 20
288.5039252737616
 30
0.0000000000000000
 40
4.250000000000000
  0
LINE
  5
3AF
100
AcDbEntity
  8
MAIN0
  6
CONTINUOUS
 62
3
100
AcDbLine
 10
423.8864132098177
 20
290.8133263505202
 30
0.0000000000000000
 11
421.8864132098177
 21
289.6586258121409
 31
0.0000000000000000
  0
LINE
  5
3B0
100
AcDbEntity
  8
MAIN0
  6
CONTINUOUS
 62
3
100
AcDbLine
 10
421.8864132098177
 20
289.6586258121409
 30
0.0000000000000000
 11
421.8864132098177
 21
287.3492247353825
 31
0.0000000000000000
  0
LINE
  5
3B1
100
AcDbEntity
  8
MAIN0
  6
CONTINUOUS
 62
3
100
AcDbLine
 10
421.8864132098177
 20
287.3492247353825
 30
0.0000000000000000
 11
423.8864132098177
 21
286.1945241970032
 31
0.0000000000000000
  0
LINE
  5
3B2
100
AcDbEntity
  8
MAIN0
  6
CONTINUOUS
 62
3
100
AcDbLine
 10
423.8864132098177
 20
286.1945241970032
 30
0.0000000000000000
 11
425.8864132098177
 21
287.3492247353825
 31
0.0000000000000000
  0
LINE
  5
3B3
100
AcDbEntity
  8
MAIN0
  6
CONTINUOUS
 62
3
100
AcDbLine
 10
425.8864132098177
 20
287.3492247353825
 30
0.0000000000000000
 11
425.8864132098177
 21
289.6586258121409
 31
0.0000000000000000
  0
LINE
  5
3B4
100
AcDbEntity
  8
MAIN0
  6
CONTINUOUS
 62
3
100
AcDbLine
 10
425.8864132098177
 20
289.6586258121409
 30
0.0000000000000000
 11
423.8864132098177
 21
290.8133263505201
 31
0.0000000000000000
  0
CIRCLE
  5
3B5
100
AcDbEntity
  8
MAIN0
  6
CONTINUOUS
 62
3
100
AcDbCircle
 10
434.9282371080780
 20
294.8789252737467
 30
0.0000000000000000
 40
4.000000000000000
  0
CIRCLE
  5
3B6
100
AcDbEntity
  8
MAIN0
  6
CONTINUOUS
 62
3
100
AcDbCircle
 10
434.9282371080780
 20
294.8789252737467
 30
0.0000000000000000
 40
3.400000000000000
  0
CIRCLE
  5
3B7
100
AcDbEntity
  8
MAIN0
  6
CONTINUOUS
 62
3
100
AcDbCircle
 10
450.5166943762101
 20
303.8789252737255
 30
0.0000000000000000
 40
4.000000000000000
  0
CIRCLE
  5
3B8
100
AcDbEntity
  8
MAIN0
  6
CONTINUOUS
 62
3
100
AcDbCircle
 10
450.5166943762101
 20
303.8789252737255
 30
0.0000000000000000
 40
3.400000000000000
  0
LINE
  5
3B9
100
AcDbEntity
  8
MAIN0
  6
CONTINUOUS
 62
3
100
AcDbLine
 10
454.9116477401132
 20
290.1150605845722
 30
0.0000000000000000
 11
450.9116477401132
 21
287.8056595078136
 31
0.0000000000000000
  0
LINE
  5
3BA
100
AcDbEntity
  8
MAIN0
  6
CONTINUOUS
 62
3
100
AcDbLine
 10
450.9116477401131
 20
287.8056595078136
 30
0.0000000000000000
 11
450.9116477401131
 21
283.1868573542968
 31
0.0000000000000000
  0
LINE
  5
3BB
100
AcDbEntity
  8
MAIN0
  6
CONTINUOUS
 62
3
100
AcDbLine
 10
450.9116477401131
 20
283.1868573542968
 30
0.0000000000000000
 11
454.9116477401131
 21
280.8774562775382
 31
0.0000000000000000
  0
LINE
  5
3BC
100
AcDbEntity
  8
MAIN0
  6
CONTINUOUS
 62
3
100
AcDbLine
 10
454.9116477401131
 20
280.8774562775383
 30
0.0000000000000000
 11
458.9116477401131
 21
283.1868573542968
 31
0.0000000000000000
  0
LINE
  5
3BD
100
AcDbEntity
  8
MAIN0
  6
CONTINUOUS
 62
3
100
AcDbLine
 10
458.9116477401131
 20
283.1868573542968
 30
0.0000000000000000
 11
458.9116477401131
 21
287.8056595078136
 31
0.0000000000000000
  0
LINE
  5
3BE
100
AcDbEntity
  8
MAIN0
  6
CONTINUOUS
 62
3
100
AcDbLine
 10
458.9116477401131
 20
287.8056595078136
 30
0.0000000000000000
 11
454.9116477401131
 21
290.1150605845722
 31
0.0000000000000000
  0
CIRCLE
  5
3BF
100
AcDbEntity
  8
MAIN0
  6
CONTINUOUS
 62
3
100
AcDbCircle
 10
387.2968398998964
 20
341.1289252738130
 30
0.0000000000000000
 40
8.000000000000000
  0
LINE
  5
3C0
100
AcDbEntity
  8
MAIN0
  6
CONTINUOUS
 62
3
100
AcDbLine
 10
387.2968398998963
 20
345.7477274273299
 30
0.0000000000000000
 11
383.2968398998963
 21
343.4383263505714
 31
0.0000000000000000
  0
LINE
  5
3C1
100
AcDbEntity
  8
MAIN0
  6
CONTINUOUS
 62
3
100
AcDbLine
 10
383.2968398998964
 20
343.4383263505714
 30
0.0000000000000000
 11
383.2968398998964
 21
338.8195241970545
 31
0.0000000000000000
  0
LINE
  5
3C2
100
AcDbEntity
  8
MAIN0
  6
CONTINUOUS
 62
3
100
AcDbLine
 10
383.2968398998964
 20
338.8195241970545
 30
0.0000000000000000
 11
387.2968398998964
 21
336.5101231202960
 31
0.0000000000000000
  0
LINE
  5
3C3
100
AcDbEntity
  8
MAIN0
  6
CONTINUOUS
 62
3
100
AcDbLine
 10
387.2968398998963
 20
336.5101231202959
 30
0.0000000000000000
 11
391.2968398998963
 21
338.8195241970545
 31
0.0000000000000000
  0
LINE
  5
3C4
100
AcDbEntity
  8
MAIN0
  6
CONTINUOUS
 62
3
100
AcDbLine
 10
391.2968398998964
 20
338.8195241970545
 30
0.0000000000000000
 11
391.2968398998964
 21
343.4383263505714
 31
0.0000000000000000
  0
LINE
  5
3C5
100
AcDbEntity
  8
MAIN0
  6
CONTINUOUS
 62
3
100
AcDbLine
 10
391.2968398998964
 20
343.4383263505714
 30
0.0000000000000000
 11
387.2968398998964
 21
345.7477274273300
 31
0.0000000000000000
  0
CIRCLE
  5
3C6
100
AcDbEntity
  8
MAIN0
  6
PHANTOM
 62
3
100
AcDbCircle
 10
370.7968398998964
 20
209.3789252738116
 30
0.0000000000000000
 40
4.864000000000000
  0
CIRCLE
  5
3C7
100
AcDbEntity
  8
MAIN0
  6
PHANTOM
 62
3
100
AcDbCircle
 10
370.7968398998964
 20
209.3789252738116
 30
0.0000000000000000
 40
4.283000000000000
  0
CIRCLE
  5
3C8
100
AcDbEntity
  8
MAIN0
  6
PHANTOM
 62
3
100
AcDbCircle
 10
403.7968398998964
 20
209.3789252738113
 30
0.0000000000000000
 40
4.864000000000000
  0
CIRCLE
  5
3C9
100
AcDbEntity
  8
MAIN0
  6
PHANTOM
 62
3
100
AcDbCircle
 10
403.7968398998964
 20
209.3789252738113
 30
0.0000000000000000
 40
4.283000000000000
  0
LINE
  5
3CA
100
AcDbEntity
  8
MAIN0
  6
PHANTOM
 62
3
100
AcDbLine
 10
466.2712126322437
 20
287.5634985353607
 30
0.0000000000000000
 11
461.9511256536967
 21
285.2461086753214
 31
0.0000000000000000
  0
LINE
  5
3CB
100
AcDbEntity
  8
MAIN0
  6
PHANTOM
 62
3
100
AcDbLine
 10
461.9511256536967
 20
285.2461086753214
 30
0.0000000000000000
 11
458.2147506537058
 21
291.7177000114568
 31
0.0000000000000000
  0
LINE
  5
3CC
100
AcDbEntity
  8
MAIN0
  6
PHANTOM
 62
3
100
AcDbLine
 10
458.2147506537058
 20
291.7177000114568
 30
0.0000000000000000
 11
462.3817126322533
 21
294.3003101514054
 31
0.0000000000000000
  0
LINE
  5
3CD
100
AcDbEntity
  8
MAIN0
  6
PHANTOM
 62
3
100
AcDbLine
 10
465.9527126322445
 20
288.1151567175718
 30
0.0000000000000000
 11
461.6326256536975
 21
285.7977668575325
 31
0.0000000000000000
  0
LINE
  5
3CE
100
AcDbEntity
  8
MAIN0
  6
PHANTOM
 62
3
100
AcDbLine
 10
462.7002126322525
 20
293.7486519691943
 30
0.0000000000000000
 11
458.5332506537051
 21
291.1660418292457
 31
0.0000000000000000
  0
LINE
  5
3CF
100
AcDbEntity
  8
MAIN0
  6
PHANTOM
 62
3
100
AcDbLine
 10
461.6329381536975
 20
285.7972255916551
 30
0.0000000000000000
 11
448.5559545565418
 21
278.2472255916737
 31
0.0000000000000000
  0
LINE
  5
3D0
100
AcDbEntity
  8
MAIN0
  6
PHANTOM
 62
3
100
AcDbLine
 10
445.4559545565494
 20
283.6165830951416
 30
0.0000000000000000
 11
458.5329381537051
 21
291.1665830951231
 31
0.0000000000000000
  0
MTEXT
  5
3D1
100
AcDbEntity
  8
MAIN0
  6
CONTINUOUS
 62
3
100
AcDbMText
 10
523.2005338735576
 20
90.28636848222874
 30
0.0000000000000000
 40
3.099999904632568
 41
0.0000000000000000
 71
     1
 72
     1
  1
{\H0.67x;{7}}
 11
1.000000000000000
 21
0.0000000000000000
 31
0.0000000000000000
  7
STANDARD
  0
MTEXT
  5
3D2
100
AcDbEntity
  8
MAIN0
  6
CONTINUOUS
 62
3
100
AcDbMText
 10
527.2005338735557
 20
123.7863684822285
 30
0.0000000000000000
 40
3.099999904632568
 41
0.0000000000000000
 71
     1
 72
     1
  1
{\H0.88x;{15}}
 11
1.000000000000000
 21
0.0000000000000000
 31
0.0000000000000000
  7
STANDARD
  0
MTEXT
  5
3D3
100
AcDbEntity
  8
MAIN0
  6
CONTINUOUS
 62
3
100
AcDbMText
 10
527.2005338735571
 20
116.7863684822285
 30
0.0000000000000000
 40
3.099999904632568
 41
0.0000000000000000
 71
     1
 72
     1
  1
{\H0.90x;{5.2}}
 11
1.000000000000000
 21
0.0000000000000000
 31
0.0000000000000000
  7
STANDARD
  0
MTEXT
  5
3D4
100
AcDbEntity
  8
MAIN0
  6
CONTINUOUS
 62
3
100
AcDbMText
 10
524.2005338735597
 20
102.7864018155619
 30
0.0000000000000000
 40
3.099999904632568
 41
0.0000000000000000
 71
     1
 72
     1
  1
{\H0.91x;{2140}}
 11
1.000000000000000
 21
0.0000000000000000
 31
0.0000000000000000
  7
STANDARD
  0
MTEXT
  5
3D5
100
AcDbEntity
  8
MAIN0
  6
CONTINUOUS
 62
3
100
AcDbMText
 10
527.2005338735597
 20
108.7864018155619
 30
0.0000000000000000
 40
3.099999904632568
 41
0.0000000000000000
 71
     1
 72
     1
  1
{\H0.88x;{21}}
 11
1.000000000000000
 21
0.0000000000000000
 31
0.0000000000000000
  7
STANDARD
  0
MTEXT
  5
3D6
100
AcDbEntity
  8
MAIN0
  6
CONTINUOUS
 62
3
100
AcDbMText
 10
527.2005338735587
 20
68.78636848138390
 30
0.0000000000000000
 40
3.099999904632568
 41
0.0000000000000000
 71
     1
 72
     1
  1
{\H0.88x;{16}}
 11
1.000000000000000
 21
0.0000000000000000
 31
0.0000000000000000
  7
STANDARD
  0
LINE
  5
3D7
100
AcDbEntity
  8
MAIN0
  6
CONTINUOUS
 62
3
100
AcDbLine
 10
468.7936369057130
 20
64.68641783369731
 30
0.0000000000000000
 11
549.2005338735594
 21
64.68641783369731
 31
0.0000000000000000
  0
MTEXT
  5
3D8
100
AcDbEntity
  8
MAIN0
  6
CONTINUOUS
 62
3
100
AcDbMText
 10
472.0726770699098
 20
125.0496624650803
 30
0.0000000000000000
 40
2.499999046325684
 41
0.0000000000000000
 71
     1
 72
     1
  1
{\H0.75x;{PLUNGER STROKE}}
 11
1.000000000000000
 21
0.0000000000000000
 31
0.0000000000000000
  7
STANDARD
  0
MTEXT
  5
3D9
100
AcDbEntity
  8
MAIN0
  6
CONTINUOUS
 62
3
100
AcDbMText
 10
472.0726770699098
 20
121.9496630372849
 30
0.0000000000000000
 40
2.399999618530273
 41
0.0000000000000000
 71
     1
 72
     1
  1
{\H0.93x;{プランジャストロ－ク}}
 11
1.000000000000000
 21
0.0000000000000000
 31
0.0000000000000000
  7
KNJYOKO
  0
MTEXT
  5
3DA
100
AcDbEntity
  8
MAIN0
  6
CONTINUOUS
 62
3
100
AcDbMText
 10
472.0726770699098
 20
118.0496624650803
 30
0.0000000000000000
 40
2.499999046325684
 41
0.0000000000000000
 71
     1
 72
     1
  1
{\H0.75x;{JAW STROKE (IN DIA)}}
 11
1.000000000000000
 21
0.0000000000000000
 31
0.0000000000000000
  7
STANDARD
  0
MTEXT
  5
3DB
100
AcDbEntity
  8
MAIN0
  6
CONTINUOUS
 62
3
100
AcDbMText
 10
472.0726770699098
 20
114.9496630372849
 30
0.0000000000000000
 40
2.399999618530273
 41
0.0000000000000000
 71
     1
 72
     1
  1
{\H0.94x;{ジョーストローク(直径で)}}
 11
1.000000000000000
 21
0.0000000000000000
 31
0.0000000000000000
  7
KNJYOKO
  0
MTEXT
  5
3DC
100
AcDbEntity
  8
MAIN0
  6
CONTINUOUS
 62
3
100
AcDbMText
 10
472.0726770699106
 20
94.68633008542182
 30
0.0000000000000000
 40
2.500000000000000
 41
0.0000000000000000
 71
     1
 72
     1
  1
{\H0.63x;{MAX PERMISSIBLE AIR PRESS}}
 11
1.000000000000000
 21
0.0000000000000000
 31
0.0000000000000000
  7
STANDARD
  0
MTEXT
  5
3DD
100
AcDbEntity
  8
MAIN0
  6
CONTINUOUS
 62
3
100
AcDbMText
 10
472.2046617379878
 20
91.58635877025549
 30
0.0000000000000000
 40
2.399999618530273
 41
0.0000000000000000
 71
     1
 72
     1
  1
{\H0.93x;{許容最大エア圧力}}
 11
1.000000000000000
 21
0.0000000000000000
 31
0.0000000000000000
  7
KNJYOKO
  0
MTEXT
  5
3DE
100
AcDbEntity
  8
MAIN0
  6
CONTINUOUS
 62
3
100
AcDbMText
 10
472.0726770699102
 20
71.18641172150103
 30
0.0000000000000000
 40
2.499999046325684
 41
0.0000000000000000
 71
     1
 72
     1
  1
{\H0.73x;{MASS}}
 11
1.000000000000000
 21
0.0000000000000000
 31
0.0000000000000000
  7
STANDARD
  0
MTEXT
  5
3DF
100
AcDbEntity
  8
MAIN0
  6
CONTINUOUS
 62
3
100
AcDbMText
 10
472.0726770699102
 20
68.08641229370562
 30
0.0000000000000000
 40
2.399999618530273
 41
0.0000000000000000
 71
     1
 72
     1
  1
{\H0.89x;{質量\P}
 11
1.000000000000000
 21
0.0000000000000000
 31
0.0000000000000000
  7
KNJYOKO
  0
MTEXT
  5
3E0
100
AcDbEntity
  8
MAIN0
  6
CONTINUOUS
 62
3
100
AcDbMText
 10
497.9725058391437
 20
100.6862857912946
 30
0.0000000000000000
 40
2.500000000000000
 41
0.0000000000000000
 71
     7
 72
     1
  1
{( 6 Kgf/cm}
 11
1.000000000000000
 21
0.0000000000000000
 31
0.0000000000000000
  7
STANDARD
  0
MTEXT
  5
3E1
100
AcDbEntity
  8
MAIN0
  6
CONTINUOUS
 62
3
100
AcDbMText
 10
512.9725058391437
 20
101.9362857912946
 30
0.0000000000000000
 40
1.250000000000000
 41
0.0000000000000000
 71
     7
 72
     1
  1
{2}
 11
1.000000000000000
 21
0.0000000000000000
 31
0.0000000000000000
  7
STANDARD
  0
MTEXT
  5
3E2
100
AcDbEntity
  8
MAIN0
  6
CONTINUOUS
 62
3
100
AcDbMText
 10
513.7225058391437
 20
100.6862857912946
 30
0.0000000000000000
 40
2.500000000000000
 41
0.0000000000000000
 71
     7
 72
     1
  1
{)}
 11
1.000000000000000
 21
0.0000000000000000
 31
0.0000000000000000
  7
STANDARD
  0
MTEXT
  5
3E3
100
AcDbEntity
  8
MAIN0
  6
CONTINUOUS
 62
3
100
AcDbMText
 10
472.0726377059362
 20
103.1862857912946
 30
0.0000000000000000
 40
2.500000000000000
 41
0.0000000000000000
 71
     1
 72
     1
  1
{\H0.59x;{(エア圧 0.6 MPa時)}}
 11
1.000000000000000
 21
0.0000000000000000
 31
0.0000000000000000
  7
KNJYOKO
  0
MTEXT
  5
3E4
100
AcDbEntity
  8
MAIN0
  6
CONTINUOUS
 62
3
100
AcDbMText
 10
472.0726770699098
 20
110.1863300854216
 30
0.0000000000000000
 40
2.500000000000000
 41
0.0000000000000000
 71
     1
 72
     1
  1
{\H0.63x;{MAX GRIPPING FORCE}}
 11
1.000000000000000
 21
0.0000000000000000
 31
0.0000000000000000
  7
STANDARD
  0
MTEXT
  5
3E5
100
AcDbEntity
  8
MAIN0
  6
CONTINUOUS
 62
3
100
AcDbMText
 10
472.0726770699098
 20
107.0863297039518
 30
0.0000000000000000
 40
2.399999618530273
 41
0.0000000000000000
 71
     1
 72
     1
  1
{\H0.93x;{最大把握力　　}}
 11
1.000000000000000
 21
0.0000000000000000
 31
0.0000000000000000
  7
KNJYOKO
  0
MTEXT
  5
3E6
100
AcDbEntity
  8
MAIN0
  6
CONTINUOUS
 62
3
100
AcDbMText
 10
472.0726377059362
 20
100.1863191246279
 30
0.0000000000000000
 40
2.500000000000000
 41
0.0000000000000000
 71
     1
 72
     1
  1
{\H0.62x;{(ON AIR PRESSURE OF 0.6 MPa)}}
 11
1.000000000000000
 21
0.0000000000000000
 31
0.0000000000000000
  7
STANDARD
  0
LINE
  5
3E7
100
AcDbEntity
  8
MAIN0
  6
CONTINUOUS
 62
3
100
AcDbLine
 10
549.2005338735557
 20
135.6863685775963
 30
0.0000000000000000
 11
468.8672005402226
 21
135.6863685775963
 31
0.0000000000000000
  0
LINE
  5
3E8
100
AcDbEntity
  8
MAIN0
  6
CONTINUOUS
 62
3
100
AcDbLine
 10
549.2005338735557
 20
125.6863685775963
 30
0.0000000000000000
 11
468.8672005402221
 21
125.6863685775963
 31
0.0000000000000000
  0
LINE
  5
3E9
100
AcDbEntity
  8
MAIN0
  6
CONTINUOUS
 62
3
100
AcDbLine
 10
549.2005338735553
 20
118.6863685775961
 30
0.0000000000000000
 11
468.8672005402221
 21
118.6863685775961
 31
0.0000000000000000
  0
LINE
  5
3EA
100
AcDbEntity
  8
MAIN0
  6
CONTINUOUS
 62
3
100
AcDbLine
 10
549.2005338735567
 20
111.6863685775961
 30
0.0000000000000000
 11
468.8672005402221
 21
111.6863685775961
 31
0.0000000000000000
  0
LINE
  5
3EB
100
AcDbEntity
  8
MAIN0
  6
CONTINUOUS
 62
3
100
AcDbLine
 10
549.2005338735576
 20
96.68636857759617
 30
0.0000000000000000
 11
468.8672005402242
 21
96.68636857759617
 31
0.0000000000000000
  0
LINE
  5
3EC
100
AcDbEntity
  8
MAIN0
  6
CONTINUOUS
 62
3
100
AcDbLine
 10
549.2005338735553
 20
86.68636857759628
 30
0.0000000000000000
 11
468.8672005402249
 21
86.68636857759628
 31
0.0000000000000000
  0
LINE
  5
3ED
100
AcDbEntity
  8
MAIN0
  6
CONTINUOUS
 62
3
100
AcDbLine
 10
549.2005338735589
 20
71.68636857759614
 30
0.0000000000000000
 11
468.8672005402226
 21
71.68636857759614
 31
0.0000000000000000
  0
LINE
  5
3EE
100
AcDbEntity
  8
MAIN0
  6
CONTINUOUS
 62
3
100
AcDbLine
 10
519.2005338735553
 20
125.6863685775962
 30
0.0000000000000000
 11
519.2005338735589
 21
64.68641783369728
 31
0.0000000000000000
  0
LINE
  5
3EF
100
AcDbEntity
  8
MAIN0
  6
CONTINUOUS
 62
3
100
AcDbLine
 10
549.2005338735553
 20
135.6863685775961
 30
0.0000000000000000
 11
549.2005338735596
 21
64.68641783369722
 31
0.0000000000000000
  0
LINE
  5
3F0
100
AcDbEntity
  8
MAIN0
  6
CONTINUOUS
 62
3
100
AcDbLine
 10
468.8672005402219
 20
135.6863685775961
 30
0.0000000000000000
 11
468.8672005402263
 21
64.68641783369722
 31
0.0000000000000000
  0
MTEXT
  5
3F1
100
AcDbEntity
  8
MAIN0
  6
CONTINUOUS
 62
4
100
AcDbMText
 10
534.2005338735557
 20
122.4863678146565
 30
0.0000000000000000
 40
2.799999237060547
 41
0.0000000000000000
 71
     1
 72
     1
  1
{\H0.58x;{　　　　ｍｍ}}
 11
1.000000000000000
 21
0.0000000000000000
 31
0.0000000000000000
  7
KNJYOKO
  0
MTEXT
  5
3F2
100
AcDbEntity
  8
MAIN0
  6
CONTINUOUS
 62
4
100
AcDbMText
 10
534.2005338735571
 20
115.4863678146565
 30
0.0000000000000000
 40
2.799999237060547
 41
0.0000000000000000
 71
     1
 72
     1
  1
{\H0.58x;{　　　　ｍｍ}}
 11
1.000000000000000
 21
0.0000000000000000
 31
0.0000000000000000
  7
KNJYOKO
  0
MTEXT
  5
3F3
100
AcDbEntity
  8
MAIN0
  6
CONTINUOUS
 62
4
100
AcDbMText
 10
521.2005338735597
 20
102.4864011479898
 30
0.0000000000000000
 40
2.799999237060547
 41
0.0000000000000000
 71
     1
 72
     1
  1
{\H0.60x;{(}}
 11
1.000000000000000
 21
0.0000000000000000
 31
0.0000000000000000
  7
STANDARD
  0
MTEXT
  5
3F4
100
AcDbEntity
  8
MAIN0
  6
CONTINUOUS
 62
4
100
AcDbMText
 10
533.2005338735597
 20
102.4864011479898
 30
0.0000000000000000
 40
2.799999237060547
 41
0.0000000000000000
 71
     1
 72
     1
  1
{\H0.60x;{　　　ｋｇｆ)}}
 11
1.000000000000000
 21
0.0000000000000000
 31
0.0000000000000000
  7
KNJYOKO
  0
MTEXT
  5
3F5
100
AcDbEntity
  8
MAIN0
  6
CONTINUOUS
 62
4
100
AcDbMText
 10
534.2005338735597
 20
107.4864011479898
 30
0.0000000000000000
 40
2.799999237060547
 41
0.0000000000000000
 71
     1
 72
     1
  1
{\H0.58x;{　　　　ｋＮ}}
 11
1.000000000000000
 21
0.0000000000000000
 31
0.0000000000000000
  7
KNJYOKO
  0
MTEXT
  5
3F6
100
AcDbEntity
  8
MAIN0
  6
CONTINUOUS
 62
4
100
AcDbMText
 10
521.2005338735576
 20
89.98636781465672
 30
0.0000000000000000
 40
2.799999237060547
 41
0.0000000000000000
 71
     1
 72
     1
  1
{\H0.60x;{(}}
 11
1.000000000000000
 21
0.0000000000000000
 31
0.0000000000000000
  7
STANDARD
  0
MTEXT
  5
3F7
100
AcDbEntity
  8
MAIN0
  6
CONTINUOUS
 62
4
100
AcDbMText
 10
534.2005338735576
 20
93.98636781465672
 30
0.0000000000000000
 40
2.799999237060547
 41
0.0000000000000000
 71
     1
 72
     1
  1
{\H0.58x;{　　　ＭＰａ}}
 11
1.000000000000000
 21
0.0000000000000000
 31
0.0000000000000000
  7
KNJYOKO
  0
MTEXT
  5
3F8
100
AcDbEntity
  8
MAIN0
  6
CONTINUOUS
 62
4
100
AcDbMText
 10
545.2538297069232
 20
90.39677260581863
 30
0.0000000000000000
 40
2.000000000000000
 41
0.0000000000000000
 71
     1
 72
     1
  1
{\H0.81x;{2}}
 11
1.000000000000000
 21
0.0000000000000000
 31
0.0000000000000000
  7
STANDARD
  0
MTEXT
  5
3F9
100
AcDbEntity
  8
MAIN0
  6
CONTINUOUS
 62
4
100
AcDbMText
 10
533.2005338735576
 20
89.98636781465672
 30
0.0000000000000000
 40
2.799999237060547
 41
0.0000000000000000
 71
     1
 72
     1
  1
{\H0.62x;{ｋｇｆ／ｃｍ )}}
 11
1.000000000000000
 21
0.0000000000000000
 31
0.0000000000000000
  7
KNJYOKO
  0
MTEXT
  5
3FA
100
AcDbEntity
  8
MAIN0
  6
CONTINUOUS
 62
4
100
AcDbMText
 10
534.2005338735592
 20
68.48641707075740
 30
0.0000000000000000
 40
2.799999237060547
 41
0.0000000000000000
 71
     1
 72
     1
  1
{\H0.58x;{　　　　ｋｇ}}
 11
1.000000000000000
 21
0.0000000000000000
 31
0.0000000000000000
  7
KNJYOKO
  0
MTEXT
  5
3FB
100
AcDbEntity
  8
MAIN0
  6
CONTINUOUS
 62
3
100
AcDbMText
 10
490.9354481471684
 20
134.0464931301783
 30
0.0000000000000000
 40
3.100000381469727
 41
0.0000000000000000
 71
     1
 72
     1
  1
{\H0.94x;{SPECIFICATIONS}}
 11
1.000000000000000
 21
0.0000000000000000
 31
0.0000000000000000
  7
STANDARD
  0
MTEXT
  5
3FC
100
AcDbEntity
  8
MAIN0
  6
CONTINUOUS
 62
3
100
AcDbMText
 10
500.7386412361919
 20
130.0019576227101
 30
0.0000000000000000
 40
3.100000381469727
 41
0.0000000000000000
 71
     1
 72
     1
  1
{\H0.93x;{仕　　　様}}
 11
1.000000000000000
 21
0.0000000000000000
 31
0.0000000000000000
  7
KNJYOKO
  0
LINE
  5
3FD
100
AcDbEntity
  8
MAIN0
  6
CONTINUOUS
 62
3
100
AcDbLine
 10
417.6752643390942
 20
239.0900991994990
 30
0.0000000000000000
 11
415.2003906049412
 21
236.6152254653462
 31
0.0000000000000000
  0
LINE
  5
3FE
100
AcDbEntity
  8
MAIN0
  6
CONTINUOUS
 62
3
100
AcDbLine
 10
417.6752643390942
 20
236.6152254653463
 30
0.0000000000000000
 11
415.2003906049412
 21
239.0900991994992
 31
0.0000000000000000
  0
LINE
  5
3FF
100
AcDbEntity
  8
MAIN0
  6
CONTINUOUS
 62
3
100
AcDbLine
 10
428.6752643390941
 20
258.1426580827568
 30
0.0000000000000000
 11
426.2003906049412
 21
255.6677843486040
 31
0.0000000000000000
  0
LINE
  5
400
100
AcDbEntity
  8
MAIN0
  6
CONTINUOUS
 62
3
100
AcDbLine
 10
428.6752643390940
 20
255.6677843486039
 30
0.0000000000000000
 11
426.2003906049411
 21
258.1426580827567
 31
0.0000000000000000
  0
LINE
  5
401
100
AcDbEntity
  8
MAIN0
  6
CENTER
 62
3
100
AcDbLine
 10
454.9536785806557
 20
237.0640733493059
 30
0.0000000000000000
 11
447.5228315210210
 21
224.1934686987448
 31
0.0000000000000000
  0
LINE
  5
402
100
AcDbEntity
  8
MAIN0
  6
CONTINUOUS
 62
3
100
AcDbLine
 10
461.9604134837918
 20
231.2000941967625
 30
0.0000000000000000
 11
455.9604134837913
 21
220.8077893513496
 31
0.0000000000000000
  0
LINE
  5
403
100
AcDbEntity
  8
MAIN0
  6
CONTINUOUS
 62
3
100
AcDbLine
 10
426.0825370533923
 20
238.0577893512547
 30
0.0000000000000000
 11
425.3504862457716
 21
240.7898401590133
 31
0.0000000000000000
  0
LINE
  5
404
100
AcDbEntity
  8
MAIN0
  6
CONTINUOUS
 62
3
100
AcDbLine
 10
432.0825370532792
 20
248.4500941967334
 30
0.0000000000000000
 11
429.3504862456948
 21
247.7180433891566
 31
0.0000000000000000
  0
LINE
  5
405
100
AcDbEntity
  8
MAIN0
  6
CENTER
 62
3
100
AcDbLine
 10
327.2149886809345
 20
223.9438101987859
 30
0.0000000000000000
 11
319.7841416212999
 21
236.8144148493470
 31
0.0000000000000000
  0
LINE
  5
406
100
AcDbEntity
  8
MAIN0
  6
CONTINUOUS
 62
3
100
AcDbLine
 10
349.2431935540839
 20
240.7898401589158
 30
0.0000000000000000
 11
348.5111427465141
 21
238.0577893513293
 31
0.0000000000000000
  0
LINE
  5
407
100
AcDbEntity
  8
MAIN0
  6
HIDDEN
 62
3
100
AcDbLine
 10
350.4596999050306
 20
239.1827893513266
 30
0.0000000000000000
 11
349.5446363955753
 21
235.7677258418689
 31
0.0000000000000000
  0
LINE
  5
408
100
AcDbEntity
  8
MAIN0
  6
HIDDEN
 62
3
100
AcDbLine
 10
320.5818234745179
 20
221.9327893513556
 30
0.0000000000000000
 11
321.8318234745177
 21
219.7677258418945
 31
0.0000000000000000
  0
LINE
  5
409
100
AcDbEntity
  8
MAIN0
  6
HIDDEN
 62
3
100
AcDbLine
 10
313.3318234745185
 20
234.4901577062303
 30
0.0000000000000000
 11
314.5818234745184
 21
232.3250941967692
 31
0.0000000000000000
  0
LINE
  5
40A
100
AcDbEntity
  8
MAIN0
  6
CONTINUOUS
 62
3
100
AcDbLine
 10
312.6332663160018
 20
231.2000941967718
 30
0.0000000000000000
 11
318.6332663160013
 21
220.8077893513582
 31
0.0000000000000000
  0
LINE
  5
40B
100
AcDbEntity
  8
MAIN0
  6
CONTINUOUS
 62
3
100
AcDbLine
 10
345.2431935541600
 20
247.7180433890584
 30
0.0000000000000000
 11
342.5111427464013
 21
248.4500941966772
 31
0.0000000000000000
  0
LINE
  5
40C
100
AcDbEntity
  8
MAIN0
  6
HIDDEN
 62
3
100
AcDbLine
 10
344.4596999049177
 20
249.5750941966747
 30
0.0000000000000000
 11
341.0446363954550
 21
250.4901577061349
 31
0.0000000000000000
  0
LINE
  5
40D
100
AcDbEntity
  8
MAIN0
  6
CONTINUOUS
 62
3
100
AcDbLine
 10
197.8315763061079
 20
65.07151738201605
 30
0.0000000000000000
 11
212.4315763061079
 21
65.07151738201605
 31
0.0000000000000000
  0
LINE
  5
40E
100
AcDbEntity
  8
MAIN0
  6
CONTINUOUS
 62
3
100
AcDbLine
 10
193.3315763061077
 20
67.57151738201605
 30
0.0000000000000000
 11
197.2315763061077
 21
67.57151738201605
 31
0.0000000000000000
  0
LINE
  5
40F
100
AcDbEntity
  8
MAIN0
  6
CONTINUOUS
 62
3
100
AcDbLine
 10
190.3315763061080
 20
64.57151738201600
 30
0.0000000000000000
 11
190.3315763061090
 21
53.57151738201611
 31
0.0000000000000000
  0
LINE
  5
410
100
AcDbEntity
  8
MAIN0
  6
CONTINUOUS
 62
3
100
AcDbLine
 10
212.8315763061080
 20
64.67151738201622
 30
0.0000000000000000
 11
212.8315763061090
 21
53.47151738201617
 31
0.0000000000000000
  0
LINE
  5
411
100
AcDbEntity
  8
MAIN0
  6
HIDDEN
 62
3
100
AcDbLine
 10
212.8315763061081
 20
64.07151738201605
 30
0.0000000000000000
 11
190.3315763061080
 21
64.07151738201605
 31
0.0000000000000000
  0
LINE
  5
412
100
AcDbEntity
  8
MAIN0
  6
HIDDEN
 62
3
100
AcDbLine
 10
190.3315763061081
 20
63.32151738201605
 30
0.0000000000000000
 11
212.8315763061081
 21
63.32151738201605
 31
0.0000000000000000
  0
LINE
  5
413
100
AcDbEntity
  8
MAIN0
  6
HIDDEN
 62
3
100
AcDbLine
 10
212.8315763061090
 20
54.07151738201605
 30
0.0000000000000000
 11
190.3315763061089
 21
54.07151738201605
 31
0.0000000000000000
  0
LINE
  5
414
100
AcDbEntity
  8
MAIN0
  6
HIDDEN
 62
3
100
AcDbLine
 10
212.8315763061088
 20
54.82151738201605
 30
0.0000000000000000
 11
190.3315763061088
 21
54.82151738201605
 31
0.0000000000000000
  0
LINE
  5
415
100
AcDbEntity
  8
MAIN0
  6
CONTINUOUS
 62
3
100
AcDbLine
 10
197.8315763061079
 20
53.07151738201605
 30
0.0000000000000000
 11
212.4315763061090
 21
53.07151738201605
 31
0.0000000000000000
  0
LINE
  5
416
100
AcDbEntity
  8
MAIN0
  6
CONTINUOUS
 62
3
100
AcDbLine
 10
193.3315763061092
 20
50.57151738201605
 30
0.0000000000000000
 11
197.2315763061093
 21
50.57151738201605
 31
0.0000000000000000
  0
LINE
  5
417
100
AcDbEntity
  8
MAIN0
  6
CONTINUOUS
 62
3
100
AcDbLine
 10
212.8315763061081
 20
64.67151738201616
 30
0.0000000000000000
 11
212.4315763061080
 21
65.07151738201614
 31
0.0000000000000000
  0
LINE
  5
418
100
AcDbEntity
  8
MAIN0
  6
CONTINUOUS
 62
3
100
AcDbLine
 10
212.8315763061090
 20
53.47151738201617
 30
0.0000000000000000
 11
212.4315763061090
 21
53.07151738201614
 31
0.0000000000000000
  0
LINE
  5
419
100
AcDbEntity
  8
MAIN0
  6
CONTINUOUS
 62
3
100
AcDbLine
 10
197.8315763061077
 20
66.97151738201606
 30
0.0000000000000000
 11
197.8315763061079
 21
65.07151738201608
 31
0.0000000000000000
  0
LINE
  5
41A
100
AcDbEntity
  8
MAIN0
  6
CONTINUOUS
 62
3
100
AcDbLine
 10
197.8315763061090
 20
53.07151738201608
 30
0.0000000000000000
 11
197.8315763061092
 21
51.17151738201611
 31
0.0000000000000000
  0
LINE
  5
41B
100
AcDbEntity
  8
MAIN0
  6
CONTINUOUS
 62
3
100
AcDbLine
 10
193.3315763061092
 20
50.57151738201611
 30
0.0000000000000000
 11
190.3315763061090
 21
53.57151738201611
 31
0.0000000000000000
  0
LINE
  5
41C
100
AcDbEntity
  8
MAIN0
  6
CONTINUOUS
 62
3
100
AcDbLine
 10
193.3315763061078
 20
67.57151738201600
 30
0.0000000000000000
 11
190.3315763061081
 21
64.57151738201600
 31
0.0000000000000000
  0
LINE
  5
41D
100
AcDbEntity
  8
MAIN0
  6
CONTINUOUS
 62
3
100
AcDbLine
 10
197.8315763061093
 20
51.17151738201616
 30
0.0000000000000000
 11
197.2315763061093
 21
50.57151738201605
 31
0.0000000000000000
  0
LINE
  5
41E
100
AcDbEntity
  8
MAIN0
  6
CONTINUOUS
 62
3
100
AcDbLine
 10
197.2315763061077
 20
67.57151738201608
 30
0.0000000000000000
 11
197.8315763061078
 21
66.97151738201612
 31
0.0000000000000000
  0
LINE
  5
41F
100
AcDbEntity
  8
MAIN0
  6
CONTINUOUS
 62
3
100
AcDbLine
 10
466.1099325366409
 20
236.8872720232491
 30
0.0000000000000000
 11
453.1099325366409
 21
214.3706115248536
 31
0.0000000000000000
  0
LINE
  5
420
100
AcDbEntity
  8
MAIN0
  6
HIDDEN
 62
3
100
AcDbLine
 10
423.3372631860465
 20
264.4688355327218
 30
0.0000000000000000
 11
423.0640581052896
 21
264.3956304519650
 31
0.0000000000000000
  0
LINE
  5
421
100
AcDbEntity
  8
MAIN0
  6
HIDDEN
 62
3
100
AcDbLine
 10
407.8372631860419
 20
237.6220480154071
 30
0.0000000000000000
 11
407.7640581052851
 21
237.8952530961639
 31
0.0000000000000000
  0
LINE
  5
422
100
AcDbEntity
  8
MAIN0
  6
HIDDEN
 62
3
100
AcDbLine
 10
426.9897512606389
 20
262.1291304519684
 30
0.0000000000000000
 11
411.6897512606336
 21
235.6287530961675
 31
0.0000000000000000
  0
LINE
  5
423
100
AcDbEntity
  8
MAIN0
  6
HIDDEN
 62
3
100
AcDbLine
 10
411.6897512606334
 20
235.6287530961674
 30
0.0000000000000000
 11
411.7629563413903
 21
235.3555480154105
 31
0.0000000000000000
  0
LINE
  5
424
100
AcDbEntity
  8
MAIN0
  6
HIDDEN
 62
3
100
AcDbLine
 10
426.9897512606386
 20
262.1291304519685
 30
0.0000000000000000
 11
427.2629563413955
 21
262.2023355327254
 31
0.0000000000000000
  0
LINE
  5
425
100
AcDbEntity
  8
MAIN0
  6
CONTINUOUS
 62
3
100
AcDbLine
 10
456.6099325366409
 20
220.4327893513449
 30
0.0000000000000000
 11
423.1813519505736
 21
239.7327893513379
 31
0.0000000000000000
  0
LINE
  5
426
100
AcDbEntity
  8
MAIN0
  6
CONTINUOUS
 62
3
100
AcDbLine
 10
462.6099325366409
 20
230.8250941967582
 30
0.0000000000000000
 11
429.1813519505732
 21
250.1250941967514
 31
0.0000000000000000
  0
LINE
  5
427
100
AcDbEntity
  8
MAIN0
  6
CONTINUOUS
 62
3
100
AcDbLine
 10
433.5849417890593
 20
258.5523355327039
 30
0.0000000000000000
 11
429.0349417890595
 21
250.6715043582653
 31
0.0000000000000000
  0
LINE
  5
428
100
AcDbEntity
  8
MAIN0
  6
CONTINUOUS
 62
3
100
AcDbLine
 10
422.6349417890599
 20
239.5863791898242
 30
0.0000000000000000
 11
418.0849417890602
 21
231.7055480153857
 31
0.0000000000000000
  0
LINE
  5
429
100
AcDbEntity
  8
MAIN0
  6
CONTINUOUS
 62
3
100
AcDbLine
 10
453.1099325366401
 20
214.3706115248532
 30
0.0000000000000000
 11
445.3654615802358
 21
207.8722288016628
 31
0.0000000000000000
  0
LINE
  5
42A
100
AcDbEntity
  8
MAIN0
  6
CONTINUOUS
 62
3
100
AcDbLine
 10
422.6349417890597
 20
239.5863791898239
 30
0.0000000000000000
 11
423.1813519505735
 21
239.7327893513377
 31
0.0000000000000000
  0
LINE
  5
42B
100
AcDbEntity
  8
MAIN0
  6
CONTINUOUS
 62
3
100
AcDbLine
 10
429.0349417890594
 20
250.6715043582652
 30
0.0000000000000000
 11
429.1813519505732
 21
250.1250941967515
 31
0.0000000000000000
  0
LINE
  5
42C
100
AcDbEntity
  8
MAIN0
  6
HIDDEN
 62
3
100
AcDbLine
 10
407.7640581052852
 20
237.8952530961637
 30
0.0000000000000000
 11
423.0640581052899
 21
264.3956304519650
 31
0.0000000000000000
  0
LINE
  5
42D
100
AcDbEntity
  8
MAIN0
  6
HIDDEN
 62
3
100
AcDbLine
 10
423.3372631860465
 20
264.4688355327219
 30
0.0000000000000000
 11
433.4983392486680
 21
258.6023355327112
 31
0.0000000000000000
  0
LINE
  5
42E
100
AcDbEntity
  8
MAIN0
  6
CONTINUOUS
 62
3
100
AcDbLine
 10
433.4983392486678
 20
258.6023355327111
 30
0.0000000000000000
 11
466.5719138638993
 21
239.5072983255440
 31
0.0000000000000000
  0
LINE
  5
42F
100
AcDbEntity
  8
MAIN0
  6
HIDDEN
 62
3
100
AcDbLine
 10
407.8372631860421
 20
237.6220480154067
 30
0.0000000000000000
 11
417.9983392486681
 21
231.7555480153933
 31
0.0000000000000000
  0
LINE
  5
430
100
AcDbEntity
  8
MAIN0
  6
CONTINUOUS
 62
3
100
AcDbLine
 10
417.9983392486681
 20
231.7555480153933
 30
0.0000000000000000
 11
451.0719138639028
 21
212.6605108082244
 31
0.0000000000000000
  0
ARC
  5
431
100
AcDbEntity
  8
MAIN0
  6
CONTINUOUS
 62
3
100
AcDbCircle
 10
426.9607748139676
 20
244.4789417740514
 30
0.0000000000000000
 40
6.300000000000000
100
AcDbArc
 50
70.08086300043702
 51
111.0575587309933
  0
ARC
  5
432
100
AcDbEntity
  8
MAIN0
  6
HIDDEN
 62
3
100
AcDbCircle
 10
426.9607748139676
 20
244.4789417740514
 30
0.0000000000000000
 40
6.300000000000000
100
AcDbArc
 50
111.0575587309933
 51
188.9424412690414
  0
ARC
  5
433
100
AcDbEntity
  8
MAIN0
  6
CONTINUOUS
 62
3
100
AcDbCircle
 10
426.9607748139676
 20
244.4789417740514
 30
0.0000000000000000
 40
6.300000000000000
100
AcDbArc
 50
188.9424412690414
 51
229.9191369995683
  0
LINE
  5
434
100
AcDbEntity
  8
MAIN0
  6
CENTER
 62
3
100
AcDbLine
 10
437.6331705049669
 20
247.0640733493059
 30
0.0000000000000000
 11
430.2023234453322
 21
234.1934686987448
 31
0.0000000000000000
  0
LINE
  5
435
100
AcDbEntity
  8
MAIN0
  6
CONTINUOUS
 62
3
100
AcDbLine
 10
429.3504862456948
 20
247.7180433891564
 30
0.0000000000000000
 11
425.3504862457718
 21
240.7898401590134
 31
0.0000000000000000
  0
LINE
  5
436
100
AcDbEntity
  8
MAIN0
  6
CONTINUOUS
 62
3
100
AcDbLine
 10
455.9604134837917
 20
220.8077893513493
 30
0.0000000000000000
 11
426.0825370533925
 21
238.0577893512547
 31
0.0000000000000000
  0
LINE
  5
437
100
AcDbEntity
  8
MAIN0
  6
CONTINUOUS
 62
3
100
AcDbLine
 10
461.9604134837921
 20
231.2000941967623
 30
0.0000000000000000
 11
432.0825370532793
 21
248.4500941967333
 31
0.0000000000000000
  0
CIRCLE
  5
438
100
AcDbEntity
  8
MAIN0
  6
CONTINUOUS
 62
3
100
AcDbCircle
 10
451.1661848497572
 20
230.5039417740413
 30
0.0000000000000000
 40
5.000000000000000
  0
CIRCLE
  5
439
100
AcDbEntity
  8
MAIN0
  6
CONTINUOUS
 62
3
100
AcDbCircle
 10
451.1661848497572
 20
230.5039417740413
 30
0.0000000000000000
 40
4.250000000000000
  0
LINE
  5
43A
100
AcDbEntity
  8
MAIN0
  6
CONTINUOUS
 62
3
100
AcDbLine
 10
466.1099325366411
 20
236.8872720232502
 30
0.0000000000000000
 11
467.8654615802357
 21
246.8433719719623
 31
0.0000000000000000
  0
LINE
  5
43B
100
AcDbEntity
  8
MAIN0
  6
CONTINUOUS
 62
3
100
AcDbLine
 10
321.4837472631509
 20
214.3706115248569
 30
0.0000000000000000
 11
308.4837472631509
 21
236.8872720232523
 31
0.0000000000000000
  0
LINE
  5
43C
100
AcDbEntity
  8
MAIN0
  6
CENTER
 62
3
100
AcDbLine
 10
354.9631072990791
 20
236.0093301306547
 30
0.0000000000000000
 11
362.4006824763566
 21
240.3034161613740
 31
0.0000000000000000
  0
LINE
  5
43D
100
AcDbEntity
  8
MAIN0
  6
HIDDEN
 62
3
100
AcDbLine
 10
366.7564166137450
 20
237.6220480154073
 30
0.0000000000000000
 11
366.8296216945020
 21
237.8952530961642
 31
0.0000000000000000
  0
LINE
  5
43E
100
AcDbEntity
  8
MAIN0
  6
HIDDEN
 62
3
100
AcDbLine
 10
351.2564166137502
 20
264.4688355327276
 30
0.0000000000000000
 11
351.5296216945070
 21
264.3956304519707
 31
0.0000000000000000
  0
LINE
  5
43F
100
AcDbEntity
  8
MAIN0
  6
HIDDEN
 62
3
100
AcDbLine
 10
362.9039285391533
 20
235.6287530961675
 30
0.0000000000000000
 11
347.6039285391585
 21
262.1291304519745
 31
0.0000000000000000
  0
LINE
  5
440
100
AcDbEntity
  8
MAIN0
  6
HIDDEN
 62
3
100
AcDbLine
 10
347.6039285391580
 20
262.1291304519744
 30
0.0000000000000000
 11
347.3307234584012
 21
262.2023355327313
 31
0.0000000000000000
  0
LINE
  5
441
100
AcDbEntity
  8
MAIN0
  6
HIDDEN
 62
3
100
AcDbLine
 10
362.9039285391532
 20
235.6287530961674
 30
0.0000000000000000
 11
362.8307234583962
 21
235.3555480154105
 31
0.0000000000000000
  0
LINE
  5
442
100
AcDbEntity
  8
MAIN0
  6
CONTINUOUS
 62
3
100
AcDbLine
 10
311.9837472631512
 20
230.8250941967612
 30
0.0000000000000000
 11
345.4123278492184
 21
250.1250941967542
 31
0.0000000000000000
  0
LINE
  5
443
100
AcDbEntity
  8
MAIN0
  6
HIDDEN
 62
3
100
AcDbLine
 10
310.3587472631512
 20
233.6396767590605
 30
0.0000000000000000
 11
340.4531300446604
 21
251.0146767590605
 31
0.0000000000000000
  0
LINE
  5
444
100
AcDbEntity
  8
MAIN0
  6
CONTINUOUS
 62
3
100
AcDbLine
 10
317.9837472631512
 20
220.4327893513479
 30
0.0000000000000000
 11
351.4123278492188
 21
239.7327893513412
 31
0.0000000000000000
  0
LINE
  5
445
100
AcDbEntity
  8
MAIN0
  6
HIDDEN
 62
3
100
AcDbLine
 10
319.6087472631510
 20
217.6182067890484
 30
0.0000000000000000
 11
349.7031300446603
 21
234.9932067890484
 31
0.0000000000000000
  0
LINE
  5
446
100
AcDbEntity
  8
MAIN0
  6
CONTINUOUS
 62
3
100
AcDbLine
 10
356.5087380107327
 20
231.7055480153890
 30
0.0000000000000000
 11
351.9587380107324
 21
239.5863791898271
 31
0.0000000000000000
  0
LINE
  5
447
100
AcDbEntity
  8
MAIN0
  6
CONTINUOUS
 62
3
100
AcDbLine
 10
345.5587380107320
 20
250.6715043582679
 30
0.0000000000000000
 11
341.0087380107318
 21
258.5523355327060
 31
0.0000000000000000
  0
LINE
  5
448
100
AcDbEntity
  8
MAIN0
  6
CONTINUOUS
 62
3
100
AcDbLine
 10
308.4837472631508
 20
236.8872720232531
 30
0.0000000000000000
 11
306.7282182195561
 21
246.8433719719652
 31
0.0000000000000000
  0
LINE
  5
449
100
AcDbEntity
  8
MAIN0
  6
CONTINUOUS
 62
3
100
AcDbLine
 10
345.5587380107320
 20
250.6715043582683
 30
0.0000000000000000
 11
345.4123278492182
 21
250.1250941967545
 31
0.0000000000000000
  0
LINE
  5
44A
100
AcDbEntity
  8
MAIN0
  6
CONTINUOUS
 62
3
100
AcDbLine
 10
351.9587380107325
 20
239.5863791898274
 30
0.0000000000000000
 11
351.4123278492188
 21
239.7327893513411
 31
0.0000000000000000
  0
LINE
  5
44B
100
AcDbEntity
  8
MAIN0
  6
HIDDEN
 62
3
100
AcDbLine
 10
311.8337472631512
 20
231.0849018178965
 30
0.0000000000000000
 11
344.4829049858244
 21
249.9349018178964
 31
0.0000000000000000
  0
LINE
  5
44C
100
AcDbEntity
  8
MAIN0
  6
HIDDEN
 62
3
100
AcDbLine
 10
318.1337472631512
 20
220.1729817302126
 30
0.0000000000000000
 11
350.7829049858244
 21
239.0229817302126
 31
0.0000000000000000
  0
ARC
  5
44D
100
AcDbEntity
  8
MAIN0
  6
HIDDEN
 62
3
100
AcDbCircle
 10
347.6329049858243
 20
244.4789417740545
 30
0.0000000000000000
 40
6.300000000000000
100
AcDbArc
 50
109.9191369995683
 51
120.0000000000000
  0
ARC
  5
44E
100
AcDbEntity
  8
MAIN0
  6
HIDDEN
 62
3
100
AcDbCircle
 10
347.6329049858243
 20
244.4789417740545
 30
0.0000000000000000
 40
6.300000000000000
100
AcDbArc
 50
300.0000000000001
 51
310.0808630004370
  0
LINE
  5
44F
100
AcDbEntity
  8
MAIN0
  6
HIDDEN
 62
3
100
AcDbLine
 10
351.5296216945067
 20
264.3956304519705
 30
0.0000000000000000
 11
366.8296216945021
 21
237.8952530961640
 31
0.0000000000000000
  0
ARC
  5
450
100
AcDbEntity
  8
MAIN0
  6
HIDDEN
 62
3
100
AcDbCircle
 10
345.0781300446603
 20
243.0039417740546
 30
0.0000000000000000
 40
9.250000000000000
100
AcDbArc
 50
300.0000000000001
 51
348.3280409696371
  0
ARC
  5
451
100
AcDbEntity
  8
MAIN0
  6
HIDDEN
 62
3
100
AcDbCircle
 10
345.0781300446603
 20
243.0039417740546
 30
0.0000000000000000
 40
9.250000000000000
100
AcDbArc
 50
348.3280409696371
 51
358.0649917686731
  0
ARC
  5
452
100
AcDbEntity
  8
MAIN0
  6
CONTINUOUS
 62
3
100
AcDbCircle
 10
347.6329049858243
 20
244.4789417740545
 30
0.0000000000000000
 40
6.300000000000000
100
AcDbArc
 50
68.94244126904087
 51
109.9191369995683
  0
ARC
  5
453
100
AcDbEntity
  8
MAIN0
  6
CONTINUOUS
 62
3
100
AcDbCircle
 10
347.6329049858243
 20
244.4789417740545
 30
0.0000000000000000
 40
6.300000000000000
100
AcDbArc
 50
310.0808630004371
 51
351.0575587309938
  0
ARC
  5
454
100
AcDbEntity
  8
MAIN0
  6
HIDDEN
 62
3
100
AcDbCircle
 10
347.6329049858243
 20
244.4789417740545
 30
0.0000000000000000
 40
6.300000000000000
100
AcDbArc
 50
351.0575587309938
 51
428.9424412690408
  0
ARC
  5
455
100
AcDbEntity
  8
MAIN0
  6
HIDDEN
 62
3
100
AcDbCircle
 10
345.0781300446603
 20
243.0039417740546
 30
0.0000000000000000
 40
9.250000000000000
100
AcDbArc
 50
300.0000000000009
 51
479.9999999999999
  0
LINE
  5
456
100
AcDbEntity
  8
MAIN0
  6
HIDDEN
 62
3
100
AcDbLine
 10
351.2564166137498
 20
264.4688355327277
 30
0.0000000000000000
 11
341.0953405511237
 21
258.6023355327142
 31
0.0000000000000000
  0
LINE
  5
457
100
AcDbEntity
  8
MAIN0
  6
CONTINUOUS
 62
3
100
AcDbLine
 10
341.0953405511237
 20
258.6023355327143
 30
0.0000000000000000
 11
308.0217659358890
 21
239.5072983255453
 31
0.0000000000000000
  0
LINE
  5
458
100
AcDbEntity
  8
MAIN0
  6
HIDDEN
 62
3
100
AcDbLine
 10
366.7564166137454
 20
237.6220480154073
 30
0.0000000000000000
 11
356.5953405511241
 21
231.7555480153966
 31
0.0000000000000000
  0
LINE
  5
459
100
AcDbEntity
  8
MAIN0
  6
CONTINUOUS
 62
3
100
AcDbLine
 10
356.5953405511241
 20
231.7555480153966
 30
0.0000000000000000
 11
323.5217659358926
 21
212.6605108082296
 31
0.0000000000000000
  0
LINE
  5
45A
100
AcDbEntity
  8
MAIN0
  6
CENTER
 62
3
100
AcDbLine
 10
344.5354967566233
 20
233.9438101987860
 30
0.0000000000000000
 11
337.1046496969886
 21
246.8144148493470
 31
0.0000000000000000
  0
LINE
  5
45B
100
AcDbEntity
  8
MAIN0
  6
CONTINUOUS
 62
3
100
AcDbLine
 10
349.2431935540839
 20
240.7898401589158
 30
0.0000000000000000
 11
345.2431935541601
 21
247.7180433890584
 31
0.0000000000000000
  0
LINE
  5
45C
100
AcDbEntity
  8
MAIN0
  6
HIDDEN
 62
3
100
AcDbLine
 10
321.8318234745175
 20
219.7677258418945
 30
0.0000000000000000
 11
349.5446363955752
 21
235.7677258418690
 31
0.0000000000000000
  0
LINE
  5
45D
100
AcDbEntity
  8
MAIN0
  6
HIDDEN
 62
3
100
AcDbLine
 10
313.3318234745183
 20
234.4901577062304
 30
0.0000000000000000
 11
341.0446363954547
 21
250.4901577061349
 31
0.0000000000000000
  0
LINE
  5
45E
100
AcDbEntity
  8
MAIN0
  6
CONTINUOUS
 62
3
100
AcDbLine
 10
312.6332663160016
 20
231.2000941967719
 30
0.0000000000000000
 11
342.5111427464009
 21
248.4500941966773
 31
0.0000000000000000
  0
LINE
  5
45F
100
AcDbEntity
  8
MAIN0
  6
CONTINUOUS
 62
3
100
AcDbLine
 10
318.6332663160012
 20
220.8077893513584
 30
0.0000000000000000
 11
348.5111427465141
 21
238.0577893513294
 31
0.0000000000000000
  0
CIRCLE
  5
460
100
AcDbEntity
  8
MAIN0
  6
CONTINUOUS
 62
3
100
AcDbCircle
 10
323.4274949500362
 20
230.5039417740505
 30
0.0000000000000000
 40
5.000000000000000
  0
CIRCLE
  5
461
100
AcDbEntity
  8
MAIN0
  6
CONTINUOUS
 62
3
100
AcDbCircle
 10
323.4274949500362
 20
230.5039417740505
 30
0.0000000000000000
 40
4.250000000000000
  0
LINE
  5
462
100
AcDbEntity
  8
MAIN0
  6
CONTINUOUS
 62
3
100
AcDbLine
 10
321.4837472631516
 20
214.3706115248561
 30
0.0000000000000000
 11
329.2282182195560
 21
207.8722288016658
 31
0.0000000000000000
  0
LINE
  5
463
100
AcDbEntity
  8
MAIN0
  6
CONTINUOUS
 62
3
100
AcDbLine
 10
170.3315763061063
 20
43.77151738201607
 30
0.0000000000000000
 11
170.3315763061067
 21
74.37151738201609
 31
0.0000000000000000
  0
LINE
  5
464
100
AcDbEntity
  8
MAIN0
  6
CONTINUOUS
 62
3
100
AcDbLine
 10
170.5315763061063
 20
43.57151738201605
 30
0.0000000000000000
 11
174.8315763061063
 21
43.57151738201605
 31
0.0000000000000000
  0
LINE
  5
465
100
AcDbEntity
  8
MAIN0
  6
CONTINUOUS
 62
3
100
AcDbLine
 10
170.5315763061067
 20
74.57151738201605
 30
0.0000000000000000
 11
174.8315763061068
 21
74.57151738201605
 31
0.0000000000000000
  0
LINE
  5
466
100
AcDbEntity
  8
MAIN0
  6
CONTINUOUS
 62
3
100
AcDbLine
 10
209.8315763061085
 20
74.07151738201611
 30
0.0000000000000000
 11
209.8315763061085
 21
65.57151738201588
 31
0.0000000000000000
  0
LINE
  5
467
100
AcDbEntity
  8
MAIN0
  6
CONTINUOUS
 62
3
100
AcDbLine
 10
175.0315763061068
 20
81.57151738201605
 30
0.0000000000000000
 11
188.6315763061068
 21
81.57151738201605
 31
0.0000000000000000
  0
LINE
  5
468
100
AcDbEntity
  8
MAIN0
  6
CONTINUOUS
 62
3
100
AcDbLine
 10
188.8315763061063
 20
36.77151738201587
 30
0.0000000000000000
 11
188.8315763061064
 21
43.57151738201603
 31
0.0000000000000000
  0
LINE
  5
469
100
AcDbEntity
  8
MAIN0
  6
CONTINUOUS
 62
3
100
AcDbLine
 10
188.8315763061067
 20
74.57151738201605
 30
0.0000000000000000
 11
188.8315763061069
 21
81.37151738201590
 31
0.0000000000000000
  0
LINE
  5
46A
100
AcDbEntity
  8
MAIN0
  6
CONTINUOUS
 62
3
100
AcDbLine
 10
174.8315763061062
 20
36.77151738201599
 30
0.0000000000000000
 11
174.8315763061063
 21
43.57151738201605
 31
0.0000000000000000
  0
LINE
  5
46B
100
AcDbEntity
  8
MAIN0
  6
CONTINUOUS
 62
3
100
AcDbLine
 10
174.8315763061068
 20
74.57151738201603
 30
0.0000000000000000
 11
174.8315763061069
 21
81.37151738201612
 31
0.0000000000000000
  0
LINE
  5
46C
100
AcDbEntity
  8
MAIN0
  6
PHANTOM
 62
3
100
AcDbLine
 10
208.8315763061085
 20
74.54300215326327
 30
0.0000000000000000
 11
208.8315763061085
 21
65.07151738201605
 31
0.0000000000000000
  0
LINE
  5
46D
100
AcDbEntity
  8
MAIN0
  6
CONTINUOUS
 62
3
100
AcDbLine
 10
208.9655509023245
 20
74.57151738201611
 30
0.0000000000000000
 11
209.8315763061086
 21
74.07151738201623
 31
0.0000000000000000
  0
LINE
  5
46E
100
AcDbEntity
  8
MAIN0
  6
CONTINUOUS
 62
3
100
AcDbLine
 10
208.9655509023241
 20
65.07151738201699
 30
0.0000000000000000
 11
209.8315763061086
 21
65.57151738201623
 31
0.0000000000000000
  0
LINE
  5
46F
100
AcDbEntity
  8
MAIN0
  6
CONTINUOUS
 62
3
100
AcDbLine
 10
209.8315763061085
 20
44.07151738201600
 30
0.0000000000000000
 11
209.8315763061085
 21
52.57151738201623
 31
0.0000000000000000
  0
LINE
  5
470
100
AcDbEntity
  8
MAIN0
  6
CONTINUOUS
 62
3
100
AcDbLine
 10
192.8315763060792
 20
49.82151738201605
 30
0.0000000000000000
 11
196.6315763061085
 21
49.82151738201605
 31
0.0000000000000000
  0
LINE
  5
471
100
AcDbEntity
  8
MAIN0
  6
PHANTOM
 62
3
100
AcDbLine
 10
208.8315763061085
 20
43.57151738201625
 30
0.0000000000000000
 11
208.8315763061085
 21
53.07151738201694
 31
0.0000000000000000
  0
LINE
  5
472
100
AcDbEntity
  8
MAIN0
  6
CONTINUOUS
 62
3
100
AcDbLine
 10
208.9655509023244
 20
43.57151738201597
 30
0.0000000000000000
 11
209.8315763061084
 21
44.07151738201580
 31
0.0000000000000000
  0
LINE
  5
473
100
AcDbEntity
  8
MAIN0
  6
CONTINUOUS
 62
3
100
AcDbLine
 10
208.9655509023217
 20
53.07151738201685
 30
0.0000000000000000
 11
209.8315763061086
 21
52.57151738201623
 31
0.0000000000000000
  0
LINE
  5
474
100
AcDbEntity
  8
MAIN0
  6
CONTINUOUS
 62
3
100
AcDbLine
 10
188.8315763061063
 20
36.77151738201616
 30
0.0000000000000000
 11
188.6315763061063
 21
36.57151738201623
 31
0.0000000000000000
  0
LINE
  5
475
100
AcDbEntity
  8
MAIN0
  6
CONTINUOUS
 62
3
100
AcDbLine
 10
175.0315763061062
 20
36.57151738201614
 30
0.0000000000000000
 11
174.8315763061063
 21
36.77151738201610
 31
0.0000000000000000
  0
LINE
  5
476
100
AcDbEntity
  8
MAIN0
  6
CONTINUOUS
 62
3
100
AcDbLine
 10
175.0315763061067
 20
81.57151738201625
 30
0.0000000000000000
 11
174.8315763061067
 21
81.37151738201629
 31
0.0000000000000000
  0
LINE
  5
477
100
AcDbEntity
  8
MAIN0
  6
CONTINUOUS
 62
3
100
AcDbLine
 10
188.8315763061068
 20
81.37151738201598
 30
0.0000000000000000
 11
188.6315763061068
 21
81.57151738201603
 31
0.0000000000000000
  0
LINE
  5
478
100
AcDbEntity
  8
MAIN0
  6
CONTINUOUS
 62
3
100
AcDbLine
 10
170.5315763061067
 20
74.57151738201620
 30
0.0000000000000000
 11
170.3315763061067
 21
74.37151738201624
 31
0.0000000000000000
  0
LINE
  5
479
100
AcDbEntity
  8
MAIN0
  6
CONTINUOUS
 62
3
100
AcDbLine
 10
170.5315763061063
 20
43.57151738201597
 30
0.0000000000000000
 11
170.3315763061062
 21
43.77151738201602
 31
0.0000000000000000
  0
LINE
  5
47A
100
AcDbEntity
  8
MAIN0
  6
CONTINUOUS
 62
3
100
AcDbLine
 10
190.0073122373674
 20
52.39578145075257
 30
0.0000000000000000
 11
192.4058403748153
 21
49.99725331330441
 31
0.0000000000000000
  0
LINE
  5
47B
100
AcDbEntity
  8
MAIN0
  6
CONTINUOUS
 62
3
100
AcDbLine
 10
189.8315763060781
 20
65.32151738201580
 30
0.0000000000000000
 11
189.8315763060793
 21
52.82151738201580
 31
0.0000000000000000
  0
LINE
  5
47C
100
AcDbEntity
  8
MAIN0
  6
CONTINUOUS
 62
3
100
AcDbLine
 10
198.4315763064347
 20
52.77151738201607
 30
0.0000000000000000
 11
197.8315763061086
 21
52.17151738169008
 31
0.0000000000000000
  0
ARC
  5
47D
100
AcDbEntity
  8
MAIN0
  6
CONTINUOUS
 62
3
100
AcDbCircle
 10
196.6315763061085
 20
51.02151738201610
 30
0.0000000000000000
 40
1.200000000000000
100
AcDbArc
 50
270.0000000000000
 51
360.0000000000000
  0
ARC
  5
47E
100
AcDbEntity
  8
MAIN0
  6
CONTINUOUS
 62
3
100
AcDbCircle
 10
192.8301044435269
 20
50.42151738201608
 30
0.0000000000000000
 40
0.6000000000000000
100
AcDbArc
 50
224.9999999999962
 51
270.0000000000000
  0
ARC
  5
47F
100
AcDbEntity
  8
MAIN0
  6
CONTINUOUS
 62
3
100
AcDbCircle
 10
190.4315763060792
 20
52.82004551946420
 30
0.0000000000000000
 40
0.6000000000000000
100
AcDbArc
 50
180.0000000000000
 51
224.9999999999962
  0
LINE
  5
480
100
AcDbEntity
  8
MAIN0
  6
CONTINUOUS
 62
3
100
AcDbLine
 10
192.8315763060780
 20
68.32151738201605
 30
0.0000000000000000
 11
196.6315763061085
 21
68.32151738201605
 31
0.0000000000000000
  0
LINE
  5
481
100
AcDbEntity
  8
MAIN0
  6
CONTINUOUS
 62
3
100
AcDbLine
 10
190.0073122373674
 20
65.74725331328006
 30
0.0000000000000000
 11
192.4058403748151
 21
68.14578145072804
 31
0.0000000000000000
  0
LINE
  5
482
100
AcDbEntity
  8
MAIN0
  6
CONTINUOUS
 62
3
100
AcDbLine
 10
198.4315763064347
 20
65.37151738201624
 30
0.0000000000000000
 11
197.8315763061086
 21
65.97151738234220
 31
0.0000000000000000
  0
ARC
  5
483
100
AcDbEntity
  8
MAIN0
  6
CONTINUOUS
 62
3
100
AcDbCircle
 10
196.6315763061085
 20
67.12151738201612
 30
0.0000000000000000
 40
1.200000000000000
100
AcDbArc
 50
0.0000000000000000
 51
90.00000000000000
  0
ARC
  5
484
100
AcDbEntity
  8
MAIN0
  6
CONTINUOUS
 62
3
100
AcDbCircle
 10
192.8301044435269
 20
67.72151738201615
 30
0.0000000000000000
 40
0.6000000000000000
100
AcDbArc
 50
90.00000000000000
 51
135.0000000000038
  0
ARC
  5
485
100
AcDbEntity
  8
MAIN0
  6
CONTINUOUS
 62
3
100
AcDbCircle
 10
190.4315763060792
 20
65.32298924456791
 30
0.0000000000000000
 40
0.6000000000000000
100
AcDbArc
 50
135.0000000000038
 51
180.0000000000000
  0
LINE
  5
486
100
AcDbEntity
  8
MAIN0
  6
CONTINUOUS
 62
3
100
AcDbLine
 10
185.3315763061659
 20
36.57151738201605
 30
0.0000000000000000
 11
188.6315763061062
 21
36.57151738201605
 31
0.0000000000000000
  0
LINE
  5
487
100
AcDbEntity
  8
MAIN0
  6
CONTINUOUS
 62
3
100
AcDbLine
 10
175.0315763061062
 20
36.57151738201605
 30
0.0000000000000000
 11
182.3315763061677
 21
36.57151738201605
 31
0.0000000000000000
  0
LINE
  5
488
100
AcDbEntity
  8
MAIN0
  6
CONTINUOUS
 62
3
100
AcDbLine
 10
182.3315763061677
 20
36.57151738201605
 30
0.0000000000000000
 11
185.3315763061659
 21
36.57151738201605
 31
0.0000000000000000
  0
LINE
  5
489
100
AcDbEntity
  8
MAIN0
  6
CONTINUOUS
 62
3
100
AcDbLine
 10
188.8315763061067
 20
74.57151738201605
 30
0.0000000000000000
 11
208.9655509023245
 21
74.57151738201605
 31
0.0000000000000000
  0
LINE
  5
48A
100
AcDbEntity
  8
MAIN0
  6
CONTINUOUS
 62
3
100
AcDbLine
 10
188.8315763061064
 20
43.57151738201605
 30
0.0000000000000000
 11
208.9655509023243
 21
43.57151738201605
 31
0.0000000000000000
  0
LINE
  5
48B
100
AcDbEntity
  8
MAIN0
  6
CONTINUOUS
 62
3
100
AcDbLine
 10
208.9655509023241
 20
65.07151738201685
 30
0.0000000000000000
 11
205.9315763061085
 21
65.07151738201685
 31
0.0000000000000000
  0
LINE
  5
48C
100
AcDbEntity
  8
MAIN0
  6
CONTINUOUS
 62
3
100
AcDbLine
 10
205.9315763061085
 20
65.37151738201658
 30
0.0000000000000000
 11
205.9315763061085
 21
65.07151738201685
 31
0.0000000000000000
  0
LINE
  5
48D
100
AcDbEntity
  8
MAIN0
  6
CONTINUOUS
 62
3
100
AcDbLine
 10
208.9655509023218
 20
53.07151738201674
 30
0.0000000000000000
 11
205.9315763061082
 21
53.07151738201674
 31
0.0000000000000000
  0
LINE
  5
48E
100
AcDbEntity
  8
MAIN0
  6
CONTINUOUS
 62
3
100
AcDbLine
 10
205.9315763061082
 20
52.77151738201530
 30
0.0000000000000000
 11
205.9315763061082
 21
53.07151738201492
 31
0.0000000000000000
  0
LINE
  5
48F
100
AcDbEntity
  8
MAIN0
  6
CONTINUOUS
 62
3
100
AcDbLine
 10
198.4315763064340
 20
65.37151738201681
 30
0.0000000000000000
 11
205.9315763061086
 21
65.37151738201644
 31
0.0000000000000000
  0
LINE
  5
490
100
AcDbEntity
  8
MAIN0
  6
CONTINUOUS
 62
3
100
AcDbLine
 10
198.4315763064336
 20
52.77151738201525
 30
0.0000000000000000
 11
205.9315763061082
 21
52.77151738201533
 31
0.0000000000000000
  0
LINE
  5
491
100
AcDbEntity
  8
MAIN0
  6
CONTINUOUS
 62
3
100
AcDbLine
 10
197.8315763061085
 20
52.17151738169002
 30
0.0000000000000000
 11
197.8315763061085
 21
51.02151738201610
 31
0.0000000000000000
  0
LINE
  5
492
100
AcDbEntity
  8
MAIN0
  6
CONTINUOUS
 62
3
100
AcDbLine
 10
197.8315763061085
 20
67.12151738201612
 30
0.0000000000000000
 11
197.8315763061085
 21
65.97151738234231
 31
0.0000000000000000
  0
CIRCLE
  5
493
100
AcDbEntity
  8
MAIN0
  6
CONTINUOUS
 62
3
100
AcDbCircle
 10
433.8456767740685
 20
240.5039417740413
 30
0.0000000000000000
 40
5.000000000000000
  0
CIRCLE
  5
494
100
AcDbEntity
  8
MAIN0
  6
CONTINUOUS
 62
3
100
AcDbCircle
 10
433.8456767740685
 20
240.5039417740413
 30
0.0000000000000000
 40
4.250000000000000
  0
CIRCLE
  5
495
100
AcDbEntity
  8
MAIN0
  6
CONTINUOUS
 62
3
100
AcDbCircle
 10
340.7480030257249
 20
240.5039417740504
 30
0.0000000000000000
 40
5.000000000000000
  0
CIRCLE
  5
496
100
AcDbEntity
  8
MAIN0
  6
CONTINUOUS
 62
3
100
AcDbCircle
 10
340.7480030257249
 20
240.5039417740504
 30
0.0000000000000000
 40
4.250000000000000
  0
LINE
  5
497
100
AcDbEntity
  8
WAKU0
  6
CONTINUOUS
 62
3
100
AcDbLine
 10
412.0000000000000
 20
51.00000000000000
 30
0.0000000000000000
 11
582.0000000000000
 21
51.00000000000000
 31
0.0000000000000000
  0
LINE
  5
498
100
AcDbEntity
  8
WAKU0
  6
CONTINUOUS
 62
3
100
AcDbLine
 10
412.0000000000000
 20
51.00000000000000
 30
0.0000000000000000
 11
412.0000000000000
 21
12.00000000000000
 31
0.0000000000000000
  0
LINE
  5
499
100
AcDbEntity
  8
WAKU0
  6
CONTINUOUS
 62
3
100
AcDbLine
 10
484.0000000000000
 20
51.00000000000000
 30
0.0000000000000000
 11
484.0000000000000
 21
12.00000000000000
 31
0.0000000000000000
  0
LINE
  5
49A
100
AcDbEntity
  8
WAKU0
  6
CONTINUOUS
 62
3
100
AcDbLine
 10
504.0000000000000
 20
51.00000000000000
 30
0.0000000000000000
 11
504.0000000000000
 21
12.00000000000000
 31
0.0000000000000000
  0
LINE
  5
49B
100
AcDbEntity
  8
WAKU0
  6
CONTINUOUS
 62
3
100
AcDbLine
 10
516.0000000000000
 20
51.00000000000000
 30
0.0000000000000000
 11
516.0000000000000
 21
12.00000000000000
 31
0.0000000000000000
  0
LINE
  5
49C
100
AcDbEntity
  8
WAKU0
  6
CONTINUOUS
 62
3
100
AcDbLine
 10
516.0000000000000
 20
37.00000000000000
 30
0.0000000000000000
 11
582.0000000000000
 21
37.00000000000000
 31
0.0000000000000000
  0
LINE
  5
49D
100
AcDbEntity
  8
WAKU0
  6
CONTINUOUS
 62
3
100
AcDbLine
 10
504.0000000000000
 20
23.00000000000000
 30
0.0000000000000000
 11
582.0000000000000
 21
23.00000000000000
 31
0.0000000000000000
  0
LINE
  5
49E
100
AcDbEntity
  8
WAKU0
  6
CONTINUOUS
 62
3
100
AcDbLine
 10
547.0000000000000
 20
51.00000000000000
 30
0.0000000000000000
 11
547.0000000000000
 21
44.00000000000000
 31
0.0000000000000000
  0
LINE
  5
49F
100
AcDbEntity
  8
WAKU0
  6
CONTINUOUS
 62
3
100
AcDbLine
 10
559.0000000000000
 20
51.00000000000000
 30
0.0000000000000000
 11
559.0000000000000
 21
44.00000000000000
 31
0.0000000000000000
  0
LINE
  5
4A0
100
AcDbEntity
  8
WAKU0
  6
CONTINUOUS
 62
3
100
AcDbLine
 10
484.0000000000000
 20
31.50000000000000
 30
0.0000000000000000
 11
504.0000000000000
 21
31.50000000000000
 31
0.0000000000000000
  0
LINE
  5
4A1
100
AcDbEntity
  8
WAKU0
  6
CONTINUOUS
 62
3
100
AcDbLine
 10
504.0000000000000
 20
44.00000000000000
 30
0.0000000000000000
 11
582.0000000000000
 21
44.00000000000000
 31
0.0000000000000000
  0
LINE
  5
4A2
100
AcDbEntity
  8
WAKU0
  6
CONTINUOUS
 62
3
100
AcDbLine
 10
412.0000000000000
 20
37.00000000000000
 30
0.0000000000000000
 11
484.0000000000000
 21
37.00000000000000
 31
0.0000000000000000
  0
LINE
  5
4A3
100
AcDbEntity
  8
WAKU0
  6
CONTINUOUS
 62
3
100
AcDbLine
 10
412.0000000000000
 20
23.00000000000000
 30
0.0000000000000000
 11
484.0000000000000
 21
23.00000000000000
 31
0.0000000000000000
  0
LINE
  5
4A4
100
AcDbEntity
  8
WAKU0
  6
CONTINUOUS
 62
3
100
AcDbLine
 10
460.0000000000000
 20
37.00000000000000
 30
0.0000000000000000
 11
460.0000000000000
 21
12.00000000000000
 31
0.0000000000000000
  0
LINE
  5
4A5
100
AcDbEntity
  8
WAKU0
  6
CONTINUOUS
 62
3
100
AcDbLine
 10
436.0000000000000
 20
37.00000000000000
 30
0.0000000000000000
 11
436.0000000000000
 21
23.00000000000000
 31
0.0000000000000000
  0
LINE
  5
4A6
100
AcDbEntity
  8
WAKU0
  6
CONTINUOUS
 62
3
100
AcDbLine
 10
472.0000000000000
 20
26.00000000000000
 30
0.0000000000000000
 11
472.0000000000000
 21
23.00000000000000
 31
0.0000000000000000
  0
LINE
  5
4A7
100
AcDbEntity
  8
WAKU0
  6
CONTINUOUS
 62
3
100
AcDbLine
 10
448.0000000000000
 20
26.00000000000000
 30
0.0000000000000000
 11
448.0000000000000
 21
23.00000000000000
 31
0.0000000000000000
  0
LINE
  5
4A8
100
AcDbEntity
  8
WAKU0
  6
CONTINUOUS
 62
3
100
AcDbLine
 10
424.0000000000000
 20
26.00000000000000
 30
0.0000000000000000
 11
424.0000000000000
 21
23.00000000000000
 31
0.0000000000000000
  0
LINE
  5
4A9
100
AcDbEntity
  8
WAKU0
  6
CONTINUOUS
 62
3
100
AcDbLine
 10
430.0000000000000
 20
51.00000000000000
 30
0.0000000000000000
 11
430.0000000000000
 21
37.00000000000000
 31
0.0000000000000000
  0
LINE
  5
4AA
100
AcDbEntity
  8
WAKU0
  6
CONTINUOUS
 62
3
100
AcDbLine
 10
412.0000000000000
 20
45.00000000000000
 30
0.0000000000000000
 11
484.0000000000000
 21
45.00000000000000
 31
0.0000000000000000
  0
LINE
  5
4AB
100
AcDbEntity
  8
WAKU0
  6
HIDDEN
 62
3
100
AcDbLine
 10
532.5000000000000
 20
23.00000000000000
 30
0.0000000000000000
 11
532.5000000000000
 21
12.00000000000000
 31
0.0000000000000000
  0
LINE
  5
4AC
100
AcDbEntity
  8
WAKU0
  6
HIDDEN
 62
3
100
AcDbLine
 10
544.9000000000000
 20
23.00000000000000
 30
0.0000000000000000
 11
544.9000000000000
 21
12.00000000000000
 31
0.0000000000000000
  0
MTEXT
  5
4AD
100
AcDbEntity
  8
WAKU0
  6
CONTINUOUS
 62
3
100
AcDbMText
 10
516.4820000243485
 20
49.04999995231628
 30
0.0000000000000000
 40
3.099999904632568
 41
0.0000000000000000
 71
     1
 72
     1
  1
{\H0.91x;{AS06}}
 11
1.000000000000000
 21
0.0000000000000000
 31
0.0000000000000000
  7
STANDARD
  0
MTEXT
  5
4AE
100
AcDbEntity
  8
WAKU0
  6
CONTINUOUS
 62
3
100
AcDbMText
 10
516.4659999916852
 20
43.50000000000000
 30
0.0000000000000000
 40
3.000000000000000
 41
0.0000000000000000
 71
     1
 72
     1
  1
{\H0.94x;{ワークグリッパ　６\PＷＯＲＫ　ＧＲＩＰＰＥＲ　６}}
 11
1.000000000000000
 21
0.0000000000000000
 31
0.0000000000000000
  7
KNJYOKO
  0
MTEXT
  5
4AF
100
AcDbEntity
  8
WAKU0
  6
CONTINUOUS
 62
3
100
AcDbMText
 10
516.4820000243485
 20
34.23333326975504
 30
0.0000000000000000
 40
3.099999904632568
 41
0.0000000000000000
 71
     1
 72
     1
  1
{\H0.94x;{ＡＳ０６　ガイケイ\PＡＳ０６　ＯＵＴＳＩＤＥ　ＶＩＥＷ}}
 11
1.000000000000000
 21
0.0000000000000000
 31
0.0000000000000000
  7
KNJYOKO
  0
MTEXT
  5
4B0
100
AcDbEntity
  8
WAKU0
  6
CONTINUOUS
 62
3
100
AcDbMText
 10
490.0049998760223
 20
39.29999995231628
 30
0.0000000000000000
 40
3.099999904632568
 41
0.0000000000000000
 71
     1
 72
     1
  1
{\H0.90x;{1:1}}
 11
1.000000000000000
 21
0.0000000000000000
 31
0.0000000000000000
  7
STANDARD
  0
MTEXT
  5
4B1
100
AcDbEntity
  8
WAKU0
  6
CONTINUOUS
 62
3
100
AcDbMText
 10
546.4000001549721
 20
20.15000009536743
 30
0.0000000000000000
 40
5.300000190734863
 41
0.0000000000000000
 71
     1
 72
     1
  1
{\H0.90x;{7186}}
 11
1.000000000000000
 21
0.0000000000000000
 31
0.0000000000000000
  7
STANDARD
  0
MTEXT
  5
4B2
100
AcDbEntity
  8
WAKU0
  6
CONTINUOUS
 62
3
100
AcDbMText
 10
534.3000000834466
 20
20.15000009536743
 30
0.0000000000000000
 40
5.300000190734863
 41
0.0000000000000000
 71
     1
 72
     1
  1
{\H0.87x;{25}}
 11
1.000000000000000
 21
0.0000000000000000
 31
0.0000000000000000
  7
STANDARD
  0
MTEXT
  5
4B3
100
AcDbEntity
  8
WAKU0
  6
CONTINUOUS
 62
3
100
AcDbMText
 10
517.5000001192093
 20
20.15000009536743
 30
0.0000000000000000
 40
5.300000190734863
 41
0.0000000000000000
 71
     1
 72
     1
  1
{\H0.89x;{61P}}
 11
1.000000000000000
 21
0.0000000000000000
 31
0.0000000000000000
  7
STANDARD
  0
MTEXT
  5
4B4
100
AcDbEntity
  8
WAKU0
  6
CONTINUOUS
 62
3
100
AcDbMText
 10
572.0000000476837
 20
20.15000009536743
 30
0.0000000000000000
 40
5.300000190734863
 41
0.0000000000000000
 71
     1
 72
     1
  1
{\H0.81x;{3}}
 11
1.000000000000000
 21
0.0000000000000000
 31
0.0000000000000000
  7
STANDARD
  0
MTEXT
  5
4B5
100
AcDbEntity
  8
WAKU0
  6
CONTINUOUS
 62
3
100
AcDbMText
 10
572.0000000819564
 20
44.84999990463257
 30
0.0000000000000000
 40
5.300000190734863
 41
0.0000000000000000
 71
     7
 72
     1
  1
{\H0.81x;{ }}
 11
1.000000000000000
 21
0.0000000000000000
 31
0.0000000000000000
  7
STANDARD
  0
MTEXT
  5
4B6
100
AcDbEntity
  8
WAKU0
  6
CONTINUOUS
 62
3
100
AcDbMText
 10
461.3850002884865
 20
33.00000000000000
 30
0.0000000000000000
 40
3.000000000000000
 41
0.0000000000000000
 71
     7
 72
     1
  1
{\H0.93x;{DRAWN BY}}
 11
1.000000000000000
 21
0.0000000000000000
 31
0.0000000000000000
  7
STANDARD
  0
MTEXT
  5
4B7
100
AcDbEntity
  8
WAKU0
  6
CONTINUOUS
 62
3
100
AcDbMText
 10
441.2149997949600
 20
32.95000004768372
 30
0.0000000000000000
 40
3.099999904632568
 41
0.0000000000000000
 71
     7
 72
     1
  1
{\H0.92x;{CHIEF}}
 11
1.000000000000000
 21
0.0000000000000000
 31
0.0000000000000000
  7
STANDARD
  0
MTEXT
  5
4B8
100
AcDbEntity
  8
WAKU0
  6
CONTINUOUS
 62
3
100
AcDbMText
 10
414.4249997138977
 20
32.95000004768372
 30
0.0000000000000000
 40
3.099999904632568
 41
0.0000000000000000
 71
     7
 72
     1
  1
{\H0.92x;{MANAGER}}
 11
1.000000000000000
 21
0.0000000000000000
 31
0.0000000000000000
  7
STANDARD
  0
MTEXT
  5
4B9
100
AcDbEntity
  8
WAKU0
  6
CONTINUOUS
 62
3
100
AcDbMText
 10
416.6599994301796
 20
18.13333336512248
 30
0.0000000000000000
 40
3.099999904632568
 41
0.0000000000000000
 71
     7
 72
     1
  1
{\H0.93x;{KITAGAWA IRON\PWORKS CO.,LTD.}}
 11
1.000000000000000
 21
0.0000000000000000
 31
0.0000000000000000
  7
STANDARD
  0
MTEXT
  5
4BA
100
AcDbEntity
  8
WAKU0
  6
CONTINUOUS
 62
3
100
AcDbMText
 10
413.0850002169609
 20
46.50000000000000
 30
0.0000000000000000
 40
3.000000000000000
 41
0.0000000000000000
 71
     7
 72
     1
  1
{\H0.92x;{CAREER}}
 11
1.000000000000000
 21
0.0000000000000000
 31
0.0000000000000000
  7
STANDARD
  0
MTEXT
  5
4BB
100
AcDbEntity
  8
WAKU0
  6
CONTINUOUS
 62
3
100
AcDbMText
 10
466.6099998354912
 20
18.95000004768372
 30
0.0000000000000000
 40
3.099999904632568
 41
0.0000000000000000
 71
     7
 72
     1
  1
{\H0.91x;{DATE}}
 11
1.000000000000000
 21
0.0000000000000000
 31
0.0000000000000000
  7
STANDARD
  0
MTEXT
  5
4BC
100
AcDbEntity
  8
WAKU0
  6
CONTINUOUS
 62
3
100
AcDbMText
 10
485.9000002145767
 20
26.50000000000000
 30
0.0000000000000000
 40
3.000000000000000
 41
0.0000000000000000
 71
     7
 72
     1
  1
{\H0.63x;{3RD ANGLE}}
 11
1.000000000000000
 21
0.0000000000000000
 31
0.0000000000000000
  7
STANDARD
  0
MTEXT
  5
4BD
100
AcDbEntity
  8
WAKU0
  6
CONTINUOUS
 62
3
100
AcDbMText
 10
487.2149997949600
 20
45.95000004768372
 30
0.0000000000000000
 40
3.099999904632568
 41
0.0000000000000000
 71
     7
 72
     1
  1
{\H0.92x;{SCALE}}
 11
1.000000000000000
 21
0.0000000000000000
 31
0.0000000000000000
  7
STANDARD
  0
MTEXT
  5
4BE
100
AcDbEntity
  8
WAKU0
  6
CONTINUOUS
 62
3
100
AcDbMText
 10
577.7000000476837
 20
46.00000000000000
 30
0.0000000000000000
 40
3.000000000000000
 41
0.0000000000000000
 71
     7
 72
     1
  1
{\H0.63x;{kg}}
 11
1.000000000000000
 21
0.0000000000000000
 31
0.0000000000000000
  7
STANDARD
  0
MTEXT
  5
4BF
100
AcDbEntity
  8
WAKU0
  6
CONTINUOUS
 62
3
100
AcDbMText
 10
547.6000001430512
 20
46.00000000000000
 30
0.0000000000000000
 40
3.000000000000000
 41
0.0000000000000000
 71
     7
 72
     1
  1
{\H0.63x;{WEIGHT}}
 11
1.000000000000000
 21
0.0000000000000000
 31
0.0000000000000000
  7
STANDARD
  0
MTEXT
  5
4C0
100
AcDbEntity
  8
WAKU0
  6
CONTINUOUS
 62
3
100
AcDbMText
 10
506.0049998760223
 20
18.13333336512248
 30
0.0000000000000000
 40
3.099999904632568
 41
0.0000000000000000
 71
     7
 72
     1
  1
{\H0.90x;{DRW\PNO.}}
 11
1.000000000000000
 21
0.0000000000000000
 31
0.0000000000000000
  7
STANDARD
  0
MTEXT
  5
4C1
100
AcDbEntity
  8
WAKU0
  6
CONTINUOUS
 62
3
100
AcDbMText
 10
504.6099998354912
 20
31.95000004768372
 30
0.0000000000000000
 40
3.099999904632568
 41
0.0000000000000000
 71
     7
 72
     1
  1
{\H0.91x;{NAME}}
 11
1.000000000000000
 21
0.0000000000000000
 31
0.0000000000000000
  7
STANDARD
  0
MTEXT
  5
4C2
100
AcDbEntity
  8
WAKU0
  6
CONTINUOUS
 62
3
100
AcDbMText
 10
504.6099998354912
 20
45.95000004768372
 30
0.0000000000000000
 40
3.099999904632568
 41
0.0000000000000000
 71
     7
 72
     1
  1
{\H0.91x;{TYPE}}
 11
1.000000000000000
 21
0.0000000000000000
 31
0.0000000000000000
  7
STANDARD
  0
LINE
  5
4C3
100
AcDbEntity
  8
WAKU0
  6
HIDDEN
 62
3
100
AcDbLine
 10
579.1599564743885
 20
13.84999990463257
 30
0.0000000000000000
 11
568.9400436209789
 21
13.84999990463257
 31
0.0000000000000000
  0
LINE
  5
4C4
100
AcDbEntity
  8
WAKU0
  6
HIDDEN
 62
3
100
AcDbLine
 10
579.1599564743885
 20
13.84999990463250
 30
0.0000000000000000
 11
574.0500000476851
 21
22.70070406014901
 31
0.0000000000000000
  0
LINE
  5
4C5
100
AcDbEntity
  8
WAKU0
  6
HIDDEN
 62
3
100
AcDbLine
 10
574.0500000476851
 20
22.70070406014902
 30
0.0000000000000000
 11
568.9400436209789
 21
13.84999990463248
 31
0.0000000000000000
  0
LINE
  5
4C6
100
AcDbEntity
  8
WAKU0
  6
CONTINUOUS
 62
3
100
AcDbLine
 10
502.4713877753800
 20
15.78041421262812
 30
0.0000000000000000
 11
502.4713877753800
 21
21.78041421262815
 31
0.0000000000000000
  0
LINE
  5
4C7
100
AcDbEntity
  8
WAKU0
  6
CONTINUOUS
 62
3
100
AcDbLine
 10
495.9336941228225
 20
17.28041421262811
 30
0.0000000000000000
 11
495.9336941228225
 21
20.28041421262824
 31
0.0000000000000000
  0
LINE
  5
4C8
100
AcDbEntity
  8
WAKU0
  6
CENTER
 62
12
100
AcDbLine
 10
485.4321805514995
 20
18.78041421262813
 30
0.0000000000000000
 11
503.2765788964694
 21
18.78041421262813
 31
0.0000000000000000
  0
LINE
  5
4C9
100
AcDbEntity
  8
WAKU0
  6
CENTER
 62
12
100
AcDbLine
 10
489.4474565857986
 20
14.55921662918448
 30
0.0000000000000000
 11
489.4474565857986
 21
22.89865102149943
 31
0.0000000000000000
  0
LINE
  5
4CA
100
AcDbEntity
  8
WAKU0
  6
CONTINUOUS
 62
3
100
AcDbLine
 10
495.9336941228225
 20
20.28041421262797
 30
0.0000000000000000
 11
502.4713877753800
 21
21.78041421262795
 31
0.0000000000000000
  0
LINE
  5
4CB
100
AcDbEntity
  8
WAKU0
  6
CONTINUOUS
 62
3
100
AcDbLine
 10
495.9336941228225
 20
17.28041421262811
 30
0.0000000000000000
 11
502.4713877753799
 21
15.78041421262812
 31
0.0000000000000000
  0
CIRCLE
  5
4CC
100
AcDbEntity
  8
WAKU0
  6
CONTINUOUS
 62
3
100
AcDbCircle
 10
489.4474565857986
 20
18.78041421262813
 30
0.0000000000000000
 40
1.499999999999972
  0
CIRCLE
  5
4CD
100
AcDbEntity
  8
WAKU0
  6
CONTINUOUS
 62
3
100
AcDbCircle
 10
489.4474565857986
 20
18.78041421262813
 30
0.0000000000000000
 40
2.999999999999979
  0
ENDSEC
  0
SECTION
  2
OBJECTS
  0
DICTIONARY
  5
520
100
AcDbDictionary
  3
ACAD_GROUP
350
521
  3
ACAD_MLINESTYLE
350
522
  0
DICTIONARY
  5
521
102
{ACAD_REACTORS
330
520
102
}
100
AcDbDictionary
  0
DICTIONARY
  5
522
102
{ACAD_REACTORS
330
520
102
}
100
AcDbDictionary
  3
STANDARD
350
523
  0
MLINESTYLE
  5
523
102
{ACAD_REACTORS
330
522
102
}
100
AcDbMlineStyle
  2
STANDARD
 70
     0
  3

 62
   256
 51
90.00
 52
90.00
 71
     2
 49
0.50
 62
   256
  6
BYLAYER
 49
-0.50
 62
   256
  6
BYLAYER
  0
ENDSEC
  0
EOF
