  0
SECTION
  2
HEADER
  9
$ACADVER
  1
AC1014
  9
$DWGCODEPAGE
  3
ANSI_932
  9
$LTSCALE
 40
20.0
  9
$FILLMODE
 70
     1
  9
$CLAYER
  8
0
  9
$PDMODE
 70
     0
  9
$SPLFRAME
 70
     0
  9
$SPLINETYPE
 70
     6
  9
$SPLINESEGS
 70
     8
  9
$DIMASZ
 40
2.000000
  9
$DIMEXE
 40
2.000000
  9
$DIMEXO
 40
0.800000
  9
$DIMTAD
 70
     1
  9
$DIMTIH
 70
     0
  9
$DIMTOH
 70
     0
  9
$DIMTVP
 40
0.500000
  9
$DIMTXT
 40
3.100000
  9
$EXTMIN
 10
0.000000
 20
0.000000
 30
0.000000
  9
$EXTMAX
 10
420.000000
 20
594.000000
 30
0.000000
  9
$MEASUREMENT
 70
  1
  9
$LIMMIN
 10
0.000000
 20
0.000000
  9
$LIMMAX
 10
420.000000
 20
594.000000
  9
$HANDLING
 70
     1
  9
$HANDSEED
  5
458
  9
$DIMBLK
  1
_OPEN
  9
$DIMDEC
 70
     3
  9
$DIMAUNIT
 70
     1
  9
$DIMZIN
 70
     8
  9
$DIMTOFL
 70
     1
  0
ENDSEC
  0
SECTION
  2
CLASSES
  0
ENDSEC
  0
SECTION
  2
TABLES
  0
TABLE
  2
VPORT
  5
3FC
100
AcDbSymbolTable
 70
     1
  0
VPORT
  5
3FD
100
AcDbSymbolTableRecord
100
AcDbViewportTableRecord
  2
*ACTIVE
 70
     0
 12
297.000000
 22
210.000000
 40
420.000000
 41
1.414286
  0
ENDTAB
  0
TABLE
  2
LTYPE
  5
3FE
100
AcDbSymbolTable
 70
     5
  0
LTYPE
  5
3FF
100
AcDbSymbolTableRecord
100
AcDbLinetypeTableRecord
  2
BYBLOCK
 70
     0
  3

 72
    65
 73
     0
 40
0.0
  0
LTYPE
  5
400
100
AcDbSymbolTableRecord
100
AcDbLinetypeTableRecord
  2
BYLAYER
 70
     0
  3

 72
    65
 73
     0
 40
0.0
  0
LTYPE
  5
401
100
AcDbSymbolTableRecord
100
AcDbLinetypeTableRecord
  2
CONTINUOUS
 70
     0
  3
Solid line (NEC CAE2D for Win R12.1 : 2018.06.08)
 72
    65
 73
     0
 40
0.0
  0
LTYPE
  5
402
100
AcDbSymbolTableRecord
100
AcDbLinetypeTableRecord
  2
DASHED
 70
     0
  3
__ __ __ __ __ __ __ __ __ __ __ __ __ _
 72
    65
 73
     2
 40
0.75
 49
0.5
 74
     0
 49
-0.25
 74
     0
  0
LTYPE
  5
403
100
AcDbSymbolTableRecord
100
AcDbLinetypeTableRecord
  2
HIDDEN
 70
     0
  3
__ __ __ __ __ __ __ __ __ __ __ __ __ __
 72
    65
 73
     2
 40
0.375
 49
0.25
 74
     0
 49
-0.125
 74
     0
  0
LTYPE
  5
404
100
AcDbSymbolTableRecord
100
AcDbLinetypeTableRecord
  2
CENTER
 70
     0
  3
____ _ ____ _ ____ _ ____ _ ____ _ ____
 72
    65
 73
     4
 40
2.0
 49
1.25
 74
     0
 49
-0.25
 74
     0
 49
0.25
 74
     0
 49
-0.25
 74
     0
  0
LTYPE
  5
405
100
AcDbSymbolTableRecord
100
AcDbLinetypeTableRecord
  2
PHANTOM
 70
     0
  3
______  __  __  ______  __  __  ______ 
 72
    65
 73
     6
 40
2.5
 49
1.25
 74
     0
 49
-0.25
 74
     0
 49
0.25
 74
     0
 49
-0.25
 74
     0
 49
0.25
 74
     0
 49
-0.25
 74
     0
  0
ENDTAB
  0
TABLE
  2
LAYER
  5
406
100
AcDbSymbolTable
 70
    15
  0
LAYER
  5
407
100
AcDbSymbolTableRecord
100
AcDbLayerTableRecord
  2
0
 70
     0
 62
     7
  6
CONTINUOUS
  0
LAYER
  5
408
100
AcDbSymbolTableRecord
100
AcDbLayerTableRecord
  2
MAIN0
 70
     0
 62
     7
  6
CONTINUOUS
  0
LAYER
  5
409
100
AcDbSymbolTableRecord
100
AcDbLayerTableRecord
  2
MAIN1
 70
     0
 62
     7
  6
CONTINUOUS
  0
LAYER
  5
40A
100
AcDbSymbolTableRecord
100
AcDbLayerTableRecord
  2
MAIN2
 70
     0
 62
     5
  6
CONTINUOUS
  0
LAYER
  5
40B
100
AcDbSymbolTableRecord
100
AcDbLayerTableRecord
  2
MAIN3
 70
     0
 62
    14
  6
CONTINUOUS
  0
LAYER
  5
40C
100
AcDbSymbolTableRecord
100
AcDbLayerTableRecord
  2
MAIN4
 70
     0
 62
     9
  6
CONTINUOUS
  0
LAYER
  5
40D
100
AcDbSymbolTableRecord
100
AcDbLayerTableRecord
  2
MAIN5
 70
     0
 62
     9
  6
CONTINUOUS
  0
LAYER
  5
40E
100
AcDbSymbolTableRecord
100
AcDbLayerTableRecord
  2
MAIN6
 70
     0
 62
    10
  6
CONTINUOUS
  0
LAYER
  5
40F
100
AcDbSymbolTableRecord
100
AcDbLayerTableRecord
  2
MAIN7
 70
     0
 62
     7
  6
CONTINUOUS
  0
LAYER
  5
410
100
AcDbSymbolTableRecord
100
AcDbLayerTableRecord
  2
MAIN8
 70
     0
 62
    12
  6
CONTINUOUS
  0
LAYER
  5
411
100
AcDbSymbolTableRecord
100
AcDbLayerTableRecord
  2
MAIN9
 70
     0
 62
     8
  6
CONTINUOUS
  0
LAYER
  5
412
100
AcDbSymbolTableRecord
100
AcDbLayerTableRecord
  2
MAIN10
 70
     0
 62
     7
  6
CONTINUOUS
  0
LAYER
  5
413
100
AcDbSymbolTableRecord
100
AcDbLayerTableRecord
  2
MAIN1023
 70
     0
 62
    16
  6
CONTINUOUS
  0
LAYER
  5
414
100
AcDbSymbolTableRecord
100
AcDbLayerTableRecord
  2
WAKU0
 70
     0
 62
     7
  6
CONTINUOUS
  0
LAYER
  5
415
100
AcDbSymbolTableRecord
100
AcDbLayerTableRecord
  2
WAKU1023
 70
     0
 62
    16
  6
CONTINUOUS
  0
ENDTAB
  0
TABLE
  2
STYLE
  5
416
100
AcDbSymbolTable
 70
     4
  0
STYLE
  5
417
100
AcDbSymbolTableRecord
100
AcDbTextStyleTableRecord
  2
STANDARD
 70
    64
 40
0.0
 41
1.0
 50
0.0
 71
     0
 42
3.099999904632568
  3
TXT
  4

  0
STYLE
  5
418
100
AcDbSymbolTableRecord
100
AcDbTextStyleTableRecord
  2
ANKTATE
 70
    68
 40
0.0
 41
1.0
 50
0.0
 71
     0
 42
3.099999904632568
  3
TXT
  4

  0
STYLE
  5
143
100
AcDbSymbolTableRecord
100
AcDbTextStyleTableRecord
  2
KNJYOKO
 70
    64
 40
0.0
 41
1.0
 50
0.0
 71
     0
 42
3.099999904632568
  3
TXT
  4
BIGFONT
  0
STYLE
  5
419
100
AcDbSymbolTableRecord
100
AcDbTextStyleTableRecord
  2
KNJTATE
 70
    68
 40
0.0
 41
1.0
 50
0.0
 71
     0
 42
3.099999904632568
  3
TXT
  4
BIGFONT
  0
ENDTAB
  0
TABLE
  2
VIEW
  5
41A
100
AcDbSymbolTable
 70
     0
  0
ENDTAB
  0
TABLE
  2
UCS
  5
41B
100
AcDbSymbolTable
 70
     0
  0
ENDTAB
  0
TABLE
  2
APPID
  5
41C
100
AcDbSymbolTable
 70
     1
  0
APPID
  5
41D
100
AcDbSymbolTableRecord
100
AcDbRegAppTableRecord
  2
ACAD
 70
     0
  0
ENDTAB
  0
TABLE
  2
DIMSTYLE
  5
41E
100
AcDbSymbolTable
 70
     1
  0
DIMSTYLE
105
41F
100
AcDbSymbolTableRecord
100
AcDbDimStyleTableRecord
  2
STANDARD
 70
     0
 41
2.000000
 44
2.000000
 42
0.800000
145
0.661290
140
3.100000
144
1.000000
146
0.903226
340
417
  0
DIMSTYLE
105
420
100
AcDbSymbolTableRecord
100
AcDbDimStyleTableRecord
  2
MAIN001
 70
     0
 41
2.000000
 44
2.000000
 42
0.800000
145
0.661290
140
3.100000
144
1.000000
146
0.903226
 77
     1
 73
     0
 74
     0
271
     3
275
     1
 78
     8
172
     1
340
417
  0
DIMSTYLE
105
421
100
AcDbSymbolTableRecord
100
AcDbDimStyleTableRecord
  2
WAKU002
 70
     0
 41
2.000000
 44
2.000000
 42
0.800000
145
0.661290
140
3.100000
144
1.000000
146
0.903226
 77
     1
 73
     0
 74
     0
271
     3
275
     1
 78
     8
172
     1
340
417
  0
ENDTAB
  0
TABLE
  2
BLOCK_RECORD
  5
422
100
AcDbSymbolTable
 70
    54
  0
BLOCK_RECORD
  5
423
100
AcDbSymbolTableRecord
100
AcDbBlockTableRecord
  2
*MODEL_SPACE
  0
BLOCK_RECORD
  5
424
100
AcDbSymbolTableRecord
100
AcDbBlockTableRecord
  2
*PAPER_SPACE
  0
BLOCK_RECORD
  5
1
100
AcDbSymbolTableRecord
100
AcDbBlockTableRecord
  2
_NONE
  0
BLOCK_RECORD
  5
4
100
AcDbSymbolTableRecord
100
AcDbBlockTableRecord
  2
_CLOSED
  0
BLOCK_RECORD
  5
B
100
AcDbSymbolTableRecord
100
AcDbBlockTableRecord
  2
_DOT
  0
BLOCK_RECORD
  5
13
100
AcDbSymbolTableRecord
100
AcDbBlockTableRecord
  2
_OPEN
  0
BLOCK_RECORD
  5
19
100
AcDbSymbolTableRecord
100
AcDbBlockTableRecord
  2
_ORIGIN
  0
BLOCK_RECORD
  5
1E
100
AcDbSymbolTableRecord
100
AcDbBlockTableRecord
  2
_OPEN30
  0
BLOCK_RECORD
  5
24
100
AcDbSymbolTableRecord
100
AcDbBlockTableRecord
  2
_BOXFILLED
  0
BLOCK_RECORD
  5
29
100
AcDbSymbolTableRecord
100
AcDbBlockTableRecord
  2
_BOXBLANK
  0
BLOCK_RECORD
  5
31
100
AcDbSymbolTableRecord
100
AcDbBlockTableRecord
  2
_OBLIQUE
  0
BLOCK_RECORD
  5
35
100
AcDbSymbolTableRecord
100
AcDbBlockTableRecord
  2
_OPEN90
  0
BLOCK_RECORD
  5
3B
100
AcDbSymbolTableRecord
100
AcDbBlockTableRecord
  2
_CLOSEDBLANK
  0
BLOCK_RECORD
  5
41
100
AcDbSymbolTableRecord
100
AcDbBlockTableRecord
  2
_DOTBLANK
  0
BLOCK_RECORD
  5
425
100
AcDbSymbolTableRecord
100
AcDbBlockTableRecord
  2
*D0
  0
BLOCK_RECORD
  5
426
100
AcDbSymbolTableRecord
100
AcDbBlockTableRecord
  2
*D1
  0
BLOCK_RECORD
  5
427
100
AcDbSymbolTableRecord
100
AcDbBlockTableRecord
  2
*D2
  0
BLOCK_RECORD
  5
428
100
AcDbSymbolTableRecord
100
AcDbBlockTableRecord
  2
*D3
  0
BLOCK_RECORD
  5
429
100
AcDbSymbolTableRecord
100
AcDbBlockTableRecord
  2
*D4
  0
BLOCK_RECORD
  5
42A
100
AcDbSymbolTableRecord
100
AcDbBlockTableRecord
  2
*D5
  0
BLOCK_RECORD
  5
42B
100
AcDbSymbolTableRecord
100
AcDbBlockTableRecord
  2
*D6
  0
BLOCK_RECORD
  5
42C
100
AcDbSymbolTableRecord
100
AcDbBlockTableRecord
  2
*D7
  0
BLOCK_RECORD
  5
42D
100
AcDbSymbolTableRecord
100
AcDbBlockTableRecord
  2
*D8
  0
BLOCK_RECORD
  5
42E
100
AcDbSymbolTableRecord
100
AcDbBlockTableRecord
  2
*D9
  0
BLOCK_RECORD
  5
42F
100
AcDbSymbolTableRecord
100
AcDbBlockTableRecord
  2
*D10
  0
BLOCK_RECORD
  5
430
100
AcDbSymbolTableRecord
100
AcDbBlockTableRecord
  2
*D11
  0
BLOCK_RECORD
  5
431
100
AcDbSymbolTableRecord
100
AcDbBlockTableRecord
  2
*D12
  0
BLOCK_RECORD
  5
432
100
AcDbSymbolTableRecord
100
AcDbBlockTableRecord
  2
*D13
  0
BLOCK_RECORD
  5
433
100
AcDbSymbolTableRecord
100
AcDbBlockTableRecord
  2
*D14
  0
BLOCK_RECORD
  5
434
100
AcDbSymbolTableRecord
100
AcDbBlockTableRecord
  2
*D15
  0
BLOCK_RECORD
  5
435
100
AcDbSymbolTableRecord
100
AcDbBlockTableRecord
  2
*D16
  0
BLOCK_RECORD
  5
436
100
AcDbSymbolTableRecord
100
AcDbBlockTableRecord
  2
*D17
  0
BLOCK_RECORD
  5
437
100
AcDbSymbolTableRecord
100
AcDbBlockTableRecord
  2
*D18
  0
BLOCK_RECORD
  5
438
100
AcDbSymbolTableRecord
100
AcDbBlockTableRecord
  2
*D19
  0
BLOCK_RECORD
  5
439
100
AcDbSymbolTableRecord
100
AcDbBlockTableRecord
  2
*D20
  0
BLOCK_RECORD
  5
43A
100
AcDbSymbolTableRecord
100
AcDbBlockTableRecord
  2
*D21
  0
BLOCK_RECORD
  5
43B
100
AcDbSymbolTableRecord
100
AcDbBlockTableRecord
  2
*D22
  0
BLOCK_RECORD
  5
43C
100
AcDbSymbolTableRecord
100
AcDbBlockTableRecord
  2
*D23
  0
BLOCK_RECORD
  5
43D
100
AcDbSymbolTableRecord
100
AcDbBlockTableRecord
  2
*D24
  0
BLOCK_RECORD
  5
43E
100
AcDbSymbolTableRecord
100
AcDbBlockTableRecord
  2
D25
  0
BLOCK_RECORD
  5
43F
100
AcDbSymbolTableRecord
100
AcDbBlockTableRecord
  2
D26
  0
BLOCK_RECORD
  5
440
100
AcDbSymbolTableRecord
100
AcDbBlockTableRecord
  2
*D27
  0
BLOCK_RECORD
  5
441
100
AcDbSymbolTableRecord
100
AcDbBlockTableRecord
  2
*D28
  0
BLOCK_RECORD
  5
442
100
AcDbSymbolTableRecord
100
AcDbBlockTableRecord
  2
*D29
  0
BLOCK_RECORD
  5
443
100
AcDbSymbolTableRecord
100
AcDbBlockTableRecord
  2
*D30
  0
BLOCK_RECORD
  5
444
100
AcDbSymbolTableRecord
100
AcDbBlockTableRecord
  2
*D31
  0
BLOCK_RECORD
  5
445
100
AcDbSymbolTableRecord
100
AcDbBlockTableRecord
  2
*D32
  0
BLOCK_RECORD
  5
446
100
AcDbSymbolTableRecord
100
AcDbBlockTableRecord
  2
*D33
  0
BLOCK_RECORD
  5
447
100
AcDbSymbolTableRecord
100
AcDbBlockTableRecord
  2
*D34
  0
BLOCK_RECORD
  5
448
100
AcDbSymbolTableRecord
100
AcDbBlockTableRecord
  2
*D35
  0
BLOCK_RECORD
  5
449
100
AcDbSymbolTableRecord
100
AcDbBlockTableRecord
  2
*D36
  0
BLOCK_RECORD
  5
44A
100
AcDbSymbolTableRecord
100
AcDbBlockTableRecord
  2
*D37
  0
BLOCK_RECORD
  5
44B
100
AcDbSymbolTableRecord
100
AcDbBlockTableRecord
  2
*D38
  0
BLOCK_RECORD
  5
44C
100
AcDbSymbolTableRecord
100
AcDbBlockTableRecord
  2
*D39
  0
BLOCK_RECORD
  5
44D
100
AcDbSymbolTableRecord
100
AcDbBlockTableRecord
  2
*D40
  0
BLOCK_RECORD
  5
44E
100
AcDbSymbolTableRecord
100
AcDbBlockTableRecord
  2
*D41
  0
ENDTAB
  0
ENDSEC
  0
SECTION
  2
BLOCKS
  0
BLOCK
  5
44F
100
AcDbEntity
  8
0
100
AcDbBlockBegin
  2
*MODEL_SPACE
 70
     0
 10
0.0
 20
0.0
 30
0.0
  3
*MODEL_SPACE
  1

  0
ENDBLK
  5
450
100
AcDbEntity
  8
0
100
AcDbBlockEnd
  0
BLOCK
  5
451
100
AcDbEntity
  8
0
100
AcDbBlockBegin
  2
*PAPER_SPACE
 70
     0
 10
0.0
 20
0.0
 30
0.0
  3
*PAPER_SPACE
  1

  0
ENDBLK
  5
452
100
AcDbEntity
  8
0
100
AcDbBlockEnd
  0
BLOCK
  5
2
100
AcDbEntity
  8
0
100
AcDbBlockBegin
  2
_NONE
 70
     0
 10
0.0
 20
0.0
 30
0.0
  3
_NONE
  1

  0
ENDBLK
  5
3
100
AcDbEntity
  8
0
100
AcDbBlockEnd
  0
BLOCK
  5
5
100
AcDbEntity
  8
0
100
AcDbBlockBegin
  2
_CLOSED
 70
     0
 10
0.0
 20
0.0
 30
0.0
  3
_CLOSED
  1

  0
LINE
  5
6
100
AcDbEntity
  8
0
  6
BYBLOCK
 62
     0
100
AcDbLine
 10
-1.0
 20
0.166667
 30
0.0
 11
0.0
 21
0.0
 31
0.0
  0
LINE
  5
7
100
AcDbEntity
  8
0
  6
BYBLOCK
 62
     0
100
AcDbLine
 10
0.0
 20
0.0
 30
0.0
 11
-1.0
 21
-0.166667
 31
0.0
  0
LINE
  5
8
100
AcDbEntity
  8
0
  6
BYBLOCK
 62
     0
100
AcDbLine
 10
-1.0
 20
0.166667
 30
0.0
 11
-1.0
 21
-0.166667
 31
0.0
  0
LINE
  5
9
100
AcDbEntity
  8
0
  6
BYBLOCK
 62
     0
100
AcDbLine
 10
0.0
 20
0.0
 30
0.0
 11
-1.0
 21
0.0
 31
0.0
  0
ENDBLK
  5
A
100
AcDbEntity
  8
0
100
AcDbBlockEnd
  0
BLOCK
  5
C
100
AcDbEntity
  8
0
100
AcDbBlockBegin
  2
_DOT
 70
     0
 10
0.0
 20
0.0
 30
0.0
  3
_DOT
  1

  0
POLYLINE
  5
D
100
AcDbEntity
  8
0
  6
BYBLOCK
 62
     0
100
AcDb2dPolyline
 66
     1
 10
0.0
 20
0.0
 30
0.0
 70
     1
 40
0.5
 41
0.5
  0
VERTEX
  5
E
100
AcDbEntity
  8
0
  6
BYBLOCK
 62
     0
100
AcDbVertex
100
AcDb2dVertex
 10
-0.25
 20
0.0
 30
0.0
 42
1.0
  0
VERTEX
  5
F
100
AcDbEntity
  8
0
  6
BYBLOCK
 62
     0
100
AcDbVertex
100
AcDb2dVertex
 10
0.25
 20
0.0
 30
0.0
 42
1.0
  0
SEQEND
  5
10
100
AcDbEntity
  8
0
  6
BYBLOCK
 62
     0
  0
LINE
  5
11
100
AcDbEntity
  8
0
  6
BYBLOCK
 62
     0
100
AcDbLine
 10
-0.5
 20
0.0
 30
0.0
 11
-1.0
 21
0.0
 31
0.0
  0
ENDBLK
  5
12
100
AcDbEntity
  8
0
100
AcDbBlockEnd
  0
BLOCK
  5
14
100
AcDbEntity
  8
0
100
AcDbBlockBegin
  2
_OPEN
 70
     0
 10
0.0
 20
0.0
 30
0.0
  3
_OPEN
  1

  0
LINE
  5
15
100
AcDbEntity
  8
0
  6
BYBLOCK
 62
     0
100
AcDbLine
 10
-1.0
 20
0.166667
 30
0.0
 11
0.0
 21
0.0
 31
0.0
  0
LINE
  5
16
100
AcDbEntity
  8
0
  6
BYBLOCK
 62
     0
100
AcDbLine
 10
0.0
 20
0.0
 30
0.0
 11
-1.0
 21
-0.166667
 31
0.0
  0
LINE
  5
17
100
AcDbEntity
  8
0
  6
BYBLOCK
 62
     0
100
AcDbLine
 10
0.0
 20
0.0
 30
0.0
 11
-1.0
 21
0.0
 31
0.0
  0
ENDBLK
  5
18
100
AcDbEntity
  8
0
100
AcDbBlockEnd
  0
BLOCK
  5
1A
100
AcDbEntity
  8
0
100
AcDbBlockBegin
  2
_ORIGIN
 70
     0
 10
0.0
 20
0.0
 30
0.0
  3
_ORIGIN
  1

  0
CIRCLE
  5
1B
100
AcDbEntity
  8
0
  6
BYBLOCK
 62
     0
100
AcDbCircle
 10
0.0
 20
0.0
 30
0.0
 40
0.5
  0
LINE
  5
1C
100
AcDbEntity
  8
0
  6
BYBLOCK
 62
     0
100
AcDbLine
 10
0.0
 20
0.0
 30
0.0
 11
-1.0
 21
0.0
 31
0.0
  0
ENDBLK
  5
1D
100
AcDbEntity
  8
0
100
AcDbBlockEnd
  0
BLOCK
  5
1F
100
AcDbEntity
  8
0
100
AcDbBlockBegin
  2
_OPEN30
 70
     0
 10
0.0
 20
0.0
 30
0.0
  3
_OPEN30
  1

  0
LINE
  5
20
100
AcDbEntity
  8
0
  6
BYBLOCK
 62
     0
100
AcDbLine
 10
-1.0
 20
0.267949
 30
0.0
 11
0.0
 21
0.0
 31
0.0
  0
LINE
  5
21
100
AcDbEntity
  8
0
  6
BYBLOCK
 62
     0
100
AcDbLine
 10
0.0
 20
0.0
 30
0.0
 11
-1.0
 21
-0.267949
 31
0.0
  0
LINE
  5
22
100
AcDbEntity
  8
0
  6
BYBLOCK
 62
     0
100
AcDbLine
 10
0.0
 20
0.0
 30
0.0
 11
-1.0
 21
0.0
 31
0.0
  0
ENDBLK
  5
23
100
AcDbEntity
  8
0
100
AcDbBlockEnd
  0
BLOCK
  5
25
100
AcDbEntity
  8
0
100
AcDbBlockBegin
  2
_BOXFILLED
 70
     0
 10
0.0
 20
0.0
 30
0.0
  3
_BOXFILLED
  1

  0
SOLID
  5
26
100
AcDbEntity
  8
0
  6
BYBLOCK
 62
     0
100
AcDbTrace
 10
-0.5
 20
0.5
 30
0.0
 11
0.5
 21
0.5
 31
0.0
 12
-0.5
 22
-0.5
 32
0.0
 13
0.5
 23
-0.5
 33
0.0
  0
LINE
  5
27
100
AcDbEntity
  8
0
  6
BYBLOCK
 62
     0
100
AcDbLine
 10
-0.5
 20
0.0
 30
0.0
 11
-1.0
 21
0.0
 31
0.0
  0
ENDBLK
  5
28
100
AcDbEntity
  8
0
100
AcDbBlockEnd
  0
BLOCK
  5
2A
100
AcDbEntity
  8
0
100
AcDbBlockBegin
  2
_BOXBLANK
 70
     0
 10
0.0
 20
0.0
 30
0.0
  3
_BOXBLANK
  1

  0
LINE
  5
2B
100
AcDbEntity
  8
0
  6
BYBLOCK
 62
     0
100
AcDbLine
 10
-0.5
 20
-0.5
 30
0.0
 11
0.5
 21
-0.5
 31
0.0
  0
LINE
  5
2C
100
AcDbEntity
  8
0
  6
BYBLOCK
 62
     0
100
AcDbLine
 10
0.5
 20
-0.5
 30
0.0
 11
0.5
 21
0.5
 31
0.0
  0
LINE
  5
2D
100
AcDbEntity
  8
0
  6
BYBLOCK
 62
     0
100
AcDbLine
 10
0.5
 20
0.5
 30
0.0
 11
-0.5
 21
0.5
 31
0.0
  0
LINE
  5
2E
100
AcDbEntity
  8
0
  6
BYBLOCK
 62
     0
100
AcDbLine
 10
-0.5
 20
0.5
 30
0.0
 11
-0.5
 21
-0.5
 31
0.0
  0
LINE
  5
2F
100
AcDbEntity
  8
0
  6
BYBLOCK
 62
     0
100
AcDbLine
 10
-0.5
 20
0.0
 30
0.0
 11
-1.0
 21
0.0
 31
0.0
  0
ENDBLK
  5
30
100
AcDbEntity
  8
0
100
AcDbBlockEnd
  0
BLOCK
  5
32
100
AcDbEntity
  8
0
100
AcDbBlockBegin
  2
_OBLIQUE
 70
     0
 10
0.0
 20
0.0
 30
0.0
  3
_OBLIQUE
  1

  0
LINE
  5
33
100
AcDbEntity
  8
0
  6
BYBLOCK
 62
     0
100
AcDbLine
 10
-0.5
 20
-0.5
 30
0.0
 11
0.5
 21
0.5
 31
0.0
  0
ENDBLK
  5
34
100
AcDbEntity
  8
0
100
AcDbBlockEnd
  0
BLOCK
  5
36
100
AcDbEntity
  8
0
100
AcDbBlockBegin
  2
_OPEN90
 70
     0
 10
0.0
 20
0.0
 30
0.0
  3
_OPEN90
  1

  0
LINE
  5
37
100
AcDbEntity
  8
0
  6
BYBLOCK
 62
     0
100
AcDbLine
 10
-0.5
 20
0.5
 30
0.0
 11
0.0
 21
0.0
 31
0.0
  0
LINE
  5
38
100
AcDbEntity
  8
0
  6
BYBLOCK
 62
     0
100
AcDbLine
 10
0.0
 20
0.0
 30
0.0
 11
-0.5
 21
-0.5
 31
0.0
  0
LINE
  5
39
100
AcDbEntity
  8
0
  6
BYBLOCK
 62
     0
100
AcDbLine
 10
0.0
 20
0.0
 30
0.0
 11
-1.0
 21
0.0
 31
0.0
  0
ENDBLK
  5
3A
100
AcDbEntity
  8
0
100
AcDbBlockEnd
  0
BLOCK
  5
3C
100
AcDbEntity
  8
0
100
AcDbBlockBegin
  2
_CLOSEDBLANK
 70
     0
 10
0.0
 20
0.0
 30
0.0
  3
_CLOSEDBLANK
  1

  0
LINE
  5
3D
100
AcDbEntity
  8
0
  6
BYBLOCK
 62
     0
100
AcDbLine
 10
-1.0
 20
0.1666666666666666
 30
0.0
 11
0.0
 21
0.0
 31
0.0
  0
LINE
  5
3E
100
AcDbEntity
  8
0
  6
BYBLOCK
 62
     0
100
AcDbLine
 10
0.0
 20
0.0
 30
0.0
 11
-1.0
 21
-0.1666666666666666
 31
0.0
  0
LINE
  5
3F
100
AcDbEntity
  8
0
  6
BYBLOCK
 62
     0
100
AcDbLine
 10
-1.0
 20
0.1666666666666666
 30
0.0
 11
-1.0
 21
-0.1666666666666666
 31
0.0
  0
ENDBLK
  5
40
100
AcDbEntity
  8
0
100
AcDbBlockEnd
  0
BLOCK
  5
42
100
AcDbEntity
  8
0
100
AcDbBlockBegin
  2
_DOTBLANK
 70
     0
 10
0.0
 20
0.0
 30
0.0
  3
_DOTBLANK
  1

  0
CIRCLE
  5
43
100
AcDbEntity
  8
0
  6
BYBLOCK
 62
     0
100
AcDbCircle
 10
0.0
 20
0.0
 30
0.0
 40
0.5
  0
LINE
  5
44
100
AcDbEntity
  8
0
  6
BYBLOCK
 62
     0
100
AcDbLine
 10
-0.5
 20
0.0
 30
0.0
 11
-1.0
 21
0.0
 31
0.0
  0
ENDBLK
  5
45
100
AcDbEntity
  8
0
100
AcDbBlockEnd
  0
BLOCK
  5
46
100
AcDbEntity
  8
MAIN0
  6
CONTINUOUS
 62
3
100
AcDbBlockBegin
  2
*D0
 70
    65
 10
0.0
 20
0.0
 30
0.0
  0
LINE
  5
47
100
AcDbEntity
  8
MAIN0
  6
BYBLOCK
 62
0
100
AcDbLine
 10
82.48683758792750
 20
391.3789252738141
 30
0.0000000000000000
 11
41.90613606991778
 21
391.3789252738141
 31
0.0000000000000000
  0
LINE
  5
48
100
AcDbEntity
  8
MAIN0
  6
BYBLOCK
 62
0
100
AcDbLine
 10
43.90613606991778
 20
389.3789252738141
 30
0.0000000000000000
 11
43.90613606991778
 21
145.3789252738141
 31
0.0000000000000000
  0
INSERT
  5
49
100
AcDbEntity
  8
MAIN0
  6
BYBLOCK
 62
0
100
AcDbBlockReference
  2
_OPEN
 10
43.90613606991778
 20
391.3789252738141
 30
0.0000000000000000
 41
2.000000000000000
 42
2.000000000000000
 43
2.000000000000000
 50
90.00000000000000
  0
INSERT
  5
4A
100
AcDbEntity
  8
MAIN0
  6
BYBLOCK
 62
0
100
AcDbBlockReference
  2
_OPEN
 10
43.90613606991778
 20
143.3789252738141
 30
0.0000000000000000
 41
2.000000000000000
 42
2.000000000000000
 43
2.000000000000000
 50
270.0000000000000
  0
LINE
  5
4B
100
AcDbEntity
  8
MAIN0
  6
BYBLOCK
 62
0
100
AcDbLine
 10
82.48683758792750
 20
143.3789252738141
 30
0.0000000000000000
 11
41.90613606991778
 21
143.3789252738141
 31
0.0000000000000000
  0
MTEXT
  5
4C
100
AcDbEntity
  8
MAIN0
  6
BYBLOCK
 62
0
100
AcDbMText
 10
41.85613611760155
 20
267.3789252030336
 30
0.0000000000000000
 40
3.099999904632568
 41
0.0000000000000000
 71
     5
 72
     1
  1
\A1;\U+2205248\H0.903226x;h7
 11
2.670658493096113e-014
 21
1.000000000000000
 31
0.0000000000000000
  7
STANDARD
  0
ENDBLK
  5
4D
100
AcDbEntity
  8
MAIN0
  6
CONTINUOUS
 62
3
100
AcDbBlockEnd
  0
BLOCK
  5
4F
100
AcDbEntity
  8
MAIN6
  6
CONTINUOUS
 62
3
100
AcDbBlockBegin
  2
*D1
 70
    65
 10
0.0
 20
0.0
 30
0.0
  0
LINE
  5
50
100
AcDbEntity
  8
MAIN6
  6
BYBLOCK
 62
0
100
AcDbLine
 10
82.48683758792750
 20
285.3789252738141
 30
0.0000000000000000
 11
68.24770292105063
 21
285.3789252738141
 31
0.0000000000000000
  0
LINE
  5
51
100
AcDbEntity
  8
MAIN6
  6
BYBLOCK
 62
0
100
AcDbLine
 10
70.24770292105063
 20
283.3789252738141
 30
0.0000000000000000
 11
70.24770292105063
 21
251.3789252738141
 31
0.0000000000000000
  0
INSERT
  5
52
100
AcDbEntity
  8
MAIN6
  6
BYBLOCK
 62
0
100
AcDbBlockReference
  2
_OPEN
 10
70.24770292105063
 20
285.3789252738141
 30
0.0000000000000000
 41
2.000000000000000
 42
2.000000000000000
 43
2.000000000000000
 50
90.00000000000000
  0
INSERT
  5
53
100
AcDbEntity
  8
MAIN6
  6
BYBLOCK
 62
0
100
AcDbBlockReference
  2
_OPEN
 10
70.24770292105063
 20
249.3789252738141
 30
0.0000000000000000
 41
2.000000000000000
 42
2.000000000000000
 43
2.000000000000000
 50
270.0000000000000
  0
LINE
  5
54
100
AcDbEntity
  8
MAIN6
  6
BYBLOCK
 62
0
100
AcDbLine
 10
82.48683758792750
 20
249.3789252738141
 30
0.0000000000000000
 11
68.24770292105063
 21
249.3789252738141
 31
0.0000000000000000
  0
MTEXT
  5
55
100
AcDbEntity
  8
MAIN6
  6
BYBLOCK
 62
0
100
AcDbMText
 10
68.19770296873439
 20
267.3789252980285
 30
0.0000000000000000
 40
3.099999904632568
 41
0.0000000000000000
 71
     5
 72
     1
  1
\A1;\U+220536\H0.903226x;H7
 11
2.670658493096113e-014
 21
1.000000000000000
 31
0.0000000000000000
  7
STANDARD
  0
ENDBLK
  5
56
100
AcDbEntity
  8
MAIN6
  6
CONTINUOUS
 62
3
100
AcDbBlockEnd
  0
BLOCK
  5
58
100
AcDbEntity
  8
MAIN0
  6
CONTINUOUS
 62
3
100
AcDbBlockBegin
  2
*D2
 70
    65
 10
0.0
 20
0.0
 30
0.0
  0
LINE
  5
59
100
AcDbEntity
  8
MAIN0
  6
BYBLOCK
 62
0
100
AcDbLine
 10
83.28683759984847
 20
142.5789252618932
 30
0.0000000000000000
 11
83.28683759984847
 21
129.1186933108076
 31
0.0000000000000000
  0
LINE
  5
5A
100
AcDbEntity
  8
MAIN0
  6
BYBLOCK
 62
0
100
AcDbLine
 10
85.28683759984847
 20
131.1186933108076
 30
0.0000000000000000
 11
111.2868375998485
 21
131.1186933108076
 31
0.0000000000000000
  0
INSERT
  5
5B
100
AcDbEntity
  8
MAIN0
  6
BYBLOCK
 62
0
100
AcDbBlockReference
  2
_OPEN
 10
83.28683759984847
 20
131.1186933108076
 30
0.0000000000000000
 41
2.000000000000000
 42
2.000000000000000
 43
2.000000000000000
 50
180.0000000000000
  0
INSERT
  5
5C
100
AcDbEntity
  8
MAIN0
  6
BYBLOCK
 62
0
100
AcDbBlockReference
  2
_OPEN
 10
113.2868375998485
 20
131.1186933108076
 30
0.0000000000000000
 41
2.000000000000000
 42
2.000000000000000
 43
2.000000000000000
 50
0.0000000000000000
  0
LINE
  5
5D
100
AcDbEntity
  8
MAIN0
  6
BYBLOCK
 62
0
100
AcDbLine
 10
113.2868375998485
 20
137.3279048117626
 30
0.0000000000000000
 11
113.2868375998485
 21
129.1186933108076
 31
0.0000000000000000
  0
MTEXT
  5
5E
100
AcDbEntity
  8
MAIN0
  6
BYBLOCK
 62
0
100
AcDbMText
 10
103.1831823484915
 20
133.1686932631239
 30
0.0000000000000000
 40
3.099999904632568
 41
0.0000000000000000
 71
     5
 72
     1
  1
\A1;30
 11
1.000000000000000
 21
0.0000000000000000
 31
0.0000000000000000
  7
STANDARD
  0
ENDBLK
  5
5F
100
AcDbEntity
  8
MAIN0
  6
CONTINUOUS
 62
3
100
AcDbBlockEnd
  0
BLOCK
  5
66
100
AcDbEntity
  8
MAIN0
  6
CONTINUOUS
 62
3
100
AcDbBlockBegin
  2
*D3
 70
    65
 10
0.0
 20
0.0
 30
0.0
  0
LINE
  5
67
100
AcDbEntity
  8
MAIN0
  6
BYBLOCK
 62
0
100
AcDbLine
 10
83.28683759984847
 20
142.5789252618932
 30
0.0000000000000000
 11
83.28683759984847
 21
116.9319404282418
 31
0.0000000000000000
  0
LINE
  5
68
100
AcDbEntity
  8
MAIN0
  6
BYBLOCK
 62
0
100
AcDbLine
 10
85.28683759984847
 20
118.9319404282418
 30
0.0000000000000000
 11
96.28683759984847
 21
118.9319404282418
 31
0.0000000000000000
  0
INSERT
  5
69
100
AcDbEntity
  8
MAIN0
  6
BYBLOCK
 62
0
100
AcDbBlockReference
  2
_OPEN
 10
83.28683759984847
 20
118.9319404282418
 30
0.0000000000000000
 41
2.000000000000000
 42
2.000000000000000
 43
2.000000000000000
 50
180.0000000000000
  0
INSERT
  5
6A
100
AcDbEntity
  8
MAIN0
  6
BYBLOCK
 62
0
100
AcDbBlockReference
  2
_OPEN
 10
98.28683759984847
 20
118.9319404282418
 30
0.0000000000000000
 41
2.000000000000000
 42
2.000000000000000
 43
2.000000000000000
 50
0.0000000000000000
  0
LINE
  5
6B
100
AcDbEntity
  8
MAIN0
  6
BYBLOCK
 62
0
100
AcDbLine
 10
98.28683759984847
 20
141.0789252618932
 30
0.0000000000000000
 11
98.28683759984847
 21
116.9319404282418
 31
0.0000000000000000
  0
MTEXT
  5
6C
100
AcDbEntity
  8
MAIN0
  6
BYBLOCK
 62
0
100
AcDbMText
 10
90.78683759984847
 20
120.9819403805581
 30
0.0000000000000000
 40
3.099999904632568
 41
0.0000000000000000
 71
     5
 72
     1
  1
\A1;15
 11
1.000000000000000
 21
0.0000000000000000
 31
0.0000000000000000
  7
STANDARD
  0
ENDBLK
  5
6D
100
AcDbEntity
  8
MAIN0
  6
CONTINUOUS
 62
3
100
AcDbBlockEnd
  0
BLOCK
  5
6F
100
AcDbEntity
  8
MAIN0
  6
CONTINUOUS
 62
3
100
AcDbBlockBegin
  2
*D4
 70
    65
 10
0.0
 20
0.0
 30
0.0
  0
LINE
  5
70
100
AcDbEntity
  8
MAIN0
  6
BYBLOCK
 62
0
100
AcDbLine
 10
98.28683759984847
 20
141.0789252618932
 30
0.0000000000000000
 11
98.28683759984847
 21
116.9319404282418
 31
0.0000000000000000
  0
LINE
  5
71
100
AcDbEntity
  8
MAIN0
  6
BYBLOCK
 62
0
100
AcDbLine
 10
100.2868375998485
 20
118.9319404282418
 30
0.0000000000000000
 11
126.2868375998485
 21
118.9319404282418
 31
0.0000000000000000
  0
INSERT
  5
72
100
AcDbEntity
  8
MAIN0
  6
BYBLOCK
 62
0
100
AcDbBlockReference
  2
_OPEN
 10
98.28683759984847
 20
118.9319404282418
 30
0.0000000000000000
 41
2.000000000000000
 42
2.000000000000000
 43
2.000000000000000
 50
180.0000000000000
  0
INSERT
  5
73
100
AcDbEntity
  8
MAIN0
  6
BYBLOCK
 62
0
100
AcDbBlockReference
  2
_OPEN
 10
128.2868375998485
 20
118.9319404282418
 30
0.0000000000000000
 41
2.000000000000000
 42
2.000000000000000
 43
2.000000000000000
 50
0.0000000000000000
  0
LINE
  5
74
100
AcDbEntity
  8
MAIN0
  6
BYBLOCK
 62
0
100
AcDbLine
 10
128.2868375998485
 20
141.0789252618932
 30
0.0000000000000000
 11
128.2868375998485
 21
116.9319404282418
 31
0.0000000000000000
  0
MTEXT
  5
75
100
AcDbEntity
  8
MAIN0
  6
BYBLOCK
 62
0
100
AcDbMText
 10
113.2868375998485
 20
120.9819403805581
 30
0.0000000000000000
 40
3.099999904632568
 41
0.0000000000000000
 71
     5
 72
     1
  1
\A1;30
 11
1.000000000000000
 21
0.0000000000000000
 31
0.0000000000000000
  7
STANDARD
  0
ENDBLK
  5
76
100
AcDbEntity
  8
MAIN0
  6
CONTINUOUS
 62
3
100
AcDbBlockEnd
  0
BLOCK
  5
78
100
AcDbEntity
  8
MAIN0
  6
CONTINUOUS
 62
3
100
AcDbBlockBegin
  2
*D5
 70
    65
 10
0.0
 20
0.0
 30
0.0
  0
LINE
  5
79
100
AcDbEntity
  8
MAIN0
  6
BYBLOCK
 62
0
100
AcDbLine
 10
128.2868375998485
 20
141.0789252618932
 30
0.0000000000000000
 11
128.2868375998485
 21
116.9319404282418
 31
0.0000000000000000
  0
LINE
  5
7A
100
AcDbEntity
  8
MAIN0
  6
BYBLOCK
 62
0
100
AcDbLine
 10
130.2868375998485
 20
118.9319404282418
 30
0.0000000000000000
 11
187.2868375998485
 21
118.9319404282418
 31
0.0000000000000000
  0
INSERT
  5
7B
100
AcDbEntity
  8
MAIN0
  6
BYBLOCK
 62
0
100
AcDbBlockReference
  2
_OPEN
 10
128.2868375998485
 20
118.9319404282418
 30
0.0000000000000000
 41
2.000000000000000
 42
2.000000000000000
 43
2.000000000000000
 50
180.0000000000000
  0
INSERT
  5
7C
100
AcDbEntity
  8
MAIN0
  6
BYBLOCK
 62
0
100
AcDbBlockReference
  2
_OPEN
 10
189.2868375998485
 20
118.9319404282418
 30
0.0000000000000000
 41
2.000000000000000
 42
2.000000000000000
 43
2.000000000000000
 50
0.0000000000000000
  0
LINE
  5
7D
100
AcDbEntity
  8
MAIN0
  6
BYBLOCK
 62
0
100
AcDbLine
 10
189.2868375998485
 20
161.5789252618932
 30
0.0000000000000000
 11
189.2868375998485
 21
116.9319404282418
 31
0.0000000000000000
  0
MTEXT
  5
7E
100
AcDbEntity
  8
MAIN0
  6
BYBLOCK
 62
0
100
AcDbMText
 10
158.7868375998485
 20
120.9819403805581
 30
0.0000000000000000
 40
3.099999904632568
 41
0.0000000000000000
 71
     5
 72
     1
  1
\A1;61
 11
1.000000000000000
 21
0.0000000000000000
 31
0.0000000000000000
  7
STANDARD
  0
ENDBLK
  5
7F
100
AcDbEntity
  8
MAIN0
  6
CONTINUOUS
 62
3
100
AcDbBlockEnd
  0
BLOCK
  5
81
100
AcDbEntity
  8
MAIN3
  6
CONTINUOUS
 62
3
100
AcDbBlockBegin
  2
*D6
 70
    65
 10
0.0
 20
0.0
 30
0.0
  0
LINE
  5
82
100
AcDbEntity
  8
MAIN3
  6
BYBLOCK
 62
0
100
AcDbLine
 10
98.28683759984847
 20
141.0789252618932
 30
0.0000000000000000
 11
98.28683759984847
 21
85.91110210215575
 31
0.0000000000000000
  0
LINE
  5
83
100
AcDbEntity
  8
MAIN3
  6
BYBLOCK
 62
0
100
AcDbLine
 10
100.2868375998485
 20
87.91110210215575
 30
0.0000000000000000
 11
141.2868375998485
 21
87.91110210215575
 31
0.0000000000000000
  0
INSERT
  5
84
100
AcDbEntity
  8
MAIN3
  6
BYBLOCK
 62
0
100
AcDbBlockReference
  2
_OPEN
 10
98.28683759984847
 20
87.91110210215575
 30
0.0000000000000000
 41
2.000000000000000
 42
2.000000000000000
 43
2.000000000000000
 50
180.0000000000000
  0
INSERT
  5
85
100
AcDbEntity
  8
MAIN3
  6
BYBLOCK
 62
0
100
AcDbBlockReference
  2
_OPEN
 10
143.2868375998485
 20
87.91110210215575
 30
0.0000000000000000
 41
2.000000000000000
 42
2.000000000000000
 43
2.000000000000000
 50
0.0000000000000000
  0
LINE
  5
86
100
AcDbEntity
  8
MAIN3
  6
BYBLOCK
 62
0
100
AcDbLine
 10
143.2868375998485
 20
106.0789252618932
 30
0.0000000000000000
 11
143.2868375998485
 21
85.91110210215575
 31
0.0000000000000000
  0
MTEXT
  5
87
100
AcDbEntity
  8
MAIN3
  6
BYBLOCK
 62
0
100
AcDbMText
 10
120.7868375998485
 20
89.96110205447204
 30
0.0000000000000000
 40
3.099999904632568
 41
0.0000000000000000
 71
     5
 72
     1
  1
\A1;45
 11
1.000000000000000
 21
0.0000000000000000
 31
0.0000000000000000
  7
STANDARD
  0
ENDBLK
  5
88
100
AcDbEntity
  8
MAIN3
  6
CONTINUOUS
 62
3
100
AcDbBlockEnd
  0
BLOCK
  5
8A
100
AcDbEntity
  8
MAIN3
  6
CONTINUOUS
 62
3
100
AcDbBlockBegin
  2
*D7
 70
    65
 10
0.0
 20
0.0
 30
0.0
  0
LINE
  5
8B
100
AcDbEntity
  8
MAIN3
  6
BYBLOCK
 62
0
100
AcDbLine
 10
144.0868376117694
 20
106.8789252738141
 30
0.0000000000000000
 11
173.2094977375041
 21
106.8789252738141
 31
0.0000000000000000
  0
LINE
  5
8C
100
AcDbEntity
  8
MAIN3
  6
BYBLOCK
 62
0
100
AcDbLine
 10
171.2094977375041
 20
108.8789252738141
 30
0.0000000000000000
 11
171.2094977375041
 21
159.8789252738141
 31
0.0000000000000000
  0
INSERT
  5
8D
100
AcDbEntity
  8
MAIN3
  6
BYBLOCK
 62
0
100
AcDbBlockReference
  2
_OPEN
 10
171.2094977375041
 20
106.8789252738141
 30
0.0000000000000000
 41
2.000000000000000
 42
2.000000000000000
 43
2.000000000000000
 50
270.0000000000000
  0
INSERT
  5
8E
100
AcDbEntity
  8
MAIN3
  6
BYBLOCK
 62
0
100
AcDbBlockReference
  2
_OPEN
 10
171.2094977375041
 20
161.8789252738141
 30
0.0000000000000000
 41
2.000000000000000
 42
2.000000000000000
 43
2.000000000000000
 50
90.00000000000000
  0
LINE
  5
8F
100
AcDbEntity
  8
MAIN3
  6
BYBLOCK
 62
0
100
AcDbLine
 10
144.0868376117694
 20
161.8789252738141
 30
0.0000000000000000
 11
173.2094977375041
 21
161.8789252738141
 31
0.0000000000000000
  0
MTEXT
  5
90
100
AcDbEntity
  8
MAIN3
  6
BYBLOCK
 62
0
100
AcDbMText
 10
169.1594977851878
 20
134.3789252738141
 30
0.0000000000000000
 40
3.099999904632568
 41
0.0000000000000000
 71
     5
 72
     1
  1
\A1;55
 11
1.002670741233467e-011
 21
1.000000000000000
 31
0.0000000000000000
  7
STANDARD
  0
ENDBLK
  5
91
100
AcDbEntity
  8
MAIN3
  6
CONTINUOUS
 62
3
100
AcDbBlockEnd
  0
BLOCK
  5
93
100
AcDbEntity
  8
MAIN0
  6
CONTINUOUS
 62
3
100
AcDbBlockBegin
  2
*D8
 70
    65
 10
0.0
 20
0.0
 30
0.0
  0
LINE
  5
94
100
AcDbEntity
  8
MAIN0
  6
BYBLOCK
 62
0
100
AcDbLine
 10
83.28683759984847
 20
142.5789252618932
 30
0.0000000000000000
 11
83.28683759984847
 21
94.22025371583840
 31
0.0000000000000000
  0
LINE
  5
95
100
AcDbEntity
  8
MAIN0
  6
BYBLOCK
 62
0
100
AcDbLine
 10
85.28683759984847
 20
96.22025371583840
 30
0.0000000000000000
 11
187.2868375998485
 21
96.22025371583840
 31
0.0000000000000000
  0
INSERT
  5
96
100
AcDbEntity
  8
MAIN0
  6
BYBLOCK
 62
0
100
AcDbBlockReference
  2
_OPEN
 10
83.28683759984847
 20
96.22025371583840
 30
0.0000000000000000
 41
2.000000000000000
 42
2.000000000000000
 43
2.000000000000000
 50
180.0000000000000
  0
INSERT
  5
97
100
AcDbEntity
  8
MAIN0
  6
BYBLOCK
 62
0
100
AcDbBlockReference
  2
_OPEN
 10
189.2868375998485
 20
96.22025371583840
 30
0.0000000000000000
 41
2.000000000000000
 42
2.000000000000000
 43
2.000000000000000
 50
0.0000000000000000
  0
LINE
  5
98
100
AcDbEntity
  8
MAIN0
  6
BYBLOCK
 62
0
100
AcDbLine
 10
189.2868375998485
 20
161.5789252618932
 30
0.0000000000000000
 11
189.2868375998485
 21
94.22025371583840
 31
0.0000000000000000
  0
MTEXT
  5
99
100
AcDbEntity
  8
MAIN0
  6
BYBLOCK
 62
0
100
AcDbMText
 10
136.2868375998485
 20
98.27025366815468
 30
0.0000000000000000
 40
3.099999904632568
 41
0.0000000000000000
 71
     5
 72
     1
  1
\A1;106
 11
1.000000000000000
 21
0.0000000000000000
 31
0.0000000000000000
  7
STANDARD
  0
ENDBLK
  5
9A
100
AcDbEntity
  8
MAIN0
  6
CONTINUOUS
 62
3
100
AcDbBlockEnd
  0
BLOCK
  5
9C
100
AcDbEntity
  8
MAIN0
  6
CONTINUOUS
 62
3
100
AcDbBlockBegin
  2
*D9
 70
    65
 10
0.0
 20
0.0
 30
0.0
  0
LINE
  5
9D
100
AcDbEntity
  8
MAIN0
  6
BYBLOCK
 62
0
100
AcDbLine
 10
198.0868456526741
 20
63.70517111868412
 30
0.0000000000000000
 11
214.5630967350191
 21
63.70517111868418
 31
0.0000000000000000
  0
LINE
  5
9E
100
AcDbEntity
  8
MAIN0
  6
BYBLOCK
 62
0
100
AcDbLine
 10
212.5630967350191
 20
61.70517111868418
 30
0.0000000000000000
 11
212.5630967350191
 21
51.70517111868418
 31
0.0000000000000000
  0
INSERT
  5
9F
100
AcDbEntity
  8
MAIN0
  6
BYBLOCK
 62
0
100
AcDbBlockReference
  2
_OPEN
 10
212.5630967350191
 20
63.70517111868418
 30
0.0000000000000000
 41
2.000000000000000
 42
2.000000000000000
 43
2.000000000000000
 50
90.00000000000000
  0
INSERT
  5
A0
100
AcDbEntity
  8
MAIN0
  6
BYBLOCK
 62
0
100
AcDbBlockReference
  2
_OPEN
 10
212.5630967350191
 20
49.70517111868418
 30
0.0000000000000000
 41
2.000000000000000
 42
2.000000000000000
 43
2.000000000000000
 50
270.0000000000000
  0
LINE
  5
A1
100
AcDbEntity
  8
MAIN0
  6
BYBLOCK
 62
0
100
AcDbLine
 10
198.0868456526741
 20
49.70517111868423
 30
0.0000000000000000
 11
214.5630967350191
 21
49.70517111868418
 31
0.0000000000000000
  0
MTEXT
  5
A2
100
AcDbEntity
  8
MAIN0
  6
BYBLOCK
 62
0
100
AcDbMText
 10
210.5130967827029
 20
56.70517111868418
 30
0.0000000000000000
 40
3.099999904632568
 41
0.0000000000000000
 71
     5
 72
     1
  1
\A1;14\H0.903226x;\SH8^ h8;
 11
2.670658493096113e-014
 21
1.000000000000000
 31
0.0000000000000000
  7
STANDARD
  0
ENDBLK
  5
A3
100
AcDbEntity
  8
MAIN0
  6
CONTINUOUS
 62
3
100
AcDbBlockEnd
  0
BLOCK
  5
A5
100
AcDbEntity
  8
MAIN0
  6
CONTINUOUS
 62
3
100
AcDbBlockBegin
  2
*D10
 70
    65
 10
0.0
 20
0.0
 30
0.0
  0
LINE
  5
A6
100
AcDbEntity
  8
MAIN0
  6
BYBLOCK
 62
0
100
AcDbLine
 10
193.7868456526741
 20
74.20517111868418
 30
0.0000000000000000
 11
220.5420500942194
 21
74.20517111868418
 31
0.0000000000000000
  0
LINE
  5
A7
100
AcDbEntity
  8
MAIN0
  6
BYBLOCK
 62
0
100
AcDbLine
 10
218.5420500942194
 20
72.20517111868418
 30
0.0000000000000000
 11
218.5420500942194
 21
41.20517111868418
 31
0.0000000000000000
  0
INSERT
  5
A8
100
AcDbEntity
  8
MAIN0
  6
BYBLOCK
 62
0
100
AcDbBlockReference
  2
_OPEN
 10
218.5420500942194
 20
74.20517111868418
 30
0.0000000000000000
 41
2.000000000000000
 42
2.000000000000000
 43
2.000000000000000
 50
90.00000000000000
  0
INSERT
  5
A9
100
AcDbEntity
  8
MAIN0
  6
BYBLOCK
 62
0
100
AcDbBlockReference
  2
_OPEN
 10
218.5420500942194
 20
39.20517111868418
 30
0.0000000000000000
 41
2.000000000000000
 42
2.000000000000000
 43
2.000000000000000
 50
270.0000000000000
  0
LINE
  5
AA
100
AcDbEntity
  8
MAIN0
  6
BYBLOCK
 62
0
100
AcDbLine
 10
193.7868456526740
 20
39.20517111868418
 30
0.0000000000000000
 11
220.5420500942194
 21
39.20517111868418
 31
0.0000000000000000
  0
MTEXT
  5
AB
100
AcDbEntity
  8
MAIN0
  6
BYBLOCK
 62
0
100
AcDbMText
 10
216.4920501419032
 20
56.70517111868418
 30
0.0000000000000000
 40
3.099999904632568
 41
0.0000000000000000
 71
     5
 72
     1
  1
\A1;35
 11
2.670658493096113e-014
 21
1.000000000000000
 31
0.0000000000000000
  7
STANDARD
  0
ENDBLK
  5
AC
100
AcDbEntity
  8
MAIN0
  6
CONTINUOUS
 62
3
100
AcDbBlockEnd
  0
BLOCK
  5
AE
100
AcDbEntity
  8
MAIN0
  6
CONTINUOUS
 62
3
100
AcDbBlockBegin
  2
*D11
 70
    65
 10
0.0
 20
0.0
 30
0.0
  0
LINE
  5
AF
100
AcDbEntity
  8
MAIN0
  6
BYBLOCK
 62
0
100
AcDbLine
 10
189.2868456407532
 20
27.03823306639660
 30
0.0000000000000000
 11
189.2868456407532
 21
17.85155669213049
 31
0.0000000000000000
  0
LINE
  5
B0
100
AcDbEntity
  8
MAIN0
  6
BYBLOCK
 62
0
100
AcDbLine
 10
189.2868456407532
 20
19.85155669213049
 30
0.0000000000000000
 11
193.2868456407532
 21
19.85155669213049
 31
0.0000000000000000
  0
INSERT
  5
B1
100
AcDbEntity
  8
MAIN0
  6
BYBLOCK
 62
0
100
AcDbBlockReference
  2
_OPEN
 10
189.2868456407532
 20
19.85155669213049
 30
0.0000000000000000
 41
2.000000000000000
 42
2.000000000000000
 43
2.000000000000000
 50
0.0000000000000000
  0
INSERT
  5
B2
100
AcDbEntity
  8
MAIN0
  6
BYBLOCK
 62
0
100
AcDbBlockReference
  2
_DOT
 10
194.2868456407532
 20
19.85155669213049
 30
0.0000000000000000
 41
1.000000000000000
 42
1.000000000000000
 43
1.000000000000000
 50
0.0000000000000000
  0
LINE
  5
B3
100
AcDbEntity
  8
MAIN0
  6
BYBLOCK
 62
0
100
AcDbLine
 10
187.2868456407532
 20
19.85155669213049
 30
0.0000000000000000
 11
183.9784650369629
 21
19.85155669213049
 31
0.0000000000000000
  0
LINE
  5
B4
100
AcDbEntity
  8
MAIN0
  6
BYBLOCK
 62
0
100
AcDbLine
 10
194.2868456407532
 20
39.15572645670872
 30
0.0000000000000000
 11
194.2868456407532
 21
17.85155669213049
 31
0.0000000000000000
  0
MTEXT
  5
B5
100
AcDbEntity
  8
MAIN0
  6
BYBLOCK
 62
0
100
AcDbMText
 10
185.0284652200246
 20
21.90155664444674
 30
0.0000000000000000
 40
3.099999904632568
 41
0.0000000000000000
 71
     5
 72
     1
  1
\A1;5
 11
1.000000000000000
 21
0.0000000000000000
 31
0.0000000000000000
  7
STANDARD
  0
ENDBLK
  5
B6
100
AcDbEntity
  8
MAIN0
  6
CONTINUOUS
 62
3
100
AcDbBlockEnd
  0
BLOCK
  5
B8
100
AcDbEntity
  8
MAIN0
  6
CONTINUOUS
 62
3
100
AcDbBlockBegin
  2
*D12
 70
    65
 10
0.0
 20
0.0
 30
0.0
  0
LINE
  5
B9
100
AcDbEntity
  8
MAIN0
  6
BYBLOCK
 62
0
100
AcDbLine
 10
194.2868456407532
 20
39.15572645670872
 30
0.0000000000000000
 11
194.2868456407532
 21
17.85155669213049
 31
0.0000000000000000
  0
LINE
  5
BA
100
AcDbEntity
  8
MAIN0
  6
BYBLOCK
 62
0
100
AcDbLine
 10
195.2868456407532
 20
19.85155669213049
 30
0.0000000000000000
 11
197.2868456407532
 21
19.85155669213049
 31
0.0000000000000000
  0
INSERT
  5
BB
100
AcDbEntity
  8
MAIN0
  6
BYBLOCK
 62
0
100
AcDbBlockReference
  2
_DOT
 10
194.2868456407532
 20
19.85155669213049
 30
0.0000000000000000
 41
1.000000000000000
 42
1.000000000000000
 43
1.000000000000000
 50
180.0000000000000
  0
INSERT
  5
BC
100
AcDbEntity
  8
MAIN0
  6
BYBLOCK
 62
0
100
AcDbBlockReference
  2
_OPEN
 10
197.2868456407532
 20
19.85155669213049
 30
0.0000000000000000
 41
2.000000000000000
 42
2.000000000000000
 43
2.000000000000000
 50
180.0000000000000
  0
LINE
  5
BD
100
AcDbEntity
  8
MAIN0
  6
BYBLOCK
 62
0
100
AcDbLine
 10
199.2868456407532
 20
19.85155669213049
 30
0.0000000000000000
 11
201.8125404878601
 21
19.85155669213049
 31
0.0000000000000000
  0
LINE
  5
BE
100
AcDbEntity
  8
MAIN0
  6
BYBLOCK
 62
0
100
AcDbLine
 10
197.2868456407532
 20
48.90517110676328
 30
0.0000000000000000
 11
197.2868456407532
 21
17.85155669213049
 31
0.0000000000000000
  0
MTEXT
  5
BF
100
AcDbEntity
  8
MAIN0
  6
BYBLOCK
 62
0
100
AcDbMText
 10
200.7625403714500
 20
21.90155664444677
 30
0.0000000000000000
 40
3.099999904632568
 41
0.0000000000000000
 71
     5
 72
     1
  1
\A1;3
 11
1.000000000000000
 21
0.0000000000000000
 31
0.0000000000000000
  7
STANDARD
  0
ENDBLK
  5
C0
100
AcDbEntity
  8
MAIN0
  6
CONTINUOUS
 62
3
100
AcDbBlockEnd
  0
BLOCK
  5
C3
100
AcDbEntity
  8
MAIN6
  6
CONTINUOUS
 62
3
100
AcDbBlockBegin
  2
*D13
 70
    65
 10
0.0
 20
0.0
 30
0.0
  0
LINE
  5
C4
100
AcDbEntity
  8
MAIN6
  6
BYBLOCK
 62
0
100
AcDbLine
 10
83.28683759984847
 20
272.4647965356857
 30
0.0000000000000000
 11
88.38683759984846
 21
272.4647965356857
 31
0.0000000000000000
  0
INSERT
  5
C5
100
AcDbEntity
  8
MAIN6
  6
BYBLOCK
 62
0
100
AcDbBlockReference
  2
_OPEN
 10
83.28683759984847
 20
272.4647965356857
 30
0.0000000000000000
 41
2.000000000000000
 42
2.000000000000000
 43
2.000000000000000
 50
0.0000000000000000
  0
INSERT
  5
C6
100
AcDbEntity
  8
MAIN6
  6
BYBLOCK
 62
0
100
AcDbBlockReference
  2
_OPEN
 10
88.38683759984846
 20
272.4647965356857
 30
0.0000000000000000
 41
2.000000000000000
 42
2.000000000000000
 43
2.000000000000000
 50
180.0000000000000
  0
LINE
  5
C7
100
AcDbEntity
  8
MAIN6
  6
BYBLOCK
 62
0
100
AcDbLine
 10
81.28683759984847
 20
272.4647965356857
 30
0.0000000000000000
 11
80.28683759984847
 21
272.4647965356857
 31
0.0000000000000000
  0
LINE
  5
C8
100
AcDbEntity
  8
MAIN6
  6
BYBLOCK
 62
0
100
AcDbLine
 10
90.38683759984846
 20
272.4647965356857
 30
0.0000000000000000
 11
96.37885629949446
 21
272.4647965356857
 31
0.0000000000000000
  0
MTEXT
  5
C9
100
AcDbEntity
  8
MAIN6
  6
BYBLOCK
 62
0
100
AcDbMText
 10
93.72885643532092
 20
274.5147964880019
 30
0.0000000000000000
 40
3.099999904632568
 41
0.0000000000000000
 71
     5
 72
     1
  1
\A1;5.1
 11
1.000000000000000
 21
0.0000000000000000
 31
0.0000000000000000
  7
STANDARD
  0
ENDBLK
  5
CA
100
AcDbEntity
  8
MAIN6
  6
CONTINUOUS
 62
3
100
AcDbBlockEnd
  0
BLOCK
  5
E1
100
AcDbEntity
  8
MAIN0
  6
CONTINUOUS
 62
3
100
AcDbBlockBegin
  2
*D14
 70
    65
 10
0.0
 20
0.0
 30
0.0
  0
LINE
  5
E2
100
AcDbEntity
  8
MAIN0
  6
BYBLOCK
 62
0
100
AcDbLine
 10
205.1119836757348
 20
267.3789252738141
 30
0.0000000000000000
 11
244.9519466112641
 21
267.3789252738141
 31
0.0000000000000000
  0
LINE
  5
E3
100
AcDbEntity
  8
MAIN0
  6
BYBLOCK
 62
0
100
AcDbLine
 10
242.9519466112641
 20
269.3789252738141
 30
0.0000000000000000
 11
242.9519466112641
 21
318.3789252738141
 31
0.0000000000000000
  0
INSERT
  5
E4
100
AcDbEntity
  8
MAIN0
  6
BYBLOCK
 62
0
100
AcDbBlockReference
  2
_OPEN
 10
242.9519466112641
 20
267.3789252738141
 30
0.0000000000000000
 41
2.000000000000000
 42
2.000000000000000
 43
2.000000000000000
 50
270.0000000000000
  0
INSERT
  5
E5
100
AcDbEntity
  8
MAIN0
  6
BYBLOCK
 62
0
100
AcDbBlockReference
  2
_OPEN
 10
242.9519466112641
 20
320.3789252738141
 30
0.0000000000000000
 41
2.000000000000000
 42
2.000000000000000
 43
2.000000000000000
 50
90.00000000000000
  0
LINE
  5
E6
100
AcDbEntity
  8
MAIN0
  6
BYBLOCK
 62
0
100
AcDbLine
 10
193.7868376117694
 20
320.3789252738141
 30
0.0000000000000000
 11
244.9519466112641
 21
320.3789252738141
 31
0.0000000000000000
  0
ENDBLK
  5
E7
100
AcDbEntity
  8
MAIN0
  6
CONTINUOUS
 62
3
100
AcDbBlockEnd
  0
BLOCK
  5
E9
100
AcDbEntity
  8
MAIN0
  6
CONTINUOUS
 62
3
100
AcDbBlockBegin
  2
*D15
 70
    65
 10
0.0
 20
0.0
 30
0.0
  0
LINE
  5
EA
100
AcDbEntity
  8
MAIN0
  6
BYBLOCK
 62
0
100
AcDbLine
 10
242.9519466112641
 20
329.3789252738141
 30
0.0000000000000000
 11
242.9519466112641
 21
320.3789252738141
 31
0.0000000000000000
  0
INSERT
  5
EB
100
AcDbEntity
  8
MAIN0
  6
BYBLOCK
 62
0
100
AcDbBlockReference
  2
_OPEN
 10
242.9519466112641
 20
329.3789252738141
 30
0.0000000000000000
 41
2.000000000000000
 42
2.000000000000000
 43
2.000000000000000
 50
270.0000000000000
  0
INSERT
  5
EC
100
AcDbEntity
  8
MAIN0
  6
BYBLOCK
 62
0
100
AcDbBlockReference
  2
_OPEN
 10
242.9519466112641
 20
320.3789252738141
 30
0.0000000000000000
 41
2.000000000000000
 42
2.000000000000000
 43
2.000000000000000
 50
90.00000000000000
  0
LINE
  5
ED
100
AcDbEntity
  8
MAIN0
  6
BYBLOCK
 62
0
100
AcDbLine
 10
242.9519466112641
 20
331.3789252738141
 30
0.0000000000000000
 11
242.9519466112641
 21
346.4357070426129
 31
0.0000000000000000
  0
LINE
  5
EE
100
AcDbEntity
  8
MAIN0
  6
BYBLOCK
 62
0
100
AcDbLine
 10
242.9519466112641
 20
318.3789252738141
 30
0.0000000000000000
 11
242.9519466112641
 21
317.3789252738141
 31
0.0000000000000000
  0
LINE
  5
EF
100
AcDbEntity
  8
MAIN0
  6
BYBLOCK
 62
0
100
AcDbLine
 10
193.7868376117694
 20
320.3789252738141
 30
0.0000000000000000
 11
244.9519466112641
 21
320.3789252738141
 31
0.0000000000000000
  0
ENDBLK
  5
F0
100
AcDbEntity
  8
MAIN0
  6
CONTINUOUS
 62
3
100
AcDbBlockEnd
  0
BLOCK
  5
F2
100
AcDbEntity
  8
MAIN0
  6
CONTINUOUS
 62
3
100
AcDbBlockBegin
  2
*D16
 70
    65
 10
0.0
 20
0.0
 30
0.0
  0
LINE
  5
F3
100
AcDbEntity
  8
MAIN0
  6
BYBLOCK
 62
0
100
AcDbLine
 10
232.0868376117694
 20
378.3789252738141
 30
0.0000000000000000
 11
269.3516777830173
 21
378.3789252738141
 31
0.0000000000000000
  0
LINE
  5
F4
100
AcDbEntity
  8
MAIN0
  6
BYBLOCK
 62
0
100
AcDbLine
 10
267.3516777830173
 20
376.3789252738141
 30
0.0000000000000000
 11
267.3516777830173
 21
285.3789252738141
 31
0.0000000000000000
  0
INSERT
  5
F5
100
AcDbEntity
  8
MAIN0
  6
BYBLOCK
 62
0
100
AcDbBlockReference
  2
_OPEN
 10
267.3516777830173
 20
378.3789252738141
 30
0.0000000000000000
 41
2.000000000000000
 42
2.000000000000000
 43
2.000000000000000
 50
90.00000000000000
  0
INSERT
  5
F6
100
AcDbEntity
  8
MAIN0
  6
BYBLOCK
 62
0
100
AcDbBlockReference
  2
_OPEN
 10
267.3516777830173
 20
283.3789252738141
 30
0.0000000000000000
 41
2.000000000000000
 42
2.000000000000000
 43
2.000000000000000
 50
270.0000000000000
  0
LINE
  5
F7
100
AcDbEntity
  8
MAIN0
  6
BYBLOCK
 62
0
100
AcDbLine
 10
232.0868376117694
 20
283.3789252738141
 30
0.0000000000000000
 11
269.3516777830173
 21
283.3789252738141
 31
0.0000000000000000
  0
MTEXT
  5
F8
100
AcDbEntity
  8
MAIN0
  6
BYBLOCK
 62
0
100
AcDbMText
 10
265.3016778307010
 20
330.8789252738141
 30
0.0000000000000000
 40
3.099999904632568
 41
0.0000000000000000
 71
     5
 72
     1
  1
\A1;95
 11
6.123233995736766e-017
 21
1.000000000000000
 31
0.0000000000000000
  7
STANDARD
  0
ENDBLK
  5
F9
100
AcDbEntity
  8
MAIN0
  6
CONTINUOUS
 62
3
100
AcDbBlockEnd
  0
BLOCK
  5
FB
100
AcDbEntity
  8
MAIN0
  6
CONTINUOUS
 62
3
100
AcDbBlockBegin
  2
*D17
 70
    65
 10
0.0
 20
0.0
 30
0.0
  0
LINE
  5
FC
100
AcDbEntity
  8
MAIN0
  6
BYBLOCK
 62
0
100
AcDbLine
 10
232.0868376117694
 20
283.3789252738141
 30
0.0000000000000000
 11
257.0422633590955
 21
283.3789252738141
 31
0.0000000000000000
  0
LINE
  5
FD
100
AcDbEntity
  8
MAIN0
  6
BYBLOCK
 62
0
100
AcDbLine
 10
255.0422633590955
 20
285.3789252738141
 30
0.0000000000000000
 11
255.0422633590955
 21
327.3789252738141
 31
0.0000000000000000
  0
INSERT
  5
FE
100
AcDbEntity
  8
MAIN0
  6
BYBLOCK
 62
0
100
AcDbBlockReference
  2
_OPEN
 10
255.0422633590955
 20
283.3789252738141
 30
0.0000000000000000
 41
2.000000000000000
 42
2.000000000000000
 43
2.000000000000000
 50
270.0000000000000
  0
INSERT
  5
FF
100
AcDbEntity
  8
MAIN0
  6
BYBLOCK
 62
0
100
AcDbBlockReference
  2
_OPEN
 10
255.0422633590955
 20
329.3789252738141
 30
0.0000000000000000
 41
2.000000000000000
 42
2.000000000000000
 43
2.000000000000000
 50
90.00000000000000
  0
LINE
  5
100
100
AcDbEntity
  8
MAIN0
  6
BYBLOCK
 62
0
100
AcDbLine
 10
250.1935071215747
 20
329.3789252738141
 30
0.0000000000000000
 11
257.0422633590955
 21
329.3789252738141
 31
0.0000000000000000
  0
MTEXT
  5
101
100
AcDbEntity
  8
MAIN0
  6
BYBLOCK
 62
0
100
AcDbMText
 10
252.9922634067792
 20
306.3789252738141
 30
0.0000000000000000
 40
3.099999904632568
 41
0.0000000000000000
 71
     5
 72
     1
  1
\A1;46
 11
6.123233995736766e-017
 21
1.000000000000000
 31
0.0000000000000000
  7
STANDARD
  0
ENDBLK
  5
102
100
AcDbEntity
  8
MAIN0
  6
CONTINUOUS
 62
3
100
AcDbBlockEnd
  0
BLOCK
  5
104
100
AcDbEntity
  8
MAIN0
  6
CONTINUOUS
 62
3
100
AcDbBlockBegin
  2
*D18
 70
    65
 10
0.0
 20
0.0
 30
0.0
  0
LINE
  5
105
100
AcDbEntity
  8
MAIN0
  6
BYBLOCK
 62
0
100
AcDbLine
 10
250.1935071215747
 20
329.3789252738141
 30
0.0000000000000000
 11
257.0422633590955
 21
329.3789252738141
 31
0.0000000000000000
  0
LINE
  5
106
100
AcDbEntity
  8
MAIN0
  6
BYBLOCK
 62
0
100
AcDbLine
 10
255.0422633590955
 20
331.3789252738141
 30
0.0000000000000000
 11
255.0422633590955
 21
352.3789252738141
 31
0.0000000000000000
  0
INSERT
  5
107
100
AcDbEntity
  8
MAIN0
  6
BYBLOCK
 62
0
100
AcDbBlockReference
  2
_OPEN
 10
255.0422633590955
 20
329.3789252738141
 30
0.0000000000000000
 41
2.000000000000000
 42
2.000000000000000
 43
2.000000000000000
 50
270.0000000000000
  0
INSERT
  5
108
100
AcDbEntity
  8
MAIN0
  6
BYBLOCK
 62
0
100
AcDbBlockReference
  2
_OPEN
 10
255.0422633590955
 20
354.3789252738141
 30
0.0000000000000000
 41
2.000000000000000
 42
2.000000000000000
 43
2.000000000000000
 50
90.00000000000000
  0
LINE
  5
109
100
AcDbEntity
  8
MAIN0
  6
BYBLOCK
 62
0
100
AcDbLine
 10
250.1935071215747
 20
354.3789252738141
 30
0.0000000000000000
 11
257.0422633590955
 21
354.3789252738141
 31
0.0000000000000000
  0
MTEXT
  5
10A
100
AcDbEntity
  8
MAIN0
  6
BYBLOCK
 62
0
100
AcDbMText
 10
252.9922634067792
 20
341.8789252738141
 30
0.0000000000000000
 40
3.099999904632568
 41
0.0000000000000000
 71
     5
 72
     1
  1
\A1;25
 11
6.123233995736766e-017
 21
1.000000000000000
 31
0.0000000000000000
  7
STANDARD
  0
ENDBLK
  5
10B
100
AcDbEntity
  8
MAIN0
  6
CONTINUOUS
 62
3
100
AcDbBlockEnd
  0
BLOCK
  5
10D
100
AcDbEntity
  8
MAIN0
  6
CONTINUOUS
 62
3
100
AcDbBlockBegin
  2
*D19
 70
    65
 10
0.0
 20
0.0
 30
0.0
  0
LINE
  5
10E
100
AcDbEntity
  8
MAIN0
  6
BYBLOCK
 62
0
100
AcDbLine
 10
189.2868375998485
 20
373.1789252857350
 30
0.0000000000000000
 11
189.2868375998485
 21
401.3676649628570
 31
0.0000000000000000
  0
LINE
  5
10F
100
AcDbEntity
  8
MAIN0
  6
BYBLOCK
 62
0
100
AcDbLine
 10
191.2868375998485
 20
399.3676649628570
 30
0.0000000000000000
 11
229.2868375998485
 21
399.3676649628570
 31
0.0000000000000000
  0
INSERT
  5
110
100
AcDbEntity
  8
MAIN0
  6
BYBLOCK
 62
0
100
AcDbBlockReference
  2
_OPEN
 10
189.2868375998485
 20
399.3676649628570
 30
0.0000000000000000
 41
2.000000000000000
 42
2.000000000000000
 43
2.000000000000000
 50
180.0000000000000
  0
INSERT
  5
111
100
AcDbEntity
  8
MAIN0
  6
BYBLOCK
 62
0
100
AcDbBlockReference
  2
_OPEN
 10
231.2868375998485
 20
399.3676649628570
 30
0.0000000000000000
 41
2.000000000000000
 42
2.000000000000000
 43
2.000000000000000
 50
0.0000000000000000
  0
LINE
  5
112
100
AcDbEntity
  8
MAIN0
  6
BYBLOCK
 62
0
100
AcDbLine
 10
231.2868375998485
 20
379.1789252857350
 30
0.0000000000000000
 11
231.2868375998485
 21
401.3676649628570
 31
0.0000000000000000
  0
MTEXT
  5
113
100
AcDbEntity
  8
MAIN0
  6
BYBLOCK
 62
0
100
AcDbMText
 10
210.2868375998485
 20
401.4176649151733
 30
0.0000000000000000
 40
3.099999904632568
 41
0.0000000000000000
 71
     5
 72
     1
  1
\A1;42
 11
1.000000000000000
 21
0.0000000000000000
 31
0.0000000000000000
  7
STANDARD
  0
ENDBLK
  5
114
100
AcDbEntity
  8
MAIN0
  6
CONTINUOUS
 62
3
100
AcDbBlockEnd
  0
BLOCK
  5
128
100
AcDbEntity
  8
MAIN3
  6
CONTINUOUS
 62
3
100
AcDbBlockBegin
  2
*D20
 70
    65
 10
0.0
 20
0.0
 30
0.0
  0
LINE
  5
129
100
AcDbEntity
  8
MAIN3
  6
BYBLOCK
 62
0
100
AcDbLine
 10
323.2806214978435
 20
216.9419366072652
 30
0.0000000000000000
 11
401.5306214978440
 21
81.40896091500045
 31
0.0000000000000000
  0
INSERT
  5
12A
100
AcDbEntity
  8
MAIN3
  6
BYBLOCK
 62
0
100
AcDbBlockReference
  2
_OPEN
 10
322.2806214978435
 20
218.6739874148340
 30
0.0000000000000000
 41
2.000000000000000
 42
2.000000000000000
 43
2.000000000000000
 50
120.0000000000001
  0
INSERT
  5
12B
100
AcDbEntity
  8
MAIN3
  6
BYBLOCK
 62
0
100
AcDbBlockReference
  2
_OPEN
 10
402.5306214978440
 20
79.67691010743158
 30
0.0000000000000000
 41
2.000000000000000
 42
2.000000000000000
 43
2.000000000000000
 50
300.0000000000001
  0
LINE
  5
12C
100
AcDbEntity
  8
MAIN3
  6
BYBLOCK
 62
0
100
AcDbLine
 10
362.4056214978437
 20
149.1754487611328
 30
0.0000000000000000
 11
355.8695823105357
 21
137.8546968084542
 31
0.0000000000000000
  0
LINE
  5
12D
100
AcDbEntity
  8
MAIN3
  6
BYBLOCK
 62
0
100
AcDbLine
 10
355.8695823105357
 20
137.8546968084542
 30
0.0000000000000000
 11
344.3695823030851
 21
137.8546968084542
 31
0.0000000000000000
  0
LINE
  5
12E
100
AcDbEntity
  8
MAIN3
  6
BYBLOCK
 62
0
100
AcDbLine
 10
451.5562119643532
 20
107.9818479604512
 30
0.0000000000000000
 11
400.7985706902751
 21
78.67691010743158
 31
0.0000000000000000
  0
MTEXT
  5
12F
100
AcDbEntity
  8
MAIN3
  6
BYBLOCK
 62
0
100
AcDbMText
 10
350.1195823068104
 20
139.9046967607705
 30
0.0000000000000000
 40
3.099999904632568
 41
0.0000000000000000
 71
     5
 72
     1
  1
\A1;160.5
 11
1.000000000000000
 21
0.0000000000000000
 31
0.0000000000000000
  7
STANDARD
  0
ENDBLK
  5
130
100
AcDbEntity
  8
MAIN3
  6
CONTINUOUS
 62
3
100
AcDbBlockEnd
  0
BLOCK
  5
135
100
AcDbEntity
  8
MAIN0
  6
CONTINUOUS
 62
3
100
AcDbBlockBegin
  2
*D21
 70
    65
 10
0.0
 20
0.0
 30
0.0
  0
LINE
  5
136
100
AcDbEntity
  8
MAIN0
  6
BYBLOCK
 62
0
100
AcDbLine
 10
122.9736806598486
 20
280.3789252738141
 30
0.0000000000000000
 11
122.9736806598486
 21
254.3789252738141
 31
0.0000000000000000
  0
INSERT
  5
137
100
AcDbEntity
  8
MAIN0
  6
BYBLOCK
 62
0
100
AcDbBlockReference
  2
_OPEN
 10
122.9736806598486
 20
282.3789252738141
 30
0.0000000000000000
 41
2.000000000000000
 42
2.000000000000000
 43
2.000000000000000
 50
90.00000000000000
  0
INSERT
  5
138
100
AcDbEntity
  8
MAIN0
  6
BYBLOCK
 62
0
100
AcDbBlockReference
  2
_OPEN
 10
122.9736806598486
 20
252.3789252738141
 30
0.0000000000000000
 41
2.000000000000000
 42
2.000000000000000
 43
2.000000000000000
 50
270.0000000000000
  0
MTEXT
  5
139
100
AcDbEntity
  8
MAIN0
  6
BYBLOCK
 62
0
100
AcDbMText
 10
120.9236807075323
 20
267.3789252738141
 30
0.0000000000000000
 40
3.099999904632568
 41
0.0000000000000000
 71
     5
 72
     1
  1
\A1;\U+220530
 11
6.123233995736766e-017
 21
1.000000000000000
 31
0.0000000000000000
  7
STANDARD
  0
ENDBLK
  5
13A
100
AcDbEntity
  8
MAIN0
  6
CONTINUOUS
 62
3
100
AcDbBlockEnd
  0
BLOCK
  5
13C
100
AcDbEntity
  8
MAIN0
  6
CONTINUOUS
 62
3
100
AcDbBlockBegin
  2
*D22
 70
    65
 10
0.0
 20
0.0
 30
0.0
  0
LINE
  5
13D
100
AcDbEntity
  8
MAIN0
  6
BYBLOCK
 62
0
100
AcDbLine
 10
406.6400484490820
 20
267.3789252738141
 30
0.0000000000000000
 11
481.5320362914740
 21
221.1708074046020
 31
0.0000000000000000
  0
INSERT
  5
13E
100
AcDbEntity
  8
MAIN0
  6
BYBLOCK
 62
0
100
AcDbBlockReference
  2
_OPEN
 10
483.2341269242556
 20
220.1206229075744
 30
0.0000000000000000
 41
2.000000000000000
 42
2.000000000000000
 43
2.000000000000000
 50
328.3255464146661
  0
MTEXT
  5
13F
100
AcDbEntity
  8
MAIN0
  6
BYBLOCK
 62
0
100
AcDbMText
 10
472.0438209634581
 20
229.4338083727639
 30
0.0000000000000000
 40
3.099999904632568
 41
0.0000000000000000
 71
     5
 72
     1
  1
\A1;Ｒ90
 11
0.8510453163908186
 21
-0.5250922485137746
 31
0.0000000000000000
  7
KNJYOKO
  0
ARC
  5
140
100
AcDbEntity
  8
MAIN0
  6
BYBLOCK
 62
0
100
AcDbCircle
 10
406.6400484490821
 20
267.3789252738141
 30
0.0000000000000000
 40
90.00000000000000
100
AcDbArc
 50
323.8577892077921
 51
329.5987859594013
  0
ENDBLK
  5
141
100
AcDbEntity
  8
MAIN0
  6
CONTINUOUS
 62
3
100
AcDbBlockEnd
  0
BLOCK
  5
144
100
AcDbEntity
  8
MAIN0
  6
CONTINUOUS
 62
3
100
AcDbBlockBegin
  2
*D23
 70
    65
 10
0.0
 20
0.0
 30
0.0
  0
ARC
  5
145
100
AcDbEntity
  8
MAIN0
  6
BYBLOCK
 62
0
100
AcDbCircle
 10
406.6400484490822
 20
267.3789252738140
 30
0.0000000000000000
 40
101.0206139216944
100
AcDbArc
 50
301.1343383748884
 51
313.8656616250844
  0
INSERT
  5
146
100
AcDbEntity
  8
MAIN0
  6
BYBLOCK
 62
0
100
AcDbBlockReference
  2
_OPEN
 10
457.1503554099294
 20
179.8925073117267
 30
0.0000000000000000
 41
2.000000000000000
 42
2.000000000000000
 43
2.000000000000000
 50
210.0000000000000
  0
INSERT
  5
147
100
AcDbEntity
  8
MAIN0
  6
BYBLOCK
 62
0
100
AcDbBlockReference
  2
_OPEN
 10
478.0724095927067
 20
195.9465641301219
 30
0.0000000000000000
 41
2.000000000000000
 42
2.000000000000000
 43
2.000000000000000
 50
44.99999999997289
  0
MTEXT
  5
148
100
AcDbEntity
  8
MAIN0
  6
BYBLOCK
 62
0
100
AcDbMText
 10
466.4591955450050
 20
188.5319083981450
 30
0.0000000000000000
 40
3.099999904632568
 41
0.0000000000000000
 71
     5
 72
     1
  1
\A1;15\U+00B0
 11
0.7966709886235985
 21
0.6044132161737515
 31
0.0000000000000000
  7
STANDARD
  0
ENDBLK
  5
149
100
AcDbEntity
  8
MAIN0
  6
CONTINUOUS
 62
3
100
AcDbBlockEnd
  0
BLOCK
  5
167
100
AcDbEntity
  8
MAIN0
  6
CONTINUOUS
 62
3
100
AcDbBlockBegin
  2
*D24
 70
    65
 10
0.0
 20
0.0
 30
0.0
  0
LINE
  5
168
100
AcDbEntity
  8
MAIN0
  6
BYBLOCK
 62
0
100
AcDbLine
 10
189.2868375998485
 20
196.7671379594193
 30
0.0000000000000000
 11
190.2868375998485
 21
196.7671379594193
 31
0.0000000000000000
  0
INSERT
  5
169
100
AcDbEntity
  8
MAIN0
  6
BYBLOCK
 62
0
100
AcDbBlockReference
  2
_OPEN
 10
189.2868375998485
 20
196.7671379594193
 30
0.0000000000000000
 41
2.000000000000000
 42
2.000000000000000
 43
2.000000000000000
 50
0.0000000000000000
  0
INSERT
  5
16A
100
AcDbEntity
  8
MAIN0
  6
BYBLOCK
 62
0
100
AcDbBlockReference
  2
_OPEN
 10
190.2868375998485
 20
196.7671379594193
 30
0.0000000000000000
 41
2.000000000000000
 42
2.000000000000000
 43
2.000000000000000
 50
180.0000000000000
  0
LINE
  5
16B
100
AcDbEntity
  8
MAIN0
  6
BYBLOCK
 62
0
100
AcDbLine
 10
187.2868375998485
 20
196.7671379594193
 30
0.0000000000000000
 11
186.2868375998485
 21
196.7671379594193
 31
0.0000000000000000
  0
LINE
  5
16C
100
AcDbEntity
  8
MAIN0
  6
BYBLOCK
 62
0
100
AcDbLine
 10
192.2868375998485
 20
196.7671379594193
 30
0.0000000000000000
 11
198.5116625052440
 21
196.7671379594193
 31
0.0000000000000000
  0
LINE
  5
16D
100
AcDbEntity
  8
MAIN0
  6
BYBLOCK
 62
0
100
AcDbLine
 10
190.2868375998485
 20
210.0789252618824
 30
0.0000000000000000
 11
190.2868375998485
 21
194.7671379594193
 31
0.0000000000000000
  0
MTEXT
  5
16E
100
AcDbEntity
  8
MAIN0
  6
BYBLOCK
 62
0
100
AcDbMText
 10
195.8616626882960
 20
198.8171379117356
 30
0.0000000000000000
 40
3.099999904632568
 41
0.0000000000000000
 71
     5
 72
     1
  1
\A1;0.1
 11
1.000000000000000
 21
0.0000000000000000
 31
0.0000000000000000
  7
STANDARD
  0
ENDBLK
  5
16F
100
AcDbEntity
  8
MAIN0
  6
CONTINUOUS
 62
3
100
AcDbBlockEnd
  0
BLOCK
  5
171
100
AcDbEntity
  8
MAIN0
  6
CONTINUOUS
 62
3
100
AcDbBlockBegin
  2
D25
 70
    64
 10
0.0
 20
0.0
 30
0.0
  0
LINE
  5
172
100
AcDbEntity
  8
MAIN0
  6
BYBLOCK
 62
0
100
AcDbLine
 10
0.8013780940402135
 20
-32.79100483244974
 30
0.0000000000000000
 11
0.8013780940402135
 21
-56.50000000001081
 31
0.0000000000000000
  0
LINE
  5
173
100
AcDbEntity
  8
MAIN0
  6
BYBLOCK
 62
0
100
AcDbLine
 10
1.401378117882072
 20
-54.50000000001081
 30
0.0000000000000000
 11
0.8013780940402135
 21
-56.50000000001081
 31
0.0000000000000000
  0
LINE
  5
174
100
AcDbEntity
  8
MAIN0
  6
BYBLOCK
 62
0
100
AcDbLine
 10
0.8013780940402135
 20
-56.50000000001081
 30
0.0000000000000000
 11
0.2013780701983555
 21
-54.50000000001081
 31
0.0000000000000000
  0
LINE
  5
175
100
AcDbEntity
  8
MAIN0
  6
BYBLOCK
 62
0
100
AcDbLine
 10
-13.22514605204442
 20
-56.50000000001081
 30
0.0000000000000000
 11
2.801378094040214
 21
-56.50000000001081
 31
0.0000000000000000
  0
MTEXT
  5
176
100
AcDbEntity
  8
MAIN0
  6
BYBLOCK
 62
0
100
AcDbMText
 10
-1.248621858276071
 20
-39.24100483542998
 30
0.0000000000000000
 40
3.099999904632568
 41
0.0000000000000000
 71
     5
 72
     1
  1
\A1;\U+2205113
 11
6.123233995736766e-017
 21
1.000000000000000
 31
0.0000000000000000
  7
STANDARD
  0
ENDBLK
  5
177
100
AcDbEntity
  8
MAIN0
  6
CONTINUOUS
 62
3
100
AcDbBlockEnd
  0
BLOCK
  5
179
100
AcDbEntity
  8
MAIN0
  6
CONTINUOUS
 62
3
100
AcDbBlockBegin
  2
D26
 70
    64
 10
0.0
 20
0.0
 30
0.0
  0
LINE
  5
17A
100
AcDbEntity
  8
MAIN0
  6
BYBLOCK
 62
0
100
AcDbLine
 10
11.04692288104922
 20
-85.70296015353446
 30
0.0000000000000000
 11
11.04692288104922
 21
-105.0000000000000
 31
0.0000000000000000
  0
LINE
  5
17B
100
AcDbEntity
  8
MAIN0
  6
BYBLOCK
 62
0
100
AcDbLine
 10
11.64692290489108
 20
-103.0000000000000
 30
0.0000000000000000
 11
11.04692288104922
 21
-105.0000000000000
 31
0.0000000000000000
  0
LINE
  5
17C
100
AcDbEntity
  8
MAIN0
  6
BYBLOCK
 62
0
100
AcDbLine
 10
11.04692288104922
 20
-105.0000000000000
 30
0.0000000000000000
 11
10.44692285720737
 21
-103.0000000000000
 31
0.0000000000000000
  0
LINE
  5
17D
100
AcDbEntity
  8
MAIN0
  6
BYBLOCK
 62
0
100
AcDbLine
 10
-14.22514605204446
 20
-105.0000000000000
 30
0.0000000000000000
 11
13.04692288104922
 21
-105.0000000000000
 31
0.0000000000000000
  0
MTEXT
  5
17E
100
AcDbEntity
  8
MAIN0
  6
BYBLOCK
 62
0
100
AcDbMText
 10
8.996922928732939
 20
-90.15295991574595
 30
0.0000000000000000
 40
3.099999904632568
 41
0.0000000000000000
 71
     5
 72
     1
  1
\A1;\U+2205210
 11
6.123233995736766e-017
 21
1.000000000000000
 31
0.0000000000000000
  7
STANDARD
  0
ENDBLK
  5
17F
100
AcDbEntity
  8
MAIN0
  6
CONTINUOUS
 62
3
100
AcDbBlockEnd
  0
BLOCK
  5
181
100
AcDbEntity
  8
MAIN0
  6
CONTINUOUS
 62
3
100
AcDbBlockBegin
  2
*D27
 70
    65
 10
0.0
 20
0.0
 30
0.0
  0
LINE
  5
182
100
AcDbEntity
  8
MAIN0
  6
BYBLOCK
 62
0
100
AcDbLine
 10
188.5868375879275
 20
320.2789252738141
 30
0.0000000000000000
 11
173.6834932940701
 21
320.2789252738141
 31
0.0000000000000000
  0
LINE
  5
183
100
AcDbEntity
  8
MAIN0
  6
BYBLOCK
 62
0
100
AcDbLine
 10
175.6834932940701
 20
318.2789252738141
 30
0.0000000000000000
 11
175.6834932940701
 21
306.2789252738141
 31
0.0000000000000000
  0
INSERT
  5
184
100
AcDbEntity
  8
MAIN0
  6
BYBLOCK
 62
0
100
AcDbBlockReference
  2
_OPEN
 10
175.6834932940701
 20
320.2789252738141
 30
0.0000000000000000
 41
2.000000000000000
 42
2.000000000000000
 43
2.000000000000000
 50
90.00000000000000
  0
INSERT
  5
185
100
AcDbEntity
  8
MAIN0
  6
BYBLOCK
 62
0
100
AcDbBlockReference
  2
_OPEN
 10
175.6834932940701
 20
304.2789252738141
 30
0.0000000000000000
 41
2.000000000000000
 42
2.000000000000000
 43
2.000000000000000
 50
270.0000000000000
  0
LINE
  5
186
100
AcDbEntity
  8
MAIN0
  6
BYBLOCK
 62
0
100
AcDbLine
 10
188.5868375879275
 20
304.2789252738141
 30
0.0000000000000000
 11
173.6834932940701
 21
304.2789252738141
 31
0.0000000000000000
  0
MTEXT
  5
187
100
AcDbEntity
  8
MAIN0
  6
BYBLOCK
 62
0
100
AcDbMText
 10
173.6334933417538
 20
312.2789252738141
 30
0.0000000000000000
 40
3.099999904632568
 41
0.0000000000000000
 71
     5
 72
     1
  1
\A1;16
 11
6.123233995736766e-017
 21
1.000000000000000
 31
0.0000000000000000
  7
STANDARD
  0
ENDBLK
  5
188
100
AcDbEntity
  8
MAIN0
  6
CONTINUOUS
 62
3
100
AcDbBlockEnd
  0
BLOCK
  5
18A
100
AcDbEntity
  8
MAIN0
  6
CONTINUOUS
 62
3
100
AcDbBlockBegin
  2
*D28
 70
    65
 10
0.0
 20
0.0
 30
0.0
  0
LINE
  5
18B
100
AcDbEntity
  8
MAIN0
  6
BYBLOCK
 62
0
100
AcDbLine
 10
188.5868375879275
 20
304.2789252738141
 30
0.0000000000000000
 11
173.6834932940701
 21
304.2789252738141
 31
0.0000000000000000
  0
LINE
  5
18C
100
AcDbEntity
  8
MAIN0
  6
BYBLOCK
 62
0
100
AcDbLine
 10
175.6834932940701
 20
302.2789252738141
 30
0.0000000000000000
 11
175.6834932940701
 21
269.3789252738141
 31
0.0000000000000000
  0
INSERT
  5
18D
100
AcDbEntity
  8
MAIN0
  6
BYBLOCK
 62
0
100
AcDbBlockReference
  2
_OPEN
 10
175.6834932940701
 20
304.2789252738141
 30
0.0000000000000000
 41
2.000000000000000
 42
2.000000000000000
 43
2.000000000000000
 50
90.00000000000000
  0
INSERT
  5
18E
100
AcDbEntity
  8
MAIN0
  6
BYBLOCK
 62
0
100
AcDbBlockReference
  2
_OPEN
 10
175.6834932940701
 20
267.3789252738141
 30
0.0000000000000000
 41
2.000000000000000
 42
2.000000000000000
 43
2.000000000000000
 50
270.0000000000000
  0
MTEXT
  5
18F
100
AcDbEntity
  8
MAIN0
  6
BYBLOCK
 62
0
100
AcDbMText
 10
173.6334933417538
 20
292.4730966332160
 30
0.0000000000000000
 40
3.099999904632568
 41
0.0000000000000000
 71
     5
 72
     1
  1
\A1;MAX 36.9
 11
6.123233995736766e-017
 21
1.000000000000000
 31
0.0000000000000000
  7
STANDARD
  0
ENDBLK
  5
190
100
AcDbEntity
  8
MAIN0
  6
CONTINUOUS
 62
3
100
AcDbBlockEnd
  0
BLOCK
  5
192
100
AcDbEntity
  8
MAIN0
  6
CONTINUOUS
 62
3
100
AcDbBlockBegin
  2
*D29
 70
    65
 10
0.0
 20
0.0
 30
0.0
  0
LINE
  5
193
100
AcDbEntity
  8
MAIN0
  6
BYBLOCK
 62
0
100
AcDbLine
 10
191.3868375998485
 20
303.4789252618932
 30
0.0000000000000000
 11
191.3868375998485
 21
292.5012891503287
 31
0.0000000000000000
  0
LINE
  5
194
100
AcDbEntity
  8
MAIN0
  6
BYBLOCK
 62
0
100
AcDbLine
 10
191.3868375998485
 20
294.5012891503287
 30
0.0000000000000000
 11
189.3868375998486
 21
294.5012891503287
 31
0.0000000000000000
  0
INSERT
  5
195
100
AcDbEntity
  8
MAIN0
  6
BYBLOCK
 62
0
100
AcDbBlockReference
  2
_OPEN
 10
191.3868375998485
 20
294.5012891503287
 30
0.0000000000000000
 41
2.000000000000000
 42
2.000000000000000
 43
2.000000000000000
 50
180.0000000000000
  0
INSERT
  5
196
100
AcDbEntity
  8
MAIN0
  6
BYBLOCK
 62
0
100
AcDbBlockReference
  2
_OPEN
 10
189.3868375998486
 20
294.5012891503287
 30
0.0000000000000000
 41
2.000000000000000
 42
2.000000000000000
 43
2.000000000000000
 50
360.0000000000000
  0
LINE
  5
197
100
AcDbEntity
  8
MAIN0
  6
BYBLOCK
 62
0
100
AcDbLine
 10
193.3868375998485
 20
294.5012891503287
 30
0.0000000000000000
 11
194.3868375998485
 21
294.5012891503287
 31
0.0000000000000000
  0
LINE
  5
198
100
AcDbEntity
  8
MAIN0
  6
BYBLOCK
 62
0
100
AcDbLine
 10
187.3868375998486
 20
294.5012891503287
 30
0.0000000000000000
 11
184.9676142912853
 21
294.5012891503287
 31
0.0000000000000000
  0
MTEXT
  5
199
100
AcDbEntity
  8
MAIN0
  6
BYBLOCK
 62
0
100
AcDbMText
 10
186.0176144524626
 20
296.5512891026450
 30
0.0000000000000000
 40
3.099999904632568
 41
0.0000000000000000
 71
     5
 72
     1
  1
\A1;2
 11
1.000000000000000
 21
0.0000000000000000
 31
0.0000000000000000
  7
STANDARD
  0
ENDBLK
  5
19A
100
AcDbEntity
  8
MAIN0
  6
CONTINUOUS
 62
3
100
AcDbBlockEnd
  0
BLOCK
  5
1A1
100
AcDbEntity
  8
MAIN0
  6
CONTINUOUS
 62
3
100
AcDbBlockBegin
  2
*D30
 70
    65
 10
0.0
 20
0.0
 30
0.0
  0
LINE
  5
1A2
100
AcDbEntity
  8
MAIN0
  6
BYBLOCK
 62
0
100
AcDbLine
 10
370.2900276473586
 20
287.3789252738165
 30
0.0000000000000000
 11
382.9519252937354
 21
287.3789252738165
 31
0.0000000000000000
  0
LINE
  5
1A3
100
AcDbEntity
  8
MAIN0
  6
BYBLOCK
 62
0
100
AcDbLine
 10
380.9519252937354
 20
285.3789252738165
 30
0.0000000000000000
 11
380.9519252937354
 21
249.3789252738175
 31
0.0000000000000000
  0
INSERT
  5
1A4
100
AcDbEntity
  8
MAIN0
  6
BYBLOCK
 62
0
100
AcDbBlockReference
  2
_OPEN
 10
380.9519252937354
 20
287.3789252738165
 30
0.0000000000000000
 41
2.000000000000000
 42
2.000000000000000
 43
2.000000000000000
 50
90.00000000000000
  0
INSERT
  5
1A5
100
AcDbEntity
  8
MAIN0
  6
BYBLOCK
 62
0
100
AcDbBlockReference
  2
_OPEN
 10
380.9519252937354
 20
247.3789252738175
 30
0.0000000000000000
 41
2.000000000000000
 42
2.000000000000000
 43
2.000000000000000
 50
270.0000000000000
  0
LINE
  5
1A6
100
AcDbEntity
  8
MAIN0
  6
BYBLOCK
 62
0
100
AcDbLine
 10
370.2900276473561
 20
247.3789252738166
 30
0.0000000000000000
 11
382.9519252937354
 21
247.3789252738177
 31
0.0000000000000000
  0
MTEXT
  5
1A7
100
AcDbEntity
  8
MAIN0
  6
BYBLOCK
 62
0
100
AcDbMText
 10
378.9019253414191
 20
267.3789252738170
 30
0.0000000000000000
 40
3.099999904632568
 41
0.0000000000000000
 71
     5
 72
     1
  1
\A1;40
 11
6.123233995736766e-017
 21
1.000000000000000
 31
0.0000000000000000
  7
STANDARD
  0
ENDBLK
  5
1A8
100
AcDbEntity
  8
MAIN0
  6
CONTINUOUS
 62
3
100
AcDbBlockEnd
  0
BLOCK
  5
212
100
AcDbEntity
  8
MAIN0
  6
CONTINUOUS
 62
3
100
AcDbBlockBegin
  2
*D31
 70
    65
 10
0.0
 20
0.0
 30
0.0
  0
LINE
  5
213
100
AcDbEntity
  8
MAIN0
  6
BYBLOCK
 62
0
100
AcDbLine
 10
294.8400276235013
 20
284.8789252738142
 30
0.0000000000000000
 11
274.2128646194827
 21
284.8789252738142
 31
0.0000000000000000
  0
LINE
  5
214
100
AcDbEntity
  8
MAIN0
  6
BYBLOCK
 62
0
100
AcDbLine
 10
276.2128646194827
 20
282.8789252738142
 30
0.0000000000000000
 11
276.2128646194827
 21
251.8789252738141
 31
0.0000000000000000
  0
INSERT
  5
215
100
AcDbEntity
  8
MAIN0
  6
BYBLOCK
 62
0
100
AcDbBlockReference
  2
_OPEN
 10
276.2128646194827
 20
284.8789252738142
 30
0.0000000000000000
 41
2.000000000000000
 42
2.000000000000000
 43
2.000000000000000
 50
90.00000000000000
  0
INSERT
  5
216
100
AcDbEntity
  8
MAIN0
  6
BYBLOCK
 62
0
100
AcDbBlockReference
  2
_OPEN
 10
276.2128646194827
 20
249.8789252738141
 30
0.0000000000000000
 41
2.000000000000000
 42
2.000000000000000
 43
2.000000000000000
 50
270.0000000000000
  0
LINE
  5
217
100
AcDbEntity
  8
MAIN0
  6
BYBLOCK
 62
0
100
AcDbLine
 10
294.8400276235013
 20
249.8789252738141
 30
0.0000000000000000
 11
274.2128646194827
 21
249.8789252738141
 31
0.0000000000000000
  0
MTEXT
  5
218
100
AcDbEntity
  8
MAIN0
  6
BYBLOCK
 62
0
100
AcDbMText
 10
274.1628646671665
 20
267.3789252738142
 30
0.0000000000000000
 40
3.099999904632568
 41
0.0000000000000000
 71
     5
 72
     1
  1
\A1;35
 11
6.123233995736766e-017
 21
1.000000000000000
 31
0.0000000000000000
  7
STANDARD
  0
ENDBLK
  5
219
100
AcDbEntity
  8
MAIN0
  6
CONTINUOUS
 62
3
100
AcDbBlockEnd
  0
BLOCK
  5
2C2
100
AcDbEntity
  8
MAIN0
  6
CONTINUOUS
 62
3
100
AcDbBlockBegin
  2
*D32
 70
    65
 10
0.0
 20
0.0
 30
0.0
  0
LINE
  5
2C3
100
AcDbEntity
  8
MAIN0
  6
BYBLOCK
 62
0
100
AcDbLine
 10
504.4310646064201
 20
177.9999167655157
 30
0.0000000000000000
 11
519.7484650640978
 21
151.4694009329392
 31
0.0000000000000000
  0
LINE
  5
2C4
100
AcDbEntity
  8
MAIN0
  6
BYBLOCK
 62
0
100
AcDbLine
 10
517.0164142565290
 20
152.2014517405081
 30
0.0000000000000000
 11
451.1984835689116
 21
114.2014517405081
 31
0.0000000000000000
  0
INSERT
  5
2C5
100
AcDbEntity
  8
MAIN0
  6
BYBLOCK
 62
0
100
AcDbBlockReference
  2
_OPEN
 10
518.7484650640978
 20
153.2014517405081
 30
0.0000000000000000
 41
2.000000000000000
 42
2.000000000000000
 43
2.000000000000000
 50
30.00000000000000
  0
INSERT
  5
2C6
100
AcDbEntity
  8
MAIN0
  6
BYBLOCK
 62
0
100
AcDbBlockReference
  2
_OPEN
 10
449.4664327613427
 20
113.2014517405081
 30
0.0000000000000000
 41
2.000000000000000
 42
2.000000000000000
 43
2.000000000000000
 50
210.0000000000000
  0
LINE
  5
2C7
100
AcDbEntity
  8
MAIN0
  6
BYBLOCK
 62
0
100
AcDbLine
 10
435.1490323036651
 20
137.9999167655157
 30
0.0000000000000000
 11
450.4664327613427
 21
111.4694009329392
 31
0.0000000000000000
  0
MTEXT
  5
2C8
100
AcDbEntity
  8
MAIN0
  6
BYBLOCK
 62
0
100
AcDbMText
 10
483.0824489365621
 20
134.9768037769709
 30
0.0000000000000000
 40
3.099999904632568
 41
0.0000000000000000
 71
     5
 72
     1
  1
\A1;80
 11
0.8660254037844385
 21
0.5000000000000002
 31
0.0000000000000000
  7
STANDARD
  0
ENDBLK
  5
2C9
100
AcDbEntity
  8
MAIN0
  6
CONTINUOUS
 62
3
100
AcDbBlockEnd
  0
BLOCK
  5
2CB
100
AcDbEntity
  8
MAIN0
  6
CONTINUOUS
 62
3
100
AcDbBlockBegin
  2
*D33
 70
    65
 10
0.0
 20
0.0
 30
0.0
  0
LINE
  5
2CC
100
AcDbEntity
  8
MAIN0
  6
BYBLOCK
 62
0
100
AcDbLine
 10
451.2440937472312
 20
143.1224525943162
 30
0.0000000000000000
 11
460.3684255824290
 21
127.3186462706351
 31
0.0000000000000000
  0
LINE
  5
2CD
100
AcDbEntity
  8
MAIN0
  6
BYBLOCK
 62
0
100
AcDbLine
 10
461.1004763899979
 20
130.0506970782040
 30
0.0000000000000000
 11
498.3395687527288
 21
151.5506970782040
 31
0.0000000000000000
  0
INSERT
  5
2CE
100
AcDbEntity
  8
MAIN0
  6
BYBLOCK
 62
0
100
AcDbBlockReference
  2
_OPEN
 10
459.3684255824290
 20
129.0506970782040
 30
0.0000000000000000
 41
2.000000000000000
 42
2.000000000000000
 43
2.000000000000000
 50
210.0000000000000
  0
INSERT
  5
2CF
100
AcDbEntity
  8
MAIN0
  6
BYBLOCK
 62
0
100
AcDbBlockReference
  2
_OPEN
 10
500.0716195602977
 20
152.5506970782040
 30
0.0000000000000000
 41
2.000000000000000
 42
2.000000000000000
 43
2.000000000000000
 50
29.99999999999997
  0
LINE
  5
2D0
100
AcDbEntity
  8
MAIN0
  6
BYBLOCK
 62
0
100
AcDbLine
 10
492.5682778860227
 20
165.5468660845972
 30
0.0000000000000000
 11
501.0716195602977
 21
150.8186462706351
 31
0.0000000000000000
  0
MTEXT
  5
2D1
100
AcDbEntity
  8
MAIN0
  6
BYBLOCK
 62
0
100
AcDbMText
 10
478.6950225952052
 20
142.5760491146668
 30
0.0000000000000000
 40
3.099999904632568
 41
0.0000000000000000
 71
     5
 72
     1
  1
\A1;47
 11
0.8660254037844387
 21
0.4999999999999998
 31
0.0000000000000000
  7
STANDARD
  0
ENDBLK
  5
2D2
100
AcDbEntity
  8
MAIN0
  6
CONTINUOUS
 62
3
100
AcDbBlockEnd
  0
BLOCK
  5
2D4
100
AcDbEntity
  8
MAIN0
  6
CONTINUOUS
 62
3
100
AcDbBlockBegin
  2
*D34
 70
    65
 10
0.0
 20
0.0
 30
0.0
  0
LINE
  5
2D5
100
AcDbEntity
  8
MAIN0
  6
BYBLOCK
 62
0
100
AcDbLine
 10
406.6400484490821
 20
267.3789252738142
 30
0.0000000000000000
 11
415.7169862114998
 21
332.7517728548795
 31
0.0000000000000000
  0
INSERT
  5
2D6
100
AcDbEntity
  8
MAIN0
  6
BYBLOCK
 62
0
100
AcDbBlockReference
  2
_OPEN
 10
415.9920449315731
 20
334.7327682361239
 30
0.0000000000000000
 41
2.000000000000000
 42
2.000000000000000
 43
2.000000000000000
 50
82.09509392563105
  0
MTEXT
  5
2D7
100
AcDbEntity
  8
MAIN0
  6
BYBLOCK
 62
0
100
AcDbMText
 10
410.6237135629901
 20
310.9755147312022
 30
0.0000000000000000
 40
3.099999904632568
 41
0.0000000000000000
 71
     5
 72
     1
  1
\A1;Ｒ68
 11
0.1375293600366313
 21
0.9904976906222016
 31
0.0000000000000000
  7
KNJYOKO
  0
ENDBLK
  5
2D8
100
AcDbEntity
  8
MAIN0
  6
CONTINUOUS
 62
3
100
AcDbBlockEnd
  0
BLOCK
  5
2DA
100
AcDbEntity
  8
MAIN5
  6
CONTINUOUS
 62
3
100
AcDbBlockBegin
  2
*D35
 70
    65
 10
0.0
 20
0.0
 30
0.0
  0
LINE
  5
2DB
100
AcDbEntity
  8
MAIN5
  6
BYBLOCK
 62
0
100
AcDbLine
 10
426.7939096039360
 20
199.4714137849185
 30
0.0000000000000000
 11
422.5556221774567
 21
206.8123429446608
 31
0.0000000000000000
  0
LINE
  5
2DC
100
AcDbEntity
  8
MAIN5
  6
BYBLOCK
 62
0
100
AcDbLine
 10
425.2876729850256
 20
206.0802921370919
 30
0.0000000000000000
 11
450.4024096947743
 21
220.5802921370919
 31
0.0000000000000000
  0
INSERT
  5
2DD
100
AcDbEntity
  8
MAIN5
  6
BYBLOCK
 62
0
100
AcDbBlockReference
  2
_OPEN
 10
423.5556221774567
 20
205.0802921370919
 30
0.0000000000000000
 41
2.000000000000000
 42
2.000000000000000
 43
2.000000000000000
 50
210.0000000000000
  0
INSERT
  5
2DE
100
AcDbEntity
  8
MAIN5
  6
BYBLOCK
 62
0
100
AcDbBlockReference
  2
_OPEN
 10
452.1344605023432
 20
221.5802921370919
 30
0.0000000000000000
 41
2.000000000000000
 42
2.000000000000000
 43
2.000000000000000
 50
30.00000000000004
  0
LINE
  5
2DF
100
AcDbEntity
  8
MAIN5
  6
BYBLOCK
 62
0
100
AcDbLine
 10
456.2622323125712
 20
214.4307816397265
 30
0.0000000000000000
 11
451.1344605023432
 21
223.3123429446608
 31
0.0000000000000000
  0
MTEXT
  5
2E0
100
AcDbEntity
  8
MAIN5
  6
BYBLOCK
 62
0
100
AcDbMText
 10
439.7893543896635
 20
216.8199778483789
 30
0.0000000000000000
 40
3.099999904632568
 41
0.0000000000000000
 71
     5
 72
     1
  1
\A1;33
 11
0.8660254037844387
 21
0.4999999999999998
 31
0.0000000000000000
  7
STANDARD
  0
ENDBLK
  5
2E1
100
AcDbEntity
  8
MAIN5
  6
CONTINUOUS
 62
3
100
AcDbBlockEnd
  0
BLOCK
  5
2E3
100
AcDbEntity
  8
MAIN5
  6
CONTINUOUS
 62
3
100
AcDbBlockBegin
  2
*D36
 70
    65
 10
0.0
 20
0.0
 30
0.0
  0
LINE
  5
2E4
100
AcDbEntity
  8
MAIN5
  6
BYBLOCK
 62
0
100
AcDbLine
 10
406.6400484490821
 20
267.3789252738141
 30
0.0000000000000000
 11
421.4008458628931
 21
190.7883327724603
 31
0.0000000000000000
  0
INSERT
  5
2E5
100
AcDbEntity
  8
MAIN5
  6
BYBLOCK
 62
0
100
AcDbBlockReference
  2
_OPEN
 10
421.7793278478625
 20
188.8244714262717
 30
0.0000000000000000
 41
2.000000000000000
 42
2.000000000000000
 43
2.000000000000000
 50
280.9084927102423
  0
MTEXT
  5
2E6
100
AcDbEntity
  8
MAIN5
  6
BYBLOCK
 62
0
100
AcDbMText
 10
412.1967303154511
 20
227.7137543244729
 30
0.0000000000000000
 40
3.099999904632568
 41
0.0000000000000000
 71
     5
 72
     1
  1
\A1;Ｒ80
 11
-0.1892409924847559
 21
0.9819306730942794
 31
0.0000000000000000
  7
KNJYOKO
  0
ENDBLK
  5
2E7
100
AcDbEntity
  8
MAIN5
  6
CONTINUOUS
 62
3
100
AcDbBlockEnd
  0
BLOCK
  5
2E9
100
AcDbEntity
  8
MAIN0
  6
CONTINUOUS
 62
3
100
AcDbBlockBegin
  2
*D37
 70
    65
 10
0.0
 20
0.0
 30
0.0
  0
LINE
  5
2EA
100
AcDbEntity
  8
MAIN0
  6
BYBLOCK
 62
0
100
AcDbLine
 10
346.3805698719112
 20
171.7871095069426
 30
0.0000000000000000
 11
466.8995270262527
 21
362.9707410406855
 31
0.0000000000000000
  0
INSERT
  5
2EB
100
AcDbEntity
  8
MAIN0
  6
BYBLOCK
 62
0
100
AcDbBlockReference
  2
_OPEN
 10
345.3140304280674
 20
170.0952189623962
 30
0.0000000000000000
 41
2.000000000000000
 42
2.000000000000000
 43
2.000000000000000
 50
237.7733558604673
  0
INSERT
  5
2EC
100
AcDbEntity
  8
MAIN0
  6
BYBLOCK
 62
0
100
AcDbBlockReference
  2
_OPEN
 10
467.9660664700965
 20
364.6626315852319
 30
0.0000000000000000
 41
2.000000000000000
 42
2.000000000000000
 43
2.000000000000000
 50
57.77335586046726
  0
MTEXT
  5
2ED
100
AcDbEntity
  8
MAIN0
  6
BYBLOCK
 62
0
100
AcDbMText
 10
443.9041891370667
 20
330.3384787838849
 30
0.0000000000000000
 40
3.099999904632568
 41
0.0000000000000000
 71
     5
 72
     1
  1
\A1;\U+2205230\H0.903226x;\U+00B10.2
 11
0.5332697219218654
 21
0.8459452722731987
 31
0.0000000000000000
  7
STANDARD
  0
ENDBLK
  5
2EE
100
AcDbEntity
  8
MAIN0
  6
CONTINUOUS
 62
3
100
AcDbBlockEnd
  0
BLOCK
  5
2F0
100
AcDbEntity
  8
MAIN0
  6
CONTINUOUS
 62
3
100
AcDbBlockBegin
  2
*D38
 70
    65
 10
0.0
 20
0.0
 30
0.0
  0
LINE
  5
2F1
100
AcDbEntity
  8
MAIN0
  6
BYBLOCK
 62
0
100
AcDbLine
 10
438.5601936612015
 20
386.5065289911941
 30
0.0000000000000000
 11
441.2666081348170
 21
396.6070053131321
 31
0.0000000000000000
  0
ARC
  5
2F2
100
AcDbEntity
  8
MAIN0
  6
BYBLOCK
 62
0
100
AcDbCircle
 10
406.6400484490818
 20
267.3789252738147
 30
0.0000000000000000
 40
131.7867531047749
100
AcDbArc
 50
75.86952259114614
 51
89.13047740898162
  0
INSERT
  5
2F3
100
AcDbEntity
  8
MAIN0
  6
BYBLOCK
 62
0
100
AcDbBlockReference
  2
_OPEN
 10
440.7489700446151
 20
394.6751536605531
 30
0.0000000000000000
 41
2.000000000000000
 42
2.000000000000000
 43
2.000000000000000
 50
345.0000000000928
  0
INSERT
  5
2F4
100
AcDbEntity
  8
MAIN0
  6
BYBLOCK
 62
0
100
AcDbBlockReference
  2
_OPEN
 10
406.6400484490015
 20
399.1656783785896
 30
0.0000000000000000
 41
2.000000000000000
 42
2.000000000000000
 43
2.000000000000000
 50
180.0000000000349
  0
MTEXT
  5
2F5
100
AcDbEntity
  8
MAIN0
  6
BYBLOCK
 62
0
100
AcDbMText
 10
424.1092502045714
 20
400.0706863552428
 30
0.0000000000000000
 40
3.099999904632568
 41
0.0000000000000000
 71
     5
 72
     1
  1
\A1;15\U+00B0
 11
0.9914448613739559
 21
-0.1305261922189466
 31
0.0000000000000000
  7
STANDARD
  0
ENDBLK
  5
2F6
100
AcDbEntity
  8
MAIN0
  6
CONTINUOUS
 62
3
100
AcDbBlockEnd
  0
BLOCK
  5
2F8
100
AcDbEntity
  8
MAIN0
  6
CONTINUOUS
 62
3
100
AcDbBlockBegin
  2
*D39
 70
    65
 10
0.0
 20
0.0
 30
0.0
  0
LINE
  5
2F9
100
AcDbEntity
  8
MAIN0
  6
BYBLOCK
 62
0
100
AcDbLine
 10
300.3440774539392
 20
328.7489327417192
 30
0.0000000000000000
 11
290.7773215705509
 21
334.2723018262727
 31
0.0000000000000000
  0
ARC
  5
2FA
100
AcDbEntity
  8
MAIN0
  6
BYBLOCK
 62
0
100
AcDbCircle
 10
406.6400484490818
 20
267.3789252738147
 30
0.0000000000000000
 40
131.7867531047749
100
AcDbArc
 50
90.86952259108823
 51
149.1304774089118
  0
INSERT
  5
2FB
100
AcDbEntity
  8
MAIN0
  6
BYBLOCK
 62
0
100
AcDbBlockReference
  2
_OPEN
 10
406.6400484490015
 20
399.1656783785896
 30
0.0000000000000000
 41
2.000000000000000
 42
2.000000000000000
 43
2.000000000000000
 50
3.490185918053612e-011
  0
INSERT
  5
2FC
100
AcDbEntity
  8
MAIN0
  6
BYBLOCK
 62
0
100
AcDbBlockReference
  2
_OPEN
 10
292.5093723781191
 20
333.2723018262716
 30
0.0000000000000000
 41
2.000000000000000
 42
2.000000000000000
 43
2.000000000000000
 50
239.9999999999651
  0
MTEXT
  5
2FD
100
AcDbEntity
  8
MAIN0
  6
BYBLOCK
 62
0
100
AcDbMText
 10
339.7216719205362
 20
383.2849533812802
 30
0.0000000000000000
 40
3.099999904632568
 41
0.0000000000000000
 71
     5
 72
     1
  1
\A1;60\U+00B0
 11
0.8660254037844385
 21
0.5000000000000002
 31
0.0000000000000000
  7
STANDARD
  0
ENDBLK
  5
2FE
100
AcDbEntity
  8
MAIN0
  6
CONTINUOUS
 62
3
100
AcDbBlockEnd
  0
BLOCK
  5
300
100
AcDbEntity
  8
MAIN0
  6
CONTINUOUS
 62
3
100
AcDbBlockBegin
  2
*D40
 70
    65
 10
0.0
 20
0.0
 30
0.0
  0
ARC
  5
301
100
AcDbEntity
  8
MAIN0
  6
BYBLOCK
 62
0
100
AcDbCircle
 10
406.6400484490820
 20
267.3789252738143
 30
0.0000000000000000
 40
52.77612103446295
100
AcDbArc
 50
272.1712766452310
 51
297.8287233548040
  0
INSERT
  5
302
100
AcDbEntity
  8
MAIN0
  6
BYBLOCK
 62
0
100
AcDbBlockReference
  2
_OPEN
 10
406.6400484491142
 20
214.6028042393514
 30
0.0000000000000000
 41
2.000000000000000
 42
2.000000000000000
 43
2.000000000000000
 50
180.0000000000350
  0
INSERT
  5
303
100
AcDbEntity
  8
MAIN0
  6
BYBLOCK
 62
0
100
AcDbBlockReference
  2
_OPEN
 10
433.0281089663134
 20
221.6734637447671
 30
0.0000000000000000
 41
2.000000000000000
 42
2.000000000000000
 43
2.000000000000000
 50
30.00000000000000
  0
MTEXT
  5
304
100
AcDbEntity
  8
MAIN0
  6
BYBLOCK
 62
0
100
AcDbMText
 10
424.1467726812579
 20
219.7695357933857
 30
0.0000000000000000
 40
3.099999904632568
 41
0.0000000000000000
 71
     5
 72
     1
  1
\A1;30\U+00B0
 11
0.9385576595405212
 21
0.3451224706069124
 31
0.0000000000000000
  7
STANDARD
  0
ENDBLK
  5
305
100
AcDbEntity
  8
MAIN0
  6
CONTINUOUS
 62
3
100
AcDbBlockEnd
  0
BLOCK
  5
307
100
AcDbEntity
  8
MAIN0
  6
CONTINUOUS
 62
3
100
AcDbBlockBegin
  2
*D41
 70
    65
 10
0.0
 20
0.0
 30
0.0
  0
LINE
  5
308
100
AcDbEntity
  8
MAIN0
  6
BYBLOCK
 62
0
100
AcDbLine
 10
345.7089129406280
 20
229.8909167092201
 30
0.0000000000000000
 11
406.4589129406280
 21
124.6688301494108
 31
0.0000000000000000
  0
INSERT
  5
309
100
AcDbEntity
  8
MAIN0
  6
BYBLOCK
 62
0
100
AcDbBlockReference
  2
_OPEN
 10
344.7089129406280
 20
231.6229675167889
 30
0.0000000000000000
 41
2.000000000000000
 42
2.000000000000000
 43
2.000000000000000
 50
120.0000000000000
  0
INSERT
  5
30A
100
AcDbEntity
  8
MAIN0
  6
BYBLOCK
 62
0
100
AcDbBlockReference
  2
_OPEN
 10
407.4589129406280
 20
122.9367793418419
 30
0.0000000000000000
 41
2.000000000000000
 42
2.000000000000000
 43
2.000000000000000
 50
300.0000000000000
  0
LINE
  5
30B
100
AcDbEntity
  8
MAIN0
  6
BYBLOCK
 62
0
100
AcDbLine
 10
376.0839129406280
 20
177.2798734293154
 30
0.0000000000000000
 11
378.9943510539363
 21
182.3209001138506
 31
0.0000000000000000
  0
LINE
  5
30C
100
AcDbEntity
  8
MAIN0
  6
BYBLOCK
 62
0
100
AcDbLine
 10
378.9943510539362
 20
182.3209001138506
 30
0.0000000000000000
 11
390.4943510613868
 21
182.3209001138506
 31
0.0000000000000000
  0
LINE
  5
30D
100
AcDbEntity
  8
MAIN0
  6
BYBLOCK
 62
0
100
AcDbLine
 10
434.0562119643532
 20
138.2927370929066
 30
0.0000000000000000
 11
405.7268621330592
 21
121.9367793418419
 31
0.0000000000000000
  0
MTEXT
  5
30E
100
AcDbEntity
  8
MAIN0
  6
BYBLOCK
 62
0
100
AcDbMText
 10
384.7443510576615
 20
184.3709000661669
 30
0.0000000000000000
 40
3.099999904632568
 41
0.0000000000000000
 71
     5
 72
     1
  1
\A1;125.5
 11
1.000000000000000
 21
0.0000000000000000
 31
0.0000000000000000
  7
STANDARD
  0
ENDBLK
  5
30F
100
AcDbEntity
  8
MAIN0
  6
CONTINUOUS
 62
3
100
AcDbBlockEnd
  0
ENDSEC
  0
SECTION
  2
ENTITIES
  0
DIMENSION
  5
4E
100
AcDbEntity
  8
MAIN0
  6
CONTINUOUS
 62
3
100
AcDbDimension
  2
*D0
 10
43.90613606991778
 20
391.3789252738141
 30
0.0000000000000000
 11
43.40613606991778
 21
265.5789252246403
 31
0.0000000000000000
 70
32
  1
\A1;\U+2205248\H0.903226x;h7
  3
MAIN001
100
AcDbAlignedDimension
 13
83.28683759984843
 23
143.3789252738141
 33
0.0000000000000000
 14
83.28683759984843
 24
391.3789252738141
 34
0.0000000000000000
 50
90.00000000000000
100
AcDbRotatedDimension
1001
ACAD
1000
DSTYLE
1002
{
1070
   173
1070
     1
1070
     6
1000
_OPEN
1070
     7
1000
_OPEN
1070
    41
1040
2.000000
1002
}
  0
DIMENSION
  5
57
100
AcDbEntity
  8
MAIN6
  6
CONTINUOUS
 62
3
100
AcDbDimension
  2
*D1
 10
70.24770292105063
 20
285.3789252738141
 30
0.0000000000000000
 11
69.74770292105063
 21
265.5789252246403
 31
0.0000000000000000
 70
32
  1
\A1;\U+220536\H0.903226x;H7
  3
MAIN001
100
AcDbAlignedDimension
 13
83.28683759984843
 23
249.3789252738141
 33
0.0000000000000000
 14
83.28683759984843
 24
285.3789252738141
 34
0.0000000000000000
 50
90.00000000000000
100
AcDbRotatedDimension
1001
ACAD
1000
DSTYLE
1002
{
1070
   173
1070
     1
1070
     6
1000
_OPEN
1070
     7
1000
_OPEN
1070
    41
1040
2.000000
1002
}
  0
DIMENSION
  5
60
100
AcDbEntity
  8
MAIN0
  6
CONTINUOUS
 62
3
100
AcDbDimension
  2
*D2
 10
83.28683759984847
 20
131.1186933108076
 30
0.0000000000000000
 11
103.1831823484915
 21
131.6186933108076
 31
0.0000000000000000
 70
160
  3
MAIN001
100
AcDbAlignedDimension
 13
113.2868375998485
 23
138.1279048236835
 33
0.0000000000000000
 14
83.28683759984847
 24
143.3789252738141
 34
0.0000000000000000
100
AcDbRotatedDimension
1001
ACAD
1000
DSTYLE
1002
{
1070
   173
1070
     1
1070
     6
1000
_OPEN
1070
     7
1000
_OPEN
1070
    41
1040
2.000000
1002
}
  0
SPLINE
  5
61
100
AcDbEntity
  8
MAIN0
  6
CONTINUOUS
 62
3
100
AcDbSpline
210
0.0000000000000000
220
0.0000000000000000
230
1.000000000000000
 70
     8
 71
     3
 72
    22
 73
    18
 74
     0
 42
1.000000000000000e-007
 43
1.000000000000000e-007
 12
0.3801927564027352
 22
-0.05201273988967614
 32
0.0000000000000000
 13
0.7256377843449826
 23
0.7990773452330018
 33
0.0000000000000000
 40
0.0000000000000000
 40
0.0000000000000000
 40
0.0000000000000000
 40
0.0000000000000000
 40
4.909386513677288
 40
10.39544211419084
 40
15.39445764643070
 40
20.73698443674476
 40
25.18500618114909
 40
31.29442495223461
 40
43.07850668746746
 40
50.15342022915502
 40
65.23904918600582
 40
77.80525125611295
 40
86.45668184698261
 40
98.08375761349929
 40
106.4318834917185
 40
113.3588015245470
 40
118.5554360728236
 40
118.5554360728236
 40
118.5554360728236
 40
118.5554360728236
 10
83.28683759984847
 20
302.3894459652387
 30
0.0000000000000000
 10
83.90900866347559
 20
302.3043290839875
 30
0.0000000000000000
 10
86.31944315967493
 20
301.8773460195412
 30
0.0000000000000000
 10
90.12838443282875
 20
300.1575069307203
 30
0.0000000000000000
 10
94.34315321749418
 20
296.6231691905716
 30
0.0000000000000000
 10
95.34201604989808
 20
291.4391579427225
 30
0.0000000000000000
 10
99.51305170381767
 20
288.0356284497323
 30
0.0000000000000000
 10
103.9114388160283
 20
281.2719270663863
 30
0.0000000000000000
 10
113.6273898928455
 20
283.7359609900166
 30
0.0000000000000000
 10
124.6019630256310
 20
283.9161193339468
 30
0.0000000000000000
 10
136.3076373004498
 20
283.3876227027185
 30
0.0000000000000000
 10
148.3882316767562
 20
282.8649502745977
 30
0.0000000000000000
 10
159.2988720900719
 20
284.1149401203259
 30
0.0000000000000000
 10
168.9232613340405
 20
282.6332000392308
 30
0.0000000000000000
 10
177.6593662158809
 20
284.7886489995657
 30
0.0000000000000000
 10
184.9875711400110
 20
282.3088274056695
 30
0.0000000000000000
 10
188.0298794732945
 20
285.1713022294835
 30
0.0000000000000000
 10
189.2868375998485
 20
286.5554732091445
 30
0.0000000000000000
  0
SPLINE
  5
62
100
AcDbEntity
  8
MAIN0
  6
CONTINUOUS
 62
3
100
AcDbSpline
210
0.0000000000000000
220
0.0000000000000000
230
1.000000000000000
 70
     8
 71
     3
 72
    27
 73
    23
 74
     0
 42
1.000000000000000e-007
 43
1.000000000000000e-007
 12
0.4333738065033543
 22
0.2770590096159680
 32
0.0000000000000000
 13
0.6531757792914732
 23
-0.7494748493974157
 33
0.0000000000000000
 40
0.0000000000000000
 40
0.0000000000000000
 40
0.0000000000000000
 40
0.0000000000000000
 40
8.191520409043898
 40
14.81997147717807
 40
17.92970827963518
 40
22.36384397626530
 40
28.08110822747267
 40
32.17686624922024
 40
37.85298876211899
 40
44.62321059998431
 40
51.06479878709074
 40
57.05184816762939
 40
61.80550571795889
 40
73.42939831073986
 40
78.63393034337713
 40
86.80282903573607
 40
93.40143464125858
 40
101.9061976852666
 40
108.3477860184659
 40
113.7087552755155
 40
117.2938352506930
 40
118.4456492873456
 40
118.4456492873456
 40
118.4456492873456
 40
118.4456492873456
 10
83.28683759984847
 20
231.0037416702062
 30
0.0000000000000000
 10
84.47016772675423
 20
231.7602531807990
 30
0.0000000000000000
 10
87.52897235722895
 20
233.6928386803989
 30
0.0000000000000000
 10
91.56728341939925
 20
236.0886727706959
 30
0.0000000000000000
 10
94.45983256381584
 20
240.0487308367620
 30
0.0000000000000000
 10
99.34020954699886
 20
240.6414889318770
 30
0.0000000000000000
 10
101.7540837683197
 20
245.1133600341619
 30
0.0000000000000000
 10
103.9597669399364
 20
250.1520847545513
 30
0.0000000000000000
 10
110.1985739252613
 20
250.5017100626417
 30
0.0000000000000000
 10
116.2206777783627
 20
251.2717244519129
 30
0.0000000000000000
 10
122.6924069392694
 20
250.4798927583910
 30
0.0000000000000000
 10
128.3960505180756
 20
251.7392361777741
 30
0.0000000000000000
 10
135.7627941918272
 20
249.9278063295140
 30
0.0000000000000000
 10
143.0143603136042
 20
251.3425886021038
 30
0.0000000000000000
 10
151.2903779598210
 20
250.1173551803109
 30
0.0000000000000000
 10
157.9612585916487
 20
250.2200360600052
 30
0.0000000000000000
 10
165.7165612541987
 20
250.2735764118051
 30
0.0000000000000000
 10
172.8788136813765
 20
251.0940256010974
 30
0.0000000000000000
 10
179.6122674611050
 20
251.1456135915576
 30
0.0000000000000000
 10
184.8441876711085
 20
251.2254503615183
 30
0.0000000000000000
 10
187.9394325761023
 20
249.5547419069804
 30
0.0000000000000000
 10
189.0360585895193
 20
248.4333780243405
 30
0.0000000000000000
 10
189.2868375998492
 20
248.1456261404558
 30
0.0000000000000000
  0
LINE
  5
63
100
AcDbEntity
  8
MAIN0
  6
CONTINUOUS
 62
3
100
AcDbLine
 10
152.6853795387417
 20
372.8789252738141
 30
0.0000000000000000
 11
152.6853795387417
 21
372.3789252738142
 31
0.0000000000000000
  0
LINE
  5
64
100
AcDbEntity
  8
MAIN0
  6
PHANTOM
 62
3
100
AcDbLine
 10
143.2868375998485
 20
161.8789252738141
 30
0.0000000000000000
 11
143.2868375998485
 21
106.8789252738141
 31
0.0000000000000000
  0
LINE
  5
65
100
AcDbEntity
  8
MAIN0
  6
PHANTOM
 62
3
100
AcDbLine
 10
98.28683759984847
 20
106.8789252738141
 30
0.0000000000000000
 11
143.2868375998485
 21
106.8789252738141
 31
0.0000000000000000
  0
DIMENSION
  5
6E
100
AcDbEntity
  8
MAIN0
  6
CONTINUOUS
 62
3
100
AcDbDimension
  2
*D3
 10
83.28683759984847
 20
118.9319404282418
 30
0.0000000000000000
 11
90.78683759984847
 21
119.4319404282418
 31
0.0000000000000000
 70
32
  3
MAIN001
100
AcDbAlignedDimension
 13
98.28683759984847
 23
141.8789252738141
 33
0.0000000000000000
 14
83.28683759984847
 24
143.3789252738141
 34
0.0000000000000000
100
AcDbRotatedDimension
1001
ACAD
1000
DSTYLE
1002
{
1070
   173
1070
     1
1070
     6
1000
_OPEN
1070
     7
1000
_OPEN
1070
    41
1040
2.000000
1002
}
  0
DIMENSION
  5
77
100
AcDbEntity
  8
MAIN0
  6
CONTINUOUS
 62
3
100
AcDbDimension
  2
*D4
 10
98.28683759984847
 20
118.9319404282418
 30
0.0000000000000000
 11
113.2868375998485
 21
119.4319404282418
 31
0.0000000000000000
 70
32
  3
MAIN001
100
AcDbAlignedDimension
 13
128.2868375998485
 23
141.8789252738141
 33
0.0000000000000000
 14
98.28683759984847
 24
141.8789252738141
 34
0.0000000000000000
100
AcDbRotatedDimension
1001
ACAD
1000
DSTYLE
1002
{
1070
   173
1070
     1
1070
     6
1000
_OPEN
1070
     7
1000
_OPEN
1070
    41
1040
2.000000
1002
}
  0
DIMENSION
  5
80
100
AcDbEntity
  8
MAIN0
  6
CONTINUOUS
 62
3
100
AcDbDimension
  2
*D5
 10
128.2868375998485
 20
118.9319404282418
 30
0.0000000000000000
 11
158.7868375998485
 21
119.4319404282418
 31
0.0000000000000000
 70
32
  3
MAIN001
100
AcDbAlignedDimension
 13
189.2868375998485
 23
162.3789252738141
 33
0.0000000000000000
 14
128.2868375998485
 24
141.8789252738141
 34
0.0000000000000000
100
AcDbRotatedDimension
1001
ACAD
1000
DSTYLE
1002
{
1070
   173
1070
     1
1070
     6
1000
_OPEN
1070
     7
1000
_OPEN
1070
    41
1040
2.000000
1002
}
  0
DIMENSION
  5
89
100
AcDbEntity
  8
MAIN3
  6
CONTINUOUS
 62
3
100
AcDbDimension
  2
*D6
 10
98.28683759984847
 20
87.91110210215575
 30
0.0000000000000000
 11
120.7868375998485
 21
88.41110210215575
 31
0.0000000000000000
 70
32
  3
MAIN001
100
AcDbAlignedDimension
 13
143.2868375998485
 23
106.8789252738141
 33
0.0000000000000000
 14
98.28683759984847
 24
141.8789252738141
 34
0.0000000000000000
100
AcDbRotatedDimension
1001
ACAD
1000
DSTYLE
1002
{
1070
   173
1070
     1
1070
     6
1000
_OPEN
1070
     7
1000
_OPEN
1070
    41
1040
2.000000
1002
}
  0
DIMENSION
  5
92
100
AcDbEntity
  8
MAIN3
  6
CONTINUOUS
 62
3
100
AcDbDimension
  2
*D7
 10
171.2094977375041
 20
106.8789252738141
 30
0.0000000000000000
 11
170.7094977375041
 21
134.3789252738141
 31
0.0000000000000000
 70
32
  3
MAIN001
100
AcDbAlignedDimension
 13
143.2868375998485
 23
161.8789252738141
 33
0.0000000000000000
 14
143.2868375998485
 24
106.8789252738141
 34
0.0000000000000000
 50
90.00000000000000
100
AcDbRotatedDimension
1001
ACAD
1000
DSTYLE
1002
{
1070
   173
1070
     1
1070
     6
1000
_OPEN
1070
     7
1000
_OPEN
1070
    41
1040
2.000000
1002
}
  0
DIMENSION
  5
9B
100
AcDbEntity
  8
MAIN0
  6
CONTINUOUS
 62
3
100
AcDbDimension
  2
*D8
 10
83.28683759984847
 20
96.22025371583840
 30
0.0000000000000000
 11
136.2868375998485
 21
96.72025371583840
 31
0.0000000000000000
 70
32
  3
MAIN001
100
AcDbAlignedDimension
 13
189.2868375998485
 23
162.3789252738141
 33
0.0000000000000000
 14
83.28683759984847
 24
143.3789252738141
 34
0.0000000000000000
100
AcDbRotatedDimension
1001
ACAD
1000
DSTYLE
1002
{
1070
   173
1070
     1
1070
     6
1000
_OPEN
1070
     7
1000
_OPEN
1070
    41
1040
2.000000
1002
}
  0
DIMENSION
  5
A4
100
AcDbEntity
  8
MAIN0
  6
CONTINUOUS
 62
3
100
AcDbDimension
  2
*D9
 10
212.5630967350191
 20
63.70517111868418
 30
0.0000000000000000
 11
212.0630967350191
 21
54.90517106951035
 31
0.0000000000000000
 70
32
  1
\A1;14\H0.903226x;\SH8^ h8;
  3
MAIN001
100
AcDbAlignedDimension
 13
197.2868456407532
 23
49.70517111868423
 33
0.0000000000000000
 14
197.2868456407532
 24
63.70517111868412
 34
0.0000000000000000
 50
90.00000000000000
100
AcDbRotatedDimension
1001
ACAD
1000
DSTYLE
1002
{
1070
   173
1070
     1
1070
     6
1000
_OPEN
1070
     7
1000
_OPEN
1070
    41
1040
2.000000
1002
}
  0
DIMENSION
  5
AD
100
AcDbEntity
  8
MAIN0
  6
CONTINUOUS
 62
3
100
AcDbDimension
  2
*D10
 10
218.5420500942194
 20
74.20517111868418
 30
0.0000000000000000
 11
218.0420500942194
 21
56.70517111868418
 31
0.0000000000000000
 70
32
  3
MAIN001
100
AcDbAlignedDimension
 13
192.9868456407531
 23
39.20517111868418
 33
0.0000000000000000
 14
192.9868456407532
 24
74.20517111868418
 34
0.0000000000000000
 50
90.00000000000000
100
AcDbRotatedDimension
1001
ACAD
1000
DSTYLE
1002
{
1070
   173
1070
     1
1070
     6
1000
_OPEN
1070
     7
1000
_OPEN
1070
    41
1040
2.000000
1002
}
  0
DIMENSION
  5
B7
100
AcDbEntity
  8
MAIN0
  6
CONTINUOUS
 62
3
100
AcDbDimension
  2
*D11
 10
189.2868456407532
 20
19.85155669213049
 30
0.0000000000000000
 11
185.0284652200246
 21
20.35155669213046
 31
0.0000000000000000
 70
160
  3
MAIN001
100
AcDbAlignedDimension
 13
194.2868456407532
 23
39.95572646862965
 33
0.0000000000000000
 14
189.2868456407532
 24
27.83823307831753
 34
0.0000000000000000
100
AcDbRotatedDimension
1001
ACAD
1000
DSTYLE
1002
{
1070
   173
1070
     1
1070
     6
1000
_DOT
1070
     7
1000
_OPEN
1070
    41
1040
2.000000
1070
   287
1070
     0
1002
}
  0
DIMENSION
  5
C1
100
AcDbEntity
  8
MAIN0
  6
CONTINUOUS
 62
3
100
AcDbDimension
  2
*D12
 10
194.2868456407532
 20
19.85155669213049
 30
0.0000000000000000
 11
200.7625403714500
 21
20.35155669213049
 31
0.0000000000000000
 70
160
  3
MAIN001
100
AcDbAlignedDimension
 13
197.2868456407532
 23
49.70517111868421
 33
0.0000000000000000
 14
194.2868456407532
 24
39.95572646862965
 34
0.0000000000000000
100
AcDbRotatedDimension
1001
ACAD
1000
DSTYLE
1002
{
1070
   173
1070
     1
1070
     6
1000
_OPEN
1070
     7
1000
_DOT
1070
    41
1040
2.000000
1070
   287
1070
     0
1002
}
  0
LINE
  5
C2
100
AcDbEntity
  8
MAIN0
  6
CONTINUOUS
 62
3
100
AcDbLine
 10
88.38683759984846
 20
285.3789252738141
 30
0.0000000000000000
 11
88.38683759984846
 21
249.3789252738141
 31
0.0000000000000000
  0
DIMENSION
  5
CB
100
AcDbEntity
  8
MAIN6
  6
CONTINUOUS
 62
3
100
AcDbDimension
  2
*D13
 10
83.28683759984847
 20
272.4647965356857
 30
0.0000000000000000
 11
93.72885643532092
 21
272.9647965356857
 31
0.0000000000000000
 70
160
  3
MAIN001
100
AcDbAlignedDimension
 13
88.38683759984846
 23
285.3789252738141
 33
0.0000000000000000
 14
83.28683759984847
 24
391.3789252738141
 34
0.0000000000000000
100
AcDbRotatedDimension
1001
ACAD
1000
DSTYLE
1002
{
1070
   173
1070
     1
1070
     6
1000
_OPEN
1070
     7
1000
_OPEN
1070
    41
1040
2.000000
1070
   287
1070
     0
1002
}
  0
LINE
  5
CC
100
AcDbEntity
  8
MAIN0
  6
CENTER
 62
3
100
AcDbLine
 10
161.2345796887976
 20
329.3789252738141
 30
0.0000000000000000
 11
249.3935071096537
 21
329.3789252738141
 31
0.0000000000000000
  0
LINE
  5
CD
100
AcDbEntity
  8
MAIN0
  6
CONTINUOUS
 62
3
100
AcDbLine
 10
194.2868375998484
 20
283.3789252738141
 30
0.0000000000000000
 11
231.2868375998485
 21
283.3789252738141
 31
0.0000000000000000
  0
LINE
  5
CE
100
AcDbEntity
  8
MAIN0
  6
CONTINUOUS
 62
3
100
AcDbLine
 10
231.2868375998485
 20
283.3789252738141
 30
0.0000000000000000
 11
231.2868375998485
 21
378.3789252738141
 31
0.0000000000000000
  0
LINE
  5
CF
100
AcDbEntity
  8
MAIN0
  6
CENTER
 62
3
100
AcDbLine
 10
161.2345796887976
 20
354.3789252738141
 30
0.0000000000000000
 11
249.3935071096537
 21
354.3789252738141
 31
0.0000000000000000
  0
LINE
  5
D0
100
AcDbEntity
  8
MAIN0
  6
CONTINUOUS
 62
3
100
AcDbLine
 10
194.2868375998485
 20
378.3789252738141
 30
0.0000000000000000
 11
231.2868375998485
 21
378.3789252738141
 31
0.0000000000000000
  0
LINE
  5
D1
100
AcDbEntity
  8
MAIN0
  6
CONTINUOUS
 62
3
100
AcDbLine
 10
152.6853795387417
 20
372.8789252738141
 30
0.0000000000000000
 11
192.9868375998485
 21
372.8789252738141
 31
0.0000000000000000
  0
LINE
  5
D2
100
AcDbEntity
  8
MAIN0
  6
CONTINUOUS
 62
3
100
AcDbLine
 10
192.9868375998485
 20
372.8789252738141
 30
0.0000000000000000
 11
194.2868375998484
 21
372.1283699238682
 31
0.0000000000000000
  0
LINE
  5
D3
100
AcDbEntity
  8
MAIN0
  6
HIDDEN
 62
3
100
AcDbLine
 10
198.2868375998485
 20
378.3789252738141
 30
0.0000000000000000
 11
198.2868375998485
 21
283.3789252738141
 31
0.0000000000000000
  0
LINE
  5
D4
100
AcDbEntity
  8
MAIN0
  6
HIDDEN
 62
3
100
AcDbLine
 10
198.2868375998485
 20
360.8789252738141
 30
0.0000000000000000
 11
208.2868375998485
 21
360.8789252738141
 31
0.0000000000000000
  0
LINE
  5
D5
100
AcDbEntity
  8
MAIN0
  6
HIDDEN
 62
3
100
AcDbLine
 10
198.2868375998485
 20
347.8789252738141
 30
0.0000000000000000
 11
208.2868375998485
 21
347.8789252738141
 31
0.0000000000000000
  0
LINE
  5
D6
100
AcDbEntity
  8
MAIN0
  6
HIDDEN
 62
3
100
AcDbLine
 10
198.2868375998485
 20
335.8789252738141
 30
0.0000000000000000
 11
208.2868375998485
 21
335.8789252738141
 31
0.0000000000000000
  0
LINE
  5
D7
100
AcDbEntity
  8
MAIN0
  6
HIDDEN
 62
3
100
AcDbLine
 10
198.2868375998485
 20
322.8789252738141
 30
0.0000000000000000
 11
208.2868375998485
 21
322.8789252738141
 31
0.0000000000000000
  0
LINE
  5
D8
100
AcDbEntity
  8
MAIN0
  6
HIDDEN
 62
3
100
AcDbLine
 10
208.2868375998485
 20
363.8789252738141
 30
0.0000000000000000
 11
231.2868375998485
 21
363.8789252738141
 31
0.0000000000000000
  0
LINE
  5
D9
100
AcDbEntity
  8
MAIN0
  6
HIDDEN
 62
3
100
AcDbLine
 10
208.2868375998485
 20
344.8789252738141
 30
0.0000000000000000
 11
231.2868375998485
 21
344.8789252738141
 31
0.0000000000000000
  0
LINE
  5
DA
100
AcDbEntity
  8
MAIN0
  6
HIDDEN
 62
3
100
AcDbLine
 10
208.2868375998485
 20
338.8789252738141
 30
0.0000000000000000
 11
231.2868375998485
 21
338.8789252738141
 31
0.0000000000000000
  0
LINE
  5
DB
100
AcDbEntity
  8
MAIN0
  6
HIDDEN
 62
3
100
AcDbLine
 10
208.2868375998485
 20
319.8789252738141
 30
0.0000000000000000
 11
231.2868375998485
 21
319.8789252738141
 31
0.0000000000000000
  0
LINE
  5
DC
100
AcDbEntity
  8
MAIN0
  6
HIDDEN
 62
3
100
AcDbLine
 10
208.2868375998485
 20
338.8789252738141
 30
0.0000000000000000
 11
208.2868375998485
 21
319.8789252738141
 31
0.0000000000000000
  0
LINE
  5
DD
100
AcDbEntity
  8
MAIN0
  6
HIDDEN
 62
3
100
AcDbLine
 10
208.2868375998485
 20
363.8789252738141
 30
0.0000000000000000
 11
208.2868375998485
 21
344.8789252738141
 31
0.0000000000000000
  0
LINE
  5
DE
100
AcDbEntity
  8
MAIN0
  6
HIDDEN
 62
3
100
AcDbLine
 10
172.0868375998485
 20
318.3789252738141
 30
0.0000000000000000
 11
197.2868375998485
 21
318.3789252738141
 31
0.0000000000000000
  0
LINE
  5
DF
100
AcDbEntity
  8
MAIN0
  6
HIDDEN
 62
3
100
AcDbLine
 10
172.0868375998485
 20
366.3789252738141
 30
0.0000000000000000
 11
197.2868375998485
 21
366.3789252738141
 31
0.0000000000000000
  0
LINE
  5
E0
100
AcDbEntity
  8
MAIN0
  6
HIDDEN
 62
3
100
AcDbLine
 10
197.2868375998485
 20
318.3789252738141
 30
0.0000000000000000
 11
197.2868375998485
 21
366.3789252738141
 31
0.0000000000000000
  0
DIMENSION
  5
E8
100
AcDbEntity
  8
MAIN0
  6
CONTINUOUS
 62
3
100
AcDbDimension
  2
*D14
 10
242.9519466112641
 20
267.3789252738141
 30
0.0000000000000000
 11
242.4519466112641
 21
293.8789252738141
 31
0.0000000000000000
 70
32
  3
MAIN001
100
AcDbAlignedDimension
 13
192.9868375998485
 23
320.3789252738141
 33
0.0000000000000000
 14
204.3119836638139
 24
267.3789252738141
 34
0.0000000000000000
 50
90.00000000000000
100
AcDbRotatedDimension
1001
ACAD
1000
DSTYLE
1002
{
1070
   173
1070
     1
1070
     6
1000
_OPEN
1070
     7
1000
_OPEN
1070
    41
1040
2.000000
1002
}
  0
DIMENSION
  5
F1
100
AcDbEntity
  8
MAIN0
  6
CONTINUOUS
 62
3
100
AcDbDimension
  2
*D15
 10
242.9519466112641
 20
329.3789252738141
 30
0.0000000000000000
 11
242.4519466112641
 21
345.3857079462682
 31
0.0000000000000000
 70
160
  3
MAIN001
100
AcDbAlignedDimension
 13
192.9868375998485
 23
320.3789252738141
 33
0.0000000000000000
 14
161.2345796887976
 24
329.3789252738141
 34
0.0000000000000000
 50
90.00000000000000
100
AcDbRotatedDimension
1001
ACAD
1000
DSTYLE
1002
{
1070
   173
1070
     1
1070
     6
1000
_OPEN
1070
     7
1000
_OPEN
1070
    41
1040
2.000000
1070
   287
1070
     0
1002
}
  0
DIMENSION
  5
FA
100
AcDbEntity
  8
MAIN0
  6
CONTINUOUS
 62
3
100
AcDbDimension
  2
*D16
 10
267.3516777830173
 20
378.3789252738141
 30
0.0000000000000000
 11
266.8516777830173
 21
330.8789252738141
 31
0.0000000000000000
 70
32
  3
MAIN001
100
AcDbAlignedDimension
 13
231.2868375998485
 23
283.3789252738141
 33
0.0000000000000000
 14
231.2868375998485
 24
378.3789252738141
 34
0.0000000000000000
 50
90.00000000000000
100
AcDbRotatedDimension
1001
ACAD
1000
DSTYLE
1002
{
1070
   173
1070
     1
1070
     6
1000
_OPEN
1070
     7
1000
_OPEN
1070
    41
1040
2.000000
1002
}
  0
DIMENSION
  5
103
100
AcDbEntity
  8
MAIN0
  6
CONTINUOUS
 62
3
100
AcDbDimension
  2
*D17
 10
255.0422633590955
 20
283.3789252738141
 30
0.0000000000000000
 11
254.5422633590955
 21
306.3789252738141
 31
0.0000000000000000
 70
32
  3
MAIN001
100
AcDbAlignedDimension
 13
249.3935071096537
 23
329.3789252738141
 33
0.0000000000000000
 14
231.2868375998485
 24
283.3789252738141
 34
0.0000000000000000
 50
90.00000000000000
100
AcDbRotatedDimension
1001
ACAD
1000
DSTYLE
1002
{
1070
   173
1070
     1
1070
     6
1000
_OPEN
1070
     7
1000
_OPEN
1070
    41
1040
2.000000
1002
}
  0
DIMENSION
  5
10C
100
AcDbEntity
  8
MAIN0
  6
CONTINUOUS
 62
3
100
AcDbDimension
  2
*D18
 10
255.0422633590955
 20
329.3789252738141
 30
0.0000000000000000
 11
254.5422633590955
 21
341.8789252738141
 31
0.0000000000000000
 70
32
  3
MAIN001
100
AcDbAlignedDimension
 13
249.3935071096537
 23
354.3789252738141
 33
0.0000000000000000
 14
249.3935071096537
 24
329.3789252738141
 34
0.0000000000000000
 50
90.00000000000000
100
AcDbRotatedDimension
1001
ACAD
1000
DSTYLE
1002
{
1070
   173
1070
     1
1070
     6
1000
_OPEN
1070
     7
1000
_OPEN
1070
    41
1040
2.000000
1002
}
  0
DIMENSION
  5
115
100
AcDbEntity
  8
MAIN0
  6
CONTINUOUS
 62
3
100
AcDbDimension
  2
*D19
 10
189.2868375998485
 20
399.3676649628570
 30
0.0000000000000000
 11
210.2868375998485
 21
399.8676649628570
 31
0.0000000000000000
 70
32
  3
MAIN001
100
AcDbAlignedDimension
 13
231.2868375998485
 23
378.3789252738141
 33
0.0000000000000000
 14
189.2868375998485
 24
372.3789252738141
 34
0.0000000000000000
100
AcDbRotatedDimension
1001
ACAD
1000
DSTYLE
1002
{
1070
   173
1070
     1
1070
     6
1000
_OPEN
1070
     7
1000
_OPEN
1070
    41
1040
2.000000
1002
}
  0
MTEXT
  5
116
100
AcDbEntity
  8
MAIN0
  6
CONTINUOUS
 62
3
100
AcDbMText
 10
238.9359619935949
 20
292.4216019080529
 30
0.0000000000000000
 40
3.099999904632568
 41
0.0000000000000000
 71
     1
 72
     1
  1
{\H0.70x;{MAX 53}}
 11
6.123233995736766e-017
 21
1.000000000000000
 31
0.0000000000000000
  7
STANDARD
  0
MTEXT
  5
117
100
AcDbEntity
  8
MAIN0
  6
CONTINUOUS
 62
3
100
AcDbMText
 10
243.4533527525397
 20
292.4216019080529
 30
0.0000000000000000
 40
3.099999904632568
 41
0.0000000000000000
 71
     1
 72
     1
  1
{\H0.70x;{MIN 49.85}}
 11
6.123233995736766e-017
 21
1.000000000000000
 31
0.0000000000000000
  7
STANDARD
  0
MTEXT
  5
118
100
AcDbEntity
  8
MAIN0
  6
CONTINUOUS
 62
3
100
AcDbMText
 10
238.4003078490516
 20
330.8867575125451
 30
0.0000000000000000
 40
3.099999904632568
 41
0.0000000000000000
 71
     1
 72
     1
  1
{\H0.70x;{MAX 15}}
 11
6.123233995736766e-017
 21
1.000000000000000
 31
0.0000000000000000
  7
STANDARD
  0
MTEXT
  5
119
100
AcDbEntity
  8
MAIN0
  6
CONTINUOUS
 62
3
100
AcDbMText
 10
244.1229178790305
 20
330.8867575125451
 30
0.0000000000000000
 40
3.099999904632568
 41
0.0000000000000000
 71
     1
 72
     1
  1
{\H0.70x;{MIN  8.75}}
 11
6.123233995736766e-017
 21
1.000000000000000
 31
0.0000000000000000
  7
STANDARD
  0
LEADER
  5
11A
100
AcDbEntity
  8
MAIN0
  6
CONTINUOUS
 62
3
100
AcDbLeader
  3
MAIN001
 73
     0
 74
     0
 75
     1
 40
3.099999904632568
 41
30.70100001788146
 76
     3
 10
194.5868375998485
 20
368.4360308079785
 30
0.0000000000000000
 10
229.6648743255307
 20
404.7506601725909
 30
0.0000000000000000
 10
231.4498742728700
 20
404.7506601725909
 30
0.0000000000000000
340
11B
213
-0.001000000000033197
223
-0.5000000000000000
233
0.0000000000000000
1001
ACAD
1000
DSTYLE
1002
{
1070
   147
1040
0.0
1070
    77
1070
     1
1070
   173
1070
     1
1070
     6
1000
_OPEN
1070
     7
1000
_OPEN
1002
}
  0
MTEXT
  5
11B
102
{ACAD_REACTORS
330
11A
102
}
100
AcDbEntity
  8
MAIN0
  6
CONTINUOUS
 62
3
100
AcDbMText
 10
231.4508742728700
 20
408.3506600772234
 30
0.0000000000000000
 40
3.099999904632568
 41
0.0000000000000000
 71
     1
 72
     1
  1
{\H0.70x;{セレーションピッチ 1.5}}
 11
1.000000000000000
 21
0.0000000000000000
 31
0.0000000000000000
  7
KNJYOKO
  0
CIRCLE
  5
11C
100
AcDbEntity
  8
MAIN0
  6
CONTINUOUS
 62
3
100
AcDbCircle
 10
453.6137690074532
 20
164.0180546461725
 30
0.0000000000000000
 40
5.000000000000000
  0
LINE
  5
11D
100
AcDbEntity
  8
MAIN0
  6
CONTINUOUS
 62
3
100
AcDbLine
 10
452.1703933344792
 20
166.5180546461725
 30
0.0000000000000000
 11
450.7270176615052
 21
164.0180546461725
 31
0.0000000000000000
  0
LINE
  5
11E
100
AcDbEntity
  8
MAIN0
  6
CONTINUOUS
 62
3
100
AcDbLine
 10
450.7270176615052
 20
164.0180546461725
 30
0.0000000000000000
 11
452.1703933344792
 21
161.5180546461725
 31
0.0000000000000000
  0
LINE
  5
11F
100
AcDbEntity
  8
MAIN0
  6
CONTINUOUS
 62
3
100
AcDbLine
 10
452.1703933344792
 20
161.5180546461726
 30
0.0000000000000000
 11
455.0571446804273
 21
161.5180546461725
 31
0.0000000000000000
  0
LINE
  5
120
100
AcDbEntity
  8
MAIN0
  6
CONTINUOUS
 62
3
100
AcDbLine
 10
455.0571446804273
 20
161.5180546461725
 30
0.0000000000000000
 11
456.5005203534014
 21
164.0180546461725
 31
0.0000000000000000
  0
LINE
  5
121
100
AcDbEntity
  8
MAIN0
  6
CONTINUOUS
 62
3
100
AcDbLine
 10
456.5005203534014
 20
164.0180546461725
 30
0.0000000000000000
 11
455.0571446804274
 21
166.5180546461725
 31
0.0000000000000000
  0
LINE
  5
122
100
AcDbEntity
  8
MAIN0
  6
CONTINUOUS
 62
3
100
AcDbLine
 10
455.0571446804274
 20
166.5180546461725
 30
0.0000000000000000
 11
452.1703933344792
 21
166.5180546461725
 31
0.0000000000000000
  0
MTEXT
  5
123
100
AcDbEntity
  8
MAIN0
  6
CONTINUOUS
 62
3
100
AcDbMText
 10
497.1085941374558
 20
170.6721005162676
 30
0.0000000000000000
 40
4.000000000000000
 41
0.0000000000000000
 71
     1
 72
     1
  1
{\H0.91x;{開\POPEN}}
 11
0.8660254037844387
 21
0.4999999999999999
 31
0.0000000000000000
  7
KNJYOKO
  0
MTEXT
  5
124
100
AcDbEntity
  8
MAIN0
  6
CONTINUOUS
 62
3
100
AcDbMText
 10
445.7884650018984
 20
140.1915665240581
 30
0.0000000000000000
 40
4.000000000000000
 41
0.0000000000000000
 71
     1
 72
     1
  1
{\H0.92x;{閉\PCLOSE}}
 11
0.8660254037844387
 21
0.4999999999999999
 31
0.0000000000000000
  7
KNJYOKO
  0
LINE
  5
125
100
AcDbEntity
  8
MAIN0
  6
PHANTOM
 62
3
100
AcDbLine
 10
452.2490322977046
 20
108.3818479664117
 30
0.0000000000000000
 11
521.5310646004596
 21
148.3818479664117
 31
0.0000000000000000
  0
LINE
  5
126
100
AcDbEntity
  8
MAIN0
  6
PHANTOM
 62
3
100
AcDbLine
 10
444.6976350413215
 20
121.4612516826035
 30
0.0000000000000000
 11
452.2490322977046
 21
108.3818479664118
 31
0.0000000000000000
  0
LINE
  5
127
100
AcDbEntity
  8
MAIN0
  6
PHANTOM
 62
3
100
AcDbLine
 10
514.1963671425972
 20
161.0859166215760
 30
0.0000000000000000
 11
521.5310646004598
 21
148.3818479664117
 31
0.0000000000000000
  0
DIMENSION
  5
131
100
AcDbEntity
  8
MAIN3
  6
CONTINUOUS
 62
3
100
AcDbDimension
  2
*D20
 10
322.2806214978435
 20
218.6739874148340
 30
0.0000000000000000
 11
350.1195823068104
 21
138.3546968084542
 31
0.0000000000000000
 70
160
  3
MAIN001
100
AcDbAlignedDimension
 13
452.2490322977046
 23
108.3818479664117
 33
0.0000000000000000
 14
290.4600329803459
 24
200.3023620684844
 34
0.0000000000000000
 50
120.0000000000001
100
AcDbRotatedDimension
1001
ACAD
1000
DSTYLE
1002
{
1070
    73
1070
     1
1070
    74
1070
     1
1070
   287
1070
     4
1070
   173
1070
     1
1070
     6
1000
_OPEN
1070
     7
1000
_OPEN
1070
    41
1040
2.000000
1002
}
  0
LINE
  5
132
100
AcDbEntity
  8
MAIN0
  6
CENTER
 62
3
100
AcDbLine
 10
87.28295793866992
 20
154.3789252738141
 30
0.0000000000000000
 11
109.0364657571493
 21
154.3789252738141
 31
0.0000000000000000
  0
MTEXT
  5
133
100
AcDbEntity
  8
MAIN5
  6
CONTINUOUS
 62
3
100
AcDbMText
 10
326.8770545193585
 20
111.0723430842903
 30
0.0000000000000000
 40
3.099999904632568
 41
0.0000000000000000
 71
     1
 72
     1
  1
{\H0.70x;{マルチプレートに取付以外は\P止栓とする}}
 11
1.000000000000000
 21
0.0000000000000000
 31
0.0000000000000000
  7
KNJYOKO
  0
MTEXT
  5
134
100
AcDbEntity
  8
MAIN5
  6
CONTINUOUS
 62
3
100
AcDbMText
 10
321.9739541825280
 20
111.7139991250878
 30
0.0000000000000000
 40
8.000000000000000
 41
0.0000000000000000
 71
     1
 72
     1
  1
{\H0.92x;{(  　 )}}
 11
1.000000000000000
 21
0.0000000000000000
 31
0.0000000000000000
  7
KNJYOKO
  0
DIMENSION
  5
13B
100
AcDbEntity
  8
MAIN0
  6
CONTINUOUS
 62
3
100
AcDbDimension
  2
*D21
 10
122.9736806598486
 20
282.3789252738141
 30
0.0000000000000000
 11
122.4736806598486
 21
267.3789252738141
 31
0.0000000000000000
 70
32
  1
\A1;\U+220530
  3
MAIN001
100
AcDbAlignedDimension
 13
88.38683759984846
 23
252.3789252738141
 33
0.0000000000000000
 14
88.38683759984846
 24
282.3789252738141
 34
0.0000000000000000
 50
90.00000000000000
100
AcDbRotatedDimension
1001
ACAD
1000
DSTYLE
1002
{
1070
   173
1070
     1
1070
     6
1000
_OPEN
1070
     7
1000
_OPEN
1070
    41
1040
2.000000
1002
}
  0
DIMENSION
  5
142
100
AcDbEntity
  8
MAIN0
  6
CONTINUOUS
 62
3
100
AcDbDimension
  2
*D22
 10
406.6400484490820
 20
267.3789252738141
 30
0.0000000000000000
 11
471.2299280033001
 21
228.1146881729391
 31
0.0000000000000000
 70
164
  3
MAIN001
100
AcDbRadialDimension
 15
483.2341269242556
 25
220.1206229075744
 35
0.0000000000000000
1001
ACAD
1000
DSTYLE
1002
{
1070
   173
1070
     1
1070
     6
1000
_OPEN
1070
     7
1000
_OPEN
1070
    41
1040
2.000000
1070
   340
1005
143
1002
}
  0
DIMENSION
  5
14A
100
AcDbEntity
  8
MAIN0
  6
CONTINUOUS
 62
3
100
AcDbDimension
  2
*D23
 10
478.0724095927067
 20
195.9465641301219
 30
0.0000000000000000
 11
467.3960360012536
 21
187.2970684037666
 31
0.0000000000000000
 70
162
  3
MAIN001
100
AcDb2LineAngularDimension
 13
457.1503554099294
 23
179.8925073117266
 33
0.0000000000000000
 14
406.6400484490822
 24
267.3789252738139
 34
0.0000000000000000
 15
461.4314697381243
 25
212.5875039847200
 35
0.0000000000000000
 16
468.1375017393722
 26
187.2338837807519
 36
0.0000000000000000
1001
ACAD
1000
DSTYLE
1002
{
1070
   173
1070
     1
1070
     6
1000
_OPEN
1070
     7
1000
_OPEN
1070
    41
1040
2.000000
1002
}
  0
ARC
  5
14B
100
AcDbEntity
  8
MAIN0
  6
CONTINUOUS
 62
3
100
AcDbCircle
 10
180.0868456408299
 20
66.25517111868416
 30
0.0000000000000000
 40
1.200000000000000
100
AcDbArc
 50
0.0000000000000000
 51
90.00000000000000
  0
LINE
  5
14C
100
AcDbEntity
  8
MAIN0
  6
CONTINUOUS
 62
3
100
AcDbLine
 10
174.8682164905100
 20
67.45517111868418
 30
0.0000000000000000
 11
180.0868456408299
 21
67.45517111868418
 31
0.0000000000000000
  0
ARC
  5
14D
100
AcDbEntity
  8
MAIN0
  6
CONTINUOUS
 62
3
100
AcDbCircle
 10
174.8682164908289
 20
66.65517111868417
 30
0.0000000000000000
 40
0.8000000000000000
100
AcDbArc
 50
90.00000000000000
 51
134.9999999999978
  0
LINE
  5
14E
100
AcDbEntity
  8
MAIN0
  6
CONTINUOUS
 62
3
100
AcDbLine
 10
171.5211602158001
 20
64.43948569355374
 30
0.0000000000000000
 11
174.3025310658798
 21
67.22085654363349
 31
0.0000000000000000
  0
ARC
  5
14F
100
AcDbEntity
  8
MAIN0
  6
CONTINUOUS
 62
3
100
AcDbCircle
 10
172.0868456407492
 20
63.87380026860447
 30
0.0000000000000000
 40
0.8000000000000000
100
AcDbArc
 50
134.9999999999950
 51
180.0000000000000
  0
LINE
  5
150
100
AcDbEntity
  8
MAIN4
  6
CENTER
 62
3
100
AcDbLine
 10
480.8609387544478
 20
198.5708342097562
 30
0.0000000000000000
 11
468.6842905833493
 21
191.5406431103583
 31
0.0000000000000000
  0
LINE
  5
151
100
AcDbEntity
  8
MAIN4
  6
CENTER
 62
3
100
AcDbLine
 10
467.1932237663375
 20
202.6977490647021
 30
0.0000000000000000
 11
477.5388536397811
 21
184.7785924875953
 31
0.0000000000000000
  0
LINE
  5
152
100
AcDbEntity
  8
MAIN0
  6
CONTINUOUS
 62
3
100
AcDbLine
 10
175.2868456407524
 20
66.70517111880588
 30
0.0000000000000000
 11
171.7868456407527
 21
63.20517111880525
 31
0.0000000000000000
  0
LINE
  5
153
100
AcDbEntity
  8
MAIN0
  6
CONTINUOUS
 62
3
100
AcDbLine
 10
175.2868456407520
 20
66.70517111880548
 30
0.0000000000000000
 11
180.6868456407523
 21
66.70517111880645
 31
0.0000000000000000
  0
LINE
  5
154
100
AcDbEntity
  8
MAIN0
  6
CONTINUOUS
 62
3
100
AcDbLine
 10
180.6868456407523
 20
66.70517111880639
 30
0.0000000000000000
 11
181.2868456407524
 21
66.10517111880654
 31
0.0000000000000000
  0
LINE
  5
155
100
AcDbEntity
  8
MAIN0
  6
CONTINUOUS
 62
3
100
AcDbLine
 10
171.7868456407526
 20
63.20517111880514
 30
0.0000000000000000
 11
171.7868456407538
 21
50.20517111855895
 31
0.0000000000000000
  0
LINE
  5
156
100
AcDbEntity
  8
MAIN0
  6
CONTINUOUS
 62
3
100
AcDbLine
 10
171.7868456407537
 20
50.20517111855907
 30
0.0000000000000000
 11
175.2868456407540
 21
46.70517111855909
 31
0.0000000000000000
  0
LINE
  5
157
100
AcDbEntity
  8
MAIN0
  6
CONTINUOUS
 62
3
100
AcDbLine
 10
175.2868456407540
 20
46.70517111855907
 30
0.0000000000000000
 11
180.6868456407539
 21
46.70517111855907
 31
0.0000000000000000
  0
LINE
  5
158
100
AcDbEntity
  8
MAIN0
  6
CONTINUOUS
 62
3
100
AcDbLine
 10
181.2868456407539
 20
47.30517111855912
 30
0.0000000000000000
 11
180.6868456407539
 21
46.70517111855912
 31
0.0000000000000000
  0
LINE
  5
159
100
AcDbEntity
  8
MAIN0
  6
CONTINUOUS
 62
3
100
AcDbLine
 10
192.9868375998485
 20
284.1294806237600
 30
0.0000000000000000
 11
194.2868375998485
 21
283.3789252738141
 31
0.0000000000000000
  0
ARC
  5
15A
100
AcDbEntity
  8
MAIN0
  6
CENTER
 62
3
100
AcDbCircle
 10
406.6400484490821
 20
267.3789252738141
 30
0.0000000000000000
 40
115.0000000000001
100
AcDbArc
 50
86.26567891842637
 51
93.55812307559991
  0
LEADER
  5
15B
100
AcDbEntity
  8
MAIN2
  6
CONTINUOUS
 62
3
100
AcDbLeader
  3
MAIN001
 73
     0
 74
     0
 75
     1
 40
3.099999904632568
 41
18.10100000894070
 76
     3
 10
213.9602366481616
 20
360.8201206770987
 30
0.0000000000000000
 10
234.5460476188593
 20
386.3932179295313
 30
0.0000000000000000
 10
236.3310475661986
 20
386.3932179295313
 30
0.0000000000000000
340
15C
213
-0.001000000000004775
223
-0.5000000000000000
233
0.0000000000000000
1001
ACAD
1000
DSTYLE
1002
{
1070
   147
1040
0.0
1070
    77
1070
     1
1070
   173
1070
     1
1070
     6
1000
_DOT
1070
     7
1000
_DOT
1002
}
  0
MTEXT
  5
15C
102
{ACAD_REACTORS
330
15B
102
}
100
AcDbEntity
  8
MAIN2
  6
CONTINUOUS
 62
3
100
AcDbMText
 10
236.3320475661986
 20
389.9932178341639
 30
0.0000000000000000
 40
3.099999904632568
 41
0.0000000000000000
 71
     1
 72
     1
  1
{\H0.70x;{六角穴付ボルト\PM12×35}}
 11
1.000000000000000
 21
0.0000000000000000
 31
0.0000000000000000
  7
KNJYOKO
  0
LEADER
  5
15D
100
AcDbEntity
  8
MAIN2
  6
CONTINUOUS
 62
3
100
AcDbLeader
  3
MAIN001
 73
     0
 74
     0
 75
     1
 40
3.099999904632568
 41
15.50100000745059
 76
     3
 10
228.8159744471738
 20
356.8939642794263
 30
0.0000000000000000
 10
240.1700037732454
 20
366.1257418951592
 30
0.0000000000000000
 10
241.9550037205847
 20
366.1257418951592
 30
0.0000000000000000
340
15E
213
-0.001000000000004775
223
-0.5000000000000000
233
0.0000000000000000
1001
ACAD
1000
DSTYLE
1002
{
1070
   147
1040
0.0
1070
    77
1070
     1
1070
   173
1070
     1
1070
     6
1000
_DOT
1070
     7
1000
_DOT
1002
}
  0
MTEXT
  5
15E
102
{ACAD_REACTORS
330
15D
102
}
100
AcDbEntity
  8
MAIN2
  6
CONTINUOUS
 62
3
100
AcDbMText
 10
241.9560037205847
 20
369.7257417997918
 30
0.0000000000000000
 40
3.099999904632568
 41
0.0000000000000000
 71
     1
 72
     1
  1
{\H0.70x;{ソフトジョー\PSB08A1T}}
 11
1.000000000000000
 21
0.0000000000000000
 31
0.0000000000000000
  7
KNJYOKO
  0
LINE
  5
15F
100
AcDbEntity
  8
MAIN0
  6
PHANTOM
 62
3
100
AcDbLine
 10
181.2868375998485
 20
210.8789252738033
 30
0.0000000000000000
 11
190.2868375998485
 21
210.8789252738033
 31
0.0000000000000000
  0
LINE
  5
160
100
AcDbEntity
  8
MAIN0
  6
PHANTOM
 62
3
100
AcDbLine
 10
181.2868375998485
 20
210.8789252738033
 30
0.0000000000000000
 11
181.2868375998485
 21
221.3789252738141
 31
0.0000000000000000
  0
LINE
  5
161
100
AcDbEntity
  8
MAIN0
  6
PHANTOM
 62
3
100
AcDbLine
 10
182.2868375998484
 20
222.3789252738141
 30
0.0000000000000000
 11
181.2868375998485
 21
221.3789252738141
 31
0.0000000000000000
  0
LINE
  5
162
100
AcDbEntity
  8
MAIN0
  6
PHANTOM
 62
3
100
AcDbLine
 10
184.7868375998485
 20
222.3789252738142
 30
0.0000000000000000
 11
182.2868375998485
 21
222.3789252738142
 31
0.0000000000000000
  0
ARC
  5
163
100
AcDbEntity
  8
MAIN0
  6
PHANTOM
 62
3
100
AcDbCircle
 10
184.7868375998485
 20
223.3789252738142
 30
0.0000000000000000
 40
1.000000000000000
100
AcDbArc
 50
270.0000000000000
 51
360.0000000000000
  0
LINE
  5
164
100
AcDbEntity
  8
MAIN0
  6
PHANTOM
 62
3
100
AcDbLine
 10
185.7868375998485
 20
223.3789252738142
 30
0.0000000000000000
 11
185.7868375998485
 21
250.5377767022057
 31
0.0000000000000000
  0
LINE
  5
165
100
AcDbEntity
  8
MAIN0
  6
PHANTOM
 62
3
100
AcDbLine
 10
190.2868375998485
 20
210.8789252738033
 30
0.0000000000000000
 11
190.2868375998485
 21
242.8112872458194
 31
0.0000000000000000
  0
LINE
  5
166
100
AcDbEntity
  8
MAIN0
  6
CONTINUOUS
 62
3
100
AcDbLine
 10
189.3868375998486
 20
282.3789252738141
 30
0.0000000000000000
 11
189.3868375998486
 21
320.2789252738141
 31
0.0000000000000000
  0
DIMENSION
  5
170
100
AcDbEntity
  8
MAIN0
  6
CONTINUOUS
 62
3
100
AcDbDimension
  2
*D24
 10
189.2868375998485
 20
196.7671379594193
 30
0.0000000000000000
 11
195.8616626882960
 21
197.2671379594193
 31
0.0000000000000000
 70
160
  1
\A1;0.1
  3
MAIN001
100
AcDbAlignedDimension
 13
190.2868375998485
 23
210.8789252738033
 33
0.0000000000000000
 14
189.2868375998485
 24
162.3789252738141
 34
0.0000000000000000
100
AcDbRotatedDimension
1001
ACAD
1000
DSTYLE
1002
{
1070
   173
1070
     1
1070
     6
1000
_OPEN
1070
     7
1000
_OPEN
1070
    41
1040
2.000000
1070
   287
1070
     0
1002
}
  0
INSERT
  5
178
100
AcDbEntity
  8
MAIN0
  6
CONTINUOUS
 62
3
100
AcDbBlockReference
  2
D25
 10
204.3119836638139
 20
267.3789252738141
 30
0.0000000000000000
 50
0.0000000000000000
  0
INSERT
  5
180
100
AcDbEntity
  8
MAIN0
  6
CONTINUOUS
 62
3
100
AcDbBlockReference
  2
D26
 10
204.3119836638139
 20
267.3789252738141
 30
0.0000000000000000
 50
0.0000000000000000
  0
DIMENSION
  5
189
100
AcDbEntity
  8
MAIN0
  6
CONTINUOUS
 62
3
100
AcDbDimension
  2
*D27
 10
175.6834932940701
 20
320.2789252738141
 30
0.0000000000000000
 11
175.1834932940701
 21
312.2789252738141
 31
0.0000000000000000
 70
32
  3
MAIN001
100
AcDbAlignedDimension
 13
189.3868375998485
 23
304.2789252738141
 33
0.0000000000000000
 14
189.3868375998485
 24
320.2789252738141
 34
0.0000000000000000
 50
90.00000000000000
100
AcDbRotatedDimension
1001
ACAD
1000
DSTYLE
1002
{
1070
   173
1070
     1
1070
     6
1000
_OPEN
1070
     7
1000
_OPEN
1070
    41
1040
2.000000
1002
}
  0
DIMENSION
  5
191
100
AcDbEntity
  8
MAIN0
  6
CONTINUOUS
 62
3
100
AcDbDimension
  2
*D28
 10
175.6834932940701
 20
304.2789252738141
 30
0.0000000000000000
 11
175.1834932940701
 21
292.4730966332160
 31
0.0000000000000000
 70
160
  1
\A1;MAX 36.9
  3
MAIN001
100
AcDbAlignedDimension
 13
204.3119836638139
 23
267.3789252738141
 33
0.0000000000000000
 14
189.3868375998485
 24
304.2789252738141
 34
0.0000000000000000
 50
90.00000000000000
100
AcDbRotatedDimension
1001
ACAD
1000
DSTYLE
1002
{
1070
   173
1070
     1
1070
     6
1000
_OPEN
1070
     7
1000
_OPEN
1070
    41
1040
2.000000
1002
}
  0
DIMENSION
  5
19B
100
AcDbEntity
  8
MAIN0
  6
CONTINUOUS
 62
3
100
AcDbDimension
  2
*D29
 10
191.3868375998485
 20
294.5012891503287
 30
0.0000000000000000
 11
186.0176144524626
 21
295.0012891503287
 31
0.0000000000000000
 70
160
  3
MAIN001
100
AcDbAlignedDimension
 13
189.3868375998486
 23
282.3789252738141
 33
0.0000000000000000
 14
191.3868375998485
 24
304.2789252738141
 34
0.0000000000000000
100
AcDbRotatedDimension
1001
ACAD
1000
DSTYLE
1002
{
1070
   173
1070
     1
1070
     6
1000
_OPEN
1070
     7
1000
_OPEN
1070
    41
1040
2.000000
1070
   287
1070
     0
1002
}
  0
MTEXT
  5
19C
100
AcDbEntity
  8
MAIN0
  6
CONTINUOUS
 62
3
100
AcDbMText
 10
176.0603953712003
 20
284.5534888045820
 30
0.0000000000000000
 40
3.099999904632568
 41
0.0000000000000000
 71
     1
 72
     1
  1
{\H0.67x;{MIN 33.75}}
 11
6.123233995736766e-017
 21
1.000000000000000
 31
0.0000000000000000
  7
STANDARD
  0
LEADER
  5
19D
100
AcDbEntity
  8
MAIN0
  6
CONTINUOUS
 62
3
100
AcDbLeader
  3
MAIN001
 73
     0
 74
     0
 75
     1
 40
3.099999904632568
 41
23.30100001192093
 76
     3
 10
190.2868375998485
 20
236.6070524822069
 30
0.0000000000000000
 10
204.6619670946512
 20
251.8884789286891
 30
0.0000000000000000
 10
206.4469670419904
 20
251.8884789286891
 30
0.0000000000000000
340
19E
213
-0.001000000000004775
223
-0.5000000000000000
233
0.0000000000000000
1001
ACAD
1000
DSTYLE
1002
{
1070
   147
1040
0.0
1070
    77
1070
     1
1070
   173
1070
     1
1070
     6
1000
_OPEN
1070
     7
1000
_OPEN
1002
}
  0
MTEXT
  5
19E
102
{ACAD_REACTORS
330
19D
102
}
100
AcDbEntity
  8
MAIN0
  6
CONTINUOUS
 62
3
100
AcDbMText
 10
206.4479670419904
 20
255.4884788333217
 30
0.0000000000000000
 40
3.099999904632568
 41
0.0000000000000000
 71
     1
 72
     1
  1
{\H0.70x;{スリーブカバー端面}}
 11
1.000000000000000
 21
0.0000000000000000
 31
0.0000000000000000
  7
KNJYOKO
  0
LEADER
  5
19F
100
AcDbEntity
  8
MAIN0
  6
CONTINUOUS
 62
3
100
AcDbLeader
  3
MAIN001
 73
     0
 74
     0
 75
     1
 40
3.099999904632568
 41
12.90100000596047
 76
     3
 10
189.2868375998485
 20
175.4813466962779
 30
0.0000000000000000
 10
205.7535034756005
 20
147.6473140339847
 30
0.0000000000000000
 10
207.5385034229398
 20
147.6473140339847
 30
0.0000000000000000
340
1A0
213
-0.001000000000004775
223
-0.5000000000000000
233
0.0000000000000000
1001
ACAD
1000
DSTYLE
1002
{
1070
   147
1040
0.0
1070
    77
1070
     1
1070
   173
1070
     1
1070
     6
1000
_OPEN
1070
     7
1000
_OPEN
1002
}
  0
MTEXT
  5
1A0
102
{ACAD_REACTORS
330
19F
102
}
100
AcDbEntity
  8
MAIN0
  6
CONTINUOUS
 62
3
100
AcDbMText
 10
207.5395034229398
 20
151.2473139386173
 30
0.0000000000000000
 40
3.099999904632568
 41
0.0000000000000000
 71
     1
 72
     1
  1
{\H0.70x;{ボデー端面}}
 11
1.000000000000000
 21
0.0000000000000000
 31
0.0000000000000000
  7
KNJYOKO
  0
DIMENSION
  5
1A9
100
AcDbEntity
  8
MAIN0
  6
CONTINUOUS
 62
3
100
AcDbDimension
  2
*D30
 10
380.9519252937354
 20
287.3789252738165
 30
0.0000000000000000
 11
380.4519252937354
 21
267.3789252738170
 31
0.0000000000000000
 70
32
  3
MAIN001
100
AcDbAlignedDimension
 13
369.4900276354351
 23
247.3789252738165
 33
0.0000000000000000
 14
369.4900276354376
 24
287.3789252738165
 34
0.0000000000000000
 50
90.00000000000000
100
AcDbRotatedDimension
1001
ACAD
1000
DSTYLE
1002
{
1070
   173
1070
     1
1070
     6
1000
_OPEN
1070
     7
1000
_OPEN
1070
    41
1040
2.000000
1002
}
  0
MTEXT
  5
1AA
100
AcDbEntity
  8
MAIN0
  6
CONTINUOUS
 62
3
100
AcDbMText
 10
297.9494563020137
 20
42.80517102331845
 30
0.0000000000000000
 40
3.099999904632568
 41
0.0000000000000000
 71
     1
 72
     1
  1
{\H0.69x;{ 6}}
 11
1.000000000000000
 21
0.0000000000000000
 31
0.0000000000000000
  7
STANDARD
  0
MTEXT
  5
1AB
100
AcDbEntity
  8
MAIN0
  6
CONTINUOUS
 62
3
100
AcDbMText
 10
301.9494563020122
 20
72.30517102331811
 30
0.0000000000000000
 40
3.099999904632568
 41
0.0000000000000000
 71
     1
 72
     1
  1
{\H0.88x;{15}}
 11
1.000000000000000
 21
0.0000000000000000
 31
0.0000000000000000
  7
STANDARD
  0
MTEXT
  5
1AC
100
AcDbEntity
  8
MAIN0
  6
CONTINUOUS
 62
3
100
AcDbMText
 10
301.9494563020135
 20
65.30517102331811
 30
0.0000000000000000
 40
3.099999904632568
 41
0.0000000000000000
 71
     1
 72
     1
  1
{\H0.90x;{6.3}}
 11
1.000000000000000
 21
0.0000000000000000
 31
0.0000000000000000
  7
STANDARD
  0
MTEXT
  5
1AD
100
AcDbEntity
  8
MAIN0
  6
CONTINUOUS
 62
3
100
AcDbMText
 10
298.9494563020161
 20
53.30520435665147
 30
0.0000000000000000
 40
3.099999904632568
 41
0.0000000000000000
 71
     1
 72
     1
  1
{\H0.91x;{3365}}
 11
1.000000000000000
 21
0.0000000000000000
 31
0.0000000000000000
  7
STANDARD
  0
MTEXT
  5
1AE
100
AcDbEntity
  8
MAIN0
  6
CONTINUOUS
 62
3
100
AcDbMText
 10
301.9494563020161
 20
58.30520435665147
 30
0.0000000000000000
 40
3.099999904632568
 41
0.0000000000000000
 71
     1
 72
     1
  1
{\H0.88x;{33}}
 11
1.000000000000000
 21
0.0000000000000000
 31
0.0000000000000000
  7
STANDARD
  0
MTEXT
  5
1AF
100
AcDbEntity
  8
MAIN0
  6
CONTINUOUS
 62
3
100
AcDbMText
 10
301.9494563020149
 20
22.30517102247364
 30
0.0000000000000000
 40
3.099999904632568
 41
0.0000000000000000
 71
     1
 72
     1
  1
{\H0.81x;{26.7}}
 11
1.000000000000000
 21
0.0000000000000000
 31
0.0000000000000000
  7
STANDARD
  0
LINE
  5
1B0
100
AcDbEntity
  8
MAIN0
  6
CONTINUOUS
 62
3
100
AcDbLine
 10
243.5425593341691
 20
18.20522037478696
 30
0.0000000000000000
 11
323.9494563020155
 21
18.20522037478696
 31
0.0000000000000000
  0
MTEXT
  5
1B1
100
AcDbEntity
  8
MAIN0
  6
CONTINUOUS
 62
3
100
AcDbMText
 10
246.8215994983662
 20
73.56846500616990
 30
0.0000000000000000
 40
2.499999046325684
 41
0.0000000000000000
 71
     1
 72
     1
  1
{\H0.75x;{PLUNGER STROKE}}
 11
1.000000000000000
 21
0.0000000000000000
 31
0.0000000000000000
  7
STANDARD
  0
MTEXT
  5
1B2
100
AcDbEntity
  8
MAIN0
  6
CONTINUOUS
 62
3
100
AcDbMText
 10
246.8215994983662
 20
70.46846557837449
 30
0.0000000000000000
 40
2.399999618530273
 41
0.0000000000000000
 71
     1
 72
     1
  1
{\H0.93x;{プランジャストロ－ク}}
 11
1.000000000000000
 21
0.0000000000000000
 31
0.0000000000000000
  7
KNJYOKO
  0
MTEXT
  5
1B3
100
AcDbEntity
  8
MAIN0
  6
CONTINUOUS
 62
3
100
AcDbMText
 10
246.8215994983662
 20
66.56846500616990
 30
0.0000000000000000
 40
2.499999046325684
 41
0.0000000000000000
 71
     1
 72
     1
  1
{\H0.75x;{JAW STROKE (IN DIA)}}
 11
1.000000000000000
 21
0.0000000000000000
 31
0.0000000000000000
  7
STANDARD
  0
MTEXT
  5
1B4
100
AcDbEntity
  8
MAIN0
  6
CONTINUOUS
 62
3
100
AcDbMText
 10
246.8215994983662
 20
63.46846557837449
 30
0.0000000000000000
 40
2.399999618530273
 41
0.0000000000000000
 71
     1
 72
     1
  1
{\H0.94x;{ジョーストローク(直径で)}}
 11
1.000000000000000
 21
0.0000000000000000
 31
0.0000000000000000
  7
KNJYOKO
  0
MTEXT
  5
1B5
100
AcDbEntity
  8
MAIN0
  6
CONTINUOUS
 62
3
100
AcDbMText
 10
246.8215994983668
 20
46.20513262651144
 30
0.0000000000000000
 40
2.500000000000000
 41
0.0000000000000000
 71
     1
 72
     1
  1
{\H0.63x;{MAX PERMISSIBLE AIR PRESS}}
 11
1.000000000000000
 21
0.0000000000000000
 31
0.0000000000000000
  7
STANDARD
  0
MTEXT
  5
1B6
100
AcDbEntity
  8
MAIN0
  6
CONTINUOUS
 62
3
100
AcDbMText
 10
246.9535841664440
 20
43.10516131134517
 30
0.0000000000000000
 40
2.399999618530273
 41
0.0000000000000000
 71
     1
 72
     1
  1
{\H0.93x;{許容最大エア圧力}}
 11
1.000000000000000
 21
0.0000000000000000
 31
0.0000000000000000
  7
KNJYOKO
  0
MTEXT
  5
1B7
100
AcDbEntity
  8
MAIN0
  6
CONTINUOUS
 62
3
100
AcDbMText
 10
246.8215994983663
 20
24.70521426259057
 30
0.0000000000000000
 40
2.499999046325684
 41
0.0000000000000000
 71
     1
 72
     1
  1
{\H0.73x;{MASS}}
 11
1.000000000000000
 21
0.0000000000000000
 31
0.0000000000000000
  7
STANDARD
  0
MTEXT
  5
1B8
100
AcDbEntity
  8
MAIN0
  6
CONTINUOUS
 62
3
100
AcDbMText
 10
246.8215994983663
 20
21.60521483479516
 30
0.0000000000000000
 40
2.399999618530273
 41
0.0000000000000000
 71
     1
 72
     1
  1
{\H0.89x;{質量\P}
 11
1.000000000000000
 21
0.0000000000000000
 31
0.0000000000000000
  7
KNJYOKO
  0
MTEXT
  5
1B9
100
AcDbEntity
  8
MAIN0
  6
CONTINUOUS
 62
3
100
AcDbMText
 10
272.7214282676000
 20
51.20508833238426
 30
0.0000000000000000
 40
2.500000000000000
 41
0.0000000000000000
 71
     7
 72
     1
  1
{( 6 Kgf/cm}
 11
1.000000000000000
 21
0.0000000000000000
 31
0.0000000000000000
  7
STANDARD
  0
MTEXT
  5
1BA
100
AcDbEntity
  8
MAIN0
  6
CONTINUOUS
 62
3
100
AcDbMText
 10
287.7214282676000
 20
52.45508833238426
 30
0.0000000000000000
 40
1.250000000000000
 41
0.0000000000000000
 71
     7
 72
     1
  1
{2}
 11
1.000000000000000
 21
0.0000000000000000
 31
0.0000000000000000
  7
STANDARD
  0
MTEXT
  5
1BB
100
AcDbEntity
  8
MAIN0
  6
CONTINUOUS
 62
3
100
AcDbMText
 10
288.4714282676000
 20
51.20508833238426
 30
0.0000000000000000
 40
2.500000000000000
 41
0.0000000000000000
 71
     7
 72
     1
  1
{)}
 11
1.000000000000000
 21
0.0000000000000000
 31
0.0000000000000000
  7
STANDARD
  0
MTEXT
  5
1BC
100
AcDbEntity
  8
MAIN0
  6
CONTINUOUS
 62
3
100
AcDbMText
 10
246.8215601343925
 20
53.70508833238426
 30
0.0000000000000000
 40
2.500000000000000
 41
0.0000000000000000
 71
     1
 72
     1
  1
{\H0.59x;{(エア圧 0.6 MPa時)}}
 11
1.000000000000000
 21
0.0000000000000000
 31
0.0000000000000000
  7
KNJYOKO
  0
MTEXT
  5
1BD
100
AcDbEntity
  8
MAIN0
  6
CONTINUOUS
 62
3
100
AcDbMText
 10
246.8215994983662
 20
59.70513262651122
 30
0.0000000000000000
 40
2.500000000000000
 41
0.0000000000000000
 71
     1
 72
     1
  1
{\H0.63x;{MAX GRIPPING FORCE}}
 11
1.000000000000000
 21
0.0000000000000000
 31
0.0000000000000000
  7
STANDARD
  0
MTEXT
  5
1BE
100
AcDbEntity
  8
MAIN0
  6
CONTINUOUS
 62
3
100
AcDbMText
 10
246.8215994983662
 20
56.60513224504149
 30
0.0000000000000000
 40
2.399999618530273
 41
0.0000000000000000
 71
     1
 72
     1
  1
{\H0.93x;{最大把握力　　}}
 11
1.000000000000000
 21
0.0000000000000000
 31
0.0000000000000000
  7
KNJYOKO
  0
MTEXT
  5
1BF
100
AcDbEntity
  8
MAIN0
  6
CONTINUOUS
 62
3
100
AcDbMText
 10
246.8215601343925
 20
50.70512166571763
 30
0.0000000000000000
 40
2.500000000000000
 41
0.0000000000000000
 71
     1
 72
     1
  1
{\H0.62x;{(ON AIR PRESSURE OF 0.6 MPa)}}
 11
1.000000000000000
 21
0.0000000000000000
 31
0.0000000000000000
  7
STANDARD
  0
LINE
  5
1C0
100
AcDbEntity
  8
MAIN0
  6
CONTINUOUS
 62
3
100
AcDbLine
 10
323.9494563020122
 20
82.20517111868588
 30
0.0000000000000000
 11
243.6161229686791
 21
82.20517111868588
 31
0.0000000000000000
  0
LINE
  5
1C1
100
AcDbEntity
  8
MAIN0
  6
CONTINUOUS
 62
3
100
AcDbLine
 10
323.9494563020121
 20
74.20517111868588
 30
0.0000000000000000
 11
243.6161229686785
 21
74.20517111868588
 31
0.0000000000000000
  0
LINE
  5
1C2
100
AcDbEntity
  8
MAIN0
  6
CONTINUOUS
 62
3
100
AcDbLine
 10
323.9494563020116
 20
67.20517111868577
 30
0.0000000000000000
 11
243.6161229686785
 21
67.20517111868577
 31
0.0000000000000000
  0
LINE
  5
1C3
100
AcDbEntity
  8
MAIN0
  6
CONTINUOUS
 62
3
100
AcDbLine
 10
323.9494563020130
 20
60.20517111868577
 30
0.0000000000000000
 11
243.6161229686785
 21
60.20517111868577
 31
0.0000000000000000
  0
LINE
  5
1C4
100
AcDbEntity
  8
MAIN0
  6
CONTINUOUS
 62
3
100
AcDbLine
 10
323.9494563020138
 20
47.20517111868577
 30
0.0000000000000000
 11
243.6161229686805
 21
47.20517111868577
 31
0.0000000000000000
  0
LINE
  5
1C5
100
AcDbEntity
  8
MAIN0
  6
CONTINUOUS
 62
3
100
AcDbLine
 10
323.9494563020114
 20
39.20517111868600
 30
0.0000000000000000
 11
243.6161229686810
 21
39.20517111868600
 31
0.0000000000000000
  0
LINE
  5
1C6
100
AcDbEntity
  8
MAIN0
  6
CONTINUOUS
 62
3
100
AcDbLine
 10
323.9494563020151
 20
25.20517111868577
 30
0.0000000000000000
 11
243.6161229686787
 21
25.20517111868577
 31
0.0000000000000000
  0
LINE
  5
1C7
100
AcDbEntity
  8
MAIN0
  6
CONTINUOUS
 62
3
100
AcDbLine
 10
293.9494563020117
 20
74.20517111868588
 30
0.0000000000000000
 11
293.9494563020151
 21
18.20522037478696
 31
0.0000000000000000
  0
LINE
  5
1C8
100
AcDbEntity
  8
MAIN0
  6
CONTINUOUS
 62
3
100
AcDbLine
 10
323.9494563020118
 20
82.20517111868574
 30
0.0000000000000000
 11
323.9494563020158
 21
18.20522037478693
 31
0.0000000000000000
  0
LINE
  5
1C9
100
AcDbEntity
  8
MAIN0
  6
CONTINUOUS
 62
3
100
AcDbLine
 10
243.6161229686784
 20
82.20517111868571
 30
0.0000000000000000
 11
243.6161229686824
 21
18.20522037478690
 31
0.0000000000000000
  0
MTEXT
  5
1CA
100
AcDbEntity
  8
MAIN0
  6
CONTINUOUS
 62
4
100
AcDbMText
 10
308.9494563020122
 20
71.00517035574609
 30
0.0000000000000000
 40
2.799999237060547
 41
0.0000000000000000
 71
     1
 72
     1
  1
{\H0.58x;{　　　　ｍｍ}}
 11
1.000000000000000
 21
0.0000000000000000
 31
0.0000000000000000
  7
KNJYOKO
  0
MTEXT
  5
1CB
100
AcDbEntity
  8
MAIN0
  6
CONTINUOUS
 62
4
100
AcDbMText
 10
308.9494563020135
 20
64.00517035574609
 30
0.0000000000000000
 40
2.799999237060547
 41
0.0000000000000000
 71
     1
 72
     1
  1
{\H0.58x;{　　　　ｍｍ}}
 11
1.000000000000000
 21
0.0000000000000000
 31
0.0000000000000000
  7
KNJYOKO
  0
MTEXT
  5
1CC
100
AcDbEntity
  8
MAIN0
  6
CONTINUOUS
 62
4
100
AcDbMText
 10
295.9494563020161
 20
53.00520368907945
 30
0.0000000000000000
 40
2.799999237060547
 41
0.0000000000000000
 71
     1
 72
     1
  1
{\H0.60x;{(}}
 11
1.000000000000000
 21
0.0000000000000000
 31
0.0000000000000000
  7
STANDARD
  0
MTEXT
  5
1CD
100
AcDbEntity
  8
MAIN0
  6
CONTINUOUS
 62
4
100
AcDbMText
 10
307.9494563020161
 20
53.00520368907945
 30
0.0000000000000000
 40
2.799999237060547
 41
0.0000000000000000
 71
     1
 72
     1
  1
{\H0.60x;{　　　ｋｇｆ)}}
 11
1.000000000000000
 21
0.0000000000000000
 31
0.0000000000000000
  7
KNJYOKO
  0
MTEXT
  5
1CE
100
AcDbEntity
  8
MAIN0
  6
CONTINUOUS
 62
4
100
AcDbMText
 10
308.9494563020161
 20
57.00520368907945
 30
0.0000000000000000
 40
2.799999237060547
 41
0.0000000000000000
 71
     1
 72
     1
  1
{\H0.58x;{　　　　ｋＮ}}
 11
1.000000000000000
 21
0.0000000000000000
 31
0.0000000000000000
  7
KNJYOKO
  0
MTEXT
  5
1CF
100
AcDbEntity
  8
MAIN0
  6
CONTINUOUS
 62
4
100
AcDbMText
 10
295.9494563020137
 20
42.50517035574643
 30
0.0000000000000000
 40
2.799999237060547
 41
0.0000000000000000
 71
     1
 72
     1
  1
{\H0.60x;{(}}
 11
1.000000000000000
 21
0.0000000000000000
 31
0.0000000000000000
  7
STANDARD
  0
MTEXT
  5
1D0
100
AcDbEntity
  8
MAIN0
  6
CONTINUOUS
 62
4
100
AcDbMText
 10
308.9494563020137
 20
46.50517035574643
 30
0.0000000000000000
 40
2.799999237060547
 41
0.0000000000000000
 71
     1
 72
     1
  1
{\H0.58x;{　　　ＭＰａ}}
 11
1.000000000000000
 21
0.0000000000000000
 31
0.0000000000000000
  7
KNJYOKO
  0
MTEXT
  5
1D1
100
AcDbEntity
  8
MAIN0
  6
CONTINUOUS
 62
4
100
AcDbMText
 10
320.0027521353793
 20
42.91557514690834
 30
0.0000000000000000
 40
2.000000000000000
 41
0.0000000000000000
 71
     1
 72
     1
  1
{\H0.81x;{2}}
 11
1.000000000000000
 21
0.0000000000000000
 31
0.0000000000000000
  7
STANDARD
  0
MTEXT
  5
1D2
100
AcDbEntity
  8
MAIN0
  6
CONTINUOUS
 62
4
100
AcDbMText
 10
307.9494563020137
 20
42.50517035574643
 30
0.0000000000000000
 40
2.799999237060547
 41
0.0000000000000000
 71
     1
 72
     1
  1
{\H0.62x;{ｋｇｆ／ｃｍ )}}
 11
1.000000000000000
 21
0.0000000000000000
 31
0.0000000000000000
  7
KNJYOKO
  0
MTEXT
  5
1D3
100
AcDbEntity
  8
MAIN0
  6
CONTINUOUS
 62
4
100
AcDbMText
 10
308.9494563020153
 20
22.00521961184705
 30
0.0000000000000000
 40
2.799999237060547
 41
0.0000000000000000
 71
     1
 72
     1
  1
{\H0.58x;{　　　　ｋｇ}}
 11
1.000000000000000
 21
0.0000000000000000
 31
0.0000000000000000
  7
KNJYOKO
  0
MTEXT
  5
1D4
100
AcDbEntity
  8
MAIN0
  6
CONTINUOUS
 62
3
100
AcDbMText
 10
265.6843705756248
 20
81.56529567126796
 30
0.0000000000000000
 40
3.100000381469727
 41
0.0000000000000000
 71
     1
 72
     1
  1
{\H0.94x;{SPECIFICATIONS}}
 11
1.000000000000000
 21
0.0000000000000000
 31
0.0000000000000000
  7
STANDARD
  0
MTEXT
  5
1D5
100
AcDbEntity
  8
MAIN0
  6
CONTINUOUS
 62
3
100
AcDbMText
 10
275.4875636646483
 20
78.02076016379971
 30
0.0000000000000000
 40
3.100000381469727
 41
0.0000000000000000
 71
     1
 72
     1
  1
{\H0.93x;{仕　　　様}}
 11
1.000000000000000
 21
0.0000000000000000
 31
0.0000000000000000
  7
KNJYOKO
  0
MTEXT
  5
1D6
100
AcDbEntity
  8
MAIN0
  6
CONTINUOUS
 62
3
100
AcDbMText
 10
246.8215994983686
 20
38.20513262651133
 30
0.0000000000000000
 40
2.000000000000000
 41
0.0000000000000000
 71
     1
 72
     1
  1
{\H0.63x;{AIR CONSUMPTION (PER 10mm OF PLUNGER }}
 11
1.000000000000000
 21
0.0000000000000000
 31
0.0000000000000000
  7
STANDARD
  0
MTEXT
  5
1D7
100
AcDbEntity
  8
MAIN0
  6
CONTINUOUS
 62
3
100
AcDbMText
 10
246.8215994983689
 20
31.60513224504172
 30
0.0000000000000000
 40
2.399999618530273
 41
0.0000000000000000
 71
     1
 72
     1
  1
{\H0.92x;{空気消費量}}
 11
1.000000000000000
 21
0.0000000000000000
 31
0.0000000000000000
  7
KNJYOKO
  0
MTEXT
  5
1D8
100
AcDbEntity
  8
MAIN0
  6
CONTINUOUS
 62
3
100
AcDbMText
 10
246.8215994983686
 20
28.70513262651144
 30
0.0000000000000000
 40
2.500000000000000
 41
0.0000000000000000
 71
     1
 72
     1
  1
{\H0.59x;{(プランジャストローク10mm当り圧力0.6MPa時)}}
 11
1.000000000000000
 21
0.0000000000000000
 31
0.0000000000000000
  7
KNJYOKO
  0
MTEXT
  5
1D9
100
AcDbEntity
  8
MAIN0
  6
CONTINUOUS
 62
3
100
AcDbMText
 10
246.8215994983686
 20
35.20513262651133
 30
0.0000000000000000
 40
2.000000000000000
 41
0.0000000000000000
 71
     1
 72
     1
  1
{\H0.62x;{STROKE ON PRESSURE OF 0.6MPa)}}
 11
1.000000000000000
 21
0.0000000000000000
 31
0.0000000000000000
  7
STANDARD
  0
MTEXT
  5
1DA
100
AcDbEntity
  8
MAIN0
  6
CONTINUOUS
 62
4
100
AcDbMText
 10
308.9494563020141
 20
34.00517035574995
 30
0.0000000000000000
 40
2.799999237060547
 41
0.0000000000000000
 71
     1
 72
     1
  1
{\H0.58x;{　　　　Ｎ}}
 11
1.000000000000000
 21
0.0000000000000000
 31
0.0000000000000000
  7
KNJYOKO
  0
MTEXT
  5
1DB
100
AcDbEntity
  8
MAIN0
  6
CONTINUOUS
 62
3
100
AcDbMText
 10
301.9494563020138
 20
46.80517102331845
 30
0.0000000000000000
 40
3.099999904632568
 41
0.0000000000000000
 71
     1
 72
     1
  1
{\H0.76x;{0.6}}
 11
1.000000000000000
 21
0.0000000000000000
 31
0.0000000000000000
  7
STANDARD
  0
MTEXT
  5
1DC
100
AcDbEntity
  8
MAIN0
  6
CONTINUOUS
 62
3
100
AcDbMText
 10
301.9494563020141
 20
34.30517102332198
 30
0.0000000000000000
 40
3.099999904632568
 41
0.0000000000000000
 71
     1
 72
     1
  1
{\H0.81x;{1.81}}
 11
1.000000000000000
 21
0.0000000000000000
 31
0.0000000000000000
  7
STANDARD
  0
SPLINE
  5
1DD
100
AcDbEntity
  8
MAIN0
  6
CONTINUOUS
 62
3
100
AcDbSpline
210
0.0000000000000000
220
0.0000000000000000
230
1.000000000000000
 70
     8
 71
     3
 72
    14
 73
    10
 74
     0
 42
1.000000000000000e-007
 43
1.000000000000000e-007
 12
1.205313937519577
 22
0.3012197250385782
 32
0.0000000000000000
 13
0.9118704780835287
 23
0.7328372388452067
 33
0.0000000000000000
 40
0.0000000000000000
 40
0.0000000000000000
 40
0.0000000000000000
 40
0.0000000000000000
 40
0.5828484074954654
 40
2.017389827489209
 40
3.123506893394179
 40
4.885508420049012
 40
6.048697447303496
 40
6.384151807376483
 40
6.831490023551860
 40
6.831490023551860
 40
6.831490023551860
 40
6.831490023551860
 10
319.6565879111675
 20
31.41736458252677
 30
0.0000000000000000
 10
319.8907596808393
 20
31.47588639487509
 30
0.0000000000000000
 10
320.7012890396665
 20
31.67844559791917
 30
0.0000000000000000
 10
321.2330156801294
 20
32.83808689922199
 30
0.0000000000000000
 10
321.3718228074548
 20
35.34626638634967
 30
0.0000000000000000
 10
320.1235772515220
 20
32.92011791593637
 30
0.0000000000000000
 10
320.0325697168231
 20
31.01552597744995
 30
0.0000000000000000
 10
320.8862022661370
 20
31.31039772585433
 30
0.0000000000000000
 10
321.1241374130514
 20
31.50161757591019
 30
0.0000000000000000
 10
321.2601089174011
 20
31.61089294363416
 30
0.0000000000000000
  0
MTEXT
  5
1DE
100
AcDbEntity
  8
MAIN0
  6
CONTINUOUS
 62
3
100
AcDbMText
 10
207.3164484871965
 20
147.0064305606208
 30
0.0000000000000000
 40
3.000000000000000
 41
0.0000000000000000
 71
     1
 72
     1
  1
{\H0.63x;{BODY SURFACE}}
 11
1.000000000000000
 21
0.0000000000000000
 31
0.0000000000000000
  7
STANDARD
  0
MTEXT
  5
1DF
100
AcDbEntity
  8
MAIN0
  6
CONTINUOUS
 62
3
100
AcDbMText
 10
316.7315507392217
 20
102.9466809281632
 30
0.0000000000000000
 40
3.000000000000000
 41
0.0000000000000000
 71
     1
 72
     1
  1
{\H0.63x;{(WHEN SETTING ON MULTI-PLATE,\P THIS SOCKET SET SCREW MUST BE\P TAKEN OFF.)}}
 11
1.000000000000000
 21
0.0000000000000000
 31
0.0000000000000000
  7
STANDARD
  0
MTEXT
  5
1E0
100
AcDbEntity
  8
MAIN0
  6
CONTINUOUS
 62
3
100
AcDbMText
 10
206.2116781906950
 20
251.2957906076316
 30
0.0000000000000000
 40
3.000000000000000
 41
0.0000000000000000
 71
     1
 72
     1
  1
{\H0.63x;{COVER SURFACE}}
 11
1.000000000000000
 21
0.0000000000000000
 31
0.0000000000000000
  7
STANDARD
  0
MTEXT
  5
1E1
100
AcDbEntity
  8
MAIN0
  6
CONTINUOUS
 62
3
100
AcDbMText
 10
242.5044814603967
 20
373.1580153101310
 30
0.0000000000000000
 40
3.000000000000000
 41
0.0000000000000000
 71
     1
 72
     1
  1
{\H0.63x;{SOFT JAW}}
 11
1.000000000000000
 21
0.0000000000000000
 31
0.0000000000000000
  7
STANDARD
  0
MTEXT
  5
1E2
100
AcDbEntity
  8
MAIN0
  6
CONTINUOUS
 62
3
100
AcDbMText
 10
233.2726957868774
 20
393.6377132924225
 30
0.0000000000000000
 40
3.000000000000000
 41
0.0000000000000000
 71
     1
 72
     1
  1
{\H0.63x;{HEX SOCKET HEAD CAP SCREW}}
 11
1.000000000000000
 21
0.0000000000000000
 31
0.0000000000000000
  7
STANDARD
  0
MTEXT
  5
1E3
100
AcDbEntity
  8
MAIN0
  6
CONTINUOUS
 62
3
100
AcDbMText
 10
231.7871220069762
 20
404.3550687169498
 30
0.0000000000000000
 40
3.000000000000000
 41
0.0000000000000000
 71
     1
 72
     1
  1
{\H0.61x;{SERRATION PITCH 1.5}}
 11
1.000000000000000
 21
0.0000000000000000
 31
0.0000000000000000
  7
STANDARD
  0
LINE
  5
1E4
100
AcDbEntity
  8
MAIN0
  6
CONTINUOUS
 62
3
100
AcDbLine
 10
443.5400484490762
 20
287.3789252738118
 30
0.0000000000000000
 11
459.5400484490778
 21
287.3789252738118
 31
0.0000000000000000
  0
LINE
  5
1E5
100
AcDbEntity
  8
MAIN0
  6
CONTINUOUS
 62
3
100
AcDbLine
 10
459.5400484490780
 20
287.3789252738121
 30
0.0000000000000000
 11
459.5400484490818
 21
274.5289252737067
 31
0.0000000000000000
  0
LINE
  5
1E6
100
AcDbEntity
  8
MAIN0
  6
CONTINUOUS
 62
3
100
AcDbLine
 10
443.5400484490760
 20
287.3789252738119
 30
0.0000000000000000
 11
443.5400484490880
 21
247.3789252738119
 31
0.0000000000000000
  0
CIRCLE
  5
1E7
100
AcDbEntity
  8
MAIN0
  6
CONTINUOUS
 62
3
100
AcDbCircle
 10
455.1400484490795
 20
279.8789252738119
 30
0.0000000000000000
 40
3.150000000000000
  0
LINE
  5
1E8
100
AcDbEntity
  8
MAIN0
  6
CONTINUOUS
 62
3
100
AcDbLine
 10
443.5400484490882
 20
247.3789252738118
 30
0.0000000000000000
 11
459.5400484490778
 21
247.3789252738118
 31
0.0000000000000000
  0
LINE
  5
1E9
100
AcDbEntity
  8
MAIN0
  6
CONTINUOUS
 62
3
100
AcDbLine
 10
459.5400484490774
 20
247.3789252738118
 30
0.0000000000000000
 11
459.5400484490812
 21
260.2289252737064
 31
0.0000000000000000
  0
CIRCLE
  5
1EA
100
AcDbEntity
  8
MAIN0
  6
CONTINUOUS
 62
3
100
AcDbCircle
 10
455.1400484490795
 20
254.8789252738118
 30
0.0000000000000000
 40
3.150000000000000
  0
LINE
  5
1EB
100
AcDbEntity
  8
MAIN0
  6
CONTINUOUS
 62
3
100
AcDbLine
 10
456.5400484490812
 20
274.5289252737068
 30
0.0000000000000000
 11
456.5400484490855
 21
260.2289252737068
 31
0.0000000000000000
  0
LINE
  5
1EC
100
AcDbEntity
  8
MAIN0
  6
CONTINUOUS
 62
3
100
AcDbLine
 10
456.5400484490817
 20
274.5289252737067
 30
0.0000000000000000
 11
459.5400484490817
 21
274.5289252737067
 31
0.0000000000000000
  0
LINE
  5
1ED
100
AcDbEntity
  8
MAIN0
  6
CONTINUOUS
 62
3
100
AcDbLine
 10
456.5400484490812
 20
260.2289252737067
 30
0.0000000000000000
 11
459.5400484490817
 21
260.2289252737067
 31
0.0000000000000000
  0
LINE
  5
1EE
100
AcDbEntity
  8
MAIN0
  6
CONTINUOUS
 62
3
100
AcDbLine
 10
512.1400484490316
 20
285.1289252736921
 30
0.0000000000000000
 11
512.1400484490873
 21
249.6289252744924
 31
0.0000000000000000
  0
LINE
  5
1EF
100
AcDbEntity
  8
MAIN0
  6
HIDDEN
 62
3
100
AcDbLine
 10
452.1400484490323
 20
284.8789252738002
 30
0.0000000000000000
 11
452.1400484490872
 21
249.8789252738002
 31
0.0000000000000000
  0
LINE
  5
1F0
100
AcDbEntity
  8
MAIN0
  6
CONTINUOUS
 62
3
100
AcDbLine
 10
512.1400484490707
 20
260.3789252738118
 30
0.0000000000000000
 11
460.0400484490706
 21
260.3789252738118
 31
0.0000000000000000
  0
LINE
  5
1F1
100
AcDbEntity
  8
MAIN0
  6
CONTINUOUS
 62
3
100
AcDbLine
 10
459.6400484490324
 20
284.8789252738118
 30
0.0000000000000000
 11
459.6400484490482
 21
274.7789252738119
 31
0.0000000000000000
  0
LINE
  5
1F2
100
AcDbEntity
  8
MAIN0
  6
CONTINUOUS
 62
3
100
AcDbLine
 10
459.6400484490712
 20
259.9789252738118
 30
0.0000000000000000
 11
459.6400484490870
 21
249.8789252738118
 31
0.0000000000000000
  0
LINE
  5
1F3
100
AcDbEntity
  8
MAIN0
  6
HIDDEN
 62
3
100
AcDbLine
 10
446.8330484490873
 20
249.8789252738117
 30
0.0000000000000000
 11
446.6330484490870
 21
250.0789252738117
 31
0.0000000000000000
  0
LINE
  5
1F4
100
AcDbEntity
  8
MAIN0
  6
HIDDEN
 62
3
100
AcDbLine
 10
446.8332841001640
 20
284.8789252738118
 30
0.0000000000000000
 11
446.6332841001640
 21
284.6789252738119
 31
0.0000000000000000
  0
LINE
  5
1F5
100
AcDbEntity
  8
MAIN0
  6
CONTINUOUS
 62
3
100
AcDbLine
 10
460.0400484490706
 20
260.3789252738119
 30
0.0000000000000000
 11
459.6400484490712
 21
259.9789252738118
 31
0.0000000000000000
  0
LINE
  5
1F6
100
AcDbEntity
  8
MAIN0
  6
CONTINUOUS
 62
3
100
AcDbLine
 10
460.0400484490486
 20
274.3789252738117
 30
0.0000000000000000
 11
459.6400484490481
 21
274.7789252738117
 31
0.0000000000000000
  0
LINE
  5
1F7
100
AcDbEntity
  8
MAIN0
  6
CONTINUOUS
 62
3
100
AcDbLine
 10
512.1400484490489
 20
274.3789252738118
 30
0.0000000000000000
 11
461.4551893600117
 21
274.3789252738118
 31
0.0000000000000000
  0
LINE
  5
1F8
100
AcDbEntity
  8
MAIN0
  6
CONTINUOUS
 62
3
100
AcDbLine
 10
461.4551893600117
 20
274.3789252738118
 30
0.0000000000000000
 11
460.0400484490488
 21
274.3789252738118
 31
0.0000000000000000
  0
LINE
  5
1F9
100
AcDbEntity
  8
MAIN0
  6
CONTINUOUS
 62
3
100
AcDbLine
 10
505.3900484490792
 20
274.3789252738118
 30
0.0000000000000000
 11
505.3900484490831
 21
260.3789252738118
 31
0.0000000000000000
  0
LINE
  5
1FA
100
AcDbEntity
  8
MAIN0
  6
CENTER
 62
3
100
AcDbLine
 10
493.3900484490601
 20
280.1960177937912
 30
0.0000000000000000
 11
493.3900484490601
 21
254.5704308384063
 31
0.0000000000000000
  0
LINE
  5
1FB
100
AcDbEntity
  8
MAIN0
  6
CENTER
 62
3
100
AcDbLine
 10
468.3900484490601
 20
280.1960177937912
 30
0.0000000000000000
 11
468.3900484490601
 21
254.5704308384063
 31
0.0000000000000000
  0
LINE
  5
1FC
100
AcDbEntity
  8
MAIN0
  6
CONTINUOUS
 62
3
100
AcDbLine
 10
505.3900484490792
 20
274.3789252738118
 30
0.0000000000000000
 11
460.3900484491190
 21
274.3789252738118
 31
0.0000000000000000
  0
LINE
  5
1FD
100
AcDbEntity
  8
MAIN0
  6
CONTINUOUS
 62
3
100
AcDbLine
 10
505.3900484490831
 20
260.3789252738118
 30
0.0000000000000000
 11
460.3900484491190
 21
260.3789252738118
 31
0.0000000000000000
  0
LINE
  5
1FE
100
AcDbEntity
  8
MAIN0
  6
CONTINUOUS
 62
3
100
AcDbLine
 10
460.3900484491190
 20
274.3789252738118
 30
0.0000000000000000
 11
457.3900484490797
 21
271.3789252737739
 31
0.0000000000000000
  0
LINE
  5
1FF
100
AcDbEntity
  8
MAIN0
  6
CONTINUOUS
 62
3
100
AcDbLine
 10
460.3900484491192
 20
260.3789252738120
 30
0.0000000000000000
 11
457.3900484490799
 21
263.3789252738498
 31
0.0000000000000000
  0
LINE
  5
200
100
AcDbEntity
  8
MAIN0
  6
CONTINUOUS
 62
3
100
AcDbLine
 10
509.3192791334232
 20
292.8789252738119
 30
0.0000000000000000
 11
512.1400484490366
 21
285.1289252736800
 31
0.0000000000000000
  0
LINE
  5
201
100
AcDbEntity
  8
MAIN0
  6
HIDDEN
 62
3
100
AcDbLine
 10
446.6330484490868
 20
250.0789252738119
 30
0.0000000000000000
 11
446.6332841001638
 21
284.6789252738117
 31
0.0000000000000000
  0
LINE
  5
202
100
AcDbEntity
  8
MAIN0
  6
HIDDEN
 62
3
100
AcDbLine
 10
446.8332841001640
 20
284.8789252738118
 30
0.0000000000000000
 11
459.5400484490788
 21
284.8789252738118
 31
0.0000000000000000
  0
LINE
  5
203
100
AcDbEntity
  8
MAIN0
  6
CONTINUOUS
 62
3
100
AcDbLine
 10
459.5400484490788
 20
284.8789252738118
 30
0.0000000000000000
 11
512.1400484490324
 21
284.8789252738118
 31
0.0000000000000000
  0
LINE
  5
204
100
AcDbEntity
  8
MAIN0
  6
HIDDEN
 62
3
100
AcDbLine
 10
446.8330484490872
 20
249.8789252738118
 30
0.0000000000000000
 11
459.5400484490782
 21
249.8789252738118
 31
0.0000000000000000
  0
LINE
  5
205
100
AcDbEntity
  8
MAIN0
  6
CONTINUOUS
 62
3
100
AcDbLine
 10
459.5400484490782
 20
249.8789252738118
 30
0.0000000000000000
 11
512.1841301941453
 21
249.8789252738118
 31
0.0000000000000000
  0
ARC
  5
206
100
AcDbEntity
  8
MAIN0
  6
CONTINUOUS
 62
3
100
AcDbCircle
 10
461.4400484490599
 20
267.3789252738118
 30
0.0000000000000000
 40
7.300000000000000
100
AcDbArc
 50
102.5288077092375
 51
132.1622902708468
  0
ARC
  5
207
100
AcDbEntity
  8
MAIN0
  6
HIDDEN
 62
3
100
AcDbCircle
 10
461.4400484490599
 20
267.3789252738118
 30
0.0000000000000000
 40
7.300000000000000
100
AcDbArc
 50
132.1622902708468
 51
227.8377097291874
  0
ARC
  5
208
100
AcDbEntity
  8
MAIN0
  6
CONTINUOUS
 62
3
100
AcDbCircle
 10
461.4400484490599
 20
267.3789252738118
 30
0.0000000000000000
 40
7.300000000000000
100
AcDbArc
 50
227.8377097291874
 51
257.8497641628015
  0
LINE
  5
209
100
AcDbEntity
  8
MAIN0
  6
CONTINUOUS
 62
3
100
AcDbLine
 10
509.3192791334232
 20
241.8789252738115
 30
0.0000000000000000
 11
512.1400484490366
 21
249.6289252739435
 31
0.0000000000000000
  0
LINE
  5
20A
100
AcDbEntity
  8
MAIN0
  6
CONTINUOUS
 62
3
100
AcDbLine
 10
509.3192791334232
 20
292.8789252738119
 30
0.0000000000000000
 11
508.5069466188986
 21
292.8789252738119
 31
0.0000000000000000
  0
LINE
  5
20B
100
AcDbEntity
  8
MAIN0
  6
CONTINUOUS
 62
3
100
AcDbLine
 10
509.3192791334232
 20
241.8789252738115
 30
0.0000000000000000
 11
508.4965651772712
 21
241.8789252738115
 31
0.0000000000000000
  0
LINE
  5
20C
100
AcDbEntity
  8
MAIN0
  6
CONTINUOUS
 62
3
100
AcDbLine
 10
303.9608177647097
 20
292.8789252736866
 30
0.0000000000000000
 11
304.7731502792342
 21
292.8789252736875
 31
0.0000000000000000
  0
LINE
  5
20D
100
AcDbEntity
  8
MAIN0
  6
CONTINUOUS
 62
3
100
AcDbLine
 10
303.9608177647098
 20
292.8789252736866
 30
0.0000000000000000
 11
301.1400484491059
 21
285.1289252735511
 31
0.0000000000000000
  0
LINE
  5
20E
100
AcDbEntity
  8
MAIN0
  6
CONTINUOUS
 62
3
100
AcDbLine
 10
303.9608177647721
 20
241.8789252736861
 30
0.0000000000000000
 11
301.1400484491492
 21
249.6289252738146
 31
0.0000000000000000
  0
LINE
  5
20F
100
AcDbEntity
  8
MAIN0
  6
CONTINUOUS
 62
3
100
AcDbLine
 10
303.9608177647720
 20
241.8789252736861
 30
0.0000000000000000
 11
304.7835317209239
 21
241.8789252736871
 31
0.0000000000000000
  0
LINE
  5
210
100
AcDbEntity
  8
MAIN0
  6
CONTINUOUS
 62
3
100
AcDbLine
 10
301.1400484491059
 20
285.1289252735511
 30
0.0000000000000000
 11
301.1400484491059
 21
284.8789252738142
 31
0.0000000000000000
  0
LINE
  5
211
100
AcDbEntity
  8
MAIN0
  6
CONTINUOUS
 62
3
100
AcDbLine
 10
301.1400484491492
 20
249.6289252738146
 30
0.0000000000000000
 11
301.1400484491492
 21
249.8789252738141
 31
0.0000000000000000
  0
DIMENSION
  5
21A
100
AcDbEntity
  8
MAIN0
  6
CONTINUOUS
 62
3
100
AcDbDimension
  2
*D31
 10
276.2128646194827
 20
284.8789252738142
 30
0.0000000000000000
 11
275.7128646194827
 21
267.3789252738142
 31
0.0000000000000000
 70
32
  3
MAIN001
100
AcDbAlignedDimension
 13
295.6400276354223
 23
249.8789252738141
 33
0.0000000000000000
 14
295.6400276354223
 24
284.8789252738142
 34
0.0000000000000000
 50
90.00000000000000
100
AcDbRotatedDimension
1001
ACAD
1000
DSTYLE
1002
{
1070
   173
1070
     1
1070
     6
1000
_OPEN
1070
     7
1000
_OPEN
1070
    41
1040
2.000000
1002
}
  0
LINE
  5
21B
100
AcDbEntity
  8
MAIN0
  6
CENTER
 62
3
100
AcDbLine
 10
455.1400484490798
 20
274.7289252738120
 30
0.0000000000000000
 11
455.1400484490798
 21
285.0289252738119
 31
0.0000000000000000
  0
LINE
  5
21C
100
AcDbEntity
  8
MAIN0
  6
CENTER
 62
3
100
AcDbLine
 10
449.9900484490797
 20
279.8789252738118
 30
0.0000000000000000
 11
460.2900484490796
 21
279.8789252738118
 31
0.0000000000000000
  0
LINE
  5
21D
100
AcDbEntity
  8
MAIN0
  6
CENTER
 62
3
100
AcDbLine
 10
455.1400484490798
 20
249.7289252738120
 30
0.0000000000000000
 11
455.1400484490798
 21
260.0289252738119
 31
0.0000000000000000
  0
LINE
  5
21E
100
AcDbEntity
  8
MAIN0
  6
CENTER
 62
3
100
AcDbLine
 10
449.9900484490797
 20
254.8789252738118
 30
0.0000000000000000
 11
460.2900484490796
 21
254.8789252738118
 31
0.0000000000000000
  0
LEADER
  5
21F
100
AcDbEntity
  8
MAIN0
  6
CONTINUOUS
 62
3
100
AcDbLeader
  3
MAIN001
 73
     0
 75
     1
 40
3.099999904632568
 41
10.77900032901763
 76
     3
 10
114.6450528037194
 20
106.8789252738141
 30
0.0000000000000000
 10
101.5876260419540
 20
72.63944628877803
 30
0.0000000000000000
 10
99.66062609774392
 20
72.63944628877803
 30
0.0000000000000000
340
220
213
0.0000000000000000
223
-0.5000000000000000
233
0.0000000000000000
1001
ACAD
1000
DSTYLE
1002
{
1070
   147
1040
0.0
1070
    77
1070
     1
1070
   173
1070
     1
1070
     6
1000
_OPEN
1070
     7
1000
_OPEN
1002
}
  0
MTEXT
  5
220
102
{ACAD_REACTORS
330
21F
102
}
100
AcDbEntity
  8
MAIN0
  6
CONTINUOUS
 62
3
100
AcDbMText
 10
88.88162576872628
 20
76.23944619341060
 30
0.0000000000000000
 40
3.099999904632568
 41
0.0000000000000000
 71
     1
 72
     1
  1
{\H0.91x;{LV-3}}
 11
1.000000000000000
 21
0.0000000000000000
 31
0.0000000000000000
  7
STANDARD
  0
LINE
  5
221
100
AcDbEntity
  8
MAIN0
  6
HIDDEN
 62
3
100
AcDbLine
 10
208.2868375998485
 20
345.3789252738141
 30
0.0000000000000000
 11
219.0868375998485
 21
345.3789252738141
 31
0.0000000000000000
  0
LINE
  5
222
100
AcDbEntity
  8
MAIN0
  6
HIDDEN
 62
3
100
AcDbLine
 10
219.0868375998485
 20
345.3789252738141
 30
0.0000000000000000
 11
220.2868375998485
 21
347.4573862428968
 31
0.0000000000000000
  0
LINE
  5
223
100
AcDbEntity
  8
MAIN0
  6
HIDDEN
 62
3
100
AcDbLine
 10
220.2868375998485
 20
347.4573862428968
 30
0.0000000000000000
 11
220.2868375998485
 21
361.3004643047315
 31
0.0000000000000000
  0
LINE
  5
224
100
AcDbEntity
  8
MAIN0
  6
HIDDEN
 62
3
100
AcDbLine
 10
220.2868375998485
 20
361.3004643047315
 30
0.0000000000000000
 11
219.0868375998485
 21
363.3789252738141
 31
0.0000000000000000
  0
LINE
  5
225
100
AcDbEntity
  8
MAIN0
  6
HIDDEN
 62
3
100
AcDbLine
 10
219.0868375998485
 20
363.3789252738141
 30
0.0000000000000000
 11
208.2868375998485
 21
363.3789252738141
 31
0.0000000000000000
  0
LINE
  5
226
100
AcDbEntity
  8
MAIN0
  6
HIDDEN
 62
3
100
AcDbLine
 10
219.0868375998485
 20
345.3789252738141
 30
0.0000000000000000
 11
219.0868375998485
 21
363.3789252738141
 31
0.0000000000000000
  0
LINE
  5
227
100
AcDbEntity
  8
MAIN0
  6
HIDDEN
 62
3
100
AcDbLine
 10
208.2868375998485
 20
348.3789252738141
 30
0.0000000000000000
 11
173.2868375998485
 21
348.3789252738141
 31
0.0000000000000000
  0
LINE
  5
228
100
AcDbEntity
  8
MAIN0
  6
HIDDEN
 62
3
100
AcDbLine
 10
173.2868375998485
 20
348.3789252738141
 30
0.0000000000000000
 11
173.2868375998485
 21
360.3789252738141
 31
0.0000000000000000
  0
LINE
  5
229
100
AcDbEntity
  8
MAIN0
  6
HIDDEN
 62
3
100
AcDbLine
 10
173.2868375998485
 20
360.3789252738141
 30
0.0000000000000000
 11
208.2868375998485
 21
360.3789252738141
 31
0.0000000000000000
  0
LINE
  5
22A
100
AcDbEntity
  8
MAIN0
  6
HIDDEN
 62
3
100
AcDbLine
 10
208.2868375998485
 20
349.3261407738141
 30
0.0000000000000000
 11
173.2868375998485
 21
349.3261407738141
 31
0.0000000000000000
  0
LINE
  5
22B
100
AcDbEntity
  8
MAIN0
  6
HIDDEN
 62
3
100
AcDbLine
 10
208.2868375998485
 20
359.4317097738141
 30
0.0000000000000000
 11
173.2868375998485
 21
359.4317097738141
 31
0.0000000000000000
  0
LINE
  5
22C
100
AcDbEntity
  8
MAIN0
  6
HIDDEN
 62
3
100
AcDbLine
 10
208.2868375998485
 20
320.3789252738141
 30
0.0000000000000000
 11
219.0868375998485
 21
320.3789252738141
 31
0.0000000000000000
  0
LINE
  5
22D
100
AcDbEntity
  8
MAIN0
  6
HIDDEN
 62
3
100
AcDbLine
 10
219.0868375998485
 20
320.3789252738141
 30
0.0000000000000000
 11
220.2868375998485
 21
322.4573862428968
 31
0.0000000000000000
  0
LINE
  5
22E
100
AcDbEntity
  8
MAIN0
  6
HIDDEN
 62
3
100
AcDbLine
 10
220.2868375998485
 20
322.4573862428968
 30
0.0000000000000000
 11
220.2868375998485
 21
336.3004643047315
 31
0.0000000000000000
  0
LINE
  5
22F
100
AcDbEntity
  8
MAIN0
  6
HIDDEN
 62
3
100
AcDbLine
 10
220.2868375998485
 20
336.3004643047315
 30
0.0000000000000000
 11
219.0868375998485
 21
338.3789252738141
 31
0.0000000000000000
  0
LINE
  5
230
100
AcDbEntity
  8
MAIN0
  6
HIDDEN
 62
3
100
AcDbLine
 10
219.0868375998485
 20
338.3789252738141
 30
0.0000000000000000
 11
208.2868375998485
 21
338.3789252738141
 31
0.0000000000000000
  0
LINE
  5
231
100
AcDbEntity
  8
MAIN0
  6
HIDDEN
 62
3
100
AcDbLine
 10
219.0868375998485
 20
320.3789252738141
 30
0.0000000000000000
 11
219.0868375998485
 21
338.3789252738141
 31
0.0000000000000000
  0
LINE
  5
232
100
AcDbEntity
  8
MAIN0
  6
HIDDEN
 62
3
100
AcDbLine
 10
208.2868375998485
 20
323.3789252738141
 30
0.0000000000000000
 11
173.2868375998485
 21
323.3789252738141
 31
0.0000000000000000
  0
LINE
  5
233
100
AcDbEntity
  8
MAIN0
  6
HIDDEN
 62
3
100
AcDbLine
 10
173.2868375998485
 20
323.3789252738141
 30
0.0000000000000000
 11
173.2868375998485
 21
335.3789252738141
 31
0.0000000000000000
  0
LINE
  5
234
100
AcDbEntity
  8
MAIN0
  6
HIDDEN
 62
3
100
AcDbLine
 10
173.2868375998485
 20
335.3789252738141
 30
0.0000000000000000
 11
208.2868375998485
 21
335.3789252738141
 31
0.0000000000000000
  0
LINE
  5
235
100
AcDbEntity
  8
MAIN0
  6
HIDDEN
 62
3
100
AcDbLine
 10
208.2868375998485
 20
324.3261407738141
 30
0.0000000000000000
 11
173.2868375998485
 21
324.3261407738141
 31
0.0000000000000000
  0
LINE
  5
236
100
AcDbEntity
  8
MAIN0
  6
HIDDEN
 62
3
100
AcDbLine
 10
208.2868375998485
 20
334.4317097738141
 30
0.0000000000000000
 11
173.2868375998485
 21
334.4317097738141
 31
0.0000000000000000
  0
LINE
  5
237
100
AcDbEntity
  8
MAIN0
  6
CENTER
 62
3
100
AcDbLine
 10
406.6400484490821
 20
267.3789252738142
 30
0.0000000000000000
 11
471.5281015193218
 21
154.9895205519333
 31
0.0000000000000000
  0
ARC
  5
238
100
AcDbEntity
  8
MAIN0
  6
CONTINUOUS
 62
3
100
AcDbCircle
 10
406.6400484490821
 20
267.3789252738141
 30
0.0000000000000000
 40
124.0000000000003
100
AcDbArc
 50
318.8190633689812
 51
641.1809366310018
  0
LINE
  5
239
100
AcDbEntity
  8
MAIN0
  6
CONTINUOUS
 62
3
100
AcDbLine
 10
295.6400276354223
 20
249.8789252738141
 30
0.0000000000000000
 11
295.6400276354223
 21
284.8789252738141
 31
0.0000000000000000
  0
LINE
  5
23A
100
AcDbEntity
  8
MAIN0
  6
CONTINUOUS
 62
3
100
AcDbLine
 10
295.6400276354223
 20
284.8789252738142
 30
0.0000000000000000
 11
390.6400276354223
 21
284.8789252738141
 31
0.0000000000000000
  0
LINE
  5
23B
100
AcDbEntity
  8
MAIN0
  6
CONTINUOUS
 62
3
100
AcDbLine
 10
390.6400276354223
 20
249.8789252738141
 30
0.0000000000000000
 11
390.6400276354223
 21
284.8789252738141
 31
0.0000000000000000
  0
LINE
  5
23C
100
AcDbEntity
  8
MAIN0
  6
CENTER
 62
3
100
AcDbLine
 10
319.6400276354225
 20
253.6844961676302
 30
0.0000000000000000
 11
319.6400276354225
 21
281.0155170765868
 31
0.0000000000000000
  0
LINE
  5
23D
100
AcDbEntity
  8
MAIN0
  6
CENTER
 62
3
100
AcDbLine
 10
344.6400276354223
 20
253.6844961676302
 30
0.0000000000000000
 11
344.6400276354223
 21
281.0155170765868
 31
0.0000000000000000
  0
ARC
  5
23E
100
AcDbEntity
  8
MAIN0
  6
CONTINUOUS
 62
3
100
AcDbCircle
 10
406.6400484490821
 20
267.3789252738141
 30
0.0000000000000000
 40
105.0000000000000
100
AcDbArc
 50
189.5940682268605
 51
350.4059317731293
  0
ARC
  5
23F
100
AcDbEntity
  8
MAIN0
  6
CONTINUOUS
 62
3
100
AcDbCircle
 10
406.6400484490821
 20
267.3789252738141
 30
0.0000000000000000
 40
105.0000000000000
100
AcDbArc
 50
9.594068226850155
 51
170.4059317731395
  0
LINE
  5
240
100
AcDbEntity
  8
MAIN0
  6
CONTINUOUS
 62
3
100
AcDbLine
 10
369.4900276354351
 20
247.3789252738165
 30
0.0000000000000000
 11
353.4900276354351
 21
247.3789252738175
 31
0.0000000000000000
  0
LINE
  5
241
100
AcDbEntity
  8
MAIN0
  6
CONTINUOUS
 62
3
100
AcDbLine
 10
369.4900276354376
 20
287.3789252738165
 30
0.0000000000000000
 11
353.4900276354096
 21
287.3789252738175
 31
0.0000000000000000
  0
LINE
  5
242
100
AcDbEntity
  8
MAIN0
  6
CENTER
 62
3
100
AcDbLine
 10
354.8900276354303
 20
254.8789252738141
 30
0.0000000000000000
 11
360.8900276354303
 21
254.8789252738141
 31
0.0000000000000000
  0
LINE
  5
243
100
AcDbEntity
  8
MAIN0
  6
CENTER
 62
3
100
AcDbLine
 10
354.8900276354143
 20
279.8789252738141
 30
0.0000000000000000
 11
360.8900276354143
 21
279.8789252738141
 31
0.0000000000000000
  0
LINE
  5
244
100
AcDbEntity
  8
MAIN0
  6
CENTER
 62
3
100
AcDbLine
 10
357.8900276354322
 20
251.8789252738141
 30
0.0000000000000000
 11
357.8900276354284
 21
257.8789252738141
 31
0.0000000000000000
  0
LINE
  5
245
100
AcDbEntity
  8
MAIN0
  6
CENTER
 62
3
100
AcDbLine
 10
357.8900276354162
 20
276.8789252738141
 30
0.0000000000000000
 11
357.8900276354124
 21
282.8789252738141
 31
0.0000000000000000
  0
LINE
  5
246
100
AcDbEntity
  8
MAIN0
  6
CONTINUOUS
 62
3
100
AcDbLine
 10
353.4900276354351
 20
247.3789252738063
 30
0.0000000000000000
 11
353.4900276354335
 21
249.8789252738141
 31
0.0000000000000000
  0
LINE
  5
247
100
AcDbEntity
  8
MAIN0
  6
CONTINUOUS
 62
3
100
AcDbLine
 10
353.4900276354111
 20
284.8789252738141
 30
0.0000000000000000
 11
353.4900276354095
 21
287.3789252738063
 31
0.0000000000000000
  0
ARC
  5
248
100
AcDbEntity
  8
MAIN0
  6
CONTINUOUS
 62
3
100
AcDbCircle
 10
406.9590276354224
 20
267.3789252738142
 30
0.0000000000000000
 40
56.50000000000008
100
AcDbArc
 50
161.1475728607069
 51
161.9567682383630
  0
ARC
  5
249
100
AcDbEntity
  8
MAIN0
  6
CONTINUOUS
 62
3
100
AcDbCircle
 10
406.9590276354224
 20
267.3789252738142
 30
0.0000000000000000
 40
56.50000000000008
100
AcDbArc
 50
198.0432317616370
 51
199.6218934741521
  0
LINE
  5
24A
100
AcDbEntity
  8
MAIN0
  6
CONTINUOUS
 62
3
100
AcDbLine
 10
369.4900276354351
 20
247.3789252738165
 30
0.0000000000000000
 11
369.4900276354335
 21
249.8789252738141
 31
0.0000000000000000
  0
LINE
  5
24B
100
AcDbEntity
  8
MAIN0
  6
HIDDEN
 62
3
100
AcDbLine
 10
369.4900276354335
 20
249.8789252738141
 30
0.0000000000000000
 11
369.4900276354111
 21
284.8789252738141
 31
0.0000000000000000
  0
LINE
  5
24C
100
AcDbEntity
  8
MAIN0
  6
CONTINUOUS
 62
3
100
AcDbLine
 10
369.4900276354111
 20
284.8789252738141
 30
0.0000000000000000
 11
369.4900276354095
 21
287.3789252738165
 31
0.0000000000000000
  0
LINE
  5
24D
100
AcDbEntity
  8
MAIN0
  6
HIDDEN
 62
3
100
AcDbLine
 10
301.1400276354335
 20
284.8789252738142
 30
0.0000000000000000
 11
301.1400276354110
 21
249.8789252738141
 31
0.0000000000000000
  0
LINE
  5
24E
100
AcDbEntity
  8
MAIN0
  6
CONTINUOUS
 62
3
100
AcDbLine
 10
390.6400276354223
 20
249.8789252738141
 30
0.0000000000000000
 11
302.0499532210948
 21
249.8789252738141
 31
0.0000000000000000
  0
LINE
  5
24F
100
AcDbEntity
  8
MAIN0
  6
CONTINUOUS
 62
3
100
AcDbLine
 10
302.0499532210948
 20
249.8789252738141
 30
0.0000000000000000
 11
295.6400276354223
 21
249.8789252738141
 31
0.0000000000000000
  0
LINE
  5
250
100
AcDbEntity
  8
MAIN0
  6
CENTER
 62
3
100
AcDbLine
 10
301.0368977872903
 20
328.3489327357584
 30
0.0000000000000000
 11
313.1061840227246
 21
321.3807270787939
 31
0.0000000000000000
  0
LINE
  5
251
100
AcDbEntity
  8
MAIN0
  6
CENTER
 62
3
100
AcDbLine
 10
494.3318450328034
 20
216.7500429104096
 30
0.0000000000000000
 11
518.2059276065754
 21
202.9663349097676
 31
0.0000000000000000
  0
LINE
  5
252
100
AcDbEntity
  8
MAIN0
  6
CENTER
 62
3
100
AcDbLine
 10
434.4398340913623
 20
371.1291377310018
 30
0.0000000000000000
 11
438.3531384220354
 21
385.7337883186477
 31
0.0000000000000000
  0
CIRCLE
  5
253
100
AcDbEntity
  8
MAIN0
  6
CONTINUOUS
 62
3
100
AcDbCircle
 10
436.4042386356916
 20
378.4603952971053
 30
0.0000000000000000
 40
5.500000000000000
  0
LINE
  5
254
100
AcDbEntity
  8
MAIN0
  6
CENTER
 62
3
100
AcDbLine
 10
302.7267680937542
 20
295.2224048277157
 30
0.0000000000000000
 11
287.9542537371896
 21
299.1806881197091
 31
0.0000000000000000
  0
CIRCLE
  5
255
100
AcDbEntity
  8
MAIN0
  6
CONTINUOUS
 62
3
100
AcDbCircle
 10
295.5585784257918
 20
297.1431154604272
 30
0.0000000000000000
 40
5.500000000000000
  0
CIRCLE
  5
256
100
AcDbEntity
  8
MAIN0
  6
CONTINUOUS
 62
3
100
AcDbCircle
 10
521.6400484490821
 20
267.3789252738069
 30
0.0000000000000000
 40
5.000000000000000
  0
ARC
  5
257
100
AcDbEntity
  8
MAIN0
  6
CONTINUOUS
 62
3
100
AcDbCircle
 10
291.6400484490820
 20
267.3789252738214
 30
0.0000000000000000
 40
5.000000000000000
100
AcDbArc
 50
36.87029515562517
 51
323.1297048443747
  0
ARC
  5
258
100
AcDbEntity
  8
MAIN0
  6
CENTER
 62
3
100
AcDbCircle
 10
406.6400484490821
 20
267.3789252738141
 30
0.0000000000000000
 40
68.00000000000000
100
AcDbArc
 50
78.67168524908043
 51
96.86986642212206
  0
ARC
  5
259
100
AcDbEntity
  8
MAIN0
  6
CENTER
 62
3
100
AcDbCircle
 10
406.6400484490821
 20
267.3789252738141
 30
0.0000000000000000
 40
68.00000000000000
100
AcDbArc
 50
264.3236044211507
 51
275.7074579947256
  0
ARC
  5
25A
100
AcDbEntity
  8
MAIN0
  6
CENTER
 62
3
100
AcDbCircle
 10
406.6400484490821
 20
267.3789252738141
 30
0.0000000000000000
 40
93.00000000000000
100
AcDbArc
 50
265.5266915669878
 51
274.4282687950065
  0
ARC
  5
25B
100
AcDbEntity
  8
MAIN0
  6
CENTER
 62
3
100
AcDbCircle
 10
406.6400484490821
 20
267.3789252738141
 30
0.0000000000000000
 40
93.00000000000000
100
AcDbArc
 50
80.52599621096162
 51
94.32808574023706
  0
ARC
  5
25C
100
AcDbEntity
  8
MAIN0
  6
CENTER
 62
3
100
AcDbCircle
 10
406.6400484490821
 20
267.3789252738141
 30
0.0000000000000000
 40
80.00000000000000
100
AcDbArc
 50
277.2463057116685
 51
317.9130017323350
  0
LINE
  5
25D
100
AcDbEntity
  8
MAIN0
  6
CENTER
 62
3
100
AcDbLine
 10
427.1939096098964
 20
198.7785934515671
 30
0.0000000000000000
 11
434.3733305314171
 21
186.3434716465702
 31
0.0000000000000000
  0
LINE
  5
25E
100
AcDbEntity
  8
MAIN0
  6
CENTER
 62
3
100
AcDbLine
 10
456.6622323185317
 20
213.7379613063751
 30
0.0000000000000000
 11
462.9521688563036
 21
202.8434716465702
 31
0.0000000000000000
  0
CIRCLE
  5
25F
100
AcDbEntity
  8
MAIN0
  6
HIDDEN
 62
3
100
AcDbCircle
 10
460.0694407847404
 20
207.8365031309227
 30
0.0000000000000000
 40
4.500000000000000
  0
CIRCLE
  5
260
100
AcDbEntity
  8
MAIN0
  6
HIDDEN
 62
3
100
AcDbCircle
 10
431.4906024598540
 20
191.3365031309227
 30
0.0000000000000000
 40
4.500000000000000
  0
CIRCLE
  5
261
100
AcDbEntity
  8
MAIN0
  6
HIDDEN
 62
3
100
AcDbCircle
 10
460.0694407847404
 20
207.8365031309227
 30
0.0000000000000000
 40
3.500000000000000
  0
CIRCLE
  5
262
100
AcDbEntity
  8
MAIN0
  6
HIDDEN
 62
3
100
AcDbCircle
 10
431.4906024598540
 20
191.3365031309227
 30
0.0000000000000000
 40
3.500000000000000
  0
LINE
  5
263
100
AcDbEntity
  8
MAIN0
  6
CONTINUOUS
 62
3
100
AcDbLine
 10
434.7490322977046
 20
138.6927370988670
 30
0.0000000000000000
 11
504.0310646004596
 21
178.6927370988670
 31
0.0000000000000000
  0
LINE
  5
264
100
AcDbEntity
  8
MAIN0
  6
CONTINUOUS
 62
3
100
AcDbLine
 10
424.7490322977046
 20
156.0132451745558
 30
0.0000000000000000
 11
494.0310646004596
 21
196.0132451745558
 31
0.0000000000000000
  0
LINE
  5
265
100
AcDbEntity
  8
MAIN0
  6
CONTINUOUS
 62
3
100
AcDbLine
 10
424.7490322977046
 20
156.0132451745558
 30
0.0000000000000000
 11
434.7490322977046
 21
138.6927370988670
 31
0.0000000000000000
  0
LINE
  5
266
100
AcDbEntity
  8
MAIN0
  6
CONTINUOUS
 62
3
100
AcDbLine
 10
494.0310646004596
 20
196.0132451745558
 30
0.0000000000000000
 11
504.0310646004597
 21
178.6927370988670
 31
0.0000000000000000
  0
LINE
  5
267
100
AcDbEntity
  8
MAIN0
  6
CENTER
 62
3
100
AcDbLine
 10
476.1112620464779
 20
194.0512536596546
 30
0.0000000000000000
 11
492.1682778800623
 21
166.2396864179486
 31
0.0000000000000000
  0
LINE
  5
268
100
AcDbEntity
  8
MAIN0
  6
CENTER
 62
3
100
AcDbLine
 10
435.4080680686094
 20
170.5512536596546
 30
0.0000000000000000
 11
450.8440937412707
 21
143.8152729276676
 31
0.0000000000000000
  0
LINE
  5
269
100
AcDbEntity
  8
MAIN0
  6
HIDDEN
 62
3
100
AcDbLine
 10
443.9728890043355
 20
144.0181332514059
 30
0.0000000000000000
 11
439.2753117393330
 21
152.8529911367082
 31
0.0000000000000000
  0
LINE
  5
26A
100
AcDbEntity
  8
MAIN0
  6
HIDDEN
 62
3
100
AcDbLine
 10
443.5396123620194
 20
143.7679808653314
 30
0.0000000000000000
 11
438.8420350970154
 21
152.6028387506366
 31
0.0000000000000000
  0
LINE
  5
26B
100
AcDbEntity
  8
MAIN0
  6
HIDDEN
 62
3
100
AcDbLine
 10
454.1040139159610
 20
149.8673409463265
 30
0.0000000000000000
 11
448.8015911809652
 21
158.3529911367101
 31
0.0000000000000000
  0
LINE
  5
26C
100
AcDbEntity
  8
MAIN0
  6
HIDDEN
 62
3
100
AcDbLine
 10
454.5372905582768
 20
150.1174933324016
 30
0.0000000000000000
 11
449.2348678232793
 21
158.6031435227879
 31
0.0000000000000000
  0
LINE
  5
26D
100
AcDbEntity
  8
MAIN0
  6
CONTINUOUS
 62
3
100
AcDbLine
 10
442.6102482298722
 20
142.0767116950826
 30
0.0000000000000000
 11
456.4666546904232
 21
150.0767116950826
 31
0.0000000000000000
  0
LINE
  5
26E
100
AcDbEntity
  8
MAIN0
  6
CONTINUOUS
 62
3
100
AcDbLine
 10
442.1102482298723
 20
142.9427370988670
 30
0.0000000000000000
 11
442.6102482298723
 21
142.0767116950826
 31
0.0000000000000000
  0
LINE
  5
26F
100
AcDbEntity
  8
MAIN0
  6
CONTINUOUS
 62
3
100
AcDbLine
 10
455.9666546904233
 20
150.9427370988670
 30
0.0000000000000000
 11
456.4666546904233
 21
150.0767116950826
 31
0.0000000000000000
  0
LINE
  5
270
100
AcDbEntity
  8
MAIN0
  6
HIDDEN
 62
3
100
AcDbLine
 10
494.8072078938296
 20
173.3673409463266
 30
0.0000000000000000
 11
489.5047851588338
 21
181.8529911367101
 31
0.0000000000000000
  0
LINE
  5
271
100
AcDbEntity
  8
MAIN0
  6
HIDDEN
 62
3
100
AcDbLine
 10
495.2404845361454
 20
173.6174933324016
 30
0.0000000000000000
 11
489.9380618011479
 21
182.1031435227878
 31
0.0000000000000000
  0
LINE
  5
272
100
AcDbEntity
  8
MAIN0
  6
HIDDEN
 62
3
100
AcDbLine
 10
484.6760829822042
 20
167.5181332514058
 30
0.0000000000000000
 11
479.9785057172016
 21
176.3529911367081
 31
0.0000000000000000
  0
LINE
  5
273
100
AcDbEntity
  8
MAIN0
  6
HIDDEN
 62
3
100
AcDbLine
 10
484.2428063398880
 20
167.2679808653314
 30
0.0000000000000000
 11
479.5452290748840
 21
176.1028387506366
 31
0.0000000000000000
  0
LINE
  5
274
100
AcDbEntity
  8
MAIN0
  6
CONTINUOUS
 62
3
100
AcDbLine
 10
497.1698486682919
 20
173.5767116950826
 30
0.0000000000000000
 11
483.3134422077409
 21
165.5767116950826
 31
0.0000000000000000
  0
LINE
  5
275
100
AcDbEntity
  8
MAIN0
  6
CONTINUOUS
 62
3
100
AcDbLine
 10
496.6698486682919
 20
174.4427370988670
 30
0.0000000000000000
 11
497.1698486682919
 21
173.5767116950826
 31
0.0000000000000000
  0
LINE
  5
276
100
AcDbEntity
  8
MAIN0
  6
CONTINUOUS
 62
3
100
AcDbLine
 10
482.8134422077409
 20
166.4427370988670
 30
0.0000000000000000
 11
483.3134422077409
 21
165.5767116950826
 31
0.0000000000000000
  0
LINE
  5
277
100
AcDbEntity
  8
MAIN0
  6
CENTER
 62
3
100
AcDbLine
 10
450.4028904986658
 20
169.5794593603234
 30
0.0000000000000000
 11
456.7014967694404
 21
158.6699532824698
 31
0.0000000000000000
  0
LINE
  5
278
100
AcDbEntity
  8
MAIN0
  6
CENTER
 62
3
100
AcDbLine
 10
469.3667311838823
 20
180.7331237868867
 30
0.0000000000000000
 11
476.4637572434141
 21
168.4407140691372
 31
0.0000000000000000
  0
LINE
  5
279
100
AcDbEntity
  8
MAIN0
  6
CENTER
 62
3
100
AcDbLine
 10
446.1709020738102
 20
159.7209134184911
 30
0.0000000000000000
 11
457.6950306890675
 21
166.3743721766858
 31
0.0000000000000000
  0
LINE
  5
27A
100
AcDbEntity
  8
MAIN0
  6
CENTER
 62
3
100
AcDbLine
 10
467.9899259524673
 20
172.3181327282887
 30
0.0000000000000000
 11
479.6677072713381
 21
179.0603029162763
 31
0.0000000000000000
  0
ARC
  5
27B
100
AcDbEntity
  8
MAIN0
  6
CENTER
 62
3
100
AcDbCircle
 10
406.6400484490821
 20
267.3789252738141
 30
0.0000000000000000
 40
115.0000000000001
100
AcDbArc
 50
145.9769690510684
 51
214.7393988222080
  0
LINE
  5
27C
100
AcDbEntity
  8
MAIN0
  6
CENTER
 62
3
100
AcDbLine
 10
378.7965688948495
 20
163.4656449185749
 30
0.0000000000000000
 11
374.8382856028090
 21
148.6931305620229
 31
0.0000000000000000
  0
CIRCLE
  5
27D
100
AcDbEntity
  8
MAIN0
  6
CONTINUOUS
 62
3
100
AcDbCircle
 10
376.8758582621153
 20
156.2974552506186
 30
0.0000000000000000
 40
5.500000000000000
  0
LINE
  5
27E
100
AcDbEntity
  8
MAIN0
  6
CENTER
 62
3
100
AcDbLine
 10
510.3902609061794
 20
239.5791396311969
 30
0.0000000000000000
 11
524.9949114938127
 21
235.6658353004764
 31
0.0000000000000000
  0
CIRCLE
  5
27F
100
AcDbEntity
  8
MAIN0
  6
CONTINUOUS
 62
3
100
AcDbCircle
 10
517.7215184722767
 20
237.6147350868438
 30
0.0000000000000000
 40
5.500000000000000
  0
ARC
  5
280
100
AcDbEntity
  8
MAIN0
  6
CENTER
 62
3
100
AcDbCircle
 10
406.6400484490821
 20
267.3789252738141
 30
0.0000000000000000
 40
90.00000000000000
100
AcDbArc
 50
307.9045637181593
 51
323.3484933823089
  0
LINE
  5
281
100
AcDbEntity
  8
MAIN0
  6
CENTER
 62
3
100
AcDbLine
 10
461.4314697381244
 20
212.5875039847200
 30
0.0000000000000000
 11
478.8891305417928
 21
195.1298431810350
 31
0.0000000000000000
  0
CIRCLE
  5
282
100
AcDbEntity
  8
MAIN0
  6
CONTINUOUS
 62
3
100
AcDbCircle
 10
470.2796587558411
 20
203.7393149669948
 30
0.0000000000000000
 40
7.500000000000000
  0
LINE
  5
283
100
AcDbEntity
  8
MAIN0
  6
CONTINUOUS
 62
3
100
AcDbLine
 10
471.3264446779628
 20
207.6422765131803
 30
0.0000000000000000
 11
474.1841827112097
 21
204.7845384799307
 31
0.0000000000000000
  0
LINE
  5
284
100
AcDbEntity
  8
MAIN0
  6
CONTINUOUS
 62
3
100
AcDbLine
 10
466.3766972096582
 20
202.6925290448734
 30
0.0000000000000000
 11
469.2344352429017
 21
199.8347910116272
 31
0.0000000000000000
  0
LINE
  5
285
100
AcDbEntity
  8
MAIN0
  6
CONTINUOUS
 62
3
100
AcDbLine
 10
474.1841827112098
 20
204.7845384799307
 30
0.0000000000000000
 11
473.1381779936809
 21
200.8807957291523
 31
0.0000000000000000
  0
LINE
  5
286
100
AcDbEntity
  8
MAIN0
  6
CONTINUOUS
 62
3
100
AcDbLine
 10
467.4227019271872
 20
206.5962717956518
 30
0.0000000000000000
 11
466.3766972096583
 21
202.6925290448733
 31
0.0000000000000000
  0
LINE
  5
287
100
AcDbEntity
  8
MAIN0
  6
CONTINUOUS
 62
3
100
AcDbLine
 10
471.3264446779629
 20
207.6422765131803
 30
0.0000000000000000
 11
467.4227019271870
 21
206.5962717956518
 31
0.0000000000000000
  0
LINE
  5
288
100
AcDbEntity
  8
MAIN0
  6
CONTINUOUS
 62
3
100
AcDbLine
 10
469.2344352429016
 20
199.8347910116272
 30
0.0000000000000000
 11
473.1381779936809
 21
200.8807957291523
 31
0.0000000000000000
  0
CIRCLE
  5
289
100
AcDbEntity
  8
MAIN0
  6
CONTINUOUS
 62
3
100
AcDbCircle
 10
470.2804399604342
 20
203.7385337624017
 30
0.0000000000000000
 40
2.400000000000000
  0
CIRCLE
  5
28A
100
AcDbEntity
  8
MAIN0
  6
CONTINUOUS
 62
3
100
AcDbCircle
 10
470.2804399604342
 20
203.7385337624017
 30
0.0000000000000000
 40
3.300000000000000
  0
CIRCLE
  5
28B
100
AcDbEntity
  8
MAIN0
  6
CONTINUOUS
 62
3
100
AcDbCircle
 10
470.2804399604342
 20
203.7385337624017
 30
0.0000000000000000
 40
0.8000000000000000
  0
ARC
  5
28C
100
AcDbEntity
  8
MAIN0
  6
CENTER
 62
3
100
AcDbCircle
 10
406.6400484490821
 20
267.3789252738141
 30
0.0000000000000000
 40
115.0000000000001
100
AcDbArc
 50
324.8042185819168
 51
439.8807125465125
  0
ARC
  5
28D
100
AcDbEntity
  8
MAIN0
  6
CENTER
 62
3
100
AcDbCircle
 10
406.6400484490821
 20
267.3789252738141
 30
0.0000000000000000
 40
115.0000000000001
100
AcDbArc
 50
236.3986206746037
 51
259.2948395723735
  0
ARC
  5
28E
100
AcDbEntity
  8
MAIN0
  6
CENTER
 62
3
100
AcDbCircle
 10
406.6400484490821
 20
267.3789252738141
 30
0.0000000000000000
 40
115.0000000000001
100
AcDbArc
 50
266.4418769243929
 51
273.7343210815665
  0
LINE
  5
28F
100
AcDbEntity
  8
MAIN0
  6
CONTINUOUS
 62
3
100
AcDbLine
 10
416.1038193143630
 20
334.7171539482418
 30
0.0000000000000000
 11
419.5831468383632
 21
359.4738556667809
 31
0.0000000000000000
  0
LINE
  5
290
100
AcDbEntity
  8
MAIN0
  6
CONTINUOUS
 62
3
100
AcDbLine
 10
415.7880046514282
 20
336.7811939496191
 30
0.0000000000000000
 11
416.1038193143630
 21
334.7171539482418
 31
0.0000000000000000
  0
LINE
  5
291
100
AcDbEntity
  8
MAIN0
  6
CONTINUOUS
 62
3
100
AcDbLine
 10
416.1038193143630
 20
334.7171539482418
 30
0.0000000000000000
 11
416.9763263811378
 21
336.6141862218308
 31
0.0000000000000000
  0
LINE
  5
292
100
AcDbEntity
  8
MAIN0
  6
CONTINUOUS
 62
3
100
AcDbLine
 10
418.7106397715884
 20
357.5768233931919
 30
0.0000000000000000
 11
419.5831468383632
 21
359.4738556667809
 31
0.0000000000000000
  0
LINE
  5
293
100
AcDbEntity
  8
MAIN0
  6
CONTINUOUS
 62
3
100
AcDbLine
 10
419.5831468383632
 20
359.4738556667809
 30
0.0000000000000000
 11
419.8989615012980
 21
357.4098156654036
 31
0.0000000000000000
  0
MTEXT
  5
294
100
AcDbEntity
  8
MAIN0
  6
CONTINUOUS
 62
3
100
AcDbMText
 10
413.6157993884841
 20
345.0881183524284
 30
0.0000000000000000
 40
3.099999904632568
 41
0.0000000000000000
 71
     1
 72
     1
  1
{\H0.69x;{25}}
 11
0.1391731009600129
 21
0.9902680687415777
 31
0.0000000000000000
  7
STANDARD
  0
LEADER
  5
295
100
AcDbEntity
  8
MAIN0
  6
CONTINUOUS
 62
3
100
AcDbLeader
  3
MAIN001
 73
     0
 75
     1
 40
3.099999904632568
 41
14.59900000894072
 76
     3
 10
440.8713833746416
 20
148.7861897374988
 30
0.0000000000000000
 10
423.1162159057520
 20
100.0060671608055
 30
0.0000000000000000
 10
421.3292159584128
 20
100.0060671608055
 30
0.0000000000000000
340
296
213
0.0000000000000000
223
-0.5000000000000000
233
0.0000000000000000
1001
ACAD
1000
DSTYLE
1002
{
1070
   147
1040
0.0
1070
    77
1070
     1
1070
   173
1070
     1
1070
     6
1000
_OPEN
1070
     7
1000
_OPEN
1002
}
  0
MTEXT
  5
296
102
{ACAD_REACTORS
330
295
102
}
100
AcDbEntity
  8
MAIN0
  6
CONTINUOUS
 62
3
100
AcDbMText
 10
406.7302159494720
 20
103.6060670654381
 30
0.0000000000000000
 40
3.099999904632568
 41
0.0000000000000000
 71
     1
 72
     1
  1
{\H0.70x;{2-Rc1/4}}
 11
1.000000000000000
 21
0.0000000000000000
 31
0.0000000000000000
  7
STANDARD
  0
LEADER
  5
297
100
AcDbEntity
  8
MAIN0
  6
CONTINUOUS
 62
3
100
AcDbLeader
  3
MAIN001
 73
     0
 74
     0
 75
     1
 40
3.099999904632568
 41
10.40100000596044
 76
     3
 10
508.7342811811609
 20
329.2082949503517
 30
0.0000000000000000
 10
517.7463865034589
 20
343.2055110317278
 30
0.0000000000000000
 10
519.5313864507982
 20
343.2055110317278
 30
0.0000000000000000
340
298
213
0.0000000000000000
223
-0.5000000000000000
233
0.0000000000000000
1001
ACAD
1000
DSTYLE
1002
{
1070
   147
1040
0.0
1070
    77
1070
     1
1070
   173
1070
     1
1070
     6
1000
_OPEN
1070
     7
1000
_OPEN
1002
}
  0
MTEXT
  5
298
102
{ACAD_REACTORS
330
297
102
}
100
AcDbEntity
  8
MAIN0
  6
CONTINUOUS
 62
3
100
AcDbMText
 10
519.5323864507982
 20
346.8055109363604
 30
0.0000000000000000
 40
3.099999904632568
 41
0.0000000000000000
 71
     1
 72
     1
  1
{\H0.70x;{6-M10}}
 11
1.000000000000000
 21
0.0000000000000000
 31
0.0000000000000000
  7
STANDARD
  0
LEADER
  5
299
100
AcDbEntity
  8
MAIN2
  6
CONTINUOUS
 62
3
100
AcDbLeader
  3
MAIN001
 73
     0
 74
     0
 75
     1
 40
3.099999904632568
 41
15.10100000894056
 76
     3
 10
524.7223428410175
 20
271.3158607928932
 30
0.0000000000000000
 10
553.1935420251543
 20
297.5184005263001
 30
0.0000000000000000
 10
554.9785419724936
 20
297.5184005263001
 30
0.0000000000000000
340
29A
213
0.0000000000000000
223
-0.5000000000000000
233
0.0000000000000000
1001
ACAD
1000
DSTYLE
1002
{
1070
   147
1040
0.0
1070
    77
1070
     1
1070
   173
1070
     1
1070
     6
1000
_OPEN
1070
     7
1000
_OPEN
1002
}
  0
MTEXT
  5
29A
102
{ACAD_REACTORS
330
299
102
}
100
AcDbEntity
  8
MAIN2
  6
CONTINUOUS
 62
3
100
AcDbMText
 10
554.9795419724936
 20
301.1184004309326
 30
0.0000000000000000
 40
3.099999904632568
 41
0.0000000000000000
 71
     1
 72
     1
  1
{\H0.70x;{2-\U+220510H7}}
 11
1.000000000000000
 21
0.0000000000000000
 31
0.0000000000000000
  7
STANDARD
  0
LEADER
  5
29B
100
AcDbEntity
  8
MAIN0
  6
CONTINUOUS
 62
3
100
AcDbLeader
  3
MAIN001
 73
     0
 74
     0
 75
     1
 40
3.099999904632568
 41
10.90100000596044
 76
     3
 10
441.0292715192916
 20
381.4368144251213
 30
0.0000000000000000
 10
454.8693637126217
 20
390.3435435607782
 30
0.0000000000000000
 10
456.6543636599610
 20
390.3435435607782
 30
0.0000000000000000
340
29C
213
0.0000000000000000
223
-0.5000000000000000
233
0.0000000000000000
1001
ACAD
1000
DSTYLE
1002
{
1070
   147
1040
0.0
1070
    77
1070
     1
1070
   173
1070
     1
1070
     6
1000
_OPEN
1070
     7
1000
_OPEN
1002
}
  0
MTEXT
  5
29C
102
{ACAD_REACTORS
330
29B
102
}
100
AcDbEntity
  8
MAIN0
  6
CONTINUOUS
 62
3
100
AcDbMText
 10
456.6553636599610
 20
393.9435434654108
 30
0.0000000000000000
 40
3.099999904632568
 41
0.0000000000000000
 71
     1
 72
     1
  1
{\H0.70x;{4-\U+220511}}
 11
1.000000000000000
 21
0.0000000000000000
 31
0.0000000000000000
  7
STANDARD
  0
LEADER
  5
29D
100
AcDbEntity
  8
MAIN0
  6
CONTINUOUS
 62
3
100
AcDbLeader
  3
MAIN001
 73
     0
 75
     1
 40
3.099999904632568
 41
25.09900001639130
 76
     3
 10
403.9079761487110
 20
363.3005311585249
 30
0.0000000000000000
 10
372.4420872560687
 20
399.9100919340230
 30
0.0000000000000000
 10
370.6550873087294
 20
399.9100919340230
 30
0.0000000000000000
340
29E
213
0.0000000000000000
223
-0.5000000000000000
233
0.0000000000000000
1001
ACAD
1000
DSTYLE
1002
{
1070
   147
1040
0.0
1070
    77
1070
     1
1070
   173
1070
     1
1070
     6
1000
_OPEN
1070
     7
1000
_OPEN
1002
}
  0
MTEXT
  5
29E
102
{ACAD_REACTORS
330
29D
102
}
100
AcDbEntity
  8
MAIN0
  6
CONTINUOUS
 62
3
100
AcDbMText
 10
345.5560872923381
 20
403.5100918386556
 30
0.0000000000000000
 40
3.099999904632568
 41
0.0000000000000000
 71
     1
 72
     1
  1
{\H0.71x;{4-M8 深15\P4-M8 DEPTH15}}
 11
1.000000000000000
 21
0.0000000000000000
 31
0.0000000000000000
  7
KNJYOKO
  0
LINE
  5
29F
100
AcDbEntity
  8
MAIN0
  6
CENTER
 62
3
100
AcDbLine
 10
406.6400484491600
 20
139.6847770484914
 30
0.0000000000000000
 11
406.6400484489961
 21
407.9350306800062
 31
0.0000000000000000
  0
LINE
  5
2A0
100
AcDbEntity
  8
MAIN0
  6
CENTER
 62
3
100
AcDbLine
 10
290.4600329803459
 20
200.3023620684844
 30
0.0000000000000000
 11
406.6400484490821
 21
267.3789252738141
 31
0.0000000000000000
  0
LINE
  5
2A1
100
AcDbEntity
  8
MAIN0
  6
CENTER
 62
3
100
AcDbLine
 10
491.9571715728950
 20
316.6367892758319
 30
0.0000000000000000
 11
524.2142382855740
 21
335.2604154256649
 31
0.0000000000000000
  0
LINE
  5
2A2
100
AcDbEntity
  8
MAIN0
  6
CENTER
 62
3
100
AcDbLine
 10
450.3045817068617
 20
304.0178190259496
 30
0.0000000000000000
 11
440.7290261678749
 21
295.9829739048673
 31
0.0000000000000000
  0
ARC
  5
2A3
100
AcDbEntity
  8
MAIN0
  6
CENTER
 62
3
100
AcDbCircle
 10
406.6400484490821
 20
267.3789252738141
 30
0.0000000000000000
 40
50.75000000000003
100
AcDbArc
 50
32.94246633964325
 51
47.05753366036387
  0
CIRCLE
  5
2A4
100
AcDbEntity
  8
MAIN0
  6
CONTINUOUS
 62
3
100
AcDbCircle
 10
445.5168039373641
 20
234.7574540822150
 30
0.0000000000000000
 40
4.250000000000000
  0
LINE
  5
2A5
100
AcDbEntity
  8
MAIN0
  6
CONTINUOUS
 62
3
100
AcDbLine
 10
445.1157806488827
 20
232.4831379970085
 30
0.0000000000000000
 11
443.3466767870990
 21
233.9675923949458
 31
0.0000000000000000
  0
LINE
  5
2A6
100
AcDbEntity
  8
MAIN0
  6
CONTINUOUS
 62
3
100
AcDbLine
 10
443.3466767870991
 20
233.9675923949458
 30
0.0000000000000000
 11
443.7477000755805
 21
236.2419084801523
 31
0.0000000000000000
  0
LINE
  5
2A7
100
AcDbEntity
  8
MAIN0
  6
CONTINUOUS
 62
3
100
AcDbLine
 10
443.7477000755805
 20
236.2419084801522
 30
0.0000000000000000
 11
445.9178272258456
 21
237.0317701674214
 31
0.0000000000000000
  0
LINE
  5
2A8
100
AcDbEntity
  8
MAIN0
  6
CONTINUOUS
 62
3
100
AcDbLine
 10
445.9178272258455
 20
237.0317701674214
 30
0.0000000000000000
 11
447.6869310876292
 21
235.5473157694840
 31
0.0000000000000000
  0
LINE
  5
2A9
100
AcDbEntity
  8
MAIN0
  6
CONTINUOUS
 62
3
100
AcDbLine
 10
447.6869310876292
 20
235.5473157694840
 30
0.0000000000000000
 11
447.2859077991478
 21
233.2729996842776
 31
0.0000000000000000
  0
LINE
  5
2AA
100
AcDbEntity
  8
MAIN0
  6
CONTINUOUS
 62
3
100
AcDbLine
 10
447.2859077991478
 20
233.2729996842776
 30
0.0000000000000000
 11
445.1157806488827
 21
232.4831379970085
 31
0.0000000000000000
  0
LINE
  5
2AB
100
AcDbEntity
  8
MAIN0
  6
CENTER
 62
3
100
AcDbLine
 10
450.3045817068570
 20
230.7400315216732
 30
0.0000000000000000
 11
440.7290261678713
 21
238.7748766427567
 31
0.0000000000000000
  0
ARC
  5
2AC
100
AcDbEntity
  8
MAIN0
  6
CENTER
 62
3
100
AcDbCircle
 10
406.6400484490821
 20
267.3789252738141
 30
0.0000000000000000
 40
50.75000000000003
100
AcDbArc
 50
312.9424663396289
 51
327.0575336603496
  0
CIRCLE
  5
2AD
100
AcDbEntity
  8
MAIN0
  6
CONTINUOUS
 62
3
100
AcDbCircle
 10
367.7632929608397
 20
234.7574540821675
 30
0.0000000000000000
 40
4.250000000000000
  0
LINE
  5
2AE
100
AcDbEntity
  8
MAIN0
  6
CONTINUOUS
 62
3
100
AcDbLine
 10
368.1643162493238
 20
232.4831379969615
 30
0.0000000000000000
 11
369.9334201111057
 21
233.9675923949010
 31
0.0000000000000000
  0
LINE
  5
2AF
100
AcDbEntity
  8
MAIN0
  6
CONTINUOUS
 62
3
100
AcDbLine
 10
369.9334201111057
 20
233.9675923949010
 30
0.0000000000000000
 11
369.5323968226215
 21
236.2419084801069
 31
0.0000000000000000
  0
LINE
  5
2B0
100
AcDbEntity
  8
MAIN0
  6
CONTINUOUS
 62
3
100
AcDbLine
 10
369.5323968226215
 20
236.2419084801069
 30
0.0000000000000000
 11
367.3622696723554
 21
237.0317701673734
 31
0.0000000000000000
  0
LINE
  5
2B1
100
AcDbEntity
  8
MAIN0
  6
CONTINUOUS
 62
3
100
AcDbLine
 10
367.3622696723554
 20
237.0317701673735
 30
0.0000000000000000
 11
365.5931658105735
 21
235.5473157694339
 31
0.0000000000000000
  0
LINE
  5
2B2
100
AcDbEntity
  8
MAIN0
  6
CONTINUOUS
 62
3
100
AcDbLine
 10
365.5931658105736
 20
235.5473157694339
 30
0.0000000000000000
 11
365.9941890990578
 21
233.2729996842280
 31
0.0000000000000000
  0
LINE
  5
2B3
100
AcDbEntity
  8
MAIN0
  6
CONTINUOUS
 62
3
100
AcDbLine
 10
365.9941890990578
 20
233.2729996842280
 30
0.0000000000000000
 11
368.1643162493239
 21
232.4831379969615
 31
0.0000000000000000
  0
LINE
  5
2B4
100
AcDbEntity
  8
MAIN0
  6
CENTER
 62
3
100
AcDbLine
 10
362.9755151913516
 20
230.7400315216199
 30
0.0000000000000000
 11
372.5510707303276
 21
238.7748766427151
 31
0.0000000000000000
  0
ARC
  5
2B5
100
AcDbEntity
  8
MAIN0
  6
CENTER
 62
3
100
AcDbCircle
 10
406.6400484490819
 20
267.3789252738141
 30
0.0000000000000000
 40
50.75000000000003
100
AcDbArc
 50
212.9424663397204
 51
227.0575336604410
  0
CIRCLE
  5
2B6
100
AcDbEntity
  8
MAIN0
  6
CONTINUOUS
 62
3
100
AcDbCircle
 10
367.7632929608438
 20
300.0003964654657
 30
0.0000000000000000
 40
4.250000000000000
  0
LINE
  5
2B7
100
AcDbEntity
  8
MAIN0
  6
CONTINUOUS
 62
3
100
AcDbLine
 10
368.1643162493282
 20
302.2747125506716
 30
0.0000000000000000
 11
369.9334201111099
 21
300.7902581527318
 31
0.0000000000000000
  0
LINE
  5
2B8
100
AcDbEntity
  8
MAIN0
  6
CONTINUOUS
 62
3
100
AcDbLine
 10
369.9334201111099
 20
300.7902581527318
 30
0.0000000000000000
 11
369.5323968226254
 21
298.5159420675259
 31
0.0000000000000000
  0
LINE
  5
2B9
100
AcDbEntity
  8
MAIN0
  6
CONTINUOUS
 62
3
100
AcDbLine
 10
369.5323968226254
 20
298.5159420675259
 30
0.0000000000000000
 11
367.3622696723592
 21
297.7260803802598
 31
0.0000000000000000
  0
LINE
  5
2BA
100
AcDbEntity
  8
MAIN0
  6
CONTINUOUS
 62
3
100
AcDbLine
 10
367.3622696723592
 20
297.7260803802597
 30
0.0000000000000000
 11
365.5931658105776
 21
299.2105347781995
 31
0.0000000000000000
  0
LINE
  5
2BB
100
AcDbEntity
  8
MAIN0
  6
CONTINUOUS
 62
3
100
AcDbLine
 10
365.5931658105776
 20
299.2105347781995
 30
0.0000000000000000
 11
365.9941890990621
 21
301.4848508634054
 31
0.0000000000000000
  0
LINE
  5
2BC
100
AcDbEntity
  8
MAIN0
  6
CONTINUOUS
 62
3
100
AcDbLine
 10
365.9941890990621
 20
301.4848508634054
 30
0.0000000000000000
 11
368.1643162493282
 21
302.2747125506716
 31
0.0000000000000000
  0
LINE
  5
2BD
100
AcDbEntity
  8
MAIN0
  6
CENTER
 62
3
100
AcDbLine
 10
362.9755151913562
 20
304.0178190260139
 30
0.0000000000000000
 11
372.5510707303312
 21
295.9829739049174
 31
0.0000000000000000
  0
ARC
  5
2BE
100
AcDbEntity
  8
MAIN0
  6
CENTER
 62
3
100
AcDbCircle
 10
406.6400484490819
 20
267.3789252738141
 30
0.0000000000000000
 40
50.75000000000003
100
AcDbArc
 50
132.9424663395518
 51
147.0575336602724
  0
LEADER
  5
2BF
100
AcDbEntity
  8
MAIN5
  6
CONTINUOUS
 62
3
100
AcDbLeader
  3
MAIN001
 73
     0
 75
     1
 40
3.099999904632568
 41
14.59900000894072
 76
     3
 10
428.5086322693868
 20
187.9663616230383
 30
0.0000000000000000
 10
359.4269808632906
 20
112.4418432921760
 30
0.0000000000000000
 10
357.6399809159514
 20
112.4418432921760
 30
0.0000000000000000
340
2C0
213
0.0000000000000000
223
-0.5000000000000000
233
0.0000000000000000
1001
ACAD
1000
DSTYLE
1002
{
1070
   147
1040
0.0
1070
    77
1070
     1
1070
   173
1070
     1
1070
     6
1000
_OPEN
1070
     7
1000
_OPEN
1002
}
  0
MTEXT
  5
2C0
102
{ACAD_REACTORS
330
2BF
102
}
100
AcDbEntity
  8
MAIN5
  6
CONTINUOUS
 62
3
100
AcDbMText
 10
343.0409809070106
 20
116.0418431968086
 30
0.0000000000000000
 40
3.099999904632568
 41
0.0000000000000000
 71
     1
 72
     1
  1
{\H0.70x;{2-Rc1/8}}
 11
1.000000000000000
 21
0.0000000000000000
 31
0.0000000000000000
  7
STANDARD
  0
ARC
  5
2C1
100
AcDbEntity
  8
MAIN0
  6
CONTINUOUS
 62
3
100
AcDbCircle
 10
406.6400484490821
 20
267.3789252738141
 30
0.0000000000000000
 40
18.50000000000000
100
AcDbArc
 50
210.1325934229248
 51
509.8674065770753
  0
DIMENSION
  5
2CA
100
AcDbEntity
  8
MAIN0
  6
CONTINUOUS
 62
3
100
AcDbDimension
  2
*D32
 10
518.7484650640978
 20
153.2014517405081
 30
0.0000000000000000
 11
483.8574489127203
 21
133.6344644424003
 31
0.0000000000000000
 70
33
  3
MAIN001
100
AcDbAlignedDimension
 13
434.7490322977046
 23
138.6927370988670
 33
0.0000000000000000
 14
504.0310646004597
 24
178.6927370988670
 34
0.0000000000000000
 50
30.00000000000001
1001
ACAD
1000
DSTYLE
1002
{
1070
   173
1070
     1
1070
     6
1000
_OPEN
1070
     7
1000
_OPEN
1070
    41
1040
2.000000
1002
}
  0
DIMENSION
  5
2D3
100
AcDbEntity
  8
MAIN0
  6
CONTINUOUS
 62
3
100
AcDbDimension
  2
*D33
 10
459.3684255824290
 20
129.0506970782040
 30
0.0000000000000000
 11
479.4700225713633
 21
141.2337097800962
 31
0.0000000000000000
 70
32
  3
MAIN001
100
AcDbAlignedDimension
 13
492.1682778800623
 23
166.2396864179486
 33
0.0000000000000000
 14
450.8440937412707
 24
143.8152729276676
 34
0.0000000000000000
 50
29.99999999999999
100
AcDbRotatedDimension
1001
ACAD
1000
DSTYLE
1002
{
1070
   173
1070
     1
1070
     6
1000
_OPEN
1070
     7
1000
_OPEN
1070
    41
1040
2.000000
1002
}
  0
DIMENSION
  5
2D9
100
AcDbEntity
  8
MAIN0
  6
CONTINUOUS
 62
3
100
AcDbDimension
  2
*D34
 10
406.6400484490821
 20
267.3789252738142
 30
0.0000000000000000
 11
412.1589849362239
 21
310.7623442297034
 31
0.0000000000000000
 70
164
  3
MAIN001
100
AcDbRadialDimension
 15
415.9920449315731
 25
334.7327682361239
 35
0.0000000000000000
1001
ACAD
1000
DSTYLE
1002
{
1070
   173
1070
     1
1070
     6
1000
_OPEN
1070
     7
1000
_OPEN
1070
    41
1040
2.000000
1070
   340
1005
143
1002
}
  0
DIMENSION
  5
2E2
100
AcDbEntity
  8
MAIN5
  6
CONTINUOUS
 62
3
100
AcDbDimension
  2
*D35
 10
423.5556221774567
 20
205.0802921370919
 30
0.0000000000000000
 11
440.5643543658217
 21
215.4776385138083
 31
0.0000000000000000
 70
160
  3
MAIN001
100
AcDbAlignedDimension
 13
456.6622323185317
 23
213.7379613063751
 33
0.0000000000000000
 14
427.1939096098964
 24
198.7785934515671
 34
0.0000000000000000
 50
30.00000000000000
100
AcDbRotatedDimension
1001
ACAD
1000
DSTYLE
1002
{
1070
   173
1070
     1
1070
     6
1000
_OPEN
1070
     7
1000
_OPEN
1070
    41
1040
2.000000
1002
}
  0
DIMENSION
  5
2E8
100
AcDbEntity
  8
MAIN5
  6
CONTINUOUS
 62
3
100
AcDbDimension
  2
*D36
 10
406.6400484490821
 20
267.3789252738141
 30
0.0000000000000000
 11
413.7187228119252
 21
228.0070778538006
 31
0.0000000000000000
 70
164
  3
MAIN001
100
AcDbRadialDimension
 15
421.7793278478625
 25
188.8244714262717
 35
0.0000000000000000
1001
ACAD
1000
DSTYLE
1002
{
1070
   173
1070
     1
1070
     6
1000
_OPEN
1070
     7
1000
_OPEN
1070
    41
1040
2.000000
1070
   340
1005
143
1002
}
  0
DIMENSION
  5
2EF
100
AcDbEntity
  8
MAIN0
  6
CONTINUOUS
 62
3
100
AcDbDimension
  2
*D37
 10
345.3140304280674
 20
170.0952189623962
 30
0.0000000000000000
 11
443.2956332173878
 21
326.4665076769540
 31
0.0000000000000000
 70
163
  3
MAIN001
100
AcDbDiametricDimension
 15
467.9660664700965
 25
364.6626315852319
 35
0.0000000000000000
1001
ACAD
1000
DSTYLE
1002
{
1070
   287
1070
     2
1070
   173
1070
     1
1070
     6
1000
_OPEN
1070
     7
1000
_OPEN
1070
    41
1040
2.000000
1070
   272
1070
     1
1070
    47
1040
0.200000
1070
    48
1040
0.200000
1070
    71
1070
     1
1002
}
  0
DIMENSION
  5
2F7
100
AcDbEntity
  8
MAIN0
  6
CONTINUOUS
 62
3
100
AcDbDimension
  2
*D38
 10
406.6400484490015
 20
399.1656783785895
 30
0.0000000000000000
 11
423.9069346128559
 21
398.5339468673890
 31
0.0000000000000000
 70
162
  3
MAIN001
100
AcDb2LineAngularDimension
 13
438.3531384220354
 23
385.7337883186477
 33
0.0000000000000000
 14
438.0943193769344
 24
384.7678624923582
 34
0.0000000000000000
 15
406.6400484490818
 25
267.3789252738147
 35
0.0000000000000000
 16
423.8416715167465
 26
398.0382244367020
 36
0.0000000000000000
1001
ACAD
1000
DSTYLE
1002
{
1070
   173
1070
     1
1070
     6
1000
_OPEN
1070
     7
1000
_OPEN
1070
    41
1040
2.000000
1002
}
  0
DIMENSION
  5
2FF
100
AcDbEntity
  8
MAIN0
  6
CONTINUOUS
 62
3
100
AcDbDimension
  2
*D39
 10
301.0368977872903
 20
328.3489327357584
 30
0.0000000000000000
 11
340.4966718966944
 21
381.9426140467097
 31
0.0000000000000000
 70
162
  3
MAIN001
100
AcDb2LineAngularDimension
 13
406.6400484490015
 23
399.1656783785895
 33
0.0000000000000000
 14
406.6400484490818
 24
267.3789252738147
 34
0.0000000000000000
 15
301.9029231910745
 25
327.8489327357578
 35
0.0000000000000000
 16
340.7466718966944
 26
381.5096013448174
 36
0.0000000000000000
1001
ACAD
1000
DSTYLE
1002
{
1070
   173
1070
     1
1070
     6
1000
_OPEN
1070
     7
1000
_OPEN
1070
    41
1040
2.000000
1002
}
  0
DIMENSION
  5
306
100
AcDbEntity
  8
MAIN0
  6
CONTINUOUS
 62
3
100
AcDbDimension
  2
*D40
 10
433.0281089663134
 20
221.6734637447671
 30
0.0000000000000000
 11
424.6817124942418
 21
218.3147714658518
 31
0.0000000000000000
 70
162
  3
MAIN001
100
AcDb2LineAngularDimension
 13
406.6400484491143
 23
214.6028042393514
 33
0.0000000000000000
 14
406.6400484490820
 24
267.3789252738143
 34
0.0000000000000000
 15
406.6400484490820
 25
267.3789252738143
 35
0.0000000000000000
 16
420.2995136994523
 26
216.4011069552730
 36
0.0000000000000000
1001
ACAD
1000
DSTYLE
1002
{
1070
   173
1070
     1
1070
     6
1000
_OPEN
1070
     7
1000
_OPEN
1070
    41
1040
2.000000
1002
}
  0
DIMENSION
  5
310
100
AcDbEntity
  8
MAIN0
  6
CONTINUOUS
 62
3
100
AcDbDimension
  2
*D41
 10
344.7089129406280
 20
231.6229675167889
 30
0.0000000000000000
 11
384.7443510576615
 21
182.8209001138506
 31
0.0000000000000000
 70
160
  3
MAIN001
100
AcDbAlignedDimension
 13
434.7490322977046
 23
138.6927370988670
 33
0.0000000000000000
 14
290.4600329803459
 24
200.3023620684844
 34
0.0000000000000000
 50
120.0000000000000
100
AcDbRotatedDimension
1001
ACAD
1000
DSTYLE
1002
{
1070
    73
1070
     1
1070
    74
1070
     1
1070
   287
1070
     4
1070
   173
1070
     1
1070
     6
1000
_OPEN
1070
     7
1000
_OPEN
1070
    41
1040
2.000000
1002
}
  0
LINE
  5
311
100
AcDbEntity
  8
MAIN0
  6
CENTER
 62
3
100
AcDbLine
 10
279.2330962377596
 20
267.3789252738221
 30
0.0000000000000000
 11
375.8519253891028
 21
267.3789252738160
 31
0.0000000000000000
  0
LINE
  5
312
100
AcDbEntity
  8
MAIN0
  6
CENTER
 62
3
100
AcDbLine
 10
381.9519252937354
 20
267.3789252738156
 30
0.0000000000000000
 11
534.5570447561863
 21
267.3789252738061
 31
0.0000000000000000
  0
ARC
  5
313
100
AcDbEntity
  8
MAIN0
  6
CONTINUOUS
 62
3
100
AcDbCircle
 10
406.6400484490821
 20
267.3789252738141
 30
0.0000000000000000
 40
56.50000000000008
100
AcDbArc
 50
198.0432317616369
 51
339.2689151552546
  0
ARC
  5
314
100
AcDbEntity
  8
MAIN0
  6
CONTINUOUS
 62
3
100
AcDbCircle
 10
406.6400484490821
 20
267.3789252738141
 30
0.0000000000000000
 40
56.50000000000008
100
AcDbArc
 50
339.4364512316017
 51
341.9567682383595
  0
ARC
  5
315
100
AcDbEntity
  8
MAIN0
  6
CONTINUOUS
 62
3
100
AcDbCircle
 10
406.6400484490821
 20
267.3789252738141
 30
0.0000000000000000
 40
56.50000000000008
100
AcDbArc
 50
18.04323176163326
 51
20.56354876839647
  0
ARC
  5
316
100
AcDbEntity
  8
MAIN0
  6
CONTINUOUS
 62
3
100
AcDbCircle
 10
406.6400484490821
 20
267.3789252738141
 30
0.0000000000000000
 40
56.50000000000008
100
AcDbArc
 50
20.73108484474044
 51
161.9567682383630
  0
LINE
  5
317
100
AcDbEntity
  8
MAIN0
  6
HIDDEN
 62
3
100
AcDbLine
 10
83.28683759984845
 20
192.2116752738141
 30
0.0000000000000000
 11
88.48683759984846
 21
192.0491752738141
 31
0.0000000000000000
  0
LINE
  5
318
100
AcDbEntity
  8
MAIN0
  6
HIDDEN
 62
3
100
AcDbLine
 10
88.48683759984847
 20
182.7086752738141
 30
0.0000000000000000
 11
83.28683759984848
 21
182.5461752738141
 31
0.0000000000000000
  0
LINE
  5
319
100
AcDbEntity
  8
MAIN0
  6
DASHED
 62
3
100
AcDbLine
 10
83.28683759984848
 20
191.6306752738141
 30
0.0000000000000000
 11
88.48683759984846
 21
191.4681752738141
 31
0.0000000000000000
  0
LINE
  5
31A
100
AcDbEntity
  8
MAIN0
  6
DASHED
 62
3
100
AcDbLine
 10
83.28683759984847
 20
183.1271752738141
 30
0.0000000000000000
 11
88.48683759984846
 21
183.2896752738141
 31
0.0000000000000000
  0
LINE
  5
31B
100
AcDbEntity
  8
MAIN0
  6
CONTINUOUS
 62
3
100
AcDbLine
 10
181.2868456407532
 20
63.70517111868412
 30
0.0000000000000000
 11
181.2868456407532
 21
66.25517111868413
 31
0.0000000000000000
  0
ARC
  5
31C
100
AcDbEntity
  8
MAIN0
  6
CONTINUOUS
 62
3
100
AcDbCircle
 10
180.0868456408299
 20
47.15517111868417
 30
0.0000000000000000
 40
1.200000000000000
100
AcDbArc
 50
269.9999999999999
 51
359.9999999999999
  0
LINE
  5
31D
100
AcDbEntity
  8
MAIN0
  6
CONTINUOUS
 62
3
100
AcDbLine
 10
174.8682164905100
 20
45.95517111868415
 30
0.0000000000000000
 11
180.0868456408299
 21
45.95517111868412
 31
0.0000000000000000
  0
ARC
  5
31E
100
AcDbEntity
  8
MAIN0
  6
CONTINUOUS
 62
3
100
AcDbCircle
 10
174.8682164908289
 20
46.75517111868416
 30
0.0000000000000000
 40
0.8000000000000000
100
AcDbArc
 50
225.0000000000021
 51
269.9999999999999
  0
LINE
  5
31F
100
AcDbEntity
  8
MAIN0
  6
CONTINUOUS
 62
3
100
AcDbLine
 10
171.5211602158001
 20
48.97085654381462
 30
0.0000000000000000
 11
174.3025310658798
 21
46.18948569373487
 31
0.0000000000000000
  0
ARC
  5
320
100
AcDbEntity
  8
MAIN0
  6
CONTINUOUS
 62
3
100
AcDbCircle
 10
172.0868456407492
 20
49.53654196876386
 30
0.0000000000000000
 40
0.8000000000000000
100
AcDbArc
 50
179.9999999999999
 51
225.0000000000050
  0
LINE
  5
321
100
AcDbEntity
  8
MAIN0
  6
CONTINUOUS
 62
3
100
AcDbLine
 10
181.2868456407532
 20
49.70517111868418
 30
0.0000000000000000
 11
181.2868456407532
 21
47.15517111868417
 31
0.0000000000000000
  0
LINE
  5
322
100
AcDbEntity
  8
MAIN0
  6
CONTINUOUS
 62
3
100
AcDbLine
 10
457.3900484490796
 20
271.3789252737739
 30
0.0000000000000000
 11
457.3900484490800
 21
263.3789252738494
 31
0.0000000000000000
  0
CIRCLE
  5
323
100
AcDbEntity
  8
MAIN0
  6
CONTINUOUS
 62
3
100
AcDbCircle
 10
468.3900484490602
 20
267.3789252738119
 30
0.0000000000000000
 40
6.000000000000000
  0
CIRCLE
  5
324
100
AcDbEntity
  8
MAIN0
  6
CONTINUOUS
 62
3
100
AcDbCircle
 10
468.3900484490602
 20
267.3789252738119
 30
0.0000000000000000
 40
5.100000000000000
  0
CIRCLE
  5
325
100
AcDbEntity
  8
MAIN0
  6
CONTINUOUS
 62
3
100
AcDbCircle
 10
493.3900484490600
 20
267.3789252738119
 30
0.0000000000000000
 40
6.000000000000000
  0
CIRCLE
  5
326
100
AcDbEntity
  8
MAIN0
  6
CONTINUOUS
 62
3
100
AcDbCircle
 10
493.3900484490600
 20
267.3789252738119
 30
0.0000000000000000
 40
5.100000000000000
  0
LINE
  5
327
100
AcDbEntity
  8
MAIN0
  6
CONTINUOUS
 62
3
100
AcDbLine
 10
453.9026115820030
 20
278.6414884067355
 30
0.0000000000000000
 11
456.3774853161559
 21
281.1163621408883
 31
0.0000000000000000
  0
LINE
  5
328
100
AcDbEntity
  8
MAIN0
  6
CONTINUOUS
 62
3
100
AcDbLine
 10
456.3774853161559
 20
278.6414884067354
 30
0.0000000000000000
 11
453.9026115820029
 21
281.1163621408883
 31
0.0000000000000000
  0
LINE
  5
329
100
AcDbEntity
  8
MAIN0
  6
CONTINUOUS
 62
3
100
AcDbLine
 10
453.9026115820033
 20
253.6414884067355
 30
0.0000000000000000
 11
456.3774853161561
 21
256.1163621408883
 31
0.0000000000000000
  0
LINE
  5
32A
100
AcDbEntity
  8
MAIN0
  6
CONTINUOUS
 62
3
100
AcDbLine
 10
456.3774853161561
 20
253.6414884067355
 30
0.0000000000000000
 11
453.9026115820033
 21
256.1163621408883
 31
0.0000000000000000
  0
LINE
  5
32B
100
AcDbEntity
  8
MAIN0
  6
HIDDEN
 62
3
100
AcDbLine
 10
197.2868456407532
 20
50.70517111868418
 30
0.0000000000000000
 11
171.7868456407537
 21
50.70517111868418
 31
0.0000000000000000
  0
LINE
  5
32C
100
AcDbEntity
  8
MAIN0
  6
HIDDEN
 62
3
100
AcDbLine
 10
197.2868456407532
 20
62.70517111868418
 30
0.0000000000000000
 11
171.7868456407527
 21
62.70517111868418
 31
0.0000000000000000
  0
LINE
  5
32D
100
AcDbEntity
  8
MAIN0
  6
HIDDEN
 62
3
100
AcDbLine
 10
197.2868456407532
 20
51.60517111868418
 30
0.0000000000000000
 11
171.7868456407537
 21
51.60517111868418
 31
0.0000000000000000
  0
LINE
  5
32E
100
AcDbEntity
  8
MAIN0
  6
HIDDEN
 62
3
100
AcDbLine
 10
171.7868456407527
 20
61.80517111868417
 30
0.0000000000000000
 11
197.2868456407532
 21
61.80517111868417
 31
0.0000000000000000
  0
LINE
  5
32F
100
AcDbEntity
  8
MAIN0
  6
CONTINUOUS
 62
3
100
AcDbLine
 10
83.28683759984847
 20
391.3789252738141
 30
0.0000000000000000
 11
83.28683759984847
 21
143.3789252738141
 31
0.0000000000000000
  0
LINE
  5
330
100
AcDbEntity
  8
MAIN0
  6
CONTINUOUS
 62
3
100
AcDbLine
 10
83.28683759984843
 20
391.3789252738141
 30
0.0000000000000000
 11
98.28683759984847
 21
391.3789252738141
 31
0.0000000000000000
  0
LINE
  5
331
100
AcDbEntity
  8
MAIN0
  6
CONTINUOUS
 62
3
100
AcDbLine
 10
83.28683759984843
 20
143.3789252738141
 30
0.0000000000000000
 11
98.28683759984847
 21
143.3789252738141
 31
0.0000000000000000
  0
LINE
  5
332
100
AcDbEntity
  8
MAIN0
  6
CONTINUOUS
 62
3
100
AcDbLine
 10
98.28683759984847
 20
391.3789252738141
 30
0.0000000000000000
 11
98.28683759984843
 21
288.9101625692301
 31
0.0000000000000000
  0
LINE
  5
333
100
AcDbEntity
  8
MAIN0
  6
CENTER
 62
3
100
AcDbLine
 10
82.06222935946354
 20
382.3789252738141
 30
0.0000000000000000
 11
100.0724228882494
 21
382.3789252738141
 31
0.0000000000000000
  0
LINE
  5
334
100
AcDbEntity
  8
MAIN0
  6
CONTINUOUS
 62
3
100
AcDbLine
 10
88.38683759984846
 20
282.3789252738141
 30
0.0000000000000000
 11
189.3868375998486
 21
282.3789252738141
 31
0.0000000000000000
  0
LINE
  5
335
100
AcDbEntity
  8
MAIN0
  6
CONTINUOUS
 62
3
100
AcDbLine
 10
88.38683759984846
 20
252.3789252738141
 30
0.0000000000000000
 11
189.2868375998485
 21
252.3789252738141
 31
0.0000000000000000
  0
LINE
  5
336
100
AcDbEntity
  8
MAIN0
  6
CONTINUOUS
 62
3
100
AcDbLine
 10
98.28683759984847
 20
372.3789252738141
 30
0.0000000000000000
 11
189.2868375998485
 21
372.3789252738141
 31
0.0000000000000000
  0
LINE
  5
337
100
AcDbEntity
  8
MAIN0
  6
CONTINUOUS
 62
3
100
AcDbLine
 10
189.2868375998485
 20
320.3789252738141
 30
0.0000000000000000
 11
192.9868375998485
 21
320.3789252738141
 31
0.0000000000000000
  0
LINE
  5
338
100
AcDbEntity
  8
MAIN0
  6
CONTINUOUS
 62
3
100
AcDbLine
 10
192.9868375998485
 20
320.3789252738141
 30
0.0000000000000000
 11
194.2868375998484
 21
321.1294806237598
 31
0.0000000000000000
  0
LINE
  5
339
100
AcDbEntity
  8
MAIN0
  6
CONTINUOUS
 62
3
100
AcDbLine
 10
192.9868375998484
 20
320.3789252738141
 30
0.0000000000000000
 11
194.2868375998486
 21
319.6283699238683
 31
0.0000000000000000
  0
LINE
  5
33A
100
AcDbEntity
  8
MAIN0
  6
CONTINUOUS
 62
3
100
AcDbLine
 10
192.9868375998484
 20
318.8789252738141
 30
0.0000000000000000
 11
194.2868375998484
 21
319.6294806237598
 31
0.0000000000000000
  0
LINE
  5
33B
100
AcDbEntity
  8
MAIN0
  6
CONTINUOUS
 62
3
100
AcDbLine
 10
192.9868375998485
 20
318.8789252738142
 30
0.0000000000000000
 11
192.9868375998485
 21
284.1294806237600
 31
0.0000000000000000
  0
LINE
  5
33C
100
AcDbEntity
  8
MAIN0
  6
CONTINUOUS
 62
3
100
AcDbLine
 10
192.9868375998485
 20
321.8789252738141
 30
0.0000000000000000
 11
194.2868375998484
 21
321.1283699238684
 31
0.0000000000000000
  0
LINE
  5
33D
100
AcDbEntity
  8
MAIN0
  6
CONTINUOUS
 62
3
100
AcDbLine
 10
192.9868375998486
 20
377.6294806237603
 30
0.0000000000000000
 11
194.2868375998485
 21
378.3800359737062
 31
0.0000000000000000
  0
LINE
  5
33E
100
AcDbEntity
  8
MAIN0
  6
CONTINUOUS
 62
3
100
AcDbLine
 10
192.9868375998485
 20
372.8789252738141
 30
0.0000000000000000
 11
192.9868375998485
 21
321.8789252738141
 31
0.0000000000000000
  0
LINE
  5
33F
100
AcDbEntity
  8
MAIN0
  6
CONTINUOUS
 62
3
100
AcDbLine
 10
192.9868375998485
 20
377.6294806237602
 30
0.0000000000000000
 11
192.9868375998485
 21
372.8789252738141
 31
0.0000000000000000
  0
LINE
  5
340
100
AcDbEntity
  8
MAIN0
  6
CONTINUOUS
 62
3
100
AcDbLine
 10
194.2868375998485
 20
319.8783699238683
 30
0.0000000000000000
 11
194.2868375998485
 21
283.3789252738141
 31
0.0000000000000000
  0
LINE
  5
341
100
AcDbEntity
  8
MAIN0
  6
CONTINUOUS
 62
3
100
AcDbLine
 10
194.2868375998485
 20
378.3789252738141
 30
0.0000000000000000
 11
194.2868375998485
 21
319.8783699238683
 31
0.0000000000000000
  0
LINE
  5
342
100
AcDbEntity
  8
MAIN0
  6
CONTINUOUS
 62
3
100
AcDbLine
 10
83.28683759984843
 20
285.3789252738141
 30
0.0000000000000000
 11
101.4146803728593
 21
285.3789252738141
 31
0.0000000000000000
  0
LINE
  5
343
100
AcDbEntity
  8
MAIN0
  6
CONTINUOUS
 62
3
100
AcDbLine
 10
83.28683759984843
 20
249.3789252738141
 30
0.0000000000000000
 11
104.4991416534090
 21
249.3789252738141
 31
0.0000000000000000
  0
LINE
  5
344
100
AcDbEntity
  8
MAIN0
  6
CONTINUOUS
 62
3
100
AcDbLine
 10
190.8868375998485
 20
248.8789252738141
 30
0.0000000000000000
 11
190.8868375998485
 21
285.8789252738141
 31
0.0000000000000000
  0
LINE
  5
345
100
AcDbEntity
  8
MAIN0
  6
CONTINUOUS
 62
3
100
AcDbLine
 10
190.1868375998485
 20
285.8789252738141
 30
0.0000000000000000
 11
190.8868375998485
 21
285.8789252738141
 31
0.0000000000000000
  0
LINE
  5
346
100
AcDbEntity
  8
MAIN0
  6
CONTINUOUS
 62
3
100
AcDbLine
 10
179.3868375998485
 20
252.3789252738141
 30
0.0000000000000000
 11
179.3868375998485
 21
282.3789252738141
 31
0.0000000000000000
  0
LINE
  5
347
100
AcDbEntity
  8
MAIN0
  6
CONTINUOUS
 62
3
100
AcDbLine
 10
181.3868375998485
 20
279.3789252738141
 30
0.0000000000000000
 11
181.3868375998485
 21
282.3789252738141
 31
0.0000000000000000
  0
LINE
  5
348
100
AcDbEntity
  8
MAIN0
  6
CONTINUOUS
 62
3
100
AcDbLine
 10
186.0868375998485
 20
279.3789252738141
 30
0.0000000000000000
 11
186.0868375998485
 21
282.3789252738141
 31
0.0000000000000000
  0
LINE
  5
349
100
AcDbEntity
  8
MAIN0
  6
CONTINUOUS
 62
3
100
AcDbLine
 10
181.3868375998485
 20
279.3789252738141
 30
0.0000000000000000
 11
186.0868375998485
 21
279.3789252738141
 31
0.0000000000000000
  0
LINE
  5
34A
100
AcDbEntity
  8
MAIN0
  6
CONTINUOUS
 62
3
100
AcDbLine
 10
190.1868375998485
 20
248.8789252738141
 30
0.0000000000000000
 11
190.8868375998485
 21
248.8789252738141
 31
0.0000000000000000
  0
LINE
  5
34B
100
AcDbEntity
  8
MAIN0
  6
CONTINUOUS
 62
3
100
AcDbLine
 10
181.3868375998485
 20
255.3789252738141
 30
0.0000000000000000
 11
181.3868375998485
 21
252.3789252738141
 31
0.0000000000000000
  0
LINE
  5
34C
100
AcDbEntity
  8
MAIN0
  6
CONTINUOUS
 62
3
100
AcDbLine
 10
186.0868375998485
 20
255.3789252738141
 30
0.0000000000000000
 11
186.0868375998485
 21
252.3789252738141
 31
0.0000000000000000
  0
LINE
  5
34D
100
AcDbEntity
  8
MAIN0
  6
CONTINUOUS
 62
3
100
AcDbLine
 10
181.3868375998485
 20
255.3789252738141
 30
0.0000000000000000
 11
186.0868375998485
 21
255.3789252738141
 31
0.0000000000000000
  0
LINE
  5
34E
100
AcDbEntity
  8
MAIN0
  6
CONTINUOUS
 62
3
100
AcDbLine
 10
189.2868375998485
 20
162.3789252738141
 30
0.0000000000000000
 11
189.2868375998485
 21
252.3789252738141
 31
0.0000000000000000
  0
LINE
  5
34F
100
AcDbEntity
  8
MAIN0
  6
CONTINUOUS
 62
3
100
AcDbLine
 10
189.2868375998485
 20
313.6280613604752
 30
0.0000000000000000
 11
189.2868375998485
 21
372.3789252738141
 31
0.0000000000000000
  0
LINE
  5
350
100
AcDbEntity
  8
MAIN0
  6
CONTINUOUS
 62
3
100
AcDbLine
 10
189.3868375998484
 20
284.4932846277590
 30
0.0000000000000000
 11
190.1868375998484
 21
285.8789252738139
 31
0.0000000000000000
  0
LINE
  5
351
100
AcDbEntity
  8
MAIN0
  6
CONTINUOUS
 62
3
100
AcDbLine
 10
189.2868375998485
 20
250.4377710006261
 30
0.0000000000000000
 11
190.1868375998484
 21
248.8789252738143
 31
0.0000000000000000
  0
LINE
  5
352
100
AcDbEntity
  8
MAIN0
  6
CONTINUOUS
 62
3
100
AcDbLine
 10
189.3868375998485
 20
320.2789252738141
 30
0.0000000000000000
 11
191.3868375998485
 21
320.2789252738141
 31
0.0000000000000000
  0
LINE
  5
353
100
AcDbEntity
  8
MAIN0
  6
CONTINUOUS
 62
3
100
AcDbLine
 10
189.3868375998485
 20
304.2789252738141
 30
0.0000000000000000
 11
191.3868375998485
 21
304.2789252738141
 31
0.0000000000000000
  0
LINE
  5
354
100
AcDbEntity
  8
MAIN0
  6
CONTINUOUS
 62
3
100
AcDbLine
 10
191.3868375998485
 20
304.2789252738141
 30
0.0000000000000000
 11
191.3868375998485
 21
320.2789252738141
 31
0.0000000000000000
  0
LINE
  5
355
100
AcDbEntity
  8
MAIN0
  6
CONTINUOUS
 62
3
100
AcDbLine
 10
95.28683759984847
 20
288.3789252738141
 30
0.0000000000000000
 11
95.28683759984847
 21
285.3789252738141
 31
0.0000000000000000
  0
LINE
  5
356
100
AcDbEntity
  8
MAIN0
  6
CONTINUOUS
 62
3
100
AcDbLine
 10
90.58683759984847
 20
288.3789252738141
 30
0.0000000000000000
 11
90.58683759984847
 21
285.3789252738141
 31
0.0000000000000000
  0
LINE
  5
357
100
AcDbEntity
  8
MAIN0
  6
CONTINUOUS
 62
3
100
AcDbLine
 10
90.58683759984845
 20
288.3789252738141
 30
0.0000000000000000
 11
95.28683759984851
 21
288.3789252738141
 31
0.0000000000000000
  0
LINE
  5
358
100
AcDbEntity
  8
MAIN0
  6
CONTINUOUS
 62
3
100
AcDbLine
 10
95.28683759984847
 20
246.3789252738141
 30
0.0000000000000000
 11
95.28683759984847
 21
249.3789252738141
 31
0.0000000000000000
  0
LINE
  5
359
100
AcDbEntity
  8
MAIN0
  6
CONTINUOUS
 62
3
100
AcDbLine
 10
90.58683759984847
 20
246.3789252738141
 30
0.0000000000000000
 11
90.58683759984847
 21
249.3789252738141
 31
0.0000000000000000
  0
LINE
  5
35A
100
AcDbEntity
  8
MAIN0
  6
CONTINUOUS
 62
3
100
AcDbLine
 10
90.58683759984845
 20
246.3789252738141
 30
0.0000000000000000
 11
95.28683759984851
 21
246.3789252738141
 31
0.0000000000000000
  0
LINE
  5
35B
100
AcDbEntity
  8
MAIN0
  6
CENTER
 62
3
100
AcDbLine
 10
90.78683759984847
 20
199.1622828293973
 30
0.0000000000000000
 11
90.78683759984847
 21
147.7104991561542
 31
0.0000000000000000
  0
LINE
  5
35C
100
AcDbEntity
  8
MAIN0
  6
CENTER
 62
3
100
AcDbLine
 10
80.55870812705234
 20
187.3789252738141
 30
0.0000000000000000
 11
104.5629238999134
 21
187.3789252738141
 31
0.0000000000000000
  0
ELLIPSE
  5
35D
100
AcDbEntity
  8
MAIN0
  6
CONTINUOUS
 62
3
100
AcDbEllipse
 10
92.93683759984847
 20
286.8789252738141
 30
0.0000000000000000
 11
-2.350000000000000
 21
0.0000000000000000
 31
0.0000000000000000
210
0.0000000000000000
220
0.0000000000000000
230
1.000000000000000
 40
0.6382978723404255
 41
0.0000000000000000
 42
6.283185307179586
  0
ELLIPSE
  5
35E
100
AcDbEntity
  8
MAIN0
  6
CONTINUOUS
 62
3
100
AcDbEllipse
 10
92.93683759984847
 20
247.8789252738141
 30
0.0000000000000000
 11
-2.350000000000000
 21
0.0000000000000000
 31
0.0000000000000000
210
0.0000000000000000
220
0.0000000000000000
230
1.000000000000000
 40
0.6382978723404255
 41
0.0000000000000000
 42
6.283185307179586
  0
ELLIPSE
  5
35F
100
AcDbEntity
  8
MAIN0
  6
CONTINUOUS
 62
3
100
AcDbEllipse
 10
183.7368375998485
 20
280.8789252738141
 30
0.0000000000000000
 11
-2.350000000000000
 21
0.0000000000000000
 31
0.0000000000000000
210
0.0000000000000000
220
0.0000000000000000
230
1.000000000000000
 40
0.6382978723404255
 41
0.0000000000000000
 42
6.283185307179586
  0
ELLIPSE
  5
360
100
AcDbEntity
  8
MAIN0
  6
CONTINUOUS
 62
3
100
AcDbEllipse
 10
183.7368375998485
 20
253.8789252738141
 30
0.0000000000000000
 11
-2.350000000000000
 21
0.0000000000000000
 31
0.0000000000000000
210
0.0000000000000000
220
0.0000000000000000
230
1.000000000000000
 40
0.6382978723404255
 41
0.0000000000000000
 42
6.283185307179586
  0
LINE
  5
361
100
AcDbEntity
  8
MAIN0
  6
CONTINUOUS
 62
3
100
AcDbLine
 10
128.2868375998485
 20
161.8789252738141
 30
0.0000000000000000
 11
128.2868375998485
 21
141.8789252738141
 31
0.0000000000000000
  0
LINE
  5
362
100
AcDbEntity
  8
MAIN0
  6
CONTINUOUS
 62
3
100
AcDbLine
 10
98.28683759984847
 20
141.8789252738141
 30
0.0000000000000000
 11
128.2868375998485
 21
141.8789252738141
 31
0.0000000000000000
  0
LINE
  5
363
100
AcDbEntity
  8
MAIN0
  6
CENTER
 62
3
100
AcDbLine
 10
113.2868375998485
 20
161.0628302331584
 30
0.0000000000000000
 11
113.2868375998485
 21
138.1279048236835
 31
0.0000000000000000
  0
LINE
  5
364
100
AcDbEntity
  8
MAIN0
  6
HIDDEN
 62
3
100
AcDbLine
 10
107.4376299049278
 20
141.8789252738131
 30
0.0000000000000000
 11
107.7868375998465
 21
151.8789252738115
 31
0.0000000000000000
  0
LINE
  5
365
100
AcDbEntity
  8
MAIN0
  6
HIDDEN
 62
3
100
AcDbLine
 10
106.9373251327784
 20
141.8789252738135
 30
0.0000000000000000
 11
107.2865328276972
 21
151.8789252738150
 31
0.0000000000000000
  0
LINE
  5
366
100
AcDbEntity
  8
MAIN0
  6
HIDDEN
 62
3
100
AcDbLine
 10
119.1360452947692
 20
141.8789252738131
 30
0.0000000000000000
 11
118.7868375998504
 21
151.8789252738115
 31
0.0000000000000000
  0
LINE
  5
367
100
AcDbEntity
  8
MAIN0
  6
HIDDEN
 62
3
100
AcDbLine
 10
119.6363500669186
 20
141.8789252738135
 30
0.0000000000000000
 11
119.2871423719997
 21
151.8789252738150
 31
0.0000000000000000
  0
LINE
  5
368
100
AcDbEntity
  8
MAIN0
  6
CONTINUOUS
 62
3
100
AcDbLine
 10
105.2868375998485
 20
140.8789252738141
 30
0.0000000000000000
 11
121.2868375998485
 21
140.8789252738141
 31
0.0000000000000000
  0
LINE
  5
369
100
AcDbEntity
  8
MAIN0
  6
CONTINUOUS
 62
3
100
AcDbLine
 10
105.2868375998485
 20
141.8789252738141
 30
0.0000000000000000
 11
105.2868375998485
 21
140.8789252738141
 31
0.0000000000000000
  0
LINE
  5
36A
100
AcDbEntity
  8
MAIN0
  6
CONTINUOUS
 62
3
100
AcDbLine
 10
121.2868375998485
 20
141.8789252738141
 30
0.0000000000000000
 11
121.2868375998485
 21
140.8789252738141
 31
0.0000000000000000
  0
LINE
  5
36B
100
AcDbEntity
  8
MAIN0
  6
CONTINUOUS
 62
3
100
AcDbLine
 10
98.28683759984847
 20
161.8789252738141
 30
0.0000000000000000
 11
128.2868375998485
 21
161.8789252738141
 31
0.0000000000000000
  0
LINE
  5
36C
100
AcDbEntity
  8
MAIN0
  6
PHANTOM
 62
3
100
AcDbLine
 10
128.2868375998485
 20
161.8789252738141
 30
0.0000000000000000
 11
143.2868375998485
 21
161.8789252738141
 31
0.0000000000000000
  0
LINE
  5
36D
100
AcDbEntity
  8
MAIN0
  6
CONTINUOUS
 62
3
100
AcDbLine
 10
98.28683759984847
 20
162.3789252738141
 30
0.0000000000000000
 11
128.2868375998485
 21
162.3789252738141
 31
0.0000000000000000
  0
LINE
  5
36E
100
AcDbEntity
  8
MAIN0
  6
CONTINUOUS
 62
3
100
AcDbLine
 10
128.2868375998485
 20
162.3789252738141
 30
0.0000000000000000
 11
189.2868375998485
 21
162.3789252738141
 31
0.0000000000000000
  0
LINE
  5
36F
100
AcDbEntity
  8
MAIN0
  6
CONTINUOUS
 62
3
100
AcDbLine
 10
98.28683759984847
 20
240.9978593257685
 30
0.0000000000000000
 11
98.28683759984847
 21
141.8789252738141
 31
0.0000000000000000
  0
LINE
  5
370
100
AcDbEntity
  8
MAIN0
  6
CENTER
 62
3
100
AcDbLine
 10
78.18626089723584
 20
267.3789252738141
 30
0.0000000000000000
 11
117.8736807552160
 21
267.3789252738141
 31
0.0000000000000000
  0
LINE
  5
371
100
AcDbEntity
  8
MAIN0
  6
CENTER
 62
3
100
AcDbLine
 10
123.9736806598486
 20
267.3789252738141
 30
0.0000000000000000
 11
204.3119836638139
 21
267.3789252738141
 31
0.0000000000000000
  0
LINE
  5
372
100
AcDbEntity
  8
MAIN0
  6
CONTINUOUS
 62
3
100
AcDbLine
 10
152.7868456407532
 20
74.20517111868421
 30
0.0000000000000000
 11
152.7868456407532
 21
39.20517111868418
 31
0.0000000000000000
  0
LINE
  5
373
100
AcDbEntity
  8
MAIN0
  6
CONTINUOUS
 62
3
100
AcDbLine
 10
152.7868456407532
 20
74.20517111868418
 30
0.0000000000000000
 11
157.2868456407532
 21
74.20517111868418
 31
0.0000000000000000
  0
LINE
  5
374
100
AcDbEntity
  8
MAIN0
  6
CONTINUOUS
 62
3
100
AcDbLine
 10
173.2868456407531
 20
74.20517111868418
 30
0.0000000000000000
 11
192.9868456407532
 21
74.20517111868418
 31
0.0000000000000000
  0
LINE
  5
375
100
AcDbEntity
  8
MAIN0
  6
CONTINUOUS
 62
3
100
AcDbLine
 10
152.7868456407532
 20
39.20517111868418
 30
0.0000000000000000
 11
157.2868456407532
 21
39.20517111868418
 31
0.0000000000000000
  0
LINE
  5
376
100
AcDbEntity
  8
MAIN0
  6
CONTINUOUS
 62
3
100
AcDbLine
 10
173.2868456407531
 20
39.20517111868418
 30
0.0000000000000000
 11
192.9868456407531
 21
39.20517111868418
 31
0.0000000000000000
  0
LINE
  5
377
100
AcDbEntity
  8
MAIN0
  6
CONTINUOUS
 62
3
100
AcDbLine
 10
157.2868456407532
 20
82.20517111868418
 30
0.0000000000000000
 11
173.2868456407531
 21
82.20517111868418
 31
0.0000000000000000
  0
LINE
  5
378
100
AcDbEntity
  8
MAIN0
  6
CONTINUOUS
 62
3
100
AcDbLine
 10
157.2868456407532
 20
31.20517111868418
 30
0.0000000000000000
 11
173.2868456407532
 21
31.20517111868418
 31
0.0000000000000000
  0
LINE
  5
379
100
AcDbEntity
  8
MAIN0
  6
CONTINUOUS
 62
3
100
AcDbLine
 10
173.2868456407532
 20
39.20517111868418
 30
0.0000000000000000
 11
173.2868456407532
 21
31.20517111868421
 31
0.0000000000000000
  0
LINE
  5
37A
100
AcDbEntity
  8
MAIN0
  6
CONTINUOUS
 62
3
100
AcDbLine
 10
173.2868456407532
 20
82.20517111868421
 30
0.0000000000000000
 11
173.2868456407532
 21
74.20517111868418
 31
0.0000000000000000
  0
LINE
  5
37B
100
AcDbEntity
  8
MAIN0
  6
CONTINUOUS
 62
3
100
AcDbLine
 10
157.2868456407532
 20
39.20517111868418
 30
0.0000000000000000
 11
157.2868456407532
 21
31.20517111868418
 31
0.0000000000000000
  0
LINE
  5
37C
100
AcDbEntity
  8
MAIN0
  6
CONTINUOUS
 62
3
100
AcDbLine
 10
157.2868456407532
 20
82.20517111868418
 30
0.0000000000000000
 11
157.2868456407532
 21
74.20517111868418
 31
0.0000000000000000
  0
LINE
  5
37D
100
AcDbEntity
  8
MAIN0
  6
CONTINUOUS
 62
3
100
AcDbLine
 10
181.2868456407532
 20
63.70517111868415
 30
0.0000000000000000
 11
197.2868456407532
 21
63.70517111868412
 31
0.0000000000000000
  0
LINE
  5
37E
100
AcDbEntity
  8
MAIN0
  6
CONTINUOUS
 62
3
100
AcDbLine
 10
181.2868456407532
 20
49.70517111868421
 30
0.0000000000000000
 11
197.2868456407532
 21
49.70517111868423
 31
0.0000000000000000
  0
LINE
  5
37F
100
AcDbEntity
  8
MAIN0
  6
CONTINUOUS
 62
3
100
AcDbLine
 10
192.9868456407531
 20
74.20517111868421
 30
0.0000000000000000
 11
194.2868456407532
 21
73.45461576873873
 31
0.0000000000000000
  0
LINE
  5
380
100
AcDbEntity
  8
MAIN0
  6
CONTINUOUS
 62
3
100
AcDbLine
 10
192.9868456407532
 20
39.20517111868423
 30
0.0000000000000000
 11
194.2868456407531
 21
39.95572646862962
 31
0.0000000000000000
  0
LINE
  5
381
100
AcDbEntity
  8
MAIN0
  6
CONTINUOUS
 62
3
100
AcDbLine
 10
197.2868456407532
 20
63.70517111868415
 30
0.0000000000000000
 11
197.2868456407532
 21
49.70517111868421
 31
0.0000000000000000
  0
LINE
  5
382
100
AcDbEntity
  8
MAIN0
  6
CONTINUOUS
 62
3
100
AcDbLine
 10
192.9868456407532
 20
49.70517111868418
 30
0.0000000000000000
 11
192.9868456407532
 21
39.20517111868418
 31
0.0000000000000000
  0
LINE
  5
383
100
AcDbEntity
  8
MAIN0
  6
CONTINUOUS
 62
3
100
AcDbLine
 10
192.9868456407532
 20
74.20517111868421
 30
0.0000000000000000
 11
192.9868456407532
 21
63.70517111868418
 31
0.0000000000000000
  0
LINE
  5
384
100
AcDbEntity
  8
MAIN0
  6
CONTINUOUS
 62
3
100
AcDbLine
 10
194.2868456407532
 20
49.70517111868418
 30
0.0000000000000000
 11
194.2868456407532
 21
39.95572646862965
 31
0.0000000000000000
  0
LINE
  5
385
100
AcDbEntity
  8
MAIN0
  6
CONTINUOUS
 62
3
100
AcDbLine
 10
194.2868456407532
 20
73.45461576873873
 30
0.0000000000000000
 11
194.2868456407532
 21
63.70517111868418
 31
0.0000000000000000
  0
LINE
  5
386
100
AcDbEntity
  8
MAIN0
  6
CONTINUOUS
 62
3
100
AcDbLine
 10
189.2868456407532
 20
39.20517111868418
 30
0.0000000000000000
 11
189.2868456407532
 21
27.83823307831753
 31
0.0000000000000000
  0
LINE
  5
387
100
AcDbEntity
  8
MAIN0
  6
CONTINUOUS
 62
3
100
AcDbLine
 10
189.2868456407532
 20
81.86729586356773
 30
0.0000000000000000
 11
189.2868456407532
 21
74.20517111868418
 31
0.0000000000000000
  0
SPLINE
  5
388
100
AcDbEntity
  8
MAIN0
  6
CONTINUOUS
 62
3
100
AcDbSpline
210
0.0000000000000000
220
0.0000000000000000
230
1.000000000000000
 70
     8
 71
     3
 72
    10
 73
     6
 74
     0
 42
1.000000000000000e-007
 43
1.000000000000000e-007
 12
0.8676722831079644
 22
-0.8381441713433873
 32
0.0000000000000000
 13
0.9331404577687863
 23
-0.02206296159147314
 33
0.0000000000000000
 40
0.0000000000000000
 40
0.0000000000000000
 40
0.0000000000000000
 40
0.0000000000000000
 40
3.387635668128331
 40
6.637565489255527
 40
7.100682518605226
 40
7.100682518605226
 40
7.100682518605226
 40
7.100682518605226
 10
183.1148529124345
 20
81.92543848422835
 30
0.0000000000000000
 10
184.0946387706021
 20
80.97899612093610
 30
0.0000000000000000
 10
186.0143826380491
 20
79.12458384535955
 30
0.0000000000000000
 10
187.9988719829491
 20
81.76573066047396
 30
0.0000000000000000
 10
189.1427945618305
 20
81.87070177464472
 30
0.0000000000000000
 10
189.2868456407532
 20
81.86729586356773
 30
0.0000000000000000
  0
SPLINE
  5
389
100
AcDbEntity
  8
MAIN0
  6
CONTINUOUS
 62
3
100
AcDbSpline
210
0.0000000000000000
220
0.0000000000000000
230
1.000000000000000
 70
     8
 71
     3
 72
    10
 73
     6
 74
     0
 42
1.000000000000000e-007
 43
1.000000000000000e-007
 12
0.9865562763451123
 22
0.4548505402596277
 32
0.0000000000000000
 13
0.9488750932334256
 23
0.5216165536072097
 33
0.0000000000000000
 40
0.0000000000000000
 40
0.0000000000000000
 40
0.0000000000000000
 40
0.0000000000000000
 40
3.104492643762190
 40
5.369151893386866
 40
7.318386231422292
 40
7.318386231422292
 40
7.318386231422292
 40
7.318386231422292
 10
182.3086449608422
 20
27.40557530132821
 30
0.0000000000000000
 10
183.3295638616991
 20
27.87626868674397
 30
0.0000000000000000
 10
185.0952206947228
 20
28.69032256655828
 30
0.0000000000000000
 10
187.3409521740425
 20
26.91892078666754
 30
0.0000000000000000
 10
188.6703190026741
 20
27.49931544579124
 30
0.0000000000000000
 10
189.2868456407532
 20
27.83823307831753
 30
0.0000000000000000
  0
CIRCLE
  5
38A
100
AcDbEntity
  8
MAIN0
  6
CONTINUOUS
 62
3
100
AcDbCircle
 10
319.6400276354225
 20
267.3789252738142
 30
0.0000000000000000
 40
10.00000000000000
  0
CIRCLE
  5
38B
100
AcDbEntity
  8
MAIN0
  6
CONTINUOUS
 62
3
100
AcDbCircle
 10
344.6400276354223
 20
267.3789252738142
 30
0.0000000000000000
 40
10.00000000000000
  0
CIRCLE
  5
38C
100
AcDbEntity
  8
MAIN0
  6
CONTINUOUS
 62
3
100
AcDbCircle
 10
319.6400276354225
 20
267.3789252738142
 30
0.0000000000000000
 40
9.000000000000000
  0
LINE
  5
38D
100
AcDbEntity
  8
MAIN0
  6
CONTINUOUS
 62
3
100
AcDbLine
 10
313.8665249435263
 20
267.3789252738142
 30
0.0000000000000000
 11
316.7532762894745
 21
262.3789252738142
 31
0.0000000000000000
  0
LINE
  5
38E
100
AcDbEntity
  8
MAIN0
  6
CONTINUOUS
 62
3
100
AcDbLine
 10
316.7532762894744
 20
262.3789252738142
 30
0.0000000000000000
 11
322.5267789813705
 21
262.3789252738142
 31
0.0000000000000000
  0
LINE
  5
38F
100
AcDbEntity
  8
MAIN0
  6
CONTINUOUS
 62
3
100
AcDbLine
 10
322.5267789813705
 20
262.3789252738142
 30
0.0000000000000000
 11
325.4135303273187
 21
267.3789252738142
 31
0.0000000000000000
  0
LINE
  5
390
100
AcDbEntity
  8
MAIN0
  6
CONTINUOUS
 62
3
100
AcDbLine
 10
325.4135303273187
 20
267.3789252738142
 30
0.0000000000000000
 11
322.5267789813705
 21
272.3789252738142
 31
0.0000000000000000
  0
LINE
  5
391
100
AcDbEntity
  8
MAIN0
  6
CONTINUOUS
 62
3
100
AcDbLine
 10
322.5267789813705
 20
272.3789252738142
 30
0.0000000000000000
 11
316.7532762894744
 21
272.3789252738142
 31
0.0000000000000000
  0
LINE
  5
392
100
AcDbEntity
  8
MAIN0
  6
CONTINUOUS
 62
3
100
AcDbLine
 10
316.7532762894743
 20
272.3789252738141
 30
0.0000000000000000
 11
313.8665249435262
 21
267.3789252738141
 31
0.0000000000000000
  0
CIRCLE
  5
393
100
AcDbEntity
  8
MAIN0
  6
CONTINUOUS
 62
3
100
AcDbCircle
 10
344.6400276354223
 20
267.3789252738142
 30
0.0000000000000000
 40
9.000000000000000
  0
LINE
  5
394
100
AcDbEntity
  8
MAIN0
  6
CONTINUOUS
 62
3
100
AcDbLine
 10
338.8665249435261
 20
267.3789252738142
 30
0.0000000000000000
 11
341.7532762894742
 21
262.3789252738142
 31
0.0000000000000000
  0
LINE
  5
395
100
AcDbEntity
  8
MAIN0
  6
CONTINUOUS
 62
3
100
AcDbLine
 10
341.7532762894743
 20
262.3789252738141
 30
0.0000000000000000
 11
347.5267789813704
 21
262.3789252738141
 31
0.0000000000000000
  0
LINE
  5
396
100
AcDbEntity
  8
MAIN0
  6
CONTINUOUS
 62
3
100
AcDbLine
 10
347.5267789813704
 20
262.3789252738141
 30
0.0000000000000000
 11
350.4135303273185
 21
267.3789252738141
 31
0.0000000000000000
  0
LINE
  5
397
100
AcDbEntity
  8
MAIN0
  6
CONTINUOUS
 62
3
100
AcDbLine
 10
350.4135303273185
 20
267.3789252738142
 30
0.0000000000000000
 11
347.5267789813704
 21
272.3789252738142
 31
0.0000000000000000
  0
LINE
  5
398
100
AcDbEntity
  8
MAIN0
  6
CONTINUOUS
 62
3
100
AcDbLine
 10
347.5267789813704
 20
272.3789252738141
 30
0.0000000000000000
 11
341.7532762894743
 21
272.3789252738141
 31
0.0000000000000000
  0
LINE
  5
399
100
AcDbEntity
  8
MAIN0
  6
CONTINUOUS
 62
3
100
AcDbLine
 10
341.7532762894742
 20
272.3789252738141
 30
0.0000000000000000
 11
338.8665249435261
 21
267.3789252738141
 31
0.0000000000000000
  0
CIRCLE
  5
39A
100
AcDbEntity
  8
MAIN0
  6
CONTINUOUS
 62
3
100
AcDbCircle
 10
307.0471270138716
 20
209.8789252738141
 30
0.0000000000000000
 40
5.000000000000000
  0
CIRCLE
  5
39B
100
AcDbEntity
  8
MAIN0
  6
CONTINUOUS
 62
3
100
AcDbCircle
 10
307.0471270138716
 20
209.8789252738141
 30
0.0000000000000000
 40
4.250000000000000
  0
CIRCLE
  5
39C
100
AcDbEntity
  8
MAIN0
  6
CONTINUOUS
 62
3
100
AcDbCircle
 10
406.6400484490797
 20
152.3789252738141
 30
0.0000000000000000
 40
5.000000000000000
  0
CIRCLE
  5
39D
100
AcDbEntity
  8
MAIN0
  6
CONTINUOUS
 62
3
100
AcDbCircle
 10
406.6400484490797
 20
152.3789252738141
 30
0.0000000000000000
 40
4.250000000000000
  0
CIRCLE
  5
39E
100
AcDbEntity
  8
MAIN0
  6
CONTINUOUS
 62
3
100
AcDbCircle
 10
506.2329698842902
 20
209.8789252738099
 30
0.0000000000000000
 40
5.000000000000000
  0
CIRCLE
  5
39F
100
AcDbEntity
  8
MAIN0
  6
CONTINUOUS
 62
3
100
AcDbCircle
 10
506.2329698842902
 20
209.8789252738099
 30
0.0000000000000000
 40
4.250000000000000
  0
CIRCLE
  5
3A0
100
AcDbEntity
  8
MAIN0
  6
CONTINUOUS
 62
3
100
AcDbCircle
 10
506.2329698842963
 20
324.8789252738079
 30
0.0000000000000000
 40
5.000000000000000
  0
CIRCLE
  5
3A1
100
AcDbEntity
  8
MAIN0
  6
CONTINUOUS
 62
3
100
AcDbCircle
 10
506.2329698842963
 20
324.8789252738079
 30
0.0000000000000000
 40
4.250000000000000
  0
CIRCLE
  5
3A2
100
AcDbEntity
  8
MAIN0
  6
CONTINUOUS
 62
3
100
AcDbCircle
 10
406.6400484490918
 20
382.3789252738142
 30
0.0000000000000000
 40
5.000000000000000
  0
CIRCLE
  5
3A3
100
AcDbEntity
  8
MAIN0
  6
CONTINUOUS
 62
3
100
AcDbCircle
 10
406.6400484490918
 20
382.3789252738142
 30
0.0000000000000000
 40
4.250000000000000
  0
CIRCLE
  5
3A4
100
AcDbEntity
  8
MAIN0
  6
CONTINUOUS
 62
3
100
AcDbCircle
 10
307.0471270138776
 20
324.8789252738246
 30
0.0000000000000000
 40
5.000000000000000
  0
CIRCLE
  5
3A5
100
AcDbEntity
  8
MAIN0
  6
CONTINUOUS
 62
3
100
AcDbCircle
 10
307.0471270138776
 20
324.8789252738246
 30
0.0000000000000000
 40
4.250000000000000
  0
CIRCLE
  5
3A6
100
AcDbEntity
  8
MAIN0
  6
CONTINUOUS
 62
3
100
AcDbCircle
 10
406.6400484490779
 20
335.3789252738141
 30
0.0000000000000000
 40
4.000000000000000
  0
CIRCLE
  5
3A7
100
AcDbEntity
  8
MAIN0
  6
CONTINUOUS
 62
3
100
AcDbCircle
 10
406.6400484490779
 20
335.3789252738141
 30
0.0000000000000000
 40
3.400000000000000
  0
CIRCLE
  5
3A8
100
AcDbEntity
  8
MAIN0
  6
CONTINUOUS
 62
3
100
AcDbCircle
 10
406.6400484490763
 20
360.3789252738141
 30
0.0000000000000000
 40
4.000000000000000
  0
CIRCLE
  5
3A9
100
AcDbEntity
  8
MAIN0
  6
CONTINUOUS
 62
3
100
AcDbCircle
 10
406.6400484490763
 20
360.3789252738141
 30
0.0000000000000000
 40
3.400000000000000
  0
CIRCLE
  5
3AA
100
AcDbEntity
  8
MAIN0
  6
CONTINUOUS
 62
3
100
AcDbCircle
 10
406.6400484490778
 20
199.3789252738141
 30
0.0000000000000000
 40
4.000000000000000
  0
CIRCLE
  5
3AB
100
AcDbEntity
  8
MAIN0
  6
CONTINUOUS
 62
3
100
AcDbCircle
 10
406.6400484490778
 20
199.3789252738141
 30
0.0000000000000000
 40
3.400000000000000
  0
CIRCLE
  5
3AC
100
AcDbEntity
  8
MAIN0
  6
CONTINUOUS
 62
3
100
AcDbCircle
 10
406.6400484490762
 20
174.3789252738141
 30
0.0000000000000000
 40
4.000000000000000
  0
CIRCLE
  5
3AD
100
AcDbEntity
  8
MAIN0
  6
CONTINUOUS
 62
3
100
AcDbCircle
 10
406.6400484490762
 20
174.3789252738141
 30
0.0000000000000000
 40
3.400000000000000
  0
CIRCLE
  5
3AE
100
AcDbEntity
  8
MAIN0
  6
CONTINUOUS
 62
3
100
AcDbCircle
 10
445.5168039373682
 20
300.0003964654084
 30
0.0000000000000000
 40
4.250000000000000
  0
LINE
  5
3AF
100
AcDbEntity
  8
MAIN0
  6
CONTINUOUS
 62
3
100
AcDbLine
 10
445.1157806488870
 20
302.2747125506149
 30
0.0000000000000000
 11
443.3466767871032
 21
300.7902581526778
 31
0.0000000000000000
  0
LINE
  5
3B0
100
AcDbEntity
  8
MAIN0
  6
CONTINUOUS
 62
3
100
AcDbLine
 10
443.3466767871033
 20
300.7902581526778
 30
0.0000000000000000
 11
443.7477000755845
 21
298.5159420674713
 31
0.0000000000000000
  0
LINE
  5
3B1
100
AcDbEntity
  8
MAIN0
  6
CONTINUOUS
 62
3
100
AcDbLine
 10
443.7477000755844
 20
298.5159420674713
 30
0.0000000000000000
 11
445.9178272258494
 21
297.7260803802019
 31
0.0000000000000000
  0
LINE
  5
3B2
100
AcDbEntity
  8
MAIN0
  6
CONTINUOUS
 62
3
100
AcDbLine
 10
445.9178272258494
 20
297.7260803802019
 30
0.0000000000000000
 11
447.6869310876332
 21
299.2105347781391
 31
0.0000000000000000
  0
LINE
  5
3B3
100
AcDbEntity
  8
MAIN0
  6
CONTINUOUS
 62
3
100
AcDbLine
 10
447.6869310876333
 20
299.2105347781391
 30
0.0000000000000000
 11
447.2859077991521
 21
301.4848508633455
 31
0.0000000000000000
  0
LINE
  5
3B4
100
AcDbEntity
  8
MAIN0
  6
CONTINUOUS
 62
3
100
AcDbLine
 10
447.2859077991520
 20
301.4848508633455
 30
0.0000000000000000
 11
445.1157806488871
 21
302.2747125506149
 31
0.0000000000000000
  0
CIRCLE
  5
3B5
100
AcDbEntity
  8
MAIN0
  6
CONTINUOUS
 62
3
100
AcDbCircle
 10
472.6663278907109
 20
175.0180546461725
 30
0.0000000000000000
 40
5.000000000000000
  0
LINE
  5
3B6
100
AcDbEntity
  8
MAIN0
  6
CONTINUOUS
 62
3
100
AcDbLine
 10
471.2229522177369
 20
177.5180546461725
 30
0.0000000000000000
 11
469.7795765447629
 21
175.0180546461725
 31
0.0000000000000000
  0
LINE
  5
3B7
100
AcDbEntity
  8
MAIN0
  6
CONTINUOUS
 62
3
100
AcDbLine
 10
469.7795765447628
 20
175.0180546461725
 30
0.0000000000000000
 11
471.2229522177368
 21
172.5180546461726
 31
0.0000000000000000
  0
LINE
  5
3B8
100
AcDbEntity
  8
MAIN0
  6
CONTINUOUS
 62
3
100
AcDbLine
 10
471.2229522177368
 20
172.5180546461726
 30
0.0000000000000000
 11
474.1097035636850
 21
172.5180546461726
 31
0.0000000000000000
  0
LINE
  5
3B9
100
AcDbEntity
  8
MAIN0
  6
CONTINUOUS
 62
3
100
AcDbLine
 10
474.1097035636850
 20
172.5180546461725
 30
0.0000000000000000
 11
475.5530792366590
 21
175.0180546461725
 31
0.0000000000000000
  0
LINE
  5
3BA
100
AcDbEntity
  8
MAIN0
  6
CONTINUOUS
 62
3
100
AcDbLine
 10
475.5530792366590
 20
175.0180546461726
 30
0.0000000000000000
 11
474.1097035636850
 21
177.5180546461725
 31
0.0000000000000000
  0
LINE
  5
3BB
100
AcDbEntity
  8
MAIN0
  6
CONTINUOUS
 62
3
100
AcDbLine
 10
474.1097035636850
 20
177.5180546461725
 30
0.0000000000000000
 11
471.2229522177368
 21
177.5180546461725
 31
0.0000000000000000
  0
LINE
  5
3BC
100
AcDbEntity
  8
MAIN0
  6
CENTER
 62
3
100
AcDbLine
 10
144.2870242479054
 20
56.70517111868421
 30
0.0000000000000000
 11
200.9582930175634
 21
56.70517111868418
 31
0.0000000000000000
  0
LINE
  5
3BD
100
AcDbEntity
  8
MAIN0
  6
CONTINUOUS
 62
3
100
AcDbLine
 10
171.2868456407532
 20
63.95517111868418
 30
0.0000000000000000
 11
171.2868456407532
 21
49.45517111868418
 31
0.0000000000000000
  0
LINE
  5
3BE
100
AcDbEntity
  8
MAIN0
  6
CONTINUOUS
 62
3
100
AcDbLine
 10
181.2868456407532
 20
63.70517111868415
 30
0.0000000000000000
 11
197.2868456407532
 21
63.70517111868412
 31
0.0000000000000000
  0
LINE
  5
3BF
100
AcDbEntity
  8
MAIN0
  6
CONTINUOUS
 62
3
100
AcDbLine
 10
181.2868456407532
 20
49.70517111868421
 30
0.0000000000000000
 11
197.2868456407532
 21
49.70517111868423
 31
0.0000000000000000
  0
LINE
  5
3C0
100
AcDbEntity
  8
MAIN0
  6
HIDDEN
 62
3
100
AcDbLine
 10
83.28683759984845
 20
388.6789252738141
 30
0.0000000000000000
 11
84.08683759984845
 21
387.8789252738142
 31
0.0000000000000000
  0
LINE
  5
3C1
100
AcDbEntity
  8
MAIN0
  6
HIDDEN
 62
3
100
AcDbLine
 10
84.08683759984847
 20
387.8789252738141
 30
0.0000000000000000
 11
97.48683759985518
 21
387.8789252738141
 31
0.0000000000000000
  0
LINE
  5
3C2
100
AcDbEntity
  8
MAIN0
  6
HIDDEN
 62
3
100
AcDbLine
 10
97.48683759985516
 20
387.8789252738142
 30
0.0000000000000000
 11
98.28683759985516
 21
388.6789252738141
 31
0.0000000000000000
  0
LINE
  5
3C3
100
AcDbEntity
  8
MAIN0
  6
HIDDEN
 62
3
100
AcDbLine
 10
83.28683759984847
 20
376.0789252738141
 30
0.0000000000000000
 11
84.08683759984845
 21
376.8789252738141
 31
0.0000000000000000
  0
LINE
  5
3C4
100
AcDbEntity
  8
MAIN0
  6
HIDDEN
 62
3
100
AcDbLine
 10
84.08683759984847
 20
376.8789252738141
 30
0.0000000000000000
 11
97.48683759985518
 21
376.8789252738141
 31
0.0000000000000000
  0
LINE
  5
3C5
100
AcDbEntity
  8
MAIN0
  6
HIDDEN
 62
3
100
AcDbLine
 10
97.48683759985518
 20
376.8789252738141
 30
0.0000000000000000
 11
98.28683759985518
 21
376.0789252738141
 31
0.0000000000000000
  0
LINE
  5
3C6
100
AcDbEntity
  8
WAKU0
  6
CONTINUOUS
 62
3
100
AcDbLine
 10
412.0000000000000
 20
51.00000000000000
 30
0.0000000000000000
 11
582.0000000000000
 21
51.00000000000000
 31
0.0000000000000000
  0
LINE
  5
3C7
100
AcDbEntity
  8
WAKU0
  6
CONTINUOUS
 62
3
100
AcDbLine
 10
412.0000000000000
 20
51.00000000000000
 30
0.0000000000000000
 11
412.0000000000000
 21
12.00000000000000
 31
0.0000000000000000
  0
LINE
  5
3C8
100
AcDbEntity
  8
WAKU0
  6
CONTINUOUS
 62
3
100
AcDbLine
 10
484.0000000000000
 20
51.00000000000000
 30
0.0000000000000000
 11
484.0000000000000
 21
12.00000000000000
 31
0.0000000000000000
  0
LINE
  5
3C9
100
AcDbEntity
  8
WAKU0
  6
CONTINUOUS
 62
3
100
AcDbLine
 10
504.0000000000000
 20
51.00000000000000
 30
0.0000000000000000
 11
504.0000000000000
 21
12.00000000000000
 31
0.0000000000000000
  0
LINE
  5
3CA
100
AcDbEntity
  8
WAKU0
  6
CONTINUOUS
 62
3
100
AcDbLine
 10
516.0000000000000
 20
51.00000000000000
 30
0.0000000000000000
 11
516.0000000000000
 21
12.00000000000000
 31
0.0000000000000000
  0
LINE
  5
3CB
100
AcDbEntity
  8
WAKU0
  6
CONTINUOUS
 62
3
100
AcDbLine
 10
516.0000000000000
 20
37.00000000000000
 30
0.0000000000000000
 11
582.0000000000000
 21
37.00000000000000
 31
0.0000000000000000
  0
LINE
  5
3CC
100
AcDbEntity
  8
WAKU0
  6
CONTINUOUS
 62
3
100
AcDbLine
 10
504.0000000000000
 20
23.00000000000000
 30
0.0000000000000000
 11
582.0000000000000
 21
23.00000000000000
 31
0.0000000000000000
  0
LINE
  5
3CD
100
AcDbEntity
  8
WAKU0
  6
CONTINUOUS
 62
3
100
AcDbLine
 10
547.0000000000000
 20
51.00000000000000
 30
0.0000000000000000
 11
547.0000000000000
 21
44.00000000000000
 31
0.0000000000000000
  0
LINE
  5
3CE
100
AcDbEntity
  8
WAKU0
  6
CONTINUOUS
 62
3
100
AcDbLine
 10
559.0000000000000
 20
51.00000000000000
 30
0.0000000000000000
 11
559.0000000000000
 21
44.00000000000000
 31
0.0000000000000000
  0
LINE
  5
3CF
100
AcDbEntity
  8
WAKU0
  6
CONTINUOUS
 62
3
100
AcDbLine
 10
484.0000000000000
 20
31.50000000000000
 30
0.0000000000000000
 11
504.0000000000000
 21
31.50000000000000
 31
0.0000000000000000
  0
LINE
  5
3D0
100
AcDbEntity
  8
WAKU0
  6
CONTINUOUS
 62
3
100
AcDbLine
 10
504.0000000000000
 20
44.00000000000000
 30
0.0000000000000000
 11
582.0000000000000
 21
44.00000000000000
 31
0.0000000000000000
  0
LINE
  5
3D1
100
AcDbEntity
  8
WAKU0
  6
CONTINUOUS
 62
3
100
AcDbLine
 10
412.0000000000000
 20
37.00000000000000
 30
0.0000000000000000
 11
484.0000000000000
 21
37.00000000000000
 31
0.0000000000000000
  0
LINE
  5
3D2
100
AcDbEntity
  8
WAKU0
  6
CONTINUOUS
 62
3
100
AcDbLine
 10
412.0000000000000
 20
23.00000000000000
 30
0.0000000000000000
 11
484.0000000000000
 21
23.00000000000000
 31
0.0000000000000000
  0
LINE
  5
3D3
100
AcDbEntity
  8
WAKU0
  6
CONTINUOUS
 62
3
100
AcDbLine
 10
460.0000000000000
 20
37.00000000000000
 30
0.0000000000000000
 11
460.0000000000000
 21
12.00000000000000
 31
0.0000000000000000
  0
LINE
  5
3D4
100
AcDbEntity
  8
WAKU0
  6
CONTINUOUS
 62
3
100
AcDbLine
 10
436.0000000000000
 20
37.00000000000000
 30
0.0000000000000000
 11
436.0000000000000
 21
23.00000000000000
 31
0.0000000000000000
  0
LINE
  5
3D5
100
AcDbEntity
  8
WAKU0
  6
CONTINUOUS
 62
3
100
AcDbLine
 10
472.0000000000000
 20
26.00000000000000
 30
0.0000000000000000
 11
472.0000000000000
 21
23.00000000000000
 31
0.0000000000000000
  0
LINE
  5
3D6
100
AcDbEntity
  8
WAKU0
  6
CONTINUOUS
 62
3
100
AcDbLine
 10
448.0000000000000
 20
26.00000000000000
 30
0.0000000000000000
 11
448.0000000000000
 21
23.00000000000000
 31
0.0000000000000000
  0
LINE
  5
3D7
100
AcDbEntity
  8
WAKU0
  6
CONTINUOUS
 62
3
100
AcDbLine
 10
424.0000000000000
 20
26.00000000000000
 30
0.0000000000000000
 11
424.0000000000000
 21
23.00000000000000
 31
0.0000000000000000
  0
LINE
  5
3D8
100
AcDbEntity
  8
WAKU0
  6
CONTINUOUS
 62
3
100
AcDbLine
 10
430.0000000000000
 20
51.00000000000000
 30
0.0000000000000000
 11
430.0000000000000
 21
37.00000000000000
 31
0.0000000000000000
  0
LINE
  5
3D9
100
AcDbEntity
  8
WAKU0
  6
CONTINUOUS
 62
3
100
AcDbLine
 10
412.0000000000000
 20
45.00000000000000
 30
0.0000000000000000
 11
484.0000000000000
 21
45.00000000000000
 31
0.0000000000000000
  0
LINE
  5
3DA
100
AcDbEntity
  8
WAKU0
  6
HIDDEN
 62
3
100
AcDbLine
 10
532.5000000000000
 20
23.00000000000000
 30
0.0000000000000000
 11
532.5000000000000
 21
12.00000000000000
 31
0.0000000000000000
  0
LINE
  5
3DB
100
AcDbEntity
  8
WAKU0
  6
HIDDEN
 62
3
100
AcDbLine
 10
544.9000000000000
 20
23.00000000000000
 30
0.0000000000000000
 11
544.9000000000000
 21
12.00000000000000
 31
0.0000000000000000
  0
MTEXT
  5
3DC
100
AcDbEntity
  8
WAKU0
  6
CONTINUOUS
 62
3
100
AcDbMText
 10
516.4820000243485
 20
49.04999995231628
 30
0.0000000000000000
 40
3.099999904632568
 41
0.0000000000000000
 71
     1
 72
     1
  1
{\H0.91x;{AT08}}
 11
1.000000000000000
 21
0.0000000000000000
 31
0.0000000000000000
  7
STANDARD
  0
MTEXT
  5
3DD
100
AcDbEntity
  8
WAKU0
  6
CONTINUOUS
 62
3
100
AcDbMText
 10
525.5950003862381
 20
43.50000000000000
 30
0.0000000000000000
 40
3.000000000000000
 41
0.0000000000000000
 71
     1
 72
     1
  1
{\H0.94x;{ワークグリッパ　８\PＷＯＲＫ　ＧＲＩＰＰＥＲ　８}}
 11
1.000000000000000
 21
0.0000000000000000
 31
0.0000000000000000
  7
KNJYOKO
  0
MTEXT
  5
3DE
100
AcDbEntity
  8
WAKU0
  6
CONTINUOUS
 62
3
100
AcDbMText
 10
528.3099995255470
 20
34.23333326975504
 30
0.0000000000000000
 40
3.099999904632568
 41
0.0000000000000000
 71
     1
 72
     1
  1
{\H0.94x;{ＡＴ０８　ガイケイ\PＯＵＴＳＩＤＥ　ＶＩＥＷ}}
 11
1.000000000000000
 21
0.0000000000000000
 31
0.0000000000000000
  7
KNJYOKO
  0
MTEXT
  5
3DF
100
AcDbEntity
  8
WAKU0
  6
CONTINUOUS
 62
3
100
AcDbMText
 10
490.0049998760223
 20
39.29999995231628
 30
0.0000000000000000
 40
3.099999904632568
 41
0.0000000000000000
 71
     1
 72
     1
  1
{\H0.90x;{1:1}}
 11
1.000000000000000
 21
0.0000000000000000
 31
0.0000000000000000
  7
STANDARD
  0
MTEXT
  5
3E0
100
AcDbEntity
  8
WAKU0
  6
CONTINUOUS
 62
3
100
AcDbMText
 10
546.4000001549721
 20
20.15000009536743
 30
0.0000000000000000
 40
5.300000190734863
 41
0.0000000000000000
 71
     1
 72
     1
  1
{\H0.90x;{3463}}
 11
1.000000000000000
 21
0.0000000000000000
 31
0.0000000000000000
  7
STANDARD
  0
MTEXT
  5
3E1
100
AcDbEntity
  8
WAKU0
  6
CONTINUOUS
 62
3
100
AcDbMText
 10
534.3000000834466
 20
20.15000009536743
 30
0.0000000000000000
 40
5.300000190734863
 41
0.0000000000000000
 71
     1
 72
     1
  1
{\H0.87x;{26}}
 11
1.000000000000000
 21
0.0000000000000000
 31
0.0000000000000000
  7
STANDARD
  0
MTEXT
  5
3E2
100
AcDbEntity
  8
WAKU0
  6
CONTINUOUS
 62
3
100
AcDbMText
 10
517.5000001192093
 20
20.15000009536743
 30
0.0000000000000000
 40
5.300000190734863
 41
0.0000000000000000
 71
     1
 72
     1
  1
{\H0.89x;{61P}}
 11
1.000000000000000
 21
0.0000000000000000
 31
0.0000000000000000
  7
STANDARD
  0
MTEXT
  5
3E3
100
AcDbEntity
  8
WAKU0
  6
CONTINUOUS
 62
3
100
AcDbMText
 10
572.0000000476837
 20
20.15000009536743
 30
0.0000000000000000
 40
5.300000190734863
 41
0.0000000000000000
 71
     1
 72
     1
  1
{\H0.81x;{1}}
 11
1.000000000000000
 21
0.0000000000000000
 31
0.0000000000000000
  7
STANDARD
  0
MTEXT
  5
3E4
100
AcDbEntity
  8
WAKU0
  6
CONTINUOUS
 62
3
100
AcDbMText
 10
461.3850002884865
 20
33.00000000000000
 30
0.0000000000000000
 40
3.000000000000000
 41
0.0000000000000000
 71
     7
 72
     1
  1
{\H0.93x;{DRAWN BY}}
 11
1.000000000000000
 21
0.0000000000000000
 31
0.0000000000000000
  7
STANDARD
  0
MTEXT
  5
3E5
100
AcDbEntity
  8
WAKU0
  6
CONTINUOUS
 62
3
100
AcDbMText
 10
441.2149997949600
 20
32.95000004768372
 30
0.0000000000000000
 40
3.099999904632568
 41
0.0000000000000000
 71
     7
 72
     1
  1
{\H0.92x;{CHIEF}}
 11
1.000000000000000
 21
0.0000000000000000
 31
0.0000000000000000
  7
STANDARD
  0
MTEXT
  5
3E6
100
AcDbEntity
  8
WAKU0
  6
CONTINUOUS
 62
3
100
AcDbMText
 10
414.4249997138977
 20
32.95000004768372
 30
0.0000000000000000
 40
3.099999904632568
 41
0.0000000000000000
 71
     7
 72
     1
  1
{\H0.92x;{MANAGER}}
 11
1.000000000000000
 21
0.0000000000000000
 31
0.0000000000000000
  7
STANDARD
  0
MTEXT
  5
3E7
100
AcDbEntity
  8
WAKU0
  6
CONTINUOUS
 62
3
100
AcDbMText
 10
416.6599994301796
 20
18.13333336512248
 30
0.0000000000000000
 40
3.099999904632568
 41
0.0000000000000000
 71
     7
 72
     1
  1
{\H0.93x;{KITAGAWA IRON\PWORKS CO.,LTD.}}
 11
1.000000000000000
 21
0.0000000000000000
 31
0.0000000000000000
  7
STANDARD
  0
MTEXT
  5
3E8
100
AcDbEntity
  8
WAKU0
  6
CONTINUOUS
 62
3
100
AcDbMText
 10
413.0850002169609
 20
46.50000000000000
 30
0.0000000000000000
 40
3.000000000000000
 41
0.0000000000000000
 71
     7
 72
     1
  1
{\H0.92x;{CAREER}}
 11
1.000000000000000
 21
0.0000000000000000
 31
0.0000000000000000
  7
STANDARD
  0
MTEXT
  5
3E9
100
AcDbEntity
  8
WAKU0
  6
CONTINUOUS
 62
3
100
AcDbMText
 10
466.6099998354912
 20
18.95000004768372
 30
0.0000000000000000
 40
3.099999904632568
 41
0.0000000000000000
 71
     7
 72
     1
  1
{\H0.91x;{DATE}}
 11
1.000000000000000
 21
0.0000000000000000
 31
0.0000000000000000
  7
STANDARD
  0
MTEXT
  5
3EA
100
AcDbEntity
  8
WAKU0
  6
CONTINUOUS
 62
3
100
AcDbMText
 10
485.9000002145767
 20
26.50000000000000
 30
0.0000000000000000
 40
3.000000000000000
 41
0.0000000000000000
 71
     7
 72
     1
  1
{\H0.63x;{3RD ANGLE}}
 11
1.000000000000000
 21
0.0000000000000000
 31
0.0000000000000000
  7
STANDARD
  0
MTEXT
  5
3EB
100
AcDbEntity
  8
WAKU0
  6
CONTINUOUS
 62
3
100
AcDbMText
 10
487.2149997949600
 20
45.95000004768372
 30
0.0000000000000000
 40
3.099999904632568
 41
0.0000000000000000
 71
     7
 72
     1
  1
{\H0.92x;{SCALE}}
 11
1.000000000000000
 21
0.0000000000000000
 31
0.0000000000000000
  7
STANDARD
  0
MTEXT
  5
3EC
100
AcDbEntity
  8
WAKU0
  6
CONTINUOUS
 62
3
100
AcDbMText
 10
577.7000000476837
 20
46.00000000000000
 30
0.0000000000000000
 40
3.000000000000000
 41
0.0000000000000000
 71
     7
 72
     1
  1
{\H0.63x;{kg}}
 11
1.000000000000000
 21
0.0000000000000000
 31
0.0000000000000000
  7
STANDARD
  0
MTEXT
  5
3ED
100
AcDbEntity
  8
WAKU0
  6
CONTINUOUS
 62
3
100
AcDbMText
 10
547.6000001430512
 20
46.00000000000000
 30
0.0000000000000000
 40
3.000000000000000
 41
0.0000000000000000
 71
     7
 72
     1
  1
{\H0.63x;{WEIGHT}}
 11
1.000000000000000
 21
0.0000000000000000
 31
0.0000000000000000
  7
STANDARD
  0
MTEXT
  5
3EE
100
AcDbEntity
  8
WAKU0
  6
CONTINUOUS
 62
3
100
AcDbMText
 10
506.0049998760223
 20
18.13333336512248
 30
0.0000000000000000
 40
3.099999904632568
 41
0.0000000000000000
 71
     7
 72
     1
  1
{\H0.90x;{DRW\PNO.}}
 11
1.000000000000000
 21
0.0000000000000000
 31
0.0000000000000000
  7
STANDARD
  0
MTEXT
  5
3EF
100
AcDbEntity
  8
WAKU0
  6
CONTINUOUS
 62
3
100
AcDbMText
 10
504.6099998354912
 20
31.95000004768372
 30
0.0000000000000000
 40
3.099999904632568
 41
0.0000000000000000
 71
     7
 72
     1
  1
{\H0.91x;{NAME}}
 11
1.000000000000000
 21
0.0000000000000000
 31
0.0000000000000000
  7
STANDARD
  0
MTEXT
  5
3F0
100
AcDbEntity
  8
WAKU0
  6
CONTINUOUS
 62
3
100
AcDbMText
 10
504.6099998354912
 20
45.95000004768372
 30
0.0000000000000000
 40
3.099999904632568
 41
0.0000000000000000
 71
     7
 72
     1
  1
{\H0.91x;{TYPE}}
 11
1.000000000000000
 21
0.0000000000000000
 31
0.0000000000000000
  7
STANDARD
  0
LINE
  5
3F1
100
AcDbEntity
  8
WAKU0
  6
HIDDEN
 62
3
100
AcDbLine
 10
579.1599564743885
 20
13.84999990463257
 30
0.0000000000000000
 11
568.9400436209789
 21
13.84999990463257
 31
0.0000000000000000
  0
LINE
  5
3F2
100
AcDbEntity
  8
WAKU0
  6
HIDDEN
 62
3
100
AcDbLine
 10
579.1599564743885
 20
13.84999990463250
 30
0.0000000000000000
 11
574.0500000476851
 21
22.70070406014901
 31
0.0000000000000000
  0
LINE
  5
3F3
100
AcDbEntity
  8
WAKU0
  6
HIDDEN
 62
3
100
AcDbLine
 10
574.0500000476851
 20
22.70070406014902
 30
0.0000000000000000
 11
568.9400436209789
 21
13.84999990463248
 31
0.0000000000000000
  0
LINE
  5
3F4
100
AcDbEntity
  8
WAKU0
  6
CONTINUOUS
 62
3
100
AcDbLine
 10
502.4713877753800
 20
15.78041421262812
 30
0.0000000000000000
 11
502.4713877753800
 21
21.78041421262815
 31
0.0000000000000000
  0
LINE
  5
3F5
100
AcDbEntity
  8
WAKU0
  6
CONTINUOUS
 62
3
100
AcDbLine
 10
495.9336941228225
 20
17.28041421262811
 30
0.0000000000000000
 11
495.9336941228225
 21
20.28041421262824
 31
0.0000000000000000
  0
LINE
  5
3F6
100
AcDbEntity
  8
WAKU0
  6
CENTER
 62
12
100
AcDbLine
 10
485.4321805514995
 20
18.78041421262813
 30
0.0000000000000000
 11
503.2765788964694
 21
18.78041421262813
 31
0.0000000000000000
  0
LINE
  5
3F7
100
AcDbEntity
  8
WAKU0
  6
CENTER
 62
12
100
AcDbLine
 10
489.4474565857986
 20
14.55921662918448
 30
0.0000000000000000
 11
489.4474565857986
 21
22.89865102149943
 31
0.0000000000000000
  0
LINE
  5
3F8
100
AcDbEntity
  8
WAKU0
  6
CONTINUOUS
 62
3
100
AcDbLine
 10
495.9336941228225
 20
20.28041421262797
 30
0.0000000000000000
 11
502.4713877753800
 21
21.78041421262795
 31
0.0000000000000000
  0
LINE
  5
3F9
100
AcDbEntity
  8
WAKU0
  6
CONTINUOUS
 62
3
100
AcDbLine
 10
495.9336941228225
 20
17.28041421262811
 30
0.0000000000000000
 11
502.4713877753799
 21
15.78041421262812
 31
0.0000000000000000
  0
CIRCLE
  5
3FA
100
AcDbEntity
  8
WAKU0
  6
CONTINUOUS
 62
3
100
AcDbCircle
 10
489.4474565857986
 20
18.78041421262813
 30
0.0000000000000000
 40
1.499999999999972
  0
CIRCLE
  5
3FB
100
AcDbEntity
  8
WAKU0
  6
CONTINUOUS
 62
3
100
AcDbCircle
 10
489.4474565857986
 20
18.78041421262813
 30
0.0000000000000000
 40
2.999999999999979
  0
ENDSEC
  0
SECTION
  2
OBJECTS
  0
DICTIONARY
  5
453
100
AcDbDictionary
  3
ACAD_GROUP
350
454
  3
ACAD_MLINESTYLE
350
455
  3
DWGPROPS
350
456
  0
DICTIONARY
  5
454
102
{ACAD_REACTORS
330
453
102
}
100
AcDbDictionary
  0
DICTIONARY
  5
455
102
{ACAD_REACTORS
330
453
102
}
100
AcDbDictionary
  3
STANDARD
350
457
  0
MLINESTYLE
  5
457
102
{ACAD_REACTORS
330
455
102
}
100
AcDbMlineStyle
  2
STANDARD
 70
     0
  3

 62
   256
 51
90.00
 52
90.00
 71
     2
 49
0.50
 62
   256
  6
BYLAYER
 49
-0.50
 62
   256
  6
BYLAYER
  0
XRECORD
  5
456
102
{ACAD_REACTORS
330
453
102
}
100
AcDbXrecord
280
     1
  1
DWGPROPS COOKIE
  2
ワークグリッパ　８
  3

  4

  6
ＡＴ０８　ガイケイ
  7

  8

  9

300
=
301
=
302
=
303
=
304
=
305
=
306
=
307
=
308
=
309
=
 40
0.000000
 41
0.000000
 42
0.000000
  1

 90
        0
  0
ENDSEC
  0
EOF
