  0
SECTION
  2
HEADER
  9
$ACADVER
  1
AC1014
  9
$DWGCODEPAGE
  3
ANSI_932
  9
$LTSCALE
 40
20.0
  9
$FILLMODE
 70
     1
  9
$CLAYER
  8
0
  9
$PDMODE
 70
     0
  9
$SPLFRAME
 70
     0
  9
$SPLINETYPE
 70
     6
  9
$SPLINESEGS
 70
     8
  9
$DIMASZ
 40
2.000000
  9
$DIMEXE
 40
2.000000
  9
$DIMEXO
 40
0.800000
  9
$DIMTAD
 70
     1
  9
$DIMTIH
 70
     0
  9
$DIMTOH
 70
     0
  9
$DIMTVP
 40
0.500000
  9
$DIMTXT
 40
3.100000
  9
$EXTMIN
 10
0.000000
 20
0.000000
 30
0.000000
  9
$EXTMAX
 10
420.000000
 20
594.000000
 30
0.000000
  9
$MEASUREMENT
 70
  1
  9
$LIMMIN
 10
0.000000
 20
0.000000
  9
$LIMMAX
 10
420.000000
 20
594.000000
  9
$HANDLING
 70
     1
  9
$HANDSEED
  5
4AC
  9
$DIMBLK
  1
_OPEN
  9
$DIMDEC
 70
     3
  9
$DIMAUNIT
 70
     1
  9
$DIMZIN
 70
     8
  9
$DIMTOFL
 70
     1
  0
ENDSEC
  0
SECTION
  2
CLASSES
  0
ENDSEC
  0
SECTION
  2
TABLES
  0
TABLE
  2
VPORT
  5
455
100
AcDbSymbolTable
 70
     1
  0
VPORT
  5
456
100
AcDbSymbolTableRecord
100
AcDbViewportTableRecord
  2
*ACTIVE
 70
     0
 12
297.000000
 22
210.000000
 40
420.000000
 41
1.414286
  0
ENDTAB
  0
TABLE
  2
LTYPE
  5
457
100
AcDbSymbolTable
 70
     5
  0
LTYPE
  5
458
100
AcDbSymbolTableRecord
100
AcDbLinetypeTableRecord
  2
BYBLOCK
 70
     0
  3

 72
    65
 73
     0
 40
0.0
  0
LTYPE
  5
459
100
AcDbSymbolTableRecord
100
AcDbLinetypeTableRecord
  2
BYLAYER
 70
     0
  3

 72
    65
 73
     0
 40
0.0
  0
LTYPE
  5
45A
100
AcDbSymbolTableRecord
100
AcDbLinetypeTableRecord
  2
CONTINUOUS
 70
     0
  3
Solid line (NEC CAE2D for Win R12.1 : 2018.11.16)
 72
    65
 73
     0
 40
0.0
  0
LTYPE
  5
45B
100
AcDbSymbolTableRecord
100
AcDbLinetypeTableRecord
  2
DASHED
 70
     0
  3
__ __ __ __ __ __ __ __ __ __ __ __ __ _
 72
    65
 73
     2
 40
0.75
 49
0.5
 74
     0
 49
-0.25
 74
     0
  0
LTYPE
  5
45C
100
AcDbSymbolTableRecord
100
AcDbLinetypeTableRecord
  2
HIDDEN
 70
     0
  3
__ __ __ __ __ __ __ __ __ __ __ __ __ __
 72
    65
 73
     2
 40
0.375
 49
0.25
 74
     0
 49
-0.125
 74
     0
  0
LTYPE
  5
45D
100
AcDbSymbolTableRecord
100
AcDbLinetypeTableRecord
  2
CENTER
 70
     0
  3
____ _ ____ _ ____ _ ____ _ ____ _ ____
 72
    65
 73
     4
 40
2.0
 49
1.25
 74
     0
 49
-0.25
 74
     0
 49
0.25
 74
     0
 49
-0.25
 74
     0
  0
LTYPE
  5
45E
100
AcDbSymbolTableRecord
100
AcDbLinetypeTableRecord
  2
PHANTOM
 70
     0
  3
______  __  __  ______  __  __  ______ 
 72
    65
 73
     6
 40
2.5
 49
1.25
 74
     0
 49
-0.25
 74
     0
 49
0.25
 74
     0
 49
-0.25
 74
     0
 49
0.25
 74
     0
 49
-0.25
 74
     0
  0
ENDTAB
  0
TABLE
  2
LAYER
  5
45F
100
AcDbSymbolTable
 70
    14
  0
LAYER
  5
460
100
AcDbSymbolTableRecord
100
AcDbLayerTableRecord
  2
0
 70
     0
 62
     7
  6
CONTINUOUS
  0
LAYER
  5
461
100
AcDbSymbolTableRecord
100
AcDbLayerTableRecord
  2
MAIN0
 70
     0
 62
     7
  6
CONTINUOUS
  0
LAYER
  5
462
100
AcDbSymbolTableRecord
100
AcDbLayerTableRecord
  2
MAIN1
 70
     0
 62
     7
  6
CONTINUOUS
  0
LAYER
  5
463
100
AcDbSymbolTableRecord
100
AcDbLayerTableRecord
  2
MAIN2
 70
     0
 62
     7
  6
CONTINUOUS
  0
LAYER
  5
464
100
AcDbSymbolTableRecord
100
AcDbLayerTableRecord
  2
MAIN3
 70
     0
 62
     7
  6
CONTINUOUS
  0
LAYER
  5
465
100
AcDbSymbolTableRecord
100
AcDbLayerTableRecord
  2
MAIN4
 70
     0
 62
     7
  6
CONTINUOUS
  0
LAYER
  5
466
100
AcDbSymbolTableRecord
100
AcDbLayerTableRecord
  2
MAIN5
 70
     0
 62
     7
  6
CONTINUOUS
  0
LAYER
  5
467
100
AcDbSymbolTableRecord
100
AcDbLayerTableRecord
  2
MAIN6
 70
     0
 62
     7
  6
CONTINUOUS
  0
LAYER
  5
468
100
AcDbSymbolTableRecord
100
AcDbLayerTableRecord
  2
MAIN7
 70
     0
 62
     7
  6
CONTINUOUS
  0
LAYER
  5
469
100
AcDbSymbolTableRecord
100
AcDbLayerTableRecord
  2
MAIN8
 70
     0
 62
     7
  6
CONTINUOUS
  0
LAYER
  5
46A
100
AcDbSymbolTableRecord
100
AcDbLayerTableRecord
  2
MAIN9
 70
     0
 62
     7
  6
CONTINUOUS
  0
LAYER
  5
46B
100
AcDbSymbolTableRecord
100
AcDbLayerTableRecord
  2
MAIN1023
 70
     0
 62
    16
  6
CONTINUOUS
  0
LAYER
  5
46C
100
AcDbSymbolTableRecord
100
AcDbLayerTableRecord
  2
WAKU0
 70
     0
 62
     7
  6
CONTINUOUS
  0
LAYER
  5
46D
100
AcDbSymbolTableRecord
100
AcDbLayerTableRecord
  2
WAKU1023
 70
     0
 62
    16
  6
CONTINUOUS
  0
ENDTAB
  0
TABLE
  2
STYLE
  5
46E
100
AcDbSymbolTable
 70
     4
  0
STYLE
  5
46F
100
AcDbSymbolTableRecord
100
AcDbTextStyleTableRecord
  2
STANDARD
 70
    64
 40
0.0
 41
1.0
 50
0.0
 71
     0
 42
3.099999904632568
  3
TXT
  4

  0
STYLE
  5
470
100
AcDbSymbolTableRecord
100
AcDbTextStyleTableRecord
  2
ANKTATE
 70
    68
 40
0.0
 41
1.0
 50
0.0
 71
     0
 42
3.099999904632568
  3
TXT
  4

  0
STYLE
  5
40E
100
AcDbSymbolTableRecord
100
AcDbTextStyleTableRecord
  2
KNJYOKO
 70
    64
 40
0.0
 41
1.0
 50
0.0
 71
     0
 42
3.099999904632568
  3
TXT
  4
BIGFONT
  0
STYLE
  5
471
100
AcDbSymbolTableRecord
100
AcDbTextStyleTableRecord
  2
KNJTATE
 70
    68
 40
0.0
 41
1.0
 50
0.0
 71
     0
 42
3.099999904632568
  3
TXT
  4
BIGFONT
  0
ENDTAB
  0
TABLE
  2
VIEW
  5
472
100
AcDbSymbolTable
 70
     0
  0
ENDTAB
  0
TABLE
  2
UCS
  5
473
100
AcDbSymbolTable
 70
     0
  0
ENDTAB
  0
TABLE
  2
APPID
  5
474
100
AcDbSymbolTable
 70
     1
  0
APPID
  5
475
100
AcDbSymbolTableRecord
100
AcDbRegAppTableRecord
  2
ACAD
 70
     0
  0
ENDTAB
  0
TABLE
  2
DIMSTYLE
  5
476
100
AcDbSymbolTable
 70
     1
  0
DIMSTYLE
105
477
100
AcDbSymbolTableRecord
100
AcDbDimStyleTableRecord
  2
STANDARD
 70
     0
 41
2.000000
 44
2.000000
 42
0.800000
145
0.661290
140
3.100000
144
1.000000
146
0.903226
340
46F
  0
DIMSTYLE
105
478
100
AcDbSymbolTableRecord
100
AcDbDimStyleTableRecord
  2
MAIN001
 70
     0
 41
2.000000
 44
2.000000
 42
0.800000
145
0.661290
140
3.100000
144
1.000000
146
0.903226
 77
     1
 73
     0
 74
     0
271
     3
275
     1
 78
     8
172
     1
340
46F
  0
DIMSTYLE
105
479
100
AcDbSymbolTableRecord
100
AcDbDimStyleTableRecord
  2
WAKU002
 70
     0
 41
2.000000
 44
2.000000
 42
0.800000
145
0.661290
140
3.100000
144
1.000000
146
0.903226
 77
     1
 73
     0
 74
     0
271
     3
275
     1
 78
     8
172
     1
340
46F
  0
ENDTAB
  0
TABLE
  2
BLOCK_RECORD
  5
47A
100
AcDbSymbolTable
 70
    51
  0
BLOCK_RECORD
  5
47B
100
AcDbSymbolTableRecord
100
AcDbBlockTableRecord
  2
*MODEL_SPACE
  0
BLOCK_RECORD
  5
47C
100
AcDbSymbolTableRecord
100
AcDbBlockTableRecord
  2
*PAPER_SPACE
  0
BLOCK_RECORD
  5
1
100
AcDbSymbolTableRecord
100
AcDbBlockTableRecord
  2
_NONE
  0
BLOCK_RECORD
  5
4
100
AcDbSymbolTableRecord
100
AcDbBlockTableRecord
  2
_CLOSED
  0
BLOCK_RECORD
  5
B
100
AcDbSymbolTableRecord
100
AcDbBlockTableRecord
  2
_DOT
  0
BLOCK_RECORD
  5
13
100
AcDbSymbolTableRecord
100
AcDbBlockTableRecord
  2
_OPEN
  0
BLOCK_RECORD
  5
19
100
AcDbSymbolTableRecord
100
AcDbBlockTableRecord
  2
_ORIGIN
  0
BLOCK_RECORD
  5
1E
100
AcDbSymbolTableRecord
100
AcDbBlockTableRecord
  2
_OPEN30
  0
BLOCK_RECORD
  5
24
100
AcDbSymbolTableRecord
100
AcDbBlockTableRecord
  2
_BOXFILLED
  0
BLOCK_RECORD
  5
29
100
AcDbSymbolTableRecord
100
AcDbBlockTableRecord
  2
_BOXBLANK
  0
BLOCK_RECORD
  5
31
100
AcDbSymbolTableRecord
100
AcDbBlockTableRecord
  2
_OBLIQUE
  0
BLOCK_RECORD
  5
35
100
AcDbSymbolTableRecord
100
AcDbBlockTableRecord
  2
_OPEN90
  0
BLOCK_RECORD
  5
3B
100
AcDbSymbolTableRecord
100
AcDbBlockTableRecord
  2
_CLOSEDBLANK
  0
BLOCK_RECORD
  5
41
100
AcDbSymbolTableRecord
100
AcDbBlockTableRecord
  2
_DOTBLANK
  0
BLOCK_RECORD
  5
47D
100
AcDbSymbolTableRecord
100
AcDbBlockTableRecord
  2
*D0
  0
BLOCK_RECORD
  5
47E
100
AcDbSymbolTableRecord
100
AcDbBlockTableRecord
  2
*D1
  0
BLOCK_RECORD
  5
47F
100
AcDbSymbolTableRecord
100
AcDbBlockTableRecord
  2
*D2
  0
BLOCK_RECORD
  5
480
100
AcDbSymbolTableRecord
100
AcDbBlockTableRecord
  2
*D3
  0
BLOCK_RECORD
  5
481
100
AcDbSymbolTableRecord
100
AcDbBlockTableRecord
  2
*D4
  0
BLOCK_RECORD
  5
482
100
AcDbSymbolTableRecord
100
AcDbBlockTableRecord
  2
*D5
  0
BLOCK_RECORD
  5
483
100
AcDbSymbolTableRecord
100
AcDbBlockTableRecord
  2
*D6
  0
BLOCK_RECORD
  5
484
100
AcDbSymbolTableRecord
100
AcDbBlockTableRecord
  2
*D7
  0
BLOCK_RECORD
  5
485
100
AcDbSymbolTableRecord
100
AcDbBlockTableRecord
  2
*D8
  0
BLOCK_RECORD
  5
486
100
AcDbSymbolTableRecord
100
AcDbBlockTableRecord
  2
*D9
  0
BLOCK_RECORD
  5
487
100
AcDbSymbolTableRecord
100
AcDbBlockTableRecord
  2
*D10
  0
BLOCK_RECORD
  5
488
100
AcDbSymbolTableRecord
100
AcDbBlockTableRecord
  2
*D11
  0
BLOCK_RECORD
  5
489
100
AcDbSymbolTableRecord
100
AcDbBlockTableRecord
  2
*D12
  0
BLOCK_RECORD
  5
48A
100
AcDbSymbolTableRecord
100
AcDbBlockTableRecord
  2
*D13
  0
BLOCK_RECORD
  5
48B
100
AcDbSymbolTableRecord
100
AcDbBlockTableRecord
  2
*D14
  0
BLOCK_RECORD
  5
48C
100
AcDbSymbolTableRecord
100
AcDbBlockTableRecord
  2
*D15
  0
BLOCK_RECORD
  5
48D
100
AcDbSymbolTableRecord
100
AcDbBlockTableRecord
  2
*D16
  0
BLOCK_RECORD
  5
48E
100
AcDbSymbolTableRecord
100
AcDbBlockTableRecord
  2
*D17
  0
BLOCK_RECORD
  5
48F
100
AcDbSymbolTableRecord
100
AcDbBlockTableRecord
  2
*D18
  0
BLOCK_RECORD
  5
490
100
AcDbSymbolTableRecord
100
AcDbBlockTableRecord
  2
D19
  0
BLOCK_RECORD
  5
491
100
AcDbSymbolTableRecord
100
AcDbBlockTableRecord
  2
D20
  0
BLOCK_RECORD
  5
492
100
AcDbSymbolTableRecord
100
AcDbBlockTableRecord
  2
D21
  0
BLOCK_RECORD
  5
493
100
AcDbSymbolTableRecord
100
AcDbBlockTableRecord
  2
*D22
  0
BLOCK_RECORD
  5
494
100
AcDbSymbolTableRecord
100
AcDbBlockTableRecord
  2
M0
  0
BLOCK_RECORD
  5
495
100
AcDbSymbolTableRecord
100
AcDbBlockTableRecord
  2
M1
  0
BLOCK_RECORD
  5
496
100
AcDbSymbolTableRecord
100
AcDbBlockTableRecord
  2
*D23
  0
BLOCK_RECORD
  5
497
100
AcDbSymbolTableRecord
100
AcDbBlockTableRecord
  2
*D24
  0
BLOCK_RECORD
  5
498
100
AcDbSymbolTableRecord
100
AcDbBlockTableRecord
  2
*D25
  0
BLOCK_RECORD
  5
499
100
AcDbSymbolTableRecord
100
AcDbBlockTableRecord
  2
*D26
  0
BLOCK_RECORD
  5
49A
100
AcDbSymbolTableRecord
100
AcDbBlockTableRecord
  2
*D27
  0
BLOCK_RECORD
  5
49B
100
AcDbSymbolTableRecord
100
AcDbBlockTableRecord
  2
*D28
  0
BLOCK_RECORD
  5
49C
100
AcDbSymbolTableRecord
100
AcDbBlockTableRecord
  2
*D29
  0
BLOCK_RECORD
  5
49D
100
AcDbSymbolTableRecord
100
AcDbBlockTableRecord
  2
*D30
  0
BLOCK_RECORD
  5
49E
100
AcDbSymbolTableRecord
100
AcDbBlockTableRecord
  2
*D31
  0
BLOCK_RECORD
  5
49F
100
AcDbSymbolTableRecord
100
AcDbBlockTableRecord
  2
*D32
  0
BLOCK_RECORD
  5
4A0
100
AcDbSymbolTableRecord
100
AcDbBlockTableRecord
  2
*D33
  0
BLOCK_RECORD
  5
4A1
100
AcDbSymbolTableRecord
100
AcDbBlockTableRecord
  2
*D34
  0
BLOCK_RECORD
  5
4A2
100
AcDbSymbolTableRecord
100
AcDbBlockTableRecord
  2
*D35
  0
BLOCK_RECORD
  5
4A3
100
AcDbSymbolTableRecord
100
AcDbBlockTableRecord
  2
*D36
  0
ENDTAB
  0
ENDSEC
  0
SECTION
  2
BLOCKS
  0
BLOCK
  5
4A4
100
AcDbEntity
  8
0
100
AcDbBlockBegin
  2
*MODEL_SPACE
 70
     0
 10
0.0
 20
0.0
 30
0.0
  3
*MODEL_SPACE
  1

  0
ENDBLK
  5
4A5
100
AcDbEntity
  8
0
100
AcDbBlockEnd
  0
BLOCK
  5
4A6
100
AcDbEntity
  8
0
100
AcDbBlockBegin
  2
*PAPER_SPACE
 70
     0
 10
0.0
 20
0.0
 30
0.0
  3
*PAPER_SPACE
  1

  0
ENDBLK
  5
4A7
100
AcDbEntity
  8
0
100
AcDbBlockEnd
  0
BLOCK
  5
2
100
AcDbEntity
  8
0
100
AcDbBlockBegin
  2
_NONE
 70
     0
 10
0.0
 20
0.0
 30
0.0
  3
_NONE
  1

  0
ENDBLK
  5
3
100
AcDbEntity
  8
0
100
AcDbBlockEnd
  0
BLOCK
  5
5
100
AcDbEntity
  8
0
100
AcDbBlockBegin
  2
_CLOSED
 70
     0
 10
0.0
 20
0.0
 30
0.0
  3
_CLOSED
  1

  0
LINE
  5
6
100
AcDbEntity
  8
0
  6
BYBLOCK
 62
     0
100
AcDbLine
 10
-1.0
 20
0.166667
 30
0.0
 11
0.0
 21
0.0
 31
0.0
  0
LINE
  5
7
100
AcDbEntity
  8
0
  6
BYBLOCK
 62
     0
100
AcDbLine
 10
0.0
 20
0.0
 30
0.0
 11
-1.0
 21
-0.166667
 31
0.0
  0
LINE
  5
8
100
AcDbEntity
  8
0
  6
BYBLOCK
 62
     0
100
AcDbLine
 10
-1.0
 20
0.166667
 30
0.0
 11
-1.0
 21
-0.166667
 31
0.0
  0
LINE
  5
9
100
AcDbEntity
  8
0
  6
BYBLOCK
 62
     0
100
AcDbLine
 10
0.0
 20
0.0
 30
0.0
 11
-1.0
 21
0.0
 31
0.0
  0
ENDBLK
  5
A
100
AcDbEntity
  8
0
100
AcDbBlockEnd
  0
BLOCK
  5
C
100
AcDbEntity
  8
0
100
AcDbBlockBegin
  2
_DOT
 70
     0
 10
0.0
 20
0.0
 30
0.0
  3
_DOT
  1

  0
POLYLINE
  5
D
100
AcDbEntity
  8
0
  6
BYBLOCK
 62
     0
100
AcDb2dPolyline
 66
     1
 10
0.0
 20
0.0
 30
0.0
 70
     1
 40
0.5
 41
0.5
  0
VERTEX
  5
E
100
AcDbEntity
  8
0
  6
BYBLOCK
 62
     0
100
AcDbVertex
100
AcDb2dVertex
 10
-0.25
 20
0.0
 30
0.0
 42
1.0
  0
VERTEX
  5
F
100
AcDbEntity
  8
0
  6
BYBLOCK
 62
     0
100
AcDbVertex
100
AcDb2dVertex
 10
0.25
 20
0.0
 30
0.0
 42
1.0
  0
SEQEND
  5
10
100
AcDbEntity
  8
0
  6
BYBLOCK
 62
     0
  0
LINE
  5
11
100
AcDbEntity
  8
0
  6
BYBLOCK
 62
     0
100
AcDbLine
 10
-0.5
 20
0.0
 30
0.0
 11
-1.0
 21
0.0
 31
0.0
  0
ENDBLK
  5
12
100
AcDbEntity
  8
0
100
AcDbBlockEnd
  0
BLOCK
  5
14
100
AcDbEntity
  8
0
100
AcDbBlockBegin
  2
_OPEN
 70
     0
 10
0.0
 20
0.0
 30
0.0
  3
_OPEN
  1

  0
LINE
  5
15
100
AcDbEntity
  8
0
  6
BYBLOCK
 62
     0
100
AcDbLine
 10
-1.0
 20
0.166667
 30
0.0
 11
0.0
 21
0.0
 31
0.0
  0
LINE
  5
16
100
AcDbEntity
  8
0
  6
BYBLOCK
 62
     0
100
AcDbLine
 10
0.0
 20
0.0
 30
0.0
 11
-1.0
 21
-0.166667
 31
0.0
  0
LINE
  5
17
100
AcDbEntity
  8
0
  6
BYBLOCK
 62
     0
100
AcDbLine
 10
0.0
 20
0.0
 30
0.0
 11
-1.0
 21
0.0
 31
0.0
  0
ENDBLK
  5
18
100
AcDbEntity
  8
0
100
AcDbBlockEnd
  0
BLOCK
  5
1A
100
AcDbEntity
  8
0
100
AcDbBlockBegin
  2
_ORIGIN
 70
     0
 10
0.0
 20
0.0
 30
0.0
  3
_ORIGIN
  1

  0
CIRCLE
  5
1B
100
AcDbEntity
  8
0
  6
BYBLOCK
 62
     0
100
AcDbCircle
 10
0.0
 20
0.0
 30
0.0
 40
0.5
  0
LINE
  5
1C
100
AcDbEntity
  8
0
  6
BYBLOCK
 62
     0
100
AcDbLine
 10
0.0
 20
0.0
 30
0.0
 11
-1.0
 21
0.0
 31
0.0
  0
ENDBLK
  5
1D
100
AcDbEntity
  8
0
100
AcDbBlockEnd
  0
BLOCK
  5
1F
100
AcDbEntity
  8
0
100
AcDbBlockBegin
  2
_OPEN30
 70
     0
 10
0.0
 20
0.0
 30
0.0
  3
_OPEN30
  1

  0
LINE
  5
20
100
AcDbEntity
  8
0
  6
BYBLOCK
 62
     0
100
AcDbLine
 10
-1.0
 20
0.267949
 30
0.0
 11
0.0
 21
0.0
 31
0.0
  0
LINE
  5
21
100
AcDbEntity
  8
0
  6
BYBLOCK
 62
     0
100
AcDbLine
 10
0.0
 20
0.0
 30
0.0
 11
-1.0
 21
-0.267949
 31
0.0
  0
LINE
  5
22
100
AcDbEntity
  8
0
  6
BYBLOCK
 62
     0
100
AcDbLine
 10
0.0
 20
0.0
 30
0.0
 11
-1.0
 21
0.0
 31
0.0
  0
ENDBLK
  5
23
100
AcDbEntity
  8
0
100
AcDbBlockEnd
  0
BLOCK
  5
25
100
AcDbEntity
  8
0
100
AcDbBlockBegin
  2
_BOXFILLED
 70
     0
 10
0.0
 20
0.0
 30
0.0
  3
_BOXFILLED
  1

  0
SOLID
  5
26
100
AcDbEntity
  8
0
  6
BYBLOCK
 62
     0
100
AcDbTrace
 10
-0.5
 20
0.5
 30
0.0
 11
0.5
 21
0.5
 31
0.0
 12
-0.5
 22
-0.5
 32
0.0
 13
0.5
 23
-0.5
 33
0.0
  0
LINE
  5
27
100
AcDbEntity
  8
0
  6
BYBLOCK
 62
     0
100
AcDbLine
 10
-0.5
 20
0.0
 30
0.0
 11
-1.0
 21
0.0
 31
0.0
  0
ENDBLK
  5
28
100
AcDbEntity
  8
0
100
AcDbBlockEnd
  0
BLOCK
  5
2A
100
AcDbEntity
  8
0
100
AcDbBlockBegin
  2
_BOXBLANK
 70
     0
 10
0.0
 20
0.0
 30
0.0
  3
_BOXBLANK
  1

  0
LINE
  5
2B
100
AcDbEntity
  8
0
  6
BYBLOCK
 62
     0
100
AcDbLine
 10
-0.5
 20
-0.5
 30
0.0
 11
0.5
 21
-0.5
 31
0.0
  0
LINE
  5
2C
100
AcDbEntity
  8
0
  6
BYBLOCK
 62
     0
100
AcDbLine
 10
0.5
 20
-0.5
 30
0.0
 11
0.5
 21
0.5
 31
0.0
  0
LINE
  5
2D
100
AcDbEntity
  8
0
  6
BYBLOCK
 62
     0
100
AcDbLine
 10
0.5
 20
0.5
 30
0.0
 11
-0.5
 21
0.5
 31
0.0
  0
LINE
  5
2E
100
AcDbEntity
  8
0
  6
BYBLOCK
 62
     0
100
AcDbLine
 10
-0.5
 20
0.5
 30
0.0
 11
-0.5
 21
-0.5
 31
0.0
  0
LINE
  5
2F
100
AcDbEntity
  8
0
  6
BYBLOCK
 62
     0
100
AcDbLine
 10
-0.5
 20
0.0
 30
0.0
 11
-1.0
 21
0.0
 31
0.0
  0
ENDBLK
  5
30
100
AcDbEntity
  8
0
100
AcDbBlockEnd
  0
BLOCK
  5
32
100
AcDbEntity
  8
0
100
AcDbBlockBegin
  2
_OBLIQUE
 70
     0
 10
0.0
 20
0.0
 30
0.0
  3
_OBLIQUE
  1

  0
LINE
  5
33
100
AcDbEntity
  8
0
  6
BYBLOCK
 62
     0
100
AcDbLine
 10
-0.5
 20
-0.5
 30
0.0
 11
0.5
 21
0.5
 31
0.0
  0
ENDBLK
  5
34
100
AcDbEntity
  8
0
100
AcDbBlockEnd
  0
BLOCK
  5
36
100
AcDbEntity
  8
0
100
AcDbBlockBegin
  2
_OPEN90
 70
     0
 10
0.0
 20
0.0
 30
0.0
  3
_OPEN90
  1

  0
LINE
  5
37
100
AcDbEntity
  8
0
  6
BYBLOCK
 62
     0
100
AcDbLine
 10
-0.5
 20
0.5
 30
0.0
 11
0.0
 21
0.0
 31
0.0
  0
LINE
  5
38
100
AcDbEntity
  8
0
  6
BYBLOCK
 62
     0
100
AcDbLine
 10
0.0
 20
0.0
 30
0.0
 11
-0.5
 21
-0.5
 31
0.0
  0
LINE
  5
39
100
AcDbEntity
  8
0
  6
BYBLOCK
 62
     0
100
AcDbLine
 10
0.0
 20
0.0
 30
0.0
 11
-1.0
 21
0.0
 31
0.0
  0
ENDBLK
  5
3A
100
AcDbEntity
  8
0
100
AcDbBlockEnd
  0
BLOCK
  5
3C
100
AcDbEntity
  8
0
100
AcDbBlockBegin
  2
_CLOSEDBLANK
 70
     0
 10
0.0
 20
0.0
 30
0.0
  3
_CLOSEDBLANK
  1

  0
LINE
  5
3D
100
AcDbEntity
  8
0
  6
BYBLOCK
 62
     0
100
AcDbLine
 10
-1.0
 20
0.1666666666666666
 30
0.0
 11
0.0
 21
0.0
 31
0.0
  0
LINE
  5
3E
100
AcDbEntity
  8
0
  6
BYBLOCK
 62
     0
100
AcDbLine
 10
0.0
 20
0.0
 30
0.0
 11
-1.0
 21
-0.1666666666666666
 31
0.0
  0
LINE
  5
3F
100
AcDbEntity
  8
0
  6
BYBLOCK
 62
     0
100
AcDbLine
 10
-1.0
 20
0.1666666666666666
 30
0.0
 11
-1.0
 21
-0.1666666666666666
 31
0.0
  0
ENDBLK
  5
40
100
AcDbEntity
  8
0
100
AcDbBlockEnd
  0
BLOCK
  5
42
100
AcDbEntity
  8
0
100
AcDbBlockBegin
  2
_DOTBLANK
 70
     0
 10
0.0
 20
0.0
 30
0.0
  3
_DOTBLANK
  1

  0
CIRCLE
  5
43
100
AcDbEntity
  8
0
  6
BYBLOCK
 62
     0
100
AcDbCircle
 10
0.0
 20
0.0
 30
0.0
 40
0.5
  0
LINE
  5
44
100
AcDbEntity
  8
0
  6
BYBLOCK
 62
     0
100
AcDbLine
 10
-0.5
 20
0.0
 30
0.0
 11
-1.0
 21
0.0
 31
0.0
  0
ENDBLK
  5
45
100
AcDbEntity
  8
0
100
AcDbBlockEnd
  0
BLOCK
  5
90
100
AcDbEntity
  8
MAIN0
  6
CONTINUOUS
 62
3
100
AcDbBlockBegin
  2
*D0
 70
    65
 10
0.0
 20
0.0
 30
0.0
  0
LINE
  5
91
100
AcDbEntity
  8
MAIN0
  6
BYBLOCK
 62
0
100
AcDbLine
 10
168.5567503502322
 20
345.4097627890776
 30
0.0000000000000000
 11
38.55693026558731
 21
345.4097627890776
 31
0.0000000000000000
  0
LINE
  5
92
100
AcDbEntity
  8
MAIN0
  6
BYBLOCK
 62
0
100
AcDbLine
 10
40.55693026558731
 20
343.4097627890776
 30
0.0000000000000000
 11
40.55693026558731
 21
182.4097627890774
 31
0.0000000000000000
  0
INSERT
  5
93
100
AcDbEntity
  8
MAIN0
  6
BYBLOCK
 62
0
100
AcDbBlockReference
  2
_OPEN
 10
40.55693026558731
 20
345.4097627890776
 30
0.0000000000000000
 41
2.000000000000000
 42
2.000000000000000
 43
2.000000000000000
 50
90.00000000000000
  0
INSERT
  5
94
100
AcDbEntity
  8
MAIN0
  6
BYBLOCK
 62
0
100
AcDbBlockReference
  2
_OPEN
 10
40.55693026558731
 20
180.4097627890774
 30
0.0000000000000000
 41
2.000000000000000
 42
2.000000000000000
 43
2.000000000000000
 50
270.0000000000000
  0
LINE
  5
95
100
AcDbEntity
  8
MAIN0
  6
BYBLOCK
 62
0
100
AcDbLine
 10
168.5567503502322
 20
180.4097627890774
 30
0.0000000000000000
 11
38.55693026558731
 21
180.4097627890774
 31
0.0000000000000000
  0
MTEXT
  5
96
100
AcDbEntity
  8
MAIN0
  6
BYBLOCK
 62
0
100
AcDbMText
 10
38.50693031327103
 20
262.9097627890775
 30
0.0000000000000000
 40
3.099999904632568
 41
0.0000000000000000
 71
     5
 72
     1
  1
\A1;\U+2205165
 11
6.123233995736766e-017
 21
1.000000000000000
 31
0.0000000000000000
  7
STANDARD
  0
ENDBLK
  5
97
100
AcDbEntity
  8
MAIN0
  6
CONTINUOUS
 62
3
100
AcDbBlockEnd
  0
BLOCK
  5
99
100
AcDbEntity
  8
MAIN0
  6
CONTINUOUS
 62
3
100
AcDbBlockBegin
  2
*D1
 70
    65
 10
0.0
 20
0.0
 30
0.0
  0
LINE
  5
9A
100
AcDbEntity
  8
MAIN0
  6
BYBLOCK
 62
0
100
AcDbLine
 10
168.3567503621531
 20
180.6097627771566
 30
0.0000000000000000
 11
168.3567503621531
 21
146.1045228096551
 31
0.0000000000000000
  0
LINE
  5
9B
100
AcDbEntity
  8
MAIN0
  6
BYBLOCK
 62
0
100
AcDbLine
 10
168.3567503621531
 20
148.1045228096551
 30
0.0000000000000000
 11
173.3567503621531
 21
148.1045228096551
 31
0.0000000000000000
  0
INSERT
  5
9C
100
AcDbEntity
  8
MAIN0
  6
BYBLOCK
 62
0
100
AcDbBlockReference
  2
_OPEN
 10
168.3567503621531
 20
148.1045228096551
 30
0.0000000000000000
 41
2.000000000000000
 42
2.000000000000000
 43
2.000000000000000
 50
0.0000000000000000
  0
INSERT
  5
9D
100
AcDbEntity
  8
MAIN0
  6
BYBLOCK
 62
0
100
AcDbBlockReference
  2
_OPEN
 10
173.3567503621531
 20
148.1045228096551
 30
0.0000000000000000
 41
2.000000000000000
 42
2.000000000000000
 43
2.000000000000000
 50
180.0000000000000
  0
LINE
  5
9E
100
AcDbEntity
  8
MAIN0
  6
BYBLOCK
 62
0
100
AcDbLine
 10
166.3567503621531
 20
148.1045228096551
 30
0.0000000000000000
 11
165.3567503621531
 21
148.1045228096551
 31
0.0000000000000000
  0
LINE
  5
9F
100
AcDbEntity
  8
MAIN0
  6
BYBLOCK
 62
0
100
AcDbLine
 10
175.3567503621531
 20
148.1045228096551
 30
0.0000000000000000
 11
176.3567503621531
 21
148.1045228096551
 31
0.0000000000000000
  0
LINE
  5
A0
100
AcDbEntity
  8
MAIN0
  6
BYBLOCK
 62
0
100
AcDbLine
 10
173.3567503621531
 20
192.1097627771566
 30
0.0000000000000000
 11
173.3567503621531
 21
146.1045228096551
 31
0.0000000000000000
  0
MTEXT
  5
A1
100
AcDbEntity
  8
MAIN0
  6
BYBLOCK
 62
0
100
AcDbMText
 10
170.8567503621531
 20
150.1545227619714
 30
0.0000000000000000
 40
3.099999904632568
 41
0.0000000000000000
 71
     5
 72
     1
  1
\A1;5
 11
1.000000000000000
 21
0.0000000000000000
 31
0.0000000000000000
  7
STANDARD
  0
ENDBLK
  5
A2
100
AcDbEntity
  8
MAIN0
  6
CONTINUOUS
 62
3
100
AcDbBlockEnd
  0
BLOCK
  5
A4
100
AcDbEntity
  8
MAIN0
  6
CONTINUOUS
 62
3
100
AcDbBlockBegin
  2
*D2
 70
    65
 10
0.0
 20
0.0
 30
0.0
  0
LINE
  5
A5
100
AcDbEntity
  8
MAIN0
  6
BYBLOCK
 62
0
100
AcDbLine
 10
167.5567503502321
 20
332.9097627890776
 30
0.0000000000000000
 11
49.27300077960206
 21
332.9097627890776
 31
0.0000000000000000
  0
LINE
  5
A6
100
AcDbEntity
  8
MAIN0
  6
BYBLOCK
 62
0
100
AcDbLine
 10
51.27300077960206
 20
330.9097627890776
 30
0.0000000000000000
 11
51.27300077960206
 21
194.9097627890776
 31
0.0000000000000000
  0
INSERT
  5
A7
100
AcDbEntity
  8
MAIN0
  6
BYBLOCK
 62
0
100
AcDbBlockReference
  2
_OPEN
 10
51.27300077960206
 20
332.9097627890776
 30
0.0000000000000000
 41
2.000000000000000
 42
2.000000000000000
 43
2.000000000000000
 50
90.00000000000000
  0
INSERT
  5
A8
100
AcDbEntity
  8
MAIN0
  6
BYBLOCK
 62
0
100
AcDbBlockReference
  2
_OPEN
 10
51.27300077960206
 20
192.9097627890776
 30
0.0000000000000000
 41
2.000000000000000
 42
2.000000000000000
 43
2.000000000000000
 50
270.0000000000000
  0
LINE
  5
A9
100
AcDbEntity
  8
MAIN0
  6
BYBLOCK
 62
0
100
AcDbLine
 10
167.5567503502321
 20
192.9097627890776
 30
0.0000000000000000
 11
49.27300077960206
 21
192.9097627890776
 31
0.0000000000000000
  0
MTEXT
  5
AA
100
AcDbEntity
  8
MAIN0
  6
BYBLOCK
 62
0
100
AcDbMText
 10
49.22300082728577
 20
262.9097627890776
 30
0.0000000000000000
 40
3.099999904632568
 41
0.0000000000000000
 71
     5
 72
     1
  1
\A1;\U+2205140G7
 11
6.123233995736766e-017
 21
1.000000000000000
 31
0.0000000000000000
  7
STANDARD
  0
ENDBLK
  5
AB
100
AcDbEntity
  8
MAIN0
  6
CONTINUOUS
 62
3
100
AcDbBlockEnd
  0
BLOCK
  5
AD
100
AcDbEntity
  8
MAIN0
  6
CONTINUOUS
 62
3
100
AcDbBlockBegin
  2
*D3
 70
    65
 10
0.0
 20
0.0
 30
0.0
  0
LINE
  5
AE
100
AcDbEntity
  8
MAIN0
  6
BYBLOCK
 62
0
100
AcDbLine
 10
169.5464766092891
 20
282.9097627890776
 30
0.0000000000000000
 11
60.77318228227898
 21
282.9097627890776
 31
0.0000000000000000
  0
LINE
  5
AF
100
AcDbEntity
  8
MAIN0
  6
BYBLOCK
 62
0
100
AcDbLine
 10
62.77318228227898
 20
280.9097627890776
 30
0.0000000000000000
 11
62.77318228227898
 21
244.9097627890776
 31
0.0000000000000000
  0
INSERT
  5
B0
100
AcDbEntity
  8
MAIN0
  6
BYBLOCK
 62
0
100
AcDbBlockReference
  2
_OPEN
 10
62.77318228227898
 20
282.9097627890776
 30
0.0000000000000000
 41
2.000000000000000
 42
2.000000000000000
 43
2.000000000000000
 50
90.00000000000000
  0
INSERT
  5
B1
100
AcDbEntity
  8
MAIN0
  6
BYBLOCK
 62
0
100
AcDbBlockReference
  2
_OPEN
 10
62.77318228227898
 20
242.9097627890776
 30
0.0000000000000000
 41
2.000000000000000
 42
2.000000000000000
 43
2.000000000000000
 50
270.0000000000000
  0
LINE
  5
B2
100
AcDbEntity
  8
MAIN0
  6
BYBLOCK
 62
0
100
AcDbLine
 10
169.8845589228267
 20
242.9097627890776
 30
0.0000000000000000
 11
60.77318228227898
 21
242.9097627890776
 31
0.0000000000000000
  0
MTEXT
  5
B3
100
AcDbEntity
  8
MAIN0
  6
BYBLOCK
 62
0
100
AcDbMText
 10
60.72318232996270
 20
262.9097627890776
 30
0.0000000000000000
 40
3.099999904632568
 41
0.0000000000000000
 71
     5
 72
     1
  1
\A1;\U+220540
 11
6.123233995736766e-017
 21
1.000000000000000
 31
0.0000000000000000
  7
STANDARD
  0
ENDBLK
  5
B4
100
AcDbEntity
  8
MAIN0
  6
CONTINUOUS
 62
3
100
AcDbBlockEnd
  0
BLOCK
  5
B6
100
AcDbEntity
  8
MAIN0
  6
CONTINUOUS
 62
3
100
AcDbBlockBegin
  2
*D4
 70
    65
 10
0.0
 20
0.0
 30
0.0
  0
LINE
  5
B7
100
AcDbEntity
  8
MAIN0
  6
BYBLOCK
 62
0
100
AcDbLine
 10
168.3567503621531
 20
180.6097627771566
 30
0.0000000000000000
 11
168.3567503621531
 21
127.3028219675174
 31
0.0000000000000000
  0
LINE
  5
B8
100
AcDbEntity
  8
MAIN0
  6
BYBLOCK
 62
0
100
AcDbLine
 10
170.3567503621531
 20
129.3028219675174
 30
0.0000000000000000
 11
249.3567503621531
 21
129.3028219675174
 31
0.0000000000000000
  0
INSERT
  5
B9
100
AcDbEntity
  8
MAIN0
  6
BYBLOCK
 62
0
100
AcDbBlockReference
  2
_OPEN
 10
168.3567503621531
 20
129.3028219675174
 30
0.0000000000000000
 41
2.000000000000000
 42
2.000000000000000
 43
2.000000000000000
 50
180.0000000000000
  0
INSERT
  5
BA
100
AcDbEntity
  8
MAIN0
  6
BYBLOCK
 62
0
100
AcDbBlockReference
  2
_OPEN
 10
251.3567503621531
 20
129.3028219675174
 30
0.0000000000000000
 41
2.000000000000000
 42
2.000000000000000
 43
2.000000000000000
 50
0.0000000000000000
  0
LINE
  5
BB
100
AcDbEntity
  8
MAIN0
  6
BYBLOCK
 62
0
100
AcDbLine
 10
251.3567503621531
 20
180.6097627771566
 30
0.0000000000000000
 11
251.3567503621531
 21
127.3028219675174
 31
0.0000000000000000
  0
MTEXT
  5
BC
100
AcDbEntity
  8
MAIN0
  6
BYBLOCK
 62
0
100
AcDbMText
 10
209.8567503621531
 20
131.3528219198336
 30
0.0000000000000000
 40
3.099999904632568
 41
0.0000000000000000
 71
     5
 72
     1
  1
\A1;83
 11
1.000000000000000
 21
0.0000000000000000
 31
0.0000000000000000
  7
STANDARD
  0
ENDBLK
  5
BD
100
AcDbEntity
  8
MAIN0
  6
CONTINUOUS
 62
3
100
AcDbBlockEnd
  0
BLOCK
  5
BF
100
AcDbEntity
  8
MAIN0
  6
CONTINUOUS
 62
3
100
AcDbBlockBegin
  2
*D5
 70
    65
 10
0.0
 20
0.0
 30
0.0
  0
LINE
  5
C0
100
AcDbEntity
  8
MAIN0
  6
BYBLOCK
 62
0
100
AcDbLine
 10
251.3567503621531
 20
180.6097627771566
 30
0.0000000000000000
 11
251.3567503621531
 21
127.3028219675174
 31
0.0000000000000000
  0
LINE
  5
C1
100
AcDbEntity
  8
MAIN0
  6
BYBLOCK
 62
0
100
AcDbLine
 10
253.3567503621531
 20
129.3028219675174
 30
0.0000000000000000
 11
281.3567503621531
 21
129.3028219675174
 31
0.0000000000000000
  0
INSERT
  5
C2
100
AcDbEntity
  8
MAIN0
  6
BYBLOCK
 62
0
100
AcDbBlockReference
  2
_OPEN
 10
251.3567503621531
 20
129.3028219675174
 30
0.0000000000000000
 41
2.000000000000000
 42
2.000000000000000
 43
2.000000000000000
 50
180.0000000000000
  0
INSERT
  5
C3
100
AcDbEntity
  8
MAIN0
  6
BYBLOCK
 62
0
100
AcDbBlockReference
  2
_OPEN
 10
283.3567503621531
 20
129.3028219675174
 30
0.0000000000000000
 41
2.000000000000000
 42
2.000000000000000
 43
2.000000000000000
 50
0.0000000000000000
  0
LINE
  5
C4
100
AcDbEntity
  8
MAIN0
  6
BYBLOCK
 62
0
100
AcDbLine
 10
283.3567503621531
 20
248.1097627771565
 30
0.0000000000000000
 11
283.3567503621531
 21
127.3028219675174
 31
0.0000000000000000
  0
MTEXT
  5
C5
100
AcDbEntity
  8
MAIN0
  6
BYBLOCK
 62
0
100
AcDbMText
 10
267.3567503621531
 20
131.3528219198336
 30
0.0000000000000000
 40
3.099999904632568
 41
0.0000000000000000
 71
     5
 72
     1
  1
\A1;32
 11
1.000000000000000
 21
0.0000000000000000
 31
0.0000000000000000
  7
STANDARD
  0
ENDBLK
  5
C6
100
AcDbEntity
  8
MAIN0
  6
CONTINUOUS
 62
3
100
AcDbBlockEnd
  0
BLOCK
  5
E4
100
AcDbEntity
  8
MAIN0
  6
CONTINUOUS
 62
3
100
AcDbBlockBegin
  2
*D6
 70
    65
 10
0.0
 20
0.0
 30
0.0
  0
LINE
  5
E5
100
AcDbEntity
  8
MAIN0
  6
BYBLOCK
 62
0
100
AcDbLine
 10
100.3291616507167
 20
270.4097627890776
 30
0.0000000000000000
 11
72.51734991095759
 21
270.4097627890776
 31
0.0000000000000000
  0
LINE
  5
E6
100
AcDbEntity
  8
MAIN0
  6
BYBLOCK
 62
0
100
AcDbLine
 10
74.51734991095759
 20
268.4097627890776
 30
0.0000000000000000
 11
74.51734991095759
 21
257.4097627890776
 31
0.0000000000000000
  0
INSERT
  5
E7
100
AcDbEntity
  8
MAIN0
  6
BYBLOCK
 62
0
100
AcDbBlockReference
  2
_OPEN
 10
74.51734991095759
 20
270.4097627890776
 30
0.0000000000000000
 41
2.000000000000000
 42
2.000000000000000
 43
2.000000000000000
 50
90.00000000000000
  0
INSERT
  5
E8
100
AcDbEntity
  8
MAIN0
  6
BYBLOCK
 62
0
100
AcDbBlockReference
  2
_OPEN
 10
74.51734991095759
 20
255.4097627890776
 30
0.0000000000000000
 41
2.000000000000000
 42
2.000000000000000
 43
2.000000000000000
 50
270.0000000000000
  0
LINE
  5
E9
100
AcDbEntity
  8
MAIN0
  6
BYBLOCK
 62
0
100
AcDbLine
 10
100.2986817427272
 20
255.4097627890776
 30
0.0000000000000000
 11
72.51734991095759
 21
255.4097627890776
 31
0.0000000000000000
  0
MTEXT
  5
EA
100
AcDbEntity
  8
MAIN0
  6
BYBLOCK
 62
0
100
AcDbMText
 10
72.46734995864131
 20
262.9097627890776
 30
0.0000000000000000
 40
3.099999904632568
 41
0.0000000000000000
 71
     5
 72
     1
  1
\A1;\U+220515h8
 11
6.123233995736766e-017
 21
1.000000000000000
 31
0.0000000000000000
  7
STANDARD
  0
ENDBLK
  5
EB
100
AcDbEntity
  8
MAIN0
  6
CONTINUOUS
 62
3
100
AcDbBlockEnd
  0
BLOCK
  5
ED
100
AcDbEntity
  8
MAIN0
  6
CONTINUOUS
 62
3
100
AcDbBlockBegin
  2
*D7
 70
    65
 10
0.0
 20
0.0
 30
0.0
  0
LINE
  5
EE
100
AcDbEntity
  8
MAIN0
  6
BYBLOCK
 62
0
100
AcDbLine
 10
99.45685753303715
 20
265.4097627890776
 30
0.0000000000000000
 11
85.13776508725002
 21
265.4097627890776
 31
0.0000000000000000
  0
LINE
  5
EF
100
AcDbEntity
  8
MAIN0
  6
BYBLOCK
 62
0
100
AcDbLine
 10
87.13776508725002
 20
265.4097627890776
 30
0.0000000000000000
 11
87.13776508725002
 21
260.4097627890776
 31
0.0000000000000000
  0
INSERT
  5
F0
100
AcDbEntity
  8
MAIN0
  6
BYBLOCK
 62
0
100
AcDbBlockReference
  2
_OPEN
 10
87.13776508725002
 20
265.4097627890776
 30
0.0000000000000000
 41
2.000000000000000
 42
2.000000000000000
 43
2.000000000000000
 50
270.0000000000000
  0
INSERT
  5
F1
100
AcDbEntity
  8
MAIN0
  6
BYBLOCK
 62
0
100
AcDbBlockReference
  2
_OPEN
 10
87.13776508725002
 20
260.4097627890776
 30
0.0000000000000000
 41
2.000000000000000
 42
2.000000000000000
 43
2.000000000000000
 50
90.00000000000000
  0
LINE
  5
F2
100
AcDbEntity
  8
MAIN0
  6
BYBLOCK
 62
0
100
AcDbLine
 10
87.13776508725002
 20
267.4097627890776
 30
0.0000000000000000
 11
87.13776508725002
 21
268.4097627890776
 31
0.0000000000000000
  0
LINE
  5
F3
100
AcDbEntity
  8
MAIN0
  6
BYBLOCK
 62
0
100
AcDbLine
 10
87.13776508725002
 20
258.4097627890776
 30
0.0000000000000000
 11
87.13776508725002
 21
257.4097627890776
 31
0.0000000000000000
  0
LINE
  5
F4
100
AcDbEntity
  8
MAIN0
  6
BYBLOCK
 62
0
100
AcDbLine
 10
99.45685753303715
 20
260.4097627890776
 30
0.0000000000000000
 11
85.13776508725002
 21
260.4097627890776
 31
0.0000000000000000
  0
MTEXT
  5
F5
100
AcDbEntity
  8
MAIN0
  6
BYBLOCK
 62
0
100
AcDbMText
 10
85.08776513493373
 20
262.9097627890776
 30
0.0000000000000000
 40
3.099999904632568
 41
0.0000000000000000
 71
     5
 72
     1
  1
\A1;\U+22055
 11
6.123233995736766e-017
 21
1.000000000000000
 31
0.0000000000000000
  7
STANDARD
  0
ENDBLK
  5
F6
100
AcDbEntity
  8
MAIN0
  6
CONTINUOUS
 62
3
100
AcDbBlockEnd
  0
BLOCK
  5
FD
100
AcDbEntity
  8
MAIN0
  6
CONTINUOUS
 62
3
100
AcDbBlockBegin
  2
*D8
 70
    65
 10
0.0
 20
0.0
 30
0.0
  0
LINE
  5
FE
100
AcDbEntity
  8
MAIN0
  6
BYBLOCK
 62
0
100
AcDbLine
 10
99.85685754495802
 20
269.2097628009985
 30
0.0000000000000000
 11
99.85685754495802
 21
280.2430375910892
 31
0.0000000000000000
  0
LINE
  5
FF
100
AcDbEntity
  8
MAIN0
  6
BYBLOCK
 62
0
100
AcDbLine
 10
101.8568575449580
 20
278.2430375910892
 30
0.0000000000000000
 11
112.8568575449580
 21
278.2430375910892
 31
0.0000000000000000
  0
INSERT
  5
100
100
AcDbEntity
  8
MAIN0
  6
BYBLOCK
 62
0
100
AcDbBlockReference
  2
_OPEN
 10
99.85685754495802
 20
278.2430375910892
 30
0.0000000000000000
 41
2.000000000000000
 42
2.000000000000000
 43
2.000000000000000
 50
180.0000000000000
  0
INSERT
  5
101
100
AcDbEntity
  8
MAIN0
  6
BYBLOCK
 62
0
100
AcDbBlockReference
  2
_OPEN
 10
114.8568575449580
 20
278.2430375910892
 30
0.0000000000000000
 41
2.000000000000000
 42
2.000000000000000
 43
2.000000000000000
 50
0.0000000000000000
  0
LINE
  5
102
100
AcDbEntity
  8
MAIN0
  6
BYBLOCK
 62
0
100
AcDbLine
 10
114.8568575449580
 20
270.2097628009988
 30
0.0000000000000000
 11
114.8568575449580
 21
280.2430375910892
 31
0.0000000000000000
  0
MTEXT
  5
103
100
AcDbEntity
  8
MAIN0
  6
BYBLOCK
 62
0
100
AcDbMText
 10
107.3220326303978
 20
280.2930375434054
 30
0.0000000000000000
 40
3.099999904632568
 41
0.0000000000000000
 71
     5
 72
     1
  1
\A1;15
 11
1.000000000000000
 21
0.0000000000000000
 31
0.0000000000000000
  7
STANDARD
  0
ENDBLK
  5
104
100
AcDbEntity
  8
MAIN0
  6
CONTINUOUS
 62
3
100
AcDbBlockEnd
  0
BLOCK
  5
116
100
AcDbEntity
  8
MAIN0
  6
CONTINUOUS
 62
3
100
AcDbBlockBegin
  2
*D9
 70
    65
 10
0.0
 20
0.0
 30
0.0
  0
LINE
  5
117
100
AcDbEntity
  8
MAIN0
  6
BYBLOCK
 62
0
100
AcDbLine
 10
171.3567503621531
 20
308.2796887491190
 30
0.0000000000000000
 11
101.8568575449580
 21
308.2796887491190
 31
0.0000000000000000
  0
INSERT
  5
118
100
AcDbEntity
  8
MAIN0
  6
BYBLOCK
 62
0
100
AcDbBlockReference
  2
_OPEN
 10
173.3567503621531
 20
308.2796887491190
 30
0.0000000000000000
 41
2.000000000000000
 42
2.000000000000000
 43
2.000000000000000
 50
360.0000000000000
  0
INSERT
  5
119
100
AcDbEntity
  8
MAIN0
  6
BYBLOCK
 62
0
100
AcDbBlockReference
  2
_OPEN
 10
99.85685754495802
 20
308.2796887491190
 30
0.0000000000000000
 41
2.000000000000000
 42
2.000000000000000
 43
2.000000000000000
 50
180.0000000000000
  0
LINE
  5
11A
100
AcDbEntity
  8
MAIN0
  6
BYBLOCK
 62
0
100
AcDbLine
 10
99.85685754495802
 20
270.2097628009985
 30
0.0000000000000000
 11
99.85685754495802
 21
310.2796887491190
 31
0.0000000000000000
  0
MTEXT
  5
11B
100
AcDbEntity
  8
MAIN0
  6
BYBLOCK
 62
0
100
AcDbMText
 10
136.6068039535556
 20
310.3296887014353
 30
0.0000000000000000
 40
3.099999904632568
 41
0.0000000000000000
 71
     5
 72
     1
  1
\A1;MAX 78.8
 11
1.000000000000000
 21
0.0000000000000000
 31
0.0000000000000000
  7
STANDARD
  0
ENDBLK
  5
11C
100
AcDbEntity
  8
MAIN0
  6
CONTINUOUS
 62
3
100
AcDbBlockEnd
  0
BLOCK
  5
11E
100
AcDbEntity
  8
MAIN0
  6
CONTINUOUS
 62
3
100
AcDbBlockBegin
  2
*D10
 70
    65
 10
0.0
 20
0.0
 30
0.0
  0
LINE
  5
11F
100
AcDbEntity
  8
MAIN0
  6
BYBLOCK
 62
0
100
AcDbLine
 10
139.8568575449580
 20
278.7097628009985
 30
0.0000000000000000
 11
139.8568575449580
 21
295.3837017173323
 31
0.0000000000000000
  0
LINE
  5
120
100
AcDbEntity
  8
MAIN0
  6
BYBLOCK
 62
0
100
AcDbLine
 10
137.8568575449580
 20
293.3837017173323
 30
0.0000000000000000
 11
101.8568575449580
 21
293.3837017173323
 31
0.0000000000000000
  0
INSERT
  5
121
100
AcDbEntity
  8
MAIN0
  6
BYBLOCK
 62
0
100
AcDbBlockReference
  2
_OPEN
 10
139.8568575449580
 20
293.3837017173323
 30
0.0000000000000000
 41
2.000000000000000
 42
2.000000000000000
 43
2.000000000000000
 50
360.0000000000000
  0
INSERT
  5
122
100
AcDbEntity
  8
MAIN0
  6
BYBLOCK
 62
0
100
AcDbBlockReference
  2
_OPEN
 10
99.85685754495802
 20
293.3837017173323
 30
0.0000000000000000
 41
2.000000000000000
 42
2.000000000000000
 43
2.000000000000000
 50
180.0000000000000
  0
LINE
  5
123
100
AcDbEntity
  8
MAIN0
  6
BYBLOCK
 62
0
100
AcDbLine
 10
99.85685754495802
 20
269.2097628009985
 30
0.0000000000000000
 11
99.85685754495802
 21
295.3837017173323
 31
0.0000000000000000
  0
MTEXT
  5
124
100
AcDbEntity
  8
MAIN0
  6
BYBLOCK
 62
0
100
AcDbMText
 10
119.8568575449580
 20
295.4337016696485
 30
0.0000000000000000
 40
3.099999904632568
 41
0.0000000000000000
 71
     5
 72
     1
  1
\A1;40
 11
1.000000000000000
 21
0.0000000000000000
 31
0.0000000000000000
  7
STANDARD
  0
ENDBLK
  5
125
100
AcDbEntity
  8
MAIN0
  6
CONTINUOUS
 62
3
100
AcDbBlockEnd
  0
BLOCK
  5
149
100
AcDbEntity
  8
MAIN0
  6
CONTINUOUS
 62
3
100
AcDbBlockBegin
  2
*D11
 70
    65
 10
0.0
 20
0.0
 30
0.0
  0
LINE
  5
14A
100
AcDbEntity
  8
MAIN0
  6
BYBLOCK
 62
0
100
AcDbLine
 10
158.3567503621531
 20
216.3197628009994
 30
0.0000000000000000
 11
158.3567503621531
 21
226.8034741900304
 31
0.0000000000000000
  0
LINE
  5
14B
100
AcDbEntity
  8
MAIN0
  6
BYBLOCK
 62
0
100
AcDbLine
 10
160.3567503621531
 20
224.8034741900304
 30
0.0000000000000000
 11
171.3567503621531
 21
224.8034741900304
 31
0.0000000000000000
  0
INSERT
  5
14C
100
AcDbEntity
  8
MAIN0
  6
BYBLOCK
 62
0
100
AcDbBlockReference
  2
_OPEN
 10
158.3567503621531
 20
224.8034741900304
 30
0.0000000000000000
 41
2.000000000000000
 42
2.000000000000000
 43
2.000000000000000
 50
180.0000000000000
  0
INSERT
  5
14D
100
AcDbEntity
  8
MAIN0
  6
BYBLOCK
 62
0
100
AcDbBlockReference
  2
_OPEN
 10
173.3567503621531
 20
224.8034741900304
 30
0.0000000000000000
 41
2.000000000000000
 42
2.000000000000000
 43
2.000000000000000
 50
0.0000000000000000
  0
MTEXT
  5
14E
100
AcDbEntity
  8
MAIN0
  6
BYBLOCK
 62
0
100
AcDbMText
 10
164.0489051789200
 20
226.8534741423467
 30
0.0000000000000000
 40
3.099999904632568
 41
0.0000000000000000
 71
     5
 72
     1
  1
\A1;15
 11
1.000000000000000
 21
0.0000000000000000
 31
0.0000000000000000
  7
STANDARD
  0
ENDBLK
  5
14F
100
AcDbEntity
  8
MAIN0
  6
CONTINUOUS
 62
3
100
AcDbBlockEnd
  0
BLOCK
  5
151
100
AcDbEntity
  8
MAIN0
  6
CONTINUOUS
 62
3
100
AcDbBlockBegin
  2
*D12
 70
    65
 10
0.0
 20
0.0
 30
0.0
  0
LINE
  5
152
100
AcDbEntity
  8
MAIN0
  6
BYBLOCK
 62
0
100
AcDbLine
 10
284.4497503740740
 20
285.6097627890775
 30
0.0000000000000000
 11
294.3071513076195
 21
285.6097627890775
 31
0.0000000000000000
  0
LINE
  5
153
100
AcDbEntity
  8
MAIN0
  6
BYBLOCK
 62
0
100
AcDbLine
 10
292.3071513076195
 20
285.6097627890775
 30
0.0000000000000000
 11
292.3071513076195
 21
289.6097627890770
 31
0.0000000000000000
  0
INSERT
  5
154
100
AcDbEntity
  8
MAIN0
  6
BYBLOCK
 62
0
100
AcDbBlockReference
  2
_OPEN
 10
292.3071513076195
 20
285.6097627890775
 30
0.0000000000000000
 41
2.000000000000000
 42
2.000000000000000
 43
2.000000000000000
 50
90.00000000000000
  0
INSERT
  5
155
100
AcDbEntity
  8
MAIN0
  6
BYBLOCK
 62
0
100
AcDbBlockReference
  2
_OPEN
 10
292.3071513076195
 20
289.6097627890770
 30
0.0000000000000000
 41
2.000000000000000
 42
2.000000000000000
 43
2.000000000000000
 50
270.0000000000000
  0
LINE
  5
156
100
AcDbEntity
  8
MAIN0
  6
BYBLOCK
 62
0
100
AcDbLine
 10
292.3071513076195
 20
283.6097627890775
 30
0.0000000000000000
 11
292.3071513076195
 21
282.6097627890775
 31
0.0000000000000000
  0
LINE
  5
157
100
AcDbEntity
  8
MAIN0
  6
BYBLOCK
 62
0
100
AcDbLine
 10
292.3071513076195
 20
291.6097627890770
 30
0.0000000000000000
 11
292.3071513076195
 21
292.6097627890770
 31
0.0000000000000000
  0
LINE
  5
158
100
AcDbEntity
  8
MAIN0
  6
BYBLOCK
 62
0
100
AcDbLine
 10
276.9497503740707
 20
289.6097627890770
 30
0.0000000000000000
 11
294.3071513076195
 21
289.6097627890770
 31
0.0000000000000000
  0
MTEXT
  5
159
100
AcDbEntity
  8
MAIN0
  6
BYBLOCK
 62
0
100
AcDbMText
 10
290.2571513553032
 20
287.6097627890773
 30
0.0000000000000000
 40
3.099999904632568
 41
0.0000000000000000
 71
     5
 72
     1
  1
\A1;4
 11
6.123233995736766e-017
 21
1.000000000000000
 31
0.0000000000000000
  7
STANDARD
  0
ENDBLK
  5
15A
100
AcDbEntity
  8
MAIN0
  6
CONTINUOUS
 62
3
100
AcDbBlockEnd
  0
BLOCK
  5
15C
100
AcDbEntity
  8
MAIN0
  6
CONTINUOUS
 62
3
100
AcDbBlockBegin
  2
*D13
 70
    65
 10
0.0
 20
0.0
 30
0.0
  0
LINE
  5
15D
100
AcDbEntity
  8
MAIN0
  6
BYBLOCK
 62
0
100
AcDbLine
 10
283.6497503621580
 20
309.3833497103810
 30
0.0000000000000000
 11
283.6497503621580
 21
398.6760458684171
 31
0.0000000000000000
  0
LINE
  5
15E
100
AcDbEntity
  8
MAIN0
  6
BYBLOCK
 62
0
100
AcDbLine
 10
281.6497503621580
 20
396.6760458684171
 30
0.0000000000000000
 11
262.6497503621531
 21
396.6760458684171
 31
0.0000000000000000
  0
INSERT
  5
15F
100
AcDbEntity
  8
MAIN0
  6
BYBLOCK
 62
0
100
AcDbBlockReference
  2
_OPEN
 10
283.6497503621580
 20
396.6760458684171
 30
0.0000000000000000
 41
2.000000000000000
 42
2.000000000000000
 43
2.000000000000000
 50
360.0000000000000
  0
INSERT
  5
160
100
AcDbEntity
  8
MAIN0
  6
BYBLOCK
 62
0
100
AcDbBlockReference
  2
_OPEN
 10
260.6497503621531
 20
396.6760458684171
 30
0.0000000000000000
 41
2.000000000000000
 42
2.000000000000000
 43
2.000000000000000
 50
180.0000000000000
  0
LINE
  5
161
100
AcDbEntity
  8
MAIN0
  6
BYBLOCK
 62
0
100
AcDbLine
 10
260.6497503621531
 20
308.9138656791806
 30
0.0000000000000000
 11
260.6497503621531
 21
398.6760458684171
 31
0.0000000000000000
  0
MTEXT
  5
162
100
AcDbEntity
  8
MAIN0
  6
BYBLOCK
 62
0
100
AcDbMText
 10
272.1497503621556
 20
398.7260458207334
 30
0.0000000000000000
 40
3.099999904632568
 41
0.0000000000000000
 71
     5
 72
     1
  1
\A1;23
 11
1.000000000000000
 21
0.0000000000000000
 31
0.0000000000000000
  7
STANDARD
  0
ENDBLK
  5
163
100
AcDbEntity
  8
MAIN0
  6
CONTINUOUS
 62
3
100
AcDbBlockEnd
  0
BLOCK
  5
165
100
AcDbEntity
  8
MAIN0
  6
CONTINUOUS
 62
3
100
AcDbBlockBegin
  2
*D14
 70
    65
 10
0.0
 20
0.0
 30
0.0
  0
LINE
  5
166
100
AcDbEntity
  8
MAIN0
  6
BYBLOCK
 62
0
100
AcDbLine
 10
260.6497503621531
 20
308.9138656791806
 30
0.0000000000000000
 11
260.6497503621531
 21
398.6760458684171
 31
0.0000000000000000
  0
LINE
  5
167
100
AcDbEntity
  8
MAIN0
  6
BYBLOCK
 62
0
100
AcDbLine
 10
260.6497503621531
 20
396.6760458684171
 30
0.0000000000000000
 11
253.6497503621531
 21
396.6760458684171
 31
0.0000000000000000
  0
INSERT
  5
168
100
AcDbEntity
  8
MAIN0
  6
BYBLOCK
 62
0
100
AcDbBlockReference
  2
_OPEN
 10
260.6497503621531
 20
396.6760458684171
 30
0.0000000000000000
 41
2.000000000000000
 42
2.000000000000000
 43
2.000000000000000
 50
180.0000000000000
  0
INSERT
  5
169
100
AcDbEntity
  8
MAIN0
  6
BYBLOCK
 62
0
100
AcDbBlockReference
  2
_OPEN
 10
253.6497503621531
 20
396.6760458684171
 30
0.0000000000000000
 41
2.000000000000000
 42
2.000000000000000
 43
2.000000000000000
 50
360.0000000000000
  0
LINE
  5
16A
100
AcDbEntity
  8
MAIN0
  6
BYBLOCK
 62
0
100
AcDbLine
 10
262.6497503621531
 20
396.6760458684171
 30
0.0000000000000000
 11
263.6497503621531
 21
396.6760458684171
 31
0.0000000000000000
  0
LINE
  5
16B
100
AcDbEntity
  8
MAIN0
  6
BYBLOCK
 62
0
100
AcDbLine
 10
251.6497503621531
 20
396.6760458684171
 30
0.0000000000000000
 11
250.6497503621531
 21
396.6760458684171
 31
0.0000000000000000
  0
LINE
  5
16C
100
AcDbEntity
  8
MAIN0
  6
BYBLOCK
 62
0
100
AcDbLine
 10
253.6497503621531
 20
310.6767408934638
 30
0.0000000000000000
 11
253.6497503621531
 21
398.6760458684171
 31
0.0000000000000000
  0
MTEXT
  5
16D
100
AcDbEntity
  8
MAIN0
  6
BYBLOCK
 62
0
100
AcDbMText
 10
257.1497503621531
 20
398.7260458207334
 30
0.0000000000000000
 40
3.099999904632568
 41
0.0000000000000000
 71
     5
 72
     1
  1
\A1;7
 11
1.000000000000000
 21
0.0000000000000000
 31
0.0000000000000000
  7
STANDARD
  0
ENDBLK
  5
16E
100
AcDbEntity
  8
MAIN0
  6
CONTINUOUS
 62
3
100
AcDbBlockEnd
  0
BLOCK
  5
170
100
AcDbEntity
  8
MAIN0
  6
CONTINUOUS
 62
3
100
AcDbBlockBegin
  2
*D15
 70
    65
 10
0.0
 20
0.0
 30
0.0
  0
LINE
  5
171
100
AcDbEntity
  8
MAIN0
  6
BYBLOCK
 62
0
100
AcDbLine
 10
283.6497503621580
 20
298.7535090383648
 30
0.0000000000000000
 11
283.6497503621580
 21
388.3591444227718
 31
0.0000000000000000
  0
LINE
  5
172
100
AcDbEntity
  8
MAIN0
  6
BYBLOCK
 62
0
100
AcDbLine
 10
281.6497503621580
 20
386.3591444227718
 30
0.0000000000000000
 11
272.6497503621531
 21
386.3591444227718
 31
0.0000000000000000
  0
INSERT
  5
173
100
AcDbEntity
  8
MAIN0
  6
BYBLOCK
 62
0
100
AcDbBlockReference
  2
_OPEN
 10
283.6497503621580
 20
386.3591444227718
 30
0.0000000000000000
 41
2.000000000000000
 42
2.000000000000000
 43
2.000000000000000
 50
360.0000000000000
  0
INSERT
  5
174
100
AcDbEntity
  8
MAIN0
  6
BYBLOCK
 62
0
100
AcDbBlockReference
  2
_OPEN
 10
270.6497503621531
 20
386.3591444227718
 30
0.0000000000000000
 41
2.000000000000000
 42
2.000000000000000
 43
2.000000000000000
 50
180.0000000000000
  0
LINE
  5
175
100
AcDbEntity
  8
MAIN0
  6
BYBLOCK
 62
0
100
AcDbLine
 10
270.6497503621531
 20
332.3011623499455
 30
0.0000000000000000
 11
270.6497503621531
 21
388.3591444227718
 31
0.0000000000000000
  0
MTEXT
  5
176
100
AcDbEntity
  8
MAIN0
  6
BYBLOCK
 62
0
100
AcDbMText
 10
277.1497503621556
 20
388.4091443750881
 30
0.0000000000000000
 40
3.099999904632568
 41
0.0000000000000000
 71
     5
 72
     1
  1
\A1;13
 11
1.000000000000000
 21
0.0000000000000000
 31
0.0000000000000000
  7
STANDARD
  0
ENDBLK
  5
177
100
AcDbEntity
  8
MAIN0
  6
CONTINUOUS
 62
3
100
AcDbBlockEnd
  0
BLOCK
  5
179
100
AcDbEntity
  8
MAIN0
  6
CONTINUOUS
 62
3
100
AcDbBlockBegin
  2
*D16
 70
    65
 10
0.0
 20
0.0
 30
0.0
  0
LINE
  5
17A
100
AcDbEntity
  8
MAIN0
  6
BYBLOCK
 62
0
100
AcDbLine
 10
251.3567503621531
 20
180.6097627771566
 30
0.0000000000000000
 11
251.3567503621531
 21
145.3708489432940
 31
0.0000000000000000
  0
LINE
  5
17B
100
AcDbEntity
  8
MAIN0
  6
BYBLOCK
 62
0
100
AcDbLine
 10
249.3567503621531
 20
147.3708489432940
 30
0.0000000000000000
 11
235.3567503621526
 21
147.3708489432940
 31
0.0000000000000000
  0
INSERT
  5
17C
100
AcDbEntity
  8
MAIN0
  6
BYBLOCK
 62
0
100
AcDbBlockReference
  2
_OPEN
 10
251.3567503621531
 20
147.3708489432940
 30
0.0000000000000000
 41
2.000000000000000
 42
2.000000000000000
 43
2.000000000000000
 50
360.0000000000000
  0
INSERT
  5
17D
100
AcDbEntity
  8
MAIN0
  6
BYBLOCK
 62
0
100
AcDbBlockReference
  2
_OPEN
 10
233.3567503621526
 20
147.3708489432940
 30
0.0000000000000000
 41
2.000000000000000
 42
2.000000000000000
 43
2.000000000000000
 50
180.0000000000000
  0
LINE
  5
17E
100
AcDbEntity
  8
MAIN0
  6
BYBLOCK
 62
0
100
AcDbLine
 10
233.3567503621526
 20
201.2197627771575
 30
0.0000000000000000
 11
233.3567503621526
 21
145.3708489432940
 31
0.0000000000000000
  0
MTEXT
  5
17F
100
AcDbEntity
  8
MAIN0
  6
BYBLOCK
 62
0
100
AcDbMText
 10
242.3567503621528
 20
149.4208488956103
 30
0.0000000000000000
 40
3.099999904632568
 41
0.0000000000000000
 71
     5
 72
     1
  1
\A1;18
 11
1.000000000000000
 21
0.0000000000000000
 31
0.0000000000000000
  7
STANDARD
  0
ENDBLK
  5
180
100
AcDbEntity
  8
MAIN0
  6
CONTINUOUS
 62
3
100
AcDbBlockEnd
  0
BLOCK
  5
193
100
AcDbEntity
  8
MAIN0
  6
CONTINUOUS
 62
3
100
AcDbBlockBegin
  2
*D17
 70
    65
 10
0.0
 20
0.0
 30
0.0
  0
LINE
  5
194
100
AcDbEntity
  8
MAIN0
  6
BYBLOCK
 62
0
100
AcDbLine
 10
315.3180355365957
 20
262.9097627890776
 30
0.0000000000000000
 11
328.7672862824144
 21
262.9097627890776
 31
0.0000000000000000
  0
LINE
  5
195
100
AcDbEntity
  8
MAIN0
  6
BYBLOCK
 62
0
100
AcDbLine
 10
326.7672862824144
 20
264.9097627890776
 30
0.0000000000000000
 11
326.7672862824144
 21
306.6097627890775
 31
0.0000000000000000
  0
INSERT
  5
196
100
AcDbEntity
  8
MAIN0
  6
BYBLOCK
 62
0
100
AcDbBlockReference
  2
_OPEN
 10
326.7672862824144
 20
262.9097627890776
 30
0.0000000000000000
 41
2.000000000000000
 42
2.000000000000000
 43
2.000000000000000
 50
270.0000000000000
  0
INSERT
  5
197
100
AcDbEntity
  8
MAIN0
  6
BYBLOCK
 62
0
100
AcDbBlockReference
  2
_OPEN
 10
326.7672862824144
 20
308.6097627890775
 30
0.0000000000000000
 41
2.000000000000000
 42
2.000000000000000
 43
2.000000000000000
 50
90.00000000000000
  0
LINE
  5
198
100
AcDbEntity
  8
MAIN0
  6
BYBLOCK
 62
0
100
AcDbLine
 10
284.4497503740740
 20
308.6097627890775
 30
0.0000000000000000
 11
328.7672862824144
 21
308.6097627890775
 31
0.0000000000000000
  0
MTEXT
  5
199
100
AcDbEntity
  8
MAIN0
  6
BYBLOCK
 62
0
100
AcDbMText
 10
324.7172863300981
 20
285.7597627890776
 30
0.0000000000000000
 40
3.099999904632568
 41
0.0000000000000000
 71
     5
 72
     1
  1
\A1;MAX 46.9
 11
6.123233995736766e-017
 21
1.000000000000000
 31
0.0000000000000000
  7
STANDARD
  0
ENDBLK
  5
19A
100
AcDbEntity
  8
MAIN0
  6
CONTINUOUS
 62
3
100
AcDbBlockEnd
  0
BLOCK
  5
1C8
100
AcDbEntity
  8
MAIN0
  6
CONTINUOUS
 62
3
100
AcDbBlockBegin
  2
*D18
 70
    65
 10
0.0
 20
0.0
 30
0.0
  0
LINE
  5
1C9
100
AcDbEntity
  8
MAIN0
  6
BYBLOCK
 62
0
100
AcDbLine
 10
284.4497503740740
 20
285.6097627890775
 30
0.0000000000000000
 11
307.3313271712846
 21
285.6097627890775
 31
0.0000000000000000
  0
LINE
  5
1CA
100
AcDbEntity
  8
MAIN0
  6
BYBLOCK
 62
0
100
AcDbLine
 10
305.3313271712846
 20
287.6097627890775
 30
0.0000000000000000
 11
305.3313271712846
 21
297.6097627890776
 31
0.0000000000000000
  0
INSERT
  5
1CB
100
AcDbEntity
  8
MAIN0
  6
BYBLOCK
 62
0
100
AcDbBlockReference
  2
_OPEN
 10
305.3313271712846
 20
285.6097627890775
 30
0.0000000000000000
 41
2.000000000000000
 42
2.000000000000000
 43
2.000000000000000
 50
270.0000000000000
  0
INSERT
  5
1CC
100
AcDbEntity
  8
MAIN0
  6
BYBLOCK
 62
0
100
AcDbBlockReference
  2
_OPEN
 10
305.3313271712846
 20
299.6097627890776
 30
0.0000000000000000
 41
2.000000000000000
 42
2.000000000000000
 43
2.000000000000000
 50
90.00000000000000
  0
LINE
  5
1CD
100
AcDbEntity
  8
MAIN0
  6
BYBLOCK
 62
0
100
AcDbLine
 10
263.3779550700404
 20
299.6097627890776
 30
0.0000000000000000
 11
307.3313271712846
 21
299.6097627890776
 31
0.0000000000000000
  0
MTEXT
  5
1CE
100
AcDbEntity
  8
MAIN0
  6
BYBLOCK
 62
0
100
AcDbMText
 10
303.2813272189683
 20
292.6097627890776
 30
0.0000000000000000
 40
3.099999904632568
 41
0.0000000000000000
 71
     5
 72
     1
  1
\A1;14
 11
6.123233995736766e-017
 21
1.000000000000000
 31
0.0000000000000000
  7
STANDARD
  0
ENDBLK
  5
1CF
100
AcDbEntity
  8
MAIN0
  6
CONTINUOUS
 62
3
100
AcDbBlockEnd
  0
BLOCK
  5
1D1
100
AcDbEntity
  8
MAIN0
  6
CONTINUOUS
 62
3
100
AcDbBlockBegin
  2
D19
 70
    64
 10
0.0
 20
0.0
 30
0.0
  0
LINE
  5
1D2
100
AcDbEntity
  8
MAIN0
  6
BYBLOCK
 62
0
100
AcDbLine
 10
-9.186708353390188
 20
6.805935548696130
 30
0.0000000000000000
 11
-9.186708353390188
 21
22.70000000000000
 31
0.0000000000000000
  0
LINE
  5
1D3
100
AcDbEntity
  8
MAIN0
  6
BYBLOCK
 62
0
100
AcDbLine
 10
-9.786708377232046
 20
20.70000000000000
 30
0.0000000000000000
 11
-9.186708353390188
 21
22.70000000000000
 31
0.0000000000000000
  0
LINE
  5
1D4
100
AcDbEntity
  8
MAIN0
  6
BYBLOCK
 62
0
100
AcDbLine
 10
-9.186708353390188
 20
22.70000000000000
 30
0.0000000000000000
 11
-8.586708329548330
 21
20.70000000000000
 31
0.0000000000000000
  0
LINE
  5
1D5
100
AcDbEntity
  8
MAIN0
  6
BYBLOCK
 62
0
100
AcDbLine
 10
-30.06828515060069
 20
22.70000000000000
 30
0.0000000000000000
 11
-7.186708353390188
 21
22.70000000000000
 31
0.0000000000000000
  0
MTEXT
  5
1D6
100
AcDbEntity
  8
MAIN0
  6
BYBLOCK
 62
0
100
AcDbMText
 10
-11.23670830570647
 20
11.80593554978434
 30
0.0000000000000000
 40
3.099999904632568
 41
0.0000000000000000
 71
     5
 72
     1
  1
\A1;\U+220545.4
 11
6.123233995736766e-017
 21
1.000000000000000
 31
0.0000000000000000
  7
STANDARD
  0
ENDBLK
  5
1D7
100
AcDbEntity
  8
MAIN0
  6
CONTINUOUS
 62
3
100
AcDbBlockEnd
  0
BLOCK
  5
1D9
100
AcDbEntity
  8
MAIN0
  6
CONTINUOUS
 62
3
100
AcDbBlockBegin
  2
D20
 70
    64
 10
0.0
 20
0.0
 30
0.0
  0
LINE
  5
1DA
100
AcDbEntity
  8
MAIN0
  6
BYBLOCK
 62
0
100
AcDbLine
 10
-19.83430190767176
 20
-4.304332380623759
 30
0.0000000000000000
 11
-19.83430190767176
 21
-20.00000000000000
 31
0.0000000000000000
  0
LINE
  5
1DB
100
AcDbEntity
  8
MAIN0
  6
BYBLOCK
 62
0
100
AcDbLine
 10
-19.23430188382990
 20
-18.00000000000000
 30
0.0000000000000000
 11
-19.83430190767176
 21
-20.00000000000000
 31
0.0000000000000000
  0
LINE
  5
1DC
100
AcDbEntity
  8
MAIN0
  6
BYBLOCK
 62
0
100
AcDbLine
 10
-19.83430190767176
 20
-20.00000000000000
 30
0.0000000000000000
 11
-20.43430193151362
 21
-18.00000000000000
 31
0.0000000000000000
  0
LINE
  5
1DD
100
AcDbEntity
  8
MAIN0
  6
BYBLOCK
 62
0
100
AcDbLine
 10
-56.48564080377025
 20
-20.00000000000000
 30
0.0000000000000000
 11
-17.83430190767176
 21
-20.00000000000000
 31
0.0000000000000000
  0
MTEXT
  5
1DE
100
AcDbEntity
  8
MAIN0
  6
BYBLOCK
 62
0
100
AcDbMText
 10
-21.88430185998804
 20
-7.704332147304353
 30
0.0000000000000000
 40
3.099999904632568
 41
0.0000000000000000
 71
     5
 72
     1
  1
\A1;\U+220540
 11
6.123233995736766e-017
 21
1.000000000000000
 31
0.0000000000000000
  7
STANDARD
  0
ENDBLK
  5
1DF
100
AcDbEntity
  8
MAIN0
  6
CONTINUOUS
 62
3
100
AcDbBlockEnd
  0
BLOCK
  5
1E1
100
AcDbEntity
  8
MAIN0
  6
CONTINUOUS
 62
3
100
AcDbBlockBegin
  2
D21
 70
    64
 10
0.0
 20
0.0
 30
0.0
  0
LINE
  5
1E2
100
AcDbEntity
  8
MAIN0
  6
BYBLOCK
 62
0
100
AcDbLine
 10
1.988295194731350
 20
25.89292210951384
 30
0.0000000000000000
 11
1.988295194731350
 21
44.50000000000000
 31
0.0000000000000000
  0
LINE
  5
1E3
100
AcDbEntity
  8
MAIN0
  6
BYBLOCK
 62
0
100
AcDbLine
 10
1.388295170889492
 20
42.50000000000000
 30
0.0000000000000000
 11
1.988295194731350
 21
44.50000000000000
 31
0.0000000000000000
  0
LINE
  5
1E4
100
AcDbEntity
  8
MAIN0
  6
BYBLOCK
 62
0
100
AcDbLine
 10
1.988295194731350
 20
44.50000000000000
 30
0.0000000000000000
 11
2.588295218573208
 21
42.50000000000000
 31
0.0000000000000000
  0
LINE
  5
1E5
100
AcDbEntity
  8
MAIN0
  6
BYBLOCK
 62
0
100
AcDbLine
 10
-53.06828515060069
 20
44.50000000000000
 30
0.0000000000000000
 11
3.988295194731350
 21
44.50000000000000
 31
0.0000000000000000
  0
MTEXT
  5
1E6
100
AcDbEntity
  8
MAIN0
  6
BYBLOCK
 62
0
100
AcDbMText
 10
-0.06170475758493410
 20
29.29292187619443
 30
0.0000000000000000
 40
3.099999904632568
 41
0.0000000000000000
 71
     5
 72
     1
  1
\A1;\U+220589
 11
6.123233995736766e-017
 21
1.000000000000000
 31
0.0000000000000000
  7
STANDARD
  0
ENDBLK
  5
1E7
100
AcDbEntity
  8
MAIN0
  6
CONTINUOUS
 62
3
100
AcDbBlockEnd
  0
BLOCK
  5
1E9
100
AcDbEntity
  8
MAIN0
  6
CONTINUOUS
 62
3
100
AcDbBlockBegin
  2
*D22
 70
    65
 10
0.0
 20
0.0
 30
0.0
  0
LINE
  5
1EA
100
AcDbEntity
  8
MAIN0
  6
BYBLOCK
 62
0
100
AcDbLine
 10
284.4497503740740
 20
308.6097627890775
 30
0.0000000000000000
 11
328.7672862824144
 21
308.6097627890775
 31
0.0000000000000000
  0
LINE
  5
1EB
100
AcDbEntity
  8
MAIN0
  6
BYBLOCK
 62
0
100
AcDbLine
 10
326.7672862824144
 20
306.6097627890775
 30
0.0000000000000000
 11
326.7672862824144
 21
264.9097627890776
 31
0.0000000000000000
  0
INSERT
  5
1EC
100
AcDbEntity
  8
MAIN0
  6
BYBLOCK
 62
0
100
AcDbBlockReference
  2
_OPEN
 10
326.7672862824144
 20
308.6097627890775
 30
0.0000000000000000
 41
2.000000000000000
 42
2.000000000000000
 43
2.000000000000000
 50
90.00000000000000
  0
INSERT
  5
1ED
100
AcDbEntity
  8
MAIN0
  6
BYBLOCK
 62
0
100
AcDbBlockReference
  2
_OPEN
 10
326.7672862824144
 20
262.9097627890776
 30
0.0000000000000000
 41
2.000000000000000
 42
2.000000000000000
 43
2.000000000000000
 50
270.0000000000000
  0
LINE
  5
1EE
100
AcDbEntity
  8
MAIN0
  6
BYBLOCK
 62
0
100
AcDbLine
 10
315.3180355365957
 20
262.9097627890776
 30
0.0000000000000000
 11
328.7672862824144
 21
262.9097627890776
 31
0.0000000000000000
  0
MTEXT
  5
1EF
100
AcDbEntity
  8
MAIN0
  6
BYBLOCK
 62
0
100
AcDbMText
 10
328.8302962246218
 20
285.8437760570688
 30
0.0000000000000000
 40
3.099999904632568
 41
0.0000000000000000
 71
     5
 72
     1
  1
\A1;MIN 44.5
 11
6.123233995736766e-017
 21
1.000000000000000
 31
0.0000000000000000
  7
STANDARD
  0
ENDBLK
  5
1F0
100
AcDbEntity
  8
MAIN0
  6
CONTINUOUS
 62
3
100
AcDbBlockEnd
  0
BLOCK
  5
23A
100
AcDbEntity
  8
MAIN0
  6
BYBLOCK
 62
3
100
AcDbBlockBegin
  2
M0
 70
    64
 10
0.0
 20
0.0
 30
0.0
  0
LINE
  5
23B
100
AcDbEntity
  8
MAIN0
  6
BYBLOCK
 62
0
100
AcDbLine
 10
384.4282851850135
 20
117.3729040695695
 30
0.0000000000000000
 11
479.4282851850134
 21
117.3729040695695
 31
0.0000000000000000
  0
LINE
  5
23C
100
AcDbEntity
  8
MAIN0
  6
BYBLOCK
 62
0
100
AcDbLine
 10
384.4282851850135
 20
112.3729040695696
 30
0.0000000000000000
 11
479.4282851850134
 21
112.3729040695696
 31
0.0000000000000000
  0
LINE
  5
23D
100
AcDbEntity
  8
MAIN0
  6
BYBLOCK
 62
0
100
AcDbLine
 10
384.4282851850135
 20
107.3729040695696
 30
0.0000000000000000
 11
479.4282851850134
 21
107.3729040695696
 31
0.0000000000000000
  0
MTEXT
  5
23E
100
AcDbEntity
  8
MAIN0
  6
BYBLOCK
 62
0
100
AcDbMText
 10
385.4282851850135
 20
120.9729039742020
 30
0.0000000000000000
 40
3.099999904632568
 41
0.0000000000000000
 71
     1
 72
     1
  1
{\H0.88x;1.}
 11
1.000000000000000
 21
0.0000000000000000
 31
0.0000000000000000
  7
STANDARD
  0
MTEXT
  5
23F
100
AcDbEntity
  8
MAIN0
  6
BYBLOCK
 62
0
100
AcDbMText
 10
385.4282851850135
 20
110.9729039742021
 30
0.0000000000000000
 40
3.099999904632568
 41
0.0000000000000000
 71
     1
 72
     1
  1
{\H0.88x;2.}
 11
1.000000000000000
 21
0.0000000000000000
 31
0.0000000000000000
  7
STANDARD
  0
MTEXT
  5
240
100
AcDbEntity
  8
MAIN0
  6
BYBLOCK
 62
0
100
AcDbMText
 10
385.9282851850135
 20
131.3729040695698
 30
0.0000000000000000
 40
6.000000000000000
 41
0.0000000000000000
 71
     1
 72
     1
  1
{\H0.80x;注　記}
 11
1.000000000000000
 21
0.0000000000000000
 31
0.0000000000000000
  7
KNJYOKO
  0
LINE
  5
241
100
AcDbEntity
  8
MAIN0
  6
BYBLOCK
 62
0
100
AcDbLine
 10
404.4282851850135
 20
132.8729040695699
 30
0.0000000000000000
 11
404.4282851850135
 21
123.8729040695699
 31
0.0000000000000000
  0
LINE
  5
242
100
AcDbEntity
  8
MAIN0
  6
BYBLOCK
 62
0
100
AcDbLine
 10
384.4282851850135
 20
123.8729040695699
 30
0.0000000000000000
 11
404.4282851850135
 21
123.8729040695699
 31
0.0000000000000000
  0
LINE
  5
243
100
AcDbEntity
  8
MAIN0
  6
BYBLOCK
 62
0
100
AcDbLine
 10
384.4282851850135
 20
132.8729040695699
 30
0.0000000000000000
 11
384.4282851850135
 21
123.8729040695699
 31
0.0000000000000000
  0
LINE
  5
244
100
AcDbEntity
  8
MAIN0
  6
BYBLOCK
 62
0
100
AcDbLine
 10
384.4282851850135
 20
132.8729040695699
 30
0.0000000000000000
 11
404.4282851850135
 21
132.8729040695699
 31
0.0000000000000000
  0
ENDBLK
  5
245
100
AcDbEntity
  8
MAIN0
  6
BYBLOCK
 62
3
100
AcDbBlockEnd
  0
BLOCK
  5
248
100
AcDbEntity
  8
MAIN0
  6
BYBLOCK
 62
3
100
AcDbBlockBegin
  2
M1
 70
    64
 10
0.0
 20
0.0
 30
0.0
  0
LINE
  5
249
100
AcDbEntity
  8
MAIN0
  6
BYBLOCK
 62
0
100
AcDbLine
 10
384.4282851850137
 20
81.73157068269609
 30
0.0000000000000000
 11
510.9429087261630
 21
81.73157068269609
 31
0.0000000000000000
  0
LINE
  5
24A
100
AcDbEntity
  8
MAIN0
  6
BYBLOCK
 62
0
100
AcDbLine
 10
384.4282851850137
 20
76.73157068269609
 30
0.0000000000000000
 11
510.9429087261630
 21
76.73157068269609
 31
0.0000000000000000
  0
LINE
  5
24B
100
AcDbEntity
  8
MAIN0
  6
BYBLOCK
 62
0
100
AcDbLine
 10
384.4282851850137
 20
71.73157068269609
 30
0.0000000000000000
 11
510.9429087261630
 21
71.73157068269609
 31
0.0000000000000000
  0
LINE
  5
24C
100
AcDbEntity
  8
MAIN0
  6
BYBLOCK
 62
0
100
AcDbLine
 10
384.4282851850137
 20
66.73157068269609
 30
0.0000000000000000
 11
510.9429087261630
 21
66.73157068269609
 31
0.0000000000000000
  0
MTEXT
  5
24D
100
AcDbEntity
  8
MAIN0
  6
BYBLOCK
 62
0
100
AcDbMText
 10
385.4282851850137
 20
85.33157058732857
 30
0.0000000000000000
 40
3.099999904632568
 41
0.0000000000000000
 71
     1
 72
     1
  1
{\H0.88x;1.}
 11
1.000000000000000
 21
0.0000000000000000
 31
0.0000000000000000
  7
STANDARD
  0
MTEXT
  5
24E
100
AcDbEntity
  8
MAIN0
  6
BYBLOCK
 62
0
100
AcDbMText
 10
385.4282851850137
 20
75.33157058732866
 30
0.0000000000000000
 40
3.099999904632568
 41
0.0000000000000000
 71
     1
 72
     1
  1
{\H0.88x;2.}
 11
1.000000000000000
 21
0.0000000000000000
 31
0.0000000000000000
  7
STANDARD
  0
MTEXT
  5
24F
100
AcDbEntity
  8
MAIN0
  6
BYBLOCK
 62
0
100
AcDbMText
 10
385.9282851850137
 20
94.73157068269629
 30
0.0000000000000000
 40
5.000000000000000
 41
0.0000000000000000
 71
     1
 72
     1
  1
{\H0.63x;NOTICE}
 11
1.000000000000000
 21
0.0000000000000000
 31
0.0000000000000000
  7
STANDARD
  0
LINE
  5
250
100
AcDbEntity
  8
MAIN0
  6
BYBLOCK
 62
0
100
AcDbLine
 10
404.4282851850137
 20
97.23157068269632
 30
0.0000000000000000
 11
404.4282851850137
 21
88.23157068269632
 31
0.0000000000000000
  0
LINE
  5
251
100
AcDbEntity
  8
MAIN0
  6
BYBLOCK
 62
0
100
AcDbLine
 10
384.4282851850137
 20
88.23157068269632
 30
0.0000000000000000
 11
404.4282851850137
 21
88.23157068269632
 31
0.0000000000000000
  0
LINE
  5
252
100
AcDbEntity
  8
MAIN0
  6
BYBLOCK
 62
0
100
AcDbLine
 10
384.4282851850137
 20
97.23157068269632
 30
0.0000000000000000
 11
384.4282851850137
 21
88.23157068269632
 31
0.0000000000000000
  0
LINE
  5
253
100
AcDbEntity
  8
MAIN0
  6
BYBLOCK
 62
0
100
AcDbLine
 10
384.4282851850137
 20
97.23157068269632
 30
0.0000000000000000
 11
404.4282851850137
 21
97.23157068269632
 31
0.0000000000000000
  0
ENDBLK
  5
254
100
AcDbEntity
  8
MAIN0
  6
BYBLOCK
 62
3
100
AcDbBlockEnd
  0
BLOCK
  5
25B
100
AcDbEntity
  8
MAIN0
  6
CONTINUOUS
 62
3
100
AcDbBlockBegin
  2
*D23
 70
    65
 10
0.0
 20
0.0
 30
0.0
  0
LINE
  5
25C
100
AcDbEntity
  8
MAIN0
  6
BYBLOCK
 62
0
100
AcDbLine
 10
454.1007679256163
 20
200.1111106613277
 30
0.0000000000000000
 11
464.1353700670532
 21
162.6614656359717
 31
0.0000000000000000
  0
ARC
  5
25D
100
AcDbEntity
  8
MAIN0
  6
BYBLOCK
 62
0
100
AcDbCircle
 10
437.2739198021214
 20
262.9097627890766
 30
0.0000000000000000
 40
101.7846741693234
100
AcDbArc
 50
271.1258233124128
 51
283.8741766876736
  0
INSERT
  5
25E
100
AcDbEntity
  8
MAIN0
  6
BYBLOCK
 62
0
100
AcDbBlockReference
  2
_OPEN
 10
437.2739198021213
 20
161.1250886197532
 30
0.0000000000000000
 41
2.000000000000000
 42
2.000000000000000
 43
2.000000000000000
 50
180.0000000000000
  0
INSERT
  5
25F
100
AcDbEntity
  8
MAIN0
  6
BYBLOCK
 62
0
100
AcDbBlockReference
  2
_OPEN
 10
463.6177319768452
 20
164.5933172885491
 30
0.0000000000000000
 41
2.000000000000000
 42
2.000000000000000
 43
2.000000000000000
 50
15.00000000008635
  0
MTEXT
  5
260
100
AcDbEntity
  8
MAIN0
  6
BYBLOCK
 62
0
100
AcDbMText
 10
450.2919070600492
 20
164.0283325358437
 30
0.0000000000000000
 40
3.099999904632568
 41
0.0000000000000000
 71
     5
 72
     1
  1
\A1;15\U+00B0
 11
0.9914448613737120
 21
0.1305261922207991
 31
0.0000000000000000
  7
STANDARD
  0
ENDBLK
  5
261
100
AcDbEntity
  8
MAIN0
  6
CONTINUOUS
 62
3
100
AcDbBlockEnd
  0
BLOCK
  5
263
100
AcDbEntity
  8
MAIN0
  6
CONTINUOUS
 62
3
100
AcDbBlockBegin
  2
*D24
 70
    65
 10
0.0
 20
0.0
 30
0.0
  0
LINE
  5
264
100
AcDbEntity
  8
MAIN0
  6
BYBLOCK
 62
0
100
AcDbLine
 10
454.1007679256163
 20
200.1111106613277
 30
0.0000000000000000
 11
464.1353700670532
 21
162.6614656359717
 31
0.0000000000000000
  0
LINE
  5
265
100
AcDbEntity
  8
MAIN0
  6
BYBLOCK
 62
0
100
AcDbLine
 10
517.5418704165476
 20
216.5670398945390
 30
0.0000000000000000
 11
527.1540841562469
 21
211.0174257044162
 31
0.0000000000000000
  0
ARC
  5
266
100
AcDbEntity
  8
MAIN0
  6
BYBLOCK
 62
0
100
AcDbCircle
 10
437.2739198021214
 20
262.9097627890766
 30
0.0000000000000000
 40
101.7846741693234
100
AcDbArc
 50
286.1258233124992
 51
328.8741766875880
  0
INSERT
  5
267
100
AcDbEntity
  8
MAIN0
  6
BYBLOCK
 62
0
100
AcDbBlockReference
  2
_OPEN
 10
463.6177319768452
 20
164.5933172885491
 30
0.0000000000000000
 41
2.000000000000000
 42
2.000000000000000
 43
2.000000000000000
 50
195.0000000000864
  0
INSERT
  5
268
100
AcDbEntity
  8
MAIN0
  6
BYBLOCK
 62
0
100
AcDbBlockReference
  2
_OPEN
 10
525.4220333486779
 20
212.0174257044161
 30
0.0000000000000000
 41
2.000000000000000
 42
2.000000000000000
 43
2.000000000000000
 50
60.00000000000074
  0
MTEXT
  5
269
100
AcDbEntity
  8
MAIN0
  6
BYBLOCK
 62
0
100
AcDbMText
 10
497.9885426002460
 20
183.7849258562021
 30
0.0000000000000000
 40
3.099999904632568
 41
0.0000000000000000
 71
     5
 72
     1
  1
\A1;45\U+00B0
 11
0.7933533402907723
 21
0.6087614290093240
 31
0.0000000000000000
  7
STANDARD
  0
ENDBLK
  5
26A
100
AcDbEntity
  8
MAIN0
  6
CONTINUOUS
 62
3
100
AcDbBlockEnd
  0
BLOCK
  5
26C
100
AcDbEntity
  8
MAIN0
  6
CONTINUOUS
 62
3
100
AcDbBlockBegin
  2
*D25
 70
    65
 10
0.0
 20
0.0
 30
0.0
  0
LINE
  5
26D
100
AcDbEntity
  8
MAIN0
  6
BYBLOCK
 62
0
100
AcDbLine
 10
517.5418704165476
 20
216.5670398945390
 30
0.0000000000000000
 11
527.1540841562469
 21
211.0174257044162
 31
0.0000000000000000
  0
ARC
  5
26E
100
AcDbEntity
  8
MAIN0
  6
BYBLOCK
 62
0
100
AcDbCircle
 10
437.2739198021214
 20
262.9097627890766
 30
0.0000000000000000
 40
101.7846741693234
100
AcDbArc
 50
331.1258233124136
 51
358.8741766875872
  0
INSERT
  5
26F
100
AcDbEntity
  8
MAIN0
  6
BYBLOCK
 62
0
100
AcDbBlockReference
  2
_OPEN
 10
525.4220333486779
 20
212.0174257044161
 30
0.0000000000000000
 41
2.000000000000000
 42
2.000000000000000
 43
2.000000000000000
 50
240.0000000000007
  0
INSERT
  5
270
100
AcDbEntity
  8
MAIN0
  6
BYBLOCK
 62
0
100
AcDbBlockReference
  2
_OPEN
 10
539.0585939714448
 20
262.9097627890766
 30
0.0000000000000000
 41
2.000000000000000
 42
2.000000000000000
 43
2.000000000000000
 50
90.00000000000000
  0
MTEXT
  5
271
100
AcDbEntity
  8
MAIN0
  6
BYBLOCK
 62
0
100
AcDbMText
 10
533.6102174048551
 20
237.0965296446205
 30
0.0000000000000000
 40
3.099999904632568
 41
0.0000000000000000
 71
     5
 72
     1
  1
\A1;30\U+00B0
 11
0.2588190451025145
 21
0.9659258262890700
 31
0.0000000000000000
  7
STANDARD
  0
ENDBLK
  5
272
100
AcDbEntity
  8
MAIN0
  6
CONTINUOUS
 62
3
100
AcDbBlockEnd
  0
BLOCK
  5
274
100
AcDbEntity
  8
MAIN0
  6
CONTINUOUS
 62
3
100
AcDbBlockBegin
  2
*D26
 70
    65
 10
0.0
 20
0.0
 30
0.0
  0
LINE
  5
275
100
AcDbEntity
  8
MAIN0
  6
BYBLOCK
 62
0
100
AcDbLine
 10
519.1910704503308
 20
310.2046517670684
 30
0.0000000000000000
 11
527.1540841562457
 21
314.8020998737392
 31
0.0000000000000000
  0
ARC
  5
276
100
AcDbEntity
  8
MAIN0
  6
BYBLOCK
 62
0
100
AcDbCircle
 10
437.2739198021214
 20
262.9097627890766
 30
0.0000000000000000
 40
101.7846741693234
100
AcDbArc
 50
1.125823312412794
 51
28.87417668758772
  0
INSERT
  5
277
100
AcDbEntity
  8
MAIN0
  6
BYBLOCK
 62
0
100
AcDbBlockReference
  2
_OPEN
 10
539.0585939714448
 20
262.9097627890766
 30
0.0000000000000000
 41
2.000000000000000
 42
2.000000000000000
 43
2.000000000000000
 50
270.0000000000000
  0
INSERT
  5
278
100
AcDbEntity
  8
MAIN0
  6
BYBLOCK
 62
0
100
AcDbBlockReference
  2
_OPEN
 10
525.4220333486768
 20
313.8020998737391
 30
0.0000000000000000
 41
2.000000000000000
 42
2.000000000000000
 43
2.000000000000000
 50
120.0000000000005
  0
MTEXT
  5
279
100
AcDbEntity
  8
MAIN0
  6
BYBLOCK
 62
0
100
AcDbMText
 10
533.6102174048549
 20
288.7229959335339
 30
0.0000000000000000
 40
3.099999904632568
 41
0.0000000000000000
 71
     5
 72
     1
  1
\A1;30\U+00B0
 11
-0.2588190451025251
 21
0.9659258262890671
 31
0.0000000000000000
  7
STANDARD
  0
ENDBLK
  5
27A
100
AcDbEntity
  8
MAIN0
  6
CONTINUOUS
 62
3
100
AcDbBlockEnd
  0
BLOCK
  5
27C
100
AcDbEntity
  8
MAIN0
  6
CONTINUOUS
 62
3
100
AcDbBlockBegin
  2
*D27
 70
    65
 10
0.0
 20
0.0
 30
0.0
  0
LINE
  5
27D
100
AcDbEntity
  8
MAIN0
  6
BYBLOCK
 62
0
100
AcDbLine
 10
519.1910704503308
 20
310.2046517670684
 30
0.0000000000000000
 11
527.1540841562457
 21
314.8020998737392
 31
0.0000000000000000
  0
LINE
  5
27E
100
AcDbEntity
  8
MAIN0
  6
BYBLOCK
 62
0
100
AcDbLine
 10
483.2457238064269
 20
308.8815667935214
 30
0.0000000000000000
 11
510.6607666903748
 21
336.2966096775531
 31
0.0000000000000000
  0
ARC
  5
27F
100
AcDbEntity
  8
MAIN0
  6
BYBLOCK
 62
0
100
AcDbCircle
 10
437.2739198021214
 20
262.9097627890766
 30
0.0000000000000000
 40
101.7846741693234
100
AcDbArc
 50
31.12582331241331
 51
43.87417668767433
  0
INSERT
  5
280
100
AcDbEntity
  8
MAIN0
  6
BYBLOCK
 62
0
100
AcDbBlockReference
  2
_OPEN
 10
525.4220333486768
 20
313.8020998737391
 30
0.0000000000000000
 41
2.000000000000000
 42
2.000000000000000
 43
2.000000000000000
 50
300.0000000000006
  0
INSERT
  5
281
100
AcDbEntity
  8
MAIN0
  6
BYBLOCK
 62
0
100
AcDbBlockReference
  2
_OPEN
 10
509.2465531280038
 20
334.8823961151779
 30
0.0000000000000000
 41
2.000000000000000
 42
2.000000000000000
 43
2.000000000000000
 50
135.0000000000871
  0
MTEXT
  5
282
100
AcDbEntity
  8
MAIN0
  6
BYBLOCK
 62
0
100
AcDbMText
 10
519.6515053545278
 20
326.1203073880838
 30
0.0000000000000000
 40
3.099999904632568
 41
0.0000000000000000
 71
     5
 72
     1
  1
\A1;15\U+00B0
 11
0.6087614290093273
 21
-0.7933533402907697
 31
0.0000000000000000
  7
STANDARD
  0
ENDBLK
  5
283
100
AcDbEntity
  8
MAIN0
  6
CONTINUOUS
 62
3
100
AcDbBlockEnd
  0
BLOCK
  5
285
100
AcDbEntity
  8
MAIN0
  6
CONTINUOUS
 62
3
100
AcDbBlockBegin
  2
*D28
 70
    65
 10
0.0
 20
0.0
 30
0.0
  0
LINE
  5
286
100
AcDbEntity
  8
MAIN0
  6
BYBLOCK
 62
0
100
AcDbLine
 10
483.2457238064269
 20
308.8815667935214
 30
0.0000000000000000
 11
510.6607666903748
 21
336.2966096775531
 31
0.0000000000000000
  0
ARC
  5
287
100
AcDbEntity
  8
MAIN0
  6
BYBLOCK
 62
0
100
AcDbCircle
 10
437.2739198021214
 20
262.9097627890766
 30
0.0000000000000000
 40
101.7846741693234
100
AcDbArc
 50
46.12582331249991
 51
88.87417668758718
  0
INSERT
  5
288
100
AcDbEntity
  8
MAIN0
  6
BYBLOCK
 62
0
100
AcDbBlockReference
  2
_OPEN
 10
509.2465531280038
 20
334.8823961151779
 30
0.0000000000000000
 41
2.000000000000000
 42
2.000000000000000
 43
2.000000000000000
 50
315.0000000000871
  0
INSERT
  5
289
100
AcDbEntity
  8
MAIN0
  6
BYBLOCK
 62
0
100
AcDbBlockReference
  2
_OPEN
 10
437.2739198021215
 20
364.6944369584001
 30
0.0000000000000000
 41
2.000000000000000
 42
2.000000000000000
 43
2.000000000000000
 50
180.0000000000000
  0
MTEXT
  5
28A
100
AcDbEntity
  8
MAIN0
  6
BYBLOCK
 62
0
100
AcDbMText
 10
477.0097292934281
 20
358.8404929750691
 30
0.0000000000000000
 40
3.099999904632568
 41
0.0000000000000000
 71
     5
 72
     1
  1
\A1;45\U+00B0
 11
0.9238795325115774
 21
-0.3826834323643880
 31
0.0000000000000000
  7
STANDARD
  0
ENDBLK
  5
28B
100
AcDbEntity
  8
MAIN0
  6
CONTINUOUS
 62
3
100
AcDbBlockEnd
  0
BLOCK
  5
297
100
AcDbEntity
  8
MAIN0
  6
CONTINUOUS
 62
3
100
AcDbBlockBegin
  2
*D29
 70
    65
 10
0.0
 20
0.0
 30
0.0
  0
LINE
  5
298
100
AcDbEntity
  8
MAIN0
  6
BYBLOCK
 62
0
100
AcDbLine
 10
288.3567503621531
 20
292.3952812125076
 30
0.0000000000000000
 11
288.3567503621531
 21
225.3031906704746
 31
0.0000000000000000
  0
LINE
  5
299
100
AcDbEntity
  8
MAIN0
  6
BYBLOCK
 62
0
100
AcDbLine
 10
288.3567503621531
 20
227.3031906704746
 30
0.0000000000000000
 11
283.3567503621531
 21
227.3031906704746
 31
0.0000000000000000
  0
INSERT
  5
29A
100
AcDbEntity
  8
MAIN0
  6
BYBLOCK
 62
0
100
AcDbBlockReference
  2
_OPEN
 10
288.3567503621531
 20
227.3031906704746
 30
0.0000000000000000
 41
2.000000000000000
 42
2.000000000000000
 43
2.000000000000000
 50
180.0000000000000
  0
INSERT
  5
29B
100
AcDbEntity
  8
MAIN0
  6
BYBLOCK
 62
0
100
AcDbBlockReference
  2
_OPEN
 10
283.3567503621531
 20
227.3031906704746
 30
0.0000000000000000
 41
2.000000000000000
 42
2.000000000000000
 43
2.000000000000000
 50
360.0000000000000
  0
LINE
  5
29C
100
AcDbEntity
  8
MAIN0
  6
BYBLOCK
 62
0
100
AcDbLine
 10
290.3567503621531
 20
227.3031906704746
 30
0.0000000000000000
 11
302.0795172383738
 21
227.3031906704746
 31
0.0000000000000000
  0
LINE
  5
29D
100
AcDbEntity
  8
MAIN0
  6
BYBLOCK
 62
0
100
AcDbLine
 10
281.3567503621531
 20
227.3031906704746
 30
0.0000000000000000
 11
280.3567503621531
 21
227.3031906704746
 31
0.0000000000000000
  0
LINE
  5
29E
100
AcDbEntity
  8
MAIN0
  6
BYBLOCK
 62
0
100
AcDbLine
 10
283.3567503621531
 20
250.1097627771565
 30
0.0000000000000000
 11
283.3567503621531
 21
225.3031906704746
 31
0.0000000000000000
  0
MTEXT
  5
29F
100
AcDbEntity
  8
MAIN0
  6
BYBLOCK
 62
0
100
AcDbMText
 10
296.8295167596546
 20
229.3531906227908
 30
0.0000000000000000
 40
3.099999904632568
 41
0.0000000000000000
 71
     5
 72
     1
  1
\A1;MAX 5
 11
1.000000000000000
 21
0.0000000000000000
 31
0.0000000000000000
  7
STANDARD
  0
ENDBLK
  5
2A0
100
AcDbEntity
  8
MAIN0
  6
CONTINUOUS
 62
3
100
AcDbBlockEnd
  0
BLOCK
  5
2A3
100
AcDbEntity
  8
MAIN0
  6
CONTINUOUS
 62
3
100
AcDbBlockBegin
  2
*D30
 70
    65
 10
0.0
 20
0.0
 30
0.0
  0
LINE
  5
2A4
100
AcDbEntity
  8
MAIN0
  6
BYBLOCK
 62
0
100
AcDbLine
 10
283.3567503621531
 20
250.1097627771565
 30
0.0000000000000000
 11
283.3567503621531
 21
233.7298284288840
 31
0.0000000000000000
  0
LINE
  5
2A5
100
AcDbEntity
  8
MAIN0
  6
BYBLOCK
 62
0
100
AcDbLine
 10
283.3567503621531
 20
235.7298284288840
 30
0.0000000000000000
 11
283.6497503621531
 21
235.7298284288840
 31
0.0000000000000000
  0
INSERT
  5
2A6
100
AcDbEntity
  8
MAIN0
  6
BYBLOCK
 62
0
100
AcDbBlockReference
  2
_OPEN
 10
283.3567503621531
 20
235.7298284288840
 30
0.0000000000000000
 41
2.000000000000000
 42
2.000000000000000
 43
2.000000000000000
 50
0.0000000000000000
  0
INSERT
  5
2A7
100
AcDbEntity
  8
MAIN0
  6
BYBLOCK
 62
0
100
AcDbBlockReference
  2
_OPEN
 10
283.6497503621531
 20
235.7298284288840
 30
0.0000000000000000
 41
2.000000000000000
 42
2.000000000000000
 43
2.000000000000000
 50
180.0000000000000
  0
LINE
  5
2A8
100
AcDbEntity
  8
MAIN0
  6
BYBLOCK
 62
0
100
AcDbLine
 10
281.3567503621531
 20
235.7298284288840
 30
0.0000000000000000
 11
275.1393021275950
 21
235.7298284288840
 31
0.0000000000000000
  0
LINE
  5
2A9
100
AcDbEntity
  8
MAIN0
  6
BYBLOCK
 62
0
100
AcDbLine
 10
285.6497503621531
 20
235.7298284288840
 30
0.0000000000000000
 11
286.6497503621531
 21
235.7298284288840
 31
0.0000000000000000
  0
LINE
  5
2AA
100
AcDbEntity
  8
MAIN0
  6
BYBLOCK
 62
0
100
AcDbLine
 10
283.6497503621531
 20
268.6172646451330
 30
0.0000000000000000
 11
283.6497503621531
 21
233.7298284288840
 31
0.0000000000000000
  0
MTEXT
  5
2AB
100
AcDbEntity
  8
MAIN0
  6
BYBLOCK
 62
0
100
AcDbMText
 10
277.7893024177283
 20
237.7798283812003
 30
0.0000000000000000
 40
3.099999904632568
 41
0.0000000000000000
 71
     5
 72
     1
  1
\A1;0.3
 11
1.000000000000000
 21
0.0000000000000000
 31
0.0000000000000000
  7
STANDARD
  0
ENDBLK
  5
2AC
100
AcDbEntity
  8
MAIN0
  6
CONTINUOUS
 62
3
100
AcDbBlockEnd
  0
BLOCK
  5
3DE
100
AcDbEntity
  8
MAIN0
  6
CONTINUOUS
 62
3
100
AcDbBlockBegin
  2
*D31
 70
    65
 10
0.0
 20
0.0
 30
0.0
  0
LINE
  5
3DF
100
AcDbEntity
  8
MAIN0
  6
BYBLOCK
 62
0
100
AcDbLine
 10
452.7739198021214
 20
305.5382461118843
 30
0.0000000000000000
 11
452.7739198021214
 21
357.4479247357966
 31
0.0000000000000000
  0
LINE
  5
3E0
100
AcDbEntity
  8
MAIN0
  6
BYBLOCK
 62
0
100
AcDbLine
 10
450.7739198021214
 20
355.4479247357966
 30
0.0000000000000000
 11
423.7739198021214
 21
355.4479247357966
 31
0.0000000000000000
  0
INSERT
  5
3E1
100
AcDbEntity
  8
MAIN0
  6
BYBLOCK
 62
0
100
AcDbBlockReference
  2
_OPEN
 10
452.7739198021214
 20
355.4479247357966
 30
0.0000000000000000
 41
2.000000000000000
 42
2.000000000000000
 43
2.000000000000000
 50
360.0000000000000
  0
INSERT
  5
3E2
100
AcDbEntity
  8
MAIN0
  6
BYBLOCK
 62
0
100
AcDbBlockReference
  2
_OPEN
 10
421.7739198021214
 20
355.4479247357966
 30
0.0000000000000000
 41
2.000000000000000
 42
2.000000000000000
 43
2.000000000000000
 50
180.0000000000000
  0
LINE
  5
3E3
100
AcDbEntity
  8
MAIN0
  6
BYBLOCK
 62
0
100
AcDbLine
 10
421.7739198021214
 20
305.7210083174851
 30
0.0000000000000000
 11
421.7739198021214
 21
357.4479247357966
 31
0.0000000000000000
  0
MTEXT
  5
3E4
100
AcDbEntity
  8
MAIN0
  6
BYBLOCK
 62
0
100
AcDbMText
 10
437.2739198021214
 20
357.4979246881129
 30
0.0000000000000000
 40
3.099999904632568
 41
0.0000000000000000
 71
     5
 72
     1
  1
\A1;31
 11
1.000000000000000
 21
0.0000000000000000
 31
0.0000000000000000
  7
STANDARD
  0
ENDBLK
  5
3E5
100
AcDbEntity
  8
MAIN0
  6
CONTINUOUS
 62
3
100
AcDbBlockEnd
  0
BLOCK
  5
3E7
100
AcDbEntity
  8
MAIN0
  6
CONTINUOUS
 62
3
100
AcDbBlockBegin
  2
*D32
 70
    65
 10
0.0
 20
0.0
 30
0.0
  0
LINE
  5
3E8
100
AcDbEntity
  8
MAIN0
  6
BYBLOCK
 62
0
100
AcDbLine
 10
414.0383946045537
 20
218.1966498489880
 30
0.0000000000000000
 11
460.5094449996889
 21
307.6228757291670
 31
0.0000000000000000
  0
INSERT
  5
3E9
100
AcDbEntity
  8
MAIN0
  6
BYBLOCK
 62
0
100
AcDbBlockReference
  2
_OPEN
 10
413.1161669721835
 20
216.4219678509690
 30
0.0000000000000000
 41
2.000000000000000
 42
2.000000000000000
 43
2.000000000000000
 50
242.5409965933436
  0
INSERT
  5
3EA
100
AcDbEntity
  8
MAIN0
  6
BYBLOCK
 62
0
100
AcDbBlockReference
  2
_OPEN
 10
461.4316726320591
 20
309.3975577271860
 30
0.0000000000000000
 41
2.000000000000000
 42
2.000000000000000
 43
2.000000000000000
 50
62.54099659334357
  0
LINE
  5
3EB
100
AcDbEntity
  8
MAIN0
  6
BYBLOCK
 62
0
100
AcDbLine
 10
461.4316726320591
 20
309.3975577271860
 30
0.0000000000000000
 11
468.9288205056932
 21
323.8246393942466
 31
0.0000000000000000
  0
MTEXT
  5
3EC
100
AcDbEntity
  8
MAIN0
  6
BYBLOCK
 62
0
100
AcDbMText
 10
464.3200332569464
 20
319.4015103150036
 30
0.0000000000000000
 40
3.099999904632568
 41
0.0000000000000000
 71
     5
 72
     1
  1
\A1;\U+2205104.8
 11
0.4611138161851085
 21
0.8873409990095160
 31
0.0000000000000000
  7
STANDARD
  0
ENDBLK
  5
3ED
100
AcDbEntity
  8
MAIN0
  6
CONTINUOUS
 62
3
100
AcDbBlockEnd
  0
BLOCK
  5
3EF
100
AcDbEntity
  8
MAIN0
  6
CONTINUOUS
 62
3
100
AcDbBlockBegin
  2
*D33
 70
    65
 10
0.0
 20
0.0
 30
0.0
  0
LINE
  5
3F0
100
AcDbEntity
  8
MAIN0
  6
BYBLOCK
 62
0
100
AcDbLine
 10
424.2739198021214
 20
172.2802510867473
 30
0.0000000000000000
 11
450.2739198021214
 21
172.2802510867473
 31
0.0000000000000000
  0
INSERT
  5
3F1
100
AcDbEntity
  8
MAIN0
  6
BYBLOCK
 62
0
100
AcDbBlockReference
  2
_OPEN
 10
422.2739198021214
 20
172.2802510867473
 30
0.0000000000000000
 41
2.000000000000000
 42
2.000000000000000
 43
2.000000000000000
 50
180.0000000000000
  0
INSERT
  5
3F2
100
AcDbEntity
  8
MAIN0
  6
BYBLOCK
 62
0
100
AcDbBlockReference
  2
_OPEN
 10
452.2739198021214
 20
172.2802510867473
 30
0.0000000000000000
 41
2.000000000000000
 42
2.000000000000000
 43
2.000000000000000
 50
0.0000000000000000
  0
MTEXT
  5
3F3
100
AcDbEntity
  8
MAIN0
  6
BYBLOCK
 62
0
100
AcDbMText
 10
437.2739198021214
 20
174.3302510390635
 30
0.0000000000000000
 40
3.099999904632568
 41
0.0000000000000000
 71
     5
 72
     1
  1
\A1;30
 11
1.000000000000000
 21
0.0000000000000000
 31
0.0000000000000000
  7
STANDARD
  0
ENDBLK
  5
3F4
100
AcDbEntity
  8
MAIN0
  6
CONTINUOUS
 62
3
100
AcDbBlockEnd
  0
BLOCK
  5
3F6
100
AcDbEntity
  8
MAIN0
  6
CONTINUOUS
 62
3
100
AcDbBlockBegin
  2
*D34
 70
    65
 10
0.0
 20
0.0
 30
0.0
  0
LINE
  5
3F7
100
AcDbEntity
  8
MAIN0
  6
BYBLOCK
 62
0
100
AcDbLine
 10
347.8906421577074
 20
262.9097627890776
 30
0.0000000000000000
 11
335.9960246527912
 21
262.9097627890776
 31
0.0000000000000000
  0
LINE
  5
3F8
100
AcDbEntity
  8
MAIN0
  6
BYBLOCK
 62
0
100
AcDbLine
 10
337.9960246527912
 20
260.9097627890776
 30
0.0000000000000000
 11
337.9960246527912
 21
227.9097627890776
 31
0.0000000000000000
  0
INSERT
  5
3F9
100
AcDbEntity
  8
MAIN0
  6
BYBLOCK
 62
0
100
AcDbBlockReference
  2
_OPEN
 10
337.9960246527912
 20
262.9097627890776
 30
0.0000000000000000
 41
2.000000000000000
 42
2.000000000000000
 43
2.000000000000000
 50
90.00000000000000
  0
INSERT
  5
3FA
100
AcDbEntity
  8
MAIN0
  6
BYBLOCK
 62
0
100
AcDbBlockReference
  2
_OPEN
 10
337.9960246527912
 20
225.9097627890776
 30
0.0000000000000000
 41
2.000000000000000
 42
2.000000000000000
 43
2.000000000000000
 50
270.0000000000000
  0
LINE
  5
3FB
100
AcDbEntity
  8
MAIN0
  6
BYBLOCK
 62
0
100
AcDbLine
 10
347.8906421577074
 20
225.9097627890776
 30
0.0000000000000000
 11
335.9960246527912
 21
225.9097627890776
 31
0.0000000000000000
  0
MTEXT
  5
3FC
100
AcDbEntity
  8
MAIN0
  6
BYBLOCK
 62
0
100
AcDbMText
 10
335.9460247004749
 20
244.4097627890776
 30
0.0000000000000000
 40
3.099999904632568
 41
0.0000000000000000
 71
     5
 72
     1
  1
\A1;37
 11
6.123233995736766e-017
 21
1.000000000000000
 31
0.0000000000000000
  7
STANDARD
  0
ENDBLK
  5
3FD
100
AcDbEntity
  8
MAIN0
  6
CONTINUOUS
 62
3
100
AcDbBlockEnd
  0
BLOCK
  5
3FF
100
AcDbEntity
  8
MAIN0
  6
CONTINUOUS
 62
3
100
AcDbBlockBegin
  2
*D35
 70
    65
 10
0.0
 20
0.0
 30
0.0
  0
LINE
  5
400
100
AcDbEntity
  8
MAIN0
  6
BYBLOCK
 62
0
100
AcDbLine
 10
347.8906421577074
 20
225.9097627890776
 30
0.0000000000000000
 11
335.9960246527912
 21
225.9097627890776
 31
0.0000000000000000
  0
LINE
  5
401
100
AcDbEntity
  8
MAIN0
  6
BYBLOCK
 62
0
100
AcDbLine
 10
337.9960246527912
 20
223.9097627890776
 30
0.0000000000000000
 11
337.9960246527912
 21
194.9097627890776
 31
0.0000000000000000
  0
INSERT
  5
402
100
AcDbEntity
  8
MAIN0
  6
BYBLOCK
 62
0
100
AcDbBlockReference
  2
_OPEN
 10
337.9960246527912
 20
225.9097627890776
 30
0.0000000000000000
 41
2.000000000000000
 42
2.000000000000000
 43
2.000000000000000
 50
90.00000000000000
  0
INSERT
  5
403
100
AcDbEntity
  8
MAIN0
  6
BYBLOCK
 62
0
100
AcDbBlockReference
  2
_OPEN
 10
337.9960246527912
 20
192.9097627890776
 30
0.0000000000000000
 41
2.000000000000000
 42
2.000000000000000
 43
2.000000000000000
 50
270.0000000000000
  0
LINE
  5
404
100
AcDbEntity
  8
MAIN0
  6
BYBLOCK
 62
0
100
AcDbLine
 10
347.8906421577074
 20
192.9097627890776
 30
0.0000000000000000
 11
335.9960246527912
 21
192.9097627890776
 31
0.0000000000000000
  0
MTEXT
  5
405
100
AcDbEntity
  8
MAIN0
  6
BYBLOCK
 62
0
100
AcDbMText
 10
335.9460247004749
 20
209.4097627890776
 30
0.0000000000000000
 40
3.099999904632568
 41
0.0000000000000000
 71
     5
 72
     1
  1
\A1;33
 11
6.123233995736766e-017
 21
1.000000000000000
 31
0.0000000000000000
  7
STANDARD
  0
ENDBLK
  5
406
100
AcDbEntity
  8
MAIN0
  6
CONTINUOUS
 62
3
100
AcDbBlockEnd
  0
BLOCK
  5
408
100
AcDbEntity
  8
MAIN0
  6
CONTINUOUS
 62
3
100
AcDbBlockBegin
  2
*D36
 70
    65
 10
0.0
 20
0.0
 30
0.0
  0
LINE
  5
409
100
AcDbEntity
  8
MAIN0
  6
BYBLOCK
 62
0
100
AcDbLine
 10
437.2739198021214
 20
262.9097627890776
 30
0.0000000000000000
 11
376.8527229606735
 21
245.0693880103065
 31
0.0000000000000000
  0
INSERT
  5
40A
100
AcDbEntity
  8
MAIN0
  6
BYBLOCK
 62
0
100
AcDbBlockReference
  2
_OPEN
 10
374.9345897276117
 20
244.5030269062185
 30
0.0000000000000000
 41
2.000000000000000
 42
2.000000000000000
 43
2.000000000000000
 50
196.4501220777472
  0
MTEXT
  5
40B
100
AcDbEntity
  8
MAIN0
  6
BYBLOCK
 62
0
100
AcDbMText
 10
382.1177137688084
 20
248.7614599632210
 30
0.0000000000000000
 40
3.099999904632568
 41
0.0000000000000000
 71
     5
 72
     1
  1
\A1;Ｒ65
 11
0.9590666165309184
 21
0.2831805520439853
 31
0.0000000000000000
  7
KNJYOKO
  0
ENDBLK
  5
40C
100
AcDbEntity
  8
MAIN0
  6
CONTINUOUS
 62
3
100
AcDbBlockEnd
  0
ENDSEC
  0
SECTION
  2
ENTITIES
  0
LINE
  5
46
100
AcDbEntity
  8
MAIN0
  6
CONTINUOUS
 62
3
100
AcDbLine
 10
217.8569317186688
 20
277.9097627890776
 30
0.0000000000000000
 11
237.8568575449580
 21
277.9097627890776
 31
0.0000000000000000
  0
LINE
  5
47
100
AcDbEntity
  8
MAIN0
  6
CONTINUOUS
 62
3
100
AcDbLine
 10
242.8568575449580
 20
278.4097627890776
 30
0.0000000000000000
 11
242.8568575449580
 21
262.9097627890776
 31
0.0000000000000000
  0
LINE
  5
48
100
AcDbEntity
  8
MAIN0
  6
CONTINUOUS
 62
3
100
AcDbLine
 10
242.8568575449580
 20
277.4097627890776
 30
0.0000000000000000
 11
248.3416851022575
 21
267.9097627890776
 31
0.0000000000000000
  0
LINE
  5
49
100
AcDbEntity
  8
MAIN0
  6
CONTINUOUS
 62
3
100
AcDbLine
 10
235.8568575449580
 20
276.8324125198714
 30
0.0000000000000000
 11
235.8568575449580
 21
262.9097627890776
 31
0.0000000000000000
  0
LINE
  5
4A
100
AcDbEntity
  8
MAIN0
  6
CONTINUOUS
 62
3
100
AcDbLine
 10
168.3567503621531
 20
282.9097627890776
 30
0.0000000000000000
 11
168.3567503621531
 21
344.4097627890776
 31
0.0000000000000000
  0
LINE
  5
4B
100
AcDbEntity
  8
MAIN0
  6
CONTINUOUS
 62
3
100
AcDbLine
 10
173.3567503621531
 20
282.9097627890776
 30
0.0000000000000000
 11
173.3567503621531
 21
332.9097627890776
 31
0.0000000000000000
  0
LINE
  5
4C
100
AcDbEntity
  8
MAIN0
  6
CONTINUOUS
 62
3
100
AcDbLine
 10
191.3567503621532
 20
285.4097627890778
 30
0.0000000000000000
 11
191.3567503621531
 21
287.3140022958967
 31
0.0000000000000000
  0
LINE
  5
4D
100
AcDbEntity
  8
MAIN0
  6
CONTINUOUS
 62
3
100
AcDbLine
 10
248.3416851022572
 20
267.9097627890776
 30
0.0000000000000000
 11
272.3567503621528
 21
267.9097627890776
 31
0.0000000000000000
  0
LINE
  5
4E
100
AcDbEntity
  8
MAIN0
  6
CONTINUOUS
 62
3
100
AcDbLine
 10
165.8568575449580
 20
282.9097627890776
 30
0.0000000000000000
 11
189.3567503621533
 21
282.9097627890776
 31
0.0000000000000000
  0
LINE
  5
4F
100
AcDbEntity
  8
MAIN0
  6
CONTINUOUS
 62
3
100
AcDbLine
 10
214.8568575449580
 20
275.4097627890789
 30
0.0000000000000000
 11
234.8568575449588
 21
275.4097627890776
 31
0.0000000000000000
  0
LINE
  5
50
100
AcDbEntity
  8
MAIN0
  6
CONTINUOUS
 62
3
100
AcDbLine
 10
214.8568575449579
 20
253.4097627890789
 30
0.0000000000000000
 11
165.4568575449559
 21
253.4097627890820
 31
0.0000000000000000
  0
LINE
  5
51
100
AcDbEntity
  8
MAIN0
  6
CONTINUOUS
 62
3
100
AcDbLine
 10
214.8568575449580
 20
272.4097627890790
 30
0.0000000000000000
 11
165.4568575449574
 21
272.4097627890820
 31
0.0000000000000000
  0
LINE
  5
52
100
AcDbEntity
  8
MAIN0
  6
CONTINUOUS
 62
3
100
AcDbLine
 10
165.8568575449581
 20
242.9097627890776
 30
0.0000000000000000
 11
189.3567503621529
 21
242.9097627890776
 31
0.0000000000000000
  0
LINE
  5
53
100
AcDbEntity
  8
MAIN0
  6
CONTINUOUS
 62
3
100
AcDbLine
 10
251.3567503621531
 20
310.4484499920621
 30
0.0000000000000000
 11
251.3567503621531
 21
344.4097627890776
 31
0.0000000000000000
  0
LINE
  5
54
100
AcDbEntity
  8
MAIN0
  6
CONTINUOUS
 62
3
100
AcDbLine
 10
242.8568575449580
 20
247.4097627890776
 30
0.0000000000000000
 11
242.8568575449580
 21
262.9097627890776
 31
0.0000000000000000
  0
LINE
  5
55
100
AcDbEntity
  8
MAIN0
  6
CONTINUOUS
 62
3
100
AcDbLine
 10
242.8568575449580
 20
248.4097627890776
 30
0.0000000000000000
 11
248.3416851022575
 21
257.9097627890776
 31
0.0000000000000000
  0
LINE
  5
56
100
AcDbEntity
  8
MAIN0
  6
CONTINUOUS
 62
3
100
AcDbLine
 10
235.8568575449580
 20
248.4871130582670
 30
0.0000000000000000
 11
235.8568575449580
 21
262.9097627890776
 31
0.0000000000000000
  0
LINE
  5
57
100
AcDbEntity
  8
MAIN0
  6
CONTINUOUS
 62
3
100
AcDbLine
 10
248.3416851022572
 20
257.9097627890776
 30
0.0000000000000000
 11
272.3567503621528
 21
257.9097627890776
 31
0.0000000000000000
  0
LINE
  5
58
100
AcDbEntity
  8
MAIN0
  6
CONTINUOUS
 62
3
100
AcDbLine
 10
248.3416851022572
 20
267.9097627890776
 30
0.0000000000000000
 11
248.3416851022572
 21
257.9097627890776
 31
0.0000000000000000
  0
LINE
  5
59
100
AcDbEntity
  8
MAIN0
  6
CONTINUOUS
 62
3
100
AcDbLine
 10
217.8569317186688
 20
247.9097627890776
 30
0.0000000000000000
 11
237.8568575449580
 21
247.9097627890776
 31
0.0000000000000000
  0
LINE
  5
5A
100
AcDbEntity
  8
MAIN0
  6
CONTINUOUS
 62
3
100
AcDbLine
 10
221.8569317186687
 20
282.5882295051763
 30
0.0000000000000000
 11
221.8569317186687
 21
279.9097627890776
 31
0.0000000000000000
  0
LINE
  5
5B
100
AcDbEntity
  8
MAIN0
  6
CONTINUOUS
 62
3
100
AcDbLine
 10
221.8569317186688
 20
278.9097627890776
 30
0.0000000000000000
 11
221.8569317186688
 21
282.5882295051763
 31
0.0000000000000000
  0
LINE
  5
5C
100
AcDbEntity
  8
MAIN0
  6
CONTINUOUS
 62
3
100
AcDbLine
 10
214.8568575449580
 20
275.4097627890789
 30
0.0000000000000000
 11
214.8568575449580
 21
250.4097627890780
 31
0.0000000000000000
  0
LINE
  5
5D
100
AcDbEntity
  8
MAIN0
  6
CENTER
 62
3
100
AcDbLine
 10
148.0896857396253
 20
210.5197627890776
 30
0.0000000000000000
 11
257.5710832982930
 21
210.5197627890776
 31
0.0000000000000000
  0
LINE
  5
5E
100
AcDbEntity
  8
MAIN0
  6
CONTINUOUS
 62
3
100
AcDbLine
 10
168.3567503621531
 20
192.9097627890776
 30
0.0000000000000000
 11
173.3567503621531
 21
192.9097627890776
 31
0.0000000000000000
  0
LINE
  5
5F
100
AcDbEntity
  8
MAIN0
  6
CONTINUOUS
 62
3
100
AcDbLine
 10
168.3567503621531
 20
332.9097627890776
 30
0.0000000000000000
 11
173.3567503621531
 21
332.9097627890776
 31
0.0000000000000000
  0
LINE
  5
60
100
AcDbEntity
  8
MAIN0
  6
CONTINUOUS
 62
3
100
AcDbLine
 10
173.3567503621531
 20
242.9097627890776
 30
0.0000000000000000
 11
173.3567503621531
 21
192.9097627890776
 31
0.0000000000000000
  0
LINE
  5
61
100
AcDbEntity
  8
MAIN0
  6
CONTINUOUS
 62
3
100
AcDbLine
 10
224.8569317186687
 20
245.4097627890776
 30
0.0000000000000000
 11
224.8569317186687
 21
247.9097627890776
 31
0.0000000000000000
  0
LINE
  5
62
100
AcDbEntity
  8
MAIN0
  6
CONTINUOUS
 62
3
100
AcDbLine
 10
228.8569317186687
 20
245.4097627890776
 30
0.0000000000000000
 11
228.8569317186687
 21
247.9097627890776
 31
0.0000000000000000
  0
LINE
  5
63
100
AcDbEntity
  8
MAIN0
  6
CONTINUOUS
 62
3
100
AcDbLine
 10
224.8569317186687
 20
245.4097627890776
 30
0.0000000000000000
 11
228.8569317186687
 21
245.4097627890776
 31
0.0000000000000000
  0
ELLIPSE
  5
64
100
AcDbEntity
  8
MAIN0
  6
CONTINUOUS
 62
3
100
AcDbEllipse
 10
226.8569317186687
 20
246.6597627890776
 30
0.0000000000000000
 11
-2.000000000000000
 21
0.0000000000000000
 31
0.0000000000000000
210
0.0000000000000000
220
0.0000000000000000
230
1.000000000000000
 40
0.6250000000000000
 41
0.0000000000000000
 42
6.283185307179586
  0
LINE
  5
65
100
AcDbEntity
  8
MAIN0
  6
CONTINUOUS
 62
3
100
AcDbLine
 10
224.8569317186687
 20
280.4097627890776
 30
0.0000000000000000
 11
224.8569317186687
 21
277.9097627890776
 31
0.0000000000000000
  0
LINE
  5
66
100
AcDbEntity
  8
MAIN0
  6
CONTINUOUS
 62
3
100
AcDbLine
 10
228.8569317186687
 20
280.4097627890776
 30
0.0000000000000000
 11
228.8569317186687
 21
277.9097627890776
 31
0.0000000000000000
  0
LINE
  5
67
100
AcDbEntity
  8
MAIN0
  6
CONTINUOUS
 62
3
100
AcDbLine
 10
224.8569317186687
 20
280.4097627890776
 30
0.0000000000000000
 11
228.8569317186687
 21
280.4097627890776
 31
0.0000000000000000
  0
ELLIPSE
  5
68
100
AcDbEntity
  8
MAIN0
  6
CONTINUOUS
 62
3
100
AcDbEllipse
 10
226.8569317186687
 20
279.1597627890776
 30
0.0000000000000000
 11
2.000000000000000
 21
0.0000000000000000
 31
0.0000000000000000
210
0.0000000000000000
220
0.0000000000000000
230
1.000000000000000
 40
0.6250000000000000
 41
0.0000000000000000
 42
6.283185307179586
  0
LINE
  5
69
100
AcDbEntity
  8
MAIN0
  6
CONTINUOUS
 62
3
100
AcDbLine
 10
250.3567503621531
 20
345.4097627890776
 30
0.0000000000000000
 11
251.3567503621531
 21
344.4097627890776
 31
0.0000000000000000
  0
LINE
  5
6A
100
AcDbEntity
  8
MAIN0
  6
CONTINUOUS
 62
3
100
AcDbLine
 10
168.3567503621532
 20
344.4097627890776
 30
0.0000000000000000
 11
169.3567503621532
 21
345.4097627890776
 31
0.0000000000000000
  0
LINE
  5
6B
100
AcDbEntity
  8
MAIN0
  6
CONTINUOUS
 62
3
100
AcDbLine
 10
168.3567503621532
 20
181.4097627890775
 30
0.0000000000000000
 11
169.3567503621531
 21
180.4097627890775
 31
0.0000000000000000
  0
LINE
  5
6C
100
AcDbEntity
  8
MAIN0
  6
CONTINUOUS
 62
3
100
AcDbLine
 10
251.3567503621531
 20
181.4097627890776
 30
0.0000000000000000
 11
250.3567503621531
 21
180.4097627890776
 31
0.0000000000000000
  0
LINE
  5
6D
100
AcDbEntity
  8
MAIN0
  6
CENTER
 62
3
100
AcDbLine
 10
160.9167101312459
 20
248.9097627890776
 30
0.0000000000000000
 11
184.8182608257621
 21
248.9097627890776
 31
0.0000000000000000
  0
LINE
  5
6E
100
AcDbEntity
  8
MAIN0
  6
CONTINUOUS
 62
3
100
AcDbLine
 10
179.8568575449580
 20
246.4097627890776
 30
0.0000000000000000
 11
179.8568575449580
 21
251.4097627890776
 31
0.0000000000000000
  0
LINE
  5
6F
100
AcDbEntity
  8
MAIN0
  6
CONTINUOUS
 62
3
100
AcDbLine
 10
164.8568575449580
 20
251.4097627890776
 30
0.0000000000000000
 11
179.8568575449579
 21
251.4097627890776
 31
0.0000000000000000
  0
LINE
  5
70
100
AcDbEntity
  8
MAIN0
  6
CONTINUOUS
 62
3
100
AcDbLine
 10
164.8568575449580
 20
246.4097627890776
 30
0.0000000000000000
 11
179.8568575449580
 21
246.4097627890776
 31
0.0000000000000000
  0
LINE
  5
71
100
AcDbEntity
  8
MAIN0
  6
CONTINUOUS
 62
3
100
AcDbLine
 10
179.8568575449579
 20
251.4097627890776
 30
0.0000000000000000
 11
181.3002332179364
 21
248.9097627890702
 31
0.0000000000000000
  0
LINE
  5
72
100
AcDbEntity
  8
MAIN0
  6
CONTINUOUS
 62
3
100
AcDbLine
 10
179.8568575449581
 20
246.4097627890775
 30
0.0000000000000000
 11
181.3002332179364
 21
248.9097627890702
 31
0.0000000000000000
  0
CIRCLE
  5
73
100
AcDbEntity
  8
MAIN0
  6
CONTINUOUS
 62
3
100
AcDbCircle
 10
166.4157032717696
 20
248.9097627890774
 30
0.0000000000000000
 40
2.350000000000000
  0
LINE
  5
74
100
AcDbEntity
  8
MAIN0
  6
CONTINUOUS
 62
3
100
AcDbLine
 10
167.9536319027326
 20
250.6866351891288
 30
0.0000000000000000
 11
168.4625564646202
 21
246.6530925437877
 31
0.0000000000000000
  0
LINE
  5
75
100
AcDbEntity
  8
MAIN0
  6
CONTINUOUS
 62
3
100
AcDbLine
 10
168.4625564646202
 20
246.6530925437877
 30
0.0000000000000000
 11
169.1015909778955
 21
250.9665767272577
 31
0.0000000000000000
  0
LINE
  5
76
100
AcDbEntity
  8
MAIN0
  6
CONTINUOUS
 62
3
100
AcDbLine
 10
169.0816907987504
 20
250.8322504800713
 30
0.0000000000000000
 11
169.6767230149326
 21
246.7169962388875
 31
0.0000000000000000
  0
LINE
  5
77
100
AcDbEntity
  8
MAIN0
  6
CONTINUOUS
 62
3
100
AcDbLine
 10
169.6767217960710
 20
246.6530925437877
 30
0.0000000000000000
 11
170.3157563093463
 21
250.9665767272577
 31
0.0000000000000000
  0
LINE
  5
78
100
AcDbEntity
  8
MAIN0
  6
CONTINUOUS
 62
3
100
AcDbLine
 10
170.2958561302012
 20
250.8322504800713
 30
0.0000000000000000
 11
170.8908883463834
 21
246.7169962388875
 31
0.0000000000000000
  0
LINE
  5
79
100
AcDbEntity
  8
MAIN0
  6
CONTINUOUS
 62
3
100
AcDbLine
 10
170.8908883463834
 20
246.7169962388875
 30
0.0000000000000000
 11
171.5299228596588
 21
251.0304804223574
 31
0.0000000000000000
  0
LINE
  5
7A
100
AcDbEntity
  8
MAIN0
  6
CONTINUOUS
 62
3
100
AcDbLine
 10
171.5100226805136
 20
250.8961541751711
 30
0.0000000000000000
 11
172.1050548966958
 21
246.7808999339873
 31
0.0000000000000000
  0
LINE
  5
7B
100
AcDbEntity
  8
MAIN0
  6
CONTINUOUS
 62
3
100
AcDbLine
 10
172.1050536778342
 20
246.7169962388875
 30
0.0000000000000000
 11
172.7440881911095
 21
251.0304804223574
 31
0.0000000000000000
  0
LINE
  5
7C
100
AcDbEntity
  8
MAIN0
  6
CONTINUOUS
 62
3
100
AcDbLine
 10
172.7241880119644
 20
250.8961541751711
 30
0.0000000000000000
 11
173.3192202281466
 21
246.7808999339873
 31
0.0000000000000000
  0
LINE
  5
7D
100
AcDbEntity
  8
MAIN0
  6
CONTINUOUS
 62
3
100
AcDbLine
 10
173.3192202281466
 20
246.7808999339872
 30
0.0000000000000000
 11
173.9582547414220
 21
251.0943841174571
 31
0.0000000000000000
  0
LINE
  5
7E
100
AcDbEntity
  8
MAIN0
  6
CONTINUOUS
 62
3
100
AcDbLine
 10
173.9383545622769
 20
250.9600578702708
 30
0.0000000000000000
 11
174.5333867784590
 21
246.8448036290870
 31
0.0000000000000000
  0
LINE
  5
7F
100
AcDbEntity
  8
MAIN0
  6
CONTINUOUS
 62
3
100
AcDbLine
 10
174.5333855595974
 20
246.7808999339872
 30
0.0000000000000000
 11
175.1724200728727
 21
251.0943841174571
 31
0.0000000000000000
  0
LINE
  5
80
100
AcDbEntity
  8
MAIN0
  6
CONTINUOUS
 62
3
100
AcDbLine
 10
175.1525198937276
 20
250.9600578702708
 30
0.0000000000000000
 11
175.7475521099098
 21
246.8448036290870
 31
0.0000000000000000
  0
LINE
  5
81
100
AcDbEntity
  8
MAIN0
  6
CONTINUOUS
 62
3
100
AcDbLine
 10
175.7475521099099
 20
246.8448036290869
 30
0.0000000000000000
 11
176.3865866231852
 21
251.1582878125568
 31
0.0000000000000000
  0
LINE
  5
82
100
AcDbEntity
  8
MAIN0
  6
CONTINUOUS
 62
3
100
AcDbLine
 10
176.3666864440400
 20
251.0239615653705
 30
0.0000000000000000
 11
176.9617186602222
 21
246.9087073241867
 31
0.0000000000000000
  0
LINE
  5
83
100
AcDbEntity
  8
MAIN0
  6
CONTINUOUS
 62
3
100
AcDbLine
 10
176.9617174413606
 20
246.8448036290869
 30
0.0000000000000000
 11
177.6007519546359
 21
251.1582878125568
 31
0.0000000000000000
  0
LINE
  5
84
100
AcDbEntity
  8
MAIN0
  6
CONTINUOUS
 62
3
100
AcDbLine
 10
177.5808517754908
 20
251.0239615653705
 30
0.0000000000000000
 11
178.1758839916730
 21
246.9087073241867
 31
0.0000000000000000
  0
LINE
  5
85
100
AcDbEntity
  8
MAIN0
  6
CONTINUOUS
 62
3
100
AcDbLine
 10
178.1758839916731
 20
246.9087073241867
 30
0.0000000000000000
 11
178.8149185049484
 21
251.2221915076566
 31
0.0000000000000000
  0
LINE
  5
86
100
AcDbEntity
  8
MAIN0
  6
CONTINUOUS
 62
3
100
AcDbLine
 10
178.7950183258033
 20
251.0878652604703
 30
0.0000000000000000
 11
179.3900505419854
 21
246.9726110192864
 31
0.0000000000000000
  0
LINE
  5
87
100
AcDbEntity
  8
MAIN0
  6
CONTINUOUS
 62
3
100
AcDbLine
 10
179.3900493231238
 20
246.9087073241867
 30
0.0000000000000000
 11
180.0290838363991
 21
251.2221915076566
 31
0.0000000000000000
  0
LINE
  5
88
100
AcDbEntity
  8
MAIN0
  6
CONTINUOUS
 62
3
100
AcDbLine
 10
283.3567503621532
 20
250.9097627890775
 30
0.0000000000000000
 11
282.3908245358637
 21
249.6509437439767
 31
0.0000000000000000
  0
LINE
  5
89
100
AcDbEntity
  8
MAIN0
  6
CONTINUOUS
 62
3
100
AcDbLine
 10
258.3567503621531
 20
266.9097627890776
 30
0.0000000000000000
 11
258.3567503621531
 21
258.9097627890776
 31
0.0000000000000000
  0
LINE
  5
8A
100
AcDbEntity
  8
MAIN0
  6
CONTINUOUS
 62
3
100
AcDbLine
 10
258.3567503621532
 20
266.9097627890776
 30
0.0000000000000000
 11
259.3567503621532
 21
267.9097627890776
 31
0.0000000000000000
  0
LINE
  5
8B
100
AcDbEntity
  8
MAIN0
  6
CONTINUOUS
 62
3
100
AcDbLine
 10
258.3567503621531
 20
258.9097627890776
 30
0.0000000000000000
 11
259.3567503621532
 21
257.9097627890776
 31
0.0000000000000000
  0
LINE
  5
8C
100
AcDbEntity
  8
MAIN0
  6
CONTINUOUS
 62
3
100
AcDbLine
 10
261.3567503621532
 20
266.4097627890776
 30
0.0000000000000000
 11
263.8567503621531
 21
266.4097627890776
 31
0.0000000000000000
  0
LINE
  5
8D
100
AcDbEntity
  8
MAIN0
  6
CONTINUOUS
 62
3
100
AcDbLine
 10
261.3567503621532
 20
259.4097627890776
 30
0.0000000000000000
 11
263.8567503621531
 21
259.4097627890776
 31
0.0000000000000000
  0
ELLIPSE
  5
8E
100
AcDbEntity
  8
MAIN0
  6
CONTINUOUS
 62
3
100
AcDbEllipse
 10
262.6067503621531
 20
258.6597627890776
 30
0.0000000000000000
 11
-1.250000000000000
 21
0.0000000000000000
 31
0.0000000000000000
210
0.0000000000000000
220
0.0000000000000000
230
1.000000000000000
 40
0.6000000000000000
 41
0.0000000000000000
 42
6.283185307179586
  0
ELLIPSE
  5
8F
100
AcDbEntity
  8
MAIN0
  6
CONTINUOUS
 62
3
100
AcDbEllipse
 10
262.6067503621531
 20
267.1597627890776
 30
0.0000000000000000
 11
1.250000000000000
 21
0.0000000000000000
 31
0.0000000000000000
210
0.0000000000000000
220
0.0000000000000000
230
1.000000000000000
 40
0.6000000000000000
 41
0.0000000000000000
 42
6.283185307179586
  0
DIMENSION
  5
98
100
AcDbEntity
  8
MAIN0
  6
CONTINUOUS
 62
3
100
AcDbDimension
  2
*D0
 10
40.55693026558731
 20
345.4097627890776
 30
0.0000000000000000
 11
40.05693026558731
 21
262.9097627890775
 31
0.0000000000000000
 70
32
  1
\A1;\U+2205165
  3
MAIN001
100
AcDbAlignedDimension
 13
169.3567503621531
 23
180.4097627890774
 33
0.0000000000000000
 14
169.3567503621531
 24
345.4097627890776
 34
0.0000000000000000
 50
90.00000000000000
100
AcDbRotatedDimension
1001
ACAD
1000
DSTYLE
1002
{
1070
   173
1070
     1
1070
     6
1000
_OPEN
1070
     7
1000
_OPEN
1070
    41
1040
2.000000
1002
}
  0
DIMENSION
  5
A3
100
AcDbEntity
  8
MAIN0
  6
CONTINUOUS
 62
3
100
AcDbDimension
  2
*D1
 10
168.3567503621531
 20
148.1045228096551
 30
0.0000000000000000
 11
170.8567503621531
 21
148.6045228096551
 31
0.0000000000000000
 70
32
  3
MAIN001
100
AcDbAlignedDimension
 13
173.3567503621531
 23
192.9097627890776
 33
0.0000000000000000
 14
168.3567503621531
 24
181.4097627890775
 34
0.0000000000000000
100
AcDbRotatedDimension
1001
ACAD
1000
DSTYLE
1002
{
1070
   173
1070
     1
1070
     6
1000
_OPEN
1070
     7
1000
_OPEN
1070
    41
1040
2.000000
1070
   287
1070
     0
1002
}
  0
DIMENSION
  5
AC
100
AcDbEntity
  8
MAIN0
  6
CONTINUOUS
 62
3
100
AcDbDimension
  2
*D2
 10
51.27300077960206
 20
332.9097627890776
 30
0.0000000000000000
 11
50.77300077960206
 21
262.9097627890776
 31
0.0000000000000000
 70
32
  1
\A1;\U+2205140G7
  3
MAIN001
100
AcDbAlignedDimension
 13
168.3567503621531
 23
192.9097627890776
 33
0.0000000000000000
 14
168.3567503621531
 24
332.9097627890776
 34
0.0000000000000000
 50
90.00000000000000
100
AcDbRotatedDimension
1001
ACAD
1000
DSTYLE
1002
{
1070
   173
1070
     1
1070
     6
1000
_OPEN
1070
     7
1000
_OPEN
1070
    41
1040
2.000000
1002
}
  0
DIMENSION
  5
B5
100
AcDbEntity
  8
MAIN0
  6
CONTINUOUS
 62
3
100
AcDbDimension
  2
*D3
 10
62.77318228227898
 20
282.9097627890776
 30
0.0000000000000000
 11
62.27318228227898
 21
262.9097627890776
 31
0.0000000000000000
 70
32
  1
\A1;\U+220540
  3
MAIN001
100
AcDbAlignedDimension
 13
160.8568575449580
 23
242.9097627890776
 33
0.0000000000000000
 14
160.8568575449580
 24
282.9097627890776
 34
0.0000000000000000
 50
90.00000000000000
100
AcDbRotatedDimension
1001
ACAD
1000
DSTYLE
1002
{
1070
   173
1070
     1
1070
     6
1000
_OPEN
1070
     7
1000
_OPEN
1070
    41
1040
2.000000
1002
}
  0
DIMENSION
  5
BE
100
AcDbEntity
  8
MAIN0
  6
CONTINUOUS
 62
3
100
AcDbDimension
  2
*D4
 10
168.3567503621531
 20
129.3028219675174
 30
0.0000000000000000
 11
209.8567503621531
 21
129.8028219675174
 31
0.0000000000000000
 70
32
  3
MAIN001
100
AcDbAlignedDimension
 13
251.3567503621531
 23
181.4097627890776
 33
0.0000000000000000
 14
168.3567503621531
 24
181.4097627890775
 34
0.0000000000000000
100
AcDbRotatedDimension
1001
ACAD
1000
DSTYLE
1002
{
1070
   173
1070
     1
1070
     6
1000
_OPEN
1070
     7
1000
_OPEN
1070
    41
1040
2.000000
1002
}
  0
DIMENSION
  5
C7
100
AcDbEntity
  8
MAIN0
  6
CONTINUOUS
 62
3
100
AcDbDimension
  2
*D5
 10
251.3567503621531
 20
129.3028219675174
 30
0.0000000000000000
 11
267.3567503621531
 21
129.8028219675174
 31
0.0000000000000000
 70
32
  3
MAIN001
100
AcDbAlignedDimension
 13
283.3567503621531
 23
248.9097627890775
 33
0.0000000000000000
 14
251.3567503621531
 24
181.4097627890776
 34
0.0000000000000000
100
AcDbRotatedDimension
1001
ACAD
1000
DSTYLE
1002
{
1070
   173
1070
     1
1070
     6
1000
_OPEN
1070
     7
1000
_OPEN
1070
    41
1040
2.000000
1002
}
  0
LINE
  5
C8
100
AcDbEntity
  8
MAIN0
  6
CONTINUOUS
 62
3
100
AcDbLine
 10
272.3567503621528
 20
267.9097627890776
 30
0.0000000000000000
 11
272.3567503621528
 21
257.9097627890776
 31
0.0000000000000000
  0
LINE
  5
C9
100
AcDbEntity
  8
MAIN0
  6
CONTINUOUS
 62
3
100
AcDbLine
 10
263.8567503621531
 20
257.9097627890776
 30
0.0000000000000000
 11
263.8567503621531
 21
267.9097627890776
 31
0.0000000000000000
  0
LINE
  5
CA
100
AcDbEntity
  8
MAIN0
  6
CONTINUOUS
 62
3
100
AcDbLine
 10
261.3567503621531
 20
257.9097627890776
 30
0.0000000000000000
 11
261.3567503621531
 21
267.9097627890776
 31
0.0000000000000000
  0
LINE
  5
CB
100
AcDbEntity
  8
MAIN0
  6
CONTINUOUS
 62
3
100
AcDbLine
 10
259.3567503621532
 20
267.9097627890776
 30
0.0000000000000000
 11
259.3567503621532
 21
257.9097627890776
 31
0.0000000000000000
  0
LINE
  5
CC
100
AcDbEntity
  8
MAIN0
  6
HIDDEN
 62
3
100
AcDbLine
 10
222.8568575449580
 20
262.9097627890776
 30
0.0000000000000000
 11
222.8568575449583
 21
267.6097627890775
 31
0.0000000000000000
  0
LINE
  5
CD
100
AcDbEntity
  8
MAIN0
  6
HIDDEN
 62
3
100
AcDbLine
 10
222.8568575449583
 20
267.6097627890775
 30
0.0000000000000000
 11
230.8568575449583
 21
267.6097627890775
 31
0.0000000000000000
  0
LINE
  5
CE
100
AcDbEntity
  8
MAIN0
  6
HIDDEN
 62
3
100
AcDbLine
 10
222.8568575449581
 20
265.3097627890776
 30
0.0000000000000000
 11
230.8568575449581
 21
265.3097627890776
 31
0.0000000000000000
  0
LINE
  5
CF
100
AcDbEntity
  8
MAIN0
  6
HIDDEN
 62
3
100
AcDbLine
 10
222.8568575449580
 20
262.9097627890776
 30
0.0000000000000000
 11
222.8568575449583
 21
258.2097627890776
 31
0.0000000000000000
  0
LINE
  5
D0
100
AcDbEntity
  8
MAIN0
  6
HIDDEN
 62
3
100
AcDbLine
 10
222.8568575449581
 20
260.5097627890776
 30
0.0000000000000000
 11
230.8568575449581
 21
260.5097627890776
 31
0.0000000000000000
  0
LINE
  5
D1
100
AcDbEntity
  8
MAIN0
  6
HIDDEN
 62
3
100
AcDbLine
 10
222.8568575449583
 20
258.2097627890776
 30
0.0000000000000000
 11
230.8568575449583
 21
258.2097627890776
 31
0.0000000000000000
  0
LINE
  5
D2
100
AcDbEntity
  8
MAIN0
  6
HIDDEN
 62
3
100
AcDbLine
 10
221.5866869527402
 20
265.4097627890776
 30
0.0000000000000000
 11
222.8568575449583
 21
267.6097627890775
 31
0.0000000000000000
  0
LINE
  5
D3
100
AcDbEntity
  8
MAIN0
  6
HIDDEN
 62
3
100
AcDbLine
 10
221.5866869527402
 20
265.4097627890775
 30
0.0000000000000000
 11
221.5866869527402
 21
260.4097627890776
 31
0.0000000000000000
  0
LINE
  5
D4
100
AcDbEntity
  8
MAIN0
  6
HIDDEN
 62
3
100
AcDbLine
 10
221.5866869527402
 20
260.4097627890776
 30
0.0000000000000000
 11
222.8568575449583
 21
258.2097627890776
 31
0.0000000000000000
  0
LINE
  5
D5
100
AcDbEntity
  8
MAIN0
  6
CONTINUOUS
 62
3
100
AcDbLine
 10
229.2568575449580
 20
262.9097627890776
 30
0.0000000000000000
 11
229.2568575449587
 21
250.6597627890785
 31
0.0000000000000000
  0
LINE
  5
D6
100
AcDbEntity
  8
MAIN0
  6
CONTINUOUS
 62
3
100
AcDbLine
 10
230.8568575449586
 20
253.4310440811888
 30
0.0000000000000000
 11
229.2568575449587
 21
250.6597627890785
 31
0.0000000000000000
  0
LINE
  5
D7
100
AcDbEntity
  8
MAIN0
  6
CONTINUOUS
 62
3
100
AcDbLine
 10
230.8568575449580
 20
262.9097627890776
 30
0.0000000000000000
 11
230.8568575449586
 21
253.4310440811889
 31
0.0000000000000000
  0
LINE
  5
D8
100
AcDbEntity
  8
MAIN0
  6
CONTINUOUS
 62
3
100
AcDbLine
 10
174.8568575449580
 20
271.9097627890791
 30
0.0000000000000000
 11
174.8568575449580
 21
253.9097627890791
 31
0.0000000000000000
  0
LINE
  5
D9
100
AcDbEntity
  8
MAIN0
  6
CONTINUOUS
 62
3
100
AcDbLine
 10
114.8568575449580
 20
270.4097627890776
 30
0.0000000000000000
 11
114.8568575449580
 21
255.4097627890776
 31
0.0000000000000000
  0
LINE
  5
DA
100
AcDbEntity
  8
MAIN0
  6
CONTINUOUS
 62
3
100
AcDbLine
 10
114.8568575449581
 20
270.4097627890778
 30
0.0000000000000000
 11
116.3568575449615
 21
271.9097627890828
 31
0.0000000000000000
  0
LINE
  5
DB
100
AcDbEntity
  8
MAIN0
  6
CONTINUOUS
 62
3
100
AcDbLine
 10
114.8568575449580
 20
255.4097627890773
 30
0.0000000000000000
 11
116.3568575449574
 21
253.9097627890828
 31
0.0000000000000000
  0
LINE
  5
DC
100
AcDbEntity
  8
MAIN0
  6
CONTINUOUS
 62
3
100
AcDbLine
 10
102.8568575449580
 20
270.4097627890776
 30
0.0000000000000000
 11
102.8568575449580
 21
255.4097627890776
 31
0.0000000000000000
  0
LINE
  5
DD
100
AcDbEntity
  8
MAIN0
  6
CONTINUOUS
 62
3
100
AcDbLine
 10
106.0568575449580
 20
270.4097627890776
 30
0.0000000000000000
 11
106.0568575449580
 21
255.4097627890776
 31
0.0000000000000000
  0
LINE
  5
DE
100
AcDbEntity
  8
MAIN0
  6
CONTINUOUS
 62
3
100
AcDbLine
 10
102.8568575449581
 20
268.4097627890776
 30
0.0000000000000000
 11
106.0568575449580
 21
268.4097627890776
 31
0.0000000000000000
  0
LINE
  5
DF
100
AcDbEntity
  8
MAIN0
  6
CONTINUOUS
 62
3
100
AcDbLine
 10
102.8568575449581
 20
257.4097627890776
 30
0.0000000000000000
 11
106.0568575449580
 21
257.4097627890776
 31
0.0000000000000000
  0
LINE
  5
E0
100
AcDbEntity
  8
MAIN0
  6
CONTINUOUS
 62
3
100
AcDbLine
 10
100.8568575449580
 20
270.4097627890776
 30
0.0000000000000000
 11
102.8568575449580
 21
270.4097627890776
 31
0.0000000000000000
  0
LINE
  5
E1
100
AcDbEntity
  8
MAIN0
  6
CONTINUOUS
 62
3
100
AcDbLine
 10
106.0568575449580
 20
270.4097627890776
 30
0.0000000000000000
 11
114.8568575449580
 21
270.4097627890776
 31
0.0000000000000000
  0
LINE
  5
E2
100
AcDbEntity
  8
MAIN0
  6
CONTINUOUS
 62
3
100
AcDbLine
 10
100.8568575449580
 20
255.4097627890776
 30
0.0000000000000000
 11
102.8568575449580
 21
255.4097627890776
 31
0.0000000000000000
  0
LINE
  5
E3
100
AcDbEntity
  8
MAIN0
  6
CONTINUOUS
 62
3
100
AcDbLine
 10
106.0568575449580
 20
255.4097627890776
 30
0.0000000000000000
 11
114.8568575449580
 21
255.4097627890776
 31
0.0000000000000000
  0
DIMENSION
  5
EC
100
AcDbEntity
  8
MAIN0
  6
CONTINUOUS
 62
3
100
AcDbDimension
  2
*D6
 10
74.51734991095759
 20
270.4097627890776
 30
0.0000000000000000
 11
74.01734991095759
 21
262.9097627890776
 31
0.0000000000000000
 70
32
  1
\A1;\U+220515h8
  3
MAIN001
100
AcDbAlignedDimension
 13
100.8568575449580
 23
255.4097627890776
 33
0.0000000000000000
 14
100.8568575449580
 24
270.4097627890776
 34
0.0000000000000000
 50
90.00000000000000
100
AcDbRotatedDimension
1001
ACAD
1000
DSTYLE
1002
{
1070
   173
1070
     1
1070
     6
1000
_OPEN
1070
     7
1000
_OPEN
1070
    41
1040
2.000000
1002
}
  0
DIMENSION
  5
F7
100
AcDbEntity
  8
MAIN0
  6
CONTINUOUS
 62
3
100
AcDbDimension
  2
*D7
 10
87.13776508725002
 20
265.4097627890776
 30
0.0000000000000000
 11
86.63776508725002
 21
262.9097627890776
 31
0.0000000000000000
 70
32
  1
\A1;\U+22055
  3
MAIN001
100
AcDbAlignedDimension
 13
100.2568575449581
 23
260.4097627890776
 33
0.0000000000000000
 14
100.2568575449581
 24
265.4097627890776
 34
0.0000000000000000
 50
90.00000000000000
100
AcDbRotatedDimension
1001
ACAD
1000
DSTYLE
1002
{
1070
   173
1070
     1
1070
     6
1000
_OPEN
1070
     7
1000
_OPEN
1070
    41
1040
2.000000
1070
   287
1070
     0
1002
}
  0
LINE
  5
F8
100
AcDbEntity
  8
MAIN0
  6
CONTINUOUS
 62
3
100
AcDbLine
 10
116.3568575449616
 20
271.9097627890828
 30
0.0000000000000000
 11
116.3568575449616
 21
253.9097627890828
 31
0.0000000000000000
  0
LINE
  5
F9
100
AcDbEntity
  8
MAIN0
  6
CONTINUOUS
 62
3
100
AcDbLine
 10
99.85685754495802
 20
269.4097627890776
 30
0.0000000000000000
 11
99.85685754495799
 21
256.4097627890776
 31
0.0000000000000000
  0
LINE
  5
FA
100
AcDbEntity
  8
MAIN0
  6
CONTINUOUS
 62
3
100
AcDbLine
 10
99.85685754495805
 20
256.4097627890775
 30
0.0000000000000000
 11
100.8568575449581
 21
255.4097627890775
 31
0.0000000000000000
  0
LINE
  5
FB
100
AcDbEntity
  8
MAIN0
  6
CONTINUOUS
 62
3
100
AcDbLine
 10
99.85685754495802
 20
269.4097627890776
 30
0.0000000000000000
 11
100.8568575449580
 21
270.4097627890776
 31
0.0000000000000000
  0
LINE
  5
FC
100
AcDbEntity
  8
MAIN0
  6
HIDDEN
 62
3
100
AcDbLine
 10
99.85685754495802
 20
265.8097627890775
 30
0.0000000000000000
 11
100.2568575449580
 21
265.4097627890776
 31
0.0000000000000000
  0
DIMENSION
  5
105
100
AcDbEntity
  8
MAIN0
  6
CONTINUOUS
 62
3
100
AcDbDimension
  2
*D8
 10
99.85685754495802
 20
278.2430375910892
 30
0.0000000000000000
 11
107.3220326303978
 21
278.7430375910892
 31
0.0000000000000000
 70
160
  3
MAIN001
100
AcDbAlignedDimension
 13
114.8568575449580
 23
269.4097627890778
 33
0.0000000000000000
 14
99.85685754495802
 24
268.4097627890776
 34
0.0000000000000000
100
AcDbRotatedDimension
1001
ACAD
1000
DSTYLE
1002
{
1070
   173
1070
     1
1070
     6
1000
_OPEN
1070
     7
1000
_OPEN
1070
    41
1040
2.000000
1002
}
  0
LINE
  5
106
100
AcDbEntity
  8
MAIN0
  6
CONTINUOUS
 62
3
100
AcDbLine
 10
237.8568575449580
 20
278.4097627890776
 30
0.0000000000000000
 11
242.8568575449580
 21
278.4097627890776
 31
0.0000000000000000
  0
LINE
  5
107
100
AcDbEntity
  8
MAIN0
  6
CONTINUOUS
 62
3
100
AcDbLine
 10
237.8568575449580
 20
247.4097627890776
 30
0.0000000000000000
 11
242.8568575449580
 21
247.4097627890776
 31
0.0000000000000000
  0
LINE
  5
108
100
AcDbEntity
  8
MAIN0
  6
CONTINUOUS
 62
3
100
AcDbLine
 10
283.3567503621531
 20
250.9097627890775
 30
0.0000000000000000
 11
283.3567503621531
 21
269.4903177618870
 31
0.0000000000000000
  0
LINE
  5
109
100
AcDbEntity
  8
MAIN0
  6
CONTINUOUS
 62
3
100
AcDbLine
 10
283.6497503621531
 20
269.4172646570539
 30
0.0000000000000000
 11
283.6497503621531
 21
286.5833496984600
 31
0.0000000000000000
  0
LINE
  5
10A
100
AcDbEntity
  8
MAIN0
  6
CONTINUOUS
 62
3
100
AcDbLine
 10
253.6497503621531
 20
307.4097627890776
 30
0.0000000000000000
 11
253.6497503621531
 21
309.8767408815429
 31
0.0000000000000000
  0
LINE
  5
10B
100
AcDbEntity
  8
MAIN0
  6
CONTINUOUS
 62
3
100
AcDbLine
 10
260.6497503621534
 20
308.6097627890775
 30
0.0000000000000000
 11
283.6497503621531
 21
308.6097627890775
 31
0.0000000000000000
  0
LINE
  5
10C
100
AcDbEntity
  8
MAIN0
  6
CONTINUOUS
 62
3
100
AcDbLine
 10
260.6497503621531
 20
308.5833496984600
 30
0.0000000000000000
 11
260.6497503621531
 21
290.6097627890776
 31
0.0000000000000000
  0
LINE
  5
10D
100
AcDbEntity
  8
MAIN0
  6
CENTER
 62
3
100
AcDbLine
 10
270.6497503621531
 20
271.3393305761957
 30
0.0000000000000000
 11
270.6497503621531
 21
331.5011623380246
 31
0.0000000000000000
  0
LINE
  5
10E
100
AcDbEntity
  8
MAIN0
  6
CONTINUOUS
 62
3
100
AcDbLine
 10
139.8568575449580
 20
278.9097627890776
 30
0.0000000000000000
 11
139.8568575449580
 21
270.8272307890807
 31
0.0000000000000000
  0
LINE
  5
10F
100
AcDbEntity
  8
MAIN0
  6
CENTER
 62
3
100
AcDbLine
 10
152.8568575449580
 20
282.9097627890776
 30
0.0000000000000000
 11
152.8568575449580
 21
269.3389729325846
 31
0.0000000000000000
  0
LINE
  5
110
100
AcDbEntity
  8
MAIN0
  6
CONTINUOUS
 62
3
100
AcDbLine
 10
141.8568575449580
 20
280.9097627890776
 30
0.0000000000000000
 11
139.8568575449581
 21
278.9097627890776
 31
0.0000000000000000
  0
LINE
  5
111
100
AcDbEntity
  8
MAIN0
  6
CONTINUOUS
 62
3
100
AcDbLine
 10
164.4568575449580
 20
280.9097627890776
 30
0.0000000000000000
 11
164.8568575449580
 21
280.5097627890775
 31
0.0000000000000000
  0
LINE
  5
112
100
AcDbEntity
  8
MAIN0
  6
CONTINUOUS
 62
3
100
AcDbLine
 10
139.8568575449580
 20
246.9097627890776
 30
0.0000000000000000
 11
139.8568575449580
 21
254.9922947890744
 31
0.0000000000000000
  0
LINE
  5
113
100
AcDbEntity
  8
MAIN0
  6
CONTINUOUS
 62
3
100
AcDbLine
 10
141.8568575449580
 20
244.9097627890776
 30
0.0000000000000000
 11
164.4568575449580
 21
244.9097627890776
 31
0.0000000000000000
  0
LINE
  5
114
100
AcDbEntity
  8
MAIN0
  6
CONTINUOUS
 62
3
100
AcDbLine
 10
141.8568575449581
 20
244.9097627890776
 30
0.0000000000000000
 11
139.8568575449581
 21
246.9097627890776
 31
0.0000000000000000
  0
LINE
  5
115
100
AcDbEntity
  8
MAIN0
  6
CONTINUOUS
 62
3
100
AcDbLine
 10
164.4568575449580
 20
244.9097627890776
 30
0.0000000000000000
 11
164.8568575449580
 21
245.3097627890776
 31
0.0000000000000000
  0
DIMENSION
  5
11D
100
AcDbEntity
  8
MAIN0
  6
CONTINUOUS
 62
3
100
AcDbDimension
  2
*D9
 10
173.3567503621531
 20
308.2796887491190
 30
0.0000000000000000
 11
136.6068039535556
 21
308.7796887491190
 31
0.0000000000000000
 70
32
  1
\A1;MAX 78.8
  3
MAIN001
100
AcDbAlignedDimension
 13
99.85685754495802
 23
269.4097627890776
 33
0.0000000000000000
 14
173.3567503621531
 24
332.9097627890776
 34
0.0000000000000000
100
AcDbRotatedDimension
1001
ACAD
1000
DSTYLE
1002
{
1070
   173
1070
     1
1070
     6
1000
_OPEN
1070
     7
1000
_OPEN
1070
    41
1040
2.000000
1002
}
  0
DIMENSION
  5
126
100
AcDbEntity
  8
MAIN0
  6
CONTINUOUS
 62
3
100
AcDbDimension
  2
*D10
 10
139.8568575449580
 20
293.3837017173323
 30
0.0000000000000000
 11
119.8568575449580
 21
293.8837017173323
 31
0.0000000000000000
 70
32
  3
MAIN001
100
AcDbAlignedDimension
 13
99.85685754495802
 23
268.4097627890776
 33
0.0000000000000000
 14
139.8568575449580
 24
277.9097627890776
 34
0.0000000000000000
100
AcDbRotatedDimension
1001
ACAD
1000
DSTYLE
1002
{
1070
   173
1070
     1
1070
     6
1000
_OPEN
1070
     7
1000
_OPEN
1070
    41
1040
2.000000
1002
}
  0
LINE
  5
127
100
AcDbEntity
  8
MAIN0
  6
CONTINUOUS
 62
3
100
AcDbLine
 10
222.8568575449579
 20
250.6597627890781
 30
0.0000000000000000
 11
214.8568575449587
 21
250.6597627890776
 31
0.0000000000000000
  0
LINE
  5
128
100
AcDbEntity
  8
MAIN0
  6
CONTINUOUS
 62
3
100
AcDbLine
 10
229.2568575449587
 20
250.6597627890785
 30
0.0000000000000000
 11
226.8568575449580
 21
250.6597627890783
 31
0.0000000000000000
  0
LINE
  5
129
100
AcDbEntity
  8
MAIN0
  6
CONTINUOUS
 62
3
100
AcDbLine
 10
222.8568575449580
 20
250.6597627890781
 30
0.0000000000000000
 11
222.8568575449580
 21
275.1597627890770
 31
0.0000000000000000
  0
LINE
  5
12A
100
AcDbEntity
  8
MAIN0
  6
CONTINUOUS
 62
3
100
AcDbLine
 10
226.8568575449580
 20
250.6597627890783
 30
0.0000000000000000
 11
226.8568575449580
 21
275.1597627890768
 31
0.0000000000000000
  0
LINE
  5
12B
100
AcDbEntity
  8
MAIN0
  6
CONTINUOUS
 62
3
100
AcDbLine
 10
234.8568575449583
 20
275.4097627890772
 30
0.0000000000000000
 11
235.8568575449580
 21
275.9871130582669
 31
0.0000000000000000
  0
LINE
  5
12C
100
AcDbEntity
  8
MAIN0
  6
CONTINUOUS
 62
3
100
AcDbLine
 10
234.3568575449598
 20
250.4097627890765
 30
0.0000000000000000
 11
235.8568575449581
 21
249.5437373852934
 31
0.0000000000000000
  0
LINE
  5
12D
100
AcDbEntity
  8
MAIN0
  6
CONTINUOUS
 62
3
100
AcDbLine
 10
265.1497503621531
 20
289.6097627890781
 30
0.0000000000000000
 11
265.1497503621531
 21
308.2097627890781
 31
0.0000000000000000
  0
LINE
  5
12E
100
AcDbEntity
  8
MAIN0
  6
CONTINUOUS
 62
3
100
AcDbLine
 10
233.3762825180357
 20
285.1982809230765
 30
0.0000000000000000
 11
237.2574654231398
 21
284.2305933406781
 31
0.0000000000000000
  0
ELLIPSE
  5
12F
100
AcDbEntity
  8
MAIN0
  6
CONTINUOUS
 62
3
100
AcDbEllipse
 10
234.9358469850184
 20
283.1862213629926
 30
0.0000000000000000
 11
-1.940591452552031
 21
0.4838437911991821
 31
0.0000000000000000
210
0.0000000000000000
220
0.0000000000000000
230
1.000000000000000
 40
0.7875000000000000
 41
0.0000000000000000
 42
6.283185307179586
  0
LINE
  5
130
100
AcDbEntity
  8
MAIN0
  6
CONTINUOUS
 62
3
100
AcDbLine
 10
222.8568575449580
 20
273.4097627890783
 30
0.0000000000000000
 11
226.8568575449580
 21
273.4097627890781
 31
0.0000000000000000
  0
LINE
  5
131
100
AcDbEntity
  8
MAIN0
  6
CONTINUOUS
 62
3
100
AcDbLine
 10
222.8568575449579
 20
252.4097627890775
 30
0.0000000000000000
 11
226.8568575449579
 21
252.4097627890772
 31
0.0000000000000000
  0
ELLIPSE
  5
132
100
AcDbEntity
  8
MAIN0
  6
CONTINUOUS
 62
3
100
AcDbEllipse
 10
224.8568575449580
 20
274.4097627890782
 30
0.0000000000000000
 11
-2.000000000000000
 21
0.0000000000000000
 31
0.0000000000000000
210
0.0000000000000000
220
0.0000000000000000
230
1.000000000000000
 40
0.5000000000000000
 41
0.0000000000000000
 42
6.283185307179586
  0
LINE
  5
133
100
AcDbEntity
  8
MAIN0
  6
CONTINUOUS
 62
3
100
AcDbLine
 10
281.3697148289736
 20
267.9625472890782
 30
0.0000000000000000
 11
283.3567503621528
 21
269.1097627890490
 31
0.0000000000000000
  0
LINE
  5
134
100
AcDbEntity
  8
MAIN0
  6
CONTINUOUS
 62
3
100
AcDbLine
 10
281.3697148289736
 20
257.8569782890770
 30
0.0000000000000000
 11
283.3567503621528
 21
256.7097627891062
 31
0.0000000000000000
  0
LINE
  5
135
100
AcDbEntity
  8
MAIN0
  6
CONTINUOUS
 62
3
100
AcDbLine
 10
237.8568575449580
 20
278.4097627890776
 30
0.0000000000000000
 11
237.8568575449580
 21
275.0767159311873
 31
0.0000000000000000
  0
LINE
  5
136
100
AcDbEntity
  8
MAIN0
  6
CONTINUOUS
 62
3
100
AcDbLine
 10
237.8568575449580
 20
247.4097627890776
 30
0.0000000000000000
 11
237.8568575449580
 21
251.5964175823973
 31
0.0000000000000000
  0
LINE
  5
137
100
AcDbEntity
  8
MAIN0
  6
CONTINUOUS
 62
3
100
AcDbLine
 10
222.8569317186688
 20
247.9097627890776
 30
0.0000000000000000
 11
221.8569317186688
 21
246.9097627890776
 31
0.0000000000000000
  0
LINE
  5
138
100
AcDbEntity
  8
MAIN0
  6
CONTINUOUS
 62
3
100
AcDbLine
 10
221.8569317186688
 20
278.9097627890776
 30
0.0000000000000000
 11
222.8569317186688
 21
277.9097627890776
 31
0.0000000000000000
  0
LINE
  5
139
100
AcDbEntity
  8
MAIN0
  6
CONTINUOUS
 62
3
100
AcDbLine
 10
283.6497503621580
 20
308.5833496984600
 30
0.0000000000000000
 11
283.6497503621570
 21
286.5833496984600
 31
0.0000000000000000
  0
LINE
  5
13A
100
AcDbEntity
  8
MAIN0
  6
CONTINUOUS
 62
3
100
AcDbLine
 10
273.9497503621495
 20
285.9833496984600
 30
0.0000000000000000
 11
274.3497503621495
 21
285.5833496984600
 31
0.0000000000000000
  0
LINE
  5
13B
100
AcDbEntity
  8
MAIN0
  6
CONTINUOUS
 62
3
100
AcDbLine
 10
267.3497503621495
 20
285.9833496984600
 30
0.0000000000000000
 11
266.9497503621495
 21
285.5833496984600
 31
0.0000000000000000
  0
LINE
  5
13C
100
AcDbEntity
  8
MAIN0
  6
CONTINUOUS
 62
3
100
AcDbLine
 10
260.6497503621531
 20
290.6097627890776
 30
0.0000000000000000
 11
265.6497503621531
 21
285.6097627890776
 31
0.0000000000000000
  0
ELLIPSE
  5
13D
100
AcDbEntity
  8
MAIN0
  6
CONTINUOUS
 62
3
100
AcDbEllipse
 10
224.8568575449580
 20
251.4097627890774
 30
0.0000000000000000
 11
2.000000000000000
 21
0.0000000000000000
 31
0.0000000000000000
210
0.0000000000000000
220
0.0000000000000000
230
1.000000000000000
 40
0.5000000000000000
 41
0.0000000000000000
 42
6.283185307179586
  0
LINE
  5
13E
100
AcDbEntity
  8
MAIN0
  6
CONTINUOUS
 62
3
100
AcDbLine
 10
186.3567503621531
 20
282.9097627890776
 30
0.0000000000000000
 11
186.3567503621531
 21
287.1736999650625
 31
0.0000000000000000
  0
LINE
  5
13F
100
AcDbEntity
  8
MAIN0
  6
CONTINUOUS
 62
3
100
AcDbLine
 10
169.3567503621531
 20
345.4097627890776
 30
0.0000000000000000
 11
250.3567503621531
 21
345.4097627890776
 31
0.0000000000000000
  0
SPLINE
  5
140
100
AcDbEntity
  8
MAIN0
  6
CONTINUOUS
 62
3
100
AcDbSpline
210
0.0000000000000000
220
0.0000000000000000
230
1.000000000000000
 70
     8
 71
     3
 72
    16
 73
    12
 74
     0
 42
1.000000000000000e-007
 43
1.000000000000000e-007
 12
-0.7646412508223790
 22
-0.7270948020216110
 32
0.0000000000000000
 13
-0.5757484903548402
 23
-0.9052518196423307
 33
0.0000000000000000
 40
0.0000000000000000
 40
0.0000000000000000
 40
0.0000000000000000
 40
0.0000000000000000
 40
5.819989783759151
 40
10.08190118849790
 40
16.03293442016919
 40
20.30591060250852
 40
25.48783472923614
 40
30.66062895962144
 40
39.33998874633338
 40
42.14533357124397
 40
43.89277650552977
 40
43.89277650552977
 40
43.89277650552977
 40
43.89277650552977
 10
244.7617790982027
 20
316.4369727391936
 30
0.0000000000000000
 10
243.2783776755270
 20
315.0264112993302
 30
0.0000000000000000
 10
240.7086984970469
 20
312.5829119831128
 30
0.0000000000000000
 10
240.9251991438275
 20
306.8771098455194
 30
0.0000000000000000
 10
242.2077888177517
 20
302.4342062977094
 30
0.0000000000000000
 10
242.4333905110017
 20
296.7800853073540
 30
0.0000000000000000
 10
237.5381538305130
 20
293.9775991534968
 30
0.0000000000000000
 10
232.1199635986955
 20
292.4075322919376
 30
0.0000000000000000
 10
225.2753651376896
 20
287.6731240054858
 30
0.0000000000000000
 10
228.5831891883936
 20
283.3852294992893
 30
0.0000000000000000
 10
227.7094356286392
 20
282.0114230314699
 30
0.0000000000000000
 10
227.3740730848404
 20
281.4841310661421
 30
0.0000000000000000
  0
SPLINE
  5
141
100
AcDbEntity
  8
MAIN0
  6
CONTINUOUS
 62
3
100
AcDbSpline
210
0.0000000000000000
220
0.0000000000000000
230
1.000000000000000
 70
     8
 71
     3
 72
    10
 73
     6
 74
     0
 42
1.000000000000000e-007
 43
1.000000000000000e-007
 12
0.9940676263146884
 22
-0.1992002420054462
 32
0.0000000000000000
 13
0.8510505098940939
 23
-0.6783505629277045
 33
0.0000000000000000
 40
0.0000000000000000
 40
0.0000000000000000
 40
0.0000000000000000
 40
0.0000000000000000
 40
7.293897121004470
 40
11.43593824752031
 40
17.07181825352592
 40
17.07181825352592
 40
17.07181825352592
 40
17.07181825352592
 10
177.9341879656994
 20
287.7624200962717
 30
0.0000000000000000
 10
180.3510636315862
 20
287.2781047390494
 30
0.0000000000000000
 10
184.1404289610508
 20
286.5187575168943
 30
0.0000000000000000
 10
189.8846986838541
 20
288.7637861883254
 30
0.0000000000000000
 10
192.6585336056997
 20
286.5528334201559
 30
0.0000000000000000
 10
194.2573397899707
 20
285.2784659619336
 30
0.0000000000000000
  0
LINE
  5
142
100
AcDbEntity
  8
MAIN0
  6
CONTINUOUS
 62
3
100
AcDbLine
 10
191.3567503621532
 20
238.2182628520745
 30
0.0000000000000000
 11
191.3567503621532
 21
240.4097627890779
 31
0.0000000000000000
  0
LINE
  5
143
100
AcDbEntity
  8
MAIN0
  6
CONTINUOUS
 62
3
100
AcDbLine
 10
186.3567503621531
 20
238.5837642362629
 30
0.0000000000000000
 11
186.3567503621531
 21
242.9097627890776
 31
0.0000000000000000
  0
LINE
  5
144
100
AcDbEntity
  8
MAIN0
  6
CONTINUOUS
 62
3
100
AcDbLine
 10
221.8569317186687
 20
239.4320288453772
 30
0.0000000000000000
 11
221.8569317186687
 21
245.9097627890776
 31
0.0000000000000000
  0
LINE
  5
145
100
AcDbEntity
  8
MAIN0
  6
CONTINUOUS
 62
3
100
AcDbLine
 10
221.8569317186688
 20
238.9333666877716
 30
0.0000000000000000
 11
221.8569317186688
 21
246.9097627890776
 31
0.0000000000000000
  0
LINE
  5
146
100
AcDbEntity
  8
MAIN0
  6
CONTINUOUS
 62
3
100
AcDbLine
 10
169.3567503621531
 20
180.4097627890774
 30
0.0000000000000000
 11
250.3567503621531
 21
180.4097627890775
 31
0.0000000000000000
  0
SPLINE
  5
147
100
AcDbEntity
  8
MAIN0
  6
CONTINUOUS
 62
3
100
AcDbSpline
210
0.0000000000000000
220
0.0000000000000000
230
1.000000000000000
 70
     8
 71
     3
 72
    17
 73
    13
 74
     0
 42
1.000000000000000e-007
 43
1.000000000000000e-007
 12
0.9138680972905604
 22
0.4239591924356887
 32
0.0000000000000000
 13
0.8129591375008545
 23
-0.5670058840595686
 33
0.0000000000000000
 40
0.0000000000000000
 40
0.0000000000000000
 40
0.0000000000000000
 40
0.0000000000000000
 40
5.863911276645933
 40
10.02323345708076
 40
14.10447586124982
 40
18.07923928823604
 40
22.30675015661792
 40
24.38640764080135
 40
37.29243650539334
 40
44.14048679671189
 40
49.63625092561211
 40
52.62555891402206
 40
52.62555891402206
 40
52.62555891402206
 40
52.62555891402206
 10
180.7418731680514
 20
236.4755949061496
 30
0.0000000000000000
 10
182.5281536484077
 20
237.3042812692701
 30
0.0000000000000000
 10
185.5814580777816
 20
238.7207619232895
 30
0.0000000000000000
 10
190.3874143138805
 20
239.0431219992997
 30
0.0000000000000000
 10
194.3746398531221
 20
236.4732137569945
 30
0.0000000000000000
 10
198.0561882504167
 20
240.7753808358414
 30
0.0000000000000000
 10
200.9558268401056
 20
237.0346918861840
 30
0.0000000000000000
 10
207.4997131758901
 20
237.9617872047998
 30
0.0000000000000000
 10
214.5484307813132
 20
237.6167721982648
 30
0.0000000000000000
 10
223.1764665486807
 20
240.3147537284386
 30
0.0000000000000000
 10
227.7333885518864
 20
237.3208463621363
 30
0.0000000000000000
 10
230.0327275219266
 20
235.7171510897414
 30
0.0000000000000000
 10
230.8427892699207
 20
235.1521660168432
 30
0.0000000000000000
  0
LINE
  5
148
100
AcDbEntity
  8
MAIN0
  6
CONTINUOUS
 62
3
100
AcDbLine
 10
273.6497503621531
 20
285.6097627890775
 30
0.0000000000000000
 11
283.6497503621531
 21
285.6097627890775
 31
0.0000000000000000
  0
DIMENSION
  5
150
100
AcDbEntity
  8
MAIN0
  6
CONTINUOUS
 62
3
100
AcDbDimension
  2
*D11
 10
158.3567503621531
 20
224.8034741900304
 30
0.0000000000000000
 11
164.0489051789200
 21
225.3034741900304
 31
0.0000000000000000
 70
160
  3
MAIN001
100
AcDbAlignedDimension
 13
173.3567503621531
 23
192.9097627890776
 33
0.0000000000000000
 14
158.3567503621531
 24
215.5197627890785
 34
0.0000000000000000
100
AcDbRotatedDimension
1001
ACAD
1000
DSTYLE
1002
{
1070
   173
1070
     1
1070
     6
1000
_OPEN
1070
     7
1000
_OPEN
1070
    41
1040
2.000000
1002
}
  0
DIMENSION
  5
15B
100
AcDbEntity
  8
MAIN0
  6
CONTINUOUS
 62
3
100
AcDbDimension
  2
*D12
 10
292.3071513076195
 20
285.6097627890775
 30
0.0000000000000000
 11
291.8071513076195
 21
287.6097627890773
 31
0.0000000000000000
 70
32
  3
MAIN001
100
AcDbAlignedDimension
 13
276.1497503621498
 23
289.6097627890770
 33
0.0000000000000000
 14
283.6497503621531
 24
285.6097627890775
 34
0.0000000000000000
 50
90.00000000000000
100
AcDbRotatedDimension
1001
ACAD
1000
DSTYLE
1002
{
1070
   173
1070
     1
1070
     6
1000
_OPEN
1070
     7
1000
_OPEN
1070
    41
1040
2.000000
1070
   287
1070
     0
1002
}
  0
DIMENSION
  5
164
100
AcDbEntity
  8
MAIN0
  6
CONTINUOUS
 62
3
100
AcDbDimension
  2
*D13
 10
283.6497503621580
 20
396.6760458684171
 30
0.0000000000000000
 11
272.1497503621556
 21
397.1760458684171
 31
0.0000000000000000
 70
32
  3
MAIN001
100
AcDbAlignedDimension
 13
260.6497503621531
 23
308.5833496984600
 33
0.0000000000000000
 14
283.6497503621580
 24
308.5833496984600
 34
0.0000000000000000
100
AcDbRotatedDimension
1001
ACAD
1000
DSTYLE
1002
{
1070
   173
1070
     1
1070
     6
1000
_OPEN
1070
     7
1000
_OPEN
1070
    41
1040
2.000000
1002
}
  0
DIMENSION
  5
16F
100
AcDbEntity
  8
MAIN0
  6
CONTINUOUS
 62
3
100
AcDbDimension
  2
*D14
 10
260.6497503621531
 20
396.6760458684171
 30
0.0000000000000000
 11
257.1497503621531
 21
397.1760458684171
 31
0.0000000000000000
 70
32
  3
MAIN001
100
AcDbAlignedDimension
 13
253.6497503621531
 23
309.8767408815429
 33
0.0000000000000000
 14
260.6497503621531
 24
308.5833496984600
 34
0.0000000000000000
100
AcDbRotatedDimension
1001
ACAD
1000
DSTYLE
1002
{
1070
   173
1070
     1
1070
     6
1000
_OPEN
1070
     7
1000
_OPEN
1070
    41
1040
2.000000
1070
   287
1070
     0
1002
}
  0
DIMENSION
  5
178
100
AcDbEntity
  8
MAIN0
  6
CONTINUOUS
 62
3
100
AcDbDimension
  2
*D15
 10
283.6497503621580
 20
386.3591444227718
 30
0.0000000000000000
 11
277.1497503621556
 21
386.8591444227718
 31
0.0000000000000000
 70
32
  3
MAIN001
100
AcDbAlignedDimension
 13
270.6497503621531
 23
331.5011623380246
 33
0.0000000000000000
 14
283.6497503621580
 24
308.5833496984600
 34
0.0000000000000000
100
AcDbRotatedDimension
1001
ACAD
1000
DSTYLE
1002
{
1070
   173
1070
     1
1070
     6
1000
_OPEN
1070
     7
1000
_OPEN
1070
    41
1040
2.000000
1002
}
  0
DIMENSION
  5
181
100
AcDbEntity
  8
MAIN0
  6
CONTINUOUS
 62
3
100
AcDbDimension
  2
*D16
 10
251.3567503621531
 20
147.3708489432940
 30
0.0000000000000000
 11
242.3567503621528
 21
147.8708489432940
 31
0.0000000000000000
 70
32
  3
MAIN001
100
AcDbAlignedDimension
 13
233.3567503621526
 23
202.0197627890785
 33
0.0000000000000000
 14
251.3567503621531
 24
181.4097627890776
 34
0.0000000000000000
100
AcDbRotatedDimension
1001
ACAD
1000
DSTYLE
1002
{
1070
   173
1070
     1
1070
     6
1000
_OPEN
1070
     7
1000
_OPEN
1070
    41
1040
2.000000
1002
}
  0
LINE
  5
182
100
AcDbEntity
  8
MAIN0
  6
CONTINUOUS
 62
3
100
AcDbLine
 10
251.3567503621531
 20
181.4097627890776
 30
0.0000000000000000
 11
251.3567503621531
 21
240.9097627890776
 31
0.0000000000000000
  0
LINE
  5
183
100
AcDbEntity
  8
MAIN0
  6
CONTINUOUS
 62
3
100
AcDbLine
 10
257.2323947089836
 20
242.9097627890776
 30
0.0000000000000000
 11
282.3908245358637
 21
249.6509437439767
 31
0.0000000000000000
  0
LINE
  5
184
100
AcDbEntity
  8
MAIN0
  6
CONTINUOUS
 62
3
100
AcDbLine
 10
253.3567503621531
 20
242.9097627890776
 30
0.0000000000000000
 11
257.2323947089836
 21
242.9097627890776
 31
0.0000000000000000
  0
LINE
  5
185
100
AcDbEntity
  8
MAIN0
  6
CENTER
 62
3
100
AcDbLine
 10
240.3567503621531
 20
174.7660091776673
 30
0.0000000000000000
 11
240.3567503621531
 21
248.7505500098497
 31
0.0000000000000000
  0
LINE
  5
186
100
AcDbEntity
  8
MAIN0
  6
CONTINUOUS
 62
3
100
AcDbLine
 10
215.8569317186688
 20
238.4117528085077
 30
0.0000000000000000
 11
215.8569317186688
 21
244.9097627890776
 31
0.0000000000000000
  0
LINE
  5
187
100
AcDbEntity
  8
MAIN0
  6
CONTINUOUS
 62
3
100
AcDbLine
 10
215.8569317186688
 20
280.9097627890776
 30
0.0000000000000000
 11
215.8569317186688
 21
282.5882295051763
 31
0.0000000000000000
  0
LINE
  5
188
100
AcDbEntity
  8
MAIN0
  6
CONTINUOUS
 62
3
100
AcDbLine
 10
168.3567503621531
 20
181.4097627890775
 30
0.0000000000000000
 11
168.3567503621531
 21
205.5197627890785
 31
0.0000000000000000
  0
LINE
  5
189
100
AcDbEntity
  8
MAIN0
  6
CONTINUOUS
 62
3
100
AcDbLine
 10
168.3567503621531
 20
215.5197627890785
 30
0.0000000000000000
 11
168.3567503621531
 21
242.9097627890776
 31
0.0000000000000000
  0
LINE
  5
18A
100
AcDbEntity
  8
MAIN0
  6
CONTINUOUS
 62
3
100
AcDbLine
 10
175.3567503621531
 20
285.4097627890776
 30
0.0000000000000000
 11
179.3567503621531
 21
285.4097627890776
 31
0.0000000000000000
  0
LINE
  5
18B
100
AcDbEntity
  8
MAIN0
  6
CONTINUOUS
 62
3
100
AcDbLine
 10
175.3567503621531
 20
282.9097627890776
 30
0.0000000000000000
 11
175.3567503621531
 21
285.4097627890776
 31
0.0000000000000000
  0
LINE
  5
18C
100
AcDbEntity
  8
MAIN0
  6
CONTINUOUS
 62
3
100
AcDbLine
 10
179.3567503621531
 20
282.9097627890776
 30
0.0000000000000000
 11
179.3567503621531
 21
285.4097627890776
 31
0.0000000000000000
  0
ELLIPSE
  5
18D
100
AcDbEntity
  8
MAIN0
  6
CONTINUOUS
 62
3
100
AcDbEllipse
 10
177.3567503621531
 20
284.1597627890776
 30
0.0000000000000000
 11
-2.000000000000000
 21
0.0000000000000000
 31
0.0000000000000000
210
0.0000000000000000
220
0.0000000000000000
230
1.000000000000000
 40
0.6250000000000000
 41
0.0000000000000000
 42
6.283185307179586
  0
LINE
  5
18E
100
AcDbEntity
  8
MAIN0
  6
CONTINUOUS
 62
3
100
AcDbLine
 10
175.3567503621531
 20
240.4097627890776
 30
0.0000000000000000
 11
179.3567503621531
 21
240.4097627890776
 31
0.0000000000000000
  0
LINE
  5
18F
100
AcDbEntity
  8
MAIN0
  6
CONTINUOUS
 62
3
100
AcDbLine
 10
175.3567503621531
 20
242.9097627890776
 30
0.0000000000000000
 11
175.3567503621531
 21
240.4097627890776
 31
0.0000000000000000
  0
LINE
  5
190
100
AcDbEntity
  8
MAIN0
  6
CONTINUOUS
 62
3
100
AcDbLine
 10
179.3567503621531
 20
242.9097627890776
 30
0.0000000000000000
 11
179.3567503621531
 21
240.4097627890776
 31
0.0000000000000000
  0
ELLIPSE
  5
191
100
AcDbEntity
  8
MAIN0
  6
CONTINUOUS
 62
3
100
AcDbEllipse
 10
177.3567503621531
 20
241.6597627890776
 30
0.0000000000000000
 11
2.000000000000000
 21
0.0000000000000000
 31
0.0000000000000000
210
0.0000000000000000
220
0.0000000000000000
230
1.000000000000000
 40
0.6250000000000000
 41
0.0000000000000000
 42
6.283185307179586
  0
LINE
  5
192
100
AcDbEntity
  8
MAIN0
  6
CENTER
 62
3
100
AcDbLine
 10
94.95534955666238
 20
262.9097627890776
 30
0.0000000000000000
 11
314.5180355246748
 21
262.9097627890776
 31
0.0000000000000000
  0
DIMENSION
  5
19B
100
AcDbEntity
  8
MAIN0
  6
CONTINUOUS
 62
3
100
AcDbDimension
  2
*D17
 10
326.7672862824144
 20
262.9097627890776
 30
0.0000000000000000
 11
326.2672862824144
 21
285.7597627890776
 31
0.0000000000000000
 70
32
  1
\A1;MAX 46.9
  3
MAIN001
100
AcDbAlignedDimension
 13
283.6497503621531
 23
308.6097627890775
 33
0.0000000000000000
 14
314.5180355246748
 24
262.9097627890776
 34
0.0000000000000000
 50
90.00000000000000
100
AcDbRotatedDimension
1001
ACAD
1000
DSTYLE
1002
{
1070
   173
1070
     1
1070
     6
1000
_OPEN
1070
     7
1000
_OPEN
1070
    41
1040
2.000000
1002
}
  0
LINE
  5
19C
100
AcDbEntity
  8
MAIN0
  6
CONTINUOUS
 62
3
100
AcDbLine
 10
253.6497503621531
 20
307.4097627890776
 30
0.0000000000000000
 11
260.6497503621531
 21
307.4097627890776
 31
0.0000000000000000
  0
LINE
  5
19D
100
AcDbEntity
  8
MAIN0
  6
PHANTOM
 62
3
100
AcDbLine
 10
288.3567503621531
 20
293.1952812244285
 30
0.0000000000000000
 11
288.3567503621531
 21
308.5833496984600
 31
0.0000000000000000
  0
SPLINE
  5
19E
100
AcDbEntity
  8
MAIN0
  6
CONTINUOUS
 62
3
100
AcDbSpline
210
0.0000000000000000
220
0.0000000000000000
230
1.000000000000000
 70
     8
 71
     3
 72
    10
 73
     6
 74
     0
 42
1.000000000000000e-007
 43
1.000000000000000e-007
 12
0.9297152727136222
 22
-0.2241824837570761
 32
0.0000000000000000
 13
0.5299946626424230
 23
0.9417389563411120
 33
0.0000000000000000
 40
0.0000000000000000
 40
0.0000000000000000
 40
0.0000000000000000
 40
0.0000000000000000
 40
7.169380458003463
 40
13.16938045800338
 40
16.76210367361410
 40
16.76210367361410
 40
16.76210367361410
 40
16.76210367361410
 10
208.8789876917245
 20
284.2339248926750
 30
0.0000000000000000
 10
211.1008151942913
 20
283.6981750533167
 30
0.0000000000000000
 10
215.1820732422853
 20
282.7140602464443
 30
0.0000000000000000
 10
221.7186561296390
 20
281.2963576038366
 30
0.0000000000000000
 10
223.4133534977990
 20
284.3076379870160
 30
0.0000000000000000
 10
224.0480615406741
 20
285.4354404575132
 30
0.0000000000000000
  0
LINE
  5
19F
100
AcDbEntity
  8
MAIN0
  6
CONTINUOUS
 62
3
100
AcDbLine
 10
234.3568575449294
 20
277.4097627890776
 30
0.0000000000000000
 11
234.8568575449581
 21
277.4097627890776
 31
0.0000000000000000
  0
LINE
  5
1A0
100
AcDbEntity
  8
MAIN0
  6
CONTINUOUS
 62
3
100
AcDbLine
 10
233.4908321411444
 20
277.9097627890776
 30
0.0000000000000000
 11
234.3568575449295
 21
277.4097627890776
 31
0.0000000000000000
  0
LINE
  5
1A1
100
AcDbEntity
  8
MAIN0
  6
CONTINUOUS
 62
3
100
AcDbLine
 10
234.8568575449287
 20
277.4097627890776
 30
0.0000000000000000
 11
235.8568575449580
 21
276.8324125198714
 31
0.0000000000000000
  0
LINE
  5
1A2
100
AcDbEntity
  8
MAIN0
  6
CONTINUOUS
 62
3
100
AcDbLine
 10
234.3568575449294
 20
248.4097627890776
 30
0.0000000000000000
 11
234.8568575449581
 21
248.4097627890776
 31
0.0000000000000000
  0
LINE
  5
1A3
100
AcDbEntity
  8
MAIN0
  6
CONTINUOUS
 62
3
100
AcDbLine
 10
233.4908321411444
 20
247.9097627890775
 30
0.0000000000000000
 11
234.3568575449295
 21
248.4097627890776
 31
0.0000000000000000
  0
LINE
  5
1A4
100
AcDbEntity
  8
MAIN0
  6
CONTINUOUS
 62
3
100
AcDbLine
 10
234.8568575449288
 20
248.4097627890776
 30
0.0000000000000000
 11
235.8568575449580
 21
248.9871130582837
 31
0.0000000000000000
  0
CIRCLE
  5
1A5
100
AcDbEntity
  8
MAIN0
  6
CONTINUOUS
 62
3
100
AcDbCircle
 10
437.2739198021212
 20
262.9097627890776
 30
0.0000000000000000
 40
6.000000000000000
  0
CIRCLE
  5
1A6
100
AcDbEntity
  8
MAIN0
  6
CONTINUOUS
 62
3
100
AcDbCircle
 10
437.2739198021212
 20
262.9097627890776
 30
0.0000000000000000
 40
5.052784500000000
  0
LINE
  5
1A7
100
AcDbEntity
  8
MAIN0
  6
CONTINUOUS
 62
3
100
AcDbLine
 10
437.2739198021212
 20
266.3738644042153
 30
0.0000000000000000
 11
434.2739198021212
 21
264.6418135966464
 31
0.0000000000000000
  0
LINE
  5
1A8
100
AcDbEntity
  8
MAIN0
  6
CONTINUOUS
 62
3
100
AcDbLine
 10
434.2739198021212
 20
264.6418135966464
 30
0.0000000000000000
 11
434.2739198021212
 21
261.1777119815087
 31
0.0000000000000000
  0
LINE
  5
1A9
100
AcDbEntity
  8
MAIN0
  6
CONTINUOUS
 62
3
100
AcDbLine
 10
434.2739198021212
 20
261.1777119815087
 30
0.0000000000000000
 11
437.2739198021212
 21
259.4456611739398
 31
0.0000000000000000
  0
LINE
  5
1AA
100
AcDbEntity
  8
MAIN0
  6
CONTINUOUS
 62
3
100
AcDbLine
 10
437.2739198021212
 20
259.4456611739398
 30
0.0000000000000000
 11
440.2739198021212
 21
261.1777119815088
 31
0.0000000000000000
  0
LINE
  5
1AB
100
AcDbEntity
  8
MAIN0
  6
CONTINUOUS
 62
3
100
AcDbLine
 10
440.2739198021212
 20
261.1777119815087
 30
0.0000000000000000
 11
440.2739198021212
 21
264.6418135966464
 31
0.0000000000000000
  0
LINE
  5
1AC
100
AcDbEntity
  8
MAIN0
  6
CONTINUOUS
 62
3
100
AcDbLine
 10
440.2739198021212
 20
264.6418135966464
 30
0.0000000000000000
 11
437.2739198021212
 21
266.3738644042153
 31
0.0000000000000000
  0
LINE
  5
1AD
100
AcDbEntity
  8
MAIN0
  6
CONTINUOUS
 62
3
100
AcDbLine
 10
421.7739198021214
 20
308.5834416959155
 30
0.0000000000000000
 11
452.7739198021214
 21
308.5834416959155
 31
0.0000000000000000
  0
LINE
  5
1AE
100
AcDbEntity
  8
MAIN0
  6
CONTINUOUS
 62
3
100
AcDbLine
 10
484.5784860197364
 20
253.4963170943173
 30
0.0000000000000000
 11
469.0784860197364
 21
226.6495295769997
 31
0.0000000000000000
  0
LINE
  5
1AF
100
AcDbEntity
  8
MAIN0
  6
CONTINUOUS
 62
3
100
AcDbLine
 10
141.8568575449580
 20
280.9097627890776
 30
0.0000000000000000
 11
164.4568575449580
 21
280.9097627890776
 31
0.0000000000000000
  0
LINE
  5
1B0
100
AcDbEntity
  8
MAIN0
  6
CONTINUOUS
 62
3
100
AcDbLine
 10
156.1802750449581
 20
279.7003878775845
 30
0.0000000000000000
 11
156.1802750449580
 21
280.9097627890776
 31
0.0000000000000000
  0
LINE
  5
1B1
100
AcDbEntity
  8
MAIN0
  6
CONTINUOUS
 62
3
100
AcDbLine
 10
156.8568575449581
 20
279.3097627890805
 30
0.0000000000000000
 11
156.8568575449580
 21
280.9097627890776
 31
0.0000000000000000
  0
LINE
  5
1B2
100
AcDbEntity
  8
MAIN0
  6
CONTINUOUS
 62
3
100
AcDbLine
 10
149.5334400449580
 20
279.7003878775846
 30
0.0000000000000000
 11
149.5334400449580
 21
280.9097627890776
 31
0.0000000000000000
  0
LINE
  5
1B3
100
AcDbEntity
  8
MAIN0
  6
CONTINUOUS
 62
3
100
AcDbLine
 10
148.8568575449581
 20
279.3097627890806
 30
0.0000000000000000
 11
148.8568575449581
 21
280.9097627890776
 31
0.0000000000000000
  0
LEADER
  5
1B4
100
AcDbEntity
  8
MAIN0
  6
CONTINUOUS
 62
3
100
AcDbLeader
  3
MAIN001
 73
     0
 75
     1
 40
3.099999904632568
 41
7.989000247955318
 76
     3
 10
135.0021015791313
 20
253.9097627890820
 30
0.0000000000000000
 10
114.7581376143305
 20
208.7126739704785
 30
0.0000000000000000
 10
112.8311376701205
 20
208.7126739704784
 30
0.0000000000000000
340
1B5
213
0.0000000000000000
223
-0.5000000000000000
233
0.0000000000000000
1001
ACAD
1000
DSTYLE
1002
{
1070
   147
1040
0.0
1070
    77
1070
     1
1070
   173
1070
     1
1070
     6
1000
_OPEN
1070
     7
1000
_OPEN
1002
}
  0
MTEXT
  5
1B5
102
{ACAD_REACTORS
330
1B4
102
}
100
AcDbEntity
  8
MAIN0
  6
CONTINUOUS
 62
3
100
AcDbMText
 10
104.8421374221652
 20
212.3126738751110
 30
0.0000000000000000
 40
3.099999904632568
 41
0.0000000000000000
 71
     1
 72
     1
  1
{\H0.90x;{M18}}
 11
1.000000000000000
 21
0.0000000000000000
 31
0.0000000000000000
  7
STANDARD
  0
LEADER
  5
1B6
100
AcDbEntity
  8
MAIN0
  6
CONTINUOUS
 62
3
100
AcDbLeader
  3
MAIN001
 73
     0
 75
     1
 40
3.099999904632568
 41
7.989000247955346
 76
     3
 10
162.3542608630605
 20
205.5197627890832
 30
0.0000000000000000
 10
153.0073452458281
 20
170.4872793317302
 30
0.0000000000000000
 10
151.0803453016180
 20
170.4872793317302
 30
0.0000000000000000
340
1B7
213
0.0000000000000000
223
-0.5000000000000000
233
0.0000000000000000
1001
ACAD
1000
DSTYLE
1002
{
1070
   147
1040
0.0
1070
    77
1070
     1
1070
   173
1070
     1
1070
     6
1000
_OPEN
1070
     7
1000
_OPEN
1002
}
  0
MTEXT
  5
1B7
102
{ACAD_REACTORS
330
1B6
102
}
100
AcDbEntity
  8
MAIN0
  6
CONTINUOUS
 62
3
100
AcDbMText
 10
143.0913450536627
 20
174.0872792363628
 30
0.0000000000000000
 40
3.099999904632568
 41
0.0000000000000000
 71
     1
 72
     1
  1
{\H0.90x;{M10}}
 11
1.000000000000000
 21
0.0000000000000000
 31
0.0000000000000000
  7
STANDARD
  0
LEADER
  5
1B8
100
AcDbEntity
  8
MAIN0
  6
CONTINUOUS
 62
3
100
AcDbLeader
  3
MAIN001
 73
     0
 74
     0
 75
     1
 40
3.099999904632568
 41
30.31100089645383
 76
     3
 10
258.6356423633391
 20
302.9097627890778
 30
0.0000000000000000
 10
296.3239477885208
 20
366.2884465076939
 30
0.0000000000000000
 10
298.2489477327309
 20
366.2884465076939
 30
0.0000000000000000
340
1B9
213
0.0000000000000000
223
-0.5000000000000000
233
0.0000000000000000
1001
ACAD
1000
DSTYLE
1002
{
1070
   147
1040
0.0
1070
    77
1070
     1
1070
   173
1070
     1
1070
     6
1000
_OPEN
1070
     7
1000
_OPEN
1002
}
  0
MTEXT
  5
1B9
102
{ACAD_REACTORS
330
1B8
102
}
100
AcDbEntity
  8
MAIN0
  6
CONTINUOUS
 62
3
100
AcDbMText
 10
298.2499477327309
 20
369.8884464123265
 30
0.0000000000000000
 40
3.099999904632568
 41
0.0000000000000000
 71
     1
 72
     1
  1
{\H0.93x;{M6 深さ12\PM6 DEPTH 12}}
 11
1.000000000000000
 21
0.0000000000000000
 31
0.0000000000000000
  7
KNJYOKO
  0
LEADER
  5
1BA
100
AcDbEntity
  8
MAIN0
  6
CONTINUOUS
 62
3
100
AcDbLeader
  3
MAIN001
 73
     0
 74
     0
 75
     1
 40
3.099999904632568
 41
86.80100251531599
 76
     3
 10
278.4833274195626
 20
291.1348315020436
 30
0.0000000000000000
 10
299.2064754265488
 20
350.9523965951307
 30
0.0000000000000000
 10
301.1314753707588
 20
350.9523965951307
 30
0.0000000000000000
340
1BB
213
0.0000000000000000
223
-0.5000000000000000
233
0.0000000000000000
1001
ACAD
1000
DSTYLE
1002
{
1070
   147
1040
0.0
1070
    77
1070
     1
1070
   173
1070
     1
1070
     6
1000
_OPEN
1070
     7
1000
_OPEN
1002
}
  0
MTEXT
  5
1BB
102
{ACAD_REACTORS
330
1BA
102
}
100
AcDbEntity
  8
MAIN0
  6
CONTINUOUS
 62
3
100
AcDbMText
 10
301.1324753707588
 20
354.5523964997633
 30
0.0000000000000000
 40
3.099999904632568
 41
0.0000000000000000
 71
     1
 72
     1
  1
{\H0.94x;{Ｂアナツキ　M6×12\PHEX SOCKET HEAD CAP SCREW M6×12}}
 11
1.000000000000000
 21
0.0000000000000000
 31
0.0000000000000000
  7
KNJYOKO
  0
LEADER
  5
1BC
100
AcDbEntity
  8
MAIN0
  6
CONTINUOUS
 62
3
100
AcDbLeader
  3
MAIN001
 73
     0
 75
     1
 40
3.099999904632568
 41
42.15900121831896
 76
     3
 10
383.2107576145427
 20
313.7486164734365
 30
0.0000000000000000
 10
373.0463000291168
 20
335.5331365420566
 30
0.0000000000000000
 10
371.1193000849068
 20
335.5331365420566
 30
0.0000000000000000
340
1BD
213
0.0000000000000000
223
-0.5000000000000000
233
0.0000000000000000
1001
ACAD
1000
DSTYLE
1002
{
1070
   147
1040
0.0
1070
    77
1070
     1
1070
   173
1070
     1
1070
     6
1000
_OPEN
1070
     7
1000
_OPEN
1002
}
  0
MTEXT
  5
1BD
102
{ACAD_REACTORS
330
1BC
102
}
100
AcDbEntity
  8
MAIN0
  6
CONTINUOUS
 62
3
100
AcDbMText
 10
328.9602988665878
 20
339.1331364466892
 30
0.0000000000000000
 40
3.099999904632568
 41
0.0000000000000000
 71
     1
 72
     1
  1
{\H0.93x;{3×4-M6 ネジ深11\P3×4-M6 DEPTH 11}}
 11
1.000000000000000
 21
0.0000000000000000
 31
0.0000000000000000
  7
KNJYOKO
  0
LEADER
  5
1BE
100
AcDbEntity
  8
MAIN0
  6
CONTINUOUS
 62
3
100
AcDbLeader
  3
MAIN001
 73
     0
 75
     1
 40
3.099999904632568
 41
35.88900105857852
 76
     3
 10
434.9791350189834
 20
329.8421092381073
 30
0.0000000000000000
 10
383.4153524726444
 20
373.2619073970035
 30
0.0000000000000000
 10
381.4883525284344
 20
373.2619073970035
 30
0.0000000000000000
340
1BF
213
0.0000000000000000
223
-0.5000000000000000
233
0.0000000000000000
1001
ACAD
1000
DSTYLE
1002
{
1070
   147
1040
0.0
1070
    77
1070
     1
1070
   173
1070
     1
1070
     6
1000
_OPEN
1070
     7
1000
_OPEN
1002
}
  0
MTEXT
  5
1BF
102
{ACAD_REACTORS
330
1BE
102
}
100
AcDbEntity
  8
MAIN0
  6
CONTINUOUS
 62
3
100
AcDbMText
 10
345.5993514698559
 20
376.8619073016361
 30
0.0000000000000000
 40
3.099999904632568
 41
0.0000000000000000
 71
     1
 72
     1
  1
{\H0.93x;{3-M6 ネジ深11\P3-M6 DEPTH 11}}
 11
1.000000000000000
 21
0.0000000000000000
 31
0.0000000000000000
  7
KNJYOKO
  0
MTEXT
  5
1C0
100
AcDbEntity
  8
MAIN0
  6
CONTINUOUS
 62
3
100
AcDbMText
 10
439.2739198021214
 20
312.4097627885819
 30
0.0000000000000000
 40
4.000000000000000
 41
0.0000000000000000
 71
     1
 72
     1
  1
{\H0.84x;{３}}
 11
-1.000000000000000
 21
1.898821519314986e-015
 31
0.0000000000000000
  7
KNJYOKO
  0
MTEXT
  5
1C1
100
AcDbEntity
  8
MAIN0
  6
CONTINUOUS
 62
3
100
AcDbMText
 10
393.4056623152208
 20
239.8918135968944
 30
0.0000000000000000
 40
4.000000000000000
 41
0.0000000000000000
 71
     1
 72
     1
  1
{\H0.84x;{２}}
 11
0.4999999999999962
 21
-0.8660254037844408
 31
0.0000000000000000
  7
KNJYOKO
  0
MTEXT
  5
1C2
100
AcDbEntity
  8
MAIN0
  6
CONTINUOUS
 62
3
100
AcDbMText
 10
479.2921772890230
 20
236.6875196028912
 30
0.0000000000000000
 40
4.000000000000000
 41
0.0000000000000000
 71
     1
 72
     1
  1
{\H0.84x;{１}}
 11
0.4999999999999999
 21
0.8660254037844387
 31
0.0000000000000000
  7
KNJYOKO
  0
LINE
  5
1C3
100
AcDbEntity
  8
MAIN0
  6
CENTER
 62
3
100
AcDbLine
 10
437.2739198021213
 20
149.2700421933162
 30
0.0000000000000000
 11
437.2739198021214
 21
310.9097627885819
 31
0.0000000000000000
  0
MTEXT
  5
1C4
100
AcDbEntity
  8
MAIN0
  6
CONTINUOUS
 62
3
100
AcDbMText
 10
475.9053170110561
 20
219.8213055203322
 30
0.0000000000000000
 40
4.500000000000000
 41
0.0000000000000000
 71
     5
 72
     1
  1
{\H0.70x;{KITAGAWA}}
 11
0.5000000000006618
 21
0.8660254037840566
 31
0.0000000000000000
  7
STANDARD
  0
MTEXT
  5
1C5
100
AcDbEntity
  8
MAIN0
  6
CONTINUOUS
 62
4
100
AcDbMText
 10
481.7844821356995
 20
217.0043182223068
 30
0.0000000000000000
 40
4.000000000000000
 41
0.0000000000000000
 71
     5
 72
     1
  1
{\H0.78x;{JAPAN}}
 11
0.5000000000001511
 21
0.8660254037843514
 31
0.0000000000000000
  7
STANDARD
  0
LINE
  5
1C6
100
AcDbEntity
  8
MAIN0
  6
CONTINUOUS
 62
3
100
AcDbLine
 10
265.6497503621531
 20
285.6097627890775
 30
0.0000000000000000
 11
267.6497503621531
 21
285.6097627890775
 31
0.0000000000000000
  0
ARC
  5
1C7
100
AcDbEntity
  8
MAIN0
  6
CONTINUOUS
 62
3
100
AcDbCircle
 10
265.1497503621531
 20
290.3097627890776
 30
0.0000000000000000
 40
5.000000000000000
100
AcDbArc
 50
154.1580672368326
 51
289.9484435888027
  0
DIMENSION
  5
1D0
100
AcDbEntity
  8
MAIN0
  6
CONTINUOUS
 62
3
100
AcDbDimension
  2
*D18
 10
305.3313271712846
 20
285.6097627890775
 30
0.0000000000000000
 11
304.8313271712846
 21
292.6097627890776
 31
0.0000000000000000
 70
32
  3
MAIN001
100
AcDbAlignedDimension
 13
262.5779550581195
 23
299.6097627890776
 33
0.0000000000000000
 14
283.6497503621531
 24
285.6097627890775
 34
0.0000000000000000
 50
90.00000000000000
100
AcDbRotatedDimension
1001
ACAD
1000
DSTYLE
1002
{
1070
   173
1070
     1
1070
     6
1000
_OPEN
1070
     7
1000
_OPEN
1070
    41
1040
2.000000
1002
}
  0
INSERT
  5
1D8
100
AcDbEntity
  8
MAIN0
  6
CONTINUOUS
 62
3
100
AcDbBlockReference
  2
D19
 10
314.5180355246748
 20
262.9097627890776
 30
0.0000000000000000
 50
0.0000000000000000
  0
INSERT
  5
1E0
100
AcDbEntity
  8
MAIN0
  6
CONTINUOUS
 62
3
100
AcDbBlockReference
  2
D20
 10
314.5180355246748
 20
262.9097627890776
 30
0.0000000000000000
 50
0.0000000000000000
  0
INSERT
  5
1E8
100
AcDbEntity
  8
MAIN0
  6
CONTINUOUS
 62
3
100
AcDbBlockReference
  2
D21
 10
314.5180355246748
 20
262.9097627890776
 30
0.0000000000000000
 50
0.0000000000000000
  0
DIMENSION
  5
1F1
100
AcDbEntity
  8
MAIN0
  6
CONTINUOUS
 62
3
100
AcDbDimension
  2
*D22
 10
326.7672862824144
 20
308.6097627890775
 30
0.0000000000000000
 11
330.3802961769380
 21
285.8437760570688
 31
0.0000000000000000
 70
160
  1
\A1;MIN 44.5
  3
MAIN001
100
AcDbAlignedDimension
 13
314.5180355246748
 23
262.9097627890776
 33
0.0000000000000000
 14
283.6497503621531
 24
308.6097627890775
 34
0.0000000000000000
 50
90.00000000000000
100
AcDbRotatedDimension
1001
ACAD
1000
DSTYLE
1002
{
1070
   173
1070
     1
1070
     6
1000
_OPEN
1070
     7
1000
_OPEN
1070
    41
1040
2.000000
1002
}
  0
MTEXT
  5
1F2
100
AcDbEntity
  8
MAIN0
  6
CONTINUOUS
 62
3
100
AcDbMText
 10
148.3871966679632
 20
94.63435632898825
 30
0.0000000000000000
 40
6.000000000000000
 41
0.0000000000000000
 71
     1
 72
     1
  1
{\H0.92x;{把握範囲}}
 11
1.000000000000000
 21
0.0000000000000000
 31
0.0000000000000000
  7
KNJYOKO
  0
LINE
  5
1F3
100
AcDbEntity
  8
MAIN0
  6
CONTINUOUS
 62
3
100
AcDbLine
 10
59.45083949184945
 20
70.76312599338871
 30
0.0000000000000000
 11
59.45083949185172
 21
162.7631259939238
 31
0.0000000000000000
  0
LINE
  5
1F4
100
AcDbEntity
  8
MAIN0
  6
CONTINUOUS
 62
3
100
AcDbLine
 10
106.4508394918517
 20
70.76312599324137
 30
0.0000000000000000
 11
106.4508394918517
 21
152.7631259939240
 31
0.0000000000000000
  0
LINE
  5
1F5
100
AcDbEntity
  8
MAIN0
  6
CONTINUOUS
 62
3
100
AcDbLine
 10
136.4508394918497
 20
70.76312599314747
 30
0.0000000000000000
 11
136.4508394918519
 21
162.7631259939241
 31
0.0000000000000000
  0
LINE
  5
1F6
100
AcDbEntity
  8
MAIN0
  6
CONTINUOUS
 62
3
100
AcDbLine
 10
136.4508394918522
 20
162.7631259939240
 30
0.0000000000000000
 11
59.45083949185172
 21
162.7631259939240
 31
0.0000000000000000
  0
LINE
  5
1F7
100
AcDbEntity
  8
MAIN0
  6
CONTINUOUS
 62
3
100
AcDbLine
 10
136.4508394918520
 20
152.7631259939240
 30
0.0000000000000000
 11
59.45083949185138
 21
152.7631259939240
 31
0.0000000000000000
  0
LINE
  5
1F8
100
AcDbEntity
  8
MAIN0
  6
CONTINUOUS
 62
3
100
AcDbLine
 10
136.4508394918517
 20
145.7631259939240
 30
0.0000000000000000
 11
59.45083949185127
 21
145.7631259939240
 31
0.0000000000000000
  0
LINE
  5
1F9
100
AcDbEntity
  8
MAIN0
  6
CONTINUOUS
 62
3
100
AcDbLine
 10
136.4508394918516
 20
138.7631259933810
 30
0.0000000000000000
 11
59.45083949185121
 21
138.7631259932603
 31
0.0000000000000000
  0
LINE
  5
1FA
100
AcDbEntity
  8
MAIN0
  6
CONTINUOUS
 62
3
100
AcDbLine
 10
136.4508394918511
 20
128.7631259926043
 30
0.0000000000000000
 11
59.45083949185076
 21
128.7631259927250
 31
0.0000000000000000
  0
LINE
  5
1FB
100
AcDbEntity
  8
MAIN0
  6
CONTINUOUS
 62
3
100
AcDbLine
 10
136.4508394918510
 20
118.7631259939240
 30
0.0000000000000000
 11
59.45083949185059
 21
118.7631259939240
 31
0.0000000000000000
  0
LINE
  5
1FC
100
AcDbEntity
  8
MAIN0
  6
CONTINUOUS
 62
3
100
AcDbLine
 10
136.4508394918508
 20
111.7631259939240
 30
0.0000000000000000
 11
59.45083949185047
 21
111.7631259939240
 31
0.0000000000000000
  0
LINE
  5
1FD
100
AcDbEntity
  8
MAIN0
  6
CONTINUOUS
 62
3
100
AcDbLine
 10
136.4508394918506
 20
104.7631259920613
 30
0.0000000000000000
 11
59.45083949185025
 21
104.7631259920613
 31
0.0000000000000000
  0
LINE
  5
1FE
100
AcDbEntity
  8
MAIN0
  6
CONTINUOUS
 62
3
100
AcDbLine
 10
136.4508394918506
 20
97.76312599392395
 30
0.0000000000000000
 11
59.45083949185013
 21
97.76312599392395
 31
0.0000000000000000
  0
LINE
  5
1FF
100
AcDbEntity
  8
MAIN0
  6
CONTINUOUS
 62
3
100
AcDbLine
 10
136.4508394918501
 20
87.76312599206131
 30
0.0000000000000000
 11
59.45083949184991
 21
87.76312599206131
 31
0.0000000000000000
  0
LINE
  5
200
100
AcDbEntity
  8
MAIN0
  6
CONTINUOUS
 62
3
100
AcDbLine
 10
136.4508394918501
 20
80.76312599392395
 30
0.0000000000000000
 11
59.45083949184968
 21
80.76312599392395
 31
0.0000000000000000
  0
LINE
  5
201
100
AcDbEntity
  8
MAIN0
  6
CONTINUOUS
 62
3
100
AcDbLine
 10
136.4508394918499
 20
70.76312599314736
 30
0.0000000000000000
 11
59.45083949184931
 21
70.76312599338883
 31
0.0000000000000000
  0
MTEXT
  5
202
100
AcDbEntity
  8
MAIN0
  6
CONTINUOUS
 62
3
100
AcDbMText
 10
76.51908709879737
 20
161.1232505462390
 30
0.0000000000000000
 40
3.100000381469727
 41
0.0000000000000000
 71
     1
 72
     1
  1
{\H0.94x;{SPECIFICATIONS}}
 11
1.000000000000000
 21
0.0000000000000000
 31
0.0000000000000000
  7
STANDARD
  0
MTEXT
  5
203
100
AcDbEntity
  8
MAIN0
  6
CONTINUOUS
 62
3
100
AcDbMText
 10
86.32228018782084
 20
157.0787150387707
 30
0.0000000000000000
 40
3.100000381469727
 41
0.0000000000000000
 71
     1
 72
     1
  1
{\H0.93x;{仕　　　様}}
 11
1.000000000000000
 21
0.0000000000000000
 31
0.0000000000000000
  7
KNJYOKO
  0
MTEXT
  5
204
100
AcDbEntity
  8
MAIN0
  6
CONTINUOUS
 62
3
100
AcDbMText
 10
62.52434794596681
 20
152.1264198814606
 30
0.0000000000000000
 40
2.499999046325684
 41
0.0000000000000000
 71
     1
 72
     1
  1
{\H0.75x;{PLUNGER STROKE}}
 11
1.000000000000000
 21
0.0000000000000000
 31
0.0000000000000000
  7
STANDARD
  0
MTEXT
  5
205
100
AcDbEntity
  8
MAIN0
  6
CONTINUOUS
 62
3
100
AcDbMText
 10
62.52434794596681
 20
149.0264204536652
 30
0.0000000000000000
 40
2.399999618530273
 41
0.0000000000000000
 71
     1
 72
     1
  1
{\H0.93x;{プランジャストロ－ク}}
 11
1.000000000000000
 21
0.0000000000000000
 31
0.0000000000000000
  7
KNJYOKO
  0
MTEXT
  5
206
100
AcDbEntity
  8
MAIN0
  6
CONTINUOUS
 62
3
100
AcDbMText
 10
62.52434794596681
 20
145.1264198814607
 30
0.0000000000000000
 40
2.499999046325684
 41
0.0000000000000000
 71
     1
 72
     1
  1
{\H0.75x;{JAW STROKE (IN DIA)}}
 11
1.000000000000000
 21
0.0000000000000000
 31
0.0000000000000000
  7
STANDARD
  0
MTEXT
  5
207
100
AcDbEntity
  8
MAIN0
  6
CONTINUOUS
 62
3
100
AcDbMText
 10
62.52434794596681
 20
142.0264204536653
 30
0.0000000000000000
 40
2.399999618530273
 41
0.0000000000000000
 71
     1
 72
     1
  1
{\H0.94x;{ジョーストローク(直径で)}}
 11
1.000000000000000
 21
0.0000000000000000
 31
0.0000000000000000
  7
KNJYOKO
  0
MTEXT
  5
208
100
AcDbEntity
  8
MAIN0
  6
CONTINUOUS
 62
3
100
AcDbMText
 10
62.52434794596681
 20
136.1264208351350
 30
0.0000000000000000
 40
2.500000000000000
 41
0.0000000000000000
 71
     1
 72
     1
  1
{\H0.63x;{MAX PERMISSIBLE INPUT FORCE}}
 11
1.000000000000000
 21
0.0000000000000000
 31
0.0000000000000000
  7
STANDARD
  0
MTEXT
  5
209
100
AcDbEntity
  8
MAIN0
  6
CONTINUOUS
 62
3
100
AcDbMText
 10
62.52434794596681
 20
133.0264204536653
 30
0.0000000000000000
 40
2.399999618530273
 41
0.0000000000000000
 71
     1
 72
     1
  1
{\H0.93x;{許容最大入力　}}
 11
1.000000000000000
 21
0.0000000000000000
 31
0.0000000000000000
  7
KNJYOKO
  0
MTEXT
  5
20A
100
AcDbEntity
  8
MAIN0
  6
CONTINUOUS
 62
3
100
AcDbMText
 10
62.52434794596647
 20
126.1264208345999
 30
0.0000000000000000
 40
2.500000000000000
 41
0.0000000000000000
 71
     1
 72
     1
  1
{\H0.63x;{MAX STATIC GRIPPING FORCE}}
 11
1.000000000000000
 21
0.0000000000000000
 31
0.0000000000000000
  7
STANDARD
  0
MTEXT
  5
20B
100
AcDbEntity
  8
MAIN0
  6
CONTINUOUS
 62
3
100
AcDbMText
 10
62.52434794596647
 20
123.0264204531302
 30
0.0000000000000000
 40
2.399999618530273
 41
0.0000000000000000
 71
     1
 72
     1
  1
{\H0.93x;{最大静的把握力　　}}
 11
1.000000000000000
 21
0.0000000000000000
 31
0.0000000000000000
  7
KNJYOKO
  0
MTEXT
  5
20C
100
AcDbEntity
  8
MAIN0
  6
CONTINUOUS
 62
3
100
AcDbMText
 10
62.52434794596681
 20
118.1264198814606
 30
0.0000000000000000
 40
2.499999046325684
 41
0.0000000000000000
 71
     1
 72
     1
  1
{\H0.75x;{MAX PERMISSIBLE SPEED}}
 11
1.000000000000000
 21
0.0000000000000000
 31
0.0000000000000000
  7
STANDARD
  0
MTEXT
  5
20D
100
AcDbEntity
  8
MAIN0
  6
CONTINUOUS
 62
3
100
AcDbMText
 10
62.52434794596681
 20
115.0264204536652
 30
0.0000000000000000
 40
2.399999618530273
 41
0.0000000000000000
 71
     1
 72
     1
  1
{\H0.93x;{許容最高回転速度　}}
 11
1.000000000000000
 21
0.0000000000000000
 31
0.0000000000000000
  7
KNJYOKO
  0
MTEXT
  5
20E
100
AcDbEntity
  8
MAIN0
  6
CONTINUOUS
 62
3
100
AcDbMText
 10
62.52434794596681
 20
111.1264198814606
 30
0.0000000000000000
 40
2.499999046325684
 41
0.0000000000000000
 71
     1
 72
     1
  1
{\H0.73x;{MASS}}
 11
1.000000000000000
 21
0.0000000000000000
 31
0.0000000000000000
  7
STANDARD
  0
MTEXT
  5
20F
100
AcDbEntity
  8
MAIN0
  6
CONTINUOUS
 62
3
100
AcDbMText
 10
62.52434794596681
 20
108.0264204536652
 30
0.0000000000000000
 40
2.399999618530273
 41
0.0000000000000000
 71
     1
 72
     1
  1
{\H0.89x;{質量\P}
 11
1.000000000000000
 21
0.0000000000000000
 31
0.0000000000000000
  7
KNJYOKO
  0
MTEXT
  5
210
100
AcDbEntity
  8
MAIN0
  6
CONTINUOUS
 62
3
100
AcDbMText
 10
62.59838363767048
 20
87.15012638843359
 30
0.0000000000000000
 40
2.499999046325684
 41
0.0000000000000000
 71
     1
 72
     1
  1
{\H0.75x;{OPERATING CYLINDER}}
 11
1.000000000000000
 21
0.0000000000000000
 31
0.0000000000000000
  7
STANDARD
  0
MTEXT
  5
211
100
AcDbEntity
  8
MAIN0
  6
CONTINUOUS
 62
3
100
AcDbMText
 10
62.52434794596692
 20
84.02642045366520
 30
0.0000000000000000
 40
2.399999618530273
 41
0.0000000000000000
 71
     1
 72
     1
  1
{\H0.93x;{使用シリンダ}}
 11
1.000000000000000
 21
0.0000000000000000
 31
0.0000000000000000
  7
KNJYOKO
  0
MTEXT
  5
212
100
AcDbEntity
  8
MAIN0
  6
CONTINUOUS
 62
3
100
AcDbMText
 10
62.20242963343875
 20
78.80718730710873
 30
0.0000000000000000
 40
2.500000000000000
 41
0.0000000000000000
 71
     1
 72
     1
  1
{\H0.63x;{MAX PERMISSIBLE OIL PRESS}}
 11
1.000000000000000
 21
0.0000000000000000
 31
0.0000000000000000
  7
STANDARD
  0
MTEXT
  5
213
100
AcDbEntity
  8
MAIN0
  6
CONTINUOUS
 62
3
100
AcDbMText
 10
62.33441430151603
 20
75.14361599194251
 30
0.0000000000000000
 40
2.399999618530273
 41
0.0000000000000000
 71
     1
 72
     1
  1
{\H0.93x;{許容最大油圧力}}
 11
1.000000000000000
 21
0.0000000000000000
 31
0.0000000000000000
  7
KNJYOKO
  0
MTEXT
  5
214
100
AcDbEntity
  8
MAIN0
  6
CONTINUOUS
 62
3
100
AcDbMText
 10
121.4508394918517
 20
149.5631252307173
 30
0.0000000000000000
 40
2.799999237060547
 41
0.0000000000000000
 71
     1
 72
     1
  1
{\H0.58x;{　　　　ｍｍ}}
 11
1.000000000000000
 21
0.0000000000000000
 31
0.0000000000000000
  7
KNJYOKO
  0
MTEXT
  5
215
100
AcDbEntity
  8
MAIN0
  6
CONTINUOUS
 62
3
100
AcDbMText
 10
121.4508394918517
 20
142.5631252307173
 30
0.0000000000000000
 40
2.799999237060547
 41
0.0000000000000000
 71
     1
 72
     1
  1
{\H0.58x;{　　　　ｍｍ}}
 11
1.000000000000000
 21
0.0000000000000000
 31
0.0000000000000000
  7
KNJYOKO
  0
MTEXT
  5
216
100
AcDbEntity
  8
MAIN0
  6
CONTINUOUS
 62
3
100
AcDbMText
 10
121.4508394918517
 20
136.0631252307173
 30
0.0000000000000000
 40
2.799999237060547
 41
0.0000000000000000
 71
     1
 72
     1
  1
{\H0.58x;{　　　　ｋＮ}}
 11
1.000000000000000
 21
0.0000000000000000
 31
0.0000000000000000
  7
KNJYOKO
  0
MTEXT
  5
217
100
AcDbEntity
  8
MAIN0
  6
CONTINUOUS
 62
3
100
AcDbMText
 10
120.4508394918517
 20
132.0631252307173
 30
0.0000000000000000
 40
2.799999237060547
 41
0.0000000000000000
 71
     1
 72
     1
  1
{\H0.60x;{　　　ｋｇｆ)}}
 11
1.000000000000000
 21
0.0000000000000000
 31
0.0000000000000000
  7
KNJYOKO
  0
MTEXT
  5
218
100
AcDbEntity
  8
MAIN0
  6
CONTINUOUS
 62
3
100
AcDbMText
 10
108.4508394918517
 20
132.0631252307173
 30
0.0000000000000000
 40
2.799999237060547
 41
0.0000000000000000
 71
     1
 72
     1
  1
{\H0.60x;{(}}
 11
1.000000000000000
 21
0.0000000000000000
 31
0.0000000000000000
  7
STANDARD
  0
MTEXT
  5
219
100
AcDbEntity
  8
MAIN0
  6
CONTINUOUS
 62
3
100
AcDbMText
 10
121.4508394918517
 20
126.0631252307173
 30
0.0000000000000000
 40
2.799999237060547
 41
0.0000000000000000
 71
     1
 72
     1
  1
{\H0.58x;{　　　　ｋＮ}}
 11
1.000000000000000
 21
0.0000000000000000
 31
0.0000000000000000
  7
KNJYOKO
  0
MTEXT
  5
21A
100
AcDbEntity
  8
MAIN0
  6
CONTINUOUS
 62
3
100
AcDbMText
 10
108.4508394918517
 20
122.0631252307173
 30
0.0000000000000000
 40
2.799999237060547
 41
0.0000000000000000
 71
     1
 72
     1
  1
{\H0.60x;{(}}
 11
1.000000000000000
 21
0.0000000000000000
 31
0.0000000000000000
  7
STANDARD
  0
MTEXT
  5
21B
100
AcDbEntity
  8
MAIN0
  6
CONTINUOUS
 62
3
100
AcDbMText
 10
120.4508394918517
 20
122.0631252307173
 30
0.0000000000000000
 40
2.799999237060547
 41
0.0000000000000000
 71
     1
 72
     1
  1
{\H0.60x;{　　　ｋｇｆ)}}
 11
1.000000000000000
 21
0.0000000000000000
 31
0.0000000000000000
  7
KNJYOKO
  0
MTEXT
  5
21C
100
AcDbEntity
  8
MAIN0
  6
CONTINUOUS
 62
3
100
AcDbMText
 10
131.6055077401717
 20
116.2326697836120
 30
0.0000000000000000
 40
2.000000000000000
 41
0.0000000000000000
 71
     1
 72
     1
  1
{\H0.88x;{-1}}
 11
1.000000000000000
 21
0.0000000000000000
 31
0.0000000000000000
  7
STANDARD
  0
MTEXT
  5
21D
100
AcDbEntity
  8
MAIN0
  6
CONTINUOUS
 62
3
100
AcDbMText
 10
121.4508394918517
 20
115.5631252307173
 30
0.0000000000000000
 40
2.799999237060547
 41
0.0000000000000000
 71
     1
 72
     1
  1
{\H0.58x;{　　ｍｉｎ}}
 11
1.000000000000000
 21
0.0000000000000000
 31
0.0000000000000000
  7
KNJYOKO
  0
MTEXT
  5
21E
100
AcDbEntity
  8
MAIN0
  6
CONTINUOUS
 62
3
100
AcDbMText
 10
121.4508394918517
 20
108.5631252307173
 30
0.0000000000000000
 40
2.799999237060547
 41
0.0000000000000000
 71
     1
 72
     1
  1
{\H0.58x;{　　　　ｋｇ}}
 11
1.000000000000000
 21
0.0000000000000000
 31
0.0000000000000000
  7
KNJYOKO
  0
MTEXT
  5
21F
100
AcDbEntity
  8
MAIN0
  6
CONTINUOUS
 62
3
100
AcDbMText
 10
121.4508394918517
 20
78.06312523071711
 30
0.0000000000000000
 40
2.799999237060547
 41
0.0000000000000000
 71
     1
 72
     1
  1
{\H0.58x;{　　　ＭＰａ}}
 11
1.000000000000000
 21
0.0000000000000000
 31
0.0000000000000000
  7
KNJYOKO
  0
MTEXT
  5
220
100
AcDbEntity
  8
MAIN0
  6
CONTINUOUS
 62
3
100
AcDbMText
 10
132.5041353252176
 20
74.47353002187901
 30
0.0000000000000000
 40
2.000000000000000
 41
0.0000000000000000
 71
     1
 72
     1
  1
{\H0.81x;{2}}
 11
1.000000000000000
 21
0.0000000000000000
 31
0.0000000000000000
  7
STANDARD
  0
MTEXT
  5
221
100
AcDbEntity
  8
MAIN0
  6
CONTINUOUS
 62
3
100
AcDbMText
 10
108.4508394918517
 20
74.06312523071711
 30
0.0000000000000000
 40
2.799999237060547
 41
0.0000000000000000
 71
     1
 72
     1
  1
{\H0.60x;{(}}
 11
1.000000000000000
 21
0.0000000000000000
 31
0.0000000000000000
  7
STANDARD
  0
MTEXT
  5
222
100
AcDbEntity
  8
MAIN0
  6
CONTINUOUS
 62
3
100
AcDbMText
 10
120.4508394918517
 20
74.06312523071711
 30
0.0000000000000000
 40
2.799999237060547
 41
0.0000000000000000
 71
     1
 72
     1
  1
{\H0.62x;{ｋｇｆ／ｃｍ )}}
 11
1.000000000000000
 21
0.0000000000000000
 31
0.0000000000000000
  7
KNJYOKO
  0
MTEXT
  5
223
100
AcDbEntity
  8
MAIN0
  6
CONTINUOUS
 62
3
100
AcDbMText
 10
62.52434794596692
 20
101.0264204555278
 30
0.0000000000000000
 40
2.399999618530273
 41
0.0000000000000000
 71
     1
 72
     1
  1
{\H0.93x;{慣性モーメント}}
 11
1.000000000000000
 21
0.0000000000000000
 31
0.0000000000000000
  7
KNJYOKO
  0
MTEXT
  5
224
100
AcDbEntity
  8
MAIN0
  6
CONTINUOUS
 62
4
100
AcDbMText
 10
126.0662185062452
 20
101.8351664354952
 30
0.0000000000000000
 40
2.799999237060547
 41
0.0000000000000000
 71
     1
 72
     1
  1
{\H0.57x;{ｋｇ・ｍ}}
 11
1.000000000000000
 21
0.0000000000000000
 31
0.0000000000000000
  7
KNJYOKO
  0
MTEXT
  5
225
100
AcDbEntity
  8
MAIN0
  6
CONTINUOUS
 62
4
100
AcDbMText
 10
133.9976396663381
 20
103.2154496387821
 30
0.0000000000000000
 40
1.714285731315613
 41
0.0000000000000000
 71
     1
 72
     1
  1
{\H0.81x;{2}}
 11
1.000000000000000
 21
0.0000000000000000
 31
0.0000000000000000
  7
STANDARD
  0
MTEXT
  5
226
100
AcDbEntity
  8
MAIN0
  6
CONTINUOUS
 62
3
100
AcDbMText
 10
62.52434794596692
 20
104.1264198833233
 30
0.0000000000000000
 40
2.499999046325684
 41
0.0000000000000000
 71
     1
 72
     1
  1
{\H0.75x;{MOMENT OF INERTIA}}
 11
1.000000000000000
 21
0.0000000000000000
 31
0.0000000000000000
  7
STANDARD
  0
MTEXT
  5
227
100
AcDbEntity
  8
MAIN0
  6
CONTINUOUS
 62
3
100
AcDbMText
 10
150.1908176332103
 20
45.04189748150054
 30
0.0000000000000000
 40
4.000000000000000
 41
0.0000000000000000
 71
     1
 72
     1
  1
{\H0.94x;{WHEN GRIPPING BY MASTER JAW：\U+220544～\U+220570}}
 11
1.000000000000000
 21
0.0000000000000000
 31
0.0000000000000000
  7
KNJYOKO
  0
MTEXT
  5
228
100
AcDbEntity
  8
MAIN0
  6
CONTINUOUS
 62
3
100
AcDbMText
 10
175.4579990155083
 20
38.27520586959076
 30
0.0000000000000000
 40
4.000000000000000
 41
0.0000000000000000
 71
     1
 72
     1
  1
{\H0.94x;{WHEN GRIPPING BY JAW：\U+220570～\U+2205108}}
 11
1.000000000000000
 21
0.0000000000000000
 31
0.0000000000000000
  7
KNJYOKO
  0
MTEXT
  5
229
100
AcDbEntity
  8
MAIN0
  6
CONTINUOUS
 62
3
100
AcDbMText
 10
148.3871966679632
 20
54.63435632898825
 30
0.0000000000000000
 40
6.000000000000000
 41
0.0000000000000000
 71
     1
 72
     1
  1
{\H0.93x;{GRIPPING RANGE}}
 11
1.000000000000000
 21
0.0000000000000000
 31
0.0000000000000000
  7
STANDARD
  0
MTEXT
  5
22A
100
AcDbEntity
  8
MAIN0
  6
CONTINUOUS
 62
3
100
AcDbMText
 10
187.4002711564119
 20
31.55626740711193
 30
0.0000000000000000
 40
3.099999904632568
 41
0.0000000000000000
 71
     1
 72
     1
  1
{\H0.94x;{JAW TYPE：SBE06 ：\U+220570～\U+220587}}
 11
1.000000000000000
 21
0.0000000000000000
 31
0.0000000000000000
  7
KNJYOKO
  0
MTEXT
  5
22B
100
AcDbEntity
  8
MAIN0
  6
CONTINUOUS
 62
3
100
AcDbMText
 10
188.2130375902893
 20
21.68821611502301
 30
0.0000000000000000
 40
3.099999904632568
 41
0.0000000000000000
 71
     1
 72
     1
  1
{\H0.94x;{JAW TYPE：SBE06A：\U+220589～\U+2205108（OPTION）}}
 11
1.000000000000000
 21
0.0000000000000000
 31
0.0000000000000000
  7
KNJYOKO
  0
MTEXT
  5
22C
100
AcDbEntity
  8
MAIN0
  6
CONTINUOUS
 62
3
100
AcDbMText
 10
108.4508394918517
 20
150.8631258982896
 30
0.0000000000000000
 40
3.099999904632568
 41
0.0000000000000000
 71
     1
 72
     1
  1
{\H0.81x;{10.3}}
 11
1.000000000000000
 21
0.0000000000000000
 31
0.0000000000000000
  7
STANDARD
  0
MTEXT
  5
22D
100
AcDbEntity
  8
MAIN0
  6
CONTINUOUS
 62
3
100
AcDbMText
 10
108.4508394918517
 20
143.8631258982896
 30
0.0000000000000000
 40
3.099999904632568
 41
0.0000000000000000
 71
     1
 72
     1
  1
{\H0.76x;{4.8}}
 11
1.000000000000000
 21
0.0000000000000000
 31
0.0000000000000000
  7
STANDARD
  0
MTEXT
  5
22E
100
AcDbEntity
  8
MAIN0
  6
CONTINUOUS
 62
3
100
AcDbMText
 10
108.4508394918517
 20
137.3631258982896
 30
0.0000000000000000
 40
3.099999904632568
 41
0.0000000000000000
 71
     1
 72
     1
  1
{\H0.88x;{18}}
 11
1.000000000000000
 21
0.0000000000000000
 31
0.0000000000000000
  7
STANDARD
  0
MTEXT
  5
22F
100
AcDbEntity
  8
MAIN0
  6
CONTINUOUS
 62
3
100
AcDbMText
 10
111.4508394918517
 20
132.5631259459733
 30
0.0000000000000000
 40
2.799999952316284
 41
0.0000000000000000
 71
     1
 72
     1
  1
{\H0.91x;{1835}}
 11
1.000000000000000
 21
0.0000000000000000
 31
0.0000000000000000
  7
STANDARD
  0
MTEXT
  5
230
100
AcDbEntity
  8
MAIN0
  6
CONTINUOUS
 62
3
100
AcDbMText
 10
108.4508394918517
 20
127.3631258982896
 30
0.0000000000000000
 40
3.099999904632568
 41
0.0000000000000000
 71
     1
 72
     1
  1
{\H0.88x;{58}}
 11
1.000000000000000
 21
0.0000000000000000
 31
0.0000000000000000
  7
STANDARD
  0
MTEXT
  5
231
100
AcDbEntity
  8
MAIN0
  6
CONTINUOUS
 62
3
100
AcDbMText
 10
111.4508394918517
 20
122.5631259459733
 30
0.0000000000000000
 40
2.799999952316284
 41
0.0000000000000000
 71
     1
 72
     1
  1
{\H0.91x;{5914}}
 11
1.000000000000000
 21
0.0000000000000000
 31
0.0000000000000000
  7
STANDARD
  0
MTEXT
  5
232
100
AcDbEntity
  8
MAIN0
  6
CONTINUOUS
 62
3
100
AcDbMText
 10
108.4508394918517
 20
116.8631259001525
 30
0.0000000000000000
 40
3.099999904632568
 41
0.0000000000000000
 71
     1
 72
     1
  1
{\H0.91x;{6000}}
 11
1.000000000000000
 21
0.0000000000000000
 31
0.0000000000000000
  7
STANDARD
  0
MTEXT
  5
233
100
AcDbEntity
  8
MAIN0
  6
CONTINUOUS
 62
3
100
AcDbMText
 10
108.4508394918517
 20
109.8631258982898
 30
0.0000000000000000
 40
3.099999904632568
 41
0.0000000000000000
 71
     1
 72
     1
  1
{\H0.81x;{13.9}}
 11
1.000000000000000
 21
0.0000000000000000
 31
0.0000000000000000
  7
STANDARD
  0
MTEXT
  5
234
100
AcDbEntity
  8
MAIN0
  6
CONTINUOUS
 62
3
100
AcDbMText
 10
108.4508394918517
 20
102.8631259001525
 30
0.0000000000000000
 40
3.099999904632568
 41
0.0000000000000000
 71
     1
 72
     1
  1
{\H0.84x;{0.043}}
 11
1.000000000000000
 21
0.0000000000000000
 31
0.0000000000000000
  7
STANDARD
  0
MTEXT
  5
235
100
AcDbEntity
  8
MAIN0
  6
CONTINUOUS
 62
3
100
AcDbMText
 10
108.4508394918517
 20
85.86312589828947
 30
0.0000000000000000
 40
3.099999904632568
 41
0.0000000000000000
 71
     1
 72
     1
  1
{\H0.92x;{Y1020R}}
 11
1.000000000000000
 21
0.0000000000000000
 31
0.0000000000000000
  7
STANDARD
  0
MTEXT
  5
236
100
AcDbEntity
  8
MAIN0
  6
CONTINUOUS
 62
3
100
AcDbMText
 10
111.4508394918517
 20
74.56312594597296
 30
0.0000000000000000
 40
2.799999952316284
 41
0.0000000000000000
 71
     1
 72
     1
  1
{\H0.58x;{25.5}}
 11
1.000000000000000
 21
0.0000000000000000
 31
0.0000000000000000
  7
STANDARD
  0
MTEXT
  5
237
100
AcDbEntity
  8
MAIN0
  6
CONTINUOUS
 62
3
100
AcDbMText
 10
108.4508394918517
 20
79.36312589828924
 30
0.0000000000000000
 40
3.099999904632568
 41
0.0000000000000000
 71
     1
 72
     1
  1
{\H0.76x;{2.5}}
 11
1.000000000000000
 21
0.0000000000000000
 31
0.0000000000000000
  7
STANDARD
  0
MTEXT
  5
238
100
AcDbEntity
  8
MAIN0
  6
CONTINUOUS
 62
3
100
AcDbMText
 10
394.4282851850135
 20
120.9729039742021
 30
0.0000000000000000
 40
3.099999904632568
 41
0.0000000000000000
 71
     1
 72
     1
  1
{\H0.94x;{チャックへの給油は北川が指定するグリスを使用して}}
 11
1.000000000000000
 21
0.0000000000000000
 31
0.0000000000000000
  7
KNJYOKO
  0
MTEXT
  5
239
100
AcDbEntity
  8
MAIN0
  6
CONTINUOUS
 62
3
100
AcDbMText
 10
394.4282851850135
 20
110.9729039742021
 30
0.0000000000000000
 40
3.099999904632568
 41
0.0000000000000000
 71
     1
 72
     1
  1
{\H0.94x;{給油期間は使用条件に合わせて短縮して下さい。}}
 11
1.000000000000000
 21
0.0000000000000000
 31
0.0000000000000000
  7
KNJYOKO
  0
INSERT
  5
246
100
AcDbEntity
  8
MAIN0
  6
CONTINUOUS
 62
3
100
AcDbBlockReference
  2
M0
 10
0.0000000000000000
 20
0.0000000000000000
 30
0.0000000000000000
 50
0.0000000000000000
  0
MTEXT
  5
247
100
AcDbEntity
  8
MAIN0
  6
CONTINUOUS
 62
3
100
AcDbMText
 10
394.4282851850135
 20
115.9729039742021
 30
0.0000000000000000
 40
3.099999904632568
 41
0.0000000000000000
 71
     1
 72
     1
  1
{\H0.92x;{下さい。}}
 11
1.000000000000000
 21
0.0000000000000000
 31
0.0000000000000000
  7
KNJYOKO
  0
INSERT
  5
255
100
AcDbEntity
  8
MAIN0
  6
CONTINUOUS
 62
3
100
AcDbBlockReference
  2
M1
 10
0.0000000000000000
 20
0.0000000000000000
 30
0.0000000000000000
 50
0.0000000000000000
  0
MTEXT
  5
256
100
AcDbEntity
  8
MAIN0
  6
CONTINUOUS
 62
3
100
AcDbMText
 10
394.4282851850137
 20
75.33157058732863
 30
0.0000000000000000
 40
3.099999904632568
 41
0.0000000000000000
 71
     1
 72
     1
  1
{\H0.71x;{PERIOD OF LUBRICATION SHOULD BE SHORTENED IN ACCORDANCE}}
 11
1.000000000000000
 21
0.0000000000000000
 31
0.0000000000000000
  7
STANDARD
  0
MTEXT
  5
257
100
AcDbEntity
  8
MAIN0
  6
CONTINUOUS
 62
3
100
AcDbMText
 10
394.4282851850137
 20
70.33157058732863
 30
0.0000000000000000
 40
3.099999904632568
 41
0.0000000000000000
 71
     1
 72
     1
  1
{\H0.70x;{WITH THE APPLICATION OF COOLANT ETC.}}
 11
1.000000000000000
 21
0.0000000000000000
 31
0.0000000000000000
  7
STANDARD
  0
MTEXT
  5
258
100
AcDbEntity
  8
MAIN0
  6
CONTINUOUS
 62
3
100
AcDbMText
 10
394.4282851850137
 20
85.33157058732863
 30
0.0000000000000000
 40
3.099999904632568
 41
0.0000000000000000
 71
     1
 72
     1
  1
{\H0.71x;{LUBRICATE THE CHUCK WITH GREASE GUN USING LUBRICATION}}
 11
1.000000000000000
 21
0.0000000000000000
 31
0.0000000000000000
  7
STANDARD
  0
MTEXT
  5
259
100
AcDbEntity
  8
MAIN0
  6
CONTINUOUS
 62
3
100
AcDbMText
 10
394.4282851850137
 20
80.33157058732863
 30
0.0000000000000000
 40
3.099999904632568
 41
0.0000000000000000
 71
     1
 72
     1
  1
{\H0.70x;{GREASE SPECIIFIED BY KITAGAWA.}}
 11
1.000000000000000
 21
0.0000000000000000
 31
0.0000000000000000
  7
STANDARD
  0
MTEXT
  5
25A
100
AcDbEntity
  8
MAIN0
  6
CONTINUOUS
 62
3
100
AcDbMText
 10
128.7568040487649
 20
307.7796886537516
 30
0.0000000000000000
 40
3.099999904632568
 41
0.0000000000000000
 71
     1
 72
     1
  1
{\H0.66x;{MIN 68.5}}
 11
1.000000000000000
 21
0.0000000000000000
 31
0.0000000000000000
  7
STANDARD
  0
DIMENSION
  5
262
100
AcDbEntity
  8
MAIN0
  6
CONTINUOUS
 62
3
100
AcDbDimension
  2
*D23
 10
453.8937126864477
 20
200.8838513338734
 30
0.0000000000000000
 11
450.4942226517675
 21
162.4915930479903
 31
0.0000000000000000
 70
162
  3
MAIN001
100
AcDb2LineAngularDimension
 13
437.2739198021213
 23
161.1250886197533
 33
0.0000000000000000
 14
437.2739198021214
 24
262.9097627890766
 34
0.0000000000000000
 15
453.6348936413438
 25
201.8497771601621
 35
0.0000000000000000
 16
450.5594857478779
 26
161.9958706173034
 36
0.0000000000000000
1001
ACAD
1000
DSTYLE
1002
{
1070
   173
1070
     1
1070
     6
1000
_OPEN
1070
     7
1000
_OPEN
1070
    41
1040
2.000000
1002
}
  0
DIMENSION
  5
26B
100
AcDbEntity
  8
MAIN0
  6
CONTINUOUS
 62
3
100
AcDbDimension
  2
*D24
 10
516.8490500831961
 20
216.9670399004994
 30
0.0000000000000000
 11
498.9321227861825
 21
182.5552282165814
 31
0.0000000000000000
 70
162
  3
MAIN001
100
AcDb2LineAngularDimension
 13
453.8937126864477
 23
200.8838513338734
 33
0.0000000000000000
 14
453.6348936413438
 24
201.8497771601621
 34
0.0000000000000000
 15
515.9830246794118
 25
217.4670399004994
 35
0.0000000000000000
 16
499.2365035006872
 26
182.1585515464360
 36
0.0000000000000000
1001
ACAD
1000
DSTYLE
1002
{
1070
   173
1070
     1
1070
     6
1000
_OPEN
1070
     7
1000
_OPEN
1070
    41
1040
2.000000
1002
}
  0
DIMENSION
  5
273
100
AcDbEntity
  8
MAIN0
  6
CONTINUOUS
 62
3
100
AcDbDimension
  2
*D25
 10
539.0585939714448
 20
262.9097627890766
 30
0.0000000000000000
 11
535.1074023895443
 21
236.6953601370530
 31
0.0000000000000000
 70
162
  3
MAIN001
100
AcDb2LineAngularDimension
 13
516.8490500831961
 23
216.9670399004994
 33
0.0000000000000000
 14
515.9830246794118
 24
217.4670399004994
 34
0.0000000000000000
 15
437.2739198021214
 25
262.9097627890766
 35
0.0000000000000000
 16
535.5903653026888
 26
236.5659506145018
 36
0.0000000000000000
1001
ACAD
1000
DSTYLE
1002
{
1070
   173
1070
     1
1070
     6
1000
_OPEN
1070
     7
1000
_OPEN
1070
    41
1040
2.000000
1002
}
  0
DIMENSION
  5
27B
100
AcDbEntity
  8
MAIN0
  6
CONTINUOUS
 62
3
100
AcDbDimension
  2
*D26
 10
518.4982501169795
 20
309.8046517611080
 30
0.0000000000000000
 11
535.1074023895441
 21
289.1241654411013
 31
0.0000000000000000
 70
162
  3
MAIN001
100
AcDb2LineAngularDimension
 13
539.0585939714448
 23
262.9097627890766
 33
0.0000000000000000
 14
437.2739198021214
 24
262.9097627890766
 34
0.0000000000000000
 15
517.6322247131950
 25
309.3046517611080
 35
0.0000000000000000
 16
535.5903653026886
 26
289.2535749636526
 36
0.0000000000000000
1001
ACAD
1000
DSTYLE
1002
{
1070
   173
1070
     1
1070
     6
1000
_OPEN
1070
     7
1000
_OPEN
1070
    41
1040
2.000000
1002
}
  0
DIMENSION
  5
284
100
AcDbEntity
  8
MAIN0
  6
CONTINUOUS
 62
3
100
AcDbDimension
  2
*D27
 10
482.6800383730491
 20
308.3158813601420
 30
0.0000000000000000
 11
518.4218077149071
 21
325.1767272021474
 31
0.0000000000000000
 70
162
  3
MAIN001
100
AcDb2LineAngularDimension
 13
518.4982501169795
 23
309.8046517611080
 33
0.0000000000000000
 14
517.6322247131950
 24
309.3046517611080
 34
0.0000000000000000
 15
481.9729315918636
 25
307.6087745789544
 35
0.0000000000000000
 16
518.0251310447618
 26
324.8723464876427
 36
0.0000000000000000
1001
ACAD
1000
DSTYLE
1002
{
1070
   173
1070
     1
1070
     6
1000
_OPEN
1070
     7
1000
_OPEN
1070
    41
1040
2.000000
1002
}
  0
DIMENSION
  5
28C
100
AcDbEntity
  8
MAIN0
  6
CONTINUOUS
 62
3
100
AcDbDimension
  2
*D28
 10
437.2739198021214
 20
364.6944369584001
 30
0.0000000000000000
 11
476.4165699915111
 21
357.4084797437301
 31
0.0000000000000000
 70
162
  3
MAIN001
100
AcDb2LineAngularDimension
 13
482.6800383730491
 23
308.3158813601420
 33
0.0000000000000000
 14
481.9729315918636
 24
307.6087745789544
 34
0.0000000000000000
 15
437.2739198021214
 25
317.9097627885819
 35
0.0000000000000000
 16
476.2252282753289
 26
356.9465399774744
 36
0.0000000000000000
1001
ACAD
1000
DSTYLE
1002
{
1070
   173
1070
     1
1070
     6
1000
_OPEN
1070
     7
1000
_OPEN
1070
    41
1040
2.000000
1002
}
  0
LINE
  5
28D
100
AcDbEntity
  8
MAIN0
  6
PHANTOM
 62
3
100
AcDbLine
 10
408.2928851299824
 20
324.5529799656602
 30
0.0000000000000000
 11
427.0867375456871
 21
331.3933828322100
 31
0.0000000000000000
  0
LINE
  5
28E
100
AcDbEntity
  8
MAIN0
  6
PHANTOM
 62
3
100
AcDbLine
 10
406.5827844133449
 20
329.2514430695861
 30
0.0000000000000000
 11
425.3766368290499
 21
336.0918459361359
 31
0.0000000000000000
  0
LINE
  5
28F
100
AcDbEntity
  8
MAIN0
  6
PHANTOM
 62
3
100
AcDbLine
 10
425.3766368290497
 20
336.0918459361362
 30
0.0000000000000000
 11
427.0867375456870
 21
331.3933828322100
 31
0.0000000000000000
  0
LINE
  5
290
100
AcDbEntity
  8
MAIN0
  6
PHANTOM
 62
3
100
AcDbLine
 10
415.1924204929719
 20
334.8347063530894
 30
0.0000000000000000
 11
418.6132035422866
 21
325.4361821683424
 31
0.0000000000000000
  0
LINE
  5
291
100
AcDbEntity
  8
MAIN0
  6
PHANTOM
 62
3
100
AcDbLine
 10
406.5827844133451
 20
329.2514430695861
 30
0.0000000000000000
 11
408.2928851299822
 21
324.5529799656600
 31
0.0000000000000000
  0
MTEXT
  5
292
100
AcDbEntity
  8
MAIN0
  6
CONTINUOUS
 62
4
100
AcDbMText
 10
499.2169609977831
 20
221.9113409343786
 30
0.0000000000000000
 40
3.103448390960693
 41
0.0000000000000000
 71
     5
 72
     1
  1
{PUE06}
 11
0.5000000000023873
 21
0.8660254037830604
 31
0.0000000000000000
  7
STANDARD
  0
MTEXT
  5
293
100
AcDbEntity
  8
MAIN0
  6
CONTINUOUS
 62
3
100
AcDbMText
 10
150.1908176332103
 20
85.04189748150054
 30
0.0000000000000000
 40
4.000000000000000
 41
0.0000000000000000
 71
     1
 72
     1
  1
{\H0.94x;{マスタージョーのみで対応する場合：\U+2205４４～\U+2205７０}}
 11
1.000000000000000
 21
0.0000000000000000
 31
0.0000000000000000
  7
KNJYOKO
  0
MTEXT
  5
294
100
AcDbEntity
  8
MAIN0
  6
CONTINUOUS
 62
3
100
AcDbMText
 10
172.7134185552768
 20
79.47746990972706
 30
0.0000000000000000
 40
4.000000000000000
 41
0.0000000000000000
 71
     1
 72
     1
  1
{\H0.94x;{ジョー付で対応する場合：\U+2205７０～\U+2205１０８}}
 11
1.000000000000000
 21
0.0000000000000000
 31
0.0000000000000000
  7
KNJYOKO
  0
MTEXT
  5
295
100
AcDbEntity
  8
MAIN0
  6
CONTINUOUS
 62
3
100
AcDbMText
 10
178.9655706196179
 20
74.35003155446725
 30
0.0000000000000000
 40
3.099999904632568
 41
0.0000000000000000
 71
     1
 72
     1
  1
{\H0.94x;{ジョー型式：ＳＢＥ０６：　\U+2205７０～\U+2205８７}}
 11
1.000000000000000
 21
0.0000000000000000
 31
0.0000000000000000
  7
KNJYOKO
  0
MTEXT
  5
296
100
AcDbEntity
  8
MAIN0
  6
CONTINUOUS
 62
3
100
AcDbMText
 10
179.1686897413037
 20
65.49078761331123
 30
0.0000000000000000
 40
3.099999904632568
 41
0.0000000000000000
 71
     1
 72
     1
  1
{\H0.94x;{ジョー型式：ＳＢＥ０６Ａ：\U+2205８９～\U+2205１０８（オプション）}}
 11
1.000000000000000
 21
0.0000000000000000
 31
0.0000000000000000
  7
KNJYOKO
  0
DIMENSION
  5
2A1
100
AcDbEntity
  8
MAIN0
  6
CONTINUOUS
 62
3
100
AcDbDimension
  2
*D29
 10
288.3567503621531
 20
227.3031906704746
 30
0.0000000000000000
 11
296.8295167596546
 21
227.8031906704746
 31
0.0000000000000000
 70
160
  1
\A1;MAX 5
  3
MAIN001
100
AcDbAlignedDimension
 13
283.3567503621531
 23
250.9097627890775
 33
0.0000000000000000
 14
288.3567503621531
 24
293.1952812244285
 34
0.0000000000000000
100
AcDbRotatedDimension
1001
ACAD
1000
DSTYLE
1002
{
1070
   173
1070
     1
1070
     6
1000
_OPEN
1070
     7
1000
_OPEN
1070
    41
1040
2.000000
1070
   287
1070
     0
1002
}
  0
MTEXT
  5
2A2
100
AcDbEntity
  8
MAIN0
  6
CONTINUOUS
 62
3
100
AcDbMText
 10
291.4958920249421
 20
226.5000923299547
 30
0.0000000000000000
 40
3.099999904632568
 41
0.0000000000000000
 71
     1
 72
     1
  1
{\H0.66x;{MIN -4.7}}
 11
1.000000000000000
 21
0.0000000000000000
 31
0.0000000000000000
  7
STANDARD
  0
DIMENSION
  5
2AD
100
AcDbEntity
  8
MAIN0
  6
CONTINUOUS
 62
3
100
AcDbDimension
  2
*D30
 10
283.3567503621531
 20
235.7298284288840
 30
0.0000000000000000
 11
277.7893024177283
 21
236.2298284288840
 31
0.0000000000000000
 70
160
  1
\A1;0.3
  3
MAIN001
100
AcDbAlignedDimension
 13
283.6497503621531
 23
269.4172646570539
 33
0.0000000000000000
 14
283.3567503621531
 24
250.9097627890775
 34
0.0000000000000000
100
AcDbRotatedDimension
1001
ACAD
1000
DSTYLE
1002
{
1070
   173
1070
     1
1070
     6
1000
_OPEN
1070
     7
1000
_OPEN
1070
    41
1040
2.000000
1070
   287
1070
     0
1002
}
  0
LINE
  5
2AE
100
AcDbEntity
  8
MAIN0
  6
CENTER
 62
3
100
AcDbLine
 10
346.6727647224067
 20
262.9097627890776
 30
0.0000000000000000
 11
546.2062748236907
 21
262.9097627890776
 31
0.0000000000000000
  0
LINE
  5
2AF
100
AcDbEntity
  8
MAIN0
  6
CENTER
 62
3
100
AcDbLine
 10
437.2739198021214
 20
317.9097627885819
 30
0.0000000000000000
 11
437.2739198021214
 21
354.4479247357966
 31
0.0000000000000000
  0
LINE
  5
2B0
100
AcDbEntity
  8
MAIN0
  6
CENTER
 62
3
100
AcDbLine
 10
437.2739198021215
 20
360.5479246404292
 30
0.0000000000000000
 11
437.2739198021215
 21
369.2837298424707
 31
0.0000000000000000
  0
LINE
  5
2B1
100
AcDbEntity
  8
MAIN0
  6
CONTINUOUS
 62
3
100
AcDbLine
 10
214.8568575449579
 20
250.4097627890780
 30
0.0000000000000000
 11
234.3568575449593
 21
250.4097627890768
 31
0.0000000000000000
  0
LINE
  5
2B2
100
AcDbEntity
  8
MAIN0
  6
CONTINUOUS
 62
3
100
AcDbLine
 10
230.8568575449580
 20
263.1597627890776
 30
0.0000000000000000
 11
230.8568575449586
 21
272.3884814969663
 31
0.0000000000000000
  0
LINE
  5
2B3
100
AcDbEntity
  8
MAIN0
  6
CONTINUOUS
 62
3
100
AcDbLine
 10
230.8568575449586
 20
272.3884814969663
 30
0.0000000000000000
 11
229.2568575449587
 21
275.1597627890766
 31
0.0000000000000000
  0
LINE
  5
2B4
100
AcDbEntity
  8
MAIN0
  6
CONTINUOUS
 62
3
100
AcDbLine
 10
229.2568575449580
 20
263.1597627890776
 30
0.0000000000000000
 11
229.2568575449587
 21
275.1597627890766
 31
0.0000000000000000
  0
LINE
  5
2B5
100
AcDbEntity
  8
MAIN0
  6
CONTINUOUS
 62
3
100
AcDbLine
 10
214.8568575449580
 20
253.9097627890766
 30
0.0000000000000000
 11
116.3568575449574
 21
253.9097627890828
 31
0.0000000000000000
  0
LINE
  5
2B6
100
AcDbEntity
  8
MAIN0
  6
CONTINUOUS
 62
3
100
AcDbLine
 10
116.3568575449615
 20
271.9097627890828
 30
0.0000000000000000
 11
214.8568575449580
 21
271.9097627890766
 31
0.0000000000000000
  0
LINE
  5
2B7
100
AcDbEntity
  8
MAIN0
  6
CONTINUOUS
 62
3
100
AcDbLine
 10
174.8568575449580
 20
254.9922947890791
 30
0.0000000000000000
 11
115.2743255449537
 21
254.9922947890829
 31
0.0000000000000000
  0
LINE
  5
2B8
100
AcDbEntity
  8
MAIN0
  6
CONTINUOUS
 62
3
100
AcDbLine
 10
174.8568575449580
 20
270.8272307890791
 30
0.0000000000000000
 11
115.2743255449627
 21
270.8272307890829
 31
0.0000000000000000
  0
LINE
  5
2B9
100
AcDbEntity
  8
MAIN0
  6
CONTINUOUS
 62
3
100
AcDbLine
 10
222.8568575449580
 20
275.1597627890770
 30
0.0000000000000000
 11
214.8568575449587
 21
275.1597627890776
 31
0.0000000000000000
  0
LINE
  5
2BA
100
AcDbEntity
  8
MAIN0
  6
CONTINUOUS
 62
3
100
AcDbLine
 10
229.2568575449587
 20
275.1597627890766
 30
0.0000000000000000
 11
226.8568575449580
 21
275.1597627890768
 31
0.0000000000000000
  0
LINE
  5
2BB
100
AcDbEntity
  8
MAIN0
  6
HIDDEN
 62
3
100
AcDbLine
 10
251.3567503621525
 20
201.4197627890776
 30
0.0000000000000000
 11
250.7567503621526
 21
202.0197627890776
 31
0.0000000000000000
  0
LINE
  5
2BC
100
AcDbEntity
  8
MAIN0
  6
HIDDEN
 62
3
100
AcDbLine
 10
250.7567503621525
 20
202.0197627890776
 30
0.0000000000000000
 11
233.3567503621526
 21
202.0197627890787
 31
0.0000000000000000
  0
LINE
  5
2BD
100
AcDbEntity
  8
MAIN0
  6
HIDDEN
 62
3
100
AcDbLine
 10
233.3567503621526
 20
202.0197627890785
 30
0.0000000000000000
 11
233.3567503621536
 21
219.0197627890785
 31
0.0000000000000000
  0
LINE
  5
2BE
100
AcDbEntity
  8
MAIN0
  6
HIDDEN
 62
3
100
AcDbLine
 10
233.3567503621536
 20
219.0197627890787
 30
0.0000000000000000
 11
250.7567503621536
 21
219.0197627890776
 31
0.0000000000000000
  0
LINE
  5
2BF
100
AcDbEntity
  8
MAIN0
  6
HIDDEN
 62
3
100
AcDbLine
 10
250.7567503621536
 20
219.0197627890776
 30
0.0000000000000000
 11
251.3567503621536
 21
219.6197627890775
 31
0.0000000000000000
  0
LINE
  5
2C0
100
AcDbEntity
  8
MAIN0
  6
CONTINUOUS
 62
3
100
AcDbLine
 10
217.8569317186688
 20
247.9097627890774
 30
0.0000000000000000
 11
217.2806370805774
 21
248.2097627890774
 31
0.0000000000000000
  0
LINE
  5
2C1
100
AcDbEntity
  8
MAIN0
  6
CONTINUOUS
 62
3
100
AcDbLine
 10
217.2806370805774
 20
248.2097627890775
 30
0.0000000000000000
 11
216.3569317186688
 21
248.2097627890776
 31
0.0000000000000000
  0
LINE
  5
2C2
100
AcDbEntity
  8
MAIN0
  6
CONTINUOUS
 62
3
100
AcDbLine
 10
215.5569317186687
 20
247.4097627890776
 30
0.0000000000000000
 11
215.5569317186685
 21
245.4860574271690
 31
0.0000000000000000
  0
LINE
  5
2C3
100
AcDbEntity
  8
MAIN0
  6
CONTINUOUS
 62
3
100
AcDbLine
 10
215.5569317186685
 20
245.4860574271690
 30
0.0000000000000000
 11
215.8569317186685
 21
244.9097627890776
 31
0.0000000000000000
  0
ARC
  5
2C4
100
AcDbEntity
  8
MAIN0
  6
CONTINUOUS
 62
3
100
AcDbCircle
 10
216.3569317186687
 20
247.4097627890776
 30
0.0000000000000000
 40
0.8000000000000000
100
AcDbArc
 50
90.00000000000000
 51
180.0000000000000
  0
LINE
  5
2C5
100
AcDbEntity
  8
MAIN0
  6
CONTINUOUS
 62
3
100
AcDbLine
 10
217.8569317186687
 20
277.9097627890776
 30
0.0000000000000000
 11
217.2806370805774
 21
277.6097627890775
 31
0.0000000000000000
  0
LINE
  5
2C6
100
AcDbEntity
  8
MAIN0
  6
CONTINUOUS
 62
3
100
AcDbLine
 10
217.2806370805774
 20
277.6097627890775
 30
0.0000000000000000
 11
216.3569317186687
 21
277.6097627890775
 31
0.0000000000000000
  0
LINE
  5
2C7
100
AcDbEntity
  8
MAIN0
  6
CONTINUOUS
 62
3
100
AcDbLine
 10
215.5569317186688
 20
278.4097627890776
 30
0.0000000000000000
 11
215.5569317186688
 21
280.3334681509862
 31
0.0000000000000000
  0
LINE
  5
2C8
100
AcDbEntity
  8
MAIN0
  6
CONTINUOUS
 62
3
100
AcDbLine
 10
215.5569317186688
 20
280.3334681509862
 30
0.0000000000000000
 11
215.8569317186688
 21
280.9097627890776
 31
0.0000000000000000
  0
ARC
  5
2C9
100
AcDbEntity
  8
MAIN0
  6
CONTINUOUS
 62
3
100
AcDbCircle
 10
216.3569317186687
 20
278.4097627890776
 30
0.0000000000000000
 40
0.8000000000000000
100
AcDbArc
 50
180.0000000000000
 51
270.0000000000000
  0
LINE
  5
2CA
100
AcDbEntity
  8
MAIN0
  6
CONTINUOUS
 62
3
100
AcDbLine
 10
189.3567503621532
 20
282.9097627890776
 30
0.0000000000000000
 11
189.9330450002445
 21
282.6097627890776
 31
0.0000000000000000
  0
LINE
  5
2CB
100
AcDbEntity
  8
MAIN0
  6
CONTINUOUS
 62
3
100
AcDbLine
 10
189.9330450002445
 20
282.6097627890776
 30
0.0000000000000000
 11
190.8567503621531
 21
282.6097627890776
 31
0.0000000000000000
  0
LINE
  5
2CC
100
AcDbEntity
  8
MAIN0
  6
CONTINUOUS
 62
3
100
AcDbLine
 10
191.6567503621532
 20
283.4097627890776
 30
0.0000000000000000
 11
191.6567503621532
 21
284.8334681509862
 31
0.0000000000000000
  0
LINE
  5
2CD
100
AcDbEntity
  8
MAIN0
  6
CONTINUOUS
 62
3
100
AcDbLine
 10
191.6567503621532
 20
284.8334681509862
 30
0.0000000000000000
 11
191.3567503621532
 21
285.4097627890776
 31
0.0000000000000000
  0
ARC
  5
2CE
100
AcDbEntity
  8
MAIN0
  6
CONTINUOUS
 62
3
100
AcDbCircle
 10
190.8567503621532
 20
283.4097627890776
 30
0.0000000000000000
 40
0.8000000000000000
100
AcDbArc
 50
270.0000000000000
 51
360.0000000000000
  0
LINE
  5
2CF
100
AcDbEntity
  8
MAIN0
  6
CONTINUOUS
 62
3
100
AcDbLine
 10
189.3567503621532
 20
242.9097627890777
 30
0.0000000000000000
 11
189.9330450002446
 21
243.2097627890776
 31
0.0000000000000000
  0
LINE
  5
2D0
100
AcDbEntity
  8
MAIN0
  6
CONTINUOUS
 62
3
100
AcDbLine
 10
189.9330450002446
 20
243.2097627890776
 30
0.0000000000000000
 11
190.8567503621532
 21
243.2097627890776
 31
0.0000000000000000
  0
LINE
  5
2D1
100
AcDbEntity
  8
MAIN0
  6
CONTINUOUS
 62
3
100
AcDbLine
 10
191.6567503621531
 20
242.4097627890776
 30
0.0000000000000000
 11
191.6567503621531
 21
240.9860574271690
 31
0.0000000000000000
  0
LINE
  5
2D2
100
AcDbEntity
  8
MAIN0
  6
CONTINUOUS
 62
3
100
AcDbLine
 10
191.6567503621530
 20
240.9860574271689
 30
0.0000000000000000
 11
191.3567503621530
 21
240.4097627890776
 31
0.0000000000000000
  0
ARC
  5
2D3
100
AcDbEntity
  8
MAIN0
  6
CONTINUOUS
 62
3
100
AcDbCircle
 10
190.8567503621532
 20
242.4097627890776
 30
0.0000000000000000
 40
0.8000000000000000
100
AcDbArc
 50
0.0000000000000000
 51
90.00000000000000
  0
LINE
  5
2D4
100
AcDbEntity
  8
MAIN0
  6
CONTINUOUS
 62
3
100
AcDbLine
 10
164.8568575449580
 20
281.9097627890776
 30
0.0000000000000000
 11
164.8568575449580
 21
270.8272307890798
 31
0.0000000000000000
  0
LINE
  5
2D5
100
AcDbEntity
  8
MAIN0
  6
CONTINUOUS
 62
3
100
AcDbLine
 10
165.8568575449580
 20
282.9097627890776
 30
0.0000000000000000
 11
164.8568575449580
 21
281.9097627890776
 31
0.0000000000000000
  0
LINE
  5
2D6
100
AcDbEntity
  8
MAIN0
  6
CONTINUOUS
 62
3
100
AcDbLine
 10
165.4568575449561
 20
253.4097627890823
 30
0.0000000000000000
 11
164.8568575449561
 21
252.8097627890823
 31
0.0000000000000000
  0
LINE
  5
2D7
100
AcDbEntity
  8
MAIN0
  6
CONTINUOUS
 62
3
100
AcDbLine
 10
165.4568575449572
 20
272.4097627890823
 30
0.0000000000000000
 11
164.8568575449572
 21
273.0097627890823
 31
0.0000000000000000
  0
LINE
  5
2D8
100
AcDbEntity
  8
MAIN0
  6
CONTINUOUS
 62
3
100
AcDbLine
 10
165.8568575449581
 20
242.9097627890776
 30
0.0000000000000000
 11
164.8568575449580
 21
243.9097627890776
 31
0.0000000000000000
  0
LINE
  5
2D9
100
AcDbEntity
  8
MAIN0
  6
CONTINUOUS
 62
3
100
AcDbLine
 10
163.7021570065783
 20
248.9097627890775
 30
0.0000000000000000
 11
164.8568575449579
 21
250.9097627890779
 31
0.0000000000000000
  0
LINE
  5
2DA
100
AcDbEntity
  8
MAIN0
  6
CONTINUOUS
 62
3
100
AcDbLine
 10
163.7021570065782
 20
248.9097627890776
 30
0.0000000000000000
 11
164.8568575449581
 21
246.9097627890768
 31
0.0000000000000000
  0
LINE
  5
2DB
100
AcDbEntity
  8
MAIN0
  6
CONTINUOUS
 62
3
100
AcDbLine
 10
164.8568575449580
 20
243.9097627890776
 30
0.0000000000000000
 11
164.8568575449580
 21
247.1512122495702
 31
0.0000000000000000
  0
LINE
  5
2DC
100
AcDbEntity
  8
MAIN0
  6
CONTINUOUS
 62
3
100
AcDbLine
 10
164.8568575449580
 20
250.6683133285847
 30
0.0000000000000000
 11
164.8568575449580
 21
254.9922947890744
 31
0.0000000000000000
  0
LINE
  5
2DD
100
AcDbEntity
  8
MAIN0
  6
CONTINUOUS
 62
3
100
AcDbLine
 10
228.0858061304838
 20
283.2709119024212
 30
0.0000000000000000
 11
283.6497503621531
 21
269.4172646570540
 31
0.0000000000000000
  0
LINE
  5
2DE
100
AcDbEntity
  8
MAIN0
  6
CONTINUOUS
 62
3
100
AcDbLine
 10
232.6142285468970
 20
282.1418493853071
 30
0.0000000000000000
 11
233.3762825180357
 21
285.1982809230765
 31
0.0000000000000000
  0
LINE
  5
2DF
100
AcDbEntity
  8
MAIN0
  6
CONTINUOUS
 62
3
100
AcDbLine
 10
236.4954114520011
 20
281.1741618029087
 30
0.0000000000000000
 11
237.2574654231398
 21
284.2305933406781
 31
0.0000000000000000
  0
LINE
  5
2E0
100
AcDbEntity
  8
MAIN0
  6
CONTINUOUS
 62
3
100
AcDbLine
 10
241.6675982201201
 20
312.8642269448781
 30
0.0000000000000000
 11
253.6497503621531
 21
309.8767408815429
 31
0.0000000000000000
  0
LINE
  5
2E1
100
AcDbEntity
  8
MAIN0
  6
CENTER
 62
3
100
AcDbLine
 10
240.7955067648409
 20
296.5918456961214
 30
0.0000000000000000
 11
289.3679305667625
 21
284.4813802763398
 31
0.0000000000000000
  0
LINE
  5
2E2
100
AcDbEntity
  8
MAIN0
  6
CONTINUOUS
 62
3
100
AcDbLine
 10
283.0103402006886
 20
256.9097627890776
 30
0.0000000000000000
 11
271.3567503621528
 21
256.9097627890783
 31
0.0000000000000000
  0
LINE
  5
2E3
100
AcDbEntity
  8
MAIN0
  6
CONTINUOUS
 62
3
100
AcDbLine
 10
271.3567503621535
 20
268.9097627890783
 30
0.0000000000000000
 11
283.0103402006886
 21
268.9097627890776
 31
0.0000000000000000
  0
LINE
  5
2E4
100
AcDbEntity
  8
MAIN0
  6
CONTINUOUS
 62
3
100
AcDbLine
 10
272.4567503621528
 20
257.8097627890783
 30
0.0000000000000000
 11
268.3567503621528
 21
257.8097627890785
 31
0.0000000000000000
  0
LINE
  5
2E5
100
AcDbEntity
  8
MAIN0
  6
CONTINUOUS
 62
3
100
AcDbLine
 10
268.3567503621534
 20
268.0097627890785
 30
0.0000000000000000
 11
272.4567503621534
 21
268.0097627890783
 31
0.0000000000000000
  0
LINE
  5
2E6
100
AcDbEntity
  8
MAIN0
  6
CONTINUOUS
 62
3
100
AcDbLine
 10
268.3567503621528
 20
257.8097627890785
 30
0.0000000000000000
 11
268.2990153352344
 21
257.9097627890776
 31
0.0000000000000000
  0
LINE
  5
2E7
100
AcDbEntity
  8
MAIN0
  6
CONTINUOUS
 62
3
100
AcDbLine
 10
268.2990153352340
 20
267.9097627890776
 30
0.0000000000000000
 11
268.3567503621534
 21
268.0097627890785
 31
0.0000000000000000
  0
LINE
  5
2E8
100
AcDbEntity
  8
MAIN0
  6
CONTINUOUS
 62
3
100
AcDbLine
 10
268.3567503621528
 20
257.8097627890785
 30
0.0000000000000000
 11
268.3567503621528
 21
257.9097627890776
 31
0.0000000000000000
  0
LINE
  5
2E9
100
AcDbEntity
  8
MAIN0
  6
CONTINUOUS
 62
3
100
AcDbLine
 10
268.3567503621534
 20
267.9097627890776
 30
0.0000000000000000
 11
268.3567503621534
 21
268.0097627890785
 31
0.0000000000000000
  0
LINE
  5
2EA
100
AcDbEntity
  8
MAIN0
  6
CONTINUOUS
 62
3
100
AcDbLine
 10
271.3567503621528
 20
256.9097627890783
 30
0.0000000000000000
 11
271.3567503621528
 21
257.9097627890776
 31
0.0000000000000000
  0
LINE
  5
2EB
100
AcDbEntity
  8
MAIN0
  6
CONTINUOUS
 62
3
100
AcDbLine
 10
271.3567503621534
 20
267.9097627890776
 30
0.0000000000000000
 11
271.3567503621535
 21
268.9097627890783
 31
0.0000000000000000
  0
LINE
  5
2EC
100
AcDbEntity
  8
MAIN0
  6
CONTINUOUS
 62
3
100
AcDbLine
 10
272.3567503621535
 20
257.9097627890776
 30
0.0000000000000000
 11
273.3567503621535
 21
256.9097627890777
 31
0.0000000000000000
  0
LINE
  5
2ED
100
AcDbEntity
  8
MAIN0
  6
CONTINUOUS
 62
3
100
AcDbLine
 10
273.3567503621535
 20
256.9097627890777
 30
0.0000000000000000
 11
282.3567503621535
 21
256.9097627890782
 31
0.0000000000000000
  0
LINE
  5
2EE
100
AcDbEntity
  8
MAIN0
  6
CONTINUOUS
 62
3
100
AcDbLine
 10
282.3567503621535
 20
256.9097627890782
 30
0.0000000000000000
 11
283.3567503621534
 21
258.6418135966472
 31
0.0000000000000000
  0
LINE
  5
2EF
100
AcDbEntity
  8
MAIN0
  6
CONTINUOUS
 62
3
100
AcDbLine
 10
283.3567503621534
 20
258.6418135966472
 30
0.0000000000000000
 11
283.3567503621529
 21
267.1777119815094
 31
0.0000000000000000
  0
LINE
  5
2F0
100
AcDbEntity
  8
MAIN0
  6
CONTINUOUS
 62
3
100
AcDbLine
 10
283.3567503621529
 20
267.1777119815094
 30
0.0000000000000000
 11
282.3567503621528
 21
268.9097627890782
 31
0.0000000000000000
  0
LINE
  5
2F1
100
AcDbEntity
  8
MAIN0
  6
CONTINUOUS
 62
3
100
AcDbLine
 10
282.3567503621528
 20
268.9097627890782
 30
0.0000000000000000
 11
273.3567503621528
 21
268.9097627890777
 31
0.0000000000000000
  0
LINE
  5
2F2
100
AcDbEntity
  8
MAIN0
  6
CONTINUOUS
 62
3
100
AcDbLine
 10
273.3567503621528
 20
268.9097627890777
 30
0.0000000000000000
 11
272.3567503621528
 21
267.9097627890776
 31
0.0000000000000000
  0
LINE
  5
2F3
100
AcDbEntity
  8
MAIN0
  6
CONTINUOUS
 62
3
100
AcDbLine
 10
273.3567503621535
 20
256.9097627890777
 30
0.0000000000000000
 11
273.3567503621528
 21
268.9097627890777
 31
0.0000000000000000
  0
LINE
  5
2F4
100
AcDbEntity
  8
MAIN0
  6
CONTINUOUS
 62
3
100
AcDbLine
 10
282.3567503621535
 20
256.9097627890782
 30
0.0000000000000000
 11
282.3567503621528
 21
268.9097627890782
 31
0.0000000000000000
  0
LINE
  5
2F5
100
AcDbEntity
  8
MAIN0
  6
CONTINUOUS
 62
3
100
AcDbLine
 10
272.4095348621535
 20
257.8569782890776
 30
0.0000000000000000
 11
282.9036254860590
 21
257.8569782890783
 31
0.0000000000000000
  0
LINE
  5
2F6
100
AcDbEntity
  8
MAIN0
  6
CONTINUOUS
 62
3
100
AcDbLine
 10
272.4095348621528
 20
267.9625472890776
 30
0.0000000000000000
 11
282.9036254860584
 21
267.9625472890783
 31
0.0000000000000000
  0
LINE
  5
2F7
100
AcDbEntity
  8
MAIN0
  6
HIDDEN
 62
3
100
AcDbLine
 10
100.2568575449581
 20
265.4097627890776
 30
0.0000000000000000
 11
221.5866869527402
 21
265.4097627890776
 31
0.0000000000000000
  0
LINE
  5
2F8
100
AcDbEntity
  8
MAIN0
  6
HIDDEN
 62
3
100
AcDbLine
 10
99.85685754495808
 20
260.0097627890776
 30
0.0000000000000000
 11
100.2568575449581
 21
260.4097627890776
 31
0.0000000000000000
  0
LINE
  5
2F9
100
AcDbEntity
  8
MAIN0
  6
HIDDEN
 62
3
100
AcDbLine
 10
100.2568575449581
 20
260.4097627890776
 30
0.0000000000000000
 11
221.5866869527402
 21
260.4097627890776
 31
0.0000000000000000
  0
LINE
  5
2FA
100
AcDbEntity
  8
MAIN0
  6
CONTINUOUS
 62
3
100
AcDbLine
 10
276.5497503621531
 20
308.6097627890770
 30
0.0000000000000000
 11
276.1497503621531
 21
308.2097627890771
 31
0.0000000000000000
  0
LINE
  5
2FB
100
AcDbEntity
  8
MAIN0
  6
CONTINUOUS
 62
3
100
AcDbLine
 10
276.1497503621515
 20
308.2097627890755
 30
0.0000000000000000
 11
276.1497503621498
 21
289.6097627890770
 31
0.0000000000000000
  0
LINE
  5
2FC
100
AcDbEntity
  8
MAIN0
  6
CONTINUOUS
 62
3
100
AcDbLine
 10
276.1497503621498
 20
289.6097627890770
 30
0.0000000000000000
 11
265.1497503621499
 21
289.6097627890781
 31
0.0000000000000000
  0
LINE
  5
2FD
100
AcDbEntity
  8
MAIN0
  6
CONTINUOUS
 62
3
100
AcDbLine
 10
265.1497503621531
 20
308.2097627890781
 30
0.0000000000000000
 11
264.7497503621531
 21
308.6097627890781
 31
0.0000000000000000
  0
LINE
  5
2FE
100
AcDbEntity
  8
MAIN0
  6
CONTINUOUS
 62
3
100
AcDbLine
 10
273.9497503621499
 20
289.6097627890773
 30
0.0000000000000000
 11
273.9497503621495
 21
285.9833496984600
 31
0.0000000000000000
  0
LINE
  5
2FF
100
AcDbEntity
  8
MAIN0
  6
CONTINUOUS
 62
3
100
AcDbLine
 10
267.3497503621499
 20
289.6097627890779
 30
0.0000000000000000
 11
267.3497503621495
 21
285.9833496984600
 31
0.0000000000000000
  0
LINE
  5
300
100
AcDbEntity
  8
MAIN0
  6
CONTINUOUS
 62
3
100
AcDbLine
 10
260.6497503621529
 20
296.3097627890776
 30
0.0000000000000000
 11
259.8497503621530
 21
297.1097627890777
 31
0.0000000000000000
  0
LINE
  5
301
100
AcDbEntity
  8
MAIN0
  6
CONTINUOUS
 62
3
100
AcDbLine
 10
259.8497503621530
 20
297.1097627890777
 30
0.0000000000000000
 11
259.8497503621533
 21
302.1097627890777
 31
0.0000000000000000
  0
LINE
  5
302
100
AcDbEntity
  8
MAIN0
  6
CONTINUOUS
 62
3
100
AcDbLine
 10
259.8497503621533
 20
302.1097627890777
 30
0.0000000000000000
 11
260.6497503621533
 21
302.9097627890776
 31
0.0000000000000000
  0
LINE
  5
303
100
AcDbEntity
  8
MAIN0
  6
CONTINUOUS
 62
3
100
AcDbLine
 10
260.3497503621529
 20
296.6097627890776
 30
0.0000000000000000
 11
248.6497503621530
 21
296.6097627890783
 31
0.0000000000000000
  0
LINE
  5
304
100
AcDbEntity
  8
MAIN0
  6
CONTINUOUS
 62
3
100
AcDbLine
 10
248.6497503621530
 20
296.6097627890783
 30
0.0000000000000000
 11
248.6497503621533
 21
302.6097627890783
 31
0.0000000000000000
  0
LINE
  5
305
100
AcDbEntity
  8
MAIN0
  6
CONTINUOUS
 62
3
100
AcDbLine
 10
248.6497503621533
 20
302.6097627890783
 30
0.0000000000000000
 11
260.3497503621533
 21
302.6097627890776
 31
0.0000000000000000
  0
LINE
  5
306
100
AcDbEntity
  8
MAIN0
  6
CENTER
 62
3
100
AcDbLine
 10
238.8713584556130
 20
299.6097627890776
 30
0.0000000000000000
 11
262.5779550581195
 21
299.6097627890776
 31
0.0000000000000000
  0
LINE
  5
307
100
AcDbEntity
  8
MAIN0
  6
CONTINUOUS
 62
3
100
AcDbLine
 10
241.5357856422888
 20
297.1097627890788
 30
0.0000000000000000
 11
259.8497503621530
 21
297.1097627890776
 31
0.0000000000000000
  0
LINE
  5
308
100
AcDbEntity
  8
MAIN0
  6
CONTINUOUS
 62
3
100
AcDbLine
 10
242.0476693203700
 20
302.1097627890787
 30
0.0000000000000000
 11
259.8497503621533
 21
302.1097627890777
 31
0.0000000000000000
  0
LINE
  5
309
100
AcDbEntity
  8
MAIN0
  6
CONTINUOUS
 62
3
100
AcDbLine
 10
155.3568575449580
 20
271.9097627890806
 30
0.0000000000000000
 11
156.8568575449580
 21
273.4097627890807
 31
0.0000000000000000
  0
LINE
  5
30A
100
AcDbEntity
  8
MAIN0
  6
CONTINUOUS
 62
3
100
AcDbLine
 10
156.8568575449578
 20
279.3097627890807
 30
0.0000000000000000
 11
155.8176270604164
 21
279.9097627890806
 31
0.0000000000000000
  0
LINE
  5
30B
100
AcDbEntity
  8
MAIN0
  6
CONTINUOUS
 62
3
100
AcDbLine
 10
155.8176270604164
 20
279.9097627890806
 30
0.0000000000000000
 11
149.8960880294991
 21
279.9097627890805
 31
0.0000000000000000
  0
LINE
  5
30C
100
AcDbEntity
  8
MAIN0
  6
CONTINUOUS
 62
3
100
AcDbLine
 10
149.8960880294991
 20
279.9097627890805
 30
0.0000000000000000
 11
148.8568575449578
 21
279.3097627890804
 31
0.0000000000000000
  0
LINE
  5
30D
100
AcDbEntity
  8
MAIN0
  6
CONTINUOUS
 62
3
100
AcDbLine
 10
148.8568575449580
 20
273.4097627890804
 30
0.0000000000000000
 11
150.3568575449580
 21
271.9097627890805
 31
0.0000000000000000
  0
LINE
  5
30E
100
AcDbEntity
  8
MAIN0
  6
CONTINUOUS
 62
3
100
AcDbLine
 10
150.3568575449580
 20
271.9097627890805
 30
0.0000000000000000
 11
155.3568575449580
 21
271.9097627890806
 31
0.0000000000000000
  0
LINE
  5
30F
100
AcDbEntity
  8
MAIN0
  6
CONTINUOUS
 62
3
100
AcDbLine
 10
156.8568575449580
 20
273.4097627890807
 30
0.0000000000000000
 11
148.8568575449580
 21
273.4097627890804
 31
0.0000000000000000
  0
LINE
  5
310
100
AcDbEntity
  8
MAIN0
  6
CONTINUOUS
 62
3
100
AcDbLine
 10
156.8568575449578
 20
279.3097627890807
 30
0.0000000000000000
 11
148.8568575449578
 21
279.3097627890804
 31
0.0000000000000000
  0
LINE
  5
311
100
AcDbEntity
  8
MAIN0
  6
HIDDEN
 62
3
100
AcDbLine
 10
155.3568575449580
 20
271.9097627890806
 30
0.0000000000000000
 11
152.8568575449579
 21
274.4097627890806
 31
0.0000000000000000
  0
LINE
  5
312
100
AcDbEntity
  8
MAIN0
  6
HIDDEN
 62
3
100
AcDbLine
 10
152.8568575449579
 20
274.4097627890806
 30
0.0000000000000000
 11
150.3568575449580
 21
271.9097627890805
 31
0.0000000000000000
  0
LINE
  5
313
100
AcDbEntity
  8
MAIN0
  6
CONTINUOUS
 62
3
100
AcDbLine
 10
156.8568575449581
 20
270.8272307890803
 30
0.0000000000000000
 11
156.8568575449580
 21
273.4097627890807
 31
0.0000000000000000
  0
LINE
  5
314
100
AcDbEntity
  8
MAIN0
  6
CONTINUOUS
 62
3
100
AcDbLine
 10
156.8568575449580
 20
273.4097627890807
 30
0.0000000000000000
 11
156.8568575449578
 21
279.3097627890807
 31
0.0000000000000000
  0
LINE
  5
315
100
AcDbEntity
  8
MAIN0
  6
CONTINUOUS
 62
3
100
AcDbLine
 10
156.1802750449581
 20
270.8272307890803
 30
0.0000000000000000
 11
156.1802750449580
 21
272.7331802890806
 31
0.0000000000000000
  0
LINE
  5
316
100
AcDbEntity
  8
MAIN0
  6
CONTINUOUS
 62
3
100
AcDbLine
 10
156.1802750449580
 20
272.7331802890806
 30
0.0000000000000000
 11
156.1802750449578
 21
279.7003878775846
 31
0.0000000000000000
  0
LINE
  5
317
100
AcDbEntity
  8
MAIN0
  6
CONTINUOUS
 62
3
100
AcDbLine
 10
149.5334400449580
 20
270.8272307890807
 30
0.0000000000000000
 11
149.5334400449580
 21
272.7331802890805
 31
0.0000000000000000
  0
LINE
  5
318
100
AcDbEntity
  8
MAIN0
  6
CONTINUOUS
 62
3
100
AcDbLine
 10
149.5334400449580
 20
272.7331802890805
 30
0.0000000000000000
 11
149.5334400449578
 21
279.7003878775844
 31
0.0000000000000000
  0
LINE
  5
319
100
AcDbEntity
  8
MAIN0
  6
CONTINUOUS
 62
3
100
AcDbLine
 10
148.8568575449581
 20
270.8272307890808
 30
0.0000000000000000
 11
148.8568575449580
 21
273.4097627890804
 31
0.0000000000000000
  0
LINE
  5
31A
100
AcDbEntity
  8
MAIN0
  6
CONTINUOUS
 62
3
100
AcDbLine
 10
148.8568575449580
 20
273.4097627890804
 30
0.0000000000000000
 11
148.8568575449578
 21
279.3097627890804
 31
0.0000000000000000
  0
LINE
  5
31B
100
AcDbEntity
  8
MAIN0
  6
HIDDEN
 62
3
100
AcDbLine
 10
233.3567503621531
 20
202.5197627890785
 30
0.0000000000000000
 11
242.3567503621531
 21
202.5197627890785
 31
0.0000000000000000
  0
LINE
  5
31C
100
AcDbEntity
  8
MAIN0
  6
HIDDEN
 62
3
100
AcDbLine
 10
242.3567503621531
 20
202.5197627890785
 30
0.0000000000000000
 11
243.3567503621531
 21
204.2518135966474
 31
0.0000000000000000
  0
LINE
  5
31D
100
AcDbEntity
  8
MAIN0
  6
HIDDEN
 62
3
100
AcDbLine
 10
243.3567503621531
 20
204.2518135966474
 30
0.0000000000000000
 11
243.3567503621531
 21
216.7877119815096
 31
0.0000000000000000
  0
LINE
  5
31E
100
AcDbEntity
  8
MAIN0
  6
HIDDEN
 62
3
100
AcDbLine
 10
243.3567503621531
 20
216.7877119815096
 30
0.0000000000000000
 11
242.3567503621531
 21
218.5197627890785
 31
0.0000000000000000
  0
LINE
  5
31F
100
AcDbEntity
  8
MAIN0
  6
HIDDEN
 62
3
100
AcDbLine
 10
242.3567503621531
 20
218.5197627890785
 30
0.0000000000000000
 11
233.3567503621531
 21
218.5197627890785
 31
0.0000000000000000
  0
LINE
  5
320
100
AcDbEntity
  8
MAIN0
  6
HIDDEN
 62
3
100
AcDbLine
 10
242.3567503621531
 20
202.5197627890785
 30
0.0000000000000000
 11
242.3567503621531
 21
218.5197627890785
 31
0.0000000000000000
  0
LINE
  5
321
100
AcDbEntity
  8
MAIN0
  6
CONTINUOUS
 62
3
100
AcDbLine
 10
158.3567503621531
 20
205.5197627890785
 30
0.0000000000000000
 11
158.3567503621531
 21
215.5197627890785
 31
0.0000000000000000
  0
LINE
  5
322
100
AcDbEntity
  8
MAIN0
  6
HIDDEN
 62
3
100
AcDbLine
 10
190.3567503621531
 20
205.5197627890785
 30
0.0000000000000000
 11
190.3567503621531
 21
215.5197627890785
 31
0.0000000000000000
  0
LINE
  5
323
100
AcDbEntity
  8
MAIN0
  6
HIDDEN
 62
3
100
AcDbLine
 10
233.3567503621531
 20
215.5197627890785
 30
0.0000000000000000
 11
173.3567503621531
 21
215.5197627890785
 31
0.0000000000000000
  0
LINE
  5
324
100
AcDbEntity
  8
MAIN0
  6
CONTINUOUS
 62
3
100
AcDbLine
 10
173.3567503621531
 20
215.5197627890785
 30
0.0000000000000000
 11
158.3567503621531
 21
215.5197627890785
 31
0.0000000000000000
  0
LINE
  5
325
100
AcDbEntity
  8
MAIN0
  6
HIDDEN
 62
3
100
AcDbLine
 10
190.3567503621531
 20
214.7078637890785
 30
0.0000000000000000
 11
173.3567503621531
 21
214.7078637890785
 31
0.0000000000000000
  0
LINE
  5
326
100
AcDbEntity
  8
MAIN0
  6
CONTINUOUS
 62
3
100
AcDbLine
 10
173.3567503621531
 20
214.7078637890785
 30
0.0000000000000000
 11
158.3567503621531
 21
214.7078637890785
 31
0.0000000000000000
  0
LINE
  5
327
100
AcDbEntity
  8
MAIN0
  6
HIDDEN
 62
3
100
AcDbLine
 10
190.3567503621531
 20
206.3316617890785
 30
0.0000000000000000
 11
173.3567503621531
 21
206.3316617890785
 31
0.0000000000000000
  0
LINE
  5
328
100
AcDbEntity
  8
MAIN0
  6
CONTINUOUS
 62
3
100
AcDbLine
 10
173.3567503621531
 20
206.3316617890785
 30
0.0000000000000000
 11
158.3567503621531
 21
206.3316617890785
 31
0.0000000000000000
  0
LINE
  5
329
100
AcDbEntity
  8
MAIN0
  6
HIDDEN
 62
3
100
AcDbLine
 10
233.3567503621531
 20
205.5197627890785
 30
0.0000000000000000
 11
173.3567503621531
 21
205.5197627890785
 31
0.0000000000000000
  0
LINE
  5
32A
100
AcDbEntity
  8
MAIN0
  6
CONTINUOUS
 62
3
100
AcDbLine
 10
173.3567503621531
 20
205.5197627890785
 30
0.0000000000000000
 11
158.3567503621531
 21
205.5197627890785
 31
0.0000000000000000
  0
LINE
  5
32B
100
AcDbEntity
  8
MAIN0
  6
CONTINUOUS
 62
3
100
AcDbLine
 10
253.3567503621531
 20
242.9097627890776
 30
0.0000000000000000
 11
252.7804557240617
 21
243.2097627890776
 31
0.0000000000000000
  0
LINE
  5
32C
100
AcDbEntity
  8
MAIN0
  6
CONTINUOUS
 62
3
100
AcDbLine
 10
252.7804557240617
 20
243.2097627890776
 30
0.0000000000000000
 11
251.4567503621531
 21
243.2097627890776
 31
0.0000000000000000
  0
LINE
  5
32D
100
AcDbEntity
  8
MAIN0
  6
CONTINUOUS
 62
3
100
AcDbLine
 10
251.0567503621531
 20
242.8097627890776
 30
0.0000000000000000
 11
251.0567503621531
 21
241.4860574271689
 31
0.0000000000000000
  0
LINE
  5
32E
100
AcDbEntity
  8
MAIN0
  6
CONTINUOUS
 62
3
100
AcDbLine
 10
251.0567503621531
 20
241.4860574271689
 30
0.0000000000000000
 11
251.3567503621531
 21
240.9097627890776
 31
0.0000000000000000
  0
ARC
  5
32F
100
AcDbEntity
  8
MAIN0
  6
CONTINUOUS
 62
3
100
AcDbCircle
 10
251.4567503621531
 20
242.8097627890776
 30
0.0000000000000000
 40
0.4000000000000000
100
AcDbArc
 50
90.00000000000000
 51
180.0000000000000
  0
CIRCLE
  5
330
100
AcDbEntity
  8
MAIN0
  6
CONTINUOUS
 62
3
100
AcDbCircle
 10
422.2739198021214
 20
225.9097627890776
 30
0.0000000000000000
 40
3.000000000000000
  0
CIRCLE
  5
331
100
AcDbEntity
  8
MAIN0
  6
CONTINUOUS
 62
3
100
AcDbCircle
 10
422.2739198021214
 20
225.9097627890776
 30
0.0000000000000000
 40
2.500000000000000
  0
LINE
  5
332
100
AcDbEntity
  8
MAIN0
  6
CENTER
 62
3
100
AcDbLine
 10
432.9112653414820
 20
299.5834416958521
 30
0.0000000000000000
 11
442.0637126332400
 21
299.5834416958521
 31
0.0000000000000000
  0
CIRCLE
  5
333
100
AcDbEntity
  8
MAIN0
  6
DASHED
 62
3
100
AcDbCircle
 10
437.2739198021213
 20
299.5834416958521
 30
0.0000000000000000
 40
3.000000000000000
  0
CIRCLE
  5
334
100
AcDbEntity
  8
MAIN0
  6
DASHED
 62
3
100
AcDbCircle
 10
437.2739198021213
 20
299.5834416958521
 30
0.0000000000000000
 40
2.500000000000000
  0
ARC
  5
335
100
AcDbEntity
  8
MAIN0
  6
CONTINUOUS
 62
3
100
AcDbCircle
 10
409.7293833436040
 20
247.0069172500491
 30
0.0000000000000000
 40
16.00000000000000
100
AcDbArc
 50
114.6351231832368
 51
305.3648768167529
  0
LINE
  5
336
100
AcDbEntity
  8
MAIN0
  6
CONTINUOUS
 62
3
100
AcDbLine
 10
411.4350858653622
 20
266.3340234040051
 30
0.0000000000000000
 11
401.8740274755944
 21
260.9458334269593
 31
0.0000000000000000
  0
LINE
  5
337
100
AcDbEntity
  8
MAIN0
  6
CONTINUOUS
 62
3
100
AcDbLine
 10
417.8731586378923
 20
233.2345200746790
 30
0.0000000000000000
 11
427.3199995199703
 21
238.8205458916068
 31
0.0000000000000000
  0
ARC
  5
338
100
AcDbEntity
  8
MAIN0
  6
CONTINUOUS
 62
3
100
AcDbCircle
 10
411.4544505518630
 20
248.0028852671076
 30
0.0000000000000000
 40
16.00000000000000
100
AcDbArc
 50
181.1200992715519
 51
238.8799007284484
  0
LINE
  5
339
100
AcDbEntity
  8
MAIN0
  6
CONTINUOUS
 62
3
100
AcDbLine
 10
453.1588334522069
 20
284.7483979818525
 30
0.0000000000000000
 11
453.2730532465524
 21
295.7226124229807
 31
0.0000000000000000
  0
ARC
  5
33A
100
AcDbEntity
  8
MAIN0
  6
CONTINUOUS
 62
3
100
AcDbCircle
 10
437.2739198021214
 20
292.8971967398553
 30
0.0000000000000000
 40
16.00000000000000
100
AcDbArc
 50
5.364876816759537
 51
14.36151156291652
  0
LINE
  5
33B
100
AcDbEntity
  8
MAIN0
  6
CONTINUOUS
 62
3
100
AcDbLine
 10
421.2747863300978
 20
295.7226150740917
 30
0.0000000000000000
 11
421.3890061527139
 21
284.7483979762388
 31
0.0000000000000000
  0
ARC
  5
33C
100
AcDbEntity
  8
MAIN0
  6
CONTINUOUS
 62
3
100
AcDbCircle
 10
437.2739198021214
 20
292.8971967398553
 30
0.0000000000000000
 40
16.00000000000000
100
AcDbArc
 50
165.6384884370835
 51
174.6351231832337
  0
ARC
  5
33D
100
AcDbEntity
  8
MAIN0
  6
CONTINUOUS
 62
3
100
AcDbCircle
 10
437.2739198021214
 20
294.7154538671345
 30
0.0000000000000000
 40
16.00000000000000
100
AcDbArc
 50
354.6351231832368
 51
374.3615115629166
  0
ARC
  5
33E
100
AcDbEntity
  8
MAIN0
  6
CONTINUOUS
 62
3
100
AcDbCircle
 10
437.2739198021214
 20
294.7154538671345
 30
0.0000000000000000
 40
16.00000000000000
100
AcDbArc
 50
165.6384884370835
 51
185.3648768167529
  0
LINE
  5
33F
100
AcDbEntity
  8
MAIN0
  6
CONTINUOUS
 62
3
100
AcDbLine
 10
421.7739198021214
 20
308.5834416959155
 30
0.0000000000000000
 11
421.7739198021214
 21
280.0834416959154
 31
0.0000000000000000
  0
LINE
  5
340
100
AcDbEntity
  8
MAIN0
  6
CONTINUOUS
 62
3
100
AcDbLine
 10
452.7739198021214
 20
308.5834416959155
 30
0.0000000000000000
 11
452.7739198021214
 21
280.0834416959154
 31
0.0000000000000000
  0
ARC
  5
341
100
AcDbEntity
  8
MAIN0
  6
CONTINUOUS
 62
3
100
AcDbCircle
 10
437.2739198021213
 20
286.6639966687778
 30
0.0000000000000000
 40
16.00000000000000
100
AcDbArc
 50
345.6384884370844
 51
353.1237729164702
  0
ARC
  5
342
100
AcDbEntity
  8
MAIN0
  6
CONTINUOUS
 62
3
100
AcDbCircle
 10
437.2739198021213
 20
286.6639966687778
 30
0.0000000000000000
 40
16.00000000000000
100
AcDbArc
 50
186.8762271038118
 51
194.3615115629173
  0
ARC
  5
343
100
AcDbEntity
  8
MAIN0
  6
CONTINUOUS
 62
3
100
AcDbCircle
 10
437.2739198021213
 20
286.6639966687778
 30
0.0000000000000000
 40
16.00000000000000
100
AcDbArc
 50
203.7521297450938
 51
336.2478702549063
  0
ARC
  5
344
100
AcDbEntity
  8
MAIN0
  6
CONTINUOUS
 62
3
100
AcDbCircle
 10
437.2739198021214
 20
262.9097627890776
 30
0.0000000000000000
 40
13.00000000000000
100
AcDbArc
 50
129.3977224732336
 51
166.0788810806704
  0
ARC
  5
345
100
AcDbEntity
  8
MAIN0
  6
CONTINUOUS
 62
3
100
AcDbCircle
 10
437.2739198021214
 20
262.9097627890776
 30
0.0000000000000000
 40
13.00000000000000
100
AcDbArc
 50
253.9211189193294
 51
286.0788810806704
  0
ARC
  5
346
100
AcDbEntity
  8
MAIN0
  6
CONTINUOUS
 62
3
100
AcDbCircle
 10
437.2739198021214
 20
262.9097627890776
 30
0.0000000000000000
 40
13.00000000000000
100
AcDbArc
 50
9.397722473233536
 51
50.60227752676660
  0
LINE
  5
347
100
AcDbEntity
  8
MAIN0
  6
CONTINUOUS
 62
3
100
AcDbLine
 10
421.7739198021214
 20
280.0834416959154
 30
0.0000000000000000
 11
422.4698504975273
 21
280.0834416959154
 31
0.0000000000000000
  0
LINE
  5
348
100
AcDbEntity
  8
MAIN0
  6
CONTINUOUS
 62
3
100
AcDbLine
 10
452.0779891067155
 20
280.0834416959154
 30
0.0000000000000000
 11
452.7739198021214
 21
280.0834416959154
 31
0.0000000000000000
  0
ARC
  5
349
100
AcDbEntity
  8
MAIN0
  6
CONTINUOUS
 62
3
100
AcDbCircle
 10
437.2739198021214
 20
262.9097627890776
 30
0.0000000000000000
 40
20.00000000000000
100
AcDbArc
 50
11.80586411752283
 51
48.19413588247761
  0
ARC
  5
34A
100
AcDbEntity
  8
MAIN0
  6
CONTINUOUS
 62
3
100
AcDbCircle
 10
437.2739198021214
 20
262.9097627890776
 30
0.0000000000000000
 40
20.00000000000000
100
AcDbArc
 50
131.8058641175225
 51
166.3809956310516
  0
ARC
  5
34B
100
AcDbEntity
  8
MAIN0
  6
CONTINUOUS
 62
3
100
AcDbCircle
 10
437.2739198021214
 20
262.9097627890776
 30
0.0000000000000000
 40
20.00000000000000
100
AcDbArc
 50
253.6190043689480
 51
286.3809956310520
  0
ARC
  5
34C
100
AcDbEntity
  8
MAIN0
  6
CONTINUOUS
 62
3
100
AcDbCircle
 10
437.2739198021209
 20
294.7154538671346
 30
0.0000000000000000
 40
16.00000000000000
100
AcDbArc
 50
60.08304972112370
 51
119.9169502788763
  0
ARC
  5
34D
100
AcDbEntity
  8
MAIN0
  6
CONTINUOUS
 62
3
100
AcDbCircle
 10
437.2739198021214
 20
262.9097627890775
 30
0.0000000000000000
 40
22.67367890683813
100
AcDbArc
 50
49.23797630891168
 51
130.7620236910883
  0
LINE
  5
34E
100
AcDbEntity
  8
MAIN0
  6
CENTER
 62
3
100
AcDbLine
 10
471.2155846159414
 20
248.3510929265377
 30
0.0000000000000000
 11
466.6393609700624
 21
240.4248410650771
 31
0.0000000000000000
  0
CIRCLE
  5
34F
100
AcDbEntity
  8
MAIN0
  6
DASHED
 62
3
100
AcDbCircle
 10
469.0342573856217
 20
244.5729233356905
 30
0.0000000000000000
 40
3.000000000000000
  0
CIRCLE
  5
350
100
AcDbEntity
  8
MAIN0
  6
DASHED
 62
3
100
AcDbCircle
 10
469.0342573856217
 20
244.5729233356905
 30
0.0000000000000000
 40
2.500000000000000
  0
LINE
  5
351
100
AcDbEntity
  8
MAIN0
  6
CONTINUOUS
 62
3
100
AcDbLine
 10
448.2442758380028
 20
238.2337064347940
 30
0.0000000000000000
 11
457.6911144334251
 21
232.6476819707116
 31
0.0000000000000000
  0
ARC
  5
352
100
AcDbEntity
  8
MAIN0
  6
CONTINUOUS
 62
3
100
AcDbCircle
 10
463.2437993978029
 20
247.9160458136888
 30
0.0000000000000000
 40
16.00000000000000
100
AcDbArc
 50
245.3648768167596
 51
254.3615115629165
  0
LINE
  5
353
100
AcDbEntity
  8
MAIN0
  6
CONTINUOUS
 62
3
100
AcDbLine
 10
473.6902501875818
 20
260.3589926718810
 30
0.0000000000000000
 11
464.1291894828876
 21
265.7471839528061
 31
0.0000000000000000
  0
ARC
  5
354
100
AcDbEntity
  8
MAIN0
  6
CONTINUOUS
 62
3
100
AcDbCircle
 10
463.2437993978029
 20
247.9160458136888
 30
0.0000000000000000
 40
16.00000000000000
100
AcDbArc
 50
45.63848843708347
 51
54.63512318323365
  0
ARC
  5
355
100
AcDbEntity
  8
MAIN0
  6
CONTINUOUS
 62
3
100
AcDbCircle
 10
464.8184562606388
 20
247.0069172500492
 30
0.0000000000000000
 40
16.00000000000000
100
AcDbArc
 50
234.6351231832368
 51
254.3615115629166
  0
ARC
  5
356
100
AcDbEntity
  8
MAIN0
  6
CONTINUOUS
 62
3
100
AcDbCircle
 10
464.8184562606388
 20
247.0069172500492
 30
0.0000000000000000
 40
16.00000000000000
100
AcDbArc
 50
45.63848843708347
 51
65.36487681675293
  0
LINE
  5
357
100
AcDbEntity
  8
MAIN0
  6
CONTINUOUS
 62
3
100
AcDbLine
 10
484.5784860197365
 20
253.4963170943176
 30
0.0000000000000000
 11
459.8967620118800
 21
267.7463170943175
 31
0.0000000000000000
  0
LINE
  5
358
100
AcDbEntity
  8
MAIN0
  6
CONTINUOUS
 62
3
100
AcDbLine
 10
469.0784860197365
 20
226.6495295770000
 30
0.0000000000000000
 11
444.3967620118801
 21
240.8995295769999
 31
0.0000000000000000
  0
ARC
  5
359
100
AcDbEntity
  8
MAIN0
  6
CONTINUOUS
 62
3
100
AcDbCircle
 10
457.8456897893789
 20
251.0326458492276
 30
0.0000000000000000
 40
16.00000000000000
100
AcDbArc
 50
225.6384884370843
 51
233.1237729164702
  0
ARC
  5
35A
100
AcDbEntity
  8
MAIN0
  6
CONTINUOUS
 62
3
100
AcDbCircle
 10
457.8456897893789
 20
251.0326458492276
 30
0.0000000000000000
 40
16.00000000000000
100
AcDbArc
 50
66.87622710381180
 51
74.36151156291727
  0
ARC
  5
35B
100
AcDbEntity
  8
MAIN0
  6
CONTINUOUS
 62
3
100
AcDbCircle
 10
457.8456897893789
 20
251.0326458492276
 30
0.0000000000000000
 40
16.00000000000000
100
AcDbArc
 50
83.75212974509381
 51
216.2478702549063
  0
LINE
  5
35C
100
AcDbEntity
  8
MAIN0
  6
CONTINUOUS
 62
3
100
AcDbLine
 10
459.8967620118801
 20
267.7463170943175
 30
0.0000000000000000
 11
459.5487966641771
 21
267.1436234328227
 31
0.0000000000000000
  0
LINE
  5
35D
100
AcDbEntity
  8
MAIN0
  6
CONTINUOUS
 62
3
100
AcDbLine
 10
444.7447273595831
 20
241.5022232384949
 30
0.0000000000000000
 11
444.3967620118801
 21
240.8995295769999
 31
0.0000000000000000
  0
ARC
  5
35E
100
AcDbEntity
  8
MAIN0
  6
CONTINUOUS
 62
3
100
AcDbCircle
 10
464.8184562606392
 20
247.0069172500495
 30
0.0000000000000000
 40
16.00000000000000
100
AcDbArc
 50
300.0830497211231
 51
359.9169502788769
  0
ARC
  5
35F
100
AcDbEntity
  8
MAIN0
  6
CONTINUOUS
 62
3
100
AcDbCircle
 10
437.2739198021214
 20
262.9097627890777
 30
0.0000000000000000
 40
22.67367890683813
100
AcDbArc
 50
289.2379763089117
 51
370.7620236910884
  0
ARC
  5
360
100
AcDbEntity
  8
MAIN0
  6
CONTINUOUS
 62
3
100
AcDbCircle
 10
437.2739198021213
 20
262.9097627890773
 30
0.0000000000000000
 40
22.67367890683813
100
AcDbArc
 50
169.2379763089117
 51
250.7620236910884
  0
CIRCLE
  5
361
100
AcDbEntity
  8
MAIN0
  6
CONTINUOUS
 62
3
100
AcDbCircle
 10
405.5135822186211
 20
244.5729233356900
 30
0.0000000000000000
 40
3.000000000000000
  0
CIRCLE
  5
362
100
AcDbEntity
  8
MAIN0
  6
CONTINUOUS
 62
3
100
AcDbCircle
 10
405.5135822186211
 20
244.5729233356900
 30
0.0000000000000000
 40
2.500000000000000
  0
LINE
  5
363
100
AcDbEntity
  8
MAIN0
  6
CENTER
 62
3
100
AcDbLine
 10
407.6949094489408
 20
240.7947537448428
 30
0.0000000000000000
 11
403.1186858030618
 21
248.7210056063033
 31
0.0000000000000000
  0
ARC
  5
364
100
AcDbEntity
  8
MAIN0
  6
CONTINUOUS
 62
3
100
AcDbCircle
 10
416.7021498148639
 20
251.0326458492271
 30
0.0000000000000000
 40
16.00000000000000
100
AcDbArc
 50
294.7298444019010
 51
485.2701555853947
  0
ARC
  5
365
100
AcDbEntity
  8
MAIN0
  6
CONTINUOUS
 62
3
100
AcDbCircle
 10
437.2739198021212
 20
262.9097627890776
 30
0.0000000000000000
 40
44.50000000000000
100
AcDbArc
 50
199.9996601202475
 51
220.0003398797527
  0
ARC
  5
366
100
AcDbEntity
  8
MAIN0
  6
CONTINUOUS
 62
3
100
AcDbCircle
 10
412.3204759556475
 20
248.5028852671076
 30
0.0000000000000000
 40
16.00000000000000
100
AcDbArc
 50
115.8285181656337
 51
195.8380405250671
  0
ARC
  5
367
100
AcDbEntity
  8
MAIN0
  6
CONTINUOUS
 62
3
100
AcDbCircle
 10
412.3204759556475
 20
248.5028852671076
 30
0.0000000000000000
 40
16.00000000000000
100
AcDbArc
 50
224.1619594749331
 51
304.1714818472998
  0
LINE
  5
368
100
AcDbEntity
  8
MAIN0
  6
CONTINUOUS
 62
3
100
AcDbLine
 10
237.4567503621531
 20
180.4097627890775
 30
0.0000000000000000
 11
238.2567503621531
 21
181.2097627890775
 31
0.0000000000000000
  0
LINE
  5
369
100
AcDbEntity
  8
MAIN0
  6
CONTINUOUS
 62
3
100
AcDbLine
 10
238.2567503621531
 20
181.2097627890775
 30
0.0000000000000000
 11
242.4567503621531
 21
181.2097627890775
 31
0.0000000000000000
  0
LINE
  5
36A
100
AcDbEntity
  8
MAIN0
  6
CONTINUOUS
 62
3
100
AcDbLine
 10
242.4567503621531
 20
181.2097627890775
 30
0.0000000000000000
 11
243.2567503621531
 21
180.4097627890775
 31
0.0000000000000000
  0
LINE
  5
36B
100
AcDbEntity
  8
MAIN0
  6
CONTINUOUS
 62
3
100
AcDbLine
 10
237.8567503621531
 20
180.8097627890775
 30
0.0000000000000000
 11
237.8567503621531
 21
186.4097627890775
 31
0.0000000000000000
  0
LINE
  5
36C
100
AcDbEntity
  8
MAIN0
  6
CONTINUOUS
 62
3
100
AcDbLine
 10
237.8567503621531
 20
186.4097627890775
 30
0.0000000000000000
 11
242.8567503621531
 21
186.4097627890775
 31
0.0000000000000000
  0
LINE
  5
36D
100
AcDbEntity
  8
MAIN0
  6
CONTINUOUS
 62
3
100
AcDbLine
 10
242.8567503621531
 20
186.4097627890775
 30
0.0000000000000000
 11
242.8567503621531
 21
180.8097627890775
 31
0.0000000000000000
  0
LINE
  5
36E
100
AcDbEntity
  8
MAIN0
  6
CONTINUOUS
 62
3
100
AcDbLine
 10
238.2567503621531
 20
181.2097627890775
 30
0.0000000000000000
 11
238.2567503621531
 21
247.4097627890776
 31
0.0000000000000000
  0
LINE
  5
36F
100
AcDbEntity
  8
MAIN0
  6
CONTINUOUS
 62
3
100
AcDbLine
 10
242.4567503621531
 20
247.4097627890776
 30
0.0000000000000000
 11
242.4567503621531
 21
181.2097627890775
 31
0.0000000000000000
  0
LINE
  5
370
100
AcDbEntity
  8
MAIN0
  6
CONTINUOUS
 62
3
100
AcDbLine
 10
239.0567503621531
 20
186.4097627890775
 30
0.0000000000000000
 11
237.8567503621531
 21
185.2097627890775
 31
0.0000000000000000
  0
LINE
  5
371
100
AcDbEntity
  8
MAIN0
  6
CONTINUOUS
 62
3
100
AcDbLine
 10
237.8567503621531
 20
185.2097627890775
 30
0.0000000000000000
 11
237.8567503621531
 21
181.9097627890775
 31
0.0000000000000000
  0
LINE
  5
372
100
AcDbEntity
  8
MAIN0
  6
CONTINUOUS
 62
3
100
AcDbLine
 10
237.8567503621531
 20
181.9097627890775
 30
0.0000000000000000
 11
238.7227757659375
 21
181.4097627890775
 31
0.0000000000000000
  0
LINE
  5
373
100
AcDbEntity
  8
MAIN0
  6
CONTINUOUS
 62
3
100
AcDbLine
 10
238.7227757659375
 20
181.4097627890775
 30
0.0000000000000000
 11
241.9907249583687
 21
181.4097627890775
 31
0.0000000000000000
  0
LINE
  5
374
100
AcDbEntity
  8
MAIN0
  6
CONTINUOUS
 62
3
100
AcDbLine
 10
241.9907249583687
 20
181.4097627890775
 30
0.0000000000000000
 11
242.8567503621531
 21
181.9097627890775
 31
0.0000000000000000
  0
LINE
  5
375
100
AcDbEntity
  8
MAIN0
  6
CONTINUOUS
 62
3
100
AcDbLine
 10
242.8567503621531
 20
181.9097627890775
 30
0.0000000000000000
 11
242.8567503621531
 21
185.2097627890775
 31
0.0000000000000000
  0
LINE
  5
376
100
AcDbEntity
  8
MAIN0
  6
CONTINUOUS
 62
3
100
AcDbLine
 10
242.8567503621531
 20
185.2097627890775
 30
0.0000000000000000
 11
241.6567503621531
 21
186.4097627890775
 31
0.0000000000000000
  0
LINE
  5
377
100
AcDbEntity
  8
MAIN0
  6
CONTINUOUS
 62
3
100
AcDbLine
 10
241.6567503621531
 20
186.4097627890775
 30
0.0000000000000000
 11
239.0567503621531
 21
186.4097627890775
 31
0.0000000000000000
  0
LINE
  5
378
100
AcDbEntity
  8
MAIN0
  6
CONTINUOUS
 62
3
100
AcDbLine
 10
237.8567503621531
 20
185.2097627890775
 30
0.0000000000000000
 11
242.8567503621531
 21
185.2097627890775
 31
0.0000000000000000
  0
LINE
  5
379
100
AcDbEntity
  8
MAIN0
  6
CONTINUOUS
 62
3
100
AcDbLine
 10
237.8567503621531
 20
181.9097627890775
 30
0.0000000000000000
 11
242.8567503621531
 21
181.9097627890775
 31
0.0000000000000000
  0
LINE
  5
37A
100
AcDbEntity
  8
MAIN0
  6
CONTINUOUS
 62
3
100
AcDbLine
 10
238.2897631621531
 20
185.6427755890775
 30
0.0000000000000000
 11
238.2897631621531
 21
181.6597627324350
 31
0.0000000000000000
  0
LINE
  5
37B
100
AcDbEntity
  8
MAIN0
  6
CONTINUOUS
 62
3
100
AcDbLine
 10
242.4237375621531
 20
185.6427755890775
 30
0.0000000000000000
 11
242.4237375621531
 21
181.6597627324350
 31
0.0000000000000000
  0
LINE
  5
37C
100
AcDbEntity
  8
MAIN0
  6
HIDDEN
 62
3
100
AcDbLine
 10
239.1067503621531
 20
186.4097627890775
 30
0.0000000000000000
 11
240.3567503621531
 21
185.1597627890775
 31
0.0000000000000000
  0
LINE
  5
37D
100
AcDbEntity
  8
MAIN0
  6
HIDDEN
 62
3
100
AcDbLine
 10
240.3567503621531
 20
185.1597627890775
 30
0.0000000000000000
 11
241.6067503621531
 21
186.4097627890775
 31
0.0000000000000000
  0
LINE
  5
37E
100
AcDbEntity
  8
MAIN0
  6
HIDDEN
 62
3
100
AcDbLine
 10
434.3739198021218
 20
180.4097627890776
 30
0.0000000000000000
 11
435.1739198021218
 21
181.2097627890776
 31
0.0000000000000000
  0
LINE
  5
37F
100
AcDbEntity
  8
MAIN0
  6
HIDDEN
 62
3
100
AcDbLine
 10
435.1739198021218
 20
181.2097627890776
 30
0.0000000000000000
 11
439.3739198021218
 21
181.2097627890776
 31
0.0000000000000000
  0
LINE
  5
380
100
AcDbEntity
  8
MAIN0
  6
HIDDEN
 62
3
100
AcDbLine
 10
439.3739198021218
 20
181.2097627890775
 30
0.0000000000000000
 11
440.1739198021218
 21
180.4097627890776
 31
0.0000000000000000
  0
LINE
  5
381
100
AcDbEntity
  8
MAIN0
  6
HIDDEN
 62
3
100
AcDbLine
 10
434.7739198021218
 20
180.8097627890776
 30
0.0000000000000000
 11
434.7739198021218
 21
186.4097627890776
 31
0.0000000000000000
  0
LINE
  5
382
100
AcDbEntity
  8
MAIN0
  6
HIDDEN
 62
3
100
AcDbLine
 10
434.7739198021218
 20
186.4097627890776
 30
0.0000000000000000
 11
439.7739198021218
 21
186.4097627890776
 31
0.0000000000000000
  0
LINE
  5
383
100
AcDbEntity
  8
MAIN0
  6
HIDDEN
 62
3
100
AcDbLine
 10
439.7739198021218
 20
186.4097627890776
 30
0.0000000000000000
 11
439.7739198021218
 21
180.8097627890776
 31
0.0000000000000000
  0
LINE
  5
384
100
AcDbEntity
  8
MAIN0
  6
HIDDEN
 62
3
100
AcDbLine
 10
435.1739198021218
 20
181.2097627890776
 30
0.0000000000000000
 11
435.1739198021218
 21
246.4398680699139
 31
0.0000000000000000
  0
LINE
  5
385
100
AcDbEntity
  8
MAIN0
  6
HIDDEN
 62
3
100
AcDbLine
 10
439.3739198021218
 20
246.4398680699139
 30
0.0000000000000000
 11
439.3739198021218
 21
181.2097627890776
 31
0.0000000000000000
  0
LINE
  5
386
100
AcDbEntity
  8
MAIN0
  6
HIDDEN
 62
3
100
AcDbLine
 10
510.1710156143374
 20
301.6482891181030
 30
0.0000000000000000
 11
509.0781952913098
 21
301.9411094411306
 31
0.0000000000000000
  0
LINE
  5
387
100
AcDbEntity
  8
MAIN0
  6
HIDDEN
 62
3
100
AcDbLine
 10
509.0781952913098
 20
301.9411094411306
 30
0.0000000000000000
 11
506.9781952913098
 21
305.5784161370252
 31
0.0000000000000000
  0
LINE
  5
388
100
AcDbEntity
  8
MAIN0
  6
HIDDEN
 62
3
100
AcDbLine
 10
506.9781952913098
 20
305.5784161370252
 30
0.0000000000000000
 11
507.2710156143373
 21
306.6712364600528
 31
0.0000000000000000
  0
LINE
  5
389
100
AcDbEntity
  8
MAIN0
  6
HIDDEN
 62
3
100
AcDbLine
 10
509.6246054528236
 20
301.7946992796168
 30
0.0000000000000000
 11
504.7748631916306
 21
298.9946992796168
 31
0.0000000000000000
  0
LINE
  5
38A
100
AcDbEntity
  8
MAIN0
  6
HIDDEN
 62
3
100
AcDbLine
 10
504.7748631916306
 20
298.9946992796168
 30
0.0000000000000000
 11
502.2748631916306
 21
303.3248262985390
 31
0.0000000000000000
  0
LINE
  5
38B
100
AcDbEntity
  8
MAIN0
  6
HIDDEN
 62
3
100
AcDbLine
 10
502.2748631916306
 20
303.3248262985390
 30
0.0000000000000000
 11
507.1246054528235
 21
306.1248262985390
 31
0.0000000000000000
  0
LINE
  5
38C
100
AcDbEntity
  8
MAIN0
  6
HIDDEN
 62
3
100
AcDbLine
 10
509.0781952913098
 20
301.9411094411306
 30
0.0000000000000000
 11
452.5872670265720
 21
269.3260568007124
 31
0.0000000000000000
  0
LINE
  5
38D
100
AcDbEntity
  8
MAIN0
  6
HIDDEN
 62
3
100
AcDbLine
 10
450.4872670265721
 20
272.9633634966070
 30
0.0000000000000000
 11
506.9781952913098
 21
305.5784161370252
 31
0.0000000000000000
  0
LINE
  5
38E
100
AcDbEntity
  8
MAIN0
  6
HIDDEN
 62
3
100
AcDbLine
 10
367.2768239899049
 20
306.6712364600522
 30
0.0000000000000000
 11
367.5696443129324
 21
305.5784161370245
 31
0.0000000000000000
  0
LINE
  5
38F
100
AcDbEntity
  8
MAIN0
  6
HIDDEN
 62
3
100
AcDbLine
 10
367.5696443129325
 20
305.5784161370246
 30
0.0000000000000000
 11
365.4696443129325
 21
301.9411094411300
 31
0.0000000000000000
  0
LINE
  5
390
100
AcDbEntity
  8
MAIN0
  6
HIDDEN
 62
3
100
AcDbLine
 10
365.4696443129326
 20
301.9411094411299
 30
0.0000000000000000
 11
364.3768239899050
 21
301.6482891181024
 31
0.0000000000000000
  0
LINE
  5
391
100
AcDbEntity
  8
MAIN0
  6
HIDDEN
 62
3
100
AcDbLine
 10
367.4232341514187
 20
306.1248262985384
 30
0.0000000000000000
 11
372.2729764126116
 21
303.3248262985384
 31
0.0000000000000000
  0
LINE
  5
392
100
AcDbEntity
  8
MAIN0
  6
HIDDEN
 62
3
100
AcDbLine
 10
372.2729764126116
 20
303.3248262985384
 30
0.0000000000000000
 11
369.7729764126116
 21
298.9946992796162
 31
0.0000000000000000
  0
LINE
  5
393
100
AcDbEntity
  8
MAIN0
  6
HIDDEN
 62
3
100
AcDbLine
 10
369.7729764126116
 20
298.9946992796162
 30
0.0000000000000000
 11
364.9232341514187
 21
301.7946992796162
 31
0.0000000000000000
  0
LINE
  5
394
100
AcDbEntity
  8
MAIN0
  6
HIDDEN
 62
3
100
AcDbLine
 10
367.5696443129325
 20
305.5784161370246
 30
0.0000000000000000
 11
424.0605725776702
 21
272.9633634966064
 31
0.0000000000000000
  0
LINE
  5
395
100
AcDbEntity
  8
MAIN0
  6
HIDDEN
 62
3
100
AcDbLine
 10
421.9605725776702
 20
269.3260568007117
 30
0.0000000000000000
 11
365.4696443129325
 21
301.9411094411300
 31
0.0000000000000000
  0
LINE
  5
396
100
AcDbEntity
  8
MAIN0
  6
CONTINUOUS
 62
3
100
AcDbLine
 10
275.6497503621531
 20
289.6097627890775
 30
0.0000000000000000
 11
275.6497503621531
 21
295.0097627890776
 31
0.0000000000000000
  0
LINE
  5
397
100
AcDbEntity
  8
MAIN0
  6
CONTINUOUS
 62
3
100
AcDbLine
 10
275.6497503621532
 20
295.0097627890776
 30
0.0000000000000000
 11
274.6105198776118
 21
295.6097627890775
 31
0.0000000000000000
  0
LINE
  5
398
100
AcDbEntity
  8
MAIN0
  6
CONTINUOUS
 62
3
100
AcDbLine
 10
274.6105198776118
 20
295.6097627890775
 30
0.0000000000000000
 11
266.6889808466945
 21
295.6097627890775
 31
0.0000000000000000
  0
LINE
  5
399
100
AcDbEntity
  8
MAIN0
  6
CONTINUOUS
 62
3
100
AcDbLine
 10
266.6889808466945
 20
295.6097627890775
 30
0.0000000000000000
 11
265.6497503621531
 21
295.0097627890776
 31
0.0000000000000000
  0
LINE
  5
39A
100
AcDbEntity
  8
MAIN0
  6
CONTINUOUS
 62
3
100
AcDbLine
 10
265.6497503621531
 20
295.0097627890776
 30
0.0000000000000000
 11
265.6497503621531
 21
289.6097627890775
 31
0.0000000000000000
  0
LINE
  5
39B
100
AcDbEntity
  8
MAIN0
  6
CONTINUOUS
 62
3
100
AcDbLine
 10
275.6497503621531
 20
295.0097627890776
 30
0.0000000000000000
 11
265.6497503621531
 21
295.0097627890776
 31
0.0000000000000000
  0
LINE
  5
39C
100
AcDbEntity
  8
MAIN0
  6
CONTINUOUS
 62
3
100
AcDbLine
 10
273.6497503621531
 20
289.6097627890775
 30
0.0000000000000000
 11
273.6497503621531
 21
277.6097627890775
 31
0.0000000000000000
  0
LINE
  5
39D
100
AcDbEntity
  8
MAIN0
  6
CONTINUOUS
 62
3
100
AcDbLine
 10
273.6497503621531
 20
277.6097627890775
 30
0.0000000000000000
 11
267.6497503621531
 21
277.6097627890775
 31
0.0000000000000000
  0
LINE
  5
39E
100
AcDbEntity
  8
MAIN0
  6
CONTINUOUS
 62
3
100
AcDbLine
 10
267.6497503621531
 20
277.6097627890775
 30
0.0000000000000000
 11
267.6497503621531
 21
289.6097627890775
 31
0.0000000000000000
  0
LINE
  5
39F
100
AcDbEntity
  8
MAIN0
  6
CONTINUOUS
 62
3
100
AcDbLine
 10
273.1084843621532
 20
289.6097627890775
 30
0.0000000000000000
 11
273.1084843621532
 21
277.6097627890775
 31
0.0000000000000000
  0
LINE
  5
3A0
100
AcDbEntity
  8
MAIN0
  6
CONTINUOUS
 62
3
100
AcDbLine
 10
268.1910163621531
 20
289.6097627890775
 30
0.0000000000000000
 11
268.1910163621531
 21
277.6097627890775
 31
0.0000000000000000
  0
CIRCLE
  5
3A1
100
AcDbEntity
  8
MAIN0
  6
CONTINUOUS
 62
3
100
AcDbCircle
 10
437.2739198021213
 20
262.9097627890775
 30
0.0000000000000000
 40
82.50000000000000
  0
LINE
  5
3A2
100
AcDbEntity
  8
MAIN0
  6
CENTER
 62
3
100
AcDbLine
 10
409.8011329293361
 20
290.3825496618962
 30
0.0000000000000000
 11
392.8625965911406
 21
307.3210860001123
 31
0.0000000000000000
  0
LINE
  5
3A3
100
AcDbEntity
  8
MAIN0
  6
CENTER
 62
3
100
AcDbLine
 10
398.3383484449043
 20
273.3425176910254
 30
0.0000000000000000
 11
375.2480083468673
 21
279.5295556732170
 31
0.0000000000000000
  0
LINE
  5
3A4
100
AcDbEntity
  8
MAIN0
  6
CENTER
 62
3
100
AcDbLine
 10
427.2181818938973
 20
225.3812380080805
 30
0.0000000000000000
 11
421.0182472911740
 21
202.2427670671693
 31
0.0000000000000000
  0
LINE
  5
3A5
100
AcDbEntity
  8
MAIN0
  6
CENTER
 62
3
100
AcDbLine
 10
447.7066747041863
 20
223.9741914318919
 30
0.0000000000000000
 11
453.8937126864477
 21
200.8838513338734
 31
0.0000000000000000
  0
CIRCLE
  5
3A6
100
AcDbEntity
  8
MAIN0
  6
CONTINUOUS
 62
3
100
AcDbCircle
 10
450.8334495751186
 20
212.3049087498137
 30
0.0000000000000000
 40
8.500000000000000
  0
CIRCLE
  5
3A7
100
AcDbEntity
  8
MAIN0
  6
CONTINUOUS
 62
3
100
AcDbCircle
 10
423.7143900291695
 20
212.3049087498018
 30
0.0000000000000000
 40
8.500000000000000
  0
LINE
  5
3A8
100
AcDbEntity
  8
MAIN0
  6
CENTER
 62
3
100
AcDbLine
 10
474.8024445831305
 20
272.9655006972558
 30
0.0000000000000000
 11
497.9409155240492
 21
279.1654352999509
 31
0.0000000000000000
  0
LINE
  5
3A9
100
AcDbEntity
  8
MAIN0
  6
CENTER
 62
3
100
AcDbLine
 10
465.7767362572732
 20
291.4125792443152
 30
0.0000000000000000
 11
482.6800383730491
 21
308.3158813601419
 31
0.0000000000000000
  0
CIRCLE
  5
3AA
100
AcDbEntity
  8
MAIN0
  6
CONTINUOUS
 62
3
100
AcDbCircle
 10
474.3192440684288
 20
299.9550870554965
 30
0.0000000000000000
 40
8.500000000000000
  0
CIRCLE
  5
3AB
100
AcDbEntity
  8
MAIN0
  6
CONTINUOUS
 62
3
100
AcDbCircle
 10
487.8787738414136
 20
276.4692925619677
 30
0.0000000000000000
 40
8.500000000000000
  0
ARC
  5
3AC
100
AcDbEntity
  8
MAIN0
  6
CENTER
 62
3
100
AcDbCircle
 10
437.2739198021213
 20
262.9097627890775
 30
0.0000000000000000
 40
52.39000000000000
100
AcDbArc
 50
121.4489526741687
 51
178.2191860031604
  0
ARC
  5
3AD
100
AcDbEntity
  8
MAIN0
  6
CENTER
 62
3
100
AcDbCircle
 10
437.2739198021213
 20
262.9097627890775
 30
0.0000000000000000
 40
52.39000000000000
100
AcDbArc
 50
241.9013338574490
 51
297.1225617655728
  0
ARC
  5
3AE
100
AcDbEntity
  8
MAIN0
  6
CENTER
 62
3
100
AcDbCircle
 10
437.2739198021213
 20
262.9097627890775
 30
0.0000000000000000
 40
52.39000000000000
100
AcDbArc
 50
3.094344533917948
 51
65.04983364281326
  0
CIRCLE
  5
3AF
100
AcDbEntity
  8
MAIN0
  6
CONTINUOUS
 62
3
100
AcDbCircle
 10
450.8334495751186
 20
212.3049087498137
 30
0.0000000000000000
 40
6.000000000000000
  0
CIRCLE
  5
3B0
100
AcDbEntity
  8
MAIN0
  6
CONTINUOUS
 62
3
100
AcDbCircle
 10
423.7143900291695
 20
212.3049087498018
 30
0.0000000000000000
 40
6.000000000000000
  0
CIRCLE
  5
3B1
100
AcDbEntity
  8
MAIN0
  6
CONTINUOUS
 62
3
100
AcDbCircle
 10
386.6690657628167
 20
276.4692925619224
 30
0.0000000000000000
 40
6.000000000000000
  0
CIRCLE
  5
3B2
100
AcDbEntity
  8
MAIN0
  6
CONTINUOUS
 62
3
100
AcDbCircle
 10
400.2285955357809
 20
299.9550870554631
 30
0.0000000000000000
 40
6.000000000000000
  0
CIRCLE
  5
3B3
100
AcDbEntity
  8
MAIN0
  6
CONTINUOUS
 62
3
100
AcDbCircle
 10
474.3192440684288
 20
299.9550870554965
 30
0.0000000000000000
 40
6.000000000000000
  0
CIRCLE
  5
3B4
100
AcDbEntity
  8
MAIN0
  6
CONTINUOUS
 62
3
100
AcDbCircle
 10
487.8787738414136
 20
276.4692925619677
 30
0.0000000000000000
 40
6.000000000000000
  0
LINE
  5
3B5
100
AcDbEntity
  8
MAIN0
  6
CENTER
 62
3
100
AcDbLine
 10
423.9914744129994
 20
270.5783862099836
 30
0.0000000000000000
 11
359.5746162274130
 21
307.7694766237818
 31
0.0000000000000000
  0
LINE
  5
3B6
100
AcDbEntity
  8
MAIN0
  6
CENTER
 62
3
100
AcDbLine
 10
451.0533905410014
 20
270.8653439294605
 30
0.0000000000000000
 11
518.4982501169794
 21
309.8046517611080
 31
0.0000000000000000
  0
CIRCLE
  5
3B7
100
AcDbEntity
  8
MAIN0
  6
CONTINUOUS
 62
3
100
AcDbCircle
 10
380.9822685561329
 20
230.4097627890778
 30
0.0000000000000000
 40
3.000000000000000
  0
CIRCLE
  5
3B8
100
AcDbEntity
  8
MAIN0
  6
CONTINUOUS
 62
3
100
AcDbCircle
 10
380.9822685561329
 20
230.4097627890778
 30
0.0000000000000000
 40
2.500000000000000
  0
CIRCLE
  5
3B9
100
AcDbEntity
  8
MAIN0
  6
CONTINUOUS
 62
3
100
AcDbCircle
 10
493.5655710481096
 20
230.4097627890774
 30
0.0000000000000000
 40
3.000000000000000
  0
CIRCLE
  5
3BA
100
AcDbEntity
  8
MAIN0
  6
CONTINUOUS
 62
3
100
AcDbCircle
 10
493.5655710481096
 20
230.4097627890774
 30
0.0000000000000000
 40
2.500000000000000
  0
LINE
  5
3BB
100
AcDbEntity
  8
MAIN0
  6
CENTER
 62
3
100
AcDbLine
 10
348.6906421696283
 20
225.9097627890776
 30
0.0000000000000000
 11
458.1606273571990
 21
225.9097627890776
 31
0.0000000000000000
  0
LINE
  5
3BC
100
AcDbEntity
  8
MAIN0
  6
CENTER
 62
3
100
AcDbLine
 10
422.2739198021214
 20
232.5001170671213
 30
0.0000000000000000
 11
422.2739198021213
 21
168.3064515824626
 31
0.0000000000000000
  0
LINE
  5
3BD
100
AcDbEntity
  8
MAIN0
  6
CENTER
 62
3
100
AcDbLine
 10
452.2739198021214
 20
231.9125706418483
 30
0.0000000000000000
 11
452.2739198021213
 21
169.2309886162286
 31
0.0000000000000000
  0
LINE
  5
3BE
100
AcDbEntity
  8
MAIN0
  6
CENTER
 62
3
100
AcDbLine
 10
348.6906421696283
 20
192.9097627890776
 30
0.0000000000000000
 11
456.9855494485793
 21
192.9097627890776
 31
0.0000000000000000
  0
CIRCLE
  5
3BF
100
AcDbEntity
  8
MAIN0
  6
CONTINUOUS
 62
3
100
AcDbCircle
 10
476.8168597421457
 20
268.4193817323110
 30
0.0000000000000000
 40
3.000000000000000
  0
CIRCLE
  5
3C0
100
AcDbEntity
  8
MAIN0
  6
CONTINUOUS
 62
3
100
AcDbCircle
 10
476.8168597421457
 20
268.4193817323110
 30
0.0000000000000000
 40
2.500000000000000
  0
CIRCLE
  5
3C1
100
AcDbEntity
  8
MAIN0
  6
CONTINUOUS
 62
3
100
AcDbCircle
 10
461.8168597421457
 20
294.4001438458441
 30
0.0000000000000000
 40
3.000000000000000
  0
CIRCLE
  5
3C2
100
AcDbEntity
  8
MAIN0
  6
CONTINUOUS
 62
3
100
AcDbCircle
 10
461.8168597421457
 20
294.4001438458441
 30
0.0000000000000000
 40
2.500000000000000
  0
CIRCLE
  5
3C3
100
AcDbEntity
  8
MAIN0
  6
CONTINUOUS
 62
3
100
AcDbCircle
 10
490.3956980670322
 20
310.9001438458441
 30
0.0000000000000000
 40
3.000000000000000
  0
CIRCLE
  5
3C4
100
AcDbEntity
  8
MAIN0
  6
CONTINUOUS
 62
3
100
AcDbCircle
 10
490.3956980670322
 20
310.9001438458441
 30
0.0000000000000000
 40
2.500000000000000
  0
CIRCLE
  5
3C5
100
AcDbEntity
  8
MAIN0
  6
CONTINUOUS
 62
3
100
AcDbCircle
 10
505.3956980670322
 20
284.9193817323110
 30
0.0000000000000000
 40
3.000000000000000
  0
CIRCLE
  5
3C6
100
AcDbEntity
  8
MAIN0
  6
CONTINUOUS
 62
3
100
AcDbCircle
 10
505.3956980670322
 20
284.9193817323110
 30
0.0000000000000000
 40
2.500000000000000
  0
LINE
  5
3C7
100
AcDbEntity
  8
MAIN0
  6
CENTER
 62
3
100
AcDbLine
 10
415.8866868078134
 20
299.8659886096227
 30
0.0000000000000000
 11
394.7876260845584
 21
263.3213434449640
 31
0.0000000000000000
  0
LINE
  5
3C8
100
AcDbEntity
  8
MAIN0
  6
CENTER
 62
3
100
AcDbLine
 10
387.5298432678256
 20
316.7504948560826
 30
0.0000000000000000
 11
366.7963267139817
 21
280.8389907652546
 31
0.0000000000000000
  0
LINE
  5
3C9
100
AcDbEntity
  8
MAIN0
  6
CENTER
 62
3
100
AcDbLine
 10
418.4383940868225
 20
291.1049667068223
 30
0.0000000000000000
 11
378.6350680600117
 21
314.0854277030440
 31
0.0000000000000000
  0
LINE
  5
3CA
100
AcDbEntity
  8
MAIN0
  6
CENTER
 62
3
100
AcDbLine
 10
402.9295639566334
 20
265.4179778059256
 30
0.0000000000000000
 11
363.2978341260329
 21
288.2993676920734
 31
0.0000000000000000
  0
CIRCLE
  5
3CB
100
AcDbEntity
  8
MAIN0
  6
CONTINUOUS
 62
3
100
AcDbCircle
 10
412.7309798620971
 20
294.4001438458442
 30
0.0000000000000000
 40
3.000000000000000
  0
CIRCLE
  5
3CC
100
AcDbEntity
  8
MAIN0
  6
CONTINUOUS
 62
3
100
AcDbCircle
 10
412.7309798620971
 20
294.4001438458442
 30
0.0000000000000000
 40
2.500000000000000
  0
CIRCLE
  5
3CD
100
AcDbEntity
  8
MAIN0
  6
CONTINUOUS
 62
3
100
AcDbCircle
 10
397.7309798620971
 20
268.4193817323110
 30
0.0000000000000000
 40
3.000000000000000
  0
CIRCLE
  5
3CE
100
AcDbEntity
  8
MAIN0
  6
CONTINUOUS
 62
3
100
AcDbCircle
 10
397.7309798620971
 20
268.4193817323110
 30
0.0000000000000000
 40
2.500000000000000
  0
CIRCLE
  5
3CF
100
AcDbEntity
  8
MAIN0
  6
CONTINUOUS
 62
3
100
AcDbCircle
 10
369.1521415372106
 20
284.9193817323110
 30
0.0000000000000000
 40
3.000000000000000
  0
CIRCLE
  5
3D0
100
AcDbEntity
  8
MAIN0
  6
CONTINUOUS
 62
3
100
AcDbCircle
 10
369.1521415372106
 20
284.9193817323110
 30
0.0000000000000000
 40
2.500000000000000
  0
CIRCLE
  5
3D1
100
AcDbEntity
  8
MAIN0
  6
CONTINUOUS
 62
3
100
AcDbCircle
 10
384.1521415372106
 20
310.9001438458442
 30
0.0000000000000000
 40
3.000000000000000
  0
CIRCLE
  5
3D2
100
AcDbEntity
  8
MAIN0
  6
CONTINUOUS
 62
3
100
AcDbCircle
 10
384.1521415372106
 20
310.9001438458442
 30
0.0000000000000000
 40
2.500000000000000
  0
LINE
  5
3D3
100
AcDbEntity
  8
MAIN0
  6
CENTER
 62
3
100
AcDbLine
 10
493.4612458289556
 20
305.5904593691637
 30
0.0000000000000000
 11
488.0398832438032
 21
314.9805348129006
 31
0.0000000000000000
  0
LINE
  5
3D4
100
AcDbEntity
  8
MAIN0
  6
CENTER
 62
3
100
AcDbLine
 10
508.4003519434490
 20
279.7151685591982
 30
0.0000000000000000
 11
502.2264648111187
 21
290.4086547525900
 31
0.0000000000000000
  0
LINE
  5
3D5
100
AcDbEntity
  8
MAIN0
  6
CENTER
 62
3
100
AcDbLine
 10
465.0944127341710
 20
288.7232555391570
 30
0.0000000000000000
 11
458.8735059646069
 21
299.4981821331912
 31
0.0000000000000000
  0
LINE
  5
3D6
100
AcDbEntity
  8
MAIN0
  6
CENTER
 62
3
100
AcDbLine
 10
479.0472586334930
 20
264.5562175313522
 30
0.0000000000000000
 11
473.8086959829593
 21
273.6296742007093
 31
0.0000000000000000
  0
LINE
  5
3D7
100
AcDbEntity
  8
MAIN0
  6
CENTER
 62
3
100
AcDbLine
 10
471.1094455174203
 20
265.1242045932891
 30
0.0000000000000000
 11
480.9329149174056
 21
270.7957872957466
 31
0.0000000000000000
  0
LINE
  5
3D8
100
AcDbEntity
  8
MAIN0
  6
CENTER
 62
3
100
AcDbLine
 10
500.4825126233512
 20
282.0827527938232
 30
0.0000000000000000
 11
511.0405237455215
 21
288.1784233573153
 31
0.0000000000000000
  0
LINE
  5
3D9
100
AcDbEntity
  8
MAIN0
  6
CENTER
 62
3
100
AcDbLine
 10
456.6182756476095
 20
291.3987399194588
 30
0.0000000000000000
 11
466.0540382323526
 21
296.8464799877695
 31
0.0000000000000000
  0
LINE
  5
3DA
100
AcDbEntity
  8
MAIN0
  6
CENTER
 62
3
100
AcDbLine
 10
485.8359694080103
 20
308.2675832771262
 30
0.0000000000000000
 11
495.8797112518770
 21
314.0663403343538
 31
0.0000000000000000
  0
ARC
  5
3DB
100
AcDbEntity
  8
MAIN0
  6
CENTER
 62
3
100
AcDbCircle
 10
437.2739198021214
 20
262.9097627890776
 30
0.0000000000000000
 40
65.00000000000000
100
AcDbArc
 50
82.07181042704418
 51
95.21614647255996
  0
ARC
  5
3DC
100
AcDbEntity
  8
MAIN0
  6
CENTER
 62
3
100
AcDbCircle
 10
437.2739198021214
 20
262.9097627890776
 30
0.0000000000000000
 40
65.00000000000000
100
AcDbArc
 50
193.0429480200304
 51
216.5929798126429
  0
ARC
  5
3DD
100
AcDbEntity
  8
MAIN0
  6
CENTER
 62
3
100
AcDbCircle
 10
437.2739198021214
 20
262.9097627890776
 30
0.0000000000000000
 40
65.00000000000000
100
AcDbArc
 50
322.6598678005669
 51
336.4349350549587
  0
DIMENSION
  5
3E6
100
AcDbEntity
  8
MAIN0
  6
CONTINUOUS
 62
3
100
AcDbDimension
  2
*D31
 10
452.7739198021214
 20
355.4479247357966
 30
0.0000000000000000
 11
437.2739198021214
 21
355.9479247357966
 31
0.0000000000000000
 70
32
  3
MAIN001
100
AcDbAlignedDimension
 13
421.7739198021214
 23
304.6230700183060
 33
0.0000000000000000
 14
452.7739198021214
 24
304.6230700183060
 34
0.0000000000000000
100
AcDbRotatedDimension
1001
ACAD
1000
DSTYLE
1002
{
1070
   173
1070
     1
1070
     6
1000
_OPEN
1070
     7
1000
_OPEN
1070
    41
1040
2.000000
1002
}
  0
DIMENSION
  5
3EE
100
AcDbEntity
  8
MAIN0
  6
CONTINUOUS
 62
3
100
AcDbDimension
  2
*D32
 10
413.1161669721835
 20
216.4219678509690
 30
0.0000000000000000
 11
465.6954117630994
 21
318.6867839219044
 31
0.0000000000000000
 70
163
  1
\A1;\U+2205104.8
  3
MAIN001
100
AcDbDiametricDimension
 15
461.4316726320591
 25
309.3975577271860
 35
0.0000000000000000
1001
ACAD
1000
DSTYLE
1002
{
1070
   287
1070
     2
1070
   173
1070
     1
1070
     6
1000
_OPEN
1070
     7
1000
_OPEN
1070
    41
1040
2.000000
1002
}
  0
DIMENSION
  5
3F5
100
AcDbEntity
  8
MAIN0
  6
CONTINUOUS
 62
3
100
AcDbDimension
  2
*D33
 10
422.2739198021214
 20
172.2802510867473
 30
0.0000000000000000
 11
437.2739198021214
 21
172.7802510867473
 31
0.0000000000000000
 70
32
  3
MAIN001
100
AcDbAlignedDimension
 13
452.2739198021214
 23
231.9125706418483
 33
0.0000000000000000
 14
422.2739198021214
 24
232.5001170671213
 34
0.0000000000000000
100
AcDbRotatedDimension
1001
ACAD
1000
DSTYLE
1002
{
1070
   173
1070
     1
1070
     6
1000
_OPEN
1070
     7
1000
_OPEN
1070
    41
1040
2.000000
1002
}
  0
DIMENSION
  5
3FE
100
AcDbEntity
  8
MAIN0
  6
CONTINUOUS
 62
3
100
AcDbDimension
  2
*D34
 10
337.9960246527912
 20
262.9097627890776
 30
0.0000000000000000
 11
337.4960246527912
 21
244.4097627890776
 31
0.0000000000000000
 70
32
  3
MAIN001
100
AcDbAlignedDimension
 13
348.6906421696283
 23
225.9097627890776
 33
0.0000000000000000
 14
348.6906421696283
 24
262.9097627890776
 34
0.0000000000000000
 50
90.00000000000000
100
AcDbRotatedDimension
1001
ACAD
1000
DSTYLE
1002
{
1070
   173
1070
     1
1070
     6
1000
_OPEN
1070
     7
1000
_OPEN
1070
    41
1040
2.000000
1002
}
  0
DIMENSION
  5
407
100
AcDbEntity
  8
MAIN0
  6
CONTINUOUS
 62
3
100
AcDbDimension
  2
*D35
 10
337.9960246527912
 20
225.9097627890776
 30
0.0000000000000000
 11
337.4960246527912
 21
209.4097627890776
 31
0.0000000000000000
 70
32
  3
MAIN001
100
AcDbAlignedDimension
 13
348.6906421696283
 23
192.9097627890776
 33
0.0000000000000000
 14
348.6906421696283
 24
225.9097627890776
 34
0.0000000000000000
 50
90.00000000000000
100
AcDbRotatedDimension
1001
ACAD
1000
DSTYLE
1002
{
1070
   173
1070
     1
1070
     6
1000
_OPEN
1070
     7
1000
_OPEN
1070
    41
1040
2.000000
1002
}
  0
DIMENSION
  5
40D
100
AcDbEntity
  8
MAIN0
  6
CONTINUOUS
 62
3
100
AcDbDimension
  2
*D36
 10
437.2739198021214
 20
262.9097627890776
 30
0.0000000000000000
 11
382.5566436109734
 21
247.2749067533300
 31
0.0000000000000000
 70
164
  3
MAIN001
100
AcDbRadialDimension
 15
374.9345897276117
 25
244.5030269062185
 35
0.0000000000000000
1001
ACAD
1000
DSTYLE
1002
{
1070
   173
1070
     1
1070
     6
1000
_OPEN
1070
     7
1000
_OPEN
1070
    41
1040
2.000000
1070
   340
1005
40E
1002
}
  0
LINE
  5
40F
100
AcDbEntity
  8
MAIN0
  6
CENTER
 62
3
100
AcDbLine
 10
357.6987895210466
 20
216.9670399004995
 30
0.0000000000000000
 11
389.6425225944064
 21
235.4097627893254
 31
0.0000000000000000
  0
LINE
  5
410
100
AcDbEntity
  8
MAIN0
  6
CENTER
 62
3
100
AcDbLine
 10
395.7047004208975
 20
238.9097627893254
 30
0.0000000000000000
 11
437.2739198021213
 21
262.9097627890776
 31
0.0000000000000000
  0
LINE
  5
411
100
AcDbEntity
  8
MAIN0
  6
CENTER
 62
3
100
AcDbLine
 10
437.2739198021212
 20
262.9097627890776
 30
0.0000000000000000
 11
478.8431391833463
 21
238.9097627893247
 31
0.0000000000000000
  0
LINE
  5
412
100
AcDbEntity
  8
MAIN0
  6
CENTER
 62
3
100
AcDbLine
 10
484.9053170098373
 20
235.4097627893247
 30
0.0000000000000000
 11
498.8411674408690
 21
227.3638957915821
 31
0.0000000000000000
  0
LINE
  5
413
100
AcDbEntity
  8
MAIN0
  6
CENTER
 62
3
100
AcDbLine
 10
504.1269087981283
 20
224.3121715961018
 30
0.0000000000000000
 11
516.8490500831961
 21
216.9670399004994
 31
0.0000000000000000
  0
CIRCLE
  5
414
100
AcDbEntity
  8
MAIN0
  6
CONTINUOUS
 62
3
100
AcDbCircle
 10
386.6690657628167
 20
276.4692925619224
 30
0.0000000000000000
 40
8.500000000000000
  0
CIRCLE
  5
415
100
AcDbEntity
  8
MAIN0
  6
CONTINUOUS
 62
3
100
AcDbCircle
 10
400.2285955357809
 20
299.9550870554631
 30
0.0000000000000000
 40
8.500000000000000
  0
CIRCLE
  5
416
100
AcDbEntity
  8
MAIN0
  6
CONTINUOUS
 62
3
100
AcDbCircle
 10
437.2739198021214
 20
327.9097627890776
 30
0.0000000000000000
 40
3.000000000000000
  0
CIRCLE
  5
417
100
AcDbEntity
  8
MAIN0
  6
CONTINUOUS
 62
3
100
AcDbCircle
 10
437.2739198021214
 20
327.9097627890776
 30
0.0000000000000000
 40
2.500000000000000
  0
CIRCLE
  5
418
100
AcDbEntity
  8
MAIN0
  6
CONTINUOUS
 62
3
100
AcDbCircle
 10
452.2739198021213
 20
192.9097627890776
 30
0.0000000000000000
 40
3.000000000000000
  0
CIRCLE
  5
419
100
AcDbEntity
  8
MAIN0
  6
CONTINUOUS
 62
3
100
AcDbCircle
 10
452.2739198021213
 20
192.9097627890776
 30
0.0000000000000000
 40
2.500000000000000
  0
CIRCLE
  5
41A
100
AcDbEntity
  8
MAIN0
  6
CONTINUOUS
 62
3
100
AcDbCircle
 10
422.2739198021213
 20
192.9097627890776
 30
0.0000000000000000
 40
3.000000000000000
  0
CIRCLE
  5
41B
100
AcDbEntity
  8
MAIN0
  6
CONTINUOUS
 62
3
100
AcDbCircle
 10
422.2739198021213
 20
192.9097627890776
 30
0.0000000000000000
 40
2.500000000000000
  0
CIRCLE
  5
41C
100
AcDbEntity
  8
MAIN0
  6
CONTINUOUS
 62
3
100
AcDbCircle
 10
452.2739198021214
 20
225.9097627890776
 30
0.0000000000000000
 40
3.000000000000000
  0
CIRCLE
  5
41D
100
AcDbEntity
  8
MAIN0
  6
CONTINUOUS
 62
3
100
AcDbCircle
 10
452.2739198021214
 20
225.9097627890776
 30
0.0000000000000000
 40
2.500000000000000
  0
LINE
  5
41E
100
AcDbEntity
  8
WAKU0
  6
CONTINUOUS
 62
3
100
AcDbLine
 10
412.0000000000000
 20
51.00000000000000
 30
0.0000000000000000
 11
582.0000000000000
 21
51.00000000000000
 31
0.0000000000000000
  0
LINE
  5
41F
100
AcDbEntity
  8
WAKU0
  6
CONTINUOUS
 62
3
100
AcDbLine
 10
412.0000000000000
 20
51.00000000000000
 30
0.0000000000000000
 11
412.0000000000000
 21
12.00000000000000
 31
0.0000000000000000
  0
LINE
  5
420
100
AcDbEntity
  8
WAKU0
  6
CONTINUOUS
 62
3
100
AcDbLine
 10
484.0000000000000
 20
51.00000000000000
 30
0.0000000000000000
 11
484.0000000000000
 21
12.00000000000000
 31
0.0000000000000000
  0
LINE
  5
421
100
AcDbEntity
  8
WAKU0
  6
CONTINUOUS
 62
3
100
AcDbLine
 10
504.0000000000000
 20
51.00000000000000
 30
0.0000000000000000
 11
504.0000000000000
 21
12.00000000000000
 31
0.0000000000000000
  0
LINE
  5
422
100
AcDbEntity
  8
WAKU0
  6
CONTINUOUS
 62
3
100
AcDbLine
 10
516.0000000000000
 20
51.00000000000000
 30
0.0000000000000000
 11
516.0000000000000
 21
12.00000000000000
 31
0.0000000000000000
  0
LINE
  5
423
100
AcDbEntity
  8
WAKU0
  6
CONTINUOUS
 62
3
100
AcDbLine
 10
516.0000000000000
 20
37.00000000000000
 30
0.0000000000000000
 11
582.0000000000000
 21
37.00000000000000
 31
0.0000000000000000
  0
LINE
  5
424
100
AcDbEntity
  8
WAKU0
  6
CONTINUOUS
 62
3
100
AcDbLine
 10
504.0000000000000
 20
23.00000000000000
 30
0.0000000000000000
 11
582.0000000000000
 21
23.00000000000000
 31
0.0000000000000000
  0
LINE
  5
425
100
AcDbEntity
  8
WAKU0
  6
CONTINUOUS
 62
3
100
AcDbLine
 10
547.0000000000000
 20
51.00000000000000
 30
0.0000000000000000
 11
547.0000000000000
 21
44.00000000000000
 31
0.0000000000000000
  0
LINE
  5
426
100
AcDbEntity
  8
WAKU0
  6
CONTINUOUS
 62
3
100
AcDbLine
 10
559.0000000000000
 20
51.00000000000000
 30
0.0000000000000000
 11
559.0000000000000
 21
44.00000000000000
 31
0.0000000000000000
  0
LINE
  5
427
100
AcDbEntity
  8
WAKU0
  6
CONTINUOUS
 62
3
100
AcDbLine
 10
484.0000000000000
 20
31.50000000000000
 30
0.0000000000000000
 11
504.0000000000000
 21
31.50000000000000
 31
0.0000000000000000
  0
LINE
  5
428
100
AcDbEntity
  8
WAKU0
  6
CONTINUOUS
 62
3
100
AcDbLine
 10
504.0000000000000
 20
44.00000000000000
 30
0.0000000000000000
 11
582.0000000000000
 21
44.00000000000000
 31
0.0000000000000000
  0
LINE
  5
429
100
AcDbEntity
  8
WAKU0
  6
CONTINUOUS
 62
3
100
AcDbLine
 10
412.0000000000000
 20
37.00000000000000
 30
0.0000000000000000
 11
484.0000000000000
 21
37.00000000000000
 31
0.0000000000000000
  0
LINE
  5
42A
100
AcDbEntity
  8
WAKU0
  6
CONTINUOUS
 62
3
100
AcDbLine
 10
412.0000000000000
 20
23.00000000000000
 30
0.0000000000000000
 11
484.0000000000000
 21
23.00000000000000
 31
0.0000000000000000
  0
LINE
  5
42B
100
AcDbEntity
  8
WAKU0
  6
CONTINUOUS
 62
3
100
AcDbLine
 10
460.0000000000000
 20
37.00000000000000
 30
0.0000000000000000
 11
460.0000000000000
 21
12.00000000000000
 31
0.0000000000000000
  0
LINE
  5
42C
100
AcDbEntity
  8
WAKU0
  6
CONTINUOUS
 62
3
100
AcDbLine
 10
436.0000000000000
 20
37.00000000000000
 30
0.0000000000000000
 11
436.0000000000000
 21
23.00000000000000
 31
0.0000000000000000
  0
LINE
  5
42D
100
AcDbEntity
  8
WAKU0
  6
CONTINUOUS
 62
3
100
AcDbLine
 10
472.0000000000000
 20
26.00000000000000
 30
0.0000000000000000
 11
472.0000000000000
 21
23.00000000000000
 31
0.0000000000000000
  0
LINE
  5
42E
100
AcDbEntity
  8
WAKU0
  6
CONTINUOUS
 62
3
100
AcDbLine
 10
448.0000000000000
 20
26.00000000000000
 30
0.0000000000000000
 11
448.0000000000000
 21
23.00000000000000
 31
0.0000000000000000
  0
LINE
  5
42F
100
AcDbEntity
  8
WAKU0
  6
CONTINUOUS
 62
3
100
AcDbLine
 10
424.0000000000000
 20
26.00000000000000
 30
0.0000000000000000
 11
424.0000000000000
 21
23.00000000000000
 31
0.0000000000000000
  0
LINE
  5
430
100
AcDbEntity
  8
WAKU0
  6
CONTINUOUS
 62
3
100
AcDbLine
 10
430.0000000000000
 20
51.00000000000000
 30
0.0000000000000000
 11
430.0000000000000
 21
37.00000000000000
 31
0.0000000000000000
  0
LINE
  5
431
100
AcDbEntity
  8
WAKU0
  6
CONTINUOUS
 62
3
100
AcDbLine
 10
412.0000000000000
 20
45.00000000000000
 30
0.0000000000000000
 11
484.0000000000000
 21
45.00000000000000
 31
0.0000000000000000
  0
LINE
  5
432
100
AcDbEntity
  8
WAKU0
  6
HIDDEN
 62
3
100
AcDbLine
 10
532.5000000000000
 20
23.00000000000000
 30
0.0000000000000000
 11
532.5000000000000
 21
12.00000000000000
 31
0.0000000000000000
  0
LINE
  5
433
100
AcDbEntity
  8
WAKU0
  6
HIDDEN
 62
3
100
AcDbLine
 10
544.9000000000000
 20
23.00000000000000
 30
0.0000000000000000
 11
544.9000000000000
 21
12.00000000000000
 31
0.0000000000000000
  0
MTEXT
  5
434
100
AcDbEntity
  8
WAKU0
  6
CONTINUOUS
 62
3
100
AcDbMText
 10
516.4820000243485
 20
49.04999995231628
 30
0.0000000000000000
 40
3.099999904632568
 41
0.0000000000000000
 71
     1
 72
     1
  1
{\H0.92x;{PUE06}}
 11
1.000000000000000
 21
0.0000000000000000
 31
0.0000000000000000
  7
STANDARD
  0
MTEXT
  5
435
100
AcDbEntity
  8
WAKU0
  6
CONTINUOUS
 62
3
100
AcDbMText
 10
530.6500003039837
 20
43.50000000000000
 30
0.0000000000000000
 40
3.000000000000000
 41
0.0000000000000000
 71
     1
 72
     1
  1
{\H0.94x;{プルロック　６\PＰＵＬＬ　ＬＯＣＫ　６}}
 11
1.000000000000000
 21
0.0000000000000000
 31
0.0000000000000000
  7
KNJYOKO
  0
MTEXT
  5
436
100
AcDbEntity
  8
WAKU0
  6
CONTINUOUS
 62
3
100
AcDbMText
 10
517.8699992895126
 20
34.23333326975504
 30
0.0000000000000000
 40
3.099999904632568
 41
0.0000000000000000
 71
     1
 72
     1
  1
{\H0.94x;{ＰＵＥ０６　ガイケイ\PＰＵＥ０６　ＯＵＴＳＩＤＥ　ＶＩＥＷ}}
 11
1.000000000000000
 21
0.0000000000000000
 31
0.0000000000000000
  7
KNJYOKO
  0
MTEXT
  5
437
100
AcDbEntity
  8
WAKU0
  6
CONTINUOUS
 62
3
100
AcDbMText
 10
490.0049998760223
 20
39.29999995231628
 30
0.0000000000000000
 40
3.099999904632568
 41
0.0000000000000000
 71
     1
 72
     1
  1
{\H0.90x;{1:1}}
 11
1.000000000000000
 21
0.0000000000000000
 31
0.0000000000000000
  7
STANDARD
  0
MTEXT
  5
438
100
AcDbEntity
  8
WAKU0
  6
CONTINUOUS
 62
3
100
AcDbMText
 10
546.4000001549721
 20
20.15000009536743
 30
0.0000000000000000
 40
5.300000190734863
 41
0.0000000000000000
 71
     1
 72
     1
  1
{\H0.90x;{3053}}
 11
1.000000000000000
 21
0.0000000000000000
 31
0.0000000000000000
  7
STANDARD
  0
MTEXT
  5
439
100
AcDbEntity
  8
WAKU0
  6
CONTINUOUS
 62
3
100
AcDbMText
 10
534.3000000834466
 20
20.15000009536743
 30
0.0000000000000000
 40
5.300000190734863
 41
0.0000000000000000
 71
     1
 72
     1
  1
{\H0.87x;{28}}
 11
1.000000000000000
 21
0.0000000000000000
 31
0.0000000000000000
  7
STANDARD
  0
MTEXT
  5
43A
100
AcDbEntity
  8
WAKU0
  6
CONTINUOUS
 62
3
100
AcDbMText
 10
517.5000001192093
 20
20.15000009536743
 30
0.0000000000000000
 40
5.300000190734863
 41
0.0000000000000000
 71
     1
 72
     1
  1
{\H0.89x;{61P}}
 11
1.000000000000000
 21
0.0000000000000000
 31
0.0000000000000000
  7
STANDARD
  0
MTEXT
  5
43B
100
AcDbEntity
  8
WAKU0
  6
CONTINUOUS
 62
3
100
AcDbMText
 10
572.0000000476837
 20
20.15000009536743
 30
0.0000000000000000
 40
5.300000190734863
 41
0.0000000000000000
 71
     1
 72
     1
  1
{\H0.81x;{1}}
 11
1.000000000000000
 21
0.0000000000000000
 31
0.0000000000000000
  7
STANDARD
  0
MTEXT
  5
43C
100
AcDbEntity
  8
WAKU0
  6
CONTINUOUS
 62
3
100
AcDbMText
 10
572.0000000819564
 20
44.84999990463257
 30
0.0000000000000000
 40
5.300000190734863
 41
0.0000000000000000
 71
     7
 72
     1
  1
{\H0.81x;{ }}
 11
1.000000000000000
 21
0.0000000000000000
 31
0.0000000000000000
  7
STANDARD
  0
MTEXT
  5
43D
100
AcDbEntity
  8
WAKU0
  6
CONTINUOUS
 62
3
100
AcDbMText
 10
461.3850002884865
 20
33.00000000000000
 30
0.0000000000000000
 40
3.000000000000000
 41
0.0000000000000000
 71
     7
 72
     1
  1
{\H0.93x;{DRAWN BY}}
 11
1.000000000000000
 21
0.0000000000000000
 31
0.0000000000000000
  7
STANDARD
  0
MTEXT
  5
43E
100
AcDbEntity
  8
WAKU0
  6
CONTINUOUS
 62
3
100
AcDbMText
 10
441.2149997949600
 20
32.95000004768372
 30
0.0000000000000000
 40
3.099999904632568
 41
0.0000000000000000
 71
     7
 72
     1
  1
{\H0.92x;{CHIEF}}
 11
1.000000000000000
 21
0.0000000000000000
 31
0.0000000000000000
  7
STANDARD
  0
MTEXT
  5
43F
100
AcDbEntity
  8
WAKU0
  6
CONTINUOUS
 62
3
100
AcDbMText
 10
414.4249997138977
 20
32.95000004768372
 30
0.0000000000000000
 40
3.099999904632568
 41
0.0000000000000000
 71
     7
 72
     1
  1
{\H0.92x;{MANAGER}}
 11
1.000000000000000
 21
0.0000000000000000
 31
0.0000000000000000
  7
STANDARD
  0
MTEXT
  5
440
100
AcDbEntity
  8
WAKU0
  6
CONTINUOUS
 62
3
100
AcDbMText
 10
416.6599994301796
 20
18.13333336512248
 30
0.0000000000000000
 40
3.099999904632568
 41
0.0000000000000000
 71
     7
 72
     1
  1
{\H0.93x;{KITAGAWA IRON\PWORKS CO.,LTD.}}
 11
1.000000000000000
 21
0.0000000000000000
 31
0.0000000000000000
  7
STANDARD
  0
MTEXT
  5
441
100
AcDbEntity
  8
WAKU0
  6
CONTINUOUS
 62
3
100
AcDbMText
 10
413.0850002169609
 20
46.50000000000000
 30
0.0000000000000000
 40
3.000000000000000
 41
0.0000000000000000
 71
     7
 72
     1
  1
{\H0.92x;{CAREER}}
 11
1.000000000000000
 21
0.0000000000000000
 31
0.0000000000000000
  7
STANDARD
  0
MTEXT
  5
442
100
AcDbEntity
  8
WAKU0
  6
CONTINUOUS
 62
3
100
AcDbMText
 10
466.6099998354912
 20
18.95000004768372
 30
0.0000000000000000
 40
3.099999904632568
 41
0.0000000000000000
 71
     7
 72
     1
  1
{\H0.91x;{DATE}}
 11
1.000000000000000
 21
0.0000000000000000
 31
0.0000000000000000
  7
STANDARD
  0
MTEXT
  5
443
100
AcDbEntity
  8
WAKU0
  6
CONTINUOUS
 62
3
100
AcDbMText
 10
485.9000002145767
 20
26.50000000000000
 30
0.0000000000000000
 40
3.000000000000000
 41
0.0000000000000000
 71
     7
 72
     1
  1
{\H0.63x;{3RD ANGLE}}
 11
1.000000000000000
 21
0.0000000000000000
 31
0.0000000000000000
  7
STANDARD
  0
MTEXT
  5
444
100
AcDbEntity
  8
WAKU0
  6
CONTINUOUS
 62
3
100
AcDbMText
 10
487.2149997949600
 20
45.95000004768372
 30
0.0000000000000000
 40
3.099999904632568
 41
0.0000000000000000
 71
     7
 72
     1
  1
{\H0.92x;{SCALE}}
 11
1.000000000000000
 21
0.0000000000000000
 31
0.0000000000000000
  7
STANDARD
  0
MTEXT
  5
445
100
AcDbEntity
  8
WAKU0
  6
CONTINUOUS
 62
3
100
AcDbMText
 10
577.7000000476837
 20
46.00000000000000
 30
0.0000000000000000
 40
3.000000000000000
 41
0.0000000000000000
 71
     7
 72
     1
  1
{\H0.63x;{kg}}
 11
1.000000000000000
 21
0.0000000000000000
 31
0.0000000000000000
  7
STANDARD
  0
MTEXT
  5
446
100
AcDbEntity
  8
WAKU0
  6
CONTINUOUS
 62
3
100
AcDbMText
 10
547.6000001430512
 20
46.00000000000000
 30
0.0000000000000000
 40
3.000000000000000
 41
0.0000000000000000
 71
     7
 72
     1
  1
{\H0.63x;{WEIGHT}}
 11
1.000000000000000
 21
0.0000000000000000
 31
0.0000000000000000
  7
STANDARD
  0
MTEXT
  5
447
100
AcDbEntity
  8
WAKU0
  6
CONTINUOUS
 62
3
100
AcDbMText
 10
506.0049998760223
 20
18.13333336512248
 30
0.0000000000000000
 40
3.099999904632568
 41
0.0000000000000000
 71
     7
 72
     1
  1
{\H0.90x;{DRW\PNO.}}
 11
1.000000000000000
 21
0.0000000000000000
 31
0.0000000000000000
  7
STANDARD
  0
MTEXT
  5
448
100
AcDbEntity
  8
WAKU0
  6
CONTINUOUS
 62
3
100
AcDbMText
 10
504.6099998354912
 20
31.95000004768372
 30
0.0000000000000000
 40
3.099999904632568
 41
0.0000000000000000
 71
     7
 72
     1
  1
{\H0.91x;{NAME}}
 11
1.000000000000000
 21
0.0000000000000000
 31
0.0000000000000000
  7
STANDARD
  0
MTEXT
  5
449
100
AcDbEntity
  8
WAKU0
  6
CONTINUOUS
 62
3
100
AcDbMText
 10
504.6099998354912
 20
45.95000004768372
 30
0.0000000000000000
 40
3.099999904632568
 41
0.0000000000000000
 71
     7
 72
     1
  1
{\H0.91x;{TYPE}}
 11
1.000000000000000
 21
0.0000000000000000
 31
0.0000000000000000
  7
STANDARD
  0
LINE
  5
44A
100
AcDbEntity
  8
WAKU0
  6
HIDDEN
 62
3
100
AcDbLine
 10
579.1599564743885
 20
13.84999990463257
 30
0.0000000000000000
 11
568.9400436209789
 21
13.84999990463257
 31
0.0000000000000000
  0
LINE
  5
44B
100
AcDbEntity
  8
WAKU0
  6
HIDDEN
 62
3
100
AcDbLine
 10
579.1599564743885
 20
13.84999990463250
 30
0.0000000000000000
 11
574.0500000476851
 21
22.70070406014901
 31
0.0000000000000000
  0
LINE
  5
44C
100
AcDbEntity
  8
WAKU0
  6
HIDDEN
 62
3
100
AcDbLine
 10
574.0500000476851
 20
22.70070406014902
 30
0.0000000000000000
 11
568.9400436209789
 21
13.84999990463248
 31
0.0000000000000000
  0
LINE
  5
44D
100
AcDbEntity
  8
WAKU0
  6
CONTINUOUS
 62
3
100
AcDbLine
 10
502.4713877753800
 20
15.78041421262812
 30
0.0000000000000000
 11
502.4713877753800
 21
21.78041421262815
 31
0.0000000000000000
  0
LINE
  5
44E
100
AcDbEntity
  8
WAKU0
  6
CONTINUOUS
 62
3
100
AcDbLine
 10
495.9336941228225
 20
17.28041421262811
 30
0.0000000000000000
 11
495.9336941228225
 21
20.28041421262824
 31
0.0000000000000000
  0
LINE
  5
44F
100
AcDbEntity
  8
WAKU0
  6
CENTER
 62
12
100
AcDbLine
 10
485.4321805514995
 20
18.78041421262813
 30
0.0000000000000000
 11
503.2765788964694
 21
18.78041421262813
 31
0.0000000000000000
  0
LINE
  5
450
100
AcDbEntity
  8
WAKU0
  6
CENTER
 62
12
100
AcDbLine
 10
489.4474565857986
 20
14.55921662918448
 30
0.0000000000000000
 11
489.4474565857986
 21
22.89865102149943
 31
0.0000000000000000
  0
LINE
  5
451
100
AcDbEntity
  8
WAKU0
  6
CONTINUOUS
 62
3
100
AcDbLine
 10
495.9336941228225
 20
20.28041421262797
 30
0.0000000000000000
 11
502.4713877753800
 21
21.78041421262795
 31
0.0000000000000000
  0
LINE
  5
452
100
AcDbEntity
  8
WAKU0
  6
CONTINUOUS
 62
3
100
AcDbLine
 10
495.9336941228225
 20
17.28041421262811
 30
0.0000000000000000
 11
502.4713877753799
 21
15.78041421262812
 31
0.0000000000000000
  0
CIRCLE
  5
453
100
AcDbEntity
  8
WAKU0
  6
CONTINUOUS
 62
3
100
AcDbCircle
 10
489.4474565857986
 20
18.78041421262813
 30
0.0000000000000000
 40
1.499999999999972
  0
CIRCLE
  5
454
100
AcDbEntity
  8
WAKU0
  6
CONTINUOUS
 62
3
100
AcDbCircle
 10
489.4474565857986
 20
18.78041421262813
 30
0.0000000000000000
 40
2.999999999999979
  0
ENDSEC
  0
SECTION
  2
OBJECTS
  0
DICTIONARY
  5
4A8
100
AcDbDictionary
  3
ACAD_GROUP
350
4A9
  3
ACAD_MLINESTYLE
350
4AA
  0
DICTIONARY
  5
4A9
102
{ACAD_REACTORS
330
4A8
102
}
100
AcDbDictionary
  0
DICTIONARY
  5
4AA
102
{ACAD_REACTORS
330
4A8
102
}
100
AcDbDictionary
  3
STANDARD
350
4AB
  0
MLINESTYLE
  5
4AB
102
{ACAD_REACTORS
330
4AA
102
}
100
AcDbMlineStyle
  2
STANDARD
 70
     0
  3

 62
   256
 51
90.00
 52
90.00
 71
     2
 49
0.50
 62
   256
  6
BYLAYER
 49
-0.50
 62
   256
  6
BYLAYER
  0
ENDSEC
  0
EOF
