  0
SECTION
  2
HEADER
  9
$ACADVER
  1
AC1014
  9
$DWGCODEPAGE
  3
ANSI_932
  9
$LTSCALE
 40
20.0
  9
$FILLMODE
 70
     1
  9
$CLAYER
  8
0
  9
$PDMODE
 70
     0
  9
$SPLFRAME
 70
     0
  9
$SPLINETYPE
 70
     6
  9
$SPLINESEGS
 70
     8
  9
$DIMASZ
 40
2.000000
  9
$DIMEXE
 40
2.000000
  9
$DIMEXO
 40
0.800000
  9
$DIMTAD
 70
     1
  9
$DIMTIH
 70
     0
  9
$DIMTOH
 70
     0
  9
$DIMTVP
 40
0.500000
  9
$DIMTXT
 40
3.100000
  9
$EXTMIN
 10
0.000000
 20
0.000000
 30
0.000000
  9
$EXTMAX
 10
297.000000
 20
420.000000
 30
0.000000
  9
$MEASUREMENT
 70
  1
  9
$LIMMIN
 10
0.000000
 20
0.000000
  9
$LIMMAX
 10
297.000000
 20
420.000000
  9
$HANDLING
 70
     1
  9
$HANDSEED
  5
41D
  9
$DIMBLK
  1
_OPEN
  9
$DIMDEC
 70
     3
  9
$DIMAUNIT
 70
     1
  9
$DIMZIN
 70
     8
  9
$DIMTOFL
 70
     1
  0
ENDSEC
  0
SECTION
  2
CLASSES
  0
ENDSEC
  0
SECTION
  2
TABLES
  0
TABLE
  2
VPORT
  5
3CA
100
AcDbSymbolTable
 70
     1
  0
VPORT
  5
3CB
100
AcDbSymbolTableRecord
100
AcDbViewportTableRecord
  2
*ACTIVE
 70
     0
 12
210.120582
 22
148.500000
 40
297.000000
 41
1.414953
  0
ENDTAB
  0
TABLE
  2
LTYPE
  5
3CC
100
AcDbSymbolTable
 70
     4
  0
LTYPE
  5
3CD
100
AcDbSymbolTableRecord
100
AcDbLinetypeTableRecord
  2
BYBLOCK
 70
     0
  3

 72
    65
 73
     0
 40
0.0
  0
LTYPE
  5
3CE
100
AcDbSymbolTableRecord
100
AcDbLinetypeTableRecord
  2
BYLAYER
 70
     0
  3

 72
    65
 73
     0
 40
0.0
  0
LTYPE
  5
3CF
100
AcDbSymbolTableRecord
100
AcDbLinetypeTableRecord
  2
CONTINUOUS
 70
     0
  3
Solid line (NEC CAE2D for Win R12.1 : 2018.06.08)
 72
    65
 73
     0
 40
0.0
  0
LTYPE
  5
3D0
100
AcDbSymbolTableRecord
100
AcDbLinetypeTableRecord
  2
HIDDEN
 70
     0
  3
__ __ __ __ __ __ __ __ __ __ __ __ __ __
 72
    65
 73
     2
 40
0.375
 49
0.25
 74
     0
 49
-0.125
 74
     0
  0
LTYPE
  5
3D1
100
AcDbSymbolTableRecord
100
AcDbLinetypeTableRecord
  2
CENTER
 70
     0
  3
____ _ ____ _ ____ _ ____ _ ____ _ ____
 72
    65
 73
     4
 40
2.0
 49
1.25
 74
     0
 49
-0.25
 74
     0
 49
0.25
 74
     0
 49
-0.25
 74
     0
  0
LTYPE
  5
3D2
100
AcDbSymbolTableRecord
100
AcDbLinetypeTableRecord
  2
PHANTOM
 70
     0
  3
______  __  __  ______  __  __  ______ 
 72
    65
 73
     6
 40
2.5
 49
1.25
 74
     0
 49
-0.25
 74
     0
 49
0.25
 74
     0
 49
-0.25
 74
     0
 49
0.25
 74
     0
 49
-0.25
 74
     0
  0
ENDTAB
  0
TABLE
  2
LAYER
  5
3D3
100
AcDbSymbolTable
 70
     9
  0
LAYER
  5
3D4
100
AcDbSymbolTableRecord
100
AcDbLayerTableRecord
  2
0
 70
     0
 62
     7
  6
CONTINUOUS
  0
LAYER
  5
3D5
100
AcDbSymbolTableRecord
100
AcDbLayerTableRecord
  2
MAIN0
 70
     0
 62
     7
  6
CONTINUOUS
  0
LAYER
  5
3D6
100
AcDbSymbolTableRecord
100
AcDbLayerTableRecord
  2
MAIN1
 70
     0
 62
     7
  6
CONTINUOUS
  0
LAYER
  5
3D7
100
AcDbSymbolTableRecord
100
AcDbLayerTableRecord
  2
MAIN2
 70
     0
 62
     7
  6
CONTINUOUS
  0
LAYER
  5
3D8
100
AcDbSymbolTableRecord
100
AcDbLayerTableRecord
  2
MAIN3
 70
     0
 62
     7
  6
CONTINUOUS
  0
LAYER
  5
3D9
100
AcDbSymbolTableRecord
100
AcDbLayerTableRecord
  2
MAIN4
 70
     0
 62
     7
  6
CONTINUOUS
  0
LAYER
  5
3DA
100
AcDbSymbolTableRecord
100
AcDbLayerTableRecord
  2
MAIN1023
 70
     0
 62
    16
  6
CONTINUOUS
  0
LAYER
  5
3DB
100
AcDbSymbolTableRecord
100
AcDbLayerTableRecord
  2
WAKU0
 70
     0
 62
     7
  6
CONTINUOUS
  0
LAYER
  5
3DC
100
AcDbSymbolTableRecord
100
AcDbLayerTableRecord
  2
WAKU1023
 70
     0
 62
    16
  6
CONTINUOUS
  0
ENDTAB
  0
TABLE
  2
STYLE
  5
3DD
100
AcDbSymbolTable
 70
     4
  0
STYLE
  5
3DE
100
AcDbSymbolTableRecord
100
AcDbTextStyleTableRecord
  2
STANDARD
 70
    64
 40
0.0
 41
1.0
 50
0.0
 71
     0
 42
3.099999904632568
  3
TXT
  4

  0
STYLE
  5
3DF
100
AcDbSymbolTableRecord
100
AcDbTextStyleTableRecord
  2
ANKTATE
 70
    68
 40
0.0
 41
1.0
 50
0.0
 71
     0
 42
3.099999904632568
  3
TXT
  4

  0
STYLE
  5
FD
100
AcDbSymbolTableRecord
100
AcDbTextStyleTableRecord
  2
KNJYOKO
 70
    64
 40
0.0
 41
1.0
 50
0.0
 71
     0
 42
3.099999904632568
  3
TXT
  4
BIGFONT
  0
STYLE
  5
3E0
100
AcDbSymbolTableRecord
100
AcDbTextStyleTableRecord
  2
KNJTATE
 70
    68
 40
0.0
 41
1.0
 50
0.0
 71
     0
 42
3.099999904632568
  3
TXT
  4
BIGFONT
  0
ENDTAB
  0
TABLE
  2
VIEW
  5
3E1
100
AcDbSymbolTable
 70
     0
  0
ENDTAB
  0
TABLE
  2
UCS
  5
3E2
100
AcDbSymbolTable
 70
     0
  0
ENDTAB
  0
TABLE
  2
APPID
  5
3E3
100
AcDbSymbolTable
 70
     1
  0
APPID
  5
3E4
100
AcDbSymbolTableRecord
100
AcDbRegAppTableRecord
  2
ACAD
 70
     0
  0
ENDTAB
  0
TABLE
  2
DIMSTYLE
  5
3E5
100
AcDbSymbolTable
 70
     1
  0
DIMSTYLE
105
3E6
100
AcDbSymbolTableRecord
100
AcDbDimStyleTableRecord
  2
STANDARD
 70
     0
 41
2.000000
 44
2.000000
 42
0.800000
145
0.661290
140
3.100000
144
1.000000
146
0.903226
340
3DE
  0
DIMSTYLE
105
3E7
100
AcDbSymbolTableRecord
100
AcDbDimStyleTableRecord
  2
MAIN001
 70
     0
 41
2.000000
 44
2.000000
 42
0.800000
145
0.661290
140
3.100000
144
1.000000
146
0.903226
 77
     1
 73
     0
 74
     0
271
     3
275
     1
 78
     8
172
     1
340
3DE
  0
DIMSTYLE
105
3E8
100
AcDbSymbolTableRecord
100
AcDbDimStyleTableRecord
  2
WAKU002
 70
     0
 41
2.000000
 44
2.000000
 42
0.800000
145
0.661290
140
3.100000
144
1.000000
146
0.903226
 77
     1
 73
     0
 74
     0
271
     3
275
     1
 78
     8
172
     1
340
3DE
  0
ENDTAB
  0
TABLE
  2
BLOCK_RECORD
  5
3E9
100
AcDbSymbolTable
 70
    52
  0
BLOCK_RECORD
  5
3EA
100
AcDbSymbolTableRecord
100
AcDbBlockTableRecord
  2
*MODEL_SPACE
  0
BLOCK_RECORD
  5
3EB
100
AcDbSymbolTableRecord
100
AcDbBlockTableRecord
  2
*PAPER_SPACE
  0
BLOCK_RECORD
  5
1
100
AcDbSymbolTableRecord
100
AcDbBlockTableRecord
  2
_NONE
  0
BLOCK_RECORD
  5
4
100
AcDbSymbolTableRecord
100
AcDbBlockTableRecord
  2
_CLOSED
  0
BLOCK_RECORD
  5
B
100
AcDbSymbolTableRecord
100
AcDbBlockTableRecord
  2
_DOT
  0
BLOCK_RECORD
  5
13
100
AcDbSymbolTableRecord
100
AcDbBlockTableRecord
  2
_OPEN
  0
BLOCK_RECORD
  5
19
100
AcDbSymbolTableRecord
100
AcDbBlockTableRecord
  2
_ORIGIN
  0
BLOCK_RECORD
  5
1E
100
AcDbSymbolTableRecord
100
AcDbBlockTableRecord
  2
_OPEN30
  0
BLOCK_RECORD
  5
24
100
AcDbSymbolTableRecord
100
AcDbBlockTableRecord
  2
_BOXFILLED
  0
BLOCK_RECORD
  5
29
100
AcDbSymbolTableRecord
100
AcDbBlockTableRecord
  2
_BOXBLANK
  0
BLOCK_RECORD
  5
31
100
AcDbSymbolTableRecord
100
AcDbBlockTableRecord
  2
_OBLIQUE
  0
BLOCK_RECORD
  5
35
100
AcDbSymbolTableRecord
100
AcDbBlockTableRecord
  2
_OPEN90
  0
BLOCK_RECORD
  5
3B
100
AcDbSymbolTableRecord
100
AcDbBlockTableRecord
  2
_CLOSEDBLANK
  0
BLOCK_RECORD
  5
41
100
AcDbSymbolTableRecord
100
AcDbBlockTableRecord
  2
_DOTBLANK
  0
BLOCK_RECORD
  5
3EC
100
AcDbSymbolTableRecord
100
AcDbBlockTableRecord
  2
*D0
  0
BLOCK_RECORD
  5
3ED
100
AcDbSymbolTableRecord
100
AcDbBlockTableRecord
  2
*D1
  0
BLOCK_RECORD
  5
3EE
100
AcDbSymbolTableRecord
100
AcDbBlockTableRecord
  2
*D2
  0
BLOCK_RECORD
  5
3EF
100
AcDbSymbolTableRecord
100
AcDbBlockTableRecord
  2
*D3
  0
BLOCK_RECORD
  5
3F0
100
AcDbSymbolTableRecord
100
AcDbBlockTableRecord
  2
*D4
  0
BLOCK_RECORD
  5
3F1
100
AcDbSymbolTableRecord
100
AcDbBlockTableRecord
  2
M0
  0
BLOCK_RECORD
  5
3F2
100
AcDbSymbolTableRecord
100
AcDbBlockTableRecord
  2
*D5
  0
BLOCK_RECORD
  5
3F3
100
AcDbSymbolTableRecord
100
AcDbBlockTableRecord
  2
*D6
  0
BLOCK_RECORD
  5
3F4
100
AcDbSymbolTableRecord
100
AcDbBlockTableRecord
  2
*D7
  0
BLOCK_RECORD
  5
3F5
100
AcDbSymbolTableRecord
100
AcDbBlockTableRecord
  2
*D8
  0
BLOCK_RECORD
  5
3F6
100
AcDbSymbolTableRecord
100
AcDbBlockTableRecord
  2
*D9
  0
BLOCK_RECORD
  5
3F7
100
AcDbSymbolTableRecord
100
AcDbBlockTableRecord
  2
*D10
  0
BLOCK_RECORD
  5
3F8
100
AcDbSymbolTableRecord
100
AcDbBlockTableRecord
  2
*D11
  0
BLOCK_RECORD
  5
3F9
100
AcDbSymbolTableRecord
100
AcDbBlockTableRecord
  2
*D12
  0
BLOCK_RECORD
  5
3FA
100
AcDbSymbolTableRecord
100
AcDbBlockTableRecord
  2
*D13
  0
BLOCK_RECORD
  5
3FB
100
AcDbSymbolTableRecord
100
AcDbBlockTableRecord
  2
*D14
  0
BLOCK_RECORD
  5
3FC
100
AcDbSymbolTableRecord
100
AcDbBlockTableRecord
  2
*D15
  0
BLOCK_RECORD
  5
3FD
100
AcDbSymbolTableRecord
100
AcDbBlockTableRecord
  2
*D16
  0
BLOCK_RECORD
  5
3FE
100
AcDbSymbolTableRecord
100
AcDbBlockTableRecord
  2
*D17
  0
BLOCK_RECORD
  5
3FF
100
AcDbSymbolTableRecord
100
AcDbBlockTableRecord
  2
*D18
  0
BLOCK_RECORD
  5
400
100
AcDbSymbolTableRecord
100
AcDbBlockTableRecord
  2
*D19
  0
BLOCK_RECORD
  5
401
100
AcDbSymbolTableRecord
100
AcDbBlockTableRecord
  2
*D20
  0
BLOCK_RECORD
  5
402
100
AcDbSymbolTableRecord
100
AcDbBlockTableRecord
  2
*D21
  0
BLOCK_RECORD
  5
403
100
AcDbSymbolTableRecord
100
AcDbBlockTableRecord
  2
*D22
  0
BLOCK_RECORD
  5
404
100
AcDbSymbolTableRecord
100
AcDbBlockTableRecord
  2
*D23
  0
BLOCK_RECORD
  5
405
100
AcDbSymbolTableRecord
100
AcDbBlockTableRecord
  2
*D24
  0
BLOCK_RECORD
  5
406
100
AcDbSymbolTableRecord
100
AcDbBlockTableRecord
  2
*D25
  0
BLOCK_RECORD
  5
407
100
AcDbSymbolTableRecord
100
AcDbBlockTableRecord
  2
*D26
  0
BLOCK_RECORD
  5
408
100
AcDbSymbolTableRecord
100
AcDbBlockTableRecord
  2
*D27
  0
BLOCK_RECORD
  5
409
100
AcDbSymbolTableRecord
100
AcDbBlockTableRecord
  2
*D28
  0
BLOCK_RECORD
  5
40A
100
AcDbSymbolTableRecord
100
AcDbBlockTableRecord
  2
*D29
  0
BLOCK_RECORD
  5
40B
100
AcDbSymbolTableRecord
100
AcDbBlockTableRecord
  2
*D30
  0
BLOCK_RECORD
  5
40C
100
AcDbSymbolTableRecord
100
AcDbBlockTableRecord
  2
*D31
  0
BLOCK_RECORD
  5
40D
100
AcDbSymbolTableRecord
100
AcDbBlockTableRecord
  2
*D32
  0
BLOCK_RECORD
  5
40E
100
AcDbSymbolTableRecord
100
AcDbBlockTableRecord
  2
*D33
  0
BLOCK_RECORD
  5
40F
100
AcDbSymbolTableRecord
100
AcDbBlockTableRecord
  2
*D34
  0
BLOCK_RECORD
  5
410
100
AcDbSymbolTableRecord
100
AcDbBlockTableRecord
  2
*D35
  0
BLOCK_RECORD
  5
411
100
AcDbSymbolTableRecord
100
AcDbBlockTableRecord
  2
*D36
  0
BLOCK_RECORD
  5
412
100
AcDbSymbolTableRecord
100
AcDbBlockTableRecord
  2
D37
  0
BLOCK_RECORD
  5
413
100
AcDbSymbolTableRecord
100
AcDbBlockTableRecord
  2
D38
  0
ENDTAB
  0
ENDSEC
  0
SECTION
  2
BLOCKS
  0
BLOCK
  5
414
100
AcDbEntity
  8
0
100
AcDbBlockBegin
  2
*MODEL_SPACE
 70
     0
 10
0.0
 20
0.0
 30
0.0
  3
*MODEL_SPACE
  1

  0
ENDBLK
  5
415
100
AcDbEntity
  8
0
100
AcDbBlockEnd
  0
BLOCK
  5
416
100
AcDbEntity
  8
0
100
AcDbBlockBegin
  2
*PAPER_SPACE
 70
     0
 10
0.0
 20
0.0
 30
0.0
  3
*PAPER_SPACE
  1

  0
ENDBLK
  5
417
100
AcDbEntity
  8
0
100
AcDbBlockEnd
  0
BLOCK
  5
2
100
AcDbEntity
  8
0
100
AcDbBlockBegin
  2
_NONE
 70
     0
 10
0.0
 20
0.0
 30
0.0
  3
_NONE
  1

  0
ENDBLK
  5
3
100
AcDbEntity
  8
0
100
AcDbBlockEnd
  0
BLOCK
  5
5
100
AcDbEntity
  8
0
100
AcDbBlockBegin
  2
_CLOSED
 70
     0
 10
0.0
 20
0.0
 30
0.0
  3
_CLOSED
  1

  0
LINE
  5
6
100
AcDbEntity
  8
0
  6
BYBLOCK
 62
     0
100
AcDbLine
 10
-1.0
 20
0.166667
 30
0.0
 11
0.0
 21
0.0
 31
0.0
  0
LINE
  5
7
100
AcDbEntity
  8
0
  6
BYBLOCK
 62
     0
100
AcDbLine
 10
0.0
 20
0.0
 30
0.0
 11
-1.0
 21
-0.166667
 31
0.0
  0
LINE
  5
8
100
AcDbEntity
  8
0
  6
BYBLOCK
 62
     0
100
AcDbLine
 10
-1.0
 20
0.166667
 30
0.0
 11
-1.0
 21
-0.166667
 31
0.0
  0
LINE
  5
9
100
AcDbEntity
  8
0
  6
BYBLOCK
 62
     0
100
AcDbLine
 10
0.0
 20
0.0
 30
0.0
 11
-1.0
 21
0.0
 31
0.0
  0
ENDBLK
  5
A
100
AcDbEntity
  8
0
100
AcDbBlockEnd
  0
BLOCK
  5
C
100
AcDbEntity
  8
0
100
AcDbBlockBegin
  2
_DOT
 70
     0
 10
0.0
 20
0.0
 30
0.0
  3
_DOT
  1

  0
POLYLINE
  5
D
100
AcDbEntity
  8
0
  6
BYBLOCK
 62
     0
100
AcDb2dPolyline
 66
     1
 10
0.0
 20
0.0
 30
0.0
 70
     1
 40
0.5
 41
0.5
  0
VERTEX
  5
E
100
AcDbEntity
  8
0
  6
BYBLOCK
 62
     0
100
AcDbVertex
100
AcDb2dVertex
 10
-0.25
 20
0.0
 30
0.0
 42
1.0
  0
VERTEX
  5
F
100
AcDbEntity
  8
0
  6
BYBLOCK
 62
     0
100
AcDbVertex
100
AcDb2dVertex
 10
0.25
 20
0.0
 30
0.0
 42
1.0
  0
SEQEND
  5
10
100
AcDbEntity
  8
0
  6
BYBLOCK
 62
     0
  0
LINE
  5
11
100
AcDbEntity
  8
0
  6
BYBLOCK
 62
     0
100
AcDbLine
 10
-0.5
 20
0.0
 30
0.0
 11
-1.0
 21
0.0
 31
0.0
  0
ENDBLK
  5
12
100
AcDbEntity
  8
0
100
AcDbBlockEnd
  0
BLOCK
  5
14
100
AcDbEntity
  8
0
100
AcDbBlockBegin
  2
_OPEN
 70
     0
 10
0.0
 20
0.0
 30
0.0
  3
_OPEN
  1

  0
LINE
  5
15
100
AcDbEntity
  8
0
  6
BYBLOCK
 62
     0
100
AcDbLine
 10
-1.0
 20
0.166667
 30
0.0
 11
0.0
 21
0.0
 31
0.0
  0
LINE
  5
16
100
AcDbEntity
  8
0
  6
BYBLOCK
 62
     0
100
AcDbLine
 10
0.0
 20
0.0
 30
0.0
 11
-1.0
 21
-0.166667
 31
0.0
  0
LINE
  5
17
100
AcDbEntity
  8
0
  6
BYBLOCK
 62
     0
100
AcDbLine
 10
0.0
 20
0.0
 30
0.0
 11
-1.0
 21
0.0
 31
0.0
  0
ENDBLK
  5
18
100
AcDbEntity
  8
0
100
AcDbBlockEnd
  0
BLOCK
  5
1A
100
AcDbEntity
  8
0
100
AcDbBlockBegin
  2
_ORIGIN
 70
     0
 10
0.0
 20
0.0
 30
0.0
  3
_ORIGIN
  1

  0
CIRCLE
  5
1B
100
AcDbEntity
  8
0
  6
BYBLOCK
 62
     0
100
AcDbCircle
 10
0.0
 20
0.0
 30
0.0
 40
0.5
  0
LINE
  5
1C
100
AcDbEntity
  8
0
  6
BYBLOCK
 62
     0
100
AcDbLine
 10
0.0
 20
0.0
 30
0.0
 11
-1.0
 21
0.0
 31
0.0
  0
ENDBLK
  5
1D
100
AcDbEntity
  8
0
100
AcDbBlockEnd
  0
BLOCK
  5
1F
100
AcDbEntity
  8
0
100
AcDbBlockBegin
  2
_OPEN30
 70
     0
 10
0.0
 20
0.0
 30
0.0
  3
_OPEN30
  1

  0
LINE
  5
20
100
AcDbEntity
  8
0
  6
BYBLOCK
 62
     0
100
AcDbLine
 10
-1.0
 20
0.267949
 30
0.0
 11
0.0
 21
0.0
 31
0.0
  0
LINE
  5
21
100
AcDbEntity
  8
0
  6
BYBLOCK
 62
     0
100
AcDbLine
 10
0.0
 20
0.0
 30
0.0
 11
-1.0
 21
-0.267949
 31
0.0
  0
LINE
  5
22
100
AcDbEntity
  8
0
  6
BYBLOCK
 62
     0
100
AcDbLine
 10
0.0
 20
0.0
 30
0.0
 11
-1.0
 21
0.0
 31
0.0
  0
ENDBLK
  5
23
100
AcDbEntity
  8
0
100
AcDbBlockEnd
  0
BLOCK
  5
25
100
AcDbEntity
  8
0
100
AcDbBlockBegin
  2
_BOXFILLED
 70
     0
 10
0.0
 20
0.0
 30
0.0
  3
_BOXFILLED
  1

  0
SOLID
  5
26
100
AcDbEntity
  8
0
  6
BYBLOCK
 62
     0
100
AcDbTrace
 10
-0.5
 20
0.5
 30
0.0
 11
0.5
 21
0.5
 31
0.0
 12
-0.5
 22
-0.5
 32
0.0
 13
0.5
 23
-0.5
 33
0.0
  0
LINE
  5
27
100
AcDbEntity
  8
0
  6
BYBLOCK
 62
     0
100
AcDbLine
 10
-0.5
 20
0.0
 30
0.0
 11
-1.0
 21
0.0
 31
0.0
  0
ENDBLK
  5
28
100
AcDbEntity
  8
0
100
AcDbBlockEnd
  0
BLOCK
  5
2A
100
AcDbEntity
  8
0
100
AcDbBlockBegin
  2
_BOXBLANK
 70
     0
 10
0.0
 20
0.0
 30
0.0
  3
_BOXBLANK
  1

  0
LINE
  5
2B
100
AcDbEntity
  8
0
  6
BYBLOCK
 62
     0
100
AcDbLine
 10
-0.5
 20
-0.5
 30
0.0
 11
0.5
 21
-0.5
 31
0.0
  0
LINE
  5
2C
100
AcDbEntity
  8
0
  6
BYBLOCK
 62
     0
100
AcDbLine
 10
0.5
 20
-0.5
 30
0.0
 11
0.5
 21
0.5
 31
0.0
  0
LINE
  5
2D
100
AcDbEntity
  8
0
  6
BYBLOCK
 62
     0
100
AcDbLine
 10
0.5
 20
0.5
 30
0.0
 11
-0.5
 21
0.5
 31
0.0
  0
LINE
  5
2E
100
AcDbEntity
  8
0
  6
BYBLOCK
 62
     0
100
AcDbLine
 10
-0.5
 20
0.5
 30
0.0
 11
-0.5
 21
-0.5
 31
0.0
  0
LINE
  5
2F
100
AcDbEntity
  8
0
  6
BYBLOCK
 62
     0
100
AcDbLine
 10
-0.5
 20
0.0
 30
0.0
 11
-1.0
 21
0.0
 31
0.0
  0
ENDBLK
  5
30
100
AcDbEntity
  8
0
100
AcDbBlockEnd
  0
BLOCK
  5
32
100
AcDbEntity
  8
0
100
AcDbBlockBegin
  2
_OBLIQUE
 70
     0
 10
0.0
 20
0.0
 30
0.0
  3
_OBLIQUE
  1

  0
LINE
  5
33
100
AcDbEntity
  8
0
  6
BYBLOCK
 62
     0
100
AcDbLine
 10
-0.5
 20
-0.5
 30
0.0
 11
0.5
 21
0.5
 31
0.0
  0
ENDBLK
  5
34
100
AcDbEntity
  8
0
100
AcDbBlockEnd
  0
BLOCK
  5
36
100
AcDbEntity
  8
0
100
AcDbBlockBegin
  2
_OPEN90
 70
     0
 10
0.0
 20
0.0
 30
0.0
  3
_OPEN90
  1

  0
LINE
  5
37
100
AcDbEntity
  8
0
  6
BYBLOCK
 62
     0
100
AcDbLine
 10
-0.5
 20
0.5
 30
0.0
 11
0.0
 21
0.0
 31
0.0
  0
LINE
  5
38
100
AcDbEntity
  8
0
  6
BYBLOCK
 62
     0
100
AcDbLine
 10
0.0
 20
0.0
 30
0.0
 11
-0.5
 21
-0.5
 31
0.0
  0
LINE
  5
39
100
AcDbEntity
  8
0
  6
BYBLOCK
 62
     0
100
AcDbLine
 10
0.0
 20
0.0
 30
0.0
 11
-1.0
 21
0.0
 31
0.0
  0
ENDBLK
  5
3A
100
AcDbEntity
  8
0
100
AcDbBlockEnd
  0
BLOCK
  5
3C
100
AcDbEntity
  8
0
100
AcDbBlockBegin
  2
_CLOSEDBLANK
 70
     0
 10
0.0
 20
0.0
 30
0.0
  3
_CLOSEDBLANK
  1

  0
LINE
  5
3D
100
AcDbEntity
  8
0
  6
BYBLOCK
 62
     0
100
AcDbLine
 10
-1.0
 20
0.1666666666666666
 30
0.0
 11
0.0
 21
0.0
 31
0.0
  0
LINE
  5
3E
100
AcDbEntity
  8
0
  6
BYBLOCK
 62
     0
100
AcDbLine
 10
0.0
 20
0.0
 30
0.0
 11
-1.0
 21
-0.1666666666666666
 31
0.0
  0
LINE
  5
3F
100
AcDbEntity
  8
0
  6
BYBLOCK
 62
     0
100
AcDbLine
 10
-1.0
 20
0.1666666666666666
 30
0.0
 11
-1.0
 21
-0.1666666666666666
 31
0.0
  0
ENDBLK
  5
40
100
AcDbEntity
  8
0
100
AcDbBlockEnd
  0
BLOCK
  5
42
100
AcDbEntity
  8
0
100
AcDbBlockBegin
  2
_DOTBLANK
 70
     0
 10
0.0
 20
0.0
 30
0.0
  3
_DOTBLANK
  1

  0
CIRCLE
  5
43
100
AcDbEntity
  8
0
  6
BYBLOCK
 62
     0
100
AcDbCircle
 10
0.0
 20
0.0
 30
0.0
 40
0.5
  0
LINE
  5
44
100
AcDbEntity
  8
0
  6
BYBLOCK
 62
     0
100
AcDbLine
 10
-0.5
 20
0.0
 30
0.0
 11
-1.0
 21
0.0
 31
0.0
  0
ENDBLK
  5
45
100
AcDbEntity
  8
0
100
AcDbBlockEnd
  0
BLOCK
  5
46
100
AcDbEntity
  8
MAIN0
  6
CONTINUOUS
 62
3
100
AcDbBlockBegin
  2
*D0
 70
    65
 10
0.0
 20
0.0
 30
0.0
  0
LINE
  5
47
100
AcDbEntity
  8
MAIN0
  6
BYBLOCK
 62
0
100
AcDbLine
 10
54.95901556428885
 20
258.9151320013816
 30
0.0000000000000000
 11
31.26717508773932
 21
258.9151320013816
 31
0.0000000000000000
  0
LINE
  5
48
100
AcDbEntity
  8
MAIN0
  6
BYBLOCK
 62
0
100
AcDbLine
 10
33.26717508773932
 20
256.9151320013816
 30
0.0000000000000000
 11
33.26717508773932
 21
112.9151320015980
 31
0.0000000000000000
  0
INSERT
  5
49
100
AcDbEntity
  8
MAIN0
  6
BYBLOCK
 62
0
100
AcDbBlockReference
  2
_OPEN
 10
33.26717508773932
 20
258.9151320013816
 30
0.0000000000000000
 41
2.000000000000000
 42
2.000000000000000
 43
2.000000000000000
 50
90.00000000000000
  0
INSERT
  5
4A
100
AcDbEntity
  8
MAIN0
  6
BYBLOCK
 62
0
100
AcDbBlockReference
  2
_OPEN
 10
33.26717508773932
 20
110.9151320015980
 30
0.0000000000000000
 41
2.000000000000000
 42
2.000000000000000
 43
2.000000000000000
 50
270.0000000000000
  0
LINE
  5
4B
100
AcDbEntity
  8
MAIN0
  6
BYBLOCK
 62
0
100
AcDbLine
 10
54.95901556428770
 20
110.9151320015980
 30
0.0000000000000000
 11
31.26717508773932
 21
110.9151320015980
 31
0.0000000000000000
  0
MTEXT
  5
4C
100
AcDbEntity
  8
MAIN0
  6
BYBLOCK
 62
0
100
AcDbMText
 10
31.21717513542303
 20
184.9151319307093
 30
0.0000000000000000
 40
3.099999904632568
 41
0.0000000000000000
 71
     5
 72
     1
  1
\A1;\U+2205148h7
 11
6.123233995736766e-017
 21
1.000000000000000
 31
0.0000000000000000
  7
STANDARD
  0
ENDBLK
  5
4D
100
AcDbEntity
  8
MAIN0
  6
CONTINUOUS
 62
3
100
AcDbBlockEnd
  0
BLOCK
  5
53
100
AcDbEntity
  8
MAIN0
  6
CONTINUOUS
 62
3
100
AcDbBlockBegin
  2
*D1
 70
    65
 10
0.0
 20
0.0
 30
0.0
  0
LINE
  5
54
100
AcDbEntity
  8
MAIN0
  6
BYBLOCK
 62
0
100
AcDbLine
 10
386.0003037635462
 20
77.60554896721278
 30
0.0000000000000000
 11
407.7590155762092
 21
77.60554896721278
 31
0.0000000000000000
  0
LINE
  5
55
100
AcDbEntity
  8
MAIN0
  6
BYBLOCK
 62
0
100
AcDbLine
 10
405.7590155762092
 20
79.60554896721278
 30
0.0000000000000000
 11
405.7590155762092
 21
98.60554896721267
 31
0.0000000000000000
  0
INSERT
  5
56
100
AcDbEntity
  8
MAIN0
  6
BYBLOCK
 62
0
100
AcDbBlockReference
  2
_OPEN
 10
405.7590155762092
 20
77.60554896721278
 30
0.0000000000000000
 41
2.000000000000000
 42
2.000000000000000
 43
2.000000000000000
 50
270.0000000000000
  0
INSERT
  5
57
100
AcDbEntity
  8
MAIN0
  6
BYBLOCK
 62
0
100
AcDbBlockReference
  2
_OPEN
 10
405.7590155762092
 20
100.6055489672127
 30
0.0000000000000000
 41
2.000000000000000
 42
2.000000000000000
 43
2.000000000000000
 50
90.00000000000000
  0
LINE
  5
58
100
AcDbEntity
  8
MAIN0
  6
BYBLOCK
 62
0
100
AcDbLine
 10
386.0003037635462
 20
100.6055489672127
 30
0.0000000000000000
 11
407.7590155762092
 21
100.6055489672127
 31
0.0000000000000000
  0
MTEXT
  5
59
100
AcDbEntity
  8
MAIN0
  6
BYBLOCK
 62
0
100
AcDbMText
 10
403.7090156238929
 20
89.10554896721273
 30
0.0000000000000000
 40
3.099999904632568
 41
0.0000000000000000
 71
     5
 72
     1
  1
\A1;23
 11
6.123233995736766e-017
 21
1.000000000000000
 31
0.0000000000000000
  7
STANDARD
  0
ENDBLK
  5
5A
100
AcDbEntity
  8
MAIN0
  6
CONTINUOUS
 62
3
100
AcDbBlockEnd
  0
BLOCK
  5
5C
100
AcDbEntity
  8
MAIN0
  6
CONTINUOUS
 62
3
100
AcDbBlockBegin
  2
*D2
 70
    65
 10
0.0
 20
0.0
 30
0.0
  0
LINE
  5
5D
100
AcDbEntity
  8
MAIN0
  6
BYBLOCK
 62
0
100
AcDbLine
 10
388.5003037635453
 20
84.10554896721108
 30
0.0000000000000000
 11
397.7590155762092
 21
84.10554896721109
 31
0.0000000000000000
  0
LINE
  5
5E
100
AcDbEntity
  8
MAIN0
  6
BYBLOCK
 62
0
100
AcDbLine
 10
395.7590155762092
 20
86.10554896721109
 30
0.0000000000000000
 11
395.7590155762092
 21
92.10554896721109
 31
0.0000000000000000
  0
INSERT
  5
5F
100
AcDbEntity
  8
MAIN0
  6
BYBLOCK
 62
0
100
AcDbBlockReference
  2
_OPEN
 10
395.7590155762092
 20
84.10554896721109
 30
0.0000000000000000
 41
2.000000000000000
 42
2.000000000000000
 43
2.000000000000000
 50
270.0000000000000
  0
INSERT
  5
60
100
AcDbEntity
  8
MAIN0
  6
BYBLOCK
 62
0
100
AcDbBlockReference
  2
_OPEN
 10
395.7590155762092
 20
94.10554896721109
 30
0.0000000000000000
 41
2.000000000000000
 42
2.000000000000000
 43
2.000000000000000
 50
90.00000000000000
  0
LINE
  5
61
100
AcDbEntity
  8
MAIN0
  6
BYBLOCK
 62
0
100
AcDbLine
 10
388.5003037635458
 20
94.10554896721109
 30
0.0000000000000000
 11
397.7590155762092
 21
94.10554896721109
 31
0.0000000000000000
  0
MTEXT
  5
62
100
AcDbEntity
  8
MAIN0
  6
BYBLOCK
 62
0
100
AcDbMText
 10
393.7090156238929
 20
89.10554896721109
 30
0.0000000000000000
 40
3.099999904632568
 41
0.0000000000000000
 71
     5
 72
     1
  1
\A1;10
 11
6.123233995736766e-017
 21
1.000000000000000
 31
0.0000000000000000
  7
STANDARD
  0
ENDBLK
  5
63
100
AcDbEntity
  8
MAIN0
  6
CONTINUOUS
 62
3
100
AcDbBlockEnd
  0
BLOCK
  5
66
100
AcDbEntity
  8
MAIN0
  6
CONTINUOUS
 62
3
100
AcDbBlockBegin
  2
*D3
 70
    65
 10
0.0
 20
0.0
 30
0.0
  0
LINE
  5
67
100
AcDbEntity
  8
MAIN0
  6
BYBLOCK
 62
0
100
AcDbLine
 10
387.7003037516257
 20
83.30554895529016
 30
0.0000000000000000
 11
387.7003037516248
 21
57.91513200173583
 31
0.0000000000000000
  0
LINE
  5
68
100
AcDbEntity
  8
MAIN0
  6
BYBLOCK
 62
0
100
AcDbLine
 10
387.7003037516249
 20
59.91513200173583
 30
0.0000000000000000
 11
386.2003037516253
 21
59.91513200173583
 31
0.0000000000000000
  0
INSERT
  5
69
100
AcDbEntity
  8
MAIN0
  6
BYBLOCK
 62
0
100
AcDbBlockReference
  2
_OPEN
 10
387.7003037516249
 20
59.91513200173583
 30
0.0000000000000000
 41
2.000000000000000
 42
2.000000000000000
 43
2.000000000000000
 50
180.0000000000000
  0
INSERT
  5
6A
100
AcDbEntity
  8
MAIN0
  6
BYBLOCK
 62
0
100
AcDbBlockReference
  2
_DOT
 10
385.2003037516253
 20
59.91513200173583
 30
0.0000000000000000
 41
1.000000000000000
 42
1.000000000000000
 43
1.000000000000000
 50
180.0000000000000
  0
LINE
  5
6B
100
AcDbEntity
  8
MAIN0
  6
BYBLOCK
 62
0
100
AcDbLine
 10
389.7003037516249
 20
59.91513200173583
 30
0.0000000000000000
 11
396.3187691752088
 21
59.91513200173583
 31
0.0000000000000000
  0
LINE
  5
6C
100
AcDbEntity
  8
MAIN0
  6
BYBLOCK
 62
0
100
AcDbLine
 10
385.2003037516253
 20
76.80554895529185
 30
0.0000000000000000
 11
385.2003037516253
 21
57.91513200173583
 31
0.0000000000000000
  0
MTEXT
  5
6D
100
AcDbEntity
  8
MAIN0
  6
BYBLOCK
 62
0
100
AcDbMText
 10
393.6687696466840
 20
61.96513195405211
 30
0.0000000000000000
 40
3.099999904632568
 41
0.0000000000000000
 71
     5
 72
     1
  1
\A1;2.5
 11
1.000000000000000
 21
0.0000000000000000
 31
0.0000000000000000
  7
STANDARD
  0
ENDBLK
  5
6E
100
AcDbEntity
  8
MAIN0
  6
CONTINUOUS
 62
3
100
AcDbBlockEnd
  0
BLOCK
  5
70
100
AcDbEntity
  8
MAIN0
  6
CONTINUOUS
 62
3
100
AcDbBlockBegin
  2
*D4
 70
    65
 10
0.0
 20
0.0
 30
0.0
  0
LINE
  5
71
100
AcDbEntity
  8
MAIN0
  6
BYBLOCK
 62
0
100
AcDbLine
 10
385.2003037516253
 20
76.80554895529185
 30
0.0000000000000000
 11
385.2003037516253
 21
57.91513200173583
 31
0.0000000000000000
  0
LINE
  5
72
100
AcDbEntity
  8
MAIN0
  6
BYBLOCK
 62
0
100
AcDbLine
 10
384.2003037516253
 20
59.91513200173583
 30
0.0000000000000000
 11
382.2003037516253
 21
59.91513200173583
 31
0.0000000000000000
  0
INSERT
  5
73
100
AcDbEntity
  8
MAIN0
  6
BYBLOCK
 62
0
100
AcDbBlockReference
  2
_DOT
 10
385.2003037516253
 20
59.91513200173583
 30
0.0000000000000000
 41
1.000000000000000
 42
1.000000000000000
 43
1.000000000000000
 50
360.0000000000000
  0
INSERT
  5
74
100
AcDbEntity
  8
MAIN0
  6
BYBLOCK
 62
0
100
AcDbBlockReference
  2
_OPEN
 10
382.2003037516253
 20
59.91513200173583
 30
0.0000000000000000
 41
2.000000000000000
 42
2.000000000000000
 43
2.000000000000000
 50
360.0000000000000
  0
LINE
  5
75
100
AcDbEntity
  8
MAIN0
  6
BYBLOCK
 62
0
100
AcDbLine
 10
380.2003037516253
 20
59.91513200173583
 30
0.0000000000000000
 11
379.2003037516253
 21
59.91513200173583
 31
0.0000000000000000
  0
LINE
  5
76
100
AcDbEntity
  8
MAIN0
  6
BYBLOCK
 62
0
100
AcDbLine
 10
382.2003037516253
 20
67.66643481421696
 30
0.0000000000000000
 11
382.2003037516253
 21
57.91513200173583
 31
0.0000000000000000
  0
MTEXT
  5
77
100
AcDbEntity
  8
MAIN0
  6
BYBLOCK
 62
0
100
AcDbMText
 10
383.7003037516253
 20
61.96513195405211
 30
0.0000000000000000
 40
3.099999904632568
 41
0.0000000000000000
 71
     5
 72
     1
  1
\A1;3
 11
1.000000000000000
 21
0.0000000000000000
 31
0.0000000000000000
  7
STANDARD
  0
ENDBLK
  5
78
100
AcDbEntity
  8
MAIN0
  6
CONTINUOUS
 62
3
100
AcDbBlockEnd
  0
BLOCK
  5
7D
100
AcDbEntity
  8
MAIN0
  6
BYBLOCK
 62
2
100
AcDbBlockBegin
  2
M0
 70
    64
 10
0.0
 20
0.0
 30
0.0
  0
LINE
  5
7E
100
AcDbEntity
  8
MAIN0
  6
BYBLOCK
 62
0
100
AcDbLine
 10
126.0441570838842
 20
244.0307642864601
 30
0.0000000000000000
 11
126.0441570838842
 21
256.0307642864601
 31
0.0000000000000000
  0
LINE
  5
7F
100
AcDbEntity
  8
MAIN0
  6
BYBLOCK
 62
0
100
AcDbLine
 10
126.0441570838841
 20
244.0307642864601
 30
0.0000000000000000
 11
124.7500618583715
 21
248.8603934179054
 31
0.0000000000000000
  0
LINE
  5
80
100
AcDbEntity
  8
MAIN0
  6
BYBLOCK
 62
0
100
AcDbLine
 10
126.0441570838842
 20
244.0307642864601
 30
0.0000000000000000
 11
127.3382523093968
 21
248.8603934179054
 31
0.0000000000000000
  0
ENDBLK
  5
81
100
AcDbEntity
  8
MAIN0
  6
BYBLOCK
 62
2
100
AcDbBlockEnd
  0
BLOCK
  5
84
100
AcDbEntity
  8
MAIN0
  6
CONTINUOUS
 62
3
100
AcDbBlockBegin
  2
*D5
 70
    65
 10
0.0
 20
0.0
 30
0.0
  0
LINE
  5
85
100
AcDbEntity
  8
MAIN0
  6
BYBLOCK
 62
0
100
AcDbLine
 10
55.75901557620860
 20
110.1151319896771
 30
0.0000000000000000
 11
55.75901557620858
 21
82.91513200173583
 31
0.0000000000000000
  0
LINE
  5
86
100
AcDbEntity
  8
MAIN0
  6
BYBLOCK
 62
0
100
AcDbLine
 10
57.75901557620858
 20
84.91513200173583
 30
0.0000000000000000
 11
68.75901557620915
 21
84.91513200173583
 31
0.0000000000000000
  0
INSERT
  5
87
100
AcDbEntity
  8
MAIN0
  6
BYBLOCK
 62
0
100
AcDbBlockReference
  2
_OPEN
 10
55.75901557620858
 20
84.91513200173583
 30
0.0000000000000000
 41
2.000000000000000
 42
2.000000000000000
 43
2.000000000000000
 50
180.0000000000000
  0
INSERT
  5
88
100
AcDbEntity
  8
MAIN0
  6
BYBLOCK
 62
0
100
AcDbBlockReference
  2
_OPEN
 10
70.75901557620915
 20
84.91513200173583
 30
0.0000000000000000
 41
2.000000000000000
 42
2.000000000000000
 43
2.000000000000000
 50
0.0000000000000000
  0
LINE
  5
89
100
AcDbEntity
  8
MAIN0
  6
BYBLOCK
 62
0
100
AcDbLine
 10
70.75901557620917
 20
108.6151319898236
 30
0.0000000000000000
 11
70.75901557620915
 21
82.91513200173583
 31
0.0000000000000000
  0
MTEXT
  5
8A
100
AcDbEntity
  8
MAIN0
  6
BYBLOCK
 62
0
100
AcDbMText
 10
63.25901557620887
 20
86.96513195405211
 30
0.0000000000000000
 40
3.099999904632568
 41
0.0000000000000000
 71
     5
 72
     1
  1
\A1;15
 11
1.000000000000000
 21
0.0000000000000000
 31
0.0000000000000000
  7
STANDARD
  0
ENDBLK
  5
8B
100
AcDbEntity
  8
MAIN0
  6
CONTINUOUS
 62
3
100
AcDbBlockEnd
  0
BLOCK
  5
8D
100
AcDbEntity
  8
MAIN0
  6
CONTINUOUS
 62
3
100
AcDbBlockBegin
  2
*D6
 70
    65
 10
0.0
 20
0.0
 30
0.0
  0
LINE
  5
8E
100
AcDbEntity
  8
MAIN0
  6
BYBLOCK
 62
0
100
AcDbLine
 10
70.75901557620917
 20
108.6151319898236
 30
0.0000000000000000
 11
70.75901557620915
 21
82.91513200173583
 31
0.0000000000000000
  0
LINE
  5
8F
100
AcDbEntity
  8
MAIN0
  6
BYBLOCK
 62
0
100
AcDbLine
 10
72.75901557620917
 20
84.91513200173583
 30
0.0000000000000000
 11
98.75901557620917
 21
84.91513200173583
 31
0.0000000000000000
  0
INSERT
  5
90
100
AcDbEntity
  8
MAIN0
  6
BYBLOCK
 62
0
100
AcDbBlockReference
  2
_OPEN
 10
70.75901557620917
 20
84.91513200173583
 30
0.0000000000000000
 41
2.000000000000000
 42
2.000000000000000
 43
2.000000000000000
 50
180.0000000000000
  0
INSERT
  5
91
100
AcDbEntity
  8
MAIN0
  6
BYBLOCK
 62
0
100
AcDbBlockReference
  2
_OPEN
 10
100.7590155762092
 20
84.91513200173583
 30
0.0000000000000000
 41
2.000000000000000
 42
2.000000000000000
 43
2.000000000000000
 50
0.0000000000000000
  0
LINE
  5
92
100
AcDbEntity
  8
MAIN0
  6
BYBLOCK
 62
0
100
AcDbLine
 10
100.7590155762092
 20
108.6151319898279
 30
0.0000000000000000
 11
100.7590155762092
 21
82.91513200173583
 31
0.0000000000000000
  0
MTEXT
  5
93
100
AcDbEntity
  8
MAIN0
  6
BYBLOCK
 62
0
100
AcDbMText
 10
85.75901557620917
 20
86.96513195405211
 30
0.0000000000000000
 40
3.099999904632568
 41
0.0000000000000000
 71
     5
 72
     1
  1
\A1;30
 11
1.000000000000000
 21
0.0000000000000000
 31
0.0000000000000000
  7
STANDARD
  0
ENDBLK
  5
94
100
AcDbEntity
  8
MAIN0
  6
CONTINUOUS
 62
3
100
AcDbBlockEnd
  0
BLOCK
  5
96
100
AcDbEntity
  8
MAIN0
  6
CONTINUOUS
 62
3
100
AcDbBlockBegin
  2
*D7
 70
    65
 10
0.0
 20
0.0
 30
0.0
  0
LINE
  5
97
100
AcDbEntity
  8
MAIN0
  6
BYBLOCK
 62
0
100
AcDbLine
 10
100.7590155762092
 20
108.6151319898279
 30
0.0000000000000000
 11
100.7590155762092
 21
82.91513200173583
 31
0.0000000000000000
  0
LINE
  5
98
100
AcDbEntity
  8
MAIN0
  6
BYBLOCK
 62
0
100
AcDbLine
 10
102.7590155762092
 20
84.91513200173583
 30
0.0000000000000000
 11
143.7590155762092
 21
84.91513200173583
 31
0.0000000000000000
  0
INSERT
  5
99
100
AcDbEntity
  8
MAIN0
  6
BYBLOCK
 62
0
100
AcDbBlockReference
  2
_OPEN
 10
100.7590155762092
 20
84.91513200173583
 30
0.0000000000000000
 41
2.000000000000000
 42
2.000000000000000
 43
2.000000000000000
 50
180.0000000000000
  0
INSERT
  5
9A
100
AcDbEntity
  8
MAIN0
  6
BYBLOCK
 62
0
100
AcDbBlockReference
  2
_OPEN
 10
145.7590155762092
 20
84.91513200173583
 30
0.0000000000000000
 41
2.000000000000000
 42
2.000000000000000
 43
2.000000000000000
 50
0.0000000000000000
  0
LINE
  5
9B
100
AcDbEntity
  8
MAIN0
  6
BYBLOCK
 62
0
100
AcDbLine
 10
145.7590155762092
 20
130.7151319897028
 30
0.0000000000000000
 11
145.7590155762092
 21
82.91513200173583
 31
0.0000000000000000
  0
MTEXT
  5
9C
100
AcDbEntity
  8
MAIN0
  6
BYBLOCK
 62
0
100
AcDbMText
 10
123.2590155762092
 20
86.96513195405211
 30
0.0000000000000000
 40
3.099999904632568
 41
0.0000000000000000
 71
     5
 72
     1
  1
\A1;45
 11
1.000000000000000
 21
0.0000000000000000
 31
0.0000000000000000
  7
STANDARD
  0
ENDBLK
  5
9D
100
AcDbEntity
  8
MAIN0
  6
CONTINUOUS
 62
3
100
AcDbBlockEnd
  0
BLOCK
  5
9F
100
AcDbEntity
  8
MAIN0
  6
CONTINUOUS
 62
3
100
AcDbBlockBegin
  2
*D8
 70
    65
 10
0.0
 20
0.0
 30
0.0
  0
LINE
  5
A0
100
AcDbEntity
  8
MAIN0
  6
BYBLOCK
 62
0
100
AcDbLine
 10
55.75901557620860
 20
110.1151319896771
 30
0.0000000000000000
 11
55.75901557620858
 21
52.91513200173583
 31
0.0000000000000000
  0
LINE
  5
A1
100
AcDbEntity
  8
MAIN0
  6
BYBLOCK
 62
0
100
AcDbLine
 10
57.75901557620858
 20
54.91513200173583
 30
0.0000000000000000
 11
143.7590155762092
 21
54.91513200173583
 31
0.0000000000000000
  0
INSERT
  5
A2
100
AcDbEntity
  8
MAIN0
  6
BYBLOCK
 62
0
100
AcDbBlockReference
  2
_OPEN
 10
55.75901557620858
 20
54.91513200173583
 30
0.0000000000000000
 41
2.000000000000000
 42
2.000000000000000
 43
2.000000000000000
 50
180.0000000000000
  0
INSERT
  5
A3
100
AcDbEntity
  8
MAIN0
  6
BYBLOCK
 62
0
100
AcDbBlockReference
  2
_OPEN
 10
145.7590155762092
 20
54.91513200173583
 30
0.0000000000000000
 41
2.000000000000000
 42
2.000000000000000
 43
2.000000000000000
 50
0.0000000000000000
  0
LINE
  5
A4
100
AcDbEntity
  8
MAIN0
  6
BYBLOCK
 62
0
100
AcDbLine
 10
145.7590155762092
 20
130.7151319897028
 30
0.0000000000000000
 11
145.7590155762092
 21
52.91513200173583
 31
0.0000000000000000
  0
MTEXT
  5
A5
100
AcDbEntity
  8
MAIN0
  6
BYBLOCK
 62
0
100
AcDbMText
 10
100.7590155762089
 20
56.96513195405211
 30
0.0000000000000000
 40
3.099999904632568
 41
0.0000000000000000
 71
     5
 72
     1
  1
\A1;90
 11
1.000000000000000
 21
0.0000000000000000
 31
0.0000000000000000
  7
STANDARD
  0
ENDBLK
  5
A6
100
AcDbEntity
  8
MAIN0
  6
CONTINUOUS
 62
3
100
AcDbBlockEnd
  0
BLOCK
  5
A8
100
AcDbEntity
  8
MAIN0
  6
CONTINUOUS
 62
3
100
AcDbBlockBegin
  2
*D9
 70
    65
 10
0.0
 20
0.0
 30
0.0
  0
LINE
  5
A9
100
AcDbEntity
  8
MAIN0
  6
BYBLOCK
 62
0
100
AcDbLine
 10
55.75901557620860
 20
110.1151319896771
 30
0.0000000000000000
 11
55.75901557620858
 21
92.91513200173583
 31
0.0000000000000000
  0
LINE
  5
AA
100
AcDbEntity
  8
MAIN0
  6
BYBLOCK
 62
0
100
AcDbLine
 10
57.75901557620858
 20
94.91513200173583
 30
0.0000000000000000
 11
83.75901557611161
 21
94.91513200173583
 31
0.0000000000000000
  0
INSERT
  5
AB
100
AcDbEntity
  8
MAIN0
  6
BYBLOCK
 62
0
100
AcDbBlockReference
  2
_OPEN
 10
55.75901557620858
 20
94.91513200173583
 30
0.0000000000000000
 41
2.000000000000000
 42
2.000000000000000
 43
2.000000000000000
 50
180.0000000000000
  0
INSERT
  5
AC
100
AcDbEntity
  8
MAIN0
  6
BYBLOCK
 62
0
100
AcDbBlockReference
  2
_OPEN
 10
85.75901557611161
 20
94.91513200173583
 30
0.0000000000000000
 41
2.000000000000000
 42
2.000000000000000
 43
2.000000000000000
 50
0.0000000000000000
  0
LINE
  5
AD
100
AcDbEntity
  8
MAIN0
  6
BYBLOCK
 62
0
100
AcDbLine
 10
85.75901557611159
 20
102.6030596311974
 30
0.0000000000000000
 11
85.75901557611161
 21
92.91513200173583
 31
0.0000000000000000
  0
MTEXT
  5
AE
100
AcDbEntity
  8
MAIN0
  6
BYBLOCK
 62
0
100
AcDbMText
 10
76.93144686683857
 20
96.96513195405211
 30
0.0000000000000000
 40
3.099999904632568
 41
0.0000000000000000
 71
     5
 72
     1
  1
\A1;30
 11
1.000000000000000
 21
0.0000000000000000
 31
0.0000000000000000
  7
STANDARD
  0
ENDBLK
  5
AF
100
AcDbEntity
  8
MAIN0
  6
CONTINUOUS
 62
3
100
AcDbBlockEnd
  0
BLOCK
  5
B1
100
AcDbEntity
  8
MAIN0
  6
CONTINUOUS
 62
3
100
AcDbBlockBegin
  2
*D10
 70
    65
 10
0.0
 20
0.0
 30
0.0
  0
LINE
  5
B2
100
AcDbEntity
  8
MAIN0
  6
BYBLOCK
 62
0
100
AcDbLine
 10
145.7590155762092
 20
239.1151320141859
 30
0.0000000000000000
 11
145.7590155762092
 21
261.9151320017359
 31
0.0000000000000000
  0
LINE
  5
B3
100
AcDbEntity
  8
MAIN0
  6
BYBLOCK
 62
0
100
AcDbLine
 10
147.7590155762092
 20
259.9151320017359
 30
0.0000000000000000
 11
170.9599774705080
 21
259.9151320017359
 31
0.0000000000000000
  0
INSERT
  5
B4
100
AcDbEntity
  8
MAIN0
  6
BYBLOCK
 62
0
100
AcDbBlockReference
  2
_OPEN
 10
145.7590155762092
 20
259.9151320017359
 30
0.0000000000000000
 41
2.000000000000000
 42
2.000000000000000
 43
2.000000000000000
 50
180.0000000000000
  0
INSERT
  5
B5
100
AcDbEntity
  8
MAIN0
  6
BYBLOCK
 62
0
100
AcDbBlockReference
  2
_OPEN
 10
172.9599774705080
 20
259.9151320017359
 30
0.0000000000000000
 41
2.000000000000000
 42
2.000000000000000
 43
2.000000000000000
 50
0.0000000000000000
  0
LINE
  5
B6
100
AcDbEntity
  8
MAIN0
  6
BYBLOCK
 62
0
100
AcDbLine
 10
172.9599774705080
 20
246.0664050324803
 30
0.0000000000000000
 11
172.9599774705080
 21
261.9151320017359
 31
0.0000000000000000
  0
MTEXT
  5
B7
100
AcDbEntity
  8
MAIN0
  6
BYBLOCK
 62
0
100
AcDbMText
 10
159.3594965233586
 20
261.9651319540521
 30
0.0000000000000000
 40
3.099999904632568
 41
0.0000000000000000
 71
     5
 72
     1
  1
\A1;27
 11
1.000000000000000
 21
0.0000000000000000
 31
0.0000000000000000
  7
STANDARD
  0
ENDBLK
  5
B8
100
AcDbEntity
  8
MAIN0
  6
CONTINUOUS
 62
3
100
AcDbBlockEnd
  0
BLOCK
  5
BA
100
AcDbEntity
  8
MAIN0
  6
CONTINUOUS
 62
3
100
AcDbBlockBegin
  2
*D11
 70
    65
 10
0.0
 20
0.0
 30
0.0
  0
LINE
  5
BB
100
AcDbEntity
  8
MAIN0
  6
BYBLOCK
 62
0
100
AcDbLine
 10
54.95901556428831
 20
194.9151320017360
 30
0.0000000000000000
 11
43.75901557620921
 21
194.9151320017360
 31
0.0000000000000000
  0
LINE
  5
BC
100
AcDbEntity
  8
MAIN0
  6
BYBLOCK
 62
0
100
AcDbLine
 10
45.75901557620921
 20
192.9151320017360
 30
0.0000000000000000
 11
45.75901557620921
 21
176.9151320017360
 31
0.0000000000000000
  0
INSERT
  5
BD
100
AcDbEntity
  8
MAIN0
  6
BYBLOCK
 62
0
100
AcDbBlockReference
  2
_OPEN
 10
45.75901557620921
 20
194.9151320017360
 30
0.0000000000000000
 41
2.000000000000000
 42
2.000000000000000
 43
2.000000000000000
 50
90.00000000000000
  0
INSERT
  5
BE
100
AcDbEntity
  8
MAIN0
  6
BYBLOCK
 62
0
100
AcDbBlockReference
  2
_OPEN
 10
45.75901557620921
 20
174.9151320017360
 30
0.0000000000000000
 41
2.000000000000000
 42
2.000000000000000
 43
2.000000000000000
 50
270.0000000000000
  0
LINE
  5
BF
100
AcDbEntity
  8
MAIN0
  6
BYBLOCK
 62
0
100
AcDbLine
 10
54.95901556428817
 20
174.9151320017360
 30
0.0000000000000000
 11
43.75901557620921
 21
174.9151320017360
 31
0.0000000000000000
  0
MTEXT
  5
C0
100
AcDbEntity
  8
MAIN0
  6
BYBLOCK
 62
0
100
AcDbMText
 10
43.70901562389292
 20
186.7736451565860
 30
0.0000000000000000
 40
3.099999904632568
 41
0.0000000000000000
 71
     5
 72
     1
  1
\A1;\U+220520H7
 11
6.123233995736766e-017
 21
1.000000000000000
 31
0.0000000000000000
  7
STANDARD
  0
ENDBLK
  5
C1
100
AcDbEntity
  8
MAIN0
  6
CONTINUOUS
 62
3
100
AcDbBlockEnd
  0
BLOCK
  5
C3
100
AcDbEntity
  8
MAIN0
  6
CONTINUOUS
 62
3
100
AcDbBlockBegin
  2
*D12
 70
    65
 10
0.0
 20
0.0
 30
0.0
  0
LINE
  5
C4
100
AcDbEntity
  8
MAIN0
  6
BYBLOCK
 62
0
100
AcDbLine
 10
173.3599774824150
 20
190.6664050205561
 30
0.0000000000000000
 11
192.7590155762092
 21
190.6664050205379
 31
0.0000000000000000
  0
LINE
  5
C5
100
AcDbEntity
  8
MAIN0
  6
BYBLOCK
 62
0
100
AcDbLine
 10
190.7590155762092
 20
192.6664050205398
 30
0.0000000000000000
 11
190.7590155762092
 21
216.6664050205752
 31
0.0000000000000000
  0
INSERT
  5
C6
100
AcDbEntity
  8
MAIN0
  6
BYBLOCK
 62
0
100
AcDbBlockReference
  2
_OPEN
 10
190.7590155762092
 20
190.6664050205398
 30
0.0000000000000000
 41
2.000000000000000
 42
2.000000000000000
 43
2.000000000000000
 50
270.0000000000000
  0
INSERT
  5
C7
100
AcDbEntity
  8
MAIN0
  6
BYBLOCK
 62
0
100
AcDbBlockReference
  2
_OPEN
 10
190.7590155762092
 20
218.6664050205752
 30
0.0000000000000000
 41
2.000000000000000
 42
2.000000000000000
 43
2.000000000000000
 50
90.00000000000000
  0
LINE
  5
C8
100
AcDbEntity
  8
MAIN0
  6
BYBLOCK
 62
0
100
AcDbLine
 10
180.2297473652099
 20
218.6664050205752
 30
0.0000000000000000
 11
192.7590155762092
 21
218.6664050205752
 31
0.0000000000000000
  0
MTEXT
  5
C9
100
AcDbEntity
  8
MAIN0
  6
BYBLOCK
 62
0
100
AcDbMText
 10
188.7090156238929
 20
204.6664050205575
 30
0.0000000000000000
 40
3.099999904632568
 41
0.0000000000000000
 71
     5
 72
     1
  1
\A1;28
 11
6.123233995736766e-017
 21
1.000000000000000
 31
0.0000000000000000
  7
STANDARD
  0
ENDBLK
  5
CA
100
AcDbEntity
  8
MAIN0
  6
CONTINUOUS
 62
3
100
AcDbBlockEnd
  0
BLOCK
  5
CC
100
AcDbEntity
  8
MAIN0
  6
CONTINUOUS
 62
3
100
AcDbBlockBegin
  2
*D13
 70
    65
 10
0.0
 20
0.0
 30
0.0
  0
LINE
  5
CD
100
AcDbEntity
  8
MAIN0
  6
BYBLOCK
 62
0
100
AcDbLine
 10
180.2297473652099
 20
218.6664050205752
 30
0.0000000000000000
 11
192.7590155762092
 21
218.6664050205752
 31
0.0000000000000000
  0
LINE
  5
CE
100
AcDbEntity
  8
MAIN0
  6
BYBLOCK
 62
0
100
AcDbLine
 10
190.7590155762092
 20
220.6664050205752
 30
0.0000000000000000
 11
190.7590155762092
 21
230.6664050205752
 31
0.0000000000000000
  0
INSERT
  5
CF
100
AcDbEntity
  8
MAIN0
  6
BYBLOCK
 62
0
100
AcDbBlockReference
  2
_OPEN
 10
190.7590155762092
 20
218.6664050205752
 30
0.0000000000000000
 41
2.000000000000000
 42
2.000000000000000
 43
2.000000000000000
 50
270.0000000000000
  0
INSERT
  5
D0
100
AcDbEntity
  8
MAIN0
  6
BYBLOCK
 62
0
100
AcDbBlockReference
  2
_OPEN
 10
190.7590155762092
 20
232.6664050205752
 30
0.0000000000000000
 41
2.000000000000000
 42
2.000000000000000
 43
2.000000000000000
 50
90.00000000000000
  0
LINE
  5
D1
100
AcDbEntity
  8
MAIN0
  6
BYBLOCK
 62
0
100
AcDbLine
 10
180.2297473652099
 20
232.6664050205752
 30
0.0000000000000000
 11
192.7590155762092
 21
232.6664050205752
 31
0.0000000000000000
  0
MTEXT
  5
D2
100
AcDbEntity
  8
MAIN0
  6
BYBLOCK
 62
0
100
AcDbMText
 10
188.7090156238929
 20
225.6664050205752
 30
0.0000000000000000
 40
3.099999904632568
 41
0.0000000000000000
 71
     5
 72
     1
  1
\A1;14
 11
6.123233995736766e-017
 21
1.000000000000000
 31
0.0000000000000000
  7
STANDARD
  0
ENDBLK
  5
D3
100
AcDbEntity
  8
MAIN0
  6
CONTINUOUS
 62
3
100
AcDbBlockEnd
  0
BLOCK
  5
D5
100
AcDbEntity
  8
MAIN0
  6
CONTINUOUS
 62
3
100
AcDbBlockBegin
  2
*D14
 70
    65
 10
0.0
 20
0.0
 30
0.0
  0
LINE
  5
D6
100
AcDbEntity
  8
MAIN0
  6
BYBLOCK
 62
0
100
AcDbLine
 10
173.3599774824150
 20
190.6664050205562
 30
0.0000000000000000
 11
197.7590155762092
 21
190.6664050205375
 31
0.0000000000000000
  0
LINE
  5
D7
100
AcDbEntity
  8
MAIN0
  6
BYBLOCK
 62
0
100
AcDbLine
 10
195.7590155762092
 20
192.6664050205390
 30
0.0000000000000000
 11
195.7590155762092
 21
243.6664050205594
 31
0.0000000000000000
  0
INSERT
  5
D8
100
AcDbEntity
  8
MAIN0
  6
BYBLOCK
 62
0
100
AcDbBlockReference
  2
_OPEN
 10
195.7590155762092
 20
190.6664050205390
 30
0.0000000000000000
 41
2.000000000000000
 42
2.000000000000000
 43
2.000000000000000
 50
270.0000000000000
  0
INSERT
  5
D9
100
AcDbEntity
  8
MAIN0
  6
BYBLOCK
 62
0
100
AcDbBlockReference
  2
_OPEN
 10
195.7590155762092
 20
245.6664050205594
 30
0.0000000000000000
 41
2.000000000000000
 42
2.000000000000000
 43
2.000000000000000
 50
90.00000000000000
  0
LINE
  5
DA
100
AcDbEntity
  8
MAIN0
  6
BYBLOCK
 62
0
100
AcDbLine
 10
173.3599774824290
 20
245.6664050205594
 30
0.0000000000000000
 11
197.7590155762092
 21
245.6664050205594
 31
0.0000000000000000
  0
MTEXT
  5
DB
100
AcDbEntity
  8
MAIN0
  6
BYBLOCK
 62
0
100
AcDbMText
 10
193.7090156238929
 20
223.6834169454250
 30
0.0000000000000000
 40
3.099999904632568
 41
0.0000000000000000
 71
     5
 72
     1
  1
\A1;55
 11
6.123233995736766e-017
 21
1.000000000000000
 31
0.0000000000000000
  7
STANDARD
  0
ENDBLK
  5
DC
100
AcDbEntity
  8
MAIN0
  6
CONTINUOUS
 62
3
100
AcDbBlockEnd
  0
BLOCK
  5
DE
100
AcDbEntity
  8
MAIN0
  6
CONTINUOUS
 62
3
100
AcDbBlockBegin
  2
*D15
 70
    65
 10
0.0
 20
0.0
 30
0.0
  0
LINE
  5
DF
100
AcDbEntity
  8
MAIN0
  6
BYBLOCK
 62
0
100
AcDbLine
 10
272.9993289328381
 20
98.83739368263790
 30
0.0000000000000000
 11
284.5575127027343
 21
78.81803214995949
 31
0.0000000000000000
  0
LINE
  5
E0
100
AcDbEntity
  8
MAIN0
  6
BYBLOCK
 62
0
100
AcDbLine
 10
285.2895635103032
 20
81.55008295752838
 30
0.0000000000000000
 11
351.1074941979206
 21
119.5500829575284
 31
0.0000000000000000
  0
INSERT
  5
E1
100
AcDbEntity
  8
MAIN0
  6
BYBLOCK
 62
0
100
AcDbBlockReference
  2
_OPEN
 10
283.5575127027344
 20
80.55008295752838
 30
0.0000000000000000
 41
2.000000000000000
 42
2.000000000000000
 43
2.000000000000000
 50
210.0000000000000
  0
INSERT
  5
E2
100
AcDbEntity
  8
MAIN0
  6
BYBLOCK
 62
0
100
AcDbBlockReference
  2
_OPEN
 10
352.8395450054894
 20
120.5500829575284
 30
0.0000000000000000
 41
2.000000000000000
 42
2.000000000000000
 43
2.000000000000000
 50
29.99999999999998
  0
LINE
  5
E3
100
AcDbEntity
  8
MAIN0
  6
BYBLOCK
 62
0
100
AcDbLine
 10
342.2813612355933
 20
138.8373936826377
 30
0.0000000000000000
 11
353.8395450054894
 21
118.8180321499595
 31
0.0000000000000000
  0
MTEXT
  5
E4
100
AcDbEntity
  8
MAIN0
  6
BYBLOCK
 62
0
100
AcDbMText
 10
320.2125437752306
 20
104.0800110630052
 30
0.0000000000000000
 40
3.099999904632568
 41
0.0000000000000000
 71
     5
 72
     1
  1
\A1;80
 11
0.8660254037844387
 21
0.4999999999999999
 31
0.0000000000000000
  7
STANDARD
  0
ENDBLK
  5
E5
100
AcDbEntity
  8
MAIN0
  6
CONTINUOUS
 62
3
100
AcDbBlockEnd
  0
BLOCK
  5
E7
100
AcDbEntity
  8
MAIN0
  6
CONTINUOUS
 62
3
100
AcDbBlockBegin
  2
*D16
 70
    65
 10
0.0
 20
0.0
 30
0.0
  0
LINE
  5
E8
100
AcDbEntity
  8
MAIN0
  6
BYBLOCK
 62
0
100
AcDbLine
 10
290.2947842746278
 20
101.8807862907063
 30
0.0000000000000000
 11
293.8469318652152
 21
95.72828618782557
 31
0.0000000000000000
  0
LINE
  5
E9
100
AcDbEntity
  8
MAIN0
  6
BYBLOCK
 62
0
100
AcDbLine
 10
294.5789826727840
 20
98.46033699539447
 30
0.0000000000000000
 11
331.8180750355149
 21
119.9603369953945
 31
0.0000000000000000
  0
INSERT
  5
EA
100
AcDbEntity
  8
MAIN0
  6
BYBLOCK
 62
0
100
AcDbBlockReference
  2
_OPEN
 10
292.8469318652152
 20
97.46033699539447
 30
0.0000000000000000
 41
2.000000000000000
 42
2.000000000000000
 43
2.000000000000000
 50
210.0000000000000
  0
INSERT
  5
EB
100
AcDbEntity
  8
MAIN0
  6
BYBLOCK
 62
0
100
AcDbBlockReference
  2
_OPEN
 10
333.5501258430838
 20
120.9603369953945
 30
0.0000000000000000
 41
2.000000000000000
 42
2.000000000000000
 43
2.000000000000000
 50
30.00000000000001
  0
LINE
  5
EC
100
AcDbEntity
  8
MAIN0
  6
BYBLOCK
 62
0
100
AcDbLine
 10
330.9979782524965
 20
125.3807862907063
 30
0.0000000000000000
 11
334.5501258430838
 21
119.2282861878256
 31
0.0000000000000000
  0
MTEXT
  5
ED
100
AcDbEntity
  8
MAIN0
  6
BYBLOCK
 62
0
100
AcDbMText
 10
315.5051709238708
 20
112.9092134638892
 30
0.0000000000000000
 40
3.099999904632568
 41
0.0000000000000000
 71
     5
 72
     1
  1
\A1;47
 11
0.8660254037844385
 21
0.5000000000000003
 31
0.0000000000000000
  7
STANDARD
  0
ENDBLK
  5
EE
100
AcDbEntity
  8
MAIN0
  6
CONTINUOUS
 62
3
100
AcDbBlockEnd
  0
BLOCK
  5
F0
100
AcDbEntity
  8
MAIN0
  6
CONTINUOUS
 62
3
100
AcDbBlockBegin
  2
*D17
 70
    65
 10
0.0
 20
0.0
 30
0.0
  0
LINE
  5
F1
100
AcDbEntity
  8
MAIN0
  6
BYBLOCK
 62
0
100
AcDbLine
 10
313.2991575177514
 20
230.1897159605571
 30
0.0000000000000000
 11
225.6815326388341
 21
139.6405480429150
 31
0.0000000000000000
  0
INSERT
  5
F2
100
AcDbEntity
  8
MAIN0
  6
BYBLOCK
 62
0
100
AcDbBlockReference
  2
_OPEN
 10
314.6899134682104
 20
231.6270043402022
 30
0.0000000000000000
 41
2.000000000000000
 42
2.000000000000000
 43
2.000000000000000
 50
45.94265539379046
  0
INSERT
  5
F3
100
AcDbEntity
  8
MAIN0
  6
BYBLOCK
 62
0
100
AcDbBlockReference
  2
_OPEN
 10
224.2907766883751
 20
138.2032596632699
 30
0.0000000000000000
 41
2.000000000000000
 42
2.000000000000000
 43
2.000000000000000
 50
225.9426553937905
  0
MTEXT
  5
F4
100
AcDbEntity
  8
MAIN0
  6
BYBLOCK
 62
0
100
AcDbMText
 10
296.2507341380824
 20
215.5189170303049
 30
0.0000000000000000
 40
3.099999904632568
 41
0.0000000000000000
 71
     5
 72
     1
  1
\A1;\U+2205130\H0.903226x;\U+00B10.2
 11
0.6953779752295025
 21
0.7186441898225557
 31
0.0000000000000000
  7
STANDARD
  0
ENDBLK
  5
F5
100
AcDbEntity
  8
MAIN0
  6
CONTINUOUS
 62
3
100
AcDbBlockEnd
  0
BLOCK
  5
F7
100
AcDbEntity
  8
MAIN0
  6
CONTINUOUS
 62
3
100
AcDbBlockBegin
  2
*D18
 70
    65
 10
0.0
 20
0.0
 30
0.0
  0
LINE
  5
F8
100
AcDbEntity
  8
MAIN0
  6
BYBLOCK
 62
0
100
AcDbLine
 10
269.4903450782928
 20
184.9151320017360
 30
0.0000000000000000
 11
280.1714173095282
 21
154.7503396770551
 31
0.0000000000000000
  0
INSERT
  5
F9
100
AcDbEntity
  8
MAIN0
  6
BYBLOCK
 62
0
100
AcDbBlockReference
  2
_OPEN
 10
280.8389843239805
 20
152.8650401567625
 30
0.0000000000000000
 41
2.000000000000000
 42
2.000000000000000
 43
2.000000000000000
 50
289.4985806209186
  0
MTEXT
  5
FA
100
AcDbEntity
  8
MAIN0
  6
BYBLOCK
 62
0
100
AcDbMText
 10
274.6995875294711
 20
164.0618215511751
 30
0.0000000000000000
 40
3.099999904632568
 41
0.0000000000000000
 71
     5
 72
     1
  1
\A1;Ｒ34
 11
-0.3337835072261081
 21
0.9426497601462797
 31
0.0000000000000000
  7
KNJYOKO
  0
ENDBLK
  5
FB
100
AcDbEntity
  8
MAIN0
  6
CONTINUOUS
 62
3
100
AcDbBlockEnd
  0
BLOCK
  5
FE
100
AcDbEntity
  8
MAIN0
  6
CONTINUOUS
 62
3
100
AcDbBlockBegin
  2
*D19
 70
    65
 10
0.0
 20
0.0
 30
0.0
  0
LINE
  5
FF
100
AcDbEntity
  8
MAIN0
  6
BYBLOCK
 62
0
100
AcDbLine
 10
266.2328924060838
 20
157.5572055332530
 30
0.0000000000000000
 11
260.9023032797222
 21
166.7900567343853
 31
0.0000000000000000
  0
LINE
  5
100
100
AcDbEntity
  8
MAIN0
  6
BYBLOCK
 62
0
100
AcDbLine
 10
263.6343540872912
 20
166.0580059268164
 30
0.0000000000000000
 11
288.7490907970399
 21
180.5580059268164
 31
0.0000000000000000
  0
INSERT
  5
101
100
AcDbEntity
  8
MAIN0
  6
BYBLOCK
 62
0
100
AcDbBlockReference
  2
_OPEN
 10
261.9023032797222
 20
165.0580059268164
 30
0.0000000000000000
 41
2.000000000000000
 42
2.000000000000000
 43
2.000000000000000
 50
210.0000000000000
  0
INSERT
  5
102
100
AcDbEntity
  8
MAIN0
  6
BYBLOCK
 62
0
100
AcDbBlockReference
  2
_OPEN
 10
290.4811416046088
 20
181.5580059268164
 30
0.0000000000000000
 41
2.000000000000000
 42
2.000000000000000
 43
2.000000000000000
 50
30.00000000000004
  0
LINE
  5
103
100
AcDbEntity
  8
MAIN0
  6
BYBLOCK
 62
0
100
AcDbLine
 10
294.8117307309702
 20
174.0572055332530
 30
0.0000000000000000
 11
289.4811416046088
 21
183.2900567343853
 31
0.0000000000000000
  0
MTEXT
  5
104
100
AcDbEntity
  8
MAIN0
  6
BYBLOCK
 62
0
100
AcDbMText
 10
278.2781002474183
 20
176.8797127629275
 30
0.0000000000000000
 40
3.099999904632568
 41
0.0000000000000000
 71
     5
 72
     1
  1
\A1;33
 11
0.8660254037844387
 21
0.4999999999999999
 31
0.0000000000000000
  7
STANDARD
  0
ENDBLK
  5
105
100
AcDbEntity
  8
MAIN0
  6
CONTINUOUS
 62
3
100
AcDbBlockEnd
  0
BLOCK
  5
10C
100
AcDbEntity
  8
MAIN0
  6
CONTINUOUS
 62
3
100
AcDbBlockBegin
  2
*D20
 70
    65
 10
0.0
 20
0.0
 30
0.0
  0
LINE
  5
10D
100
AcDbEntity
  8
MAIN0
  6
BYBLOCK
 62
0
100
AcDbLine
 10
70.75901557620915
 20
108.6151319898236
 30
0.0000000000000000
 11
70.75901557620918
 21
62.91513200173583
 31
0.0000000000000000
  0
LINE
  5
10E
100
AcDbEntity
  8
MAIN0
  6
BYBLOCK
 62
0
100
AcDbLine
 10
72.75901557620918
 20
64.91513200173583
 30
0.0000000000000000
 11
113.7590155762091
 21
64.91513200173583
 31
0.0000000000000000
  0
INSERT
  5
10F
100
AcDbEntity
  8
MAIN0
  6
BYBLOCK
 62
0
100
AcDbBlockReference
  2
_OPEN
 10
70.75901557620918
 20
64.91513200173583
 30
0.0000000000000000
 41
2.000000000000000
 42
2.000000000000000
 43
2.000000000000000
 50
180.0000000000000
  0
INSERT
  5
110
100
AcDbEntity
  8
MAIN0
  6
BYBLOCK
 62
0
100
AcDbBlockReference
  2
_OPEN
 10
115.7590155762091
 20
64.91513200173583
 30
0.0000000000000000
 41
2.000000000000000
 42
2.000000000000000
 43
2.000000000000000
 50
0.0000000000000000
  0
LINE
  5
111
100
AcDbEntity
  8
MAIN0
  6
BYBLOCK
 62
0
100
AcDbLine
 10
115.7590155762091
 20
73.61513198984005
 30
0.0000000000000000
 11
115.7590155762091
 21
62.91513200173583
 31
0.0000000000000000
  0
MTEXT
  5
112
100
AcDbEntity
  8
MAIN0
  6
BYBLOCK
 62
0
100
AcDbMText
 10
93.25901557620915
 20
66.96513195405211
 30
0.0000000000000000
 40
3.099999904632568
 41
0.0000000000000000
 71
     5
 72
     1
  1
\A1;45
 11
1.000000000000000
 21
0.0000000000000000
 31
0.0000000000000000
  7
STANDARD
  0
ENDBLK
  5
113
100
AcDbEntity
  8
MAIN0
  6
CONTINUOUS
 62
3
100
AcDbBlockEnd
  0
BLOCK
  5
124
100
AcDbEntity
  8
MAIN0
  6
CONTINUOUS
 62
3
100
AcDbBlockBegin
  2
*D21
 70
    65
 10
0.0
 20
0.0
 30
0.0
  0
LINE
  5
125
100
AcDbEntity
  8
MAIN0
  6
BYBLOCK
 62
0
100
AcDbLine
 10
101.5590155881301
 20
129.4151320017610
 30
0.0000000000000000
 11
139.8528235795122
 21
129.4151320017610
 31
0.0000000000000000
  0
LINE
  5
126
100
AcDbEntity
  8
MAIN0
  6
BYBLOCK
 62
0
100
AcDbLine
 10
137.8528235795122
 20
127.4151320017610
 30
0.0000000000000000
 11
137.8528235795122
 21
76.41513200176102
 31
0.0000000000000000
  0
INSERT
  5
127
100
AcDbEntity
  8
MAIN0
  6
BYBLOCK
 62
0
100
AcDbBlockReference
  2
_OPEN
 10
137.8528235795122
 20
129.4151320017610
 30
0.0000000000000000
 41
2.000000000000000
 42
2.000000000000000
 43
2.000000000000000
 50
90.00000000000000
  0
INSERT
  5
128
100
AcDbEntity
  8
MAIN0
  6
BYBLOCK
 62
0
100
AcDbBlockReference
  2
_OPEN
 10
137.8528235795122
 20
74.41513200176102
 30
0.0000000000000000
 41
2.000000000000000
 42
2.000000000000000
 43
2.000000000000000
 50
270.0000000000000
  0
LINE
  5
129
100
AcDbEntity
  8
MAIN0
  6
BYBLOCK
 62
0
100
AcDbLine
 10
116.5590155881301
 20
74.41513200176100
 30
0.0000000000000000
 11
139.8528235795122
 21
74.41513200176104
 31
0.0000000000000000
  0
MTEXT
  5
12A
100
AcDbEntity
  8
MAIN0
  6
BYBLOCK
 62
0
100
AcDbMText
 10
135.8028236271959
 20
101.9151320017610
 30
0.0000000000000000
 40
3.099999904632568
 41
0.0000000000000000
 71
     5
 72
     1
  1
\A1;55
 11
6.123233995736766e-017
 21
1.000000000000000
 31
0.0000000000000000
  7
STANDARD
  0
ENDBLK
  5
12B
100
AcDbEntity
  8
MAIN0
  6
CONTINUOUS
 62
3
100
AcDbBlockEnd
  0
BLOCK
  5
13E
100
AcDbEntity
  8
MAIN0
  6
CONTINUOUS
 62
3
100
AcDbBlockBegin
  2
*D22
 70
    65
 10
0.0
 20
0.0
 30
0.0
  0
LINE
  5
13F
100
AcDbEntity
  8
MAIN0
  6
BYBLOCK
 62
0
100
AcDbLine
 10
219.4886539738619
 20
153.7372411058972
 30
0.0000000000000000
 11
270.2386539738612
 21
65.83566262177700
 31
0.0000000000000000
  0
INSERT
  5
140
100
AcDbEntity
  8
MAIN0
  6
BYBLOCK
 62
0
100
AcDbBlockReference
  2
_OPEN
 10
218.4886539738619
 20
155.4692919134661
 30
0.0000000000000000
 41
2.000000000000000
 42
2.000000000000000
 43
2.000000000000000
 50
119.9999999999997
  0
INSERT
  5
141
100
AcDbEntity
  8
MAIN0
  6
BYBLOCK
 62
0
100
AcDbBlockReference
  2
_OPEN
 10
271.2386539738612
 20
64.10361181420811
 30
0.0000000000000000
 41
2.000000000000000
 42
2.000000000000000
 43
2.000000000000000
 50
299.9999999999997
  0
LINE
  5
142
100
AcDbEntity
  8
MAIN0
  6
BYBLOCK
 62
0
100
AcDbLine
 10
286.9065085935162
 20
73.14945189648975
 30
0.0000000000000000
 11
269.5066031662923
 21
63.10361181420814
 31
0.0000000000000000
  0
MTEXT
  5
143
100
AcDbEntity
  8
MAIN0
  6
BYBLOCK
 62
0
100
AcDbMText
 10
243.0883019373988
 20
108.7614518876790
 30
0.0000000000000000
 40
3.099999904632568
 41
0.0000000000000000
 71
     5
 72
     1
  1
\A1;105.5
 11
-0.4999999999999956
 21
0.8660254037844412
 31
0.0000000000000000
  7
STANDARD
  0
ENDBLK
  5
144
100
AcDbEntity
  8
MAIN0
  6
CONTINUOUS
 62
3
100
AcDbBlockEnd
  0
BLOCK
  5
146
100
AcDbEntity
  8
MAIN0
  6
CONTINUOUS
 62
3
100
AcDbBlockBegin
  2
*D23
 70
    65
 10
0.0
 20
0.0
 30
0.0
  0
LINE
  5
147
100
AcDbEntity
  8
MAIN0
  6
BYBLOCK
 62
0
100
AcDbLine
 10
225.5508318003530
 20
157.2372411058973
 30
0.0000000000000000
 11
261.3008318003524
 21
95.31642473531025
 31
0.0000000000000000
  0
INSERT
  5
148
100
AcDbEntity
  8
MAIN0
  6
BYBLOCK
 62
0
100
AcDbBlockReference
  2
_OPEN
 10
224.5508318003530
 20
158.9692919134662
 30
0.0000000000000000
 41
2.000000000000000
 42
2.000000000000000
 43
2.000000000000000
 50
119.9999999999997
  0
INSERT
  5
149
100
AcDbEntity
  8
MAIN0
  6
BYBLOCK
 62
0
100
AcDbBlockReference
  2
_OPEN
 10
262.3008318003523
 20
93.58437392774137
 30
0.0000000000000000
 41
2.000000000000000
 42
2.000000000000000
 43
2.000000000000000
 50
299.9999999999997
  0
LINE
  5
14A
100
AcDbEntity
  8
MAIN0
  6
BYBLOCK
 62
0
100
AcDbLine
 10
271.9065085935263
 20
99.13021401002874
 30
0.0000000000000000
 11
260.5687809927835
 21
92.58437392774135
 31
0.0000000000000000
  0
MTEXT
  5
14B
100
AcDbEntity
  8
MAIN0
  6
BYBLOCK
 62
0
100
AcDbMText
 10
239.1532000837449
 20
129.5772482311661
 30
0.0000000000000000
 40
3.099999904632568
 41
0.0000000000000000
 71
     5
 72
     1
  1
\A1;75.5
 11
-0.4999999999999956
 21
0.8660254037844412
 31
0.0000000000000000
  7
STANDARD
  0
ENDBLK
  5
14C
100
AcDbEntity
  8
MAIN0
  6
CONTINUOUS
 62
3
100
AcDbBlockEnd
  0
BLOCK
  5
14E
100
AcDbEntity
  8
MAIN0
  6
CONTINUOUS
 62
3
100
AcDbBlockBegin
  2
*D24
 70
    65
 10
0.0
 20
0.0
 30
0.0
  0
LINE
  5
14F
100
AcDbEntity
  8
MAIN0
  6
BYBLOCK
 62
0
100
AcDbLine
 10
55.75901557620858
 20
186.6548379978732
 30
0.0000000000000000
 11
60.75901557620909
 21
186.6548379978732
 31
0.0000000000000000
  0
INSERT
  5
150
100
AcDbEntity
  8
MAIN0
  6
BYBLOCK
 62
0
100
AcDbBlockReference
  2
_OPEN
 10
55.75901557620858
 20
186.6548379978732
 30
0.0000000000000000
 41
2.000000000000000
 42
2.000000000000000
 43
2.000000000000000
 50
0.0000000000000000
  0
INSERT
  5
151
100
AcDbEntity
  8
MAIN0
  6
BYBLOCK
 62
0
100
AcDbBlockReference
  2
_OPEN
 10
60.75901557620909
 20
186.6548379978732
 30
0.0000000000000000
 41
2.000000000000000
 42
2.000000000000000
 43
2.000000000000000
 50
180.0000000000000
  0
LINE
  5
152
100
AcDbEntity
  8
MAIN0
  6
BYBLOCK
 62
0
100
AcDbLine
 10
53.75901557620858
 20
186.6548379978732
 30
0.0000000000000000
 11
52.75901557620858
 21
186.6548379978732
 31
0.0000000000000000
  0
LINE
  5
153
100
AcDbEntity
  8
MAIN0
  6
BYBLOCK
 62
0
100
AcDbLine
 10
62.75901557620909
 20
186.6548379978732
 30
0.0000000000000000
 11
63.75901557620909
 21
186.6548379978732
 31
0.0000000000000000
  0
MTEXT
  5
154
100
AcDbEntity
  8
MAIN0
  6
BYBLOCK
 62
0
100
AcDbMText
 10
58.25901557620884
 20
188.7048379501895
 30
0.0000000000000000
 40
3.099999904632568
 41
0.0000000000000000
 71
     5
 72
     1
  1
\A1;5
 11
1.000000000000000
 21
0.0000000000000000
 31
0.0000000000000000
  7
STANDARD
  0
ENDBLK
  5
155
100
AcDbEntity
  8
MAIN0
  6
CONTINUOUS
 62
3
100
AcDbBlockEnd
  0
BLOCK
  5
158
100
AcDbEntity
  8
MAIN0
  6
CONTINUOUS
 62
3
100
AcDbBlockBegin
  2
*D25
 70
    65
 10
0.0
 20
0.0
 30
0.0
  0
ARC
  5
159
100
AcDbEntity
  8
MAIN0
  6
BYBLOCK
 62
0
100
AcDbCircle
 10
269.4903450782927
 20
184.9151320017360
 30
0.0000000000000000
 40
80.00000000004869
100
AcDbArc
 50
346.4323944878262
 51
358.5676055121738
  0
INSERT
  5
15A
100
AcDbEntity
  8
MAIN0
  6
BYBLOCK
 62
0
100
AcDbBlockReference
  2
_OPEN
 10
346.7644111814652
 20
164.2096083935219
 30
0.0000000000000000
 41
2.000000000000000
 42
2.000000000000000
 43
2.000000000000000
 50
255.0000000000000
  0
INSERT
  5
15B
100
AcDbEntity
  8
MAIN0
  6
BYBLOCK
 62
0
100
AcDbBlockReference
  2
_OPEN
 10
349.4903450783413
 20
184.9151320017360
 30
0.0000000000000000
 41
2.000000000000000
 42
2.000000000000000
 43
2.000000000000000
 50
90.00000000000000
  0
MTEXT
  5
15C
100
AcDbEntity
  8
MAIN0
  6
BYBLOCK
 62
0
100
AcDbMText
 10
346.7734720697052
 20
174.7406153119527
 30
0.0000000000000000
 40
3.099999904632568
 41
0.0000000000000000
 71
     5
 72
     1
  1
\A1;15\U+00B0
 11
0.1305261922200506
 21
0.9914448613738105
 31
0.0000000000000000
  7
STANDARD
  0
ENDBLK
  5
15D
100
AcDbEntity
  8
MAIN0
  6
CONTINUOUS
 62
3
100
AcDbBlockEnd
  0
BLOCK
  5
15F
100
AcDbEntity
  8
MAIN0
  6
CONTINUOUS
 62
3
100
AcDbBlockBegin
  2
*D26
 70
    65
 10
0.0
 20
0.0
 30
0.0
  0
LINE
  5
160
100
AcDbEntity
  8
MAIN0
  6
BYBLOCK
 62
0
100
AcDbLine
 10
331.8386737318962
 20
220.9119563334167
 30
0.0000000000000000
 11
340.5044281886591
 21
225.9151320017599
 31
0.0000000000000000
  0
ARC
  5
161
100
AcDbEntity
  8
MAIN0
  6
BYBLOCK
 62
0
100
AcDbCircle
 10
269.4903450782927
 20
184.9151320017360
 30
0.0000000000000000
 40
80.00000000004869
100
AcDbArc
 50
1.432394487826186
 51
28.56760551217341
  0
INSERT
  5
162
100
AcDbEntity
  8
MAIN0
  6
BYBLOCK
 62
0
100
AcDbBlockReference
  2
_OPEN
 10
349.4903450783413
 20
184.9151320017360
 30
0.0000000000000000
 41
2.000000000000000
 42
2.000000000000000
 43
2.000000000000000
 50
270.0000000000000
  0
INSERT
  5
163
100
AcDbEntity
  8
MAIN0
  6
BYBLOCK
 62
0
100
AcDbBlockReference
  2
_OPEN
 10
338.7723773810902
 20
224.9151320017599
 30
0.0000000000000000
 41
2.000000000000000
 42
2.000000000000000
 43
2.000000000000000
 50
119.9999999999996
  0
MTEXT
  5
164
100
AcDbEntity
  8
MAIN0
  6
BYBLOCK
 62
0
100
AcDbMText
 10
344.7842632836316
 20
205.0900765798313
 30
0.0000000000000000
 40
3.099999904632568
 41
0.0000000000000000
 71
     5
 72
     1
  1
\A1;30\U+00B0
 11
-0.2588190451025174
 21
0.9659258262890692
 31
0.0000000000000000
  7
STANDARD
  0
ENDBLK
  5
165
100
AcDbEntity
  8
MAIN0
  6
CONTINUOUS
 62
3
100
AcDbBlockEnd
  0
BLOCK
  5
167
100
AcDbEntity
  8
MAIN0
  6
CONTINUOUS
 62
3
100
AcDbBlockBegin
  2
*D27
 70
    65
 10
0.0
 20
0.0
 30
0.0
  0
LINE
  5
168
100
AcDbEntity
  8
MAIN0
  6
BYBLOCK
 62
0
100
AcDbLine
 10
331.8386737318962
 20
220.9119563334167
 30
0.0000000000000000
 11
340.5044281886591
 21
225.9151320017599
 31
0.0000000000000000
  0
LINE
  5
169
100
AcDbEntity
  8
MAIN0
  6
BYBLOCK
 62
0
100
AcDbLine
 10
289.3676477452517
 20
259.0982354722512
 30
0.0000000000000000
 11
290.7135067767121
 21
264.1210497574866
 31
0.0000000000000000
  0
ARC
  5
16A
100
AcDbEntity
  8
MAIN0
  6
BYBLOCK
 62
0
100
AcDbCircle
 10
269.4903450782927
 20
184.9151320017360
 30
0.0000000000000000
 40
80.00000000004869
100
AcDbArc
 50
31.43239448782579
 51
73.56760551217377
  0
INSERT
  5
16B
100
AcDbEntity
  8
MAIN0
  6
BYBLOCK
 62
0
100
AcDbBlockReference
  2
_OPEN
 10
338.7723773810902
 20
224.9151320017599
 30
0.0000000000000000
 41
2.000000000000000
 42
2.000000000000000
 43
2.000000000000000
 50
299.9999999999996
  0
INSERT
  5
16C
100
AcDbEntity
  8
MAIN0
  6
BYBLOCK
 62
0
100
AcDbBlockReference
  2
_OPEN
 10
290.1958686865070
 20
262.1891981049085
 30
0.0000000000000000
 41
2.000000000000000
 42
2.000000000000000
 43
2.000000000000000
 50
165.0000000000000
  0
MTEXT
  5
16D
100
AcDbEntity
  8
MAIN0
  6
BYBLOCK
 62
0
100
AcDbMText
 10
319.4392202994601
 20
250.0097735348403
 30
0.0000000000000000
 40
3.099999904632568
 41
0.0000000000000000
 71
     5
 72
     1
  1
\A1;45\U+00B0
 11
0.7933533402912327
 21
-0.6087614290087238
 31
0.0000000000000000
  7
STANDARD
  0
ENDBLK
  5
16E
100
AcDbEntity
  8
MAIN0
  6
CONTINUOUS
 62
3
100
AcDbBlockEnd
  0
BLOCK
  5
170
100
AcDbEntity
  8
MAIN0
  6
CONTINUOUS
 62
3
100
AcDbBlockBegin
  2
*D28
 70
    65
 10
0.0
 20
0.0
 30
0.0
  0
LINE
  5
171
100
AcDbEntity
  8
MAIN0
  6
BYBLOCK
 62
0
100
AcDbLine
 10
289.3676477452517
 20
259.0982354722512
 30
0.0000000000000000
 11
290.7135067767121
 21
264.1210497574866
 31
0.0000000000000000
  0
ARC
  5
172
100
AcDbEntity
  8
MAIN0
  6
BYBLOCK
 62
0
100
AcDbCircle
 10
269.4903450782927
 20
184.9151320017360
 30
0.0000000000000000
 40
80.00000000004869
100
AcDbArc
 50
76.43239448782614
 51
88.56760551217374
  0
INSERT
  5
173
100
AcDbEntity
  8
MAIN0
  6
BYBLOCK
 62
0
100
AcDbBlockReference
  2
_OPEN
 10
290.1958686865070
 20
262.1891981049085
 30
0.0000000000000000
 41
2.000000000000000
 42
2.000000000000000
 43
2.000000000000000
 50
345.0000000000000
  0
INSERT
  5
174
100
AcDbEntity
  8
MAIN0
  6
BYBLOCK
 62
0
100
AcDbBlockReference
  2
_OPEN
 10
269.4903450782928
 20
264.9151320017847
 30
0.0000000000000000
 41
2.000000000000000
 42
2.000000000000000
 43
2.000000000000000
 50
179.9999999999999
  0
MTEXT
  5
175
100
AcDbEntity
  8
MAIN0
  6
BYBLOCK
 62
0
100
AcDbMText
 10
280.2000191437303
 20
266.2631828302297
 30
0.0000000000000000
 40
3.099999904632568
 41
0.0000000000000000
 71
     5
 72
     1
  1
\A1;15\U+00B0
 11
0.9914448613738103
 21
-0.1305261922200526
 31
0.0000000000000000
  7
STANDARD
  0
ENDBLK
  5
176
100
AcDbEntity
  8
MAIN0
  6
CONTINUOUS
 62
3
100
AcDbBlockEnd
  0
BLOCK
  5
178
100
AcDbEntity
  8
MAIN0
  6
CONTINUOUS
 62
3
100
AcDbBlockBegin
  2
*D29
 70
    65
 10
0.0
 20
0.0
 30
0.0
  0
LINE
  5
179
100
AcDbEntity
  8
MAIN0
  6
BYBLOCK
 62
0
100
AcDbLine
 10
269.4903450782928
 20
96.81622782182959
 30
0.0000000000000000
 11
269.4903450782928
 21
69.24604084708786
 31
0.0000000000000000
  0
LINE
  5
17A
100
AcDbEntity
  8
MAIN0
  6
BYBLOCK
 62
0
100
AcDbLine
 10
311.5369021382973
 20
112.0883588904645
 30
0.0000000000000000
 11
327.3248906556170
 21
84.74276062915277
 31
0.0000000000000000
  0
ARC
  5
17B
100
AcDbEntity
  8
MAIN0
  6
BYBLOCK
 62
0
100
AcDbCircle
 10
269.4903450782928
 20
184.9151320017363
 30
0.0000000000000000
 40
113.6690911546484
100
AcDbArc
 50
271.0081153800224
 51
298.9918846199776
  0
INSERT
  5
17C
100
AcDbEntity
  8
MAIN0
  6
BYBLOCK
 62
0
100
AcDbBlockReference
  2
_OPEN
 10
269.4903450782928
 20
71.24604084708786
 30
0.0000000000000000
 41
2.000000000000000
 42
2.000000000000000
 43
2.000000000000000
 50
180.0000000000000
  0
INSERT
  5
17D
100
AcDbEntity
  8
MAIN0
  6
BYBLOCK
 62
0
100
AcDbBlockReference
  2
_OPEN
 10
326.3248906556169
 20
86.47481143672167
 30
0.0000000000000000
 41
2.000000000000000
 42
2.000000000000000
 43
2.000000000000000
 50
30.00000000000000
  0
MTEXT
  5
17E
100
AcDbEntity
  8
MAIN0
  6
BYBLOCK
 62
0
100
AcDbMText
 10
310.3701870453083
 20
81.05147116895812
 30
0.0000000000000000
 40
3.099999904632568
 41
0.0000000000000000
 71
     5
 72
     1
  1
\A1;30\U+00B0
 11
0.9305187823515271
 21
0.3662441749584988
 31
0.0000000000000000
  7
STANDARD
  0
ENDBLK
  5
17F
100
AcDbEntity
  8
MAIN0
  6
CONTINUOUS
 62
3
100
AcDbBlockEnd
  0
BLOCK
  5
18A
100
AcDbEntity
  8
MAIN0
  6
CONTINUOUS
 62
3
100
AcDbBlockBegin
  2
*D30
 70
    65
 10
0.0
 20
0.0
 30
0.0
  0
LINE
  5
18B
100
AcDbEntity
  8
MAIN0
  6
BYBLOCK
 62
0
100
AcDbLine
 10
252.3890720714009
 20
198.4151320017225
 30
0.0000000000000000
 11
260.7057845253179
 21
198.4151320017225
 31
0.0000000000000000
  0
LINE
  5
18C
100
AcDbEntity
  8
MAIN0
  6
BYBLOCK
 62
0
100
AcDbLine
 10
258.7057845253179
 20
196.4151320017225
 30
0.0000000000000000
 11
258.7057845253179
 21
173.4151320017225
 31
0.0000000000000000
  0
INSERT
  5
18D
100
AcDbEntity
  8
MAIN0
  6
BYBLOCK
 62
0
100
AcDbBlockReference
  2
_OPEN
 10
258.7057845253179
 20
198.4151320017225
 30
0.0000000000000000
 41
2.000000000000000
 42
2.000000000000000
 43
2.000000000000000
 50
90.00000000000000
  0
INSERT
  5
18E
100
AcDbEntity
  8
MAIN0
  6
BYBLOCK
 62
0
100
AcDbBlockReference
  2
_OPEN
 10
258.7057845253179
 20
171.4151320017225
 30
0.0000000000000000
 41
2.000000000000000
 42
2.000000000000000
 43
2.000000000000000
 50
270.0000000000000
  0
LINE
  5
18F
100
AcDbEntity
  8
MAIN0
  6
BYBLOCK
 62
0
100
AcDbLine
 10
252.3890720713866
 20
171.4151320017225
 30
0.0000000000000000
 11
260.7057845253179
 21
171.4151320017225
 31
0.0000000000000000
  0
MTEXT
  5
190
100
AcDbEntity
  8
MAIN0
  6
BYBLOCK
 62
0
100
AcDbMText
 10
256.6557845730017
 20
184.9151320017225
 30
0.0000000000000000
 40
3.099999904632568
 41
0.0000000000000000
 71
     5
 72
     1
  1
\A1;27
 11
6.123233995736766e-017
 21
1.000000000000000
 31
0.0000000000000000
  7
STANDARD
  0
ENDBLK
  5
191
100
AcDbEntity
  8
MAIN0
  6
CONTINUOUS
 62
3
100
AcDbBlockEnd
  0
BLOCK
  5
193
100
AcDbEntity
  8
MAIN0
  6
CONTINUOUS
 62
3
100
AcDbBlockBegin
  2
*D31
 70
    65
 10
0.0
 20
0.0
 30
0.0
  0
LINE
  5
194
100
AcDbEntity
  8
MAIN0
  6
BYBLOCK
 62
0
100
AcDbLine
 10
147.5590155762090
 20
202.0164050086520
 30
0.0000000000000000
 11
147.5590155762090
 21
186.9828947141880
 31
0.0000000000000000
  0
LINE
  5
195
100
AcDbEntity
  8
MAIN0
  6
BYBLOCK
 62
0
100
AcDbLine
 10
147.5590155762090
 20
188.9828947141880
 30
0.0000000000000000
 11
145.7590155762092
 21
188.9828947141880
 31
0.0000000000000000
  0
INSERT
  5
196
100
AcDbEntity
  8
MAIN0
  6
BYBLOCK
 62
0
100
AcDbBlockReference
  2
_OPEN
 10
147.5590155762090
 20
188.9828947141880
 30
0.0000000000000000
 41
2.000000000000000
 42
2.000000000000000
 43
2.000000000000000
 50
180.0000000000000
  0
INSERT
  5
197
100
AcDbEntity
  8
MAIN0
  6
BYBLOCK
 62
0
100
AcDbBlockReference
  2
_OPEN
 10
145.7590155762092
 20
188.9828947141880
 30
0.0000000000000000
 41
2.000000000000000
 42
2.000000000000000
 43
2.000000000000000
 50
360.0000000000000
  0
LINE
  5
198
100
AcDbEntity
  8
MAIN0
  6
BYBLOCK
 62
0
100
AcDbLine
 10
149.5590155762090
 20
188.9828947141880
 30
0.0000000000000000
 11
150.5590155762090
 21
188.9828947141880
 31
0.0000000000000000
  0
LINE
  5
199
100
AcDbEntity
  8
MAIN0
  6
BYBLOCK
 62
0
100
AcDbLine
 10
143.7590155762092
 20
188.9828947141880
 30
0.0000000000000000
 11
137.9435854118721
 21
188.9828947141880
 31
0.0000000000000000
  0
MTEXT
  5
19A
100
AcDbEntity
  8
MAIN0
  6
BYBLOCK
 62
0
100
AcDbMText
 10
140.5935854448474
 20
191.0328946665043
 30
0.0000000000000000
 40
3.099999904632568
 41
0.0000000000000000
 71
     5
 72
     1
  1
\A1;1.8
 11
1.000000000000000
 21
0.0000000000000000
 31
0.0000000000000000
  7
STANDARD
  0
ENDBLK
  5
19B
100
AcDbEntity
  8
MAIN0
  6
CONTINUOUS
 62
3
100
AcDbBlockEnd
  0
BLOCK
  5
19D
100
AcDbEntity
  8
MAIN0
  6
CONTINUOUS
 62
3
100
AcDbBlockBegin
  2
*D32
 70
    65
 10
0.0
 20
0.0
 30
0.0
  0
LINE
  5
19E
100
AcDbEntity
  8
MAIN0
  6
BYBLOCK
 62
0
100
AcDbLine
 10
145.3590155642884
 20
217.8164050205736
 30
0.0000000000000000
 11
123.8753095091772
 21
217.8164050205729
 31
0.0000000000000000
  0
LINE
  5
19F
100
AcDbEntity
  8
MAIN0
  6
BYBLOCK
 62
0
100
AcDbLine
 10
125.8753095091772
 20
215.8164050205729
 30
0.0000000000000000
 11
125.8753095091772
 21
204.8164050205739
 31
0.0000000000000000
  0
INSERT
  5
1A0
100
AcDbEntity
  8
MAIN0
  6
BYBLOCK
 62
0
100
AcDbBlockReference
  2
_OPEN
 10
125.8753095091772
 20
217.8164050205729
 30
0.0000000000000000
 41
2.000000000000000
 42
2.000000000000000
 43
2.000000000000000
 50
90.00000000000000
  0
INSERT
  5
1A1
100
AcDbEntity
  8
MAIN0
  6
BYBLOCK
 62
0
100
AcDbBlockReference
  2
_OPEN
 10
125.8753095091772
 20
202.8164050205739
 30
0.0000000000000000
 41
2.000000000000000
 42
2.000000000000000
 43
2.000000000000000
 50
270.0000000000000
  0
LINE
  5
1A2
100
AcDbEntity
  8
MAIN0
  6
BYBLOCK
 62
0
100
AcDbLine
 10
144.9590155642881
 20
202.8164050205739
 30
0.0000000000000000
 11
123.8753095091772
 21
202.8164050205739
 31
0.0000000000000000
  0
MTEXT
  5
1A3
100
AcDbEntity
  8
MAIN0
  6
BYBLOCK
 62
0
100
AcDbMText
 10
123.8253095568609
 20
210.3164050205734
 30
0.0000000000000000
 40
3.099999904632568
 41
0.0000000000000000
 71
     5
 72
     1
  1
\A1;15
 11
6.123233995736766e-017
 21
1.000000000000000
 31
0.0000000000000000
  7
STANDARD
  0
ENDBLK
  5
1A4
100
AcDbEntity
  8
MAIN0
  6
CONTINUOUS
 62
3
100
AcDbBlockEnd
  0
BLOCK
  5
1A6
100
AcDbEntity
  8
MAIN0
  6
CONTINUOUS
 62
3
100
AcDbBlockBegin
  2
*D33
 70
    65
 10
0.0
 20
0.0
 30
0.0
  0
LINE
  5
1A7
100
AcDbEntity
  8
MAIN0
  6
BYBLOCK
 62
0
100
AcDbLine
 10
144.9590155642881
 20
202.8164050205739
 30
0.0000000000000000
 11
123.8753095091772
 21
202.8164050205739
 31
0.0000000000000000
  0
LINE
  5
1A8
100
AcDbEntity
  8
MAIN0
  6
BYBLOCK
 62
0
100
AcDbLine
 10
125.8753095091772
 20
200.8164050205739
 30
0.0000000000000000
 11
125.8753095091772
 21
186.9151320017358
 31
0.0000000000000000
  0
INSERT
  5
1A9
100
AcDbEntity
  8
MAIN0
  6
BYBLOCK
 62
0
100
AcDbBlockReference
  2
_OPEN
 10
125.8753095091772
 20
202.8164050205739
 30
0.0000000000000000
 41
2.000000000000000
 42
2.000000000000000
 43
2.000000000000000
 50
90.00000000000000
  0
INSERT
  5
1AA
100
AcDbEntity
  8
MAIN0
  6
BYBLOCK
 62
0
100
AcDbBlockReference
  2
_OPEN
 10
125.8753095091772
 20
184.9151320017358
 30
0.0000000000000000
 41
2.000000000000000
 42
2.000000000000000
 43
2.000000000000000
 50
270.0000000000000
  0
MTEXT
  5
1AB
100
AcDbEntity
  8
MAIN0
  6
BYBLOCK
 62
0
100
AcDbMText
 10
123.8253095568609
 20
193.8657685111548
 30
0.0000000000000000
 40
3.099999904632568
 41
0.0000000000000000
 71
     5
 72
     1
  1
\A1;MAX 17.9
 11
6.123233995736766e-017
 21
1.000000000000000
 31
0.0000000000000000
  7
STANDARD
  0
ENDBLK
  5
1AC
100
AcDbEntity
  8
MAIN0
  6
CONTINUOUS
 62
3
100
AcDbBlockEnd
  0
BLOCK
  5
1B1
100
AcDbEntity
  8
MAIN0
  6
CONTINUOUS
 62
3
100
AcDbBlockBegin
  2
*D34
 70
    65
 10
0.0
 20
0.0
 30
0.0
  0
LINE
  5
1B2
100
AcDbEntity
  8
MAIN0
  6
BYBLOCK
 62
0
100
AcDbLine
 10
180.6590155762092
 20
186.9151320017358
 30
0.0000000000000000
 11
180.6590155762092
 21
208.4164050205604
 31
0.0000000000000000
  0
INSERT
  5
1B3
100
AcDbEntity
  8
MAIN0
  6
BYBLOCK
 62
0
100
AcDbBlockReference
  2
_OPEN
 10
180.6590155762092
 20
184.9151320017358
 30
0.0000000000000000
 41
2.000000000000000
 42
2.000000000000000
 43
2.000000000000000
 50
270.0000000000000
  0
INSERT
  5
1B4
100
AcDbEntity
  8
MAIN0
  6
BYBLOCK
 62
0
100
AcDbBlockReference
  2
_OPEN
 10
180.6590155762092
 20
210.4164050205604
 30
0.0000000000000000
 41
2.000000000000000
 42
2.000000000000000
 43
2.000000000000000
 50
90.00000000000000
  0
LINE
  5
1B5
100
AcDbEntity
  8
MAIN0
  6
BYBLOCK
 62
0
100
AcDbLine
 10
148.7600155881243
 20
210.4164050205604
 30
0.0000000000000000
 11
182.6590155762092
 21
210.4164050205604
 31
0.0000000000000000
  0
MTEXT
  5
1B6
100
AcDbEntity
  8
MAIN0
  6
BYBLOCK
 62
0
100
AcDbMText
 10
178.6090156238929
 20
199.5732693358694
 30
0.0000000000000000
 40
3.099999904632568
 41
0.0000000000000000
 71
     5
 72
     1
  1
\A1;MAX 25.5
 11
6.123233995736766e-017
 21
1.000000000000000
 31
0.0000000000000000
  7
STANDARD
  0
ENDBLK
  5
1B7
100
AcDbEntity
  8
MAIN0
  6
CONTINUOUS
 62
3
100
AcDbBlockEnd
  0
BLOCK
  5
1B9
100
AcDbEntity
  8
MAIN0
  6
CONTINUOUS
 62
3
100
AcDbBlockBegin
  2
*D35
 70
    65
 10
0.0
 20
0.0
 30
0.0
  0
LINE
  5
1BA
100
AcDbEntity
  8
MAIN0
  6
BYBLOCK
 62
0
100
AcDbLine
 10
148.7600155881243
 20
210.4164050205604
 30
0.0000000000000000
 11
182.6590155762092
 21
210.4164050205604
 31
0.0000000000000000
  0
LINE
  5
1BB
100
AcDbEntity
  8
MAIN0
  6
BYBLOCK
 62
0
100
AcDbLine
 10
180.6590155762092
 20
210.4164050205604
 30
0.0000000000000000
 11
180.6590155762092
 21
218.6664050205752
 31
0.0000000000000000
  0
INSERT
  5
1BC
100
AcDbEntity
  8
MAIN0
  6
BYBLOCK
 62
0
100
AcDbBlockReference
  2
_OPEN
 10
180.6590155762092
 20
210.4164050205604
 30
0.0000000000000000
 41
2.000000000000000
 42
2.000000000000000
 43
2.000000000000000
 50
90.00000000000000
  0
INSERT
  5
1BD
100
AcDbEntity
  8
MAIN0
  6
BYBLOCK
 62
0
100
AcDbBlockReference
  2
_OPEN
 10
180.6590155762092
 20
218.6664050205752
 30
0.0000000000000000
 41
2.000000000000000
 42
2.000000000000000
 43
2.000000000000000
 50
270.0000000000000
  0
LINE
  5
1BE
100
AcDbEntity
  8
MAIN0
  6
BYBLOCK
 62
0
100
AcDbLine
 10
180.6590155762092
 20
208.4164050205604
 30
0.0000000000000000
 11
180.6590155762092
 21
207.4164050205604
 31
0.0000000000000000
  0
LINE
  5
1BF
100
AcDbEntity
  8
MAIN0
  6
BYBLOCK
 62
0
100
AcDbLine
 10
180.6590155762092
 20
220.6664050205752
 30
0.0000000000000000
 11
180.6590155762092
 21
227.4996035679384
 31
0.0000000000000000
  0
LINE
  5
1C0
100
AcDbEntity
  8
MAIN0
  6
BYBLOCK
 62
0
100
AcDbLine
 10
180.2297473652099
 20
218.6664050205752
 30
0.0000000000000000
 11
182.6590155762092
 21
218.6664050205752
 31
0.0000000000000000
  0
MTEXT
  5
1C1
100
AcDbEntity
  8
MAIN0
  6
BYBLOCK
 62
0
100
AcDbMText
 10
178.6090156238929
 20
219.5996037833579
 30
0.0000000000000000
 40
3.099999904632568
 41
0.0000000000000000
 71
     5
 72
     1
  1
\A1;MAX 9.75
 11
6.123233995736766e-017
 21
1.000000000000000
 31
0.0000000000000000
  7
STANDARD
  0
ENDBLK
  5
1C2
100
AcDbEntity
  8
MAIN0
  6
CONTINUOUS
 62
3
100
AcDbBlockEnd
  0
BLOCK
  5
1C8
100
AcDbEntity
  8
MAIN0
  6
CONTINUOUS
 62
3
100
AcDbBlockBegin
  2
*D36
 70
    65
 10
0.0
 20
0.0
 30
0.0
  0
LINE
  5
1C9
100
AcDbEntity
  8
MAIN0
  6
BYBLOCK
 62
0
100
AcDbLine
 10
145.7590155762092
 20
143.7838105136723
 30
0.0000000000000000
 11
146.7590155762092
 21
143.7838105136723
 31
0.0000000000000000
  0
INSERT
  5
1CA
100
AcDbEntity
  8
MAIN0
  6
BYBLOCK
 62
0
100
AcDbBlockReference
  2
_OPEN
 10
145.7590155762092
 20
143.7838105136723
 30
0.0000000000000000
 41
2.000000000000000
 42
2.000000000000000
 43
2.000000000000000
 50
0.0000000000000000
  0
INSERT
  5
1CB
100
AcDbEntity
  8
MAIN0
  6
BYBLOCK
 62
0
100
AcDbBlockReference
  2
_OPEN
 10
146.7590155762092
 20
143.7838105136723
 30
0.0000000000000000
 41
2.000000000000000
 42
2.000000000000000
 43
2.000000000000000
 50
180.0000000000000
  0
LINE
  5
1CC
100
AcDbEntity
  8
MAIN0
  6
BYBLOCK
 62
0
100
AcDbLine
 10
143.7590155762092
 20
143.7838105136723
 30
0.0000000000000000
 11
142.7590155762092
 21
143.7838105136723
 31
0.0000000000000000
  0
LINE
  5
1CD
100
AcDbEntity
  8
MAIN0
  6
BYBLOCK
 62
0
100
AcDbLine
 10
148.7590155762092
 20
143.7838105136723
 30
0.0000000000000000
 11
153.7732649010078
 21
143.7838105136723
 31
0.0000000000000000
  0
LINE
  5
1CE
100
AcDbEntity
  8
MAIN0
  6
BYBLOCK
 62
0
100
AcDbLine
 10
146.7590155762092
 20
153.6651319898149
 30
0.0000000000000000
 11
146.7590155762092
 21
141.7838105136723
 31
0.0000000000000000
  0
MTEXT
  5
1CF
100
AcDbEntity
  8
MAIN0
  6
BYBLOCK
 62
0
100
AcDbMText
 10
151.1232651175525
 20
145.8338104659886
 30
0.0000000000000000
 40
3.099999904632568
 41
0.0000000000000000
 71
     5
 72
     1
  1
\A1;0.1
 11
1.000000000000000
 21
0.0000000000000000
 31
0.0000000000000000
  7
STANDARD
  0
ENDBLK
  5
1D0
100
AcDbEntity
  8
MAIN0
  6
CONTINUOUS
 62
3
100
AcDbBlockEnd
  0
BLOCK
  5
1D2
100
AcDbEntity
  8
MAIN0
  6
CONTINUOUS
 62
3
100
AcDbBlockBegin
  2
D37
 70
    64
 10
0.0
 20
0.0
 30
0.0
  0
LINE
  5
1D3
100
AcDbEntity
  8
MAIN0
  6
BYBLOCK
 62
0
100
AcDbLine
 10
-12.73421039563222
 20
-37.49897203573722
 30
0.0000000000000000
 11
-12.73421039563224
 21
-55.00000000011109
 31
0.0000000000000000
  0
LINE
  5
1D4
100
AcDbEntity
  8
MAIN0
  6
BYBLOCK
 62
0
100
AcDbLine
 10
-12.13421037179038
 20
-53.00000000011109
 30
0.0000000000000000
 11
-12.73421039563224
 21
-55.00000000011109
 31
0.0000000000000000
  0
LINE
  5
1D5
100
AcDbEntity
  8
MAIN0
  6
BYBLOCK
 62
0
100
AcDbLine
 10
-12.73421039563224
 20
-55.00000000011109
 30
0.0000000000000000
 11
-13.33421041947410
 21
-53.00000000011109
 31
0.0000000000000000
  0
LINE
  5
1D6
100
AcDbEntity
  8
MAIN0
  6
BYBLOCK
 62
0
100
AcDbLine
 10
-41.73731299368414
 20
-55.00000000011106
 30
0.0000000000000000
 11
-10.73421039563224
 21
-55.00000000011109
 31
0.0000000000000000
  0
MTEXT
  5
1D7
100
AcDbEntity
  8
MAIN0
  6
BYBLOCK
 62
0
100
AcDbMText
 10
-14.78421034794851
 20
-43.94897203871745
 30
0.0000000000000000
 40
3.099999904632568
 41
0.0000000000000000
 71
     5
 72
     1
  1
\A1;\U+2205110
 11
6.123233995736766e-017
 21
1.000000000000000
 31
0.0000000000000000
  7
STANDARD
  0
ENDBLK
  5
1D8
100
AcDbEntity
  8
MAIN0
  6
CONTINUOUS
 62
3
100
AcDbBlockEnd
  0
BLOCK
  5
1DE
100
AcDbEntity
  8
MAIN0
  6
CONTINUOUS
 62
3
100
AcDbBlockBegin
  2
D38
 70
    64
 10
0.0
 20
0.0
 30
0.0
  0
LINE
  5
1DF
100
AcDbEntity
  8
MAIN0
  6
BYBLOCK
 62
0
100
AcDbLine
 10
-22.89409697414430
 20
-17.35975032223572
 30
0.0000000000000000
 11
-22.89409697414432
 21
-30.44999999999998
 31
0.0000000000000000
  0
LINE
  5
1E0
100
AcDbEntity
  8
MAIN0
  6
BYBLOCK
 62
0
100
AcDbLine
 10
-22.29409695030246
 20
-28.44999999999998
 30
0.0000000000000000
 11
-22.89409697414432
 21
-30.44999999999998
 31
0.0000000000000000
  0
LINE
  5
1E1
100
AcDbEntity
  8
MAIN0
  6
BYBLOCK
 62
0
100
AcDbLine
 10
-22.89409697414432
 20
-30.44999999999998
 30
0.0000000000000000
 11
-23.49409699798618
 21
-28.44999999999998
 31
0.0000000000000000
  0
LINE
  5
1E2
100
AcDbEntity
  8
MAIN0
  6
BYBLOCK
 62
0
100
AcDbLine
 10
-39.13731299368416
 20
-30.44999999999996
 30
0.0000000000000000
 11
-20.89409697414432
 21
-30.44999999999998
 31
0.0000000000000000
  0
MTEXT
  5
1E3
100
AcDbEntity
  8
MAIN0
  6
BYBLOCK
 62
0
100
AcDbMText
 10
-24.94409692646060
 20
-22.35975034071858
 30
0.0000000000000000
 40
3.099999904632568
 41
0.0000000000000000
 71
     5
 72
     1
  1
\A1;\U+220560.9
 11
6.123233995736766e-017
 21
1.000000000000000
 31
0.0000000000000000
  7
STANDARD
  0
ENDBLK
  5
1E4
100
AcDbEntity
  8
MAIN0
  6
CONTINUOUS
 62
3
100
AcDbBlockEnd
  0
ENDSEC
  0
SECTION
  2
ENTITIES
  0
DIMENSION
  5
4E
100
AcDbEntity
  8
MAIN0
  6
CONTINUOUS
 62
3
100
AcDbDimension
  2
*D0
 10
33.26717508773932
 20
258.9151320013816
 30
0.0000000000000000
 11
32.76717508773932
 21
182.8151319999997
 31
0.0000000000000000
 70
32
  1
\A1;\U+2205148h7
  3
MAIN001
100
AcDbAlignedDimension
 13
55.75901557620863
 23
110.9151320015980
 33
0.0000000000000000
 14
55.75901557620978
 24
258.9151320013816
 34
0.0000000000000000
 50
90.00000000000000
100
AcDbRotatedDimension
1001
ACAD
1000
DSTYLE
1002
{
1070
   173
1070
     1
1070
     6
1000
_OPEN
1070
     7
1000
_OPEN
1070
    41
1040
2.000000
1002
}
  0
LINE
  5
4F
100
AcDbEntity
  8
MAIN0
  6
CENTER
 62
3
100
AcDbLine
 10
206.9025187497129
 20
148.7800336229368
 30
0.0000000000000000
 11
269.4903450782929
 21
184.9151320017360
 31
0.0000000000000000
  0
LINE
  5
50
100
AcDbEntity
  8
MAIN0
  6
CENTER
 62
3
100
AcDbLine
 10
331.1458533985448
 20
220.5119563274563
 30
0.0000000000000000
 11
319.7003261371946
 21
213.9038780820986
 31
0.0000000000000000
  0
SPLINE
  5
51
100
AcDbEntity
  8
MAIN0
  6
CONTINUOUS
 62
3
100
AcDbSpline
210
0.0000000000000000
220
0.0000000000000000
230
1.000000000000000
 70
     8
 71
     3
 72
    11
 73
     7
 74
     0
 42
1.000000000000000e-007
 43
1.000000000000000e-007
 12
-0.9880145513696448
 22
-0.5911366755551626
 32
0.0000000000000000
 13
-0.9373497164491482
 23
0.5073454215166180
 33
0.0000000000000000
 40
0.0000000000000000
 40
0.0000000000000000
 40
0.0000000000000000
 40
0.0000000000000000
 40
2.491425316431445
 40
3.857823262200836
 40
5.747473376828415
 40
7.196766471035819
 40
7.196766471035819
 40
7.196766471035819
 40
7.196766471035819
 10
382.2003037516255
 20
109.7446631082875
 30
0.0000000000000000
 10
381.3797822628638
 20
109.2537388153044
 30
0.0000000000000000
 10
380.1092537563085
 20
108.4935718759388
 30
0.0000000000000000
 10
378.4680083056117
 20
110.1221897828629
 30
0.0000000000000000
 10
376.8749734572600
 20
108.8461751232112
 30
0.0000000000000000
 10
375.8317209672458
 20
109.4108409731134
 30
0.0000000000000000
 10
375.3788894769434
 20
109.6559383783740
 30
0.0000000000000000
  0
LINE
  5
52
100
AcDbEntity
  8
MAIN0
  6
CONTINUOUS
 62
3
100
AcDbLine
 10
382.2003037516254
 20
100.6055489672127
 30
0.0000000000000000
 11
382.2003037516254
 21
109.7446631082875
 31
0.0000000000000000
  0
DIMENSION
  5
5B
100
AcDbEntity
  8
MAIN0
  6
CONTINUOUS
 62
3
100
AcDbDimension
  2
*D1
 10
405.7590155762092
 20
77.60554896721278
 30
0.0000000000000000
 11
405.2590155762092
 21
89.10554896721273
 31
0.0000000000000000
 70
32
  3
MAIN001
100
AcDbAlignedDimension
 13
385.2003037516253
 23
100.6055489672127
 33
0.0000000000000000
 14
385.2003037516253
 24
77.60554896721278
 34
0.0000000000000000
 50
90.00000000000000
100
AcDbRotatedDimension
1001
ACAD
1000
DSTYLE
1002
{
1070
   173
1070
     1
1070
     6
1000
_OPEN
1070
     7
1000
_OPEN
1070
    41
1040
2.000000
1002
}
  0
DIMENSION
  5
64
100
AcDbEntity
  8
MAIN0
  6
CONTINUOUS
 62
3
100
AcDbDimension
  2
*D2
 10
395.7590155762092
 20
84.10554896721109
 30
0.0000000000000000
 11
395.2590155762092
 21
89.10554896721109
 31
0.0000000000000000
 70
32
  3
MAIN001
100
AcDbAlignedDimension
 13
387.7003037516249
 23
94.10554896721109
 33
0.0000000000000000
 14
387.7003037516244
 24
84.10554896721108
 34
0.0000000000000000
 50
90.00000000000000
100
AcDbRotatedDimension
1001
ACAD
1000
DSTYLE
1002
{
1070
   173
1070
     1
1070
     6
1000
_OPEN
1070
     7
1000
_OPEN
1070
    41
1040
2.000000
1002
}
  0
SPLINE
  5
65
100
AcDbEntity
  8
MAIN0
  6
CONTINUOUS
 62
3
100
AcDbSpline
210
0.0000000000000000
220
0.0000000000000000
230
1.000000000000000
 70
     8
 71
     3
 72
    11
 73
     7
 74
     0
 42
1.000000000000000e-007
 43
1.000000000000000e-007
 12
-0.9880145513696448
 22
0.5911366755551768
 32
0.0000000000000000
 13
-0.9373497164491482
 23
-0.5073454215166180
 33
0.0000000000000000
 40
0.0000000000000000
 40
0.0000000000000000
 40
0.0000000000000000
 40
0.0000000000000000
 40
2.491425316431445
 40
3.857823262200836
 40
5.747473376828415
 40
7.196766471035819
 40
7.196766471035819
 40
7.196766471035819
 40
7.196766471035819
 10
382.2003037516255
 20
68.46643482613779
 30
0.0000000000000000
 10
381.3797822628638
 20
68.95735911912088
 30
0.0000000000000000
 10
380.1092537563085
 20
69.71752605848648
 30
0.0000000000000000
 10
378.4680083056117
 20
68.08890815156239
 30
0.0000000000000000
 10
376.8749734572600
 20
69.36492281121416
 30
0.0000000000000000
 10
375.8317209672458
 20
68.80025696131195
 30
0.0000000000000000
 10
375.3788894769434
 20
68.55515955605135
 30
0.0000000000000000
  0
DIMENSION
  5
6F
100
AcDbEntity
  8
MAIN0
  6
CONTINUOUS
 62
3
100
AcDbDimension
  2
*D3
 10
387.7003037516249
 20
59.91513200173583
 30
0.0000000000000000
 11
393.6687696466840
 21
60.41513200173583
 31
0.0000000000000000
 70
160
  3
MAIN001
100
AcDbAlignedDimension
 13
385.2003037516253
 23
77.60554896721278
 33
0.0000000000000000
 14
387.7003037516257
 24
84.10554896721109
 34
0.0000000000000000
100
AcDbRotatedDimension
1001
ACAD
1000
DSTYLE
1002
{
1070
   173
1070
     1
1070
     6
1000
_DOT
1070
     7
1000
_OPEN
1070
    41
1040
2.000000
1070
   287
1070
     0
1002
}
  0
DIMENSION
  5
79
100
AcDbEntity
  8
MAIN0
  6
CONTINUOUS
 62
3
100
AcDbDimension
  2
*D4
 10
385.2003037516253
 20
59.91513200173583
 30
0.0000000000000000
 11
383.7003037516253
 21
60.41513200173583
 31
0.0000000000000000
 70
32
  3
MAIN001
100
AcDbAlignedDimension
 13
382.2003037516253
 23
68.46643482613789
 33
0.0000000000000000
 14
385.2003037516253
 24
77.60554896721278
 34
0.0000000000000000
100
AcDbRotatedDimension
1001
ACAD
1000
DSTYLE
1002
{
1070
   173
1070
     1
1070
     6
1000
_OPEN
1070
     7
1000
_DOT
1070
    41
1040
2.000000
1070
   287
1070
     0
1002
}
  0
MTEXT
  5
7A
100
AcDbEntity
  8
MAIN0
  6
CONTINUOUS
 62
3
100
AcDbMText
 10
349.3583445398095
 20
64.37554022798872
 30
0.0000000000000000
 40
5.000000000000000
 41
0.0000000000000000
 71
     1
 72
     1
  1
{\H0.92x;{Ａ矢視図}}
 11
1.000000000000000
 21
0.0000000000000000
 31
0.0000000000000000
  7
KNJYOKO
  0
LINE
  5
7B
100
AcDbEntity
  8
MAIN0
  6
CONTINUOUS
 62
3
100
AcDbLine
 10
349.3583445398095
 20
59.37554022798872
 30
0.0000000000000000
 11
372.3550619433138
 21
59.37554022798872
 31
0.0000000000000000
  0
LINE
  5
7C
100
AcDbEntity
  8
MAIN0
  6
CONTINUOUS
 62
3
100
AcDbLine
 10
349.3583445398095
 20
58.87554022798872
 30
0.0000000000000000
 11
372.3550619433138
 21
58.87554022798872
 31
0.0000000000000000
  0
INSERT
  5
82
100
AcDbEntity
  8
MAIN0
  6
CONTINUOUS
 62
2
100
AcDbBlockReference
  2
M0
 10
0.0000000000000000
 20
0.0000000000000000
 30
0.0000000000000000
 50
0.0000000000000000
  0
MTEXT
  5
83
100
AcDbEntity
  8
MAIN0
  6
CONTINUOUS
 62
3
100
AcDbMText
 10
120.1729424206651
 20
254.5059274444309
 30
0.0000000000000000
 40
5.000000000000000
 41
0.0000000000000000
 71
     1
 72
     1
  1
{\H0.82x;{A}}
 11
1.000000000000000
 21
0.0000000000000000
 31
0.0000000000000000
  7
STANDARD
  0
DIMENSION
  5
8C
100
AcDbEntity
  8
MAIN0
  6
CONTINUOUS
 62
3
100
AcDbDimension
  2
*D5
 10
55.75901557620858
 20
84.91513200173583
 30
0.0000000000000000
 11
63.25901557620887
 21
85.41513200173583
 31
0.0000000000000000
 70
32
  3
MAIN001
100
AcDbAlignedDimension
 13
70.75901557620917
 23
109.4151320017445
 33
0.0000000000000000
 14
55.75901557620860
 24
110.9151320015980
 34
0.0000000000000000
100
AcDbRotatedDimension
1001
ACAD
1000
DSTYLE
1002
{
1070
   173
1070
     1
1070
     6
1000
_OPEN
1070
     7
1000
_OPEN
1070
    41
1040
2.000000
1002
}
  0
DIMENSION
  5
95
100
AcDbEntity
  8
MAIN0
  6
CONTINUOUS
 62
3
100
AcDbDimension
  2
*D6
 10
70.75901557620917
 20
84.91513200173583
 30
0.0000000000000000
 11
85.75901557620917
 21
85.41513200173583
 31
0.0000000000000000
 70
32
  3
MAIN001
100
AcDbAlignedDimension
 13
100.7590155762092
 23
109.4151320017488
 33
0.0000000000000000
 14
70.75901557620917
 24
109.4151320017445
 34
0.0000000000000000
100
AcDbRotatedDimension
1001
ACAD
1000
DSTYLE
1002
{
1070
   173
1070
     1
1070
     6
1000
_OPEN
1070
     7
1000
_OPEN
1070
    41
1040
2.000000
1002
}
  0
DIMENSION
  5
9E
100
AcDbEntity
  8
MAIN0
  6
CONTINUOUS
 62
3
100
AcDbDimension
  2
*D7
 10
100.7590155762092
 20
84.91513200173583
 30
0.0000000000000000
 11
123.2590155762092
 21
85.41513200173583
 31
0.0000000000000000
 70
32
  3
MAIN001
100
AcDbAlignedDimension
 13
145.7590155762092
 23
131.5151320016237
 33
0.0000000000000000
 14
100.7590155762092
 24
109.4151320017488
 34
0.0000000000000000
100
AcDbRotatedDimension
1001
ACAD
1000
DSTYLE
1002
{
1070
   173
1070
     1
1070
     6
1000
_OPEN
1070
     7
1000
_OPEN
1070
    41
1040
2.000000
1002
}
  0
DIMENSION
  5
A7
100
AcDbEntity
  8
MAIN0
  6
CONTINUOUS
 62
3
100
AcDbDimension
  2
*D8
 10
55.75901557620858
 20
54.91513200173583
 30
0.0000000000000000
 11
100.7590155762089
 21
55.41513200173583
 31
0.0000000000000000
 70
32
  3
MAIN001
100
AcDbAlignedDimension
 13
145.7590155762092
 23
131.5151320016237
 33
0.0000000000000000
 14
55.75901557620860
 24
110.9151320015980
 34
0.0000000000000000
100
AcDbRotatedDimension
1001
ACAD
1000
DSTYLE
1002
{
1070
   173
1070
     1
1070
     6
1000
_OPEN
1070
     7
1000
_OPEN
1070
    41
1040
2.000000
1002
}
  0
DIMENSION
  5
B0
100
AcDbEntity
  8
MAIN0
  6
CONTINUOUS
 62
3
100
AcDbDimension
  2
*D9
 10
55.75901557620858
 20
94.91513200173583
 30
0.0000000000000000
 11
76.93144686683857
 21
95.41513200173583
 31
0.0000000000000000
 70
160
  3
MAIN001
100
AcDbAlignedDimension
 13
85.75901557611159
 23
103.4030596431184
 33
0.0000000000000000
 14
55.75901557620860
 24
110.9151320015980
 34
0.0000000000000000
100
AcDbRotatedDimension
1001
ACAD
1000
DSTYLE
1002
{
1070
   173
1070
     1
1070
     6
1000
_OPEN
1070
     7
1000
_OPEN
1070
    41
1040
2.000000
1002
}
  0
DIMENSION
  5
B9
100
AcDbEntity
  8
MAIN0
  6
CONTINUOUS
 62
3
100
AcDbDimension
  2
*D10
 10
145.7590155762092
 20
259.9151320017359
 30
0.0000000000000000
 11
159.3594965233586
 21
260.4151320017359
 31
0.0000000000000000
 70
32
  3
MAIN001
100
AcDbAlignedDimension
 13
172.9599774705080
 23
245.2664050205593
 33
0.0000000000000000
 14
145.7590155762092
 24
238.3151320022650
 34
0.0000000000000000
100
AcDbRotatedDimension
1001
ACAD
1000
DSTYLE
1002
{
1070
   173
1070
     1
1070
     6
1000
_OPEN
1070
     7
1000
_OPEN
1070
    41
1040
2.000000
1002
}
  0
DIMENSION
  5
C2
100
AcDbEntity
  8
MAIN0
  6
CONTINUOUS
 62
3
100
AcDbDimension
  2
*D11
 10
45.75901557620921
 20
194.9151320017360
 30
0.0000000000000000
 11
45.25901557620921
 21
184.6736451308815
 31
0.0000000000000000
 70
160
  1
\A1;\U+220520H7
  3
MAIN001
100
AcDbAlignedDimension
 13
55.75901557620909
 23
174.9151320017360
 33
0.0000000000000000
 14
55.75901557620924
 24
194.9151320017360
 34
0.0000000000000000
 50
90.00000000000000
100
AcDbRotatedDimension
1001
ACAD
1000
DSTYLE
1002
{
1070
   173
1070
     1
1070
     6
1000
_OPEN
1070
     7
1000
_OPEN
1070
    41
1040
2.000000
1002
}
  0
DIMENSION
  5
CB
100
AcDbEntity
  8
MAIN0
  6
CONTINUOUS
 62
3
100
AcDbDimension
  2
*D12
 10
190.7590155762092
 20
190.6664050205398
 30
0.0000000000000000
 11
190.2590155762092
 21
204.6664050205575
 31
0.0000000000000000
 70
32
  3
MAIN001
100
AcDbAlignedDimension
 13
179.4297473532890
 23
218.6664050205752
 33
0.0000000000000000
 14
172.5599774704941
 24
190.6664050205568
 34
0.0000000000000000
 50
90.00000000000000
100
AcDbRotatedDimension
1001
ACAD
1000
DSTYLE
1002
{
1070
   173
1070
     1
1070
     6
1000
_OPEN
1070
     7
1000
_OPEN
1070
    41
1040
2.000000
1002
}
  0
DIMENSION
  5
D4
100
AcDbEntity
  8
MAIN0
  6
CONTINUOUS
 62
3
100
AcDbDimension
  2
*D13
 10
190.7590155762092
 20
218.6664050205752
 30
0.0000000000000000
 11
190.2590155762092
 21
225.6664050205752
 31
0.0000000000000000
 70
32
  3
MAIN001
100
AcDbAlignedDimension
 13
179.4297473532890
 23
232.6664050205752
 33
0.0000000000000000
 14
179.4297473532890
 24
218.6664050205752
 34
0.0000000000000000
 50
90.00000000000000
100
AcDbRotatedDimension
1001
ACAD
1000
DSTYLE
1002
{
1070
   173
1070
     1
1070
     6
1000
_OPEN
1070
     7
1000
_OPEN
1070
    41
1040
2.000000
1002
}
  0
DIMENSION
  5
DD
100
AcDbEntity
  8
MAIN0
  6
CONTINUOUS
 62
3
100
AcDbDimension
  2
*D14
 10
195.7590155762092
 20
190.6664050205390
 30
0.0000000000000000
 11
195.2590155762092
 21
223.6834169454250
 31
0.0000000000000000
 70
160
  3
MAIN001
100
AcDbAlignedDimension
 13
172.5599774705081
 23
245.6664050205594
 33
0.0000000000000000
 14
172.5599774704941
 24
190.6664050205568
 34
0.0000000000000000
 50
90.00000000000000
100
AcDbRotatedDimension
1001
ACAD
1000
DSTYLE
1002
{
1070
   173
1070
     1
1070
     6
1000
_OPEN
1070
     7
1000
_OPEN
1070
    41
1040
2.000000
1002
}
  0
DIMENSION
  5
E6
100
AcDbEntity
  8
MAIN0
  6
CONTINUOUS
 62
3
100
AcDbDimension
  2
*D15
 10
283.5575127027344
 20
80.55008295752838
 30
0.0000000000000000
 11
320.9875437513887
 21
102.7376717284347
 31
0.0000000000000000
 70
161
  3
MAIN001
100
AcDbAlignedDimension
 13
341.8813612296328
 23
139.5302140159891
 33
0.0000000000000000
 14
272.5993289268777
 24
99.53021401598927
 34
0.0000000000000000
 50
30.00000000000001
1001
ACAD
1000
DSTYLE
1002
{
1070
   173
1070
     1
1070
     6
1000
_OPEN
1070
     7
1000
_OPEN
1070
    41
1040
2.000000
1002
}
  0
DIMENSION
  5
EF
100
AcDbEntity
  8
MAIN0
  6
CONTINUOUS
 62
3
100
AcDbDimension
  2
*D16
 10
292.8469318652152
 20
97.46033699539447
 30
0.0000000000000000
 11
316.2801709000289
 21
111.5668741293186
 31
0.0000000000000000
 70
161
  3
MAIN001
100
AcDbAlignedDimension
 13
330.5979782465361
 23
126.0736066240577
 33
0.0000000000000000
 14
289.8947842686674
 24
102.5736066240577
 34
0.0000000000000000
 50
30.00000000000003
1001
ACAD
1000
DSTYLE
1002
{
1070
   173
1070
     1
1070
     6
1000
_OPEN
1070
     7
1000
_OPEN
1070
    41
1040
2.000000
1002
}
  0
DIMENSION
  5
F6
100
AcDbEntity
  8
MAIN0
  6
CONTINUOUS
 62
3
100
AcDbDimension
  2
*D17
 10
314.6899134682104
 20
231.6270043402022
 30
0.0000000000000000
 11
295.1568075287584
 21
212.1593859013125
 31
0.0000000000000000
 70
163
  3
MAIN001
100
AcDbDiametricDimension
 15
224.2907766883751
 25
138.2032596632699
 35
0.0000000000000000
1001
ACAD
1000
DSTYLE
1002
{
1070
   287
1070
     2
1070
   173
1070
     1
1070
     6
1000
_OPEN
1070
     7
1000
_OPEN
1070
    41
1040
2.000000
1070
   272
1070
     1
1070
    47
1040
0.200000
1070
    48
1040
0.200000
1070
    71
1070
     1
1002
}
  0
DIMENSION
  5
FC
100
AcDbEntity
  8
MAIN0
  6
CONTINUOUS
 62
3
100
AcDbDimension
  2
*D18
 10
269.4903450782928
 20
184.9151320017360
 30
0.0000000000000000
 11
276.1606946127487
 21
164.5791859714596
 31
0.0000000000000000
 70
164
  3
MAIN001
100
AcDbRadialDimension
 15
280.8389843239805
 25
152.8650401567625
 35
0.0000000000000000
1001
ACAD
1000
DSTYLE
1002
{
1070
   173
1070
     1
1070
     6
1000
_OPEN
1070
     7
1000
_OPEN
1070
    41
1040
2.000000
1070
   340
1005
FD
1002
}
  0
DIMENSION
  5
106
100
AcDbEntity
  8
MAIN0
  6
CONTINUOUS
 62
3
100
AcDbDimension
  2
*D19
 10
261.9023032797222
 20
165.0580059268164
 30
0.0000000000000000
 11
279.0531002235764
 21
175.5373734283569
 31
0.0000000000000000
 70
161
  3
MAIN001
100
AcDbAlignedDimension
 13
295.2117307369307
 23
173.3643851999016
 33
0.0000000000000000
 14
266.6328924120443
 24
156.8643851999016
 34
0.0000000000000000
 50
29.99999999999995
1001
ACAD
1000
DSTYLE
1002
{
1070
   173
1070
     1
1070
     6
1000
_OPEN
1070
     7
1000
_OPEN
1070
    41
1040
2.000000
1002
}
  0
LEADER
  5
107
100
AcDbEntity
  8
MAIN0
  6
CONTINUOUS
 62
3
100
AcDbLeader
  3
MAIN001
 73
     0
 75
     1
 40
3.099999904632568
 41
8.299000004470344
 76
     3
 10
266.6766288973170
 20
252.7581939519783
 30
0.0000000000000000
 10
255.6475066689244
 20
264.9151320017871
 30
0.0000000000000000
 10
253.8605067215851
 20
264.9151320017871
 30
0.0000000000000000
340
108
213
0.0000000000000000
223
-0.5000000000000000
233
0.0000000000000000
1001
ACAD
1000
DSTYLE
1002
{
1070
   147
1040
0.0
1070
    77
1070
     1
1070
   173
1070
     1
1070
     6
1000
_OPEN
1070
     7
1000
_OPEN
1002
}
  0
MTEXT
  5
108
102
{ACAD_REACTORS
330
107
102
}
100
AcDbEntity
  8
MAIN0
  6
CONTINUOUS
 62
3
100
AcDbMText
 10
245.5615067171148
 20
268.5151319064197
 30
0.0000000000000000
 40
3.099999904632568
 41
0.0000000000000000
 71
     1
 72
     1
  1
{\H0.70x;{6-M8}}
 11
1.000000000000000
 21
0.0000000000000000
 31
0.0000000000000000
  7
STANDARD
  0
LEADER
  5
109
100
AcDbEntity
  8
MAIN0
  6
CONTINUOUS
 62
3
100
AcDbLeader
  3
MAIN001
 73
     0
 74
     0
 75
     1
 40
3.099999904632568
 41
30.70100001788140
 76
     3
 10
148.7590155762090
 20
238.3107425878411
 30
0.0000000000000000
 10
176.5212196021515
 20
280.9566617272102
 30
0.0000000000000000
 10
178.3062195494908
 20
280.9566617272102
 30
0.0000000000000000
340
10A
213
-0.001000000000004775
223
-0.5000000000000000
233
0.0000000000000000
1001
ACAD
1000
DSTYLE
1002
{
1070
   147
1040
0.0
1070
    77
1070
     1
1070
   173
1070
     1
1070
     6
1000
_OPEN
1070
     7
1000
_OPEN
1002
}
  0
MTEXT
  5
10A
102
{ACAD_REACTORS
330
109
102
}
100
AcDbEntity
  8
MAIN0
  6
CONTINUOUS
 62
3
100
AcDbMText
 10
178.3072195494908
 20
284.5566616318428
 30
0.0000000000000000
 40
3.099999904632568
 41
0.0000000000000000
 71
     1
 72
     1
  1
{\H0.68x;{セレーションピッチ 1.5}}
 11
1.000000000000000
 21
0.0000000000000000
 31
0.0000000000000000
  7
KNJYOKO
  0
LINE
  5
10B
100
AcDbEntity
  8
MAIN0
  6
PHANTOM
 62
3
100
AcDbLine
 10
115.7590155762091
 20
74.41513200176098
 30
0.0000000000000000
 11
115.7590155762092
 21
129.4151320017610
 31
0.0000000000000000
  0
DIMENSION
  5
114
100
AcDbEntity
  8
MAIN0
  6
CONTINUOUS
 62
3
100
AcDbDimension
  2
*D20
 10
70.75901557620918
 20
64.91513200173583
 30
0.0000000000000000
 11
93.25901557620915
 21
65.41513200173583
 31
0.0000000000000000
 70
32
  3
MAIN001
100
AcDbAlignedDimension
 13
115.7590155762091
 23
74.41513200176098
 33
0.0000000000000000
 14
70.75901557620915
 24
109.4151320017445
 34
0.0000000000000000
100
AcDbRotatedDimension
1001
ACAD
1000
DSTYLE
1002
{
1070
   173
1070
     1
1070
     6
1000
_OPEN
1070
     7
1000
_OPEN
1070
    41
1040
2.000000
1002
}
  0
LEADER
  5
115
100
AcDbEntity
  8
MAIN0
  6
CONTINUOUS
 62
3
100
AcDbLeader
  3
MAIN001
 73
     0
 74
     0
 75
     1
 40
3.099999904632568
 41
10.78100032901767
 76
     3
 10
115.7590155762092
 20
95.25410489241217
 30
0.0000000000000000
 10
151.4229989599996
 20
85.69456408828609
 30
0.0000000000000000
 10
153.3479989042096
 20
85.69456408828609
 30
0.0000000000000000
340
116
213
-0.001000000000033197
223
-0.5000000000000000
233
0.0000000000000000
1001
ACAD
1000
DSTYLE
1002
{
1070
   147
1040
0.0
1070
    77
1070
     1
1070
   173
1070
     1
1070
     6
1000
_OPEN
1070
     7
1000
_OPEN
1002
}
  0
MTEXT
  5
116
102
{ACAD_REACTORS
330
115
102
}
100
AcDbEntity
  8
MAIN0
  6
CONTINUOUS
 62
3
100
AcDbMText
 10
153.3489989042097
 20
89.29456399291865
 30
0.0000000000000000
 40
3.099999904632568
 41
0.0000000000000000
 71
     1
 72
     1
  1
{\H0.91x;{LV-3}}
 11
1.000000000000000
 21
0.0000000000000000
 31
0.0000000000000000
  7
STANDARD
  0
MTEXT
  5
117
100
AcDbEntity
  8
MAIN0
  6
CONTINUOUS
 62
3
100
AcDbMText
 10
181.0719940295201
 20
191.6738710874359
 30
0.0000000000000000
 40
3.099999904632568
 41
0.0000000000000000
 71
     1
 72
     1
  1
{\H0.66x;{MIN 22.9}}
 11
6.123233995736766e-017
 21
1.000000000000000
 31
0.0000000000000000
  7
STANDARD
  0
MTEXT
  5
118
100
AcDbEntity
  8
MAIN0
  6
CONTINUOUS
 62
3
100
AcDbMText
 10
181.1306877601539
 20
211.8349791962037
 30
0.0000000000000000
 40
3.000000000000000
 41
0.0000000000000000
 71
     1
 72
     1
  1
{\H0.59x;{MIN  6.75}}
 11
6.123233995736766e-017
 21
1.000000000000000
 31
0.0000000000000000
  7
STANDARD
  0
LINE
  5
119
100
AcDbEntity
  8
MAIN0
  6
PHANTOM
 62
3
100
AcDbLine
 10
356.8813612296227
 20
113.5494519024502
 30
0.0000000000000000
 11
352.1614573698013
 21
121.7245651945012
 31
0.0000000000000000
  0
LINE
  5
11A
100
AcDbEntity
  8
MAIN0
  6
PHANTOM
 62
3
100
AcDbLine
 10
287.5993289268675
 20
73.54945190245023
 30
0.0000000000000000
 11
282.3457697838685
 21
82.64888325869255
 31
0.0000000000000000
  0
MTEXT
  5
11B
100
AcDbEntity
  8
MAIN0
  6
CONTINUOUS
 62
3
100
AcDbMText
 10
282.4453010392996
 20
102.5831152600192
 30
0.0000000000000000
 40
4.000000000000000
 41
0.0000000000000000
 71
     1
 72
     1
  1
{\H0.92x;{閉\PCLOSE}}
 11
0.8660254037844387
 21
0.4999999999999999
 31
0.0000000000000000
  7
KNJYOKO
  0
MTEXT
  5
11C
100
AcDbEntity
  8
MAIN0
  6
CONTINUOUS
 62
3
100
AcDbMText
 10
329.7175319665711
 20
129.7881144290871
 30
0.0000000000000000
 40
4.000000000000000
 41
0.0000000000000000
 71
     1
 72
     1
  1
{\H0.91x;{開\POPEN}}
 11
0.8660254037844387
 21
0.4999999999999999
 31
0.0000000000000000
  7
KNJYOKO
  0
LEADER
  5
11D
100
AcDbEntity
  8
MAIN0
  6
CONTINUOUS
 62
3
100
AcDbLeader
  3
MAIN001
 73
     0
 75
     1
 40
3.099999904632568
 41
14.59900000894072
 76
     3
 10
279.2320910382227
 20
108.1438880098939
 30
0.0000000000000000
 10
258.8886748441358
 20
65.47871625567129
 30
0.0000000000000000
 10
257.1016748967966
 20
65.47871625567129
 30
0.0000000000000000
340
11E
213
0.0000000000000000
223
-0.5000000000000000
233
0.0000000000000000
1001
ACAD
1000
DSTYLE
1002
{
1070
   147
1040
0.0
1070
    77
1070
     1
1070
   173
1070
     1
1070
     6
1000
_OPEN
1070
     7
1000
_OPEN
1002
}
  0
MTEXT
  5
11E
102
{ACAD_REACTORS
330
11D
102
}
100
AcDbEntity
  8
MAIN0
  6
CONTINUOUS
 62
3
100
AcDbMText
 10
242.5026748878559
 20
69.07871616030386
 30
0.0000000000000000
 40
3.099999904632568
 41
0.0000000000000000
 71
     1
 72
     1
  1
{\H0.70x;{2-Rc1/4}}
 11
1.000000000000000
 21
0.0000000000000000
 31
0.0000000000000000
  7
STANDARD
  0
LEADER
  5
11F
100
AcDbEntity
  8
MAIN0
  6
CONTINUOUS
 62
3
100
AcDbLeader
  3
MAIN001
 73
     0
 75
     1
 40
3.099999904632568
 41
14.59900000894069
 76
     3
 10
266.5026987773327
 20
147.6079976210933
 30
0.0000000000000000
 10
225.7590155762092
 20
104.9151320017358
 30
0.0000000000000000
 10
223.9720156288699
 20
104.9151320017358
 30
0.0000000000000000
340
120
213
0.0000000000000000
223
-0.5000000000000000
233
0.0000000000000000
1001
ACAD
1000
DSTYLE
1002
{
1070
   147
1040
0.0
1070
    77
1070
     1
1070
   173
1070
     1
1070
     6
1000
_OPEN
1070
     7
1000
_OPEN
1002
}
  0
MTEXT
  5
120
102
{ACAD_REACTORS
330
11F
102
}
100
AcDbEntity
  8
MAIN0
  6
CONTINUOUS
 62
3
100
AcDbMText
 10
209.3730156199292
 20
108.5151319063684
 30
0.0000000000000000
 40
3.099999904632568
 41
0.0000000000000000
 71
     1
 72
     1
  1
{\H0.70x;{2-Rc1/8}}
 11
1.000000000000000
 21
0.0000000000000000
 31
0.0000000000000000
  7
STANDARD
  0
MTEXT
  5
121
100
AcDbEntity
  8
MAIN0
  6
CONTINUOUS
 62
3
100
AcDbMText
 10
201.8138933306028
 20
103.5123946930554
 30
0.0000000000000000
 40
3.000000000000000
 41
0.0000000000000000
 71
     1
 72
     1
  1
{\H0.59x;{マルチプレートに取付\P以外は止栓とする}}
 11
1.000000000000000
 21
0.0000000000000000
 31
0.0000000000000000
  7
KNJYOKO
  0
MTEXT
  5
122
100
AcDbEntity
  8
MAIN0
  6
CONTINUOUS
 62
3
100
AcDbMText
 10
197.8970498015387
 20
103.8992240895608
 30
0.0000000000000000
 40
8.000000000000000
 41
0.0000000000000000
 71
     1
 72
     1
  1
{\H0.91x;{( 　)}}
 11
1.000000000000000
 21
0.0000000000000000
 31
0.0000000000000000
  7
KNJYOKO
  0
LINE
  5
123
100
AcDbEntity
  8
MAIN0
  6
PHANTOM
 62
3
100
AcDbLine
 10
70.75901557620911
 20
74.41513200176102
 30
0.0000000000000000
 11
115.7590155762091
 21
74.41513200176098
 31
0.0000000000000000
  0
DIMENSION
  5
12C
100
AcDbEntity
  8
MAIN0
  6
CONTINUOUS
 62
3
100
AcDbDimension
  2
*D21
 10
137.8528235795122
 20
129.4151320017610
 30
0.0000000000000000
 11
137.3528235795122
 21
101.9151320017610
 31
0.0000000000000000
 70
32
  3
MAIN001
100
AcDbAlignedDimension
 13
115.7590155762091
 23
74.41513200176100
 33
0.0000000000000000
 14
100.7590155762091
 24
129.4151320017610
 34
0.0000000000000000
 50
90.00000000000000
100
AcDbRotatedDimension
1001
ACAD
1000
DSTYLE
1002
{
1070
   173
1070
     1
1070
     6
1000
_OPEN
1070
     7
1000
_OPEN
1070
    41
1040
2.000000
1002
}
  0
LINE
  5
12D
100
AcDbEntity
  8
MAIN0
  6
CENTER
 62
3
100
AcDbLine
 10
281.6186294593416
 20
167.5941468377394
 30
0.0000000000000000
 11
288.6386177859164
 21
157.5685645017887
 31
0.0000000000000000
  0
CIRCLE
  5
12E
100
AcDbEntity
  8
MAIN0
  6
CONTINUOUS
 62
3
100
AcDbCircle
 10
254.2905695149899
 20
163.2076028280776
 30
0.0000000000000000
 40
3.300000000000000
  0
ARC
  5
12F
100
AcDbEntity
  8
MAIN0
  6
CENTER
 62
3
100
AcDbCircle
 10
269.4903450782927
 20
184.9151320017359
 30
0.0000000000000000
 40
26.50000000000000
100
AcDbArc
 50
223.5362258803802
 51
248.3149057832652
  0
LINE
  5
130
100
AcDbEntity
  8
MAIN0
  6
CONTINUOUS
 62
3
100
AcDbLine
 10
253.9866852040726
 20
164.9310163958491
 30
0.0000000000000000
 11
254.5944538259069
 21
161.4841892603064
 31
0.0000000000000000
  0
LINE
  5
131
100
AcDbEntity
  8
MAIN0
  6
CONTINUOUS
 62
3
100
AcDbLine
 10
252.5671559472184
 20
162.9037185171606
 30
0.0000000000000000
 11
256.0139830827611
 21
163.5114871389949
 31
0.0000000000000000
  0
LINE
  5
132
100
AcDbEntity
  8
MAIN0
  6
CENTER
 62
3
100
AcDbLine
 10
257.3620606972437
 20
167.5941468377394
 30
0.0000000000000000
 11
250.3420723706689
 21
157.5685645017887
 31
0.0000000000000000
  0
CIRCLE
  5
133
100
AcDbEntity
  8
MAIN0
  6
CONTINUOUS
 62
3
100
AcDbCircle
 10
254.2905695149899
 20
206.6226611753944
 30
0.0000000000000000
 40
3.300000000000000
  0
ARC
  5
134
100
AcDbEntity
  8
MAIN0
  6
CENTER
 62
3
100
AcDbCircle
 10
269.4903450782927
 20
184.9151320017361
 30
0.0000000000000000
 40
26.50000000000000
100
AcDbArc
 50
111.6850942167348
 51
136.4637741196198
  0
LINE
  5
135
100
AcDbEntity
  8
MAIN0
  6
CONTINUOUS
 62
3
100
AcDbLine
 10
253.9866852040726
 20
204.8992476076229
 30
0.0000000000000000
 11
254.5944538259068
 21
208.3460747431656
 31
0.0000000000000000
  0
LINE
  5
136
100
AcDbEntity
  8
MAIN0
  6
CONTINUOUS
 62
3
100
AcDbLine
 10
252.5671559472184
 20
206.9265454863115
 30
0.0000000000000000
 11
256.0139830827611
 21
206.3187768644771
 31
0.0000000000000000
  0
LINE
  5
137
100
AcDbEntity
  8
MAIN0
  6
CENTER
 62
3
100
AcDbLine
 10
257.3620606972437
 20
202.2361171657326
 30
0.0000000000000000
 11
250.3420723706689
 21
212.2616995016833
 31
0.0000000000000000
  0
CIRCLE
  5
138
100
AcDbEntity
  8
MAIN0
  6
CONTINUOUS
 62
3
100
AcDbCircle
 10
284.6901206415955
 20
206.6226611753944
 30
0.0000000000000000
 40
3.300000000000000
  0
ARC
  5
139
100
AcDbEntity
  8
MAIN0
  6
CENTER
 62
3
100
AcDbCircle
 10
269.4903450782928
 20
184.9151320017361
 30
0.0000000000000000
 40
26.50000000000000
100
AcDbArc
 50
43.53622588038019
 51
68.31490578326523
  0
LINE
  5
13A
100
AcDbEntity
  8
MAIN0
  6
CONTINUOUS
 62
3
100
AcDbLine
 10
284.9940049525127
 20
204.8992476076230
 30
0.0000000000000000
 11
284.3862363306785
 21
208.3460747431657
 31
0.0000000000000000
  0
LINE
  5
13B
100
AcDbEntity
  8
MAIN0
  6
CONTINUOUS
 62
3
100
AcDbLine
 10
286.4135342093668
 20
206.9265454863115
 30
0.0000000000000000
 11
282.9667070738242
 21
206.3187768644771
 31
0.0000000000000000
  0
LINE
  5
13C
100
AcDbEntity
  8
MAIN0
  6
CENTER
 62
3
100
AcDbLine
 10
281.6186294593416
 20
202.2361171657327
 30
0.0000000000000000
 11
288.6386177859164
 21
212.2616995016833
 31
0.0000000000000000
  0
LINE
  5
13D
100
AcDbEntity
  8
MAIN0
  6
PHANTOM
 62
3
100
AcDbLine
 10
356.8813612296227
 20
113.5494519024502
 30
0.0000000000000000
 11
287.5993289268675
 21
73.54945190245022
 31
0.0000000000000000
  0
DIMENSION
  5
145
100
AcDbEntity
  8
MAIN0
  6
CONTINUOUS
 62
3
100
AcDbDimension
  2
*D22
 10
218.4886539738619
 20
155.4692919134661
 30
0.0000000000000000
 11
244.4306412719694
 21
109.5364518638371
 31
0.0000000000000000
 70
32
  3
MAIN001
100
AcDbAlignedDimension
 13
287.5993289268675
 23
73.54945190245022
 33
0.0000000000000000
 14
206.9025187497129
 24
148.7800336229368
 34
0.0000000000000000
 50
119.9999999999997
100
AcDbRotatedDimension
1001
ACAD
1000
DSTYLE
1002
{
1070
   173
1070
     1
1070
     6
1000
_OPEN
1070
     7
1000
_OPEN
1070
    41
1040
2.000000
1002
}
  0
DIMENSION
  5
14D
100
AcDbEntity
  8
MAIN0
  6
CONTINUOUS
 62
3
100
AcDbDimension
  2
*D23
 10
224.5508318003530
 20
158.9692919134662
 30
0.0000000000000000
 11
240.4955394183155
 21
130.3522482073242
 31
0.0000000000000000
 70
160
  3
MAIN001
100
AcDbAlignedDimension
 13
272.5993289268777
 23
99.53021401598920
 33
0.0000000000000000
 14
206.9025187497129
 24
148.7800336229368
 34
0.0000000000000000
 50
119.9999999999997
100
AcDbRotatedDimension
1001
ACAD
1000
DSTYLE
1002
{
1070
   173
1070
     1
1070
     6
1000
_OPEN
1070
     7
1000
_OPEN
1070
    41
1040
2.000000
1002
}
  0
DIMENSION
  5
156
100
AcDbEntity
  8
MAIN0
  6
CONTINUOUS
 62
3
100
AcDbDimension
  2
*D24
 10
55.75901557620858
 20
186.6548379978732
 30
0.0000000000000000
 11
58.25901557620884
 21
187.1548379978732
 31
0.0000000000000000
 70
32
  3
MAIN001
100
AcDbAlignedDimension
 13
60.75901557620909
 23
174.9151320017360
 33
0.0000000000000000
 14
55.75901557620858
 24
110.9151320015980
 34
0.0000000000000000
100
AcDbRotatedDimension
1001
ACAD
1000
DSTYLE
1002
{
1070
   173
1070
     1
1070
     6
1000
_OPEN
1070
     7
1000
_OPEN
1070
    41
1040
2.000000
1070
   287
1070
     0
1002
}
  0
SPLINE
  5
157
100
AcDbEntity
  8
MAIN0
  6
CONTINUOUS
 62
3
100
AcDbSpline
210
0.0000000000000000
220
0.0000000000000000
230
1.000000000000000
 70
     8
 71
     3
 72
    18
 73
    14
 74
     0
 42
1.000000000000000e-007
 43
1.000000000000000e-007
 12
0.6293033021927244
 22
-0.9237163355196856
 32
0.0000000000000000
 13
-0.6685805308051016
 23
-0.8192907073900528
 33
0.0000000000000000
 40
0.0000000000000000
 40
0.0000000000000000
 40
0.0000000000000000
 40
0.0000000000000000
 40
3.127294386040872
 40
7.290547997310552
 40
12.22945053700362
 40
19.39492165886768
 40
26.49973111475315
 40
35.10348144361655
 40
40.50726653796507
 40
47.88793425241946
 40
56.18435416528416
 40
59.85657882370385
 40
62.69096954698880
 40
62.69096954698880
 40
62.69096954698880
 40
62.69096954698880
 10
55.75901557620935
 20
208.5691403911566
 30
0.0000000000000000
 10
56.41502113756411
 20
207.6062294210349
 30
0.0000000000000000
 10
57.94434311406479
 20
205.3614299943662
 30
0.0000000000000000
 10
62.65617716030917
 20
207.7000307109779
 30
0.0000000000000000
 10
66.92564482274375
 20
201.7294773019794
 30
0.0000000000000000
 10
60.84795048809460
 20
195.2364143511601
 30
0.0000000000000000
 10
69.77751325982089
 20
190.3927992647766
 30
0.0000000000000000
 10
68.93753939385449
 20
182.0596171597040
 30
0.0000000000000000
 10
62.91592802077251
 20
176.5576518779423
 30
0.0000000000000000
 10
68.79574743505332
 20
169.5010645328359
 30
0.0000000000000000
 10
63.17494035659190
 20
162.6124334674582
 30
0.0000000000000000
 10
57.84075384951817
 20
163.1305980399531
 30
0.0000000000000000
 10
56.39068839430328
 20
161.3536615336893
 30
0.0000000000000000
 10
55.75901557620898
 20
160.5795982067893
 30
0.0000000000000000
  0
DIMENSION
  5
15E
100
AcDbEntity
  8
MAIN0
  6
CONTINUOUS
 62
3
100
AcDbDimension
  2
*D25
 10
349.4903450783413
 20
184.9151320017360
 30
0.0000000000000000
 11
348.3102115575589
 21
174.5382997202356
 31
0.0000000000000000
 70
162
  3
MAIN001
100
AcDb2LineAngularDimension
 13
346.7644111814652
 23
164.2096083935218
 33
0.0000000000000000
 14
322.7774786165121
 24
170.6368876032008
 34
0.0000000000000000
 15
269.4903450782927
 25
184.9151320017360
 35
0.0000000000000000
 16
348.8059339882458
 26
174.4730366241256
 36
0.0000000000000000
1001
ACAD
1000
DSTYLE
1002
{
1070
   173
1070
     1
1070
     6
1000
_OPEN
1070
     7
1000
_OPEN
1070
    41
1040
2.000000
1002
}
  0
DIMENSION
  5
166
100
AcDbEntity
  8
MAIN0
  6
CONTINUOUS
 62
3
100
AcDbDimension
  2
*D26
 10
331.1458533985448
 20
220.5119563274563
 30
0.0000000000000000
 11
346.2814482683207
 21
205.4912460873988
 31
0.0000000000000000
 70
162
  3
MAIN001
100
AcDb2LineAngularDimension
 13
349.4903450783413
 23
184.9151320017360
 33
0.0000000000000000
 14
269.4903450782927
 24
184.9151320017360
 34
0.0000000000000000
 15
330.2798279947604
 25
220.0119563274563
 35
0.0000000000000000
 16
346.7644111814652
 26
205.6206556099500
 36
0.0000000000000000
1001
ACAD
1000
DSTYLE
1002
{
1070
   173
1070
     1
1070
     6
1000
_OPEN
1070
     7
1000
_OPEN
1070
    41
1040
2.000000
1002
}
  0
DIMENSION
  5
16F
100
AcDbEntity
  8
MAIN0
  6
CONTINUOUS
 62
3
100
AcDbDimension
  2
*D27
 10
289.1605925060843
 20
258.3254947997052
 30
0.0000000000000000
 11
318.4956401135246
 21
248.7800758952189
 31
0.0000000000000000
 70
162
  3
MAIN001
100
AcDb2LineAngularDimension
 13
331.1458533985448
 23
220.5119563274563
 33
0.0000000000000000
 14
330.2798279947604
 24
220.0119563274563
 34
0.0000000000000000
 15
288.9017734609818
 25
257.3595689734161
 35
0.0000000000000000
 16
318.1912593990202
 26
248.3833992250733
 36
0.0000000000000000
1001
ACAD
1000
DSTYLE
1002
{
1070
   173
1070
     1
1070
     6
1000
_OPEN
1070
     7
1000
_OPEN
1070
    41
1040
2.000000
1002
}
  0
DIMENSION
  5
177
100
AcDbEntity
  8
MAIN0
  6
CONTINUOUS
 62
3
100
AcDbDimension
  2
*D28
 10
269.4903450782928
 20
264.9151320017847
 30
0.0000000000000000
 11
279.9977035520133
 21
264.7264433423760
 31
0.0000000000000000
 70
162
  3
MAIN001
100
AcDb2LineAngularDimension
 13
289.1605925060843
 23
258.3254947997052
 33
0.0000000000000000
 14
288.9017734609818
 24
257.3595689734161
 34
0.0000000000000000
 15
269.4903450782927
 25
184.9151320017360
 35
0.0000000000000000
 16
279.9324404559033
 26
264.2307209116891
 36
0.0000000000000000
1001
ACAD
1000
DSTYLE
1002
{
1070
   173
1070
     1
1070
     6
1000
_OPEN
1070
     7
1000
_OPEN
1070
    41
1040
2.000000
1002
}
  0
DIMENSION
  5
180
100
AcDbEntity
  8
MAIN0
  6
CONTINUOUS
 62
3
100
AcDbDimension
  2
*D29
 10
311.1369021323368
 20
112.7811792238158
 30
0.0000000000000000
 11
310.9378654990301
 21
79.60916710068385
 31
0.0000000000000000
 70
162
  3
MAIN001
100
AcDb2LineAngularDimension
 13
269.4903450782928
 23
97.61622783375051
 33
0.0000000000000000
 14
269.4903450782928
 24
98.61622783375051
 34
0.0000000000000000
 15
310.6369021323368
 25
113.6472046276003
 35
0.0000000000000000
 16
298.9100707086102
 26
75.11922120465506
 36
0.0000000000000000
1001
ACAD
1000
DSTYLE
1002
{
1070
   173
1070
     1
1070
     6
1000
_OPEN
1070
     7
1000
_OPEN
1070
    41
1040
2.000000
1002
}
  0
LEADER
  5
181
100
AcDbEntity
  8
MAIN0
  6
CONTINUOUS
 62
3
100
AcDbLeader
  3
MAIN001
 73
     0
 74
     0
 75
     1
 40
3.099999904632568
 41
8.801000004470325
 76
     3
 10
336.0689267921357
 20
165.6711310413452
 30
0.0000000000000000
 10
360.7590155762092
 20
149.9151320017358
 30
0.0000000000000000
 10
362.5440155235485
 20
149.9151320017358
 30
0.0000000000000000
340
182
213
-0.001000000000033197
223
-0.5000000000000000
233
0.0000000000000000
1001
ACAD
1000
DSTYLE
1002
{
1070
   147
1040
0.0
1070
    77
1070
     1
1070
   173
1070
     1
1070
     6
1000
_OPEN
1070
     7
1000
_OPEN
1002
}
  0
MTEXT
  5
182
102
{ACAD_REACTORS
330
181
102
}
100
AcDbEntity
  8
MAIN0
  6
CONTINUOUS
 62
3
100
AcDbMText
 10
362.5450155235486
 20
153.5151319063684
 30
0.0000000000000000
 40
3.099999904632568
 41
0.0000000000000000
 71
     1
 72
     1
  1
{\H0.70x;{4-\U+22059}}
 11
1.000000000000000
 21
0.0000000000000000
 31
0.0000000000000000
  7
STANDARD
  0
LEADER
  5
183
100
AcDbEntity
  8
MAIN0
  6
CONTINUOUS
 62
3
100
AcDbLeader
  3
MAIN001
 73
     0
 74
     0
 75
     1
 40
3.099999904632568
 41
15.10100000894067
 76
     3
 10
338.3249962132455
 20
188.1237844717311
 30
0.0000000000000000
 10
360.7590155762092
 20
204.9151320017358
 30
0.0000000000000000
 10
362.5440155235485
 20
204.9151320017358
 30
0.0000000000000000
340
184
213
0.0000000000000000
223
-0.5000000000000000
233
0.0000000000000000
1001
ACAD
1000
DSTYLE
1002
{
1070
   147
1040
0.0
1070
    77
1070
     1
1070
   173
1070
     1
1070
     6
1000
_OPEN
1070
     7
1000
_OPEN
1002
}
  0
MTEXT
  5
184
102
{ACAD_REACTORS
330
183
102
}
100
AcDbEntity
  8
MAIN0
  6
CONTINUOUS
 62
3
100
AcDbMText
 10
362.5450155235485
 20
208.5151319063684
 30
0.0000000000000000
 40
3.099999904632568
 41
0.0000000000000000
 71
     1
 72
     1
  1
{\H0.70x;{2-\U+220510H7}}
 11
1.000000000000000
 21
0.0000000000000000
 31
0.0000000000000000
  7
STANDARD
  0
MTEXT
  5
185
100
AcDbEntity
  8
MAIN0
  6
CONTINUOUS
 62
3
100
AcDbMText
 10
396.7260682147983
 20
83.93498662667561
 30
0.0000000000000000
 40
3.099999904632568
 41
0.0000000000000000
 71
     1
 72
     1
  1
{\H0.70x;{H8/h8}}
 11
6.123233995736766e-017
 21
1.000000000000000
 31
0.0000000000000000
  7
STANDARD
  0
LEADER
  5
186
100
AcDbEntity
  8
MAIN0
  6
CONTINUOUS
 62
3
100
AcDbLeader
  3
MAIN001
 73
     0
 74
     0
 75
     1
 40
3.099999904632568
 41
18.10100000894070
 76
     3
 10
161.9260421140324
 20
235.5353607334028
 30
0.0000000000000000
 10
181.5203993065709
 20
266.0841169354322
 30
0.0000000000000000
 10
183.3053992539102
 20
266.0841169354322
 30
0.0000000000000000
340
187
213
-0.001000000000004775
223
-0.5000000000000000
233
0.0000000000000000
1001
ACAD
1000
DSTYLE
1002
{
1070
   147
1040
0.0
1070
    77
1070
     1
1070
   173
1070
     1
1070
     6
1000
_DOT
1070
     7
1000
_DOT
1002
}
  0
MTEXT
  5
187
102
{ACAD_REACTORS
330
186
102
}
100
AcDbEntity
  8
MAIN0
  6
CONTINUOUS
 62
3
100
AcDbMText
 10
183.3063992539102
 20
269.6841168400648
 30
0.0000000000000000
 40
3.099999904632568
 41
0.0000000000000000
 71
     1
 72
     1
  1
{\H0.70x;{六角穴付ボルト\PM8×22}}
 11
1.000000000000000
 21
0.0000000000000000
 31
0.0000000000000000
  7
KNJYOKO
  0
LEADER
  5
188
100
AcDbEntity
  8
MAIN0
  6
CONTINUOUS
 62
3
100
AcDbLeader
  3
MAIN001
 73
     0
 74
     0
 75
     1
 40
3.099999904632568
 41
15.50100000745059
 76
     3
 10
170.8971489593824
 20
241.0882326490503
 30
0.0000000000000000
 10
183.5200664431004
 20
250.7116470553549
 30
0.0000000000000000
 10
185.3050663904396
 20
250.7116470553549
 30
0.0000000000000000
340
189
213
-0.001000000000004775
223
-0.5000000000000000
233
0.0000000000000000
1001
ACAD
1000
DSTYLE
1002
{
1070
   147
1040
0.0
1070
    77
1070
     1
1070
   173
1070
     1
1070
     6
1000
_DOT
1070
     7
1000
_DOT
1002
}
  0
MTEXT
  5
189
102
{ACAD_REACTORS
330
188
102
}
100
AcDbEntity
  8
MAIN0
  6
CONTINUOUS
 62
3
100
AcDbMText
 10
185.3060663904396
 20
254.3116469599875
 30
0.0000000000000000
 40
3.099999904632568
 41
0.0000000000000000
 71
     1
 72
     1
  1
{\H0.70x;{ソフトジョー\PSB04A1T}}
 11
1.000000000000000
 21
0.0000000000000000
 31
0.0000000000000000
  7
KNJYOKO
  0
DIMENSION
  5
192
100
AcDbEntity
  8
MAIN0
  6
CONTINUOUS
 62
3
100
AcDbDimension
  2
*D30
 10
258.7057845253179
 20
198.4151320017225
 30
0.0000000000000000
 11
258.2057845253179
 21
184.9151320017225
 31
0.0000000000000000
 70
32
  3
MAIN001
100
AcDbAlignedDimension
 13
251.5890720594657
 23
171.4151320017225
 33
0.0000000000000000
 14
251.5890720594800
 24
198.4151320017225
 34
0.0000000000000000
 50
90.00000000000000
100
AcDbRotatedDimension
1001
ACAD
1000
DSTYLE
1002
{
1070
   173
1070
     1
1070
     6
1000
_OPEN
1070
     7
1000
_OPEN
1070
    41
1040
2.000000
1002
}
  0
DIMENSION
  5
19C
100
AcDbEntity
  8
MAIN0
  6
CONTINUOUS
 62
3
100
AcDbDimension
  2
*D31
 10
147.5590155762090
 20
188.9828947141880
 30
0.0000000000000000
 11
140.5935854448474
 21
189.4828947141880
 31
0.0000000000000000
 70
160
  3
MAIN001
100
AcDbAlignedDimension
 13
145.7590155762092
 23
154.4651320017360
 33
0.0000000000000000
 14
147.5590155762090
 24
202.8164050205729
 34
0.0000000000000000
100
AcDbRotatedDimension
1001
ACAD
1000
DSTYLE
1002
{
1070
   173
1070
     1
1070
     6
1000
_OPEN
1070
     7
1000
_OPEN
1070
    41
1040
2.000000
1070
   287
1070
     0
1002
}
  0
DIMENSION
  5
1A5
100
AcDbEntity
  8
MAIN0
  6
CONTINUOUS
 62
3
100
AcDbDimension
  2
*D32
 10
125.8753095091772
 20
217.8164050205729
 30
0.0000000000000000
 11
125.3753095091772
 21
210.3164050205734
 31
0.0000000000000000
 70
32
  3
MAIN001
100
AcDbAlignedDimension
 13
145.7590155762090
 23
202.8164050205739
 33
0.0000000000000000
 14
146.1590155762093
 24
217.8164050205737
 34
0.0000000000000000
 50
90.00000000000000
100
AcDbRotatedDimension
1001
ACAD
1000
DSTYLE
1002
{
1070
   173
1070
     1
1070
     6
1000
_OPEN
1070
     7
1000
_OPEN
1070
    41
1040
2.000000
1002
}
  0
DIMENSION
  5
1AD
100
AcDbEntity
  8
MAIN0
  6
CONTINUOUS
 62
3
100
AcDbDimension
  2
*D33
 10
125.8753095091772
 20
202.8164050205739
 30
0.0000000000000000
 11
125.3753095091772
 21
193.8657685111548
 31
0.0000000000000000
 70
32
  1
\A1;MAX 17.9
  3
MAIN001
100
AcDbAlignedDimension
 13
186.6963285818143
 23
184.9151320017358
 33
0.0000000000000000
 14
145.7590155762090
 24
202.8164050205739
 34
0.0000000000000000
 50
90.00000000000000
100
AcDbRotatedDimension
1001
ACAD
1000
DSTYLE
1002
{
1070
   173
1070
     1
1070
     6
1000
_OPEN
1070
     7
1000
_OPEN
1070
    41
1040
2.000000
1002
}
  0
LINE
  5
1AE
100
AcDbEntity
  8
MAIN0
  6
HIDDEN
 62
3
100
AcDbLine
 10
144.5590155762032
 20
210.4164050205604
 30
0.0000000000000000
 11
147.9600155762034
 21
210.4164050205604
 31
0.0000000000000000
  0
LINE
  5
1AF
100
AcDbEntity
  8
MAIN0
  6
HIDDEN
 62
3
100
AcDbLine
 10
143.7590155762021
 20
203.8107425877798
 30
0.0000000000000000
 11
143.7590155762032
 21
209.6164050205606
 31
0.0000000000000000
  0
ARC
  5
1B0
100
AcDbEntity
  8
MAIN0
  6
HIDDEN
 62
3
100
AcDbCircle
 10
144.5590155762032
 20
209.6164050205604
 30
0.0000000000000000
 40
0.8000000000000000
100
AcDbArc
 50
90.00000000000000
 51
180.0000000000000
  0
DIMENSION
  5
1B8
100
AcDbEntity
  8
MAIN0
  6
CONTINUOUS
 62
3
100
AcDbDimension
  2
*D34
 10
180.6590155762092
 20
184.9151320017358
 30
0.0000000000000000
 11
180.1590155762092
 21
199.5732693358694
 31
0.0000000000000000
 70
160
  1
\A1;MAX 25.5
  3
MAIN001
100
AcDbAlignedDimension
 13
147.9600155762034
 23
210.4164050205604
 33
0.0000000000000000
 14
186.6963285818143
 24
184.9151320017358
 34
0.0000000000000000
 50
90.00000000000000
100
AcDbRotatedDimension
1001
ACAD
1000
DSTYLE
1002
{
1070
   173
1070
     1
1070
     6
1000
_OPEN
1070
     7
1000
_OPEN
1070
    41
1040
2.000000
1002
}
  0
DIMENSION
  5
1C3
100
AcDbEntity
  8
MAIN0
  6
CONTINUOUS
 62
3
100
AcDbDimension
  2
*D35
 10
180.6590155762092
 20
210.4164050205604
 30
0.0000000000000000
 11
180.1590155762092
 21
219.5996037833579
 31
0.0000000000000000
 70
160
  1
\A1;MAX 9.75
  3
MAIN001
100
AcDbAlignedDimension
 13
179.4297473532890
 23
218.6664050205752
 33
0.0000000000000000
 14
147.9600155762034
 24
210.4164050205604
 34
0.0000000000000000
 50
90.00000000000000
100
AcDbRotatedDimension
1001
ACAD
1000
DSTYLE
1002
{
1070
   173
1070
     1
1070
     6
1000
_OPEN
1070
     7
1000
_OPEN
1070
    41
1040
2.000000
1070
   287
1070
     0
1002
}
  0
MTEXT
  5
1C4
100
AcDbEntity
  8
MAIN0
  6
CONTINUOUS
 62
3
100
AcDbMText
 10
126.6031457308181
 20
185.8679068773199
 30
0.0000000000000000
 40
3.099999904632568
 41
0.0000000000000000
 71
     1
 72
     1
  1
{\H0.66x;{MIN 15.3}}
 11
6.123233995736766e-017
 21
1.000000000000000
 31
0.0000000000000000
  7
STANDARD
  0
LINE
  5
1C5
100
AcDbEntity
  8
MAIN0
  6
PHANTOM
 62
3
100
AcDbLine
 10
146.7590155762092
 20
154.4651320017358
 30
0.0000000000000000
 11
143.8590155762092
 21
154.4651320017358
 31
0.0000000000000000
  0
LINE
  5
1C6
100
AcDbEntity
  8
MAIN0
  6
PHANTOM
 62
3
100
AcDbLine
 10
146.7590155762092
 20
154.4651320017358
 30
0.0000000000000000
 11
146.7590155762092
 21
184.9151320017358
 31
0.0000000000000000
  0
LINE
  5
1C7
100
AcDbEntity
  8
MAIN0
  6
PHANTOM
 62
3
100
AcDbLine
 10
143.8590155762092
 20
154.4651320017358
 30
0.0000000000000000
 11
143.8590155762092
 21
184.9151320017358
 31
0.0000000000000000
  0
DIMENSION
  5
1D1
100
AcDbEntity
  8
MAIN0
  6
CONTINUOUS
 62
3
100
AcDbDimension
  2
*D36
 10
145.7590155762092
 20
143.7838105136723
 30
0.0000000000000000
 11
151.1232651175525
 21
144.2838105136723
 31
0.0000000000000000
 70
160
  1
\A1;0.1
  3
MAIN001
100
AcDbAlignedDimension
 13
146.7590155762092
 23
154.4651320017358
 33
0.0000000000000000
 14
145.7590155762092
 24
131.5151320016237
 34
0.0000000000000000
100
AcDbRotatedDimension
1001
ACAD
1000
DSTYLE
1002
{
1070
   173
1070
     1
1070
     6
1000
_OPEN
1070
     7
1000
_OPEN
1070
    41
1040
2.000000
1070
   287
1070
     0
1002
}
  0
INSERT
  5
1D9
100
AcDbEntity
  8
MAIN0
  6
CONTINUOUS
 62
3
100
AcDbBlockReference
  2
D37
 10
186.6963285818143
 20
184.9151320017358
 30
0.0000000000000000
 50
0.0000000000000000
  0
LEADER
  5
1DA
100
AcDbEntity
  8
MAIN0
  6
CONTINUOUS
 62
3
100
AcDbLeader
  3
MAIN001
 73
     0
 74
     0
 75
     1
 40
3.099999904632568
 41
17.02100039815906
 76
     3
 10
145.7590155762092
 20
138.3734736764238
 30
0.0000000000000000
 10
154.4131250764313
 20
118.8102062127000
 30
0.0000000000000000
 10
156.3381250206414
 20
118.8102062127000
 30
0.0000000000000000
340
1DB
213
-0.001000000000004775
223
-0.5000000000000000
233
0.0000000000000000
1001
ACAD
1000
DSTYLE
1002
{
1070
   147
1040
0.0
1070
    77
1070
     1
1070
   173
1070
     1
1070
     6
1000
_OPEN
1070
     7
1000
_OPEN
1002
}
  0
MTEXT
  5
1DB
102
{ACAD_REACTORS
330
1DA
102
}
100
AcDbEntity
  8
MAIN0
  6
CONTINUOUS
 62
3
100
AcDbMText
 10
156.3391250206414
 20
122.4102061173326
 30
0.0000000000000000
 40
3.099999904632568
 41
0.0000000000000000
 71
     1
 72
     1
  1
{\H0.93x;{ボデー端面}}
 11
1.000000000000000
 21
0.0000000000000000
 31
0.0000000000000000
  7
KNJYOKO
  0
LEADER
  5
1DC
100
AcDbEntity
  8
MAIN0
  6
CONTINUOUS
 62
3
100
AcDbLeader
  3
MAIN001
 73
     0
 74
     0
 75
     1
 40
3.099999904632568
 41
17.02100039815903
 76
     3
 10
146.7590155762092
 20
167.7274151284383
 30
0.0000000000000000
 10
152.5311075288109
 20
173.8265057398762
 30
0.0000000000000000
 10
154.4561074730210
 20
173.8265057398762
 30
0.0000000000000000
340
1DD
213
-0.001000000000004775
223
-0.5000000000000000
233
0.0000000000000000
1001
ACAD
1000
DSTYLE
1002
{
1070
   147
1040
0.0
1070
    77
1070
     1
1070
   173
1070
     1
1070
     6
1000
_OPEN
1070
     7
1000
_OPEN
1002
}
  0
MTEXT
  5
1DD
102
{ACAD_REACTORS
330
1DC
102
}
100
AcDbEntity
  8
MAIN0
  6
CONTINUOUS
 62
3
100
AcDbMText
 10
154.4571074730210
 20
177.4265056445088
 30
0.0000000000000000
 40
3.099999904632568
 41
0.0000000000000000
 71
     1
 72
     1
  1
{\H0.93x;{カバー端面}}
 11
1.000000000000000
 21
0.0000000000000000
 31
0.0000000000000000
  7
KNJYOKO
  0
INSERT
  5
1E5
100
AcDbEntity
  8
MAIN0
  6
CONTINUOUS
 62
3
100
AcDbBlockReference
  2
D38
 10
186.6963285818143
 20
184.9151320017358
 30
0.0000000000000000
 50
0.0000000000000000
  0
MTEXT
  5
1E6
100
AcDbEntity
  8
MAIN0
  6
CONTINUOUS
 62
3
100
AcDbMText
 10
344.8812804630109
 20
58.10646796542383
 30
0.0000000000000000
 40
4.000000000000000
 41
0.0000000000000000
 71
     1
 72
     1
  1
{\H0.93x;{VIEW OF A}}
 11
1.000000000000000
 21
0.0000000000000000
 31
0.0000000000000000
  7
STANDARD
  0
MTEXT
  5
1E7
100
AcDbEntity
  8
MAIN0
  6
CONTINUOUS
 62
3
100
AcDbMText
 10
185.1022055230598
 20
95.05512525357111
 30
0.0000000000000000
 40
3.000000000000000
 41
0.0000000000000000
 71
     1
 72
     1
  1
{\H0.63x;{(WHEN SETTING ON MULTI-PLATE,\P THIS SOCKET SET SCREW MUST BE\P TAKEN OFF.)}}
 11
1.000000000000000
 21
0.0000000000000000
 31
0.0000000000000000
  7
STANDARD
  0
MTEXT
  5
1E8
100
AcDbEntity
  8
MAIN0
  6
CONTINUOUS
 62
3
100
AcDbMText
 10
154.7018356031020
 20
173.2783521897626
 30
0.0000000000000000
 40
3.000000000000000
 41
0.0000000000000000
 71
     1
 72
     1
  1
{\H0.63x;{COVER SURFACE}}
 11
1.000000000000000
 21
0.0000000000000000
 31
0.0000000000000000
  7
STANDARD
  0
MTEXT
  5
1E9
100
AcDbEntity
  8
MAIN0
  6
CONTINUOUS
 62
3
100
AcDbMText
 10
155.5667263694616
 20
117.6284035785943
 30
0.0000000000000000
 40
3.000000000000000
 41
0.0000000000000000
 71
     1
 72
     1
  1
{\H0.63x;{BODY SURFACE}}
 11
1.000000000000000
 21
0.0000000000000000
 31
0.0000000000000000
  7
STANDARD
  0
MTEXT
  5
1EA
100
AcDbEntity
  8
MAIN0
  6
CONTINUOUS
 62
3
100
AcDbMText
 10
185.6447184106334
 20
258.3358817572403
 30
0.0000000000000000
 40
3.000000000000000
 41
0.0000000000000000
 71
     1
 72
     1
  1
{\H0.63x;{SOFT JAW}}
 11
1.000000000000000
 21
0.0000000000000000
 31
0.0000000000000000
  7
STANDARD
  0
MTEXT
  5
1EB
100
AcDbEntity
  8
MAIN0
  6
CONTINUOUS
 62
3
100
AcDbMText
 10
178.7708516554498
 20
273.5833715515523
 30
0.0000000000000000
 40
3.000000000000000
 41
0.0000000000000000
 71
     1
 72
     1
  1
{\H0.63x;{HEX SOCKET HEAD CAP SCREW}}
 11
1.000000000000000
 21
0.0000000000000000
 31
0.0000000000000000
  7
STANDARD
  0
MTEXT
  5
1EC
100
AcDbEntity
  8
MAIN0
  6
CONTINUOUS
 62
3
100
AcDbMText
 10
178.5208914839193
 20
280.2072781352053
 30
0.0000000000000000
 40
3.000000000000000
 41
0.0000000000000000
 71
     1
 72
     1
  1
{\H0.61x;{SERRATION PITCH 1.5}}
 11
1.000000000000000
 21
0.0000000000000000
 31
0.0000000000000000
  7
STANDARD
  0
MTEXT
  5
1ED
100
AcDbEntity
  8
MAIN0
  6
CONTINUOUS
 62
3
100
AcDbMText
 10
204.6091966885606
 20
39.79409018369503
 30
0.0000000000000000
 40
3.099999904632568
 41
0.0000000000000000
 71
     1
 72
     1
  1
{\H0.69x;{ 6}}
 11
1.000000000000000
 21
0.0000000000000000
 31
0.0000000000000000
  7
STANDARD
  0
MTEXT
  5
1EE
100
AcDbEntity
  8
MAIN0
  6
CONTINUOUS
 62
3
100
AcDbMText
 10
208.6091966885590
 20
69.29409018369475
 30
0.0000000000000000
 40
3.099999904632568
 41
0.0000000000000000
 71
     1
 72
     1
  1
{\H0.88x;{15}}
 11
1.000000000000000
 21
0.0000000000000000
 31
0.0000000000000000
  7
STANDARD
  0
MTEXT
  5
1EF
100
AcDbEntity
  8
MAIN0
  6
CONTINUOUS
 62
3
100
AcDbMText
 10
208.6091966885604
 20
62.29409018369475
 30
0.0000000000000000
 40
3.099999904632568
 41
0.0000000000000000
 71
     1
 72
     1
  1
{\H0.90x;{5.2}}
 11
1.000000000000000
 21
0.0000000000000000
 31
0.0000000000000000
  7
STANDARD
  0
MTEXT
  5
1F0
100
AcDbEntity
  8
MAIN0
  6
CONTINUOUS
 62
3
100
AcDbMText
 10
205.6091966885629
 20
50.29412351702811
 30
0.0000000000000000
 40
3.099999904632568
 41
0.0000000000000000
 71
     1
 72
     1
  1
{\H0.90x;{765}}
 11
1.000000000000000
 21
0.0000000000000000
 31
0.0000000000000000
  7
STANDARD
  0
MTEXT
  5
1F1
100
AcDbEntity
  8
MAIN0
  6
CONTINUOUS
 62
3
100
AcDbMText
 10
208.6091966885629
 20
55.29412351702811
 30
0.0000000000000000
 40
3.099999904632568
 41
0.0000000000000000
 71
     1
 72
     1
  1
{\H0.76x;{7.5}}
 11
1.000000000000000
 21
0.0000000000000000
 31
0.0000000000000000
  7
STANDARD
  0
MTEXT
  5
1F2
100
AcDbEntity
  8
MAIN0
  6
CONTINUOUS
 62
3
100
AcDbMText
 10
208.6091966885617
 20
19.29409018285020
 30
0.0000000000000000
 40
3.099999904632568
 41
0.0000000000000000
 71
     1
 72
     1
  1
{\H0.76x;{6.9}}
 11
1.000000000000000
 21
0.0000000000000000
 31
0.0000000000000000
  7
STANDARD
  0
LINE
  5
1F3
100
AcDbEntity
  8
MAIN0
  6
CONTINUOUS
 62
3
100
AcDbLine
 10
150.2022997207159
 20
15.19413953516352
 30
0.0000000000000000
 11
230.6091966885624
 21
15.19413953516352
 31
0.0000000000000000
  0
MTEXT
  5
1F4
100
AcDbEntity
  8
MAIN0
  6
CONTINUOUS
 62
3
100
AcDbMText
 10
153.4813398849130
 20
70.55738416654654
 30
0.0000000000000000
 40
2.499999046325684
 41
0.0000000000000000
 71
     1
 72
     1
  1
{\H0.75x;{PLUNGER STROKE}}
 11
1.000000000000000
 21
0.0000000000000000
 31
0.0000000000000000
  7
STANDARD
  0
MTEXT
  5
1F5
100
AcDbEntity
  8
MAIN0
  6
CONTINUOUS
 62
3
100
AcDbMText
 10
153.4813398849130
 20
67.45738473875113
 30
0.0000000000000000
 40
2.399999618530273
 41
0.0000000000000000
 71
     1
 72
     1
  1
{\H0.93x;{プランジャストロ－ク}}
 11
1.000000000000000
 21
0.0000000000000000
 31
0.0000000000000000
  7
KNJYOKO
  0
MTEXT
  5
1F6
100
AcDbEntity
  8
MAIN0
  6
CONTINUOUS
 62
3
100
AcDbMText
 10
153.4813398849130
 20
63.55738416654654
 30
0.0000000000000000
 40
2.499999046325684
 41
0.0000000000000000
 71
     1
 72
     1
  1
{\H0.75x;{JAW STROKE (IN DIA)}}
 11
1.000000000000000
 21
0.0000000000000000
 31
0.0000000000000000
  7
STANDARD
  0
MTEXT
  5
1F7
100
AcDbEntity
  8
MAIN0
  6
CONTINUOUS
 62
3
100
AcDbMText
 10
153.4813398849130
 20
60.45738473875113
 30
0.0000000000000000
 40
2.399999618530273
 41
0.0000000000000000
 71
     1
 72
     1
  1
{\H0.94x;{ジョーストローク(直径で)}}
 11
1.000000000000000
 21
0.0000000000000000
 31
0.0000000000000000
  7
KNJYOKO
  0
MTEXT
  5
1F8
100
AcDbEntity
  8
MAIN0
  6
CONTINUOUS
 62
3
100
AcDbMText
 10
153.4813398849136
 20
43.19405178688808
 30
0.0000000000000000
 40
2.500000000000000
 41
0.0000000000000000
 71
     1
 72
     1
  1
{\H0.63x;{MAX PERMISSIBLE AIR PRESS}}
 11
1.000000000000000
 21
0.0000000000000000
 31
0.0000000000000000
  7
STANDARD
  0
MTEXT
  5
1F9
100
AcDbEntity
  8
MAIN0
  6
CONTINUOUS
 62
3
100
AcDbMText
 10
153.6133245529908
 20
40.09408047172175
 30
0.0000000000000000
 40
2.399999618530273
 41
0.0000000000000000
 71
     1
 72
     1
  1
{\H0.93x;{許容最大エア圧力}}
 11
1.000000000000000
 21
0.0000000000000000
 31
0.0000000000000000
  7
KNJYOKO
  0
MTEXT
  5
1FA
100
AcDbEntity
  8
MAIN0
  6
CONTINUOUS
 62
3
100
AcDbMText
 10
153.4813398849132
 20
21.69413342296724
 30
0.0000000000000000
 40
2.499999046325684
 41
0.0000000000000000
 71
     1
 72
     1
  1
{\H0.73x;{MASS}}
 11
1.000000000000000
 21
0.0000000000000000
 31
0.0000000000000000
  7
STANDARD
  0
MTEXT
  5
1FB
100
AcDbEntity
  8
MAIN0
  6
CONTINUOUS
 62
3
100
AcDbMText
 10
153.4813398849132
 20
18.59413399517183
 30
0.0000000000000000
 40
2.399999618530273
 41
0.0000000000000000
 71
     1
 72
     1
  1
{\H0.89x;{質量\P}
 11
1.000000000000000
 21
0.0000000000000000
 31
0.0000000000000000
  7
KNJYOKO
  0
MTEXT
  5
1FC
100
AcDbEntity
  8
MAIN0
  6
CONTINUOUS
 62
3
100
AcDbMText
 10
179.3811686541468
 20
48.19400749276085
 30
0.0000000000000000
 40
2.500000000000000
 41
0.0000000000000000
 71
     7
 72
     1
  1
{( 6 Kgf/cm}
 11
1.000000000000000
 21
0.0000000000000000
 31
0.0000000000000000
  7
STANDARD
  0
MTEXT
  5
1FD
100
AcDbEntity
  8
MAIN0
  6
CONTINUOUS
 62
3
100
AcDbMText
 10
194.3811686541468
 20
49.44400749276085
 30
0.0000000000000000
 40
1.250000000000000
 41
0.0000000000000000
 71
     7
 72
     1
  1
{2}
 11
1.000000000000000
 21
0.0000000000000000
 31
0.0000000000000000
  7
STANDARD
  0
MTEXT
  5
1FE
100
AcDbEntity
  8
MAIN0
  6
CONTINUOUS
 62
3
100
AcDbMText
 10
195.1311686541468
 20
48.19400749276085
 30
0.0000000000000000
 40
2.500000000000000
 41
0.0000000000000000
 71
     7
 72
     1
  1
{)}
 11
1.000000000000000
 21
0.0000000000000000
 31
0.0000000000000000
  7
STANDARD
  0
MTEXT
  5
1FF
100
AcDbEntity
  8
MAIN0
  6
CONTINUOUS
 62
3
100
AcDbMText
 10
153.4813005209393
 20
50.69400749276085
 30
0.0000000000000000
 40
2.500000000000000
 41
0.0000000000000000
 71
     1
 72
     1
  1
{\H0.59x;{(エア圧 0.6 MPa時)}}
 11
1.000000000000000
 21
0.0000000000000000
 31
0.0000000000000000
  7
KNJYOKO
  0
MTEXT
  5
200
100
AcDbEntity
  8
MAIN0
  6
CONTINUOUS
 62
3
100
AcDbMText
 10
153.4813398849130
 20
56.69405178688783
 30
0.0000000000000000
 40
2.500000000000000
 41
0.0000000000000000
 71
     1
 72
     1
  1
{\H0.63x;{MAX GRIPPING FORCE}}
 11
1.000000000000000
 21
0.0000000000000000
 31
0.0000000000000000
  7
STANDARD
  0
MTEXT
  5
201
100
AcDbEntity
  8
MAIN0
  6
CONTINUOUS
 62
3
100
AcDbMText
 10
153.4813398849130
 20
53.59405140541810
 30
0.0000000000000000
 40
2.399999618530273
 41
0.0000000000000000
 71
     1
 72
     1
  1
{\H0.93x;{最大把握力　　}}
 11
1.000000000000000
 21
0.0000000000000000
 31
0.0000000000000000
  7
KNJYOKO
  0
MTEXT
  5
202
100
AcDbEntity
  8
MAIN0
  6
CONTINUOUS
 62
3
100
AcDbMText
 10
153.4813005209393
 20
47.69404082609421
 30
0.0000000000000000
 40
2.500000000000000
 41
0.0000000000000000
 71
     1
 72
     1
  1
{\H0.62x;{(ON AIR PRESSURE OF 0.6 MPa)}}
 11
1.000000000000000
 21
0.0000000000000000
 31
0.0000000000000000
  7
STANDARD
  0
LINE
  5
203
100
AcDbEntity
  8
MAIN0
  6
CONTINUOUS
 62
3
100
AcDbLine
 10
230.6091966885591
 20
79.19409027906252
 30
0.0000000000000000
 11
150.2758633552260
 21
79.19409027906252
 31
0.0000000000000000
  0
LINE
  5
204
100
AcDbEntity
  8
MAIN0
  6
CONTINUOUS
 62
3
100
AcDbLine
 10
230.6091966885590
 20
71.19409027906252
 30
0.0000000000000000
 11
150.2758633552254
 21
71.19409027906252
 31
0.0000000000000000
  0
LINE
  5
205
100
AcDbEntity
  8
MAIN0
  6
CONTINUOUS
 62
3
100
AcDbLine
 10
230.6091966885585
 20
64.19409027906241
 30
0.0000000000000000
 11
150.2758633552254
 21
64.19409027906241
 31
0.0000000000000000
  0
LINE
  5
206
100
AcDbEntity
  8
MAIN0
  6
CONTINUOUS
 62
3
100
AcDbLine
 10
230.6091966885599
 20
57.19409027906241
 30
0.0000000000000000
 11
150.2758633552254
 21
57.19409027906241
 31
0.0000000000000000
  0
LINE
  5
207
100
AcDbEntity
  8
MAIN0
  6
CONTINUOUS
 62
3
100
AcDbLine
 10
230.6091966885607
 20
44.19409027906244
 30
0.0000000000000000
 11
150.2758633552273
 21
44.19409027906244
 31
0.0000000000000000
  0
LINE
  5
208
100
AcDbEntity
  8
MAIN0
  6
CONTINUOUS
 62
3
100
AcDbLine
 10
230.6091966885583
 20
36.19409027906258
 30
0.0000000000000000
 11
150.2758633552278
 21
36.19409027906258
 31
0.0000000000000000
  0
LINE
  5
209
100
AcDbEntity
  8
MAIN0
  6
CONTINUOUS
 62
3
100
AcDbLine
 10
230.6091966885619
 20
22.19409027906244
 30
0.0000000000000000
 11
150.2758633552255
 21
22.19409027906244
 31
0.0000000000000000
  0
LINE
  5
20A
100
AcDbEntity
  8
MAIN0
  6
CONTINUOUS
 62
3
100
AcDbLine
 10
200.6091966885585
 20
71.19409027906248
 30
0.0000000000000000
 11
200.6091966885620
 21
15.19413953516360
 31
0.0000000000000000
  0
LINE
  5
20B
100
AcDbEntity
  8
MAIN0
  6
CONTINUOUS
 62
3
100
AcDbLine
 10
230.6091966885587
 20
79.19409027906234
 30
0.0000000000000000
 11
230.6091966885626
 21
15.19413953516354
 31
0.0000000000000000
  0
LINE
  5
20C
100
AcDbEntity
  8
MAIN0
  6
CONTINUOUS
 62
3
100
AcDbLine
 10
150.2758633552253
 20
79.19409027906235
 30
0.0000000000000000
 11
150.2758633552293
 21
15.19413953516354
 31
0.0000000000000000
  0
MTEXT
  5
20D
100
AcDbEntity
  8
MAIN0
  6
CONTINUOUS
 62
4
100
AcDbMText
 10
215.6091966885590
 20
67.99408951612273
 30
0.0000000000000000
 40
2.799999237060547
 41
0.0000000000000000
 71
     1
 72
     1
  1
{\H0.58x;{　　　　ｍｍ}}
 11
1.000000000000000
 21
0.0000000000000000
 31
0.0000000000000000
  7
KNJYOKO
  0
MTEXT
  5
20E
100
AcDbEntity
  8
MAIN0
  6
CONTINUOUS
 62
4
100
AcDbMText
 10
215.6091966885604
 20
60.99408951612273
 30
0.0000000000000000
 40
2.799999237060547
 41
0.0000000000000000
 71
     1
 72
     1
  1
{\H0.58x;{　　　　ｍｍ}}
 11
1.000000000000000
 21
0.0000000000000000
 31
0.0000000000000000
  7
KNJYOKO
  0
MTEXT
  5
20F
100
AcDbEntity
  8
MAIN0
  6
CONTINUOUS
 62
4
100
AcDbMText
 10
202.6091966885629
 20
49.99412284945609
 30
0.0000000000000000
 40
2.799999237060547
 41
0.0000000000000000
 71
     1
 72
     1
  1
{\H0.60x;{(}}
 11
1.000000000000000
 21
0.0000000000000000
 31
0.0000000000000000
  7
STANDARD
  0
MTEXT
  5
210
100
AcDbEntity
  8
MAIN0
  6
CONTINUOUS
 62
4
100
AcDbMText
 10
214.6091966885629
 20
49.99412284945609
 30
0.0000000000000000
 40
2.799999237060547
 41
0.0000000000000000
 71
     1
 72
     1
  1
{\H0.60x;{　　　ｋｇｆ)}}
 11
1.000000000000000
 21
0.0000000000000000
 31
0.0000000000000000
  7
KNJYOKO
  0
MTEXT
  5
211
100
AcDbEntity
  8
MAIN0
  6
CONTINUOUS
 62
4
100
AcDbMText
 10
215.6091966885629
 20
53.99412284945609
 30
0.0000000000000000
 40
2.799999237060547
 41
0.0000000000000000
 71
     1
 72
     1
  1
{\H0.58x;{　　　　ｋＮ}}
 11
1.000000000000000
 21
0.0000000000000000
 31
0.0000000000000000
  7
KNJYOKO
  0
MTEXT
  5
212
100
AcDbEntity
  8
MAIN0
  6
CONTINUOUS
 62
4
100
AcDbMText
 10
202.6091966885606
 20
39.49408951612301
 30
0.0000000000000000
 40
2.799999237060547
 41
0.0000000000000000
 71
     1
 72
     1
  1
{\H0.60x;{(}}
 11
1.000000000000000
 21
0.0000000000000000
 31
0.0000000000000000
  7
STANDARD
  0
MTEXT
  5
213
100
AcDbEntity
  8
MAIN0
  6
CONTINUOUS
 62
4
100
AcDbMText
 10
215.6091966885606
 20
43.49408951612301
 30
0.0000000000000000
 40
2.799999237060547
 41
0.0000000000000000
 71
     1
 72
     1
  1
{\H0.58x;{　　　ＭＰａ}}
 11
1.000000000000000
 21
0.0000000000000000
 31
0.0000000000000000
  7
KNJYOKO
  0
MTEXT
  5
214
100
AcDbEntity
  8
MAIN0
  6
CONTINUOUS
 62
4
100
AcDbMText
 10
226.6624925219262
 20
39.90449430728492
 30
0.0000000000000000
 40
2.000000000000000
 41
0.0000000000000000
 71
     1
 72
     1
  1
{\H0.81x;{2}}
 11
1.000000000000000
 21
0.0000000000000000
 31
0.0000000000000000
  7
STANDARD
  0
MTEXT
  5
215
100
AcDbEntity
  8
MAIN0
  6
CONTINUOUS
 62
4
100
AcDbMText
 10
214.6091966885606
 20
39.49408951612301
 30
0.0000000000000000
 40
2.799999237060547
 41
0.0000000000000000
 71
     1
 72
     1
  1
{\H0.62x;{ｋｇｆ／ｃｍ )}}
 11
1.000000000000000
 21
0.0000000000000000
 31
0.0000000000000000
  7
KNJYOKO
  0
MTEXT
  5
216
100
AcDbEntity
  8
MAIN0
  6
CONTINUOUS
 62
4
100
AcDbMText
 10
215.6091966885621
 20
18.99413877222361
 30
0.0000000000000000
 40
2.799999237060547
 41
0.0000000000000000
 71
     1
 72
     1
  1
{\H0.58x;{　　　　ｋｇ}}
 11
1.000000000000000
 21
0.0000000000000000
 31
0.0000000000000000
  7
KNJYOKO
  0
MTEXT
  5
217
100
AcDbEntity
  8
MAIN0
  6
CONTINUOUS
 62
3
100
AcDbMText
 10
172.3441109621717
 20
78.55421483164460
 30
0.0000000000000000
 40
3.100000381469727
 41
0.0000000000000000
 71
     1
 72
     1
  1
{\H0.94x;{SPECIFICATIONS}}
 11
1.000000000000000
 21
0.0000000000000000
 31
0.0000000000000000
  7
STANDARD
  0
MTEXT
  5
218
100
AcDbEntity
  8
MAIN0
  6
CONTINUOUS
 62
3
100
AcDbMText
 10
182.1473040511951
 20
75.00967932417635
 30
0.0000000000000000
 40
3.100000381469727
 41
0.0000000000000000
 71
     1
 72
     1
  1
{\H0.93x;{仕　　　様}}
 11
1.000000000000000
 21
0.0000000000000000
 31
0.0000000000000000
  7
KNJYOKO
  0
MTEXT
  5
219
100
AcDbEntity
  8
MAIN0
  6
CONTINUOUS
 62
3
100
AcDbMText
 10
153.4813398849155
 20
35.19405178688797
 30
0.0000000000000000
 40
2.000000000000000
 41
0.0000000000000000
 71
     1
 72
     1
  1
{\H0.63x;{AIR CONSUMPTION (PER 10mm OF PLUNGER }}
 11
1.000000000000000
 21
0.0000000000000000
 31
0.0000000000000000
  7
STANDARD
  0
MTEXT
  5
21A
100
AcDbEntity
  8
MAIN0
  6
CONTINUOUS
 62
3
100
AcDbMText
 10
153.4813398849157
 20
28.59405140541827
 30
0.0000000000000000
 40
2.399999618530273
 41
0.0000000000000000
 71
     1
 72
     1
  1
{\H0.92x;{空気消費量}}
 11
1.000000000000000
 21
0.0000000000000000
 31
0.0000000000000000
  7
KNJYOKO
  0
MTEXT
  5
21B
100
AcDbEntity
  8
MAIN0
  6
CONTINUOUS
 62
3
100
AcDbMText
 10
153.4813398849155
 20
25.69405178688800
 30
0.0000000000000000
 40
2.500000000000000
 41
0.0000000000000000
 71
     1
 72
     1
  1
{\H0.59x;{(プランジャストローク10mm当り圧力0.6MPa時)}}
 11
1.000000000000000
 21
0.0000000000000000
 31
0.0000000000000000
  7
KNJYOKO
  0
MTEXT
  5
21C
100
AcDbEntity
  8
MAIN0
  6
CONTINUOUS
 62
3
100
AcDbMText
 10
153.4813398849155
 20
32.19405178688797
 30
0.0000000000000000
 40
2.000000000000000
 41
0.0000000000000000
 71
     1
 72
     1
  1
{\H0.62x;{STROKE ON PRESSURE OF 0.6MPa)}}
 11
1.000000000000000
 21
0.0000000000000000
 31
0.0000000000000000
  7
STANDARD
  0
MTEXT
  5
21D
100
AcDbEntity
  8
MAIN0
  6
CONTINUOUS
 62
4
100
AcDbMText
 10
215.6091966885609
 20
30.99408951612662
 30
0.0000000000000000
 40
2.799999237060547
 41
0.0000000000000000
 71
     1
 72
     1
  1
{\H0.58x;{　　　　Ｎ}}
 11
1.000000000000000
 21
0.0000000000000000
 31
0.0000000000000000
  7
KNJYOKO
  0
MTEXT
  5
21E
100
AcDbEntity
  8
MAIN0
  6
CONTINUOUS
 62
3
100
AcDbMText
 10
208.6091966885606
 20
43.79409018369503
 30
0.0000000000000000
 40
3.099999904632568
 41
0.0000000000000000
 71
     1
 72
     1
  1
{\H0.76x;{0.6}}
 11
1.000000000000000
 21
0.0000000000000000
 31
0.0000000000000000
  7
STANDARD
  0
MTEXT
  5
21F
100
AcDbEntity
  8
MAIN0
  6
CONTINUOUS
 62
3
100
AcDbMText
 10
208.6091966885610
 20
31.29409018369864
 30
0.0000000000000000
 40
3.099999904632568
 41
0.0000000000000000
 71
     1
 72
     1
  1
{\H0.76x;{0.4}}
 11
1.000000000000000
 21
0.0000000000000000
 31
0.0000000000000000
  7
STANDARD
  0
SPLINE
  5
220
100
AcDbEntity
  8
MAIN0
  6
CONTINUOUS
 62
3
100
AcDbSpline
210
0.0000000000000000
220
0.0000000000000000
230
1.000000000000000
 70
     8
 71
     3
 72
    14
 73
    10
 74
     0
 42
1.000000000000000e-007
 43
1.000000000000000e-007
 12
1.205313937519577
 22
0.3012197250381234
 32
0.0000000000000000
 13
0.9118704780837561
 23
0.7328372388452067
 33
0.0000000000000000
 40
0.0000000000000000
 40
0.0000000000000000
 40
0.0000000000000000
 40
0.0000000000000000
 40
0.5828484074954654
 40
2.017389827489209
 40
3.123506893394179
 40
4.885508420049012
 40
6.048697447303496
 40
6.384151807376483
 40
6.831490023551860
 40
6.831490023551860
 40
6.831490023551860
 40
6.831490023551860
 10
226.3163282977143
 20
28.40628374290344
 30
0.0000000000000000
 10
226.5505000673861
 20
28.46480555525167
 30
0.0000000000000000
 10
227.3610294262133
 20
28.66736475829575
 30
0.0000000000000000
 10
227.8927560666762
 20
29.82700605959863
 30
0.0000000000000000
 10
228.0315631940017
 20
32.33518554672628
 30
0.0000000000000000
 10
226.7833176380689
 20
29.90903707631296
 30
0.0000000000000000
 10
226.6923101033700
 20
28.00444513782659
 30
0.0000000000000000
 10
227.5459426526838
 20
28.29931688623100
 30
0.0000000000000000
 10
227.7838777995983
 20
28.49053673628677
 30
0.0000000000000000
 10
227.9198493039479
 20
28.59981210401074
 30
0.0000000000000000
  0
LINE
  5
221
100
AcDbEntity
  8
MAIN0
  6
CONTINUOUS
 62
3
100
AcDbLine
 10
147.9599312254883
 20
193.7720941527796
 30
0.0000000000000000
 11
148.8590155760819
 21
193.2530075609336
 31
0.0000000000000000
  0
ARC
  5
222
100
AcDbEntity
  8
MAIN0
  6
CONTINUOUS
 62
3
100
AcDbCircle
 10
148.8090155760813
 20
193.1664050205554
 30
0.0000000000000000
 40
0.1000000000000000
100
AcDbArc
 50
299.9999999996844
 51
419.9999999996842
  0
LINE
  5
223
100
AcDbEntity
  8
MAIN0
  6
CONTINUOUS
 62
3
100
AcDbLine
 10
147.9599774704012
 20
192.5607425878573
 30
0.0000000000000000
 11
148.8590155760809
 21
193.0798024801766
 31
0.0000000000000000
  0
LINE
  5
224
100
AcDbEntity
  8
MAIN0
  6
CONTINUOUS
 62
3
100
AcDbLine
 10
147.9599774703996
 20
192.2720674532625
 30
0.0000000000000000
 11
148.8590155760736
 21
191.7530075609333
 31
0.0000000000000000
  0
ARC
  5
225
100
AcDbEntity
  8
MAIN0
  6
CONTINUOUS
 62
3
100
AcDbCircle
 10
148.8090155760730
 20
191.6664050205552
 30
0.0000000000000000
 40
0.1000000000000000
100
AcDbArc
 50
0.0000000000000000
 51
59.99999999968386
  0
LINE
  5
226
100
AcDbEntity
  8
MAIN0
  6
CONTINUOUS
 62
3
100
AcDbLine
 10
148.9090155760750
 20
191.0664050205386
 30
0.0000000000000000
 11
148.9090155760750
 21
191.6664050205552
 31
0.0000000000000000
  0
LINE
  5
227
100
AcDbEntity
  8
MAIN0
  6
CONTINUOUS
 62
3
100
AcDbLine
 10
148.9090155760750
 20
191.0664050205386
 30
0.0000000000000000
 11
149.3090155760750
 21
190.6664050205389
 31
0.0000000000000000
  0
LINE
  5
228
100
AcDbEntity
  8
MAIN0
  6
CONTINUOUS
 62
3
100
AcDbLine
 10
309.0732488469477
 20
138.3555315633164
 30
0.0000000000000000
 11
311.9600001928957
 21
138.3555315633164
 31
0.0000000000000000
  0
LINE
  5
229
100
AcDbEntity
  8
MAIN0
  6
CONTINUOUS
 62
3
100
AcDbLine
 10
311.9600001928957
 20
138.3555315633164
 30
0.0000000000000000
 11
313.4033758658698
 21
135.8555315633164
 31
0.0000000000000000
  0
LINE
  5
22A
100
AcDbEntity
  8
MAIN0
  6
CONTINUOUS
 62
3
100
AcDbLine
 10
313.4033758658698
 20
135.8555315633164
 30
0.0000000000000000
 11
311.9600001928957
 21
133.3555315633164
 31
0.0000000000000000
  0
LINE
  5
22B
100
AcDbEntity
  8
MAIN0
  6
CONTINUOUS
 62
3
100
AcDbLine
 10
311.9600001928957
 20
133.3555315633164
 30
0.0000000000000000
 11
309.0732488469475
 21
133.3555315633164
 31
0.0000000000000000
  0
LINE
  5
22C
100
AcDbEntity
  8
MAIN0
  6
CONTINUOUS
 62
3
100
AcDbLine
 10
309.0732488469476
 20
133.3555315633164
 30
0.0000000000000000
 11
307.6298731739735
 21
135.8555315633164
 31
0.0000000000000000
  0
LINE
  5
22D
100
AcDbEntity
  8
MAIN0
  6
CONTINUOUS
 62
3
100
AcDbLine
 10
307.6298731739735
 20
135.8555315633165
 30
0.0000000000000000
 11
309.0732488469476
 21
138.3555315633164
 31
0.0000000000000000
  0
LINE
  5
22E
100
AcDbEntity
  8
MAIN0
  6
CONTINUOUS
 62
3
100
AcDbLine
 10
299.2290549641933
 20
192.1776951346596
 30
0.0000000000000000
 11
296.7541812300404
 21
194.6525688688126
 31
0.0000000000000000
  0
LINE
  5
22F
100
AcDbEntity
  8
MAIN0
  6
CONTINUOUS
 62
3
100
AcDbLine
 10
299.2290549641934
 20
194.6525688688125
 30
0.0000000000000000
 11
296.7541812300405
 21
192.1776951346596
 31
0.0000000000000000
  0
LINE
  5
230
100
AcDbEntity
  8
MAIN0
  6
CONTINUOUS
 62
3
100
AcDbLine
 10
299.2290549641933
 20
175.1776951346595
 30
0.0000000000000000
 11
296.7541812300404
 21
177.6525688688125
 31
0.0000000000000000
  0
LINE
  5
231
100
AcDbEntity
  8
MAIN0
  6
CONTINUOUS
 62
3
100
AcDbLine
 10
299.2290549641934
 20
177.6525688688124
 30
0.0000000000000000
 11
296.7541812300405
 21
175.1776951346594
 31
0.0000000000000000
  0
LINE
  5
232
100
AcDbEntity
  8
MAIN0
  6
CONTINUOUS
 62
3
100
AcDbLine
 10
324.9916180971172
 20
173.4151320017360
 30
0.0000000000000000
 11
324.9916180971172
 21
196.4151320017360
 31
0.0000000000000000
  0
LINE
  5
233
100
AcDbEntity
  8
MAIN0
  6
HIDDEN
 62
3
100
AcDbLine
 10
290.1159910745196
 20
173.4151320017360
 30
0.0000000000000000
 11
289.9159910745196
 21
173.6151320017360
 31
0.0000000000000000
  0
LINE
  5
234
100
AcDbEntity
  8
MAIN0
  6
HIDDEN
 62
3
100
AcDbLine
 10
289.9159910745196
 20
196.2151320017360
 30
0.0000000000000000
 11
290.1159910745197
 21
196.4151320017361
 31
0.0000000000000000
  0
LINE
  5
235
100
AcDbEntity
  8
MAIN0
  6
CONTINUOUS
 62
3
100
AcDbLine
 10
302.4916180971172
 20
196.4151320017360
 30
0.0000000000000000
 11
302.4916180971172
 21
189.9151320017360
 31
0.0000000000000000
  0
LINE
  5
236
100
AcDbEntity
  8
MAIN0
  6
CONTINUOUS
 62
3
100
AcDbLine
 10
302.4916180971172
 20
179.9151320017360
 30
0.0000000000000000
 11
302.4916180971172
 21
173.4151320017360
 31
0.0000000000000000
  0
LINE
  5
237
100
AcDbEntity
  8
MAIN0
  6
HIDDEN
 62
3
100
AcDbLine
 10
294.9916180971003
 20
196.4151320017360
 30
0.0000000000000000
 11
294.9916180970943
 21
188.6701286728155
 31
0.0000000000000000
  0
LINE
  5
238
100
AcDbEntity
  8
MAIN0
  6
HIDDEN
 62
3
100
AcDbLine
 10
294.9916180970884
 20
181.1601353306626
 30
0.0000000000000000
 11
294.9916180970823
 21
173.4151320017360
 31
0.0000000000000000
  0
ARC
  5
239
100
AcDbEntity
  8
MAIN0
  6
HIDDEN
 62
3
100
AcDbCircle
 10
298.9416180971172
 20
184.9151320017360
 30
0.0000000000000000
 40
5.450000000000000
100
AcDbArc
 50
113.4466172550466
 51
246.5533827449538
  0
LINE
  5
23A
100
AcDbEntity
  8
MAIN0
  6
CONTINUOUS
 62
3
100
AcDbLine
 10
287.3916180971056
 20
171.4151320017495
 30
0.0000000000000000
 11
302.3916180971056
 21
171.4151320017487
 31
0.0000000000000000
  0
LINE
  5
23B
100
AcDbEntity
  8
MAIN0
  6
CONTINUOUS
 62
3
100
AcDbLine
 10
287.3916180971199
 20
198.4151320017494
 30
0.0000000000000000
 11
302.3916180971199
 21
198.4151320017486
 31
0.0000000000000000
  0
LINE
  5
23C
100
AcDbEntity
  8
MAIN0
  6
CONTINUOUS
 62
3
100
AcDbLine
 10
287.3916180971198
 20
198.4151320017494
 30
0.0000000000000000
 11
287.3916180971056
 21
171.4151320017494
 31
0.0000000000000000
  0
CIRCLE
  5
23D
100
AcDbEntity
  8
MAIN0
  6
CONTINUOUS
 62
3
100
AcDbCircle
 10
297.9916180971172
 20
193.4151320017360
 30
0.0000000000000000
 40
3.150000000000000
  0
LINE
  5
23E
100
AcDbEntity
  8
MAIN0
  6
CENTER
 62
3
100
AcDbLine
 10
297.9916180971172
 20
189.2651320017359
 30
0.0000000000000000
 11
297.9916180971172
 21
197.5651320017360
 31
0.0000000000000000
  0
LINE
  5
23F
100
AcDbEntity
  8
MAIN0
  6
CENTER
 62
3
100
AcDbLine
 10
302.1416180971172
 20
193.4151320017360
 30
0.0000000000000000
 11
293.8416180971173
 21
193.4151320017360
 31
0.0000000000000000
  0
LINE
  5
240
100
AcDbEntity
  8
MAIN0
  6
CONTINUOUS
 62
3
100
AcDbLine
 10
302.3916180971198
 20
198.4151320017484
 30
0.0000000000000000
 11
302.3916180971155
 21
190.1651320017343
 31
0.0000000000000000
  0
LINE
  5
241
100
AcDbEntity
  8
MAIN0
  6
CONTINUOUS
 62
3
100
AcDbLine
 10
302.3916180971099
 20
179.6651320017343
 30
0.0000000000000000
 11
302.3916180971056
 21
171.4151320017484
 31
0.0000000000000000
  0
LINE
  5
242
100
AcDbEntity
  8
MAIN0
  6
CONTINUOUS
 62
3
100
AcDbLine
 10
302.3916180971099
 20
179.6651320017344
 30
0.0000000000000000
 11
299.6416180971127
 21
179.6651320017358
 31
0.0000000000000000
  0
LINE
  5
243
100
AcDbEntity
  8
MAIN0
  6
CONTINUOUS
 62
3
100
AcDbLine
 10
302.3916180971155
 20
190.1651320017344
 30
0.0000000000000000
 11
299.1416180971155
 21
190.1651320017361
 31
0.0000000000000000
  0
CIRCLE
  5
244
100
AcDbEntity
  8
MAIN0
  6
CONTINUOUS
 62
3
100
AcDbCircle
 10
297.9916180971172
 20
176.4151320017357
 30
0.0000000000000000
 40
3.150000000000000
  0
LINE
  5
245
100
AcDbEntity
  8
MAIN0
  6
CENTER
 62
3
100
AcDbLine
 10
297.9916180971172
 20
180.5651320017358
 30
0.0000000000000000
 11
297.9916180971172
 21
172.2651320017359
 31
0.0000000000000000
  0
LINE
  5
246
100
AcDbEntity
  8
MAIN0
  6
CENTER
 62
3
100
AcDbLine
 10
302.1416180971172
 20
176.4151320017357
 30
0.0000000000000000
 11
293.8416180971173
 21
176.4151320017357
 31
0.0000000000000000
  0
LINE
  5
247
100
AcDbEntity
  8
MAIN0
  6
CONTINUOUS
 62
3
100
AcDbLine
 10
302.3916180971155
 20
179.6651320017372
 30
0.0000000000000000
 11
299.1416180971155
 21
179.6651320017355
 31
0.0000000000000000
  0
LINE
  5
248
100
AcDbEntity
  8
MAIN0
  6
CONTINUOUS
 62
3
100
AcDbLine
 10
297.2416180971318
 20
187.4151320017359
 30
0.0000000000000000
 11
297.2416180971318
 21
182.4151320017360
 31
0.0000000000000000
  0
LINE
  5
249
100
AcDbEntity
  8
MAIN0
  6
CONTINUOUS
 62
3
100
AcDbLine
 10
323.2416180971319
 20
189.7151320017360
 30
0.0000000000000000
 11
323.2416180971319
 21
179.9151320017359
 31
0.0000000000000000
  0
LINE
  5
24A
100
AcDbEntity
  8
MAIN0
  6
CONTINUOUS
 62
3
100
AcDbLine
 10
299.7416180971320
 20
179.9151320017359
 30
0.0000000000000000
 11
297.2416180971319
 21
182.4151320017360
 31
0.0000000000000000
  0
LINE
  5
24B
100
AcDbEntity
  8
MAIN0
  6
CONTINUOUS
 62
3
100
AcDbLine
 10
299.7416180971320
 20
189.9151320017359
 30
0.0000000000000000
 11
297.2416180971318
 21
187.4151320017357
 31
0.0000000000000000
  0
LINE
  5
24C
100
AcDbEntity
  8
MAIN0
  6
CONTINUOUS
 62
3
100
AcDbLine
 10
323.0416180971321
 20
179.9151320017359
 30
0.0000000000000000
 11
323.2416180971320
 21
180.1151320017358
 31
0.0000000000000000
  0
LINE
  5
24D
100
AcDbEntity
  8
MAIN0
  6
CONTINUOUS
 62
3
100
AcDbLine
 10
323.0416180971320
 20
189.9151320017360
 30
0.0000000000000000
 11
323.2416180971321
 21
189.7151320017360
 31
0.0000000000000000
  0
LINE
  5
24E
100
AcDbEntity
  8
MAIN0
  6
HIDDEN
 62
3
100
AcDbLine
 10
289.9159910745198
 20
173.6151320017360
 30
0.0000000000000000
 11
289.9159910745198
 21
196.2151320017360
 31
0.0000000000000000
  0
LINE
  5
24F
100
AcDbEntity
  8
MAIN0
  6
HIDDEN
 62
3
100
AcDbLine
 10
290.1159910745198
 20
173.4151320017360
 30
0.0000000000000000
 11
302.3916180971066
 21
173.4151320017360
 31
0.0000000000000000
  0
LINE
  5
250
100
AcDbEntity
  8
MAIN0
  6
CONTINUOUS
 62
3
100
AcDbLine
 10
302.3916180971066
 20
173.4151320017360
 30
0.0000000000000000
 11
324.9916180971172
 21
173.4151320017360
 31
0.0000000000000000
  0
LINE
  5
251
100
AcDbEntity
  8
MAIN0
  6
HIDDEN
 62
3
100
AcDbLine
 10
290.1159910745197
 20
196.4151320017360
 30
0.0000000000000000
 11
302.3916180971188
 21
196.4151320017360
 31
0.0000000000000000
  0
LINE
  5
252
100
AcDbEntity
  8
MAIN0
  6
CONTINUOUS
 62
3
100
AcDbLine
 10
302.3916180971188
 20
196.4151320017360
 30
0.0000000000000000
 11
324.9916180971172
 21
196.4151320017360
 31
0.0000000000000000
  0
ARC
  5
253
100
AcDbEntity
  8
MAIN0
  6
CONTINUOUS
 62
3
100
AcDbCircle
 10
299.1416180971127
 20
184.9151320017389
 30
0.0000000000000000
 40
5.249999999997224
100
AcDbArc
 50
90.00000000000000
 51
107.7527901619560
  0
ARC
  5
254
100
AcDbEntity
  8
MAIN0
  6
CONTINUOUS
 62
3
100
AcDbCircle
 10
299.1416180971127
 20
184.9151320017389
 30
0.0000000000000000
 40
5.249999999997224
100
AcDbArc
 50
107.7527901619560
 51
252.2472098382514
  0
ARC
  5
255
100
AcDbEntity
  8
MAIN0
  6
CONTINUOUS
 62
3
100
AcDbCircle
 10
299.1416180971127
 20
184.9151320017389
 30
0.0000000000000000
 40
5.249999999997224
100
AcDbArc
 50
252.2472098382514
 51
270.0000000000000
  0
LINE
  5
256
100
AcDbEntity
  8
MAIN0
  6
HIDDEN
 62
3
100
AcDbLine
 10
294.9916180970952
 20
189.9151320017360
 30
0.0000000000000000
 11
296.7730932528970
 21
189.9151320017360
 31
0.0000000000000000
  0
LINE
  5
257
100
AcDbEntity
  8
MAIN0
  6
HIDDEN
 62
3
100
AcDbLine
 10
294.9916180970873
 20
179.9151320017360
 30
0.0000000000000000
 11
296.7730932528971
 21
179.9151320017360
 31
0.0000000000000000
  0
LINE
  5
258
100
AcDbEntity
  8
MAIN0
  6
HIDDEN
 62
3
100
AcDbLine
 10
296.7730932528971
 20
179.9151320017360
 30
0.0000000000000000
 11
297.5408370377727
 21
179.9151320017360
 31
0.0000000000000000
  0
LINE
  5
259
100
AcDbEntity
  8
MAIN0
  6
CONTINUOUS
 62
3
100
AcDbLine
 10
297.5408370377727
 20
179.9151320017360
 30
0.0000000000000000
 11
324.9916180971172
 21
179.9151320017360
 31
0.0000000000000000
  0
LINE
  5
25A
100
AcDbEntity
  8
MAIN0
  6
HIDDEN
 62
3
100
AcDbLine
 10
296.7730932528970
 20
189.9151320017360
 30
0.0000000000000000
 11
297.5408370377546
 21
189.9151320017360
 31
0.0000000000000000
  0
LINE
  5
25B
100
AcDbEntity
  8
MAIN0
  6
CONTINUOUS
 62
3
100
AcDbLine
 10
297.5408370377546
 20
189.9151320017360
 30
0.0000000000000000
 11
324.9916180971172
 21
189.9151320017360
 31
0.0000000000000000
  0
LINE
  5
25C
100
AcDbEntity
  8
MAIN0
  6
CONTINUOUS
 62
3
100
AcDbLine
 10
323.0261788320798
 20
202.0651320017361
 30
0.0000000000000000
 11
324.9916180971173
 21
196.4151320017360
 31
0.0000000000000000
  0
LINE
  5
25D
100
AcDbEntity
  8
MAIN0
  6
CONTINUOUS
 62
3
100
AcDbLine
 10
323.0261788320797
 20
167.7651320017361
 30
0.0000000000000000
 11
324.9916180971172
 21
173.4151320017360
 31
0.0000000000000000
  0
LINE
  5
25E
100
AcDbEntity
  8
MAIN0
  6
CONTINUOUS
 62
3
100
AcDbLine
 10
353.2003037514364
 20
100.2055489672108
 30
0.0000000000000000
 11
353.2003037514364
 21
77.60554896721088
 31
0.0000000000000000
  0
LINE
  5
25F
100
AcDbEntity
  8
MAIN0
  6
CONTINUOUS
 62
3
100
AcDbLine
 10
357.2003037514364
 20
105.8555489672109
 30
0.0000000000000000
 11
357.2003037514364
 21
100.4055489672108
 31
0.0000000000000000
  0
LINE
  5
260
100
AcDbEntity
  8
MAIN0
  6
CONTINUOUS
 62
3
100
AcDbLine
 10
357.2003037514364
 20
77.40554896721082
 30
0.0000000000000000
 11
357.2003037514364
 21
71.95554896721077
 31
0.0000000000000000
  0
LINE
  5
261
100
AcDbEntity
  8
MAIN0
  6
CONTINUOUS
 62
3
100
AcDbLine
 10
357.4003037514364
 20
106.0555489672109
 30
0.0000000000000000
 11
357.2003037514364
 21
105.8555489672109
 31
0.0000000000000000
  0
LINE
  5
262
100
AcDbEntity
  8
MAIN0
  6
CONTINUOUS
 62
3
100
AcDbLine
 10
357.2003037514364
 20
71.95554896721089
 30
0.0000000000000000
 11
357.4003037514364
 21
71.75554896721084
 31
0.0000000000000000
  0
LINE
  5
263
100
AcDbEntity
  8
MAIN0
  6
CONTINUOUS
 62
3
100
AcDbLine
 10
353.4003037514364
 20
77.40554896721088
 30
0.0000000000000000
 11
353.2003037514363
 21
77.60554896721095
 31
0.0000000000000000
  0
LINE
  5
264
100
AcDbEntity
  8
MAIN0
  6
CONTINUOUS
 62
3
100
AcDbLine
 10
353.4003037514364
 20
100.4055489672109
 30
0.0000000000000000
 11
353.2003037514364
 21
100.2055489672109
 31
0.0000000000000000
  0
LINE
  5
265
100
AcDbEntity
  8
MAIN0
  6
CONTINUOUS
 62
3
100
AcDbLine
 10
384.2003037514117
 20
83.90554896721072
 30
0.0000000000000000
 11
385.2003037514363
 21
83.32819869800677
 31
0.0000000000000000
  0
LINE
  5
266
100
AcDbEntity
  8
MAIN0
  6
CONTINUOUS
 62
3
100
AcDbLine
 10
384.2003037514119
 20
93.90554896721076
 30
0.0000000000000000
 11
385.2003037514364
 21
94.48289923641468
 31
0.0000000000000000
  0
LINE
  5
267
100
AcDbEntity
  8
MAIN0
  6
CONTINUOUS
 62
3
100
AcDbLine
 10
369.3760396827244
 20
83.22981303591460
 30
0.0000000000000000
 11
371.2745678201408
 21
81.33128489849877
 31
0.0000000000000000
  0
LINE
  5
268
100
AcDbEntity
  8
MAIN0
  6
CONTINUOUS
 62
3
100
AcDbLine
 10
371.2745678201695
 20
96.47981303592265
 30
0.0000000000000000
 11
369.3760396827244
 21
94.58128489847685
 31
0.0000000000000000
  0
ARC
  5
269
100
AcDbEntity
  8
MAIN0
  6
CONTINUOUS
 62
3
100
AcDbCircle
 10
369.8003037514363
 20
94.15702082976495
 30
0.0000000000000000
 40
0.6000000000000000
100
AcDbArc
 50
135.0000000000124
 51
180.0000000000000
  0
ARC
  5
26A
100
AcDbEntity
  8
MAIN0
  6
CONTINUOUS
 62
3
100
AcDbCircle
 10
371.6988318888814
 20
96.05554896721080
 30
0.0000000000000000
 40
0.6000000000000000
100
AcDbArc
 50
90.00000000000000
 51
135.0000000000120
  0
ARC
  5
26B
100
AcDbEntity
  8
MAIN0
  6
CONTINUOUS
 62
3
100
AcDbCircle
 10
371.6988318888526
 20
81.75554896721084
 30
0.0000000000000000
 40
0.6000000000000000
100
AcDbArc
 50
225.0000000000079
 51
270.0000000000000
  0
ARC
  5
26C
100
AcDbEntity
  8
MAIN0
  6
CONTINUOUS
 62
3
100
AcDbCircle
 10
369.8003037514363
 20
83.65407710462668
 30
0.0000000000000000
 40
0.6000000000000000
100
AcDbArc
 50
180.0000000000000
 51
225.0000000000076
  0
LINE
  5
26D
100
AcDbEntity
  8
MAIN0
  6
CONTINUOUS
 62
3
100
AcDbLine
 10
375.2003037516244
 20
93.90554896721095
 30
0.0000000000000000
 11
387.5003037516244
 21
93.90554896721095
 31
0.0000000000000000
  0
LINE
  5
26E
100
AcDbEntity
  8
MAIN0
  6
CONTINUOUS
 62
3
100
AcDbLine
 10
387.7003037516243
 20
84.10554896721109
 30
0.0000000000000000
 11
387.7003037516243
 21
93.70554896721100
 31
0.0000000000000000
  0
LINE
  5
26F
100
AcDbEntity
  8
MAIN0
  6
CONTINUOUS
 62
3
100
AcDbLine
 10
375.2003037516243
 20
93.90554896721095
 30
0.0000000000000000
 11
375.2003037516243
 21
95.55554896721104
 31
0.0000000000000000
  0
LINE
  5
270
100
AcDbEntity
  8
MAIN0
  6
CONTINUOUS
 62
3
100
AcDbLine
 10
369.7003037516242
 20
84.15554896721079
 30
0.0000000000000000
 11
369.7003037516242
 21
93.65554896721079
 31
0.0000000000000000
  0
LINE
  5
271
100
AcDbEntity
  8
MAIN0
  6
CONTINUOUS
 62
3
100
AcDbLine
 10
375.2003037516244
 20
83.90554896721095
 30
0.0000000000000000
 11
387.5003037516243
 21
83.90554896721095
 31
0.0000000000000000
  0
LINE
  5
272
100
AcDbEntity
  8
MAIN0
  6
CONTINUOUS
 62
3
100
AcDbLine
 10
375.2003037516244
 20
82.25554896721083
 30
0.0000000000000000
 11
375.2003037516244
 21
83.90554896721092
 31
0.0000000000000000
  0
LINE
  5
273
100
AcDbEntity
  8
MAIN0
  6
CONTINUOUS
 62
3
100
AcDbLine
 10
387.7003037516244
 20
84.10554896721104
 30
0.0000000000000000
 11
387.5003037516244
 21
83.90554896721105
 31
0.0000000000000000
  0
LINE
  5
274
100
AcDbEntity
  8
MAIN0
  6
CONTINUOUS
 62
3
100
AcDbLine
 10
387.7003037516242
 20
93.70554896721096
 30
0.0000000000000000
 11
387.5003037516242
 21
93.90554896721092
 31
0.0000000000000000
  0
LINE
  5
275
100
AcDbEntity
  8
MAIN0
  6
CONTINUOUS
 62
3
100
AcDbLine
 10
372.2003037516241
 20
96.15554896721095
 30
0.0000000000000000
 11
374.6003037516243
 21
96.15554896721095
 31
0.0000000000000000
  0
LINE
  5
276
100
AcDbEntity
  8
MAIN0
  6
CONTINUOUS
 62
3
100
AcDbLine
 10
372.2003037516241
 20
81.65554896721095
 30
0.0000000000000000
 11
374.6003037516243
 21
81.65554896721095
 31
0.0000000000000000
  0
LINE
  5
277
100
AcDbEntity
  8
MAIN0
  6
CONTINUOUS
 62
3
100
AcDbLine
 10
375.2003037516242
 20
82.25554896721090
 30
0.0000000000000000
 11
374.6003037516242
 21
81.65554896721093
 31
0.0000000000000000
  0
LINE
  5
278
100
AcDbEntity
  8
MAIN0
  6
CONTINUOUS
 62
3
100
AcDbLine
 10
374.6003037516244
 20
96.15554896721105
 30
0.0000000000000000
 11
375.2003037516244
 21
95.55554896721105
 31
0.0000000000000000
  0
LINE
  5
279
100
AcDbEntity
  8
MAIN0
  6
CONTINUOUS
 62
3
100
AcDbLine
 10
372.2003037516243
 20
96.15554896721083
 30
0.0000000000000000
 11
369.7003037516243
 21
93.65554896721082
 31
0.0000000000000000
  0
LINE
  5
27A
100
AcDbEntity
  8
MAIN0
  6
CONTINUOUS
 62
3
100
AcDbLine
 10
369.7003037516242
 20
84.15554896721073
 30
0.0000000000000000
 11
372.2003037516241
 21
81.65554896721082
 31
0.0000000000000000
  0
LINE
  5
27B
100
AcDbEntity
  8
MAIN0
  6
HIDDEN
 62
3
100
AcDbLine
 10
387.7003037516247
 20
84.90554896720765
 30
0.0000000000000000
 11
369.7003037516247
 21
84.90554896720765
 31
0.0000000000000000
  0
LINE
  5
27C
100
AcDbEntity
  8
MAIN0
  6
HIDDEN
 62
3
100
AcDbLine
 10
369.7003037516246
 20
85.50554896718512
 30
0.0000000000000000
 11
387.7003037516246
 21
85.50554896719328
 31
0.0000000000000000
  0
LINE
  5
27D
100
AcDbEntity
  8
MAIN0
  6
HIDDEN
 62
3
100
AcDbLine
 10
369.7003037516240
 20
92.30554896717065
 30
0.0000000000000000
 11
387.7003037516240
 21
92.30554896717815
 31
0.0000000000000000
  0
LINE
  5
27E
100
AcDbEntity
  8
MAIN0
  6
HIDDEN
 62
3
100
AcDbLine
 10
387.7003037516240
 20
92.90554896720782
 30
0.0000000000000000
 11
369.7003037516240
 21
92.90554896720782
 31
0.0000000000000000
  0
LINE
  5
27F
100
AcDbEntity
  8
MAIN0
  6
CONTINUOUS
 62
3
100
AcDbLine
 10
353.4003037514364
 20
100.4055489672108
 30
0.0000000000000000
 11
357.2003037514364
 21
100.4055489672108
 31
0.0000000000000000
  0
LINE
  5
280
100
AcDbEntity
  8
MAIN0
  6
CONTINUOUS
 62
3
100
AcDbLine
 10
369.2003037514364
 20
100.4055489672108
 30
0.0000000000000000
 11
370.1003037514364
 21
100.4055489672108
 31
0.0000000000000000
  0
LINE
  5
281
100
AcDbEntity
  8
MAIN0
  6
CONTINUOUS
 62
3
100
AcDbLine
 10
353.4003037514364
 20
77.40554896721082
 30
0.0000000000000000
 11
357.2003037514364
 21
77.40554896721082
 31
0.0000000000000000
  0
LINE
  5
282
100
AcDbEntity
  8
MAIN0
  6
CONTINUOUS
 62
3
100
AcDbLine
 10
369.2003037514364
 20
77.40554896721082
 30
0.0000000000000000
 11
370.4764850626395
 21
77.40554896721082
 31
0.0000000000000000
  0
LINE
  5
283
100
AcDbEntity
  8
MAIN0
  6
CONTINUOUS
 62
3
100
AcDbLine
 10
382.2003037516254
 20
77.20554896720888
 30
0.0000000000000000
 11
382.2003037516254
 21
68.46643482613779
 31
0.0000000000000000
  0
LINE
  5
284
100
AcDbEntity
  8
MAIN0
  6
CENTER
 62
3
100
AcDbLine
 10
186.6963285818143
 20
184.9151320017358
 30
0.0000000000000000
 11
51.30497528101033
 21
184.9151320017359
 31
0.0000000000000000
  0
LINE
  5
285
100
AcDbEntity
  8
MAIN0
  6
CONTINUOUS
 62
3
100
AcDbLine
 10
55.75901557620863
 20
110.9151320015980
 30
0.0000000000000000
 11
70.75901557620861
 21
110.9151320016028
 31
0.0000000000000000
  0
LINE
  5
286
100
AcDbEntity
  8
MAIN0
  6
CONTINUOUS
 62
3
100
AcDbLine
 10
55.75901557620978
 20
258.9151320013816
 30
0.0000000000000000
 11
70.75901557620975
 21
258.9151320013939
 31
0.0000000000000000
  0
LINE
  5
287
100
AcDbEntity
  8
MAIN0
  6
CONTINUOUS
 62
3
100
AcDbLine
 10
55.75901557620860
 20
110.9151320015980
 30
0.0000000000000000
 11
55.75901557620976
 21
258.9151320013816
 31
0.0000000000000000
  0
LINE
  5
288
100
AcDbEntity
  8
MAIN0
  6
CENTER
 62
3
100
AcDbLine
 10
74.50081951031706
 20
249.9151320017360
 30
0.0000000000000000
 11
51.34822581389457
 21
249.9151320017360
 31
0.0000000000000000
  0
LINE
  5
289
100
AcDbEntity
  8
MAIN0
  6
CENTER
 62
3
100
AcDbLine
 10
84.52753572523298
 20
233.6651320017360
 30
0.0000000000000000
 11
52.46135819491576
 21
233.6651320017360
 31
0.0000000000000000
  0
LINE
  5
28A
100
AcDbEntity
  8
MAIN0
  6
CONTINUOUS
 62
3
100
AcDbLine
 10
60.75901557620909
 20
174.9151320017360
 30
0.0000000000000000
 11
60.75901557620925
 21
194.9151320017360
 31
0.0000000000000000
  0
LINE
  5
28B
100
AcDbEntity
  8
MAIN0
  6
CONTINUOUS
 62
3
100
AcDbLine
 10
60.75901557620927
 20
194.9151320017360
 30
0.0000000000000000
 11
55.75901557620924
 21
194.9151320017360
 31
0.0000000000000000
  0
LINE
  5
28C
100
AcDbEntity
  8
MAIN0
  6
CONTINUOUS
 62
3
100
AcDbLine
 10
60.75901557620909
 20
174.9151320017360
 30
0.0000000000000000
 11
55.75901557620909
 21
174.9151320017360
 31
0.0000000000000000
  0
LINE
  5
28D
100
AcDbEntity
  8
MAIN0
  6
CENTER
 62
3
100
AcDbLine
 10
63.25901557620884
 20
108.8760783559243
 30
0.0000000000000000
 11
63.25901557620884
 21
158.0984937779065
 31
0.0000000000000000
  0
LINE
  5
28E
100
AcDbEntity
  8
MAIN0
  6
HIDDEN
 62
3
100
AcDbLine
 10
70.75901557620973
 20
254.4151320017360
 30
0.0000000000000000
 11
55.75901557620973
 21
254.4151320017360
 31
0.0000000000000000
  0
LINE
  5
28F
100
AcDbEntity
  8
MAIN0
  6
HIDDEN
 62
3
100
AcDbLine
 10
70.75901557620966
 20
245.4151320017360
 30
0.0000000000000000
 11
55.75901557620965
 21
245.4151320017360
 31
0.0000000000000000
  0
LINE
  5
290
100
AcDbEntity
  8
MAIN0
  6
CENTER
 62
3
100
AcDbLine
 10
68.91666329506874
 20
150.9151320017360
 30
0.0000000000000000
 11
52.14808827590944
 21
150.9151320017360
 31
0.0000000000000000
  0
LINE
  5
291
100
AcDbEntity
  8
MAIN0
  6
HIDDEN
 62
3
100
AcDbLine
 10
55.75901557620895
 20
155.1668820017360
 30
0.0000000000000000
 11
59.71552640381383
 21
155.0432410383735
 31
0.0000000000000000
  0
LINE
  5
292
100
AcDbEntity
  8
MAIN0
  6
HIDDEN
 62
3
100
AcDbLine
 10
55.75901557620885
 20
146.6633820017359
 30
0.0000000000000000
 11
59.50832131200775
 21
146.7805478059797
 31
0.0000000000000000
  0
LINE
  5
293
100
AcDbEntity
  8
MAIN0
  6
HIDDEN
 62
3
100
AcDbLine
 10
55.75901557620894
 20
155.7478820017360
 30
0.0000000000000000
 11
59.71281154661220
 21
155.6243258776609
 31
0.0000000000000000
  0
LINE
  5
294
100
AcDbEntity
  8
MAIN0
  6
HIDDEN
 62
3
100
AcDbLine
 10
55.75901557620887
 20
146.0823820017359
 30
0.0000000000000000
 11
59.19512204178079
 21
146.1897603287850
 31
0.0000000000000000
  0
LINE
  5
295
100
AcDbEntity
  8
MAIN0
  6
CONTINUOUS
 62
3
100
AcDbLine
 10
70.75901557620917
 20
109.4151320017445
 30
0.0000000000000000
 11
70.75901557620976
 21
258.9151320013938
 31
0.0000000000000000
  0
LINE
  5
296
100
AcDbEntity
  8
MAIN0
  6
CENTER
 62
3
100
AcDbLine
 10
269.4903450782928
 20
266.9819225400985
 30
0.0000000000000000
 11
269.4903450782928
 21
97.61622783375051
 31
0.0000000000000000
  0
LINE
  5
297
100
AcDbEntity
  8
MAIN0
  6
CENTER
 62
3
100
AcDbLine
 10
208.5221566518683
 20
220.1151320017361
 30
0.0000000000000000
 11
217.8752310127402
 21
214.7151320017361
 31
0.0000000000000000
  0
LINE
  5
298
100
AcDbEntity
  8
MAIN0
  6
CENTER
 62
3
100
AcDbLine
 10
330.9781487469879
 20
149.4151320017361
 30
0.0000000000000000
 11
320.5858439015747
 21
155.4151320017361
 31
0.0000000000000000
  0
LINE
  5
299
100
AcDbEntity
  8
MAIN0
  6
CENTER
 62
3
100
AcDbLine
 10
266.6328924120443
 20
156.8643851999016
 30
0.0000000000000000
 11
272.9849947096793
 21
145.8622212855227
 31
0.0000000000000000
  0
LINE
  5
29A
100
AcDbEntity
  8
MAIN0
  6
CENTER
 62
3
100
AcDbLine
 10
270.1808833796581
 20
144.0569669321401
 30
0.0000000000000000
 11
269.9489014444304
 21
157.7830067245102
 31
0.0000000000000000
  0
ARC
  5
29B
100
AcDbEntity
  8
MAIN0
  6
CENTER
 62
3
100
AcDbCircle
 10
269.4903450782928
 20
184.9151320017360
 30
0.0000000000000000
 40
33.99999999999998
100
AcDbArc
 50
259.3942434356471
 51
343.0128098246902
  0
LINE
  5
29C
100
AcDbEntity
  8
MAIN0
  6
CENTER
 62
3
100
AcDbLine
 10
304.5292848298981
 20
163.8880257556696
 30
0.0000000000000000
 11
292.7581766439633
 21
170.9519479009809
 31
0.0000000000000000
  0
LINE
  5
29D
100
AcDbEntity
  8
MAIN0
  6
CENTER
 62
3
100
AcDbLine
 10
295.2117307369308
 20
173.3643851999016
 30
0.0000000000000000
 11
301.5221233706712
 21
162.4344645425547
 31
0.0000000000000000
  0
CIRCLE
  5
29E
100
AcDbEntity
  8
MAIN0
  6
CONTINUOUS
 62
3
100
AcDbCircle
 10
206.7051663695034
 20
201.7383699333999
 30
0.0000000000000000
 40
4.500000000000000
  0
CIRCLE
  5
29F
100
AcDbEntity
  8
MAIN0
  6
CONTINUOUS
 62
3
100
AcDbCircle
 10
332.2755237870823
 20
168.0918940700722
 30
0.0000000000000000
 40
4.500000000000000
  0
CIRCLE
  5
2A0
100
AcDbEntity
  8
MAIN0
  6
CONTINUOUS
 62
3
100
AcDbCircle
 10
252.6671071466289
 20
122.1299532929467
 30
0.0000000000000000
 40
4.500000000000000
  0
CIRCLE
  5
2A1
100
AcDbEntity
  8
MAIN0
  6
CONTINUOUS
 62
3
100
AcDbCircle
 10
286.3135830099565
 20
247.7003107105255
 30
0.0000000000000000
 40
4.500000000000000
  0
CIRCLE
  5
2A2
100
AcDbEntity
  8
MAIN0
  6
CONTINUOUS
 62
3
100
AcDbCircle
 10
334.4903450782927
 20
184.9151320017359
 30
0.0000000000000000
 40
5.000000000000000
  0
ARC
  5
2A3
100
AcDbEntity
  8
MAIN0
  6
CONTINUOUS
 62
3
100
AcDbCircle
 10
204.4903450782927
 20
184.9151320017361
 30
0.0000000000000000
 40
5.000000000000000
100
AcDbArc
 50
31.81601193316148
 51
328.1839880668343
  0
LINE
  5
2A4
100
AcDbEntity
  8
MAIN0
  6
CENTER
 62
3
100
AcDbLine
 10
255.0031539500528
 20
130.8481986521838
 30
0.0000000000000000
 11
248.8739542290355
 21
107.9737138836103
 31
0.0000000000000000
  0
LINE
  5
2A5
100
AcDbEntity
  8
MAIN0
  6
CENTER
 62
3
100
AcDbLine
 10
289.1605925060843
 20
258.3254947997052
 30
0.0000000000000000
 11
284.5783222411173
 21
241.2242293568364
 31
0.0000000000000000
  0
LINE
  5
2A6
100
AcDbEntity
  8
MAIN0
  6
CENTER
 62
3
100
AcDbLine
 10
199.3426945095950
 20
203.7111383225592
 30
0.0000000000000000
 11
218.2827074510842
 21
198.6361771502522
 31
0.0000000000000000
  0
LINE
  5
2A7
100
AcDbEntity
  8
MAIN0
  6
CENTER
 62
3
100
AcDbLine
 10
322.7774786165121
 20
170.6368876032008
 30
0.0000000000000000
 11
349.2910688345809
 21
163.5325925158196
 31
0.0000000000000000
  0
ARC
  5
2A8
100
AcDbEntity
  8
MAIN0
  6
HIDDEN
 62
3
100
AcDbCircle
 10
269.4903450782928
 20
184.9151320017360
 30
0.0000000000000000
 40
74.00000000000000
100
AcDbArc
 50
267.2795566335885
 51
332.7204433663400
  0
ARC
  5
2A9
100
AcDbEntity
  8
MAIN0
  6
CENTER
 62
3
100
AcDbCircle
 10
269.4903450782928
 20
184.9151320017360
 30
0.0000000000000000
 40
65.00000000000001
100
AcDbArc
 50
325.0945450906841
 51
459.0179835690072
  0
ARC
  5
2AA
100
AcDbEntity
  8
MAIN0
  6
CONTINUOUS
 62
3
100
AcDbCircle
 10
269.4903450782928
 20
184.9151320017360
 30
0.0000000000000000
 40
74.00000000000000
100
AcDbArc
 50
332.7204433663400
 51
529.7647382910035
  0
ARC
  5
2AB
100
AcDbEntity
  8
MAIN0
  6
CONTINUOUS
 62
3
100
AcDbCircle
 10
269.4903450782928
 20
184.9151320017360
 30
0.0000000000000000
 40
74.00000000000000
100
AcDbArc
 50
177.1648933601493
 51
267.2795566335884
  0
ARC
  5
2AC
100
AcDbEntity
  8
MAIN0
  6
CENTER
 62
3
100
AcDbCircle
 10
269.4903450782928
 20
184.9151320017360
 30
0.0000000000000000
 40
65.00000000000001
100
AcDbArc
 50
139.7354548869743
 51
230.0956515653187
  0
ARC
  5
2AD
100
AcDbEntity
  8
MAIN0
  6
CENTER
 62
3
100
AcDbCircle
 10
269.4903450782928
 20
184.9151320017360
 30
0.0000000000000000
 40
65.00000000000001
100
AcDbArc
 50
249.8907291752971
 51
274.0671934184900
  0
LINE
  5
2AE
100
AcDbEntity
  8
MAIN0
  6
CENTER
 62
3
100
AcDbLine
 10
193.1880520368419
 20
184.9151320017360
 30
0.0000000000000000
 11
253.6057846206854
 21
184.9151320017360
 31
0.0000000000000000
  0
LINE
  5
2AF
100
AcDbEntity
  8
MAIN0
  6
CENTER
 62
3
100
AcDbLine
 10
259.7057845253179
 20
184.9151320017360
 30
0.0000000000000000
 11
269.4903450782928
 21
184.9151320017360
 31
0.0000000000000000
  0
LINE
  5
2B0
100
AcDbEntity
  8
MAIN0
  6
CENTER
 62
3
100
AcDbLine
 10
330.6048449985249
 20
147.4534710641784
 30
0.0000000000000000
 11
272.0002949215341
 21
113.6181183014911
 31
0.0000000000000000
  0
LINE
  5
2B1
100
AcDbEntity
  8
MAIN0
  6
CONTINUOUS
 62
3
100
AcDbLine
 10
341.8813612296328
 20
139.5302140159892
 30
0.0000000000000000
 11
272.5993289268777
 21
99.53021401598923
 31
0.0000000000000000
  0
LINE
  5
2B2
100
AcDbEntity
  8
MAIN0
  6
CONTINUOUS
 62
3
100
AcDbLine
 10
341.8813612296328
 20
139.5302140159891
 30
0.0000000000000000
 11
331.8813612296387
 21
156.8507220916812
 31
0.0000000000000000
  0
LINE
  5
2B3
100
AcDbEntity
  8
MAIN0
  6
CONTINUOUS
 62
3
100
AcDbLine
 10
272.5993289268777
 20
99.53021401598926
 30
0.0000000000000000
 11
262.5993289268836
 21
116.8507220916814
 31
0.0000000000000000
  0
LINE
  5
2B4
100
AcDbEntity
  8
MAIN0
  6
CENTER
 62
3
100
AcDbLine
 10
311.1369021323368
 20
112.7811792238158
 30
0.0000000000000000
 11
269.4903450782929
 21
184.9151320017361
 31
0.0000000000000000
  0
CIRCLE
  5
2B5
100
AcDbEntity
  8
MAIN0
  6
CONTINUOUS
 62
3
100
AcDbCircle
 10
310.5166245199217
 20
135.8555315633164
 30
0.0000000000000000
 40
5.500000000000000
  0
LINE
  5
2B6
100
AcDbEntity
  8
MAIN0
  6
CENTER
 62
3
100
AcDbLine
 10
306.7666245199217
 20
142.3507220916997
 30
0.0000000000000000
 11
314.2666245199217
 21
129.3603410349331
 31
0.0000000000000000
  0
LINE
  5
2B7
100
AcDbEntity
  8
MAIN0
  6
CENTER
 62
3
100
AcDbLine
 10
316.2961602119952
 20
150.8450821004874
 30
0.0000000000000000
 11
330.5979782465360
 21
126.0736066240577
 31
0.0000000000000000
  0
LINE
  5
2B8
100
AcDbEntity
  8
MAIN0
  6
HIDDEN
 62
3
100
AcDbLine
 10
333.2890901860231
 20
134.5694640160108
 30
0.0000000000000000
 11
328.3346952236614
 21
142.5632278115846
 31
0.0000000000000000
  0
LINE
  5
2B9
100
AcDbEntity
  8
MAIN0
  6
HIDDEN
 62
3
100
AcDbLine
 10
317.4491889107928
 20
136.2784778115846
 30
0.0000000000000000
 11
321.8947939484311
 21
127.9909640160109
 31
0.0000000000000000
  0
LINE
  5
2BA
100
AcDbEntity
  8
MAIN0
  6
HIDDEN
 62
3
100
AcDbLine
 10
332.5477724403837
 20
134.1414640160108
 30
0.0000000000000000
 11
327.5933774780220
 21
142.1352278115846
 31
0.0000000000000000
  0
LINE
  5
2BB
100
AcDbEntity
  8
MAIN0
  6
HIDDEN
 62
3
100
AcDbLine
 10
322.6361116940707
 20
128.4189640160109
 30
0.0000000000000000
 11
318.1905066564324
 21
136.7064778115846
 31
0.0000000000000000
  0
CIRCLE
  5
2BC
100
AcDbEntity
  8
MAIN0
  6
CONTINUOUS
 62
3
100
AcDbCircle
 10
291.4640656366640
 20
124.8555315633164
 30
0.0000000000000000
 40
5.500000000000000
  0
LINE
  5
2BD
100
AcDbEntity
  8
MAIN0
  6
CENTER
 62
3
100
AcDbLine
 10
287.7140656366640
 20
131.3507220916997
 30
0.0000000000000000
 11
295.2140656366640
 21
118.3603410349330
 31
0.0000000000000000
  0
LINE
  5
2BE
100
AcDbEntity
  8
MAIN0
  6
CENTER
 62
3
100
AcDbLine
 10
275.5929662341265
 20
127.3450821004874
 30
0.0000000000000000
 11
289.8947842686673
 21
102.5736066240577
 31
0.0000000000000000
  0
LINE
  5
2BF
100
AcDbEntity
  8
MAIN0
  6
HIDDEN
 62
3
100
AcDbLine
 10
281.1915999705625
 20
104.4909640160109
 30
0.0000000000000000
 11
276.7459949329242
 21
112.7784778115846
 31
0.0000000000000000
  0
LINE
  5
2C0
100
AcDbEntity
  8
MAIN0
  6
HIDDEN
 62
3
100
AcDbLine
 10
287.6315012457928
 20
119.0632278115846
 30
0.0000000000000000
 11
292.5858962081545
 21
111.0694640160109
 31
0.0000000000000000
  0
LINE
  5
2C1
100
AcDbEntity
  8
MAIN0
  6
HIDDEN
 62
3
100
AcDbLine
 10
281.9329177162020
 20
104.9189640160109
 30
0.0000000000000000
 11
277.4873126785637
 21
113.2064778115847
 31
0.0000000000000000
  0
LINE
  5
2C2
100
AcDbEntity
  8
MAIN0
  6
HIDDEN
 62
3
100
AcDbLine
 10
291.8445784625150
 20
110.6414640160109
 30
0.0000000000000000
 11
286.8901835001533
 21
118.6352278115846
 31
0.0000000000000000
  0
LINE
  5
2C3
100
AcDbEntity
  8
MAIN0
  6
CONTINUOUS
 62
3
100
AcDbLine
 10
262.5993289268835
 20
116.8507220916814
 30
0.0000000000000000
 11
331.8813612296387
 21
156.8507220916813
 31
0.0000000000000000
  0
LINE
  5
2C4
100
AcDbEntity
  8
MAIN0
  6
CONTINUOUS
 62
3
100
AcDbLine
 10
100.7590155762092
 20
109.4151320017488
 30
0.0000000000000000
 11
100.7590155762092
 21
129.4151320017610
 31
0.0000000000000000
  0
LINE
  5
2C5
100
AcDbEntity
  8
MAIN0
  6
CENTER
 62
3
100
AcDbLine
 10
57.77964460433762
 20
121.9151320017362
 30
0.0000000000000000
 11
103.1478713980983
 21
121.9151320017362
 31
0.0000000000000000
  0
LINE
  5
2C6
100
AcDbEntity
  8
MAIN0
  6
CONTINUOUS
 62
3
100
AcDbLine
 10
70.75901557620915
 20
129.4151320017610
 30
0.0000000000000000
 11
100.7590155762091
 21
129.4151320017610
 31
0.0000000000000000
  0
LINE
  5
2C7
100
AcDbEntity
  8
MAIN0
  6
CONTINUOUS
 62
3
100
AcDbLine
 10
70.75901557620914
 20
109.4151320017445
 30
0.0000000000000000
 11
100.7590155762091
 21
109.4151320017488
 31
0.0000000000000000
  0
LINE
  5
2C8
100
AcDbEntity
  8
MAIN0
  6
CENTER
 62
3
100
AcDbLine
 10
85.75901557611159
 20
103.4030596431184
 30
0.0000000000000000
 11
85.75901557611162
 21
132.0066957122002
 31
0.0000000000000000
  0
LINE
  5
2C9
100
AcDbEntity
  8
MAIN0
  6
HIDDEN
 62
3
100
AcDbLine
 10
79.18051557611155
 20
109.4151320017467
 30
0.0000000000000000
 11
79.47426557611155
 21
118.8151320017467
 31
0.0000000000000000
  0
LINE
  5
2CA
100
AcDbEntity
  8
MAIN0
  6
HIDDEN
 62
3
100
AcDbLine
 10
92.04376557611158
 20
118.8151320017467
 30
0.0000000000000000
 11
92.33751557611157
 21
109.4151320017466
 31
0.0000000000000000
  0
LINE
  5
2CB
100
AcDbEntity
  8
MAIN0
  6
HIDDEN
 62
3
100
AcDbLine
 10
80.03651557611157
 20
109.4151320017467
 30
0.0000000000000000
 11
80.33026557611157
 21
118.8151320017467
 31
0.0000000000000000
  0
LINE
  5
2CC
100
AcDbEntity
  8
MAIN0
  6
HIDDEN
 62
3
100
AcDbLine
 10
91.48151557611156
 20
109.4151320017466
 30
0.0000000000000000
 11
91.18776557611156
 21
118.8151320017467
 31
0.0000000000000000
  0
LINE
  5
2CD
100
AcDbEntity
  8
MAIN0
  6
CONTINUOUS
 62
3
100
AcDbLine
 10
71.15901557620916
 20
129.9151320016700
 30
0.0000000000000000
 11
144.1590155762092
 21
129.9151320016247
 31
0.0000000000000000
  0
LINE
  5
2CE
100
AcDbEntity
  8
MAIN0
  6
CONTINUOUS
 62
3
100
AcDbLine
 10
70.75901557620918
 20
130.3151320016704
 30
0.0000000000000000
 11
71.15901557620919
 21
129.9151320016701
 31
0.0000000000000000
  0
LINE
  5
2CF
100
AcDbEntity
  8
MAIN0
  6
CONTINUOUS
 62
3
100
AcDbLine
 10
71.15901557620924
 20
239.9151320021791
 30
0.0000000000000000
 11
70.75901557620925
 21
239.5151320021787
 31
0.0000000000000000
  0
LINE
  5
2D0
100
AcDbEntity
  8
MAIN0
  6
CONTINUOUS
 62
3
100
AcDbLine
 10
145.7590155762092
 20
131.5151320016237
 30
0.0000000000000000
 11
144.1590155762092
 21
129.9151320016247
 31
0.0000000000000000
  0
LINE
  5
2D1
100
AcDbEntity
  8
MAIN0
  6
CONTINUOUS
 62
3
100
AcDbLine
 10
144.1590155762092
 20
239.9151320022631
 30
0.0000000000000000
 11
145.7590155762092
 21
238.3151320022650
 31
0.0000000000000000
  0
LINE
  5
2D2
100
AcDbEntity
  8
MAIN0
  6
CONTINUOUS
 62
3
100
AcDbLine
 10
145.7590155762092
 20
131.5151320016237
 30
0.0000000000000000
 11
145.7590155762092
 21
207.8151320017360
 31
0.0000000000000000
  0
LINE
  5
2D3
100
AcDbEntity
  8
MAIN0
  6
CONTINUOUS
 62
3
100
AcDbLine
 10
71.15901557620927
 20
239.9151320021791
 30
0.0000000000000000
 11
116.6590155762093
 21
239.9151320022314
 31
0.0000000000000000
  0
LINE
  5
2D4
100
AcDbEntity
  8
MAIN0
  6
CONTINUOUS
 62
3
100
AcDbLine
 10
116.6590155762093
 20
239.9151320022315
 30
0.0000000000000000
 11
144.1590155762093
 21
239.9151320022631
 31
0.0000000000000000
  0
LINE
  5
2D5
100
AcDbEntity
  8
MAIN0
  6
CONTINUOUS
 62
3
100
AcDbLine
 10
116.6590155762093
 20
240.4164050205604
 30
0.0000000000000000
 11
116.6590155762093
 21
239.9151320022314
 31
0.0000000000000000
  0
LINE
  5
2D6
100
AcDbEntity
  8
MAIN0
  6
CONTINUOUS
 62
3
100
AcDbLine
 10
146.1590155762092
 20
217.9164050205605
 30
0.0000000000000000
 11
147.8099774705293
 21
217.9164050205604
 31
0.0000000000000000
  0
ARC
  5
2D7
100
AcDbEntity
  8
MAIN0
  6
CONTINUOUS
 62
3
100
AcDbCircle
 10
146.1590155762092
 20
217.5164050205605
 30
0.0000000000000000
 40
0.4000000000000000
100
AcDbArc
 50
90.00000000000000
 51
180.0000000000000
  0
LINE
  5
2D8
100
AcDbEntity
  8
MAIN0
  6
CONTINUOUS
 62
3
100
AcDbLine
 10
116.6590155762093
 20
240.4164050205604
 30
0.0000000000000000
 11
147.8099774705322
 21
240.4164050205604
 31
0.0000000000000000
  0
LINE
  5
2D9
100
AcDbEntity
  8
MAIN0
  6
CONTINUOUS
 62
3
100
AcDbLine
 10
148.7590155762091
 20
239.8107425878428
 30
0.0000000000000000
 11
147.8599774705322
 21
240.3298024801671
 31
0.0000000000000000
  0
ARC
  5
2DA
100
AcDbEntity
  8
MAIN0
  6
CONTINUOUS
 62
3
100
AcDbCircle
 10
147.9099774705322
 20
240.4164050205455
 30
0.0000000000000000
 40
0.1000000000000000
100
AcDbArc
 50
180.0000000000000
 51
239.9999999999922
  0
LINE
  5
2DB
100
AcDbEntity
  8
MAIN0
  6
CONTINUOUS
 62
3
100
AcDbLine
 10
148.7590155761997
 20
191.8107425877802
 30
0.0000000000000000
 11
148.7590155762091
 21
239.8107425878427
 31
0.0000000000000000
  0
LINE
  5
2DC
100
AcDbEntity
  8
MAIN0
  6
CONTINUOUS
 62
3
100
AcDbLine
 10
148.7590618211261
 20
218.8107158883261
 30
0.0000000000000000
 11
147.8599774705299
 21
219.3298024801673
 31
0.0000000000000000
  0
LINE
  5
2DD
100
AcDbEntity
  8
MAIN0
  6
CONTINUOUS
 62
3
100
AcDbLine
 10
148.7590618211260
 20
218.5220941527649
 30
0.0000000000000000
 11
148.7590618211261
 21
218.8107158883259
 31
0.0000000000000000
  0
LINE
  5
2DE
100
AcDbEntity
  8
MAIN0
  6
CONTINUOUS
 62
3
100
AcDbLine
 10
148.7590618211260
 20
218.5220941527648
 30
0.0000000000000000
 11
147.8599774705295
 21
218.0030075609241
 31
0.0000000000000000
  0
ARC
  5
2DF
100
AcDbEntity
  8
MAIN0
  6
CONTINUOUS
 62
3
100
AcDbCircle
 10
147.9099774705293
 20
217.9164050205455
 30
0.0000000000000000
 40
0.1000000000000000
100
AcDbArc
 50
119.9999999999921
 51
180.0000000000000
  0
LINE
  5
2E0
100
AcDbEntity
  8
MAIN0
  6
CONTINUOUS
 62
3
100
AcDbLine
 10
172.9599774705080
 20
245.2664050205593
 30
0.0000000000000000
 11
172.9599774704942
 21
191.0664050205571
 31
0.0000000000000000
  0
LINE
  5
2E1
100
AcDbEntity
  8
MAIN0
  6
CONTINUOUS
 62
3
100
AcDbLine
 10
149.3090155760750
 20
190.6664050205389
 30
0.0000000000000000
 11
172.5599774704941
 21
190.6664050205568
 31
0.0000000000000000
  0
LINE
  5
2E2
100
AcDbEntity
  8
MAIN0
  6
CONTINUOUS
 62
3
100
AcDbLine
 10
148.9099774705081
 20
245.6664050205602
 30
0.0000000000000000
 11
172.5599774705081
 21
245.6664050205594
 31
0.0000000000000000
  0
LINE
  5
2E3
100
AcDbEntity
  8
MAIN0
  6
CENTER
 62
3
100
AcDbLine
 10
179.4297473532890
 20
232.6664050205752
 30
0.0000000000000000
 11
132.1647867777417
 21
232.6664050205752
 31
0.0000000000000000
  0
LINE
  5
2E4
100
AcDbEntity
  8
MAIN0
  6
CENTER
 62
3
100
AcDbLine
 10
179.4297473532890
 20
218.6664050205752
 30
0.0000000000000000
 11
132.2942469994526
 21
218.6664050205752
 31
0.0000000000000000
  0
LINE
  5
2E5
100
AcDbEntity
  8
MAIN0
  6
HIDDEN
 62
3
100
AcDbLine
 10
156.9599774705029
 20
225.4164050205584
 30
0.0000000000000000
 11
156.9599774704995
 21
211.9164050205921
 31
0.0000000000000000
  0
LINE
  5
2E6
100
AcDbEntity
  8
MAIN0
  6
HIDDEN
 62
3
100
AcDbLine
 10
156.9599774704994
 20
211.9164050205922
 30
0.0000000000000000
 11
172.9599774704995
 21
211.9164050205882
 31
0.0000000000000000
  0
LINE
  5
2E7
100
AcDbEntity
  8
MAIN0
  6
HIDDEN
 62
3
100
AcDbLine
 10
156.9599774704995
 20
225.4164050205582
 30
0.0000000000000000
 11
172.9599774704995
 21
225.4164050205622
 31
0.0000000000000000
  0
LINE
  5
2E8
100
AcDbEntity
  8
MAIN0
  6
HIDDEN
 62
3
100
AcDbLine
 10
156.9599774705065
 20
239.4164050205584
 30
0.0000000000000000
 11
156.9599774705030
 21
225.9164050205921
 31
0.0000000000000000
  0
LINE
  5
2E9
100
AcDbEntity
  8
MAIN0
  6
HIDDEN
 62
3
100
AcDbLine
 10
156.9599774705030
 20
225.9164050205922
 30
0.0000000000000000
 11
172.9599774705031
 21
225.9164050205882
 31
0.0000000000000000
  0
LINE
  5
2EA
100
AcDbEntity
  8
MAIN0
  6
HIDDEN
 62
3
100
AcDbLine
 10
156.9599774705031
 20
239.4164050205582
 30
0.0000000000000000
 11
172.9599774705031
 21
239.4164050205622
 31
0.0000000000000000
  0
LINE
  5
2EB
100
AcDbEntity
  8
MAIN0
  6
CONTINUOUS
 62
3
100
AcDbLine
 10
172.9599774705081
 20
245.2664050205594
 30
0.0000000000000000
 11
172.5599774705082
 21
245.6664050205594
 31
0.0000000000000000
  0
LINE
  5
2EC
100
AcDbEntity
  8
MAIN0
  6
CONTINUOUS
 62
3
100
AcDbLine
 10
172.9599774704942
 20
191.0664050205572
 30
0.0000000000000000
 11
172.5599774704941
 21
190.6664050205569
 31
0.0000000000000000
  0
LINE
  5
2ED
100
AcDbEntity
  8
MAIN0
  6
CONTINUOUS
 62
3
100
AcDbLine
 10
147.9599774705079
 20
245.0607425878578
 30
0.0000000000000000
 11
147.9599774705079
 21
244.7721742513305
 31
0.0000000000000000
  0
LINE
  5
2EE
100
AcDbEntity
  8
MAIN0
  6
CONTINUOUS
 62
3
100
AcDbLine
 10
147.9599774705076
 20
243.5607425878577
 30
0.0000000000000000
 11
147.9599774705075
 21
243.2720674532629
 31
0.0000000000000000
  0
LINE
  5
2EF
100
AcDbEntity
  8
MAIN0
  6
CONTINUOUS
 62
3
100
AcDbLine
 10
147.9599774705075
 20
243.5607425878577
 30
0.0000000000000000
 11
148.8590155761843
 21
244.0798024801819
 31
0.0000000000000000
  0
LINE
  5
2F0
100
AcDbEntity
  8
MAIN0
  6
CONTINUOUS
 62
3
100
AcDbLine
 10
147.9599312255881
 20
244.7720941527797
 30
0.0000000000000000
 11
148.8590155761844
 21
244.2530075609388
 31
0.0000000000000000
  0
LINE
  5
2F1
100
AcDbEntity
  8
MAIN0
  6
CONTINUOUS
 62
3
100
AcDbLine
 10
147.9599774705075
 20
243.2720674532628
 30
0.0000000000000000
 11
148.8590155761844
 21
242.7530075609385
 31
0.0000000000000000
  0
LINE
  5
2F2
100
AcDbEntity
  8
MAIN0
  6
CONTINUOUS
 62
3
100
AcDbLine
 10
147.9599312255879
 20
242.0607158883406
 30
0.0000000000000000
 11
148.8590155761844
 21
242.5798024801817
 31
0.0000000000000000
  0
ARC
  5
2F3
100
AcDbEntity
  8
MAIN0
  6
CONTINUOUS
 62
3
100
AcDbCircle
 10
148.8090155761844
 20
244.1664050205604
 30
0.0000000000000000
 40
0.1000000000000000
100
AcDbArc
 50
300.0000000000005
 51
420.0000000000004
  0
ARC
  5
2F4
100
AcDbEntity
  8
MAIN0
  6
CONTINUOUS
 62
3
100
AcDbCircle
 10
148.8090155761844
 20
242.6664050205602
 30
0.0000000000000000
 40
0.1000000000000000
100
AcDbArc
 50
300.0000000000001
 51
419.9999999999999
  0
ARC
  5
2F5
100
AcDbEntity
  8
MAIN0
  6
CONTINUOUS
 62
3
100
AcDbCircle
 10
148.8090155761844
 20
245.6664050205600
 30
0.0000000000000000
 40
0.1000000000000000
100
AcDbArc
 50
299.9999999999959
 51
360.0000000000000
  0
LINE
  5
2F6
100
AcDbEntity
  8
MAIN0
  6
CONTINUOUS
 62
3
100
AcDbLine
 10
147.9599312255881
 20
245.0607158883408
 30
0.0000000000000000
 11
148.8590155761844
 21
245.5798024801816
 31
0.0000000000000000
  0
LINE
  5
2F7
100
AcDbEntity
  8
MAIN0
  6
HIDDEN
 62
3
100
AcDbLine
 10
156.9599774705030
 20
225.8651091823615
 30
0.0000000000000000
 11
156.9599774705029
 21
225.4649104426642
 31
0.0000000000000000
  0
LINE
  5
2F8
100
AcDbEntity
  8
MAIN0
  6
CONTINUOUS
 62
3
100
AcDbLine
 10
147.9599774705072
 20
242.0607425878572
 30
0.0000000000000000
 11
147.9599774705071
 21
241.7720674532632
 31
0.0000000000000000
  0
LINE
  5
2F9
100
AcDbEntity
  8
MAIN0
  6
CONTINUOUS
 62
3
100
AcDbLine
 10
147.9599312255879
 20
241.7720941527799
 30
0.0000000000000000
 11
148.8590155761839
 21
241.2530075609381
 31
0.0000000000000000
  0
ARC
  5
2FA
100
AcDbEntity
  8
MAIN0
  6
CONTINUOUS
 62
3
100
AcDbCircle
 10
148.8090155761837
 20
241.1664050205597
 30
0.0000000000000000
 40
0.1000000000000000
100
AcDbArc
 50
299.9999999999499
 51
419.9999999999498
  0
LINE
  5
2FB
100
AcDbEntity
  8
MAIN0
  6
CONTINUOUS
 62
3
100
AcDbLine
 10
147.9599774705064
 20
240.5607425878577
 30
0.0000000000000000
 11
148.8590155761837
 21
241.0798024801812
 31
0.0000000000000000
  0
LINE
  5
2FC
100
AcDbEntity
  8
MAIN0
  6
CONTINUOUS
 62
3
100
AcDbLine
 10
147.9599774705062
 20
240.2720674532629
 30
0.0000000000000000
 11
147.9599774705063
 21
240.5607425878577
 31
0.0000000000000000
  0
LINE
  5
2FD
100
AcDbEntity
  8
MAIN0
  6
CONTINUOUS
 62
3
100
AcDbLine
 10
147.9599774705052
 20
238.7720674532628
 30
0.0000000000000000
 11
147.9599774705054
 21
239.0606357897901
 31
0.0000000000000000
  0
LINE
  5
2FE
100
AcDbEntity
  8
MAIN0
  6
CONTINUOUS
 62
3
100
AcDbLine
 10
147.9599774705065
 20
240.2720674532629
 30
0.0000000000000000
 11
147.9599774704593
 21
192.2720674532280
 31
0.0000000000000000
  0
LINE
  5
2FF
100
AcDbEntity
  8
MAIN0
  6
CONTINUOUS
 62
3
100
AcDbLine
 10
147.9599312255856
 20
239.0607158883406
 30
0.0000000000000000
 11
148.7590155762090
 21
239.5220674532774
 31
0.0000000000000000
  0
LINE
  5
300
100
AcDbEntity
  8
MAIN0
  6
CONTINUOUS
 62
3
100
AcDbLine
 10
147.9599312255854
 20
238.7720941527797
 30
0.0000000000000000
 11
148.7590155762090
 21
238.3107425878411
 31
0.0000000000000000
  0
LINE
  5
301
100
AcDbEntity
  8
MAIN0
  6
CONTINUOUS
 62
3
100
AcDbLine
 10
208.7390720594532
 20
173.8151320017208
 30
0.0000000000000000
 11
208.7390720594540
 21
196.0151320017208
 31
0.0000000000000000
  0
LINE
  5
302
100
AcDbEntity
  8
MAIN0
  6
CONTINUOUS
 62
3
100
AcDbLine
 10
263.7390720594531
 20
173.4151320017215
 30
0.0000000000000000
 11
263.7390720594540
 21
196.4151320017216
 31
0.0000000000000000
  0
LINE
  5
303
100
AcDbEntity
  8
MAIN0
  6
CONTINUOUS
 62
3
100
AcDbLine
 10
209.1390720594532
 20
173.4151320017208
 30
0.0000000000000000
 11
263.7390720594531
 21
173.4151320017215
 31
0.0000000000000000
  0
LINE
  5
304
100
AcDbEntity
  8
MAIN0
  6
CONTINUOUS
 62
3
100
AcDbLine
 10
209.1390720594540
 20
196.4151320017208
 30
0.0000000000000000
 11
263.7390720594540
 21
196.4151320017215
 31
0.0000000000000000
  0
CIRCLE
  5
305
100
AcDbEntity
  8
MAIN0
  6
CONTINUOUS
 62
3
100
AcDbCircle
 10
221.7390720594536
 20
184.9151320017284
 30
0.0000000000000000
 40
6.750000000000000
  0
CIRCLE
  5
306
100
AcDbEntity
  8
MAIN0
  6
CONTINUOUS
 62
3
100
AcDbCircle
 10
235.7390720594536
 20
184.9151320017360
 30
0.0000000000000000
 40
6.750000000000000
  0
LINE
  5
307
100
AcDbEntity
  8
MAIN0
  6
CENTER
 62
3
100
AcDbLine
 10
235.7390720594536
 20
192.6651320017361
 30
0.0000000000000000
 11
235.7390720594536
 21
177.1651320017361
 31
0.0000000000000000
  0
LINE
  5
308
100
AcDbEntity
  8
MAIN0
  6
CENTER
 62
3
100
AcDbLine
 10
221.7390720594536
 20
192.6651320017284
 30
0.0000000000000000
 11
221.7390720594536
 21
177.1651320017284
 31
0.0000000000000000
  0
LINE
  5
309
100
AcDbEntity
  8
MAIN0
  6
CONTINUOUS
 62
3
100
AcDbLine
 10
209.1390720594540
 20
196.4151320017207
 30
0.0000000000000000
 11
208.7390720594540
 21
196.0151320017207
 31
0.0000000000000000
  0
LINE
  5
30A
100
AcDbEntity
  8
MAIN0
  6
CONTINUOUS
 62
3
100
AcDbLine
 10
208.7390720594532
 20
173.8151320017208
 30
0.0000000000000000
 11
209.1390720594532
 21
173.4151320017208
 31
0.0000000000000000
  0
LINE
  5
30B
100
AcDbEntity
  8
MAIN0
  6
HIDDEN
 62
3
100
AcDbLine
 10
213.9890720594683
 20
173.1651320017360
 30
0.0000000000000000
 11
213.9890720594683
 21
196.6651320017362
 31
0.0000000000000000
  0
LINE
  5
30C
100
AcDbEntity
  8
MAIN0
  6
CONTINUOUS
 62
3
100
AcDbLine
 10
215.9545113245058
 20
167.7651320017360
 30
0.0000000000000000
 11
217.2325466172018
 21
167.7651320017360
 31
0.0000000000000000
  0
LINE
  5
30D
100
AcDbEntity
  8
MAIN0
  6
CONTINUOUS
 62
3
100
AcDbLine
 10
213.9890720594683
 20
173.1651320017360
 30
0.0000000000000000
 11
215.9545113245058
 21
167.7651320017360
 31
0.0000000000000000
  0
LINE
  5
30E
100
AcDbEntity
  8
MAIN0
  6
CONTINUOUS
 62
3
100
AcDbLine
 10
215.9545113245058
 20
202.0651320017361
 30
0.0000000000000000
 11
217.2325466172018
 21
202.0651320017361
 31
0.0000000000000000
  0
LINE
  5
30F
100
AcDbEntity
  8
MAIN0
  6
CONTINUOUS
 62
3
100
AcDbLine
 10
213.9890720594683
 20
196.6651320017360
 30
0.0000000000000000
 11
215.9545113245058
 21
202.0651320017361
 31
0.0000000000000000
  0
LINE
  5
310
100
AcDbEntity
  8
MAIN0
  6
HIDDEN
 62
3
100
AcDbLine
 10
236.4890720594683
 20
173.4151320017360
 30
0.0000000000000000
 11
236.4890720594683
 21
179.9151320017360
 31
0.0000000000000000
  0
LINE
  5
311
100
AcDbEntity
  8
MAIN0
  6
HIDDEN
 62
3
100
AcDbLine
 10
236.4890720594684
 20
196.4151320017211
 30
0.0000000000000000
 11
236.4890720594684
 21
189.9151320017360
 31
0.0000000000000000
  0
LINE
  5
312
100
AcDbEntity
  8
MAIN0
  6
CONTINUOUS
 62
3
100
AcDbLine
 10
323.0261788320797
 20
202.0651320017361
 30
0.0000000000000000
 11
321.7481435393837
 21
202.0651320017361
 31
0.0000000000000000
  0
LINE
  5
313
100
AcDbEntity
  8
MAIN0
  6
CONTINUOUS
 62
3
100
AcDbLine
 10
323.0261788320797
 20
167.7651320017360
 30
0.0000000000000000
 11
321.7481435393837
 21
167.7651320017361
 31
0.0000000000000000
  0
LINE
  5
314
100
AcDbEntity
  8
MAIN0
  6
CONTINUOUS
 62
3
100
AcDbLine
 10
145.7590155762092
 20
154.4651320017360
 30
0.0000000000000000
 11
145.7590155762092
 21
238.3151320022650
 31
0.0000000000000000
  0
CIRCLE
  5
315
100
AcDbEntity
  8
MAIN0
  6
CONTINUOUS
 62
3
100
AcDbCircle
 10
284.6901206415955
 20
163.2076028280777
 30
0.0000000000000000
 40
3.300000000000000
  0
ARC
  5
316
100
AcDbEntity
  8
MAIN0
  6
CENTER
 62
3
100
AcDbCircle
 10
269.4903450782928
 20
184.9151320017359
 30
0.0000000000000000
 40
26.50000000000000
100
AcDbArc
 50
291.6850942167347
 51
316.4637741196198
  0
ARC
  5
317
100
AcDbEntity
  8
MAIN0
  6
CONTINUOUS
 62
3
100
AcDbCircle
 10
269.4903450782928
 20
184.9151320017359
 30
0.0000000000000000
 40
30.44999999999999
100
AcDbArc
 50
206.3178047344221
 51
333.6821952656324
  0
ARC
  5
318
100
AcDbEntity
  8
MAIN0
  6
CONTINUOUS
 62
3
100
AcDbCircle
 10
269.4903450782928
 20
184.9151320017359
 30
0.0000000000000000
 40
30.44999999999999
100
AcDbArc
 50
26.31780473442235
 51
153.6821952656321
  0
LINE
  5
319
100
AcDbEntity
  8
MAIN0
  6
CONTINUOUS
 62
3
100
AcDbLine
 10
251.5890720594800
 20
198.4151320017225
 30
0.0000000000000000
 11
236.5890720594800
 21
198.4151320017234
 31
0.0000000000000000
  0
LINE
  5
31A
100
AcDbEntity
  8
MAIN0
  6
CONTINUOUS
 62
3
100
AcDbLine
 10
251.5890720594657
 20
171.4151320017225
 30
0.0000000000000000
 11
236.5890720594657
 21
171.4151320017234
 31
0.0000000000000000
  0
LINE
  5
31B
100
AcDbEntity
  8
MAIN0
  6
CENTER
 62
3
100
AcDbLine
 10
240.9890720594683
 20
180.5651320017359
 30
0.0000000000000000
 11
240.9890720594683
 21
172.2651320017360
 31
0.0000000000000000
  0
LINE
  5
31C
100
AcDbEntity
  8
MAIN0
  6
CENTER
 62
3
100
AcDbLine
 10
236.8390720594683
 20
176.4151320017360
 30
0.0000000000000000
 11
245.1390720594683
 21
176.4151320017360
 31
0.0000000000000000
  0
LINE
  5
31D
100
AcDbEntity
  8
MAIN0
  6
CENTER
 62
3
100
AcDbLine
 10
240.9890720594683
 20
189.2651320017361
 30
0.0000000000000000
 11
240.9890720594683
 21
197.5651320017361
 31
0.0000000000000000
  0
LINE
  5
31E
100
AcDbEntity
  8
MAIN0
  6
CENTER
 62
3
100
AcDbLine
 10
236.8390720594683
 20
193.4151320017361
 30
0.0000000000000000
 11
245.1390720594683
 21
193.4151320017361
 31
0.0000000000000000
  0
LINE
  5
31F
100
AcDbEntity
  8
MAIN0
  6
CONTINUOUS
 62
3
100
AcDbLine
 10
251.5890720594657
 20
171.4151320017225
 30
0.0000000000000000
 11
251.5890720594668
 21
173.4151320017214
 31
0.0000000000000000
  0
LINE
  5
320
100
AcDbEntity
  8
MAIN0
  6
HIDDEN
 62
3
100
AcDbLine
 10
251.5890720594668
 20
173.4151320017214
 30
0.0000000000000000
 11
251.5890720594790
 21
196.4151320017213
 31
0.0000000000000000
  0
LINE
  5
321
100
AcDbEntity
  8
MAIN0
  6
CONTINUOUS
 62
3
100
AcDbLine
 10
251.5890720594790
 20
196.4151320017213
 30
0.0000000000000000
 11
251.5890720594800
 21
198.4151320017225
 31
0.0000000000000000
  0
LINE
  5
322
100
AcDbEntity
  8
MAIN0
  6
CONTINUOUS
 62
3
100
AcDbLine
 10
236.5890720594789
 20
196.4151320017359
 30
0.0000000000000000
 11
236.5890720594799
 21
198.4151320017234
 31
0.0000000000000000
  0
LINE
  5
323
100
AcDbEntity
  8
MAIN0
  6
CONTINUOUS
 62
3
100
AcDbLine
 10
236.5890720594657
 20
171.4151320017234
 30
0.0000000000000000
 11
236.5890720594667
 21
173.4151320017212
 31
0.0000000000000000
  0
LINE
  5
324
100
AcDbEntity
  8
MAIN0
  6
CENTER
 62
3
100
AcDbLine
 10
355.2057931503076
 20
184.9151320017360
 30
0.0000000000000000
 11
269.4903450782928
 21
184.9151320017360
 31
0.0000000000000000
  0
CIRCLE
  5
325
100
AcDbEntity
  8
MAIN0
  6
CONTINUOUS
 62
3
100
AcDbCircle
 10
290.9903450782928
 20
147.6760396390052
 30
0.0000000000000000
 40
7.500000000000000
  0
LINE
  5
326
100
AcDbEntity
  8
MAIN0
  6
CENTER
 62
3
100
AcDbLine
 10
299.6631564271705
 20
152.6832896059106
 30
0.0000000000000000
 11
282.3459986905419
 21
142.6852239250688
 31
0.0000000000000000
  0
ARC
  5
327
100
AcDbEntity
  8
MAIN0
  6
CONTINUOUS
 62
3
100
AcDbCircle
 10
269.4903450782928
 20
184.9151320017360
 30
0.0000000000000000
 40
55.00000000000000
100
AcDbArc
 50
12.06908252435107
 51
167.9309174756651
  0
ARC
  5
328
100
AcDbEntity
  8
MAIN0
  6
CONTINUOUS
 62
3
100
AcDbCircle
 10
269.4903450782928
 20
184.9151320017360
 30
0.0000000000000000
 40
55.00000000000000
100
AcDbArc
 50
192.0690825243672
 51
347.9309174756489
  0
LINE
  5
329
100
AcDbEntity
  8
MAIN0
  6
CONTINUOUS
 62
3
100
AcDbLine
 10
290.0206899636899
 20
127.3555315633164
 30
0.0000000000000000
 11
288.5773142907158
 21
124.8555315633164
 31
0.0000000000000000
  0
LINE
  5
32A
100
AcDbEntity
  8
MAIN0
  6
CONTINUOUS
 62
3
100
AcDbLine
 10
288.5773142907158
 20
124.8555315633164
 30
0.0000000000000000
 11
290.0206899636899
 21
122.3555315633164
 31
0.0000000000000000
  0
LINE
  5
32B
100
AcDbEntity
  8
MAIN0
  6
CONTINUOUS
 62
3
100
AcDbLine
 10
290.0206899636899
 20
122.3555315633164
 30
0.0000000000000000
 11
292.9074413096380
 21
122.3555315633164
 31
0.0000000000000000
  0
LINE
  5
32C
100
AcDbEntity
  8
MAIN0
  6
CONTINUOUS
 62
3
100
AcDbLine
 10
292.9074413096380
 20
122.3555315633164
 30
0.0000000000000000
 11
294.3508169826121
 21
124.8555315633164
 31
0.0000000000000000
  0
LINE
  5
32D
100
AcDbEntity
  8
MAIN0
  6
CONTINUOUS
 62
3
100
AcDbLine
 10
294.3508169826121
 20
124.8555315633164
 30
0.0000000000000000
 11
292.9074413096380
 21
127.3555315633164
 31
0.0000000000000000
  0
LINE
  5
32E
100
AcDbEntity
  8
MAIN0
  6
CONTINUOUS
 62
3
100
AcDbLine
 10
292.9074413096380
 20
127.3555315633164
 30
0.0000000000000000
 11
290.0206899636899
 21
127.3555315633164
 31
0.0000000000000000
  0
LINE
  5
32F
100
AcDbEntity
  8
MAIN0
  6
CONTINUOUS
 62
3
100
AcDbLine
 10
147.5590155762090
 20
202.8164050205729
 30
0.0000000000000000
 11
147.5590155762093
 21
217.8164050205729
 31
0.0000000000000000
  0
LINE
  5
330
100
AcDbEntity
  8
MAIN0
  6
CONTINUOUS
 62
3
100
AcDbLine
 10
146.1590155762093
 20
217.8164050205737
 30
0.0000000000000000
 11
147.5590155762093
 21
217.8164050205729
 31
0.0000000000000000
  0
LINE
  5
331
100
AcDbEntity
  8
MAIN0
  6
CONTINUOUS
 62
3
100
AcDbLine
 10
145.7590155762090
 20
202.8164050205739
 30
0.0000000000000000
 11
147.5590155762090
 21
202.8164050205729
 31
0.0000000000000000
  0
LINE
  5
332
100
AcDbEntity
  8
MAIN0
  6
CONTINUOUS
 62
3
100
AcDbLine
 10
146.1590155762093
 20
217.8164050205737
 30
0.0000000000000000
 11
145.7590155762093
 21
217.4164050205739
 31
0.0000000000000000
  0
LINE
  5
333
100
AcDbEntity
  8
MAIN0
  6
CONTINUOUS
 62
3
100
AcDbLine
 10
232.2749704443158
 20
184.9151320017360
 30
0.0000000000000000
 11
234.0070212518847
 21
181.9151320017360
 31
0.0000000000000000
  0
LINE
  5
334
100
AcDbEntity
  8
MAIN0
  6
CONTINUOUS
 62
3
100
AcDbLine
 10
234.0070212518847
 20
181.9151320017360
 30
0.0000000000000000
 11
237.4711228670225
 21
181.9151320017360
 31
0.0000000000000000
  0
LINE
  5
335
100
AcDbEntity
  8
MAIN0
  6
CONTINUOUS
 62
3
100
AcDbLine
 10
237.4711228670224
 20
181.9151320017360
 30
0.0000000000000000
 11
239.2031736745913
 21
184.9151320017360
 31
0.0000000000000000
  0
LINE
  5
336
100
AcDbEntity
  8
MAIN0
  6
CONTINUOUS
 62
3
100
AcDbLine
 10
239.2031736745913
 20
184.9151320017360
 30
0.0000000000000000
 11
237.4711228670225
 21
187.9151320017360
 31
0.0000000000000000
  0
LINE
  5
337
100
AcDbEntity
  8
MAIN0
  6
CONTINUOUS
 62
3
100
AcDbLine
 10
237.4711228670225
 20
187.9151320017360
 30
0.0000000000000000
 11
234.0070212518847
 21
187.9151320017360
 31
0.0000000000000000
  0
LINE
  5
338
100
AcDbEntity
  8
MAIN0
  6
CONTINUOUS
 62
3
100
AcDbLine
 10
234.0070212518847
 20
187.9151320017360
 30
0.0000000000000000
 11
232.2749704443158
 21
184.9151320017360
 31
0.0000000000000000
  0
LINE
  5
339
100
AcDbEntity
  8
MAIN0
  6
CONTINUOUS
 62
3
100
AcDbLine
 10
218.2749704443158
 20
184.9151320017360
 30
0.0000000000000000
 11
220.0070212518847
 21
181.9151320017360
 31
0.0000000000000000
  0
LINE
  5
33A
100
AcDbEntity
  8
MAIN0
  6
CONTINUOUS
 62
3
100
AcDbLine
 10
220.0070212518847
 20
181.9151320017360
 30
0.0000000000000000
 11
223.4711228670225
 21
181.9151320017360
 31
0.0000000000000000
  0
LINE
  5
33B
100
AcDbEntity
  8
MAIN0
  6
CONTINUOUS
 62
3
100
AcDbLine
 10
223.4711228670224
 20
181.9151320017360
 30
0.0000000000000000
 11
225.2031736745914
 21
184.9151320017360
 31
0.0000000000000000
  0
LINE
  5
33C
100
AcDbEntity
  8
MAIN0
  6
CONTINUOUS
 62
3
100
AcDbLine
 10
225.2031736745914
 20
184.9151320017360
 30
0.0000000000000000
 11
223.4711228670225
 21
187.9151320017360
 31
0.0000000000000000
  0
LINE
  5
33D
100
AcDbEntity
  8
MAIN0
  6
CONTINUOUS
 62
3
100
AcDbLine
 10
223.4711228670225
 20
187.9151320017360
 30
0.0000000000000000
 11
220.0070212518847
 21
187.9151320017360
 31
0.0000000000000000
  0
LINE
  5
33E
100
AcDbEntity
  8
MAIN0
  6
CONTINUOUS
 62
3
100
AcDbLine
 10
220.0070212518847
 20
187.9151320017360
 30
0.0000000000000000
 11
218.2749704443158
 21
184.9151320017360
 31
0.0000000000000000
  0
LINE
  5
33F
100
AcDbEntity
  8
MAIN0
  6
CONTINUOUS
 62
3
100
AcDbLine
 10
284.9940049525127
 20
164.9310163958491
 30
0.0000000000000000
 11
284.3862363306785
 21
161.4841892603064
 31
0.0000000000000000
  0
LINE
  5
340
100
AcDbEntity
  8
MAIN0
  6
CONTINUOUS
 62
3
100
AcDbLine
 10
286.4135342093669
 20
162.9037185171606
 30
0.0000000000000000
 11
282.9667070738242
 21
163.5114871389949
 31
0.0000000000000000
  0
LINE
  5
341
100
AcDbEntity
  8
MAIN0
  6
HIDDEN
 62
3
100
AcDbLine
 10
156.9599774705012
 20
212.1664050205752
 30
0.0000000000000000
 11
164.1599774705012
 21
212.1664050205752
 31
0.0000000000000000
  0
LINE
  5
342
100
AcDbEntity
  8
MAIN0
  6
HIDDEN
 62
3
100
AcDbLine
 10
164.1599774705012
 20
212.1664050205752
 30
0.0000000000000000
 11
164.9599774705011
 21
213.5520456666303
 31
0.0000000000000000
  0
LINE
  5
343
100
AcDbEntity
  8
MAIN0
  6
HIDDEN
 62
3
100
AcDbLine
 10
164.9599774705012
 20
213.5520456666303
 30
0.0000000000000000
 11
164.9599774705012
 21
223.7807643745201
 31
0.0000000000000000
  0
LINE
  5
344
100
AcDbEntity
  8
MAIN0
  6
HIDDEN
 62
3
100
AcDbLine
 10
164.9599774705012
 20
223.7807643745201
 30
0.0000000000000000
 11
164.1599774705012
 21
225.1664050205752
 31
0.0000000000000000
  0
LINE
  5
345
100
AcDbEntity
  8
MAIN0
  6
HIDDEN
 62
3
100
AcDbLine
 10
164.1599774705012
 20
225.1664050205752
 30
0.0000000000000000
 11
156.9599774705012
 21
225.1664050205752
 31
0.0000000000000000
  0
LINE
  5
346
100
AcDbEntity
  8
MAIN0
  6
HIDDEN
 62
3
100
AcDbLine
 10
164.1599774705012
 20
212.1664050205752
 30
0.0000000000000000
 11
164.1599774705012
 21
225.1664050205752
 31
0.0000000000000000
  0
LINE
  5
347
100
AcDbEntity
  8
MAIN0
  6
HIDDEN
 62
3
100
AcDbLine
 10
156.9599774705012
 20
214.6664050205752
 30
0.0000000000000000
 11
134.9599774705012
 21
214.6664050205752
 31
0.0000000000000000
  0
LINE
  5
348
100
AcDbEntity
  8
MAIN0
  6
HIDDEN
 62
3
100
AcDbLine
 10
134.9599774705012
 20
222.6664050205752
 30
0.0000000000000000
 11
156.9599774705012
 21
222.6664050205752
 31
0.0000000000000000
  0
LINE
  5
349
100
AcDbEntity
  8
MAIN0
  6
HIDDEN
 62
3
100
AcDbLine
 10
156.9599774705012
 20
215.3429875205752
 30
0.0000000000000000
 11
134.9599774705012
 21
215.3429875205752
 31
0.0000000000000000
  0
LINE
  5
34A
100
AcDbEntity
  8
MAIN0
  6
HIDDEN
 62
3
100
AcDbLine
 10
156.9599774705012
 20
221.9898225205752
 30
0.0000000000000000
 11
134.9599774705012
 21
221.9898225205752
 31
0.0000000000000000
  0
LINE
  5
34B
100
AcDbEntity
  8
MAIN0
  6
HIDDEN
 62
3
100
AcDbLine
 10
156.9599774705047
 20
226.1664050205752
 30
0.0000000000000000
 11
164.1599774705047
 21
226.1664050205752
 31
0.0000000000000000
  0
LINE
  5
34C
100
AcDbEntity
  8
MAIN0
  6
HIDDEN
 62
3
100
AcDbLine
 10
164.1599774705047
 20
226.1664050205753
 30
0.0000000000000000
 11
164.9599774705047
 21
227.5520456666303
 31
0.0000000000000000
  0
LINE
  5
34D
100
AcDbEntity
  8
MAIN0
  6
HIDDEN
 62
3
100
AcDbLine
 10
164.9599774705047
 20
227.5520456666303
 30
0.0000000000000000
 11
164.9599774705047
 21
237.7807643745202
 31
0.0000000000000000
  0
LINE
  5
34E
100
AcDbEntity
  8
MAIN0
  6
HIDDEN
 62
3
100
AcDbLine
 10
164.9599774705047
 20
237.7807643745202
 30
0.0000000000000000
 11
164.1599774705047
 21
239.1664050205752
 31
0.0000000000000000
  0
LINE
  5
34F
100
AcDbEntity
  8
MAIN0
  6
HIDDEN
 62
3
100
AcDbLine
 10
164.1599774705047
 20
239.1664050205752
 30
0.0000000000000000
 11
156.9599774705047
 21
239.1664050205752
 31
0.0000000000000000
  0
LINE
  5
350
100
AcDbEntity
  8
MAIN0
  6
HIDDEN
 62
3
100
AcDbLine
 10
164.1599774705047
 20
226.1664050205752
 30
0.0000000000000000
 11
164.1599774705047
 21
239.1664050205752
 31
0.0000000000000000
  0
LINE
  5
351
100
AcDbEntity
  8
MAIN0
  6
HIDDEN
 62
3
100
AcDbLine
 10
156.9599774705047
 20
228.6664050205752
 30
0.0000000000000000
 11
134.9599774705047
 21
228.6664050205752
 31
0.0000000000000000
  0
LINE
  5
352
100
AcDbEntity
  8
MAIN0
  6
HIDDEN
 62
3
100
AcDbLine
 10
134.9599774705047
 20
236.6664050205752
 30
0.0000000000000000
 11
156.9599774705047
 21
236.6664050205752
 31
0.0000000000000000
  0
LINE
  5
353
100
AcDbEntity
  8
MAIN0
  6
HIDDEN
 62
3
100
AcDbLine
 10
156.9599774705047
 20
229.3429875205752
 30
0.0000000000000000
 11
134.9599774705047
 21
229.3429875205752
 31
0.0000000000000000
  0
LINE
  5
354
100
AcDbEntity
  8
MAIN0
  6
HIDDEN
 62
3
100
AcDbLine
 10
156.9599774705047
 20
235.9898225205753
 30
0.0000000000000000
 11
134.9599774705047
 21
235.9898225205753
 31
0.0000000000000000
  0
LINE
  5
355
100
AcDbEntity
  8
MAIN0
  6
CONTINUOUS
 62
3
100
AcDbLine
 10
288.9696191361292
 20
144.1760396390052
 30
0.0000000000000000
 11
286.9488931939654
 21
147.6760396390052
 31
0.0000000000000000
  0
LINE
  5
356
100
AcDbEntity
  8
MAIN0
  6
CONTINUOUS
 62
3
100
AcDbLine
 10
293.0110710204565
 20
144.1760396390052
 30
0.0000000000000000
 11
288.9696191361292
 21
144.1760396390052
 31
0.0000000000000000
  0
LINE
  5
357
100
AcDbEntity
  8
MAIN0
  6
CONTINUOUS
 62
3
100
AcDbLine
 10
295.0317969626202
 20
147.6760396390052
 30
0.0000000000000000
 11
293.0110710204565
 21
144.1760396390052
 31
0.0000000000000000
  0
LINE
  5
358
100
AcDbEntity
  8
MAIN0
  6
CONTINUOUS
 62
3
100
AcDbLine
 10
293.0110710204565
 20
151.1760396390052
 30
0.0000000000000000
 11
295.0317969626202
 21
147.6760396390052
 31
0.0000000000000000
  0
LINE
  5
359
100
AcDbEntity
  8
MAIN0
  6
CONTINUOUS
 62
3
100
AcDbLine
 10
288.9696191361292
 20
151.1760396390052
 30
0.0000000000000000
 11
293.0110710204565
 21
151.1760396390052
 31
0.0000000000000000
  0
LINE
  5
35A
100
AcDbEntity
  8
MAIN0
  6
CONTINUOUS
 62
3
100
AcDbLine
 10
286.9488931939654
 20
147.6760396390051
 30
0.0000000000000000
 11
288.9696191361291
 21
151.1760396390052
 31
0.0000000000000000
  0
CIRCLE
  5
35B
100
AcDbEntity
  8
MAIN0
  6
CONTINUOUS
 62
3
100
AcDbCircle
 10
290.9903450782928
 20
147.6760396390052
 30
0.0000000000000000
 40
0.9914283891151570
  0
CIRCLE
  5
35C
100
AcDbEntity
  8
MAIN0
  6
CONTINUOUS
 62
3
100
AcDbCircle
 10
290.9903450782928
 20
147.6760396390052
 30
0.0000000000000000
 40
3.299999999993588
  0
LINE
  5
35D
100
AcDbEntity
  8
MAIN0
  6
CONTINUOUS
 62
3
100
AcDbLine
 10
93.75901557611161
 20
108.4151320017467
 30
0.0000000000000000
 11
77.75901557611161
 21
108.4151320017467
 31
0.0000000000000000
  0
LINE
  5
35E
100
AcDbEntity
  8
MAIN0
  6
CONTINUOUS
 62
3
100
AcDbLine
 10
77.75901557611161
 20
108.4151320017467
 30
0.0000000000000000
 11
77.75901557611161
 21
109.4151320017467
 31
0.0000000000000000
  0
LINE
  5
35F
100
AcDbEntity
  8
MAIN0
  6
CONTINUOUS
 62
3
100
AcDbLine
 10
93.75901557611161
 20
108.4151320017467
 30
0.0000000000000000
 11
93.75901557611161
 21
109.4151320017467
 31
0.0000000000000000
  0
LINE
  5
360
100
AcDbEntity
  8
MAIN0
  6
CONTINUOUS
 62
3
100
AcDbLine
 10
294.3169513196340
 20
110.9141886122264
 30
0.0000000000000000
 11
280.4605448590829
 21
102.9141886122264
 31
0.0000000000000000
  0
LINE
  5
361
100
AcDbEntity
  8
MAIN0
  6
CONTINUOUS
 62
3
100
AcDbLine
 10
280.4605448590829
 20
102.9141886122264
 30
0.0000000000000000
 11
279.9605448590829
 21
103.7802140160109
 31
0.0000000000000000
  0
LINE
  5
362
100
AcDbEntity
  8
MAIN0
  6
CONTINUOUS
 62
3
100
AcDbLine
 10
294.3169513196340
 20
110.9141886122264
 30
0.0000000000000000
 11
293.8169513196340
 21
111.7802140160109
 31
0.0000000000000000
  0
LINE
  5
363
100
AcDbEntity
  8
MAIN0
  6
CONTINUOUS
 62
3
100
AcDbLine
 10
335.0201452975026
 20
134.4141886122264
 30
0.0000000000000000
 11
321.1637388369516
 21
126.4141886122264
 31
0.0000000000000000
  0
LINE
  5
364
100
AcDbEntity
  8
MAIN0
  6
CONTINUOUS
 62
3
100
AcDbLine
 10
321.1637388369516
 20
126.4141886122264
 30
0.0000000000000000
 11
320.6637388369516
 21
127.2802140160108
 31
0.0000000000000000
  0
LINE
  5
365
100
AcDbEntity
  8
MAIN0
  6
CONTINUOUS
 62
3
100
AcDbLine
 10
335.0201452975026
 20
134.4141886122264
 30
0.0000000000000000
 11
334.5201452975026
 21
135.2802140160108
 31
0.0000000000000000
  0
CIRCLE
  5
366
100
AcDbEntity
  8
MAIN0
  6
CONTINUOUS
 62
12
100
AcDbCircle
 10
303.2416180971320
 20
184.9151320017359
 30
0.0000000000000000
 40
4.000000000000000
  0
CIRCLE
  5
367
100
AcDbEntity
  8
MAIN0
  6
CONTINUOUS
 62
3
100
AcDbCircle
 10
303.2416180971320
 20
184.9151320017359
 30
0.0000000000000000
 40
3.399999999999999
  0
CIRCLE
  5
368
100
AcDbEntity
  8
MAIN0
  6
CONTINUOUS
 62
12
100
AcDbCircle
 10
317.2416180971320
 20
184.9151320017359
 30
0.0000000000000000
 40
4.000000000000000
  0
CIRCLE
  5
369
100
AcDbEntity
  8
MAIN0
  6
CONTINUOUS
 62
3
100
AcDbCircle
 10
317.2416180971320
 20
184.9151320017359
 30
0.0000000000000000
 40
3.399999999999999
  0
LINE
  5
36A
100
AcDbEntity
  8
MAIN0
  6
CENTER
 62
3
100
AcDbLine
 10
317.2416180971320
 20
180.5151320017361
 30
0.0000000000000000
 11
317.2416180971320
 21
189.3151320017362
 31
0.0000000000000000
  0
LINE
  5
36B
100
AcDbEntity
  8
MAIN0
  6
CENTER
 62
3
100
AcDbLine
 10
303.2416180971320
 20
180.5151320017359
 30
0.0000000000000000
 11
303.2416180971320
 21
189.3151320017360
 31
0.0000000000000000
  0
LINE
  5
36C
100
AcDbEntity
  8
MAIN0
  6
CONTINUOUS
 62
3
100
AcDbLine
 10
369.0003037514363
 20
71.75554896721086
 30
0.0000000000000000
 11
357.4003037514364
 21
71.75554896721086
 31
0.0000000000000000
  0
LINE
  5
36D
100
AcDbEntity
  8
MAIN0
  6
CONTINUOUS
 62
3
100
AcDbLine
 10
369.0003037514363
 20
106.0555489672108
 30
0.0000000000000000
 11
357.4003037514364
 21
106.0555489672108
 31
0.0000000000000000
  0
LINE
  5
36E
100
AcDbEntity
  8
MAIN0
  6
CONTINUOUS
 62
3
100
AcDbLine
 10
384.2003037514118
 20
83.90554896721083
 30
0.0000000000000000
 11
381.7003037514363
 21
83.90554896721083
 31
0.0000000000000000
  0
LINE
  5
36F
100
AcDbEntity
  8
MAIN0
  6
CONTINUOUS
 62
3
100
AcDbLine
 10
384.2003037514118
 20
93.90554896721083
 30
0.0000000000000000
 11
381.7003037514363
 21
93.90554896721083
 31
0.0000000000000000
  0
LINE
  5
370
100
AcDbEntity
  8
MAIN0
  6
CONTINUOUS
 62
3
100
AcDbLine
 10
374.2003037514364
 20
96.65554896721083
 30
0.0000000000000000
 11
371.6988318888814
 21
96.65554896721083
 31
0.0000000000000000
  0
LINE
  5
371
100
AcDbEntity
  8
MAIN0
  6
CONTINUOUS
 62
3
100
AcDbLine
 10
374.2003037514364
 20
81.15554896721083
 30
0.0000000000000000
 11
371.6988318888526
 21
81.15554896721083
 31
0.0000000000000000
  0
LINE
  5
372
100
AcDbEntity
  8
MAIN0
  6
CONTINUOUS
 62
3
100
AcDbLine
 10
369.2003037514364
 20
105.8555489672108
 30
0.0000000000000000
 11
369.2003037514364
 21
100.4055489672108
 31
0.0000000000000000
  0
LINE
  5
373
100
AcDbEntity
  8
MAIN0
  6
CONTINUOUS
 62
3
100
AcDbLine
 10
369.2003037514364
 20
94.15702082976496
 30
0.0000000000000000
 11
369.2003037514364
 21
83.65407710462669
 31
0.0000000000000000
  0
LINE
  5
374
100
AcDbEntity
  8
MAIN0
  6
CONTINUOUS
 62
3
100
AcDbLine
 10
369.2003037514364
 20
77.40554896721082
 30
0.0000000000000000
 11
369.2003037514364
 21
71.95554896721077
 31
0.0000000000000000
  0
LINE
  5
375
100
AcDbEntity
  8
MAIN0
  6
CONTINUOUS
 62
3
100
AcDbLine
 10
375.2003037514364
 20
95.65554896721083
 30
0.0000000000000000
 11
375.2003037514364
 21
94.35554896720065
 31
0.0000000000000000
  0
LINE
  5
376
100
AcDbEntity
  8
MAIN0
  6
CONTINUOUS
 62
3
100
AcDbLine
 10
375.2003037514364
 20
83.45554896720067
 30
0.0000000000000000
 11
375.2003037514364
 21
82.15554896721083
 31
0.0000000000000000
  0
LINE
  5
377
100
AcDbEntity
  8
MAIN0
  6
CONTINUOUS
 62
3
100
AcDbLine
 10
385.2003037514364
 20
100.4055489672108
 30
0.0000000000000000
 11
385.2003037514364
 21
94.48289923641468
 31
0.0000000000000000
  0
LINE
  5
378
100
AcDbEntity
  8
MAIN0
  6
CONTINUOUS
 62
3
100
AcDbLine
 10
385.2003037514364
 20
83.32819869800684
 30
0.0000000000000000
 11
385.2003037514364
 21
77.40554896721076
 31
0.0000000000000000
  0
LINE
  5
379
100
AcDbEntity
  8
MAIN0
  6
CONTINUOUS
 62
3
100
AcDbLine
 10
369.2003037514361
 20
71.95554896721100
 30
0.0000000000000000
 11
369.0003037514361
 21
71.75554896721098
 31
0.0000000000000000
  0
LINE
  5
37A
100
AcDbEntity
  8
MAIN0
  6
CONTINUOUS
 62
3
100
AcDbLine
 10
369.2003037514363
 20
105.8555489672108
 30
0.0000000000000000
 11
369.0003037514363
 21
106.0555489672108
 31
0.0000000000000000
  0
ARC
  5
37B
100
AcDbEntity
  8
MAIN0
  6
CONTINUOUS
 62
3
100
AcDbCircle
 10
374.2003037514364
 20
82.15554896721082
 30
0.0000000000000000
 40
1.000000000000000
100
AcDbArc
 50
270.0000000000000
 51
360.0000000000000
  0
ARC
  5
37C
100
AcDbEntity
  8
MAIN0
  6
CONTINUOUS
 62
3
100
AcDbCircle
 10
374.2003037514364
 20
95.65554896721082
 30
0.0000000000000000
 40
1.000000000000000
100
AcDbArc
 50
0.0000000000000000
 51
90.00000000000000
  0
LINE
  5
37D
100
AcDbEntity
  8
MAIN0
  6
CENTER
 62
3
100
AcDbLine
 10
350.9047059529729
 20
88.90554896721082
 30
0.0000000000000000
 11
390.6738620341308
 21
88.90554896721082
 31
0.0000000000000000
  0
LINE
  5
37E
100
AcDbEntity
  8
MAIN0
  6
CONTINUOUS
 62
3
100
AcDbLine
 10
370.1003037514364
 20
100.4055489672108
 30
0.0000000000000000
 11
385.2003037514364
 21
100.4055489672108
 31
0.0000000000000000
  0
LINE
  5
37F
100
AcDbEntity
  8
MAIN0
  6
CONTINUOUS
 62
3
100
AcDbLine
 10
370.1003037514362
 20
77.40554896721096
 30
0.0000000000000000
 11
385.2003037514364
 21
77.40554896721073
 31
0.0000000000000000
  0
LINE
  5
380
100
AcDbEntity
  8
MAIN0
  6
CONTINUOUS
 62
3
100
AcDbLine
 10
375.2003037514364
 20
94.35554896720063
 30
0.0000000000000000
 11
382.7003037514364
 21
94.35554896720063
 31
0.0000000000000000
  0
LINE
  5
381
100
AcDbEntity
  8
MAIN0
  6
CONTINUOUS
 62
3
100
AcDbLine
 10
382.7003037514363
 20
94.35554896720065
 30
0.0000000000000000
 11
382.7003037514363
 21
93.90554896720060
 31
0.0000000000000000
  0
LINE
  5
382
100
AcDbEntity
  8
MAIN0
  6
CONTINUOUS
 62
3
100
AcDbLine
 10
382.7003037514363
 20
83.90554896720060
 30
0.0000000000000000
 11
382.7003037514363
 21
83.45554896720067
 31
0.0000000000000000
  0
LINE
  5
383
100
AcDbEntity
  8
MAIN0
  6
CONTINUOUS
 62
3
100
AcDbLine
 10
382.7003037514364
 20
83.45554896720066
 30
0.0000000000000000
 11
375.2003037514364
 21
83.45554896720066
 31
0.0000000000000000
  0
CIRCLE
  5
384
100
AcDbEntity
  8
MAIN0
  6
CONTINUOUS
 62
3
100
AcDbCircle
 10
213.1986938323043
 20
152.4151320017360
 30
0.0000000000000000
 40
4.000000000000000
  0
CIRCLE
  5
385
100
AcDbEntity
  8
MAIN0
  6
CONTINUOUS
 62
3
100
AcDbCircle
 10
213.1986938323043
 20
152.4151320017360
 30
0.0000000000000000
 40
3.400000000000000
  0
CIRCLE
  5
386
100
AcDbEntity
  8
MAIN0
  6
CONTINUOUS
 62
3
100
AcDbCircle
 10
325.7819963242813
 20
217.4151320017360
 30
0.0000000000000000
 40
4.000000000000000
  0
CIRCLE
  5
387
100
AcDbEntity
  8
MAIN0
  6
CONTINUOUS
 62
3
100
AcDbCircle
 10
325.7819963242813
 20
217.4151320017360
 30
0.0000000000000000
 40
3.400000000000000
  0
ARC
  5
388
100
AcDbEntity
  8
MAIN0
  6
CONTINUOUS
 62
3
100
AcDbCircle
 10
269.4903450782928
 20
119.9151320017361
 30
0.0000000000000000
 40
4.000000000000000
100
AcDbArc
 50
41.41493240034232
 51
198.5850675996575
  0
ARC
  5
389
100
AcDbEntity
  8
MAIN0
  6
CONTINUOUS
 62
3
100
AcDbCircle
 10
269.4903450782928
 20
119.9151320017361
 30
0.0000000000000000
 40
3.400000000000000
100
AcDbArc
 50
43.46424991658021
 51
196.5357500834198
  0
ARC
  5
38A
100
AcDbEntity
  8
MAIN0
  6
CONTINUOUS
 62
3
100
AcDbCircle
 10
325.7819963242813
 20
152.4151320017361
 30
0.0000000000000000
 40
4.000000000000000
100
AcDbArc
 50
41.41493240034072
 51
198.5850675996589
  0
ARC
  5
38B
100
AcDbEntity
  8
MAIN0
  6
CONTINUOUS
 62
3
100
AcDbCircle
 10
325.7819963242813
 20
152.4151320017361
 30
0.0000000000000000
 40
3.400000000000000
100
AcDbArc
 50
43.46424991657847
 51
196.5357500834215
  0
CIRCLE
  5
38C
100
AcDbEntity
  8
MAIN0
  6
CONTINUOUS
 62
3
100
AcDbCircle
 10
269.4903450782928
 20
249.9151320017361
 30
0.0000000000000000
 40
4.000000000000000
  0
CIRCLE
  5
38D
100
AcDbEntity
  8
MAIN0
  6
CONTINUOUS
 62
3
100
AcDbCircle
 10
269.4903450782928
 20
249.9151320017361
 30
0.0000000000000000
 40
3.400000000000000
  0
CIRCLE
  5
38E
100
AcDbEntity
  8
MAIN0
  6
CONTINUOUS
 62
3
100
AcDbCircle
 10
213.1986938323043
 20
217.4151320017361
 30
0.0000000000000000
 40
4.000000000000000
  0
CIRCLE
  5
38F
100
AcDbEntity
  8
MAIN0
  6
CONTINUOUS
 62
3
100
AcDbCircle
 10
213.1986938323043
 20
217.4151320017361
 30
0.0000000000000000
 40
3.400000000000000
  0
CIRCLE
  5
390
100
AcDbEntity
  8
MAIN0
  6
HIDDEN
 62
3
100
AcDbCircle
 10
270.0648924120443
 20
150.9199868283252
 30
0.0000000000000000
 40
4.864000000000000
  0
CIRCLE
  5
391
100
AcDbEntity
  8
MAIN0
  6
HIDDEN
 62
3
100
AcDbCircle
 10
270.0648924120443
 20
150.9199868283252
 30
0.0000000000000000
 40
4.283000000000000
  0
CIRCLE
  5
392
100
AcDbEntity
  8
MAIN0
  6
HIDDEN
 62
3
100
AcDbCircle
 10
298.6437307369308
 20
167.4199868283252
 30
0.0000000000000000
 40
4.864000000000000
  0
CIRCLE
  5
393
100
AcDbEntity
  8
MAIN0
  6
HIDDEN
 62
3
100
AcDbCircle
 10
298.6437307369308
 20
167.4199868283252
 30
0.0000000000000000
 40
4.283000000000000
  0
LINE
  5
394
100
AcDbEntity
  8
WAKU0
  6
CONTINUOUS
 62
3
100
AcDbLine
 10
240.0000000000000
 20
51.00000000000000
 30
0.0000000000000000
 11
410.0000000000000
 21
51.00000000000000
 31
0.0000000000000000
  0
LINE
  5
395
100
AcDbEntity
  8
WAKU0
  6
CONTINUOUS
 62
3
100
AcDbLine
 10
240.0000000000000
 20
51.00000000000000
 30
0.0000000000000000
 11
240.0000000000000
 21
12.00000000000000
 31
0.0000000000000000
  0
LINE
  5
396
100
AcDbEntity
  8
WAKU0
  6
CONTINUOUS
 62
3
100
AcDbLine
 10
312.0000000000000
 20
51.00000000000000
 30
0.0000000000000000
 11
312.0000000000000
 21
12.00000000000000
 31
0.0000000000000000
  0
LINE
  5
397
100
AcDbEntity
  8
WAKU0
  6
CONTINUOUS
 62
3
100
AcDbLine
 10
332.0000000000000
 20
51.00000000000000
 30
0.0000000000000000
 11
332.0000000000000
 21
12.00000000000000
 31
0.0000000000000000
  0
LINE
  5
398
100
AcDbEntity
  8
WAKU0
  6
CONTINUOUS
 62
3
100
AcDbLine
 10
344.0000000000000
 20
51.00000000000000
 30
0.0000000000000000
 11
344.0000000000000
 21
12.00000000000000
 31
0.0000000000000000
  0
LINE
  5
399
100
AcDbEntity
  8
WAKU0
  6
CONTINUOUS
 62
3
100
AcDbLine
 10
344.0000000000000
 20
37.00000000000000
 30
0.0000000000000000
 11
410.0000000000000
 21
37.00000000000000
 31
0.0000000000000000
  0
LINE
  5
39A
100
AcDbEntity
  8
WAKU0
  6
CONTINUOUS
 62
3
100
AcDbLine
 10
332.0000000000000
 20
23.00000000000000
 30
0.0000000000000000
 11
410.0000000000000
 21
23.00000000000000
 31
0.0000000000000000
  0
LINE
  5
39B
100
AcDbEntity
  8
WAKU0
  6
CONTINUOUS
 62
3
100
AcDbLine
 10
375.0000000000000
 20
51.00000000000000
 30
0.0000000000000000
 11
375.0000000000000
 21
44.00000000000000
 31
0.0000000000000000
  0
LINE
  5
39C
100
AcDbEntity
  8
WAKU0
  6
CONTINUOUS
 62
3
100
AcDbLine
 10
387.0000000000000
 20
51.00000000000000
 30
0.0000000000000000
 11
387.0000000000000
 21
44.00000000000000
 31
0.0000000000000000
  0
LINE
  5
39D
100
AcDbEntity
  8
WAKU0
  6
CONTINUOUS
 62
3
100
AcDbLine
 10
312.0000000000000
 20
31.50000000000000
 30
0.0000000000000000
 11
332.0000000000000
 21
31.50000000000000
 31
0.0000000000000000
  0
LINE
  5
39E
100
AcDbEntity
  8
WAKU0
  6
CONTINUOUS
 62
3
100
AcDbLine
 10
332.0000000000000
 20
44.00000000000000
 30
0.0000000000000000
 11
410.0000000000000
 21
44.00000000000000
 31
0.0000000000000000
  0
LINE
  5
39F
100
AcDbEntity
  8
WAKU0
  6
CONTINUOUS
 62
3
100
AcDbLine
 10
240.0000000000000
 20
37.00000000000000
 30
0.0000000000000000
 11
312.0000000000000
 21
37.00000000000000
 31
0.0000000000000000
  0
LINE
  5
3A0
100
AcDbEntity
  8
WAKU0
  6
CONTINUOUS
 62
3
100
AcDbLine
 10
240.0000000000000
 20
23.00000000000000
 30
0.0000000000000000
 11
312.0000000000000
 21
23.00000000000000
 31
0.0000000000000000
  0
LINE
  5
3A1
100
AcDbEntity
  8
WAKU0
  6
CONTINUOUS
 62
3
100
AcDbLine
 10
288.0000000000000
 20
37.00000000000000
 30
0.0000000000000000
 11
288.0000000000000
 21
12.00000000000000
 31
0.0000000000000000
  0
LINE
  5
3A2
100
AcDbEntity
  8
WAKU0
  6
CONTINUOUS
 62
3
100
AcDbLine
 10
264.0000000000000
 20
37.00000000000000
 30
0.0000000000000000
 11
264.0000000000000
 21
23.00000000000000
 31
0.0000000000000000
  0
LINE
  5
3A3
100
AcDbEntity
  8
WAKU0
  6
CONTINUOUS
 62
3
100
AcDbLine
 10
300.0000000000000
 20
26.00000000000000
 30
0.0000000000000000
 11
300.0000000000000
 21
23.00000000000000
 31
0.0000000000000000
  0
LINE
  5
3A4
100
AcDbEntity
  8
WAKU0
  6
CONTINUOUS
 62
3
100
AcDbLine
 10
276.0000000000000
 20
26.00000000000000
 30
0.0000000000000000
 11
276.0000000000000
 21
23.00000000000000
 31
0.0000000000000000
  0
LINE
  5
3A5
100
AcDbEntity
  8
WAKU0
  6
CONTINUOUS
 62
3
100
AcDbLine
 10
252.0000000000000
 20
26.00000000000000
 30
0.0000000000000000
 11
252.0000000000000
 21
23.00000000000000
 31
0.0000000000000000
  0
LINE
  5
3A6
100
AcDbEntity
  8
WAKU0
  6
CONTINUOUS
 62
3
100
AcDbLine
 10
258.0000000000000
 20
51.00000000000000
 30
0.0000000000000000
 11
258.0000000000000
 21
37.00000000000000
 31
0.0000000000000000
  0
LINE
  5
3A7
100
AcDbEntity
  8
WAKU0
  6
CONTINUOUS
 62
3
100
AcDbLine
 10
240.0000000000000
 20
45.00000000000000
 30
0.0000000000000000
 11
312.0000000000000
 21
45.00000000000000
 31
0.0000000000000000
  0
LINE
  5
3A8
100
AcDbEntity
  8
WAKU0
  6
HIDDEN
 62
3
100
AcDbLine
 10
360.5000000000000
 20
23.00000000000000
 30
0.0000000000000000
 11
360.5000000000000
 21
12.00000000000000
 31
0.0000000000000000
  0
LINE
  5
3A9
100
AcDbEntity
  8
WAKU0
  6
HIDDEN
 62
3
100
AcDbLine
 10
372.9000000000000
 20
23.00000000000000
 30
0.0000000000000000
 11
372.9000000000000
 21
12.00000000000000
 31
0.0000000000000000
  0
MTEXT
  5
3AA
100
AcDbEntity
  8
WAKU0
  6
CONTINUOUS
 62
3
100
AcDbMText
 10
344.4820000243485
 20
49.04999995231628
 30
0.0000000000000000
 40
3.099999904632568
 41
0.0000000000000000
 71
     1
 72
     1
  1
{\H0.91x;{AT04}}
 11
1.000000000000000
 21
0.0000000000000000
 31
0.0000000000000000
  7
STANDARD
  0
MTEXT
  5
3AB
100
AcDbEntity
  8
WAKU0
  6
CONTINUOUS
 62
3
100
AcDbMText
 10
353.5950003862381
 20
43.50000000000000
 30
0.0000000000000000
 40
3.000000000000000
 41
0.0000000000000000
 71
     1
 72
     1
  1
{\H0.94x;{ワークグリッパ　４\PＷＯＲＫ　ＧＲＩＰＰＥＲ　４}}
 11
1.000000000000000
 21
0.0000000000000000
 31
0.0000000000000000
  7
KNJYOKO
  0
MTEXT
  5
3AC
100
AcDbEntity
  8
WAKU0
  6
CONTINUOUS
 62
3
100
AcDbMText
 10
356.3099995255470
 20
34.23333326975504
 30
0.0000000000000000
 40
3.099999904632568
 41
0.0000000000000000
 71
     1
 72
     1
  1
{\H0.94x;{ＡＴ０４　ガイケイ\PＯＵＴＳＩＤＥ　ＶＩＥＷ}}
 11
1.000000000000000
 21
0.0000000000000000
 31
0.0000000000000000
  7
KNJYOKO
  0
MTEXT
  5
3AD
100
AcDbEntity
  8
WAKU0
  6
CONTINUOUS
 62
3
100
AcDbMText
 10
318.0049998760223
 20
39.29999995231628
 30
0.0000000000000000
 40
3.099999904632568
 41
0.0000000000000000
 71
     1
 72
     1
  1
{\H0.90x;{1:1}}
 11
1.000000000000000
 21
0.0000000000000000
 31
0.0000000000000000
  7
STANDARD
  0
MTEXT
  5
3AE
100
AcDbEntity
  8
WAKU0
  6
CONTINUOUS
 62
3
100
AcDbMText
 10
374.4000001549721
 20
20.15000009536743
 30
0.0000000000000000
 40
5.300000190734863
 41
0.0000000000000000
 71
     1
 72
     1
  1
{\H0.90x;{5649}}
 11
1.000000000000000
 21
0.0000000000000000
 31
0.0000000000000000
  7
STANDARD
  0
MTEXT
  5
3AF
100
AcDbEntity
  8
WAKU0
  6
CONTINUOUS
 62
3
100
AcDbMText
 10
362.3000000834465
 20
20.15000009536743
 30
0.0000000000000000
 40
5.300000190734863
 41
0.0000000000000000
 71
     1
 72
     1
  1
{\H0.87x;{39}}
 11
1.000000000000000
 21
0.0000000000000000
 31
0.0000000000000000
  7
STANDARD
  0
MTEXT
  5
3B0
100
AcDbEntity
  8
WAKU0
  6
CONTINUOUS
 62
3
100
AcDbMText
 10
345.5000001192093
 20
20.15000009536743
 30
0.0000000000000000
 40
5.300000190734863
 41
0.0000000000000000
 71
     1
 72
     1
  1
{\H0.89x;{61P}}
 11
1.000000000000000
 21
0.0000000000000000
 31
0.0000000000000000
  7
STANDARD
  0
MTEXT
  5
3B1
100
AcDbEntity
  8
WAKU0
  6
CONTINUOUS
 62
3
100
AcDbMText
 10
400.0000000476837
 20
20.15000009536743
 30
0.0000000000000000
 40
5.300000190734863
 41
0.0000000000000000
 71
     1
 72
     1
  1
{\H0.81x;{4}}
 11
1.000000000000000
 21
0.0000000000000000
 31
0.0000000000000000
  7
STANDARD
  0
MTEXT
  5
3B2
100
AcDbEntity
  8
WAKU0
  6
CONTINUOUS
 62
3
100
AcDbMText
 10
289.3850002884865
 20
33.00000000000000
 30
0.0000000000000000
 40
3.000000000000000
 41
0.0000000000000000
 71
     7
 72
     1
  1
{\H0.93x;{DRAWN BY}}
 11
1.000000000000000
 21
0.0000000000000000
 31
0.0000000000000000
  7
STANDARD
  0
MTEXT
  5
3B3
100
AcDbEntity
  8
WAKU0
  6
CONTINUOUS
 62
3
100
AcDbMText
 10
269.2149997949600
 20
32.95000004768372
 30
0.0000000000000000
 40
3.099999904632568
 41
0.0000000000000000
 71
     7
 72
     1
  1
{\H0.92x;{CHIEF}}
 11
1.000000000000000
 21
0.0000000000000000
 31
0.0000000000000000
  7
STANDARD
  0
MTEXT
  5
3B4
100
AcDbEntity
  8
WAKU0
  6
CONTINUOUS
 62
3
100
AcDbMText
 10
242.4249997138977
 20
32.95000004768372
 30
0.0000000000000000
 40
3.099999904632568
 41
0.0000000000000000
 71
     7
 72
     1
  1
{\H0.92x;{MANAGER}}
 11
1.000000000000000
 21
0.0000000000000000
 31
0.0000000000000000
  7
STANDARD
  0
MTEXT
  5
3B5
100
AcDbEntity
  8
WAKU0
  6
CONTINUOUS
 62
3
100
AcDbMText
 10
244.6599994301796
 20
18.13333336512248
 30
0.0000000000000000
 40
3.099999904632568
 41
0.0000000000000000
 71
     7
 72
     1
  1
{\H0.93x;{KITAGAWA IRON\PWORKS CO.,LTD.}}
 11
1.000000000000000
 21
0.0000000000000000
 31
0.0000000000000000
  7
STANDARD
  0
MTEXT
  5
3B6
100
AcDbEntity
  8
WAKU0
  6
CONTINUOUS
 62
3
100
AcDbMText
 10
241.0850002169609
 20
46.50000000000000
 30
0.0000000000000000
 40
3.000000000000000
 41
0.0000000000000000
 71
     7
 72
     1
  1
{\H0.92x;{CAREER}}
 11
1.000000000000000
 21
0.0000000000000000
 31
0.0000000000000000
  7
STANDARD
  0
MTEXT
  5
3B7
100
AcDbEntity
  8
WAKU0
  6
CONTINUOUS
 62
3
100
AcDbMText
 10
294.6099998354912
 20
18.95000004768372
 30
0.0000000000000000
 40
3.099999904632568
 41
0.0000000000000000
 71
     7
 72
     1
  1
{\H0.91x;{DATE}}
 11
1.000000000000000
 21
0.0000000000000000
 31
0.0000000000000000
  7
STANDARD
  0
MTEXT
  5
3B8
100
AcDbEntity
  8
WAKU0
  6
CONTINUOUS
 62
3
100
AcDbMText
 10
313.9000002145767
 20
26.50000000000000
 30
0.0000000000000000
 40
3.000000000000000
 41
0.0000000000000000
 71
     7
 72
     1
  1
{\H0.63x;{3RD ANGLE}}
 11
1.000000000000000
 21
0.0000000000000000
 31
0.0000000000000000
  7
STANDARD
  0
MTEXT
  5
3B9
100
AcDbEntity
  8
WAKU0
  6
CONTINUOUS
 62
3
100
AcDbMText
 10
315.2149997949600
 20
45.95000004768372
 30
0.0000000000000000
 40
3.099999904632568
 41
0.0000000000000000
 71
     7
 72
     1
  1
{\H0.92x;{SCALE}}
 11
1.000000000000000
 21
0.0000000000000000
 31
0.0000000000000000
  7
STANDARD
  0
MTEXT
  5
3BA
100
AcDbEntity
  8
WAKU0
  6
CONTINUOUS
 62
3
100
AcDbMText
 10
405.7000000476837
 20
46.00000000000000
 30
0.0000000000000000
 40
3.000000000000000
 41
0.0000000000000000
 71
     7
 72
     1
  1
{\H0.63x;{kg}}
 11
1.000000000000000
 21
0.0000000000000000
 31
0.0000000000000000
  7
STANDARD
  0
MTEXT
  5
3BB
100
AcDbEntity
  8
WAKU0
  6
CONTINUOUS
 62
3
100
AcDbMText
 10
375.6000001430512
 20
46.00000000000000
 30
0.0000000000000000
 40
3.000000000000000
 41
0.0000000000000000
 71
     7
 72
     1
  1
{\H0.63x;{WEIGHT}}
 11
1.000000000000000
 21
0.0000000000000000
 31
0.0000000000000000
  7
STANDARD
  0
MTEXT
  5
3BC
100
AcDbEntity
  8
WAKU0
  6
CONTINUOUS
 62
3
100
AcDbMText
 10
334.0049998760223
 20
18.13333336512248
 30
0.0000000000000000
 40
3.099999904632568
 41
0.0000000000000000
 71
     7
 72
     1
  1
{\H0.90x;{DRW\PNO.}}
 11
1.000000000000000
 21
0.0000000000000000
 31
0.0000000000000000
  7
STANDARD
  0
MTEXT
  5
3BD
100
AcDbEntity
  8
WAKU0
  6
CONTINUOUS
 62
3
100
AcDbMText
 10
332.6099998354912
 20
31.95000004768372
 30
0.0000000000000000
 40
3.099999904632568
 41
0.0000000000000000
 71
     7
 72
     1
  1
{\H0.91x;{NAME}}
 11
1.000000000000000
 21
0.0000000000000000
 31
0.0000000000000000
  7
STANDARD
  0
MTEXT
  5
3BE
100
AcDbEntity
  8
WAKU0
  6
CONTINUOUS
 62
3
100
AcDbMText
 10
332.6099998354912
 20
45.95000004768372
 30
0.0000000000000000
 40
3.099999904632568
 41
0.0000000000000000
 71
     7
 72
     1
  1
{\H0.91x;{TYPE}}
 11
1.000000000000000
 21
0.0000000000000000
 31
0.0000000000000000
  7
STANDARD
  0
LINE
  5
3BF
100
AcDbEntity
  8
WAKU0
  6
HIDDEN
 62
3
100
AcDbLine
 10
407.1599564743885
 20
13.84999990463257
 30
0.0000000000000000
 11
396.9400436209789
 21
13.84999990463257
 31
0.0000000000000000
  0
LINE
  5
3C0
100
AcDbEntity
  8
WAKU0
  6
HIDDEN
 62
3
100
AcDbLine
 10
407.1599564743885
 20
13.84999990463250
 30
0.0000000000000000
 11
402.0500000476852
 21
22.70070406014901
 31
0.0000000000000000
  0
LINE
  5
3C1
100
AcDbEntity
  8
WAKU0
  6
HIDDEN
 62
3
100
AcDbLine
 10
402.0500000476852
 20
22.70070406014902
 30
0.0000000000000000
 11
396.9400436209789
 21
13.84999990463248
 31
0.0000000000000000
  0
LINE
  5
3C2
100
AcDbEntity
  8
WAKU0
  6
CONTINUOUS
 62
3
100
AcDbLine
 10
330.4713877753800
 20
15.78041421262812
 30
0.0000000000000000
 11
330.4713877753800
 21
21.78041421262815
 31
0.0000000000000000
  0
LINE
  5
3C3
100
AcDbEntity
  8
WAKU0
  6
CONTINUOUS
 62
3
100
AcDbLine
 10
323.9336941228225
 20
17.28041421262811
 30
0.0000000000000000
 11
323.9336941228225
 21
20.28041421262824
 31
0.0000000000000000
  0
LINE
  5
3C4
100
AcDbEntity
  8
WAKU0
  6
CENTER
 62
12
100
AcDbLine
 10
313.4321805514995
 20
18.78041421262813
 30
0.0000000000000000
 11
331.2765788964694
 21
18.78041421262813
 31
0.0000000000000000
  0
LINE
  5
3C5
100
AcDbEntity
  8
WAKU0
  6
CENTER
 62
12
100
AcDbLine
 10
317.4474565857986
 20
14.55921662918448
 30
0.0000000000000000
 11
317.4474565857986
 21
22.89865102149943
 31
0.0000000000000000
  0
LINE
  5
3C6
100
AcDbEntity
  8
WAKU0
  6
CONTINUOUS
 62
3
100
AcDbLine
 10
323.9336941228225
 20
20.28041421262797
 30
0.0000000000000000
 11
330.4713877753800
 21
21.78041421262795
 31
0.0000000000000000
  0
LINE
  5
3C7
100
AcDbEntity
  8
WAKU0
  6
CONTINUOUS
 62
3
100
AcDbLine
 10
323.9336941228225
 20
17.28041421262811
 30
0.0000000000000000
 11
330.4713877753799
 21
15.78041421262812
 31
0.0000000000000000
  0
CIRCLE
  5
3C8
100
AcDbEntity
  8
WAKU0
  6
CONTINUOUS
 62
3
100
AcDbCircle
 10
317.4474565857986
 20
18.78041421262813
 30
0.0000000000000000
 40
1.499999999999972
  0
CIRCLE
  5
3C9
100
AcDbEntity
  8
WAKU0
  6
CONTINUOUS
 62
3
100
AcDbCircle
 10
317.4474565857986
 20
18.78041421262813
 30
0.0000000000000000
 40
2.999999999999979
  0
ENDSEC
  0
SECTION
  2
OBJECTS
  0
DICTIONARY
  5
418
100
AcDbDictionary
  3
ACAD_GROUP
350
419
  3
ACAD_MLINESTYLE
350
41A
  3
DWGPROPS
350
41B
  0
DICTIONARY
  5
419
102
{ACAD_REACTORS
330
418
102
}
100
AcDbDictionary
  0
DICTIONARY
  5
41A
102
{ACAD_REACTORS
330
418
102
}
100
AcDbDictionary
  3
STANDARD
350
41C
  0
MLINESTYLE
  5
41C
102
{ACAD_REACTORS
330
41A
102
}
100
AcDbMlineStyle
  2
STANDARD
 70
     0
  3

 62
   256
 51
90.00
 52
90.00
 71
     2
 49
0.50
 62
   256
  6
BYLAYER
 49
-0.50
 62
   256
  6
BYLAYER
  0
XRECORD
  5
41B
102
{ACAD_REACTORS
330
418
102
}
100
AcDbXrecord
280
     1
  1
DWGPROPS COOKIE
  2
ＡＴ０４　ガイケイ
  3

  4

  6
ワークグリッパ　４
  7

  8

  9

300
=
301
=
302
=
303
=
304
=
305
=
306
=
307
=
308
=
309
=
 40
0.000000
 41
0.000000
 42
0.000000
  1

 90
        0
  0
ENDSEC
  0
EOF
