  0
SECTION
  2
HEADER
  9
$ACADVER
  1
AC1012
  9
$DWGCODEPAGE
  3
dos932
  9
$INSBASE
 10
0.0
 20
0.0
 30
0.0
  9
$EXTMIN
 10
0.0
 20
0.0
 30
0.0
  9
$EXTMAX
 10
210.0
 20
297.0
 30
0.0
  9
$LIMMIN
 10
0.0
 20
0.0
  9
$LIMMAX
 10
210.0
 20
297.0
  9
$ORTHOMODE
 70
     0
  9
$REGENMODE
 70
     1
  9
$FILLMODE
 70
     1
  9
$QTEXTMODE
 70
     0
  9
$MIRRTEXT
 70
     1
  9
$DRAGMODE
 70
     2
  9
$LTSCALE
 40
1.0
  9
$OSMODE
 70
    37
  9
$ATTMODE
 70
     1
  9
$TEXTSIZE
 40
3.5
  9
$TRACEWID
 40
1.0
  9
$TEXTSTYLE
  7
STANDARD
  9
$CLAYER
  8
0
  9
$CELTYPE
  6
BYLAYER
  9
$CECOLOR
 62
   256
  9
$CELTSCALE
 40
1.0
  9
$DELOBJ
 70
     1
  9
$DISPSILH
 70
     0
  9
$DIMSCALE
 40
1.0
  9
$DIMASZ
 40
2.0
  9
$DIMEXO
 40
1.0
  9
$DIMDLI
 40
3.75
  9
$DIMRND
 40
0.0
  9
$DIMDLE
 40
0.0
  9
$DIMEXE
 40
1.0
  9
$DIMTP
 40
0.0
  9
$DIMTM
 40
0.0
  9
$DIMTXT
 40
3.5
  9
$DIMCEN
 40
2.5
  9
$DIMTSZ
 40
0.0
  9
$DIMTOL
 70
     0
  9
$DIMLIM
 70
     0
  9
$DIMTIH
 70
     1
  9
$DIMTOH
 70
     1
  9
$DIMSE1
 70
     0
  9
$DIMSE2
 70
     0
  9
$DIMTAD
 70
     1
  9
$DIMZIN
 70
     0
  9
$DIMBLK
  1

  9
$DIMASO
 70
     1
  9
$DIMSHO
 70
     1
  9
$DIMPOST
  1

  9
$DIMAPOST
  1

  9
$DIMALT
 70
     0
  9
$DIMALTD
 70
     3
  9
$DIMALTF
 40
0.0393700787
  9
$DIMLFAC
 40
1.0
  9
$DIMTOFL
 70
     1
  9
$DIMTVP
 40
0.0
  9
$DIMTIX
 70
     0
  9
$DIMSOXD
 70
     0
  9
$DIMSAH
 70
     0
  9
$DIMBLK1
  1

  9
$DIMBLK2
  1

  9
$DIMSTYLE
  2
ISO-25
  9
$DIMCLRD
 70
     0
  9
$DIMCLRE
 70
     0
  9
$DIMCLRT
 70
     0
  9
$DIMTFAC
 40
1.0
  9
$DIMGAP
 40
1.524
  9
$DIMJUST
 70
     0
  9
$DIMSD1
 70
     0
  9
$DIMSD2
 70
     0
  9
$DIMTOLJ
 70
     0
  9
$DIMTZIN
 70
     0
  9
$DIMALTZ
 70
     0
  9
$DIMALTTZ
 70
     0
  9
$DIMFIT
 70
     3
  9
$DIMUPT
 70
     0
  9
$DIMUNIT
 70
     2
  9
$DIMDEC
 70
     3
  9
$DIMTDEC
 70
     3
  9
$DIMALTU
 70
     2
  9
$DIMALTTD
 70
     3
  9
$DIMTXSTY
  7
STANDARD
  9
$DIMAUNIT
 70
     0
  9
$LUNITS
 70
     2
  9
$LUPREC
 70
     3
  9
$SKETCHINC
 40
1.0
  9
$FILLETRAD
 40
0.0
  9
$AUNITS
 70
     0
  9
$AUPREC
 70
     3
  9
$MENU
  1
.
  9
$ELEVATION
 40
0.0
  9
$PELEVATION
 40
0.0
  9
$THICKNESS
 40
0.0
  9
$LIMCHECK
 70
     0
  9
$CHAMFERA
 40
0.0
  9
$CHAMFERB
 40
0.0
  9
$CHAMFERC
 40
0.0
  9
$CHAMFERD
 40
0.0
  9
$SKPOLY
 70
     0
  9
$TDCREATE
 40
2460651.412589653
  9
$TDUPDATE
 40
2460651.412591204
  9
$TDINDWG
 40
0.0000000116
  9
$TDUSRTIMER
 40
0.0000000116
  9
$USRTIMER
 70
     1
  9
$ANGBASE
 50
0.0
  9
$ANGDIR
 70
     0
  9
$PDMODE
 70
     0
  9
$PDSIZE
 40
-1.0
  9
$PLINEWID
 40
0.0
  9
$COORDS
 70
     1
  9
$SPLFRAME
 70
     0
  9
$SPLINETYPE
 70
     6
  9
$SPLINESEGS
 70
     8
  9
$ATTDIA
 70
     0
  9
$ATTREQ
 70
     1
  9
$HANDLING
 70
     1
  9
$HANDSEED
  5
19B
  9
$SURFTAB1
 70
     6
  9
$SURFTAB2
 70
     6
  9
$SURFTYPE
 70
     6
  9
$SURFU
 70
     6
  9
$SURFV
 70
     6
  9
$UCSNAME
  2

  9
$UCSORG
 10
0.0
 20
0.0
 30
0.0
  9
$UCSXDIR
 10
1.0
 20
0.0
 30
0.0
  9
$UCSYDIR
 10
0.0
 20
1.0
 30
0.0
  9
$PUCSNAME
  2

  9
$PUCSORG
 10
0.0
 20
0.0
 30
0.0
  9
$PUCSXDIR
 10
1.0
 20
0.0
 30
0.0
  9
$PUCSYDIR
 10
0.0
 20
1.0
 30
0.0
  9
$USERI1
 70
     0
  9
$USERI2
 70
     0
  9
$USERI3
 70
     0
  9
$USERI4
 70
     0
  9
$USERI5
 70
     0
  9
$USERR1
 40
0.0
  9
$USERR2
 40
0.0
  9
$USERR3
 40
0.0
  9
$USERR4
 40
0.0
  9
$USERR5
 40
0.0
  9
$WORLDVIEW
 70
     1
  9
$SHADEDGE
 70
     3
  9
$SHADEDIF
 70
    70
  9
$TILEMODE
 70
     1
  9
$MAXACTVP
 70
    64
  9
$PINSBASE
 10
0.0
 20
0.0
 30
0.0
  9
$PLIMCHECK
 70
     0
  9
$PEXTMIN
 10
1.0000000000E+20
 20
1.0000000000E+20
 30
1.0000000000E+20
  9
$PEXTMAX
 10
-1.0000000000E+20
 20
-1.0000000000E+20
 30
-1.0000000000E+20
  9
$PLIMMIN
 10
0.0
 20
0.0
  9
$PLIMMAX
 10
420.0
 20
297.0
  9
$UNITMODE
 70
     0
  9
$VISRETAIN
 70
     1
  9
$PLINEGEN
 70
     0
  9
$PSLTSCALE
 70
     1
  9
$TREEDEPTH
 70
  3020
  9
$PICKSTYLE
 70
     1
  9
$CMLSTYLE
  2
STANDARD
  9
$CMLJUST
 70
     0
  9
$CMLSCALE
 40
20.0
  9
$SAVEIMAGES
 70
     1
  0
ENDSEC
  0
SECTION
  2
CLASSES
  0
CLASS
  1
ACDBDICTIONARYWDFLT
  2
AcDbDictionaryWithDefault
  3
ObjectDBX Classes
 90
    32768
280
     0
281
     0
  0
CLASS
  1
VISUALSTYLE
  2
AcDbVisualStyle
  3
ObjectDBX Classes
 90
     4095
280
     0
281
     0
  0
CLASS
  1
MATERIAL
  2
AcDbMaterial
  3
ObjectDBX Classes
 90
     1153
280
     0
281
     0
  0
CLASS
  1
SCALE
  2
AcDbScale
  3
ObjectDBX Classes
 90
     1153
280
     0
281
     0
  0
CLASS
  1
TABLESTYLE
  2
AcDbTableStyle
  3
ObjectDBX Classes
 90
     4095
280
     0
281
     0
  0
CLASS
  1
MLEADERSTYLE
  2
AcDbMLeaderStyle
  3
ACDB_MLEADERSTYLE_CLASS
 90
     4095
280
     0
281
     0
  0
CLASS
  1
SUN
  2
AcDbSun
  3
SCENEOE
 90
     1153
280
     0
281
     0
  0
CLASS
  1
XRECORD
  2
AcDbXrecord
  3
ObjectDBX Classes
 90
    32768
280
     0
281
     0
  0
ENDSEC
  0
SECTION
  2
TABLES
  0
TABLE
  2
VPORT
  5
8
330
0
100
AcDbSymbolTable
 70
     1
  0
VPORT
  5
29
330
8
100
AcDbSymbolTableRecord
100
AcDbViewportTableRecord
  2
*ACTIVE
 70
     0
 10
0.0
 20
0.0
 11
1.0
 21
1.0
 12
105.0
 22
148.5
 13
0.0
 23
0.0
 14
10.0
 24
10.0
 15
10.0
 25
10.0
 16
0.0
 26
0.0
 36
1.0
 17
0.0
 27
0.0
 37
0.0
 40
297.0
 41
0.7070707071
 42
50.0
 43
0.0
 44
0.0
 50
0.0
 51
0.0
 71
     0
 72
  2000
 73
     1
 74
     3
 75
     0
 76
     0
 77
     0
 78
     0
  0
ENDTAB
  0
TABLE
  2
LTYPE
  5
5
330
0
100
AcDbSymbolTable
 70
     6
  0
LTYPE
  5
14
330
5
100
AcDbSymbolTableRecord
100
AcDbLinetypeTableRecord
  2
BYBLOCK
 70
     0
  3

 72
    65
 73
     0
 40
0.0
  0
LTYPE
  5
15
330
5
100
AcDbSymbolTableRecord
100
AcDbLinetypeTableRecord
  2
BYLAYER
 70
     0
  3

 72
    65
 73
     0
 40
0.0
  0
LTYPE
  5
16
330
5
100
AcDbSymbolTableRecord
100
AcDbLinetypeTableRecord
  2
CONTINUOUS
 70
     0
  3
Solid line
 72
    65
 73
     0
 40
0.0
  0
LTYPE
  5
5E
330
5
100
AcDbSymbolTableRecord
100
AcDbLinetypeTableRecord
  2
HIDDEN
 70
     0
  3
Hidden __ __ __ __ __ __ __ __ __ __ __ __ __ __
 72
    65
 73
     2
 40
1.905
 49
1.27
 74
     0
 49
-0.635
 74
     0
  0
LTYPE
  5
5F
330
5
100
AcDbSymbolTableRecord
100
AcDbLinetypeTableRecord
  2
PHANTOM
 70
     0
  3
Phantom ______  __  __  ______  __  __  ______
 72
    65
 73
     6
 40
12.7
 49
6.35
 74
     0
 49
-1.27
 74
     0
 49
1.27
 74
     0
 49
-1.27
 74
     0
 49
1.27
 74
     0
 49
-1.27
 74
     0
  0
LTYPE
  5
60
330
5
100
AcDbSymbolTableRecord
100
AcDbLinetypeTableRecord
  2
CENTER
 70
     0
  3
Center ____ _ ____ _ ____ _ ____ _ ____ _ ____
 72
    65
 73
     4
 40
10.16
 49
6.35
 74
     0
 49
-1.27
 74
     0
 49
1.27
 74
     0
 49
-1.27
 74
     0
  0
LTYPE
  5
61
330
5
100
AcDbSymbolTableRecord
100
AcDbLinetypeTableRecord
  2
CENTERX2
 70
     0
  3
Center (2x) ________  __  ________  __  _____
 72
    65
 73
     4
 40
20.32
 49
12.7
 74
     0
 49
-2.54
 74
     0
 49
2.54
 74
     0
 49
-2.54
 74
     0
  0
LTYPE
  5
62
330
5
100
AcDbSymbolTableRecord
100
AcDbLinetypeTableRecord
  2
DOT2
 70
     0
  3
Dot (.5x) ........................................
 72
    65
 73
     2
 40
0.635
 49
0.0
 74
     0
 49
-0.635
 74
     0
  0
ENDTAB
  0
TABLE
  2
LAYER
  5
2
330
0
100
AcDbSymbolTable
 70
     4
  0
LAYER
  5
10
330
2
100
AcDbSymbolTableRecord
100
AcDbLayerTableRecord
  2
0
 70
     0
 62
     7
  6
CONTINUOUS
  0
LAYER
  5
63
330
2
100
AcDbSymbolTableRecord
100
AcDbLayerTableRecord
  2
ﾚｲﾔｰ1
 70
     0
 62
     9
  6
CONTINUOUS
  0
LAYER
  5
64
330
2
100
AcDbSymbolTableRecord
100
AcDbLayerTableRecord
  2
MAIN0
 70
     0
 62
   179
  6
CONTINUOUS
  0
LAYER
  5
65
330
2
100
AcDbSymbolTableRecord
100
AcDbLayerTableRecord
  2
太線
 70
     0
 62
     7
  6
CONTINUOUS
  0
ENDTAB
  0
TABLE
  2
STYLE
  5
3
330
0
100
AcDbSymbolTable
 70
     2
  0
STYLE
  5
11
330
3
100
AcDbSymbolTableRecord
100
AcDbTextStyleTableRecord
  2
STANDARD
 70
     0
 40
0.0
 41
1.0
 50
0.0
 71
     0
 42
3.5
  3
txt
  4
bigfont
  0
STYLE
  5
B0
330
3
100
AcDbSymbolTableRecord
100
AcDbTextStyleTableRecord
  2
SLDTEXTSTYLE0
 70
     0
 40
0.0
 41
0.7
 50
0.0
 71
     0
 42
3.5
  3
TXT
  4
bigfont
  0
ENDTAB
  0
TABLE
  2
VIEW
  5
6
330
0
100
AcDbSymbolTable
 70
     0
  0
ENDTAB
  0
TABLE
  2
UCS
  5
7
330
0
100
AcDbSymbolTable
 70
     0
  0
ENDTAB
  0
TABLE
  2
APPID
  5
9
330
0
100
AcDbSymbolTable
 70
     1
  0
APPID
  5
12
330
9
100
AcDbSymbolTableRecord
100
AcDbRegAppTableRecord
  2
ACAD
 70
     0
  0
ENDTAB
  0
TABLE
  2
DIMSTYLE
  5
A
330
0
100
AcDbSymbolTable
 70
     5
  0
DIMSTYLE
105
27
330
A
100
AcDbSymbolTableRecord
100
AcDbDimStyleTableRecord
  2
ISO-25
 70
     0
  3

  4

  5

  6

  7

 40
1.0
 41
2.5
 42
0.625
 43
3.75
 44
1.25
 45
0.0
 46
0.0
 47
0.0
 48
0.0
140
2.5
141
2.5
142
0.0
143
0.0393700787
144
1.0
145
0.0
146
1.0
147
0.625
 71
     0
 72
     0
 73
     0
 74
     0
 75
     0
 76
     0
 77
     1
 78
     8
170
     0
171
     3
172
     1
173
     0
174
     0
175
     0
176
     0
177
     0
178
     0
270
     2
271
     2
272
     2
273
     2
274
     3
340
11
275
     0
280
     0
281
     0
282
     0
283
     0
284
     8
285
     0
286
     0
287
     3
288
     0
  0
DIMSTYLE
105
12A
102
{ACAD_REACTORS
330
129
330
148
330
152
102
}
330
A
100
AcDbSymbolTableRecord
100
AcDbDimStyleTableRecord
  2
SLDDIMSTYLE0
 70
     0
  3

  4

  5

  6
OPEN30
  7
OPEN30
 40
1.0
 41
2.0
 42
0.0625
 43
0.38
 44
0.0
 45
0.000000001
 46
0.0
 47
0.0
 48
0.0
140
3.5
141
0.09
142
0.0
143
25.4
144
1.0
145
0.0
146
1.0
147
0.875
 71
     0
 72
     0
 73
     0
 74
     0
 75
     0
 76
     0
 77
     3
 78
    12
170
     0
171
     2
172
     0
173
     1
174
     0
175
     0
176
     0
177
     0
178
     0
270
     2
271
     3
272
     3
273
     2
274
     2
340
B0
275
     0
280
     0
281
     0
282
     0
283
     1
284
    12
285
     0
286
     0
287
     3
288
     0
  0
DIMSTYLE
105
13C
102
{ACAD_REACTORS
330
13B
102
}
330
A
100
AcDbSymbolTableRecord
100
AcDbDimStyleTableRecord
  2
SLDDIMSTYLE1
 70
     0
  3

  4

  5

  6
OPEN30
  7
OPEN30
 40
1.0
 41
2.0
 42
0.0625
 43
0.38
 44
0.0
 45
0.000000001
 46
0.0
 47
0.0
 48
0.0
140
3.5
141
0.09
142
0.0
143
25.4
144
1.0
145
0.0
146
1.0
147
0.875
 71
     0
 72
     0
 73
     0
 74
     0
 75
     0
 76
     0
 77
     3
 78
    12
170
     0
171
     2
172
     1
173
     1
174
     0
175
     0
176
     0
177
     0
178
     0
270
     2
271
     3
272
     3
273
     2
274
     2
340
B0
275
     0
280
     0
281
     0
282
     0
283
     1
284
    12
285
     0
286
     0
288
     0
  0
DIMSTYLE
105
163
330
A
100
AcDbSymbolTableRecord
100
AcDbDimStyleTableRecord
  2
SLDDIMSTYLE2
 70
     0
  3

  4

  5

  6
DOT
  7
DOT
 40
1.0
 41
1.0
 42
0.0625
 43
0.38
 44
0.0
 45
0.000000001
 46
0.0
 47
0.0
 48
0.0
140
0.18
141
0.09
142
0.0
143
25.4
144
1.0
145
0.0
146
1.0
147
0.0
 71
     0
 72
     0
 73
     1
 74
     1
 75
     0
 76
     0
 77
     0
 78
     0
170
     0
171
     2
172
     0
173
     1
174
     0
175
     0
176
     0
177
     0
178
     0
270
     2
271
     0
272
     0
273
     2
274
     2
340
11
275
     0
280
     0
281
     0
282
     0
283
     1
284
     0
285
     0
286
     0
287
     3
288
     0
  0
DIMSTYLE
105
189
330
A
100
AcDbSymbolTableRecord
100
AcDbDimStyleTableRecord
  2
SLDDIMSTYLE3
 70
     0
  3

  4

  5

  6
OPEN30
  7
OPEN30
 40
1.0
 41
2.0
 42
0.0625
 43
0.38
 44
0.0
 45
0.000000001
 46
0.0
 47
0.0
 48
0.0
140
0.18
141
0.09
142
0.0
143
25.4
144
1.0
145
0.0
146
2.0
147
0.0
 71
     0
 72
     0
 73
     1
 74
     1
 75
     0
 76
     0
 77
     0
 78
     0
170
     0
171
     2
172
     0
173
     1
174
     0
175
     0
176
     0
177
     0
178
     0
270
     2
271
     0
272
     0
273
     2
274
     2
340
11
275
     0
280
     0
281
     0
282
     0
283
     1
284
     0
285
     0
286
     0
287
     3
288
     0
  0
ENDTAB
  0
TABLE
  2
BLOCK_RECORD
  5
1
330
0
100
AcDbSymbolTable
 70
    12
  0
BLOCK_RECORD
  5
1F
330
1
100
AcDbSymbolTableRecord
100
AcDbBlockTableRecord
  2
*MODEL_SPACE
  0
BLOCK_RECORD
  5
1B
330
1
100
AcDbSymbolTableRecord
100
AcDbBlockTableRecord
  2
*PAPER_SPACE
  0
BLOCK_RECORD
  5
23
330
1
100
AcDbSymbolTableRecord
100
AcDbBlockTableRecord
  2
*PAPER_SPACE0
  0
BLOCK_RECORD
  5
DE
330
1
100
AcDbSymbolTableRecord
100
AcDbBlockTableRecord
  2
SW_TABLEANNOTATION_0
  0
BLOCK_RECORD
  5
F7
330
1
100
AcDbSymbolTableRecord
100
AcDbBlockTableRecord
  2
SW_TABLEANNOTATION_1
  0
BLOCK_RECORD
  5
12B
330
1
100
AcDbSymbolTableRecord
100
AcDbBlockTableRecord
  2
_OPEN30
  0
BLOCK_RECORD
  5
131
330
1
100
AcDbSymbolTableRecord
100
AcDbBlockTableRecord
  2
_D
  0
BLOCK_RECORD
  5
13D
330
1
100
AcDbSymbolTableRecord
100
AcDbBlockTableRecord
  2
_D_1
  0
BLOCK_RECORD
  5
149
330
1
100
AcDbSymbolTableRecord
100
AcDbBlockTableRecord
  2
_D_2
  0
BLOCK_RECORD
  5
153
330
1
100
AcDbSymbolTableRecord
100
AcDbBlockTableRecord
  2
_D_3
  0
BLOCK_RECORD
  5
15C
330
1
100
AcDbSymbolTableRecord
100
AcDbBlockTableRecord
  2
SW_NOTE_0
  0
BLOCK_RECORD
  5
164
330
1
100
AcDbSymbolTableRecord
100
AcDbBlockTableRecord
  2
_DOT
  0
BLOCK_RECORD
  5
182
330
1
100
AcDbSymbolTableRecord
100
AcDbBlockTableRecord
  2
SW_NOTE_0_1
  0
BLOCK_RECORD
  5
18B
330
1
100
AcDbSymbolTableRecord
100
AcDbBlockTableRecord
  2
SW_CENTERMARKSYMBOL_0
  0
ENDTAB
  0
ENDSEC
  0
SECTION
  2
BLOCKS
  0
BLOCK
  5
20
330
1F
100
AcDbEntity
  8
0
100
AcDbBlockBegin
  2
*MODEL_SPACE
 70
     0
 10
0.0
 20
0.0
 30
0.0
  3
*MODEL_SPACE
  1

  0
ENDBLK
  5
21
330
1F
100
AcDbEntity
  8
0
100
AcDbBlockEnd
  0
BLOCK
  5
1C
330
1B
100
AcDbEntity
 67
     1
  8
0
100
AcDbBlockBegin
  2
*PAPER_SPACE
 70
     0
 10
0.0
 20
0.0
 30
0.0
  3
*PAPER_SPACE
  1

  0
ENDBLK
  5
1D
330
1B
100
AcDbEntity
 67
     1
  8
0
100
AcDbBlockEnd
  0
BLOCK
  5
24
330
23
100
AcDbEntity
  8
0
100
AcDbBlockBegin
  2
*PAPER_SPACE0
 70
     0
 10
0.0
 20
0.0
 30
0.0
  3
*PAPER_SPACE0
  1

  0
ENDBLK
  5
25
330
23
100
AcDbEntity
  8
0
100
AcDbBlockEnd
  0
BLOCK
  5
DF
330
DE
100
AcDbEntity
  8
0
100
AcDbBlockBegin
  2
SW_TABLEANNOTATION_0
 70
     0
 10
0.0
 20
0.0
 30
0.0
  3
SW_TABLEANNOTATION_0
  1

  0
LINE
  5
E1
330
DE
100
AcDbEntity
  8
0
  6
CONTINUOUS
 62
     0
100
AcDbLine
 10
0.0
 20
0.0
 30
0.0
 11
0.0
 21
-4.9602402351
 31
0.0
  0
LINE
  5
E2
330
DE
100
AcDbEntity
  8
0
  6
CONTINUOUS
 62
     0
100
AcDbLine
 10
12.2
 20
0.0
 30
0.0
 11
12.2
 21
-4.9602402351
 31
0.0
  0
LINE
  5
E3
330
DE
100
AcDbEntity
  8
0
  6
CONTINUOUS
 62
     0
100
AcDbLine
 10
32.2
 20
0.0
 30
0.0
 11
32.2
 21
-4.9602402351
 31
0.0
  0
LINE
  5
E4
330
DE
100
AcDbEntity
  8
0
  6
CONTINUOUS
 62
     0
100
AcDbLine
 10
85.993
 20
0.0
 30
0.0
 11
85.993
 21
-4.9602402351
 31
0.0
  0
LINE
  5
E5
330
DE
100
AcDbEntity
  8
0
  6
CONTINUOUS
 62
     0
100
AcDbLine
 10
105.993
 20
0.0
 30
0.0
 11
105.993
 21
-4.9602402351
 31
0.0
  0
LINE
  5
E6
330
DE
100
AcDbEntity
  8
0
  6
CONTINUOUS
 62
     0
100
AcDbLine
 10
123.993
 20
0.0
 30
0.0
 11
123.993
 21
-4.9602402351
 31
0.0
  0
LINE
  5
E7
330
DE
100
AcDbEntity
  8
0
  6
CONTINUOUS
 62
     0
100
AcDbLine
 10
0.0
 20
0.0
 30
0.0
 11
12.2
 21
0.0
 31
0.0
  0
LINE
  5
E8
330
DE
100
AcDbEntity
  8
0
  6
CONTINUOUS
 62
     0
100
AcDbLine
 10
0.0
 20
-4.9602402351
 30
0.0
 11
12.2
 21
-4.9602402351
 31
0.0
  0
LINE
  5
E9
330
DE
100
AcDbEntity
  8
0
  6
CONTINUOUS
 62
     0
100
AcDbLine
 10
12.2
 20
0.0
 30
0.0
 11
32.2
 21
0.0
 31
0.0
  0
LINE
  5
EA
330
DE
100
AcDbEntity
  8
0
  6
CONTINUOUS
 62
     0
100
AcDbLine
 10
12.2
 20
-4.9602402351
 30
0.0
 11
32.2
 21
-4.9602402351
 31
0.0
  0
LINE
  5
EB
330
DE
100
AcDbEntity
  8
0
  6
CONTINUOUS
 62
     0
100
AcDbLine
 10
32.2
 20
0.0
 30
0.0
 11
85.993
 21
0.0
 31
0.0
  0
LINE
  5
EC
330
DE
100
AcDbEntity
  8
0
  6
CONTINUOUS
 62
     0
100
AcDbLine
 10
32.2
 20
-4.9602402351
 30
0.0
 11
85.993
 21
-4.9602402351
 31
0.0
  0
LINE
  5
ED
330
DE
100
AcDbEntity
  8
0
  6
CONTINUOUS
 62
     0
100
AcDbLine
 10
85.993
 20
0.0
 30
0.0
 11
105.993
 21
0.0
 31
0.0
  0
LINE
  5
EE
330
DE
100
AcDbEntity
  8
0
  6
CONTINUOUS
 62
     0
100
AcDbLine
 10
85.993
 20
-4.9602402351
 30
0.0
 11
105.993
 21
-4.9602402351
 31
0.0
  0
LINE
  5
EF
330
DE
100
AcDbEntity
  8
0
  6
CONTINUOUS
 62
     0
100
AcDbLine
 10
105.993
 20
0.0
 30
0.0
 11
123.993
 21
0.0
 31
0.0
  0
LINE
  5
F0
330
DE
100
AcDbEntity
  8
0
  6
CONTINUOUS
 62
     0
100
AcDbLine
 10
105.993
 20
-4.9602402351
 30
0.0
 11
123.993
 21
-4.9602402351
 31
0.0
  0
MTEXT
  5
F1
330
DE
100
AcDbEntity
  8
0
  6
CONTINUOUS
 62
     0
100
AcDbMText
 10
1.7784723327
 20
-1.5485516031
 30
0.0
 40
1.8520833333
 41
0.0
 71
     1
 72
     1
  1
REV.NO.
  7
SLDTEXTSTYLE0
  0
MTEXT
  5
F2
330
DE
100
AcDbEntity
  8
0
  6
CONTINUOUS
 62
     0
100
AcDbMText
 10
18.6722222649
 20
-1.0545209195
 30
0.0
 40
2.6458333333
 41
0.0
 71
     1
 72
     1
  1
DATE
  7
SLDTEXTSTYLE0
  0
MTEXT
  5
F3
330
DE
100
AcDbEntity
  8
0
  6
CONTINUOUS
 62
     0
100
AcDbMText
 10
42.12578125
 20
-1.0545209195
 30
0.0
 40
2.6458333333
 41
0.0
 71
     1
 72
     1
  1
REASON OF REVISION
  7
SLDTEXTSTYLE0
  0
MTEXT
  5
F4
330
DE
100
AcDbEntity
  8
0
  6
CONTINUOUS
 62
     0
100
AcDbMText
 10
89.8193893127
 20
-1.0545209195
 30
0.0
 40
2.6458333333
 41
0.0
 71
     1
 72
     1
  1
REVISER
  7
SLDTEXTSTYLE0
  0
MTEXT
  5
F5
330
DE
100
AcDbEntity
  8
0
  6
CONTINUOUS
 62
     0
100
AcDbMText
 10
110.0541111708
 20
-1.5485516031
 30
0.0
 40
1.8520833333
 41
0.0
 71
     1
 72
     1
  1
QUANTITY
  7
SLDTEXTSTYLE0
  0
ENDBLK
  5
E0
330
DE
100
AcDbEntity
  8
0
100
AcDbBlockEnd
  0
BLOCK
  5
F8
330
F7
100
AcDbEntity
  8
0
100
AcDbBlockBegin
  2
SW_TABLEANNOTATION_1
 70
     0
 10
0.0
 20
0.0
 30
0.0
  3
SW_TABLEANNOTATION_1
  1

  0
LINE
  5
FA
330
F7
100
AcDbEntity
  8
0
  6
CONTINUOUS
 62
     0
100
AcDbLine
 10
0.0
 20
0.0
 30
0.0
 11
0.0
 21
-13.3000000603
 31
0.0
  0
LINE
  5
FB
330
F7
100
AcDbEntity
  8
0
  6
CONTINUOUS
 62
     0
100
AcDbLine
 10
34.8937611864
 20
0.0
 30
0.0
 11
34.8937611864
 21
-13.3000000603
 31
0.0
  0
LINE
  5
FC
330
F7
100
AcDbEntity
  8
0
  6
CONTINUOUS
 62
     0
100
AcDbLine
 10
0.0
 20
-13.3000000603
 30
0.0
 11
0.0
 21
-27.6180137417
 31
0.0
  0
LINE
  5
FD
330
F7
100
AcDbEntity
  8
0
  6
CONTINUOUS
 62
     0
100
AcDbLine
 10
34.8937611864
 20
-13.3000000603
 30
0.0
 11
34.8937611864
 21
-27.6180137417
 31
0.0
  0
LINE
  5
FE
330
F7
100
AcDbEntity
  8
0
  6
CONTINUOUS
 62
     0
100
AcDbLine
 10
69.3077085939
 20
0.0
 30
0.0
 11
69.3077085939
 21
-13.3000000603
 31
0.0
  0
LINE
  5
FF
330
F7
100
AcDbEntity
  8
0
  6
CONTINUOUS
 62
     0
100
AcDbLine
 10
69.3077085939
 20
-13.3000000603
 30
0.0
 11
69.3077085939
 21
-27.6180137417
 31
0.0
  0
LINE
  5
100
330
F7
100
AcDbEntity
  8
0
  6
CONTINUOUS
 62
     0
100
AcDbLine
 10
0.0
 20
0.0
 30
0.0
 11
34.8937611864
 21
0.0
 31
0.0
  0
LINE
  5
101
330
F7
100
AcDbEntity
  8
0
  6
CONTINUOUS
 62
     0
100
AcDbLine
 10
0.0
 20
-13.3000000603
 30
0.0
 11
34.8937611864
 21
-13.3000000603
 31
0.0
  0
LINE
  5
102
330
F7
100
AcDbEntity
  8
0
  6
CONTINUOUS
 62
     0
100
AcDbLine
 10
34.8937611864
 20
0.0
 30
0.0
 11
69.3077085939
 21
0.0
 31
0.0
  0
LINE
  5
103
330
F7
100
AcDbEntity
  8
0
  6
CONTINUOUS
 62
     0
100
AcDbLine
 10
34.8937611864
 20
-13.3000000603
 30
0.0
 11
69.3077085939
 21
-13.3000000603
 31
0.0
  0
LINE
  5
104
330
F7
100
AcDbEntity
  8
0
  6
CONTINUOUS
 62
     0
100
AcDbLine
 10
0.0
 20
-27.6180137417
 30
0.0
 11
34.8937611864
 21
-27.6180137417
 31
0.0
  0
LINE
  5
105
330
F7
100
AcDbEntity
  8
0
  6
CONTINUOUS
 62
     0
100
AcDbLine
 10
34.8937611864
 20
-27.6180137417
 30
0.0
 11
69.3077085939
 21
-27.6180137417
 31
0.0
  0
MTEXT
  5
106
330
F7
100
AcDbEntity
  8
0
  6
CONTINUOUS
 62
     0
100
AcDbMText
 10
7.5247272767
 20
-2.8750602496
 30
0.0
 40
3.1
 41
0.0
 71
     1
 72
     1
  1
Tナット型式
  7
SLDTEXTSTYLE0
  0
MTEXT
  5
107
330
F7
100
AcDbEntity
  8
0
  6
CONTINUOUS
 62
     0
100
AcDbMText
 10
8.4267411299
 20
-6.9750602698
 30
0.0
 40
3.1
 41
0.0
 71
     1
 72
     1
  1
T-NUT TYPE
  7
SLDTEXTSTYLE0
  0
MTEXT
  5
108
330
F7
100
AcDbEntity
  8
0
  6
CONTINUOUS
 62
     0
100
AcDbMText
 10
43.9826092801
 20
-4.9250602597
 30
0.0
 40
3.1
 41
0.0
 71
     1
 72
     1
  1
BR-AJC06M
  7
SLDTEXTSTYLE0
  0
MTEXT
  5
109
330
F7
100
AcDbEntity
  8
0
  6
CONTINUOUS
 62
     0
100
AcDbMText
 10
6.6227134236
 20
-16.6840671205
 30
0.0
 40
3.1
 41
0.0
 71
     1
 72
     1
  1
ワッシャ型式
  7
SLDTEXTSTYLE0
  0
MTEXT
  5
10A
330
F7
100
AcDbEntity
  8
0
  6
CONTINUOUS
 62
     0
100
AcDbMText
 10
7.5247272767
 20
-20.7840671406
 30
0.0
 40
3.1
 41
0.0
 71
     1
 72
     1
  1
WASHER TYPE
  7
SLDTEXTSTYLE0
  0
MTEXT
  5
10B
330
F7
100
AcDbEntity
  8
0
  6
CONTINUOUS
 62
     0
100
AcDbMText
 10
43.9826092801
 20
-18.7340671306
 30
0.0
 40
3.1
 41
0.0
 71
     1
 72
     1
  1
BRAJCWS10
  7
SLDTEXTSTYLE0
  0
ENDBLK
  5
F9
330
F7
100
AcDbEntity
  8
0
100
AcDbBlockEnd
  0
BLOCK
  5
12C
330
12B
100
AcDbEntity
  8
0
100
AcDbBlockBegin
  2
_OPEN30
 70
     0
 10
0.0
 20
0.0
 30
0.0
  3
_OPEN30
  1

  0
LINE
  5
12E
330
12B
100
AcDbEntity
  8
0
  6
BYBLOCK
 62
     0
100
AcDbLine
 10
-1.0
 20
0.267949
 30
0.0
 11
0.0
 21
0.0
 31
0.0
  0
LINE
  5
12F
330
12B
100
AcDbEntity
  8
0
  6
BYBLOCK
 62
     0
100
AcDbLine
 10
0.0
 20
0.0
 30
0.0
 11
-1.0
 21
-0.267949
 31
0.0
  0
LINE
  5
130
330
12B
100
AcDbEntity
  8
0
  6
BYBLOCK
 62
     0
100
AcDbLine
 10
0.0
 20
0.0
 30
0.0
 11
-1.0
 21
0.0
 31
0.0
  0
ENDBLK
  5
12D
330
12B
100
AcDbEntity
  8
0
100
AcDbBlockEnd
  0
BLOCK
  5
132
330
131
100
AcDbEntity
  8
0
100
AcDbBlockBegin
  2
_D
 70
     0
 10
0.0
 20
0.0
 30
0.0
  3
_D
  1

  0
INSERT
  5
134
330
131
100
AcDbEntity
  8
0
  6
CONTINUOUS
 62
     7
100
AcDbBlockReference
  2
_OPEN30
 10
116.5586144022
 20
177.6152942791
 30
0.0
 41
2.0
 42
2.0
 50
90.0
  0
INSERT
  5
135
330
131
100
AcDbEntity
  8
0
  6
CONTINUOUS
 62
     7
100
AcDbBlockReference
  2
_OPEN30
 10
116.5586144022
 20
161.6152942791
 30
0.0
 41
2.0
 42
2.0
 50
270.0
  0
LINE
  5
136
330
131
100
AcDbEntity
  8
0
  6
CONTINUOUS
 62
     7
100
AcDbLine
 10
103.5396987689
 20
177.6152942791
 30
0.0
 11
117.5586144022
 21
177.6152942791
 31
0.0
  0
LINE
  5
137
330
131
100
AcDbEntity
  8
0
  6
CONTINUOUS
 62
     7
100
AcDbLine
 10
103.5396987689
 20
161.6152942791
 30
0.0
 11
117.5586144022
 21
161.6152942791
 31
0.0
  0
LINE
  5
138
330
131
100
AcDbEntity
  8
0
  6
CONTINUOUS
 62
     7
100
AcDbLine
 10
116.5586144022
 20
177.6152942791
 30
0.0
 11
116.5586144022
 21
161.6152942791
 31
0.0
  0
MTEXT
  5
139
330
131
100
AcDbEntity
  8
0
  6
CONTINUOUS
 62
     7
100
AcDbMText
 10
112.0468775458
 20
164.6951968442
 30
0.0
 40
3.5
 41
0.0
 71
     1
 72
     1
  1
%%c
  7
SLDTEXTSTYLE0
 11
-7.044195017643634E-15
 21
1.0
 31
0.0
  0
MTEXT
  5
13A
330
131
100
AcDbEntity
  8
0
  6
CONTINUOUS
 62
     7
100
AcDbMText
 10
112.0468775458
 20
168.5651273592
 30
0.0
 40
3.5
 41
0.0
 71
     1
 72
     1
  1
16
  7
SLDTEXTSTYLE0
 11
-7.044195017643634E-15
 21
1.0
 31
0.0
  0
ENDBLK
  5
133
330
131
100
AcDbEntity
  8
0
100
AcDbBlockEnd
  0
BLOCK
  5
13E
330
13D
100
AcDbEntity
  8
0
100
AcDbBlockBegin
  2
_D_1
 70
     0
 10
0.0
 20
0.0
 30
0.0
  3
_D_1
  1

  0
INSERT
  5
140
330
13D
100
AcDbEntity
  8
0
  6
CONTINUOUS
 62
     7
100
AcDbBlockReference
  2
_OPEN30
 10
55.7622380208
 20
174.6152942791
 30
0.0
 41
2.0
 42
2.0
 50
270.0
  0
INSERT
  5
141
330
13D
100
AcDbEntity
  8
0
  6
CONTINUOUS
 62
     7
100
AcDbBlockReference
  2
_OPEN30
 10
55.7622380208
 20
164.6152942791
 30
0.0
 41
2.0
 42
2.0
 50
90.0
  0
LINE
  5
142
330
13D
100
AcDbEntity
  8
0
  6
CONTINUOUS
 62
     7
100
AcDbLine
 10
68.5396987689
 20
174.6152942791
 30
0.0
 11
54.7622380208
 21
174.6152942791
 31
0.0
  0
LINE
  5
143
330
13D
100
AcDbEntity
  8
0
  6
CONTINUOUS
 62
     7
100
AcDbLine
 10
68.5396987689
 20
164.6152942791
 30
0.0
 11
54.7622380208
 21
164.6152942791
 31
0.0
  0
LINE
  5
144
330
13D
100
AcDbEntity
  8
0
  6
CONTINUOUS
 62
     7
100
AcDbLine
 10
55.7622380208
 20
174.6152942791
 30
0.0
 11
55.7622380208
 21
177.6152942791
 31
0.0
  0
LINE
  5
145
330
13D
100
AcDbEntity
  8
0
  6
CONTINUOUS
 62
     7
100
AcDbLine
 10
55.7622380208
 20
174.6152942791
 30
0.0
 11
55.7622380208
 21
164.6152942791
 31
0.0
  0
LINE
  5
146
330
13D
100
AcDbEntity
  8
0
  6
CONTINUOUS
 62
     7
100
AcDbLine
 10
55.7622380208
 20
164.6152942791
 30
0.0
 11
55.7622380208
 21
161.6152942791
 31
0.0
  0
MTEXT
  5
147
330
13D
100
AcDbEntity
  8
0
  6
CONTINUOUS
 62
     7
100
AcDbMText
 10
51.2505011644
 20
166.9876444453
 30
0.0
 40
3.5
 41
0.0
 71
     1
 72
     1
  1
M10
  7
SLDTEXTSTYLE0
 11
-7.044195017643634E-15
 21
1.0
 31
0.0
  0
ENDBLK
  5
13F
330
13D
100
AcDbEntity
  8
0
100
AcDbBlockEnd
  0
BLOCK
  5
14A
330
149
100
AcDbEntity
  8
0
100
AcDbBlockBegin
  2
_D_2
 70
     0
 10
0.0
 20
0.0
 30
0.0
  3
_D_2
  1

  0
INSERT
  5
14C
330
149
100
AcDbEntity
  8
0
  6
CONTINUOUS
 62
     7
100
AcDbBlockReference
  2
_OPEN30
 10
93.5396987689
 20
152.6068011149
 30
0.0
 41
2.0
 42
2.0
 50
0.0
  0
INSERT
  5
14D
330
149
100
AcDbEntity
  8
0
  6
CONTINUOUS
 62
     7
100
AcDbBlockReference
  2
_OPEN30
 10
68.5396987689
 20
152.6068011149
 30
0.0
 41
2.0
 42
2.0
 50
180.0
  0
LINE
  5
14E
330
149
100
AcDbEntity
  8
0
  6
CONTINUOUS
 62
     7
100
AcDbLine
 10
93.5396987689
 20
160.6152942791
 30
0.0
 11
93.5396987689
 21
151.6068011149
 31
0.0
  0
LINE
  5
14F
330
149
100
AcDbEntity
  8
0
  6
CONTINUOUS
 62
     7
100
AcDbLine
 10
68.5396987689
 20
164.6152942791
 30
0.0
 11
68.5396987689
 21
151.6068011149
 31
0.0
  0
LINE
  5
150
330
149
100
AcDbEntity
  8
0
  6
CONTINUOUS
 62
     7
100
AcDbLine
 10
93.5396987689
 20
152.6068011149
 30
0.0
 11
68.5396987689
 21
152.6068011149
 31
0.0
  0
MTEXT
  5
151
330
149
100
AcDbEntity
  8
0
  6
CONTINUOUS
 62
     7
100
AcDbMText
 10
78.0938965399
 20
157.1185379713
 30
0.0
 40
3.5
 41
0.0
 71
     1
 72
     1
  1
25
  7
SLDTEXTSTYLE0
  0
ENDBLK
  5
14B
330
149
100
AcDbEntity
  8
0
100
AcDbBlockEnd
  0
BLOCK
  5
154
330
153
100
AcDbEntity
  8
0
100
AcDbBlockBegin
  2
_D_3
 70
     0
 10
0.0
 20
0.0
 30
0.0
  3
_D_3
  1

  0
INSERT
  5
156
330
153
100
AcDbEntity
  8
0
  6
CONTINUOUS
 62
     7
100
AcDbBlockReference
  2
_OPEN30
 10
68.5396987689
 20
142.8401845099
 30
0.0
 41
2.0
 42
2.0
 50
180.0
  0
INSERT
  5
157
330
153
100
AcDbEntity
  8
0
  6
CONTINUOUS
 62
     7
100
AcDbBlockReference
  2
_OPEN30
 10
103.5396987689
 20
142.8401845099
 30
0.0
 41
2.0
 42
2.0
 50
0.0
  0
LINE
  5
158
330
153
100
AcDbEntity
  8
0
  6
CONTINUOUS
 62
     7
100
AcDbLine
 10
68.5396987689
 20
164.6152942791
 30
0.0
 11
68.5396987689
 21
141.8401845099
 31
0.0
  0
LINE
  5
159
330
153
100
AcDbEntity
  8
0
  6
CONTINUOUS
 62
     7
100
AcDbLine
 10
103.5396987689
 20
162.3473450867
 30
0.0
 11
103.5396987689
 21
141.8401845099
 31
0.0
  0
LINE
  5
15A
330
153
100
AcDbEntity
  8
0
  6
CONTINUOUS
 62
     7
100
AcDbLine
 10
68.5396987689
 20
142.8401845099
 30
0.0
 11
103.5396987689
 21
142.8401845099
 31
0.0
  0
MTEXT
  5
15B
330
153
100
AcDbEntity
  8
0
  6
CONTINUOUS
 62
     7
100
AcDbMText
 10
84.7881674119
 20
147.3519213662
 30
0.0
 40
3.5
 41
0.0
 71
     1
 72
     1
  1
35
  7
SLDTEXTSTYLE0
  0
ENDBLK
  5
155
330
153
100
AcDbEntity
  8
0
100
AcDbBlockEnd
  0
BLOCK
  5
15D
330
15C
100
AcDbEntity
  8
0
100
AcDbBlockBegin
  2
SW_NOTE_0
 70
     0
 10
0.0
 20
0.0
 30
0.0
  3
SW_NOTE_0
  1

  0
LINE
  5
15F
330
15C
100
AcDbEntity
  8
0
  6
CONTINUOUS
 62
     0
100
AcDbLine
 10
26.36027165
 20
0.0
 30
0.0
 11
0.0
 21
0.0
 31
0.0
  0
MTEXT
  5
160
330
15C
100
AcDbEntity
  8
0
  6
CONTINUOUS
 62
     0
100
AcDbMText
 10
0.4650636087
 20
9.1278858238
 30
0.0
 40
3.5
 41
0.0
 71
     1
 72
     1
  1
Oリング P12.5
  7
SLDTEXTSTYLE0
  0
MTEXT
  5
161
330
15C
100
AcDbEntity
  8
0
  6
CONTINUOUS
 62
     0
100
AcDbMText
 10
0.4650636087
 20
4.6278860175
 30
0.0
 40
3.5
 41
0.0
 71
     1
 72
     1
  1
O-RING
  7
SLDTEXTSTYLE0
  0
ENDBLK
  5
15E
330
15C
100
AcDbEntity
  8
0
100
AcDbBlockEnd
  0
BLOCK
  5
165
330
164
100
AcDbEntity
  8
0
100
AcDbBlockBegin
  2
_DOT
 70
     0
 10
0.0
 20
0.0
 30
0.0
  3
_DOT
  1

  0
POLYLINE
  5
167
330
164
100
AcDbEntity
  8
0
  6
BYBLOCK
 62
     0
100
AcDb2dPolyline
 66
     1
 10
0.0
 20
0.0
 30
0.0
 70
     1
 40
0.5
 41
0.5
  0
VERTEX
  5
198
330
167
100
AcDbEntity
  8
0
  6
BYBLOCK
 62
     0
100
AcDbVertex
100
AcDb2dVertex
 10
-0.25
 20
0.0
 30
0.0
 42
1.0
  0
VERTEX
  5
199
330
167
100
AcDbEntity
  8
0
  6
BYBLOCK
 62
     0
100
AcDbVertex
100
AcDb2dVertex
 10
0.25
 20
0.0
 30
0.0
 42
1.0
  0
SEQEND
  5
19A
330
167
100
AcDbEntity
  8
0
  6
BYBLOCK
 62
     0
  0
LINE
  5
168
330
164
100
AcDbEntity
  8
0
  6
BYBLOCK
 62
     0
100
AcDbLine
 10
-0.5
 20
0.0
 30
0.0
 11
-1.0
 21
0.0
 31
0.0
  0
ENDBLK
  5
166
330
164
100
AcDbEntity
  8
0
100
AcDbBlockEnd
  0
BLOCK
  5
183
330
182
100
AcDbEntity
  8
0
100
AcDbBlockBegin
  2
SW_NOTE_0_1
 70
     0
 10
0.0
 20
0.0
 30
0.0
  3
SW_NOTE_0_1
  1

  0
LINE
  5
185
330
182
100
AcDbEntity
  8
0
  6
CONTINUOUS
 62
     0
100
AcDbLine
 10
36.544297042
 20
0.0
 30
0.0
 11
0.0
 21
0.0
 31
0.0
  0
MTEXT
  5
186
330
182
100
AcDbEntity
  8
0
  6
CONTINUOUS
 62
     0
100
AcDbMText
 10
0.394484383
 20
9.0178398774
 30
0.0
 40
3.5
 41
0.0
 71
     1
 72
     1
  1
ドライブサイズ T50
  7
SLDTEXTSTYLE0
  0
MTEXT
  5
187
330
182
100
AcDbEntity
  8
0
  6
CONTINUOUS
 62
     0
100
AcDbMText
 10
0.394484383
 20
4.5178400711
 30
0.0
 40
3.5
 41
0.0
 71
     1
 72
     1
  1
DRIVE SIZE
  7
SLDTEXTSTYLE0
  0
ENDBLK
  5
184
330
182
100
AcDbEntity
  8
0
100
AcDbBlockEnd
  0
BLOCK
  5
18C
330
18B
100
AcDbEntity
  8
0
100
AcDbBlockBegin
  2
SW_CENTERMARKSYMBOL_0
 70
     0
 10
0.0
 20
0.0
 30
0.0
  3
SW_CENTERMARKSYMBOL_0
  1

  0
LINE
  5
18E
330
18B
100
AcDbEntity
  8
0
  6
CONTINUOUS
 62
     0
100
AcDbLine
 10
0.0
 20
0.0
 30
0.0
 11
0.0
 21
2.0
 31
0.0
  0
LINE
  5
18F
330
18B
100
AcDbEntity
  8
0
  6
CONTINUOUS
 62
     0
100
AcDbLine
 10
0.0
 20
0.0
 30
0.0
 11
-2.0
 21
0.0
 31
0.0
  0
LINE
  5
190
330
18B
100
AcDbEntity
  8
0
  6
CONTINUOUS
 62
     0
100
AcDbLine
 10
0.0
 20
0.0
 30
0.0
 11
0.0
 21
-2.0
 31
0.0
  0
LINE
  5
191
330
18B
100
AcDbEntity
  8
0
  6
CONTINUOUS
 62
     0
100
AcDbLine
 10
0.0
 20
0.0
 30
0.0
 11
2.0
 21
0.0
 31
0.0
  0
LINE
  5
192
330
18B
100
AcDbEntity
  8
0
  6
CONTINUOUS
 62
     0
100
AcDbLine
 10
0.0
 20
4.0
 30
0.0
 11
0.0
 21
10.0
 31
0.0
  0
LINE
  5
193
330
18B
100
AcDbEntity
  8
0
  6
CONTINUOUS
 62
     0
100
AcDbLine
 10
-4.0
 20
0.0
 30
0.0
 11
-10.0
 21
0.0
 31
0.0
  0
LINE
  5
194
330
18B
100
AcDbEntity
  8
0
  6
CONTINUOUS
 62
     0
100
AcDbLine
 10
0.0
 20
-4.0
 30
0.0
 11
0.0
 21
-10.0
 31
0.0
  0
LINE
  5
195
330
18B
100
AcDbEntity
  8
0
  6
CONTINUOUS
 62
     0
100
AcDbLine
 10
4.0
 20
0.0
 30
0.0
 11
10.0
 21
0.0
 31
0.0
  0
ENDBLK
  5
18D
330
18B
100
AcDbEntity
  8
0
100
AcDbBlockEnd
  0
ENDSEC
  0
SECTION
  2
ENTITIES
  0
LINE
  5
66
330
1F
100
AcDbEntity
  8
0
  6
CONTINUOUS
 62
     7
100
AcDbLine
 10
30.0
 20
51.0
 30
0.0
 11
200.0
 21
51.0
 31
0.0
  0
LINE
  5
67
330
1F
100
AcDbEntity
  8
0
  6
CONTINUOUS
 62
     7
100
AcDbLine
 10
30.0
 20
51.0
 30
0.0
 11
30.0
 21
12.0
 31
0.0
  0
LINE
  5
68
330
1F
100
AcDbEntity
  8
0
  6
CONTINUOUS
 62
     7
100
AcDbLine
 10
102.0
 20
51.0
 30
0.0
 11
102.0
 21
12.0
 31
0.0
  0
LINE
  5
69
330
1F
100
AcDbEntity
  8
0
  6
CONTINUOUS
 62
     7
100
AcDbLine
 10
122.0
 20
51.0
 30
0.0
 11
122.0
 21
12.0
 31
0.0
  0
LINE
  5
6A
330
1F
100
AcDbEntity
  8
0
  6
CONTINUOUS
 62
     7
100
AcDbLine
 10
134.0
 20
51.0
 30
0.0
 11
134.0
 21
12.0
 31
0.0
  0
LINE
  5
6B
330
1F
100
AcDbEntity
  8
0
  6
CONTINUOUS
 62
     7
100
AcDbLine
 10
134.0
 20
37.0
 30
0.0
 11
200.0
 21
37.0
 31
0.0
  0
LINE
  5
6C
330
1F
100
AcDbEntity
  8
0
  6
CONTINUOUS
 62
     7
100
AcDbLine
 10
122.0
 20
23.0
 30
0.0
 11
199.6420599231
 21
23.0
 31
0.0
  0
LINE
  5
6D
330
1F
100
AcDbEntity
  8
0
  6
CONTINUOUS
 62
     7
100
AcDbLine
 10
189.5933045206
 20
13.4656093825
 30
0.0
 11
194.3618349207
 21
21.724946313
 31
0.0
  0
LINE
  5
6E
330
1F
100
AcDbEntity
  8
0
  6
HIDDEN
 62
     7
100
AcDbLine
 10
148.3
 20
23.0
 30
0.0
 11
148.3
 21
12.0
 31
0.0
  0
LINE
  5
6F
330
1F
100
AcDbEntity
  8
0
  6
CONTINUOUS
 62
     7
100
AcDbLine
 10
102.0
 20
31.5
 30
0.0
 11
122.0
 21
31.5
 31
0.0
  0
LINE
  5
70
330
1F
100
AcDbEntity
  8
0
  6
CONTINUOUS
 62
     7
100
AcDbLine
 10
122.0
 20
44.0
 30
0.0
 11
200.0
 21
44.0
 31
0.0
  0
LINE
  5
71
330
1F
100
AcDbEntity
  8
0
  6
CONTINUOUS
 62
     7
100
AcDbLine
 10
30.0
 20
37.0
 30
0.0
 11
102.0
 21
37.0
 31
0.0
  0
LINE
  5
72
330
1F
100
AcDbEntity
  8
0
  6
CONTINUOUS
 62
     7
100
AcDbLine
 10
30.0
 20
23.0
 30
0.0
 11
102.0
 21
23.0
 31
0.0
  0
LINE
  5
73
330
1F
100
AcDbEntity
  8
0
  6
CONTINUOUS
 62
     7
100
AcDbLine
 10
78.0
 20
37.0
 30
0.0
 11
78.0
 21
12.0
 31
0.0
  0
LINE
  5
74
330
1F
100
AcDbEntity
  8
0
  6
CONTINUOUS
 62
     7
100
AcDbLine
 10
54.0
 20
37.0
 30
0.0
 11
54.0
 21
23.0
 31
0.0
  0
LINE
  5
75
330
1F
100
AcDbEntity
  8
0
  6
CONTINUOUS
 62
     7
100
AcDbLine
 10
90.0
 20
26.0
 30
0.0
 11
90.0
 21
23.0
 31
0.0
  0
LINE
  5
76
330
1F
100
AcDbEntity
  8
0
  6
CONTINUOUS
 62
     7
100
AcDbLine
 10
66.0
 20
26.0
 30
0.0
 11
66.0
 21
23.0
 31
0.0
  0
LINE
  5
77
330
1F
100
AcDbEntity
  8
0
  6
CONTINUOUS
 62
     7
100
AcDbLine
 10
42.0
 20
26.0
 30
0.0
 11
42.0
 21
23.0
 31
0.0
  0
LINE
  5
78
330
1F
100
AcDbEntity
  8
0
  6
CONTINUOUS
 62
     7
100
AcDbLine
 10
48.0
 20
51.0
 30
0.0
 11
48.0
 21
37.0
 31
0.0
  0
LINE
  5
79
330
1F
100
AcDbEntity
  8
0
  6
CONTINUOUS
 62
     7
100
AcDbLine
 10
30.0
 20
45.0
 30
0.0
 11
102.0
 21
45.0
 31
0.0
  0
LINE
  5
7A
330
1F
100
AcDbEntity
  8
ﾚｲﾔｰ1
  6
CONTINUOUS
 62
     7
100
AcDbLine
 10
200.0
 20
12.0
 30
0.0
 11
200.0
 21
288.0
 31
0.0
  0
LINE
  5
7B
330
1F
100
AcDbEntity
  8
0
  6
CONTINUOUS
 62
     7
100
AcDbLine
 10
200.0
 20
58.0
 30
0.0
 11
204.0
 21
58.0
 31
0.0
  0
LINE
  5
7C
330
1F
100
AcDbEntity
  8
0
  6
HIDDEN
 62
     9
100
AcDbLine
 10
187.65
 20
13.4423554227
 30
0.0
 11
176.65
 21
13.4423554227
 31
0.0
  0
LINE
  5
7D
330
1F
100
AcDbEntity
  8
0
  6
HIDDEN
 62
     9
100
AcDbLine
 10
187.65
 20
13.4423554227
 30
0.0
 11
182.15
 21
22.9686348643
 31
0.0
  0
LINE
  5
7E
330
1F
100
AcDbEntity
  8
0
  6
HIDDEN
 62
     9
100
AcDbLine
 10
182.15
 20
22.9686348643
 30
0.0
 11
176.65
 21
13.4423554227
 31
0.0
  0
LINE
  5
7F
330
1F
100
AcDbEntity
  8
ﾚｲﾔｰ1
  6
CONTINUOUS
 62
     7
100
AcDbLine
 10
20.0
 20
12.0
 30
0.0
 11
200.0
 21
12.0
 31
0.0
  0
LINE
  5
80
330
1F
100
AcDbEntity
  8
ﾚｲﾔｰ1
  6
CONTINUOUS
 62
     7
100
AcDbLine
 10
20.0
 20
288.0
 30
0.0
 11
200.0
 21
288.0
 31
0.0
  0
LINE
  5
81
330
1F
100
AcDbEntity
  8
ﾚｲﾔｰ1
  6
CONTINUOUS
 62
     7
100
AcDbLine
 10
20.0
 20
12.0
 30
0.0
 11
20.0
 21
288.0
 31
0.0
  0
LINE
  5
82
330
1F
100
AcDbEntity
  8
0
  6
HIDDEN
 62
     7
100
AcDbLine
 10
157.0
 20
23.0
 30
0.0
 11
157.0
 21
12.0
 31
0.0
  0
LINE
  5
83
330
1F
100
AcDbEntity
  8
0
  6
CONTINUOUS
 62
     7
100
AcDbLine
 10
0.0
 20
150.0
 30
0.0
 11
20.0
 21
150.0
 31
0.0
  0
LINE
  5
84
330
1F
100
AcDbEntity
  8
0
  6
CONTINUOUS
 62
     7
100
AcDbLine
 10
200.0
 20
150.0
 30
0.0
 11
210.0
 21
150.0
 31
0.0
  0
LINE
  5
85
330
1F
100
AcDbEntity
  8
0
  6
CONTINUOUS
 62
     7
100
AcDbLine
 10
110.0
 20
0.0
 30
0.0
 11
110.0
 21
12.0
 31
0.0
  0
LINE
  5
86
330
1F
100
AcDbEntity
  8
0
  6
CONTINUOUS
 62
     7
100
AcDbLine
 10
110.0
 20
288.0
 30
0.0
 11
110.0
 21
297.0
 31
0.0
  0
LINE
  5
87
330
1F
100
AcDbEntity
  8
0
  6
CONTINUOUS
 62
     7
100
AcDbLine
 10
15.0
 20
196.0
 30
0.0
 11
15.0
 21
104.0
 31
0.0
  0
LINE
  5
88
330
1F
100
AcDbEntity
  8
0
  6
CONTINUOUS
 62
     7
100
AcDbLine
 10
15.0
 20
159.2
 30
0.0
 11
18.0
 21
159.2
 31
0.0
  0
LINE
  5
89
330
1F
100
AcDbEntity
  8
0
  6
CONTINUOUS
 62
     7
100
AcDbLine
 10
15.0
 20
168.4
 30
0.0
 11
18.0
 21
168.4
 31
0.0
  0
LINE
  5
8A
330
1F
100
AcDbEntity
  8
0
  6
CONTINUOUS
 62
     7
100
AcDbLine
 10
15.0
 20
177.6
 30
0.0
 11
18.0
 21
177.6
 31
0.0
  0
LINE
  5
8B
330
1F
100
AcDbEntity
  8
0
  6
CONTINUOUS
 62
     7
100
AcDbLine
 10
15.0
 20
186.8
 30
0.0
 11
18.0
 21
186.8
 31
0.0
  0
LINE
  5
8C
330
1F
100
AcDbEntity
  8
0
  6
CONTINUOUS
 62
     7
100
AcDbLine
 10
15.0
 20
196.0
 30
0.0
 11
20.0
 21
196.0
 31
0.0
  0
LINE
  5
8D
330
1F
100
AcDbEntity
  8
0
  6
CONTINUOUS
 62
     7
100
AcDbLine
 10
15.0
 20
140.8
 30
0.0
 11
18.0
 21
140.8
 31
0.0
  0
LINE
  5
8E
330
1F
100
AcDbEntity
  8
0
  6
CONTINUOUS
 62
     7
100
AcDbLine
 10
15.0
 20
131.6
 30
0.0
 11
18.0
 21
131.6
 31
0.0
  0
LINE
  5
8F
330
1F
100
AcDbEntity
  8
0
  6
CONTINUOUS
 62
     7
100
AcDbLine
 10
15.0
 20
122.4
 30
0.0
 11
18.0
 21
122.4
 31
0.0
  0
LINE
  5
90
330
1F
100
AcDbEntity
  8
0
  6
CONTINUOUS
 62
     7
100
AcDbLine
 10
15.0
 20
113.2
 30
0.0
 11
18.0
 21
113.2
 31
0.0
  0
LINE
  5
91
330
1F
100
AcDbEntity
  8
0
  6
CONTINUOUS
 62
     7
100
AcDbLine
 10
15.0
 20
104.0
 30
0.0
 11
20.0
 21
104.0
 31
0.0
  0
LINE
  5
92
330
1F
100
AcDbEntity
  8
0
  6
CONTINUOUS
 62
     7
100
AcDbLine
 10
65.0
 20
292.0
 30
0.0
 11
65.0
 21
288.0
 31
0.0
  0
LINE
  5
93
330
1F
100
AcDbEntity
  8
0
  6
CONTINUOUS
 62
     7
100
AcDbLine
 10
155.0
 20
292.0
 30
0.0
 11
155.0
 21
288.0
 31
0.0
  0
LINE
  5
94
330
1F
100
AcDbEntity
  8
0
  6
CONTINUOUS
 62
     7
100
AcDbLine
 10
155.0
 20
12.0
 30
0.0
 11
155.0
 21
8.0
 31
0.0
  0
LINE
  5
95
330
1F
100
AcDbEntity
  8
0
  6
CONTINUOUS
 62
     7
100
AcDbLine
 10
65.0
 20
12.0
 30
0.0
 11
65.0
 21
8.0
 31
0.0
  0
LINE
  5
96
330
1F
100
AcDbEntity
  8
0
  6
CONTINUOUS
 62
     7
100
AcDbLine
 10
200.0
 20
104.0
 30
0.0
 11
204.0
 21
104.0
 31
0.0
  0
LINE
  5
97
330
1F
100
AcDbEntity
  8
0
  6
CONTINUOUS
 62
     7
100
AcDbLine
 10
200.0
 20
196.0
 30
0.0
 11
204.0
 21
196.0
 31
0.0
  0
LINE
  5
98
330
1F
100
AcDbEntity
  8
0
  6
CONTINUOUS
 62
     7
100
AcDbLine
 10
200.0
 20
242.0
 30
0.0
 11
204.0
 21
242.0
 31
0.0
  0
LINE
  5
99
330
1F
100
AcDbEntity
  8
0
  6
CONTINUOUS
 62
     7
100
AcDbLine
 10
16.0
 20
58.0
 30
0.0
 11
20.0
 21
58.0
 31
0.0
  0
LINE
  5
9A
330
1F
100
AcDbEntity
  8
0
  6
CONTINUOUS
 62
     7
100
AcDbLine
 10
20.0
 20
242.0
 30
0.0
 11
16.0
 21
242.0
 31
0.0
  0
LINE
  5
9B
330
1F
100
AcDbEntity
  8
0
  6
CONTINUOUS
 62
     7
100
AcDbLine
 10
208.0
 20
2.0
 30
0.0
 11
208.0
 21
7.0
 31
0.0
  0
LINE
  5
9C
330
1F
100
AcDbEntity
  8
0
  6
CONTINUOUS
 62
     7
100
AcDbLine
 10
208.0
 20
290.0
 30
0.0
 11
208.0
 21
295.0
 31
0.0
  0
LINE
  5
9D
330
1F
100
AcDbEntity
  8
0
  6
CONTINUOUS
 62
     7
100
AcDbLine
 10
2.0
 20
2.0
 30
0.0
 11
2.0
 21
7.0
 31
0.0
  0
LINE
  5
9E
330
1F
100
AcDbEntity
  8
0
  6
CONTINUOUS
 62
     7
100
AcDbLine
 10
2.0
 20
290.0
 30
0.0
 11
2.0
 21
295.0
 31
0.0
  0
LINE
  5
9F
330
1F
100
AcDbEntity
  8
0
  6
CONTINUOUS
 62
     7
100
AcDbLine
 10
2.0
 20
2.0
 30
0.0
 11
7.0
 21
2.0
 31
0.0
  0
LINE
  5
A0
330
1F
100
AcDbEntity
  8
0
  6
CONTINUOUS
 62
     7
100
AcDbLine
 10
203.0
 20
2.0
 30
0.0
 11
208.0
 21
2.0
 31
0.0
  0
LINE
  5
A1
330
1F
100
AcDbEntity
  8
0
  6
CONTINUOUS
 62
     7
100
AcDbLine
 10
2.0
 20
295.0
 30
0.0
 11
7.0
 21
295.0
 31
0.0
  0
LINE
  5
A2
330
1F
100
AcDbEntity
  8
0
  6
CONTINUOUS
 62
     7
100
AcDbLine
 10
203.0
 20
295.0
 30
0.0
 11
208.0
 21
295.0
 31
0.0
  0
LINE
  5
A3
330
1F
100
AcDbEntity
  8
0
  6
CONTINUOUS
 62
     9
100
AcDbLine
 10
68.0
 20
288.0
 30
0.0
 11
20.0
 21
288.0
 31
0.0
  0
LINE
  5
A4
330
1F
100
AcDbEntity
  8
0
  6
CONTINUOUS
 62
     9
100
AcDbLine
 10
20.0
 20
248.5
 30
0.0
 11
20.0
 21
288.0
 31
0.0
  0
LINE
  5
A5
330
1F
100
AcDbEntity
  8
0
  6
CONTINUOUS
 62
     9
100
AcDbLine
 10
68.0
 20
288.0
 30
0.0
 11
87.0
 21
288.0
 31
0.0
  0
LINE
  5
A6
330
1F
100
AcDbEntity
  8
0
  6
CONTINUOUS
 62
     9
100
AcDbLine
 10
87.0
 20
288.0
 30
0.0
 11
126.0
 21
288.0
 31
0.0
  0
LINE
  5
A7
330
1F
100
AcDbEntity
  8
0
  6
CONTINUOUS
 62
     7
100
AcDbLine
 10
120.4713877754
 20
15.7804142126
 30
0.0
 11
120.4713877754
 21
21.7804142126
 31
0.0
  0
LINE
  5
A8
330
1F
100
AcDbEntity
  8
0
  6
CONTINUOUS
 62
     7
100
AcDbLine
 10
113.9336941228
 20
17.2804142126
 30
0.0
 11
113.9336941228
 21
20.2804142126
 31
0.0
  0
LINE
  5
A9
330
1F
100
AcDbEntity
  8
0
  6
CENTER
 62
     7
100
AcDbLine
 10
103.4321805515
 20
18.7804142126
 30
0.0
 11
121.2765788965
 21
18.7804142126
 31
0.0
  0
LINE
  5
AA
330
1F
100
AcDbEntity
  8
0
  6
CENTER
 62
     7
100
AcDbLine
 10
107.4474565858
 20
14.5592166292
 30
0.0
 11
107.4474565858
 21
22.8986510215
 31
0.0
  0
LINE
  5
AB
330
1F
100
AcDbEntity
  8
0
  6
CONTINUOUS
 62
     7
100
AcDbLine
 10
113.9336941228
 20
20.2804142126
 30
0.0
 11
120.4713877754
 21
21.7804142126
 31
0.0
  0
LINE
  5
AC
330
1F
100
AcDbEntity
  8
0
  6
CONTINUOUS
 62
     7
100
AcDbLine
 10
113.9336941228
 20
17.2804142126
 30
0.0
 11
120.4713877754
 21
15.7804142126
 31
0.0
  0
LINE
  5
AD
330
1F
100
AcDbEntity
  8
0
  6
CONTINUOUS
 62
     9
100
AcDbLine
 10
200.0
 20
282.0
 30
0.0
 11
200.0
 21
277.0
 31
0.0
  0
CIRCLE
  5
AE
330
1F
100
AcDbEntity
  8
0
  6
CONTINUOUS
 62
     7
100
AcDbCircle
 10
107.4474565858
 20
18.7804142126
 30
0.0
 40
1.499999999999972
  0
CIRCLE
  5
AF
330
1F
100
AcDbEntity
  8
0
  6
CONTINUOUS
 62
     7
100
AcDbCircle
 10
107.4474565858
 20
18.7804142126
 30
0.0
 40
2.999999999999972
  0
MTEXT
  5
B1
330
1F
100
AcDbEntity
  8
0
  6
CONTINUOUS
 62
     7
100
AcDbMText
 10
30.3305242012
 20
97.6410196058
 30
0.0
 40
3.5
 41
0.0
 71
     1
 72
     1
  1
対応型式
  7
SLDTEXTSTYLE0
  0
MTEXT
  5
B2
330
1F
100
AcDbEntity
  8
0
  6
CONTINUOUS
 62
     7
100
AcDbMText
 10
30.3305242012
 20
93.1410197995
 30
0.0
 40
3.5
 41
0.0
 71
     1
 72
     1
  1
CORRECT TYPE
  7
SLDTEXTSTYLE0
  0
MTEXT
  5
B3
330
1F
100
AcDbEntity
  8
0
  6
CONTINUOUS
 62
     7
100
AcDbMText
 10
39.4617794491
 20
49.8261099021
 30
0.0
 40
3.0999999046
 41
0.0
 71
     2
 72
     1
  1
CAREER
  7
SLDTEXTSTYLE0
  0
MTEXT
  5
B4
330
1F
100
AcDbEntity
  8
0
  6
CONTINUOUS
 62
     7
100
AcDbMText
 10
96.0788455214
 20
36.3261099021
 30
0.0
 40
3.0999999046
 41
0.0
 71
     2
 72
     1
  1
3D
  7
SLDTEXTSTYLE0
  0
MTEXT
  5
B5
330
1F
100
AcDbEntity
  8
0
  6
CONTINUOUS
 62
     7
100
AcDbMText
 10
84.3463366833
 20
36.3261099021
 30
0.0
 40
3.0999999046
 41
0.0
 71
     2
 72
     1
  1
DRW
  7
SLDTEXTSTYLE0
  0
MTEXT
  5
B6
330
1F
100
AcDbEntity
  8
0
  6
CONTINUOUS
 62
     7
100
AcDbMText
 10
66.4822219908
 20
36.3261099021
 30
0.0
 40
3.0999999046
 41
0.0
 71
     2
 72
     1
  1
IMSPECTION
  7
SLDTEXTSTYLE0
  0
MTEXT
  5
B7
330
1F
100
AcDbEntity
  8
0
  6
CONTINUOUS
 62
     7
100
AcDbMText
 10
42.2639842555
 20
36.3261099021
 30
0.0
 40
3.0999999046
 41
0.0
 71
     2
 72
     1
  1
APPROVAL
  7
SLDTEXTSTYLE0
  0
MTEXT
  5
B8
330
1F
100
AcDbEntity
  8
0
  6
CONTINUOUS
 62
     7
100
AcDbMText
 10
90.1445053779
 20
22.3261099021
 30
0.0
 40
3.0999999046
 41
0.0
 71
     2
 72
     1
  1
DATE
  7
SLDTEXTSTYLE0
  0
MTEXT
  5
B9
330
1F
100
AcDbEntity
  8
0
  6
CONTINUOUS
 62
     7
100
AcDbMText
 10
33.5
 20
19.3594566752
 30
0.0
 40
3.175
 41
0.0
 71
     1
 72
     1
  1
Kitagawa Corporation
  7
SLDTEXTSTYLE0
  0
MTEXT
  5
BA
330
1F
100
AcDbEntity
  8
0
  6
CONTINUOUS
 62
     7
100
AcDbMText
 10
112.3164586872
 20
29.8261099021
 30
0.0
 40
3.0999999046
 41
0.0
 71
     2
 72
     1
  1
3RD ANGLE
  7
SLDTEXTSTYLE0
  0
MTEXT
  5
BB
330
1F
100
AcDbEntity
  8
0
  6
CONTINUOUS
 62
     7
100
AcDbMText
 10
112.1770658046
 20
49.3261099021
 30
0.0
 40
3.0999999046
 41
0.0
 71
     2
 72
     1
  1
SCALE
  7
SLDTEXTSTYLE0
  0
MTEXT
  5
BC
330
1F
100
AcDbEntity
  8
0
  6
CONTINUOUS
 62
     7
100
AcDbMText
 10
128.2463366833
 20
21.5094432195
 30
0.0
 40
3.0999999046
 41
0.0
 71
     2
 72
     1
  1
DRW
  7
SLDTEXTSTYLE0
  0
MTEXT
  5
BD
330
1F
100
AcDbEntity
  8
0
  6
CONTINUOUS
 62
     7
100
AcDbMText
 10
128.2409548029
 20
17.789443299
 30
0.0
 40
3.0999999046
 41
0.0
 71
     2
 72
     1
  1
NO.
  7
SLDTEXTSTYLE0
  0
MTEXT
  5
BE
330
1F
100
AcDbEntity
  8
0
  6
CONTINUOUS
 62
     7
100
AcDbMText
 10
128.2920832407
 20
35.3261099021
 30
0.0
 40
3.0999999046
 41
0.0
 71
     2
 72
     1
  1
NAME
  7
SLDTEXTSTYLE0
  0
MTEXT
  5
BF
330
1F
100
AcDbEntity
  8
0
  6
CONTINUOUS
 62
     7
100
AcDbMText
 10
128.2980034254
 20
49.3261099021
 30
0.0
 40
3.0999999046
 41
0.0
 71
     2
 72
     1
  1
TYPE
  7
SLDTEXTSTYLE0
  0
MTEXT
  5
C0
330
1F
100
AcDbEntity
  8
0
  6
CONTINUOUS
 62
     7
100
AcDbMText
 10
38.0
 20
292.8761104221
 30
0.0
 40
3.1000003815
 41
0.0
 71
     1
 72
     1
  1
1
  7
SLDTEXTSTYLE0
  0
MTEXT
  5
C1
330
1F
100
AcDbEntity
  8
0
  6
CONTINUOUS
 62
     7
100
AcDbMText
 10
86.0689243832
 20
292.8761104221
 30
0.0
 40
3.1000003815
 41
0.0
 71
     1
 72
     1
  1
2
  7
SLDTEXTSTYLE0
  0
MTEXT
  5
C2
330
1F
100
AcDbEntity
  8
0
  6
CONTINUOUS
 62
     7
100
AcDbMText
 10
132.0
 20
292.8761104221
 30
0.0
 40
3.1000003815
 41
0.0
 71
     1
 72
     1
  1
3
  7
SLDTEXTSTYLE0
  0
MTEXT
  5
C3
330
1F
100
AcDbEntity
  8
0
  6
CONTINUOUS
 62
     7
100
AcDbMText
 10
177.0
 20
292.8761104221
 30
0.0
 40
3.1000003815
 41
0.0
 71
     1
 72
     1
  1
4
  7
SLDTEXTSTYLE0
  0
MTEXT
  5
C4
330
1F
100
AcDbEntity
  8
0
  6
CONTINUOUS
 62
     7
100
AcDbMText
 10
38.0
 20
11.3761104221
 30
0.0
 40
3.1000003815
 41
0.0
 71
     1
 72
     1
  1
1
  7
SLDTEXTSTYLE0
  0
MTEXT
  5
C5
330
1F
100
AcDbEntity
  8
0
  6
CONTINUOUS
 62
     7
100
AcDbMText
 10
86.2848945907
 20
11.3761104221
 30
0.0
 40
3.1000003815
 41
0.0
 71
     1
 72
     1
  1
2
  7
SLDTEXTSTYLE0
  0
MTEXT
  5
C6
330
1F
100
AcDbEntity
  8
0
  6
CONTINUOUS
 62
     7
100
AcDbMText
 10
132.0
 20
11.3761104221
 30
0.0
 40
3.1000003815
 41
0.0
 71
     1
 72
     1
  1
3
  7
SLDTEXTSTYLE0
  0
MTEXT
  5
C7
330
1F
100
AcDbEntity
  8
0
  6
CONTINUOUS
 62
     7
100
AcDbMText
 10
177.0
 20
11.3761104221
 30
0.0
 40
3.1000003815
 41
0.0
 71
     1
 72
     1
  1
4
  7
SLDTEXTSTYLE0
  0
MTEXT
  5
C8
330
1F
100
AcDbEntity
  8
0
  6
CONTINUOUS
 62
     7
100
AcDbMText
 10
17.0
 20
270.4609227521
 30
0.0
 40
3.1000003815
 41
0.0
 71
     1
 72
     1
  1
A
  7
SLDTEXTSTYLE0
  0
MTEXT
  5
C9
330
1F
100
AcDbEntity
  8
0
  6
CONTINUOUS
 62
     7
100
AcDbMText
 10
17.0
 20
220.1159714833
 30
0.0
 40
3.1000003815
 41
0.0
 71
     1
 72
     1
  1
B
  7
SLDTEXTSTYLE0
  0
MTEXT
  5
CA
330
1F
100
AcDbEntity
  8
0
  6
CONTINUOUS
 62
     7
100
AcDbMText
 10
17.0
 20
83.0500657225
 30
0.0
 40
3.1000003815
 41
0.0
 71
     1
 72
     1
  1
E
  7
SLDTEXTSTYLE0
  0
MTEXT
  5
CB
330
1F
100
AcDbEntity
  8
0
  6
CONTINUOUS
 62
     7
100
AcDbMText
 10
17.0
 20
37.7005252077
 30
0.0
 40
3.1000003815
 41
0.0
 71
     1
 72
     1
  1
F
  7
SLDTEXTSTYLE0
  0
MTEXT
  5
CC
330
1F
100
AcDbEntity
  8
0
  6
CONTINUOUS
 62
     7
100
AcDbMText
 10
202.0
 20
270.4609227521
 30
0.0
 40
3.1000003815
 41
0.0
 71
     1
 72
     1
  1
A
  7
SLDTEXTSTYLE0
  0
MTEXT
  5
CD
330
1F
100
AcDbEntity
  8
0
  6
CONTINUOUS
 62
     7
100
AcDbMText
 10
202.0048436923
 20
220.1159714833
 30
0.0
 40
3.1000003815
 41
0.0
 71
     1
 72
     1
  1
B
  7
SLDTEXTSTYLE0
  0
MTEXT
  5
CE
330
1F
100
AcDbEntity
  8
0
  6
CONTINUOUS
 62
     7
100
AcDbMText
 10
202.0034982804
 20
37.7005252077
 30
0.0
 40
3.1000003815
 41
0.0
 71
     1
 72
     1
  1
F
  7
SLDTEXTSTYLE0
  0
MTEXT
  5
CF
330
1F
100
AcDbEntity
  8
0
  6
CONTINUOUS
 62
     7
100
AcDbMText
 10
202.0
 20
174.8277174776
 30
0.0
 40
3.1000003815
 41
0.0
 71
     1
 72
     1
  1
C
  7
SLDTEXTSTYLE0
  0
MTEXT
  5
D0
330
1F
100
AcDbEntity
  8
0
  6
CONTINUOUS
 62
     7
100
AcDbMText
 10
202.0069964444
 20
130.3535257913
 30
0.0
 40
3.1000003815
 41
0.0
 71
     1
 72
     1
  1
D
  7
SLDTEXTSTYLE0
  0
MTEXT
  5
D1
330
1F
100
AcDbEntity
  8
0
  6
CONTINUOUS
 62
     7
100
AcDbMText
 10
112.3836460702
 20
43.2948858041
 30
0.0
 40
6.35
 41
0.0
 71
     2
 72
     1
  1
1:1
  7
SLDTEXTSTYLE0
  0
MTEXT
  5
D2
330
1F
100
AcDbEntity
  8
0
  6
CONTINUOUS
 62
     7
100
AcDbMText
 10
135.1
 20
21.2898259955
 30
0.0
 40
6.6145833333
 41
0.0
 71
     1
 72
     1
  1
61P497329
  7
SLDTEXTSTYLE0
  0
MTEXT
  5
D3
330
1F
100
AcDbEntity
  8
0
  6
CONTINUOUS
 62
     7
100
AcDbMText
 10
179.95
 20
21.2898259955
 30
0.0
 40
6.6145833333
 41
0.0
 71
     1
 72
     1
  1
0
  7
SLDTEXTSTYLE0
  0
MTEXT
  5
D4
330
1F
100
AcDbEntity
  8
0
  6
CONTINUOUS
 62
     7
100
AcDbMText
 10
135.75
 20
49.6094567916
 30
0.0
 40
3.175
 41
0.0
 71
     1
 72
     1
  1
BRAJCBT10
  7
SLDTEXTSTYLE0
  0
MTEXT
  5
D5
330
1F
100
AcDbEntity
  8
0
  6
CONTINUOUS
 62
     7
100
AcDbMText
 10
135.75
 20
42.8887713781
 30
0.0
 40
3.175
 41
0.0
 71
     1
 72
     1
  1
BR-AJC 6
  7
SLDTEXTSTYLE0
  0
MTEXT
  5
D6
330
1F
100
AcDbEntity
  8
0
  6
CONTINUOUS
 62
     7
100
AcDbMText
 10
135.75
 20
35.9435846415
 30
0.0
 40
3.175
 41
0.0
 71
     1
 72
     1
  1
BRAJCBT10
  7
SLDTEXTSTYLE0
  0
MTEXT
  5
D7
330
1F
100
AcDbEntity
  8
0
  6
CONTINUOUS
 62
     7
100
AcDbMText
 10
135.75
 20
31.7102513593
 30
0.0
 40
3.175
 41
0.0
 71
     1
 72
     1
  1
OUTSIDE VIEW
  7
SLDTEXTSTYLE0
  0
MTEXT
  5
D8
330
1F
100
AcDbEntity
  8
0
  6
CONTINUOUS
 62
     7
100
AcDbMText
 10
88.9424466476
 20
17.4594567916
 30
0.0
 40
3.175
 41
0.0
 71
     2
 72
     1
  1
2024/12/03
  7
SLDTEXTSTYLE0
  0
MTEXT
  5
D9
330
1F
100
AcDbEntity
  8
0
  6
CONTINUOUS
 62
     7
100
AcDbMText
 10
202.0034982804
 20
83.0500657225
 30
0.0
 40
3.1000003815
 41
0.0
 71
     1
 72
     1
  1
E
  7
SLDTEXTSTYLE0
  0
MTEXT
  5
DA
330
1F
100
AcDbEntity
  8
0
  6
CONTINUOUS
 62
     7
100
AcDbMText
 10
197.7677083416
 20
15.8672032039
 30
0.0
 40
3.0
 41
0.0
 71
     2
 72
     1
  1
P
  7
SLDTEXTSTYLE0
  0
MTEXT
  5
DB
330
1F
100
AcDbEntity
  8
0
  6
CONTINUOUS
 62
     7
100
AcDbMText
 10
189.788446095
 20
22.9494884881
 30
0.0
 40
4.2333333333
 41
0.0
 71
     2
 72
     1
  1
1
  7
SLDTEXTSTYLE0
  0
MTEXT
  5
DC
330
1F
100
AcDbEntity
  8
0
  6
CONTINUOUS
 62
     7
100
AcDbMText
 10
193.626130444
 20
17.4641725623
 30
0.0
 40
4.2333333333
 41
0.0
 71
     2
 72
     1
  1
1
  7
SLDTEXTSTYLE0
  0
MTEXT
  5
DD
330
1F
100
AcDbEntity
  8
0
  6
CONTINUOUS
 62
     7
100
AcDbMText
 10
84.0708333664
 20
28.6172030293
 30
0.0
 40
3.0
 41
0.0
 71
     2
 72
     1
  1
増田
  7
SLDTEXTSTYLE0
  0
INSERT
  5
F6
330
1F
100
AcDbEntity
  8
0
  6
CONTINUOUS
 62
     7
100
AcDbBlockReference
  2
SW_TABLEANNOTATION_0
 10
76.007
 20
288.0
 30
0.0
  0
INSERT
  5
10C
330
1F
100
AcDbEntity
  8
0
  6
CONTINUOUS
 62
     7
100
AcDbBlockReference
  2
SW_TABLEANNOTATION_1
 10
30.1423592914
 20
87.5903790022
 30
0.0
  0
LINE
  5
10D
330
1F
100
AcDbEntity
  8
0
  6
CONTINUOUS
 62
     7
100
AcDbLine
 10
93.5396987689
 20
161.6152942791
 30
0.0
 11
97.5396987689
 21
161.6152942791
 31
0.0
  0
LINE
  5
10E
330
1F
100
AcDbEntity
  8
0
  6
CONTINUOUS
 62
     7
100
AcDbLine
 10
97.5396987689
 20
177.6152942791
 30
0.0
 11
93.5396987689
 21
177.6152942791
 31
0.0
  0
LINE
  5
10F
330
1F
100
AcDbEntity
  8
0
  6
CONTINUOUS
 62
     7
100
AcDbLine
 10
100.5396987689
 20
161.6152942791
 30
0.0
 11
102.5396987689
 21
161.6152942791
 31
0.0
  0
LINE
  5
110
330
1F
100
AcDbEntity
  8
0
  6
CONTINUOUS
 62
     7
100
AcDbLine
 10
102.5396987689
 20
177.6152942791
 30
0.0
 11
100.5396987689
 21
177.6152942791
 31
0.0
  0
LINE
  5
111
330
1F
100
AcDbEntity
  8
0
  6
CONTINUOUS
 62
     7
100
AcDbLine
 10
102.5396987689
 20
161.6152942791
 30
0.0
 11
103.5396987689
 21
163.3473450867
 31
0.0
  0
LINE
  5
112
330
1F
100
AcDbEntity
  8
0
  6
CONTINUOUS
 62
     7
100
AcDbLine
 10
103.5396987689
 20
175.8832434715
 30
0.0
 11
102.5396987689
 21
177.6152942791
 31
0.0
  0
ARC
  5
113
330
1F
100
AcDbEntity
  8
0
  6
CONTINUOUS
 62
     7
100
AcDbCircle
 10
93.1396987689
 20
164.2152942791
 30
0.0
 40
0.4000000000000199
100
AcDbArc
 50
0.0
 51
90.0
  0
ARC
  5
114
330
1F
100
AcDbEntity
  8
0
  6
CONTINUOUS
 62
     7
100
AcDbCircle
 10
93.1396987689
 20
175.0152942791
 30
0.0
 40
0.4000000000000341
100
AcDbArc
 50
270.0
 51
0.0
  0
LINE
  5
115
330
1F
100
AcDbEntity
  8
0
  6
CONTINUOUS
 62
     7
100
AcDbLine
 10
69.5396987689
 20
174.6152942791
 30
0.0
 11
68.5396987689
 21
173.6152942791
 31
0.0
  0
LINE
  5
116
330
1F
100
AcDbEntity
  8
0
  6
CONTINUOUS
 62
     7
100
AcDbLine
 10
68.5396987689
 20
165.6152942791
 30
0.0
 11
69.5396987689
 21
164.6152942791
 31
0.0
  0
LINE
  5
117
330
1F
100
AcDbEntity
  8
0
  6
CONTINUOUS
 62
     7
100
AcDbLine
 10
69.5396987689
 20
164.6152942791
 30
0.0
 11
93.1396987689
 21
164.6152942791
 31
0.0
  0
LINE
  5
118
330
1F
100
AcDbEntity
  8
0
  6
CONTINUOUS
 62
     7
100
AcDbLine
 10
93.1396987689
 20
174.6152942791
 30
0.0
 11
69.5396987689
 21
174.6152942791
 31
0.0
  0
ELLIPSE
  5
119
330
1F
100
AcDbEntity
  8
0
  6
CONTINUOUS
 62
     7
100
AcDbEllipse
 10
99.1396987689
 20
162.3652942791
 30
0.0
 11
1.600000000000009
 21
0.0
 31
2.897532644320713E-16
210
-1.810957902700436E-16
220
-7.771561172376103E-16
230
1.0
 40
0.625
 41
3.141592653589815
 42
5.777824796895434
  0
ELLIPSE
  5
11A
330
1F
100
AcDbEntity
  8
0
  6
CONTINUOUS
 62
     7
100
AcDbEllipse
 10
99.1396987689
 20
176.8652942791
 30
0.0
 11
1.599999999999994
 21
0.0
 31
2.897532644320715E-16
210
-1.810957902700453E-16
220
-5.551115123125783E-17
230
1.0
 40
0.625
 41
0.5053605102841726
 42
3.141592653589793
  0
LINE
  5
11B
330
1F
100
AcDbEntity
  8
0
  6
CONTINUOUS
 62
     7
100
AcDbLine
 10
97.5396987689
 20
177.6152942791
 30
0.0
 11
97.5396987689
 21
161.6152942791
 31
0.0
  0
LINE
  5
11C
330
1F
100
AcDbEntity
  8
0
  6
CONTINUOUS
 62
     7
100
AcDbLine
 10
93.5396987689
 20
169.6152942791
 30
0.0
 11
93.5396987689
 21
177.6152942791
 31
0.0
  0
LINE
  5
11D
330
1F
100
AcDbEntity
  8
0
  6
CONTINUOUS
 62
     7
100
AcDbLine
 10
93.5396987689
 20
161.6152942791
 30
0.0
 11
93.5396987689
 21
169.6152942791
 31
0.0
  0
LINE
  5
11E
330
1F
100
AcDbEntity
  8
0
  6
CONTINUOUS
 62
     7
100
AcDbLine
 10
100.5396987689
 20
161.6152942791
 30
0.0
 11
100.5396987689
 21
177.6152942791
 31
0.0
  0
LINE
  5
11F
330
1F
100
AcDbEntity
  8
0
  6
CONTINUOUS
 62
     7
100
AcDbLine
 10
102.5396987689
 20
169.6152942791
 30
0.0
 11
102.5396987689
 21
177.6152942791
 31
0.0
  0
LINE
  5
120
330
1F
100
AcDbEntity
  8
0
  6
CONTINUOUS
 62
     7
100
AcDbLine
 10
102.5396987689
 20
161.6152942791
 30
0.0
 11
102.5396987689
 21
169.6152942791
 31
0.0
  0
LINE
  5
121
330
1F
100
AcDbEntity
  8
0
  6
CONTINUOUS
 62
     7
100
AcDbLine
 10
103.5396987689
 20
169.6152942791
 30
0.0
 11
103.5396987689
 21
175.8832434715
 31
0.0
  0
LINE
  5
122
330
1F
100
AcDbEntity
  8
0
  6
CONTINUOUS
 62
     7
100
AcDbLine
 10
103.5396987689
 20
163.3473450867
 30
0.0
 11
103.5396987689
 21
169.6152942791
 31
0.0
  0
LINE
  5
123
330
1F
100
AcDbEntity
  8
0
  6
CONTINUOUS
 62
     7
100
AcDbLine
 10
69.5396987689
 20
169.6152942791
 30
0.0
 11
69.5396987689
 21
174.6152942791
 31
0.0
  0
LINE
  5
124
330
1F
100
AcDbEntity
  8
0
  6
CONTINUOUS
 62
     7
100
AcDbLine
 10
69.5396987689
 20
164.6152942791
 30
0.0
 11
69.5396987689
 21
169.6152942791
 31
0.0
  0
LINE
  5
125
330
1F
100
AcDbEntity
  8
0
  6
CONTINUOUS
 62
     7
100
AcDbLine
 10
68.5396987689
 20
169.6152942791
 30
0.0
 11
68.5396987689
 21
173.6152942791
 31
0.0
  0
LINE
  5
126
330
1F
100
AcDbEntity
  8
0
  6
CONTINUOUS
 62
     7
100
AcDbLine
 10
68.5396987689
 20
165.6152942791
 30
0.0
 11
68.5396987689
 21
169.6152942791
 31
0.0
  0
LINE
  5
127
330
1F
100
AcDbEntity
  8
0
  6
CONTINUOUS
 62
     8
100
AcDbLine
 10
93.1396987689
 20
169.6152942791
 30
0.0
 11
93.1396987689
 21
174.6152942791
 31
0.0
  0
LINE
  5
128
330
1F
100
AcDbEntity
  8
0
  6
CONTINUOUS
 62
     8
100
AcDbLine
 10
93.1396987689
 20
164.6152942791
 30
0.0
 11
93.1396987689
 21
169.6152942791
 31
0.0
  0
DIMENSION
  5
129
330
1F
100
AcDbEntity
  8
0
  6
CONTINUOUS
 62
     7
100
AcDbDimension
  2
_D
 10
116.5586144022
 20
161.6152942791
 30
0.0
 11
116.5586144022
 21
168.6669677156
 31
0.0
 70
   160
  1
%%c<>
  3
SLDDIMSTYLE0
100
AcDbAlignedDimension
 13
102.5396987689
 23
177.6152942791
 33
0.0
 14
102.5396987689
 24
161.6152942791
 34
0.0
 50
90.0
100
AcDbRotatedDimension
  0
DIMENSION
  5
13B
330
1F
100
AcDbEntity
  8
0
  6
CONTINUOUS
 62
     7
100
AcDbDimension
  2
_D_1
 10
55.7622380208
 20
164.6152942791
 30
0.0
 11
55.7622380208
 21
170.0428528079
 31
0.0
 70
   160
  1
M10
  3
SLDDIMSTYLE1
100
AcDbAlignedDimension
 13
69.5396987689
 23
174.6152942791
 33
0.0
 14
69.5396987689
 24
164.6152942791
 34
0.0
 50
90.0
100
AcDbRotatedDimension
  0
DIMENSION
  5
148
330
1F
100
AcDbEntity
  8
0
  6
CONTINUOUS
 62
     7
100
AcDbDimension
  2
_D_2
 10
68.5396987689
 20
152.6068011149
 30
0.0
 11
80.1307020373
 21
152.6068011149
 31
0.0
 70
   160
  1
<>
  3
SLDDIMSTYLE0
100
AcDbAlignedDimension
 13
93.5396987689
 23
161.6152942791
 33
0.0
 14
68.5396987689
 24
165.6152942791
 34
0.0
100
AcDbRotatedDimension
  0
DIMENSION
  5
152
330
1F
100
AcDbEntity
  8
0
  6
CONTINUOUS
 62
     7
100
AcDbDimension
  2
_D_3
 10
103.5396987689
 20
142.8401845099
 30
0.0
 11
86.8249729094
 21
142.8401845099
 31
0.0
 70
   160
  1
<>
  3
SLDDIMSTYLE0
100
AcDbAlignedDimension
 13
68.5396987689
 23
165.6152942791
 33
0.0
 14
103.5396987689
 24
163.3473450867
 34
0.0
100
AcDbRotatedDimension
  0
INSERT
  5
162
330
1F
100
AcDbEntity
  8
0
  6
CONTINUOUS
 62
     7
100
AcDbBlockReference
  2
SW_NOTE_0
 10
105.8829787234
 20
198.6832155175
 30
0.0
  0
LEADER
  5
169
330
1F
100
AcDbEntity
  8
0
  6
CONTINUOUS
 62
     7
100
AcDbLeader
  3
SLDDIMSTYLE2
 76
     2
 10
98.680441929
 20
175.7507570207
 30
0.0
 10
105.8829787234
 20
198.6832155175
 30
0.0
1001
ACAD
1000
DSTYLE
1002
{
1070
     6
1000
DOT
1002
}
  0
LINE
  5
16A
330
1F
100
AcDbEntity
  8
0
  6
CENTERX2
 62
     7
100
AcDbLine
 10
64.5396987689
 20
169.6152942791
 30
0.0
 11
108.8453361718
 21
169.6152942791
 31
0.0
  0
CIRCLE
  5
16B
330
1F
100
AcDbEntity
  8
0
  6
CONTINUOUS
 62
     7
100
AcDbCircle
 10
136.770534916
 20
169.6152942791
 30
0.0
 40
8.25
  0
CIRCLE
  5
16C
330
1F
100
AcDbEntity
  8
0
  6
CONTINUOUS
 62
     7
100
AcDbCircle
 10
136.770534916
 20
169.6152942791
 30
0.0
 40
4.799999999999983
  0
SPLINE
  5
16D
330
1F
100
AcDbEntity
  8
0
  6
CONTINUOUS
 62
     7
100
AcDbSpline
210
0.0
220
0.0
230
1.0
 70
    11
 71
     3
 72
   180
 73
   176
 74
     0
 42
0.00000001
 43
0.00000001
 40
0.0
 40
0.0
 40
0.0
 40
0.0
 40
0.03125
 40
0.03125
 40
0.046875
 40
0.046875
 40
0.0546875
 40
0.0546875
 40
0.0625
 40
0.0625
 40
0.078125
 40
0.078125
 40
0.09375
 40
0.09375
 40
0.109375
 40
0.109375
 40
0.125
 40
0.125
 40
0.1406250000000001
 40
0.1406250000000001
 40
0.1562500000000001
 40
0.1562500000000001
 40
0.1718750000000001
 40
0.1718750000000001
 40
0.1875000000000002
 40
0.1875000000000002
 40
0.2031250000000002
 40
0.2031250000000002
 40
0.2187500000000002
 40
0.2187500000000002
 40
0.2343750000000003
 40
0.2343750000000003
 40
0.2421875000000003
 40
0.2421875000000003
 40
0.2500000000000003
 40
0.2500000000000003
 40
0.2656250000000004
 40
0.2656250000000004
 40
0.2812500000000006
 40
0.2812500000000006
 40
0.2968750000000007
 40
0.2968750000000007
 40
0.3125000000000008
 40
0.3125000000000008
 40
0.3203125000000009
 40
0.3203125000000009
 40
0.3242187500000008
 40
0.3242187500000008
 40
0.3281250000000008
 40
0.3281250000000008
 40
0.3437500000000007
 40
0.3437500000000007
 40
0.3515625000000006
 40
0.3515625000000006
 40
0.3593750000000006
 40
0.3593750000000006
 40
0.3750000000000004
 40
0.3750000000000004
 40
0.3906250000000003
 40
0.3906250000000003
 40
0.4062500000000002
 40
0.4062500000000002
 40
0.4101562500000002
 40
0.4101562500000002
 40
0.4140625000000002
 40
0.4140625000000002
 40
0.4218750000000002
 40
0.4218750000000002
 40
0.4375000000000001
 40
0.4375000000000001
 40
0.4531250000000001
 40
0.4531250000000001
 40
0.4687499999999999
 40
0.4687499999999999
 40
0.4843749999999998
 40
0.4843749999999998
 40
0.4921874999999998
 40
0.4921874999999998
 40
0.4960937499999998
 40
0.4960937499999998
 40
0.4999999999999998
 40
0.4999999999999998
 40
0.5156249999999999
 40
0.5156249999999999
 40
0.53125
 40
0.53125
 40
0.5468750000000001
 40
0.5468750000000001
 40
0.5625000000000002
 40
0.5625000000000002
 40
0.5781250000000003
 40
0.5781250000000003
 40
0.5859375000000004
 40
0.5859375000000004
 40
0.5937500000000006
 40
0.5937500000000006
 40
0.6093750000000007
 40
0.6093750000000007
 40
0.6250000000000009
 40
0.6250000000000009
 40
0.640625000000001
 40
0.640625000000001
 40
0.6484375000000011
 40
0.6484375000000011
 40
0.6523437500000011
 40
0.6523437500000011
 40
0.6562500000000011
 40
0.6562500000000011
 40
0.671875000000001
 40
0.671875000000001
 40
0.6875000000000009
 40
0.6875000000000009
 40
0.7031250000000008
 40
0.7031250000000008
 40
0.7187500000000007
 40
0.7187500000000007
 40
0.7343750000000006
 40
0.7343750000000006
 40
0.7382812500000006
 40
0.7382812500000006
 40
0.7421875000000006
 40
0.7421875000000006
 40
0.7500000000000006
 40
0.7500000000000006
 40
0.7656250000000007
 40
0.7656250000000007
 40
0.7812500000000008
 40
0.7812500000000008
 40
0.7968750000000009
 40
0.7968750000000009
 40
0.8046875000000009
 40
0.8046875000000009
 40
0.8125000000000009
 40
0.8125000000000009
 40
0.828125000000001
 40
0.828125000000001
 40
0.8437500000000011
 40
0.8437500000000011
 40
0.8515625000000011
 40
0.8515625000000011
 40
0.8593750000000011
 40
0.8593750000000011
 40
0.8750000000000013
 40
0.8750000000000013
 40
0.8828125000000013
 40
0.8828125000000013
 40
0.8867187500000013
 40
0.8867187500000013
 40
0.8906250000000013
 40
0.8906250000000013
 40
0.8984375000000012
 40
0.8984375000000012
 40
0.9062500000000011
 40
0.9062500000000011
 40
0.921875000000001
 40
0.921875000000001
 40
0.9375000000000009
 40
0.9375000000000009
 40
0.9531250000000008
 40
0.9531250000000008
 40
0.9609375000000007
 40
0.9609375000000007
 40
0.9687500000000006
 40
0.9687500000000006
 40
0.9843750000000003
 40
0.9843750000000003
 40
0.9921875000000002
 40
0.9921875000000002
 40
0.9960937500000001
 40
0.9960937500000001
 40
0.9980468750000001
 40
0.9990234375000001
 40
0.9995117187500001
 40
0.9995117187500001
 40
1.0
 40
1.0
 40
1.0
 40
1.0
 10
140.0744298071648
 20
169.6152942791138
 30
0.0
 10
140.0744298071648
 20
169.343876853561
 30
0.0
 10
140.1391192142248
 20
169.0818587216005
 30
0.0
 10
140.3020677074923
 20
168.7395114180472
 30
0.0
 10
140.3671025257088
 20
168.6334391153025
 30
0.0
 10
140.4767616679339
 20
168.4876244130044
 30
0.0
 10
140.5161624740795
 20
168.4415704225055
 30
0.0
 10
140.5811973721586
 20
168.3386879235627
 30
0.0
 10
140.6090997858938
 20
168.2837405405931
 30
0.0
 10
140.6775061076728
 20
168.1075819120846
 30
0.0
 10
140.7006608496346
 20
167.9781694319771
 30
0.0
 10
140.6888955194861
 20
167.7148659302254
 30
0.0
 10
140.6545823894442
 20
167.5815410334866
 30
0.0
 10
140.532676849909
 20
167.3425945524409
 30
0.0
 10
140.4438237307011
 20
167.2362871619682
 30
0.0
 10
140.2336825059665
 20
167.0714506220814
 30
0.0
 10
140.1132144433124
 20
167.0140664224708
 30
0.0
 10
139.8666192709368
 20
166.952756222731
 30
0.0
 10
139.7412560151356
 20
166.9470623013632
 30
0.0
 10
139.4951274181976
 20
166.9842226604728
 30
0.0
 10
139.3709396744113
 20
166.9939973971501
 30
0.0
 10
139.1182570095267
 20
166.9844351368581
 30
0.0
 10
138.9899315423018
 20
166.9668117251424
 30
0.0
 10
138.7268324526227
 20
166.8983331806708
 30
0.0
 10
138.5930758425269
 20
166.8466255445228
 30
0.0
 10
138.3450897620424
 20
166.7133773666496
 30
0.0
 10
138.2272951780043
 20
166.6299591944306
 30
0.0
 10
138.021816782697
 20
166.4445084993276
 30
0.0
 10
137.9308492496864
 20
166.3399001001266
 30
0.0
 10
137.7795913545228
 20
166.1227669988683
 30
0.0
 10
137.7177485842521
 20
166.0091271635185
 30
0.0
 10
137.6430634234725
 20
165.8317007027086
 30
0.0
 10
137.6211849455675
 20
165.7715417667096
 30
0.0
 10
137.5590730545316
 20
165.6584617455392
 30
0.0
 10
137.5219993786563
 20
165.6043630345567
 30
0.0
 10
137.3904182193371
 20
165.4506480293829
 30
0.0
 10
137.2781154578236
 20
165.3649250878976
 30
0.0
 10
137.0216669501183
 20
165.2508237560595
 30
0.0
 10
136.8770329411811
 20
165.2214944376001
 30
0.0
 10
136.5907828486768
 20
165.2331320362937
 30
0.0
 10
136.4482751486365
 20
165.2736126593974
 30
0.0
 10
136.2023023651766
 20
165.4070614391318
 30
0.0
 10
136.098321377856
 20
165.5008419276685
 30
0.0
 10
135.9801106299591
 20
165.6612029089748
 30
0.0
 10
135.9464472697528
 20
165.7184100346953
 30
0.0
 10
135.9053969515318
 20
165.8086084732055
 30
0.0
 10
135.8940349715035
 20
165.8398088009746
 30
0.0
 10
135.8690362673302
 20
165.9011886312542
 30
0.0
 10
135.8557383758432
 20
165.9315315616092
 30
0.0
 10
135.7851968106234
 20
166.0815297263284
 30
0.0
 10
135.7160361177847
 20
166.1961128793855
 30
0.0
 10
135.5895891178156
 20
166.3594257644797
 30
0.0
 10
135.5436128154741
 20
166.4124226993089
 30
0.0
 10
135.442612287343
 20
166.5152052397866
 30
0.0
 10
135.3866723370493
 20
166.5656722624865
 30
0.0
 10
135.2101580578627
 20
166.7050079022941
 30
0.0
 10
135.0799308093059
 20
166.7831021994191
 30
0.0
 10
134.8030159604433
 20
166.9034956161452
 30
0.0
 10
134.6612966677855
 20
166.9440476548085
 30
0.0
 10
134.3746350204365
 20
166.9904267191359
 30
0.0
 10
134.2353080366164
 20
166.9955569269978
 30
0.0
 10
134.0643302789661
 20
166.9837224171529
 30
0.0
 10
134.0302995481622
 20
166.9804222151204
 30
0.0
 10
133.9625417378309
 20
166.9719932045694
 30
0.0
 10
133.9289710207785
 20
166.9659507579472
 30
0.0
 10
133.8274232670985
 20
166.9537364051403
 30
0.0
 10
133.7586765191598
 20
166.952880129017
 30
0.0
 10
133.549478509659
 20
166.9733354211745
 30
0.0
 10
133.4074759506529
 20
167.0188375138669
 30
0.0
 10
133.1563389599944
 20
167.1768212958013
 30
0.0
 10
133.0469349700498
 20
167.2880697447314
 30
0.0
 10
132.8948896059426
 20
167.5499018608294
 30
0.0
 10
132.8521653270741
 20
167.7019423177738
 30
0.0
 10
132.8400999848672
 20
167.9985432293066
 30
0.0
 10
132.8710678585358
 20
168.1437980293798
 30
0.0
 10
132.9578006613085
 20
168.3361987150483
 30
0.0
 10
132.993541594259
 20
168.3967829858166
 30
0.0
 10
133.0565563797572
 20
168.4806346372314
 30
0.0
 10
133.0791969603114
 20
168.5074532476337
 30
0.0
 10
133.1213335958306
 20
168.5634214441491
 30
0.0
 10
133.1416296414439
 20
168.5920011707726
 30
0.0
 10
133.2392106944102
 20
168.7379711386004
 30
0.0
 10
133.3050589980073
 20
168.8643299116429
 30
0.0
 10
133.407821220435
 20
169.1419406717743
 30
0.0
 10
133.4446934707873
 20
169.2974596190758
 30
0.0
 10
133.4737070724751
 20
169.6109876908672
 30
0.0
 10
133.4663920541688
 20
169.7737978877266
 30
0.0
 10
133.4107356848634
 20
170.0810393330476
 30
0.0
 10
133.3620881347778
 20
170.2297045127442
 30
0.0
 10
133.2364559559348
 20
170.4989520180535
 30
0.0
 10
133.1590743773898
 20
170.6223561241941
 30
0.0
 10
133.024184896428
 20
170.7918402399467
 30
0.0
 10
132.9826363586325
 20
170.8508545787972
 30
0.0
 10
132.9160087233541
 20
170.9811732489918
 30
0.0
 10
132.8892314151005
 20
171.0517583081768
 30
0.0
 10
132.8347000185927
 20
171.2781744486841
 30
0.0
 10
132.8369462117549
 20
171.442044266427
 30
0.0
 10
132.9243488101459
 20
171.7529080396784
 30
0.0
 10
133.0120433329022
 20
171.8996535560192
 30
0.0
 10
133.2441633702978
 20
172.1243478140752
 30
0.0
 10
133.3869367660156
 20
172.2037238976432
 30
0.0
 10
133.6116701195234
 20
172.2633557790458
 30
0.0
 10
133.6865429380898
 20
172.2735742760125
 30
0.0
 10
133.7986233318658
 20
172.2760362678239
 30
0.0
 10
133.836005684885
 20
172.2746631842337
 30
0.0
 10
133.9100004803774
 20
172.2675429856208
 30
0.0
 10
133.9465291520848
 20
172.2608940699251
 30
0.0
 10
134.1308510677014
 20
172.2366610695955
 30
0.0
 10
134.2816888466932
 20
172.2341002469362
 30
0.0
 10
134.5938758514798
 20
172.2703379222197
 30
0.0
 10
134.7514500131725
 20
172.3092618924434
 30
0.0
 10
135.0582165133896
 20
172.4344409130244
 30
0.0
 10
135.2018215735012
 20
172.5184013584784
 30
0.0
 10
135.4617616545142
 20
172.7248070817921
 30
0.0
 10
135.5725222874729
 20
172.8426336404116
 30
0.0
 10
135.7575236949519
 20
173.0973241155876
 30
0.0
 10
135.8303857363607
 20
173.2319326414226
 30
0.0
 10
135.9002602853882
 20
173.4068480620625
 30
0.0
 10
135.9137349785613
 20
173.441966726498
 30
0.0
 10
135.9469798847843
 20
173.5098919689486
 30
0.0
 10
135.9657280118831
 20
173.5430548956258
 30
0.0
 10
136.0285699953688
 20
173.6399980793215
 30
0.0
 10
136.0798689593621
 20
173.7017196299456
 30
0.0
 10
136.2551077836386
 20
173.8643512583212
 30
0.0
 10
136.4053195568516
 20
173.9451718423331
 30
0.0
 10
136.7357922460864
 20
174.0185991692011
 30
0.0
 10
136.9101885758104
 20
174.0080802411285
 30
0.0
 10
137.2269982316084
 20
173.9008668664644
 30
0.0
 10
137.3669641636719
 20
173.8044395799133
 30
0.0
 10
137.5228769291036
 20
173.6265033231518
 30
0.0
 10
137.567148175615
 20
173.5610231554843
 30
0.0
 10
137.6373217615575
 20
173.4246177953463
 30
0.0
 10
137.6609354882788
 20
173.3525673623112
 30
0.0
 10
137.7568479655914
 20
173.144166416079
 30
0.0
 10
137.8375285587322
 20
173.012493924577
 30
0.0
 10
138.0400125758659
 20
172.7646885323997
 30
0.0
 10
138.1621893403053
 20
172.649805592123
 30
0.0
 10
138.3692728170725
 20
172.5061678071386
 30
0.0
 10
138.4428868977201
 20
172.4626596995327
 30
0.0
 10
138.5927026399221
 20
172.3881204149426
 30
0.0
 10
138.6696787926071
 20
172.3564979226116
 30
0.0
 10
138.9067151828227
 20
172.2781426131824
 30
0.0
 10
139.0666744461501
 20
172.2499646387728
 30
0.0
 10
139.3031675320889
 20
172.238394698593
 30
0.0
 10
139.3806310259347
 20
172.2396749869832
 30
0.0
 10
139.4951812069563
 20
172.2484965102095
 30
0.0
 10
139.5330881054695
 20
172.2525937663008
 30
0.0
 10
139.6083942932761
 20
172.2630292539508
 30
0.0
 10
139.6458134570574
 20
172.2694644270805
 30
0.0
 10
139.7592536202407
 20
172.2784809259801
 30
0.0
 10
139.8357866537957
 20
172.2755509981768
 30
0.0
 10
139.9905015294523
 20
172.2503364372105
 30
0.0
 10
140.0686743551662
 20
172.2276757868389
 30
0.0
 10
140.2904515403992
 20
172.1293550213977
 30
0.0
 10
140.4264640757875
 20
172.0200919806479
 30
0.0
 10
140.6225790202186
 20
171.7446834250626
 30
0.0
 10
140.6802534636376
 20
171.5800371561547
 30
0.0
 10
140.7057116667182
 20
171.2473620113321
 30
0.0
 10
140.6718587183182
 20
171.0849577290999
 30
0.0
 10
140.5723547527062
 20
170.8736345982102
 30
0.0
 10
140.5306489212044
 20
170.8079466915418
 30
0.0
 10
140.433826198117
 20
170.6884373924559
 30
0.0
 10
140.3888825991332
 20
170.6255770924968
 30
0.0
 10
140.2649735330091
 20
170.4267263846648
 30
0.0
 10
140.1958632239242
 20
170.2777911986109
 30
0.0
 10
140.124639311926
 20
170.0396246537889
 30
0.0
 10
140.1061446793138
 20
169.9577424194872
 30
0.0
 10
140.0872142660321
 20
169.8305977939898
 30
0.0
 10
140.0824235460783
 20
169.7877048816331
 30
0.0
 10
140.0776373988468
 20
169.7232738667889
 30
0.0
 10
140.075836811293
 20
169.690984590943
 30
0.0
 10
140.0747822259095
 20
169.6531832578463
 30
0.0
 10
140.0745557455063
 20
169.6369545419352
 30
0.0
 10
140.0744550296034
 20
169.6261291225693
 30
0.0
 10
140.0744298071648
 20
169.6195351763881
 30
0.0
 10
140.0744298071648
 20
169.6152942791138
 30
0.0
  0
ARC
  5
16E
330
1F
100
AcDbEntity
  8
0
  6
CONTINUOUS
 62
     7
100
AcDbCircle
 10
139.2154079861
 20
173.8499386546
 30
0.0
 40
1.750000000000009
100
AcDbArc
 50
240.0
 51
280.1080256631
  0
ARC
  5
16F
330
1F
100
AcDbEntity
  8
0
  6
CONTINUOUS
 62
     7
100
AcDbCircle
 10
139.2154079861
 20
173.8499386546
 30
0.0
 40
1.75
100
AcDbArc
 50
199.8919743369
 51
240.0
  0
ARC
  5
170
330
1F
100
AcDbEntity
  8
0
  6
CONTINUOUS
 62
     7
100
AcDbCircle
 10
136.770534916
 20
172.9652942791
 30
0.0
 40
0.8499999999999952
100
AcDbArc
 50
19.8919743369
 51
160.1080256631
  0
ARC
  5
171
330
1F
100
AcDbEntity
  8
0
  6
CONTINUOUS
 62
     7
100
AcDbCircle
 10
134.3256618459
 20
173.8499386546
 30
0.0
 40
1.75
100
AcDbArc
 50
300.0
 51
340.1080256631
  0
ARC
  5
172
330
1F
100
AcDbEntity
  8
0
  6
CONTINUOUS
 62
     7
100
AcDbCircle
 10
134.3256618459
 20
173.8499386546
 30
0.0
 40
1.749999999999999
100
AcDbArc
 50
259.8919743369
 51
300.0
  0
ARC
  5
173
330
1F
100
AcDbEntity
  8
0
  6
CONTINUOUS
 62
     7
100
AcDbCircle
 10
133.8693498133
 20
171.2902942791
 30
0.0
 40
0.850000000000002
100
AcDbArc
 50
79.8919743369
 51
220.1080256631
  0
ARC
  5
174
330
1F
100
AcDbEntity
  8
0
  6
CONTINUOUS
 62
     7
100
AcDbCircle
 10
131.8807887758
 20
169.6152942791
 30
0.0
 40
1.750000000000028
100
AcDbArc
 50
360.0
 51
40.1080256631
  0
ARC
  5
175
330
1F
100
AcDbEntity
  8
0
  6
CONTINUOUS
 62
     7
100
AcDbCircle
 10
131.8807887758
 20
169.6152942791
 30
0.0
 40
1.750000000000028
100
AcDbArc
 50
319.8919743369
 51
360.0
  0
ARC
  5
176
330
1F
100
AcDbEntity
  8
0
  6
CONTINUOUS
 62
     7
100
AcDbCircle
 10
133.8693498133
 20
167.9402942791
 30
0.0
 40
0.850000000000002
100
AcDbArc
 50
139.8919743369
 51
280.1080256631
  0
ARC
  5
177
330
1F
100
AcDbEntity
  8
0
  6
CONTINUOUS
 62
     7
100
AcDbCircle
 10
134.3256618459
 20
165.3806499036
 30
0.0
 40
1.750000000000035
100
AcDbArc
 50
60.0
 51
100.1080256631
  0
ARC
  5
178
330
1F
100
AcDbEntity
  8
0
  6
CONTINUOUS
 62
     7
100
AcDbCircle
 10
134.3256618459
 20
165.3806499036
 30
0.0
 40
1.750000000000021
100
AcDbArc
 50
19.8919743369
 51
60.0
  0
ARC
  5
179
330
1F
100
AcDbEntity
  8
0
  6
CONTINUOUS
 62
     7
100
AcDbCircle
 10
136.770534916
 20
166.2652942791
 30
0.0
 40
0.8499999999999952
100
AcDbArc
 50
199.8919743369
 51
340.1080256631
  0
ARC
  5
17A
330
1F
100
AcDbEntity
  8
0
  6
CONTINUOUS
 62
     7
100
AcDbCircle
 10
139.2154079861
 20
165.3806499036
 30
0.0
 40
1.750000000000006
100
AcDbArc
 50
120.0
 51
160.1080256631
  0
ARC
  5
17B
330
1F
100
AcDbEntity
  8
0
  6
CONTINUOUS
 62
     7
100
AcDbCircle
 10
139.2154079861
 20
165.3806499036
 30
0.0
 40
1.750000000000021
100
AcDbArc
 50
79.8919743369
 51
120.0
  0
ARC
  5
17C
330
1F
100
AcDbEntity
  8
0
  6
CONTINUOUS
 62
     7
100
AcDbCircle
 10
139.6717200187
 20
167.9402942791
 30
0.0
 40
0.850000000000002
100
AcDbArc
 50
259.8919743369
 51
40.1080256631
  0
ARC
  5
17D
330
1F
100
AcDbEntity
  8
0
  6
CONTINUOUS
 62
     7
100
AcDbCircle
 10
141.6602810562
 20
169.6152942791
 30
0.0
 40
1.75
100
AcDbArc
 50
180.0
 51
220.1080256631
  0
ARC
  5
17E
330
1F
100
AcDbEntity
  8
0
  6
CONTINUOUS
 62
     7
100
AcDbCircle
 10
141.6602810562
 20
169.6152942791
 30
0.0
 40
1.75
100
AcDbArc
 50
139.8919743369
 51
180.0
  0
ARC
  5
17F
330
1F
100
AcDbEntity
  8
0
  6
CONTINUOUS
 62
     7
100
AcDbCircle
 10
139.6717200187
 20
171.2902942791
 30
0.0
 40
0.850000000000002
100
AcDbArc
 50
319.8919743369
 51
100.1080256631
  0
CIRCLE
  5
180
330
1F
100
AcDbEntity
  8
0
  6
CONTINUOUS
 62
     7
100
AcDbCircle
 10
136.770534916
 20
169.6152942791
 30
0.0
 40
6.267949192431075
  0
CIRCLE
  5
181
330
1F
100
AcDbEntity
  8
0
  6
CONTINUOUS
 62
     7
100
AcDbCircle
 10
136.770534916
 20
169.6152942791
 30
0.0
 40
7.999999999999972
  0
INSERT
  5
188
330
1F
100
AcDbEntity
  8
0
  6
CONTINUOUS
 62
     7
100
AcDbBlockReference
  2
SW_NOTE_0_1
 10
151.1548463357
 20
198.8014188271
 30
0.0
  0
LEADER
  5
18A
330
1F
100
AcDbEntity
  8
0
  6
CONTINUOUS
 62
     7
100
AcDbLeader
  3
SLDDIMSTYLE3
 76
     2
 10
138.1396403967
 20
172.6798965964
 30
0.0
 10
151.1548463357
 20
198.8014188271
 30
0.0
1001
ACAD
1000
DSTYLE
1002
{
1070
     6
1000
OPEN30
1002
}
  0
INSERT
  5
196
330
1F
100
AcDbEntity
  8
0
  6
CONTINUOUS
 62
     7
100
AcDbBlockReference
  2
SW_CENTERMARKSYMBOL_0
 10
136.770534916
 20
169.6152942791
 30
0.0
  0
ENDSEC
  0
SECTION
  2
OBJECTS
  0
DICTIONARY
  5
C
330
0
100
AcDbDictionary
  3
ACAD_GROUP
350
D
  3
ACAD_MLINESTYLE
350
17
  3
ACAD_SCALELIST
350
47
  3
DWGPROPS
350
197
1001
ACAD
1000
TREAT_AS_HARD
1070
     0
  0
DICTIONARY
  5
D
102
{ACAD_REACTORS
330
C
102
}
330
C
100
AcDbDictionary
1001
ACAD
1000
TREAT_AS_HARD
1070
     0
  0
DICTIONARY
  5
17
102
{ACAD_REACTORS
330
C
102
}
330
C
100
AcDbDictionary
  3
STANDARD
350
18
1001
ACAD
1000
TREAT_AS_HARD
1070
     0
  0
DICTIONARY
  5
47
102
{ACAD_REACTORS
330
C
102
}
330
C
100
AcDbDictionary
1001
ACAD
1000
TREAT_AS_HARD
1070
     0
  0
XRECORD
  5
197
102
{ACAD_REACTORS
330
C
102
}
330
C
100
AcDbXrecord
  1
DWGPROPS COOKIE
  2

  3

  4

  6

  7

  8
55006
  9

300
=
301
=
302
=
303
=
304
=
305
=
306
=
307
=
308
=
309
=
 40
0.0
 41
2460651.037589653
 42
2460651.037591204
  1

 90
        0
  0
MLINESTYLE
  5
18
102
{ACAD_REACTORS
330
17
102
}
330
17
100
AcDbMlineStyle
  2
Standard
 70
     0
  3

 62
   256
 51
90.0
 52
90.0
 71
     2
 49
0.5
 62
   256
  6
BYLAYER
 49
-0.5
 62
   256
  6
BYLAYER
  0
ENDSEC
  0
EOF
