  0
SECTION
  2
HEADER
  9
$ACADVER
  1
AC1012
  9
$DWGCODEPAGE
  3
dos932
  9
$INSBASE
 10
0.0
 20
0.0
 30
0.0
  9
$EXTMIN
 10
0.0
 20
0.0
 30
0.0
  9
$EXTMAX
 10
210.0
 20
297.0
 30
0.0
  9
$LIMMIN
 10
0.0
 20
0.0
  9
$LIMMAX
 10
210.0
 20
297.0
  9
$ORTHOMODE
 70
     0
  9
$REGENMODE
 70
     1
  9
$FILLMODE
 70
     1
  9
$QTEXTMODE
 70
     0
  9
$MIRRTEXT
 70
     1
  9
$DRAGMODE
 70
     2
  9
$LTSCALE
 40
1.0
  9
$OSMODE
 70
    37
  9
$ATTMODE
 70
     1
  9
$TEXTSIZE
 40
3.5
  9
$TRACEWID
 40
1.0
  9
$TEXTSTYLE
  7
STANDARD
  9
$CLAYER
  8
0
  9
$CELTYPE
  6
BYLAYER
  9
$CECOLOR
 62
   256
  9
$CELTSCALE
 40
1.0
  9
$DELOBJ
 70
     1
  9
$DISPSILH
 70
     0
  9
$DIMSCALE
 40
1.0
  9
$DIMASZ
 40
2.0
  9
$DIMEXO
 40
1.0
  9
$DIMDLI
 40
3.75
  9
$DIMRND
 40
0.0
  9
$DIMDLE
 40
0.0
  9
$DIMEXE
 40
1.0
  9
$DIMTP
 40
0.0
  9
$DIMTM
 40
0.0
  9
$DIMTXT
 40
3.5
  9
$DIMCEN
 40
2.5
  9
$DIMTSZ
 40
0.0
  9
$DIMTOL
 70
     0
  9
$DIMLIM
 70
     0
  9
$DIMTIH
 70
     1
  9
$DIMTOH
 70
     1
  9
$DIMSE1
 70
     0
  9
$DIMSE2
 70
     0
  9
$DIMTAD
 70
     1
  9
$DIMZIN
 70
     0
  9
$DIMBLK
  1

  9
$DIMASO
 70
     1
  9
$DIMSHO
 70
     1
  9
$DIMPOST
  1

  9
$DIMAPOST
  1

  9
$DIMALT
 70
     0
  9
$DIMALTD
 70
     3
  9
$DIMALTF
 40
0.0393700787
  9
$DIMLFAC
 40
1.0
  9
$DIMTOFL
 70
     1
  9
$DIMTVP
 40
0.0
  9
$DIMTIX
 70
     0
  9
$DIMSOXD
 70
     0
  9
$DIMSAH
 70
     0
  9
$DIMBLK1
  1

  9
$DIMBLK2
  1

  9
$DIMSTYLE
  2
ISO-25
  9
$DIMCLRD
 70
     0
  9
$DIMCLRE
 70
     0
  9
$DIMCLRT
 70
     0
  9
$DIMTFAC
 40
1.0
  9
$DIMGAP
 40
1.524
  9
$DIMJUST
 70
     0
  9
$DIMSD1
 70
     0
  9
$DIMSD2
 70
     0
  9
$DIMTOLJ
 70
     0
  9
$DIMTZIN
 70
     0
  9
$DIMALTZ
 70
     0
  9
$DIMALTTZ
 70
     0
  9
$DIMFIT
 70
     3
  9
$DIMUPT
 70
     0
  9
$DIMUNIT
 70
     2
  9
$DIMDEC
 70
     3
  9
$DIMTDEC
 70
     3
  9
$DIMALTU
 70
     2
  9
$DIMALTTD
 70
     3
  9
$DIMTXSTY
  7
STANDARD
  9
$DIMAUNIT
 70
     0
  9
$LUNITS
 70
     2
  9
$LUPREC
 70
     3
  9
$SKETCHINC
 40
1.0
  9
$FILLETRAD
 40
0.0
  9
$AUNITS
 70
     0
  9
$AUPREC
 70
     3
  9
$MENU
  1
.
  9
$ELEVATION
 40
0.0
  9
$PELEVATION
 40
0.0
  9
$THICKNESS
 40
0.0
  9
$LIMCHECK
 70
     0
  9
$CHAMFERA
 40
0.0
  9
$CHAMFERB
 40
0.0
  9
$CHAMFERC
 40
0.0
  9
$CHAMFERD
 40
0.0
  9
$SKPOLY
 70
     0
  9
$TDCREATE
 40
2460651.413665174
  9
$TDUPDATE
 40
2460651.413666597
  9
$TDINDWG
 40
0.0000000116
  9
$TDUSRTIMER
 40
0.0000000116
  9
$USRTIMER
 70
     1
  9
$ANGBASE
 50
0.0
  9
$ANGDIR
 70
     0
  9
$PDMODE
 70
     0
  9
$PDSIZE
 40
-1.0
  9
$PLINEWID
 40
0.0
  9
$COORDS
 70
     1
  9
$SPLFRAME
 70
     0
  9
$SPLINETYPE
 70
     6
  9
$SPLINESEGS
 70
     8
  9
$ATTDIA
 70
     0
  9
$ATTREQ
 70
     1
  9
$HANDLING
 70
     1
  9
$HANDSEED
  5
1A9
  9
$SURFTAB1
 70
     6
  9
$SURFTAB2
 70
     6
  9
$SURFTYPE
 70
     6
  9
$SURFU
 70
     6
  9
$SURFV
 70
     6
  9
$UCSNAME
  2

  9
$UCSORG
 10
0.0
 20
0.0
 30
0.0
  9
$UCSXDIR
 10
1.0
 20
0.0
 30
0.0
  9
$UCSYDIR
 10
0.0
 20
1.0
 30
0.0
  9
$PUCSNAME
  2

  9
$PUCSORG
 10
0.0
 20
0.0
 30
0.0
  9
$PUCSXDIR
 10
1.0
 20
0.0
 30
0.0
  9
$PUCSYDIR
 10
0.0
 20
1.0
 30
0.0
  9
$USERI1
 70
     0
  9
$USERI2
 70
     0
  9
$USERI3
 70
     0
  9
$USERI4
 70
     0
  9
$USERI5
 70
     0
  9
$USERR1
 40
0.0
  9
$USERR2
 40
0.0
  9
$USERR3
 40
0.0
  9
$USERR4
 40
0.0
  9
$USERR5
 40
0.0
  9
$WORLDVIEW
 70
     1
  9
$SHADEDGE
 70
     3
  9
$SHADEDIF
 70
    70
  9
$TILEMODE
 70
     1
  9
$MAXACTVP
 70
    64
  9
$PINSBASE
 10
0.0
 20
0.0
 30
0.0
  9
$PLIMCHECK
 70
     0
  9
$PEXTMIN
 10
1.0000000000E+20
 20
1.0000000000E+20
 30
1.0000000000E+20
  9
$PEXTMAX
 10
-1.0000000000E+20
 20
-1.0000000000E+20
 30
-1.0000000000E+20
  9
$PLIMMIN
 10
0.0
 20
0.0
  9
$PLIMMAX
 10
420.0
 20
297.0
  9
$UNITMODE
 70
     0
  9
$VISRETAIN
 70
     1
  9
$PLINEGEN
 70
     0
  9
$PSLTSCALE
 70
     1
  9
$TREEDEPTH
 70
  3020
  9
$PICKSTYLE
 70
     1
  9
$CMLSTYLE
  2
STANDARD
  9
$CMLJUST
 70
     0
  9
$CMLSCALE
 40
20.0
  9
$SAVEIMAGES
 70
     1
  0
ENDSEC
  0
SECTION
  2
CLASSES
  0
CLASS
  1
ACDBDICTIONARYWDFLT
  2
AcDbDictionaryWithDefault
  3
ObjectDBX Classes
 90
    32768
280
     0
281
     0
  0
CLASS
  1
VISUALSTYLE
  2
AcDbVisualStyle
  3
ObjectDBX Classes
 90
     4095
280
     0
281
     0
  0
CLASS
  1
MATERIAL
  2
AcDbMaterial
  3
ObjectDBX Classes
 90
     1153
280
     0
281
     0
  0
CLASS
  1
SCALE
  2
AcDbScale
  3
ObjectDBX Classes
 90
     1153
280
     0
281
     0
  0
CLASS
  1
TABLESTYLE
  2
AcDbTableStyle
  3
ObjectDBX Classes
 90
     4095
280
     0
281
     0
  0
CLASS
  1
MLEADERSTYLE
  2
AcDbMLeaderStyle
  3
ACDB_MLEADERSTYLE_CLASS
 90
     4095
280
     0
281
     0
  0
CLASS
  1
SUN
  2
AcDbSun
  3
SCENEOE
 90
     1153
280
     0
281
     0
  0
CLASS
  1
XRECORD
  2
AcDbXrecord
  3
ObjectDBX Classes
 90
    32768
280
     0
281
     0
  0
ENDSEC
  0
SECTION
  2
TABLES
  0
TABLE
  2
VPORT
  5
8
330
0
100
AcDbSymbolTable
 70
     1
  0
VPORT
  5
29
330
8
100
AcDbSymbolTableRecord
100
AcDbViewportTableRecord
  2
*ACTIVE
 70
     0
 10
0.0
 20
0.0
 11
1.0
 21
1.0
 12
105.0
 22
148.5
 13
0.0
 23
0.0
 14
10.0
 24
10.0
 15
10.0
 25
10.0
 16
0.0
 26
0.0
 36
1.0
 17
0.0
 27
0.0
 37
0.0
 40
297.0
 41
0.7070707071
 42
50.0
 43
0.0
 44
0.0
 50
0.0
 51
0.0
 71
     0
 72
  2000
 73
     1
 74
     3
 75
     0
 76
     0
 77
     0
 78
     0
  0
ENDTAB
  0
TABLE
  2
LTYPE
  5
5
330
0
100
AcDbSymbolTable
 70
     6
  0
LTYPE
  5
14
330
5
100
AcDbSymbolTableRecord
100
AcDbLinetypeTableRecord
  2
BYBLOCK
 70
     0
  3

 72
    65
 73
     0
 40
0.0
  0
LTYPE
  5
15
330
5
100
AcDbSymbolTableRecord
100
AcDbLinetypeTableRecord
  2
BYLAYER
 70
     0
  3

 72
    65
 73
     0
 40
0.0
  0
LTYPE
  5
16
330
5
100
AcDbSymbolTableRecord
100
AcDbLinetypeTableRecord
  2
CONTINUOUS
 70
     0
  3
Solid line
 72
    65
 73
     0
 40
0.0
  0
LTYPE
  5
5E
330
5
100
AcDbSymbolTableRecord
100
AcDbLinetypeTableRecord
  2
HIDDEN
 70
     0
  3
Hidden __ __ __ __ __ __ __ __ __ __ __ __ __ __
 72
    65
 73
     2
 40
1.905
 49
1.27
 74
     0
 49
-0.635
 74
     0
  0
LTYPE
  5
5F
330
5
100
AcDbSymbolTableRecord
100
AcDbLinetypeTableRecord
  2
PHANTOM
 70
     0
  3
Phantom ______  __  __  ______  __  __  ______
 72
    65
 73
     6
 40
12.7
 49
6.35
 74
     0
 49
-1.27
 74
     0
 49
1.27
 74
     0
 49
-1.27
 74
     0
 49
1.27
 74
     0
 49
-1.27
 74
     0
  0
LTYPE
  5
60
330
5
100
AcDbSymbolTableRecord
100
AcDbLinetypeTableRecord
  2
CENTER
 70
     0
  3
Center ____ _ ____ _ ____ _ ____ _ ____ _ ____
 72
    65
 73
     4
 40
10.16
 49
6.35
 74
     0
 49
-1.27
 74
     0
 49
1.27
 74
     0
 49
-1.27
 74
     0
  0
LTYPE
  5
61
330
5
100
AcDbSymbolTableRecord
100
AcDbLinetypeTableRecord
  2
CENTERX2
 70
     0
  3
Center (2x) ________  __  ________  __  _____
 72
    65
 73
     4
 40
20.32
 49
12.7
 74
     0
 49
-2.54
 74
     0
 49
2.54
 74
     0
 49
-2.54
 74
     0
  0
LTYPE
  5
62
330
5
100
AcDbSymbolTableRecord
100
AcDbLinetypeTableRecord
  2
DOT2
 70
     0
  3
Dot (.5x) ........................................
 72
    65
 73
     2
 40
0.635
 49
0.0
 74
     0
 49
-0.635
 74
     0
  0
ENDTAB
  0
TABLE
  2
LAYER
  5
2
330
0
100
AcDbSymbolTable
 70
     4
  0
LAYER
  5
10
330
2
100
AcDbSymbolTableRecord
100
AcDbLayerTableRecord
  2
0
 70
     0
 62
     7
  6
CONTINUOUS
  0
LAYER
  5
63
330
2
100
AcDbSymbolTableRecord
100
AcDbLayerTableRecord
  2
ﾚｲﾔｰ1
 70
     0
 62
     9
  6
CONTINUOUS
  0
LAYER
  5
64
330
2
100
AcDbSymbolTableRecord
100
AcDbLayerTableRecord
  2
MAIN0
 70
     0
 62
   179
  6
CONTINUOUS
  0
LAYER
  5
65
330
2
100
AcDbSymbolTableRecord
100
AcDbLayerTableRecord
  2
太線
 70
     0
 62
     7
  6
CONTINUOUS
  0
ENDTAB
  0
TABLE
  2
STYLE
  5
3
330
0
100
AcDbSymbolTable
 70
     2
  0
STYLE
  5
11
330
3
100
AcDbSymbolTableRecord
100
AcDbTextStyleTableRecord
  2
STANDARD
 70
     0
 40
0.0
 41
1.0
 50
0.0
 71
     0
 42
3.5
  3
txt
  4
bigfont
  0
STYLE
  5
B0
330
3
100
AcDbSymbolTableRecord
100
AcDbTextStyleTableRecord
  2
SLDTEXTSTYLE0
 70
     0
 40
0.0
 41
0.7
 50
0.0
 71
     0
 42
3.5
  3
TXT
  4
bigfont
  0
ENDTAB
  0
TABLE
  2
VIEW
  5
6
330
0
100
AcDbSymbolTable
 70
     0
  0
ENDTAB
  0
TABLE
  2
UCS
  5
7
330
0
100
AcDbSymbolTable
 70
     0
  0
ENDTAB
  0
TABLE
  2
APPID
  5
9
330
0
100
AcDbSymbolTable
 70
     1
  0
APPID
  5
12
330
9
100
AcDbSymbolTableRecord
100
AcDbRegAppTableRecord
  2
ACAD
 70
     0
  0
ENDTAB
  0
TABLE
  2
DIMSTYLE
  5
A
330
0
100
AcDbSymbolTable
 70
     5
  0
DIMSTYLE
105
27
330
A
100
AcDbSymbolTableRecord
100
AcDbDimStyleTableRecord
  2
ISO-25
 70
     0
  3

  4

  5

  6

  7

 40
1.0
 41
2.5
 42
0.625
 43
3.75
 44
1.25
 45
0.0
 46
0.0
 47
0.0
 48
0.0
140
2.5
141
2.5
142
0.0
143
0.0393700787
144
1.0
145
0.0
146
1.0
147
0.625
 71
     0
 72
     0
 73
     0
 74
     0
 75
     0
 76
     0
 77
     1
 78
     8
170
     0
171
     3
172
     1
173
     0
174
     0
175
     0
176
     0
177
     0
178
     0
270
     2
271
     2
272
     2
273
     2
274
     3
340
11
275
     0
280
     0
281
     0
282
     0
283
     0
284
     8
285
     0
286
     0
287
     3
288
     0
  0
DIMSTYLE
105
126
102
{ACAD_REACTORS
330
125
102
}
330
A
100
AcDbSymbolTableRecord
100
AcDbDimStyleTableRecord
  2
SLDDIMSTYLE0
 70
     0
  3

  4

  5

  6
OPEN30
  7
OPEN30
 40
1.0
 41
2.0
 42
0.0625
 43
0.38
 44
0.0
 45
0.000000001
 46
0.0
 47
0.0
 48
0.0
140
3.5
141
0.09
142
0.0
143
25.4
144
1.0
145
0.0
146
1.0
147
0.875
 71
     0
 72
     0
 73
     0
 74
     0
 75
     0
 76
     0
 77
     3
 78
    12
170
     0
171
     2
172
     1
173
     1
174
     0
175
     0
176
     0
177
     0
178
     0
270
     2
271
     3
272
     3
273
     2
274
     2
340
B0
275
     0
280
     0
281
     0
282
     0
283
     1
284
    12
285
     0
286
     0
288
     0
  0
DIMSTYLE
105
139
102
{ACAD_REACTORS
330
138
330
144
330
14E
102
}
330
A
100
AcDbSymbolTableRecord
100
AcDbDimStyleTableRecord
  2
SLDDIMSTYLE1
 70
     0
  3

  4

  5

  6
OPEN30
  7
OPEN30
 40
1.0
 41
2.0
 42
0.0625
 43
0.38
 44
0.0
 45
0.000000001
 46
0.0
 47
0.0
 48
0.0
140
3.5
141
0.09
142
0.0
143
25.4
144
1.0
145
0.0
146
1.0
147
0.875
 71
     0
 72
     0
 73
     0
 74
     0
 75
     0
 76
     0
 77
     3
 78
    12
170
     0
171
     2
172
     0
173
     1
174
     0
175
     0
176
     0
177
     0
178
     0
270
     2
271
     3
272
     3
273
     2
274
     2
340
B0
275
     0
280
     0
281
     0
282
     0
283
     1
284
    12
285
     0
286
     0
287
     3
288
     0
  0
DIMSTYLE
105
15F
330
A
100
AcDbSymbolTableRecord
100
AcDbDimStyleTableRecord
  2
SLDDIMSTYLE2
 70
     0
  3

  4

  5

  6
DOT
  7
DOT
 40
1.0
 41
1.0
 42
0.0625
 43
0.38
 44
0.0
 45
0.000000001
 46
0.0
 47
0.0
 48
0.0
140
0.18
141
0.09
142
0.0
143
25.4
144
1.0
145
0.0
146
1.0
147
0.0
 71
     0
 72
     0
 73
     1
 74
     1
 75
     0
 76
     0
 77
     0
 78
     0
170
     0
171
     2
172
     0
173
     1
174
     0
175
     0
176
     0
177
     0
178
     0
270
     2
271
     0
272
     0
273
     2
274
     2
340
11
275
     0
280
     0
281
     0
282
     0
283
     1
284
     0
285
     0
286
     0
287
     3
288
     0
  0
DIMSTYLE
105
197
330
A
100
AcDbSymbolTableRecord
100
AcDbDimStyleTableRecord
  2
SLDDIMSTYLE3
 70
     0
  3

  4

  5

  6
OPEN30
  7
OPEN30
 40
1.0
 41
2.0
 42
0.0625
 43
0.38
 44
0.0
 45
0.000000001
 46
0.0
 47
0.0
 48
0.0
140
0.18
141
0.09
142
0.0
143
25.4
144
1.0
145
0.0
146
2.0
147
0.0
 71
     0
 72
     0
 73
     1
 74
     1
 75
     0
 76
     0
 77
     0
 78
     0
170
     0
171
     2
172
     0
173
     1
174
     0
175
     0
176
     0
177
     0
178
     0
270
     2
271
     0
272
     0
273
     2
274
     2
340
11
275
     0
280
     0
281
     0
282
     0
283
     1
284
     0
285
     0
286
     0
287
     3
288
     0
  0
ENDTAB
  0
TABLE
  2
BLOCK_RECORD
  5
1
330
0
100
AcDbSymbolTable
 70
    12
  0
BLOCK_RECORD
  5
1F
330
1
100
AcDbSymbolTableRecord
100
AcDbBlockTableRecord
  2
*MODEL_SPACE
  0
BLOCK_RECORD
  5
1B
330
1
100
AcDbSymbolTableRecord
100
AcDbBlockTableRecord
  2
*PAPER_SPACE
  0
BLOCK_RECORD
  5
23
330
1
100
AcDbSymbolTableRecord
100
AcDbBlockTableRecord
  2
*PAPER_SPACE0
  0
BLOCK_RECORD
  5
DE
330
1
100
AcDbSymbolTableRecord
100
AcDbBlockTableRecord
  2
SW_TABLEANNOTATION_0
  0
BLOCK_RECORD
  5
F7
330
1
100
AcDbSymbolTableRecord
100
AcDbBlockTableRecord
  2
SW_TABLEANNOTATION_1
  0
BLOCK_RECORD
  5
127
330
1
100
AcDbSymbolTableRecord
100
AcDbBlockTableRecord
  2
_OPEN30
  0
BLOCK_RECORD
  5
12D
330
1
100
AcDbSymbolTableRecord
100
AcDbBlockTableRecord
  2
_D
  0
BLOCK_RECORD
  5
13A
330
1
100
AcDbSymbolTableRecord
100
AcDbBlockTableRecord
  2
_D_1
  0
BLOCK_RECORD
  5
145
330
1
100
AcDbSymbolTableRecord
100
AcDbBlockTableRecord
  2
_D_2
  0
BLOCK_RECORD
  5
14F
330
1
100
AcDbSymbolTableRecord
100
AcDbBlockTableRecord
  2
_D_3
  0
BLOCK_RECORD
  5
158
330
1
100
AcDbSymbolTableRecord
100
AcDbBlockTableRecord
  2
SW_NOTE_0
  0
BLOCK_RECORD
  5
160
330
1
100
AcDbSymbolTableRecord
100
AcDbBlockTableRecord
  2
_DOT
  0
BLOCK_RECORD
  5
190
330
1
100
AcDbSymbolTableRecord
100
AcDbBlockTableRecord
  2
SW_NOTE_0_1
  0
BLOCK_RECORD
  5
199
330
1
100
AcDbSymbolTableRecord
100
AcDbBlockTableRecord
  2
SW_CENTERMARKSYMBOL_0
  0
ENDTAB
  0
ENDSEC
  0
SECTION
  2
BLOCKS
  0
BLOCK
  5
20
330
1F
100
AcDbEntity
  8
0
100
AcDbBlockBegin
  2
*MODEL_SPACE
 70
     0
 10
0.0
 20
0.0
 30
0.0
  3
*MODEL_SPACE
  1

  0
ENDBLK
  5
21
330
1F
100
AcDbEntity
  8
0
100
AcDbBlockEnd
  0
BLOCK
  5
1C
330
1B
100
AcDbEntity
 67
     1
  8
0
100
AcDbBlockBegin
  2
*PAPER_SPACE
 70
     0
 10
0.0
 20
0.0
 30
0.0
  3
*PAPER_SPACE
  1

  0
ENDBLK
  5
1D
330
1B
100
AcDbEntity
 67
     1
  8
0
100
AcDbBlockEnd
  0
BLOCK
  5
24
330
23
100
AcDbEntity
  8
0
100
AcDbBlockBegin
  2
*PAPER_SPACE0
 70
     0
 10
0.0
 20
0.0
 30
0.0
  3
*PAPER_SPACE0
  1

  0
ENDBLK
  5
25
330
23
100
AcDbEntity
  8
0
100
AcDbBlockEnd
  0
BLOCK
  5
DF
330
DE
100
AcDbEntity
  8
0
100
AcDbBlockBegin
  2
SW_TABLEANNOTATION_0
 70
     0
 10
0.0
 20
0.0
 30
0.0
  3
SW_TABLEANNOTATION_0
  1

  0
LINE
  5
E1
330
DE
100
AcDbEntity
  8
0
  6
CONTINUOUS
 62
     0
100
AcDbLine
 10
0.0
 20
0.0
 30
0.0
 11
0.0
 21
-4.9602402351
 31
0.0
  0
LINE
  5
E2
330
DE
100
AcDbEntity
  8
0
  6
CONTINUOUS
 62
     0
100
AcDbLine
 10
12.2
 20
0.0
 30
0.0
 11
12.2
 21
-4.9602402351
 31
0.0
  0
LINE
  5
E3
330
DE
100
AcDbEntity
  8
0
  6
CONTINUOUS
 62
     0
100
AcDbLine
 10
32.2
 20
0.0
 30
0.0
 11
32.2
 21
-4.9602402351
 31
0.0
  0
LINE
  5
E4
330
DE
100
AcDbEntity
  8
0
  6
CONTINUOUS
 62
     0
100
AcDbLine
 10
85.993
 20
0.0
 30
0.0
 11
85.993
 21
-4.9602402351
 31
0.0
  0
LINE
  5
E5
330
DE
100
AcDbEntity
  8
0
  6
CONTINUOUS
 62
     0
100
AcDbLine
 10
105.993
 20
0.0
 30
0.0
 11
105.993
 21
-4.9602402351
 31
0.0
  0
LINE
  5
E6
330
DE
100
AcDbEntity
  8
0
  6
CONTINUOUS
 62
     0
100
AcDbLine
 10
123.993
 20
0.0
 30
0.0
 11
123.993
 21
-4.9602402351
 31
0.0
  0
LINE
  5
E7
330
DE
100
AcDbEntity
  8
0
  6
CONTINUOUS
 62
     0
100
AcDbLine
 10
0.0
 20
0.0
 30
0.0
 11
12.2
 21
0.0
 31
0.0
  0
LINE
  5
E8
330
DE
100
AcDbEntity
  8
0
  6
CONTINUOUS
 62
     0
100
AcDbLine
 10
0.0
 20
-4.9602402351
 30
0.0
 11
12.2
 21
-4.9602402351
 31
0.0
  0
LINE
  5
E9
330
DE
100
AcDbEntity
  8
0
  6
CONTINUOUS
 62
     0
100
AcDbLine
 10
12.2
 20
0.0
 30
0.0
 11
32.2
 21
0.0
 31
0.0
  0
LINE
  5
EA
330
DE
100
AcDbEntity
  8
0
  6
CONTINUOUS
 62
     0
100
AcDbLine
 10
12.2
 20
-4.9602402351
 30
0.0
 11
32.2
 21
-4.9602402351
 31
0.0
  0
LINE
  5
EB
330
DE
100
AcDbEntity
  8
0
  6
CONTINUOUS
 62
     0
100
AcDbLine
 10
32.2
 20
0.0
 30
0.0
 11
85.993
 21
0.0
 31
0.0
  0
LINE
  5
EC
330
DE
100
AcDbEntity
  8
0
  6
CONTINUOUS
 62
     0
100
AcDbLine
 10
32.2
 20
-4.9602402351
 30
0.0
 11
85.993
 21
-4.9602402351
 31
0.0
  0
LINE
  5
ED
330
DE
100
AcDbEntity
  8
0
  6
CONTINUOUS
 62
     0
100
AcDbLine
 10
85.993
 20
0.0
 30
0.0
 11
105.993
 21
0.0
 31
0.0
  0
LINE
  5
EE
330
DE
100
AcDbEntity
  8
0
  6
CONTINUOUS
 62
     0
100
AcDbLine
 10
85.993
 20
-4.9602402351
 30
0.0
 11
105.993
 21
-4.9602402351
 31
0.0
  0
LINE
  5
EF
330
DE
100
AcDbEntity
  8
0
  6
CONTINUOUS
 62
     0
100
AcDbLine
 10
105.993
 20
0.0
 30
0.0
 11
123.993
 21
0.0
 31
0.0
  0
LINE
  5
F0
330
DE
100
AcDbEntity
  8
0
  6
CONTINUOUS
 62
     0
100
AcDbLine
 10
105.993
 20
-4.9602402351
 30
0.0
 11
123.993
 21
-4.9602402351
 31
0.0
  0
MTEXT
  5
F1
330
DE
100
AcDbEntity
  8
0
  6
CONTINUOUS
 62
     0
100
AcDbMText
 10
1.7784723327
 20
-1.5485516031
 30
0.0
 40
1.8520833333
 41
0.0
 71
     1
 72
     1
  1
REV.NO.
  7
SLDTEXTSTYLE0
  0
MTEXT
  5
F2
330
DE
100
AcDbEntity
  8
0
  6
CONTINUOUS
 62
     0
100
AcDbMText
 10
18.6722222649
 20
-1.0545209195
 30
0.0
 40
2.6458333333
 41
0.0
 71
     1
 72
     1
  1
DATE
  7
SLDTEXTSTYLE0
  0
MTEXT
  5
F3
330
DE
100
AcDbEntity
  8
0
  6
CONTINUOUS
 62
     0
100
AcDbMText
 10
42.12578125
 20
-1.0545209195
 30
0.0
 40
2.6458333333
 41
0.0
 71
     1
 72
     1
  1
REASON OF REVISION
  7
SLDTEXTSTYLE0
  0
MTEXT
  5
F4
330
DE
100
AcDbEntity
  8
0
  6
CONTINUOUS
 62
     0
100
AcDbMText
 10
89.8193893127
 20
-1.0545209195
 30
0.0
 40
2.6458333333
 41
0.0
 71
     1
 72
     1
  1
REVISER
  7
SLDTEXTSTYLE0
  0
MTEXT
  5
F5
330
DE
100
AcDbEntity
  8
0
  6
CONTINUOUS
 62
     0
100
AcDbMText
 10
110.0541111708
 20
-1.5485516031
 30
0.0
 40
1.8520833333
 41
0.0
 71
     1
 72
     1
  1
QUANTITY
  7
SLDTEXTSTYLE0
  0
ENDBLK
  5
E0
330
DE
100
AcDbEntity
  8
0
100
AcDbBlockEnd
  0
BLOCK
  5
F8
330
F7
100
AcDbEntity
  8
0
100
AcDbBlockBegin
  2
SW_TABLEANNOTATION_1
 70
     0
 10
0.0
 20
0.0
 30
0.0
  3
SW_TABLEANNOTATION_1
  1

  0
LINE
  5
FA
330
F7
100
AcDbEntity
  8
0
  6
CONTINUOUS
 62
     0
100
AcDbLine
 10
0.0
 20
0.0
 30
0.0
 11
0.0
 21
-13.3046384173
 31
0.0
  0
LINE
  5
FB
330
F7
100
AcDbEntity
  8
0
  6
CONTINUOUS
 62
     0
100
AcDbLine
 10
34.7674132714
 20
0.0
 30
0.0
 11
34.7674132714
 21
-13.3046384173
 31
0.0
  0
LINE
  5
FC
330
F7
100
AcDbEntity
  8
0
  6
CONTINUOUS
 62
     0
100
AcDbLine
 10
0.0
 20
-13.3046384173
 30
0.0
 11
0.0
 21
-26.6623469446
 31
0.0
  0
LINE
  5
FD
330
F7
100
AcDbEntity
  8
0
  6
CONTINUOUS
 62
     0
100
AcDbLine
 10
34.7674132714
 20
-13.3046384173
 30
0.0
 11
34.7674132714
 21
-26.6623469446
 31
0.0
  0
LINE
  5
FE
330
F7
100
AcDbEntity
  8
0
  6
CONTINUOUS
 62
     0
100
AcDbLine
 10
73.6552268968
 20
0.0
 30
0.0
 11
73.6552268968
 21
-13.3046384173
 31
0.0
  0
LINE
  5
FF
330
F7
100
AcDbEntity
  8
0
  6
CONTINUOUS
 62
     0
100
AcDbLine
 10
73.6552268968
 20
-13.3046384173
 30
0.0
 11
73.6552268968
 21
-26.6623469446
 31
0.0
  0
LINE
  5
100
330
F7
100
AcDbEntity
  8
0
  6
CONTINUOUS
 62
     0
100
AcDbLine
 10
0.0
 20
0.0
 30
0.0
 11
34.7674132714
 21
0.0
 31
0.0
  0
LINE
  5
101
330
F7
100
AcDbEntity
  8
0
  6
CONTINUOUS
 62
     0
100
AcDbLine
 10
0.0
 20
-13.3046384173
 30
0.0
 11
34.7674132714
 21
-13.3046384173
 31
0.0
  0
LINE
  5
102
330
F7
100
AcDbEntity
  8
0
  6
CONTINUOUS
 62
     0
100
AcDbLine
 10
34.7674132714
 20
0.0
 30
0.0
 11
73.6552268968
 21
0.0
 31
0.0
  0
LINE
  5
103
330
F7
100
AcDbEntity
  8
0
  6
CONTINUOUS
 62
     0
100
AcDbLine
 10
34.7674132714
 20
-13.3046384173
 30
0.0
 11
73.6552268968
 21
-13.3046384173
 31
0.0
  0
LINE
  5
104
330
F7
100
AcDbEntity
  8
0
  6
CONTINUOUS
 62
     0
100
AcDbLine
 10
0.0
 20
-26.6623469446
 30
0.0
 11
34.7674132714
 21
-26.6623469446
 31
0.0
  0
LINE
  5
105
330
F7
100
AcDbEntity
  8
0
  6
CONTINUOUS
 62
     0
100
AcDbLine
 10
34.7674132714
 20
-26.6623469446
 30
0.0
 11
73.6552268968
 21
-26.6623469446
 31
0.0
  0
MTEXT
  5
106
330
F7
100
AcDbEntity
  8
0
  6
CONTINUOUS
 62
     0
100
AcDbMText
 10
7.4615533193
 20
-2.8773794281
 30
0.0
 40
3.1
 41
0.0
 71
     1
 72
     1
  1
Tナット型式
  7
SLDTEXTSTYLE0
  0
MTEXT
  5
107
330
F7
100
AcDbEntity
  8
0
  6
CONTINUOUS
 62
     0
100
AcDbMText
 10
8.3635671725
 20
-6.9773794482
 30
0.0
 40
3.1
 41
0.0
 71
     1
 72
     1
  1
T-NUT TYPE
  7
SLDTEXTSTYLE0
  0
MTEXT
  5
108
330
F7
100
AcDbEntity
  8
0
  6
CONTINUOUS
 62
     0
100
AcDbMText
 10
46.0931944741
 20
-2.8773794281
 30
0.0
 40
3.1
 41
0.0
 71
     1
 72
     1
  1
BR-AJC08M
  7
SLDTEXTSTYLE0
  0
MTEXT
  5
109
330
F7
100
AcDbEntity
  8
0
  6
CONTINUOUS
 62
     0
100
AcDbMText
 10
46.0931944741
 20
-6.9773794482
 30
0.0
 40
3.1
 41
0.0
 71
     1
 72
     1
  1
BR-AJC10M
  7
SLDTEXTSTYLE0
  0
MTEXT
  5
10A
330
F7
100
AcDbEntity
  8
0
  6
CONTINUOUS
 62
     0
100
AcDbMText
 10
6.5595394661
 20
-16.2085529004
 30
0.0
 40
3.1
 41
0.0
 71
     1
 72
     1
  1
ワッシャ型式
  7
SLDTEXTSTYLE0
  0
MTEXT
  5
10B
330
F7
100
AcDbEntity
  8
0
  6
CONTINUOUS
 62
     0
100
AcDbMText
 10
7.4615533193
 20
-20.3085529205
 30
0.0
 40
3.1
 41
0.0
 71
     1
 72
     1
  1
WASHER TYPE
  7
SLDTEXTSTYLE0
  0
MTEXT
  5
10C
330
F7
100
AcDbEntity
  8
0
  6
CONTINUOUS
 62
     0
100
AcDbMText
 10
46.0931944741
 20
-18.2585529105
 30
0.0
 40
3.1
 41
0.0
 71
     1
 72
     1
  1
BRAJCWS12
  7
SLDTEXTSTYLE0
  0
ENDBLK
  5
F9
330
F7
100
AcDbEntity
  8
0
100
AcDbBlockEnd
  0
BLOCK
  5
128
330
127
100
AcDbEntity
  8
0
100
AcDbBlockBegin
  2
_OPEN30
 70
     0
 10
0.0
 20
0.0
 30
0.0
  3
_OPEN30
  1

  0
LINE
  5
12A
330
127
100
AcDbEntity
  8
0
  6
BYBLOCK
 62
     0
100
AcDbLine
 10
-1.0
 20
0.267949
 30
0.0
 11
0.0
 21
0.0
 31
0.0
  0
LINE
  5
12B
330
127
100
AcDbEntity
  8
0
  6
BYBLOCK
 62
     0
100
AcDbLine
 10
0.0
 20
0.0
 30
0.0
 11
-1.0
 21
-0.267949
 31
0.0
  0
LINE
  5
12C
330
127
100
AcDbEntity
  8
0
  6
BYBLOCK
 62
     0
100
AcDbLine
 10
0.0
 20
0.0
 30
0.0
 11
-1.0
 21
0.0
 31
0.0
  0
ENDBLK
  5
129
330
127
100
AcDbEntity
  8
0
100
AcDbBlockEnd
  0
BLOCK
  5
12E
330
12D
100
AcDbEntity
  8
0
100
AcDbBlockBegin
  2
_D
 70
     0
 10
0.0
 20
0.0
 30
0.0
  3
_D
  1

  0
INSERT
  5
130
330
12D
100
AcDbEntity
  8
0
  6
CONTINUOUS
 62
     7
100
AcDbBlockReference
  2
_OPEN30
 10
53.5177738176
 20
169.1213047047
 30
0.0
 41
2.0
 42
2.0
 50
270.0
  0
INSERT
  5
131
330
12D
100
AcDbEntity
  8
0
  6
CONTINUOUS
 62
     7
100
AcDbBlockReference
  2
_OPEN30
 10
53.5177738176
 20
157.1213047047
 30
0.0
 41
2.0
 42
2.0
 50
90.0
  0
LINE
  5
132
330
12D
100
AcDbEntity
  8
0
  6
CONTINUOUS
 62
     7
100
AcDbLine
 10
67.8775251889
 20
169.1213047047
 30
0.0
 11
52.5177738176
 21
169.1213047047
 31
0.0
  0
LINE
  5
133
330
12D
100
AcDbEntity
  8
0
  6
CONTINUOUS
 62
     7
100
AcDbLine
 10
67.8775251889
 20
157.1213047047
 30
0.0
 11
52.5177738176
 21
157.1213047047
 31
0.0
  0
LINE
  5
134
330
12D
100
AcDbEntity
  8
0
  6
CONTINUOUS
 62
     7
100
AcDbLine
 10
53.5177738176
 20
169.1213047047
 30
0.0
 11
53.5177738176
 21
172.1213047047
 31
0.0
  0
LINE
  5
135
330
12D
100
AcDbEntity
  8
0
  6
CONTINUOUS
 62
     7
100
AcDbLine
 10
53.5177738176
 20
169.1213047047
 30
0.0
 11
53.5177738176
 21
157.1213047047
 31
0.0
  0
LINE
  5
136
330
12D
100
AcDbEntity
  8
0
  6
CONTINUOUS
 62
     7
100
AcDbLine
 10
53.5177738176
 20
157.1213047047
 30
0.0
 11
53.5177738176
 21
154.1213047047
 31
0.0
  0
MTEXT
  5
137
330
12D
100
AcDbEntity
  8
0
  6
CONTINUOUS
 62
     7
100
AcDbMText
 10
49.0060369613
 20
159.8833417156
 30
0.0
 40
3.5
 41
0.0
 71
     1
 72
     1
  1
M12
  7
SLDTEXTSTYLE0
 11
-7.044195017643634E-15
 21
1.0
 31
0.0
  0
ENDBLK
  5
12F
330
12D
100
AcDbEntity
  8
0
100
AcDbBlockEnd
  0
BLOCK
  5
13B
330
13A
100
AcDbEntity
  8
0
100
AcDbBlockBegin
  2
_D_1
 70
     0
 10
0.0
 20
0.0
 30
0.0
  3
_D_1
  1

  0
INSERT
  5
13D
330
13A
100
AcDbEntity
  8
0
  6
CONTINUOUS
 62
     7
100
AcDbBlockReference
  2
_OPEN30
 10
123.2312022331
 20
172.1213047047
 30
0.0
 41
2.0
 42
2.0
 50
90.0
  0
INSERT
  5
13E
330
13A
100
AcDbEntity
  8
0
  6
CONTINUOUS
 62
     7
100
AcDbBlockReference
  2
_OPEN30
 10
123.2312022331
 20
154.1213047047
 30
0.0
 41
2.0
 42
2.0
 50
270.0
  0
LINE
  5
13F
330
13A
100
AcDbEntity
  8
0
  6
CONTINUOUS
 62
     7
100
AcDbLine
 10
109.3775251889
 20
172.1213047047
 30
0.0
 11
124.2312022331
 21
172.1213047047
 31
0.0
  0
LINE
  5
140
330
13A
100
AcDbEntity
  8
0
  6
CONTINUOUS
 62
     7
100
AcDbLine
 10
109.3775251889
 20
154.1213047047
 30
0.0
 11
124.2312022331
 21
154.1213047047
 31
0.0
  0
LINE
  5
141
330
13A
100
AcDbEntity
  8
0
  6
CONTINUOUS
 62
     7
100
AcDbLine
 10
123.2312022331
 20
172.1213047047
 30
0.0
 11
123.2312022331
 21
154.1213047047
 31
0.0
  0
MTEXT
  5
142
330
13A
100
AcDbEntity
  8
0
  6
CONTINUOUS
 62
     7
100
AcDbMText
 10
118.7194653767
 20
158.9667792068
 30
0.0
 40
3.5
 41
0.0
 71
     1
 72
     1
  1
%%c
  7
SLDTEXTSTYLE0
 11
-7.044195017643634E-15
 21
1.0
 31
0.0
  0
MTEXT
  5
143
330
13A
100
AcDbEntity
  8
0
  6
CONTINUOUS
 62
     7
100
AcDbMText
 10
118.7194653767
 20
162.8367097219
 30
0.0
 40
3.5
 41
0.0
 71
     1
 72
     1
  1
18
  7
SLDTEXTSTYLE0
 11
-7.044195017643634E-15
 21
1.0
 31
0.0
  0
ENDBLK
  5
13C
330
13A
100
AcDbEntity
  8
0
100
AcDbBlockEnd
  0
BLOCK
  5
146
330
145
100
AcDbEntity
  8
0
100
AcDbBlockBegin
  2
_D_2
 70
     0
 10
0.0
 20
0.0
 30
0.0
  3
_D_2
  1

  0
INSERT
  5
148
330
145
100
AcDbEntity
  8
0
  6
CONTINUOUS
 62
     7
100
AcDbBlockReference
  2
_OPEN30
 10
97.3775251889
 20
141.4339896317
 30
0.0
 41
2.0
 42
2.0
 50
0.0
  0
INSERT
  5
149
330
145
100
AcDbEntity
  8
0
  6
CONTINUOUS
 62
     7
100
AcDbBlockReference
  2
_OPEN30
 10
67.3775251889
 20
141.4339896317
 30
0.0
 41
2.0
 42
2.0
 50
180.0
  0
LINE
  5
14A
330
145
100
AcDbEntity
  8
0
  6
CONTINUOUS
 62
     7
100
AcDbLine
 10
97.3775251889
 20
153.1213047047
 30
0.0
 11
97.3775251889
 21
140.4339896317
 31
0.0
  0
LINE
  5
14B
330
145
100
AcDbEntity
  8
0
  6
CONTINUOUS
 62
     7
100
AcDbLine
 10
67.3775251889
 20
157.6213047047
 30
0.0
 11
67.3775251889
 21
140.4339896317
 31
0.0
  0
LINE
  5
14C
330
145
100
AcDbEntity
  8
0
  6
CONTINUOUS
 62
     7
100
AcDbLine
 10
97.3775251889
 20
141.4339896317
 30
0.0
 11
67.3775251889
 21
141.4339896317
 31
0.0
  0
MTEXT
  5
14D
330
145
100
AcDbEntity
  8
0
  6
CONTINUOUS
 62
     7
100
AcDbMText
 10
80.4120540809
 20
145.9457264881
 30
0.0
 40
3.5
 41
0.0
 71
     1
 72
     1
  1
30
  7
SLDTEXTSTYLE0
  0
ENDBLK
  5
147
330
145
100
AcDbEntity
  8
0
100
AcDbBlockEnd
  0
BLOCK
  5
150
330
14F
100
AcDbEntity
  8
0
100
AcDbBlockBegin
  2
_D_3
 70
     0
 10
0.0
 20
0.0
 30
0.0
  3
_D_3
  1

  0
INSERT
  5
152
330
14F
100
AcDbEntity
  8
0
  6
CONTINUOUS
 62
     7
100
AcDbBlockReference
  2
_OPEN30
 10
109.3775251889
 20
131.1607715986
 30
0.0
 41
2.0
 42
2.0
 50
0.0
  0
INSERT
  5
153
330
14F
100
AcDbEntity
  8
0
  6
CONTINUOUS
 62
     7
100
AcDbBlockReference
  2
_OPEN30
 10
67.3775251889
 20
131.1607715986
 30
0.0
 41
2.0
 42
2.0
 50
180.0
  0
LINE
  5
154
330
14F
100
AcDbEntity
  8
0
  6
CONTINUOUS
 62
     7
100
AcDbLine
 10
109.3775251889
 20
154.8533555123
 30
0.0
 11
109.3775251889
 21
130.1607715986
 31
0.0
  0
LINE
  5
155
330
14F
100
AcDbEntity
  8
0
  6
CONTINUOUS
 62
     7
100
AcDbLine
 10
67.3775251889
 20
157.6213047047
 30
0.0
 11
67.3775251889
 21
130.1607715986
 31
0.0
  0
LINE
  5
156
330
14F
100
AcDbEntity
  8
0
  6
CONTINUOUS
 62
     7
100
AcDbLine
 10
109.3775251889
 20
131.1607715986
 30
0.0
 11
67.3775251889
 21
131.1607715986
 31
0.0
  0
MTEXT
  5
157
330
14F
100
AcDbEntity
  8
0
  6
CONTINUOUS
 62
     7
100
AcDbMText
 10
87.2117143565
 20
135.672508455
 30
0.0
 40
3.5
 41
0.0
 71
     1
 72
     1
  1
42
  7
SLDTEXTSTYLE0
  0
ENDBLK
  5
151
330
14F
100
AcDbEntity
  8
0
100
AcDbBlockEnd
  0
BLOCK
  5
159
330
158
100
AcDbEntity
  8
0
100
AcDbBlockBegin
  2
SW_NOTE_0
 70
     0
 10
0.0
 20
0.0
 30
0.0
  3
SW_NOTE_0
  1

  0
LINE
  5
15B
330
158
100
AcDbEntity
  8
0
  6
CONTINUOUS
 62
     0
100
AcDbLine
 10
22.2866592581
 20
0.0
 30
0.0
 11
0.0
 21
0.0
 31
0.0
  0
MTEXT
  5
15C
330
158
100
AcDbEntity
  8
0
  6
CONTINUOUS
 62
     0
100
AcDbMText
 10
0.4908568836
 20
9.0788574645
 30
0.0
 40
3.5
 41
0.0
 71
     1
 72
     1
  1
Oリング P15
  7
SLDTEXTSTYLE0
  0
MTEXT
  5
15D
330
158
100
AcDbEntity
  8
0
  6
CONTINUOUS
 62
     0
100
AcDbMText
 10
0.4908568836
 20
4.5788576582
 30
0.0
 40
3.5
 41
0.0
 71
     1
 72
     1
  1
O-RING
  7
SLDTEXTSTYLE0
  0
ENDBLK
  5
15A
330
158
100
AcDbEntity
  8
0
100
AcDbBlockEnd
  0
BLOCK
  5
161
330
160
100
AcDbEntity
  8
0
100
AcDbBlockBegin
  2
_DOT
 70
     0
 10
0.0
 20
0.0
 30
0.0
  3
_DOT
  1

  0
POLYLINE
  5
163
330
160
100
AcDbEntity
  8
0
  6
BYBLOCK
 62
     0
100
AcDb2dPolyline
 66
     1
 10
0.0
 20
0.0
 30
0.0
 70
     1
 40
0.5
 41
0.5
  0
VERTEX
  5
1A6
330
163
100
AcDbEntity
  8
0
  6
BYBLOCK
 62
     0
100
AcDbVertex
100
AcDb2dVertex
 10
-0.25
 20
0.0
 30
0.0
 42
1.0
  0
VERTEX
  5
1A7
330
163
100
AcDbEntity
  8
0
  6
BYBLOCK
 62
     0
100
AcDbVertex
100
AcDb2dVertex
 10
0.25
 20
0.0
 30
0.0
 42
1.0
  0
SEQEND
  5
1A8
330
163
100
AcDbEntity
  8
0
  6
BYBLOCK
 62
     0
  0
LINE
  5
164
330
160
100
AcDbEntity
  8
0
  6
BYBLOCK
 62
     0
100
AcDbLine
 10
-0.5
 20
0.0
 30
0.0
 11
-1.0
 21
0.0
 31
0.0
  0
ENDBLK
  5
162
330
160
100
AcDbEntity
  8
0
100
AcDbBlockEnd
  0
BLOCK
  5
191
330
190
100
AcDbEntity
  8
0
100
AcDbBlockBegin
  2
SW_NOTE_0_1
 70
     0
 10
0.0
 20
0.0
 30
0.0
  3
SW_NOTE_0_1
  1

  0
LINE
  5
193
330
190
100
AcDbEntity
  8
0
  6
CONTINUOUS
 62
     0
100
AcDbLine
 10
36.544297042
 20
0.0
 30
0.0
 11
0.0
 21
0.0
 31
0.0
  0
MTEXT
  5
194
330
190
100
AcDbEntity
  8
0
  6
CONTINUOUS
 62
     0
100
AcDbMText
 10
0.4426273051
 20
9.0436832652
 30
0.0
 40
3.5
 41
0.0
 71
     1
 72
     1
  1
ドライブサイズ T55
  7
SLDTEXTSTYLE0
  0
MTEXT
  5
195
330
190
100
AcDbEntity
  8
0
  6
CONTINUOUS
 62
     0
100
AcDbMText
 10
0.4426273051
 20
4.543683459
 30
0.0
 40
3.5
 41
0.0
 71
     1
 72
     1
  1
DRIVE SIZE
  7
SLDTEXTSTYLE0
  0
ENDBLK
  5
192
330
190
100
AcDbEntity
  8
0
100
AcDbBlockEnd
  0
BLOCK
  5
19A
330
199
100
AcDbEntity
  8
0
100
AcDbBlockBegin
  2
SW_CENTERMARKSYMBOL_0
 70
     0
 10
0.0
 20
0.0
 30
0.0
  3
SW_CENTERMARKSYMBOL_0
  1

  0
LINE
  5
19C
330
199
100
AcDbEntity
  8
0
  6
CONTINUOUS
 62
     0
100
AcDbLine
 10
0.0
 20
0.0
 30
0.0
 11
0.0
 21
2.0
 31
0.0
  0
LINE
  5
19D
330
199
100
AcDbEntity
  8
0
  6
CONTINUOUS
 62
     0
100
AcDbLine
 10
0.0
 20
0.0
 30
0.0
 11
-2.0
 21
0.0
 31
0.0
  0
LINE
  5
19E
330
199
100
AcDbEntity
  8
0
  6
CONTINUOUS
 62
     0
100
AcDbLine
 10
0.0
 20
0.0
 30
0.0
 11
0.0
 21
-2.0
 31
0.0
  0
LINE
  5
19F
330
199
100
AcDbEntity
  8
0
  6
CONTINUOUS
 62
     0
100
AcDbLine
 10
0.0
 20
0.0
 30
0.0
 11
2.0
 21
0.0
 31
0.0
  0
LINE
  5
1A0
330
199
100
AcDbEntity
  8
0
  6
CONTINUOUS
 62
     0
100
AcDbLine
 10
0.0
 20
4.0
 30
0.0
 11
0.0
 21
13.3586383376
 31
0.0
  0
LINE
  5
1A1
330
199
100
AcDbEntity
  8
0
  6
CONTINUOUS
 62
     0
100
AcDbLine
 10
-4.0
 20
0.0
 30
0.0
 11
-13.4333935964
 21
0.0
 31
0.0
  0
LINE
  5
1A2
330
199
100
AcDbEntity
  8
0
  6
CONTINUOUS
 62
     0
100
AcDbLine
 10
0.0
 20
-4.0
 30
0.0
 11
0.0
 21
-13.1449467514
 31
0.0
  0
LINE
  5
1A3
330
199
100
AcDbEntity
  8
0
  6
CONTINUOUS
 62
     0
100
AcDbLine
 10
4.0
 20
0.0
 30
0.0
 11
13.4624221387
 21
0.0
 31
0.0
  0
ENDBLK
  5
19B
330
199
100
AcDbEntity
  8
0
100
AcDbBlockEnd
  0
ENDSEC
  0
SECTION
  2
ENTITIES
  0
LINE
  5
66
330
1F
100
AcDbEntity
  8
0
  6
CONTINUOUS
 62
     7
100
AcDbLine
 10
30.0
 20
51.0
 30
0.0
 11
200.0
 21
51.0
 31
0.0
  0
LINE
  5
67
330
1F
100
AcDbEntity
  8
0
  6
CONTINUOUS
 62
     7
100
AcDbLine
 10
30.0
 20
51.0
 30
0.0
 11
30.0
 21
12.0
 31
0.0
  0
LINE
  5
68
330
1F
100
AcDbEntity
  8
0
  6
CONTINUOUS
 62
     7
100
AcDbLine
 10
102.0
 20
51.0
 30
0.0
 11
102.0
 21
12.0
 31
0.0
  0
LINE
  5
69
330
1F
100
AcDbEntity
  8
0
  6
CONTINUOUS
 62
     7
100
AcDbLine
 10
122.0
 20
51.0
 30
0.0
 11
122.0
 21
12.0
 31
0.0
  0
LINE
  5
6A
330
1F
100
AcDbEntity
  8
0
  6
CONTINUOUS
 62
     7
100
AcDbLine
 10
134.0
 20
51.0
 30
0.0
 11
134.0
 21
12.0
 31
0.0
  0
LINE
  5
6B
330
1F
100
AcDbEntity
  8
0
  6
CONTINUOUS
 62
     7
100
AcDbLine
 10
134.0
 20
37.0
 30
0.0
 11
200.0
 21
37.0
 31
0.0
  0
LINE
  5
6C
330
1F
100
AcDbEntity
  8
0
  6
CONTINUOUS
 62
     7
100
AcDbLine
 10
122.0
 20
23.0
 30
0.0
 11
199.6420599231
 21
23.0
 31
0.0
  0
LINE
  5
6D
330
1F
100
AcDbEntity
  8
0
  6
CONTINUOUS
 62
     7
100
AcDbLine
 10
189.5933045206
 20
13.4656093825
 30
0.0
 11
194.3618349207
 21
21.724946313
 31
0.0
  0
LINE
  5
6E
330
1F
100
AcDbEntity
  8
0
  6
HIDDEN
 62
     7
100
AcDbLine
 10
148.3
 20
23.0
 30
0.0
 11
148.3
 21
12.0
 31
0.0
  0
LINE
  5
6F
330
1F
100
AcDbEntity
  8
0
  6
CONTINUOUS
 62
     7
100
AcDbLine
 10
102.0
 20
31.5
 30
0.0
 11
122.0
 21
31.5
 31
0.0
  0
LINE
  5
70
330
1F
100
AcDbEntity
  8
0
  6
CONTINUOUS
 62
     7
100
AcDbLine
 10
122.0
 20
44.0
 30
0.0
 11
200.0
 21
44.0
 31
0.0
  0
LINE
  5
71
330
1F
100
AcDbEntity
  8
0
  6
CONTINUOUS
 62
     7
100
AcDbLine
 10
30.0
 20
37.0
 30
0.0
 11
102.0
 21
37.0
 31
0.0
  0
LINE
  5
72
330
1F
100
AcDbEntity
  8
0
  6
CONTINUOUS
 62
     7
100
AcDbLine
 10
30.0
 20
23.0
 30
0.0
 11
102.0
 21
23.0
 31
0.0
  0
LINE
  5
73
330
1F
100
AcDbEntity
  8
0
  6
CONTINUOUS
 62
     7
100
AcDbLine
 10
78.0
 20
37.0
 30
0.0
 11
78.0
 21
12.0
 31
0.0
  0
LINE
  5
74
330
1F
100
AcDbEntity
  8
0
  6
CONTINUOUS
 62
     7
100
AcDbLine
 10
54.0
 20
37.0
 30
0.0
 11
54.0
 21
23.0
 31
0.0
  0
LINE
  5
75
330
1F
100
AcDbEntity
  8
0
  6
CONTINUOUS
 62
     7
100
AcDbLine
 10
90.0
 20
26.0
 30
0.0
 11
90.0
 21
23.0
 31
0.0
  0
LINE
  5
76
330
1F
100
AcDbEntity
  8
0
  6
CONTINUOUS
 62
     7
100
AcDbLine
 10
66.0
 20
26.0
 30
0.0
 11
66.0
 21
23.0
 31
0.0
  0
LINE
  5
77
330
1F
100
AcDbEntity
  8
0
  6
CONTINUOUS
 62
     7
100
AcDbLine
 10
42.0
 20
26.0
 30
0.0
 11
42.0
 21
23.0
 31
0.0
  0
LINE
  5
78
330
1F
100
AcDbEntity
  8
0
  6
CONTINUOUS
 62
     7
100
AcDbLine
 10
48.0
 20
51.0
 30
0.0
 11
48.0
 21
37.0
 31
0.0
  0
LINE
  5
79
330
1F
100
AcDbEntity
  8
0
  6
CONTINUOUS
 62
     7
100
AcDbLine
 10
30.0
 20
45.0
 30
0.0
 11
102.0
 21
45.0
 31
0.0
  0
LINE
  5
7A
330
1F
100
AcDbEntity
  8
ﾚｲﾔｰ1
  6
CONTINUOUS
 62
     7
100
AcDbLine
 10
200.0
 20
12.0
 30
0.0
 11
200.0
 21
288.0
 31
0.0
  0
LINE
  5
7B
330
1F
100
AcDbEntity
  8
0
  6
CONTINUOUS
 62
     7
100
AcDbLine
 10
200.0
 20
58.0
 30
0.0
 11
204.0
 21
58.0
 31
0.0
  0
LINE
  5
7C
330
1F
100
AcDbEntity
  8
0
  6
HIDDEN
 62
     9
100
AcDbLine
 10
187.65
 20
13.4423554227
 30
0.0
 11
176.65
 21
13.4423554227
 31
0.0
  0
LINE
  5
7D
330
1F
100
AcDbEntity
  8
0
  6
HIDDEN
 62
     9
100
AcDbLine
 10
187.65
 20
13.4423554227
 30
0.0
 11
182.15
 21
22.9686348643
 31
0.0
  0
LINE
  5
7E
330
1F
100
AcDbEntity
  8
0
  6
HIDDEN
 62
     9
100
AcDbLine
 10
182.15
 20
22.9686348643
 30
0.0
 11
176.65
 21
13.4423554227
 31
0.0
  0
LINE
  5
7F
330
1F
100
AcDbEntity
  8
ﾚｲﾔｰ1
  6
CONTINUOUS
 62
     7
100
AcDbLine
 10
20.0
 20
12.0
 30
0.0
 11
200.0
 21
12.0
 31
0.0
  0
LINE
  5
80
330
1F
100
AcDbEntity
  8
ﾚｲﾔｰ1
  6
CONTINUOUS
 62
     7
100
AcDbLine
 10
20.0
 20
288.0
 30
0.0
 11
200.0
 21
288.0
 31
0.0
  0
LINE
  5
81
330
1F
100
AcDbEntity
  8
ﾚｲﾔｰ1
  6
CONTINUOUS
 62
     7
100
AcDbLine
 10
20.0
 20
12.0
 30
0.0
 11
20.0
 21
288.0
 31
0.0
  0
LINE
  5
82
330
1F
100
AcDbEntity
  8
0
  6
HIDDEN
 62
     7
100
AcDbLine
 10
157.0
 20
23.0
 30
0.0
 11
157.0
 21
12.0
 31
0.0
  0
LINE
  5
83
330
1F
100
AcDbEntity
  8
0
  6
CONTINUOUS
 62
     7
100
AcDbLine
 10
0.0
 20
150.0
 30
0.0
 11
20.0
 21
150.0
 31
0.0
  0
LINE
  5
84
330
1F
100
AcDbEntity
  8
0
  6
CONTINUOUS
 62
     7
100
AcDbLine
 10
200.0
 20
150.0
 30
0.0
 11
210.0
 21
150.0
 31
0.0
  0
LINE
  5
85
330
1F
100
AcDbEntity
  8
0
  6
CONTINUOUS
 62
     7
100
AcDbLine
 10
110.0
 20
0.0
 30
0.0
 11
110.0
 21
12.0
 31
0.0
  0
LINE
  5
86
330
1F
100
AcDbEntity
  8
0
  6
CONTINUOUS
 62
     7
100
AcDbLine
 10
110.0
 20
288.0
 30
0.0
 11
110.0
 21
297.0
 31
0.0
  0
LINE
  5
87
330
1F
100
AcDbEntity
  8
0
  6
CONTINUOUS
 62
     7
100
AcDbLine
 10
15.0
 20
196.0
 30
0.0
 11
15.0
 21
104.0
 31
0.0
  0
LINE
  5
88
330
1F
100
AcDbEntity
  8
0
  6
CONTINUOUS
 62
     7
100
AcDbLine
 10
15.0
 20
159.2
 30
0.0
 11
18.0
 21
159.2
 31
0.0
  0
LINE
  5
89
330
1F
100
AcDbEntity
  8
0
  6
CONTINUOUS
 62
     7
100
AcDbLine
 10
15.0
 20
168.4
 30
0.0
 11
18.0
 21
168.4
 31
0.0
  0
LINE
  5
8A
330
1F
100
AcDbEntity
  8
0
  6
CONTINUOUS
 62
     7
100
AcDbLine
 10
15.0
 20
177.6
 30
0.0
 11
18.0
 21
177.6
 31
0.0
  0
LINE
  5
8B
330
1F
100
AcDbEntity
  8
0
  6
CONTINUOUS
 62
     7
100
AcDbLine
 10
15.0
 20
186.8
 30
0.0
 11
18.0
 21
186.8
 31
0.0
  0
LINE
  5
8C
330
1F
100
AcDbEntity
  8
0
  6
CONTINUOUS
 62
     7
100
AcDbLine
 10
15.0
 20
196.0
 30
0.0
 11
20.0
 21
196.0
 31
0.0
  0
LINE
  5
8D
330
1F
100
AcDbEntity
  8
0
  6
CONTINUOUS
 62
     7
100
AcDbLine
 10
15.0
 20
140.8
 30
0.0
 11
18.0
 21
140.8
 31
0.0
  0
LINE
  5
8E
330
1F
100
AcDbEntity
  8
0
  6
CONTINUOUS
 62
     7
100
AcDbLine
 10
15.0
 20
131.6
 30
0.0
 11
18.0
 21
131.6
 31
0.0
  0
LINE
  5
8F
330
1F
100
AcDbEntity
  8
0
  6
CONTINUOUS
 62
     7
100
AcDbLine
 10
15.0
 20
122.4
 30
0.0
 11
18.0
 21
122.4
 31
0.0
  0
LINE
  5
90
330
1F
100
AcDbEntity
  8
0
  6
CONTINUOUS
 62
     7
100
AcDbLine
 10
15.0
 20
113.2
 30
0.0
 11
18.0
 21
113.2
 31
0.0
  0
LINE
  5
91
330
1F
100
AcDbEntity
  8
0
  6
CONTINUOUS
 62
     7
100
AcDbLine
 10
15.0
 20
104.0
 30
0.0
 11
20.0
 21
104.0
 31
0.0
  0
LINE
  5
92
330
1F
100
AcDbEntity
  8
0
  6
CONTINUOUS
 62
     7
100
AcDbLine
 10
65.0
 20
292.0
 30
0.0
 11
65.0
 21
288.0
 31
0.0
  0
LINE
  5
93
330
1F
100
AcDbEntity
  8
0
  6
CONTINUOUS
 62
     7
100
AcDbLine
 10
155.0
 20
292.0
 30
0.0
 11
155.0
 21
288.0
 31
0.0
  0
LINE
  5
94
330
1F
100
AcDbEntity
  8
0
  6
CONTINUOUS
 62
     7
100
AcDbLine
 10
155.0
 20
12.0
 30
0.0
 11
155.0
 21
8.0
 31
0.0
  0
LINE
  5
95
330
1F
100
AcDbEntity
  8
0
  6
CONTINUOUS
 62
     7
100
AcDbLine
 10
65.0
 20
12.0
 30
0.0
 11
65.0
 21
8.0
 31
0.0
  0
LINE
  5
96
330
1F
100
AcDbEntity
  8
0
  6
CONTINUOUS
 62
     7
100
AcDbLine
 10
200.0
 20
104.0
 30
0.0
 11
204.0
 21
104.0
 31
0.0
  0
LINE
  5
97
330
1F
100
AcDbEntity
  8
0
  6
CONTINUOUS
 62
     7
100
AcDbLine
 10
200.0
 20
196.0
 30
0.0
 11
204.0
 21
196.0
 31
0.0
  0
LINE
  5
98
330
1F
100
AcDbEntity
  8
0
  6
CONTINUOUS
 62
     7
100
AcDbLine
 10
200.0
 20
242.0
 30
0.0
 11
204.0
 21
242.0
 31
0.0
  0
LINE
  5
99
330
1F
100
AcDbEntity
  8
0
  6
CONTINUOUS
 62
     7
100
AcDbLine
 10
16.0
 20
58.0
 30
0.0
 11
20.0
 21
58.0
 31
0.0
  0
LINE
  5
9A
330
1F
100
AcDbEntity
  8
0
  6
CONTINUOUS
 62
     7
100
AcDbLine
 10
20.0
 20
242.0
 30
0.0
 11
16.0
 21
242.0
 31
0.0
  0
LINE
  5
9B
330
1F
100
AcDbEntity
  8
0
  6
CONTINUOUS
 62
     7
100
AcDbLine
 10
208.0
 20
2.0
 30
0.0
 11
208.0
 21
7.0
 31
0.0
  0
LINE
  5
9C
330
1F
100
AcDbEntity
  8
0
  6
CONTINUOUS
 62
     7
100
AcDbLine
 10
208.0
 20
290.0
 30
0.0
 11
208.0
 21
295.0
 31
0.0
  0
LINE
  5
9D
330
1F
100
AcDbEntity
  8
0
  6
CONTINUOUS
 62
     7
100
AcDbLine
 10
2.0
 20
2.0
 30
0.0
 11
2.0
 21
7.0
 31
0.0
  0
LINE
  5
9E
330
1F
100
AcDbEntity
  8
0
  6
CONTINUOUS
 62
     7
100
AcDbLine
 10
2.0
 20
290.0
 30
0.0
 11
2.0
 21
295.0
 31
0.0
  0
LINE
  5
9F
330
1F
100
AcDbEntity
  8
0
  6
CONTINUOUS
 62
     7
100
AcDbLine
 10
2.0
 20
2.0
 30
0.0
 11
7.0
 21
2.0
 31
0.0
  0
LINE
  5
A0
330
1F
100
AcDbEntity
  8
0
  6
CONTINUOUS
 62
     7
100
AcDbLine
 10
203.0
 20
2.0
 30
0.0
 11
208.0
 21
2.0
 31
0.0
  0
LINE
  5
A1
330
1F
100
AcDbEntity
  8
0
  6
CONTINUOUS
 62
     7
100
AcDbLine
 10
2.0
 20
295.0
 30
0.0
 11
7.0
 21
295.0
 31
0.0
  0
LINE
  5
A2
330
1F
100
AcDbEntity
  8
0
  6
CONTINUOUS
 62
     7
100
AcDbLine
 10
203.0
 20
295.0
 30
0.0
 11
208.0
 21
295.0
 31
0.0
  0
LINE
  5
A3
330
1F
100
AcDbEntity
  8
0
  6
CONTINUOUS
 62
     9
100
AcDbLine
 10
68.0
 20
288.0
 30
0.0
 11
20.0
 21
288.0
 31
0.0
  0
LINE
  5
A4
330
1F
100
AcDbEntity
  8
0
  6
CONTINUOUS
 62
     9
100
AcDbLine
 10
20.0
 20
248.5
 30
0.0
 11
20.0
 21
288.0
 31
0.0
  0
LINE
  5
A5
330
1F
100
AcDbEntity
  8
0
  6
CONTINUOUS
 62
     9
100
AcDbLine
 10
68.0
 20
288.0
 30
0.0
 11
87.0
 21
288.0
 31
0.0
  0
LINE
  5
A6
330
1F
100
AcDbEntity
  8
0
  6
CONTINUOUS
 62
     9
100
AcDbLine
 10
87.0
 20
288.0
 30
0.0
 11
126.0
 21
288.0
 31
0.0
  0
LINE
  5
A7
330
1F
100
AcDbEntity
  8
0
  6
CONTINUOUS
 62
     7
100
AcDbLine
 10
120.4713877754
 20
15.7804142126
 30
0.0
 11
120.4713877754
 21
21.7804142126
 31
0.0
  0
LINE
  5
A8
330
1F
100
AcDbEntity
  8
0
  6
CONTINUOUS
 62
     7
100
AcDbLine
 10
113.9336941228
 20
17.2804142126
 30
0.0
 11
113.9336941228
 21
20.2804142126
 31
0.0
  0
LINE
  5
A9
330
1F
100
AcDbEntity
  8
0
  6
CENTER
 62
     7
100
AcDbLine
 10
103.4321805515
 20
18.7804142126
 30
0.0
 11
121.2765788965
 21
18.7804142126
 31
0.0
  0
LINE
  5
AA
330
1F
100
AcDbEntity
  8
0
  6
CENTER
 62
     7
100
AcDbLine
 10
107.4474565858
 20
14.5592166292
 30
0.0
 11
107.4474565858
 21
22.8986510215
 31
0.0
  0
LINE
  5
AB
330
1F
100
AcDbEntity
  8
0
  6
CONTINUOUS
 62
     7
100
AcDbLine
 10
113.9336941228
 20
20.2804142126
 30
0.0
 11
120.4713877754
 21
21.7804142126
 31
0.0
  0
LINE
  5
AC
330
1F
100
AcDbEntity
  8
0
  6
CONTINUOUS
 62
     7
100
AcDbLine
 10
113.9336941228
 20
17.2804142126
 30
0.0
 11
120.4713877754
 21
15.7804142126
 31
0.0
  0
LINE
  5
AD
330
1F
100
AcDbEntity
  8
0
  6
CONTINUOUS
 62
     9
100
AcDbLine
 10
200.0
 20
282.0
 30
0.0
 11
200.0
 21
277.0
 31
0.0
  0
CIRCLE
  5
AE
330
1F
100
AcDbEntity
  8
0
  6
CONTINUOUS
 62
     7
100
AcDbCircle
 10
107.4474565858
 20
18.7804142126
 30
0.0
 40
1.499999999999972
  0
CIRCLE
  5
AF
330
1F
100
AcDbEntity
  8
0
  6
CONTINUOUS
 62
     7
100
AcDbCircle
 10
107.4474565858
 20
18.7804142126
 30
0.0
 40
2.999999999999972
  0
MTEXT
  5
B1
330
1F
100
AcDbEntity
  8
0
  6
CONTINUOUS
 62
     7
100
AcDbMText
 10
30.3866218553
 20
98.3957893565
 30
0.0
 40
3.5
 41
0.0
 71
     1
 72
     1
  1
対応型式
  7
SLDTEXTSTYLE0
  0
MTEXT
  5
B2
330
1F
100
AcDbEntity
  8
0
  6
CONTINUOUS
 62
     7
100
AcDbMText
 10
30.3866218553
 20
93.8957895503
 30
0.0
 40
3.5
 41
0.0
 71
     1
 72
     1
  1
CORRECT TYPE
  7
SLDTEXTSTYLE0
  0
MTEXT
  5
B3
330
1F
100
AcDbEntity
  8
0
  6
CONTINUOUS
 62
     7
100
AcDbMText
 10
39.4617794491
 20
49.8261099021
 30
0.0
 40
3.0999999046
 41
0.0
 71
     2
 72
     1
  1
CAREER
  7
SLDTEXTSTYLE0
  0
MTEXT
  5
B4
330
1F
100
AcDbEntity
  8
0
  6
CONTINUOUS
 62
     7
100
AcDbMText
 10
96.0788455214
 20
36.3261099021
 30
0.0
 40
3.0999999046
 41
0.0
 71
     2
 72
     1
  1
3D
  7
SLDTEXTSTYLE0
  0
MTEXT
  5
B5
330
1F
100
AcDbEntity
  8
0
  6
CONTINUOUS
 62
     7
100
AcDbMText
 10
84.3463366833
 20
36.3261099021
 30
0.0
 40
3.0999999046
 41
0.0
 71
     2
 72
     1
  1
DRW
  7
SLDTEXTSTYLE0
  0
MTEXT
  5
B6
330
1F
100
AcDbEntity
  8
0
  6
CONTINUOUS
 62
     7
100
AcDbMText
 10
66.4822219908
 20
36.3261099021
 30
0.0
 40
3.0999999046
 41
0.0
 71
     2
 72
     1
  1
IMSPECTION
  7
SLDTEXTSTYLE0
  0
MTEXT
  5
B7
330
1F
100
AcDbEntity
  8
0
  6
CONTINUOUS
 62
     7
100
AcDbMText
 10
42.2639842555
 20
36.3261099021
 30
0.0
 40
3.0999999046
 41
0.0
 71
     2
 72
     1
  1
APPROVAL
  7
SLDTEXTSTYLE0
  0
MTEXT
  5
B8
330
1F
100
AcDbEntity
  8
0
  6
CONTINUOUS
 62
     7
100
AcDbMText
 10
90.1445053779
 20
22.3261099021
 30
0.0
 40
3.0999999046
 41
0.0
 71
     2
 72
     1
  1
DATE
  7
SLDTEXTSTYLE0
  0
MTEXT
  5
B9
330
1F
100
AcDbEntity
  8
0
  6
CONTINUOUS
 62
     7
100
AcDbMText
 10
33.5
 20
19.3594566752
 30
0.0
 40
3.175
 41
0.0
 71
     1
 72
     1
  1
Kitagawa Corporation
  7
SLDTEXTSTYLE0
  0
MTEXT
  5
BA
330
1F
100
AcDbEntity
  8
0
  6
CONTINUOUS
 62
     7
100
AcDbMText
 10
112.3164586872
 20
29.8261099021
 30
0.0
 40
3.0999999046
 41
0.0
 71
     2
 72
     1
  1
3RD ANGLE
  7
SLDTEXTSTYLE0
  0
MTEXT
  5
BB
330
1F
100
AcDbEntity
  8
0
  6
CONTINUOUS
 62
     7
100
AcDbMText
 10
112.1770658046
 20
49.3261099021
 30
0.0
 40
3.0999999046
 41
0.0
 71
     2
 72
     1
  1
SCALE
  7
SLDTEXTSTYLE0
  0
MTEXT
  5
BC
330
1F
100
AcDbEntity
  8
0
  6
CONTINUOUS
 62
     7
100
AcDbMText
 10
128.2463366833
 20
21.5094432195
 30
0.0
 40
3.0999999046
 41
0.0
 71
     2
 72
     1
  1
DRW
  7
SLDTEXTSTYLE0
  0
MTEXT
  5
BD
330
1F
100
AcDbEntity
  8
0
  6
CONTINUOUS
 62
     7
100
AcDbMText
 10
128.2409548029
 20
17.789443299
 30
0.0
 40
3.0999999046
 41
0.0
 71
     2
 72
     1
  1
NO.
  7
SLDTEXTSTYLE0
  0
MTEXT
  5
BE
330
1F
100
AcDbEntity
  8
0
  6
CONTINUOUS
 62
     7
100
AcDbMText
 10
128.2920832407
 20
35.3261099021
 30
0.0
 40
3.0999999046
 41
0.0
 71
     2
 72
     1
  1
NAME
  7
SLDTEXTSTYLE0
  0
MTEXT
  5
BF
330
1F
100
AcDbEntity
  8
0
  6
CONTINUOUS
 62
     7
100
AcDbMText
 10
128.2980034254
 20
49.3261099021
 30
0.0
 40
3.0999999046
 41
0.0
 71
     2
 72
     1
  1
TYPE
  7
SLDTEXTSTYLE0
  0
MTEXT
  5
C0
330
1F
100
AcDbEntity
  8
0
  6
CONTINUOUS
 62
     7
100
AcDbMText
 10
38.0
 20
292.8761104221
 30
0.0
 40
3.1000003815
 41
0.0
 71
     1
 72
     1
  1
1
  7
SLDTEXTSTYLE0
  0
MTEXT
  5
C1
330
1F
100
AcDbEntity
  8
0
  6
CONTINUOUS
 62
     7
100
AcDbMText
 10
86.0689243832
 20
292.8761104221
 30
0.0
 40
3.1000003815
 41
0.0
 71
     1
 72
     1
  1
2
  7
SLDTEXTSTYLE0
  0
MTEXT
  5
C2
330
1F
100
AcDbEntity
  8
0
  6
CONTINUOUS
 62
     7
100
AcDbMText
 10
132.0
 20
292.8761104221
 30
0.0
 40
3.1000003815
 41
0.0
 71
     1
 72
     1
  1
3
  7
SLDTEXTSTYLE0
  0
MTEXT
  5
C3
330
1F
100
AcDbEntity
  8
0
  6
CONTINUOUS
 62
     7
100
AcDbMText
 10
177.0
 20
292.8761104221
 30
0.0
 40
3.1000003815
 41
0.0
 71
     1
 72
     1
  1
4
  7
SLDTEXTSTYLE0
  0
MTEXT
  5
C4
330
1F
100
AcDbEntity
  8
0
  6
CONTINUOUS
 62
     7
100
AcDbMText
 10
38.0
 20
11.3761104221
 30
0.0
 40
3.1000003815
 41
0.0
 71
     1
 72
     1
  1
1
  7
SLDTEXTSTYLE0
  0
MTEXT
  5
C5
330
1F
100
AcDbEntity
  8
0
  6
CONTINUOUS
 62
     7
100
AcDbMText
 10
86.2848945907
 20
11.3761104221
 30
0.0
 40
3.1000003815
 41
0.0
 71
     1
 72
     1
  1
2
  7
SLDTEXTSTYLE0
  0
MTEXT
  5
C6
330
1F
100
AcDbEntity
  8
0
  6
CONTINUOUS
 62
     7
100
AcDbMText
 10
132.0
 20
11.3761104221
 30
0.0
 40
3.1000003815
 41
0.0
 71
     1
 72
     1
  1
3
  7
SLDTEXTSTYLE0
  0
MTEXT
  5
C7
330
1F
100
AcDbEntity
  8
0
  6
CONTINUOUS
 62
     7
100
AcDbMText
 10
177.0
 20
11.3761104221
 30
0.0
 40
3.1000003815
 41
0.0
 71
     1
 72
     1
  1
4
  7
SLDTEXTSTYLE0
  0
MTEXT
  5
C8
330
1F
100
AcDbEntity
  8
0
  6
CONTINUOUS
 62
     7
100
AcDbMText
 10
17.0
 20
270.4609227521
 30
0.0
 40
3.1000003815
 41
0.0
 71
     1
 72
     1
  1
A
  7
SLDTEXTSTYLE0
  0
MTEXT
  5
C9
330
1F
100
AcDbEntity
  8
0
  6
CONTINUOUS
 62
     7
100
AcDbMText
 10
17.0
 20
220.1159714833
 30
0.0
 40
3.1000003815
 41
0.0
 71
     1
 72
     1
  1
B
  7
SLDTEXTSTYLE0
  0
MTEXT
  5
CA
330
1F
100
AcDbEntity
  8
0
  6
CONTINUOUS
 62
     7
100
AcDbMText
 10
17.0
 20
83.0500657225
 30
0.0
 40
3.1000003815
 41
0.0
 71
     1
 72
     1
  1
E
  7
SLDTEXTSTYLE0
  0
MTEXT
  5
CB
330
1F
100
AcDbEntity
  8
0
  6
CONTINUOUS
 62
     7
100
AcDbMText
 10
17.0
 20
37.7005252077
 30
0.0
 40
3.1000003815
 41
0.0
 71
     1
 72
     1
  1
F
  7
SLDTEXTSTYLE0
  0
MTEXT
  5
CC
330
1F
100
AcDbEntity
  8
0
  6
CONTINUOUS
 62
     7
100
AcDbMText
 10
202.0
 20
270.4609227521
 30
0.0
 40
3.1000003815
 41
0.0
 71
     1
 72
     1
  1
A
  7
SLDTEXTSTYLE0
  0
MTEXT
  5
CD
330
1F
100
AcDbEntity
  8
0
  6
CONTINUOUS
 62
     7
100
AcDbMText
 10
202.0048436923
 20
220.1159714833
 30
0.0
 40
3.1000003815
 41
0.0
 71
     1
 72
     1
  1
B
  7
SLDTEXTSTYLE0
  0
MTEXT
  5
CE
330
1F
100
AcDbEntity
  8
0
  6
CONTINUOUS
 62
     7
100
AcDbMText
 10
202.0034982804
 20
37.7005252077
 30
0.0
 40
3.1000003815
 41
0.0
 71
     1
 72
     1
  1
F
  7
SLDTEXTSTYLE0
  0
MTEXT
  5
CF
330
1F
100
AcDbEntity
  8
0
  6
CONTINUOUS
 62
     7
100
AcDbMText
 10
202.0
 20
174.8277174776
 30
0.0
 40
3.1000003815
 41
0.0
 71
     1
 72
     1
  1
C
  7
SLDTEXTSTYLE0
  0
MTEXT
  5
D0
330
1F
100
AcDbEntity
  8
0
  6
CONTINUOUS
 62
     7
100
AcDbMText
 10
202.0069964444
 20
130.3535257913
 30
0.0
 40
3.1000003815
 41
0.0
 71
     1
 72
     1
  1
D
  7
SLDTEXTSTYLE0
  0
MTEXT
  5
D1
330
1F
100
AcDbEntity
  8
0
  6
CONTINUOUS
 62
     7
100
AcDbMText
 10
112.3836460702
 20
43.2948859205
 30
0.0
 40
6.35
 41
0.0
 71
     2
 72
     1
  1
1:1
  7
SLDTEXTSTYLE0
  0
MTEXT
  5
D2
330
1F
100
AcDbEntity
  8
0
  6
CONTINUOUS
 62
     7
100
AcDbMText
 10
135.1
 20
21.2898259955
 30
0.0
 40
6.6145833333
 41
0.0
 71
     1
 72
     1
  1
61P497331
  7
SLDTEXTSTYLE0
  0
MTEXT
  5
D3
330
1F
100
AcDbEntity
  8
0
  6
CONTINUOUS
 62
     7
100
AcDbMText
 10
179.95
 20
21.2898259955
 30
0.0
 40
6.6145833333
 41
0.0
 71
     1
 72
     1
  1
0
  7
SLDTEXTSTYLE0
  0
MTEXT
  5
D4
330
1F
100
AcDbEntity
  8
0
  6
CONTINUOUS
 62
     7
100
AcDbMText
 10
135.75
 20
49.6094567916
 30
0.0
 40
3.175
 41
0.0
 71
     1
 72
     1
  1
BRAJCBT12
  7
SLDTEXTSTYLE0
  0
MTEXT
  5
D5
330
1F
100
AcDbEntity
  8
0
  6
CONTINUOUS
 62
     7
100
AcDbMText
 10
135.75
 20
42.8887713781
 30
0.0
 40
3.175
 41
0.0
 71
     1
 72
     1
  1
BR-AJC 8
  7
SLDTEXTSTYLE0
  0
MTEXT
  5
D6
330
1F
100
AcDbEntity
  8
0
  6
CONTINUOUS
 62
     7
100
AcDbMText
 10
135.75
 20
35.9435846415
 30
0.0
 40
3.175
 41
0.0
 71
     1
 72
     1
  1
BRAJCBT12
  7
SLDTEXTSTYLE0
  0
MTEXT
  5
D7
330
1F
100
AcDbEntity
  8
0
  6
CONTINUOUS
 62
     7
100
AcDbMText
 10
135.75
 20
31.7102513593
 30
0.0
 40
3.175
 41
0.0
 71
     1
 72
     1
  1
OUTSIDE VIEW
  7
SLDTEXTSTYLE0
  0
MTEXT
  5
D8
330
1F
100
AcDbEntity
  8
0
  6
CONTINUOUS
 62
     7
100
AcDbMText
 10
88.9424466476
 20
17.4594567916
 30
0.0
 40
3.175
 41
0.0
 71
     2
 72
     1
  1
2024/12/03
  7
SLDTEXTSTYLE0
  0
MTEXT
  5
D9
330
1F
100
AcDbEntity
  8
0
  6
CONTINUOUS
 62
     7
100
AcDbMText
 10
202.0034982804
 20
83.0500657225
 30
0.0
 40
3.1000003815
 41
0.0
 71
     1
 72
     1
  1
E
  7
SLDTEXTSTYLE0
  0
MTEXT
  5
DA
330
1F
100
AcDbEntity
  8
0
  6
CONTINUOUS
 62
     7
100
AcDbMText
 10
197.7677083416
 20
15.8672032039
 30
0.0
 40
3.0
 41
0.0
 71
     2
 72
     1
  1
P
  7
SLDTEXTSTYLE0
  0
MTEXT
  5
DB
330
1F
100
AcDbEntity
  8
0
  6
CONTINUOUS
 62
     7
100
AcDbMText
 10
189.788446095
 20
22.9494884881
 30
0.0
 40
4.2333333333
 41
0.0
 71
     2
 72
     1
  1
1
  7
SLDTEXTSTYLE0
  0
MTEXT
  5
DC
330
1F
100
AcDbEntity
  8
0
  6
CONTINUOUS
 62
     7
100
AcDbMText
 10
193.626130444
 20
17.4641725623
 30
0.0
 40
4.2333333333
 41
0.0
 71
     2
 72
     1
  1
1
  7
SLDTEXTSTYLE0
  0
MTEXT
  5
DD
330
1F
100
AcDbEntity
  8
0
  6
CONTINUOUS
 62
     7
100
AcDbMText
 10
84.0708333664
 20
28.6172030293
 30
0.0
 40
3.0
 41
0.0
 71
     2
 72
     1
  1
増田
  7
SLDTEXTSTYLE0
  0
INSERT
  5
F6
330
1F
100
AcDbEntity
  8
0
  6
CONTINUOUS
 62
     7
100
AcDbBlockReference
  2
SW_TABLEANNOTATION_0
 10
76.007
 20
288.0
 30
0.0
  0
INSERT
  5
10D
330
1F
100
AcDbEntity
  8
0
  6
CONTINUOUS
 62
     7
100
AcDbBlockReference
  2
SW_TABLEANNOTATION_1
 10
30.1357573072
 20
86.6300856969
 30
0.0
  0
LINE
  5
10E
330
1F
100
AcDbEntity
  8
0
  6
CONTINUOUS
 62
     7
100
AcDbLine
 10
108.3775251889
 20
154.1213047047
 30
0.0
 11
109.3775251889
 21
155.8533555123
 31
0.0
  0
LINE
  5
10F
330
1F
100
AcDbEntity
  8
0
  6
CONTINUOUS
 62
     7
100
AcDbLine
 10
109.3775251889
 20
170.3892538972
 30
0.0
 11
108.3775251889
 21
172.1213047047
 31
0.0
  0
LINE
  5
110
330
1F
100
AcDbEntity
  8
0
  6
CONTINUOUS
 62
     7
100
AcDbLine
 10
105.8775251889
 20
154.1213047047
 30
0.0
 11
108.3775251889
 21
154.1213047047
 31
0.0
  0
LINE
  5
111
330
1F
100
AcDbEntity
  8
0
  6
CONTINUOUS
 62
     7
100
AcDbLine
 10
108.3775251889
 20
172.1213047047
 30
0.0
 11
105.8775251889
 21
172.1213047047
 31
0.0
  0
LINE
  5
112
330
1F
100
AcDbEntity
  8
0
  6
CONTINUOUS
 62
     7
100
AcDbLine
 10
97.3775251889
 20
154.1213047047
 30
0.0
 11
102.8775251889
 21
154.1213047047
 31
0.0
  0
LINE
  5
113
330
1F
100
AcDbEntity
  8
0
  6
CONTINUOUS
 62
     7
100
AcDbLine
 10
102.8775251889
 20
172.1213047047
 30
0.0
 11
97.3775251889
 21
172.1213047047
 31
0.0
  0
ARC
  5
114
330
1F
100
AcDbEntity
  8
0
  6
CONTINUOUS
 62
     7
100
AcDbCircle
 10
96.7775251889
 20
156.5213047047
 30
0.0
 40
0.6000000000000085
100
AcDbArc
 50
0.0
 51
90.0
  0
ARC
  5
115
330
1F
100
AcDbEntity
  8
0
  6
CONTINUOUS
 62
     7
100
AcDbCircle
 10
96.7775251889
 20
169.7213047047
 30
0.0
 40
0.6000000000000085
100
AcDbArc
 50
270.0
 51
0.0
  0
LINE
  5
116
330
1F
100
AcDbEntity
  8
0
  6
CONTINUOUS
 62
     7
100
AcDbLine
 10
68.8775251889
 20
157.1213047047
 30
0.0
 11
96.7775251889
 21
157.1213047047
 31
0.0
  0
LINE
  5
117
330
1F
100
AcDbEntity
  8
0
  6
CONTINUOUS
 62
     7
100
AcDbLine
 10
96.7775251889
 20
169.1213047047
 30
0.0
 11
68.8775251889
 21
169.1213047047
 31
0.0
  0
LINE
  5
118
330
1F
100
AcDbEntity
  8
0
  6
CONTINUOUS
 62
     7
100
AcDbLine
 10
68.8775251889
 20
169.1213047047
 30
0.0
 11
67.3775251889
 21
167.6213047047
 31
0.0
  0
LINE
  5
119
330
1F
100
AcDbEntity
  8
0
  6
CONTINUOUS
 62
     7
100
AcDbLine
 10
67.3775251889
 20
158.6213047047
 30
0.0
 11
68.8775251889
 21
157.1213047047
 31
0.0
  0
ELLIPSE
  5
11A
330
1F
100
AcDbEntity
  8
0
  6
CONTINUOUS
 62
     7
100
AcDbEllipse
 10
104.4775251889
 20
171.6213047047
 30
0.0
 11
-1.600000000000009
 21
0.0
 31
3.379515813922776E-22
210
2.112197383701724E-22
220
-7.216449660063518E-16
230
1.0
 40
0.625
 41
3.646953163873964
 42
6.283185307179586
  0
ELLIPSE
  5
11B
330
1F
100
AcDbEntity
  8
0
  6
CONTINUOUS
 62
     7
100
AcDbEllipse
 10
104.4775251889
 20
154.6213047047
 30
0.0
 11
-1.600000000000009
 21
0.0
 31
3.379515817867080E-22
210
2.112197386166914E-22
220
2.775557561562895E-16
230
1.0
 40
0.625
 41
0.0
 42
2.636232143305666
  0
LINE
  5
11C
330
1F
100
AcDbEntity
  8
0
  6
CONTINUOUS
 62
     7
100
AcDbLine
 10
109.3775251889
 20
155.8533555123
 30
0.0
 11
109.3775251889
 21
170.3892538972
 31
0.0
  0
LINE
  5
11D
330
1F
100
AcDbEntity
  8
0
  6
CONTINUOUS
 62
     7
100
AcDbLine
 10
108.3775251889
 20
154.1213047047
 30
0.0
 11
108.3775251889
 21
172.1213047047
 31
0.0
  0
LINE
  5
11E
330
1F
100
AcDbEntity
  8
0
  6
CONTINUOUS
 62
     7
100
AcDbLine
 10
105.8775251889
 20
154.1213047047
 30
0.0
 11
105.8775251889
 21
172.1213047047
 31
0.0
  0
LINE
  5
11F
330
1F
100
AcDbEntity
  8
0
  6
CONTINUOUS
 62
     7
100
AcDbLine
 10
97.3775251889
 20
154.1213047047
 30
0.0
 11
97.3775251889
 21
172.1213047047
 31
0.0
  0
LINE
  5
120
330
1F
100
AcDbEntity
  8
0
  6
CONTINUOUS
 62
     7
100
AcDbLine
 10
102.8775251889
 20
163.1213047047
 30
0.0
 11
102.8775251889
 21
154.1213047047
 31
0.0
  0
LINE
  5
121
330
1F
100
AcDbEntity
  8
0
  6
CONTINUOUS
 62
     7
100
AcDbLine
 10
102.8775251889
 20
172.1213047047
 30
0.0
 11
102.8775251889
 21
163.1213047047
 31
0.0
  0
LINE
  5
122
330
1F
100
AcDbEntity
  8
0
  6
CONTINUOUS
 62
     7
100
AcDbLine
 10
68.8775251889
 20
157.1213047047
 30
0.0
 11
68.8775251889
 21
169.1213047047
 31
0.0
  0
LINE
  5
123
330
1F
100
AcDbEntity
  8
0
  6
CONTINUOUS
 62
     7
100
AcDbLine
 10
67.3775251889
 20
158.6213047047
 30
0.0
 11
67.3775251889
 21
167.6213047047
 31
0.0
  0
LINE
  5
124
330
1F
100
AcDbEntity
  8
0
  6
CONTINUOUS
 62
     8
100
AcDbLine
 10
96.7775251889
 20
157.1213047047
 30
0.0
 11
96.7775251889
 21
169.1213047047
 31
0.0
  0
DIMENSION
  5
125
330
1F
100
AcDbEntity
  8
0
  6
CONTINUOUS
 62
     7
100
AcDbDimension
  2
_D
 10
53.5177738176
 20
157.1213047047
 30
0.0
 11
53.5177738176
 21
162.9385500782
 31
0.0
 70
   160
  1
M12
  3
SLDDIMSTYLE0
100
AcDbAlignedDimension
 13
68.8775251889
 23
169.1213047047
 33
0.0
 14
68.8775251889
 24
157.1213047047
 34
0.0
 50
90.0
100
AcDbRotatedDimension
  0
DIMENSION
  5
138
330
1F
100
AcDbEntity
  8
0
  6
CONTINUOUS
 62
     7
100
AcDbDimension
  2
_D_1
 10
123.2312022331
 20
154.1213047047
 30
0.0
 11
123.2312022331
 21
162.9385500782
 31
0.0
 70
   160
  1
%%c<>
  3
SLDDIMSTYLE1
100
AcDbAlignedDimension
 13
108.3775251889
 23
172.1213047047
 33
0.0
 14
108.3775251889
 24
154.1213047047
 34
0.0
 50
90.0
100
AcDbRotatedDimension
  0
DIMENSION
  5
144
330
1F
100
AcDbEntity
  8
0
  6
CONTINUOUS
 62
     7
100
AcDbDimension
  2
_D_2
 10
67.3775251889
 20
141.4339896317
 30
0.0
 11
82.4488595784
 21
141.4339896317
 31
0.0
 70
   160
  1
<>
  3
SLDDIMSTYLE1
100
AcDbAlignedDimension
 13
97.3775251889
 23
154.1213047047
 33
0.0
 14
67.3775251889
 24
158.6213047047
 34
0.0
100
AcDbRotatedDimension
  0
DIMENSION
  5
14E
330
1F
100
AcDbEntity
  8
0
  6
CONTINUOUS
 62
     7
100
AcDbDimension
  2
_D_3
 10
67.3775251889
 20
131.1607715986
 30
0.0
 11
89.2485198539
 21
131.1607715986
 31
0.0
 70
   160
  1
<>
  3
SLDDIMSTYLE1
100
AcDbAlignedDimension
 13
109.3775251889
 23
155.8533555123
 33
0.0
 14
67.3775251889
 24
158.6213047047
 34
0.0
100
AcDbRotatedDimension
  0
INSERT
  5
15E
330
1F
100
AcDbEntity
  8
0
  6
CONTINUOUS
 62
     7
100
AcDbBlockReference
  2
SW_NOTE_0
 10
111.438534279
 20
199.8652486144
 30
0.0
  0
LEADER
  5
165
330
1F
100
AcDbEntity
  8
0
  6
CONTINUOUS
 62
     7
100
AcDbLeader
  3
SLDDIMSTYLE2
 76
     2
 10
104.3444783905
 20
169.780432939
 30
0.0
 10
111.438534279
 20
199.8652486144
 30
0.0
1001
ACAD
1000
DSTYLE
1002
{
1070
     6
1000
DOT
1002
}
  0
LINE
  5
166
330
1F
100
AcDbEntity
  8
0
  6
CENTERX2
 62
     7
100
AcDbLine
 10
68.8775251889
 20
163.1213047047
 30
0.0
 11
62.3775251889
 21
163.1213047047
 31
0.0
  0
LINE
  5
167
330
1F
100
AcDbEntity
  8
0
  6
CENTERX2
 62
     7
100
AcDbLine
 10
113.983866888
 20
163.1213047047
 30
0.0
 11
68.8775251889
 21
163.1213047047
 31
0.0
  0
CIRCLE
  5
168
330
1F
100
AcDbEntity
  8
0
  6
CONTINUOUS
 62
     7
100
AcDbCircle
 10
142.7807266713
 20
163.1213047047
 30
0.0
 40
9.499999999999991
  0
CIRCLE
  5
169
330
1F
100
AcDbEntity
  8
0
  6
CONTINUOUS
 62
     7
100
AcDbCircle
 10
142.7807266713
 20
163.1213047047
 30
0.0
 40
7.267949192431104
  0
CIRCLE
  5
16A
330
1F
100
AcDbEntity
  8
0
  6
CONTINUOUS
 62
     7
100
AcDbCircle
 10
142.7807266713
 20
163.1213047047
 30
0.0
 40
9.000000000000028
  0
CIRCLE
  5
16B
330
1F
100
AcDbEntity
  8
0
  6
CONTINUOUS
 62
     7
100
AcDbCircle
 10
142.7807266713
 20
163.1213047047
 30
0.0
 40
6.050000000000011
  0
SPLINE
  5
16C
330
1F
100
AcDbEntity
  8
0
  6
CONTINUOUS
 62
     7
100
AcDbSpline
210
0.0
220
0.0
230
1.0
 70
     8
 71
     3
 72
    22
 73
    18
 74
     0
 42
0.00000001
 43
0.00000001
 40
0.0
 40
0.0
 40
0.0
 40
0.0
 40
0.125
 40
0.125
 40
0.25
 40
0.25
 40
0.375
 40
0.375
 40
0.5
 40
0.5
 40
0.625
 40
0.625
 40
0.75
 40
0.75
 40
0.875
 40
0.875
 40
1.0
 40
1.0
 40
1.0
 40
1.0
 10
146.7734887391904
 20
159.7428568634478
 30
0.0
 10
146.6265351438427
 20
159.7826627835742
 30
0.0
 10
146.4751844226316
 20
159.8096176091958
 30
0.0
 10
146.1616051368686
 20
159.8351954587461
 30
0.0
 10
145.9991834604446
 20
159.8334347925781
 30
0.0
 10
145.6746072516683
 20
159.7972782974889
 30
0.0
 10
145.5085936614294
 20
159.7624041380992
 30
0.0
 10
145.1830089549169
 20
159.6569095786899
 30
0.0
 10
145.0243686574211
 20
159.5869220641804
 30
0.0
 10
144.7200884566899
 20
159.4112772537163
 30
0.0
 10
144.5807987335451
 20
159.3094604054769
 30
0.0
 10
144.3259055754887
 20
159.0797238177355
 30
0.0
 10
144.2129973711883
 20
158.9538288000456
 30
0.0
 10
144.0182997949623
 20
158.6893146608319
 30
0.0
 10
143.9357076889469
 20
158.5494307271667
 30
0.0
 10
143.8017979539898
 20
158.2665663697657
 30
0.0
 10
143.7493430596411
 20
158.1220645434041
 30
0.0
 10
143.7101672933344
 20
157.9742474020686
 30
0.0
  0
SPLINE
  5
16D
330
1F
100
AcDbEntity
  8
0
  6
CONTINUOUS
 62
     7
100
AcDbSpline
210
0.0
220
0.0
230
1.0
 70
     8
 71
     3
 72
    18
 73
    14
 74
     0
 42
0.00000001
 43
0.00000001
 40
0.0
 40
0.0
 40
0.0
 40
0.0
 40
0.2500000000000006
 40
0.2500000000000006
 40
0.3750000000000005
 40
0.3750000000000005
 40
0.5000000000000004
 40
0.5000000000000004
 40
0.6250000000000003
 40
0.6250000000000003
 40
0.7500000000000003
 40
0.7500000000000003
 40
1.0
 40
1.0
 40
1.0
 40
1.0
 10
147.7029293611867
 20
161.3526952433642
 30
0.0
 10
147.8415115003658
 20
161.214866865825
 30
0.0
 10
147.9407994934022
 20
161.0305906571113
 30
0.0
 10
147.9902450729186
 20
160.7189500101067
 30
0.0
 10
147.9897599327604
 20
160.6096045414521
 30
0.0
 10
147.9513450393482
 20
160.3952162762752
 30
0.0
 10
147.913027707486
 20
160.288997381816
 30
0.0
 10
147.8025867312339
 20
160.0966099675782
 30
0.0
 10
147.7305968461047
 20
160.0102108596375
 30
0.0
 10
147.5630232368186
 20
159.8675756356436
 30
0.0
 10
147.4693422659166
 20
159.8124956162688
 30
0.0
 10
147.1717020040646
 20
159.697440619472
 30
0.0
 10
146.9629240206243
 20
159.6915437556329
 30
0.0
 10
146.7734887391904
 20
159.7428568634478
 30
0.0
  0
SPLINE
  5
16E
330
1F
100
AcDbEntity
  8
0
  6
CONTINUOUS
 62
     7
100
AcDbSpline
210
0.0
220
0.0
230
1.0
 70
     8
 71
     3
 72
    20
 73
    16
 74
     0
 42
0.00000001
 43
0.00000001
 40
0.0
 40
0.0
 40
0.0
 40
0.0
 40
0.1250000000000001
 40
0.1250000000000001
 40
0.2500000000000001
 40
0.2500000000000001
 40
0.3750000000000002
 40
0.3750000000000002
 40
0.5000000000000002
 40
0.5000000000000002
 40
0.6250000000000002
 40
0.6250000000000002
 40
0.7500000000000003
 40
0.7500000000000003
 40
1.0
 40
1.0
 40
1.0
 40
1.0
 10
147.7029293611868
 20
164.8899141661227
 30
0.0
 10
147.5940925122476
 20
164.7816692913169
 30
0.0
 10
147.4950058999119
 20
164.6636701710117
 30
0.0
 10
147.3169781952387
 20
164.4060201871655
 30
0.0
 10
147.2372716604982
 20
164.2645943731492
 30
0.0
 10
147.1059220463894
 20
163.9643672741757
 30
0.0
 10
147.0540057346597
 20
163.8061048453119
 30
0.0
 10
146.9820089844801
 20
163.4692850742501
 30
0.0
 10
146.9636308152233
 20
163.2975820979667
 30
0.0
 10
146.9631719130225
 20
162.9515718846456
 30
0.0
 10
146.9818413994907
 20
162.7753590074809
 30
0.0
 10
147.0526086427961
 20
162.4418171161261
 30
0.0
 10
147.105395545814
 20
162.2797511252785
 30
0.0
 10
147.3017661909683
 20
161.8299933104444
 30
0.0
 10
147.4848609937139
 20
161.569577515924
 30
0.0
 10
147.7029293611866
 20
161.3526952433641
 30
0.0
  0
SPLINE
  5
16F
330
1F
100
AcDbEntity
  8
0
  6
CONTINUOUS
 62
     7
100
AcDbSpline
210
0.0
220
0.0
230
1.0
 70
     8
 71
     3
 72
    20
 73
    16
 74
     0
 42
0.00000001
 43
0.00000001
 40
0.0
 40
0.0
 40
0.0
 40
0.0
 40
0.1249999999999999
 40
0.1249999999999999
 40
0.2499999999999999
 40
0.2499999999999999
 40
0.3749999999999998
 40
0.3749999999999998
 40
0.4999999999999998
 40
0.4999999999999998
 40
0.6249999999999998
 40
0.6249999999999998
 40
0.7499999999999997
 40
0.7499999999999997
 40
1.0
 40
1.0
 40
1.0
 40
1.0
 10
146.7734887391902
 20
166.4997525460388
 30
0.0
 10
146.8681117000058
 20
166.5253834536151
 30
0.0
 10
146.9659829409089
 20
166.536656152315
 30
0.0
 10
147.1683503207855
 20
166.527533084332
 30
0.0
 10
147.27001962353
 20
166.5068961613489
 30
0.0
 10
147.4660237492647
 20
166.4316581439041
 30
0.0
 10
147.5608154046269
 20
166.376338871201
 30
0.0
 10
147.7270017240306
 20
166.2360130710702
 30
0.0
 10
147.7999824771057
 20
166.1494793119002
 30
0.0
 10
147.9111480093223
 20
165.9579012251373
 30
0.0
 10
147.9500498537961
 20
165.8520450750542
 30
0.0
 10
147.9896586417187
 20
165.636056228491
 30
0.0
 10
147.9905572091506
 20
165.5273321341096
 30
0.0
 10
147.9412880617506
 20
165.2117438747408
 30
0.0
 10
147.841655847645
 20
165.0278861058221
 30
0.0
 10
147.7029293611868
 20
164.8899141661227
 30
0.0
  0
SPLINE
  5
170
330
1F
100
AcDbEntity
  8
0
  6
CONTINUOUS
 62
     7
100
AcDbSpline
210
0.0
220
0.0
230
1.0
 70
     8
 71
     3
 72
    20
 73
    16
 74
     0
 42
0.00000001
 43
0.00000001
 40
0.0
 40
0.0
 40
0.0
 40
0.0
 40
0.1250000000000002
 40
0.1250000000000002
 40
0.2500000000000005
 40
0.2500000000000005
 40
0.3750000000000008
 40
0.3750000000000008
 40
0.5000000000000008
 40
0.5000000000000008
 40
0.6250000000000007
 40
0.6250000000000007
 40
0.7500000000000006
 40
0.7500000000000006
 40
1.0
 40
1.0
 40
1.0
 40
1.0
 10
143.7101672933343
 20
168.2683620074182
 30
0.0
 10
143.7493561945467
 20
168.1204953057455
 30
0.0
 10
143.8018627176256
 20
167.9758256178427
 30
0.0
 10
143.9361178821361
 20
167.692393114469
 30
0.0
 10
144.0189957663051
 20
167.5522830633082
 30
0.0
 10
144.21301235787
 20
167.2888266373443
 30
0.0
 10
144.3249445149672
 20
167.1638336088846
 30
0.0
 10
144.580463882043
 20
166.9333694132116
 30
0.0
 10
144.7191982647795
 20
166.8321258575545
 30
0.0
 10
145.0193469021126
 20
166.6583117529212
 30
0.0
 10
145.1811866454524
 20
166.5864745112746
 30
0.0
 10
145.5056115037173
 20
166.4809900214347
 30
0.0
 10
145.6726025372693
 20
166.4456751776557
 30
0.0
 10
146.1600472004268
 20
166.3910155487212
 30
0.0
 10
146.4783753780457
 20
166.4198139854738
 30
0.0
 10
146.7734887391902
 20
166.4997525460388
 30
0.0
  0
SPLINE
  5
171
330
1F
100
AcDbEntity
  8
0
  6
CONTINUOUS
 62
     7
100
AcDbSpline
210
0.0
220
0.0
230
1.0
 70
     8
 71
     3
 72
    18
 73
    14
 74
     0
 42
0.00000001
 43
0.00000001
 40
0.0
 40
0.0
 40
0.0
 40
0.0
 40
0.2500000000000001
 40
0.2500000000000001
 40
0.3750000000000002
 40
0.3750000000000002
 40
0.5000000000000002
 40
0.5000000000000002
 40
0.6250000000000002
 40
0.6250000000000002
 40
0.7500000000000003
 40
0.7500000000000003
 40
1.0
 40
1.0
 40
1.0
 40
1.0
 10
141.8512860493414
 20
168.2683620074182
 30
0.0
 10
141.9007353374485
 20
168.4549429756579
 30
0.0
 10
142.0098841352307
 20
168.6338371907565
 30
0.0
 10
142.2554092710409
 20
168.833412521598
 30
0.0
 10
142.3498011910458
 20
168.8875461095595
 30
0.0
 10
142.5550228441502
 20
168.9619645069728
 30
0.0
 10
142.6657915693441
 20
168.9820002437297
 30
0.0
 10
142.888187577504
 20
168.9828630606891
 30
0.0
 10
142.9986731080093
 20
168.9639320228041
 30
0.0
 10
143.20674543999
 20
168.8901209054953
 30
0.0
 10
143.3013162872862
 20
168.8365374547704
 30
0.0
 10
143.5495253215672
 20
168.6368857966368
 30
0.0
 10
143.659898065171
 20
168.4580367554763
 30
0.0
 10
143.7101672933343
 20
168.2683620074182
 30
0.0
  0
SPLINE
  5
172
330
1F
100
AcDbEntity
  8
0
  6
CONTINUOUS
 62
     7
100
AcDbSpline
210
0.0
220
0.0
230
1.0
 70
     8
 71
     3
 72
    22
 73
    18
 74
     0
 42
0.00000001
 43
0.00000001
 40
0.0
 40
0.0
 40
0.0
 40
0.0
 40
0.1249999999999999
 40
0.1249999999999999
 40
0.2499999999999998
 40
0.2499999999999998
 40
0.3749999999999998
 40
0.3749999999999998
 40
0.4999999999999997
 40
0.4999999999999997
 40
0.6249999999999996
 40
0.6249999999999996
 40
0.7499999999999997
 40
0.7499999999999997
 40
0.8749999999999999
 40
0.8749999999999999
 40
1.0
 40
1.0
 40
1.0
 40
1.0
 10
138.7879646034854
 20
166.4997525460389
 30
0.0
 10
138.9349181988331
 20
166.4599466259125
 30
0.0
 10
139.0862689200442
 20
166.4329918002909
 30
0.0
 10
139.3998482058072
 20
166.4074139507406
 30
0.0
 10
139.5622698822313
 20
166.4091746169086
 30
0.0
 10
139.8868460910076
 20
166.4453311119978
 30
0.0
 10
140.0528596812465
 20
166.4802052713875
 30
0.0
 10
140.378444387759
 20
166.5856998307967
 30
0.0
 10
140.5370846852547
 20
166.6556873453063
 30
0.0
 10
140.841364885986
 20
166.8313321557705
 30
0.0
 10
140.9806546091308
 20
166.9331490040099
 30
0.0
 10
141.2355477671872
 20
167.1628855917513
 30
0.0
 10
141.3484559714876
 20
167.2887806094412
 30
0.0
 10
141.5431535477136
 20
167.5532947486548
 30
0.0
 10
141.6257456537289
 20
167.6931786823201
 30
0.0
 10
141.759655388686
 20
167.9760430397211
 30
0.0
 10
141.8121102830347
 20
168.1205448660828
 30
0.0
 10
141.8512860493415
 20
168.2683620074182
 30
0.0
  0
SPLINE
  5
173
330
1F
100
AcDbEntity
  8
0
  6
CONTINUOUS
 62
     7
100
AcDbSpline
210
0.0
220
0.0
230
1.0
 70
     8
 71
     3
 72
    18
 73
    14
 74
     0
 42
0.00000001
 43
0.00000001
 40
0.0
 40
0.0
 40
0.0
 40
0.0
 40
0.249999999999999
 40
0.249999999999999
 40
0.3749999999999991
 40
0.3749999999999991
 40
0.4999999999999991
 40
0.4999999999999991
 40
0.6249999999999991
 40
0.6249999999999991
 40
0.7499999999999992
 40
0.7499999999999992
 40
1.0
 40
1.0
 40
1.0
 40
1.0
 10
137.8585239814889
 20
164.8899141661225
 30
0.0
 10
137.7199418423099
 20
165.0277425436617
 30
0.0
 10
137.6206538492735
 20
165.2120187523755
 30
0.0
 10
137.5712082697572
 20
165.5236593993801
 30
0.0
 10
137.5716934099154
 20
165.6330048680346
 30
0.0
 10
137.6101083033276
 20
165.8473931332116
 30
0.0
 10
137.6484256351899
 20
165.9536120276708
 30
0.0
 10
137.7588666114419
 20
166.1459994419085
 30
0.0
 10
137.8308564965712
 20
166.2323985498493
 30
0.0
 10
137.9984301058572
 20
166.3750337738431
 30
0.0
 10
138.0921110767593
 20
166.4301137932179
 30
0.0
 10
138.3897513386112
 20
166.5451687900146
 30
0.0
 10
138.5985293220515
 20
166.5510656538538
 30
0.0
 10
138.7879646034854
 20
166.4997525460388
 30
0.0
  0
SPLINE
  5
174
330
1F
100
AcDbEntity
  8
0
  6
CONTINUOUS
 62
     7
100
AcDbSpline
210
0.0
220
0.0
230
1.0
 70
     8
 71
     3
 72
    20
 73
    16
 74
     0
 42
0.00000001
 43
0.00000001
 40
0.0
 40
0.0
 40
0.0
 40
0.0
 40
0.1250000000000001
 40
0.1250000000000001
 40
0.2500000000000002
 40
0.2500000000000002
 40
0.3750000000000003
 40
0.3750000000000003
 40
0.5000000000000003
 40
0.5000000000000003
 40
0.6250000000000003
 40
0.6250000000000003
 40
0.7500000000000003
 40
0.7500000000000003
 40
1.0
 40
1.0
 40
1.0
 40
1.0
 10
137.858523981489
 20
161.3526952433639
 30
0.0
 10
137.9673608304282
 20
161.4609401181697
 30
0.0
 10
138.0664474427638
 20
161.5789392384749
 30
0.0
 10
138.244475147437
 20
161.8365892223212
 30
0.0
 10
138.3241816821776
 20
161.9780150363374
 30
0.0
 10
138.4555312962864
 20
162.2782421353109
 30
0.0
 10
138.507447608016
 20
162.4365045641748
 30
0.0
 10
138.5794443581957
 20
162.7733243352367
 30
0.0
 10
138.5978225274525
 20
162.94502731152
 30
0.0
 10
138.5982814296532
 20
163.2910375248411
 30
0.0
 10
138.579611943185
 20
163.4672504020059
 30
0.0
 10
138.5088446998796
 20
163.8007922933606
 30
0.0
 10
138.4560577968617
 20
163.9628582842083
 30
0.0
 10
138.2596871517074
 20
164.4126160990423
 30
0.0
 10
138.0765923489618
 20
164.6730318935627
 30
0.0
 10
137.858523981489
 20
164.8899141661227
 30
0.0
  0
SPLINE
  5
175
330
1F
100
AcDbEntity
  8
0
  6
CONTINUOUS
 62
     7
100
AcDbSpline
210
0.0
220
0.0
230
1.0
 70
     8
 71
     3
 72
    20
 73
    16
 74
     0
 42
0.00000001
 43
0.00000001
 40
0.0
 40
0.0
 40
0.0
 40
0.0
 40
0.1249999999999999
 40
0.1249999999999999
 40
0.2499999999999999
 40
0.2499999999999999
 40
0.3749999999999998
 40
0.3749999999999998
 40
0.4999999999999998
 40
0.4999999999999998
 40
0.6249999999999998
 40
0.6249999999999998
 40
0.7499999999999997
 40
0.7499999999999997
 40
1.0
 40
1.0
 40
1.0
 40
1.0
 10
138.7879646034855
 20
159.7428568634477
 30
0.0
 10
138.6933416426698
 20
159.7172259558715
 30
0.0
 10
138.5954704017667
 20
159.7059532571716
 30
0.0
 10
138.3931030218901
 20
159.7150763251547
 30
0.0
 10
138.2914337191456
 20
159.7357132481377
 30
0.0
 10
138.095429593411
 20
159.8109512655826
 30
0.0
 10
138.0006379380487
 20
159.8662705382857
 30
0.0
 10
137.8344516186451
 20
160.0065963384165
 30
0.0
 10
137.7614708655699
 20
160.0931300975865
 30
0.0
 10
137.6503053333534
 20
160.2847081843494
 30
0.0
 10
137.6114034888796
 20
160.3905643344325
 30
0.0
 10
137.5717947009571
 20
160.6065531809957
 30
0.0
 10
137.5708961335252
 20
160.7152772753771
 30
0.0
 10
137.6201652809252
 20
161.0308655347459
 30
0.0
 10
137.7197974950308
 20
161.2147233036645
 30
0.0
 10
137.858523981489
 20
161.352695243364
 30
0.0
  0
SPLINE
  5
176
330
1F
100
AcDbEntity
  8
0
  6
CONTINUOUS
 62
     7
100
AcDbSpline
210
0.0
220
0.0
230
1.0
 70
     8
 71
     3
 72
    20
 73
    16
 74
     0
 42
0.00000001
 43
0.00000001
 40
0.0
 40
0.0
 40
0.0
 40
0.0
 40
0.1249999999999998
 40
0.1249999999999998
 40
0.2499999999999997
 40
0.2499999999999997
 40
0.3749999999999995
 40
0.3749999999999995
 40
0.4999999999999996
 40
0.4999999999999996
 40
0.6249999999999997
 40
0.6249999999999997
 40
0.7499999999999999
 40
0.7499999999999999
 40
1.0
 40
1.0
 40
1.0
 40
1.0
 10
141.8512860493415
 20
157.9742474020684
 30
0.0
 10
141.8120971481291
 20
158.1221141037411
 30
0.0
 10
141.7595906250502
 20
158.2667837916439
 30
0.0
 10
141.6253354605397
 20
158.5502162950177
 30
0.0
 10
141.5424575763707
 20
158.6903263461784
 30
0.0
 10
141.3484409848057
 20
158.9537827721423
 30
0.0
 10
141.2365088277085
 20
159.0787758006021
 30
0.0
 10
140.9809894606327
 20
159.309239996275
 30
0.0
 10
140.8422550778963
 20
159.4104835519322
 30
0.0
 10
140.5421064405631
 20
159.5842976565654
 30
0.0
 10
140.3802666972233
 20
159.656134898212
 30
0.0
 10
140.0558418389584
 20
159.7616193880519
 30
0.0
 10
139.8888508054063
 20
159.7969342318309
 30
0.0
 10
139.4014061422488
 20
159.8515938607653
 30
0.0
 10
139.0830779646299
 20
159.8227954240127
 30
0.0
 10
138.7879646034854
 20
159.7428568634477
 30
0.0
  0
SPLINE
  5
177
330
1F
100
AcDbEntity
  8
0
  6
CONTINUOUS
 62
     7
100
AcDbSpline
210
0.0
220
0.0
230
1.0
 70
     8
 71
     3
 72
    18
 73
    14
 74
     0
 42
0.00000001
 43
0.00000001
 40
0.0
 40
0.0
 40
0.0
 40
0.0
 40
0.2499999999999999
 40
0.2499999999999999
 40
0.3749999999999998
 40
0.3749999999999998
 40
0.4999999999999998
 40
0.4999999999999998
 40
0.6249999999999998
 40
0.6249999999999998
 40
0.7499999999999997
 40
0.7499999999999997
 40
1.0
 40
1.0
 40
1.0
 40
1.0
 10
143.7101672933344
 20
157.9742474020686
 30
0.0
 10
143.6607180052274
 20
157.7876664338289
 30
0.0
 10
143.5515692074452
 20
157.6087722187303
 30
0.0
 10
143.306044071635
 20
157.4091968878888
 30
0.0
 10
143.2116521516301
 20
157.3550632999273
 30
0.0
 10
143.0064304985257
 20
157.2806449025139
 30
0.0
 10
142.8956617733318
 20
157.260609165757
 30
0.0
 10
142.6732657651719
 20
157.2597463487976
 30
0.0
 10
142.5627802346666
 20
157.2786773866825
 30
0.0
 10
142.3547079026859
 20
157.3524885039914
 30
0.0
 10
142.2601370553897
 20
157.4060719547162
 30
0.0
 10
142.0119280211087
 20
157.6057236128498
 30
0.0
 10
141.9015552775049
 20
157.7845726540103
 30
0.0
 10
141.8512860493416
 20
157.9742474020684
 30
0.0
  0
SPLINE
  5
178
330
1F
100
AcDbEntity
  8
0
  6
CONTINUOUS
 62
     7
100
AcDbSpline
210
0.0
220
0.0
230
1.0
 70
     8
 71
     3
 72
    16
 73
    12
 74
     0
 42
0.00000001
 43
0.00000001
 40
0.0
 40
0.0
 40
0.0
 40
0.0
 40
0.25
 40
0.25
 40
0.375
 40
0.375
 40
0.5
 40
0.5
 40
0.75
 40
0.75
 40
1.0
 40
1.0
 40
1.0
 40
1.0
 10
143.4767813837877
 20
168.1982756083514
 30
0.0
 10
143.4394834503324
 20
168.3392332419203
 30
0.0
 10
143.3568474940515
 20
168.4736103264175
 30
0.0
 10
143.1750969872896
 20
168.6219768595623
 30
0.0
 10
143.1048338171402
 20
168.6627692434848
 30
0.0
 10
142.9501630493531
 20
168.719276685262
 30
0.0
 10
142.8669872546858
 20
168.7344330730771
 30
0.0
 10
142.614801648989
 20
168.735204275005
 30
0.0
 10
142.4495929585427
 20
168.6729877994422
 30
0.0
 10
142.2052885118401
 20
168.4747696605546
 30
0.0
 10
142.1221447523123
 20
168.3398940787325
 30
0.0
 10
142.0846719588879
 20
168.1982756083513
 30
0.0
  0
SPLINE
  5
179
330
1F
100
AcDbEntity
  8
0
  6
CONTINUOUS
 62
     7
100
AcDbSpline
210
0.0
220
0.0
230
1.0
 70
     8
 71
     3
 72
    16
 73
    12
 74
     0
 42
0.00000001
 43
0.00000001
 40
0.0
 40
0.0
 40
0.0
 40
0.0
 40
0.2499999999999997
 40
0.2499999999999997
 40
0.3749999999999997
 40
0.3749999999999997
 40
0.4999999999999998
 40
0.4999999999999998
 40
0.7499999999999998
 40
0.7499999999999998
 40
1.0
 40
1.0
 40
1.0
 40
1.0
 10
142.0846719588881
 20
158.0443338011352
 30
0.0
 10
142.1219698923434
 20
157.9033761675663
 30
0.0
 10
142.2046058486243
 20
157.7689990830691
 30
0.0
 10
142.3863563553863
 20
157.6206325499243
 30
0.0
 10
142.4566195255357
 20
157.5798401660018
 30
0.0
 10
142.6112902933228
 20
157.5233327242246
 30
0.0
 10
142.6944660879901
 20
157.5081763364095
 30
0.0
 10
142.946651693687
 20
157.5074051344817
 30
0.0
 10
143.1118603841331
 20
157.5696216100445
 30
0.0
 10
143.3561648308358
 20
157.7678397489322
 30
0.0
 10
143.4393085903635
 20
157.9027153307543
 30
0.0
 10
143.4767813837879
 20
158.0443338011354
 30
0.0
  0
SPLINE
  5
17A
330
1F
100
AcDbEntity
  8
0
  6
CONTINUOUS
 62
     7
100
AcDbSpline
210
0.0
220
0.0
230
1.0
 70
     8
 71
     3
 72
    18
 73
    14
 74
     0
 42
0.00000001
 43
0.00000001
 40
0.0
 40
0.0
 40
0.0
 40
0.0
 40
0.2499999999999995
 40
0.2499999999999995
 40
0.3749999999999994
 40
0.3749999999999994
 40
0.4999999999999994
 40
0.4999999999999994
 40
0.6249999999999994
 40
0.6249999999999994
 40
0.7499999999999993
 40
0.7499999999999993
 40
1.0
 40
1.0
 40
1.0
 40
1.0
 10
146.829485091912
 20
159.9800181895338
 30
0.0
 10
146.9705748860948
 20
159.9417405095643
 30
0.0
 10
147.1264029395695
 20
159.9460022258596
 30
0.0
 10
147.3458878898134
 20
160.028738130726
 30
0.0
 10
147.4172853957583
 20
160.0696993844278
 30
0.0
 10
147.5426022809362
 20
160.174242234223
 30
0.0
 10
147.598304758524
 20
160.2395747132371
 30
0.0
 10
147.6826167899663
 20
160.3841206407516
 30
0.0
 10
147.7120920274288
 20
160.464441007759
 30
0.0
 10
147.7416125773944
 20
160.6271451543307
 30
0.0
 10
147.7419606834487
 20
160.7088051153394
 30
0.0
 10
147.7045131707012
 20
160.9443430537934
 30
0.0
 10
147.6307132979429
 20
161.0811018696518
 30
0.0
 10
147.5255398043618
 20
161.1856203163449
 30
0.0
  0
SPLINE
  5
17B
330
1F
100
AcDbEntity
  8
0
  6
CONTINUOUS
 62
     7
100
AcDbSpline
210
0.0
220
0.0
230
1.0
 70
     8
 71
     3
 72
    18
 73
    14
 74
     0
 42
0.00000001
 43
0.00000001
 40
0.0
 40
0.0
 40
0.0
 40
0.0
 40
0.2499999999999994
 40
0.2499999999999994
 40
0.3749999999999995
 40
0.3749999999999995
 40
0.4999999999999996
 40
0.4999999999999996
 40
0.6249999999999996
 40
0.6249999999999996
 40
0.7499999999999997
 40
0.7499999999999997
 40
1.0
 40
1.0
 40
1.0
 40
1.0
 10
138.7319682507638
 20
166.2625912199528
 30
0.0
 10
138.590878456581
 20
166.3008688999224
 30
0.0
 10
138.4350504031063
 20
166.296607183627
 30
0.0
 10
138.2155654528624
 20
166.2138712787607
 30
0.0
 10
138.1441679469175
 20
166.1729100250589
 30
0.0
 10
138.0188510617397
 20
166.0683671752637
 30
0.0
 10
137.9631485841518
 20
166.0030346962496
 30
0.0
 10
137.8788365527095
 20
165.8584887687351
 30
0.0
 10
137.8493613152471
 20
165.7781684017277
 30
0.0
 10
137.8198407652813
 20
165.615464255156
 30
0.0
 10
137.8194926592271
 20
165.5338042941473
 30
0.0
 10
137.8569401719745
 20
165.2982663556933
 30
0.0
 10
137.9307400447328
 20
165.1615075398349
 30
0.0
 10
138.0359135383139
 20
165.0569890931418
 30
0.0
  0
SPLINE
  5
17C
330
1F
100
AcDbEntity
  8
0
  6
CONTINUOUS
 62
     7
100
AcDbSpline
210
0.0
220
0.0
230
1.0
 70
     8
 71
     3
 72
    16
 73
    12
 74
     0
 42
0.00000001
 43
0.00000001
 40
0.0
 40
0.0
 40
0.0
 40
0.0
 40
0.2500000000000004
 40
0.2500000000000004
 40
0.3750000000000002
 40
0.3750000000000002
 40
0.4999999999999999
 40
0.4999999999999999
 40
0.75
 40
0.75
 40
1.0
 40
1.0
 40
1.0
 40
1.0
 10
147.5255398043619
 20
165.056989093142
 30
0.0
 10
147.6291829354753
 20
165.1599867088485
 30
0.0
 10
147.7034676602707
 20
165.2964390542431
 30
0.0
 10
147.7416775801704
 20
165.5297246414823
 30
0.0
 10
147.7418260038477
 20
165.6107200266223
 30
0.0
 10
147.7137704938646
 20
165.7722573784658
 30
0.0
 10
147.6852930084603
 20
165.8524046235418
 30
0.0
 10
147.56012406298
 20
166.0713242367472
 30
0.0
 10
147.4238288464332
 20
166.1835818727895
 30
0.0
 10
147.1287892557166
 20
166.2965950441531
 30
0.0
 10
146.9722437880254
 20
166.3013216732387
 30
0.0
 10
146.8294850919118
 20
166.2625912199528
 30
0.0
  0
SPLINE
  5
17D
330
1F
100
AcDbEntity
  8
0
  6
CONTINUOUS
 62
     7
100
AcDbSpline
210
0.0
220
0.0
230
1.0
 70
     8
 71
     3
 72
    16
 73
    12
 74
     0
 42
0.00000001
 43
0.00000001
 40
0.0
 40
0.0
 40
0.0
 40
0.0
 40
0.2500000000000006
 40
0.2500000000000006
 40
0.3750000000000005
 40
0.3750000000000005
 40
0.5000000000000004
 40
0.5000000000000004
 40
0.7500000000000002
 40
0.7500000000000002
 40
1.0
 40
1.0
 40
1.0
 40
1.0
 10
138.0359135383139
 20
161.1856203163447
 30
0.0
 10
137.9322704072005
 20
161.0826227006381
 30
0.0
 10
137.857985682405
 20
160.9461703552435
 30
0.0
 10
137.8197757625054
 20
160.7128847680042
 30
0.0
 10
137.819627338828
 20
160.6318893828642
 30
0.0
 10
137.8476828488112
 20
160.4703520310207
 30
0.0
 10
137.8761603342156
 20
160.3902047859446
 30
0.0
 10
138.0013292796959
 20
160.1712851727393
 30
0.0
 10
138.1376244962427
 20
160.0590275366969
 30
0.0
 10
138.4326640869594
 20
159.9460143653335
 30
0.0
 10
138.5892095546506
 20
159.9412877362479
 30
0.0
 10
138.7319682507643
 20
159.9800181895338
 30
0.0
  0
SPLINE
  5
17E
330
1F
100
AcDbEntity
  8
0
  6
CONTINUOUS
 62
     7
100
AcDbSpline
210
0.0
220
0.0
230
1.0
 70
     8
 71
     3
 72
    22
 73
    18
 74
     0
 42
0.00000001
 43
0.00000001
 40
0.0
 40
0.0
 40
0.0
 40
0.0
 40
0.1249999999999999
 40
0.1249999999999999
 40
0.2499999999999999
 40
0.2499999999999999
 40
0.3749999999999998
 40
0.3749999999999998
 40
0.4999999999999998
 40
0.4999999999999998
 40
0.6249999999999998
 40
0.6249999999999998
 40
0.7499999999999999
 40
0.7499999999999999
 40
0.8749999999999999
 40
0.8749999999999999
 40
1.0
 40
1.0
 40
1.0
 40
1.0
 10
146.8294850919127
 20
166.2625912199518
 30
0.0
 10
146.6696523004312
 20
166.2192285623165
 30
0.0
 10
146.5027591002848
 20
166.1896756469617
 30
0.0
 10
146.1595607212707
 20
166.1626093174022
 30
0.0
 10
145.9799717921173
 20
166.1651868802082
 30
0.0
 10
145.6216049321513
 20
166.2069982714812
 30
0.0
 10
145.4437233843857
 20
166.245565471314
 30
0.0
 10
145.0910080175922
 20
166.3610475685215
 30
0.0
 10
144.9160521214313
 20
166.4388751489883
 30
0.0
 10
144.5915799960892
 20
166.6256945846562
 30
0.0
 10
144.4372854930925
 20
166.7371711444962
 30
0.0
 10
144.15867267071
 20
166.9857024357174
 30
0.0
 10
144.0351961449854
 20
167.1212006700627
 30
0.0
 10
143.8177162719608
 20
167.4128648450566
 30
0.0
 10
143.7265196815861
 20
167.5655574298754
 30
0.0
 10
143.5773930595035
 20
167.8777359727591
 30
0.0
 10
143.5189185672344
 20
168.0390293146925
 30
0.0
 10
143.4767813837878
 20
168.1982756083514
 30
0.0
  0
SPLINE
  5
17F
330
1F
100
AcDbEntity
  8
0
  6
CONTINUOUS
 62
     7
100
AcDbSpline
210
0.0
220
0.0
230
1.0
 70
     8
 71
     3
 72
    22
 73
    18
 74
     0
 42
0.00000001
 43
0.00000001
 40
0.0
 40
0.0
 40
0.0
 40
0.0
 40
0.1250000000000001
 40
0.1250000000000001
 40
0.2500000000000002
 40
0.2500000000000002
 40
0.3750000000000003
 40
0.3750000000000003
 40
0.5000000000000004
 40
0.5000000000000004
 40
0.6250000000000003
 40
0.6250000000000003
 40
0.7500000000000002
 40
0.7500000000000002
 40
0.8750000000000001
 40
0.8750000000000001
 40
1.0
 40
1.0
 40
1.0
 40
1.0
 10
138.7319682507636
 20
159.9800181895349
 30
0.0
 10
138.891801042245
 20
160.0233808471702
 30
0.0
 10
139.0586942423914
 20
160.0529337625249
 30
0.0
 10
139.4018926214056
 20
160.0800000920843
 30
0.0
 10
139.5814815505589
 20
160.0774225292784
 30
0.0
 10
139.9398484105249
 20
160.0356111380054
 30
0.0
 10
140.1177299582904
 20
159.9970439381725
 30
0.0
 10
140.4704453250839
 20
159.8815618409649
 30
0.0
 10
140.6454012212448
 20
159.8037342604981
 30
0.0
 10
140.9698733465868
 20
159.6169148248303
 30
0.0
 10
141.1241678495834
 20
159.5054382649902
 30
0.0
 10
141.4027806719659
 20
159.2569069737691
 30
0.0
 10
141.5262571976904
 20
159.1214087394237
 30
0.0
 10
141.743737070715
 20
158.82974456443
 30
0.0
 10
141.8349336610897
 20
158.6770519796111
 30
0.0
 10
141.9840602831723
 20
158.3648734367275
 30
0.0
 10
142.0425347754414
 20
158.2035800947941
 30
0.0
 10
142.084671958888
 20
158.0443338011352
 30
0.0
  0
SPLINE
  5
180
330
1F
100
AcDbEntity
  8
0
  6
CONTINUOUS
 62
     7
100
AcDbSpline
210
0.0
220
0.0
230
1.0
 70
     8
 71
     3
 72
    20
 73
    16
 74
     0
 42
0.00000001
 43
0.00000001
 40
0.0
 40
0.0
 40
0.0
 40
0.0
 40
0.125
 40
0.125
 40
0.25
 40
0.25
 40
0.375
 40
0.375
 40
0.5
 40
0.5
 40
0.625
 40
0.625
 40
0.75
 40
0.75
 40
1.0
 40
1.0
 40
1.0
 40
1.0
 10
147.5255398043618
 20
161.1856203163449
 30
0.0
 10
147.4088040175326
 20
161.3016290434246
 30
0.0
 10
147.2987063722852
 20
161.4325247114696
 30
0.0
 10
147.1036875070651
 20
161.7163038038461
 30
0.0
 10
147.0166899050548
 20
161.8719930839425
 30
0.0
 10
146.8731008988911
 20
162.2047183201265
 30
0.0
 10
146.8176309747281
 20
162.3783180410874
 30
0.0
 10
146.7415478187386
 20
162.7407475571328
 30
0.0
 10
146.7214391077958
 20
162.9314635404065
 30
0.0
 10
146.7210930253812
 20
163.306092988747
 30
0.0
 10
146.7403923149745
 20
163.4944743869805
 30
0.0
 10
146.8165087268765
 20
163.8607732885484
 30
0.0
 10
146.8721817710506
 20
164.0353415364781
 30
0.0
 10
147.0873713623803
 20
164.5352307101163
 30
0.0
 10
147.2917032053699
 20
164.8246088871179
 30
0.0
 10
147.5255398043619
 20
165.0569890931419
 30
0.0
  0
SPLINE
  5
181
330
1F
100
AcDbEntity
  8
0
  6
CONTINUOUS
 62
     7
100
AcDbSpline
210
0.0
220
0.0
230
1.0
 70
     8
 71
     3
 72
    20
 73
    16
 74
     0
 42
0.00000001
 43
0.00000001
 40
0.0
 40
0.0
 40
0.0
 40
0.0
 40
0.125
 40
0.125
 40
0.2500000000000001
 40
0.2500000000000001
 40
0.3750000000000001
 40
0.3750000000000001
 40
0.5000000000000001
 40
0.5000000000000001
 40
0.625
 40
0.625
 40
0.7499999999999999
 40
0.7499999999999999
 40
1.0
 40
1.0
 40
1.0
 40
1.0
 10
138.0359135383139
 20
165.0569890931419
 30
0.0
 10
138.152649325143
 20
164.9409803660621
 30
0.0
 10
138.2627469703905
 20
164.8100846980171
 30
0.0
 10
138.4577658356106
 20
164.5263056056406
 30
0.0
 10
138.5447634376209
 20
164.3706163255442
 30
0.0
 10
138.6883524437846
 20
164.0378910893603
 30
0.0
 10
138.7438223679476
 20
163.8642913683993
 30
0.0
 10
138.8199055239372
 20
163.5018618523539
 30
0.0
 10
138.84001423488
 20
163.3111458690802
 30
0.0
 10
138.8403603172946
 20
162.9365164207397
 30
0.0
 10
138.8210610277012
 20
162.7481350225062
 30
0.0
 10
138.7449446157993
 20
162.3818361209383
 30
0.0
 10
138.6892715716252
 20
162.2072678730086
 30
0.0
 10
138.4740819802955
 20
161.7073786993703
 30
0.0
 10
138.2697501373059
 20
161.4180005223687
 30
0.0
 10
138.0359135383139
 20
161.1856203163447
 30
0.0
  0
SPLINE
  5
182
330
1F
100
AcDbEntity
  8
0
  6
CONTINUOUS
 62
     7
100
AcDbSpline
210
0.0
220
0.0
230
1.0
 70
     8
 71
     3
 72
    22
 73
    18
 74
     0
 42
0.00000001
 43
0.00000001
 40
0.0
 40
0.0
 40
0.0
 40
0.0
 40
0.1249999999999999
 40
0.1249999999999999
 40
0.2499999999999998
 40
0.2499999999999998
 40
0.3749999999999997
 40
0.3749999999999997
 40
0.4999999999999996
 40
0.4999999999999996
 40
0.6249999999999997
 40
0.6249999999999997
 40
0.7499999999999998
 40
0.7499999999999998
 40
0.8749999999999999
 40
0.8749999999999999
 40
1.0
 40
1.0
 40
1.0
 40
1.0
 10
142.0846719588881
 20
168.1982756083513
 30
0.0
 10
142.0422823150723
 20
168.0380752077777
 30
0.0
 10
141.9848801517074
 20
167.8798822549728
 30
0.0
 10
141.8366145374193
 20
167.5686533383088
 30
0.0
 10
141.7442165638692
 20
167.4138745133065
 30
0.0
 10
141.5297178897606
 20
167.1254818867517
 30
0.0
 10
141.4074957643615
 20
166.990554783515
 30
0.0
 10
141.1297999782881
 20
166.7415724556571
 30
0.0
 10
140.9759045326647
 20
166.6297515960458
 30
0.0
 10
140.6519421384567
 20
166.4420789379197
 30
0.0
 10
140.4772963160892
 20
166.3637823509826
 30
0.0
 10
140.1236816474851
 20
166.2470398772794
 30
0.0
 10
139.9438790149341
 20
166.2076195437076
 30
0.0
 10
139.5818865491136
 20
166.1650849578715
 30
0.0
 10
139.4051639695198
 20
166.1624845303976
 30
0.0
 10
139.059558667995
 20
166.189475850933
 30
0.0
 10
138.8908582175702
 20
166.2194843507777
 30
0.0
 10
138.7319682507638
 20
166.2625912199529
 30
0.0
  0
SPLINE
  5
183
330
1F
100
AcDbEntity
  8
0
  6
CONTINUOUS
 62
     7
100
AcDbSpline
210
0.0
220
0.0
230
1.0
 70
     8
 71
     3
 72
    22
 73
    18
 74
     0
 42
0.00000001
 43
0.00000001
 40
0.0
 40
0.0
 40
0.0
 40
0.0
 40
0.1250000000000001
 40
0.1250000000000001
 40
0.2500000000000001
 40
0.2500000000000001
 40
0.3750000000000002
 40
0.3750000000000002
 40
0.5000000000000002
 40
0.5000000000000002
 40
0.6250000000000001
 40
0.6250000000000001
 40
0.7500000000000001
 40
0.7500000000000001
 40
0.875
 40
0.875
 40
1.0
 40
1.0
 40
1.0
 40
1.0
 10
143.4767813837877
 20
158.0443338011355
 30
0.0
 10
143.5191710276035
 20
158.2045342017091
 30
0.0
 10
143.5765731909684
 20
158.3627271545141
 30
0.0
 10
143.7248388052566
 20
158.673956071178
 30
0.0
 10
143.8172367788066
 20
158.8287348961802
 30
0.0
 10
144.0317354529153
 20
159.117127522735
 30
0.0
 10
144.1539575783143
 20
159.2520546259717
 30
0.0
 10
144.4316533643878
 20
159.5010369538296
 30
0.0
 10
144.5855488100111
 20
159.6128578134409
 30
0.0
 10
144.9095112042192
 20
159.800530471567
 30
0.0
 10
145.0841570265867
 20
159.8788270585041
 30
0.0
 10
145.4377716951907
 20
159.9955695322073
 30
0.0
 10
145.6175743277418
 20
160.0349898657791
 30
0.0
 10
145.9795667935622
 20
160.0775244516152
 30
0.0
 10
146.156289373156
 20
160.0801248790891
 30
0.0
 10
146.5018946746808
 20
160.0531335585537
 30
0.0
 10
146.6705951251056
 20
160.023125058709
 30
0.0
 10
146.829485091912
 20
159.9800181895338
 30
0.0
  0
LINE
  5
184
330
1F
100
AcDbEntity
  8
0
  6
CONTINUOUS
 62
     8
100
AcDbLine
 10
143.4767813838
 20
168.1982756084
 30
0.0
 11
143.7101672933
 21
168.2683620074
 31
0.0
  0
LINE
  5
185
330
1F
100
AcDbEntity
  8
0
  6
CONTINUOUS
 62
     8
100
AcDbLine
 10
142.0846719589
 20
168.1982756084
 30
0.0
 11
141.8512860493
 21
168.2683620074
 31
0.0
  0
LINE
  5
186
330
1F
100
AcDbEntity
  8
0
  6
CONTINUOUS
 62
     8
100
AcDbLine
 10
142.0846719589
 20
158.0443338011
 30
0.0
 11
141.8512860493
 21
157.9742474021
 31
0.0
  0
LINE
  5
187
330
1F
100
AcDbEntity
  8
0
  6
CONTINUOUS
 62
     8
100
AcDbLine
 10
143.4767813838
 20
158.0443338011
 30
0.0
 11
143.7101672933
 21
157.9742474021
 31
0.0
  0
LINE
  5
188
330
1F
100
AcDbEntity
  8
0
  6
CONTINUOUS
 62
     8
100
AcDbLine
 10
146.8294850919
 20
159.9800181895
 30
0.0
 11
146.7734887392
 21
159.7428568634
 31
0.0
  0
LINE
  5
189
330
1F
100
AcDbEntity
  8
0
  6
CONTINUOUS
 62
     8
100
AcDbLine
 10
147.5255398044
 20
161.1856203163
 30
0.0
 11
147.7029293612
 21
161.3526952434
 31
0.0
  0
LINE
  5
18A
330
1F
100
AcDbEntity
  8
0
  6
CONTINUOUS
 62
     8
100
AcDbLine
 10
138.7319682508
 20
166.26259122
 30
0.0
 11
138.7879646035
 21
166.499752546
 31
0.0
  0
LINE
  5
18B
330
1F
100
AcDbEntity
  8
0
  6
CONTINUOUS
 62
     8
100
AcDbLine
 10
138.0359135383
 20
165.0569890931
 30
0.0
 11
137.8585239815
 21
164.8899141661
 31
0.0
  0
LINE
  5
18C
330
1F
100
AcDbEntity
  8
0
  6
CONTINUOUS
 62
     8
100
AcDbLine
 10
147.5255398044
 20
165.0569890931
 30
0.0
 11
147.7029293612
 21
164.8899141661
 31
0.0
  0
LINE
  5
18D
330
1F
100
AcDbEntity
  8
0
  6
CONTINUOUS
 62
     8
100
AcDbLine
 10
146.8294850919
 20
166.26259122
 30
0.0
 11
146.7734887392
 21
166.499752546
 31
0.0
  0
LINE
  5
18E
330
1F
100
AcDbEntity
  8
0
  6
CONTINUOUS
 62
     8
100
AcDbLine
 10
138.0359135383
 20
161.1856203163
 30
0.0
 11
137.8585239815
 21
161.3526952434
 31
0.0
  0
LINE
  5
18F
330
1F
100
AcDbEntity
  8
0
  6
CONTINUOUS
 62
     8
100
AcDbLine
 10
138.7319682508
 20
159.9800181895
 30
0.0
 11
138.7879646035
 21
159.7428568634
 31
0.0
  0
INSERT
  5
196
330
1F
100
AcDbEntity
  8
0
  6
CONTINUOUS
 62
     7
100
AcDbBlockReference
  2
SW_NOTE_0_1
 10
155.0555555556
 20
199.8652486144
 30
0.0
  0
LEADER
  5
198
330
1F
100
AcDbEntity
  8
0
  6
CONTINUOUS
 62
     7
100
AcDbLeader
  3
SLDDIMSTYLE3
 76
     2
 10
143.8744758866
 20
167.8226038509
 30
0.0
 10
155.0555555556
 20
199.8652486144
 30
0.0
1001
ACAD
1000
DSTYLE
1002
{
1070
     6
1000
OPEN30
1002
}
  0
INSERT
  5
1A4
330
1F
100
AcDbEntity
  8
0
  6
CONTINUOUS
 62
     7
100
AcDbBlockReference
  2
SW_CENTERMARKSYMBOL_0
 10
142.7807266713
 20
163.1213047047
 30
0.0
  0
ENDSEC
  0
SECTION
  2
OBJECTS
  0
DICTIONARY
  5
C
330
0
100
AcDbDictionary
  3
ACAD_GROUP
350
D
  3
ACAD_MLINESTYLE
350
17
  3
ACAD_SCALELIST
350
47
  3
DWGPROPS
350
1A5
1001
ACAD
1000
TREAT_AS_HARD
1070
     0
  0
DICTIONARY
  5
D
102
{ACAD_REACTORS
330
C
102
}
330
C
100
AcDbDictionary
1001
ACAD
1000
TREAT_AS_HARD
1070
     0
  0
DICTIONARY
  5
17
102
{ACAD_REACTORS
330
C
102
}
330
C
100
AcDbDictionary
  3
STANDARD
350
18
1001
ACAD
1000
TREAT_AS_HARD
1070
     0
  0
DICTIONARY
  5
47
102
{ACAD_REACTORS
330
C
102
}
330
C
100
AcDbDictionary
1001
ACAD
1000
TREAT_AS_HARD
1070
     0
  0
XRECORD
  5
1A5
102
{ACAD_REACTORS
330
C
102
}
330
C
100
AcDbXrecord
  1
DWGPROPS COOKIE
  2

  3

  4

  6

  7

  8
55006
  9

300
=
301
=
302
=
303
=
304
=
305
=
306
=
307
=
308
=
309
=
 40
0.0
 41
2460651.038665174
 42
2460651.038666597
  1

 90
        0
  0
MLINESTYLE
  5
18
102
{ACAD_REACTORS
330
17
102
}
330
17
100
AcDbMlineStyle
  2
Standard
 70
     0
  3

 62
   256
 51
90.0
 52
90.0
 71
     2
 49
0.5
 62
   256
  6
BYLAYER
 49
-0.5
 62
   256
  6
BYLAYER
  0
ENDSEC
  0
EOF
