  0
SECTION
  2
HEADER
  9
$ACADVER
  1
AC1012
  9
$DWGCODEPAGE
  3
dos932
  9
$INSBASE
 10
0.0
 20
0.0
 30
0.0
  9
$EXTMIN
 10
0.0
 20
0.0
 30
0.0
  9
$EXTMAX
 10
420.0
 20
297.0
 30
0.0
  9
$LIMMIN
 10
0.0
 20
0.0
  9
$LIMMAX
 10
420.0
 20
297.0
  9
$ORTHOMODE
 70
     0
  9
$REGENMODE
 70
     1
  9
$FILLMODE
 70
     1
  9
$QTEXTMODE
 70
     0
  9
$MIRRTEXT
 70
     1
  9
$DRAGMODE
 70
     2
  9
$LTSCALE
 40
1.0
  9
$OSMODE
 70
    37
  9
$ATTMODE
 70
     1
  9
$TEXTSIZE
 40
3.5
  9
$TRACEWID
 40
1.0
  9
$TEXTSTYLE
  7
STANDARD
  9
$CLAYER
  8
0
  9
$CELTYPE
  6
BYLAYER
  9
$CECOLOR
 62
   256
  9
$CELTSCALE
 40
1.0
  9
$DELOBJ
 70
     1
  9
$DISPSILH
 70
     0
  9
$DIMSCALE
 40
1.0
  9
$DIMASZ
 40
2.0
  9
$DIMEXO
 40
1.0
  9
$DIMDLI
 40
3.75
  9
$DIMRND
 40
0.0
  9
$DIMDLE
 40
0.0
  9
$DIMEXE
 40
1.0
  9
$DIMTP
 40
0.0
  9
$DIMTM
 40
0.0
  9
$DIMTXT
 40
3.5
  9
$DIMCEN
 40
2.5
  9
$DIMTSZ
 40
0.0
  9
$DIMTOL
 70
     0
  9
$DIMLIM
 70
     0
  9
$DIMTIH
 70
     1
  9
$DIMTOH
 70
     1
  9
$DIMSE1
 70
     0
  9
$DIMSE2
 70
     0
  9
$DIMTAD
 70
     1
  9
$DIMZIN
 70
     0
  9
$DIMBLK
  1

  9
$DIMASO
 70
     1
  9
$DIMSHO
 70
     1
  9
$DIMPOST
  1

  9
$DIMAPOST
  1

  9
$DIMALT
 70
     0
  9
$DIMALTD
 70
     3
  9
$DIMALTF
 40
0.0393700787
  9
$DIMLFAC
 40
1.0
  9
$DIMTOFL
 70
     1
  9
$DIMTVP
 40
0.0
  9
$DIMTIX
 70
     0
  9
$DIMSOXD
 70
     0
  9
$DIMSAH
 70
     0
  9
$DIMBLK1
  1

  9
$DIMBLK2
  1

  9
$DIMSTYLE
  2
ISO-25
  9
$DIMCLRD
 70
     0
  9
$DIMCLRE
 70
     0
  9
$DIMCLRT
 70
     0
  9
$DIMTFAC
 40
1.0
  9
$DIMGAP
 40
1.524
  9
$DIMJUST
 70
     0
  9
$DIMSD1
 70
     0
  9
$DIMSD2
 70
     0
  9
$DIMTOLJ
 70
     0
  9
$DIMTZIN
 70
     0
  9
$DIMALTZ
 70
     0
  9
$DIMALTTZ
 70
     0
  9
$DIMFIT
 70
     3
  9
$DIMUPT
 70
     0
  9
$DIMUNIT
 70
     2
  9
$DIMDEC
 70
     3
  9
$DIMTDEC
 70
     3
  9
$DIMALTU
 70
     2
  9
$DIMALTTD
 70
     3
  9
$DIMTXSTY
  7
STANDARD
  9
$DIMAUNIT
 70
     0
  9
$LUNITS
 70
     2
  9
$LUPREC
 70
     3
  9
$SKETCHINC
 40
1.0
  9
$FILLETRAD
 40
0.0
  9
$AUNITS
 70
     0
  9
$AUPREC
 70
     3
  9
$MENU
  1
.
  9
$ELEVATION
 40
0.0
  9
$PELEVATION
 40
0.0
  9
$THICKNESS
 40
0.0
  9
$LIMCHECK
 70
     0
  9
$CHAMFERA
 40
0.0
  9
$CHAMFERB
 40
0.0
  9
$CHAMFERC
 40
0.0
  9
$CHAMFERD
 40
0.0
  9
$SKPOLY
 70
     0
  9
$TDCREATE
 40
2460651.683717454
  9
$TDUPDATE
 40
2460651.683720451
  9
$TDINDWG
 40
0.0000000116
  9
$TDUSRTIMER
 40
0.0000000116
  9
$USRTIMER
 70
     1
  9
$ANGBASE
 50
0.0
  9
$ANGDIR
 70
     0
  9
$PDMODE
 70
     0
  9
$PDSIZE
 40
-1.0
  9
$PLINEWID
 40
0.0
  9
$COORDS
 70
     1
  9
$SPLFRAME
 70
     0
  9
$SPLINETYPE
 70
     6
  9
$SPLINESEGS
 70
     8
  9
$ATTDIA
 70
     0
  9
$ATTREQ
 70
     1
  9
$HANDLING
 70
     1
  9
$HANDSEED
  5
41A
  9
$SURFTAB1
 70
     6
  9
$SURFTAB2
 70
     6
  9
$SURFTYPE
 70
     6
  9
$SURFU
 70
     6
  9
$SURFV
 70
     6
  9
$UCSNAME
  2

  9
$UCSORG
 10
0.0
 20
0.0
 30
0.0
  9
$UCSXDIR
 10
1.0
 20
0.0
 30
0.0
  9
$UCSYDIR
 10
0.0
 20
1.0
 30
0.0
  9
$PUCSNAME
  2

  9
$PUCSORG
 10
0.0
 20
0.0
 30
0.0
  9
$PUCSXDIR
 10
1.0
 20
0.0
 30
0.0
  9
$PUCSYDIR
 10
0.0
 20
1.0
 30
0.0
  9
$USERI1
 70
     0
  9
$USERI2
 70
     0
  9
$USERI3
 70
     0
  9
$USERI4
 70
     0
  9
$USERI5
 70
     0
  9
$USERR1
 40
0.0
  9
$USERR2
 40
0.0
  9
$USERR3
 40
0.0
  9
$USERR4
 40
0.0
  9
$USERR5
 40
0.0
  9
$WORLDVIEW
 70
     1
  9
$SHADEDGE
 70
     3
  9
$SHADEDIF
 70
    70
  9
$TILEMODE
 70
     1
  9
$MAXACTVP
 70
    64
  9
$PINSBASE
 10
0.0
 20
0.0
 30
0.0
  9
$PLIMCHECK
 70
     0
  9
$PEXTMIN
 10
1.0000000000E+20
 20
1.0000000000E+20
 30
1.0000000000E+20
  9
$PEXTMAX
 10
-1.0000000000E+20
 20
-1.0000000000E+20
 30
-1.0000000000E+20
  9
$PLIMMIN
 10
0.0
 20
0.0
  9
$PLIMMAX
 10
420.0
 20
297.0
  9
$UNITMODE
 70
     0
  9
$VISRETAIN
 70
     1
  9
$PLINEGEN
 70
     0
  9
$PSLTSCALE
 70
     1
  9
$TREEDEPTH
 70
  3020
  9
$PICKSTYLE
 70
     1
  9
$CMLSTYLE
  2
STANDARD
  9
$CMLJUST
 70
     0
  9
$CMLSCALE
 40
20.0
  9
$SAVEIMAGES
 70
     1
  0
ENDSEC
  0
SECTION
  2
CLASSES
  0
CLASS
  1
ACDBDICTIONARYWDFLT
  2
AcDbDictionaryWithDefault
  3
ObjectDBX Classes
 90
    32768
280
     0
281
     0
  0
CLASS
  1
VISUALSTYLE
  2
AcDbVisualStyle
  3
ObjectDBX Classes
 90
     4095
280
     0
281
     0
  0
CLASS
  1
MATERIAL
  2
AcDbMaterial
  3
ObjectDBX Classes
 90
     1153
280
     0
281
     0
  0
CLASS
  1
SCALE
  2
AcDbScale
  3
ObjectDBX Classes
 90
     1153
280
     0
281
     0
  0
CLASS
  1
TABLESTYLE
  2
AcDbTableStyle
  3
ObjectDBX Classes
 90
     4095
280
     0
281
     0
  0
CLASS
  1
MLEADERSTYLE
  2
AcDbMLeaderStyle
  3
ACDB_MLEADERSTYLE_CLASS
 90
     4095
280
     0
281
     0
  0
CLASS
  1
SUN
  2
AcDbSun
  3
SCENEOE
 90
     1153
280
     0
281
     0
  0
CLASS
  1
XRECORD
  2
AcDbXrecord
  3
ObjectDBX Classes
 90
    32768
280
     0
281
     0
  0
ENDSEC
  0
SECTION
  2
TABLES
  0
TABLE
  2
VPORT
  5
8
330
0
100
AcDbSymbolTable
 70
     1
  0
VPORT
  5
29
330
8
100
AcDbSymbolTableRecord
100
AcDbViewportTableRecord
  2
*ACTIVE
 70
     0
 10
0.0
 20
0.0
 11
1.0
 21
1.0
 12
210.0
 22
148.5
 13
0.0
 23
0.0
 14
10.0
 24
10.0
 15
10.0
 25
10.0
 16
0.0
 26
0.0
 36
1.0
 17
0.0
 27
0.0
 37
0.0
 40
297.0
 41
1.4141414141
 42
50.0
 43
0.0
 44
0.0
 50
0.0
 51
0.0
 71
     0
 72
  2000
 73
     1
 74
     3
 75
     0
 76
     0
 77
     0
 78
     0
  0
ENDTAB
  0
TABLE
  2
LTYPE
  5
5
330
0
100
AcDbSymbolTable
 70
     6
  0
LTYPE
  5
14
330
5
100
AcDbSymbolTableRecord
100
AcDbLinetypeTableRecord
  2
BYBLOCK
 70
     0
  3

 72
    65
 73
     0
 40
0.0
  0
LTYPE
  5
15
330
5
100
AcDbSymbolTableRecord
100
AcDbLinetypeTableRecord
  2
BYLAYER
 70
     0
  3

 72
    65
 73
     0
 40
0.0
  0
LTYPE
  5
16
330
5
100
AcDbSymbolTableRecord
100
AcDbLinetypeTableRecord
  2
CONTINUOUS
 70
     0
  3
Solid line
 72
    65
 73
     0
 40
0.0
  0
LTYPE
  5
5E
330
5
100
AcDbSymbolTableRecord
100
AcDbLinetypeTableRecord
  2
HIDDEN
 70
     0
  3
Hidden __ __ __ __ __ __ __ __ __ __ __ __ __ __
 72
    65
 73
     2
 40
1.905
 49
1.27
 74
     0
 49
-0.635
 74
     0
  0
LTYPE
  5
5F
330
5
100
AcDbSymbolTableRecord
100
AcDbLinetypeTableRecord
  2
PHANTOM
 70
     0
  3
Phantom ______  __  __  ______  __  __  ______
 72
    65
 73
     6
 40
12.7
 49
6.35
 74
     0
 49
-1.27
 74
     0
 49
1.27
 74
     0
 49
-1.27
 74
     0
 49
1.27
 74
     0
 49
-1.27
 74
     0
  0
LTYPE
  5
60
330
5
100
AcDbSymbolTableRecord
100
AcDbLinetypeTableRecord
  2
CENTER
 70
     0
  3
Center ____ _ ____ _ ____ _ ____ _ ____ _ ____
 72
    65
 73
     4
 40
10.16
 49
6.35
 74
     0
 49
-1.27
 74
     0
 49
1.27
 74
     0
 49
-1.27
 74
     0
  0
LTYPE
  5
61
330
5
100
AcDbSymbolTableRecord
100
AcDbLinetypeTableRecord
  2
CENTERX2
 70
     0
  3
Center (2x) ________  __  ________  __  _____
 72
    65
 73
     4
 40
20.32
 49
12.7
 74
     0
 49
-2.54
 74
     0
 49
2.54
 74
     0
 49
-2.54
 74
     0
  0
LTYPE
  5
62
330
5
100
AcDbSymbolTableRecord
100
AcDbLinetypeTableRecord
  2
DOT2
 70
     0
  3
Dot (.5x) ........................................
 72
    65
 73
     2
 40
0.635
 49
0.0
 74
     0
 49
-0.635
 74
     0
  0
ENDTAB
  0
TABLE
  2
LAYER
  5
2
330
0
100
AcDbSymbolTable
 70
     4
  0
LAYER
  5
10
330
2
100
AcDbSymbolTableRecord
100
AcDbLayerTableRecord
  2
0
 70
     0
 62
     7
  6
CONTINUOUS
  0
LAYER
  5
63
330
2
100
AcDbSymbolTableRecord
100
AcDbLayerTableRecord
  2
ﾚｲﾔｰ1
 70
     0
 62
     7
  6
CONTINUOUS
  0
LAYER
  5
64
330
2
100
AcDbSymbolTableRecord
100
AcDbLayerTableRecord
  2
MAIN0
 70
     0
 62
   179
  6
CONTINUOUS
  0
LAYER
  5
65
330
2
100
AcDbSymbolTableRecord
100
AcDbLayerTableRecord
  2
太線
 70
     0
 62
     7
  6
CONTINUOUS
  0
ENDTAB
  0
TABLE
  2
STYLE
  5
3
330
0
100
AcDbSymbolTable
 70
     3
  0
STYLE
  5
11
330
3
100
AcDbSymbolTableRecord
100
AcDbTextStyleTableRecord
  2
STANDARD
 70
     0
 40
0.0
 41
1.0
 50
0.0
 71
     0
 42
3.5
  3
txt
  4
bigfont
  0
STYLE
  5
B3
330
3
100
AcDbSymbolTableRecord
100
AcDbTextStyleTableRecord
  2
SLDTEXTSTYLE0
 70
     0
 40
0.0
 41
0.7
 50
0.0
 71
     0
 42
3.5
  3
TXT
  4
bigfont
  0
STYLE
  5
3E4
330
3
100
AcDbSymbolTableRecord
100
AcDbTextStyleTableRecord
  2
SLDTEXTSTYLE1
 70
     0
 40
0.0
 41
0.62
 50
0.0
 71
     0
 42
3.5
  3
TXT
  4
bigfont
  0
ENDTAB
  0
TABLE
  2
VIEW
  5
6
330
0
100
AcDbSymbolTable
 70
     0
  0
ENDTAB
  0
TABLE
  2
UCS
  5
7
330
0
100
AcDbSymbolTable
 70
     0
  0
ENDTAB
  0
TABLE
  2
APPID
  5
9
330
0
100
AcDbSymbolTable
 70
     1
  0
APPID
  5
12
330
9
100
AcDbSymbolTableRecord
100
AcDbRegAppTableRecord
  2
ACAD
 70
     0
  0
ENDTAB
  0
TABLE
  2
DIMSTYLE
  5
A
330
0
100
AcDbSymbolTable
 70
    14
  0
DIMSTYLE
105
27
330
A
100
AcDbSymbolTableRecord
100
AcDbDimStyleTableRecord
  2
ISO-25
 70
     0
  3

  4

  5

  6

  7

 40
1.0
 41
2.5
 42
0.625
 43
3.75
 44
1.25
 45
0.0
 46
0.0
 47
0.0
 48
0.0
140
2.5
141
2.5
142
0.0
143
0.0393700787
144
1.0
145
0.0
146
1.0
147
0.625
 71
     0
 72
     0
 73
     0
 74
     0
 75
     0
 76
     0
 77
     1
 78
     8
170
     0
171
     3
172
     1
173
     0
174
     0
175
     0
176
     0
177
     0
178
     0
270
     2
271
     2
272
     2
273
     2
274
     3
340
11
275
     0
280
     0
281
     0
282
     0
283
     0
284
     8
285
     0
286
     0
287
     3
288
     0
  0
DIMSTYLE
105
BE
330
A
100
AcDbSymbolTableRecord
100
AcDbDimStyleTableRecord
  2
SLDDIMSTYLE0
 70
     0
  3

  4

  5

  6
OPEN30
  7
OPEN30
 40
1.0
 41
2.0
 42
0.0625
 43
0.38
 44
0.0
 45
0.000000001
 46
0.0
 47
0.0
 48
0.0
140
0.18
141
0.09
142
0.0
143
25.4
144
1.0
145
0.0
146
2.0
147
0.0
 71
     0
 72
     0
 73
     1
 74
     1
 75
     0
 76
     0
 77
     0
 78
     0
170
     0
171
     2
172
     0
173
     1
174
     0
175
     0
176
     0
177
     0
178
     0
270
     2
271
     0
272
     0
273
     2
274
     2
340
11
275
     0
280
     0
281
     0
282
     0
283
     1
284
     0
285
     0
286
     0
287
     3
288
     0
  0
DIMSTYLE
105
195
102
{ACAD_REACTORS
330
194
330
19F
330
210
330
21A
330
227
330
233
330
26B
330
281
330
2ED
330
2F7
330
344
102
}
330
A
100
AcDbSymbolTableRecord
100
AcDbDimStyleTableRecord
  2
SLDDIMSTYLE1
 70
     0
  3

  4

  5

  6
OPEN30
  7
OPEN30
 40
1.0
 41
2.0
 42
0.0625
 43
0.38
 44
0.0
 45
0.000000001
 46
0.0
 47
0.0
 48
0.0
140
3.5
141
0.09
142
0.0
143
25.4
144
1.0
145
0.0
146
1.0
147
0.875
 71
     0
 72
     0
 73
     0
 74
     0
 75
     0
 76
     0
 77
     3
 78
    12
170
     0
171
     2
172
     0
173
     1
174
     0
175
     0
176
     0
177
     0
178
     0
270
     2
271
     3
272
     3
273
     2
274
     2
340
B3
275
     0
280
     0
281
     0
282
     0
283
     1
284
    12
285
     0
286
     0
287
     3
288
     0
  0
DIMSTYLE
105
202
102
{ACAD_REACTORS
330
201
330
275
102
}
330
A
100
AcDbSymbolTableRecord
100
AcDbDimStyleTableRecord
  2
SLDDIMSTYLE2
 70
     0
  3

  4

  5

  6
OPEN30
  7
OPEN30
 40
1.0
 41
2.0
 42
0.0625
 43
0.38
 44
0.0
 45
0.000000001
 46
0.0
 47
0.0
 48
0.0
140
3.5
141
0.09
142
0.0
143
25.4
144
1.0
145
0.0
146
1.0
147
0.875
 71
     0
 72
     0
 73
     0
 74
     0
 75
     0
 76
     0
 77
     3
 78
    12
170
     0
171
     2
172
     1
173
     1
174
     0
175
     0
176
     0
177
     0
178
     0
270
     2
271
     3
272
     3
273
     2
274
     2
340
B3
275
     0
280
     0
281
     0
282
     0
283
     1
284
    12
285
     0
286
     0
288
     0
  0
DIMSTYLE
105
28E
102
{ACAD_REACTORS
330
28D
102
}
330
A
100
AcDbSymbolTableRecord
100
AcDbDimStyleTableRecord
  2
SLDDIMSTYLE3
 70
     0
  3

  4

  5

  6
OPEN30
  7
OPEN30
 40
1.0
 41
2.0
 42
0.0625
 43
0.38
 44
0.0
 45
0.000000001
 46
0.0
 47
0.0
 48
0.0
140
3.5
141
0.09
142
0.0
143
25.4
144
1.0
145
0.0
146
1.0
147
0.875
 71
     0
 72
     0
 73
     0
 74
     0
 75
     0
 76
     0
 77
     3
 78
    12
170
     0
171
     2
172
     1
173
     1
174
     0
175
     0
176
     0
177
     0
178
     0
270
     2
271
     3
272
     3
273
     2
274
     2
340
B3
275
     0
280
     0
281
     0
282
     0
283
     1
284
     8
285
     0
286
     0
288
     0
  0
DIMSTYLE
105
302
102
{ACAD_REACTORS
330
301
102
}
330
A
100
AcDbSymbolTableRecord
100
AcDbDimStyleTableRecord
  2
SLDDIMSTYLE4
 70
     0
  3

  4

  5

  6
OPEN30
  7
OPEN30
 40
1.0
 41
2.0
 42
0.0625
 43
0.38
 44
0.0
 45
0.000000001
 46
0.0
 47
0.0
 48
0.0
140
3.5
141
0.09
142
0.0
143
25.4
144
1.0
145
0.0
146
1.0
147
0.875
 71
     0
 72
     0
 73
     0
 74
     0
 75
     0
 76
     0
 77
     3
 78
     8
170
     0
171
     2
172
     1
173
     1
174
     0
175
     0
176
     0
177
     0
178
     0
270
     2
271
     3
272
     3
273
     2
274
     2
340
B3
275
     0
280
     0
281
     0
282
     0
283
     1
284
    12
285
     0
286
     0
288
     0
  0
DIMSTYLE
105
316
330
A
100
AcDbSymbolTableRecord
100
AcDbDimStyleTableRecord
  2
SLDDIMSTYLE5
 70
     0
  3

  4

  5

  6
NONE
  7
NONE
 40
1.0
 41
2.0
 42
0.0625
 43
0.38
 44
0.0
 45
0.000000001
 46
0.0
 47
0.0
 48
0.0
140
0.18
141
0.09
142
0.0
143
25.4
144
1.0
145
0.0
146
2.0
147
0.0
 71
     0
 72
     0
 73
     1
 74
     1
 75
     0
 76
     0
 77
     0
 78
     0
170
     0
171
     2
172
     0
173
     1
174
     0
175
     0
176
     0
177
     0
178
     0
270
     2
271
     0
272
     0
273
     2
274
     2
340
11
275
     0
280
     0
281
     0
282
     0
283
     1
284
     0
285
     0
286
     0
287
     3
288
     0
  0
DIMSTYLE
105
34F
102
{ACAD_REACTORS
330
34E
102
}
330
A
100
AcDbSymbolTableRecord
100
AcDbDimStyleTableRecord
  2
SLDDIMSTYLE6
 70
     0
  3

  4

  5

  6
OPEN30
  7
OPEN30
 40
1.0
 41
2.0
 42
0.0625
 43
0.38
 44
0.0
 45
0.000000001
 46
0.0
 47
0.0
 48
0.0
140
3.5
141
0.0
142
0.0
143
25.4
144
1.0
145
0.0
146
1.0
147
0.875
 71
     0
 72
     0
 73
     0
 74
     0
 75
     0
 76
     0
 77
     3
 78
    12
170
     0
171
     2
172
     0
173
     1
174
     0
175
     0
176
     0
177
     0
178
     0
270
     2
271
     3
272
     3
273
     2
274
     2
340
B3
275
     0
280
     0
281
     0
282
     0
283
     1
284
    12
285
     0
286
     0
287
     3
288
     0
  0
DIMSTYLE
105
39B
102
{ACAD_REACTORS
330
39A
102
}
330
A
100
AcDbSymbolTableRecord
100
AcDbDimStyleTableRecord
  2
SLDDIMSTYLE7
 70
     0
  3

  4

  5

  6
OPEN30
  7
OPEN30
 40
1.0
 41
2.0
 42
0.0625
 43
0.38
 44
0.0
 45
0.000000001
 46
0.0
 47
0.0
 48
0.1
140
3.5
141
0.09
142
0.0
143
25.4
144
0.5
145
0.0
146
1.0
147
0.875
 71
     1
 72
     0
 73
     0
 74
     0
 75
     0
 76
     0
 77
     3
 78
    12
170
     0
171
     2
172
     0
173
     1
174
     0
175
     0
176
     0
177
     0
178
     0
270
     2
271
     3
272
     1
273
     2
274
     2
340
B3
275
     0
280
     0
281
     0
282
     0
283
     1
284
     8
285
     0
286
     0
287
     3
288
     0
  0
DIMSTYLE
105
3AB
102
{ACAD_REACTORS
330
3AA
330
3B9
102
}
330
A
100
AcDbSymbolTableRecord
100
AcDbDimStyleTableRecord
  2
SLDDIMSTYLE8
 70
     0
  3

  4

  5

  6
OPEN30
  7
OPEN30
 40
1.0
 41
2.0
 42
0.0625
 43
0.38
 44
0.0
 45
0.000000001
 46
0.0
 47
0.1
 48
0.1
140
3.5
141
0.09
142
0.0
143
25.4
144
0.5
145
0.0
146
1.0
147
0.875
 71
     1
 72
     0
 73
     0
 74
     0
 75
     0
 76
     0
 77
     3
 78
    12
170
     0
171
     2
172
     1
173
     1
174
     0
175
     0
176
     0
177
     0
178
     0
270
     2
271
     3
272
     1
273
     2
274
     2
340
B3
275
     0
280
     0
281
     0
282
     0
283
     1
284
     8
285
     0
286
     0
288
     0
  0
DIMSTYLE
105
3C8
102
{ACAD_REACTORS
330
3C7
102
}
330
A
100
AcDbSymbolTableRecord
100
AcDbDimStyleTableRecord
  2
SLDDIMSTYLE9
 70
     0
  3

  4

  5

  6
OPEN30
  7
OPEN30
 40
1.0
 41
2.0
 42
0.0625
 43
0.38
 44
0.0
 45
0.000000001
 46
0.0
 47
0.0
 48
0.0
140
3.5
141
0.09
142
0.0
143
25.4
144
0.5
145
0.0
146
1.0
147
0.875
 71
     0
 72
     0
 73
     0
 74
     0
 75
     0
 76
     0
 77
     3
 78
     8
170
     0
171
     2
172
     1
173
     1
174
     0
175
     0
176
     0
177
     0
178
     0
270
     2
271
     3
272
     3
273
     2
274
     2
340
B3
275
     0
280
     0
281
     0
282
     0
283
     1
284
    12
285
     0
286
     0
288
     0
  0
DIMSTYLE
105
3D5
102
{ACAD_REACTORS
330
3D4
102
}
330
A
100
AcDbSymbolTableRecord
100
AcDbDimStyleTableRecord
  2
SLDDIMSTYLE10
 70
     0
  3

  4

  5

  6
OPEN30
  7
OPEN30
 40
1.0
 41
2.0
 42
0.0625
 43
0.38
 44
0.0
 45
0.000000001
 46
0.0
 47
0.2
 48
0.0
140
3.5
141
0.09
142
0.0
143
25.4
144
0.5
145
0.0
146
1.0
147
0.875
 71
     1
 72
     0
 73
     0
 74
     0
 75
     0
 76
     0
 77
     3
 78
    12
170
     0
171
     2
172
     0
173
     1
174
     0
175
     0
176
     0
177
     0
178
     0
270
     2
271
     3
272
     1
273
     2
274
     2
340
B3
275
     0
280
     0
281
     0
282
     0
283
     1
284
     8
285
     0
286
     0
287
     3
288
     0
  0
DIMSTYLE
105
3F3
102
{ACAD_REACTORS
330
3F2
102
}
330
A
100
AcDbSymbolTableRecord
100
AcDbDimStyleTableRecord
  2
SLDDIMSTYLE11
 70
     0
  3

  4

  5

  6
OPEN30
  7
OPEN30
 40
1.0
 41
2.0
 42
0.0625
 43
0.38
 44
0.0
 45
0.000000001
 46
0.0
 47
0.0
 48
0.0
140
3.5
141
0.09
142
0.0
143
25.4
144
0.2
145
0.0
146
1.0
147
0.875
 71
     0
 72
     0
 73
     0
 74
     0
 75
     0
 76
     0
 77
     3
 78
    12
170
     0
171
     2
172
     0
173
     1
174
     0
175
     0
176
     0
177
     0
178
     0
270
     2
271
     3
272
     3
273
     2
274
     2
340
B3
275
     0
280
     0
281
     0
282
     0
283
     1
284
    12
285
     0
286
     0
287
     3
288
     0
  0
DIMSTYLE
105
3FE
102
{ACAD_REACTORS
330
3FD
330
40C
102
}
330
A
100
AcDbSymbolTableRecord
100
AcDbDimStyleTableRecord
  2
SLDDIMSTYLE12
 70
     0
  3

  4

  5

  6
OPEN30
  7
OPEN30
 40
1.0
 41
2.0
 42
0.0625
 43
0.38
 44
0.0
 45
0.000000001
 46
0.0
 47
0.0
 48
0.0
140
3.5
141
0.09
142
0.0
143
25.4
144
0.2
145
0.0
146
1.0
147
0.875
 71
     0
 72
     0
 73
     0
 74
     0
 75
     0
 76
     0
 77
     3
 78
     8
170
     0
171
     2
172
     1
173
     1
174
     0
175
     0
176
     0
177
     0
178
     0
270
     2
271
     3
272
     3
273
     2
274
     2
340
B3
275
     0
280
     0
281
     0
282
     0
283
     1
284
    12
285
     0
286
     0
288
     0
  0
ENDTAB
  0
TABLE
  2
BLOCK_RECORD
  5
1
330
0
100
AcDbSymbolTable
 70
    39
  0
BLOCK_RECORD
  5
1F
330
1
100
AcDbSymbolTableRecord
100
AcDbBlockTableRecord
  2
*MODEL_SPACE
  0
BLOCK_RECORD
  5
1B
330
1
100
AcDbSymbolTableRecord
100
AcDbBlockTableRecord
  2
*PAPER_SPACE
  0
BLOCK_RECORD
  5
23
330
1
100
AcDbSymbolTableRecord
100
AcDbBlockTableRecord
  2
*PAPER_SPACE0
  0
BLOCK_RECORD
  5
B6
330
1
100
AcDbSymbolTableRecord
100
AcDbBlockTableRecord
  2
SW_NOTE_0
  0
BLOCK_RECORD
  5
BF
330
1
100
AcDbSymbolTableRecord
100
AcDbBlockTableRecord
  2
_OPEN30
  0
BLOCK_RECORD
  5
C6
330
1
100
AcDbSymbolTableRecord
100
AcDbBlockTableRecord
  2
SW_NOTE_0_1
  0
BLOCK_RECORD
  5
D0
330
1
100
AcDbSymbolTableRecord
100
AcDbBlockTableRecord
  2
SW_NOTE_0_2
  0
BLOCK_RECORD
  5
D8
330
1
100
AcDbSymbolTableRecord
100
AcDbBlockTableRecord
  2
SW_NOTE_0_3
  0
BLOCK_RECORD
  5
E0
330
1
100
AcDbSymbolTableRecord
100
AcDbBlockTableRecord
  2
SW_NOTE_0_4
  0
BLOCK_RECORD
  5
113
330
1
100
AcDbSymbolTableRecord
100
AcDbBlockTableRecord
  2
SW_TABLEANNOTATION_0
  0
BLOCK_RECORD
  5
14A
330
1
100
AcDbSymbolTableRecord
100
AcDbBlockTableRecord
  2
SW_TABLEANNOTATION_1
  0
BLOCK_RECORD
  5
196
330
1
100
AcDbSymbolTableRecord
100
AcDbBlockTableRecord
  2
_D
  0
BLOCK_RECORD
  5
1A0
330
1
100
AcDbSymbolTableRecord
100
AcDbBlockTableRecord
  2
_D_1
  0
BLOCK_RECORD
  5
1A9
330
1
100
AcDbSymbolTableRecord
100
AcDbBlockTableRecord
  2
SW_CENTERMARKSYMBOL_0
  0
BLOCK_RECORD
  5
203
330
1
100
AcDbSymbolTableRecord
100
AcDbBlockTableRecord
  2
_D_2
  0
BLOCK_RECORD
  5
211
330
1
100
AcDbSymbolTableRecord
100
AcDbBlockTableRecord
  2
_D_3
  0
BLOCK_RECORD
  5
21B
330
1
100
AcDbSymbolTableRecord
100
AcDbBlockTableRecord
  2
_D_4
  0
BLOCK_RECORD
  5
228
330
1
100
AcDbSymbolTableRecord
100
AcDbBlockTableRecord
  2
_D_5
  0
BLOCK_RECORD
  5
234
330
1
100
AcDbSymbolTableRecord
100
AcDbBlockTableRecord
  2
_D_6
  0
BLOCK_RECORD
  5
26C
330
1
100
AcDbSymbolTableRecord
100
AcDbBlockTableRecord
  2
_D_7
  0
BLOCK_RECORD
  5
276
330
1
100
AcDbSymbolTableRecord
100
AcDbBlockTableRecord
  2
_D_8
  0
BLOCK_RECORD
  5
282
330
1
100
AcDbSymbolTableRecord
100
AcDbBlockTableRecord
  2
_D_9
  0
BLOCK_RECORD
  5
28F
330
1
100
AcDbSymbolTableRecord
100
AcDbBlockTableRecord
  2
_D_10
  0
BLOCK_RECORD
  5
29D
330
1
100
AcDbSymbolTableRecord
100
AcDbBlockTableRecord
  2
SW_NOTE_0_5
  0
BLOCK_RECORD
  5
2A4
330
1
100
AcDbSymbolTableRecord
100
AcDbBlockTableRecord
  2
SW_CENTERMARKSYMBOL_1
  0
BLOCK_RECORD
  5
2EE
330
1
100
AcDbSymbolTableRecord
100
AcDbBlockTableRecord
  2
_D_11
  0
BLOCK_RECORD
  5
2F8
330
1
100
AcDbSymbolTableRecord
100
AcDbBlockTableRecord
  2
_D_12
  0
BLOCK_RECORD
  5
303
330
1
100
AcDbSymbolTableRecord
100
AcDbBlockTableRecord
  2
_D_13
  0
BLOCK_RECORD
  5
317
330
1
100
AcDbSymbolTableRecord
100
AcDbBlockTableRecord
  2
_NONE
  0
BLOCK_RECORD
  5
345
330
1
100
AcDbSymbolTableRecord
100
AcDbBlockTableRecord
  2
_D_14
  0
BLOCK_RECORD
  5
350
330
1
100
AcDbSymbolTableRecord
100
AcDbBlockTableRecord
  2
_D_15
  0
BLOCK_RECORD
  5
358
330
1
100
AcDbSymbolTableRecord
100
AcDbBlockTableRecord
  2
SW_CENTERMARKSYMBOL_2
  0
BLOCK_RECORD
  5
364
330
1
100
AcDbSymbolTableRecord
100
AcDbBlockTableRecord
  2
SW_CENTERMARKSYMBOL_3
  0
BLOCK_RECORD
  5
39C
330
1
100
AcDbSymbolTableRecord
100
AcDbBlockTableRecord
  2
_D_16
  0
BLOCK_RECORD
  5
3AC
330
1
100
AcDbSymbolTableRecord
100
AcDbBlockTableRecord
  2
_D_17
  0
BLOCK_RECORD
  5
3BA
330
1
100
AcDbSymbolTableRecord
100
AcDbBlockTableRecord
  2
_D_18
  0
BLOCK_RECORD
  5
3C9
330
1
100
AcDbSymbolTableRecord
100
AcDbBlockTableRecord
  2
_D_19
  0
BLOCK_RECORD
  5
3D6
330
1
100
AcDbSymbolTableRecord
100
AcDbBlockTableRecord
  2
_D_20
  0
BLOCK_RECORD
  5
3F4
330
1
100
AcDbSymbolTableRecord
100
AcDbBlockTableRecord
  2
_D_21
  0
BLOCK_RECORD
  5
3FF
330
1
100
AcDbSymbolTableRecord
100
AcDbBlockTableRecord
  2
_D_22
  0
BLOCK_RECORD
  5
40D
330
1
100
AcDbSymbolTableRecord
100
AcDbBlockTableRecord
  2
_D_23
  0
ENDTAB
  0
ENDSEC
  0
SECTION
  2
BLOCKS
  0
BLOCK
  5
20
330
1F
100
AcDbEntity
  8
0
100
AcDbBlockBegin
  2
*MODEL_SPACE
 70
     0
 10
0.0
 20
0.0
 30
0.0
  3
*MODEL_SPACE
  1

  0
ENDBLK
  5
21
330
1F
100
AcDbEntity
  8
0
100
AcDbBlockEnd
  0
BLOCK
  5
1C
330
1B
100
AcDbEntity
 67
     1
  8
0
100
AcDbBlockBegin
  2
*PAPER_SPACE
 70
     0
 10
0.0
 20
0.0
 30
0.0
  3
*PAPER_SPACE
  1

  0
ENDBLK
  5
1D
330
1B
100
AcDbEntity
 67
     1
  8
0
100
AcDbBlockEnd
  0
BLOCK
  5
24
330
23
100
AcDbEntity
  8
0
100
AcDbBlockBegin
  2
*PAPER_SPACE0
 70
     0
 10
0.0
 20
0.0
 30
0.0
  3
*PAPER_SPACE0
  1

  0
ENDBLK
  5
25
330
23
100
AcDbEntity
  8
0
100
AcDbBlockEnd
  0
BLOCK
  5
B7
330
B6
100
AcDbEntity
  8
0
100
AcDbBlockBegin
  2
SW_NOTE_0
 70
     0
 10
0.0
 20
0.0
 30
0.0
  3
SW_NOTE_0
  1

  0
LINE
  5
B9
330
B6
100
AcDbEntity
  8
0
  6
CONTINUOUS
 62
     0
100
AcDbLine
 10
-99.921688286
 20
0.0
 30
0.0
 11
0.0
 21
0.0
 31
0.0
  0
MTEXT
  5
BA
330
B6
100
AcDbEntity
  8
0
  6
CONTINUOUS
 62
     0
100
AcDbMText
 10
-100.3079585518
 20
13.6287228609
 30
0.0
 40
3.5
 41
0.0
 71
     1
 72
     1
  1
低頭六角穴付ボルトCBS6(ミスミ) 使用可能(客先手配)
  7
SLDTEXTSTYLE0
  0
MTEXT
  5
BB
330
B6
100
AcDbEntity
  8
0
  6
CONTINUOUS
 62
     0
100
AcDbMText
 10
-100.3079585518
 20
9.1287230546
 30
0.0
 40
3.5
 41
0.0
 71
     1
 72
     1
  1
Low head hexagon socket head bolt
  7
SLDTEXTSTYLE0
  0
MTEXT
  5
BC
330
B6
100
AcDbEntity
  8
0
  6
CONTINUOUS
 62
     0
100
AcDbMText
 10
-100.3079585518
 20
4.6287232483
 30
0.0
 40
3.5
 41
0.0
 71
     1
 72
     1
  1
CBS6(MISUMI) available(Customer arrangement)
  7
SLDTEXTSTYLE0
  0
ENDBLK
  5
B8
330
B6
100
AcDbEntity
  8
0
100
AcDbBlockEnd
  0
BLOCK
  5
C0
330
BF
100
AcDbEntity
  8
0
100
AcDbBlockBegin
  2
_OPEN30
 70
     0
 10
0.0
 20
0.0
 30
0.0
  3
_OPEN30
  1

  0
LINE
  5
C2
330
BF
100
AcDbEntity
  8
0
  6
BYBLOCK
 62
     0
100
AcDbLine
 10
-1.0
 20
0.267949
 30
0.0
 11
0.0
 21
0.0
 31
0.0
  0
LINE
  5
C3
330
BF
100
AcDbEntity
  8
0
  6
BYBLOCK
 62
     0
100
AcDbLine
 10
0.0
 20
0.0
 30
0.0
 11
-1.0
 21
-0.267949
 31
0.0
  0
LINE
  5
C4
330
BF
100
AcDbEntity
  8
0
  6
BYBLOCK
 62
     0
100
AcDbLine
 10
0.0
 20
0.0
 30
0.0
 11
-1.0
 21
0.0
 31
0.0
  0
ENDBLK
  5
C1
330
BF
100
AcDbEntity
  8
0
100
AcDbBlockEnd
  0
BLOCK
  5
C7
330
C6
100
AcDbEntity
  8
0
100
AcDbBlockBegin
  2
SW_NOTE_0_1
 70
     0
 10
0.0
 20
0.0
 30
0.0
  3
SW_NOTE_0_1
  1

  0
LINE
  5
C9
330
C6
100
AcDbEntity
  8
0
  6
CONTINUOUS
 62
     0
100
AcDbLine
 10
54.875556531
 20
0.0
 30
0.0
 11
0.0
 21
0.0
 31
0.0
  0
MTEXT
  5
CA
330
C6
100
AcDbEntity
  8
0
  6
CONTINUOUS
 62
     0
100
AcDbMText
 10
0.4057485122
 20
9.0120613753
 30
0.0
 40
3.5
 41
0.0
 71
     1
 72
     1
  1
M8　めねじ内径
  7
SLDTEXTSTYLE0
  0
MTEXT
  5
CB
330
C6
100
AcDbEntity
  8
0
  6
CONTINUOUS
 62
     0
100
AcDbMText
 10
0.4057485122
 20
4.512061569
 30
0.0
 40
3.5
 41
0.0
 71
     1
 72
     1
  1
Female screw inner diameter
  7
SLDTEXTSTYLE0
  0
ENDBLK
  5
C8
330
C6
100
AcDbEntity
  8
0
100
AcDbBlockEnd
  0
BLOCK
  5
D1
330
D0
100
AcDbEntity
  8
0
100
AcDbBlockBegin
  2
SW_NOTE_0_2
 70
     0
 10
0.0
 20
0.0
 30
0.0
  3
SW_NOTE_0_2
  1

  0
LINE
  5
D3
330
D0
100
AcDbEntity
  8
0
  6
CONTINUOUS
 62
     0
100
AcDbLine
 10
-2.6536987111
 20
0.0709969353
 30
0.0
 11
0.9443285027
 21
6.3029628767
 31
0.0
  0
LINE
  5
D4
330
D0
100
AcDbEntity
  8
0
  6
CONTINUOUS
 62
     0
100
AcDbLine
 10
0.9443285027
 20
6.3029628767
 30
0.0
 11
4.5423557166
 21
0.0709969353
 31
0.0
  0
LINE
  5
D5
330
D0
100
AcDbEntity
  8
0
  6
CONTINUOUS
 62
     0
100
AcDbLine
 10
4.5423557166
 20
0.0709969353
 30
0.0
 11
-2.6536987111
 21
0.0709969353
 31
0.0
  0
MTEXT
  5
D6
330
D0
100
AcDbEntity
  8
0
  6
CONTINUOUS
 62
     0
100
AcDbMText
 10
1.0390625
 20
4.5117370892
 30
0.0
 40
3.5
 41
0.0
 71
     2
 72
     1
  1
1
  7
SLDTEXTSTYLE0
  0
ENDBLK
  5
D2
330
D0
100
AcDbEntity
  8
0
100
AcDbBlockEnd
  0
BLOCK
  5
D9
330
D8
100
AcDbEntity
  8
0
100
AcDbBlockBegin
  2
SW_NOTE_0_3
 70
     0
 10
0.0
 20
0.0
 30
0.0
  3
SW_NOTE_0_3
  1

  0
LINE
  5
DB
330
D8
100
AcDbEntity
  8
0
  6
CONTINUOUS
 62
     0
100
AcDbLine
 10
-2.6061025326
 20
-0.0720100592
 30
0.0
 11
0.9919246812
 21
6.1599558822
 31
0.0
  0
LINE
  5
DC
330
D8
100
AcDbEntity
  8
0
  6
CONTINUOUS
 62
     0
100
AcDbLine
 10
0.9919246812
 20
6.1599558822
 30
0.0
 11
4.5899518951
 21
-0.0720100592
 31
0.0
  0
LINE
  5
DD
330
D8
100
AcDbEntity
  8
0
  6
CONTINUOUS
 62
     0
100
AcDbLine
 10
4.5899518951
 20
-0.0720100592
 30
0.0
 11
-2.6061025326
 21
-0.0720100592
 31
0.0
  0
MTEXT
  5
DE
330
D8
100
AcDbEntity
  8
0
  6
CONTINUOUS
 62
     0
100
AcDbMText
 10
1.0390625
 20
4.5117370892
 30
0.0
 40
3.5
 41
0.0
 71
     2
 72
     1
  1
1
  7
SLDTEXTSTYLE0
  0
ENDBLK
  5
DA
330
D8
100
AcDbEntity
  8
0
100
AcDbBlockEnd
  0
BLOCK
  5
E1
330
E0
100
AcDbEntity
  8
0
100
AcDbBlockBegin
  2
SW_NOTE_0_4
 70
     0
 10
0.0
 20
0.0
 30
0.0
  3
SW_NOTE_0_4
  1

  0
LINE
  5
E3
330
E0
100
AcDbEntity
  8
0
  6
CONTINUOUS
 62
     0
100
AcDbLine
 10
-2.648133155
 20
-0.0530566803
 30
0.0
 11
0.9498940589
 21
6.1789092611
 31
0.0
  0
LINE
  5
E4
330
E0
100
AcDbEntity
  8
0
  6
CONTINUOUS
 62
     0
100
AcDbLine
 10
0.9498940589
 20
6.1789092611
 30
0.0
 11
4.5479212727
 21
-0.0530566803
 31
0.0
  0
LINE
  5
E5
330
E0
100
AcDbEntity
  8
0
  6
CONTINUOUS
 62
     0
100
AcDbLine
 10
4.5479212727
 20
-0.0530566803
 30
0.0
 11
-2.648133155
 21
-0.0530566803
 31
0.0
  0
MTEXT
  5
E6
330
E0
100
AcDbEntity
  8
0
  6
CONTINUOUS
 62
     0
100
AcDbMText
 10
1.0390625
 20
4.5117370892
 30
0.0
 40
3.5
 41
0.0
 71
     2
 72
     1
  1
2
  7
SLDTEXTSTYLE0
  0
ENDBLK
  5
E2
330
E0
100
AcDbEntity
  8
0
100
AcDbBlockEnd
  0
BLOCK
  5
114
330
113
100
AcDbEntity
  8
0
100
AcDbBlockBegin
  2
SW_TABLEANNOTATION_0
 70
     0
 10
0.0
 20
0.0
 30
0.0
  3
SW_TABLEANNOTATION_0
  1

  0
LINE
  5
116
330
113
100
AcDbEntity
  8
0
  6
CONTINUOUS
 62
     0
100
AcDbLine
 10
0.0
 20
0.0
 30
0.0
 11
0.0
 21
-4.9602402351
 31
0.0
  0
LINE
  5
117
330
113
100
AcDbEntity
  8
0
  6
CONTINUOUS
 62
     0
100
AcDbLine
 10
12.2
 20
0.0
 30
0.0
 11
12.2
 21
-4.9602402351
 31
0.0
  0
LINE
  5
118
330
113
100
AcDbEntity
  8
0
  6
CONTINUOUS
 62
     0
100
AcDbLine
 10
32.2
 20
0.0
 30
0.0
 11
32.2
 21
-4.9602402351
 31
0.0
  0
LINE
  5
119
330
113
100
AcDbEntity
  8
0
  6
CONTINUOUS
 62
     0
100
AcDbLine
 10
85.993
 20
0.0
 30
0.0
 11
85.993
 21
-4.9602402351
 31
0.0
  0
LINE
  5
11A
330
113
100
AcDbEntity
  8
0
  6
CONTINUOUS
 62
     0
100
AcDbLine
 10
105.993
 20
0.0
 30
0.0
 11
105.993
 21
-4.9602402351
 31
0.0
  0
LINE
  5
11B
330
113
100
AcDbEntity
  8
0
  6
CONTINUOUS
 62
     0
100
AcDbLine
 10
123.993
 20
0.0
 30
0.0
 11
123.993
 21
-4.9602402351
 31
0.0
  0
LINE
  5
11C
330
113
100
AcDbEntity
  8
0
  6
CONTINUOUS
 62
     0
100
AcDbLine
 10
0.0
 20
0.0
 30
0.0
 11
12.2
 21
0.0
 31
0.0
  0
LINE
  5
11D
330
113
100
AcDbEntity
  8
0
  6
CONTINUOUS
 62
     0
100
AcDbLine
 10
0.0
 20
-4.9602402351
 30
0.0
 11
12.2
 21
-4.9602402351
 31
0.0
  0
LINE
  5
11E
330
113
100
AcDbEntity
  8
0
  6
CONTINUOUS
 62
     0
100
AcDbLine
 10
12.2
 20
0.0
 30
0.0
 11
32.2
 21
0.0
 31
0.0
  0
LINE
  5
11F
330
113
100
AcDbEntity
  8
0
  6
CONTINUOUS
 62
     0
100
AcDbLine
 10
12.2
 20
-4.9602402351
 30
0.0
 11
32.2
 21
-4.9602402351
 31
0.0
  0
LINE
  5
120
330
113
100
AcDbEntity
  8
0
  6
CONTINUOUS
 62
     0
100
AcDbLine
 10
32.2
 20
0.0
 30
0.0
 11
85.993
 21
0.0
 31
0.0
  0
LINE
  5
121
330
113
100
AcDbEntity
  8
0
  6
CONTINUOUS
 62
     0
100
AcDbLine
 10
32.2
 20
-4.9602402351
 30
0.0
 11
85.993
 21
-4.9602402351
 31
0.0
  0
LINE
  5
122
330
113
100
AcDbEntity
  8
0
  6
CONTINUOUS
 62
     0
100
AcDbLine
 10
85.993
 20
0.0
 30
0.0
 11
105.993
 21
0.0
 31
0.0
  0
LINE
  5
123
330
113
100
AcDbEntity
  8
0
  6
CONTINUOUS
 62
     0
100
AcDbLine
 10
85.993
 20
-4.9602402351
 30
0.0
 11
105.993
 21
-4.9602402351
 31
0.0
  0
LINE
  5
124
330
113
100
AcDbEntity
  8
0
  6
CONTINUOUS
 62
     0
100
AcDbLine
 10
105.993
 20
0.0
 30
0.0
 11
123.993
 21
0.0
 31
0.0
  0
LINE
  5
125
330
113
100
AcDbEntity
  8
0
  6
CONTINUOUS
 62
     0
100
AcDbLine
 10
105.993
 20
-4.9602402351
 30
0.0
 11
123.993
 21
-4.9602402351
 31
0.0
  0
LINE
  5
126
330
113
100
AcDbEntity
  8
0
  6
CONTINUOUS
 62
     0
100
AcDbLine
 10
0.0
 20
-4.9602402351
 30
0.0
 11
0.0
 21
-10.0480633132
 31
0.0
  0
LINE
  5
127
330
113
100
AcDbEntity
  8
0
  6
CONTINUOUS
 62
     0
100
AcDbLine
 10
12.2
 20
-4.9602402351
 30
0.0
 11
12.2
 21
-10.0480633132
 31
0.0
  0
LINE
  5
128
330
113
100
AcDbEntity
  8
0
  6
CONTINUOUS
 62
     0
100
AcDbLine
 10
0.0
 20
-10.0480633132
 30
0.0
 11
0.0
 21
-18.6636641265
 31
0.0
  0
LINE
  5
129
330
113
100
AcDbEntity
  8
0
  6
CONTINUOUS
 62
     0
100
AcDbLine
 10
12.2
 20
-10.0480633132
 30
0.0
 11
12.2
 21
-18.6636641265
 31
0.0
  0
LINE
  5
12A
330
113
100
AcDbEntity
  8
0
  6
CONTINUOUS
 62
     0
100
AcDbLine
 10
32.2
 20
-4.9602402351
 30
0.0
 11
32.2
 21
-10.0480633132
 31
0.0
  0
LINE
  5
12B
330
113
100
AcDbEntity
  8
0
  6
CONTINUOUS
 62
     0
100
AcDbLine
 10
32.2
 20
-10.0480633132
 30
0.0
 11
32.2
 21
-18.6636641265
 31
0.0
  0
LINE
  5
12C
330
113
100
AcDbEntity
  8
0
  6
CONTINUOUS
 62
     0
100
AcDbLine
 10
85.993
 20
-4.9602402351
 30
0.0
 11
85.993
 21
-10.0480633132
 31
0.0
  0
LINE
  5
12D
330
113
100
AcDbEntity
  8
0
  6
CONTINUOUS
 62
     0
100
AcDbLine
 10
85.993
 20
-10.0480633132
 30
0.0
 11
85.993
 21
-18.6636641265
 31
0.0
  0
LINE
  5
12E
330
113
100
AcDbEntity
  8
0
  6
CONTINUOUS
 62
     0
100
AcDbLine
 10
105.993
 20
-4.9602402351
 30
0.0
 11
105.993
 21
-10.0480633132
 31
0.0
  0
LINE
  5
12F
330
113
100
AcDbEntity
  8
0
  6
CONTINUOUS
 62
     0
100
AcDbLine
 10
105.993
 20
-10.0480633132
 30
0.0
 11
105.993
 21
-18.6636641265
 31
0.0
  0
LINE
  5
130
330
113
100
AcDbEntity
  8
0
  6
CONTINUOUS
 62
     0
100
AcDbLine
 10
123.993
 20
-4.9602402351
 30
0.0
 11
123.993
 21
-10.0480633132
 31
0.0
  0
LINE
  5
131
330
113
100
AcDbEntity
  8
0
  6
CONTINUOUS
 62
     0
100
AcDbLine
 10
123.993
 20
-10.0480633132
 30
0.0
 11
123.993
 21
-18.6636641265
 31
0.0
  0
LINE
  5
132
330
113
100
AcDbEntity
  8
0
  6
CONTINUOUS
 62
     0
100
AcDbLine
 10
0.0
 20
-10.0480633132
 30
0.0
 11
12.2
 21
-10.0480633132
 31
0.0
  0
LINE
  5
133
330
113
100
AcDbEntity
  8
0
  6
CONTINUOUS
 62
     0
100
AcDbLine
 10
12.2
 20
-10.0480633132
 30
0.0
 11
32.2
 21
-10.0480633132
 31
0.0
  0
LINE
  5
134
330
113
100
AcDbEntity
  8
0
  6
CONTINUOUS
 62
     0
100
AcDbLine
 10
32.2
 20
-10.0480633132
 30
0.0
 11
85.993
 21
-10.0480633132
 31
0.0
  0
LINE
  5
135
330
113
100
AcDbEntity
  8
0
  6
CONTINUOUS
 62
     0
100
AcDbLine
 10
85.993
 20
-10.0480633132
 30
0.0
 11
105.993
 21
-10.0480633132
 31
0.0
  0
LINE
  5
136
330
113
100
AcDbEntity
  8
0
  6
CONTINUOUS
 62
     0
100
AcDbLine
 10
105.993
 20
-10.0480633132
 30
0.0
 11
123.993
 21
-10.0480633132
 31
0.0
  0
LINE
  5
137
330
113
100
AcDbEntity
  8
0
  6
CONTINUOUS
 62
     0
100
AcDbLine
 10
0.0
 20
-18.6636641265
 30
0.0
 11
12.2
 21
-18.6636641265
 31
0.0
  0
LINE
  5
138
330
113
100
AcDbEntity
  8
0
  6
CONTINUOUS
 62
     0
100
AcDbLine
 10
12.2
 20
-18.6636641265
 30
0.0
 11
32.2
 21
-18.6636641265
 31
0.0
  0
LINE
  5
139
330
113
100
AcDbEntity
  8
0
  6
CONTINUOUS
 62
     0
100
AcDbLine
 10
32.2
 20
-18.6636641265
 30
0.0
 11
85.993
 21
-18.6636641265
 31
0.0
  0
LINE
  5
13A
330
113
100
AcDbEntity
  8
0
  6
CONTINUOUS
 62
     0
100
AcDbLine
 10
85.993
 20
-18.6636641265
 30
0.0
 11
105.993
 21
-18.6636641265
 31
0.0
  0
LINE
  5
13B
330
113
100
AcDbEntity
  8
0
  6
CONTINUOUS
 62
     0
100
AcDbLine
 10
105.993
 20
-18.6636641265
 30
0.0
 11
123.993
 21
-18.6636641265
 31
0.0
  0
MTEXT
  5
13C
330
113
100
AcDbEntity
  8
0
  6
CONTINUOUS
 62
     0
100
AcDbMText
 10
1.7784723327
 20
-1.5485516031
 30
0.0
 40
1.8520833333
 41
0.0
 71
     1
 72
     1
  1
REV.NO.
  7
SLDTEXTSTYLE0
  0
MTEXT
  5
13D
330
113
100
AcDbEntity
  8
0
  6
CONTINUOUS
 62
     0
100
AcDbMText
 10
18.6722222649
 20
-1.0545209195
 30
0.0
 40
2.6458333333
 41
0.0
 71
     1
 72
     1
  1
DATE
  7
SLDTEXTSTYLE0
  0
MTEXT
  5
13E
330
113
100
AcDbEntity
  8
0
  6
CONTINUOUS
 62
     0
100
AcDbMText
 10
42.12578125
 20
-1.0545209195
 30
0.0
 40
2.6458333333
 41
0.0
 71
     1
 72
     1
  1
REASON OF REVISION
  7
SLDTEXTSTYLE0
  0
MTEXT
  5
13F
330
113
100
AcDbEntity
  8
0
  6
CONTINUOUS
 62
     0
100
AcDbMText
 10
89.8193893127
 20
-1.0545209195
 30
0.0
 40
2.6458333333
 41
0.0
 71
     1
 72
     1
  1
REVISER
  7
SLDTEXTSTYLE0
  0
MTEXT
  5
140
330
113
100
AcDbEntity
  8
0
  6
CONTINUOUS
 62
     0
100
AcDbMText
 10
110.0541111708
 20
-1.5485516031
 30
0.0
 40
1.8520833333
 41
0.0
 71
     1
 72
     1
  1
QUANTITY
  7
SLDTEXTSTYLE0
  0
MTEXT
  5
141
330
113
100
AcDbEntity
  8
0
  6
CONTINUOUS
 62
     0
100
AcDbMText
 10
5.2180555662
 20
-6.0785525761
 30
0.0
 40
2.6458333333
 41
0.0
 71
     1
 72
     1
  1
1
  7
SLDTEXTSTYLE0
  0
MTEXT
  5
142
330
113
100
AcDbEntity
  8
0
  6
CONTINUOUS
 62
     0
100
AcDbMText
 10
13.380555895
 20
-6.0785525761
 30
0.0
 40
2.6458333333
 41
0.0
 71
     1
 72
     1
  1
2024/03/29
  7
SLDTEXTSTYLE0
  0
MTEXT
  5
143
330
113
100
AcDbEntity
  8
0
  6
CONTINUOUS
 62
     0
100
AcDbMText
 10
92.4652222649
 20
-6.0785525761
 30
0.0
 40
2.6458333333
 41
0.0
 71
     1
 72
     1
  1
増田
  7
SLDTEXTSTYLE0
  0
MTEXT
  5
144
330
113
100
AcDbEntity
  8
0
  6
CONTINUOUS
 62
     0
100
AcDbMText
 10
114.1110555662
 20
-6.0785525761
 30
0.0
 40
2.6458333333
 41
0.0
 71
     1
 72
     1
  1
2
  7
SLDTEXTSTYLE0
  0
MTEXT
  5
145
330
113
100
AcDbEntity
  8
0
  6
CONTINUOUS
 62
     0
100
AcDbMText
 10
5.2180555662
 20
-12.9302645218
 30
0.0
 40
2.6458333333
 41
0.0
 71
     1
 72
     1
  1
2
  7
SLDTEXTSTYLE0
  0
MTEXT
  5
146
330
113
100
AcDbEntity
  8
0
  6
CONTINUOUS
 62
     0
100
AcDbMText
 10
13.380555895
 20
-12.9302645218
 30
0.0
 40
2.6458333333
 41
0.0
 71
     1
 72
     1
  1
2024/05/09
  7
SLDTEXTSTYLE0
  0
MTEXT
  5
147
330
113
100
AcDbEntity
  8
0
  6
CONTINUOUS
 62
     0
100
AcDbMText
 10
92.4652222649
 20
-12.9302645218
 30
0.0
 40
2.6458333333
 41
0.0
 71
     1
 72
     1
  1
増田
  7
SLDTEXTSTYLE0
  0
MTEXT
  5
148
330
113
100
AcDbEntity
  8
0
  6
CONTINUOUS
 62
     0
100
AcDbMText
 10
114.1110555662
 20
-12.9302645218
 30
0.0
 40
2.6458333333
 41
0.0
 71
     1
 72
     1
  1
1
  7
SLDTEXTSTYLE0
  0
ENDBLK
  5
115
330
113
100
AcDbEntity
  8
0
100
AcDbBlockEnd
  0
BLOCK
  5
14B
330
14A
100
AcDbEntity
  8
0
100
AcDbBlockBegin
  2
SW_TABLEANNOTATION_1
 70
     0
 10
0.0
 20
0.0
 30
0.0
  3
SW_TABLEANNOTATION_1
  1

  0
LINE
  5
14D
330
14A
100
AcDbEntity
  8
0
  6
CONTINUOUS
 62
     0
100
AcDbLine
 10
0.0
 20
0.0
 30
0.0
 11
0.0
 21
-15.8335184443
 31
0.0
  0
LINE
  5
14E
330
14A
100
AcDbEntity
  8
0
  6
CONTINUOUS
 62
     0
100
AcDbLine
 10
40.0412497004
 20
0.0
 30
0.0
 11
40.0412497004
 21
-15.8335184443
 31
0.0
  0
LINE
  5
14F
330
14A
100
AcDbEntity
  8
0
  6
CONTINUOUS
 62
     0
100
AcDbLine
 10
97.6208108805
 20
0.0
 30
0.0
 11
97.6208108805
 21
-15.8335184443
 31
0.0
  0
LINE
  5
150
330
14A
100
AcDbEntity
  8
0
  6
CONTINUOUS
 62
     0
100
AcDbLine
 10
0.0
 20
0.0
 30
0.0
 11
40.0412497004
 21
0.0
 31
0.0
  0
LINE
  5
151
330
14A
100
AcDbEntity
  8
0
  6
CONTINUOUS
 62
     0
100
AcDbLine
 10
0.0
 20
-15.8335184443
 30
0.0
 11
40.0412497004
 21
-15.8335184443
 31
0.0
  0
LINE
  5
152
330
14A
100
AcDbEntity
  8
0
  6
CONTINUOUS
 62
     0
100
AcDbLine
 10
40.0412497004
 20
0.0
 30
0.0
 11
97.6208108805
 21
0.0
 31
0.0
  0
LINE
  5
153
330
14A
100
AcDbEntity
  8
0
  6
CONTINUOUS
 62
     0
100
AcDbLine
 10
40.0412497004
 20
-15.8335184443
 30
0.0
 11
97.6208108805
 21
-15.8335184443
 31
0.0
  0
MTEXT
  5
154
330
14A
100
AcDbEntity
  8
0
  6
CONTINUOUS
 62
     0
100
AcDbMText
 10
10.0984715338
 20
-4.1418194416
 30
0.0
 40
3.1
 41
0.0
 71
     1
 72
     1
  1
Tナット型式
  7
SLDTEXTSTYLE0
  0
MTEXT
  5
155
330
14A
100
AcDbEntity
  8
0
  6
CONTINUOUS
 62
     0
100
AcDbMText
 10
11.000485387
 20
-8.2418194618
 30
0.0
 40
3.1
 41
0.0
 71
     1
 72
     1
  1
T-NUT TYPE
  7
SLDTEXTSTYLE0
  0
MTEXT
  5
156
330
14A
100
AcDbEntity
  8
0
  6
CONTINUOUS
 62
     0
100
AcDbMText
 10
60.7129046804
 20
-6.1918194517
 30
0.0
 40
3.1
 41
0.0
 71
     1
 72
     1
  1
BR-AJC06M
  7
SLDTEXTSTYLE0
  0
ENDBLK
  5
14C
330
14A
100
AcDbEntity
  8
0
100
AcDbBlockEnd
  0
BLOCK
  5
197
330
196
100
AcDbEntity
  8
0
100
AcDbBlockBegin
  2
_D
 70
     0
 10
0.0
 20
0.0
 30
0.0
  3
_D
  1

  0
INSERT
  5
199
330
196
100
AcDbEntity
  8
0
  6
CONTINUOUS
 62
     7
100
AcDbBlockReference
  2
_OPEN30
 10
242.3300726025
 20
178.0008584452
 30
-14.5
 41
2.0
 42
2.0
 50
180.0
  0
INSERT
  5
19A
330
196
100
AcDbEntity
  8
0
  6
CONTINUOUS
 62
     7
100
AcDbBlockReference
  2
_OPEN30
 10
271.3300726025
 20
178.0008584452
 30
-14.5
 41
2.0
 42
2.0
 50
0.0
  0
LINE
  5
19B
330
196
100
AcDbEntity
  8
0
  6
CONTINUOUS
 62
     7
100
AcDbLine
 10
242.3300726025
 20
148.1800240204
 30
0.0
 11
242.3300726025
 21
179.0008584452
 31
0.0
  0
LINE
  5
19C
330
196
100
AcDbEntity
  8
0
  6
CONTINUOUS
 62
     7
100
AcDbLine
 10
271.3300726025
 20
148.1800240204
 30
0.0
 11
271.3300726025
 21
179.0008584452
 31
0.0
  0
LINE
  5
19D
330
196
100
AcDbEntity
  8
0
  6
CONTINUOUS
 62
     7
100
AcDbLine
 10
242.3300726025
 20
178.0008584452
 30
0.0
 11
271.3300726025
 21
178.0008584452
 31
0.0
  0
MTEXT
  5
19E
330
196
100
AcDbEntity
  8
0
  6
CONTINUOUS
 62
     7
100
AcDbMText
 10
255.4395555754
 20
182.5125953015
 30
0.0
 40
3.5
 41
0.0
 71
     1
 72
     1
  1
29
  7
SLDTEXTSTYLE0
  0
ENDBLK
  5
198
330
196
100
AcDbEntity
  8
0
100
AcDbBlockEnd
  0
BLOCK
  5
1A1
330
1A0
100
AcDbEntity
  8
0
100
AcDbBlockBegin
  2
_D_1
 70
     0
 10
0.0
 20
0.0
 30
0.0
  3
_D_1
  1

  0
INSERT
  5
1A3
330
1A0
100
AcDbEntity
  8
0
  6
CONTINUOUS
 62
     7
100
AcDbBlockReference
  2
_OPEN30
 10
287.3300726025
 20
148.1800240204
 30
-14.5
 41
2.0
 42
2.0
 50
90.0
  0
INSERT
  5
1A4
330
1A0
100
AcDbEntity
  8
0
  6
CONTINUOUS
 62
     7
100
AcDbBlockReference
  2
_OPEN30
 10
287.3300726025
 20
100.6800240204
 30
-14.5
 41
2.0
 42
2.0
 50
270.0
  0
LINE
  5
1A5
330
1A0
100
AcDbEntity
  8
0
  6
CONTINUOUS
 62
     7
100
AcDbLine
 10
271.3300726025
 20
148.1800240204
 30
0.0
 11
288.3300726025
 21
148.1800240204
 31
0.0
  0
LINE
  5
1A6
330
1A0
100
AcDbEntity
  8
0
  6
CONTINUOUS
 62
     7
100
AcDbLine
 10
271.3300726025
 20
100.6800240204
 30
0.0
 11
288.3300726025
 21
100.6800240204
 31
0.0
  0
LINE
  5
1A7
330
1A0
100
AcDbEntity
  8
0
  6
CONTINUOUS
 62
     7
100
AcDbLine
 10
287.3300726025
 20
148.1800240204
 30
0.0
 11
287.3300726025
 21
100.6800240204
 31
0.0
  0
MTEXT
  5
1A8
330
1A0
100
AcDbEntity
  8
0
  6
CONTINUOUS
 62
     7
100
AcDbMText
 10
282.8183357461
 20
119.5765612475
 30
0.0
 40
3.5
 41
0.0
 71
     1
 72
     1
  1
47.5
  7
SLDTEXTSTYLE0
 11
-7.044195017643634E-15
 21
1.0
 31
0.0
  0
ENDBLK
  5
1A2
330
1A0
100
AcDbEntity
  8
0
100
AcDbBlockEnd
  0
BLOCK
  5
1AA
330
1A9
100
AcDbEntity
  8
0
100
AcDbBlockBegin
  2
SW_CENTERMARKSYMBOL_0
 70
     0
 10
0.0
 20
0.0
 30
0.0
  3
SW_CENTERMARKSYMBOL_0
  1

  0
LINE
  5
1AC
330
1A9
100
AcDbEntity
  8
0
  6
CONTINUOUS
 62
     0
100
AcDbLine
 10
0.0
 20
0.0
 30
0.0
 11
0.0
 21
2.0
 31
0.0
  0
LINE
  5
1AD
330
1A9
100
AcDbEntity
  8
0
  6
CONTINUOUS
 62
     0
100
AcDbLine
 10
0.0
 20
0.0
 30
0.0
 11
-2.0
 21
0.0
 31
0.0
  0
LINE
  5
1AE
330
1A9
100
AcDbEntity
  8
0
  6
CONTINUOUS
 62
     0
100
AcDbLine
 10
0.0
 20
0.0
 30
0.0
 11
0.0
 21
-2.0
 31
0.0
  0
LINE
  5
1AF
330
1A9
100
AcDbEntity
  8
0
  6
CONTINUOUS
 62
     0
100
AcDbLine
 10
0.0
 20
0.0
 30
0.0
 11
2.0
 21
0.0
 31
0.0
  0
LINE
  5
1B0
330
1A9
100
AcDbEntity
  8
0
  6
CONTINUOUS
 62
     0
100
AcDbLine
 10
0.0
 20
4.0
 30
0.0
 11
0.0
 21
46.1613879867
 31
0.0
  0
LINE
  5
1B1
330
1A9
100
AcDbEntity
  8
0
  6
CONTINUOUS
 62
     0
100
AcDbLine
 10
-4.0
 20
0.0
 30
0.0
 11
-8.75
 21
0.0
 31
0.0
  0
LINE
  5
1B2
330
1A9
100
AcDbEntity
  8
0
  6
CONTINUOUS
 62
     0
100
AcDbLine
 10
0.0
 20
-4.0
 30
0.0
 11
0.0
 21
-27.1538925781
 31
0.0
  0
LINE
  5
1B3
330
1A9
100
AcDbEntity
  8
0
  6
CONTINUOUS
 62
     0
100
AcDbLine
 10
4.0
 20
0.0
 30
0.0
 11
8.75
 21
0.0
 31
0.0
  0
ENDBLK
  5
1AB
330
1A9
100
AcDbEntity
  8
0
100
AcDbBlockEnd
  0
BLOCK
  5
204
330
203
100
AcDbEntity
  8
0
100
AcDbBlockBegin
  2
_D_2
 70
     0
 10
0.0
 20
0.0
 30
0.0
  3
_D_2
  1

  0
ARC
  5
206
330
203
100
AcDbEntity
  8
0
  6
CONTINUOUS
 62
     7
100
AcDbCircle
 10
177.291411314
 20
86.7168295179
 30
0.0
 40
4.554435549315966
100
AcDbArc
 50
153.4349488229
 51
206.5650511771
  0
ARC
  5
207
330
203
100
AcDbEntity
  8
0
  6
CONTINUOUS
 62
     7
100
AcDbCircle
 10
175.2546060493
 20
86.7168295179
 30
0.0
 40
4.554435549315966
100
AcDbArc
 50
333.4349488229
 51
26.5650511771
  0
INSERT
  5
208
330
203
100
AcDbEntity
  8
0
  6
CONTINUOUS
 62
     7
100
AcDbBlockReference
  2
_OPEN30
 10
161.7884030998
 20
84.6800240204
 30
8.0
 41
2.0
 42
2.0
 50
0.0
  0
INSERT
  5
209
330
203
100
AcDbEntity
  8
0
  6
CONTINUOUS
 62
     7
100
AcDbBlockReference
  2
_OPEN30
 10
166.2884030998
 20
84.6800240204
 30
8.0
 41
2.0
 42
2.0
 50
180.0
  0
LINE
  5
20A
330
203
100
AcDbEntity
  8
0
  6
CONTINUOUS
 62
     7
100
AcDbLine
 10
161.7884030998
 20
114.4300240204
 30
0.0
 11
161.7884030998
 21
83.6800240204
 31
0.0
  0
LINE
  5
20B
330
203
100
AcDbEntity
  8
0
  6
CONTINUOUS
 62
     7
100
AcDbLine
 10
166.2884030998
 20
99.6800240204
 30
0.0
 11
166.2884030998
 21
83.6800240204
 31
0.0
  0
LINE
  5
20C
330
203
100
AcDbEntity
  8
0
  6
CONTINUOUS
 62
     7
100
AcDbLine
 10
161.7884030998
 20
84.6800240204
 30
0.0
 11
158.7884030998
 21
84.6800240204
 31
0.0
  0
LINE
  5
20D
330
203
100
AcDbEntity
  8
0
  6
CONTINUOUS
 62
     7
100
AcDbLine
 10
161.7884030998
 20
84.6800240204
 30
0.0
 11
166.2884030998
 21
84.6800240204
 31
0.0
  0
LINE
  5
20E
330
203
100
AcDbEntity
  8
0
  6
CONTINUOUS
 62
     7
100
AcDbLine
 10
166.2884030998
 20
84.6800240204
 30
0.0
 11
179.8090417183
 21
84.6800240204
 31
0.0
  0
MTEXT
  5
20F
330
203
100
AcDbEntity
  8
0
  6
CONTINUOUS
 62
     7
100
AcDbMText
 10
173.217800319
 20
89.1917608768
 30
0.0
 40
3.5
 41
0.0
 71
     1
 72
     1
  1
4.5
  7
SLDTEXTSTYLE0
  0
ENDBLK
  5
205
330
203
100
AcDbEntity
  8
0
100
AcDbBlockEnd
  0
BLOCK
  5
212
330
211
100
AcDbEntity
  8
0
100
AcDbBlockBegin
  2
_D_3
 70
     0
 10
0.0
 20
0.0
 30
0.0
  3
_D_3
  1

  0
INSERT
  5
214
330
211
100
AcDbEntity
  8
0
  6
CONTINUOUS
 62
     7
100
AcDbBlockReference
  2
_OPEN30
 10
194.2310292391
 20
120.6800240204
 30
8.0
 41
2.0
 42
2.0
 50
90.0
  0
INSERT
  5
215
330
211
100
AcDbEntity
  8
0
  6
CONTINUOUS
 62
     7
100
AcDbBlockReference
  2
_OPEN30
 10
194.2310292391
 20
100.6800240204
 30
8.0
 41
2.0
 42
2.0
 50
270.0
  0
LINE
  5
216
330
211
100
AcDbEntity
  8
0
  6
CONTINUOUS
 62
     7
100
AcDbLine
 10
187.2324856259
 20
120.6800240204
 30
0.0
 11
195.2310292391
 21
120.6800240204
 31
0.0
  0
LINE
  5
217
330
211
100
AcDbEntity
  8
0
  6
CONTINUOUS
 62
     7
100
AcDbLine
 10
182.2884030998
 20
100.6800240204
 30
0.0
 11
195.2310292391
 21
100.6800240204
 31
0.0
  0
LINE
  5
218
330
211
100
AcDbEntity
  8
0
  6
CONTINUOUS
 62
     7
100
AcDbLine
 10
194.2310292391
 20
120.6800240204
 30
0.0
 11
194.2310292391
 21
100.6800240204
 31
0.0
  0
MTEXT
  5
219
330
211
100
AcDbEntity
  8
0
  6
CONTINUOUS
 62
     7
100
AcDbMText
 10
189.7192923827
 20
108.864217983
 30
0.0
 40
3.5
 41
0.0
 71
     1
 72
     1
  1
20
  7
SLDTEXTSTYLE0
 11
-7.044195017643634E-15
 21
1.0
 31
0.0
  0
ENDBLK
  5
213
330
211
100
AcDbEntity
  8
0
100
AcDbBlockEnd
  0
BLOCK
  5
21C
330
21B
100
AcDbEntity
  8
0
100
AcDbBlockBegin
  2
_D_4
 70
     0
 10
0.0
 20
0.0
 30
0.0
  3
_D_4
  1

  0
ARC
  5
21E
330
21B
100
AcDbEntity
  8
0
  6
CONTINUOUS
 62
     7
100
AcDbCircle
 10
146.3068056739
 20
86.7168295179
 30
0.0
 40
4.554435549315978
100
AcDbArc
 50
153.4349488229
 51
206.5650511771
  0
ARC
  5
21F
330
21B
100
AcDbEntity
  8
0
  6
CONTINUOUS
 62
     7
100
AcDbCircle
 10
144.2700004093
 20
86.7168295179
 30
0.0
 40
4.554435549315953
100
AcDbArc
 50
333.4349488229
 51
26.5650511771
  0
INSERT
  5
220
330
21B
100
AcDbEntity
  8
0
  6
CONTINUOUS
 62
     7
100
AcDbBlockReference
  2
_OPEN30
 10
161.7884030998
 20
84.6800240204
 30
8.0
 41
2.0
 42
2.0
 50
0.0
  0
INSERT
  5
221
330
21B
100
AcDbEntity
  8
0
  6
CONTINUOUS
 62
     7
100
AcDbBlockReference
  2
_OPEN30
 10
155.2884030998
 20
84.6800240204
 30
8.0
 41
2.0
 42
2.0
 50
180.0
  0
LINE
  5
222
330
21B
100
AcDbEntity
  8
0
  6
CONTINUOUS
 62
     7
100
AcDbLine
 10
161.7884030998
 20
114.4300240204
 30
0.0
 11
161.7884030998
 21
83.6800240204
 31
0.0
  0
LINE
  5
223
330
21B
100
AcDbEntity
  8
0
  6
CONTINUOUS
 62
     7
100
AcDbLine
 10
155.2884030998
 20
109.6800240204
 30
0.0
 11
155.2884030998
 21
83.6800240204
 31
0.0
  0
LINE
  5
224
330
21B
100
AcDbEntity
  8
0
  6
CONTINUOUS
 62
     7
100
AcDbLine
 10
161.7884030998
 20
84.6800240204
 30
0.0
 11
155.2884030998
 21
84.6800240204
 31
0.0
  0
LINE
  5
225
330
21B
100
AcDbEntity
  8
0
  6
CONTINUOUS
 62
     7
100
AcDbLine
 10
155.2884030998
 20
84.6800240204
 30
0.0
 11
141.7523701214
 21
84.6800240204
 31
0.0
  0
MTEXT
  5
226
330
21B
100
AcDbEntity
  8
0
  6
CONTINUOUS
 62
     7
100
AcDbMText
 10
142.233194679
 20
89.1917608768
 30
0.0
 40
3.5
 41
0.0
 71
     1
 72
     1
  1
6.5
  7
SLDTEXTSTYLE0
  0
ENDBLK
  5
21D
330
21B
100
AcDbEntity
  8
0
100
AcDbBlockEnd
  0
BLOCK
  5
229
330
228
100
AcDbEntity
  8
0
100
AcDbBlockBegin
  2
_D_5
 70
     0
 10
0.0
 20
0.0
 30
0.0
  3
_D_5
  1

  0
INSERT
  5
22B
330
228
100
AcDbEntity
  8
0
  6
CONTINUOUS
 62
     7
100
AcDbBlockReference
  2
_OPEN30
 10
204.2884030998
 20
125.9300240204
 30
8.0
 41
2.0
 42
2.0
 50
90.0
  0
INSERT
  5
22C
330
228
100
AcDbEntity
  8
0
  6
CONTINUOUS
 62
     7
100
AcDbBlockReference
  2
_OPEN30
 10
204.2884030998
 20
115.4300240204
 30
8.0
 41
2.0
 42
2.0
 50
270.0
  0
LINE
  5
22D
330
228
100
AcDbEntity
  8
0
  6
CONTINUOUS
 62
     7
100
AcDbLine
 10
166.9884030998
 20
125.9300240204
 30
0.0
 11
205.2884030998
 21
125.9300240204
 31
0.0
  0
LINE
  5
22E
330
228
100
AcDbEntity
  8
0
  6
CONTINUOUS
 62
     7
100
AcDbLine
 10
167.2884030998
 20
115.4300240204
 30
0.0
 11
205.2884030998
 21
115.4300240204
 31
0.0
  0
LINE
  5
22F
330
228
100
AcDbEntity
  8
0
  6
CONTINUOUS
 62
     7
100
AcDbLine
 10
204.2884030998
 20
125.9300240204
 30
0.0
 11
204.2884030998
 21
139.4102482806
 31
0.0
  0
LINE
  5
230
330
228
100
AcDbEntity
  8
0
  6
CONTINUOUS
 62
     7
100
AcDbLine
 10
204.2884030998
 20
125.9300240204
 30
0.0
 11
204.2884030998
 21
115.4300240204
 31
0.0
  0
MTEXT
  5
231
330
228
100
AcDbEntity
  8
0
  6
CONTINUOUS
 62
     7
100
AcDbMText
 10
199.7766662434
 20
127.3930960084
 30
0.0
 40
3.5
 41
0.0
 71
     1
 72
     1
  1
%%c
  7
SLDTEXTSTYLE0
 11
-7.932373437343760E-15
 21
1.0
 31
0.0
  0
MTEXT
  5
232
330
228
100
AcDbEntity
  8
0
  6
CONTINUOUS
 62
     7
100
AcDbMText
 10
199.7766662434
 20
131.2630265235
 30
0.0
 40
3.5
 41
0.0
 71
     1
 72
     1
  1
10.5
  7
SLDTEXTSTYLE0
 11
-7.932373437343760E-15
 21
1.0
 31
0.0
  0
ENDBLK
  5
22A
330
228
100
AcDbEntity
  8
0
100
AcDbBlockEnd
  0
BLOCK
  5
235
330
234
100
AcDbEntity
  8
0
100
AcDbBlockBegin
  2
_D_6
 70
     0
 10
0.0
 20
0.0
 30
0.0
  3
_D_6
  1

  0
INSERT
  5
237
330
234
100
AcDbEntity
  8
0
  6
CONTINUOUS
 62
     7
100
AcDbBlockReference
  2
_OPEN30
 10
133.9661227352
 20
124.0800240204
 30
8.0
 41
2.0
 42
2.0
 50
90.0
  0
INSERT
  5
238
330
234
100
AcDbEntity
  8
0
  6
CONTINUOUS
 62
     7
100
AcDbBlockReference
  2
_OPEN30
 10
133.9661227352
 20
117.2800240204
 30
8.0
 41
2.0
 42
2.0
 50
270.0
  0
LINE
  5
239
330
234
100
AcDbEntity
  8
0
  6
CONTINUOUS
 62
     7
100
AcDbLine
 10
155.2884030998
 20
124.0800240204
 30
0.0
 11
132.9661227352
 21
124.0800240204
 31
0.0
  0
LINE
  5
23A
330
234
100
AcDbEntity
  8
0
  6
CONTINUOUS
 62
     7
100
AcDbLine
 10
155.2884030998
 20
117.2800240204
 30
0.0
 11
132.9661227352
 21
117.2800240204
 31
0.0
  0
LINE
  5
23B
330
234
100
AcDbEntity
  8
0
  6
CONTINUOUS
 62
     7
100
AcDbLine
 10
133.9661227352
 20
124.0800240204
 30
0.0
 11
133.9661227352
 21
136.2690324317
 31
0.0
  0
LINE
  5
23C
330
234
100
AcDbEntity
  8
0
  6
CONTINUOUS
 62
     7
100
AcDbLine
 10
133.9661227352
 20
124.0800240204
 30
0.0
 11
133.9661227352
 21
117.2800240204
 31
0.0
  0
MTEXT
  5
23D
330
234
100
AcDbEntity
  8
0
  6
CONTINUOUS
 62
     7
100
AcDbMText
 10
129.4543858788
 20
126.2886854242
 30
0.0
 40
3.5
 41
0.0
 71
     1
 72
     1
  1
%%c
  7
SLDTEXTSTYLE0
 11
-6.156016597943509E-15
 21
1.0
 31
0.0
  0
MTEXT
  5
23E
330
234
100
AcDbEntity
  8
0
  6
CONTINUOUS
 62
     7
100
AcDbMText
 10
129.4543858788
 20
130.1586159393
 30
0.0
 40
3.5
 41
0.0
 71
     1
 72
     1
  1
6.8
  7
SLDTEXTSTYLE0
 11
-6.156016597943509E-15
 21
1.0
 31
0.0
  0
ENDBLK
  5
236
330
234
100
AcDbEntity
  8
0
100
AcDbBlockEnd
  0
BLOCK
  5
26D
330
26C
100
AcDbEntity
  8
0
100
AcDbBlockBegin
  2
_D_7
 70
     0
 10
0.0
 20
0.0
 30
0.0
  3
_D_7
  1

  0
INSERT
  5
26F
330
26C
100
AcDbEntity
  8
0
  6
CONTINUOUS
 62
     7
100
AcDbBlockReference
  2
_OPEN30
 10
114.2320656869
 20
130.6800240204
 30
14.5
 41
2.0
 42
2.0
 50
90.0
  0
INSERT
  5
270
330
26C
100
AcDbEntity
  8
0
  6
CONTINUOUS
 62
     7
100
AcDbBlockReference
  2
_OPEN30
 10
114.2320656869
 20
110.6800240204
 30
14.5
 41
2.0
 42
2.0
 50
270.0
  0
LINE
  5
271
330
26C
100
AcDbEntity
  8
0
  6
CONTINUOUS
 62
     7
100
AcDbLine
 10
99.2042551737
 20
130.6800240204
 30
0.0
 11
115.2320656869
 21
130.6800240204
 31
0.0
  0
LINE
  5
272
330
26C
100
AcDbEntity
  8
0
  6
CONTINUOUS
 62
     7
100
AcDbLine
 10
99.2042551737
 20
110.6800240204
 30
0.0
 11
115.2320656869
 21
110.6800240204
 31
0.0
  0
LINE
  5
273
330
26C
100
AcDbEntity
  8
0
  6
CONTINUOUS
 62
     7
100
AcDbLine
 10
114.2320656869
 20
130.6800240204
 30
0.0
 11
114.2320656869
 21
110.6800240204
 31
0.0
  0
MTEXT
  5
274
330
26C
100
AcDbEntity
  8
0
  6
CONTINUOUS
 62
     7
100
AcDbMText
 10
109.7203288305
 20
116.645111937
 30
0.0
 40
3.5
 41
0.0
 71
     1
 72
     1
  1
20
  7
SLDTEXTSTYLE0
 11
-7.044195017643634E-15
 21
1.0
 31
0.0
  0
ENDBLK
  5
26E
330
26C
100
AcDbEntity
  8
0
100
AcDbBlockEnd
  0
BLOCK
  5
277
330
276
100
AcDbEntity
  8
0
100
AcDbBlockBegin
  2
_D_8
 70
     0
 10
0.0
 20
0.0
 30
0.0
  3
_D_8
  1

  0
INSERT
  5
279
330
276
100
AcDbEntity
  8
0
  6
CONTINUOUS
 62
     7
100
AcDbBlockReference
  2
_OPEN30
 10
114.2320656869
 20
110.6800240204
 30
14.5
 41
2.0
 42
2.0
 50
270.0
  0
INSERT
  5
27A
330
276
100
AcDbEntity
  8
0
  6
CONTINUOUS
 62
     7
100
AcDbBlockReference
  2
_OPEN30
 10
114.2320656869
 20
100.6800240204
 30
14.5
 41
2.0
 42
2.0
 50
90.0
  0
LINE
  5
27B
330
276
100
AcDbEntity
  8
0
  6
CONTINUOUS
 62
     7
100
AcDbLine
 10
98.8042551737
 20
110.6800240204
 30
0.0
 11
115.2320656869
 21
110.6800240204
 31
0.0
  0
LINE
  5
27C
330
276
100
AcDbEntity
  8
0
  6
CONTINUOUS
 62
     7
100
AcDbLine
 10
98.2042551737
 20
100.6800240204
 30
0.0
 11
115.2320656869
 21
100.6800240204
 31
0.0
  0
LINE
  5
27D
330
276
100
AcDbEntity
  8
0
  6
CONTINUOUS
 62
     7
100
AcDbLine
 10
114.2320656869
 20
110.6800240204
 30
0.0
 11
114.2320656869
 21
113.6800240204
 31
0.0
  0
LINE
  5
27E
330
276
100
AcDbEntity
  8
0
  6
CONTINUOUS
 62
     7
100
AcDbLine
 10
114.2320656869
 20
110.6800240204
 30
0.0
 11
114.2320656869
 21
100.6800240204
 31
0.0
  0
LINE
  5
27F
330
276
100
AcDbEntity
  8
0
  6
CONTINUOUS
 62
     7
100
AcDbLine
 10
114.2320656869
 20
100.6800240204
 30
0.0
 11
114.2320656869
 21
97.6800240204
 31
0.0
  0
MTEXT
  5
280
330
276
100
AcDbEntity
  8
0
  6
CONTINUOUS
 62
     7
100
AcDbMText
 10
109.7203288305
 20
103.1258555114
 30
0.0
 40
3.5
 41
0.0
 71
     1
 72
     1
  1
10
  7
SLDTEXTSTYLE0
 11
-7.044195017643634E-15
 21
1.0
 31
0.0
  0
ENDBLK
  5
278
330
276
100
AcDbEntity
  8
0
100
AcDbBlockEnd
  0
BLOCK
  5
283
330
282
100
AcDbEntity
  8
0
100
AcDbBlockBegin
  2
_D_9
 70
     0
 10
0.0
 20
0.0
 30
0.0
  3
_D_9
  1

  0
ARC
  5
285
330
282
100
AcDbEntity
  8
0
  6
CONTINUOUS
 62
     7
100
AcDbCircle
 10
112.1952601894
 20
139.2313049121
 30
0.0
 40
4.554435549315978
100
AcDbArc
 50
243.4349488229
 51
296.5650511771
  0
ARC
  5
286
330
282
100
AcDbEntity
  8
0
  6
CONTINUOUS
 62
     7
100
AcDbCircle
 10
112.1952601894
 20
139.2313049121
 30
0.0
 40
4.554435549315953
100
AcDbArc
 50
63.4349488229
 51
116.5650511771
  0
INSERT
  5
287
330
282
100
AcDbEntity
  8
0
  6
CONTINUOUS
 62
     7
100
AcDbBlockReference
  2
_OPEN30
 10
114.2320656869
 20
148.1800240204
 30
14.5
 41
2.0
 42
2.0
 50
90.0
  0
INSERT
  5
288
330
282
100
AcDbEntity
  8
0
  6
CONTINUOUS
 62
     7
100
AcDbBlockReference
  2
_OPEN30
 10
114.2320656869
 20
130.6800240204
 30
14.5
 41
2.0
 42
2.0
 50
270.0
  0
LINE
  5
289
330
282
100
AcDbEntity
  8
0
  6
CONTINUOUS
 62
     7
100
AcDbLine
 10
98.2042551737
 20
148.1800240204
 30
0.0
 11
115.2320656869
 21
148.1800240204
 31
0.0
  0
LINE
  5
28A
330
282
100
AcDbEntity
  8
0
  6
CONTINUOUS
 62
     7
100
AcDbLine
 10
99.2042551737
 20
130.6800240204
 30
0.0
 11
115.2320656869
 21
130.6800240204
 31
0.0
  0
LINE
  5
28B
330
282
100
AcDbEntity
  8
0
  6
CONTINUOUS
 62
     7
100
AcDbLine
 10
114.2320656869
 20
148.1800240204
 30
0.0
 11
114.2320656869
 21
130.6800240204
 31
0.0
  0
MTEXT
  5
28C
330
282
100
AcDbEntity
  8
0
  6
CONTINUOUS
 62
     7
100
AcDbMText
 10
109.7203288305
 20
135.1576939171
 30
0.0
 40
3.5
 41
0.0
 71
     1
 72
     1
  1
17.5
  7
SLDTEXTSTYLE0
 11
-7.044195017643634E-15
 21
1.0
 31
0.0
  0
ENDBLK
  5
284
330
282
100
AcDbEntity
  8
0
100
AcDbBlockEnd
  0
BLOCK
  5
290
330
28F
100
AcDbEntity
  8
0
100
AcDbBlockBegin
  2
_D_10
 70
     0
 10
0.0
 20
0.0
 30
0.0
  3
_D_10
  1

  0
INSERT
  5
292
330
28F
100
AcDbEntity
  8
0
  6
CONTINUOUS
 62
     7
100
AcDbBlockReference
  2
_OPEN30
 10
75.7042551737
 20
84.6800240204
 30
14.5
 41
2.0
 42
2.0
 50
0.0
  0
INSERT
  5
293
330
28F
100
AcDbEntity
  8
0
  6
CONTINUOUS
 62
     7
100
AcDbBlockReference
  2
_OPEN30
 10
91.7042551737
 20
84.6800240204
 30
14.5
 41
2.0
 42
2.0
 50
180.0
  0
LINE
  5
294
330
28F
100
AcDbEntity
  8
0
  6
CONTINUOUS
 62
     7
100
AcDbLine
 10
75.7042551737
 20
109.6800240204
 30
0.0
 11
75.7042551737
 21
83.6800240204
 31
0.0
  0
LINE
  5
295
330
28F
100
AcDbEntity
  8
0
  6
CONTINUOUS
 62
     7
100
AcDbLine
 10
91.7042551737
 20
109.6800240204
 30
0.0
 11
91.7042551737
 21
83.6800240204
 31
0.0
  0
LINE
  5
296
330
28F
100
AcDbEntity
  8
0
  6
CONTINUOUS
 62
     7
100
AcDbLine
 10
75.7042551737
 20
84.6800240204
 30
0.0
 11
72.7042551737
 21
84.6800240204
 31
0.0
  0
LINE
  5
297
330
28F
100
AcDbEntity
  8
0
  6
CONTINUOUS
 62
     7
100
AcDbLine
 10
75.7042551737
 20
84.6800240204
 30
0.0
 11
91.7042551737
 21
84.6800240204
 31
0.0
  0
LINE
  5
298
330
28F
100
AcDbEntity
  8
0
  6
CONTINUOUS
 62
     7
100
AcDbLine
 10
91.7042551737
 20
84.6800240204
 30
0.0
 11
94.7042551737
 21
84.6800240204
 31
0.0
  0
MTEXT
  5
299
330
28F
100
AcDbEntity
  8
0
  6
CONTINUOUS
 62
     7
100
AcDbMText
 10
78.2042276222
 20
89.1917608768
 30
0.0
 40
3.5
 41
0.0
 71
     1
 72
     1
  1
16
  7
SLDTEXTSTYLE0
  0
MTEXT
  5
29A
330
28F
100
AcDbEntity
  8
0
  6
CONTINUOUS
 62
     7
100
AcDbMText
 10
84.3559636172
 20
89.1917608768
 30
0.0
 40
3.5
 41
0.0
 71
     1
 72
     1
  1

  7
SLDTEXTSTYLE0
  0
MTEXT
  5
29B
330
28F
100
AcDbEntity
  8
0
  6
CONTINUOUS
 62
     7
100
AcDbMText
 10
86.3927693475
 20
93.2653718718
 30
0.0
 40
3.5
 41
0.0
 71
     1
 72
     1
  1

  7
SLDTEXTSTYLE0
  0
MTEXT
  5
29C
330
28F
100
AcDbEntity
  8
0
  6
CONTINUOUS
 62
     7
100
AcDbMText
 10
84.3146443475
 20
89.1917608768
 30
0.0
 40
3.5
 41
0.0
 71
     1
 72
     1
  1
h7
  7
SLDTEXTSTYLE0
  0
ENDBLK
  5
291
330
28F
100
AcDbEntity
  8
0
100
AcDbBlockEnd
  0
BLOCK
  5
29E
330
29D
100
AcDbEntity
  8
0
100
AcDbBlockBegin
  2
SW_NOTE_0_5
 70
     0
 10
0.0
 20
0.0
 30
0.0
  3
SW_NOTE_0_5
  1

  0
LINE
  5
2A0
330
29D
100
AcDbEntity
  8
0
  6
CONTINUOUS
 62
     0
100
AcDbLine
 10
3.9554076853
 20
0.0
 30
0.0
 11
0.0
 21
0.0
 31
0.0
  0
MTEXT
  5
2A1
330
29D
100
AcDbEntity
  8
0
  6
CONTINUOUS
 62
     0
100
AcDbMText
 10
0.4508398171
 20
4.440018003
 30
0.0
 40
3.5
 41
0.0
 71
     1
 72
     1
  1
M8
  7
SLDTEXTSTYLE0
  0
ENDBLK
  5
29F
330
29D
100
AcDbEntity
  8
0
100
AcDbBlockEnd
  0
BLOCK
  5
2A5
330
2A4
100
AcDbEntity
  8
0
100
AcDbBlockBegin
  2
SW_CENTERMARKSYMBOL_1
 70
     0
 10
0.0
 20
0.0
 30
0.0
  3
SW_CENTERMARKSYMBOL_1
  1

  0
LINE
  5
2A7
330
2A4
100
AcDbEntity
  8
0
  6
CONTINUOUS
 62
     0
100
AcDbLine
 10
0.0
 20
0.0
 30
0.0
 11
0.0
 21
2.0
 31
0.0
  0
LINE
  5
2A8
330
2A4
100
AcDbEntity
  8
0
  6
CONTINUOUS
 62
     0
100
AcDbLine
 10
0.0
 20
0.0
 30
0.0
 11
-2.0
 21
0.0
 31
0.0
  0
LINE
  5
2A9
330
2A4
100
AcDbEntity
  8
0
  6
CONTINUOUS
 62
     0
100
AcDbLine
 10
0.0
 20
0.0
 30
0.0
 11
0.0
 21
-2.0
 31
0.0
  0
LINE
  5
2AA
330
2A4
100
AcDbEntity
  8
0
  6
CONTINUOUS
 62
     0
100
AcDbLine
 10
0.0
 20
0.0
 30
0.0
 11
2.0
 21
0.0
 31
0.0
  0
LINE
  5
2AB
330
2A4
100
AcDbEntity
  8
0
  6
CONTINUOUS
 62
     0
100
AcDbLine
 10
0.0
 20
4.0
 30
0.0
 11
0.0
 21
30.5106596922
 31
0.0
  0
LINE
  5
2AC
330
2A4
100
AcDbEntity
  8
0
  6
CONTINUOUS
 62
     0
100
AcDbLine
 10
-4.0
 20
0.0
 30
0.0
 11
-6.4
 21
0.0
 31
0.0
  0
LINE
  5
2AD
330
2A4
100
AcDbEntity
  8
0
  6
CONTINUOUS
 62
     0
100
AcDbLine
 10
0.0
 20
-4.0
 30
0.0
 11
0.0
 21
-21.8107684613
 31
0.0
  0
LINE
  5
2AE
330
2A4
100
AcDbEntity
  8
0
  6
CONTINUOUS
 62
     0
100
AcDbLine
 10
4.0
 20
0.0
 30
0.0
 11
6.4
 21
0.0
 31
0.0
  0
ENDBLK
  5
2A6
330
2A4
100
AcDbEntity
  8
0
100
AcDbBlockEnd
  0
BLOCK
  5
2EF
330
2EE
100
AcDbEntity
  8
0
100
AcDbBlockBegin
  2
_D_11
 70
     0
 10
0.0
 20
0.0
 30
0.0
  3
_D_11
  1

  0
INSERT
  5
2F1
330
2EE
100
AcDbEntity
  8
0
  6
CONTINUOUS
 62
     7
100
AcDbBlockReference
  2
_OPEN30
 10
288.8300726025
 20
249.2543934121
 30
-30.0
 41
2.0
 42
2.0
 50
90.0
  0
INSERT
  5
2F2
330
2EE
100
AcDbEntity
  8
0
  6
CONTINUOUS
 62
     7
100
AcDbBlockReference
  2
_OPEN30
 10
288.8300726025
 20
225.2543934121
 30
-30.0
 41
2.0
 42
2.0
 50
270.0
  0
LINE
  5
2F3
330
2EE
100
AcDbEntity
  8
0
  6
CONTINUOUS
 62
     7
100
AcDbLine
 10
271.9300726025
 20
249.2543934121
 30
0.0
 11
289.8300726025
 21
249.2543934121
 31
0.0
  0
LINE
  5
2F4
330
2EE
100
AcDbEntity
  8
0
  6
CONTINUOUS
 62
     7
100
AcDbLine
 10
271.3300726025
 20
225.2543934121
 30
0.0
 11
289.8300726025
 21
225.2543934121
 31
0.0
  0
LINE
  5
2F5
330
2EE
100
AcDbEntity
  8
0
  6
CONTINUOUS
 62
     7
100
AcDbLine
 10
288.8300726025
 20
249.2543934121
 30
0.0
 11
288.8300726025
 21
225.2543934121
 31
0.0
  0
MTEXT
  5
2F6
330
2EE
100
AcDbEntity
  8
0
  6
CONTINUOUS
 62
     7
100
AcDbMText
 10
284.3183357461
 20
234.7721002862
 30
0.0
 40
3.5
 41
0.0
 71
     1
 72
     1
  1
24
  7
SLDTEXTSTYLE0
 11
-7.044195017643634E-15
 21
1.0
 31
0.0
  0
ENDBLK
  5
2F0
330
2EE
100
AcDbEntity
  8
0
100
AcDbBlockEnd
  0
BLOCK
  5
2F9
330
2F8
100
AcDbEntity
  8
0
100
AcDbBlockBegin
  2
_D_12
 70
     0
 10
0.0
 20
0.0
 30
0.0
  3
_D_12
  1

  0
INSERT
  5
2FB
330
2F8
100
AcDbEntity
  8
0
  6
CONTINUOUS
 62
     7
100
AcDbBlockReference
  2
_OPEN30
 10
299.3300726025
 20
252.2543934121
 30
-30.0
 41
2.0
 42
2.0
 50
90.0
  0
INSERT
  5
2FC
330
2F8
100
AcDbEntity
  8
0
  6
CONTINUOUS
 62
     7
100
AcDbBlockReference
  2
_OPEN30
 10
299.3300726025
 20
225.2543934121
 30
-30.0
 41
2.0
 42
2.0
 50
270.0
  0
LINE
  5
2FD
330
2F8
100
AcDbEntity
  8
0
  6
CONTINUOUS
 62
     7
100
AcDbLine
 10
265.4300726025
 20
252.2543934121
 30
0.0
 11
300.3300726025
 21
252.2543934121
 31
0.0
  0
LINE
  5
2FE
330
2F8
100
AcDbEntity
  8
0
  6
CONTINUOUS
 62
     7
100
AcDbLine
 10
271.3300726025
 20
225.2543934121
 30
0.0
 11
300.3300726025
 21
225.2543934121
 31
0.0
  0
LINE
  5
2FF
330
2F8
100
AcDbEntity
  8
0
  6
CONTINUOUS
 62
     7
100
AcDbLine
 10
299.3300726025
 20
252.2543934121
 30
0.0
 11
299.3300726025
 21
225.2543934121
 31
0.0
  0
MTEXT
  5
300
330
2F8
100
AcDbEntity
  8
0
  6
CONTINUOUS
 62
     7
100
AcDbMText
 10
294.8183357461
 20
234.7721002862
 30
0.0
 40
3.5
 41
0.0
 71
     1
 72
     1
  1
27
  7
SLDTEXTSTYLE0
 11
-7.044195017643634E-15
 21
1.0
 31
0.0
  0
ENDBLK
  5
2FA
330
2F8
100
AcDbEntity
  8
0
100
AcDbBlockEnd
  0
BLOCK
  5
304
330
303
100
AcDbEntity
  8
0
100
AcDbBlockBegin
  2
_D_13
 70
     0
 10
0.0
 20
0.0
 30
0.0
  3
_D_13
  1

  0
INSERT
  5
306
330
303
100
AcDbEntity
  8
0
  6
CONTINUOUS
 62
     7
100
AcDbBlockReference
  2
_OPEN30
 10
282.5758958582
 20
249.2543934121
 30
-30.0
 41
2.0
 42
2.0
 50
270.0
  0
INSERT
  5
307
330
303
100
AcDbEntity
  8
0
  6
CONTINUOUS
 62
     7
100
AcDbBlockReference
  2
_OPEN30
 10
282.5758958582
 20
248.7543934121
 30
-30.0
 41
2.0
 42
2.0
 50
90.0
  0
LINE
  5
308
330
303
100
AcDbEntity
  8
0
  6
CONTINUOUS
 62
     7
100
AcDbLine
 10
271.9300726025
 20
249.2543934121
 30
0.0
 11
283.5758958582
 21
249.2543934121
 31
0.0
  0
LINE
  5
309
330
303
100
AcDbEntity
  8
0
  6
CONTINUOUS
 62
     7
100
AcDbLine
 10
272.3300726025
 20
248.7543934121
 30
0.0
 11
283.5758958582
 21
248.7543934121
 31
0.0
  0
LINE
  5
30A
330
303
100
AcDbEntity
  8
0
  6
CONTINUOUS
 62
     7
100
AcDbLine
 10
282.5758958582
 20
249.2543934121
 30
0.0
 11
282.5758958582
 21
261.7210589136
 31
0.0
  0
LINE
  5
30B
330
303
100
AcDbEntity
  8
0
  6
CONTINUOUS
 62
     7
100
AcDbLine
 10
282.5758958582
 20
249.2543934121
 30
0.0
 11
282.5758958582
 21
248.7543934121
 31
0.0
  0
LINE
  5
30C
330
303
100
AcDbEntity
  8
0
  6
CONTINUOUS
 62
     7
100
AcDbLine
 10
282.5758958582
 20
248.7543934121
 30
0.0
 11
282.5758958582
 21
245.7543934121
 31
0.0
  0
MTEXT
  5
30D
330
303
100
AcDbEntity
  8
0
  6
CONTINUOUS
 62
     7
100
AcDbMText
 10
278.0641590018
 20
255.6106421884
 30
0.0
 40
3.5
 41
0.0
 71
     1
 72
     1
  1
0.5
  7
SLDTEXTSTYLE0
 11
-7.044195017643634E-15
 21
1.0
 31
0.0
  0
ENDBLK
  5
305
330
303
100
AcDbEntity
  8
0
100
AcDbBlockEnd
  0
BLOCK
  5
318
330
317
100
AcDbEntity
  8
0
100
AcDbBlockBegin
  2
_NONE
 70
     0
 10
0.0
 20
0.0
 30
0.0
  3
_NONE
  1

  0
ENDBLK
  5
319
330
317
100
AcDbEntity
  8
0
100
AcDbBlockEnd
  0
BLOCK
  5
346
330
345
100
AcDbEntity
  8
0
100
AcDbBlockBegin
  2
_D_14
 70
     0
 10
0.0
 20
0.0
 30
0.0
  3
_D_14
  1

  0
INSERT
  5
348
330
345
100
AcDbEntity
  8
0
  6
CONTINUOUS
 62
     7
100
AcDbBlockReference
  2
_OPEN30
 10
365.3786967611
 20
148.1787635053
 30
-7.6359336457
 41
2.0
 42
2.0
 50
90.0
  0
INSERT
  5
349
330
345
100
AcDbEntity
  8
0
  6
CONTINUOUS
 62
     7
100
AcDbBlockReference
  2
_OPEN30
 10
365.3786967611
 20
130.6787635053
 30
-7.6359336457
 41
2.0
 42
2.0
 50
270.0
  0
LINE
  5
34A
330
345
100
AcDbEntity
  8
0
  6
CONTINUOUS
 62
     7
100
AcDbLine
 10
349.0906816109
 20
148.1787635053
 30
0.0
 11
366.3786967611
 21
148.1787635053
 31
0.0
  0
LINE
  5
34B
330
345
100
AcDbEntity
  8
0
  6
CONTINUOUS
 62
     7
100
AcDbLine
 10
350.6844070043
 20
130.6787635053
 30
0.0
 11
366.3786967611
 21
130.6787635053
 31
0.0
  0
LINE
  5
34C
330
345
100
AcDbEntity
  8
0
  6
CONTINUOUS
 62
     7
100
AcDbLine
 10
365.3786967611
 20
148.1787635053
 30
0.0
 11
365.3786967611
 21
130.6787635053
 31
0.0
  0
MTEXT
  5
34D
330
345
100
AcDbEntity
  8
0
  6
CONTINUOUS
 62
     7
100
AcDbMText
 10
360.8669599047
 20
135.240263916
 30
0.0
 40
3.5
 41
0.0
 71
     1
 72
     1
  1
17.5
  7
SLDTEXTSTYLE0
 11
-7.044195017643634E-15
 21
1.0
 31
0.0
  0
ENDBLK
  5
347
330
345
100
AcDbEntity
  8
0
100
AcDbBlockEnd
  0
BLOCK
  5
351
330
350
100
AcDbEntity
  8
0
100
AcDbBlockBegin
  2
_D_15
 70
     0
 10
0.0
 20
0.0
 30
0.0
  3
_D_15
  1

  0
INSERT
  5
353
330
350
100
AcDbEntity
  8
0
  6
CONTINUOUS
 62
     7
100
AcDbBlockReference
  2
_OPEN30
 10
346.4995724656
 20
126.2569008087
 30
-7.6359336457
 41
2.0
 42
2.0
 50
150.0
  0
LINE
  5
354
330
350
100
AcDbEntity
  8
0
  6
CONTINUOUS
 62
     7
100
AcDbLine
 10
346.4995724656
 20
126.2569008087
 30
0.0
 11
356.8618739476
 21
120.2742232586
 31
0.0
  0
LINE
  5
355
330
350
100
AcDbEntity
  8
0
  6
CONTINUOUS
 62
     7
100
AcDbLine
 10
346.4995724656
 20
126.2569008087
 30
0.0
 11
338.8406816109
 21
130.6787635053
 31
0.0
  0
MTEXT
  5
356
330
350
100
AcDbEntity
  8
0
  6
CONTINUOUS
 62
     7
100
AcDbMText
 10
357.3485211604
 20
125.1907319514
 30
0.0
 40
3.5
 41
0.0
 71
     1
 72
     1
  1
R
  7
SLDTEXTSTYLE0
 11
0.8660254037844446
 21
-0.4999999999999897
 31
0.0
  0
ENDBLK
  5
352
330
350
100
AcDbEntity
  8
0
100
AcDbBlockEnd
  0
BLOCK
  5
359
330
358
100
AcDbEntity
  8
0
100
AcDbBlockBegin
  2
SW_CENTERMARKSYMBOL_2
 70
     0
 10
0.0
 20
0.0
 30
0.0
  3
SW_CENTERMARKSYMBOL_2
  1

  0
LINE
  5
35B
330
358
100
AcDbEntity
  8
0
  6
CONTINUOUS
 62
     0
100
AcDbLine
 10
0.0
 20
0.0
 30
0.0
 11
0.0
 21
2.0
 31
0.0
  0
LINE
  5
35C
330
358
100
AcDbEntity
  8
0
  6
CONTINUOUS
 62
     0
100
AcDbLine
 10
0.0
 20
0.0
 30
0.0
 11
-2.0
 21
0.0
 31
0.0
  0
LINE
  5
35D
330
358
100
AcDbEntity
  8
0
  6
CONTINUOUS
 62
     0
100
AcDbLine
 10
0.0
 20
0.0
 30
0.0
 11
0.0
 21
-2.0
 31
0.0
  0
LINE
  5
35E
330
358
100
AcDbEntity
  8
0
  6
CONTINUOUS
 62
     0
100
AcDbLine
 10
0.0
 20
0.0
 30
0.0
 11
2.0
 21
0.0
 31
0.0
  0
LINE
  5
35F
330
358
100
AcDbEntity
  8
0
  6
CONTINUOUS
 62
     0
100
AcDbLine
 10
0.0
 20
4.0
 30
0.0
 11
0.0
 21
7.25
 31
0.0
  0
LINE
  5
360
330
358
100
AcDbEntity
  8
0
  6
CONTINUOUS
 62
     0
100
AcDbLine
 10
-4.0
 20
0.0
 30
0.0
 11
-7.25
 21
0.0
 31
0.0
  0
LINE
  5
361
330
358
100
AcDbEntity
  8
0
  6
CONTINUOUS
 62
     0
100
AcDbLine
 10
0.0
 20
-4.0
 30
0.0
 11
0.0
 21
-26.3357648543
 31
0.0
  0
LINE
  5
362
330
358
100
AcDbEntity
  8
0
  6
CONTINUOUS
 62
     0
100
AcDbLine
 10
4.0
 20
0.0
 30
0.0
 11
7.25
 21
0.0
 31
0.0
  0
ENDBLK
  5
35A
330
358
100
AcDbEntity
  8
0
100
AcDbBlockEnd
  0
BLOCK
  5
365
330
364
100
AcDbEntity
  8
0
100
AcDbBlockBegin
  2
SW_CENTERMARKSYMBOL_3
 70
     0
 10
0.0
 20
0.0
 30
0.0
  3
SW_CENTERMARKSYMBOL_3
  1

  0
LINE
  5
367
330
364
100
AcDbEntity
  8
0
  6
CONTINUOUS
 62
     0
100
AcDbLine
 10
0.0
 20
0.0
 30
0.0
 11
0.0
 21
2.0
 31
0.0
  0
LINE
  5
368
330
364
100
AcDbEntity
  8
0
  6
CONTINUOUS
 62
     0
100
AcDbLine
 10
0.0
 20
0.0
 30
0.0
 11
-2.0
 21
0.0
 31
0.0
  0
LINE
  5
369
330
364
100
AcDbEntity
  8
0
  6
CONTINUOUS
 62
     0
100
AcDbLine
 10
0.0
 20
0.0
 30
0.0
 11
0.0
 21
-2.0
 31
0.0
  0
LINE
  5
36A
330
364
100
AcDbEntity
  8
0
  6
CONTINUOUS
 62
     0
100
AcDbLine
 10
0.0
 20
0.0
 30
0.0
 11
2.0
 21
0.0
 31
0.0
  0
LINE
  5
36B
330
364
100
AcDbEntity
  8
0
  6
CONTINUOUS
 62
     0
100
AcDbLine
 10
0.0
 20
4.0
 30
0.0
 11
0.0
 21
24.0491573322
 31
0.0
  0
LINE
  5
36C
330
364
100
AcDbEntity
  8
0
  6
CONTINUOUS
 62
     0
100
AcDbLine
 10
-4.0
 20
0.0
 30
0.0
 11
-10.8437253933
 21
0.0
 31
0.0
  0
LINE
  5
36D
330
364
100
AcDbEntity
  8
0
  6
CONTINUOUS
 62
     0
100
AcDbLine
 10
0.0
 20
-4.0
 30
0.0
 11
0.0
 21
-10.8437253933
 31
0.0
  0
LINE
  5
36E
330
364
100
AcDbEntity
  8
0
  6
CONTINUOUS
 62
     0
100
AcDbLine
 10
4.0
 20
0.0
 30
0.0
 11
10.8437253933
 21
0.0
 31
0.0
  0
ENDBLK
  5
366
330
364
100
AcDbEntity
  8
0
100
AcDbBlockEnd
  0
BLOCK
  5
39D
330
39C
100
AcDbEntity
  8
0
100
AcDbBlockBegin
  2
_D_16
 70
     0
 10
0.0
 20
0.0
 30
0.0
  3
_D_16
  1

  0
INSERT
  5
39F
330
39C
100
AcDbEntity
  8
0
  6
CONTINUOUS
 62
     7
100
AcDbBlockReference
  2
_OPEN30
 10
114.3182058424
 20
216.7569200108
 30
-60.0
 41
2.0
 42
2.0
 50
180.0
  0
INSERT
  5
3A0
330
39C
100
AcDbEntity
  8
0
  6
CONTINUOUS
 62
     7
100
AcDbBlockReference
  2
_OPEN30
 10
140.3182058424
 20
216.7569200108
 30
-60.0
 41
2.0
 42
2.0
 50
0.0
  0
LINE
  5
3A1
330
39C
100
AcDbEntity
  8
0
  6
CONTINUOUS
 62
     7
100
AcDbLine
 10
114.3182058424
 20
229.4338489231
 30
0.0
 11
114.3182058424
 21
215.7569200108
 31
0.0
  0
LINE
  5
3A2
330
39C
100
AcDbEntity
  8
0
  6
CONTINUOUS
 62
     7
100
AcDbLine
 10
140.3182058424
 20
229.4338489231
 30
0.0
 11
140.3182058424
 21
215.7569200108
 31
0.0
  0
LINE
  5
3A3
330
39C
100
AcDbEntity
  8
0
  6
CONTINUOUS
 62
     7
100
AcDbLine
 10
114.3182058424
 20
216.7569200108
 30
0.0
 11
140.3182058424
 21
216.7569200108
 31
0.0
  0
MTEXT
  5
3A4
330
39C
100
AcDbEntity
  8
0
  6
CONTINUOUS
 62
     7
100
AcDbMText
 10
120.214739911
 20
221.2686568672
 30
0.0
 40
3.5
 41
0.0
 71
     1
 72
     1
  1
13
  7
SLDTEXTSTYLE0
  0
MTEXT
  5
3A5
330
39C
100
AcDbEntity
  8
0
  6
CONTINUOUS
 62
     7
100
AcDbMText
 10
126.3664759059
 20
221.2686568672
 30
0.0
 40
3.5
 41
0.0
 71
     1
 72
     1
  1

  7
SLDTEXTSTYLE0
  0
MTEXT
  5
3A6
330
39C
100
AcDbEntity
  8
0
  6
CONTINUOUS
 62
     7
100
AcDbMText
 10
127.9876566362
 20
223.7399202946
 30
0.0
 40
2.8
 41
0.0
 71
     1
 72
     1
  1

  7
SLDTEXTSTYLE0
  0
MTEXT
  5
3A7
330
39C
100
AcDbEntity
  8
0
  6
CONTINUOUS
 62
     7
100
AcDbMText
 10
126.3251566362
 20
220.4810314521
 30
0.0
 40
2.8
 41
0.0
 71
     1
 72
     1
  1
-
  7
SLDTEXTSTYLE0
  0
MTEXT
  5
3A8
330
39C
100
AcDbEntity
  8
0
  6
CONTINUOUS
 62
     7
100
AcDbMText
 10
127.9546009411
 20
223.7399202946
 30
0.0
 40
2.8
 41
0.0
 71
     1
 72
     1
  1
0
  7
SLDTEXTSTYLE0
  0
MTEXT
  5
3A9
330
39C
100
AcDbEntity
  8
0
  6
CONTINUOUS
 62
     7
100
AcDbMText
 10
127.9546009411
 20
220.4810314521
 30
0.0
 40
2.8
 41
0.0
 71
     1
 72
     1
  1
0.1
  7
SLDTEXTSTYLE0
  0
ENDBLK
  5
39E
330
39C
100
AcDbEntity
  8
0
100
AcDbBlockEnd
  0
BLOCK
  5
3AD
330
3AC
100
AcDbEntity
  8
0
100
AcDbBlockBegin
  2
_D_17
 70
     0
 10
0.0
 20
0.0
 30
0.0
  3
_D_17
  1

  0
INSERT
  5
3AF
330
3AC
100
AcDbEntity
  8
0
  6
CONTINUOUS
 62
     7
100
AcDbBlockReference
  2
_OPEN30
 10
178.3182058424
 20
245.6338489231
 30
-60.0
 41
2.0
 42
2.0
 50
270.0
  0
INSERT
  5
3B0
330
3AC
100
AcDbEntity
  8
0
  6
CONTINUOUS
 62
     7
100
AcDbBlockReference
  2
_OPEN30
 10
178.3182058424
 20
229.6338489231
 30
-60.0
 41
2.0
 42
2.0
 50
90.0
  0
LINE
  5
3B1
330
3AC
100
AcDbEntity
  8
0
  6
CONTINUOUS
 62
     7
100
AcDbLine
 10
144.4182058424
 20
245.6338489231
 30
0.0
 11
179.3182058424
 21
245.6338489231
 31
0.0
  0
LINE
  5
3B2
330
3AC
100
AcDbEntity
  8
0
  6
CONTINUOUS
 62
     7
100
AcDbLine
 10
155.3182058424
 20
229.6338489231
 30
0.0
 11
179.3182058424
 21
229.6338489231
 31
0.0
  0
LINE
  5
3B3
330
3AC
100
AcDbEntity
  8
0
  6
CONTINUOUS
 62
     7
100
AcDbLine
 10
178.3182058424
 20
245.6338489231
 30
0.0
 11
178.3182058424
 21
248.6338489231
 31
0.0
  0
LINE
  5
3B4
330
3AC
100
AcDbEntity
  8
0
  6
CONTINUOUS
 62
     7
100
AcDbLine
 10
178.3182058424
 20
245.6338489231
 30
0.0
 11
178.3182058424
 21
229.6338489231
 31
0.0
  0
LINE
  5
3B5
330
3AC
100
AcDbEntity
  8
0
  6
CONTINUOUS
 62
     7
100
AcDbLine
 10
178.3182058424
 20
229.6338489231
 30
0.0
 11
178.3182058424
 21
226.6338489231
 31
0.0
  0
MTEXT
  5
3B6
330
3AC
100
AcDbEntity
  8
0
  6
CONTINUOUS
 62
     7
100
AcDbMText
 10
173.806468986
 20
231.6156895919
 30
0.0
 40
3.5
 41
0.0
 71
     1
 72
     1
  1
8
  7
SLDTEXTSTYLE0
 11
-7.044195017643634E-15
 21
1.0
 31
0.0
  0
MTEXT
  5
3B7
330
3AC
100
AcDbEntity
  8
0
  6
CONTINUOUS
 62
     7
100
AcDbMText
 10
173.806468986
 20
235.7306200894
 30
0.0
 40
3.5
 41
0.0
 71
     1
 72
     1
  1

  7
SLDTEXTSTYLE0
 11
-7.044195017643634E-15
 21
1.0
 31
0.0
  0
MTEXT
  5
3B8
330
3AC
100
AcDbEntity
  8
0
  6
CONTINUOUS
 62
     7
100
AcDbMText
 10
174.5940941683
 20
235.6893005868
 30
0.0
 40
2.8
 41
0.0
 71
     1
 72
     1
  1
±0.1
  7
SLDTEXTSTYLE0
 11
-7.044195017643634E-15
 21
1.0
 31
0.0
  0
ENDBLK
  5
3AE
330
3AC
100
AcDbEntity
  8
0
100
AcDbBlockEnd
  0
BLOCK
  5
3BB
330
3BA
100
AcDbEntity
  8
0
100
AcDbBlockBegin
  2
_D_18
 70
     0
 10
0.0
 20
0.0
 30
0.0
  3
_D_18
  1

  0
INSERT
  5
3BD
330
3BA
100
AcDbEntity
  8
0
  6
CONTINUOUS
 62
     7
100
AcDbBlockReference
  2
_OPEN30
 10
178.3182058424
 20
261.6338489231
 30
-60.0
 41
2.0
 42
2.0
 50
270.0
  0
INSERT
  5
3BE
330
3BA
100
AcDbEntity
  8
0
  6
CONTINUOUS
 62
     7
100
AcDbBlockReference
  2
_OPEN30
 10
178.3182058424
 20
245.6338489231
 30
-60.0
 41
2.0
 42
2.0
 50
90.0
  0
LINE
  5
3BF
330
3BA
100
AcDbEntity
  8
0
  6
CONTINUOUS
 62
     7
100
AcDbLine
 10
144.4182058424
 20
261.6338489231
 30
0.0
 11
179.3182058424
 21
261.6338489231
 31
0.0
  0
LINE
  5
3C0
330
3BA
100
AcDbEntity
  8
0
  6
CONTINUOUS
 62
     7
100
AcDbLine
 10
144.4182058424
 20
245.6338489231
 30
0.0
 11
179.3182058424
 21
245.6338489231
 31
0.0
  0
LINE
  5
3C1
330
3BA
100
AcDbEntity
  8
0
  6
CONTINUOUS
 62
     7
100
AcDbLine
 10
178.3182058424
 20
261.6338489231
 30
0.0
 11
178.3182058424
 21
264.6338489231
 31
0.0
  0
LINE
  5
3C2
330
3BA
100
AcDbEntity
  8
0
  6
CONTINUOUS
 62
     7
100
AcDbLine
 10
178.3182058424
 20
261.6338489231
 30
0.0
 11
178.3182058424
 21
245.6338489231
 31
0.0
  0
LINE
  5
3C3
330
3BA
100
AcDbEntity
  8
0
  6
CONTINUOUS
 62
     7
100
AcDbLine
 10
178.3182058424
 20
245.6338489231
 30
0.0
 11
178.3182058424
 21
242.6338489231
 31
0.0
  0
MTEXT
  5
3C4
330
3BA
100
AcDbEntity
  8
0
  6
CONTINUOUS
 62
     7
100
AcDbMText
 10
173.806468986
 20
246.9758361195
 30
0.0
 40
3.5
 41
0.0
 71
     1
 72
     1
  1
8
  7
SLDTEXTSTYLE0
 11
-7.044195017643634E-15
 21
1.0
 31
0.0
  0
MTEXT
  5
3C5
330
3BA
100
AcDbEntity
  8
0
  6
CONTINUOUS
 62
     7
100
AcDbMText
 10
173.806468986
 20
251.090766617
 30
0.0
 40
3.5
 41
0.0
 71
     1
 72
     1
  1

  7
SLDTEXTSTYLE0
 11
-7.044195017643634E-15
 21
1.0
 31
0.0
  0
MTEXT
  5
3C6
330
3BA
100
AcDbEntity
  8
0
  6
CONTINUOUS
 62
     7
100
AcDbMText
 10
174.5940941683
 20
251.0494471145
 30
0.0
 40
2.8
 41
0.0
 71
     1
 72
     1
  1
±0.1
  7
SLDTEXTSTYLE0
 11
-7.044195017643634E-15
 21
1.0
 31
0.0
  0
ENDBLK
  5
3BC
330
3BA
100
AcDbEntity
  8
0
100
AcDbBlockEnd
  0
BLOCK
  5
3CA
330
3C9
100
AcDbEntity
  8
0
100
AcDbBlockBegin
  2
_D_19
 70
     0
 10
0.0
 20
0.0
 30
0.0
  3
_D_19
  1

  0
INSERT
  5
3CC
330
3C9
100
AcDbEntity
  8
0
  6
CONTINUOUS
 62
     7
100
AcDbBlockReference
  2
_OPEN30
 10
178.3182058424
 20
262.2338489231
 30
-60.0
 41
2.0
 42
2.0
 50
270.0
  0
INSERT
  5
3CD
330
3C9
100
AcDbEntity
  8
0
  6
CONTINUOUS
 62
     7
100
AcDbBlockReference
  2
_OPEN30
 10
178.3182058424
 20
261.6338489231
 30
-60.0
 41
2.0
 42
2.0
 50
90.0
  0
LINE
  5
3CE
330
3C9
100
AcDbEntity
  8
0
  6
CONTINUOUS
 62
     7
100
AcDbLine
 10
144.4182058424
 20
262.2338489231
 30
0.0
 11
179.3182058424
 21
262.2338489231
 31
0.0
  0
LINE
  5
3CF
330
3C9
100
AcDbEntity
  8
0
  6
CONTINUOUS
 62
     7
100
AcDbLine
 10
144.4182058424
 20
261.6338489231
 30
0.0
 11
179.3182058424
 21
261.6338489231
 31
0.0
  0
LINE
  5
3D0
330
3C9
100
AcDbEntity
  8
0
  6
CONTINUOUS
 62
     7
100
AcDbLine
 10
178.3182058424
 20
262.2338489231
 30
0.0
 11
178.3182058424
 21
274.0189059645
 31
0.0
  0
LINE
  5
3D1
330
3C9
100
AcDbEntity
  8
0
  6
CONTINUOUS
 62
     7
100
AcDbLine
 10
178.3182058424
 20
262.2338489231
 30
0.0
 11
178.3182058424
 21
261.6338489231
 31
0.0
  0
LINE
  5
3D2
330
3C9
100
AcDbEntity
  8
0
  6
CONTINUOUS
 62
     7
100
AcDbLine
 10
178.3182058424
 20
261.6338489231
 30
0.0
 11
178.3182058424
 21
258.6338489231
 31
0.0
  0
MTEXT
  5
3D3
330
3C9
100
AcDbEntity
  8
0
  6
CONTINUOUS
 62
     7
100
AcDbMText
 10
173.806468986
 20
267.9084892392
 30
0.0
 40
3.5
 41
0.0
 71
     1
 72
     1
  1
0.3
  7
SLDTEXTSTYLE0
 11
-7.044195017643634E-15
 21
1.0
 31
0.0
  0
ENDBLK
  5
3CB
330
3C9
100
AcDbEntity
  8
0
100
AcDbBlockEnd
  0
BLOCK
  5
3D7
330
3D6
100
AcDbEntity
  8
0
100
AcDbBlockBegin
  2
_D_20
 70
     0
 10
0.0
 20
0.0
 30
0.0
  3
_D_20
  1

  0
INSERT
  5
3D9
330
3D6
100
AcDbEntity
  8
0
  6
CONTINUOUS
 62
     7
100
AcDbBlockReference
  2
_OPEN30
 10
108.8182058424
 20
201.6338489231
 30
-60.0
 41
2.0
 42
2.0
 50
180.0
  0
INSERT
  5
3DA
330
3D6
100
AcDbEntity
  8
0
  6
CONTINUOUS
 62
     7
100
AcDbBlockReference
  2
_OPEN30
 10
145.8182058424
 20
201.6338489231
 30
-60.0
 41
2.0
 42
2.0
 50
0.0
  0
LINE
  5
3DB
330
3D6
100
AcDbEntity
  8
0
  6
CONTINUOUS
 62
     7
100
AcDbLine
 10
108.8182058424
 20
247.0338489231
 30
0.0
 11
108.8182058424
 21
200.6338489231
 31
0.0
  0
LINE
  5
3DC
330
3D6
100
AcDbEntity
  8
0
  6
CONTINUOUS
 62
     7
100
AcDbLine
 10
145.8182058424
 20
247.0338489231
 30
0.0
 11
145.8182058424
 21
200.6338489231
 31
0.0
  0
LINE
  5
3DD
330
3D6
100
AcDbEntity
  8
0
  6
CONTINUOUS
 62
     7
100
AcDbLine
 10
108.8182058424
 20
201.6338489231
 30
0.0
 11
145.8182058424
 21
201.6338489231
 31
0.0
  0
MTEXT
  5
3DE
330
3D6
100
AcDbEntity
  8
0
  6
CONTINUOUS
 62
     7
100
AcDbMText
 10
118.177933715
 20
206.1455857795
 30
0.0
 40
3.5
 41
0.0
 71
     1
 72
     1
  1
18.5
  7
SLDTEXTSTYLE0
  0
MTEXT
  5
3DF
330
3D6
100
AcDbEntity
  8
0
  6
CONTINUOUS
 62
     7
100
AcDbMText
 10
128.4032807049
 20
206.1455857795
 30
0.0
 40
3.5
 41
0.0
 71
     1
 72
     1
  1

  7
SLDTEXTSTYLE0
  0
MTEXT
  5
3E0
330
3D6
100
AcDbEntity
  8
0
  6
CONTINUOUS
 62
     7
100
AcDbMText
 10
128.3619609696
 20
208.6168492069
 30
0.0
 40
2.8
 41
0.0
 71
     1
 72
     1
  1
+
  7
SLDTEXTSTYLE0
  0
MTEXT
  5
3E1
330
3D6
100
AcDbEntity
  8
0
  6
CONTINUOUS
 62
     7
100
AcDbMText
 10
130.0244609696
 20
205.3579603644
 30
0.0
 40
2.8
 41
0.0
 71
     1
 72
     1
  1

  7
SLDTEXTSTYLE0
  0
MTEXT
  5
3E2
330
3D6
100
AcDbEntity
  8
0
  6
CONTINUOUS
 62
     7
100
AcDbMText
 10
129.9914057401
 20
208.6168492069
 30
0.0
 40
2.8
 41
0.0
 71
     1
 72
     1
  1
0.2
  7
SLDTEXTSTYLE0
  0
MTEXT
  5
3E3
330
3D6
100
AcDbEntity
  8
0
  6
CONTINUOUS
 62
     7
100
AcDbMText
 10
129.9914057401
 20
205.3579603644
 30
0.0
 40
2.8
 41
0.0
 71
     1
 72
     1
  1
0
  7
SLDTEXTSTYLE0
  0
ENDBLK
  5
3D8
330
3D6
100
AcDbEntity
  8
0
100
AcDbBlockEnd
  0
BLOCK
  5
3F5
330
3F4
100
AcDbEntity
  8
0
100
AcDbBlockBegin
  2
_D_21
 70
     0
 10
0.0
 20
0.0
 30
0.0
  3
_D_21
  1

  0
INSERT
  5
3F7
330
3F4
100
AcDbEntity
  8
0
  6
CONTINUOUS
 62
     7
100
AcDbBlockReference
  2
_OPEN30
 10
333.7936038022
 20
260.1413677699
 30
-150.0
 41
2.0
 42
2.0
 50
180.0
  0
INSERT
  5
3F8
330
3F4
100
AcDbEntity
  8
0
  6
CONTINUOUS
 62
     7
100
AcDbBlockReference
  2
_OPEN30
 10
348.7936038022
 20
260.1413677699
 30
-150.0
 41
2.0
 42
2.0
 50
0.0
  0
LINE
  5
3F9
330
3F4
100
AcDbEntity
  8
0
  6
CONTINUOUS
 62
     7
100
AcDbLine
 10
333.7936038022
 20
249.1413677699
 30
0.0
 11
333.7936038022
 21
261.1413677699
 31
0.0
  0
LINE
  5
3FA
330
3F4
100
AcDbEntity
  8
0
  6
CONTINUOUS
 62
     7
100
AcDbLine
 10
348.7936038022
 20
236.1413677699
 30
0.0
 11
348.7936038022
 21
261.1413677699
 31
0.0
  0
LINE
  5
3FB
330
3F4
100
AcDbEntity
  8
0
  6
CONTINUOUS
 62
     7
100
AcDbLine
 10
333.7936038022
 20
260.1413677699
 30
0.0
 11
348.7936038022
 21
260.1413677699
 31
0.0
  0
MTEXT
  5
3FC
330
3F4
100
AcDbEntity
  8
0
  6
CONTINUOUS
 62
     7
100
AcDbMText
 10
340.6199739791
 20
264.6531046263
 30
0.0
 40
3.5
 41
0.0
 71
     1
 72
     1
  1
3
  7
SLDTEXTSTYLE0
  0
ENDBLK
  5
3F6
330
3F4
100
AcDbEntity
  8
0
100
AcDbBlockEnd
  0
BLOCK
  5
400
330
3FF
100
AcDbEntity
  8
0
100
AcDbBlockBegin
  2
_D_22
 70
     0
 10
0.0
 20
0.0
 30
0.0
  3
_D_22
  1

  0
ARC
  5
402
330
3FF
100
AcDbEntity
  8
0
  6
CONTINUOUS
 62
     7
100
AcDbCircle
 10
378.4080254593
 20
249.8502133468
 30
0.0
 40
4.554435549315966
100
AcDbArc
 50
243.4349488229
 51
296.5650511771
  0
ARC
  5
403
330
3FF
100
AcDbEntity
  8
0
  6
CONTINUOUS
 62
     7
100
AcDbCircle
 10
378.4080254593
 20
247.8134080822
 30
0.0
 40
4.55443554931594
100
AcDbArc
 50
63.4349488229
 51
116.5650511771
  0
INSERT
  5
404
330
3FF
100
AcDbEntity
  8
0
  6
CONTINUOUS
 62
     7
100
AcDbBlockReference
  2
_OPEN30
 10
380.4448309568
 20
235.1413677699
 30
-150.0
 41
2.0
 42
2.0
 50
270.0
  0
INSERT
  5
405
330
3FF
100
AcDbEntity
  8
0
  6
CONTINUOUS
 62
     7
100
AcDbBlockReference
  2
_OPEN30
 10
380.4448309568
 20
232.6413677699
 30
-150.0
 41
2.0
 42
2.0
 50
90.0
  0
LINE
  5
406
330
3FF
100
AcDbEntity
  8
0
  6
CONTINUOUS
 62
     7
100
AcDbLine
 10
365.2936038022
 20
235.1413677699
 30
0.0
 11
381.4448309568
 21
235.1413677699
 31
0.0
  0
LINE
  5
407
330
3FF
100
AcDbEntity
  8
0
  6
CONTINUOUS
 62
     7
100
AcDbLine
 10
364.7099499126
 20
232.6413677699
 30
0.0
 11
381.4448309568
 21
232.6413677699
 31
0.0
  0
LINE
  5
408
330
3FF
100
AcDbEntity
  8
0
  6
CONTINUOUS
 62
     7
100
AcDbLine
 10
380.4448309568
 20
235.1413677699
 30
0.0
 11
380.4448309568
 21
252.3678437512
 31
0.0
  0
LINE
  5
409
330
3FF
100
AcDbEntity
  8
0
  6
CONTINUOUS
 62
     7
100
AcDbLine
 10
380.4448309568
 20
235.1413677699
 30
0.0
 11
380.4448309568
 21
232.6413677699
 31
0.0
  0
LINE
  5
40A
330
3FF
100
AcDbEntity
  8
0
  6
CONTINUOUS
 62
     7
100
AcDbLine
 10
380.4448309568
 20
232.6413677699
 30
0.0
 11
380.4448309568
 21
229.6413677699
 31
0.0
  0
MTEXT
  5
40B
330
3FF
100
AcDbEntity
  8
0
  6
CONTINUOUS
 62
     7
100
AcDbMText
 10
375.9330941004
 20
245.7766023519
 30
0.0
 40
3.5
 41
0.0
 71
     1
 72
     1
  1
0.5
  7
SLDTEXTSTYLE0
 11
-7.044195017643634E-15
 21
1.0
 31
0.0
  0
ENDBLK
  5
401
330
3FF
100
AcDbEntity
  8
0
100
AcDbBlockEnd
  0
BLOCK
  5
40E
330
40D
100
AcDbEntity
  8
0
100
AcDbBlockBegin
  2
_D_23
 70
     0
 10
0.0
 20
0.0
 30
0.0
  3
_D_23
  1

  0
INSERT
  5
410
330
40D
100
AcDbEntity
  8
0
  6
CONTINUOUS
 62
     7
100
AcDbBlockReference
  2
_OPEN30
 10
370.6025382138
 20
235.1413677699
 30
-150.0
 41
2.0
 42
2.0
 50
270.0
  0
INSERT
  5
411
330
40D
100
AcDbEntity
  8
0
  6
CONTINUOUS
 62
     7
100
AcDbBlockReference
  2
_OPEN30
 10
370.6025382138
 20
234.1413677699
 30
-150.0
 41
2.0
 42
2.0
 50
90.0
  0
LINE
  5
412
330
40D
100
AcDbEntity
  8
0
  6
CONTINUOUS
 62
     7
100
AcDbLine
 10
365.2936038022
 20
235.1413677699
 30
0.0
 11
371.6025382138
 21
235.1413677699
 31
0.0
  0
LINE
  5
413
330
40D
100
AcDbEntity
  8
0
  6
CONTINUOUS
 62
     7
100
AcDbLine
 10
349.7936038022
 20
234.1413677699
 30
0.0
 11
371.6025382138
 21
234.1413677699
 31
0.0
  0
LINE
  5
414
330
40D
100
AcDbEntity
  8
0
  6
CONTINUOUS
 62
     7
100
AcDbLine
 10
370.6025382138
 20
235.1413677699
 30
0.0
 11
370.6025382138
 21
251.8870191354
 31
0.0
  0
LINE
  5
415
330
40D
100
AcDbEntity
  8
0
  6
CONTINUOUS
 62
     7
100
AcDbLine
 10
370.6025382138
 20
235.1413677699
 30
0.0
 11
370.6025382138
 21
234.1413677699
 31
0.0
  0
LINE
  5
416
330
40D
100
AcDbEntity
  8
0
  6
CONTINUOUS
 62
     7
100
AcDbLine
 10
370.6025382138
 20
234.1413677699
 30
0.0
 11
370.6025382138
 21
231.1413677699
 31
0.0
  0
MTEXT
  5
417
330
40D
100
AcDbEntity
  8
0
  6
CONTINUOUS
 62
     7
100
AcDbMText
 10
366.0908013575
 20
245.7766024101
 30
0.0
 40
3.5
 41
0.0
 71
     1
 72
     1
  1
0.2
  7
SLDTEXTSTYLE0
 11
-7.044195017643634E-15
 21
1.0
 31
0.0
  0
ENDBLK
  5
40F
330
40D
100
AcDbEntity
  8
0
100
AcDbBlockEnd
  0
ENDSEC
  0
SECTION
  2
ENTITIES
  0
LINE
  5
66
330
1F
100
AcDbEntity
  8
0
  6
CONTINUOUS
 62
     7
100
AcDbLine
 10
240.0
 20
51.0
 30
0.0
 11
410.0
 21
51.0
 31
0.0
  0
LINE
  5
67
330
1F
100
AcDbEntity
  8
0
  6
CONTINUOUS
 62
     7
100
AcDbLine
 10
240.0
 20
51.0
 30
0.0
 11
240.0
 21
12.0
 31
0.0
  0
LINE
  5
68
330
1F
100
AcDbEntity
  8
0
  6
CONTINUOUS
 62
     7
100
AcDbLine
 10
312.0
 20
51.0
 30
0.0
 11
312.0
 21
12.0
 31
0.0
  0
LINE
  5
69
330
1F
100
AcDbEntity
  8
0
  6
CONTINUOUS
 62
     7
100
AcDbLine
 10
332.0
 20
51.0
 30
0.0
 11
332.0
 21
12.0
 31
0.0
  0
LINE
  5
6A
330
1F
100
AcDbEntity
  8
0
  6
CONTINUOUS
 62
     7
100
AcDbLine
 10
344.0
 20
51.0
 30
0.0
 11
344.0
 21
12.0
 31
0.0
  0
LINE
  5
6B
330
1F
100
AcDbEntity
  8
0
  6
CONTINUOUS
 62
     7
100
AcDbLine
 10
344.0
 20
37.0
 30
0.0
 11
410.0
 21
37.0
 31
0.0
  0
LINE
  5
6C
330
1F
100
AcDbEntity
  8
0
  6
CONTINUOUS
 62
     7
100
AcDbLine
 10
332.0
 20
23.0
 30
0.0
 11
410.0
 21
23.0
 31
0.0
  0
LINE
  5
6D
330
1F
100
AcDbEntity
  8
ﾚｲﾔｰ1
100
AcDbLine
 10
400.3823018763
 20
14.4074922469
 30
0.0
 11
403.9674356671
 21
20.6171261245
 31
0.0
  0
LINE
  5
6E
330
1F
100
AcDbEntity
  8
0
  6
HIDDEN
 62
     7
100
AcDbLine
 10
358.3
 20
23.0
 30
0.0
 11
358.3
 21
12.0
 31
0.0
  0
LINE
  5
6F
330
1F
100
AcDbEntity
  8
0
  6
CONTINUOUS
 62
     7
100
AcDbLine
 10
312.0
 20
31.5
 30
0.0
 11
332.0
 21
31.5
 31
0.0
  0
LINE
  5
70
330
1F
100
AcDbEntity
  8
0
  6
CONTINUOUS
 62
     7
100
AcDbLine
 10
332.0
 20
44.0
 30
0.0
 11
410.0
 21
44.0
 31
0.0
  0
LINE
  5
71
330
1F
100
AcDbEntity
  8
0
  6
CONTINUOUS
 62
     7
100
AcDbLine
 10
240.0
 20
37.0
 30
0.0
 11
312.0
 21
37.0
 31
0.0
  0
LINE
  5
72
330
1F
100
AcDbEntity
  8
0
  6
CONTINUOUS
 62
     7
100
AcDbLine
 10
240.0
 20
23.0
 30
0.0
 11
312.0
 21
23.0
 31
0.0
  0
LINE
  5
73
330
1F
100
AcDbEntity
  8
0
  6
CONTINUOUS
 62
     7
100
AcDbLine
 10
288.0
 20
37.0
 30
0.0
 11
288.0
 21
12.0
 31
0.0
  0
LINE
  5
74
330
1F
100
AcDbEntity
  8
0
  6
CONTINUOUS
 62
     7
100
AcDbLine
 10
264.0
 20
37.0
 30
0.0
 11
264.0
 21
23.0
 31
0.0
  0
LINE
  5
75
330
1F
100
AcDbEntity
  8
0
  6
CONTINUOUS
 62
     7
100
AcDbLine
 10
300.0
 20
26.0
 30
0.0
 11
300.0
 21
23.0
 31
0.0
  0
LINE
  5
76
330
1F
100
AcDbEntity
  8
0
  6
CONTINUOUS
 62
     7
100
AcDbLine
 10
276.0
 20
26.0
 30
0.0
 11
276.0
 21
23.0
 31
0.0
  0
LINE
  5
77
330
1F
100
AcDbEntity
  8
0
  6
CONTINUOUS
 62
     7
100
AcDbLine
 10
252.0
 20
26.0
 30
0.0
 11
252.0
 21
23.0
 31
0.0
  0
LINE
  5
78
330
1F
100
AcDbEntity
  8
0
  6
CONTINUOUS
 62
     7
100
AcDbLine
 10
258.0
 20
51.0
 30
0.0
 11
258.0
 21
37.0
 31
0.0
  0
LINE
  5
79
330
1F
100
AcDbEntity
  8
0
  6
CONTINUOUS
 62
     7
100
AcDbLine
 10
240.0
 20
45.0
 30
0.0
 11
312.0
 21
45.0
 31
0.0
  0
LINE
  5
7A
330
1F
100
AcDbEntity
  8
0
  6
CONTINUOUS
 62
     7
100
AcDbLine
 10
410.0
 20
149.5
 30
0.0
 11
414.0
 21
149.5
 31
0.0
  0
LINE
  5
7B
330
1F
100
AcDbEntity
  8
0
  6
HIDDEN
 62
     7
100
AcDbLine
 10
367.0
 20
23.0
 30
0.0
 11
367.0
 21
12.0
 31
0.0
  0
LINE
  5
7C
330
1F
100
AcDbEntity
  8
0
  6
HIDDEN
 62
     9
100
AcDbLine
 10
396.5
 20
13.3141504826
 30
0.0
 11
385.5
 21
13.3141504826
 31
0.0
  0
LINE
  5
7D
330
1F
100
AcDbEntity
  8
0
  6
HIDDEN
 62
     9
100
AcDbLine
 10
396.5
 20
13.3141504826
 30
0.0
 11
391.0
 21
22.8404299242
 31
0.0
  0
LINE
  5
7E
330
1F
100
AcDbEntity
  8
0
  6
HIDDEN
 62
     9
100
AcDbLine
 10
391.0
 20
22.8404299242
 30
0.0
 11
385.5
 21
13.3141504826
 31
0.0
  0
LINE
  5
7F
330
1F
100
AcDbEntity
  8
ﾚｲﾔｰ1
  6
CONTINUOUS
 62
     7
100
AcDbLine
 10
20.0
 20
12.0
 30
0.0
 11
410.0
 21
12.0
 31
0.0
  0
LINE
  5
80
330
1F
100
AcDbEntity
  8
ﾚｲﾔｰ1
  6
CONTINUOUS
 62
     7
100
AcDbLine
 10
20.0
 20
287.0
 30
0.0
 11
410.0
 21
287.0
 31
0.0
  0
LINE
  5
81
330
1F
100
AcDbEntity
  8
ﾚｲﾔｰ1
  6
CONTINUOUS
 62
     7
100
AcDbLine
 10
20.0
 20
12.0
 30
0.0
 11
20.0
 21
287.0
 31
0.0
  0
LINE
  5
82
330
1F
100
AcDbEntity
  8
0
  6
CONTINUOUS
 62
     7
100
AcDbLine
 10
215.0
 20
0.0
 30
0.0
 11
215.0
 21
12.0
 31
0.0
  0
LINE
  5
83
330
1F
100
AcDbEntity
  8
0
  6
CONTINUOUS
 62
     7
100
AcDbLine
 10
215.0
 20
287.0
 30
0.0
 11
215.0
 21
297.0
 31
0.0
  0
LINE
  5
84
330
1F
100
AcDbEntity
  8
0
  6
CONTINUOUS
 62
     7
100
AcDbLine
 10
0.0
 20
149.5
 30
0.0
 11
20.0
 21
149.5
 31
0.0
  0
LINE
  5
85
330
1F
100
AcDbEntity
  8
0
  6
CONTINUOUS
 62
     7
100
AcDbLine
 10
410.0
 20
80.75
 30
0.0
 11
414.0
 21
80.75
 31
0.0
  0
LINE
  5
86
330
1F
100
AcDbEntity
  8
0
  6
CONTINUOUS
 62
     7
100
AcDbLine
 10
165.0
 20
7.0
 30
0.0
 11
265.0
 21
7.0
 31
0.0
  0
LINE
  5
87
330
1F
100
AcDbEntity
  8
0
  6
CONTINUOUS
 62
     7
100
AcDbLine
 10
165.0
 20
7.0
 30
0.0
 11
165.0
 21
12.0
 31
0.0
  0
LINE
  5
88
330
1F
100
AcDbEntity
  8
0
  6
CONTINUOUS
 62
     7
100
AcDbLine
 10
175.0
 20
10.0
 30
0.0
 11
175.0
 21
7.0
 31
0.0
  0
LINE
  5
89
330
1F
100
AcDbEntity
  8
0
  6
CONTINUOUS
 62
     7
100
AcDbLine
 10
265.0
 20
7.0
 30
0.0
 11
265.0
 21
12.0
 31
0.0
  0
LINE
  5
8A
330
1F
100
AcDbEntity
  8
0
  6
CONTINUOUS
 62
     7
100
AcDbLine
 10
185.0
 20
10.0
 30
0.0
 11
185.0
 21
7.0
 31
0.0
  0
LINE
  5
8B
330
1F
100
AcDbEntity
  8
0
  6
CONTINUOUS
 62
     7
100
AcDbLine
 10
195.0
 20
10.0
 30
0.0
 11
195.0
 21
7.0
 31
0.0
  0
LINE
  5
8C
330
1F
100
AcDbEntity
  8
0
  6
CONTINUOUS
 62
     7
100
AcDbLine
 10
205.0
 20
10.0
 30
0.0
 11
205.0
 21
7.0
 31
0.0
  0
LINE
  5
8D
330
1F
100
AcDbEntity
  8
0
  6
CONTINUOUS
 62
     7
100
AcDbLine
 10
225.0
 20
10.0
 30
0.0
 11
225.0
 21
7.0
 31
0.0
  0
LINE
  5
8E
330
1F
100
AcDbEntity
  8
0
  6
CONTINUOUS
 62
     7
100
AcDbLine
 10
235.0
 20
10.0
 30
0.0
 11
235.0
 21
7.0
 31
0.0
  0
LINE
  5
8F
330
1F
100
AcDbEntity
  8
0
  6
CONTINUOUS
 62
     7
100
AcDbLine
 10
245.0
 20
10.0
 30
0.0
 11
245.0
 21
7.0
 31
0.0
  0
LINE
  5
90
330
1F
100
AcDbEntity
  8
0
  6
CONTINUOUS
 62
     7
100
AcDbLine
 10
255.0
 20
10.0
 30
0.0
 11
255.0
 21
7.0
 31
0.0
  0
LINE
  5
91
330
1F
100
AcDbEntity
  8
0
  6
CONTINUOUS
 62
     7
100
AcDbLine
 10
85.0
 20
287.0
 30
0.0
 11
85.0
 21
291.0
 31
0.0
  0
LINE
  5
92
330
1F
100
AcDbEntity
  8
0
  6
CONTINUOUS
 62
     7
100
AcDbLine
 10
150.0
 20
287.0
 30
0.0
 11
150.0
 21
291.0
 31
0.0
  0
LINE
  5
93
330
1F
100
AcDbEntity
  8
0
  6
CONTINUOUS
 62
     7
100
AcDbLine
 10
280.0
 20
287.0
 30
0.0
 11
280.0
 21
291.0
 31
0.0
  0
LINE
  5
94
330
1F
100
AcDbEntity
  8
0
  6
CONTINUOUS
 62
     7
100
AcDbLine
 10
345.0
 20
287.0
 30
0.0
 11
345.0
 21
291.0
 31
0.0
  0
LINE
  5
95
330
1F
100
AcDbEntity
  8
0
  6
CONTINUOUS
 62
     7
100
AcDbLine
 10
280.0
 20
8.0
 30
0.0
 11
280.0
 21
12.0
 31
0.0
  0
LINE
  5
96
330
1F
100
AcDbEntity
  8
0
  6
CONTINUOUS
 62
     7
100
AcDbLine
 10
345.0
 20
8.0
 30
0.0
 11
345.0
 21
12.0
 31
0.0
  0
LINE
  5
97
330
1F
100
AcDbEntity
  8
0
  6
CONTINUOUS
 62
     7
100
AcDbLine
 10
150.0
 20
8.0
 30
0.0
 11
150.0
 21
12.0
 31
0.0
  0
LINE
  5
98
330
1F
100
AcDbEntity
  8
0
  6
CONTINUOUS
 62
     7
100
AcDbLine
 10
85.0
 20
8.0
 30
0.0
 11
85.0
 21
12.0
 31
0.0
  0
LINE
  5
99
330
1F
100
AcDbEntity
  8
0
  6
CONTINUOUS
 62
     7
100
AcDbLine
 10
16.0
 20
218.25
 30
0.0
 11
20.0
 21
218.25
 31
0.0
  0
LINE
  5
9A
330
1F
100
AcDbEntity
  8
0
  6
CONTINUOUS
 62
     7
100
AcDbLine
 10
410.0
 20
218.25
 30
0.0
 11
414.0
 21
218.25
 31
0.0
  0
LINE
  5
9B
330
1F
100
AcDbEntity
  8
0
  6
CONTINUOUS
 62
     7
100
AcDbLine
 10
16.0
 20
80.75
 30
0.0
 11
20.0
 21
80.75
 31
0.0
  0
LINE
  5
9C
330
1F
100
AcDbEntity
  8
0
  6
CONTINUOUS
 62
     7
100
AcDbLine
 10
418.0
 20
2.0
 30
0.0
 11
418.0
 21
8.0
 31
0.0
  0
LINE
  5
9D
330
1F
100
AcDbEntity
  8
0
  6
CONTINUOUS
 62
     7
100
AcDbLine
 10
418.0
 20
289.0
 30
0.0
 11
418.0
 21
295.0
 31
0.0
  0
LINE
  5
9E
330
1F
100
AcDbEntity
  8
0
  6
CONTINUOUS
 62
     7
100
AcDbLine
 10
2.0
 20
2.0
 30
0.0
 11
2.0
 21
8.0
 31
0.0
  0
LINE
  5
9F
330
1F
100
AcDbEntity
  8
0
  6
CONTINUOUS
 62
     7
100
AcDbLine
 10
2.0
 20
289.0
 30
0.0
 11
2.0
 21
295.0
 31
0.0
  0
LINE
  5
A0
330
1F
100
AcDbEntity
  8
0
  6
CONTINUOUS
 62
     7
100
AcDbLine
 10
2.0
 20
295.0
 30
0.0
 11
8.0
 21
295.0
 31
0.0
  0
LINE
  5
A1
330
1F
100
AcDbEntity
  8
0
  6
CONTINUOUS
 62
     7
100
AcDbLine
 10
412.0
 20
295.0
 30
0.0
 11
418.0
 21
295.0
 31
0.0
  0
LINE
  5
A2
330
1F
100
AcDbEntity
  8
0
  6
CONTINUOUS
 62
     7
100
AcDbLine
 10
2.0
 20
2.0
 30
0.0
 11
8.0
 21
2.0
 31
0.0
  0
LINE
  5
A3
330
1F
100
AcDbEntity
  8
0
  6
CONTINUOUS
 62
     7
100
AcDbLine
 10
412.0
 20
2.0
 30
0.0
 11
418.0
 21
2.0
 31
0.0
  0
LINE
  5
A4
330
1F
100
AcDbEntity
  8
ﾚｲﾔｰ1
  6
CONTINUOUS
 62
     7
100
AcDbLine
 10
410.0
 20
12.0
 30
0.0
 11
410.0
 21
287.0
 31
0.0
  0
LINE
  5
A5
330
1F
100
AcDbEntity
  8
0
  6
CONTINUOUS
 62
     9
100
AcDbLine
 10
20.0
 20
12.0
 30
0.0
 11
68.0
 21
12.0
 31
0.0
  0
LINE
  5
A6
330
1F
100
AcDbEntity
  8
0
  6
CONTINUOUS
 62
     9
100
AcDbLine
 10
20.0
 20
12.0
 30
0.0
 11
20.0
 21
51.5
 31
0.0
  0
LINE
  5
A7
330
1F
100
AcDbEntity
  8
0
  6
CONTINUOUS
 62
     9
100
AcDbLine
 10
68.0
 20
12.0
 30
0.0
 11
87.0
 21
12.0
 31
0.0
  0
LINE
  5
A8
330
1F
100
AcDbEntity
  8
0
  6
CONTINUOUS
 62
     9
100
AcDbLine
 10
87.0
 20
12.0
 30
0.0
 11
126.0
 21
12.0
 31
0.0
  0
LINE
  5
A9
330
1F
100
AcDbEntity
  8
0
  6
CONTINUOUS
 62
     9
100
AcDbLine
 10
87.0
 20
12.0
 30
0.0
 11
126.0
 21
12.0
 31
0.0
  0
LINE
  5
AA
330
1F
100
AcDbEntity
  8
0
  6
CONTINUOUS
 62
     7
100
AcDbLine
 10
330.4713877754
 20
15.7804142126
 30
0.0
 11
330.4713877754
 21
21.7804142126
 31
0.0
  0
LINE
  5
AB
330
1F
100
AcDbEntity
  8
0
  6
CONTINUOUS
 62
     7
100
AcDbLine
 10
323.9336941228
 20
17.2804142126
 30
0.0
 11
323.9336941228
 21
20.2804142126
 31
0.0
  0
LINE
  5
AC
330
1F
100
AcDbEntity
  8
0
  6
CENTER
 62
     7
100
AcDbLine
 10
313.4321805515
 20
18.7804142126
 30
0.0
 11
331.2765788965
 21
18.7804142126
 31
0.0
  0
LINE
  5
AD
330
1F
100
AcDbEntity
  8
0
  6
CENTER
 62
     7
100
AcDbLine
 10
317.4474565858
 20
14.5592166292
 30
0.0
 11
317.4474565858
 21
22.8986510215
 31
0.0
  0
LINE
  5
AE
330
1F
100
AcDbEntity
  8
0
  6
CONTINUOUS
 62
     7
100
AcDbLine
 10
323.9336941228
 20
20.2804142126
 30
0.0
 11
330.4713877754
 21
21.7804142126
 31
0.0
  0
LINE
  5
AF
330
1F
100
AcDbEntity
  8
0
  6
CONTINUOUS
 62
     7
100
AcDbLine
 10
323.9336941228
 20
17.2804142126
 30
0.0
 11
330.4713877754
 21
15.7804142126
 31
0.0
  0
LINE
  5
B0
330
1F
100
AcDbEntity
  8
0
  6
CONTINUOUS
 62
     9
100
AcDbLine
 10
410.0
 20
282.0
 30
0.0
 11
410.0
 21
277.0
 31
0.0
  0
CIRCLE
  5
B1
330
1F
100
AcDbEntity
  8
0
  6
CONTINUOUS
 62
     7
100
AcDbCircle
 10
317.4474565858
 20
18.7804142126
 30
0.0
 40
1.499999999999943
  0
CIRCLE
  5
B2
330
1F
100
AcDbEntity
  8
0
  6
CONTINUOUS
 62
     7
100
AcDbCircle
 10
317.4474565858
 20
18.7804142126
 30
0.0
 40
3.0
  0
MTEXT
  5
B4
330
1F
100
AcDbEntity
  8
0
  6
CONTINUOUS
 62
     7
100
AcDbMText
 10
98.0487411263
 20
55.3008307339
 30
0.0
 40
4.7625
 41
0.0
 71
     1
 72
     1
  1
対応型式
  7
SLDTEXTSTYLE0
  0
MTEXT
  5
B5
330
1F
100
AcDbEntity
  8
0
  6
CONTINUOUS
 62
     7
100
AcDbMText
 10
98.0487411263
 20
47.9508306468
 30
0.0
 40
4.7625
 41
0.0
 71
     1
 72
     1
  1
CORRECT TYPE
  7
SLDTEXTSTYLE0
  0
INSERT
  5
BD
330
1F
100
AcDbEntity
  8
0
  6
CONTINUOUS
 62
     7
100
AcDbBlockReference
  2
SW_NOTE_0
 10
207.0410736288
 20
173.2612298956
 30
0.0
  0
LEADER
  5
C5
330
1F
100
AcDbEntity
  8
0
  6
CONTINUOUS
 62
     7
100
AcDbLeader
  3
SLDDIMSTYLE0
 76
     2
 10
202.7350314316
 20
140.285614517
 30
0.0
 10
207.0410736288
 20
173.2612298956
 30
0.0
1001
ACAD
1000
DSTYLE
1002
{
1070
     6
1000
OPEN30
1002
}
  0
INSERT
  5
CC
330
1F
100
AcDbEntity
  8
0
  6
CONTINUOUS
 62
     7
100
AcDbBlockReference
  2
SW_NOTE_0_1
 10
130.2328605201
 20
157.5484637444
 30
0.0
  0
LEADER
  5
CD
330
1F
100
AcDbEntity
  8
0
  6
CONTINUOUS
 62
     7
100
AcDbLeader
  3
SLDDIMSTYLE0
 76
     2
 10
131.9600024831
 20
137.6363090521
 30
0.0
 10
130.2328605201
 20
157.5484637444
 30
0.0
1001
ACAD
1000
DSTYLE
1002
{
1070
     6
1000
OPEN30
1002
}
  0
MTEXT
  5
CE
330
1F
100
AcDbEntity
  8
0
  6
CONTINUOUS
 62
     7
100
AcDbMText
 10
157.460443659
 20
21.7950890852
 30
0.0
 40
2.9104166667
 41
0.0
 71
     1
 72
     1
  1
BR-AJC06A
  7
SLDTEXTSTYLE0
  0
LINE
  5
CF
330
1F
100
AcDbEntity
  8
0
  6
CONTINUOUS
 62
     7
100
AcDbLine
 10
157.460443659
 20
19.8548113074
 30
0.0
 11
174.335330534
 21
19.8548113074
 31
0.0
  0
INSERT
  5
D7
330
1F
100
AcDbEntity
  8
0
  6
CONTINUOUS
 62
     7
100
AcDbBlockReference
  2
SW_NOTE_0_2
 10
151.5970426557
 20
18.0141094477
 30
0.0
  0
INSERT
  5
DF
330
1F
100
AcDbEntity
  8
0
  6
CONTINUOUS
 62
     7
100
AcDbBlockReference
  2
SW_NOTE_0_3
 10
190.4383353661
 20
187.424255922
 30
0.0
  0
INSERT
  5
E7
330
1F
100
AcDbEntity
  8
0
  6
CONTINUOUS
 62
     7
100
AcDbBlockReference
  2
SW_NOTE_0_4
 10
112.2297749719
 20
202.4171228742
 30
0.0
  0
MTEXT
  5
E8
330
1F
100
AcDbEntity
  8
0
  6
CONTINUOUS
 62
     7
100
AcDbMText
 10
249.2117794491
 20
49.8261099021
 30
0.0
 40
3.0999999046
 41
0.0
 71
     2
 72
     1
  1
CAREER
  7
SLDTEXTSTYLE0
  0
MTEXT
  5
E9
330
1F
100
AcDbEntity
  8
0
  6
CONTINUOUS
 62
     7
100
AcDbMText
 10
305.8288455214
 20
36.3261099021
 30
0.0
 40
3.0999999046
 41
0.0
 71
     2
 72
     1
  1
3D
  7
SLDTEXTSTYLE0
  0
MTEXT
  5
EA
330
1F
100
AcDbEntity
  8
0
  6
CONTINUOUS
 62
     7
100
AcDbMText
 10
294.3463366833
 20
36.3261099021
 30
0.0
 40
3.0999999046
 41
0.0
 71
     2
 72
     1
  1
DRW
  7
SLDTEXTSTYLE0
  0
MTEXT
  5
EB
330
1F
100
AcDbEntity
  8
0
  6
CONTINUOUS
 62
     7
100
AcDbMText
 10
276.4857200384
 20
36.3261099498
 30
0.0
 40
3.0999999046
 41
0.0
 71
     2
 72
     1
  1
INSPECTION
  7
SLDTEXTSTYLE0
  0
MTEXT
  5
EC
330
1F
100
AcDbEntity
  8
0
  6
CONTINUOUS
 62
     7
100
AcDbMText
 10
252.2639842555
 20
36.3261099498
 30
0.0
 40
3.0999999046
 41
0.0
 71
     2
 72
     1
  1
APPROVAL
  7
SLDTEXTSTYLE0
  0
MTEXT
  5
ED
330
1F
100
AcDbEntity
  8
0
  6
CONTINUOUS
 62
     7
100
AcDbMText
 10
300.1445053779
 20
22.3261099021
 30
0.0
 40
3.0999999046
 41
0.0
 71
     2
 72
     1
  1
DATE
  7
SLDTEXTSTYLE0
  0
MTEXT
  5
EE
330
1F
100
AcDbEntity
  8
0
  6
CONTINUOUS
 62
     7
100
AcDbMText
 10
263.2614870667
 20
19.6094566752
 30
0.0
 40
3.175
 41
0.0
 71
     2
 72
     1
  1
Kitagawa Corporation
  7
SLDTEXTSTYLE0
  0
MTEXT
  5
EF
330
1F
100
AcDbEntity
  8
0
  6
CONTINUOUS
 62
     7
100
AcDbMText
 10
322.3164586872
 20
29.8261099021
 30
0.0
 40
3.0999999046
 41
0.0
 71
     2
 72
     1
  1
3RD ANGLE
  7
SLDTEXTSTYLE0
  0
MTEXT
  5
F0
330
1F
100
AcDbEntity
  8
0
  6
CONTINUOUS
 62
     7
100
AcDbMText
 10
322.1770658046
 20
49.3261099021
 30
0.0
 40
3.0999999046
 41
0.0
 71
     2
 72
     1
  1
SCALE
  7
SLDTEXTSTYLE0
  0
MTEXT
  5
F1
330
1F
100
AcDbEntity
  8
0
  6
CONTINUOUS
 62
     7
100
AcDbMText
 10
338.1963366833
 20
21.5094432195
 30
0.0
 40
3.0999999046
 41
0.0
 71
     2
 72
     1
  1
DRW
  7
SLDTEXTSTYLE0
  0
MTEXT
  5
F2
330
1F
100
AcDbEntity
  8
0
  6
CONTINUOUS
 62
     7
100
AcDbMText
 10
338.1909548029
 20
17.789443299
 30
0.0
 40
3.0999999046
 41
0.0
 71
     2
 72
     1
  1
NO.
  7
SLDTEXTSTYLE0
  0
MTEXT
  5
F3
330
1F
100
AcDbEntity
  8
0
  6
CONTINUOUS
 62
     7
100
AcDbMText
 10
338.2420832407
 20
35.3261099021
 30
0.0
 40
3.0999999046
 41
0.0
 71
     2
 72
     1
  1
NAME
  7
SLDTEXTSTYLE0
  0
MTEXT
  5
F4
330
1F
100
AcDbEntity
  8
0
  6
CONTINUOUS
 62
     7
100
AcDbMText
 10
338.2480034254
 20
49.5761099498
 30
0.0
 40
3.0999999046
 41
0.0
 71
     2
 72
     1
  1
TYPE
  7
SLDTEXTSTYLE0
  0
MTEXT
  5
F5
330
1F
100
AcDbEntity
  8
0
  6
CONTINUOUS
 62
     7
100
AcDbMText
 10
52.0
 20
292.3761104221
 30
0.0
 40
3.1000003815
 41
0.0
 71
     1
 72
     1
  1
1
  7
SLDTEXTSTYLE0
  0
MTEXT
  5
F6
330
1F
100
AcDbEntity
  8
0
  6
CONTINUOUS
 62
     7
100
AcDbMText
 10
112.0
 20
292.3761104221
 30
0.0
 40
3.1000003815
 41
0.0
 71
     1
 72
     1
  1
2
  7
SLDTEXTSTYLE0
  0
MTEXT
  5
F7
330
1F
100
AcDbEntity
  8
0
  6
CONTINUOUS
 62
     7
100
AcDbMText
 10
177.0
 20
292.3761104221
 30
0.0
 40
3.1000003815
 41
0.0
 71
     1
 72
     1
  1
3
  7
SLDTEXTSTYLE0
  0
MTEXT
  5
F8
330
1F
100
AcDbEntity
  8
0
  6
CONTINUOUS
 62
     7
100
AcDbMText
 10
242.0
 20
292.3761104221
 30
0.0
 40
3.1000003815
 41
0.0
 71
     1
 72
     1
  1
4
  7
SLDTEXTSTYLE0
  0
MTEXT
  5
F9
330
1F
100
AcDbEntity
  8
0
  6
CONTINUOUS
 62
     7
100
AcDbMText
 10
307.0
 20
292.3761104221
 30
0.0
 40
3.1000003815
 41
0.0
 71
     1
 72
     1
  1
5
  7
SLDTEXTSTYLE0
  0
MTEXT
  5
FA
330
1F
100
AcDbEntity
  8
0
  6
CONTINUOUS
 62
     7
100
AcDbMText
 10
377.0
 20
292.3761104221
 30
0.0
 40
3.1000003815
 41
0.0
 71
     1
 72
     1
  1
6
  7
SLDTEXTSTYLE0
  0
MTEXT
  5
FB
330
1F
100
AcDbEntity
  8
0
  6
CONTINUOUS
 62
     7
100
AcDbMText
 10
52.0
 20
11.3761104221
 30
0.0
 40
3.1000003815
 41
0.0
 71
     1
 72
     1
  1
1
  7
SLDTEXTSTYLE0
  0
MTEXT
  5
FC
330
1F
100
AcDbEntity
  8
0
  6
CONTINUOUS
 62
     7
100
AcDbMText
 10
112.0
 20
11.3761104221
 30
0.0
 40
3.1000003815
 41
0.0
 71
     1
 72
     1
  1
2
  7
SLDTEXTSTYLE0
  0
MTEXT
  5
FD
330
1F
100
AcDbEntity
  8
0
  6
CONTINUOUS
 62
     7
100
AcDbMText
 10
307.0
 20
11.3761104221
 30
0.0
 40
3.1000003815
 41
0.0
 71
     1
 72
     1
  1
5
  7
SLDTEXTSTYLE0
  0
MTEXT
  5
FE
330
1F
100
AcDbEntity
  8
0
  6
CONTINUOUS
 62
     7
100
AcDbMText
 10
377.0
 20
11.3761104221
 30
0.0
 40
3.1000003815
 41
0.0
 71
     1
 72
     1
  1
6
  7
SLDTEXTSTYLE0
  0
MTEXT
  5
FF
330
1F
100
AcDbEntity
  8
0
  6
CONTINUOUS
 62
     7
100
AcDbMText
 10
17.0
 20
255.3761104221
 30
0.0
 40
3.1000003815
 41
0.0
 71
     1
 72
     1
  1
A
  7
SLDTEXTSTYLE0
  0
MTEXT
  5
100
330
1F
100
AcDbEntity
  8
0
  6
CONTINUOUS
 62
     7
100
AcDbMText
 10
17.0
 20
187.3761104221
 30
0.0
 40
3.1000003815
 41
0.0
 71
     1
 72
     1
  1
B
  7
SLDTEXTSTYLE0
  0
MTEXT
  5
101
330
1F
100
AcDbEntity
  8
0
  6
CONTINUOUS
 62
     7
100
AcDbMText
 10
411.1900009724
 20
112.8084898142
 30
0.0
 40
3.1000003815
 41
0.0
 71
     1
 72
     1
  1
C
  7
SLDTEXTSTYLE0
  0
MTEXT
  5
102
330
1F
100
AcDbEntity
  8
0
  6
CONTINUOUS
 62
     7
100
AcDbMText
 10
17.0
 20
49.3761104221
 30
0.0
 40
3.1000003815
 41
0.0
 71
     1
 72
     1
  1
D
  7
SLDTEXTSTYLE0
  0
MTEXT
  5
103
330
1F
100
AcDbEntity
  8
0
  6
CONTINUOUS
 62
     7
100
AcDbMText
 10
412.1409683428
 20
255.957347107
 30
0.0
 40
3.1000003815
 41
0.0
 71
     1
 72
     1
  1
A
  7
SLDTEXTSTYLE0
  0
MTEXT
  5
104
330
1F
100
AcDbEntity
  8
0
  6
CONTINUOUS
 62
     7
100
AcDbMText
 10
411.1948446647
 20
187.3761104221
 30
0.0
 40
3.1000003815
 41
0.0
 71
     1
 72
     1
  1
B
  7
SLDTEXTSTYLE0
  0
MTEXT
  5
105
330
1F
100
AcDbEntity
  8
0
  6
CONTINUOUS
 62
     7
100
AcDbMText
 10
411.5971357814
 20
49.5952015164
 30
0.0
 40
3.1000003815
 41
0.0
 71
     1
 72
     1
  1
D
  7
SLDTEXTSTYLE0
  0
MTEXT
  5
106
330
1F
100
AcDbEntity
  8
0
  6
CONTINUOUS
 62
     7
100
AcDbMText
 10
321.7437458679
 20
41.6974536646
 30
0.0
 40
4.2333333333
 41
0.0
 71
     2
 72
     1
  1
1:1
  7
SLDTEXTSTYLE0
  0
MTEXT
  5
107
330
1F
100
AcDbEntity
  8
0
  6
CONTINUOUS
 62
     7
100
AcDbMText
 10
345.0
 20
21.357201882
 30
0.0
 40
6.6145833333
 41
0.0
 71
     1
 72
     1
  1
61P866026
  7
SLDTEXTSTYLE0
  0
MTEXT
  5
108
330
1F
100
AcDbEntity
  8
0
  6
CONTINUOUS
 62
     7
100
AcDbMText
 10
389.0
 20
21.357201882
 30
0.0
 40
6.6145833333
 41
0.0
 71
     1
 72
     1
  1
2
  7
SLDTEXTSTYLE0
  0
MTEXT
  5
109
330
1F
100
AcDbEntity
  8
0
  6
CONTINUOUS
 62
     7
100
AcDbMText
 10
345.75
 20
49.9435847579
 30
0.0
 40
3.175
 41
0.0
 71
     1
 72
     1
  1
BR-AJC06S
  7
SLDTEXTSTYLE0
  0
MTEXT
  5
10A
330
1F
100
AcDbEntity
  8
0
  6
CONTINUOUS
 62
     7
100
AcDbMText
 10
345.75
 20
43.0181878518
 30
0.0
 40
3.175
 41
0.0
 71
     1
 72
     1
  1
BR-AJC 6
  7
SLDTEXTSTYLE0
  0
MTEXT
  5
10B
330
1F
100
AcDbEntity
  8
0
  6
CONTINUOUS
 62
     7
100
AcDbMText
 10
345.75
 20
35.9435846415
 30
0.0
 40
3.175
 41
0.0
 71
     1
 72
     1
  1
BR-AJC06S
  7
SLDTEXTSTYLE0
  0
MTEXT
  5
10C
330
1F
100
AcDbEntity
  8
0
  6
CONTINUOUS
 62
     7
100
AcDbMText
 10
345.75
 20
31.7102513593
 30
0.0
 40
3.175
 41
0.0
 71
     1
 72
     1
  1
OUTSIDE VIEW
  7
SLDTEXTSTYLE0
  0
MTEXT
  5
10D
330
1F
100
AcDbEntity
  8
0
  6
CONTINUOUS
 62
     7
100
AcDbMText
 10
294.3089667857
 20
28.6172030293
 30
0.0
 40
3.0
 41
0.0
 71
     2
 72
     1
  1
増田
  7
SLDTEXTSTYLE0
  0
MTEXT
  5
10E
330
1F
100
AcDbEntity
  8
0
  6
CONTINUOUS
 62
     7
100
AcDbMText
 10
298.7424466476
 20
17.5594567916
 30
0.0
 40
3.175
 41
0.0
 71
     2
 72
     1
  1
2024/02/05
  7
SLDTEXTSTYLE0
  0
MTEXT
  5
10F
330
1F
100
AcDbEntity
  8
0
  6
CONTINUOUS
 62
     7
100
AcDbMText
 10
16.9025107534
 20
115.7651360446
 30
0.0
 40
3.1000003815
 41
0.0
 71
     1
 72
     1
  1
C
  7
SLDTEXTSTYLE0
  0
MTEXT
  5
110
330
1F
100
AcDbEntity
  8
0
  6
CONTINUOUS
 62
     7
100
AcDbMText
 10
408.0177083416
 20
16.1672032039
 30
0.0
 40
3.0
 41
0.0
 71
     2
 72
     1
  1
P
  7
SLDTEXTSTYLE0
  0
MTEXT
  5
111
330
1F
100
AcDbEntity
  8
0
  6
CONTINUOUS
 62
     7
100
AcDbMText
 10
399.6361455905
 20
22.5747582983
 30
0.0
 40
4.2333333333
 41
0.0
 71
     2
 72
     1
  1
1
  7
SLDTEXTSTYLE0
  0
MTEXT
  5
112
330
1F
100
AcDbEntity
  8
0
  6
CONTINUOUS
 62
     7
100
AcDbMText
 10
403.9403981733
 20
17.9492463169
 30
0.0
 40
4.2333333333
 41
0.0
 71
     2
 72
     1
  1
1
  7
SLDTEXTSTYLE0
  0
INSERT
  5
149
330
1F
100
AcDbEntity
  8
0
  6
CONTINUOUS
 62
     7
100
AcDbBlockReference
  2
SW_TABLEANNOTATION_0
 10
286.007
 20
287.0
 30
0.0
  0
INSERT
  5
157
330
1F
100
AcDbEntity
  8
0
  6
CONTINUOUS
 62
     7
100
AcDbBlockReference
  2
SW_TABLEANNOTATION_1
 10
97.3606630884
 20
40.5984178229
 30
0.0
  0
CIRCLE
  5
158
330
1F
100
AcDbEntity
  8
0
  6
CONTINUOUS
 62
     7
100
AcDbCircle
 10
256.8300726025
 20
120.6800240204
 30
0.0
 40
5.0
  0
LINE
  5
159
330
1F
100
AcDbEntity
  8
0
  6
CONTINUOUS
 62
     7
100
AcDbLine
 10
257.9847731409
 20
122.6800240204
 30
0.0
 11
259.1394736793
 21
120.6800240204
 31
0.0
  0
LINE
  5
15A
330
1F
100
AcDbEntity
  8
0
  6
CONTINUOUS
 62
     7
100
AcDbLine
 10
259.1394736793
 20
120.6800240204
 30
0.0
 11
257.9847731409
 21
118.6800240204
 31
0.0
  0
LINE
  5
15B
330
1F
100
AcDbEntity
  8
0
  6
CONTINUOUS
 62
     7
100
AcDbLine
 10
255.6753720641
 20
118.6800240204
 30
0.0
 11
254.5206715257
 21
120.6800240204
 31
0.0
  0
LINE
  5
15C
330
1F
100
AcDbEntity
  8
0
  6
CONTINUOUS
 62
     7
100
AcDbLine
 10
254.5206715257
 20
120.6800240204
 30
0.0
 11
255.6753720641
 21
122.6800240204
 31
0.0
  0
LINE
  5
15D
330
1F
100
AcDbEntity
  8
0
  6
CONTINUOUS
 62
     7
100
AcDbLine
 10
255.6753720641
 20
122.6800240204
 30
0.0
 11
257.9847731409
 21
122.6800240204
 31
0.0
  0
LINE
  5
15E
330
1F
100
AcDbEntity
  8
0
  6
CONTINUOUS
 62
     7
100
AcDbLine
 10
257.9847731409
 20
118.6800240204
 30
0.0
 11
255.6753720641
 21
118.6800240204
 31
0.0
  0
ARC
  5
15F
330
1F
100
AcDbEntity
  8
0
  6
CONTINUOUS
 62
     7
100
AcDbCircle
 10
256.8300726025
 20
120.6800240204
 30
0.0
 40
2.0
100
AcDbArc
 50
30.0
 51
90.0
  0
ARC
  5
160
330
1F
100
AcDbEntity
  8
0
  6
CONTINUOUS
 62
     7
100
AcDbCircle
 10
256.8300726025
 20
120.6800240204
 30
0.0
 40
1.999999999999953
100
AcDbArc
 50
330.0
 51
30.0
  0
ARC
  5
161
330
1F
100
AcDbEntity
  8
0
  6
CONTINUOUS
 62
     7
100
AcDbCircle
 10
256.8300726025
 20
120.6800240204
 30
0.0
 40
2.0
100
AcDbArc
 50
270.0
 51
330.0
  0
ARC
  5
162
330
1F
100
AcDbEntity
  8
0
  6
CONTINUOUS
 62
     7
100
AcDbCircle
 10
256.8300726025
 20
120.6800240204
 30
0.0
 40
2.00000000000002
100
AcDbArc
 50
210.0
 51
270.0
  0
ARC
  5
163
330
1F
100
AcDbEntity
  8
0
  6
CONTINUOUS
 62
     7
100
AcDbCircle
 10
256.8300726025
 20
120.6800240204
 30
0.0
 40
2.000000000000027
100
AcDbArc
 50
150.0
 51
210.0
  0
ARC
  5
164
330
1F
100
AcDbEntity
  8
0
  6
CONTINUOUS
 62
     7
100
AcDbCircle
 10
256.8300726025
 20
120.6800240204
 30
0.0
 40
2.000000000000027
100
AcDbArc
 50
90.0
 51
150.0
  0
LINE
  5
165
330
1F
100
AcDbEntity
  8
0
  6
CONTINUOUS
 62
     7
100
AcDbLine
 10
263.3300726025
 20
148.1800240204
 30
0.0
 11
270.3300726025
 21
148.1800240204
 31
0.0
  0
LINE
  5
166
330
1F
100
AcDbEntity
  8
0
  6
CONTINUOUS
 62
     7
100
AcDbLine
 10
270.3300726025
 20
148.1800240204
 30
0.0
 11
270.3300726025
 21
147.1800240204
 31
0.0
  0
LINE
  5
167
330
1F
100
AcDbEntity
  8
0
  6
CONTINUOUS
 62
     7
100
AcDbLine
 10
270.3300726025
 20
147.1800240204
 30
0.0
 11
263.7300726025
 21
147.1800240204
 31
0.0
  0
LINE
  5
168
330
1F
100
AcDbEntity
  8
0
  6
CONTINUOUS
 62
     7
100
AcDbLine
 10
263.3300726025
 20
147.5800240204
 30
0.0
 11
263.7300726025
 21
147.1800240204
 31
0.0
  0
LINE
  5
169
330
1F
100
AcDbEntity
  8
0
  6
CONTINUOUS
 62
     7
100
AcDbLine
 10
263.3300726025
 20
147.5800240204
 30
0.0
 11
263.3300726025
 21
148.1800240204
 31
0.0
  0
LINE
  5
16A
330
1F
100
AcDbEntity
  8
0
  6
CONTINUOUS
 62
     7
100
AcDbLine
 10
271.3300726025
 20
147.1800240204
 30
0.0
 11
270.3300726025
 21
147.1800240204
 31
0.0
  0
LINE
  5
16B
330
1F
100
AcDbEntity
  8
0
  6
CONTINUOUS
 62
     7
100
AcDbLine
 10
270.3300726025
 20
148.1800240204
 30
0.0
 11
271.3300726025
 21
147.1800240204
 31
0.0
  0
LINE
  5
16C
330
1F
100
AcDbEntity
  8
0
  6
CONTINUOUS
 62
     7
100
AcDbLine
 10
250.3300726025
 20
147.5800240204
 30
0.0
 11
250.3300726025
 21
101.2800240204
 31
0.0
  0
LINE
  5
16D
330
1F
100
AcDbEntity
  8
0
  6
CONTINUOUS
 62
     7
100
AcDbLine
 10
250.3300726025
 20
101.2800240204
 30
0.0
 11
249.9300726025
 21
101.6800240204
 31
0.0
  0
LINE
  5
16E
330
1F
100
AcDbEntity
  8
0
  6
CONTINUOUS
 62
     7
100
AcDbLine
 10
249.9300726025
 20
101.6800240204
 30
0.0
 11
249.9300726025
 21
147.1800240204
 31
0.0
  0
LINE
  5
16F
330
1F
100
AcDbEntity
  8
0
  6
CONTINUOUS
 62
     7
100
AcDbLine
 10
249.9300726025
 20
147.1800240204
 30
0.0
 11
250.3300726025
 21
147.5800240204
 31
0.0
  0
LINE
  5
170
330
1F
100
AcDbEntity
  8
0
  6
CONTINUOUS
 62
     7
100
AcDbLine
 10
271.3300726025
 20
147.1800240204
 30
0.0
 11
271.3300726025
 21
101.6800240204
 31
0.0
  0
LINE
  5
171
330
1F
100
AcDbEntity
  8
0
  6
CONTINUOUS
 62
     7
100
AcDbLine
 10
271.3300726025
 20
101.6800240204
 30
0.0
 11
270.3300726025
 21
101.6800240204
 31
0.0
  0
LINE
  5
172
330
1F
100
AcDbEntity
  8
0
  6
CONTINUOUS
 62
     7
100
AcDbLine
 10
270.3300726025
 20
101.6800240204
 30
0.0
 11
270.3300726025
 21
147.1800240204
 31
0.0
  0
LINE
  5
173
330
1F
100
AcDbEntity
  8
0
  6
CONTINUOUS
 62
     7
100
AcDbLine
 10
263.7300726025
 20
101.6800240204
 30
0.0
 11
270.3300726025
 21
101.6800240204
 31
0.0
  0
LINE
  5
174
330
1F
100
AcDbEntity
  8
0
  6
CONTINUOUS
 62
     7
100
AcDbLine
 10
263.7300726025
 20
147.1800240204
 30
0.0
 11
263.7300726025
 21
101.6800240204
 31
0.0
  0
LINE
  5
175
330
1F
100
AcDbEntity
  8
0
  6
CONTINUOUS
 62
     7
100
AcDbLine
 10
243.3300726025
 20
147.1800240204
 30
0.0
 11
243.3300726025
 21
148.1800240204
 31
0.0
  0
LINE
  5
176
330
1F
100
AcDbEntity
  8
0
  6
CONTINUOUS
 62
     7
100
AcDbLine
 10
243.3300726025
 20
148.1800240204
 30
0.0
 11
250.3300726025
 21
148.1800240204
 31
0.0
  0
LINE
  5
177
330
1F
100
AcDbEntity
  8
0
  6
CONTINUOUS
 62
     7
100
AcDbLine
 10
250.3300726025
 20
148.1800240204
 30
0.0
 11
250.3300726025
 21
147.5800240204
 31
0.0
  0
LINE
  5
178
330
1F
100
AcDbEntity
  8
0
  6
CONTINUOUS
 62
     7
100
AcDbLine
 10
249.9300726025
 20
147.1800240204
 30
0.0
 11
243.3300726025
 21
147.1800240204
 31
0.0
  0
LINE
  5
179
330
1F
100
AcDbEntity
  8
0
  6
CONTINUOUS
 62
     7
100
AcDbLine
 10
263.7300726025
 20
101.6800240204
 30
0.0
 11
263.3300726025
 21
101.2800240204
 31
0.0
  0
LINE
  5
17A
330
1F
100
AcDbEntity
  8
0
  6
CONTINUOUS
 62
     7
100
AcDbLine
 10
263.3300726025
 20
101.2800240204
 30
0.0
 11
263.3300726025
 21
147.5800240204
 31
0.0
  0
LINE
  5
17B
330
1F
100
AcDbEntity
  8
0
  6
CONTINUOUS
 62
     7
100
AcDbLine
 10
243.3300726025
 20
147.1800240204
 30
0.0
 11
242.3300726025
 21
147.1800240204
 31
0.0
  0
LINE
  5
17C
330
1F
100
AcDbEntity
  8
0
  6
CONTINUOUS
 62
     7
100
AcDbLine
 10
243.3300726025
 20
148.1800240204
 30
0.0
 11
242.3300726025
 21
147.1800240204
 31
0.0
  0
LINE
  5
17D
330
1F
100
AcDbEntity
  8
0
  6
CONTINUOUS
 62
     7
100
AcDbLine
 10
243.3300726025
 20
147.1800240204
 30
0.0
 11
243.3300726025
 21
101.6800240204
 31
0.0
  0
LINE
  5
17E
330
1F
100
AcDbEntity
  8
0
  6
CONTINUOUS
 62
     7
100
AcDbLine
 10
243.3300726025
 20
101.6800240204
 30
0.0
 11
242.3300726025
 21
101.6800240204
 31
0.0
  0
LINE
  5
17F
330
1F
100
AcDbEntity
  8
0
  6
CONTINUOUS
 62
     7
100
AcDbLine
 10
242.3300726025
 20
101.6800240204
 30
0.0
 11
242.3300726025
 21
147.1800240204
 31
0.0
  0
LINE
  5
180
330
1F
100
AcDbEntity
  8
0
  6
CONTINUOUS
 62
     7
100
AcDbLine
 10
243.3300726025
 20
101.6800240204
 30
0.0
 11
249.9300726025
 21
101.6800240204
 31
0.0
  0
LINE
  5
181
330
1F
100
AcDbEntity
  8
0
  6
CONTINUOUS
 62
     7
100
AcDbLine
 10
271.3300726025
 20
101.6800240204
 30
0.0
 11
270.3300726025
 21
100.6800240204
 31
0.0
  0
LINE
  5
182
330
1F
100
AcDbEntity
  8
0
  6
CONTINUOUS
 62
     7
100
AcDbLine
 10
270.3300726025
 20
101.6800240204
 30
0.0
 11
270.3300726025
 21
100.6800240204
 31
0.0
  0
LINE
  5
183
330
1F
100
AcDbEntity
  8
0
  6
CONTINUOUS
 62
     7
100
AcDbLine
 10
270.3300726025
 20
100.6800240204
 30
0.0
 11
263.3300726025
 21
100.6800240204
 31
0.0
  0
LINE
  5
184
330
1F
100
AcDbEntity
  8
0
  6
CONTINUOUS
 62
     7
100
AcDbLine
 10
263.3300726025
 20
100.6800240204
 30
0.0
 11
263.3300726025
 21
101.2800240204
 31
0.0
  0
LINE
  5
185
330
1F
100
AcDbEntity
  8
0
  6
CONTINUOUS
 62
     7
100
AcDbLine
 10
250.3300726025
 20
100.6800240204
 30
0.0
 11
243.3300726025
 21
100.6800240204
 31
0.0
  0
LINE
  5
186
330
1F
100
AcDbEntity
  8
0
  6
CONTINUOUS
 62
     7
100
AcDbLine
 10
243.3300726025
 20
101.6800240204
 30
0.0
 11
243.3300726025
 21
100.6800240204
 31
0.0
  0
LINE
  5
187
330
1F
100
AcDbEntity
  8
0
  6
CONTINUOUS
 62
     7
100
AcDbLine
 10
250.3300726025
 20
101.2800240204
 30
0.0
 11
250.3300726025
 21
100.6800240204
 31
0.0
  0
LINE
  5
188
330
1F
100
AcDbEntity
  8
0
  6
CONTINUOUS
 62
     7
100
AcDbLine
 10
242.3300726025
 20
101.6800240204
 30
0.0
 11
243.3300726025
 21
100.6800240204
 31
0.0
  0
ARC
  5
189
330
1F
100
AcDbEntity
  8
0
  6
CONTINUOUS
 62
     7
100
AcDbCircle
 10
256.8300726025
 20
130.6800240204
 30
0.0
 40
8.843725393319383
100
AcDbArc
 50
301.5998785091
 51
317.3058960123
  0
SPLINE
  5
18A
330
1F
100
AcDbEntity
  8
0
  6
CONTINUOUS
 62
     7
100
AcDbSpline
210
0.0
220
0.0
230
1.0
 70
     8
 71
     3
 72
    10
 73
     6
 74
     0
 42
0.00000001
 43
0.00000001
 40
0.0
 40
0.0
 40
0.0
 40
0.0
 40
0.5
 40
0.5
 40
1.0
 40
1.0
 40
1.0
 40
1.0
 10
261.4640440929548
 20
123.1475750788181
 30
0.0
 10
261.4125391416413
 20
123.2442995114064
 30
0.0
 10
261.3509889818172
 20
123.3525324219105
 30
0.0
 10
261.2065973070906
 20
123.5829566022985
 30
0.0
 10
261.1256125047852
 20
123.7019129193393
 30
0.0
 10
261.0390458739815
 20
123.8180240204402
 30
0.0
  0
SPLINE
  5
18B
330
1F
100
AcDbEntity
  8
0
  6
CONTINUOUS
 62
     7
100
AcDbSpline
210
0.0
220
0.0
230
1.0
 70
     8
 71
     3
 72
     8
 73
     4
 74
     0
 42
0.00000001
 43
0.00000001
 40
0.0
 40
0.0
 40
0.0
 40
0.0
 40
1.0
 40
1.0
 40
1.0
 40
1.0
 10
252.6210993310293
 20
123.8180240204402
 30
0.0
 10
252.4476302239273
 20
123.5853513514731
 30
0.0
 10
252.2990923647486
 20
123.3409889200933
 30
0.0
 10
252.1961011120559
 20
123.147575078818
 30
0.0
  0
ARC
  5
18C
330
1F
100
AcDbEntity
  8
0
  6
CONTINUOUS
 62
     7
100
AcDbCircle
 10
256.8300726025
 20
130.6800240204
 30
0.0
 40
8.843725393319405
100
AcDbArc
 50
222.6941039877
 51
238.4001214909
  0
ARC
  5
18D
330
1F
100
AcDbEntity
  8
0
  6
CONTINUOUS
 62
     7
100
AcDbCircle
 10
256.8300726025
 20
120.6800240204
 30
0.0
 40
5.250000000000019
100
AcDbArc
 50
151.9650721662
 51
28.0349278338
  0
LINE
  5
18E
330
1F
100
AcDbEntity
  8
0
  6
CONTINUOUS
 62
     7
100
AcDbLine
 10
263.3300726025
 20
100.6800240204
 30
0.0
 11
250.3300726025
 21
100.6800240204
 31
0.0
  0
ARC
  5
18F
330
1F
100
AcDbEntity
  8
0
  6
CONTINUOUS
 62
     7
100
AcDbCircle
 10
256.8300726025
 20
120.6800240204
 30
0.0
 40
5.250000000000002
100
AcDbArc
 50
36.7063702174
 51
143.2936297826
  0
LINE
  5
190
330
1F
100
AcDbEntity
  8
0
  6
CONTINUOUS
 62
     7
100
AcDbLine
 10
263.3300726025
 20
148.1800240204
 30
0.0
 11
250.3300726025
 21
148.1800240204
 31
0.0
  0
ARC
  5
191
330
1F
100
AcDbEntity
  8
0
  6
CONTINUOUS
 62
     8
100
AcDbCircle
 10
256.8300726025
 20
130.6800240204
 30
0.0
 40
8.049999999999997
100
AcDbArc
 50
301.523875692
 51
323.8478642798
  0
ARC
  5
192
330
1F
100
AcDbEntity
  8
0
  6
CONTINUOUS
 62
     8
100
AcDbCircle
 10
256.8300726025
 20
130.6800240204
 30
0.0
 40
8.050000000000018
100
AcDbArc
 50
216.1521357202
 51
238.476124308
  0
LINE
  5
193
330
1F
100
AcDbEntity
  8
0
  6
CONTINUOUS
 62
     7
100
AcDbLine
 10
256.8300726025
 20
167.8800240204
 30
0.0
 11
256.8300726025
 21
93.4800240204
 31
0.0
  0
DIMENSION
  5
194
330
1F
100
AcDbEntity
  8
0
  6
CONTINUOUS
 62
     7
100
AcDbDimension
  2
_D
 10
271.3300726025
 20
178.0008584452
 30
0.0
 11
257.4763610729
 21
178.0008584452
 31
0.0
 70
   160
  1
<>
  3
SLDDIMSTYLE1
100
AcDbAlignedDimension
 13
242.3300726025
 23
147.1800240204
 33
0.0
 14
271.3300726025
 24
147.1800240204
 34
0.0
100
AcDbRotatedDimension
  0
DIMENSION
  5
19F
330
1F
100
AcDbEntity
  8
0
  6
CONTINUOUS
 62
     7
100
AcDbDimension
  2
_D_1
 10
287.3300726025
 20
100.6800240204
 30
0.0
 11
287.3300726025
 21
123.6501722425
 31
0.0
 70
   160
  1
<>
  3
SLDDIMSTYLE1
100
AcDbAlignedDimension
 13
270.3300726025
 23
148.1800240204
 33
0.0
 14
270.3300726025
 24
100.6800240204
 34
0.0
 50
90.0
100
AcDbRotatedDimension
  0
INSERT
  5
1B4
330
1F
100
AcDbEntity
  8
0
  6
CONTINUOUS
 62
     7
100
AcDbBlockReference
  2
SW_CENTERMARKSYMBOL_0
 10
256.8300726025
 20
120.6800240204
 30
0.0
  0
LINE
  5
1B5
330
1F
100
AcDbEntity
  8
0
  6
CENTER
 62
     7
100
AcDbLine
 10
256.8300726025
 20
171.5323169592
 30
0.0
 11
256.8300726025
 21
90.6663359517
 31
0.0
  0
LINE
  5
1B6
330
1F
100
AcDbEntity
  8
0
  6
CONTINUOUS
 62
     7
100
AcDbLine
 10
248.8300726025
 20
169.5323169592
 30
0.0
 11
256.8300726025
 21
169.5323169592
 31
0.0
  0
INSERT
  5
1B7
330
1F
100
AcDbEntity
  8
0
  6
CONTINUOUS
 62
     7
100
AcDbBlockReference
  2
_OPEN30
 10
256.8300726025
 20
169.5323169592
 30
0.0
 41
3.0
 42
3.0
 50
0.0
  0
LINE
  5
1B8
330
1F
100
AcDbEntity
  8
0
  6
CONTINUOUS
 62
     7
100
AcDbLine
 10
248.8300726025
 20
92.6663359517
 30
0.0
 11
256.8300726025
 21
92.6663359517
 31
0.0
  0
INSERT
  5
1B9
330
1F
100
AcDbEntity
  8
0
  6
CONTINUOUS
 62
     7
100
AcDbBlockReference
  2
_OPEN30
 10
256.8300726025
 20
92.6663359517
 30
0.0
 41
3.0
 42
3.0
 50
0.0
  0
MTEXT
  5
1BA
330
1F
100
AcDbEntity
  8
0
  6
CONTINUOUS
 62
     7
100
AcDbMText
 10
248.8300726025
 20
175.1757382358
 30
0.0
 40
4.8506944444
 41
0.0
 71
     1
 72
     1
  1
A
  7
SLDTEXTSTYLE0
  0
MTEXT
  5
1BB
330
1F
100
AcDbEntity
  8
0
  6
CONTINUOUS
 62
     7
100
AcDbMText
 10
248.8300726025
 20
90.7870766666
 30
0.0
 40
4.8506944444
 41
0.0
 71
     1
 72
     1
  1
A
  7
SLDTEXTSTYLE0
  0
LINE
  5
1BC
330
1F
100
AcDbEntity
  8
0
  6
PHANTOM
 62
     7
100
AcDbLine
 10
161.7884030998
 20
115.6800240204
 30
0.0
 11
165.7884030998
 21
115.6800240204
 31
0.0
  0
LINE
  5
1BD
330
1F
100
AcDbEntity
  8
0
  6
PHANTOM
 62
     7
100
AcDbLine
 10
165.7884030998
 20
125.6800240204
 30
0.0
 11
161.7884030998
 21
125.6800240204
 31
0.0
  0
ARC
  5
1BE
330
1F
100
AcDbEntity
  8
0
  6
PHANTOM
 62
     7
100
AcDbCircle
 10
161.5384030998
 20
117.4300240204
 30
0.0
 40
0.2500000000000568
100
AcDbArc
 50
0.0
 51
90.0
  0
ARC
  5
1BF
330
1F
100
AcDbEntity
  8
0
  6
PHANTOM
 62
     7
100
AcDbCircle
 10
161.5384030998
 20
123.9300240204
 30
0.0
 40
0.2500000000000711
100
AcDbArc
 50
270.0
 51
0.0
  0
LINE
  5
1C0
330
1F
100
AcDbEntity
  8
0
  6
PHANTOM
 62
     7
100
AcDbLine
 10
142.4019030998
 20
117.6800240204
 30
0.0
 11
161.5384030998
 21
117.6800240204
 31
0.0
  0
LINE
  5
1C1
330
1F
100
AcDbEntity
  8
0
  6
PHANTOM
 62
     7
100
AcDbLine
 10
161.5384030998
 20
123.6800240204
 30
0.0
 11
142.4019030998
 21
123.6800240204
 31
0.0
  0
LINE
  5
1C2
330
1F
100
AcDbEntity
  8
0
  6
PHANTOM
 62
     7
100
AcDbLine
 10
142.4019030998
 20
123.6800240204
 30
0.0
 11
141.7884030998
 21
123.0665240204
 31
0.0
  0
LINE
  5
1C3
330
1F
100
AcDbEntity
  8
0
  6
PHANTOM
 62
     7
100
AcDbLine
 10
141.7884030998
 20
118.2935240204
 30
0.0
 11
142.4019030998
 21
117.6800240204
 31
0.0
  0
LINE
  5
1C4
330
1F
100
AcDbEntity
  8
0
  6
CONTINUOUS
 62
     7
100
AcDbLine
 10
161.7884030998
 20
115.4300240204
 30
0.0
 11
166.2884030998
 21
115.4300240204
 31
0.0
  0
LINE
  5
1C5
330
1F
100
AcDbEntity
  8
0
  6
CONTINUOUS
 62
     7
100
AcDbLine
 10
166.2884030998
 20
100.6800240204
 30
0.0
 11
166.2884030998
 21
115.4300240204
 31
0.0
  0
LINE
  5
1C6
330
1F
100
AcDbEntity
  8
0
  6
CONTINUOUS
 62
     7
100
AcDbLine
 10
166.2884030998
 20
100.6800240204
 30
0.0
 11
159.7884030998
 21
100.6800240204
 31
0.0
  0
LINE
  5
1C7
330
1F
100
AcDbEntity
  8
0
  6
CONTINUOUS
 62
     7
100
AcDbLine
 10
158.7884030998
 20
101.6800240204
 30
0.0
 11
159.7884030998
 21
100.6800240204
 31
0.0
  0
LINE
  5
1C8
330
1F
100
AcDbEntity
  8
0
  6
CONTINUOUS
 62
     7
100
AcDbLine
 10
158.7884030998
 20
101.6800240204
 30
0.0
 11
158.7884030998
 21
110.6800240204
 31
0.0
  0
LINE
  5
1C9
330
1F
100
AcDbEntity
  8
0
  6
CONTINUOUS
 62
     7
100
AcDbLine
 10
155.2884030998
 20
110.6800240204
 30
0.0
 11
158.7884030998
 21
110.6800240204
 31
0.0
  0
LINE
  5
1CA
330
1F
100
AcDbEntity
  8
0
  6
CONTINUOUS
 62
     7
100
AcDbLine
 10
155.2884030998
 20
116.2800240204
 30
0.0
 11
155.2884030998
 21
110.6800240204
 31
0.0
  0
LINE
  5
1CB
330
1F
100
AcDbEntity
  8
0
  6
CONTINUOUS
 62
     7
100
AcDbLine
 10
155.2884030998
 20
116.2800240204
 30
0.0
 11
156.2884030998
 21
117.2800240204
 31
0.0
  0
LINE
  5
1CC
330
1F
100
AcDbEntity
  8
0
  6
CONTINUOUS
 62
     7
100
AcDbLine
 10
156.2884030998
 20
117.2800240204
 30
0.0
 11
161.7884030998
 21
117.2800240204
 31
0.0
  0
LINE
  5
1CD
330
1F
100
AcDbEntity
  8
0
  6
CONTINUOUS
 62
     7
100
AcDbLine
 10
161.7884030998
 20
115.6800240204
 30
0.0
 11
161.7884030998
 21
115.4300240204
 31
0.0
  0
LINE
  5
1CE
330
1F
100
AcDbEntity
  8
0
  6
CONTINUOUS
 62
     7
100
AcDbLine
 10
156.2884030998
 20
124.0800240204
 30
0.0
 11
155.2884030998
 21
125.0800240204
 31
0.0
  0
LINE
  5
1CF
330
1F
100
AcDbEntity
  8
0
  6
CONTINUOUS
 62
     7
100
AcDbLine
 10
156.2884030998
 20
124.0800240204
 30
0.0
 11
156.2884030998
 21
123.6800240204
 31
0.0
  0
LINE
  5
1D0
330
1F
100
AcDbEntity
  8
0
  6
CONTINUOUS
 62
     7
100
AcDbLine
 10
156.2884030998
 20
117.6800240204
 30
0.0
 11
156.2884030998
 21
117.2800240204
 31
0.0
  0
LINE
  5
1D1
330
1F
100
AcDbEntity
  8
0
  6
CONTINUOUS
 62
     7
100
AcDbLine
 10
155.2884030998
 20
125.0800240204
 30
0.0
 11
155.2884030998
 21
123.6800240204
 31
0.0
  0
LINE
  5
1D2
330
1F
100
AcDbEntity
  8
0
  6
CONTINUOUS
 62
     7
100
AcDbLine
 10
155.2884030998
 20
117.6800240204
 30
0.0
 11
155.2884030998
 21
116.2800240204
 31
0.0
  0
LINE
  5
1D3
330
1F
100
AcDbEntity
  8
0
  6
CONTINUOUS
 62
     7
100
AcDbLine
 10
161.7884030998
 20
124.0800240204
 30
0.0
 11
156.2884030998
 21
124.0800240204
 31
0.0
  0
LINE
  5
1D4
330
1F
100
AcDbEntity
  8
0
  6
CONTINUOUS
 62
     7
100
AcDbLine
 10
158.7884030998
 20
130.6800240204
 30
0.0
 11
155.2884030998
 21
130.6800240204
 31
0.0
  0
LINE
  5
1D5
330
1F
100
AcDbEntity
  8
0
  6
CONTINUOUS
 62
     7
100
AcDbLine
 10
158.7884030998
 20
147.1800240204
 30
0.0
 11
158.7884030998
 21
130.6800240204
 31
0.0
  0
LINE
  5
1D6
330
1F
100
AcDbEntity
  8
0
  6
CONTINUOUS
 62
     7
100
AcDbLine
 10
159.7884030998
 20
148.1800240204
 30
0.0
 11
158.7884030998
 21
147.1800240204
 31
0.0
  0
LINE
  5
1D7
330
1F
100
AcDbEntity
  8
0
  6
CONTINUOUS
 62
     7
100
AcDbLine
 10
165.9884030998
 20
148.1800240204
 30
0.0
 11
159.7884030998
 21
148.1800240204
 31
0.0
  0
LINE
  5
1D8
330
1F
100
AcDbEntity
  8
0
  6
CONTINUOUS
 62
     7
100
AcDbLine
 10
165.9884030998
 20
148.1800240204
 30
0.0
 11
165.9884030998
 21
125.9300240204
 31
0.0
  0
LINE
  5
1D9
330
1F
100
AcDbEntity
  8
0
  6
CONTINUOUS
 62
     7
100
AcDbLine
 10
165.9884030998
 20
125.9300240204
 30
0.0
 11
161.7884030998
 21
125.9300240204
 31
0.0
  0
LINE
  5
1DA
330
1F
100
AcDbEntity
  8
0
  6
CONTINUOUS
 62
     7
100
AcDbLine
 10
161.7884030998
 20
125.9300240204
 30
0.0
 11
161.7884030998
 21
125.6800240204
 31
0.0
  0
LINE
  5
1DB
330
1F
100
AcDbEntity
  8
0
  6
CONTINUOUS
 62
     7
100
AcDbLine
 10
155.2884030998
 20
130.6800240204
 30
0.0
 11
155.2884030998
 21
125.0800240204
 31
0.0
  0
SPLINE
  5
1DC
330
1F
100
AcDbEntity
  8
0
  6
CONTINUOUS
 62
     7
100
AcDbSpline
210
0.0
220
0.0
230
1.0
 70
     8
 71
     3
 72
    10
 73
     6
 74
     0
 42
0.00000001
 43
0.00000001
 40
0.0
 40
0.0
 40
0.0
 40
0.0
 40
0.5
 40
0.5
 40
1.0
 40
1.0
 40
1.0
 40
1.0
 10
166.2884030998056
 20
123.1475750788181
 30
0.0
 10
166.1919472199017
 20
123.2442995114064
 30
0.0
 10
166.1171397977442
 20
123.3525324219105
 30
0.0
 10
166.0144463135289
 20
123.5829566022985
 30
0.0
 10
165.9884030998056
 20
123.7019129193393
 30
0.0
 10
165.9884030998056
 20
123.8180240204402
 30
0.0
  0
LINE
  5
1DD
330
1F
100
AcDbEntity
  8
0
  6
CONTINUOUS
 62
     7
100
AcDbLine
 10
166.2884030998
 20
115.4300240204
 30
0.0
 11
166.2884030998
 21
123.1475750788
 31
0.0
  0
LINE
  5
1DE
330
1F
100
AcDbEntity
  8
0
  6
CONTINUOUS
 62
     7
100
AcDbLine
 10
165.9884030998
 20
123.8180240204
 30
0.0
 11
165.9884030998
 21
125.9300240204
 31
0.0
  0
SPLINE
  5
1DF
330
1F
100
AcDbEntity
  8
0
  6
CONTINUOUS
 62
     7
100
AcDbSpline
210
0.0
220
0.0
230
1.0
 70
     8
 71
     3
 72
    14
 73
    10
 74
     0
 42
0.00000001
 43
0.00000001
 40
0.0
 40
0.0
 40
0.0
 40
0.0
 40
0.25
 40
0.25
 40
0.5
 40
0.5
 40
0.75
 40
0.75
 40
1.0
 40
1.0
 40
1.0
 40
1.0
 10
166.2884030998056
 20
127.0181967672178
 30
0.0
 10
166.2884030998056
 20
127.2651899508953
 30
0.0
 10
166.3036167303697
 20
127.507355273634
 30
0.0
 10
166.378167997212
 20
127.9791402969286
 30
0.0
 10
166.4388166464962
 20
128.2082742580464
 30
0.0
 10
166.6174290510789
 20
128.6650843807103
 30
0.0
 10
166.7331297693066
 20
128.8859284867267
 30
0.0
 10
166.9737369695133
 20
129.3440448678645
 30
0.0
 10
167.0978284219928
 20
129.5844297779207
 30
0.0
 10
167.1884030998058
 20
129.8412806521693
 30
0.0
  0
LINE
  5
1E0
330
1F
100
AcDbEntity
  8
0
  6
CONTINUOUS
 62
     7
100
AcDbLine
 10
166.2884030998
 20
123.1475750788
 30
0.0
 11
166.2884030998
 21
127.0181967672
 31
0.0
  0
LINE
  5
1E1
330
1F
100
AcDbEntity
  8
0
  6
CONTINUOUS
 62
     7
100
AcDbLine
 10
174.2884030998
 20
148.1800240204
 30
0.0
 11
174.2884030998
 21
100.6800240204
 31
0.0
  0
LINE
  5
1E2
330
1F
100
AcDbEntity
  8
0
  6
CONTINUOUS
 62
     7
100
AcDbLine
 10
174.6884030998
 20
148.1800240204
 30
0.0
 11
174.6884030998
 21
100.6800240204
 31
0.0
  0
LINE
  5
1E3
330
1F
100
AcDbEntity
  8
0
  6
CONTINUOUS
 62
     7
100
AcDbLine
 10
174.6884030998
 20
100.6800240204
 30
0.0
 11
174.2884030998
 21
100.6800240204
 31
0.0
  0
LINE
  5
1E4
330
1F
100
AcDbEntity
  8
0
  6
CONTINUOUS
 62
     7
100
AcDbLine
 10
174.6884030998
 20
148.1800240204
 30
0.0
 11
174.2884030998
 21
148.1800240204
 31
0.0
  0
LINE
  5
1E5
330
1F
100
AcDbEntity
  8
0
  6
CONTINUOUS
 62
     7
100
AcDbLine
 10
181.8884030998
 20
147.5800240204
 30
0.0
 11
181.2884030998
 21
148.1800240204
 31
0.0
  0
LINE
  5
1E6
330
1F
100
AcDbEntity
  8
0
  6
CONTINUOUS
 62
     7
100
AcDbLine
 10
181.8884030998
 20
101.2800240204
 30
0.0
 11
181.8884030998
 21
147.5800240204
 31
0.0
  0
LINE
  5
1E7
330
1F
100
AcDbEntity
  8
0
  6
CONTINUOUS
 62
     7
100
AcDbLine
 10
181.2884030998
 20
100.6800240204
 30
0.0
 11
181.8884030998
 21
101.2800240204
 31
0.0
  0
LINE
  5
1E8
330
1F
100
AcDbEntity
  8
0
  6
CONTINUOUS
 62
     7
100
AcDbLine
 10
181.2884030998
 20
100.6800240204
 30
0.0
 11
174.6884030998
 21
100.6800240204
 31
0.0
  0
LINE
  5
1E9
330
1F
100
AcDbEntity
  8
0
  6
CONTINUOUS
 62
     7
100
AcDbLine
 10
181.2884030998
 20
148.1800240204
 30
0.0
 11
174.6884030998
 21
148.1800240204
 31
0.0
  0
LINE
  5
1EA
330
1F
100
AcDbEntity
  8
0
  6
CONTINUOUS
 62
     7
100
AcDbLine
 10
182.2884030998
 20
147.1800240204
 30
0.0
 11
182.2884030998
 21
101.6800240204
 31
0.0
  0
LINE
  5
1EB
330
1F
100
AcDbEntity
  8
0
  6
CONTINUOUS
 62
     7
100
AcDbLine
 10
181.8884030998
 20
147.5800240204
 30
0.0
 11
182.2884030998
 21
147.1800240204
 31
0.0
  0
LINE
  5
1EC
330
1F
100
AcDbEntity
  8
0
  6
CONTINUOUS
 62
     7
100
AcDbLine
 10
182.2884030998
 20
101.6800240204
 30
0.0
 11
181.8884030998
 21
101.2800240204
 31
0.0
  0
SPLINE
  5
1ED
330
1F
100
AcDbEntity
  8
0
  6
CONTINUOUS
 62
     7
100
AcDbSpline
210
0.0
220
0.0
230
1.0
 70
     8
 71
     3
 72
     8
 73
     4
 74
     0
 42
0.00000001
 43
0.00000001
 40
0.0
 40
0.0
 40
0.0
 40
0.0
 40
1.0
 40
1.0
 40
1.0
 40
1.0
 10
167.1884030998056
 20
129.8412806521694
 30
0.0
 10
167.2869678374749
 20
130.1207896678429
 30
0.0
 10
167.3876898959043
 20
130.4004041376575
 30
0.0
 10
167.4884030998056
 20
130.6800240204402
 30
0.0
  0
LINE
  5
1EE
330
1F
100
AcDbEntity
  8
0
  6
CONTINUOUS
 62
     7
100
AcDbLine
 10
167.4884030998
 20
100.6800240204
 30
0.0
 11
166.2884030998
 21
100.6800240204
 31
0.0
  0
LINE
  5
1EF
330
1F
100
AcDbEntity
  8
0
  6
CONTINUOUS
 62
     7
100
AcDbLine
 10
167.1884030998
 20
148.1800240204
 30
0.0
 11
165.9884030998
 21
148.1800240204
 31
0.0
  0
LINE
  5
1F0
330
1F
100
AcDbEntity
  8
0
  6
CONTINUOUS
 62
     7
100
AcDbLine
 10
174.2884030998
 20
100.6800240204
 30
0.0
 11
173.0884030998
 21
100.6800240204
 31
0.0
  0
LINE
  5
1F1
330
1F
100
AcDbEntity
  8
0
  6
CONTINUOUS
 62
     7
100
AcDbLine
 10
174.2884030998
 20
148.1800240204
 30
0.0
 11
173.0884030998
 21
148.1800240204
 31
0.0
  0
LINE
  5
1F2
330
1F
100
AcDbEntity
  8
0
  6
CONTINUOUS
 62
     7
100
AcDbLine
 10
173.0884030998
 20
100.6800240204
 30
0.0
 11
167.4884030998
 21
100.6800240204
 31
0.0
  0
LINE
  5
1F3
330
1F
100
AcDbEntity
  8
0
  6
CONTINUOUS
 62
     7
100
AcDbLine
 10
173.0884030998
 20
148.1800240204
 30
0.0
 11
167.1884030998
 21
148.1800240204
 31
0.0
  0
LINE
  5
1F4
330
1F
100
AcDbEntity
  8
0
  6
PHANTOM
 62
     7
100
AcDbLine
 10
165.7884030998
 20
115.6800240204
 30
0.0
 11
165.7884030998
 21
125.6800240204
 31
0.0
  0
LINE
  5
1F5
330
1F
100
AcDbEntity
  8
0
  6
PHANTOM
 62
     7
100
AcDbLine
 10
161.7884030998
 20
115.6800240204
 30
0.0
 11
161.7884030998
 21
125.6800240204
 31
0.0
  0
LINE
  5
1F6
330
1F
100
AcDbEntity
  8
0
  6
PHANTOM
 62
     7
100
AcDbLine
 10
142.4019030998
 20
117.6800240204
 30
0.0
 11
142.4019030998
 21
123.6800240204
 31
0.0
  0
LINE
  5
1F7
330
1F
100
AcDbEntity
  8
0
  6
PHANTOM
 62
     7
100
AcDbLine
 10
141.7884030998
 20
118.2935240204
 30
0.0
 11
141.7884030998
 21
123.0665240204
 31
0.0
  0
LINE
  5
1F8
330
1F
100
AcDbEntity
  8
0
  6
CONTINUOUS
 62
     8
100
AcDbLine
 10
167.1884030998
 20
130.6800240204
 30
0.0
 11
165.9884030998
 21
130.6800240204
 31
0.0
  0
LINE
  5
1F9
330
1F
100
AcDbEntity
  8
0
  6
CONTINUOUS
 62
     8
100
AcDbLine
 10
167.1884030998
 20
129.8412806522
 30
0.0
 11
167.1884030998
 21
130.6800240204
 31
0.0
  0
LINE
  5
1FA
330
1F
100
AcDbEntity
  8
0
  6
CONTINUOUS
 62
     8
100
AcDbLine
 10
167.4884030998
 20
130.6800240204
 30
0.0
 11
167.4884030998
 21
100.6800240204
 31
0.0
  0
LINE
  5
1FB
330
1F
100
AcDbEntity
  8
0
  6
CONTINUOUS
 62
     8
100
AcDbLine
 10
167.1884030998
 20
130.6800240204
 30
0.0
 11
167.1884030998
 21
148.1800240204
 31
0.0
  0
LINE
  5
1FC
330
1F
100
AcDbEntity
  8
0
  6
CONTINUOUS
 62
     8
100
AcDbLine
 10
173.0884030998
 20
148.1800240204
 30
0.0
 11
173.0884030998
 21
100.6800240204
 31
0.0
  0
LINE
  5
1FD
330
1F
100
AcDbEntity
  8
0
  6
CONTINUOUS
 62
     8
100
AcDbLine
 10
167.4884030998
 20
130.6800240204
 30
0.0
 11
167.1884030998
 21
130.6800240204
 31
0.0
  0
LINE
  5
1FE
330
1F
100
AcDbEntity
  8
0
  6
CONTINUOUS
 62
     8
100
AcDbLine
 10
161.5384030998
 20
117.6800240204
 30
0.0
 11
161.5384030998
 21
123.6800240204
 31
0.0
  0
LINE
  5
1FF
330
1F
100
AcDbEntity
  8
0
  6
CONTINUOUS
 62
     7
100
AcDbLine
 10
155.2884030998
 20
124.6800240204
 30
0.0
 11
161.7884030998
 21
124.6800240204
 31
0.0
  0
LINE
  5
200
330
1F
100
AcDbEntity
  8
0
  6
CONTINUOUS
 62
     7
100
AcDbLine
 10
155.2884030998
 20
116.6800240204
 30
0.0
 11
161.7884030998
 21
116.6800240204
 31
0.0
  0
DIMENSION
  5
201
330
1F
100
AcDbEntity
  8
0
  6
CONTINUOUS
 62
     7
100
AcDbDimension
  2
_D_2
 10
166.2884030998
 20
84.6800240204
 30
0.0
 11
176.2730087399
 21
84.6800240204
 31
0.0
 70
   160
  1
(<>)
  3
SLDDIMSTYLE2
100
AcDbAlignedDimension
 13
161.7884030998
 23
115.4300240204
 33
0.0
 14
166.2884030998
 24
100.6800240204
 34
0.0
100
AcDbRotatedDimension
  0
DIMENSION
  5
210
330
1F
100
AcDbEntity
  8
0
  6
CONTINUOUS
 62
     7
100
AcDbDimension
  2
_D_3
 10
194.2310292391
 20
100.6800240204
 30
0.0
 11
194.2310292391
 21
110.9010234804
 31
0.0
 70
   160
  1
<>
  3
SLDDIMSTYLE1
100
AcDbAlignedDimension
 13
186.2324856259
 23
120.6800240204
 33
0.0
 14
181.2884030998
 24
100.6800240204
 34
0.0
 50
90.0
100
AcDbRotatedDimension
  0
DIMENSION
  5
21A
330
1F
100
AcDbEntity
  8
0
  6
CONTINUOUS
 62
     7
100
AcDbDimension
  2
_D_4
 10
155.2884030998
 20
84.6800240204
 30
0.0
 11
145.2884030998
 21
84.6800240204
 31
0.0
 70
   160
  1
(<>)
  3
SLDDIMSTYLE1
100
AcDbAlignedDimension
 13
161.7884030998
 23
115.4300240204
 33
0.0
 14
155.2884030998
 24
110.6800240204
 34
0.0
100
AcDbRotatedDimension
  0
DIMENSION
  5
227
330
1F
100
AcDbEntity
  8
0
  6
CONTINUOUS
 62
     7
100
AcDbDimension
  2
_D_5
 10
204.2884030998
 20
115.4300240204
 30
0.0
 11
204.2884030998
 21
133.4016721445
 31
0.0
 70
   160
  1
%%c<>
  3
SLDDIMSTYLE1
100
AcDbAlignedDimension
 13
165.9884030998
 23
125.9300240204
 33
0.0
 14
166.2884030998
 24
115.4300240204
 34
0.0
 50
90.0
100
AcDbRotatedDimension
  0
DIMENSION
  5
233
330
1F
100
AcDbEntity
  8
0
  6
CONTINUOUS
 62
     7
100
AcDbDimension
  2
_D_6
 10
133.9661227352
 20
117.2800240204
 30
0.0
 11
133.9661227352
 21
131.278858928
 31
0.0
 70
   160
  1
%%c<>
  3
SLDDIMSTYLE1
100
AcDbAlignedDimension
 13
156.2884030998
 23
124.0800240204
 33
0.0
 14
156.2884030998
 24
117.2800240204
 34
0.0
 50
90.0
100
AcDbRotatedDimension
  0
MTEXT
  5
23F
330
1F
100
AcDbEntity
  8
0
  6
CONTINUOUS
 62
     7
100
AcDbMText
 10
164.5115682638
 20
80.5689480675
 30
0.0
 40
4.2333333333
 41
0.0
 71
     2
 72
     1
  1
A-A
  7
SLDTEXTSTYLE0
  0
LINE
  5
240
330
1F
100
AcDbEntity
  8
0
  6
CENTERX2
 62
     7
100
AcDbLine
 10
151.2884030998
 20
120.6800240204
 30
0.0
 11
186.2324856259
 21
120.6800240204
 31
0.0
  0
LINE
  5
241
330
1F
100
AcDbEntity
  8
0
  6
CONTINUOUS
 62
     7
100
AcDbLine
 10
76.1042551737
 20
130.6800240204
 30
0.0
 11
76.1042551737
 21
110.6800240204
 31
0.0
  0
LINE
  5
242
330
1F
100
AcDbEntity
  8
0
  6
CONTINUOUS
 62
     7
100
AcDbLine
 10
75.7042551737
 20
110.6800240204
 30
0.0
 11
75.7042551737
 21
130.6800240204
 31
0.0
  0
LINE
  5
243
330
1F
100
AcDbEntity
  8
0
  6
CONTINUOUS
 62
     7
100
AcDbLine
 10
75.7042551737
 20
130.6800240204
 30
0.0
 11
76.1042551737
 21
130.6800240204
 31
0.0
  0
LINE
  5
244
330
1F
100
AcDbEntity
  8
0
  6
CONTINUOUS
 62
     7
100
AcDbLine
 10
76.1042551737
 20
110.6800240204
 30
0.0
 11
75.7042551737
 21
110.6800240204
 31
0.0
  0
LINE
  5
245
330
1F
100
AcDbEntity
  8
0
  6
CONTINUOUS
 62
     7
100
AcDbLine
 10
91.3042551737
 20
110.6800240204
 30
0.0
 11
91.3042551737
 21
130.6800240204
 31
0.0
  0
CIRCLE
  5
246
330
1F
100
AcDbEntity
  8
0
  6
CONTINUOUS
 62
     7
100
AcDbCircle
 10
83.7042551737
 20
120.6800240204
 30
0.0
 40
4.400000000000006
  0
LINE
  5
247
330
1F
100
AcDbEntity
  8
0
  6
CONTINUOUS
 62
     7
100
AcDbLine
 10
91.3042551737
 20
130.6800240204
 30
0.0
 11
76.1042551737
 21
130.6800240204
 31
0.0
  0
LINE
  5
248
330
1F
100
AcDbEntity
  8
0
  6
CONTINUOUS
 62
     7
100
AcDbLine
 10
76.1042551737
 20
110.6800240204
 30
0.0
 11
91.3042551737
 21
110.6800240204
 31
0.0
  0
CIRCLE
  5
249
330
1F
100
AcDbEntity
  8
0
  6
CONTINUOUS
 62
     7
100
AcDbCircle
 10
83.7042551737
 20
120.6800240204
 30
0.0
 40
3.400000000000006
  0
LINE
  5
24A
330
1F
100
AcDbEntity
  8
0
  6
CONTINUOUS
 62
     7
100
AcDbLine
 10
91.7042551737
 20
130.6800240204
 30
0.0
 11
91.7042551737
 21
110.6800240204
 31
0.0
  0
LINE
  5
24B
330
1F
100
AcDbEntity
  8
0
  6
CONTINUOUS
 62
     7
100
AcDbLine
 10
91.3042551737
 20
130.6800240204
 30
0.0
 11
91.7042551737
 21
130.6800240204
 31
0.0
  0
LINE
  5
24C
330
1F
100
AcDbEntity
  8
0
  6
CONTINUOUS
 62
     7
100
AcDbLine
 10
91.7042551737
 20
110.6800240204
 30
0.0
 11
91.3042551737
 21
110.6800240204
 31
0.0
  0
LINE
  5
24D
330
1F
100
AcDbEntity
  8
0
  6
CONTINUOUS
 62
     7
100
AcDbLine
 10
69.6042551737
 20
130.6800240204
 30
0.0
 11
69.6042551737
 21
110.6800240204
 31
0.0
  0
LINE
  5
24E
330
1F
100
AcDbEntity
  8
0
  6
CONTINUOUS
 62
     7
100
AcDbLine
 10
69.2042551737
 20
110.6800240204
 30
0.0
 11
69.2042551737
 21
130.6800240204
 31
0.0
  0
LINE
  5
24F
330
1F
100
AcDbEntity
  8
0
  6
CONTINUOUS
 62
     7
100
AcDbLine
 10
69.2042551737
 20
130.6800240204
 30
0.0
 11
69.6042551737
 21
130.6800240204
 31
0.0
  0
LINE
  5
250
330
1F
100
AcDbEntity
  8
0
  6
CONTINUOUS
 62
     7
100
AcDbLine
 10
69.6042551737
 20
110.6800240204
 30
0.0
 11
69.2042551737
 21
110.6800240204
 31
0.0
  0
LINE
  5
251
330
1F
100
AcDbEntity
  8
0
  6
CONTINUOUS
 62
     7
100
AcDbLine
 10
72.7042551737
 20
130.6800240204
 30
0.0
 11
72.7042551737
 21
110.6800240204
 31
0.0
  0
LINE
  5
252
330
1F
100
AcDbEntity
  8
0
  6
CONTINUOUS
 62
     7
100
AcDbLine
 10
72.7042551737
 20
130.6800240204
 30
0.0
 11
69.6042551737
 21
130.6800240204
 31
0.0
  0
LINE
  5
253
330
1F
100
AcDbEntity
  8
0
  6
CONTINUOUS
 62
     7
100
AcDbLine
 10
69.6042551737
 20
110.6800240204
 30
0.0
 11
72.7042551737
 21
110.6800240204
 31
0.0
  0
LINE
  5
254
330
1F
100
AcDbEntity
  8
0
  6
CONTINUOUS
 62
     7
100
AcDbLine
 10
97.8042551737
 20
110.6800240204
 30
0.0
 11
97.8042551737
 21
130.6800240204
 31
0.0
  0
LINE
  5
255
330
1F
100
AcDbEntity
  8
0
  6
CONTINUOUS
 62
     7
100
AcDbLine
 10
94.7042551737
 20
130.6800240204
 30
0.0
 11
94.7042551737
 21
110.6800240204
 31
0.0
  0
LINE
  5
256
330
1F
100
AcDbEntity
  8
0
  6
CONTINUOUS
 62
     7
100
AcDbLine
 10
97.8042551737
 20
130.6800240204
 30
0.0
 11
94.7042551737
 21
130.6800240204
 31
0.0
  0
LINE
  5
257
330
1F
100
AcDbEntity
  8
0
  6
CONTINUOUS
 62
     7
100
AcDbLine
 10
94.7042551737
 20
110.6800240204
 30
0.0
 11
97.8042551737
 21
110.6800240204
 31
0.0
  0
LINE
  5
258
330
1F
100
AcDbEntity
  8
0
  6
CONTINUOUS
 62
     7
100
AcDbLine
 10
98.2042551737
 20
130.6800240204
 30
0.0
 11
98.2042551737
 21
110.6800240204
 31
0.0
  0
LINE
  5
259
330
1F
100
AcDbEntity
  8
0
  6
CONTINUOUS
 62
     7
100
AcDbLine
 10
97.8042551737
 20
130.6800240204
 30
0.0
 11
98.2042551737
 21
130.6800240204
 31
0.0
  0
LINE
  5
25A
330
1F
100
AcDbEntity
  8
0
  6
CONTINUOUS
 62
     7
100
AcDbLine
 10
98.2042551737
 20
110.6800240204
 30
0.0
 11
97.8042551737
 21
110.6800240204
 31
0.0
  0
LINE
  5
25B
330
1F
100
AcDbEntity
  8
0
  6
CONTINUOUS
 62
     7
100
AcDbLine
 10
75.7042551737
 20
130.6800240204
 30
0.0
 11
72.7042551737
 21
130.6800240204
 31
0.0
  0
LINE
  5
25C
330
1F
100
AcDbEntity
  8
0
  6
CONTINUOUS
 62
     7
100
AcDbLine
 10
72.7042551737
 20
110.6800240204
 30
0.0
 11
75.7042551737
 21
110.6800240204
 31
0.0
  0
LINE
  5
25D
330
1F
100
AcDbEntity
  8
0
  6
CONTINUOUS
 62
     7
100
AcDbLine
 10
94.7042551737
 20
130.6800240204
 30
0.0
 11
91.7042551737
 21
130.6800240204
 31
0.0
  0
LINE
  5
25E
330
1F
100
AcDbEntity
  8
0
  6
CONTINUOUS
 62
     7
100
AcDbLine
 10
91.7042551737
 20
110.6800240204
 30
0.0
 11
94.7042551737
 21
110.6800240204
 31
0.0
  0
LINE
  5
25F
330
1F
100
AcDbEntity
  8
0
  6
CONTINUOUS
 62
     7
100
AcDbLine
 10
69.2042551737
 20
101.6800240204
 30
0.0
 11
98.2042551737
 21
101.6800240204
 31
0.0
  0
LINE
  5
260
330
1F
100
AcDbEntity
  8
0
  6
CONTINUOUS
 62
     7
100
AcDbLine
 10
98.2042551737
 20
110.6800240204
 30
0.0
 11
98.2042551737
 21
101.6800240204
 31
0.0
  0
LINE
  5
261
330
1F
100
AcDbEntity
  8
0
  6
CONTINUOUS
 62
     7
100
AcDbLine
 10
69.2042551737
 20
101.6800240204
 30
0.0
 11
69.2042551737
 21
110.6800240204
 31
0.0
  0
LINE
  5
262
330
1F
100
AcDbEntity
  8
0
  6
CONTINUOUS
 62
     7
100
AcDbLine
 10
98.2042551737
 20
101.6800240204
 30
0.0
 11
97.2042551737
 21
100.6800240204
 31
0.0
  0
LINE
  5
263
330
1F
100
AcDbEntity
  8
0
  6
CONTINUOUS
 62
     7
100
AcDbLine
 10
97.2042551737
 20
100.6800240204
 30
0.0
 11
70.2042551737
 21
100.6800240204
 31
0.0
  0
LINE
  5
264
330
1F
100
AcDbEntity
  8
0
  6
CONTINUOUS
 62
     7
100
AcDbLine
 10
69.2042551737
 20
101.6800240204
 30
0.0
 11
70.2042551737
 21
100.6800240204
 31
0.0
  0
LINE
  5
265
330
1F
100
AcDbEntity
  8
0
  6
CONTINUOUS
 62
     7
100
AcDbLine
 10
98.2042551737
 20
147.1800240204
 30
0.0
 11
69.2042551737
 21
147.1800240204
 31
0.0
  0
LINE
  5
266
330
1F
100
AcDbEntity
  8
0
  6
CONTINUOUS
 62
     7
100
AcDbLine
 10
98.2042551737
 20
147.1800240204
 30
0.0
 11
98.2042551737
 21
130.6800240204
 31
0.0
  0
LINE
  5
267
330
1F
100
AcDbEntity
  8
0
  6
CONTINUOUS
 62
     7
100
AcDbLine
 10
69.2042551737
 20
130.6800240204
 30
0.0
 11
69.2042551737
 21
147.1800240204
 31
0.0
  0
LINE
  5
268
330
1F
100
AcDbEntity
  8
0
  6
CONTINUOUS
 62
     7
100
AcDbLine
 10
70.2042551737
 20
148.1800240204
 30
0.0
 11
97.2042551737
 21
148.1800240204
 31
0.0
  0
LINE
  5
269
330
1F
100
AcDbEntity
  8
0
  6
CONTINUOUS
 62
     7
100
AcDbLine
 10
97.2042551737
 20
148.1800240204
 30
0.0
 11
98.2042551737
 21
147.1800240204
 31
0.0
  0
LINE
  5
26A
330
1F
100
AcDbEntity
  8
0
  6
CONTINUOUS
 62
     7
100
AcDbLine
 10
70.2042551737
 20
148.1800240204
 30
0.0
 11
69.2042551737
 21
147.1800240204
 31
0.0
  0
DIMENSION
  5
26B
330
1F
100
AcDbEntity
  8
0
  6
CONTINUOUS
 62
     7
100
AcDbDimension
  2
_D_7
 10
114.2320656869
 20
110.6800240204
 30
0.0
 11
114.2320656869
 21
118.6819174345
 31
0.0
 70
   160
  1
<>
  3
SLDDIMSTYLE1
100
AcDbAlignedDimension
 13
98.2042551737
 23
130.6800240204
 33
0.0
 14
98.2042551737
 24
110.6800240204
 34
0.0
 50
90.0
100
AcDbRotatedDimension
  0
DIMENSION
  5
275
330
1F
100
AcDbEntity
  8
0
  6
CONTINUOUS
 62
     7
100
AcDbDimension
  2
_D_8
 10
114.2320656869
 20
100.6800240204
 30
0.0
 11
114.2320656869
 21
105.1626610089
 31
0.0
 70
   160
  1
<>
  3
SLDDIMSTYLE2
100
AcDbAlignedDimension
 13
97.8042551737
 23
110.6800240204
 33
0.0
 14
97.2042551737
 24
100.6800240204
 34
0.0
 50
90.0
100
AcDbRotatedDimension
  0
DIMENSION
  5
281
330
1F
100
AcDbEntity
  8
0
  6
CONTINUOUS
 62
     7
100
AcDbDimension
  2
_D_9
 10
114.2320656869
 20
130.6800240204
 30
0.0
 11
114.2320656869
 21
139.2313049703
 31
0.0
 70
   160
  1
(<>)
  3
SLDDIMSTYLE1
100
AcDbAlignedDimension
 13
97.2042551737
 23
148.1800240204
 33
0.0
 14
98.2042551737
 24
130.6800240204
 34
0.0
 50
90.0
100
AcDbRotatedDimension
  0
DIMENSION
  5
28D
330
1F
100
AcDbEntity
  8
0
  6
CONTINUOUS
 62
     7
100
AcDbDimension
  2
_D_10
 10
91.7042551737
 20
84.6800240204
 30
0.0
 11
83.2962412495
 21
84.6800240204
 31
0.0
 70
   160
  1
<>h7
  3
SLDDIMSTYLE3
100
AcDbAlignedDimension
 13
75.7042551737
 23
110.6800240204
 33
0.0
 14
91.7042551737
 24
110.6800240204
 34
0.0
100
AcDbRotatedDimension
  0
INSERT
  5
2A2
330
1F
100
AcDbEntity
  8
0
  6
CONTINUOUS
 62
     7
100
AcDbBlockReference
  2
SW_NOTE_0_5
 10
112.0295508274
 20
86.2801420377
 30
0.0
  0
LEADER
  5
2A3
330
1F
100
AcDbEntity
  8
0
  6
CONTINUOUS
 62
     7
100
AcDbLeader
  3
SLDDIMSTYLE0
 76
     2
 10
86.1314016932
 20
117.010015877
 30
0.0
 10
112.0295508274
 20
86.2801420377
 30
0.0
1001
ACAD
1000
DSTYLE
1002
{
1070
     6
1000
OPEN30
1002
}
  0
INSERT
  5
2AF
330
1F
100
AcDbEntity
  8
0
  6
CONTINUOUS
 62
     7
100
AcDbBlockReference
  2
SW_CENTERMARKSYMBOL_1
 10
83.7042551737
 20
120.6800240204
 30
0.0
  0
LINE
  5
2B0
330
1F
100
AcDbEntity
  8
0
  6
CONTINUOUS
 62
     7
100
AcDbLine
 10
270.3300726025
 20
247.7543934121
 30
0.0
 11
243.3300726025
 21
247.7543934121
 31
0.0
  0
LINE
  5
2B1
330
1F
100
AcDbEntity
  8
0
  6
CONTINUOUS
 62
     7
100
AcDbLine
 10
270.3300726025
 20
226.2543934121
 30
0.0
 11
270.3300726025
 21
247.7543934121
 31
0.0
  0
LINE
  5
2B2
330
1F
100
AcDbEntity
  8
0
  6
CONTINUOUS
 62
     7
100
AcDbLine
 10
263.3300726025
 20
226.2543934121
 30
0.0
 11
270.3300726025
 21
226.2543934121
 31
0.0
  0
LINE
  5
2B3
330
1F
100
AcDbEntity
  8
0
  6
CONTINUOUS
 62
     7
100
AcDbLine
 10
263.3300726025
 20
226.2543934121
 30
0.0
 11
263.3300726025
 21
232.8543934121
 31
0.0
  0
LINE
  5
2B4
330
1F
100
AcDbEntity
  8
0
  6
CONTINUOUS
 62
     7
100
AcDbLine
 10
263.3300726025
 20
232.8543934121
 30
0.0
 11
263.7300726025
 21
233.2543934121
 31
0.0
  0
LINE
  5
2B5
330
1F
100
AcDbEntity
  8
0
  6
CONTINUOUS
 62
     7
100
AcDbLine
 10
263.7300726025
 20
233.2543934121
 30
0.0
 11
264.8800726025
 21
233.2543934121
 31
0.0
  0
ARC
  5
2B6
330
1F
100
AcDbEntity
  8
0
  6
CONTINUOUS
 62
     7
100
AcDbCircle
 10
264.8800726025
 20
234.4543934121
 30
0.0
 40
1.200000000000017
100
AcDbArc
 50
270.0
 51
0.0
  0
LINE
  5
2B7
330
1F
100
AcDbEntity
  8
0
  6
CONTINUOUS
 62
     7
100
AcDbLine
 10
266.0800726025
 20
234.4543934121
 30
0.0
 11
266.0800726025
 21
240.3543934121
 31
0.0
  0
ARC
  5
2B8
330
1F
100
AcDbEntity
  8
0
  6
CONTINUOUS
 62
     7
100
AcDbCircle
 10
264.8800726025
 20
240.3543934121
 30
0.0
 40
1.200000000000017
100
AcDbArc
 50
0.0
 51
90.0
  0
LINE
  5
2B9
330
1F
100
AcDbEntity
  8
0
  6
CONTINUOUS
 62
     7
100
AcDbLine
 10
264.8800726025
 20
241.5543934121
 30
0.0
 11
248.7800726025
 21
241.5543934121
 31
0.0
  0
ARC
  5
2BA
330
1F
100
AcDbEntity
  8
0
  6
CONTINUOUS
 62
     7
100
AcDbCircle
 10
248.7800726025
 20
240.3543934121
 30
0.0
 40
1.200000000000017
100
AcDbArc
 50
90.0
 51
180.0
  0
LINE
  5
2BB
330
1F
100
AcDbEntity
  8
0
  6
CONTINUOUS
 62
     7
100
AcDbLine
 10
247.5800726025
 20
240.3543934121
 30
0.0
 11
247.5800726025
 21
234.4543934121
 31
0.0
  0
ARC
  5
2BC
330
1F
100
AcDbEntity
  8
0
  6
CONTINUOUS
 62
     7
100
AcDbCircle
 10
248.7800726025
 20
234.4543934121
 30
0.0
 40
1.200000000000017
100
AcDbArc
 50
180.0
 51
270.0
  0
LINE
  5
2BD
330
1F
100
AcDbEntity
  8
0
  6
CONTINUOUS
 62
     7
100
AcDbLine
 10
248.7800726025
 20
233.2543934121
 30
0.0
 11
249.9300726025
 21
233.2543934121
 31
0.0
  0
LINE
  5
2BE
330
1F
100
AcDbEntity
  8
0
  6
CONTINUOUS
 62
     7
100
AcDbLine
 10
249.9300726025
 20
233.2543934121
 30
0.0
 11
250.3300726025
 21
232.8543934121
 31
0.0
  0
LINE
  5
2BF
330
1F
100
AcDbEntity
  8
0
  6
CONTINUOUS
 62
     7
100
AcDbLine
 10
250.3300726025
 20
232.8543934121
 30
0.0
 11
250.3300726025
 21
226.2543934121
 31
0.0
  0
LINE
  5
2C0
330
1F
100
AcDbEntity
  8
0
  6
CONTINUOUS
 62
     7
100
AcDbLine
 10
243.3300726025
 20
226.2543934121
 30
0.0
 11
250.3300726025
 21
226.2543934121
 31
0.0
  0
LINE
  5
2C1
330
1F
100
AcDbEntity
  8
0
  6
CONTINUOUS
 62
     7
100
AcDbLine
 10
243.3300726025
 20
247.7543934121
 30
0.0
 11
243.3300726025
 21
226.2543934121
 31
0.0
  0
LINE
  5
2C2
330
1F
100
AcDbEntity
  8
0
  6
CONTINUOUS
 62
     7
100
AcDbLine
 10
243.3300726025
 20
247.7543934121
 30
0.0
 11
242.3300726025
 21
248.7543934121
 31
0.0
  0
LINE
  5
2C3
330
1F
100
AcDbEntity
  8
0
  6
CONTINUOUS
 62
     7
100
AcDbLine
 10
242.3300726025
 20
248.7543934121
 30
0.0
 11
271.3300726025
 21
248.7543934121
 31
0.0
  0
LINE
  5
2C4
330
1F
100
AcDbEntity
  8
0
  6
CONTINUOUS
 62
     7
100
AcDbLine
 10
270.3300726025
 20
247.7543934121
 30
0.0
 11
271.3300726025
 21
248.7543934121
 31
0.0
  0
LINE
  5
2C5
330
1F
100
AcDbEntity
  8
0
  6
CONTINUOUS
 62
     7
100
AcDbLine
 10
243.3300726025
 20
226.2543934121
 30
0.0
 11
242.3300726025
 21
226.2543934121
 31
0.0
  0
LINE
  5
2C6
330
1F
100
AcDbEntity
  8
0
  6
CONTINUOUS
 62
     7
100
AcDbLine
 10
242.3300726025
 20
226.2543934121
 30
0.0
 11
242.3300726025
 21
248.7543934121
 31
0.0
  0
LINE
  5
2C7
330
1F
100
AcDbEntity
  8
0
  6
CONTINUOUS
 62
     7
100
AcDbLine
 10
271.3300726025
 20
248.7543934121
 30
0.0
 11
271.3300726025
 21
226.2543934121
 31
0.0
  0
LINE
  5
2C8
330
1F
100
AcDbEntity
  8
0
  6
CONTINUOUS
 62
     7
100
AcDbLine
 10
270.3300726025
 20
226.2543934121
 30
0.0
 11
271.3300726025
 21
226.2543934121
 31
0.0
  0
LINE
  5
2C9
330
1F
100
AcDbEntity
  8
0
  6
CONTINUOUS
 62
     7
100
AcDbLine
 10
271.3300726025
 20
226.2543934121
 30
0.0
 11
270.3300726025
 21
225.2543934121
 31
0.0
  0
LINE
  5
2CA
330
1F
100
AcDbEntity
  8
0
  6
CONTINUOUS
 62
     7
100
AcDbLine
 10
270.3300726025
 20
226.2543934121
 30
0.0
 11
270.3300726025
 21
225.2543934121
 31
0.0
  0
LINE
  5
2CB
330
1F
100
AcDbEntity
  8
0
  6
CONTINUOUS
 62
     7
100
AcDbLine
 10
243.3300726025
 20
225.2543934121
 30
0.0
 11
242.3300726025
 21
226.2543934121
 31
0.0
  0
LINE
  5
2CC
330
1F
100
AcDbEntity
  8
0
  6
CONTINUOUS
 62
     7
100
AcDbLine
 10
243.3300726025
 20
225.2543934121
 30
0.0
 11
243.3300726025
 21
226.2543934121
 31
0.0
  0
LINE
  5
2CD
330
1F
100
AcDbEntity
  8
0
  6
CONTINUOUS
 62
     7
100
AcDbLine
 10
270.3300726025
 20
225.2543934121
 30
0.0
 11
263.7300726025
 21
225.2543934121
 31
0.0
  0
LINE
  5
2CE
330
1F
100
AcDbEntity
  8
0
  6
CONTINUOUS
 62
     7
100
AcDbLine
 10
263.3300726025
 20
225.6543934121
 30
0.0
 11
263.7300726025
 21
225.2543934121
 31
0.0
  0
LINE
  5
2CF
330
1F
100
AcDbEntity
  8
0
  6
CONTINUOUS
 62
     7
100
AcDbLine
 10
263.3300726025
 20
225.6543934121
 30
0.0
 11
263.3300726025
 21
226.2543934121
 31
0.0
  0
LINE
  5
2D0
330
1F
100
AcDbEntity
  8
0
  6
CONTINUOUS
 62
     7
100
AcDbLine
 10
249.9300726025
 20
225.2543934121
 30
0.0
 11
250.3300726025
 21
225.6543934121
 31
0.0
  0
LINE
  5
2D1
330
1F
100
AcDbEntity
  8
0
  6
CONTINUOUS
 62
     7
100
AcDbLine
 10
249.9300726025
 20
225.2543934121
 30
0.0
 11
243.3300726025
 21
225.2543934121
 31
0.0
  0
LINE
  5
2D2
330
1F
100
AcDbEntity
  8
0
  6
CONTINUOUS
 62
     7
100
AcDbLine
 10
250.3300726025
 20
226.2543934121
 30
0.0
 11
250.3300726025
 21
225.6543934121
 31
0.0
  0
LINE
  5
2D3
330
1F
100
AcDbEntity
  8
0
  6
CONTINUOUS
 62
     7
100
AcDbLine
 10
245.8300726025
 20
249.2543934121
 30
0.0
 11
245.8300726025
 21
249.0543934121
 31
0.0
  0
LINE
  5
2D4
330
1F
100
AcDbEntity
  8
0
  6
CONTINUOUS
 62
     7
100
AcDbLine
 10
245.8300726025
 20
249.0543934121
 30
0.0
 11
248.8300726025
 21
249.0543934121
 31
0.0
  0
LINE
  5
2D5
330
1F
100
AcDbEntity
  8
0
  6
CONTINUOUS
 62
     7
100
AcDbLine
 10
248.8300726025
 20
249.0543934121
 30
0.0
 11
248.8300726025
 21
251.8543934121
 31
0.0
  0
LINE
  5
2D6
330
1F
100
AcDbEntity
  8
0
  6
CONTINUOUS
 62
     7
100
AcDbLine
 10
249.2300726025
 20
252.2543934121
 30
0.0
 11
248.8300726025
 21
251.8543934121
 31
0.0
  0
LINE
  5
2D7
330
1F
100
AcDbEntity
  8
0
  6
CONTINUOUS
 62
     7
100
AcDbLine
 10
249.2300726025
 20
252.2543934121
 30
0.0
 11
264.4300726025
 21
252.2543934121
 31
0.0
  0
LINE
  5
2D8
330
1F
100
AcDbEntity
  8
0
  6
CONTINUOUS
 62
     7
100
AcDbLine
 10
264.8300726025
 20
251.8543934121
 30
0.0
 11
264.4300726025
 21
252.2543934121
 31
0.0
  0
LINE
  5
2D9
330
1F
100
AcDbEntity
  8
0
  6
CONTINUOUS
 62
     7
100
AcDbLine
 10
264.8300726025
 20
251.8543934121
 30
0.0
 11
264.8300726025
 21
249.0543934121
 31
0.0
  0
LINE
  5
2DA
330
1F
100
AcDbEntity
  8
0
  6
CONTINUOUS
 62
     7
100
AcDbLine
 10
264.8300726025
 20
249.0543934121
 30
0.0
 11
267.8300726025
 21
249.0543934121
 31
0.0
  0
LINE
  5
2DB
330
1F
100
AcDbEntity
  8
0
  6
CONTINUOUS
 62
     7
100
AcDbLine
 10
267.8300726025
 20
249.0543934121
 30
0.0
 11
267.8300726025
 21
249.2543934121
 31
0.0
  0
LINE
  5
2DC
330
1F
100
AcDbEntity
  8
0
  6
CONTINUOUS
 62
     7
100
AcDbLine
 10
267.8300726025
 20
249.2543934121
 30
0.0
 11
270.9300726025
 21
249.2543934121
 31
0.0
  0
LINE
  5
2DD
330
1F
100
AcDbEntity
  8
0
  6
CONTINUOUS
 62
     7
100
AcDbLine
 10
271.3300726025
 20
248.8543934121
 30
0.0
 11
270.9300726025
 21
249.2543934121
 31
0.0
  0
LINE
  5
2DE
330
1F
100
AcDbEntity
  8
0
  6
CONTINUOUS
 62
     7
100
AcDbLine
 10
242.7300726025
 20
249.2543934121
 30
0.0
 11
242.3300726025
 21
248.8543934121
 31
0.0
  0
LINE
  5
2DF
330
1F
100
AcDbEntity
  8
0
  6
CONTINUOUS
 62
     7
100
AcDbLine
 10
242.7300726025
 20
249.2543934121
 30
0.0
 11
245.8300726025
 21
249.2543934121
 31
0.0
  0
LINE
  5
2E0
330
1F
100
AcDbEntity
  8
0
  6
CONTINUOUS
 62
     7
100
AcDbLine
 10
271.3300726025
 20
248.7543934121
 30
0.0
 11
271.3300726025
 21
248.8543934121
 31
0.0
  0
LINE
  5
2E1
330
1F
100
AcDbEntity
  8
0
  6
CONTINUOUS
 62
     7
100
AcDbLine
 10
242.3300726025
 20
248.7543934121
 30
0.0
 11
242.3300726025
 21
248.8543934121
 31
0.0
  0
SPLINE
  5
2E2
330
1F
100
AcDbEntity
  8
0
  6
CONTINUOUS
 62
     7
100
AcDbSpline
210
0.0
220
0.0
230
1.0
 70
     8
 71
     3
 72
     8
 73
     4
 74
     0
 42
0.00000001
 43
0.00000001
 40
0.0
 40
0.0
 40
0.0
 40
0.0
 40
1.0
 40
1.0
 40
1.0
 40
1.0
 10
266.0419676063676
 20
240.3543934121149
 30
0.0
 10
266.067416912202
 20
240.2558286744456
 30
0.0
 10
266.0800726025054
 20
240.1551066160162
 30
0.0
 10
266.0800726025054
 20
240.0543934121149
 30
0.0
  0
SPLINE
  5
2E3
330
1F
100
AcDbEntity
  8
0
  6
CONTINUOUS
 62
     7
100
AcDbSpline
210
0.0
220
0.0
230
1.0
 70
     8
 71
     3
 72
     8
 73
     4
 74
     0
 42
0.00000001
 43
0.00000001
 40
0.0
 40
0.0
 40
0.0
 40
0.0
 40
1.0
 40
1.0
 40
1.0
 40
1.0
 10
247.6181775986432
 20
240.3543934121149
 30
0.0
 10
247.5927282928087
 20
240.2558286744456
 30
0.0
 10
247.5800726025054
 20
240.1551066160162
 30
0.0
 10
247.5800726025054
 20
240.0543934121149
 30
0.0
  0
SPLINE
  5
2E4
330
1F
100
AcDbEntity
  8
0
  6
CONTINUOUS
 62
     7
100
AcDbSpline
210
0.0
220
0.0
230
1.0
 70
     8
 71
     3
 72
     8
 73
     4
 74
     0
 42
0.00000001
 43
0.00000001
 40
0.0
 40
0.0
 40
0.0
 40
0.0
 40
1.0
 40
1.0
 40
1.0
 40
1.0
 10
252.6210993310293
 20
241.5543934121149
 30
0.0
 10
252.4476302239273
 20
241.5543934121149
 30
0.0
 10
252.2990923647486
 20
241.4472702452645
 30
0.0
 10
252.1961011120559
 20
241.254393412115
 30
0.0
  0
LINE
  5
2E5
330
1F
100
AcDbEntity
  8
0
  6
CONTINUOUS
 62
     7
100
AcDbLine
 10
248.7800726025
 20
241.2543934121
 30
0.0
 11
252.1961011121
 21
241.2543934121
 31
0.0
  0
SPLINE
  5
2E6
330
1F
100
AcDbEntity
  8
0
  6
CONTINUOUS
 62
     7
100
AcDbSpline
210
0.0
220
0.0
230
1.0
 70
     8
 71
     3
 72
    14
 73
    10
 74
     0
 42
0.00000001
 43
0.00000001
 40
0.0
 40
0.0
 40
0.0
 40
0.0
 40
0.25
 40
0.25
 40
0.5
 40
0.5
 40
0.75
 40
0.75
 40
1.0
 40
1.0
 40
1.0
 40
1.0
 10
247.6181775986432
 20
240.3543934121149
 30
0.0
 10
247.641495815363
 20
240.4447044771341
 30
0.0
 10
247.6856055424425
 20
240.566534147866
 30
0.0
 10
247.8352889882134
 20
240.8077394155845
 30
0.0
 10
247.9407549489694
 20
240.9245341774658
 30
0.0
 10
248.1755471919713
 20
241.1013643300878
 30
0.0
 10
248.3044272133301
 20
241.1635973817081
 30
0.0
 10
248.5505265834346
 20
241.2392480899272
 30
0.0
 10
248.6677516377684
 20
241.254393412116
 30
0.0
 10
248.7800726025057
 20
241.254393412116
 30
0.0
  0
LINE
  5
2E7
330
1F
100
AcDbEntity
  8
0
  6
CONTINUOUS
 62
     7
100
AcDbLine
 10
261.464044093
 20
241.2543934121
 30
0.0
 11
264.8800726025
 21
241.2543934121
 31
0.0
  0
SPLINE
  5
2E8
330
1F
100
AcDbEntity
  8
0
  6
CONTINUOUS
 62
     7
100
AcDbSpline
210
0.0
220
0.0
230
1.0
 70
     8
 71
     3
 72
    10
 73
     6
 74
     0
 42
0.00000001
 43
0.00000001
 40
0.0
 40
0.0
 40
0.0
 40
0.0
 40
0.5
 40
0.5
 40
1.0
 40
1.0
 40
1.0
 40
1.0
 10
261.4640440929548
 20
241.2543934121149
 30
0.0
 10
261.4125391416413
 20
241.3508492920188
 30
0.0
 10
261.3509889818172
 20
241.4256567141762
 30
0.0
 10
261.2065973070906
 20
241.5283501983916
 30
0.0
 10
261.1256125047852
 20
241.5543934121149
 30
0.0
 10
261.0390458739815
 20
241.5543934121149
 30
0.0
  0
SPLINE
  5
2E9
330
1F
100
AcDbEntity
  8
0
  6
CONTINUOUS
 62
     7
100
AcDbSpline
210
0.0
220
0.0
230
1.0
 70
     8
 71
     3
 72
    14
 73
    10
 74
     0
 42
0.00000001
 43
0.00000001
 40
0.0
 40
0.0
 40
0.0
 40
0.0
 40
0.25
 40
0.25
 40
0.5
 40
0.5
 40
0.75
 40
0.75
 40
1.0
 40
1.0
 40
1.0
 40
1.0
 10
264.8800726025054
 20
241.2543934121149
 30
0.0
 10
264.9924261890086
 20
241.2543934121149
 30
0.0
 10
265.109243568541
 20
241.2391797815508
 30
0.0
 10
265.3529532320979
 20
241.1646285147084
 30
0.0
 10
265.4805272120306
 20
241.1039798654242
 30
0.0
 10
265.7188703537632
 20
240.9253674608416
 30
0.0
 10
265.82329222894
 20
240.8096667426139
 30
0.0
 10
265.9733337066268
 20
240.5690595424071
 30
0.0
 10
266.0185813251173
 20
240.4449680899277
 30
0.0
 10
266.0419676063678
 20
240.3543934121147
 30
0.0
  0
LINE
  5
2EA
330
1F
100
AcDbEntity
  8
0
  6
CONTINUOUS
 62
     7
100
AcDbLine
 10
252.1961011121
 20
241.2543934121
 30
0.0
 11
261.464044093
 21
241.2543934121
 31
0.0
  0
LINE
  5
2EB
330
1F
100
AcDbEntity
  8
0
  6
CONTINUOUS
 62
     8
100
AcDbLine
 10
266.0419676064
 20
240.3543934121
 30
0.0
 11
266.0800726025
 21
240.3543934121
 31
0.0
  0
LINE
  5
2EC
330
1F
100
AcDbEntity
  8
0
  6
CONTINUOUS
 62
     8
100
AcDbLine
 10
247.5800726025
 20
240.3543934121
 30
0.0
 11
247.6181775986
 21
240.3543934121
 31
0.0
  0
DIMENSION
  5
2ED
330
1F
100
AcDbEntity
  8
0
  6
CONTINUOUS
 62
     7
100
AcDbDimension
  2
_D_11
 10
288.8300726025
 20
225.2543934121
 30
0.0
 11
288.8300726025
 21
236.8089057836
 31
0.0
 70
   160
  1
<>
  3
SLDDIMSTYLE1
100
AcDbAlignedDimension
 13
270.9300726025
 23
249.2543934121
 33
0.0
 14
270.3300726025
 24
225.2543934121
 34
0.0
 50
90.0
100
AcDbRotatedDimension
  0
DIMENSION
  5
2F7
330
1F
100
AcDbEntity
  8
0
  6
CONTINUOUS
 62
     7
100
AcDbDimension
  2
_D_12
 10
299.3300726025
 20
225.2543934121
 30
0.0
 11
299.3300726025
 21
236.8089057836
 31
0.0
 70
   160
  1
<>
  3
SLDDIMSTYLE1
100
AcDbAlignedDimension
 13
264.4300726025
 23
252.2543934121
 33
0.0
 14
270.3300726025
 24
225.2543934121
 34
0.0
 50
90.0
100
AcDbRotatedDimension
  0
DIMENSION
  5
301
330
1F
100
AcDbEntity
  8
0
  6
CONTINUOUS
 62
     7
100
AcDbDimension
  2
_D_13
 10
282.5758958582
 20
248.7543934121
 30
0.0
 11
282.5758958582
 21
258.665850551
 31
0.0
 70
   160
  1
<>
  3
SLDDIMSTYLE4
100
AcDbAlignedDimension
 13
270.9300726025
 23
249.2543934121
 33
0.0
 14
271.3300726025
 24
248.7543934121
 34
0.0
 50
90.0
100
AcDbRotatedDimension
  0
LINE
  5
30E
330
1F
100
AcDbEntity
  8
0
  6
CENTER
 62
     7
100
AcDbLine
 10
281.9556102774
 20
236.9152316026
 30
0.0
 11
231.9336869684
 21
236.9152316026
 31
0.0
  0
LINE
  5
30F
330
1F
100
AcDbEntity
  8
0
  6
CONTINUOUS
 62
     7
100
AcDbLine
 10
279.9556102774
 20
228.9152316026
 30
0.0
 11
279.9556102774
 21
236.9152316026
 31
0.0
  0
INSERT
  5
310
330
1F
100
AcDbEntity
  8
0
  6
CONTINUOUS
 62
     7
100
AcDbBlockReference
  2
_OPEN30
 10
279.9556102774
 20
236.9152316026
 30
0.0
 41
3.0
 42
3.0
 50
90.0
  0
LINE
  5
311
330
1F
100
AcDbEntity
  8
0
  6
CONTINUOUS
 62
     7
100
AcDbLine
 10
233.9336869684
 20
228.9152316026
 30
0.0
 11
233.9336869684
 21
236.9152316026
 31
0.0
  0
INSERT
  5
312
330
1F
100
AcDbEntity
  8
0
  6
CONTINUOUS
 62
     7
100
AcDbBlockReference
  2
_OPEN30
 10
233.9336869684
 20
236.9152316026
 30
0.0
 41
3.0
 42
3.0
 50
90.0
  0
MTEXT
  5
313
330
1F
100
AcDbEntity
  8
0
  6
CONTINUOUS
 62
     7
100
AcDbMText
 10
281.3936800646
 20
234.5586528792
 30
0.0
 40
4.8506944444
 41
0.0
 71
     1
 72
     1
  1
B
  7
SLDTEXTSTYLE0
  0
MTEXT
  5
314
330
1F
100
AcDbEntity
  8
0
  6
CONTINUOUS
 62
     7
100
AcDbMText
 10
228.9004427131
 20
234.5586528792
 30
0.0
 40
4.8506944444
 41
0.0
 71
     1
 72
     1
  1
B
  7
SLDTEXTSTYLE0
  0
CIRCLE
  5
315
330
1F
100
AcDbEntity
  8
0
  6
CONTINUOUS
 62
     7
100
AcDbCircle
 10
257.00916432
 20
230.8012522855
 30
0.0
 40
16.71289142424354
  0
LEADER
  5
31A
330
1F
100
AcDbEntity
  8
0
  6
CONTINUOUS
 62
     7
100
AcDbLeader
  3
SLDDIMSTYLE5
 71
     0
 76
     3
 10
243.1009549303
 20
221.5339737567
 30
0.0
 10
228.056912766
 20
208.6762021277
 30
0.0
 10
223.8041808511
 20
208.6762021277
 30
0.0
1001
ACAD
1000
DSTYLE
1002
{
1070
     6
1000
NONE
1002
}
  0
MTEXT
  5
31B
330
1F
100
AcDbEntity
  8
0
  6
CONTINUOUS
 62
     7
100
AcDbMText
 10
223.8041808511
 20
214.3196234043
 30
0.0
 40
5.6444444444
 41
0.0
 71
     1
 72
     1
  1
C
  7
SLDTEXTSTYLE0
  0
CIRCLE
  5
31C
330
1F
100
AcDbEntity
  8
0
  6
CONTINUOUS
 62
     7
100
AcDbCircle
 10
266.4545980442
 20
250.2607495535
 30
0.0
 40
4.611697910792941
  0
LEADER
  5
31D
330
1F
100
AcDbEntity
  8
0
  6
CONTINUOUS
 62
     7
100
AcDbLeader
  3
SLDDIMSTYLE5
 71
     0
 76
     3
 10
269.8196349389
 20
253.4142054859
 30
0.0
 10
276.6660234043
 20
263.728206383
 30
0.0
 10
280.8256531915
 20
263.728206383
 30
0.0
1001
ACAD
1000
DSTYLE
1002
{
1070
     6
1000
NONE
1002
}
  0
MTEXT
  5
31E
330
1F
100
AcDbEntity
  8
0
  6
CONTINUOUS
 62
     7
100
AcDbMText
 10
277.1660234043
 20
269.3716276596
 30
0.0
 40
5.6444444444
 41
0.0
 71
     1
 72
     1
  1
D
  7
SLDTEXTSTYLE0
  0
LINE
  5
31F
330
1F
100
AcDbEntity
  8
0
  6
CONTINUOUS
 62
     7
100
AcDbLine
 10
353.3406816109
 20
147.1787635053
 30
0.0
 11
353.3406816109
 21
101.6787635053
 31
0.0
  0
LINE
  5
320
330
1F
100
AcDbEntity
  8
0
  6
CONTINUOUS
 62
     7
100
AcDbLine
 10
353.3406816109
 20
101.6787635053
 30
0.0
 11
352.3406816109
 21
100.6787635053
 31
0.0
  0
LINE
  5
321
330
1F
100
AcDbEntity
  8
0
  6
CONTINUOUS
 62
     7
100
AcDbLine
 10
348.0906816109
 20
100.6787635053
 30
0.0
 11
352.3406816109
 21
100.6787635053
 31
0.0
  0
LINE
  5
322
330
1F
100
AcDbEntity
  8
0
  6
CONTINUOUS
 62
     7
100
AcDbLine
 10
348.0906816109
 20
100.6787635053
 30
0.0
 11
348.0906816109
 21
148.1787635053
 31
0.0
  0
LINE
  5
323
330
1F
100
AcDbEntity
  8
0
  6
CONTINUOUS
 62
     7
100
AcDbLine
 10
348.0906816109
 20
148.1787635053
 30
0.0
 11
352.3406816109
 21
148.1787635053
 31
0.0
  0
LINE
  5
324
330
1F
100
AcDbEntity
  8
0
  6
CONTINUOUS
 62
     7
100
AcDbLine
 10
352.3406816109
 20
148.1787635053
 30
0.0
 11
353.3406816109
 21
147.1787635053
 31
0.0
  0
LINE
  5
325
330
1F
100
AcDbEntity
  8
0
  6
CONTINUOUS
 62
     7
100
AcDbLine
 10
325.3406816109
 20
148.1787635053
 30
0.0
 11
329.5906816109
 21
148.1787635053
 31
0.0
  0
LINE
  5
326
330
1F
100
AcDbEntity
  8
0
  6
CONTINUOUS
 62
     7
100
AcDbLine
 10
329.5906816109
 20
148.1787635053
 30
0.0
 11
329.5906816109
 21
100.6787635053
 31
0.0
  0
LINE
  5
327
330
1F
100
AcDbEntity
  8
0
  6
CONTINUOUS
 62
     7
100
AcDbLine
 10
325.3406816109
 20
100.6787635053
 30
0.0
 11
324.3406816109
 21
101.6787635053
 31
0.0
  0
LINE
  5
328
330
1F
100
AcDbEntity
  8
0
  6
CONTINUOUS
 62
     7
100
AcDbLine
 10
324.3406816109
 20
101.6787635053
 30
0.0
 11
324.3406816109
 21
147.1787635053
 31
0.0
  0
LINE
  5
329
330
1F
100
AcDbEntity
  8
0
  6
CONTINUOUS
 62
     7
100
AcDbLine
 10
324.3406816109
 20
147.1787635053
 30
0.0
 11
325.3406816109
 21
148.1787635053
 31
0.0
  0
LINE
  5
32A
330
1F
100
AcDbEntity
  8
0
  6
CONTINUOUS
 62
     7
100
AcDbLine
 10
325.3406816109
 20
100.6787635053
 30
0.0
 11
329.5906816109
 21
100.6787635053
 31
0.0
  0
SPLINE
  5
32B
330
1F
100
AcDbEntity
  8
0
  6
CONTINUOUS
 62
     7
100
AcDbSpline
210
0.0
220
0.0
230
1.0
 70
     8
 71
     3
 72
     8
 73
     4
 74
     0
 42
0.00000001
 43
0.00000001
 40
0.0
 40
0.0
 40
0.0
 40
0.0
 40
1.0
 40
1.0
 40
1.0
 40
1.0
 10
348.0525766147982
 20
129.8400201370533
 30
0.0
 10
348.0780259206327
 20
130.1195291527268
 30
0.0
 10
348.090681610936
 20
130.3991436225413
 30
0.0
 10
348.090681610936
 20
130.6787635053241
 30
0.0
  0
SPLINE
  5
32C
330
1F
100
AcDbEntity
  8
0
  6
CONTINUOUS
 62
     7
100
AcDbSpline
210
0.0
220
0.0
230
1.0
 70
     8
 71
     3
 72
    14
 73
    10
 74
     0
 42
0.00000001
 43
0.00000001
 40
0.0
 40
0.0
 40
0.0
 40
0.0
 40
0.25
 40
0.25
 40
0.5
 40
0.5
 40
0.75
 40
0.75
 40
1.0
 40
1.0
 40
1.0
 40
1.0
 10
346.890681610936
 20
127.0169362521017
 30
0.0
 10
347.0030351974392
 20
127.2639294357792
 30
0.0
 10
347.1198525769716
 20
127.5060947585179
 30
0.0
 10
347.3635622405286
 20
127.9778797818124
 30
0.0
 10
347.4911362204611
 20
128.2070137429303
 30
0.0
 10
347.7294793621938
 20
128.6638238655942
 30
0.0
 10
347.8339012373706
 20
128.8846679716106
 30
0.0
 10
347.9839427150573
 20
129.3427843527484
 30
0.0
 10
348.0291903335479
 20
129.5831692628046
 30
0.0
 10
348.0525766147984
 20
129.8400201370532
 30
0.0
  0
LINE
  5
32D
330
1F
100
AcDbEntity
  8
0
  6
CONTINUOUS
 62
     7
100
AcDbLine
 10
348.0906816109
 20
100.6787635053
 30
0.0
 11
346.8906816109
 21
100.6787635053
 31
0.0
  0
SPLINE
  5
32E
330
1F
100
AcDbEntity
  8
0
  6
CONTINUOUS
 62
     7
100
AcDbSpline
210
0.0
220
0.0
230
1.0
 70
     8
 71
     3
 72
     8
 73
     4
 74
     0
 42
0.00000001
 43
0.00000001
 40
0.0
 40
0.0
 40
0.0
 40
0.0
 40
1.0
 40
1.0
 40
1.0
 40
1.0
 10
329.6287866070738
 20
129.8400201370533
 30
0.0
 10
329.6033373012394
 20
130.1195291527268
 30
0.0
 10
329.590681610936
 20
130.3991436225413
 30
0.0
 10
329.590681610936
 20
130.6787635053241
 30
0.0
  0
SPLINE
  5
32F
330
1F
100
AcDbEntity
  8
0
  6
CONTINUOUS
 62
     7
100
AcDbSpline
210
0.0
220
0.0
230
1.0
 70
     8
 71
     3
 72
    14
 73
    10
 74
     0
 42
0.00000001
 43
0.00000001
 40
0.0
 40
0.0
 40
0.0
 40
0.0
 40
0.25
 40
0.25
 40
0.5
 40
0.5
 40
0.75
 40
0.75
 40
1.0
 40
1.0
 40
1.0
 40
1.0
 10
329.6287866070738
 20
129.8400201370533
 30
0.0
 10
329.6521048237936
 20
129.5839168136453
 30
0.0
 10
329.6962145508732
 20
129.3476339847191
 30
0.0
 10
329.8458979966441
 20
128.8882970638139
 30
0.0
 10
329.9513639574
 20
128.6650662006712
 30
0.0
 10
330.1861562004019
 20
128.2145747260826
 30
0.0
 10
330.3150362217607
 20
127.9831096882862
 30
0.0
 10
330.5611355918653
 20
127.5069415031385
 30
0.0
 10
330.6783606461991
 20
127.2638577215239
 30
0.0
 10
330.7906816109363
 20
127.0169362521019
 30
0.0
  0
LINE
  5
330
330
1F
100
AcDbEntity
  8
0
  6
CONTINUOUS
 62
     7
100
AcDbLine
 10
330.7906816109
 20
100.6787635053
 30
0.0
 11
329.5906816109
 21
100.6787635053
 31
0.0
  0
ARC
  5
331
330
1F
100
AcDbEntity
  8
0
  6
CONTINUOUS
 62
     7
100
AcDbCircle
 10
338.8406816109
 20
130.6787635053
 30
0.0
 40
8.843725393319394
100
AcDbArc
 50
301.5998785091
 51
335.5399063036
  0
SPLINE
  5
332
330
1F
100
AcDbEntity
  8
0
  6
CONTINUOUS
 62
     7
100
AcDbSpline
210
0.0
220
0.0
230
1.0
 70
     8
 71
     3
 72
    10
 73
     6
 74
     0
 42
0.00000001
 43
0.00000001
 40
0.0
 40
0.0
 40
0.0
 40
0.0
 40
0.5
 40
0.5
 40
1.0
 40
1.0
 40
1.0
 40
1.0
 10
343.4746531013854
 20
123.146314563702
 30
0.0
 10
343.4231481500719
 20
123.2430389962902
 30
0.0
 10
343.3615979902478
 20
123.3512719067944
 30
0.0
 10
343.2172063155213
 20
123.5816960871824
 30
0.0
 10
343.1362215132159
 20
123.7006524042231
 30
0.0
 10
343.0496548824121
 20
123.8167635053241
 30
0.0
  0
SPLINE
  5
333
330
1F
100
AcDbEntity
  8
0
  6
CONTINUOUS
 62
     7
100
AcDbSpline
210
0.0
220
0.0
230
1.0
 70
     8
 71
     3
 72
     8
 73
     4
 74
     0
 42
0.00000001
 43
0.00000001
 40
0.0
 40
0.0
 40
0.0
 40
0.0
 40
1.0
 40
1.0
 40
1.0
 40
1.0
 10
334.6317083394599
 20
123.8167635053241
 30
0.0
 10
334.458239232358
 20
123.5840908363569
 30
0.0
 10
334.3097013731792
 20
123.3397284049772
 30
0.0
 10
334.2067101204865
 20
123.1463145637019
 30
0.0
  0
ARC
  5
334
330
1F
100
AcDbEntity
  8
0
  6
CONTINUOUS
 62
     7
100
AcDbCircle
 10
338.8406816109
 20
130.6787635053
 30
0.0
 40
8.843725393319353
100
AcDbArc
 50
204.4600936964
 51
238.4001214909
  0
LINE
  5
335
330
1F
100
AcDbEntity
  8
0
  6
CONTINUOUS
 62
     7
100
AcDbLine
 10
348.0906816109
 20
148.1787635053
 30
0.0
 11
346.8906816109
 21
148.1787635053
 31
0.0
  0
LINE
  5
336
330
1F
100
AcDbEntity
  8
0
  6
CONTINUOUS
 62
     7
100
AcDbLine
 10
330.7906816109
 20
148.1787635053
 30
0.0
 11
329.5906816109
 21
148.1787635053
 31
0.0
  0
ARC
  5
337
330
1F
100
AcDbEntity
  8
0
  6
CONTINUOUS
 62
     7
100
AcDbCircle
 10
338.8406816109
 20
120.6787635053
 30
0.0
 40
5.249999999999994
100
AcDbArc
 50
151.9650721662
 51
28.0349278338
  0
LINE
  5
338
330
1F
100
AcDbEntity
  8
0
  6
CONTINUOUS
 62
     7
100
AcDbLine
 10
346.8906816109
 20
100.6787635053
 30
0.0
 11
330.7906816109
 21
100.6787635053
 31
0.0
  0
ARC
  5
339
330
1F
100
AcDbEntity
  8
0
  6
CONTINUOUS
 62
     7
100
AcDbCircle
 10
338.8406816109
 20
120.6787635053
 30
0.0
 40
5.250000000000025
100
AcDbArc
 50
36.7063702174
 51
143.2936297826
  0
LINE
  5
33A
330
1F
100
AcDbEntity
  8
0
  6
CONTINUOUS
 62
     7
100
AcDbLine
 10
346.8906816109
 20
148.1787635053
 30
0.0
 11
330.7906816109
 21
148.1787635053
 31
0.0
  0
CIRCLE
  5
33B
330
1F
100
AcDbEntity
  8
0
  6
CONTINUOUS
 62
     7
100
AcDbCircle
 10
338.8406816109
 20
120.6787635053
 30
0.0
 40
3.399999999999991
  0
LINE
  5
33C
330
1F
100
AcDbEntity
  8
0
  6
CONTINUOUS
 62
     8
100
AcDbLine
 10
346.8906816109
 20
127.0169362521
 30
0.0
 11
346.8906816109
 21
100.6787635053
 31
0.0
  0
LINE
  5
33D
330
1F
100
AcDbEntity
  8
0
  6
CONTINUOUS
 62
     8
100
AcDbLine
 10
330.7906816109
 20
127.0169362521
 30
0.0
 11
330.7906816109
 21
100.6787635053
 31
0.0
  0
ARC
  5
33E
330
1F
100
AcDbEntity
  8
0
  6
CONTINUOUS
 62
     8
100
AcDbCircle
 10
338.8406816109
 20
130.6787635053
 30
0.0
 40
8.050000000000027
100
AcDbArc
 50
301.523875692
 51
0.0
  0
LINE
  5
33F
330
1F
100
AcDbEntity
  8
0
  6
CONTINUOUS
 62
     8
100
AcDbLine
 10
348.0906816109
 20
130.6787635053
 30
0.0
 11
346.8906816109
 21
130.6787635053
 31
0.0
  0
LINE
  5
340
330
1F
100
AcDbEntity
  8
0
  6
CONTINUOUS
 62
     8
100
AcDbLine
 10
330.7906816109
 20
130.6787635053
 30
0.0
 11
329.5906816109
 21
130.6787635053
 31
0.0
  0
ARC
  5
341
330
1F
100
AcDbEntity
  8
0
  6
CONTINUOUS
 62
     8
100
AcDbCircle
 10
338.8406816109
 20
130.6787635053
 30
0.0
 40
8.049999999999997
100
AcDbArc
 50
180.0
 51
238.476124308
  0
LINE
  5
342
330
1F
100
AcDbEntity
  8
0
  6
CONTINUOUS
 62
     8
100
AcDbLine
 10
346.8906816109
 20
130.6787635053
 30
0.0
 11
346.8906816109
 21
148.1787635053
 31
0.0
  0
LINE
  5
343
330
1F
100
AcDbEntity
  8
0
  6
CONTINUOUS
 62
     8
100
AcDbLine
 10
330.7906816109
 20
130.6787635053
 30
0.0
 11
330.7906816109
 21
148.1787635053
 31
0.0
  0
DIMENSION
  5
344
330
1F
100
AcDbEntity
  8
0
  6
CONTINUOUS
 62
     7
100
AcDbDimension
  2
_D_14
 10
365.3786967611
 20
130.6787635053
 30
0.0
 11
365.3786967611
 21
139.313874911
 31
0.0
 70
   160
  1
<>
  3
SLDDIMSTYLE1
100
AcDbAlignedDimension
 13
348.0906816109
 23
148.1787635053
 33
0.0
 14
349.6844070043
 24
130.6787635053
 34
0.0
 50
90.0
100
AcDbRotatedDimension
  0
DIMENSION
  5
34E
330
1F
100
AcDbEntity
  8
0
  6
CONTINUOUS
 62
     7
100
AcDbDimension
  2
_D_15
 10
338.8406816109
 20
130.6787635053
 30
0.0
 11
356.069514861
 21
120.7317077641
 31
0.0
 70
   164
  1
R
  3
SLDDIMSTYLE6
100
AcDbRadialDimension
 15
346.4995724656
 25
126.2569008087
 35
0.0
 40
0.0
  0
MTEXT
  5
357
330
1F
100
AcDbEntity
  8
0
  6
CONTINUOUS
 62
     7
100
AcDbMText
 10
338.4575255771
 20
91.6691503386
 30
0.0
 40
4.2333333333
 41
0.0
 71
     2
 72
     1
  1
B-B
  7
SLDTEXTSTYLE0
  0
INSERT
  5
363
330
1F
100
AcDbEntity
  8
0
  6
CONTINUOUS
 62
     7
100
AcDbBlockReference
  2
SW_CENTERMARKSYMBOL_2
 10
338.8406816109
 20
120.6787635053
 30
0.0
  0
INSERT
  5
36F
330
1F
100
AcDbEntity
  8
0
  6
CONTINUOUS
 62
     7
100
AcDbBlockReference
  2
SW_CENTERMARKSYMBOL_3
 10
338.8406816109
 20
130.6787635053
 30
0.0
  0
LINE
  5
370
330
1F
100
AcDbEntity
  8
0
  6
CONTINUOUS
 62
     7
100
AcDbLine
 10
154.3182065428
 20
231.6338488784
 30
0.0
 11
154.3182065428
 21
260.914110015
 31
0.0
  0
LINE
  5
371
330
1F
100
AcDbEntity
  8
0
  6
CONTINUOUS
 62
     7
100
AcDbLine
 10
140.3182061106
 20
231.6338488784
 30
0.0
 11
154.3182065428
 21
231.6338488784
 31
0.0
  0
LINE
  5
372
330
1F
100
AcDbEntity
  8
0
  6
CONTINUOUS
 62
     7
100
AcDbLine
 10
140.3182061106
 20
231.6338488784
 30
0.0
 11
140.3182061106
 21
244.8338488069
 31
0.0
  0
LINE
  5
373
330
1F
100
AcDbEntity
  8
0
  6
CONTINUOUS
 62
     7
100
AcDbLine
 10
140.3182061106
 20
244.8338488069
 30
0.0
 11
141.118205683
 21
245.6338493105
 31
0.0
  0
LINE
  5
374
330
1F
100
AcDbEntity
  8
0
  6
CONTINUOUS
 62
     7
100
AcDbLine
 10
141.118205683
 20
245.6338493105
 30
0.0
 11
143.4182064325
 21
245.6338493105
 31
0.0
  0
ARC
  5
375
330
1F
100
AcDbEntity
  8
0
  6
CONTINUOUS
 62
     7
100
AcDbCircle
 10
143.4182063276
 20
248.0338490637
 30
0.0
 40
2.399999753206944
100
AcDbArc
 50
270.0000025037
 51
359.9999974963
  0
LINE
  5
376
330
1F
100
AcDbEntity
  8
0
  6
CONTINUOUS
 62
     7
100
AcDbLine
 10
145.8182060808
 20
248.0338489588
 30
0.0
 11
145.8182060808
 21
259.8338489372
 31
0.0
  0
ARC
  5
377
330
1F
100
AcDbEntity
  8
0
  6
CONTINUOUS
 62
     7
100
AcDbCircle
 10
143.4182063276
 20
259.833849298
 30
0.0
 40
2.399999753207001
100
AcDbArc
 50
359.9999913868
 51
89.9999974963
  0
LINE
  5
378
330
1F
100
AcDbEntity
  8
0
  6
CONTINUOUS
 62
     7
100
AcDbLine
 10
143.4182064325
 20
262.2338490512
 30
0.0
 11
111.2182052523
 21
262.2338490512
 31
0.0
  0
ARC
  5
379
330
1F
100
AcDbEntity
  8
0
  6
CONTINUOUS
 62
     7
100
AcDbCircle
 10
111.2182053572
 20
259.833849298
 30
0.0
 40
2.399999753207001
100
AcDbArc
 50
90.0000025037
 51
180.0000086132
  0
LINE
  5
37A
330
1F
100
AcDbEntity
  8
0
  6
CONTINUOUS
 62
     7
100
AcDbLine
 10
108.818205604
 20
259.8338489372
 30
0.0
 11
108.818205604
 21
248.0338489588
 31
0.0
  0
ARC
  5
37B
330
1F
100
AcDbEntity
  8
0
  6
CONTINUOUS
 62
     7
100
AcDbCircle
 10
111.2182053572
 20
248.0338490637
 30
0.0
 40
2.399999753206972
100
AcDbArc
 50
180.0000025037
 51
269.9999974963
  0
LINE
  5
37C
330
1F
100
AcDbEntity
  8
0
  6
CONTINUOUS
 62
     7
100
AcDbLine
 10
111.2182052523
 20
245.6338493105
 30
0.0
 11
113.5182060019
 21
245.6338493105
 31
0.0
  0
LINE
  5
37D
330
1F
100
AcDbEntity
  8
0
  6
CONTINUOUS
 62
     7
100
AcDbLine
 10
113.5182060019
 20
245.6338493105
 30
0.0
 11
114.3182055742
 21
244.8338488069
 31
0.0
  0
LINE
  5
37E
330
1F
100
AcDbEntity
  8
0
  6
CONTINUOUS
 62
     7
100
AcDbLine
 10
114.3182055742
 20
244.8338488069
 30
0.0
 11
114.3182055742
 21
231.6338488784
 31
0.0
  0
LINE
  5
37F
330
1F
100
AcDbEntity
  8
0
  6
CONTINUOUS
 62
     7
100
AcDbLine
 10
100.3182051421
 20
231.6338488784
 30
0.0
 11
114.3182055742
 21
231.6338488784
 31
0.0
  0
LINE
  5
380
330
1F
100
AcDbEntity
  8
0
  6
CONTINUOUS
 62
     7
100
AcDbLine
 10
100.3182051421
 20
259.9320638877
 30
0.0
 11
100.3182051421
 21
231.6338488784
 31
0.0
  0
LINE
  5
381
330
1F
100
AcDbEntity
  8
0
  6
CONTINUOUS
 62
     7
100
AcDbLine
 10
100.3182051421
 20
231.6338488784
 30
0.0
 11
98.3182066769
 21
231.6338488784
 31
0.0
  0
LINE
  5
382
330
1F
100
AcDbEntity
  8
0
  6
CONTINUOUS
 62
     7
100
AcDbLine
 10
98.3182066769
 20
231.6338488784
 30
0.0
 11
98.3182066769
 21
256.7081822965
 31
0.0
  0
LINE
  5
383
330
1F
100
AcDbEntity
  8
0
  6
CONTINUOUS
 62
     7
100
AcDbLine
 10
156.318205008
 20
257.959204628
 30
0.0
 11
156.318205008
 21
231.6338488784
 31
0.0
  0
LINE
  5
384
330
1F
100
AcDbEntity
  8
0
  6
CONTINUOUS
 62
     7
100
AcDbLine
 10
154.3182065428
 20
231.6338488784
 30
0.0
 11
156.318205008
 21
231.6338488784
 31
0.0
  0
LINE
  5
385
330
1F
100
AcDbEntity
  8
0
  6
CONTINUOUS
 62
     7
100
AcDbLine
 10
156.318205008
 20
231.6338488784
 30
0.0
 11
154.3182065428
 21
229.6338485506
 31
0.0
  0
LINE
  5
386
330
1F
100
AcDbEntity
  8
0
  6
CONTINUOUS
 62
     7
100
AcDbLine
 10
154.3182065428
 20
231.6338488784
 30
0.0
 11
154.3182065428
 21
229.6338485506
 31
0.0
  0
LINE
  5
387
330
1F
100
AcDbEntity
  8
0
  6
CONTINUOUS
 62
     7
100
AcDbLine
 10
100.3182051421
 20
229.6338485506
 30
0.0
 11
98.3182066769
 21
231.6338488784
 31
0.0
  0
LINE
  5
388
330
1F
100
AcDbEntity
  8
0
  6
CONTINUOUS
 62
     7
100
AcDbLine
 10
100.3182051421
 20
229.6338485506
 30
0.0
 11
100.3182051421
 21
231.6338488784
 31
0.0
  0
LINE
  5
389
330
1F
100
AcDbEntity
  8
0
  6
CONTINUOUS
 62
     7
100
AcDbLine
 10
154.3182065428
 20
229.6338485506
 30
0.0
 11
141.118205683
 21
229.6338485506
 31
0.0
  0
LINE
  5
38A
330
1F
100
AcDbEntity
  8
0
  6
CONTINUOUS
 62
     7
100
AcDbLine
 10
140.3182061106
 20
230.4338490542
 30
0.0
 11
141.118205683
 21
229.6338485506
 31
0.0
  0
LINE
  5
38B
330
1F
100
AcDbEntity
  8
0
  6
CONTINUOUS
 62
     7
100
AcDbLine
 10
140.3182061106
 20
230.4338490542
 30
0.0
 11
140.3182061106
 21
231.6338488784
 31
0.0
  0
LINE
  5
38C
330
1F
100
AcDbEntity
  8
0
  6
CONTINUOUS
 62
     7
100
AcDbLine
 10
113.5182060019
 20
229.6338485506
 30
0.0
 11
114.3182055742
 21
230.4338490542
 31
0.0
  0
LINE
  5
38D
330
1F
100
AcDbEntity
  8
0
  6
CONTINUOUS
 62
     7
100
AcDbLine
 10
113.5182060019
 20
229.6338485506
 30
0.0
 11
100.3182051421
 21
229.6338485506
 31
0.0
  0
LINE
  5
38E
330
1F
100
AcDbEntity
  8
0
  6
CONTINUOUS
 62
     7
100
AcDbLine
 10
114.3182055742
 20
231.6338488784
 30
0.0
 11
114.3182055742
 21
230.4338490542
 31
0.0
  0
SPLINE
  5
38F
330
1F
100
AcDbEntity
  8
0
  6
CONTINUOUS
 62
     7
100
AcDbSpline
210
0.0
220
0.0
230
1.0
 70
     8
 71
     3
 72
     9
 73
     5
 74
     0
 42
0.00000001
 43
0.00000001
 40
0.0
 40
0.0
 40
0.0
 40
0.0
 40
0.9784489622298002
 40
1.0
 40
1.0
 40
1.0
 40
1.0
 10
145.7419959545558
 20
259.8338489372408
 30
0.0
 10
145.7795476913911
 20
259.6389968573773
 30
0.0
 10
145.8179265320716
 20
259.4398530211782
 30
0.0
 10
145.8182001833672
 20
259.2381949655315
 30
0.0
 10
145.8182060808366
 20
259.2338490251576
 30
0.0
  0
SPLINE
  5
390
330
1F
100
AcDbEntity
  8
0
  6
CONTINUOUS
 62
     7
100
AcDbSpline
210
0.0
220
0.0
230
1.0
 70
     8
 71
     3
 72
     9
 73
     5
 74
     0
 42
0.00000001
 43
0.00000001
 40
0.0
 40
0.0
 40
0.0
 40
0.0
 40
0.0215510377701998
 40
1.0
 40
1.0
 40
1.0
 40
1.0
 10
108.8182056039994
 20
259.2338490251576
 30
0.0
 10
108.8182115014688
 20
259.2381949655315
 30
0.0
 10
108.8184851527644
 20
259.4398530211783
 30
0.0
 10
108.8568639934448
 20
259.6389968573773
 30
0.0
 10
108.8944157302802
 20
259.8338489372408
 30
0.0
  0
SPLINE
  5
391
330
1F
100
AcDbEntity
  8
0
  6
CONTINUOUS
 62
     7
100
AcDbSpline
210
0.0
220
0.0
230
1.0
 70
     8
 71
     3
 72
    10
 73
     6
 74
     0
 42
0.00000001
 43
0.00000001
 40
0.0
 40
0.0
 40
0.0
 40
0.0
 40
0.3857420549618453
 40
0.8513327340137057
 40
1.0
 40
1.0
 40
1.0
 40
1.0
 10
118.9002595559185
 20
262.2338490512346
 30
0.0
 10
118.758980085603
 20
262.2115661288329
 30
0.0
 10
118.447176287763
 20
262.1623877180111
 30
0.0
 10
118.1866455926972
 20
261.8728596464563
 30
0.0
 10
118.076839055454
 20
261.6804238730173
 30
0.0
 10
118.0502628624862
 20
261.6338491391515
 30
0.0
  0
LINE
  5
392
330
1F
100
AcDbEntity
  8
0
  6
CONTINUOUS
 62
     7
100
AcDbLine
 10
111.2182052523
 20
261.6338491392
 30
0.0
 11
118.0502628625
 21
261.6338491392
 31
0.0
  0
SPLINE
  5
393
330
1F
100
AcDbEntity
  8
0
  6
CONTINUOUS
 62
     7
100
AcDbSpline
210
0.0
220
0.0
230
1.0
 70
     8
 71
     3
 72
    12
 73
     8
 74
     0
 42
0.00000001
 43
0.00000001
 40
0.0
 40
0.0
 40
0.0
 40
0.0
 40
0.1376812440012268
 40
0.3130673224642104
 40
0.5179371770980778
 40
0.7136109457065718
 40
1.0
 40
1.0
 40
1.0
 40
1.0
 10
108.8944157302802
 20
259.8338489372408
 30
0.0
 10
108.9381430053344
 20
259.9720609467655
 30
0.0
 10
109.0375725319862
 20
260.2863351535988
 30
0.0
 10
109.3290264883756
 20
260.7548929294417
 30
0.0
 10
109.7708134616437
 20
261.1745071827277
 30
0.0
 10
110.4045477800789
 20
261.5476089616755
 30
0.0
 10
110.9149688351762
 20
261.6017088794912
 30
0.0
 10
111.218205252332
 20
261.6338491391515
 30
0.0
  0
LINE
  5
394
330
1F
100
AcDbEntity
  8
0
  6
CONTINUOUS
 62
     7
100
AcDbLine
 10
136.5861488223
 20
261.6338491392
 30
0.0
 11
143.4182064325
 21
261.6338491392
 31
0.0
  0
SPLINE
  5
395
330
1F
100
AcDbEntity
  8
0
  6
CONTINUOUS
 62
     7
100
AcDbSpline
210
0.0
220
0.0
230
1.0
 70
     8
 71
     3
 72
    10
 73
     6
 74
     0
 42
0.00000001
 43
0.00000001
 40
0.0
 40
0.0
 40
0.0
 40
0.0
 40
0.4946641253160647
 40
0.9239713146555665
 40
1.0
 40
1.0
 40
1.0
 40
1.0
 10
136.5861488223498
 20
261.6338491391515
 30
0.0
 10
136.4885021141075
 20
261.7875613294689
 30
0.0
 10
136.3061101580933
 20
262.0746766614641
 30
0.0
 10
135.9464664864665
 20
262.2277745071817
 30
0.0
 10
135.7636562549219
 20
262.2330546450562
 30
0.0
 10
135.7361521289175
 20
262.2338490512346
 30
0.0
  0
SPLINE
  5
396
330
1F
100
AcDbEntity
  8
0
  6
CONTINUOUS
 62
     7
100
AcDbSpline
210
0.0
220
0.0
230
1.0
 70
     8
 71
     3
 72
    12
 73
     8
 74
     0
 42
0.00000001
 43
0.00000001
 40
0.0
 40
0.0
 40
0.0
 40
0.0
 40
0.2215289904901388
 40
0.4864505568350953
 40
0.721707735805538
 40
0.9371080083717802
 40
1.0
 40
1.0
 40
1.0
 40
1.0
 10
143.418206432504
 20
261.6338491391515
 30
0.0
 10
143.6516272882991
 20
261.6138571704784
 30
0.0
 10
144.1641909262555
 20
261.5699572534888
 30
0.0
 10
144.8562616476844
 20
261.2074954103908
 30
0.0
 10
145.388334269955
 20
260.6647058599946
 30
0.0
 10
145.6434927712326
 20
260.1785064102112
 30
0.0
 10
145.7238384303583
 20
259.8973811622328
 30
0.0
 10
145.7419959545558
 20
259.8338489372408
 30
0.0
  0
LINE
  5
397
330
1F
100
AcDbEntity
  8
0
  6
CONTINUOUS
 62
     7
100
AcDbLine
 10
118.0502628625
 20
261.6338491392
 30
0.0
 11
136.5861488223
 21
261.6338491392
 31
0.0
  0
LINE
  5
398
330
1F
100
AcDbEntity
  8
0
  6
CONTINUOUS
 62
     8
100
AcDbLine
 10
145.7419959546
 20
259.8338489372
 30
0.0
 11
145.8182060808
 21
259.8338489372
 31
0.0
  0
LINE
  5
399
330
1F
100
AcDbEntity
  8
0
  6
CONTINUOUS
 62
     8
100
AcDbLine
 10
108.818205604
 20
259.8338489372
 30
0.0
 11
108.8944157303
 21
259.8338489372
 31
0.0
  0
DIMENSION
  5
39A
330
1F
100
AcDbEntity
  8
0
  6
CONTINUOUS
 62
     7
100
AcDbDimension
  2
_D_16
 10
140.3182058424
 20
216.7569200108
 30
0.0
 11
126.5288368833
 21
216.7569200108
 31
0.0
 70
   160
  1
<>
  3
SLDDIMSTYLE7
100
AcDbAlignedDimension
 13
114.3182058424
 23
230.4338489231
 33
0.0
 14
140.3182058424
 24
230.4338489231
 34
0.0
100
AcDbRotatedDimension
  0
DIMENSION
  5
3AA
330
1F
100
AcDbEntity
  8
0
  6
CONTINUOUS
 62
     7
100
AcDbDimension
  2
_D_17
 10
178.3182058424
 20
229.6338489231
 30
0.0
 11
178.3182058424
 21
237.7261067828
 31
0.0
 70
   160
  1
<>
  3
SLDDIMSTYLE8
100
AcDbAlignedDimension
 13
143.4182058424
 23
245.6338489231
 33
0.0
 14
154.3182058424
 24
229.6338489231
 34
0.0
 50
90.0
100
AcDbRotatedDimension
  0
DIMENSION
  5
3B9
330
1F
100
AcDbEntity
  8
0
  6
CONTINUOUS
 62
     7
100
AcDbDimension
  2
_D_18
 10
178.3182058424
 20
245.6338489231
 30
0.0
 11
178.3182058424
 21
253.0862533105
 31
0.0
 70
   160
  1
<>
  3
SLDDIMSTYLE8
100
AcDbAlignedDimension
 13
143.4182058424
 23
261.6338489231
 33
0.0
 14
143.4182058424
 24
245.6338489231
 34
0.0
 50
90.0
100
AcDbRotatedDimension
  0
DIMENSION
  5
3C7
330
1F
100
AcDbEntity
  8
0
  6
CONTINUOUS
 62
     7
100
AcDbDimension
  2
_D_19
 10
178.3182058424
 20
261.6338489231
 30
0.0
 11
178.3182058424
 21
270.9636976019
 31
0.0
 70
   160
  1
<>
  3
SLDDIMSTYLE9
100
AcDbAlignedDimension
 13
143.4182058424
 23
262.2338489231
 33
0.0
 14
143.4182058424
 24
261.6338489231
 34
0.0
 50
90.0
100
AcDbRotatedDimension
  0
DIMENSION
  5
3D4
330
1F
100
AcDbEntity
  8
0
  6
CONTINUOUS
 62
     7
100
AcDbDimension
  2
_D_20
 10
145.8182058424
 20
201.6338489231
 30
0.0
 11
126.5288368833
 21
201.6338489231
 31
0.0
 70
   160
  1
<>
  3
SLDDIMSTYLE10
100
AcDbAlignedDimension
 13
108.8182058424
 23
248.0338489231
 33
0.0
 14
145.8182058424
 24
248.0338489231
 34
0.0
100
AcDbRotatedDimension
  0
MTEXT
  5
3E5
330
1F
100
AcDbEntity
  8
0
  6
CONTINUOUS
 62
     7
100
AcDbMText
 10
125.7943730992
 20
198.4903225203
 30
0.0
 40
4.2333333333
 41
0.0
 71
     2
 72
     1
  1
C  (2 : 1)
  7
SLDTEXTSTYLE1
  0
MTEXT
  5
3E6
330
1F
100
AcDbEntity
  8
0
  6
CONTINUOUS
 62
     7
100
AcDbMText
 10
118.5095866371
 20
211.0398660583
 30
0.0
 40
3.5
 41
0.0
 71
     1
 72
     1
  1
29
  7
SLDTEXTSTYLE0
  0
LINE
  5
3E7
330
1F
100
AcDbEntity
  8
0
  6
CONTINUOUS
 62
     7
100
AcDbLine
 10
118.5095866371
 20
208.706532725
 30
0.0
 11
122.5496366371
 21
208.706532725
 31
0.0
  0
LINE
  5
3E8
330
1F
100
AcDbEntity
  8
0
  6
CENTERX2
 62
     7
100
AcDbLine
 10
127.3182058424
 20
274.151430833
 30
0.0
 11
127.3182058424
 21
226.6338480588
 31
0.0
  0
LINE
  5
3E9
330
1F
100
AcDbEntity
  8
0
  6
CONTINUOUS
 62
     7
100
AcDbLine
 10
361.2720687186
 20
227.6413666523
 30
0.0
 11
322.5603956041
 21
227.6413666523
 31
0.0
  0
LINE
  5
3EA
330
1F
100
AcDbEntity
  8
0
  6
CONTINUOUS
 62
     7
100
AcDbLine
 10
320.1225120818
 20
232.6413674719
 30
0.0
 11
363.7099499126
 21
232.6413674719
 31
0.0
  0
LINE
  5
3EB
330
1F
100
AcDbEntity
  8
0
  6
CONTINUOUS
 62
     7
100
AcDbLine
 10
321.1237187741
 20
250.1413656837
 30
0.0
 11
331.793604443
 21
250.1413656837
 31
0.0
  0
LINE
  5
3EC
330
1F
100
AcDbEntity
  8
0
  6
CONTINUOUS
 62
     7
100
AcDbLine
 10
333.7936057021
 20
248.1413690812
 30
0.0
 11
331.793604443
 21
250.1413656837
 31
0.0
  0
LINE
  5
3ED
330
1F
100
AcDbEntity
  8
0
  6
CONTINUOUS
 62
     7
100
AcDbLine
 10
333.7936057021
 20
248.1413690812
 30
0.0
 11
333.7936057021
 21
234.1413695804
 31
0.0
  0
LINE
  5
3EE
330
1F
100
AcDbEntity
  8
0
  6
CONTINUOUS
 62
     7
100
AcDbLine
 10
333.7936057021
 20
234.1413695804
 30
0.0
 11
348.7936035042
 21
234.1413695804
 31
0.0
  0
LINE
  5
3EF
330
1F
100
AcDbEntity
  8
0
  6
CONTINUOUS
 62
     7
100
AcDbLine
 10
348.7936035042
 20
234.1413695804
 30
0.0
 11
348.7936035042
 21
235.1413678816
 31
0.0
  0
LINE
  5
3F0
330
1F
100
AcDbEntity
  8
0
  6
CONTINUOUS
 62
     7
100
AcDbLine
 10
348.7936035042
 20
235.1413678816
 30
0.0
 11
364.2936051135
 21
235.1413678816
 31
0.0
  0
LINE
  5
3F1
330
1F
100
AcDbEntity
  8
0
  6
CONTINUOUS
 62
     7
100
AcDbLine
 10
364.3958922719
 20
235.0390760667
 30
0.0
 11
364.2936051135
 21
235.1413678816
 31
0.0
  0
DIMENSION
  5
3F2
330
1F
100
AcDbEntity
  8
0
  6
CONTINUOUS
 62
     7
100
AcDbDimension
  2
_D_21
 10
348.7936038022
 20
260.1413677699
 30
0.0
 11
341.6383767278
 21
260.1413677699
 31
0.0
 70
   160
  1
<>
  3
SLDDIMSTYLE11
100
AcDbAlignedDimension
 13
333.7936038022
 23
248.1413677699
 33
0.0
 14
348.7936038022
 24
235.1413677699
 34
0.0
100
AcDbRotatedDimension
  0
DIMENSION
  5
3FD
330
1F
100
AcDbEntity
  8
0
  6
CONTINUOUS
 62
     7
100
AcDbDimension
  2
_D_22
 10
380.4448309568
 20
232.6413677699
 30
0.0
 11
380.4448309568
 21
248.8318107727
 31
0.0
 70
   160
  1
(<>)
  3
SLDDIMSTYLE12
100
AcDbAlignedDimension
 13
364.2936038022
 23
235.1413677699
 33
0.0
 14
363.7099499126
 24
232.6413677699
 34
0.0
 50
90.0
100
AcDbRotatedDimension
  0
DIMENSION
  5
40C
330
1F
100
AcDbEntity
  8
0
  6
CONTINUOUS
 62
     7
100
AcDbDimension
  2
_D_23
 10
370.6025382138
 20
234.1413677699
 30
0.0
 11
370.6025382138
 21
248.8318107727
 31
0.0
 70
   160
  1
<>
  3
SLDDIMSTYLE12
100
AcDbAlignedDimension
 13
364.2936038022
 23
235.1413677699
 33
0.0
 14
348.7936038022
 24
234.1413677699
 34
0.0
 50
90.0
100
AcDbRotatedDimension
  0
MTEXT
  5
418
330
1F
100
AcDbEntity
  8
0
  6
CONTINUOUS
 62
     7
100
AcDbMText
 10
352.6839021595
 20
219.2928986891
 30
0.0
 40
4.2333333333
 41
0.0
 71
     2
 72
     1
  1
D  (5 : 1)
  7
SLDTEXTSTYLE1
  0
ENDSEC
  0
SECTION
  2
OBJECTS
  0
DICTIONARY
  5
C
330
0
100
AcDbDictionary
  3
ACAD_GROUP
350
D
  3
ACAD_MLINESTYLE
350
17
  3
ACAD_SCALELIST
350
47
  3
DWGPROPS
350
419
1001
ACAD
1000
TREAT_AS_HARD
1070
     0
  0
DICTIONARY
  5
D
102
{ACAD_REACTORS
330
C
102
}
330
C
100
AcDbDictionary
1001
ACAD
1000
TREAT_AS_HARD
1070
     0
  0
DICTIONARY
  5
17
102
{ACAD_REACTORS
330
C
102
}
330
C
100
AcDbDictionary
  3
STANDARD
350
18
1001
ACAD
1000
TREAT_AS_HARD
1070
     0
  0
DICTIONARY
  5
47
102
{ACAD_REACTORS
330
C
102
}
330
C
100
AcDbDictionary
1001
ACAD
1000
TREAT_AS_HARD
1070
     0
  0
XRECORD
  5
419
102
{ACAD_REACTORS
330
C
102
}
330
C
100
AcDbXrecord
  1
DWGPROPS COOKIE
  2

  3

  4

  6

  7

  8
55006
  9

300
=
301
=
302
=
303
=
304
=
305
=
306
=
307
=
308
=
309
=
 40
0.0
 41
2460651.308717454
 42
2460651.308720451
  1

 90
        0
  0
MLINESTYLE
  5
18
102
{ACAD_REACTORS
330
17
102
}
330
17
100
AcDbMlineStyle
  2
Standard
 70
     0
  3

 62
   256
 51
90.0
 52
90.0
 71
     2
 49
0.5
 62
   256
  6
BYLAYER
 49
-0.5
 62
   256
  6
BYLAYER
  0
ENDSEC
  0
EOF
