  0
SECTION
  2
HEADER
  9
$ACADVER
  1
AC1012
  9
$DWGCODEPAGE
  3
dos932
  9
$INSBASE
 10
0.0
 20
0.0
 30
0.0
  9
$EXTMIN
 10
0.0
 20
0.0
 30
0.0
  9
$EXTMAX
 10
420.0
 20
297.0
 30
0.0
  9
$LIMMIN
 10
0.0
 20
0.0
  9
$LIMMAX
 10
420.0
 20
297.0
  9
$ORTHOMODE
 70
     0
  9
$REGENMODE
 70
     1
  9
$FILLMODE
 70
     1
  9
$QTEXTMODE
 70
     0
  9
$MIRRTEXT
 70
     1
  9
$DRAGMODE
 70
     2
  9
$LTSCALE
 40
1.0
  9
$OSMODE
 70
    37
  9
$ATTMODE
 70
     1
  9
$TEXTSIZE
 40
3.5
  9
$TRACEWID
 40
1.0
  9
$TEXTSTYLE
  7
STANDARD
  9
$CLAYER
  8
0
  9
$CELTYPE
  6
BYLAYER
  9
$CECOLOR
 62
   256
  9
$CELTSCALE
 40
1.0
  9
$DELOBJ
 70
     1
  9
$DISPSILH
 70
     0
  9
$DIMSCALE
 40
1.0
  9
$DIMASZ
 40
2.0
  9
$DIMEXO
 40
1.0
  9
$DIMDLI
 40
3.75
  9
$DIMRND
 40
0.0
  9
$DIMDLE
 40
0.0
  9
$DIMEXE
 40
1.0
  9
$DIMTP
 40
0.0
  9
$DIMTM
 40
0.0
  9
$DIMTXT
 40
3.5
  9
$DIMCEN
 40
2.5
  9
$DIMTSZ
 40
0.0
  9
$DIMTOL
 70
     0
  9
$DIMLIM
 70
     0
  9
$DIMTIH
 70
     1
  9
$DIMTOH
 70
     1
  9
$DIMSE1
 70
     0
  9
$DIMSE2
 70
     0
  9
$DIMTAD
 70
     1
  9
$DIMZIN
 70
     0
  9
$DIMBLK
  1

  9
$DIMASO
 70
     1
  9
$DIMSHO
 70
     1
  9
$DIMPOST
  1

  9
$DIMAPOST
  1

  9
$DIMALT
 70
     0
  9
$DIMALTD
 70
     3
  9
$DIMALTF
 40
0.0393700787
  9
$DIMLFAC
 40
1.0
  9
$DIMTOFL
 70
     1
  9
$DIMTVP
 40
0.0
  9
$DIMTIX
 70
     0
  9
$DIMSOXD
 70
     0
  9
$DIMSAH
 70
     0
  9
$DIMBLK1
  1

  9
$DIMBLK2
  1

  9
$DIMSTYLE
  2
ISO-25
  9
$DIMCLRD
 70
     0
  9
$DIMCLRE
 70
     0
  9
$DIMCLRT
 70
     0
  9
$DIMTFAC
 40
1.0
  9
$DIMGAP
 40
1.524
  9
$DIMJUST
 70
     0
  9
$DIMSD1
 70
     0
  9
$DIMSD2
 70
     0
  9
$DIMTOLJ
 70
     0
  9
$DIMTZIN
 70
     0
  9
$DIMALTZ
 70
     0
  9
$DIMALTTZ
 70
     0
  9
$DIMFIT
 70
     3
  9
$DIMUPT
 70
     0
  9
$DIMUNIT
 70
     2
  9
$DIMDEC
 70
     3
  9
$DIMTDEC
 70
     3
  9
$DIMALTU
 70
     2
  9
$DIMALTTD
 70
     3
  9
$DIMTXSTY
  7
STANDARD
  9
$DIMAUNIT
 70
     0
  9
$LUNITS
 70
     2
  9
$LUPREC
 70
     3
  9
$SKETCHINC
 40
1.0
  9
$FILLETRAD
 40
0.0
  9
$AUNITS
 70
     0
  9
$AUPREC
 70
     3
  9
$MENU
  1
.
  9
$ELEVATION
 40
0.0
  9
$PELEVATION
 40
0.0
  9
$THICKNESS
 40
0.0
  9
$LIMCHECK
 70
     0
  9
$CHAMFERA
 40
0.0
  9
$CHAMFERB
 40
0.0
  9
$CHAMFERC
 40
0.0
  9
$CHAMFERD
 40
0.0
  9
$SKPOLY
 70
     0
  9
$TDCREATE
 40
2460651.688223762
  9
$TDUPDATE
 40
2460651.688226667
  9
$TDINDWG
 40
0.0000000116
  9
$TDUSRTIMER
 40
0.0000000116
  9
$USRTIMER
 70
     1
  9
$ANGBASE
 50
0.0
  9
$ANGDIR
 70
     0
  9
$PDMODE
 70
     0
  9
$PDSIZE
 40
-1.0
  9
$PLINEWID
 40
0.0
  9
$COORDS
 70
     1
  9
$SPLFRAME
 70
     0
  9
$SPLINETYPE
 70
     6
  9
$SPLINESEGS
 70
     8
  9
$ATTDIA
 70
     0
  9
$ATTREQ
 70
     1
  9
$HANDLING
 70
     1
  9
$HANDSEED
  5
3F4
  9
$SURFTAB1
 70
     6
  9
$SURFTAB2
 70
     6
  9
$SURFTYPE
 70
     6
  9
$SURFU
 70
     6
  9
$SURFV
 70
     6
  9
$UCSNAME
  2

  9
$UCSORG
 10
0.0
 20
0.0
 30
0.0
  9
$UCSXDIR
 10
1.0
 20
0.0
 30
0.0
  9
$UCSYDIR
 10
0.0
 20
1.0
 30
0.0
  9
$PUCSNAME
  2

  9
$PUCSORG
 10
0.0
 20
0.0
 30
0.0
  9
$PUCSXDIR
 10
1.0
 20
0.0
 30
0.0
  9
$PUCSYDIR
 10
0.0
 20
1.0
 30
0.0
  9
$USERI1
 70
     0
  9
$USERI2
 70
     0
  9
$USERI3
 70
     0
  9
$USERI4
 70
     0
  9
$USERI5
 70
     0
  9
$USERR1
 40
0.0
  9
$USERR2
 40
0.0
  9
$USERR3
 40
0.0
  9
$USERR4
 40
0.0
  9
$USERR5
 40
0.0
  9
$WORLDVIEW
 70
     1
  9
$SHADEDGE
 70
     3
  9
$SHADEDIF
 70
    70
  9
$TILEMODE
 70
     1
  9
$MAXACTVP
 70
    64
  9
$PINSBASE
 10
0.0
 20
0.0
 30
0.0
  9
$PLIMCHECK
 70
     0
  9
$PEXTMIN
 10
1.0000000000E+20
 20
1.0000000000E+20
 30
1.0000000000E+20
  9
$PEXTMAX
 10
-1.0000000000E+20
 20
-1.0000000000E+20
 30
-1.0000000000E+20
  9
$PLIMMIN
 10
0.0
 20
0.0
  9
$PLIMMAX
 10
420.0
 20
297.0
  9
$UNITMODE
 70
     0
  9
$VISRETAIN
 70
     1
  9
$PLINEGEN
 70
     0
  9
$PSLTSCALE
 70
     1
  9
$TREEDEPTH
 70
  3020
  9
$PICKSTYLE
 70
     1
  9
$CMLSTYLE
  2
STANDARD
  9
$CMLJUST
 70
     0
  9
$CMLSCALE
 40
20.0
  9
$SAVEIMAGES
 70
     1
  0
ENDSEC
  0
SECTION
  2
CLASSES
  0
CLASS
  1
ACDBDICTIONARYWDFLT
  2
AcDbDictionaryWithDefault
  3
ObjectDBX Classes
 90
    32768
280
     0
281
     0
  0
CLASS
  1
VISUALSTYLE
  2
AcDbVisualStyle
  3
ObjectDBX Classes
 90
     4095
280
     0
281
     0
  0
CLASS
  1
MATERIAL
  2
AcDbMaterial
  3
ObjectDBX Classes
 90
     1153
280
     0
281
     0
  0
CLASS
  1
SCALE
  2
AcDbScale
  3
ObjectDBX Classes
 90
     1153
280
     0
281
     0
  0
CLASS
  1
TABLESTYLE
  2
AcDbTableStyle
  3
ObjectDBX Classes
 90
     4095
280
     0
281
     0
  0
CLASS
  1
MLEADERSTYLE
  2
AcDbMLeaderStyle
  3
ACDB_MLEADERSTYLE_CLASS
 90
     4095
280
     0
281
     0
  0
CLASS
  1
SUN
  2
AcDbSun
  3
SCENEOE
 90
     1153
280
     0
281
     0
  0
CLASS
  1
XRECORD
  2
AcDbXrecord
  3
ObjectDBX Classes
 90
    32768
280
     0
281
     0
  0
ENDSEC
  0
SECTION
  2
TABLES
  0
TABLE
  2
VPORT
  5
8
330
0
100
AcDbSymbolTable
 70
     1
  0
VPORT
  5
29
330
8
100
AcDbSymbolTableRecord
100
AcDbViewportTableRecord
  2
*ACTIVE
 70
     0
 10
0.0
 20
0.0
 11
1.0
 21
1.0
 12
210.0
 22
148.5
 13
0.0
 23
0.0
 14
10.0
 24
10.0
 15
10.0
 25
10.0
 16
0.0
 26
0.0
 36
1.0
 17
0.0
 27
0.0
 37
0.0
 40
297.0
 41
1.4141414141
 42
50.0
 43
0.0
 44
0.0
 50
0.0
 51
0.0
 71
     0
 72
  2000
 73
     1
 74
     3
 75
     0
 76
     0
 77
     0
 78
     0
  0
ENDTAB
  0
TABLE
  2
LTYPE
  5
5
330
0
100
AcDbSymbolTable
 70
     6
  0
LTYPE
  5
14
330
5
100
AcDbSymbolTableRecord
100
AcDbLinetypeTableRecord
  2
BYBLOCK
 70
     0
  3

 72
    65
 73
     0
 40
0.0
  0
LTYPE
  5
15
330
5
100
AcDbSymbolTableRecord
100
AcDbLinetypeTableRecord
  2
BYLAYER
 70
     0
  3

 72
    65
 73
     0
 40
0.0
  0
LTYPE
  5
16
330
5
100
AcDbSymbolTableRecord
100
AcDbLinetypeTableRecord
  2
CONTINUOUS
 70
     0
  3
Solid line
 72
    65
 73
     0
 40
0.0
  0
LTYPE
  5
5E
330
5
100
AcDbSymbolTableRecord
100
AcDbLinetypeTableRecord
  2
HIDDEN
 70
     0
  3
Hidden __ __ __ __ __ __ __ __ __ __ __ __ __ __
 72
    65
 73
     2
 40
1.905
 49
1.27
 74
     0
 49
-0.635
 74
     0
  0
LTYPE
  5
5F
330
5
100
AcDbSymbolTableRecord
100
AcDbLinetypeTableRecord
  2
PHANTOM
 70
     0
  3
Phantom ______  __  __  ______  __  __  ______
 72
    65
 73
     6
 40
12.7
 49
6.35
 74
     0
 49
-1.27
 74
     0
 49
1.27
 74
     0
 49
-1.27
 74
     0
 49
1.27
 74
     0
 49
-1.27
 74
     0
  0
LTYPE
  5
60
330
5
100
AcDbSymbolTableRecord
100
AcDbLinetypeTableRecord
  2
CENTER
 70
     0
  3
Center ____ _ ____ _ ____ _ ____ _ ____ _ ____
 72
    65
 73
     4
 40
10.16
 49
6.35
 74
     0
 49
-1.27
 74
     0
 49
1.27
 74
     0
 49
-1.27
 74
     0
  0
LTYPE
  5
61
330
5
100
AcDbSymbolTableRecord
100
AcDbLinetypeTableRecord
  2
CENTERX2
 70
     0
  3
Center (2x) ________  __  ________  __  _____
 72
    65
 73
     4
 40
20.32
 49
12.7
 74
     0
 49
-2.54
 74
     0
 49
2.54
 74
     0
 49
-2.54
 74
     0
  0
LTYPE
  5
62
330
5
100
AcDbSymbolTableRecord
100
AcDbLinetypeTableRecord
  2
DOT2
 70
     0
  3
Dot (.5x) ........................................
 72
    65
 73
     2
 40
0.635
 49
0.0
 74
     0
 49
-0.635
 74
     0
  0
ENDTAB
  0
TABLE
  2
LAYER
  5
2
330
0
100
AcDbSymbolTable
 70
     4
  0
LAYER
  5
10
330
2
100
AcDbSymbolTableRecord
100
AcDbLayerTableRecord
  2
0
 70
     0
 62
     7
  6
CONTINUOUS
  0
LAYER
  5
63
330
2
100
AcDbSymbolTableRecord
100
AcDbLayerTableRecord
  2
ﾚｲﾔｰ1
 70
     0
 62
     7
  6
CONTINUOUS
  0
LAYER
  5
64
330
2
100
AcDbSymbolTableRecord
100
AcDbLayerTableRecord
  2
MAIN0
 70
     0
 62
   179
  6
CONTINUOUS
  0
LAYER
  5
65
330
2
100
AcDbSymbolTableRecord
100
AcDbLayerTableRecord
  2
太線
 70
     0
 62
     7
  6
CONTINUOUS
  0
ENDTAB
  0
TABLE
  2
STYLE
  5
3
330
0
100
AcDbSymbolTable
 70
     3
  0
STYLE
  5
11
330
3
100
AcDbSymbolTableRecord
100
AcDbTextStyleTableRecord
  2
STANDARD
 70
     0
 40
0.0
 41
1.0
 50
0.0
 71
     0
 42
3.5
  3
txt
  4
bigfont
  0
STYLE
  5
B3
330
3
100
AcDbSymbolTableRecord
100
AcDbTextStyleTableRecord
  2
SLDTEXTSTYLE0
 70
     0
 40
0.0
 41
0.7
 50
0.0
 71
     0
 42
3.5
  3
TXT
  4
bigfont
  0
STYLE
  5
3C1
330
3
100
AcDbSymbolTableRecord
100
AcDbTextStyleTableRecord
  2
SLDTEXTSTYLE1
 70
     0
 40
0.0
 41
0.62
 50
0.0
 71
     0
 42
3.5
  3
TXT
  4
bigfont
  0
ENDTAB
  0
TABLE
  2
VIEW
  5
6
330
0
100
AcDbSymbolTable
 70
     0
  0
ENDTAB
  0
TABLE
  2
UCS
  5
7
330
0
100
AcDbSymbolTable
 70
     0
  0
ENDTAB
  0
TABLE
  2
APPID
  5
9
330
0
100
AcDbSymbolTable
 70
     1
  0
APPID
  5
12
330
9
100
AcDbSymbolTableRecord
100
AcDbRegAppTableRecord
  2
ACAD
 70
     0
  0
ENDTAB
  0
TABLE
  2
DIMSTYLE
  5
A
330
0
100
AcDbSymbolTable
 70
    14
  0
DIMSTYLE
105
27
330
A
100
AcDbSymbolTableRecord
100
AcDbDimStyleTableRecord
  2
ISO-25
 70
     0
  3

  4

  5

  6

  7

 40
1.0
 41
2.5
 42
0.625
 43
3.75
 44
1.25
 45
0.0
 46
0.0
 47
0.0
 48
0.0
140
2.5
141
2.5
142
0.0
143
0.0393700787
144
1.0
145
0.0
146
1.0
147
0.625
 71
     0
 72
     0
 73
     0
 74
     0
 75
     0
 76
     0
 77
     1
 78
     8
170
     0
171
     3
172
     1
173
     0
174
     0
175
     0
176
     0
177
     0
178
     0
270
     2
271
     2
272
     2
273
     2
274
     3
340
11
275
     0
280
     0
281
     0
282
     0
283
     0
284
     8
285
     0
286
     0
287
     3
288
     0
  0
DIMSTYLE
105
BD
330
A
100
AcDbSymbolTableRecord
100
AcDbDimStyleTableRecord
  2
SLDDIMSTYLE0
 70
     0
  3

  4

  5

  6
OPEN30
  7
OPEN30
 40
1.0
 41
2.0
 42
0.0625
 43
0.38
 44
0.0
 45
0.000000001
 46
0.0
 47
0.0
 48
0.0
140
0.18
141
0.09
142
0.0
143
25.4
144
1.0
145
0.0
146
2.0
147
0.0
 71
     0
 72
     0
 73
     1
 74
     1
 75
     0
 76
     0
 77
     0
 78
     0
170
     0
171
     2
172
     0
173
     1
174
     0
175
     0
176
     0
177
     0
178
     0
270
     2
271
     0
272
     0
273
     2
274
     2
340
11
275
     0
280
     0
281
     0
282
     0
283
     1
284
     0
285
     0
286
     0
287
     3
288
     0
  0
DIMSTYLE
105
171
102
{ACAD_REACTORS
330
170
330
17B
330
1F0
330
1FA
330
207
330
212
330
260
330
26A
330
2D2
330
2DC
330
32B
102
}
330
A
100
AcDbSymbolTableRecord
100
AcDbDimStyleTableRecord
  2
SLDDIMSTYLE1
 70
     0
  3

  4

  5

  6
OPEN30
  7
OPEN30
 40
1.0
 41
2.0
 42
0.0625
 43
0.38
 44
0.0
 45
0.000000001
 46
0.0
 47
0.0
 48
0.0
140
3.5
141
0.09
142
0.0
143
25.4
144
1.0
145
0.0
146
1.0
147
0.875
 71
     0
 72
     0
 73
     0
 74
     0
 75
     0
 76
     0
 77
     3
 78
    12
170
     0
171
     2
172
     0
173
     1
174
     0
175
     0
176
     0
177
     0
178
     0
270
     2
271
     3
272
     3
273
     2
274
     2
340
B3
275
     0
280
     0
281
     0
282
     0
283
     1
284
    12
285
     0
286
     0
287
     3
288
     0
  0
DIMSTYLE
105
1E3
102
{ACAD_REACTORS
330
1E2
330
254
102
}
330
A
100
AcDbSymbolTableRecord
100
AcDbDimStyleTableRecord
  2
SLDDIMSTYLE2
 70
     0
  3

  4

  5

  6
OPEN30
  7
OPEN30
 40
1.0
 41
2.0
 42
0.0625
 43
0.38
 44
0.0
 45
0.000000001
 46
0.0
 47
0.0
 48
0.0
140
3.5
141
0.09
142
0.0
143
25.4
144
1.0
145
0.0
146
1.0
147
0.875
 71
     0
 72
     0
 73
     0
 74
     0
 75
     0
 76
     0
 77
     3
 78
    12
170
     0
171
     2
172
     1
173
     1
174
     0
175
     0
176
     0
177
     0
178
     0
270
     2
271
     3
272
     3
273
     2
274
     2
340
B3
275
     0
280
     0
281
     0
282
     0
283
     1
284
    12
285
     0
286
     0
288
     0
  0
DIMSTYLE
105
277
102
{ACAD_REACTORS
330
276
102
}
330
A
100
AcDbSymbolTableRecord
100
AcDbDimStyleTableRecord
  2
SLDDIMSTYLE3
 70
     0
  3

  4

  5

  6
OPEN30
  7
OPEN30
 40
1.0
 41
2.0
 42
0.0625
 43
0.38
 44
0.0
 45
0.000000001
 46
0.0
 47
0.0
 48
0.0
140
3.5
141
0.09
142
0.0
143
25.4
144
1.0
145
0.0
146
1.0
147
0.875
 71
     0
 72
     0
 73
     0
 74
     0
 75
     0
 76
     0
 77
     3
 78
    12
170
     0
171
     2
172
     0
173
     1
174
     0
175
     0
176
     0
177
     0
178
     0
270
     2
271
     3
272
     3
273
     2
274
     2
340
B3
275
     0
280
     0
281
     0
282
     0
283
     1
284
     8
285
     0
286
     0
287
     3
288
     0
  0
DIMSTYLE
105
2E7
102
{ACAD_REACTORS
330
2E6
102
}
330
A
100
AcDbSymbolTableRecord
100
AcDbDimStyleTableRecord
  2
SLDDIMSTYLE4
 70
     0
  3

  4

  5

  6
OPEN30
  7
OPEN30
 40
1.0
 41
2.0
 42
0.0625
 43
0.38
 44
0.0
 45
0.000000001
 46
0.0
 47
0.0
 48
0.0
140
3.5
141
0.09
142
0.0
143
25.4
144
1.0
145
0.0
146
1.0
147
0.875
 71
     0
 72
     0
 73
     0
 74
     0
 75
     0
 76
     0
 77
     3
 78
     8
170
     0
171
     2
172
     1
173
     1
174
     0
175
     0
176
     0
177
     0
178
     0
270
     2
271
     3
272
     3
273
     2
274
     2
340
B3
275
     0
280
     0
281
     0
282
     0
283
     1
284
    12
285
     0
286
     0
288
     0
  0
DIMSTYLE
105
2FB
330
A
100
AcDbSymbolTableRecord
100
AcDbDimStyleTableRecord
  2
SLDDIMSTYLE5
 70
     0
  3

  4

  5

  6
NONE
  7
NONE
 40
1.0
 41
2.0
 42
0.0625
 43
0.38
 44
0.0
 45
0.000000001
 46
0.0
 47
0.0
 48
0.0
140
0.18
141
0.09
142
0.0
143
25.4
144
1.0
145
0.0
146
2.0
147
0.0
 71
     0
 72
     0
 73
     1
 74
     1
 75
     0
 76
     0
 77
     0
 78
     0
170
     0
171
     2
172
     0
173
     1
174
     0
175
     0
176
     0
177
     0
178
     0
270
     2
271
     0
272
     0
273
     2
274
     2
340
11
275
     0
280
     0
281
     0
282
     0
283
     1
284
     0
285
     0
286
     0
287
     3
288
     0
  0
DIMSTYLE
105
336
102
{ACAD_REACTORS
330
335
102
}
330
A
100
AcDbSymbolTableRecord
100
AcDbDimStyleTableRecord
  2
SLDDIMSTYLE6
 70
     0
  3

  4

  5

  6
OPEN30
  7
OPEN30
 40
1.0
 41
2.0
 42
0.0625
 43
0.38
 44
0.0
 45
0.000000001
 46
0.0
 47
0.0
 48
0.0
140
3.5
141
0.0
142
0.0
143
25.4
144
1.0
145
0.0
146
1.0
147
0.875
 71
     0
 72
     0
 73
     0
 74
     0
 75
     0
 76
     0
 77
     3
 78
    12
170
     0
171
     2
172
     0
173
     1
174
     0
175
     0
176
     0
177
     0
178
     0
270
     2
271
     3
272
     3
273
     2
274
     2
340
B3
275
     0
280
     0
281
     0
282
     0
283
     1
284
    12
285
     0
286
     0
287
     3
288
     0
  0
DIMSTYLE
105
378
102
{ACAD_REACTORS
330
377
330
386
102
}
330
A
100
AcDbSymbolTableRecord
100
AcDbDimStyleTableRecord
  2
SLDDIMSTYLE7
 70
     0
  3

  4

  5

  6
OPEN30
  7
OPEN30
 40
1.0
 41
2.0
 42
0.0625
 43
0.38
 44
0.0
 45
0.000000001
 46
0.0
 47
0.1
 48
0.1
140
3.5
141
0.09
142
0.0
143
25.4
144
0.5
145
0.0
146
1.0
147
0.875
 71
     1
 72
     0
 73
     0
 74
     0
 75
     0
 76
     0
 77
     3
 78
    12
170
     0
171
     2
172
     1
173
     1
174
     0
175
     0
176
     0
177
     0
178
     0
270
     2
271
     3
272
     1
273
     2
274
     2
340
B3
275
     0
280
     0
281
     0
282
     0
283
     1
284
     8
285
     0
286
     0
288
     0
  0
DIMSTYLE
105
395
102
{ACAD_REACTORS
330
394
102
}
330
A
100
AcDbSymbolTableRecord
100
AcDbDimStyleTableRecord
  2
SLDDIMSTYLE8
 70
     0
  3

  4

  5

  6
OPEN30
  7
OPEN30
 40
1.0
 41
2.0
 42
0.0625
 43
0.38
 44
0.0
 45
0.000000001
 46
0.0
 47
0.0
 48
0.0
140
3.5
141
0.09
142
0.0
143
25.4
144
0.5
145
0.0
146
1.0
147
0.875
 71
     0
 72
     0
 73
     0
 74
     0
 75
     0
 76
     0
 77
     3
 78
     8
170
     0
171
     2
172
     1
173
     1
174
     0
175
     0
176
     0
177
     0
178
     0
270
     2
271
     3
272
     3
273
     2
274
     2
340
B3
275
     0
280
     0
281
     0
282
     0
283
     1
284
    12
285
     0
286
     0
288
     0
  0
DIMSTYLE
105
3A2
102
{ACAD_REACTORS
330
3A1
102
}
330
A
100
AcDbSymbolTableRecord
100
AcDbDimStyleTableRecord
  2
SLDDIMSTYLE9
 70
     0
  3

  4

  5

  6
OPEN30
  7
OPEN30
 40
1.0
 41
2.0
 42
0.0625
 43
0.38
 44
0.0
 45
0.000000001
 46
0.0
 47
0.0
 48
0.1
140
3.5
141
0.09
142
0.0
143
25.4
144
0.5
145
0.0
146
1.0
147
0.875
 71
     1
 72
     0
 73
     0
 74
     0
 75
     0
 76
     0
 77
     3
 78
    12
170
     0
171
     2
172
     0
173
     1
174
     0
175
     0
176
     0
177
     0
178
     0
270
     2
271
     3
272
     1
273
     2
274
     2
340
B3
275
     0
280
     0
281
     0
282
     0
283
     1
284
     8
285
     0
286
     0
287
     3
288
     0
  0
DIMSTYLE
105
3B2
102
{ACAD_REACTORS
330
3B1
102
}
330
A
100
AcDbSymbolTableRecord
100
AcDbDimStyleTableRecord
  2
SLDDIMSTYLE10
 70
     0
  3

  4

  5

  6
OPEN30
  7
OPEN30
 40
1.0
 41
2.0
 42
0.0625
 43
0.38
 44
0.0
 45
0.000000001
 46
0.0
 47
0.2
 48
0.0
140
3.5
141
0.09
142
0.0
143
25.4
144
0.5
145
0.0
146
1.0
147
0.875
 71
     1
 72
     0
 73
     0
 74
     0
 75
     0
 76
     0
 77
     3
 78
    12
170
     0
171
     2
172
     0
173
     1
174
     0
175
     0
176
     0
177
     0
178
     0
270
     2
271
     3
272
     1
273
     2
274
     2
340
B3
275
     0
280
     0
281
     0
282
     0
283
     1
284
     8
285
     0
286
     0
287
     3
288
     0
  0
DIMSTYLE
105
3CD
102
{ACAD_REACTORS
330
3CC
102
}
330
A
100
AcDbSymbolTableRecord
100
AcDbDimStyleTableRecord
  2
SLDDIMSTYLE11
 70
     0
  3

  4

  5

  6
OPEN30
  7
OPEN30
 40
1.0
 41
2.0
 42
0.0625
 43
0.38
 44
0.0
 45
0.000000001
 46
0.0
 47
0.0
 48
0.0
140
3.5
141
0.09
142
0.0
143
25.4
144
0.2
145
0.0
146
1.0
147
0.875
 71
     0
 72
     0
 73
     0
 74
     0
 75
     0
 76
     0
 77
     3
 78
    12
170
     0
171
     2
172
     0
173
     1
174
     0
175
     0
176
     0
177
     0
178
     0
270
     2
271
     3
272
     3
273
     2
274
     2
340
B3
275
     0
280
     0
281
     0
282
     0
283
     1
284
    12
285
     0
286
     0
287
     3
288
     0
  0
DIMSTYLE
105
3D8
102
{ACAD_REACTORS
330
3D7
330
3E4
102
}
330
A
100
AcDbSymbolTableRecord
100
AcDbDimStyleTableRecord
  2
SLDDIMSTYLE12
 70
     0
  3

  4

  5

  6
OPEN30
  7
OPEN30
 40
1.0
 41
2.0
 42
0.0625
 43
0.38
 44
0.0
 45
0.000000001
 46
0.0
 47
0.0
 48
0.0
140
3.5
141
0.09
142
0.0
143
25.4
144
0.2
145
0.0
146
1.0
147
0.875
 71
     0
 72
     0
 73
     0
 74
     0
 75
     0
 76
     0
 77
     3
 78
     8
170
     0
171
     2
172
     1
173
     1
174
     0
175
     0
176
     0
177
     0
178
     0
270
     2
271
     3
272
     3
273
     2
274
     2
340
B3
275
     0
280
     0
281
     0
282
     0
283
     1
284
    12
285
     0
286
     0
288
     0
  0
ENDTAB
  0
TABLE
  2
BLOCK_RECORD
  5
1
330
0
100
AcDbSymbolTable
 70
    38
  0
BLOCK_RECORD
  5
1F
330
1
100
AcDbSymbolTableRecord
100
AcDbBlockTableRecord
  2
*MODEL_SPACE
  0
BLOCK_RECORD
  5
1B
330
1
100
AcDbSymbolTableRecord
100
AcDbBlockTableRecord
  2
*PAPER_SPACE
  0
BLOCK_RECORD
  5
23
330
1
100
AcDbSymbolTableRecord
100
AcDbBlockTableRecord
  2
*PAPER_SPACE0
  0
BLOCK_RECORD
  5
B6
330
1
100
AcDbSymbolTableRecord
100
AcDbBlockTableRecord
  2
SW_NOTE_0
  0
BLOCK_RECORD
  5
BE
330
1
100
AcDbSymbolTableRecord
100
AcDbBlockTableRecord
  2
_OPEN30
  0
BLOCK_RECORD
  5
C5
330
1
100
AcDbSymbolTableRecord
100
AcDbBlockTableRecord
  2
SW_NOTE_0_1
  0
BLOCK_RECORD
  5
CD
330
1
100
AcDbSymbolTableRecord
100
AcDbBlockTableRecord
  2
SW_NOTE_0_2
  0
BLOCK_RECORD
  5
102
330
1
100
AcDbSymbolTableRecord
100
AcDbBlockTableRecord
  2
SW_TABLEANNOTATION_0
  0
BLOCK_RECORD
  5
12A
330
1
100
AcDbSymbolTableRecord
100
AcDbBlockTableRecord
  2
SW_TABLEANNOTATION_1
  0
BLOCK_RECORD
  5
172
330
1
100
AcDbSymbolTableRecord
100
AcDbBlockTableRecord
  2
_D
  0
BLOCK_RECORD
  5
17C
330
1
100
AcDbSymbolTableRecord
100
AcDbBlockTableRecord
  2
_D_1
  0
BLOCK_RECORD
  5
185
330
1
100
AcDbSymbolTableRecord
100
AcDbBlockTableRecord
  2
SW_CENTERMARKSYMBOL_0
  0
BLOCK_RECORD
  5
1E4
330
1
100
AcDbSymbolTableRecord
100
AcDbBlockTableRecord
  2
_D_2
  0
BLOCK_RECORD
  5
1F1
330
1
100
AcDbSymbolTableRecord
100
AcDbBlockTableRecord
  2
_D_3
  0
BLOCK_RECORD
  5
1FB
330
1
100
AcDbSymbolTableRecord
100
AcDbBlockTableRecord
  2
_D_4
  0
BLOCK_RECORD
  5
208
330
1
100
AcDbSymbolTableRecord
100
AcDbBlockTableRecord
  2
_D_5
  0
BLOCK_RECORD
  5
213
330
1
100
AcDbSymbolTableRecord
100
AcDbBlockTableRecord
  2
_D_6
  0
BLOCK_RECORD
  5
21F
330
1
100
AcDbSymbolTableRecord
100
AcDbBlockTableRecord
  2
SW_NOTE_0_3
  0
BLOCK_RECORD
  5
255
330
1
100
AcDbSymbolTableRecord
100
AcDbBlockTableRecord
  2
_D_7
  0
BLOCK_RECORD
  5
261
330
1
100
AcDbSymbolTableRecord
100
AcDbBlockTableRecord
  2
_D_8
  0
BLOCK_RECORD
  5
26B
330
1
100
AcDbSymbolTableRecord
100
AcDbBlockTableRecord
  2
_D_9
  0
BLOCK_RECORD
  5
278
330
1
100
AcDbSymbolTableRecord
100
AcDbBlockTableRecord
  2
_D_10
  0
BLOCK_RECORD
  5
282
330
1
100
AcDbSymbolTableRecord
100
AcDbBlockTableRecord
  2
SW_NOTE_0_4
  0
BLOCK_RECORD
  5
289
330
1
100
AcDbSymbolTableRecord
100
AcDbBlockTableRecord
  2
SW_CENTERMARKSYMBOL_1
  0
BLOCK_RECORD
  5
2D3
330
1
100
AcDbSymbolTableRecord
100
AcDbBlockTableRecord
  2
_D_11
  0
BLOCK_RECORD
  5
2DD
330
1
100
AcDbSymbolTableRecord
100
AcDbBlockTableRecord
  2
_D_12
  0
BLOCK_RECORD
  5
2E8
330
1
100
AcDbSymbolTableRecord
100
AcDbBlockTableRecord
  2
_D_13
  0
BLOCK_RECORD
  5
2FC
330
1
100
AcDbSymbolTableRecord
100
AcDbBlockTableRecord
  2
_NONE
  0
BLOCK_RECORD
  5
32C
330
1
100
AcDbSymbolTableRecord
100
AcDbBlockTableRecord
  2
_D_14
  0
BLOCK_RECORD
  5
337
330
1
100
AcDbSymbolTableRecord
100
AcDbBlockTableRecord
  2
_D_15
  0
BLOCK_RECORD
  5
33F
330
1
100
AcDbSymbolTableRecord
100
AcDbBlockTableRecord
  2
SW_CENTERMARKSYMBOL_2
  0
BLOCK_RECORD
  5
34B
330
1
100
AcDbSymbolTableRecord
100
AcDbBlockTableRecord
  2
SW_CENTERMARKSYMBOL_3
  0
BLOCK_RECORD
  5
379
330
1
100
AcDbSymbolTableRecord
100
AcDbBlockTableRecord
  2
_D_16
  0
BLOCK_RECORD
  5
387
330
1
100
AcDbSymbolTableRecord
100
AcDbBlockTableRecord
  2
_D_17
  0
BLOCK_RECORD
  5
396
330
1
100
AcDbSymbolTableRecord
100
AcDbBlockTableRecord
  2
_D_18
  0
BLOCK_RECORD
  5
3A3
330
1
100
AcDbSymbolTableRecord
100
AcDbBlockTableRecord
  2
_D_19
  0
BLOCK_RECORD
  5
3B3
330
1
100
AcDbSymbolTableRecord
100
AcDbBlockTableRecord
  2
_D_20
  0
BLOCK_RECORD
  5
3CE
330
1
100
AcDbSymbolTableRecord
100
AcDbBlockTableRecord
  2
_D_21
  0
BLOCK_RECORD
  5
3D9
330
1
100
AcDbSymbolTableRecord
100
AcDbBlockTableRecord
  2
_D_22
  0
BLOCK_RECORD
  5
3E5
330
1
100
AcDbSymbolTableRecord
100
AcDbBlockTableRecord
  2
_D_23
  0
ENDTAB
  0
ENDSEC
  0
SECTION
  2
BLOCKS
  0
BLOCK
  5
20
330
1F
100
AcDbEntity
  8
0
100
AcDbBlockBegin
  2
*MODEL_SPACE
 70
     0
 10
0.0
 20
0.0
 30
0.0
  3
*MODEL_SPACE
  1

  0
ENDBLK
  5
21
330
1F
100
AcDbEntity
  8
0
100
AcDbBlockEnd
  0
BLOCK
  5
1C
330
1B
100
AcDbEntity
 67
     1
  8
0
100
AcDbBlockBegin
  2
*PAPER_SPACE
 70
     0
 10
0.0
 20
0.0
 30
0.0
  3
*PAPER_SPACE
  1

  0
ENDBLK
  5
1D
330
1B
100
AcDbEntity
 67
     1
  8
0
100
AcDbBlockEnd
  0
BLOCK
  5
24
330
23
100
AcDbEntity
  8
0
100
AcDbBlockBegin
  2
*PAPER_SPACE0
 70
     0
 10
0.0
 20
0.0
 30
0.0
  3
*PAPER_SPACE0
  1

  0
ENDBLK
  5
25
330
23
100
AcDbEntity
  8
0
100
AcDbBlockEnd
  0
BLOCK
  5
B7
330
B6
100
AcDbEntity
  8
0
100
AcDbBlockBegin
  2
SW_NOTE_0
 70
     0
 10
0.0
 20
0.0
 30
0.0
  3
SW_NOTE_0
  1

  0
LINE
  5
B9
330
B6
100
AcDbEntity
  8
0
  6
CONTINUOUS
 62
     0
100
AcDbLine
 10
54.875556531
 20
0.0
 30
0.0
 11
0.0
 21
0.0
 31
0.0
  0
MTEXT
  5
BA
330
B6
100
AcDbEntity
  8
0
  6
CONTINUOUS
 62
     0
100
AcDbMText
 10
0.3959163731
 20
9.1004752836
 30
0.0
 40
3.5
 41
0.0
 71
     1
 72
     1
  1
M10　めねじ内径
  7
SLDTEXTSTYLE0
  0
MTEXT
  5
BB
330
B6
100
AcDbEntity
  8
0
  6
CONTINUOUS
 62
     0
100
AcDbMText
 10
0.3959163731
 20
4.6004754773
 30
0.0
 40
3.5
 41
0.0
 71
     1
 72
     1
  1
Female screw inner diameter
  7
SLDTEXTSTYLE0
  0
ENDBLK
  5
B8
330
B6
100
AcDbEntity
  8
0
100
AcDbBlockEnd
  0
BLOCK
  5
BF
330
BE
100
AcDbEntity
  8
0
100
AcDbBlockBegin
  2
_OPEN30
 70
     0
 10
0.0
 20
0.0
 30
0.0
  3
_OPEN30
  1

  0
LINE
  5
C1
330
BE
100
AcDbEntity
  8
0
  6
BYBLOCK
 62
     0
100
AcDbLine
 10
-1.0
 20
0.267949
 30
0.0
 11
0.0
 21
0.0
 31
0.0
  0
LINE
  5
C2
330
BE
100
AcDbEntity
  8
0
  6
BYBLOCK
 62
     0
100
AcDbLine
 10
0.0
 20
0.0
 30
0.0
 11
-1.0
 21
-0.267949
 31
0.0
  0
LINE
  5
C3
330
BE
100
AcDbEntity
  8
0
  6
BYBLOCK
 62
     0
100
AcDbLine
 10
0.0
 20
0.0
 30
0.0
 11
-1.0
 21
0.0
 31
0.0
  0
ENDBLK
  5
C0
330
BE
100
AcDbEntity
  8
0
100
AcDbBlockEnd
  0
BLOCK
  5
C6
330
C5
100
AcDbEntity
  8
0
100
AcDbBlockBegin
  2
SW_NOTE_0_1
 70
     0
 10
0.0
 20
0.0
 30
0.0
  3
SW_NOTE_0_1
  1

  0
LINE
  5
C8
330
C5
100
AcDbEntity
  8
0
  6
CONTINUOUS
 62
     0
100
AcDbLine
 10
-2.6247267367
 20
-0.0423771951
 30
0.0
 11
0.9733004772
 21
6.1895887463
 31
0.0
  0
LINE
  5
C9
330
C5
100
AcDbEntity
  8
0
  6
CONTINUOUS
 62
     0
100
AcDbLine
 10
0.9733004772
 20
6.1895887463
 30
0.0
 11
4.571327691
 21
-0.0423771951
 31
0.0
  0
LINE
  5
CA
330
C5
100
AcDbEntity
  8
0
  6
CONTINUOUS
 62
     0
100
AcDbLine
 10
4.571327691
 20
-0.0423771951
 30
0.0
 11
-2.6247267367
 21
-0.0423771951
 31
0.0
  0
MTEXT
  5
CB
330
C5
100
AcDbEntity
  8
0
  6
CONTINUOUS
 62
     0
100
AcDbMText
 10
1.0390625
 20
4.5117370892
 30
0.0
 40
3.5
 41
0.0
 71
     2
 72
     1
  1
1
  7
SLDTEXTSTYLE0
  0
ENDBLK
  5
C7
330
C5
100
AcDbEntity
  8
0
100
AcDbBlockEnd
  0
BLOCK
  5
CE
330
CD
100
AcDbEntity
  8
0
100
AcDbBlockBegin
  2
SW_NOTE_0_2
 70
     0
 10
0.0
 20
0.0
 30
0.0
  3
SW_NOTE_0_2
  1

  0
LINE
  5
D0
330
CD
100
AcDbEntity
  8
0
  6
CONTINUOUS
 62
     0
100
AcDbLine
 10
-2.670172944
 20
0.0640166695
 30
0.0
 11
0.9278542699
 21
6.2959826109
 31
0.0
  0
LINE
  5
D1
330
CD
100
AcDbEntity
  8
0
  6
CONTINUOUS
 62
     0
100
AcDbLine
 10
0.9278542699
 20
6.2959826109
 30
0.0
 11
4.5258814837
 21
0.0640166695
 31
0.0
  0
LINE
  5
D2
330
CD
100
AcDbEntity
  8
0
  6
CONTINUOUS
 62
     0
100
AcDbLine
 10
4.5258814837
 20
0.0640166695
 30
0.0
 11
-2.670172944
 21
0.0640166695
 31
0.0
  0
MTEXT
  5
D3
330
CD
100
AcDbEntity
  8
0
  6
CONTINUOUS
 62
     0
100
AcDbMText
 10
1.0390625
 20
4.5117370892
 30
0.0
 40
3.5
 41
0.0
 71
     2
 72
     1
  1
1
  7
SLDTEXTSTYLE0
  0
ENDBLK
  5
CF
330
CD
100
AcDbEntity
  8
0
100
AcDbBlockEnd
  0
BLOCK
  5
103
330
102
100
AcDbEntity
  8
0
100
AcDbBlockBegin
  2
SW_TABLEANNOTATION_0
 70
     0
 10
0.0
 20
0.0
 30
0.0
  3
SW_TABLEANNOTATION_0
  1

  0
LINE
  5
105
330
102
100
AcDbEntity
  8
0
  6
CONTINUOUS
 62
     0
100
AcDbLine
 10
0.0
 20
0.0
 30
0.0
 11
0.0
 21
-4.9602402351
 31
0.0
  0
LINE
  5
106
330
102
100
AcDbEntity
  8
0
  6
CONTINUOUS
 62
     0
100
AcDbLine
 10
12.2
 20
0.0
 30
0.0
 11
12.2
 21
-4.9602402351
 31
0.0
  0
LINE
  5
107
330
102
100
AcDbEntity
  8
0
  6
CONTINUOUS
 62
     0
100
AcDbLine
 10
32.2
 20
0.0
 30
0.0
 11
32.2
 21
-4.9602402351
 31
0.0
  0
LINE
  5
108
330
102
100
AcDbEntity
  8
0
  6
CONTINUOUS
 62
     0
100
AcDbLine
 10
85.993
 20
0.0
 30
0.0
 11
85.993
 21
-4.9602402351
 31
0.0
  0
LINE
  5
109
330
102
100
AcDbEntity
  8
0
  6
CONTINUOUS
 62
     0
100
AcDbLine
 10
105.993
 20
0.0
 30
0.0
 11
105.993
 21
-4.9602402351
 31
0.0
  0
LINE
  5
10A
330
102
100
AcDbEntity
  8
0
  6
CONTINUOUS
 62
     0
100
AcDbLine
 10
123.993
 20
0.0
 30
0.0
 11
123.993
 21
-4.9602402351
 31
0.0
  0
LINE
  5
10B
330
102
100
AcDbEntity
  8
0
  6
CONTINUOUS
 62
     0
100
AcDbLine
 10
0.0
 20
0.0
 30
0.0
 11
12.2
 21
0.0
 31
0.0
  0
LINE
  5
10C
330
102
100
AcDbEntity
  8
0
  6
CONTINUOUS
 62
     0
100
AcDbLine
 10
0.0
 20
-4.9602402351
 30
0.0
 11
12.2
 21
-4.9602402351
 31
0.0
  0
LINE
  5
10D
330
102
100
AcDbEntity
  8
0
  6
CONTINUOUS
 62
     0
100
AcDbLine
 10
12.2
 20
0.0
 30
0.0
 11
32.2
 21
0.0
 31
0.0
  0
LINE
  5
10E
330
102
100
AcDbEntity
  8
0
  6
CONTINUOUS
 62
     0
100
AcDbLine
 10
12.2
 20
-4.9602402351
 30
0.0
 11
32.2
 21
-4.9602402351
 31
0.0
  0
LINE
  5
10F
330
102
100
AcDbEntity
  8
0
  6
CONTINUOUS
 62
     0
100
AcDbLine
 10
32.2
 20
0.0
 30
0.0
 11
85.993
 21
0.0
 31
0.0
  0
LINE
  5
110
330
102
100
AcDbEntity
  8
0
  6
CONTINUOUS
 62
     0
100
AcDbLine
 10
32.2
 20
-4.9602402351
 30
0.0
 11
85.993
 21
-4.9602402351
 31
0.0
  0
LINE
  5
111
330
102
100
AcDbEntity
  8
0
  6
CONTINUOUS
 62
     0
100
AcDbLine
 10
85.993
 20
0.0
 30
0.0
 11
105.993
 21
0.0
 31
0.0
  0
LINE
  5
112
330
102
100
AcDbEntity
  8
0
  6
CONTINUOUS
 62
     0
100
AcDbLine
 10
85.993
 20
-4.9602402351
 30
0.0
 11
105.993
 21
-4.9602402351
 31
0.0
  0
LINE
  5
113
330
102
100
AcDbEntity
  8
0
  6
CONTINUOUS
 62
     0
100
AcDbLine
 10
105.993
 20
0.0
 30
0.0
 11
123.993
 21
0.0
 31
0.0
  0
LINE
  5
114
330
102
100
AcDbEntity
  8
0
  6
CONTINUOUS
 62
     0
100
AcDbLine
 10
105.993
 20
-4.9602402351
 30
0.0
 11
123.993
 21
-4.9602402351
 31
0.0
  0
LINE
  5
115
330
102
100
AcDbEntity
  8
0
  6
CONTINUOUS
 62
     0
100
AcDbLine
 10
0.0
 20
-4.9602402351
 30
0.0
 11
0.0
 21
-10.0480633132
 31
0.0
  0
LINE
  5
116
330
102
100
AcDbEntity
  8
0
  6
CONTINUOUS
 62
     0
100
AcDbLine
 10
12.2
 20
-4.9602402351
 30
0.0
 11
12.2
 21
-10.0480633132
 31
0.0
  0
LINE
  5
117
330
102
100
AcDbEntity
  8
0
  6
CONTINUOUS
 62
     0
100
AcDbLine
 10
32.2
 20
-4.9602402351
 30
0.0
 11
32.2
 21
-10.0480633132
 31
0.0
  0
LINE
  5
118
330
102
100
AcDbEntity
  8
0
  6
CONTINUOUS
 62
     0
100
AcDbLine
 10
85.993
 20
-4.9602402351
 30
0.0
 11
85.993
 21
-10.0480633132
 31
0.0
  0
LINE
  5
119
330
102
100
AcDbEntity
  8
0
  6
CONTINUOUS
 62
     0
100
AcDbLine
 10
105.993
 20
-4.9602402351
 30
0.0
 11
105.993
 21
-10.0480633132
 31
0.0
  0
LINE
  5
11A
330
102
100
AcDbEntity
  8
0
  6
CONTINUOUS
 62
     0
100
AcDbLine
 10
123.993
 20
-4.9602402351
 30
0.0
 11
123.993
 21
-10.0480633132
 31
0.0
  0
LINE
  5
11B
330
102
100
AcDbEntity
  8
0
  6
CONTINUOUS
 62
     0
100
AcDbLine
 10
0.0
 20
-10.0480633132
 30
0.0
 11
12.2
 21
-10.0480633132
 31
0.0
  0
LINE
  5
11C
330
102
100
AcDbEntity
  8
0
  6
CONTINUOUS
 62
     0
100
AcDbLine
 10
12.2
 20
-10.0480633132
 30
0.0
 11
32.2
 21
-10.0480633132
 31
0.0
  0
LINE
  5
11D
330
102
100
AcDbEntity
  8
0
  6
CONTINUOUS
 62
     0
100
AcDbLine
 10
32.2
 20
-10.0480633132
 30
0.0
 11
85.993
 21
-10.0480633132
 31
0.0
  0
LINE
  5
11E
330
102
100
AcDbEntity
  8
0
  6
CONTINUOUS
 62
     0
100
AcDbLine
 10
85.993
 20
-10.0480633132
 30
0.0
 11
105.993
 21
-10.0480633132
 31
0.0
  0
LINE
  5
11F
330
102
100
AcDbEntity
  8
0
  6
CONTINUOUS
 62
     0
100
AcDbLine
 10
105.993
 20
-10.0480633132
 30
0.0
 11
123.993
 21
-10.0480633132
 31
0.0
  0
MTEXT
  5
120
330
102
100
AcDbEntity
  8
0
  6
CONTINUOUS
 62
     0
100
AcDbMText
 10
1.7784723327
 20
-1.5485516031
 30
0.0
 40
1.8520833333
 41
0.0
 71
     1
 72
     1
  1
REV.NO.
  7
SLDTEXTSTYLE0
  0
MTEXT
  5
121
330
102
100
AcDbEntity
  8
0
  6
CONTINUOUS
 62
     0
100
AcDbMText
 10
18.6722222649
 20
-1.0545209195
 30
0.0
 40
2.6458333333
 41
0.0
 71
     1
 72
     1
  1
DATE
  7
SLDTEXTSTYLE0
  0
MTEXT
  5
122
330
102
100
AcDbEntity
  8
0
  6
CONTINUOUS
 62
     0
100
AcDbMText
 10
42.12578125
 20
-1.0545209195
 30
0.0
 40
2.6458333333
 41
0.0
 71
     1
 72
     1
  1
REASON OF REVISION
  7
SLDTEXTSTYLE0
  0
MTEXT
  5
123
330
102
100
AcDbEntity
  8
0
  6
CONTINUOUS
 62
     0
100
AcDbMText
 10
89.8193893127
 20
-1.0545209195
 30
0.0
 40
2.6458333333
 41
0.0
 71
     1
 72
     1
  1
REVISER
  7
SLDTEXTSTYLE0
  0
MTEXT
  5
124
330
102
100
AcDbEntity
  8
0
  6
CONTINUOUS
 62
     0
100
AcDbMText
 10
110.0541111708
 20
-1.5485516031
 30
0.0
 40
1.8520833333
 41
0.0
 71
     1
 72
     1
  1
QUANTITY
  7
SLDTEXTSTYLE0
  0
MTEXT
  5
125
330
102
100
AcDbEntity
  8
0
  6
CONTINUOUS
 62
     0
100
AcDbMText
 10
5.2180555662
 20
-6.0785525761
 30
0.0
 40
2.6458333333
 41
0.0
 71
     1
 72
     1
  1
1
  7
SLDTEXTSTYLE0
  0
MTEXT
  5
126
330
102
100
AcDbEntity
  8
0
  6
CONTINUOUS
 62
     0
100
AcDbMText
 10
13.380555895
 20
-6.0785525761
 30
0.0
 40
2.6458333333
 41
0.0
 71
     1
 72
     1
  1
2024/03/29
  7
SLDTEXTSTYLE0
  0
MTEXT
  5
127
330
102
100
AcDbEntity
  8
0
  6
CONTINUOUS
 62
     0
100
AcDbMText
 10
92.4652222649
 20
-6.0785525761
 30
0.0
 40
2.6458333333
 41
0.0
 71
     1
 72
     1
  1
増田
  7
SLDTEXTSTYLE0
  0
MTEXT
  5
128
330
102
100
AcDbEntity
  8
0
  6
CONTINUOUS
 62
     0
100
AcDbMText
 10
114.1110555662
 20
-6.0785525761
 30
0.0
 40
2.6458333333
 41
0.0
 71
     1
 72
     1
  1
2
  7
SLDTEXTSTYLE0
  0
ENDBLK
  5
104
330
102
100
AcDbEntity
  8
0
100
AcDbBlockEnd
  0
BLOCK
  5
12B
330
12A
100
AcDbEntity
  8
0
100
AcDbBlockBegin
  2
SW_TABLEANNOTATION_1
 70
     0
 10
0.0
 20
0.0
 30
0.0
  3
SW_TABLEANNOTATION_1
  1

  0
LINE
  5
12D
330
12A
100
AcDbEntity
  8
0
  6
CONTINUOUS
 62
     0
100
AcDbLine
 10
0.0
 20
0.0
 30
0.0
 11
0.0
 21
-15.8335184443
 31
0.0
  0
LINE
  5
12E
330
12A
100
AcDbEntity
  8
0
  6
CONTINUOUS
 62
     0
100
AcDbLine
 10
40.0412497004
 20
0.0
 30
0.0
 11
40.0412497004
 21
-15.8335184443
 31
0.0
  0
LINE
  5
12F
330
12A
100
AcDbEntity
  8
0
  6
CONTINUOUS
 62
     0
100
AcDbLine
 10
97.6208108805
 20
0.0
 30
0.0
 11
97.6208108805
 21
-15.8335184443
 31
0.0
  0
LINE
  5
130
330
12A
100
AcDbEntity
  8
0
  6
CONTINUOUS
 62
     0
100
AcDbLine
 10
0.0
 20
0.0
 30
0.0
 11
40.0412497004
 21
0.0
 31
0.0
  0
LINE
  5
131
330
12A
100
AcDbEntity
  8
0
  6
CONTINUOUS
 62
     0
100
AcDbLine
 10
0.0
 20
-15.8335184443
 30
0.0
 11
40.0412497004
 21
-15.8335184443
 31
0.0
  0
LINE
  5
132
330
12A
100
AcDbEntity
  8
0
  6
CONTINUOUS
 62
     0
100
AcDbLine
 10
40.0412497004
 20
0.0
 30
0.0
 11
97.6208108805
 21
0.0
 31
0.0
  0
LINE
  5
133
330
12A
100
AcDbEntity
  8
0
  6
CONTINUOUS
 62
     0
100
AcDbLine
 10
40.0412497004
 20
-15.8335184443
 30
0.0
 11
97.6208108805
 21
-15.8335184443
 31
0.0
  0
MTEXT
  5
134
330
12A
100
AcDbEntity
  8
0
  6
CONTINUOUS
 62
     0
100
AcDbMText
 10
10.0984715338
 20
-4.1418194416
 30
0.0
 40
3.1
 41
0.0
 71
     1
 72
     1
  1
Tナット型式
  7
SLDTEXTSTYLE0
  0
MTEXT
  5
135
330
12A
100
AcDbEntity
  8
0
  6
CONTINUOUS
 62
     0
100
AcDbMText
 10
11.000485387
 20
-8.2418194618
 30
0.0
 40
3.1
 41
0.0
 71
     1
 72
     1
  1
T-NUT TYPE
  7
SLDTEXTSTYLE0
  0
MTEXT
  5
136
330
12A
100
AcDbEntity
  8
0
  6
CONTINUOUS
 62
     0
100
AcDbMText
 10
60.7129046804
 20
-6.1918194517
 30
0.0
 40
3.1
 41
0.0
 71
     1
 72
     1
  1
BR-AJC08M
  7
SLDTEXTSTYLE0
  0
ENDBLK
  5
12C
330
12A
100
AcDbEntity
  8
0
100
AcDbBlockEnd
  0
BLOCK
  5
173
330
172
100
AcDbEntity
  8
0
100
AcDbBlockBegin
  2
_D
 70
     0
 10
0.0
 20
0.0
 30
0.0
  3
_D
  1

  0
INSERT
  5
175
330
172
100
AcDbEntity
  8
0
  6
CONTINUOUS
 62
     7
100
AcDbBlockReference
  2
_OPEN30
 10
292.1714856075
 20
166.72218595
 30
-14.5
 41
2.0
 42
2.0
 50
90.0
  0
INSERT
  5
176
330
172
100
AcDbEntity
  8
0
  6
CONTINUOUS
 62
     7
100
AcDbBlockReference
  2
_OPEN30
 10
292.1714856075
 20
106.72218595
 30
-14.5
 41
2.0
 42
2.0
 50
270.0
  0
LINE
  5
177
330
172
100
AcDbEntity
  8
0
  6
CONTINUOUS
 62
     7
100
AcDbLine
 10
274.164921667
 20
166.72218595
 30
0.0
 11
293.1714856075
 21
166.72218595
 31
0.0
  0
LINE
  5
178
330
172
100
AcDbEntity
  8
0
  6
CONTINUOUS
 62
     7
100
AcDbLine
 10
274.164921667
 20
106.72218595
 30
0.0
 11
293.1714856075
 21
106.72218595
 31
0.0
  0
LINE
  5
179
330
172
100
AcDbEntity
  8
0
  6
CONTINUOUS
 62
     7
100
AcDbLine
 10
292.1714856075
 20
166.72218595
 30
0.0
 11
292.1714856075
 21
106.72218595
 31
0.0
  0
MTEXT
  5
17A
330
172
100
AcDbEntity
  8
0
  6
CONTINUOUS
 62
     7
100
AcDbMText
 10
287.6597487511
 20
133.0341255483
 30
0.0
 40
3.5
 41
0.0
 71
     1
 72
     1
  1
60
  7
SLDTEXTSTYLE0
 11
-7.044195017643634E-15
 21
1.0
 31
0.0
  0
ENDBLK
  5
174
330
172
100
AcDbEntity
  8
0
100
AcDbBlockEnd
  0
BLOCK
  5
17D
330
17C
100
AcDbEntity
  8
0
100
AcDbBlockBegin
  2
_D_1
 70
     0
 10
0.0
 20
0.0
 30
0.0
  3
_D_1
  1

  0
INSERT
  5
17F
330
17C
100
AcDbEntity
  8
0
  6
CONTINUOUS
 62
     7
100
AcDbBlockReference
  2
_OPEN30
 10
274.164921667
 20
184.5530476195
 30
-14.5
 41
2.0
 42
2.0
 50
0.0
  0
INSERT
  5
180
330
17C
100
AcDbEntity
  8
0
  6
CONTINUOUS
 62
     7
100
AcDbBlockReference
  2
_OPEN30
 10
242.164921667
 20
184.5530476195
 30
-14.5
 41
2.0
 42
2.0
 50
180.0
  0
LINE
  5
181
330
17C
100
AcDbEntity
  8
0
  6
CONTINUOUS
 62
     7
100
AcDbLine
 10
274.164921667
 20
166.72218595
 30
0.0
 11
274.164921667
 21
185.5530476195
 31
0.0
  0
LINE
  5
182
330
17C
100
AcDbEntity
  8
0
  6
CONTINUOUS
 62
     7
100
AcDbLine
 10
242.164921667
 20
166.72218595
 30
0.0
 11
242.164921667
 21
185.5530476195
 31
0.0
  0
LINE
  5
183
330
17C
100
AcDbEntity
  8
0
  6
CONTINUOUS
 62
     7
100
AcDbLine
 10
274.164921667
 20
184.5530476195
 30
0.0
 11
242.164921667
 21
184.5530476195
 31
0.0
  0
MTEXT
  5
184
330
17C
100
AcDbEntity
  8
0
  6
CONTINUOUS
 62
     7
100
AcDbMText
 10
256.7744046399
 20
189.0647844759
 30
0.0
 40
3.5
 41
0.0
 71
     1
 72
     1
  1
32
  7
SLDTEXTSTYLE0
  0
ENDBLK
  5
17E
330
17C
100
AcDbEntity
  8
0
100
AcDbBlockEnd
  0
BLOCK
  5
186
330
185
100
AcDbEntity
  8
0
100
AcDbBlockBegin
  2
SW_CENTERMARKSYMBOL_0
 70
     0
 10
0.0
 20
0.0
 30
0.0
  3
SW_CENTERMARKSYMBOL_0
  1

  0
LINE
  5
188
330
185
100
AcDbEntity
  8
0
  6
CONTINUOUS
 62
     0
100
AcDbLine
 10
0.0
 20
0.0
 30
0.0
 11
0.0
 21
2.0
 31
0.0
  0
LINE
  5
189
330
185
100
AcDbEntity
  8
0
  6
CONTINUOUS
 62
     0
100
AcDbLine
 10
0.0
 20
0.0
 30
0.0
 11
-2.0
 21
0.0
 31
0.0
  0
LINE
  5
18A
330
185
100
AcDbEntity
  8
0
  6
CONTINUOUS
 62
     0
100
AcDbLine
 10
0.0
 20
0.0
 30
0.0
 11
0.0
 21
-2.0
 31
0.0
  0
LINE
  5
18B
330
185
100
AcDbEntity
  8
0
  6
CONTINUOUS
 62
     0
100
AcDbLine
 10
0.0
 20
0.0
 30
0.0
 11
2.0
 21
0.0
 31
0.0
  0
LINE
  5
18C
330
185
100
AcDbEntity
  8
0
  6
CONTINUOUS
 62
     0
100
AcDbLine
 10
0.0
 20
4.0
 30
0.0
 11
0.0
 21
46.1613879867
 31
0.0
  0
LINE
  5
18D
330
185
100
AcDbEntity
  8
0
  6
CONTINUOUS
 62
     0
100
AcDbLine
 10
-4.0
 20
0.0
 30
0.0
 11
-8.75
 21
0.0
 31
0.0
  0
LINE
  5
18E
330
185
100
AcDbEntity
  8
0
  6
CONTINUOUS
 62
     0
100
AcDbLine
 10
0.0
 20
-4.0
 30
0.0
 11
0.0
 21
-27.1538925781
 31
0.0
  0
LINE
  5
18F
330
185
100
AcDbEntity
  8
0
  6
CONTINUOUS
 62
     0
100
AcDbLine
 10
4.0
 20
0.0
 30
0.0
 11
8.75
 21
0.0
 31
0.0
  0
ENDBLK
  5
187
330
185
100
AcDbEntity
  8
0
100
AcDbBlockEnd
  0
BLOCK
  5
1E5
330
1E4
100
AcDbEntity
  8
0
100
AcDbBlockBegin
  2
_D_2
 70
     0
 10
0.0
 20
0.0
 30
0.0
  3
_D_2
  1

  0
INSERT
  5
1E7
330
1E4
100
AcDbEntity
  8
0
  6
CONTINUOUS
 62
     7
100
AcDbBlockReference
  2
_OPEN30
 10
206.2884030998
 20
133.47218595
 30
8.0
 41
2.0
 42
2.0
 50
270.0
  0
INSERT
  5
1E8
330
1E4
100
AcDbEntity
  8
0
  6
CONTINUOUS
 62
     7
100
AcDbBlockReference
  2
_OPEN30
 10
206.2884030998
 20
119.97218595
 30
8.0
 41
2.0
 42
2.0
 50
90.0
  0
LINE
  5
1E9
330
1E4
100
AcDbEntity
  8
0
  6
CONTINUOUS
 62
     7
100
AcDbLine
 10
166.9884030998
 20
133.47218595
 30
0.0
 11
207.2884030998
 21
133.47218595
 31
0.0
  0
LINE
  5
1EA
330
1E4
100
AcDbEntity
  8
0
  6
CONTINUOUS
 62
     7
100
AcDbLine
 10
167.2884030998
 20
119.97218595
 30
0.0
 11
207.2884030998
 21
119.97218595
 31
0.0
  0
LINE
  5
1EB
330
1E4
100
AcDbEntity
  8
0
  6
CONTINUOUS
 62
     7
100
AcDbLine
 10
206.2884030998
 20
133.47218595
 30
0.0
 11
206.2884030998
 21
136.47218595
 31
0.0
  0
LINE
  5
1EC
330
1E4
100
AcDbEntity
  8
0
  6
CONTINUOUS
 62
     7
100
AcDbLine
 10
206.2884030998
 20
133.47218595
 30
0.0
 11
206.2884030998
 21
119.97218595
 31
0.0
  0
LINE
  5
1ED
330
1E4
100
AcDbEntity
  8
0
  6
CONTINUOUS
 62
     7
100
AcDbLine
 10
206.2884030998
 20
119.97218595
 30
0.0
 11
206.2884030998
 21
116.97218595
 31
0.0
  0
MTEXT
  5
1EE
330
1E4
100
AcDbEntity
  8
0
  6
CONTINUOUS
 62
     7
100
AcDbMText
 10
201.7766662434
 20
119.6615069742
 30
0.0
 40
3.5
 41
0.0
 71
     1
 72
     1
  1
%%c
  7
SLDTEXTSTYLE0
 11
-7.932373437343760E-15
 21
1.0
 31
0.0
  0
MTEXT
  5
1EF
330
1E4
100
AcDbEntity
  8
0
  6
CONTINUOUS
 62
     7
100
AcDbMText
 10
201.7766662434
 20
123.5314374893
 30
0.0
 40
3.5
 41
0.0
 71
     1
 72
     1
  1
13.5
  7
SLDTEXTSTYLE0
 11
-7.932373437343760E-15
 21
1.0
 31
0.0
  0
ENDBLK
  5
1E6
330
1E4
100
AcDbEntity
  8
0
100
AcDbBlockEnd
  0
BLOCK
  5
1F2
330
1F1
100
AcDbEntity
  8
0
100
AcDbBlockBegin
  2
_D_3
 70
     0
 10
0.0
 20
0.0
 30
0.0
  3
_D_3
  1

  0
INSERT
  5
1F4
330
1F1
100
AcDbEntity
  8
0
  6
CONTINUOUS
 62
     7
100
AcDbBlockReference
  2
_OPEN30
 10
194.2884030998
 20
106.72218595
 30
8.0
 41
2.0
 42
2.0
 50
270.0
  0
INSERT
  5
1F5
330
1F1
100
AcDbEntity
  8
0
  6
CONTINUOUS
 62
     7
100
AcDbBlockReference
  2
_OPEN30
 10
194.2884030998
 20
126.72218595
 30
8.0
 41
2.0
 42
2.0
 50
90.0
  0
LINE
  5
1F6
330
1F1
100
AcDbEntity
  8
0
  6
CONTINUOUS
 62
     7
100
AcDbLine
 10
184.2884030998
 20
106.72218595
 30
0.0
 11
195.2884030998
 21
106.72218595
 31
0.0
  0
LINE
  5
1F7
330
1F1
100
AcDbEntity
  8
0
  6
CONTINUOUS
 62
     7
100
AcDbLine
 10
187.6432751305
 20
126.72218595
 30
0.0
 11
195.2884030998
 21
126.72218595
 31
0.0
  0
LINE
  5
1F8
330
1F1
100
AcDbEntity
  8
0
  6
CONTINUOUS
 62
     7
100
AcDbLine
 10
194.2884030998
 20
106.72218595
 30
0.0
 11
194.2884030998
 21
126.72218595
 31
0.0
  0
MTEXT
  5
1F9
330
1F1
100
AcDbEntity
  8
0
  6
CONTINUOUS
 62
     7
100
AcDbMText
 10
189.7766662434
 20
113.9154587605
 30
0.0
 40
3.5
 41
0.0
 71
     1
 72
     1
  1
20
  7
SLDTEXTSTYLE0
 11
6.123233995736766E-17
 21
1.0
 31
0.0
  0
ENDBLK
  5
1F3
330
1F1
100
AcDbEntity
  8
0
100
AcDbBlockEnd
  0
BLOCK
  5
1FC
330
1FB
100
AcDbEntity
  8
0
100
AcDbBlockBegin
  2
_D_4
 70
     0
 10
0.0
 20
0.0
 30
0.0
  3
_D_4
  1

  0
ARC
  5
1FE
330
1FB
100
AcDbEntity
  8
0
  6
CONTINUOUS
 62
     7
100
AcDbCircle
 10
151.8878063146
 20
92.7589914475
 30
0.0
 40
4.554435549315966
100
AcDbArc
 50
153.4349488229
 51
206.5650511771
  0
ARC
  5
1FF
330
1FB
100
AcDbEntity
  8
0
  6
CONTINUOUS
 62
     7
100
AcDbCircle
 10
149.8510010499
 20
92.7589914475
 30
0.0
 40
4.554435549315966
100
AcDbArc
 50
333.4349488229
 51
26.5650511771
  0
INSERT
  5
200
330
1FB
100
AcDbEntity
  8
0
  6
CONTINUOUS
 62
     7
100
AcDbBlockReference
  2
_OPEN30
 10
155.2884030998
 20
90.72218595
 30
8.0
 41
2.0
 42
2.0
 50
180.0
  0
INSERT
  5
201
330
1FB
100
AcDbEntity
  8
0
  6
CONTINUOUS
 62
     7
100
AcDbBlockReference
  2
_OPEN30
 10
160.7884030998
 20
90.72218595
 30
8.0
 41
2.0
 42
2.0
 50
0.0
  0
LINE
  5
202
330
1FB
100
AcDbEntity
  8
0
  6
CONTINUOUS
 62
     7
100
AcDbLine
 10
155.2884030998
 20
115.72218595
 30
0.0
 11
155.2884030998
 21
89.72218595
 31
0.0
  0
LINE
  5
203
330
1FB
100
AcDbEntity
  8
0
  6
CONTINUOUS
 62
     7
100
AcDbLine
 10
160.7884030998
 20
118.97218595
 30
0.0
 11
160.7884030998
 21
89.72218595
 31
0.0
  0
LINE
  5
204
330
1FB
100
AcDbEntity
  8
0
  6
CONTINUOUS
 62
     7
100
AcDbLine
 10
155.2884030998
 20
90.72218595
 30
0.0
 11
147.333370762
 21
90.72218595
 31
0.0
  0
LINE
  5
205
330
1FB
100
AcDbEntity
  8
0
  6
CONTINUOUS
 62
     7
100
AcDbLine
 10
155.2884030998
 20
90.72218595
 30
0.0
 11
160.7884030998
 21
90.72218595
 31
0.0
  0
MTEXT
  5
206
330
1FB
100
AcDbEntity
  8
0
  6
CONTINUOUS
 62
     7
100
AcDbMText
 10
147.8141953196
 20
95.2339228064
 30
0.0
 40
3.5
 41
0.0
 71
     1
 72
     1
  1
5.5
  7
SLDTEXTSTYLE0
  0
ENDBLK
  5
1FD
330
1FB
100
AcDbEntity
  8
0
100
AcDbBlockEnd
  0
BLOCK
  5
209
330
208
100
AcDbEntity
  8
0
100
AcDbBlockBegin
  2
_D_5
 70
     0
 10
0.0
 20
0.0
 30
0.0
  3
_D_5
  1

  0
INSERT
  5
20B
330
208
100
AcDbEntity
  8
0
  6
CONTINUOUS
 62
     7
100
AcDbBlockReference
  2
_OPEN30
 10
160.7884030998
 20
90.72218595
 30
8.0
 41
2.0
 42
2.0
 50
180.0
  0
INSERT
  5
20C
330
208
100
AcDbEntity
  8
0
  6
CONTINUOUS
 62
     7
100
AcDbBlockReference
  2
_OPEN30
 10
166.2884030998
 20
90.72218595
 30
8.0
 41
2.0
 42
2.0
 50
0.0
  0
LINE
  5
20D
330
208
100
AcDbEntity
  8
0
  6
CONTINUOUS
 62
     7
100
AcDbLine
 10
160.7884030998
 20
118.97218595
 30
0.0
 11
160.7884030998
 21
89.72218595
 31
0.0
  0
LINE
  5
20E
330
208
100
AcDbEntity
  8
0
  6
CONTINUOUS
 62
     7
100
AcDbLine
 10
166.2884030998
 20
105.72218595
 30
0.0
 11
166.2884030998
 21
89.72218595
 31
0.0
  0
LINE
  5
20F
330
208
100
AcDbEntity
  8
0
  6
CONTINUOUS
 62
     7
100
AcDbLine
 10
160.7884030998
 20
90.72218595
 30
0.0
 11
166.2884030998
 21
90.72218595
 31
0.0
  0
LINE
  5
210
330
208
100
AcDbEntity
  8
0
  6
CONTINUOUS
 62
     7
100
AcDbLine
 10
166.2884030998
 20
90.72218595
 30
0.0
 11
175.1638391235
 21
90.72218595
 31
0.0
  0
MTEXT
  5
211
330
208
100
AcDbEntity
  8
0
  6
CONTINUOUS
 62
     7
100
AcDbMText
 10
169.0534223982
 20
95.2339228064
 30
0.0
 40
3.5
 41
0.0
 71
     1
 72
     1
  1
5.5
  7
SLDTEXTSTYLE0
  0
ENDBLK
  5
20A
330
208
100
AcDbEntity
  8
0
100
AcDbBlockEnd
  0
BLOCK
  5
214
330
213
100
AcDbEntity
  8
0
100
AcDbBlockBegin
  2
_D_6
 70
     0
 10
0.0
 20
0.0
 30
0.0
  3
_D_6
  1

  0
INSERT
  5
216
330
213
100
AcDbEntity
  8
0
  6
CONTINUOUS
 62
     7
100
AcDbBlockReference
  2
_OPEN30
 10
127.4230611435
 20
130.97218595
 30
8.0
 41
2.0
 42
2.0
 50
90.0
  0
INSERT
  5
217
330
213
100
AcDbEntity
  8
0
  6
CONTINUOUS
 62
     7
100
AcDbBlockReference
  2
_OPEN30
 10
127.4230611435
 20
122.47218595
 30
8.0
 41
2.0
 42
2.0
 50
270.0
  0
LINE
  5
218
330
213
100
AcDbEntity
  8
0
  6
CONTINUOUS
 62
     7
100
AcDbLine
 10
155.2384030998
 20
130.97218595
 30
0.0
 11
126.4230611435
 21
130.97218595
 31
0.0
  0
LINE
  5
219
330
213
100
AcDbEntity
  8
0
  6
CONTINUOUS
 62
     7
100
AcDbLine
 10
155.2384030998
 20
122.47218595
 30
0.0
 11
126.4230611435
 21
122.47218595
 31
0.0
  0
LINE
  5
21A
330
213
100
AcDbEntity
  8
0
  6
CONTINUOUS
 62
     7
100
AcDbLine
 10
127.4230611435
 20
130.97218595
 30
0.0
 11
127.4230611435
 21
141.254875503
 31
0.0
  0
LINE
  5
21B
330
213
100
AcDbEntity
  8
0
  6
CONTINUOUS
 62
     7
100
AcDbLine
 10
127.4230611435
 20
130.97218595
 30
0.0
 11
127.4230611435
 21
122.47218595
 31
0.0
  0
MTEXT
  5
21C
330
213
100
AcDbEntity
  8
0
  6
CONTINUOUS
 62
     7
100
AcDbMText
 10
122.9113242871
 20
131.2745284955
 30
0.0
 40
3.5
 41
0.0
 71
     1
 72
     1
  1
%%c
  7
SLDTEXTSTYLE0
 11
-7.044195017643634E-15
 21
1.0
 31
0.0
  0
MTEXT
  5
21D
330
213
100
AcDbEntity
  8
0
  6
CONTINUOUS
 62
     7
100
AcDbMText
 10
122.9113242871
 20
135.1444590105
 30
0.0
 40
3.5
 41
0.0
 71
     1
 72
     1
  1
8.5
  7
SLDTEXTSTYLE0
 11
-7.044195017643634E-15
 21
1.0
 31
0.0
  0
ENDBLK
  5
215
330
213
100
AcDbEntity
  8
0
100
AcDbBlockEnd
  0
BLOCK
  5
220
330
21F
100
AcDbEntity
  8
0
100
AcDbBlockBegin
  2
SW_NOTE_0_3
 70
     0
 10
0.0
 20
0.0
 30
0.0
  3
SW_NOTE_0_3
  1

  0
LINE
  5
222
330
21F
100
AcDbEntity
  8
0
  6
CONTINUOUS
 62
     0
100
AcDbLine
 10
-99.921688286
 20
0.0
 30
0.0
 11
0.0
 21
0.0
 31
0.0
  0
MTEXT
  5
223
330
21F
100
AcDbEntity
  8
0
  6
CONTINUOUS
 62
     0
100
AcDbMText
 10
-100.3975841042
 20
13.5571764036
 30
0.0
 40
3.5
 41
0.0
 71
     1
 72
     1
  1
低頭六角穴付ボルトCBS8(ミスミ) 使用可能(客先手配)
  7
SLDTEXTSTYLE0
  0
MTEXT
  5
224
330
21F
100
AcDbEntity
  8
0
  6
CONTINUOUS
 62
     0
100
AcDbMText
 10
-100.3975841042
 20
9.0571765974
 30
0.0
 40
3.5
 41
0.0
 71
     1
 72
     1
  1
Low head hexagon socket head bolt
  7
SLDTEXTSTYLE0
  0
MTEXT
  5
225
330
21F
100
AcDbEntity
  8
0
  6
CONTINUOUS
 62
     0
100
AcDbMText
 10
-100.3975841042
 20
4.5571767911
 30
0.0
 40
3.5
 41
0.0
 71
     1
 72
     1
  1
CBS8(MISUMI) available(Customer arrangement)
  7
SLDTEXTSTYLE0
  0
ENDBLK
  5
221
330
21F
100
AcDbEntity
  8
0
100
AcDbBlockEnd
  0
BLOCK
  5
256
330
255
100
AcDbEntity
  8
0
100
AcDbBlockBegin
  2
_D_7
 70
     0
 10
0.0
 20
0.0
 30
0.0
  3
_D_7
  1

  0
INSERT
  5
258
330
255
100
AcDbEntity
  8
0
  6
CONTINUOUS
 62
     7
100
AcDbBlockReference
  2
_OPEN30
 10
114.2320656869
 20
106.72218595
 30
14.5
 41
2.0
 42
2.0
 50
90.0
  0
INSERT
  5
259
330
255
100
AcDbEntity
  8
0
  6
CONTINUOUS
 62
     7
100
AcDbBlockReference
  2
_OPEN30
 10
114.2320656869
 20
116.72218595
 30
14.5
 41
2.0
 42
2.0
 50
270.0
  0
LINE
  5
25A
330
255
100
AcDbEntity
  8
0
  6
CONTINUOUS
 62
     7
100
AcDbLine
 10
99.7042551737
 20
106.72218595
 30
0.0
 11
115.2320656869
 21
106.72218595
 31
0.0
  0
LINE
  5
25B
330
255
100
AcDbEntity
  8
0
  6
CONTINUOUS
 62
     7
100
AcDbLine
 10
100.7042551737
 20
116.72218595
 30
0.0
 11
115.2320656869
 21
116.72218595
 31
0.0
  0
LINE
  5
25C
330
255
100
AcDbEntity
  8
0
  6
CONTINUOUS
 62
     7
100
AcDbLine
 10
114.2320656869
 20
106.72218595
 30
0.0
 11
114.2320656869
 21
103.72218595
 31
0.0
  0
LINE
  5
25D
330
255
100
AcDbEntity
  8
0
  6
CONTINUOUS
 62
     7
100
AcDbLine
 10
114.2320656869
 20
106.72218595
 30
0.0
 11
114.2320656869
 21
116.72218595
 31
0.0
  0
LINE
  5
25E
330
255
100
AcDbEntity
  8
0
  6
CONTINUOUS
 62
     7
100
AcDbLine
 10
114.2320656869
 20
116.72218595
 30
0.0
 11
114.2320656869
 21
119.72218595
 31
0.0
  0
MTEXT
  5
25F
330
255
100
AcDbEntity
  8
0
  6
CONTINUOUS
 62
     7
100
AcDbMText
 10
109.7203288305
 20
109.6525854321
 30
0.0
 40
3.5
 41
0.0
 71
     1
 72
     1
  1
10
  7
SLDTEXTSTYLE0
 11
2.832769448823990E-16
 21
1.0
 31
0.0
  0
ENDBLK
  5
257
330
255
100
AcDbEntity
  8
0
100
AcDbBlockEnd
  0
BLOCK
  5
262
330
261
100
AcDbEntity
  8
0
100
AcDbBlockBegin
  2
_D_8
 70
     0
 10
0.0
 20
0.0
 30
0.0
  3
_D_8
  1

  0
INSERT
  5
264
330
261
100
AcDbEntity
  8
0
  6
CONTINUOUS
 62
     7
100
AcDbBlockReference
  2
_OPEN30
 10
114.2320656869
 20
116.72218595
 30
14.5
 41
2.0
 42
2.0
 50
270.0
  0
INSERT
  5
265
330
261
100
AcDbEntity
  8
0
  6
CONTINUOUS
 62
     7
100
AcDbBlockReference
  2
_OPEN30
 10
114.2320656869
 20
136.72218595
 30
14.5
 41
2.0
 42
2.0
 50
90.0
  0
LINE
  5
266
330
261
100
AcDbEntity
  8
0
  6
CONTINUOUS
 62
     7
100
AcDbLine
 10
100.7042551737
 20
116.72218595
 30
0.0
 11
115.2320656869
 21
116.72218595
 31
0.0
  0
LINE
  5
267
330
261
100
AcDbEntity
  8
0
  6
CONTINUOUS
 62
     7
100
AcDbLine
 10
100.7042551737
 20
136.72218595
 30
0.0
 11
115.2320656869
 21
136.72218595
 31
0.0
  0
LINE
  5
268
330
261
100
AcDbEntity
  8
0
  6
CONTINUOUS
 62
     7
100
AcDbLine
 10
114.2320656869
 20
116.72218595
 30
0.0
 11
114.2320656869
 21
136.72218595
 31
0.0
  0
MTEXT
  5
269
330
261
100
AcDbEntity
  8
0
  6
CONTINUOUS
 62
     7
100
AcDbMText
 10
109.7203288305
 20
123.1718418577
 30
0.0
 40
3.5
 41
0.0
 71
     1
 72
     1
  1
20
  7
SLDTEXTSTYLE0
 11
6.123233995736766E-17
 21
1.0
 31
0.0
  0
ENDBLK
  5
263
330
261
100
AcDbEntity
  8
0
100
AcDbBlockEnd
  0
BLOCK
  5
26C
330
26B
100
AcDbEntity
  8
0
100
AcDbBlockBegin
  2
_D_9
 70
     0
 10
0.0
 20
0.0
 30
0.0
  3
_D_9
  1

  0
ARC
  5
26E
330
26B
100
AcDbEntity
  8
0
  6
CONTINUOUS
 62
     7
100
AcDbCircle
 10
112.1952601894
 20
151.5881794381
 30
0.0
 40
4.554435549315978
100
AcDbArc
 50
243.4349488229
 51
296.5650511771
  0
ARC
  5
26F
330
26B
100
AcDbEntity
  8
0
  6
CONTINUOUS
 62
     7
100
AcDbCircle
 10
112.1952601894
 20
147.5145684431
 30
0.0
 40
4.554435549315953
100
AcDbArc
 50
63.4349488229
 51
116.5650511771
  0
INSERT
  5
270
330
26B
100
AcDbEntity
  8
0
  6
CONTINUOUS
 62
     7
100
AcDbBlockReference
  2
_OPEN30
 10
114.2320656869
 20
166.72218595
 30
14.5
 41
2.0
 42
2.0
 50
90.0
  0
INSERT
  5
271
330
26B
100
AcDbEntity
  8
0
  6
CONTINUOUS
 62
     7
100
AcDbBlockReference
  2
_OPEN30
 10
114.2320656869
 20
136.72218595
 30
14.5
 41
2.0
 42
2.0
 50
270.0
  0
LINE
  5
272
330
26B
100
AcDbEntity
  8
0
  6
CONTINUOUS
 62
     7
100
AcDbLine
 10
99.7042551737
 20
166.72218595
 30
0.0
 11
115.2320656869
 21
166.72218595
 31
0.0
  0
LINE
  5
273
330
26B
100
AcDbEntity
  8
0
  6
CONTINUOUS
 62
     7
100
AcDbLine
 10
100.7042551737
 20
136.72218595
 30
0.0
 11
115.2320656869
 21
136.72218595
 31
0.0
  0
LINE
  5
274
330
26B
100
AcDbEntity
  8
0
  6
CONTINUOUS
 62
     7
100
AcDbLine
 10
114.2320656869
 20
166.72218595
 30
0.0
 11
114.2320656869
 21
136.72218595
 31
0.0
  0
MTEXT
  5
275
330
26B
100
AcDbEntity
  8
0
  6
CONTINUOUS
 62
     7
100
AcDbMText
 10
109.7203288305
 20
147.5145684431
 30
0.0
 40
3.5
 41
0.0
 71
     1
 72
     1
  1
30
  7
SLDTEXTSTYLE0
 11
-7.044195017643634E-15
 21
1.0
 31
0.0
  0
ENDBLK
  5
26D
330
26B
100
AcDbEntity
  8
0
100
AcDbBlockEnd
  0
BLOCK
  5
279
330
278
100
AcDbEntity
  8
0
100
AcDbBlockBegin
  2
_D_10
 70
     0
 10
0.0
 20
0.0
 30
0.0
  3
_D_10
  1

  0
INSERT
  5
27B
330
278
100
AcDbEntity
  8
0
  6
CONTINUOUS
 62
     7
100
AcDbBlockReference
  2
_OPEN30
 10
75.7042551737
 20
89.5340296211
 30
14.5
 41
2.0
 42
2.0
 50
180.0
  0
INSERT
  5
27C
330
278
100
AcDbEntity
  8
0
  6
CONTINUOUS
 62
     7
100
AcDbBlockReference
  2
_OPEN30
 10
91.7042551737
 20
89.5340296211
 30
14.5
 41
2.0
 42
2.0
 50
0.0
  0
LINE
  5
27D
330
278
100
AcDbEntity
  8
0
  6
CONTINUOUS
 62
     7
100
AcDbLine
 10
75.7042551737
 20
115.72218595
 30
0.0
 11
75.7042551737
 21
88.5340296211
 31
0.0
  0
LINE
  5
27E
330
278
100
AcDbEntity
  8
0
  6
CONTINUOUS
 62
     7
100
AcDbLine
 10
91.7042551737
 20
115.72218595
 30
0.0
 11
91.7042551737
 21
88.5340296211
 31
0.0
  0
LINE
  5
27F
330
278
100
AcDbEntity
  8
0
  6
CONTINUOUS
 62
     7
100
AcDbLine
 10
75.7042551737
 20
89.5340296211
 30
0.0
 11
91.7042551737
 21
89.5340296211
 31
0.0
  0
MTEXT
  5
280
330
278
100
AcDbEntity
  8
0
  6
CONTINUOUS
 62
     7
100
AcDbMText
 10
78.4572346052
 20
94.0457664775
 30
0.0
 40
3.5
 41
0.0
 71
     1
 72
     1
  1
16
  7
SLDTEXTSTYLE0
  0
MTEXT
  5
281
330
278
100
AcDbEntity
  8
0
  6
CONTINUOUS
 62
     7
100
AcDbMText
 10
84.6089706001
 20
94.0457664775
 30
0.0
 40
3.5
 41
0.0
 71
     1
 72
     1
  1
h7
  7
SLDTEXTSTYLE0
  0
ENDBLK
  5
27A
330
278
100
AcDbEntity
  8
0
100
AcDbBlockEnd
  0
BLOCK
  5
283
330
282
100
AcDbEntity
  8
0
100
AcDbBlockBegin
  2
SW_NOTE_0_4
 70
     0
 10
0.0
 20
0.0
 30
0.0
  3
SW_NOTE_0_4
  1

  0
LINE
  5
285
330
282
100
AcDbEntity
  8
0
  6
CONTINUOUS
 62
     0
100
AcDbLine
 10
5.9922134156
 20
0.0
 30
0.0
 11
0.0
 21
0.0
 31
0.0
  0
MTEXT
  5
286
330
282
100
AcDbEntity
  8
0
  6
CONTINUOUS
 62
     0
100
AcDbMText
 10
0.3970067859
 20
4.3963601996
 30
0.0
 40
3.5
 41
0.0
 71
     1
 72
     1
  1
M10
  7
SLDTEXTSTYLE0
  0
ENDBLK
  5
284
330
282
100
AcDbEntity
  8
0
100
AcDbBlockEnd
  0
BLOCK
  5
28A
330
289
100
AcDbEntity
  8
0
100
AcDbBlockBegin
  2
SW_CENTERMARKSYMBOL_1
 70
     0
 10
0.0
 20
0.0
 30
0.0
  3
SW_CENTERMARKSYMBOL_1
  1

  0
LINE
  5
28C
330
289
100
AcDbEntity
  8
0
  6
CONTINUOUS
 62
     0
100
AcDbLine
 10
0.0
 20
0.0
 30
0.0
 11
0.0
 21
2.0
 31
0.0
  0
LINE
  5
28D
330
289
100
AcDbEntity
  8
0
  6
CONTINUOUS
 62
     0
100
AcDbLine
 10
0.0
 20
0.0
 30
0.0
 11
-2.0
 21
0.0
 31
0.0
  0
LINE
  5
28E
330
289
100
AcDbEntity
  8
0
  6
CONTINUOUS
 62
     0
100
AcDbLine
 10
0.0
 20
0.0
 30
0.0
 11
0.0
 21
-2.0
 31
0.0
  0
LINE
  5
28F
330
289
100
AcDbEntity
  8
0
  6
CONTINUOUS
 62
     0
100
AcDbLine
 10
0.0
 20
0.0
 30
0.0
 11
2.0
 21
0.0
 31
0.0
  0
LINE
  5
290
330
289
100
AcDbEntity
  8
0
  6
CONTINUOUS
 62
     0
100
AcDbLine
 10
0.0
 20
4.0
 30
0.0
 11
0.0
 21
44.1167546087
 31
0.0
  0
LINE
  5
291
330
289
100
AcDbEntity
  8
0
  6
CONTINUOUS
 62
     0
100
AcDbLine
 10
-4.0
 20
0.0
 30
0.0
 11
-7.2
 21
0.0
 31
0.0
  0
LINE
  5
292
330
289
100
AcDbEntity
  8
0
  6
CONTINUOUS
 62
     0
100
AcDbLine
 10
0.0
 20
-4.0
 30
0.0
 11
0.0
 21
-22.2449984092
 31
0.0
  0
LINE
  5
293
330
289
100
AcDbEntity
  8
0
  6
CONTINUOUS
 62
     0
100
AcDbLine
 10
4.0
 20
0.0
 30
0.0
 11
7.2
 21
0.0
 31
0.0
  0
ENDBLK
  5
28B
330
289
100
AcDbEntity
  8
0
100
AcDbBlockEnd
  0
BLOCK
  5
2D4
330
2D3
100
AcDbEntity
  8
0
100
AcDbBlockBegin
  2
_D_11
 70
     0
 10
0.0
 20
0.0
 30
0.0
  3
_D_11
  1

  0
INSERT
  5
2D6
330
2D3
100
AcDbEntity
  8
0
  6
CONTINUOUS
 62
     7
100
AcDbBlockReference
  2
_OPEN30
 10
296.164921667
 20
223.2543934121
 30
-30.0
 41
2.0
 42
2.0
 50
270.0
  0
INSERT
  5
2D7
330
2D3
100
AcDbEntity
  8
0
  6
CONTINUOUS
 62
     7
100
AcDbBlockReference
  2
_OPEN30
 10
296.164921667
 20
249.2543934121
 30
-30.0
 41
2.0
 42
2.0
 50
90.0
  0
LINE
  5
2D8
330
2D3
100
AcDbEntity
  8
0
  6
CONTINUOUS
 62
     7
100
AcDbLine
 10
274.164921667
 20
223.2543934121
 30
0.0
 11
297.164921667
 21
223.2543934121
 31
0.0
  0
LINE
  5
2D9
330
2D3
100
AcDbEntity
  8
0
  6
CONTINUOUS
 62
     7
100
AcDbLine
 10
274.764921667
 20
249.2543934121
 30
0.0
 11
297.164921667
 21
249.2543934121
 31
0.0
  0
LINE
  5
2DA
330
2D3
100
AcDbEntity
  8
0
  6
CONTINUOUS
 62
     7
100
AcDbLine
 10
296.164921667
 20
223.2543934121
 30
0.0
 11
296.164921667
 21
249.2543934121
 31
0.0
  0
MTEXT
  5
2DB
330
2D3
100
AcDbEntity
  8
0
  6
CONTINUOUS
 62
     7
100
AcDbMText
 10
291.6531848107
 20
234.7721002862
 30
0.0
 40
3.5
 41
0.0
 71
     1
 72
     1
  1
26
  7
SLDTEXTSTYLE0
 11
6.123233995736766E-17
 21
1.0
 31
0.0
  0
ENDBLK
  5
2D5
330
2D3
100
AcDbEntity
  8
0
100
AcDbBlockEnd
  0
BLOCK
  5
2DE
330
2DD
100
AcDbEntity
  8
0
100
AcDbBlockBegin
  2
_D_12
 70
     0
 10
0.0
 20
0.0
 30
0.0
  3
_D_12
  1

  0
INSERT
  5
2E0
330
2DD
100
AcDbEntity
  8
0
  6
CONTINUOUS
 62
     7
100
AcDbBlockReference
  2
_OPEN30
 10
305.7051569302
 20
223.2543934121
 30
-30.0
 41
2.0
 42
2.0
 50
270.0
  0
INSERT
  5
2E1
330
2DD
100
AcDbEntity
  8
0
  6
CONTINUOUS
 62
     7
100
AcDbBlockReference
  2
_OPEN30
 10
305.7051569302
 20
252.2543934121
 30
-30.0
 41
2.0
 42
2.0
 50
90.0
  0
LINE
  5
2E2
330
2DD
100
AcDbEntity
  8
0
  6
CONTINUOUS
 62
     7
100
AcDbLine
 10
274.164921667
 20
223.2543934121
 30
0.0
 11
306.7051569302
 21
223.2543934121
 31
0.0
  0
LINE
  5
2E3
330
2DD
100
AcDbEntity
  8
0
  6
CONTINUOUS
 62
     7
100
AcDbLine
 10
266.764921667
 20
252.2543934121
 30
0.0
 11
306.7051569302
 21
252.2543934121
 31
0.0
  0
LINE
  5
2E4
330
2DD
100
AcDbEntity
  8
0
  6
CONTINUOUS
 62
     7
100
AcDbLine
 10
305.7051569302
 20
223.2543934121
 30
0.0
 11
305.7051569302
 21
252.2543934121
 31
0.0
  0
MTEXT
  5
2E5
330
2DD
100
AcDbEntity
  8
0
  6
CONTINUOUS
 62
     7
100
AcDbMText
 10
301.1934200738
 20
236.7011336583
 30
0.0
 40
3.5
 41
0.0
 71
     1
 72
     1
  1
29
  7
SLDTEXTSTYLE0
 11
6.123233995736766E-17
 21
1.0
 31
0.0
  0
ENDBLK
  5
2DF
330
2DD
100
AcDbEntity
  8
0
100
AcDbBlockEnd
  0
BLOCK
  5
2E9
330
2E8
100
AcDbEntity
  8
0
100
AcDbBlockBegin
  2
_D_13
 70
     0
 10
0.0
 20
0.0
 30
0.0
  3
_D_13
  1

  0
INSERT
  5
2EB
330
2E8
100
AcDbEntity
  8
0
  6
CONTINUOUS
 62
     7
100
AcDbBlockReference
  2
_OPEN30
 10
290.164921667
 20
248.7543934121
 30
-30.0
 41
2.0
 42
2.0
 50
90.0
  0
INSERT
  5
2EC
330
2E8
100
AcDbEntity
  8
0
  6
CONTINUOUS
 62
     7
100
AcDbBlockReference
  2
_OPEN30
 10
290.164921667
 20
249.2543934121
 30
-30.0
 41
2.0
 42
2.0
 50
270.0
  0
LINE
  5
2ED
330
2E8
100
AcDbEntity
  8
0
  6
CONTINUOUS
 62
     7
100
AcDbLine
 10
275.164921667
 20
248.7543934121
 30
0.0
 11
291.164921667
 21
248.7543934121
 31
0.0
  0
LINE
  5
2EE
330
2E8
100
AcDbEntity
  8
0
  6
CONTINUOUS
 62
     7
100
AcDbLine
 10
274.764921667
 20
249.2543934121
 30
0.0
 11
291.164921667
 21
249.2543934121
 31
0.0
  0
LINE
  5
2EF
330
2E8
100
AcDbEntity
  8
0
  6
CONTINUOUS
 62
     7
100
AcDbLine
 10
290.164921667
 20
248.7543934121
 30
0.0
 11
290.164921667
 21
245.7543934121
 31
0.0
  0
LINE
  5
2F0
330
2E8
100
AcDbEntity
  8
0
  6
CONTINUOUS
 62
     7
100
AcDbLine
 10
290.164921667
 20
248.7543934121
 30
0.0
 11
290.164921667
 21
249.2543934121
 31
0.0
  0
LINE
  5
2F1
330
2E8
100
AcDbEntity
  8
0
  6
CONTINUOUS
 62
     7
100
AcDbLine
 10
290.164921667
 20
249.2543934121
 30
0.0
 11
290.164921667
 21
261.0933007673
 31
0.0
  0
MTEXT
  5
2F2
330
2E8
100
AcDbEntity
  8
0
  6
CONTINUOUS
 62
     7
100
AcDbMText
 10
285.6531848107
 20
254.982884042
 30
0.0
 40
3.5
 41
0.0
 71
     1
 72
     1
  1
0.5
  7
SLDTEXTSTYLE0
 11
6.123233995736766E-17
 21
1.0
 31
0.0
  0
ENDBLK
  5
2EA
330
2E8
100
AcDbEntity
  8
0
100
AcDbBlockEnd
  0
BLOCK
  5
2FD
330
2FC
100
AcDbEntity
  8
0
100
AcDbBlockBegin
  2
_NONE
 70
     0
 10
0.0
 20
0.0
 30
0.0
  3
_NONE
  1

  0
ENDBLK
  5
2FE
330
2FC
100
AcDbEntity
  8
0
100
AcDbBlockEnd
  0
BLOCK
  5
32D
330
32C
100
AcDbEntity
  8
0
100
AcDbBlockBegin
  2
_D_14
 70
     0
 10
0.0
 20
0.0
 30
0.0
  3
_D_14
  1

  0
INSERT
  5
32F
330
32C
100
AcDbEntity
  8
0
  6
CONTINUOUS
 62
     7
100
AcDbBlockReference
  2
_OPEN30
 10
373.7386802335
 20
166.7474705165
 30
-7.6359336457
 41
2.0
 42
2.0
 50
90.0
  0
INSERT
  5
330
330
32C
100
AcDbEntity
  8
0
  6
CONTINUOUS
 62
     7
100
AcDbBlockReference
  2
_OPEN30
 10
373.7386802335
 20
136.7474705165
 30
-7.6359336457
 41
2.0
 42
2.0
 50
270.0
  0
LINE
  5
331
330
32C
100
AcDbEntity
  8
0
  6
CONTINUOUS
 62
     7
100
AcDbLine
 10
350.9845144789
 20
166.7474705165
 30
0.0
 11
374.7386802335
 21
166.7474705165
 31
0.0
  0
LINE
  5
332
330
32C
100
AcDbEntity
  8
0
  6
CONTINUOUS
 62
     7
100
AcDbLine
 10
352.5782398722
 20
136.7474705165
 30
0.0
 11
374.7386802335
 21
136.7474705165
 31
0.0
  0
LINE
  5
333
330
32C
100
AcDbEntity
  8
0
  6
CONTINUOUS
 62
     7
100
AcDbLine
 10
373.7386802335
 20
166.7474705165
 30
0.0
 11
373.7386802335
 21
136.7474705165
 31
0.0
  0
MTEXT
  5
334
330
32C
100
AcDbEntity
  8
0
  6
CONTINUOUS
 62
     7
100
AcDbMText
 10
369.2269433771
 20
150.3287119579
 30
0.0
 40
3.5
 41
0.0
 71
     1
 72
     1
  1
30
  7
SLDTEXTSTYLE0
 11
-7.044195017643634E-15
 21
1.0
 31
0.0
  0
ENDBLK
  5
32E
330
32C
100
AcDbEntity
  8
0
100
AcDbBlockEnd
  0
BLOCK
  5
338
330
337
100
AcDbEntity
  8
0
100
AcDbBlockBegin
  2
_D_15
 70
     0
 10
0.0
 20
0.0
 30
0.0
  3
_D_15
  1

  0
INSERT
  5
33A
330
337
100
AcDbEntity
  8
0
  6
CONTINUOUS
 62
     7
100
AcDbBlockReference
  2
_OPEN30
 10
348.1924434393
 20
131.5756078198
 30
-7.6359336457
 41
2.0
 42
2.0
 50
150.0
  0
LINE
  5
33B
330
337
100
AcDbEntity
  8
0
  6
CONTINUOUS
 62
     7
100
AcDbLine
 10
348.1924434393
 20
131.5756078198
 30
0.0
 11
360.8893957734
 21
124.2450189719
 31
0.0
  0
LINE
  5
33C
330
337
100
AcDbEntity
  8
0
  6
CONTINUOUS
 62
     7
100
AcDbLine
 10
348.1924434393
 20
131.5756078198
 30
0.0
 11
339.2345144789
 21
136.7474705165
 31
0.0
  0
MTEXT
  5
33D
330
337
100
AcDbEntity
  8
0
  6
CONTINUOUS
 62
     7
100
AcDbMText
 10
361.3777128592
 20
129.1644199697
 30
0.0
 40
3.5
 41
0.0
 71
     1
 72
     1
  1
R
  7
SLDTEXTSTYLE0
 11
0.8660254037844441
 21
-0.4999999999999905
 31
0.0
  0
ENDBLK
  5
339
330
337
100
AcDbEntity
  8
0
100
AcDbBlockEnd
  0
BLOCK
  5
340
330
33F
100
AcDbEntity
  8
0
100
AcDbBlockBegin
  2
SW_CENTERMARKSYMBOL_2
 70
     0
 10
0.0
 20
0.0
 30
0.0
  3
SW_CENTERMARKSYMBOL_2
  1

  0
LINE
  5
342
330
33F
100
AcDbEntity
  8
0
  6
CONTINUOUS
 62
     0
100
AcDbLine
 10
0.0
 20
0.0
 30
0.0
 11
0.0
 21
2.0
 31
0.0
  0
LINE
  5
343
330
33F
100
AcDbEntity
  8
0
  6
CONTINUOUS
 62
     0
100
AcDbLine
 10
0.0
 20
0.0
 30
0.0
 11
-2.0
 21
0.0
 31
0.0
  0
LINE
  5
344
330
33F
100
AcDbEntity
  8
0
  6
CONTINUOUS
 62
     0
100
AcDbLine
 10
0.0
 20
0.0
 30
0.0
 11
0.0
 21
-2.0
 31
0.0
  0
LINE
  5
345
330
33F
100
AcDbEntity
  8
0
  6
CONTINUOUS
 62
     0
100
AcDbLine
 10
0.0
 20
0.0
 30
0.0
 11
2.0
 21
0.0
 31
0.0
  0
LINE
  5
346
330
33F
100
AcDbEntity
  8
0
  6
CONTINUOUS
 62
     0
100
AcDbLine
 10
0.0
 20
4.0
 30
0.0
 11
0.0
 21
35.8218412361
 31
0.0
  0
LINE
  5
347
330
33F
100
AcDbEntity
  8
0
  6
CONTINUOUS
 62
     0
100
AcDbLine
 10
-4.0
 20
0.0
 30
0.0
 11
-12.3437253933
 21
0.0
 31
0.0
  0
LINE
  5
348
330
33F
100
AcDbEntity
  8
0
  6
CONTINUOUS
 62
     0
100
AcDbLine
 10
0.0
 20
-4.0
 30
0.0
 11
0.0
 21
-12.3437253933
 31
0.0
  0
LINE
  5
349
330
33F
100
AcDbEntity
  8
0
  6
CONTINUOUS
 62
     0
100
AcDbLine
 10
4.0
 20
0.0
 30
0.0
 11
12.3437253933
 21
0.0
 31
0.0
  0
ENDBLK
  5
341
330
33F
100
AcDbEntity
  8
0
100
AcDbBlockEnd
  0
BLOCK
  5
34C
330
34B
100
AcDbEntity
  8
0
100
AcDbBlockBegin
  2
SW_CENTERMARKSYMBOL_3
 70
     0
 10
0.0
 20
0.0
 30
0.0
  3
SW_CENTERMARKSYMBOL_3
  1

  0
LINE
  5
34E
330
34B
100
AcDbEntity
  8
0
  6
CONTINUOUS
 62
     0
100
AcDbLine
 10
0.0
 20
0.0
 30
0.0
 11
0.0
 21
2.0
 31
0.0
  0
LINE
  5
34F
330
34B
100
AcDbEntity
  8
0
  6
CONTINUOUS
 62
     0
100
AcDbLine
 10
0.0
 20
0.0
 30
0.0
 11
-2.0
 21
0.0
 31
0.0
  0
LINE
  5
350
330
34B
100
AcDbEntity
  8
0
  6
CONTINUOUS
 62
     0
100
AcDbLine
 10
0.0
 20
0.0
 30
0.0
 11
0.0
 21
-2.0
 31
0.0
  0
LINE
  5
351
330
34B
100
AcDbEntity
  8
0
  6
CONTINUOUS
 62
     0
100
AcDbLine
 10
0.0
 20
0.0
 30
0.0
 11
2.0
 21
0.0
 31
0.0
  0
LINE
  5
352
330
34B
100
AcDbEntity
  8
0
  6
CONTINUOUS
 62
     0
100
AcDbLine
 10
0.0
 20
4.0
 30
0.0
 11
0.0
 21
8.75
 31
0.0
  0
LINE
  5
353
330
34B
100
AcDbEntity
  8
0
  6
CONTINUOUS
 62
     0
100
AcDbLine
 10
-4.0
 20
0.0
 30
0.0
 11
-8.75
 21
0.0
 31
0.0
  0
LINE
  5
354
330
34B
100
AcDbEntity
  8
0
  6
CONTINUOUS
 62
     0
100
AcDbLine
 10
0.0
 20
-4.0
 30
0.0
 11
0.0
 21
-26.772567341
 31
0.0
  0
LINE
  5
355
330
34B
100
AcDbEntity
  8
0
  6
CONTINUOUS
 62
     0
100
AcDbLine
 10
4.0
 20
0.0
 30
0.0
 11
8.75
 21
0.0
 31
0.0
  0
ENDBLK
  5
34D
330
34B
100
AcDbEntity
  8
0
100
AcDbBlockEnd
  0
BLOCK
  5
37A
330
379
100
AcDbEntity
  8
0
100
AcDbBlockBegin
  2
_D_16
 70
     0
 10
0.0
 20
0.0
 30
0.0
  3
_D_16
  1

  0
INSERT
  5
37C
330
379
100
AcDbEntity
  8
0
  6
CONTINUOUS
 62
     7
100
AcDbBlockReference
  2
_OPEN30
 10
177.2100208373
 20
228.1888280984
 30
-60.0
 41
2.0
 42
2.0
 50
90.0
  0
INSERT
  5
37D
330
379
100
AcDbEntity
  8
0
  6
CONTINUOUS
 62
     7
100
AcDbBlockReference
  2
_OPEN30
 10
177.2100208373
 20
246.1888280984
 30
-60.0
 41
2.0
 42
2.0
 50
270.0
  0
LINE
  5
37E
330
379
100
AcDbEntity
  8
0
  6
CONTINUOUS
 62
     7
100
AcDbLine
 10
150.9397685469
 20
228.1888280984
 30
0.0
 11
178.2100208373
 21
228.1888280984
 31
0.0
  0
LINE
  5
37F
330
379
100
AcDbEntity
  8
0
  6
CONTINUOUS
 62
     7
100
AcDbLine
 10
147.4617749751
 20
246.1888280984
 30
0.0
 11
178.2100208373
 21
246.1888280984
 31
0.0
  0
LINE
  5
380
330
379
100
AcDbEntity
  8
0
  6
CONTINUOUS
 62
     7
100
AcDbLine
 10
177.2100208373
 20
228.1888280984
 30
0.0
 11
177.2100208373
 21
225.1888280984
 31
0.0
  0
LINE
  5
381
330
379
100
AcDbEntity
  8
0
  6
CONTINUOUS
 62
     7
100
AcDbLine
 10
177.2100208373
 20
228.1888280984
 30
0.0
 11
177.2100208373
 21
246.1888280984
 31
0.0
  0
LINE
  5
382
330
379
100
AcDbEntity
  8
0
  6
CONTINUOUS
 62
     7
100
AcDbLine
 10
177.2100208373
 20
246.1888280984
 30
0.0
 11
177.2100208373
 21
249.1888280984
 31
0.0
  0
MTEXT
  5
383
330
379
100
AcDbEntity
  8
0
  6
CONTINUOUS
 62
     7
100
AcDbMText
 10
172.6982839809
 20
230.8671433041
 30
0.0
 40
3.5
 41
0.0
 71
     1
 72
     1
  1
9
  7
SLDTEXTSTYLE0
 11
6.123233995736766E-17
 21
1.0
 31
0.0
  0
MTEXT
  5
384
330
379
100
AcDbEntity
  8
0
  6
CONTINUOUS
 62
     7
100
AcDbMText
 10
172.6982839809
 20
234.9820738015
 30
0.0
 40
3.5
 41
0.0
 71
     1
 72
     1
  1

  7
SLDTEXTSTYLE0
 11
6.123233995736766E-17
 21
1.0
 31
0.0
  0
MTEXT
  5
385
330
379
100
AcDbEntity
  8
0
  6
CONTINUOUS
 62
     7
100
AcDbMText
 10
173.4859091631
 20
234.940754299
 30
0.0
 40
2.8
 41
0.0
 71
     1
 72
     1
  1
±0.1
  7
SLDTEXTSTYLE0
 11
6.123233995736766E-17
 21
1.0
 31
0.0
  0
ENDBLK
  5
37B
330
379
100
AcDbEntity
  8
0
100
AcDbBlockEnd
  0
BLOCK
  5
388
330
387
100
AcDbEntity
  8
0
100
AcDbBlockBegin
  2
_D_17
 70
     0
 10
0.0
 20
0.0
 30
0.0
  3
_D_17
  1

  0
INSERT
  5
38A
330
387
100
AcDbEntity
  8
0
  6
CONTINUOUS
 62
     7
100
AcDbBlockReference
  2
_OPEN30
 10
177.2100208373
 20
246.1888280984
 30
-60.0
 41
2.0
 42
2.0
 50
90.0
  0
INSERT
  5
38B
330
387
100
AcDbEntity
  8
0
  6
CONTINUOUS
 62
     7
100
AcDbBlockReference
  2
_OPEN30
 10
177.2100208373
 20
264.1888280984
 30
-60.0
 41
2.0
 42
2.0
 50
270.0
  0
LINE
  5
38C
330
387
100
AcDbEntity
  8
0
  6
CONTINUOUS
 62
     7
100
AcDbLine
 10
147.4617749751
 20
246.1888280984
 30
0.0
 11
178.2100208373
 21
246.1888280984
 31
0.0
  0
LINE
  5
38D
330
387
100
AcDbEntity
  8
0
  6
CONTINUOUS
 62
     7
100
AcDbLine
 10
147.4617749751
 20
264.1888280984
 30
0.0
 11
178.2100208373
 21
264.1888280984
 31
0.0
  0
LINE
  5
38E
330
387
100
AcDbEntity
  8
0
  6
CONTINUOUS
 62
     7
100
AcDbLine
 10
177.2100208373
 20
246.1888280984
 30
0.0
 11
177.2100208373
 21
243.1888280984
 31
0.0
  0
LINE
  5
38F
330
387
100
AcDbEntity
  8
0
  6
CONTINUOUS
 62
     7
100
AcDbLine
 10
177.2100208373
 20
246.1888280984
 30
0.0
 11
177.2100208373
 21
264.1888280984
 31
0.0
  0
LINE
  5
390
330
387
100
AcDbEntity
  8
0
  6
CONTINUOUS
 62
     7
100
AcDbLine
 10
177.2100208373
 20
264.1888280984
 30
0.0
 11
177.2100208373
 21
267.1888280984
 31
0.0
  0
MTEXT
  5
391
330
387
100
AcDbEntity
  8
0
  6
CONTINUOUS
 62
     7
100
AcDbMText
 10
172.6982839809
 20
248.9553184144
 30
0.0
 40
3.5
 41
0.0
 71
     1
 72
     1
  1
9
  7
SLDTEXTSTYLE0
 11
6.123233995736766E-17
 21
1.0
 31
0.0
  0
MTEXT
  5
392
330
387
100
AcDbEntity
  8
0
  6
CONTINUOUS
 62
     7
100
AcDbMText
 10
172.6982839809
 20
253.0702489119
 30
0.0
 40
3.5
 41
0.0
 71
     1
 72
     1
  1

  7
SLDTEXTSTYLE0
 11
6.123233995736766E-17
 21
1.0
 31
0.0
  0
MTEXT
  5
393
330
387
100
AcDbEntity
  8
0
  6
CONTINUOUS
 62
     7
100
AcDbMText
 10
173.4859091631
 20
253.0289294094
 30
0.0
 40
2.8
 41
0.0
 71
     1
 72
     1
  1
±0.1
  7
SLDTEXTSTYLE0
 11
6.123233995736766E-17
 21
1.0
 31
0.0
  0
ENDBLK
  5
389
330
387
100
AcDbEntity
  8
0
100
AcDbBlockEnd
  0
BLOCK
  5
397
330
396
100
AcDbEntity
  8
0
100
AcDbBlockBegin
  2
_D_18
 70
     0
 10
0.0
 20
0.0
 30
0.0
  3
_D_18
  1

  0
INSERT
  5
399
330
396
100
AcDbEntity
  8
0
  6
CONTINUOUS
 62
     7
100
AcDbBlockReference
  2
_OPEN30
 10
177.2100208373
 20
264.1888280984
 30
-60.0
 41
2.0
 42
2.0
 50
90.0
  0
INSERT
  5
39A
330
396
100
AcDbEntity
  8
0
  6
CONTINUOUS
 62
     7
100
AcDbBlockReference
  2
_OPEN30
 10
177.2100208373
 20
264.7888280984
 30
-60.0
 41
2.0
 42
2.0
 50
270.0
  0
LINE
  5
39B
330
396
100
AcDbEntity
  8
0
  6
CONTINUOUS
 62
     7
100
AcDbLine
 10
147.4617749751
 20
264.1888280984
 30
0.0
 11
178.2100208373
 21
264.1888280984
 31
0.0
  0
LINE
  5
39C
330
396
100
AcDbEntity
  8
0
  6
CONTINUOUS
 62
     7
100
AcDbLine
 10
147.4617749751
 20
264.7888280984
 30
0.0
 11
178.2100208373
 21
264.7888280984
 31
0.0
  0
LINE
  5
39D
330
396
100
AcDbEntity
  8
0
  6
CONTINUOUS
 62
     7
100
AcDbLine
 10
177.2100208373
 20
264.1888280984
 30
0.0
 11
177.2100208373
 21
261.1888280984
 31
0.0
  0
LINE
  5
39E
330
396
100
AcDbEntity
  8
0
  6
CONTINUOUS
 62
     7
100
AcDbLine
 10
177.2100208373
 20
264.1888280984
 30
0.0
 11
177.2100208373
 21
264.7888280984
 31
0.0
  0
LINE
  5
39F
330
396
100
AcDbEntity
  8
0
  6
CONTINUOUS
 62
     7
100
AcDbLine
 10
177.2100208373
 20
264.7888280984
 30
0.0
 11
177.2100208373
 21
276.4888077035
 31
0.0
  0
MTEXT
  5
3A0
330
396
100
AcDbEntity
  8
0
  6
CONTINUOUS
 62
     7
100
AcDbMText
 10
172.6982839809
 20
270.3783909782
 30
0.0
 40
3.5
 41
0.0
 71
     1
 72
     1
  1
0.3
  7
SLDTEXTSTYLE0
 11
6.123233995736766E-17
 21
1.0
 31
0.0
  0
ENDBLK
  5
398
330
396
100
AcDbEntity
  8
0
100
AcDbBlockEnd
  0
BLOCK
  5
3A4
330
3A3
100
AcDbEntity
  8
0
100
AcDbBlockBegin
  2
_D_19
 70
     0
 10
0.0
 20
0.0
 30
0.0
  3
_D_19
  1

  0
INSERT
  5
3A6
330
3A3
100
AcDbEntity
  8
0
  6
CONTINUOUS
 62
     7
100
AcDbBlockReference
  2
_OPEN30
 10
112.3617749751
 20
215.951667186
 30
-60.0
 41
2.0
 42
2.0
 50
180.0
  0
INSERT
  5
3A7
330
3A3
100
AcDbEntity
  8
0
  6
CONTINUOUS
 62
     7
100
AcDbBlockReference
  2
_OPEN30
 10
142.3617749751
 20
215.951667186
 30
-60.0
 41
2.0
 42
2.0
 50
0.0
  0
LINE
  5
3A8
330
3A3
100
AcDbEntity
  8
0
  6
CONTINUOUS
 62
     7
100
AcDbLine
 10
112.3617749751
 20
227.9888280984
 30
0.0
 11
112.3617749751
 21
214.951667186
 31
0.0
  0
LINE
  5
3A9
330
3A3
100
AcDbEntity
  8
0
  6
CONTINUOUS
 62
     7
100
AcDbLine
 10
142.3617749751
 20
227.9888280984
 30
0.0
 11
142.3617749751
 21
214.951667186
 31
0.0
  0
LINE
  5
3AA
330
3A3
100
AcDbEntity
  8
0
  6
CONTINUOUS
 62
     7
100
AcDbLine
 10
112.3617749751
 20
215.951667186
 30
0.0
 11
142.3617749751
 21
215.951667186
 31
0.0
  0
MTEXT
  5
3AB
330
3A3
100
AcDbEntity
  8
0
  6
CONTINUOUS
 62
     7
100
AcDbMText
 10
120.2583090437
 20
220.4634040424
 30
0.0
 40
3.5
 41
0.0
 71
     1
 72
     1
  1
15
  7
SLDTEXTSTYLE0
  0
MTEXT
  5
3AC
330
3A3
100
AcDbEntity
  8
0
  6
CONTINUOUS
 62
     7
100
AcDbMText
 10
126.4100450386
 20
220.4634040424
 30
0.0
 40
3.5
 41
0.0
 71
     1
 72
     1
  1

  7
SLDTEXTSTYLE0
  0
MTEXT
  5
3AD
330
3A3
100
AcDbEntity
  8
0
  6
CONTINUOUS
 62
     7
100
AcDbMText
 10
128.0312257689
 20
222.9346674699
 30
0.0
 40
2.8
 41
0.0
 71
     1
 72
     1
  1

  7
SLDTEXTSTYLE0
  0
MTEXT
  5
3AE
330
3A3
100
AcDbEntity
  8
0
  6
CONTINUOUS
 62
     7
100
AcDbMText
 10
126.3687257689
 20
219.6757786273
 30
0.0
 40
2.8
 41
0.0
 71
     1
 72
     1
  1
-
  7
SLDTEXTSTYLE0
  0
MTEXT
  5
3AF
330
3A3
100
AcDbEntity
  8
0
  6
CONTINUOUS
 62
     7
100
AcDbMText
 10
127.9981700738
 20
222.9346674699
 30
0.0
 40
2.8
 41
0.0
 71
     1
 72
     1
  1
0
  7
SLDTEXTSTYLE0
  0
MTEXT
  5
3B0
330
3A3
100
AcDbEntity
  8
0
  6
CONTINUOUS
 62
     7
100
AcDbMText
 10
127.9981700738
 20
219.6757786273
 30
0.0
 40
2.8
 41
0.0
 71
     1
 72
     1
  1
0.1
  7
SLDTEXTSTYLE0
  0
ENDBLK
  5
3A5
330
3A3
100
AcDbEntity
  8
0
100
AcDbBlockEnd
  0
BLOCK
  5
3B4
330
3B3
100
AcDbEntity
  8
0
100
AcDbBlockBegin
  2
_D_20
 70
     0
 10
0.0
 20
0.0
 30
0.0
  3
_D_20
  1

  0
INSERT
  5
3B6
330
3B3
100
AcDbEntity
  8
0
  6
CONTINUOUS
 62
     7
100
AcDbBlockReference
  2
_OPEN30
 10
105.8617749751
 20
206.1888280984
 30
-60.0
 41
2.0
 42
2.0
 50
180.0
  0
INSERT
  5
3B7
330
3B3
100
AcDbEntity
  8
0
  6
CONTINUOUS
 62
     7
100
AcDbBlockReference
  2
_OPEN30
 10
148.8617749751
 20
206.1888280984
 30
-60.0
 41
2.0
 42
2.0
 50
0.0
  0
LINE
  5
3B8
330
3B3
100
AcDbEntity
  8
0
  6
CONTINUOUS
 62
     7
100
AcDbLine
 10
105.8617749751
 20
247.5888280984
 30
0.0
 11
105.8617749751
 21
205.1888280984
 31
0.0
  0
LINE
  5
3B9
330
3B3
100
AcDbEntity
  8
0
  6
CONTINUOUS
 62
     7
100
AcDbLine
 10
148.8617749751
 20
247.5888280984
 30
0.0
 11
148.8617749751
 21
205.1888280984
 31
0.0
  0
LINE
  5
3BA
330
3B3
100
AcDbEntity
  8
0
  6
CONTINUOUS
 62
     7
100
AcDbLine
 10
105.8617749751
 20
206.1888280984
 30
0.0
 11
148.8617749751
 21
206.1888280984
 31
0.0
  0
MTEXT
  5
3BB
330
3B3
100
AcDbEntity
  8
0
  6
CONTINUOUS
 62
     7
100
AcDbMText
 10
118.2215028477
 20
210.7005649548
 30
0.0
 40
3.5
 41
0.0
 71
     1
 72
     1
  1
21.5
  7
SLDTEXTSTYLE0
  0
MTEXT
  5
3BC
330
3B3
100
AcDbEntity
  8
0
  6
CONTINUOUS
 62
     7
100
AcDbMText
 10
128.4468498376
 20
210.7005649548
 30
0.0
 40
3.5
 41
0.0
 71
     1
 72
     1
  1

  7
SLDTEXTSTYLE0
  0
MTEXT
  5
3BD
330
3B3
100
AcDbEntity
  8
0
  6
CONTINUOUS
 62
     7
100
AcDbMText
 10
128.4055301023
 20
213.1718283822
 30
0.0
 40
2.8
 41
0.0
 71
     1
 72
     1
  1
+
  7
SLDTEXTSTYLE0
  0
MTEXT
  5
3BE
330
3B3
100
AcDbEntity
  8
0
  6
CONTINUOUS
 62
     7
100
AcDbMText
 10
130.0680301023
 20
209.9129395397
 30
0.0
 40
2.8
 41
0.0
 71
     1
 72
     1
  1

  7
SLDTEXTSTYLE0
  0
MTEXT
  5
3BF
330
3B3
100
AcDbEntity
  8
0
  6
CONTINUOUS
 62
     7
100
AcDbMText
 10
130.0349748728
 20
213.1718283822
 30
0.0
 40
2.8
 41
0.0
 71
     1
 72
     1
  1
0.2
  7
SLDTEXTSTYLE0
  0
MTEXT
  5
3C0
330
3B3
100
AcDbEntity
  8
0
  6
CONTINUOUS
 62
     7
100
AcDbMText
 10
130.0349748728
 20
209.9129395397
 30
0.0
 40
2.8
 41
0.0
 71
     1
 72
     1
  1
0
  7
SLDTEXTSTYLE0
  0
ENDBLK
  5
3B5
330
3B3
100
AcDbEntity
  8
0
100
AcDbBlockEnd
  0
BLOCK
  5
3CF
330
3CE
100
AcDbEntity
  8
0
100
AcDbBlockBegin
  2
_D_21
 70
     0
 10
0.0
 20
0.0
 30
0.0
  3
_D_21
  1

  0
INSERT
  5
3D1
330
3CE
100
AcDbEntity
  8
0
  6
CONTINUOUS
 62
     7
100
AcDbBlockReference
  2
_OPEN30
 10
333.7820448104
 20
263.7162868455
 30
-150.0
 41
2.0
 42
2.0
 50
180.0
  0
INSERT
  5
3D2
330
3CE
100
AcDbEntity
  8
0
  6
CONTINUOUS
 62
     7
100
AcDbBlockReference
  2
_OPEN30
 10
348.7820448104
 20
263.7162868455
 30
-150.0
 41
2.0
 42
2.0
 50
0.0
  0
LINE
  5
3D3
330
3CE
100
AcDbEntity
  8
0
  6
CONTINUOUS
 62
     7
100
AcDbLine
 10
333.7820448104
 20
249.1413677699
 30
0.0
 11
333.7820448104
 21
264.7162868455
 31
0.0
  0
LINE
  5
3D4
330
3CE
100
AcDbEntity
  8
0
  6
CONTINUOUS
 62
     7
100
AcDbLine
 10
348.7820448104
 20
236.1413677699
 30
0.0
 11
348.7820448104
 21
264.7162868455
 31
0.0
  0
LINE
  5
3D5
330
3CE
100
AcDbEntity
  8
0
  6
CONTINUOUS
 62
     7
100
AcDbLine
 10
333.7820448104
 20
263.7162868455
 30
0.0
 11
348.7820448104
 21
263.7162868455
 31
0.0
  0
MTEXT
  5
3D6
330
3CE
100
AcDbEntity
  8
0
  6
CONTINUOUS
 62
     7
100
AcDbMText
 10
340.6084149873
 20
268.2280237019
 30
0.0
 40
3.5
 41
0.0
 71
     1
 72
     1
  1
3
  7
SLDTEXTSTYLE0
  0
ENDBLK
  5
3D0
330
3CE
100
AcDbEntity
  8
0
100
AcDbBlockEnd
  0
BLOCK
  5
3DA
330
3D9
100
AcDbEntity
  8
0
100
AcDbBlockBegin
  2
_D_22
 70
     0
 10
0.0
 20
0.0
 30
0.0
  3
_D_22
  1

  0
INSERT
  5
3DC
330
3D9
100
AcDbEntity
  8
0
  6
CONTINUOUS
 62
     7
100
AcDbBlockReference
  2
_OPEN30
 10
378.4648867848
 20
235.1413677699
 30
-150.0
 41
2.0
 42
2.0
 50
270.0
  0
INSERT
  5
3DD
330
3D9
100
AcDbEntity
  8
0
  6
CONTINUOUS
 62
     7
100
AcDbBlockReference
  2
_OPEN30
 10
378.4648867848
 20
234.1413677699
 30
-150.0
 41
2.0
 42
2.0
 50
90.0
  0
LINE
  5
3DE
330
3D9
100
AcDbEntity
  8
0
  6
CONTINUOUS
 62
     7
100
AcDbLine
 10
365.407453363
 20
235.1413677699
 30
0.0
 11
379.4648867848
 21
235.1413677699
 31
0.0
  0
LINE
  5
3DF
330
3D9
100
AcDbEntity
  8
0
  6
CONTINUOUS
 62
     7
100
AcDbLine
 10
349.7820448104
 20
234.1413677699
 30
0.0
 11
379.4648867848
 21
234.1413677699
 31
0.0
  0
LINE
  5
3E0
330
3D9
100
AcDbEntity
  8
0
  6
CONTINUOUS
 62
     7
100
AcDbLine
 10
378.4648867848
 20
235.1413677699
 30
0.0
 11
378.4648867848
 21
251.8870191354
 31
0.0
  0
LINE
  5
3E1
330
3D9
100
AcDbEntity
  8
0
  6
CONTINUOUS
 62
     7
100
AcDbLine
 10
378.4648867848
 20
235.1413677699
 30
0.0
 11
378.4648867848
 21
234.1413677699
 31
0.0
  0
LINE
  5
3E2
330
3D9
100
AcDbEntity
  8
0
  6
CONTINUOUS
 62
     7
100
AcDbLine
 10
378.4648867848
 20
234.1413677699
 30
0.0
 11
378.4648867848
 21
231.1413677699
 31
0.0
  0
MTEXT
  5
3E3
330
3D9
100
AcDbEntity
  8
0
  6
CONTINUOUS
 62
     7
100
AcDbMText
 10
373.9531499284
 20
245.7766024101
 30
0.0
 40
3.5
 41
0.0
 71
     1
 72
     1
  1
0.2
  7
SLDTEXTSTYLE0
 11
-7.044195017643634E-15
 21
1.0
 31
0.0
  0
ENDBLK
  5
3DB
330
3D9
100
AcDbEntity
  8
0
100
AcDbBlockEnd
  0
BLOCK
  5
3E6
330
3E5
100
AcDbEntity
  8
0
100
AcDbBlockBegin
  2
_D_23
 70
     0
 10
0.0
 20
0.0
 30
0.0
  3
_D_23
  1

  0
ARC
  5
3E8
330
3E5
100
AcDbEntity
  8
0
  6
CONTINUOUS
 62
     7
100
AcDbCircle
 10
387.745239313
 20
249.8502133468
 30
0.0
 40
4.554435549315966
100
AcDbArc
 50
243.4349488229
 51
296.5650511771
  0
ARC
  5
3E9
330
3E5
100
AcDbEntity
  8
0
  6
CONTINUOUS
 62
     7
100
AcDbCircle
 10
387.745239313
 20
247.8134080822
 30
0.0
 40
4.554435549315992
100
AcDbArc
 50
63.4349488229
 51
116.5650511771
  0
INSERT
  5
3EA
330
3E5
100
AcDbEntity
  8
0
  6
CONTINUOUS
 62
     7
100
AcDbBlockReference
  2
_OPEN30
 10
389.7820448104
 20
235.1413677699
 30
-150.0
 41
2.0
 42
2.0
 50
270.0
  0
INSERT
  5
3EB
330
3E5
100
AcDbEntity
  8
0
  6
CONTINUOUS
 62
     7
100
AcDbBlockReference
  2
_OPEN30
 10
389.7820448104
 20
232.6413677699
 30
-150.0
 41
2.0
 42
2.0
 50
90.0
  0
LINE
  5
3EC
330
3E5
100
AcDbEntity
  8
0
  6
CONTINUOUS
 62
     7
100
AcDbLine
 10
365.407453363
 20
235.1413677699
 30
0.0
 11
390.7820448104
 21
235.1413677699
 31
0.0
  0
LINE
  5
3ED
330
3E5
100
AcDbEntity
  8
0
  6
CONTINUOUS
 62
     7
100
AcDbLine
 10
364.6983909208
 20
232.6413677699
 30
0.0
 11
390.7820448104
 21
232.6413677699
 31
0.0
  0
LINE
  5
3EE
330
3E5
100
AcDbEntity
  8
0
  6
CONTINUOUS
 62
     7
100
AcDbLine
 10
389.7820448104
 20
235.1413677699
 30
0.0
 11
389.7820448104
 21
252.3678437512
 31
0.0
  0
LINE
  5
3EF
330
3E5
100
AcDbEntity
  8
0
  6
CONTINUOUS
 62
     7
100
AcDbLine
 10
389.7820448104
 20
235.1413677699
 30
0.0
 11
389.7820448104
 21
232.6413677699
 31
0.0
  0
LINE
  5
3F0
330
3E5
100
AcDbEntity
  8
0
  6
CONTINUOUS
 62
     7
100
AcDbLine
 10
389.7820448104
 20
232.6413677699
 30
0.0
 11
389.7820448104
 21
229.6413677699
 31
0.0
  0
MTEXT
  5
3F1
330
3E5
100
AcDbEntity
  8
0
  6
CONTINUOUS
 62
     7
100
AcDbMText
 10
385.2703079541
 20
245.7766023519
 30
0.0
 40
3.5
 41
0.0
 71
     1
 72
     1
  1
0.5
  7
SLDTEXTSTYLE0
 11
-7.044195017643634E-15
 21
1.0
 31
0.0
  0
ENDBLK
  5
3E7
330
3E5
100
AcDbEntity
  8
0
100
AcDbBlockEnd
  0
ENDSEC
  0
SECTION
  2
ENTITIES
  0
LINE
  5
66
330
1F
100
AcDbEntity
  8
0
  6
CONTINUOUS
 62
     7
100
AcDbLine
 10
240.0
 20
51.0
 30
0.0
 11
410.0
 21
51.0
 31
0.0
  0
LINE
  5
67
330
1F
100
AcDbEntity
  8
0
  6
CONTINUOUS
 62
     7
100
AcDbLine
 10
240.0
 20
51.0
 30
0.0
 11
240.0
 21
12.0
 31
0.0
  0
LINE
  5
68
330
1F
100
AcDbEntity
  8
0
  6
CONTINUOUS
 62
     7
100
AcDbLine
 10
312.0
 20
51.0
 30
0.0
 11
312.0
 21
12.0
 31
0.0
  0
LINE
  5
69
330
1F
100
AcDbEntity
  8
0
  6
CONTINUOUS
 62
     7
100
AcDbLine
 10
332.0
 20
51.0
 30
0.0
 11
332.0
 21
12.0
 31
0.0
  0
LINE
  5
6A
330
1F
100
AcDbEntity
  8
0
  6
CONTINUOUS
 62
     7
100
AcDbLine
 10
344.0
 20
51.0
 30
0.0
 11
344.0
 21
12.0
 31
0.0
  0
LINE
  5
6B
330
1F
100
AcDbEntity
  8
0
  6
CONTINUOUS
 62
     7
100
AcDbLine
 10
344.0
 20
37.0
 30
0.0
 11
410.0
 21
37.0
 31
0.0
  0
LINE
  5
6C
330
1F
100
AcDbEntity
  8
0
  6
CONTINUOUS
 62
     7
100
AcDbLine
 10
332.0
 20
23.0
 30
0.0
 11
410.0
 21
23.0
 31
0.0
  0
LINE
  5
6D
330
1F
100
AcDbEntity
  8
ﾚｲﾔｰ1
100
AcDbLine
 10
400.3823018763
 20
14.4074922469
 30
0.0
 11
403.9674356671
 21
20.6171261245
 31
0.0
  0
LINE
  5
6E
330
1F
100
AcDbEntity
  8
0
  6
HIDDEN
 62
     7
100
AcDbLine
 10
358.3
 20
23.0
 30
0.0
 11
358.3
 21
12.0
 31
0.0
  0
LINE
  5
6F
330
1F
100
AcDbEntity
  8
0
  6
CONTINUOUS
 62
     7
100
AcDbLine
 10
312.0
 20
31.5
 30
0.0
 11
332.0
 21
31.5
 31
0.0
  0
LINE
  5
70
330
1F
100
AcDbEntity
  8
0
  6
CONTINUOUS
 62
     7
100
AcDbLine
 10
332.0
 20
44.0
 30
0.0
 11
410.0
 21
44.0
 31
0.0
  0
LINE
  5
71
330
1F
100
AcDbEntity
  8
0
  6
CONTINUOUS
 62
     7
100
AcDbLine
 10
240.0
 20
37.0
 30
0.0
 11
312.0
 21
37.0
 31
0.0
  0
LINE
  5
72
330
1F
100
AcDbEntity
  8
0
  6
CONTINUOUS
 62
     7
100
AcDbLine
 10
240.0
 20
23.0
 30
0.0
 11
312.0
 21
23.0
 31
0.0
  0
LINE
  5
73
330
1F
100
AcDbEntity
  8
0
  6
CONTINUOUS
 62
     7
100
AcDbLine
 10
288.0
 20
37.0
 30
0.0
 11
288.0
 21
12.0
 31
0.0
  0
LINE
  5
74
330
1F
100
AcDbEntity
  8
0
  6
CONTINUOUS
 62
     7
100
AcDbLine
 10
264.0
 20
37.0
 30
0.0
 11
264.0
 21
23.0
 31
0.0
  0
LINE
  5
75
330
1F
100
AcDbEntity
  8
0
  6
CONTINUOUS
 62
     7
100
AcDbLine
 10
300.0
 20
26.0
 30
0.0
 11
300.0
 21
23.0
 31
0.0
  0
LINE
  5
76
330
1F
100
AcDbEntity
  8
0
  6
CONTINUOUS
 62
     7
100
AcDbLine
 10
276.0
 20
26.0
 30
0.0
 11
276.0
 21
23.0
 31
0.0
  0
LINE
  5
77
330
1F
100
AcDbEntity
  8
0
  6
CONTINUOUS
 62
     7
100
AcDbLine
 10
252.0
 20
26.0
 30
0.0
 11
252.0
 21
23.0
 31
0.0
  0
LINE
  5
78
330
1F
100
AcDbEntity
  8
0
  6
CONTINUOUS
 62
     7
100
AcDbLine
 10
258.0
 20
51.0
 30
0.0
 11
258.0
 21
37.0
 31
0.0
  0
LINE
  5
79
330
1F
100
AcDbEntity
  8
0
  6
CONTINUOUS
 62
     7
100
AcDbLine
 10
240.0
 20
45.0
 30
0.0
 11
312.0
 21
45.0
 31
0.0
  0
LINE
  5
7A
330
1F
100
AcDbEntity
  8
0
  6
CONTINUOUS
 62
     7
100
AcDbLine
 10
410.0
 20
149.5
 30
0.0
 11
414.0
 21
149.5
 31
0.0
  0
LINE
  5
7B
330
1F
100
AcDbEntity
  8
0
  6
HIDDEN
 62
     7
100
AcDbLine
 10
367.0
 20
23.0
 30
0.0
 11
367.0
 21
12.0
 31
0.0
  0
LINE
  5
7C
330
1F
100
AcDbEntity
  8
0
  6
HIDDEN
 62
     9
100
AcDbLine
 10
396.5
 20
13.3141504826
 30
0.0
 11
385.5
 21
13.3141504826
 31
0.0
  0
LINE
  5
7D
330
1F
100
AcDbEntity
  8
0
  6
HIDDEN
 62
     9
100
AcDbLine
 10
396.5
 20
13.3141504826
 30
0.0
 11
391.0
 21
22.8404299242
 31
0.0
  0
LINE
  5
7E
330
1F
100
AcDbEntity
  8
0
  6
HIDDEN
 62
     9
100
AcDbLine
 10
391.0
 20
22.8404299242
 30
0.0
 11
385.5
 21
13.3141504826
 31
0.0
  0
LINE
  5
7F
330
1F
100
AcDbEntity
  8
ﾚｲﾔｰ1
  6
CONTINUOUS
 62
     7
100
AcDbLine
 10
20.0
 20
12.0
 30
0.0
 11
410.0
 21
12.0
 31
0.0
  0
LINE
  5
80
330
1F
100
AcDbEntity
  8
ﾚｲﾔｰ1
  6
CONTINUOUS
 62
     7
100
AcDbLine
 10
20.0
 20
287.0
 30
0.0
 11
410.0
 21
287.0
 31
0.0
  0
LINE
  5
81
330
1F
100
AcDbEntity
  8
ﾚｲﾔｰ1
  6
CONTINUOUS
 62
     7
100
AcDbLine
 10
20.0
 20
12.0
 30
0.0
 11
20.0
 21
287.0
 31
0.0
  0
LINE
  5
82
330
1F
100
AcDbEntity
  8
0
  6
CONTINUOUS
 62
     7
100
AcDbLine
 10
215.0
 20
0.0
 30
0.0
 11
215.0
 21
12.0
 31
0.0
  0
LINE
  5
83
330
1F
100
AcDbEntity
  8
0
  6
CONTINUOUS
 62
     7
100
AcDbLine
 10
215.0
 20
287.0
 30
0.0
 11
215.0
 21
297.0
 31
0.0
  0
LINE
  5
84
330
1F
100
AcDbEntity
  8
0
  6
CONTINUOUS
 62
     7
100
AcDbLine
 10
0.0
 20
149.5
 30
0.0
 11
20.0
 21
149.5
 31
0.0
  0
LINE
  5
85
330
1F
100
AcDbEntity
  8
0
  6
CONTINUOUS
 62
     7
100
AcDbLine
 10
410.0
 20
80.75
 30
0.0
 11
414.0
 21
80.75
 31
0.0
  0
LINE
  5
86
330
1F
100
AcDbEntity
  8
0
  6
CONTINUOUS
 62
     7
100
AcDbLine
 10
165.0
 20
7.0
 30
0.0
 11
265.0
 21
7.0
 31
0.0
  0
LINE
  5
87
330
1F
100
AcDbEntity
  8
0
  6
CONTINUOUS
 62
     7
100
AcDbLine
 10
165.0
 20
7.0
 30
0.0
 11
165.0
 21
12.0
 31
0.0
  0
LINE
  5
88
330
1F
100
AcDbEntity
  8
0
  6
CONTINUOUS
 62
     7
100
AcDbLine
 10
175.0
 20
10.0
 30
0.0
 11
175.0
 21
7.0
 31
0.0
  0
LINE
  5
89
330
1F
100
AcDbEntity
  8
0
  6
CONTINUOUS
 62
     7
100
AcDbLine
 10
265.0
 20
7.0
 30
0.0
 11
265.0
 21
12.0
 31
0.0
  0
LINE
  5
8A
330
1F
100
AcDbEntity
  8
0
  6
CONTINUOUS
 62
     7
100
AcDbLine
 10
185.0
 20
10.0
 30
0.0
 11
185.0
 21
7.0
 31
0.0
  0
LINE
  5
8B
330
1F
100
AcDbEntity
  8
0
  6
CONTINUOUS
 62
     7
100
AcDbLine
 10
195.0
 20
10.0
 30
0.0
 11
195.0
 21
7.0
 31
0.0
  0
LINE
  5
8C
330
1F
100
AcDbEntity
  8
0
  6
CONTINUOUS
 62
     7
100
AcDbLine
 10
205.0
 20
10.0
 30
0.0
 11
205.0
 21
7.0
 31
0.0
  0
LINE
  5
8D
330
1F
100
AcDbEntity
  8
0
  6
CONTINUOUS
 62
     7
100
AcDbLine
 10
225.0
 20
10.0
 30
0.0
 11
225.0
 21
7.0
 31
0.0
  0
LINE
  5
8E
330
1F
100
AcDbEntity
  8
0
  6
CONTINUOUS
 62
     7
100
AcDbLine
 10
235.0
 20
10.0
 30
0.0
 11
235.0
 21
7.0
 31
0.0
  0
LINE
  5
8F
330
1F
100
AcDbEntity
  8
0
  6
CONTINUOUS
 62
     7
100
AcDbLine
 10
245.0
 20
10.0
 30
0.0
 11
245.0
 21
7.0
 31
0.0
  0
LINE
  5
90
330
1F
100
AcDbEntity
  8
0
  6
CONTINUOUS
 62
     7
100
AcDbLine
 10
255.0
 20
10.0
 30
0.0
 11
255.0
 21
7.0
 31
0.0
  0
LINE
  5
91
330
1F
100
AcDbEntity
  8
0
  6
CONTINUOUS
 62
     7
100
AcDbLine
 10
85.0
 20
287.0
 30
0.0
 11
85.0
 21
291.0
 31
0.0
  0
LINE
  5
92
330
1F
100
AcDbEntity
  8
0
  6
CONTINUOUS
 62
     7
100
AcDbLine
 10
150.0
 20
287.0
 30
0.0
 11
150.0
 21
291.0
 31
0.0
  0
LINE
  5
93
330
1F
100
AcDbEntity
  8
0
  6
CONTINUOUS
 62
     7
100
AcDbLine
 10
280.0
 20
287.0
 30
0.0
 11
280.0
 21
291.0
 31
0.0
  0
LINE
  5
94
330
1F
100
AcDbEntity
  8
0
  6
CONTINUOUS
 62
     7
100
AcDbLine
 10
345.0
 20
287.0
 30
0.0
 11
345.0
 21
291.0
 31
0.0
  0
LINE
  5
95
330
1F
100
AcDbEntity
  8
0
  6
CONTINUOUS
 62
     7
100
AcDbLine
 10
280.0
 20
8.0
 30
0.0
 11
280.0
 21
12.0
 31
0.0
  0
LINE
  5
96
330
1F
100
AcDbEntity
  8
0
  6
CONTINUOUS
 62
     7
100
AcDbLine
 10
345.0
 20
8.0
 30
0.0
 11
345.0
 21
12.0
 31
0.0
  0
LINE
  5
97
330
1F
100
AcDbEntity
  8
0
  6
CONTINUOUS
 62
     7
100
AcDbLine
 10
150.0
 20
8.0
 30
0.0
 11
150.0
 21
12.0
 31
0.0
  0
LINE
  5
98
330
1F
100
AcDbEntity
  8
0
  6
CONTINUOUS
 62
     7
100
AcDbLine
 10
85.0
 20
8.0
 30
0.0
 11
85.0
 21
12.0
 31
0.0
  0
LINE
  5
99
330
1F
100
AcDbEntity
  8
0
  6
CONTINUOUS
 62
     7
100
AcDbLine
 10
16.0
 20
218.25
 30
0.0
 11
20.0
 21
218.25
 31
0.0
  0
LINE
  5
9A
330
1F
100
AcDbEntity
  8
0
  6
CONTINUOUS
 62
     7
100
AcDbLine
 10
410.0
 20
218.25
 30
0.0
 11
414.0
 21
218.25
 31
0.0
  0
LINE
  5
9B
330
1F
100
AcDbEntity
  8
0
  6
CONTINUOUS
 62
     7
100
AcDbLine
 10
16.0
 20
80.75
 30
0.0
 11
20.0
 21
80.75
 31
0.0
  0
LINE
  5
9C
330
1F
100
AcDbEntity
  8
0
  6
CONTINUOUS
 62
     7
100
AcDbLine
 10
418.0
 20
2.0
 30
0.0
 11
418.0
 21
8.0
 31
0.0
  0
LINE
  5
9D
330
1F
100
AcDbEntity
  8
0
  6
CONTINUOUS
 62
     7
100
AcDbLine
 10
418.0
 20
289.0
 30
0.0
 11
418.0
 21
295.0
 31
0.0
  0
LINE
  5
9E
330
1F
100
AcDbEntity
  8
0
  6
CONTINUOUS
 62
     7
100
AcDbLine
 10
2.0
 20
2.0
 30
0.0
 11
2.0
 21
8.0
 31
0.0
  0
LINE
  5
9F
330
1F
100
AcDbEntity
  8
0
  6
CONTINUOUS
 62
     7
100
AcDbLine
 10
2.0
 20
289.0
 30
0.0
 11
2.0
 21
295.0
 31
0.0
  0
LINE
  5
A0
330
1F
100
AcDbEntity
  8
0
  6
CONTINUOUS
 62
     7
100
AcDbLine
 10
2.0
 20
295.0
 30
0.0
 11
8.0
 21
295.0
 31
0.0
  0
LINE
  5
A1
330
1F
100
AcDbEntity
  8
0
  6
CONTINUOUS
 62
     7
100
AcDbLine
 10
412.0
 20
295.0
 30
0.0
 11
418.0
 21
295.0
 31
0.0
  0
LINE
  5
A2
330
1F
100
AcDbEntity
  8
0
  6
CONTINUOUS
 62
     7
100
AcDbLine
 10
2.0
 20
2.0
 30
0.0
 11
8.0
 21
2.0
 31
0.0
  0
LINE
  5
A3
330
1F
100
AcDbEntity
  8
0
  6
CONTINUOUS
 62
     7
100
AcDbLine
 10
412.0
 20
2.0
 30
0.0
 11
418.0
 21
2.0
 31
0.0
  0
LINE
  5
A4
330
1F
100
AcDbEntity
  8
ﾚｲﾔｰ1
  6
CONTINUOUS
 62
     7
100
AcDbLine
 10
410.0
 20
12.0
 30
0.0
 11
410.0
 21
287.0
 31
0.0
  0
LINE
  5
A5
330
1F
100
AcDbEntity
  8
0
  6
CONTINUOUS
 62
     9
100
AcDbLine
 10
20.0
 20
12.0
 30
0.0
 11
68.0
 21
12.0
 31
0.0
  0
LINE
  5
A6
330
1F
100
AcDbEntity
  8
0
  6
CONTINUOUS
 62
     9
100
AcDbLine
 10
20.0
 20
12.0
 30
0.0
 11
20.0
 21
51.5
 31
0.0
  0
LINE
  5
A7
330
1F
100
AcDbEntity
  8
0
  6
CONTINUOUS
 62
     9
100
AcDbLine
 10
68.0
 20
12.0
 30
0.0
 11
87.0
 21
12.0
 31
0.0
  0
LINE
  5
A8
330
1F
100
AcDbEntity
  8
0
  6
CONTINUOUS
 62
     9
100
AcDbLine
 10
87.0
 20
12.0
 30
0.0
 11
126.0
 21
12.0
 31
0.0
  0
LINE
  5
A9
330
1F
100
AcDbEntity
  8
0
  6
CONTINUOUS
 62
     9
100
AcDbLine
 10
87.0
 20
12.0
 30
0.0
 11
126.0
 21
12.0
 31
0.0
  0
LINE
  5
AA
330
1F
100
AcDbEntity
  8
0
  6
CONTINUOUS
 62
     7
100
AcDbLine
 10
330.4713877754
 20
15.7804142126
 30
0.0
 11
330.4713877754
 21
21.7804142126
 31
0.0
  0
LINE
  5
AB
330
1F
100
AcDbEntity
  8
0
  6
CONTINUOUS
 62
     7
100
AcDbLine
 10
323.9336941228
 20
17.2804142126
 30
0.0
 11
323.9336941228
 21
20.2804142126
 31
0.0
  0
LINE
  5
AC
330
1F
100
AcDbEntity
  8
0
  6
CENTER
 62
     7
100
AcDbLine
 10
313.4321805515
 20
18.7804142126
 30
0.0
 11
331.2765788965
 21
18.7804142126
 31
0.0
  0
LINE
  5
AD
330
1F
100
AcDbEntity
  8
0
  6
CENTER
 62
     7
100
AcDbLine
 10
317.4474565858
 20
14.5592166292
 30
0.0
 11
317.4474565858
 21
22.8986510215
 31
0.0
  0
LINE
  5
AE
330
1F
100
AcDbEntity
  8
0
  6
CONTINUOUS
 62
     7
100
AcDbLine
 10
323.9336941228
 20
20.2804142126
 30
0.0
 11
330.4713877754
 21
21.7804142126
 31
0.0
  0
LINE
  5
AF
330
1F
100
AcDbEntity
  8
0
  6
CONTINUOUS
 62
     7
100
AcDbLine
 10
323.9336941228
 20
17.2804142126
 30
0.0
 11
330.4713877754
 21
15.7804142126
 31
0.0
  0
LINE
  5
B0
330
1F
100
AcDbEntity
  8
0
  6
CONTINUOUS
 62
     9
100
AcDbLine
 10
410.0
 20
282.0
 30
0.0
 11
410.0
 21
277.0
 31
0.0
  0
CIRCLE
  5
B1
330
1F
100
AcDbEntity
  8
0
  6
CONTINUOUS
 62
     7
100
AcDbCircle
 10
317.4474565858
 20
18.7804142126
 30
0.0
 40
1.499999999999943
  0
CIRCLE
  5
B2
330
1F
100
AcDbEntity
  8
0
  6
CONTINUOUS
 62
     7
100
AcDbCircle
 10
317.4474565858
 20
18.7804142126
 30
0.0
 40
3.0
  0
MTEXT
  5
B4
330
1F
100
AcDbEntity
  8
0
  6
CONTINUOUS
 62
     7
100
AcDbMText
 10
116.5148797129
 20
69.5155946856
 30
0.0
 40
4.7625
 41
0.0
 71
     1
 72
     1
  1
対応型式
  7
SLDTEXTSTYLE0
  0
MTEXT
  5
B5
330
1F
100
AcDbEntity
  8
0
  6
CONTINUOUS
 62
     7
100
AcDbMText
 10
116.5148797129
 20
62.1655945984
 30
0.0
 40
4.7625
 41
0.0
 71
     1
 72
     1
  1
CORRECT TYPE
  7
SLDTEXTSTYLE0
  0
INSERT
  5
BC
330
1F
100
AcDbEntity
  8
0
  6
CONTINUOUS
 62
     7
100
AcDbBlockReference
  2
SW_NOTE_0
 10
128.4598108747
 20
171.9692675269
 30
0.0
  0
LEADER
  5
C4
330
1F
100
AcDbEntity
  8
0
  6
CONTINUOUS
 62
     7
100
AcDbLeader
  3
SLDDIMSTYLE0
 76
     2
 10
125.6152372814
 20
142.3773727175
 30
0.0
 10
128.4598108747
 20
171.9692675269
 30
0.0
1001
ACAD
1000
DSTYLE
1002
{
1070
     6
1000
OPEN30
1002
}
  0
INSERT
  5
CC
330
1F
100
AcDbEntity
  8
0
  6
CONTINUOUS
 62
     7
100
AcDbBlockReference
  2
SW_NOTE_0_1
 10
195.3032952675
 20
198.3875308594
 30
0.0
  0
INSERT
  5
D4
330
1F
100
AcDbEntity
  8
0
  6
CONTINUOUS
 62
     7
100
AcDbBlockReference
  2
SW_NOTE_0_2
 10
171.5898762266
 20
30.0778273021
 30
0.0
  0
MTEXT
  5
D5
330
1F
100
AcDbEntity
  8
0
  6
CONTINUOUS
 62
     7
100
AcDbMText
 10
177.312329136
 20
33.8588069396
 30
0.0
 40
2.9104166667
 41
0.0
 71
     1
 72
     1
  1
BR-AJC08A
  7
SLDTEXTSTYLE0
  0
LINE
  5
D6
330
1F
100
AcDbEntity
  8
0
  6
CONTINUOUS
 62
     7
100
AcDbLine
 10
177.312329136
 20
31.9185291618
 30
0.0
 11
194.187216011
 21
31.9185291618
 31
0.0
  0
MTEXT
  5
D7
330
1F
100
AcDbEntity
  8
0
  6
CONTINUOUS
 62
     7
100
AcDbMText
 10
249.2117794491
 20
49.8261099021
 30
0.0
 40
3.0999999046
 41
0.0
 71
     2
 72
     1
  1
CAREER
  7
SLDTEXTSTYLE0
  0
MTEXT
  5
D8
330
1F
100
AcDbEntity
  8
0
  6
CONTINUOUS
 62
     7
100
AcDbMText
 10
305.8288455214
 20
36.3261099021
 30
0.0
 40
3.0999999046
 41
0.0
 71
     2
 72
     1
  1
3D
  7
SLDTEXTSTYLE0
  0
MTEXT
  5
D9
330
1F
100
AcDbEntity
  8
0
  6
CONTINUOUS
 62
     7
100
AcDbMText
 10
294.3463366833
 20
36.3261099021
 30
0.0
 40
3.0999999046
 41
0.0
 71
     2
 72
     1
  1
DRW
  7
SLDTEXTSTYLE0
  0
MTEXT
  5
DA
330
1F
100
AcDbEntity
  8
0
  6
CONTINUOUS
 62
     7
100
AcDbMText
 10
276.4857200384
 20
36.3261099498
 30
0.0
 40
3.0999999046
 41
0.0
 71
     2
 72
     1
  1
INSPECTION
  7
SLDTEXTSTYLE0
  0
MTEXT
  5
DB
330
1F
100
AcDbEntity
  8
0
  6
CONTINUOUS
 62
     7
100
AcDbMText
 10
252.2639842555
 20
36.3261099498
 30
0.0
 40
3.0999999046
 41
0.0
 71
     2
 72
     1
  1
APPROVAL
  7
SLDTEXTSTYLE0
  0
MTEXT
  5
DC
330
1F
100
AcDbEntity
  8
0
  6
CONTINUOUS
 62
     7
100
AcDbMText
 10
300.1445053779
 20
22.3261099021
 30
0.0
 40
3.0999999046
 41
0.0
 71
     2
 72
     1
  1
DATE
  7
SLDTEXTSTYLE0
  0
MTEXT
  5
DD
330
1F
100
AcDbEntity
  8
0
  6
CONTINUOUS
 62
     7
100
AcDbMText
 10
263.2614870667
 20
19.6094566752
 30
0.0
 40
3.175
 41
0.0
 71
     2
 72
     1
  1
Kitagawa Corporation
  7
SLDTEXTSTYLE0
  0
MTEXT
  5
DE
330
1F
100
AcDbEntity
  8
0
  6
CONTINUOUS
 62
     7
100
AcDbMText
 10
322.3164586872
 20
29.8261099021
 30
0.0
 40
3.0999999046
 41
0.0
 71
     2
 72
     1
  1
3RD ANGLE
  7
SLDTEXTSTYLE0
  0
MTEXT
  5
DF
330
1F
100
AcDbEntity
  8
0
  6
CONTINUOUS
 62
     7
100
AcDbMText
 10
322.1770658046
 20
49.3261099021
 30
0.0
 40
3.0999999046
 41
0.0
 71
     2
 72
     1
  1
SCALE
  7
SLDTEXTSTYLE0
  0
MTEXT
  5
E0
330
1F
100
AcDbEntity
  8
0
  6
CONTINUOUS
 62
     7
100
AcDbMText
 10
338.1963366833
 20
21.5094432195
 30
0.0
 40
3.0999999046
 41
0.0
 71
     2
 72
     1
  1
DRW
  7
SLDTEXTSTYLE0
  0
MTEXT
  5
E1
330
1F
100
AcDbEntity
  8
0
  6
CONTINUOUS
 62
     7
100
AcDbMText
 10
338.1909548029
 20
17.789443299
 30
0.0
 40
3.0999999046
 41
0.0
 71
     2
 72
     1
  1
NO.
  7
SLDTEXTSTYLE0
  0
MTEXT
  5
E2
330
1F
100
AcDbEntity
  8
0
  6
CONTINUOUS
 62
     7
100
AcDbMText
 10
338.2420832407
 20
35.3261099021
 30
0.0
 40
3.0999999046
 41
0.0
 71
     2
 72
     1
  1
NAME
  7
SLDTEXTSTYLE0
  0
MTEXT
  5
E3
330
1F
100
AcDbEntity
  8
0
  6
CONTINUOUS
 62
     7
100
AcDbMText
 10
338.2480034254
 20
49.5761099498
 30
0.0
 40
3.0999999046
 41
0.0
 71
     2
 72
     1
  1
TYPE
  7
SLDTEXTSTYLE0
  0
MTEXT
  5
E4
330
1F
100
AcDbEntity
  8
0
  6
CONTINUOUS
 62
     7
100
AcDbMText
 10
52.0
 20
292.3761104221
 30
0.0
 40
3.1000003815
 41
0.0
 71
     1
 72
     1
  1
1
  7
SLDTEXTSTYLE0
  0
MTEXT
  5
E5
330
1F
100
AcDbEntity
  8
0
  6
CONTINUOUS
 62
     7
100
AcDbMText
 10
112.0
 20
292.3761104221
 30
0.0
 40
3.1000003815
 41
0.0
 71
     1
 72
     1
  1
2
  7
SLDTEXTSTYLE0
  0
MTEXT
  5
E6
330
1F
100
AcDbEntity
  8
0
  6
CONTINUOUS
 62
     7
100
AcDbMText
 10
177.0
 20
292.3761104221
 30
0.0
 40
3.1000003815
 41
0.0
 71
     1
 72
     1
  1
3
  7
SLDTEXTSTYLE0
  0
MTEXT
  5
E7
330
1F
100
AcDbEntity
  8
0
  6
CONTINUOUS
 62
     7
100
AcDbMText
 10
242.0
 20
292.3761104221
 30
0.0
 40
3.1000003815
 41
0.0
 71
     1
 72
     1
  1
4
  7
SLDTEXTSTYLE0
  0
MTEXT
  5
E8
330
1F
100
AcDbEntity
  8
0
  6
CONTINUOUS
 62
     7
100
AcDbMText
 10
307.0
 20
292.3761104221
 30
0.0
 40
3.1000003815
 41
0.0
 71
     1
 72
     1
  1
5
  7
SLDTEXTSTYLE0
  0
MTEXT
  5
E9
330
1F
100
AcDbEntity
  8
0
  6
CONTINUOUS
 62
     7
100
AcDbMText
 10
377.0
 20
292.3761104221
 30
0.0
 40
3.1000003815
 41
0.0
 71
     1
 72
     1
  1
6
  7
SLDTEXTSTYLE0
  0
MTEXT
  5
EA
330
1F
100
AcDbEntity
  8
0
  6
CONTINUOUS
 62
     7
100
AcDbMText
 10
52.0
 20
11.3761104221
 30
0.0
 40
3.1000003815
 41
0.0
 71
     1
 72
     1
  1
1
  7
SLDTEXTSTYLE0
  0
MTEXT
  5
EB
330
1F
100
AcDbEntity
  8
0
  6
CONTINUOUS
 62
     7
100
AcDbMText
 10
112.0
 20
11.3761104221
 30
0.0
 40
3.1000003815
 41
0.0
 71
     1
 72
     1
  1
2
  7
SLDTEXTSTYLE0
  0
MTEXT
  5
EC
330
1F
100
AcDbEntity
  8
0
  6
CONTINUOUS
 62
     7
100
AcDbMText
 10
307.0
 20
11.3761104221
 30
0.0
 40
3.1000003815
 41
0.0
 71
     1
 72
     1
  1
5
  7
SLDTEXTSTYLE0
  0
MTEXT
  5
ED
330
1F
100
AcDbEntity
  8
0
  6
CONTINUOUS
 62
     7
100
AcDbMText
 10
377.0
 20
11.3761104221
 30
0.0
 40
3.1000003815
 41
0.0
 71
     1
 72
     1
  1
6
  7
SLDTEXTSTYLE0
  0
MTEXT
  5
EE
330
1F
100
AcDbEntity
  8
0
  6
CONTINUOUS
 62
     7
100
AcDbMText
 10
17.0
 20
255.3761104221
 30
0.0
 40
3.1000003815
 41
0.0
 71
     1
 72
     1
  1
A
  7
SLDTEXTSTYLE0
  0
MTEXT
  5
EF
330
1F
100
AcDbEntity
  8
0
  6
CONTINUOUS
 62
     7
100
AcDbMText
 10
17.0
 20
187.3761104221
 30
0.0
 40
3.1000003815
 41
0.0
 71
     1
 72
     1
  1
B
  7
SLDTEXTSTYLE0
  0
MTEXT
  5
F0
330
1F
100
AcDbEntity
  8
0
  6
CONTINUOUS
 62
     7
100
AcDbMText
 10
411.1900009724
 20
112.8084898142
 30
0.0
 40
3.1000003815
 41
0.0
 71
     1
 72
     1
  1
C
  7
SLDTEXTSTYLE0
  0
MTEXT
  5
F1
330
1F
100
AcDbEntity
  8
0
  6
CONTINUOUS
 62
     7
100
AcDbMText
 10
17.0
 20
49.3761104221
 30
0.0
 40
3.1000003815
 41
0.0
 71
     1
 72
     1
  1
D
  7
SLDTEXTSTYLE0
  0
MTEXT
  5
F2
330
1F
100
AcDbEntity
  8
0
  6
CONTINUOUS
 62
     7
100
AcDbMText
 10
412.1409683428
 20
255.957347107
 30
0.0
 40
3.1000003815
 41
0.0
 71
     1
 72
     1
  1
A
  7
SLDTEXTSTYLE0
  0
MTEXT
  5
F3
330
1F
100
AcDbEntity
  8
0
  6
CONTINUOUS
 62
     7
100
AcDbMText
 10
411.1948446647
 20
187.3761104221
 30
0.0
 40
3.1000003815
 41
0.0
 71
     1
 72
     1
  1
B
  7
SLDTEXTSTYLE0
  0
MTEXT
  5
F4
330
1F
100
AcDbEntity
  8
0
  6
CONTINUOUS
 62
     7
100
AcDbMText
 10
411.5971357814
 20
49.5952015164
 30
0.0
 40
3.1000003815
 41
0.0
 71
     1
 72
     1
  1
D
  7
SLDTEXTSTYLE0
  0
MTEXT
  5
F5
330
1F
100
AcDbEntity
  8
0
  6
CONTINUOUS
 62
     7
100
AcDbMText
 10
321.7437458679
 20
41.6974536646
 30
0.0
 40
4.2333333333
 41
0.0
 71
     2
 72
     1
  1
1:1
  7
SLDTEXTSTYLE0
  0
MTEXT
  5
F6
330
1F
100
AcDbEntity
  8
0
  6
CONTINUOUS
 62
     7
100
AcDbMText
 10
345.0
 20
21.357201882
 30
0.0
 40
6.6145833333
 41
0.0
 71
     1
 72
     1
  1
61P866027
  7
SLDTEXTSTYLE0
  0
MTEXT
  5
F7
330
1F
100
AcDbEntity
  8
0
  6
CONTINUOUS
 62
     7
100
AcDbMText
 10
389.0
 20
21.357201882
 30
0.0
 40
6.6145833333
 41
0.0
 71
     1
 72
     1
  1
1
  7
SLDTEXTSTYLE0
  0
MTEXT
  5
F8
330
1F
100
AcDbEntity
  8
0
  6
CONTINUOUS
 62
     7
100
AcDbMText
 10
345.75
 20
49.9435847579
 30
0.0
 40
3.175
 41
0.0
 71
     1
 72
     1
  1
BR-AJC08S
  7
SLDTEXTSTYLE0
  0
MTEXT
  5
F9
330
1F
100
AcDbEntity
  8
0
  6
CONTINUOUS
 62
     7
100
AcDbMText
 10
345.75
 20
43.0181878518
 30
0.0
 40
3.175
 41
0.0
 71
     1
 72
     1
  1
BR-AJC 8
  7
SLDTEXTSTYLE0
  0
MTEXT
  5
FA
330
1F
100
AcDbEntity
  8
0
  6
CONTINUOUS
 62
     7
100
AcDbMText
 10
345.75
 20
35.9435846415
 30
0.0
 40
3.175
 41
0.0
 71
     1
 72
     1
  1
BR-AJC08S
  7
SLDTEXTSTYLE0
  0
MTEXT
  5
FB
330
1F
100
AcDbEntity
  8
0
  6
CONTINUOUS
 62
     7
100
AcDbMText
 10
345.75
 20
31.7102513593
 30
0.0
 40
3.175
 41
0.0
 71
     1
 72
     1
  1
OUTSIDE VIEW
  7
SLDTEXTSTYLE0
  0
MTEXT
  5
FC
330
1F
100
AcDbEntity
  8
0
  6
CONTINUOUS
 62
     7
100
AcDbMText
 10
294.3089667857
 20
28.6172030293
 30
0.0
 40
3.0
 41
0.0
 71
     2
 72
     1
  1
増田
  7
SLDTEXTSTYLE0
  0
MTEXT
  5
FD
330
1F
100
AcDbEntity
  8
0
  6
CONTINUOUS
 62
     7
100
AcDbMText
 10
298.7424466476
 20
17.5594567916
 30
0.0
 40
3.175
 41
0.0
 71
     2
 72
     1
  1
2024/02/05
  7
SLDTEXTSTYLE0
  0
MTEXT
  5
FE
330
1F
100
AcDbEntity
  8
0
  6
CONTINUOUS
 62
     7
100
AcDbMText
 10
16.9025107534
 20
115.7651360446
 30
0.0
 40
3.1000003815
 41
0.0
 71
     1
 72
     1
  1
C
  7
SLDTEXTSTYLE0
  0
MTEXT
  5
FF
330
1F
100
AcDbEntity
  8
0
  6
CONTINUOUS
 62
     7
100
AcDbMText
 10
408.0177083416
 20
16.1672032039
 30
0.0
 40
3.0
 41
0.0
 71
     2
 72
     1
  1
P
  7
SLDTEXTSTYLE0
  0
MTEXT
  5
100
330
1F
100
AcDbEntity
  8
0
  6
CONTINUOUS
 62
     7
100
AcDbMText
 10
399.6361455905
 20
22.5747582983
 30
0.0
 40
4.2333333333
 41
0.0
 71
     2
 72
     1
  1
1
  7
SLDTEXTSTYLE0
  0
MTEXT
  5
101
330
1F
100
AcDbEntity
  8
0
  6
CONTINUOUS
 62
     7
100
AcDbMText
 10
403.9403981733
 20
17.9492463169
 30
0.0
 40
4.2333333333
 41
0.0
 71
     2
 72
     1
  1
1
  7
SLDTEXTSTYLE0
  0
INSERT
  5
129
330
1F
100
AcDbEntity
  8
0
  6
CONTINUOUS
 62
     7
100
AcDbBlockReference
  2
SW_TABLEANNOTATION_0
 10
286.007
 20
287.0
 30
0.0
  0
INSERT
  5
137
330
1F
100
AcDbEntity
  8
0
  6
CONTINUOUS
 62
     7
100
AcDbBlockReference
  2
SW_TABLEANNOTATION_1
 10
116.5340689813
 20
53.2072446921
 30
0.0
  0
CIRCLE
  5
138
330
1F
100
AcDbEntity
  8
0
  6
CONTINUOUS
 62
     7
100
AcDbCircle
 10
258.164921667
 20
126.72218595
 30
0.0
 40
6.5
  0
CIRCLE
  5
139
330
1F
100
AcDbEntity
  8
0
  6
CONTINUOUS
 62
     7
100
AcDbCircle
 10
258.164921667
 20
126.72218595
 30
0.0
 40
6.0
  0
LINE
  5
13A
330
1F
100
AcDbEntity
  8
0
  6
CONTINUOUS
 62
     7
100
AcDbLine
 10
261.051673013
 20
126.72218595
 30
0.0
 11
259.60829734
 21
124.22218595
 31
0.0
  0
LINE
  5
13B
330
1F
100
AcDbEntity
  8
0
  6
CONTINUOUS
 62
     7
100
AcDbLine
 10
259.60829734
 20
124.22218595
 30
0.0
 11
256.7215459941
 21
124.22218595
 31
0.0
  0
LINE
  5
13C
330
1F
100
AcDbEntity
  8
0
  6
CONTINUOUS
 62
     7
100
AcDbLine
 10
259.60829734
 20
129.22218595
 30
0.0
 11
261.051673013
 21
126.72218595
 31
0.0
  0
LINE
  5
13D
330
1F
100
AcDbEntity
  8
0
  6
CONTINUOUS
 62
     7
100
AcDbLine
 10
256.7215459941
 20
129.22218595
 30
0.0
 11
259.60829734
 21
129.22218595
 31
0.0
  0
LINE
  5
13E
330
1F
100
AcDbEntity
  8
0
  6
CONTINUOUS
 62
     7
100
AcDbLine
 10
255.2781703211
 20
126.72218595
 30
0.0
 11
256.7215459941
 21
129.22218595
 31
0.0
  0
LINE
  5
13F
330
1F
100
AcDbEntity
  8
0
  6
CONTINUOUS
 62
     7
100
AcDbLine
 10
256.7215459941
 20
124.22218595
 30
0.0
 11
255.2781703211
 21
126.72218595
 31
0.0
  0
CIRCLE
  5
140
330
1F
100
AcDbEntity
  8
0
  6
CONTINUOUS
 62
     7
100
AcDbCircle
 10
258.164921667
 20
126.72218595
 30
0.0
 40
0.0166427948234968
  0
LINE
  5
141
330
1F
100
AcDbEntity
  8
0
  6
CONTINUOUS
 62
     7
100
AcDbLine
 10
273.164921667
 20
107.72218595
 30
0.0
 11
273.164921667
 21
106.72218595
 31
0.0
  0
LINE
  5
142
330
1F
100
AcDbEntity
  8
0
  6
CONTINUOUS
 62
     7
100
AcDbLine
 10
273.164921667
 20
106.72218595
 30
0.0
 11
265.664921667
 21
106.72218595
 31
0.0
  0
LINE
  5
143
330
1F
100
AcDbEntity
  8
0
  6
CONTINUOUS
 62
     7
100
AcDbLine
 10
265.664921667
 20
106.72218595
 30
0.0
 11
265.664921667
 21
107.32218595
 31
0.0
  0
LINE
  5
144
330
1F
100
AcDbEntity
  8
0
  6
CONTINUOUS
 62
     7
100
AcDbLine
 10
266.064921667
 20
107.72218595
 30
0.0
 11
265.664921667
 21
107.32218595
 31
0.0
  0
LINE
  5
145
330
1F
100
AcDbEntity
  8
0
  6
CONTINUOUS
 62
     7
100
AcDbLine
 10
266.064921667
 20
107.72218595
 30
0.0
 11
273.164921667
 21
107.72218595
 31
0.0
  0
LINE
  5
146
330
1F
100
AcDbEntity
  8
0
  6
CONTINUOUS
 62
     7
100
AcDbLine
 10
273.164921667
 20
107.72218595
 30
0.0
 11
273.164921667
 21
165.72218595
 31
0.0
  0
LINE
  5
147
330
1F
100
AcDbEntity
  8
0
  6
CONTINUOUS
 62
     7
100
AcDbLine
 10
266.064921667
 20
165.72218595
 30
0.0
 11
266.064921667
 21
107.72218595
 31
0.0
  0
LINE
  5
148
330
1F
100
AcDbEntity
  8
0
  6
CONTINUOUS
 62
     7
100
AcDbLine
 10
273.164921667
 20
165.72218595
 30
0.0
 11
266.064921667
 21
165.72218595
 31
0.0
  0
LINE
  5
149
330
1F
100
AcDbEntity
  8
0
  6
CONTINUOUS
 62
     7
100
AcDbLine
 10
243.164921667
 20
107.72218595
 30
0.0
 11
243.164921667
 21
106.72218595
 31
0.0
  0
LINE
  5
14A
330
1F
100
AcDbEntity
  8
0
  6
CONTINUOUS
 62
     7
100
AcDbLine
 10
242.164921667
 20
107.72218595
 30
0.0
 11
243.164921667
 21
106.72218595
 31
0.0
  0
LINE
  5
14B
330
1F
100
AcDbEntity
  8
0
  6
CONTINUOUS
 62
     7
100
AcDbLine
 10
243.164921667
 20
107.72218595
 30
0.0
 11
242.164921667
 21
107.72218595
 31
0.0
  0
LINE
  5
14C
330
1F
100
AcDbEntity
  8
0
  6
CONTINUOUS
 62
     7
100
AcDbLine
 10
274.164921667
 20
107.72218595
 30
0.0
 11
273.164921667
 21
106.72218595
 31
0.0
  0
LINE
  5
14D
330
1F
100
AcDbEntity
  8
0
  6
CONTINUOUS
 62
     7
100
AcDbLine
 10
274.164921667
 20
107.72218595
 30
0.0
 11
273.164921667
 21
107.72218595
 31
0.0
  0
LINE
  5
14E
330
1F
100
AcDbEntity
  8
0
  6
CONTINUOUS
 62
     7
100
AcDbLine
 10
265.664921667
 20
107.32218595
 30
0.0
 11
265.664921667
 21
166.12218595
 31
0.0
  0
LINE
  5
14F
330
1F
100
AcDbEntity
  8
0
  6
CONTINUOUS
 62
     7
100
AcDbLine
 10
265.664921667
 20
166.12218595
 30
0.0
 11
266.064921667
 21
165.72218595
 31
0.0
  0
LINE
  5
150
330
1F
100
AcDbEntity
  8
0
  6
CONTINUOUS
 62
     7
100
AcDbLine
 10
250.664921667
 20
166.12218595
 30
0.0
 11
250.664921667
 21
107.32218595
 31
0.0
  0
LINE
  5
151
330
1F
100
AcDbEntity
  8
0
  6
CONTINUOUS
 62
     7
100
AcDbLine
 10
250.664921667
 20
107.32218595
 30
0.0
 11
250.264921667
 21
107.72218595
 31
0.0
  0
LINE
  5
152
330
1F
100
AcDbEntity
  8
0
  6
CONTINUOUS
 62
     7
100
AcDbLine
 10
250.264921667
 20
107.72218595
 30
0.0
 11
250.264921667
 21
165.72218595
 31
0.0
  0
LINE
  5
153
330
1F
100
AcDbEntity
  8
0
  6
CONTINUOUS
 62
     7
100
AcDbLine
 10
250.264921667
 20
165.72218595
 30
0.0
 11
250.664921667
 21
166.12218595
 31
0.0
  0
LINE
  5
154
330
1F
100
AcDbEntity
  8
0
  6
CONTINUOUS
 62
     7
100
AcDbLine
 10
243.164921667
 20
165.72218595
 30
0.0
 11
243.164921667
 21
107.72218595
 31
0.0
  0
LINE
  5
155
330
1F
100
AcDbEntity
  8
0
  6
CONTINUOUS
 62
     7
100
AcDbLine
 10
242.164921667
 20
107.72218595
 30
0.0
 11
242.164921667
 21
165.72218595
 31
0.0
  0
LINE
  5
156
330
1F
100
AcDbEntity
  8
0
  6
CONTINUOUS
 62
     7
100
AcDbLine
 10
243.164921667
 20
165.72218595
 30
0.0
 11
242.164921667
 21
165.72218595
 31
0.0
  0
LINE
  5
157
330
1F
100
AcDbEntity
  8
0
  6
CONTINUOUS
 62
     7
100
AcDbLine
 10
243.164921667
 20
165.72218595
 30
0.0
 11
243.164921667
 21
166.72218595
 31
0.0
  0
LINE
  5
158
330
1F
100
AcDbEntity
  8
0
  6
CONTINUOUS
 62
     7
100
AcDbLine
 10
243.164921667
 20
166.72218595
 30
0.0
 11
250.664921667
 21
166.72218595
 31
0.0
  0
LINE
  5
159
330
1F
100
AcDbEntity
  8
0
  6
CONTINUOUS
 62
     7
100
AcDbLine
 10
250.664921667
 20
166.72218595
 30
0.0
 11
250.664921667
 21
166.12218595
 31
0.0
  0
LINE
  5
15A
330
1F
100
AcDbEntity
  8
0
  6
CONTINUOUS
 62
     7
100
AcDbLine
 10
250.264921667
 20
165.72218595
 30
0.0
 11
243.164921667
 21
165.72218595
 31
0.0
  0
LINE
  5
15B
330
1F
100
AcDbEntity
  8
0
  6
CONTINUOUS
 62
     7
100
AcDbLine
 10
265.664921667
 20
166.72218595
 30
0.0
 11
273.164921667
 21
166.72218595
 31
0.0
  0
LINE
  5
15C
330
1F
100
AcDbEntity
  8
0
  6
CONTINUOUS
 62
     7
100
AcDbLine
 10
273.164921667
 20
166.72218595
 30
0.0
 11
273.164921667
 21
165.72218595
 31
0.0
  0
LINE
  5
15D
330
1F
100
AcDbEntity
  8
0
  6
CONTINUOUS
 62
     7
100
AcDbLine
 10
265.664921667
 20
166.12218595
 30
0.0
 11
265.664921667
 21
166.72218595
 31
0.0
  0
LINE
  5
15E
330
1F
100
AcDbEntity
  8
0
  6
CONTINUOUS
 62
     7
100
AcDbLine
 10
243.164921667
 20
166.72218595
 30
0.0
 11
242.164921667
 21
165.72218595
 31
0.0
  0
LINE
  5
15F
330
1F
100
AcDbEntity
  8
0
  6
CONTINUOUS
 62
     7
100
AcDbLine
 10
243.164921667
 20
107.72218595
 30
0.0
 11
250.264921667
 21
107.72218595
 31
0.0
  0
LINE
  5
160
330
1F
100
AcDbEntity
  8
0
  6
CONTINUOUS
 62
     7
100
AcDbLine
 10
274.164921667
 20
165.72218595
 30
0.0
 11
274.164921667
 21
107.72218595
 31
0.0
  0
LINE
  5
161
330
1F
100
AcDbEntity
  8
0
  6
CONTINUOUS
 62
     7
100
AcDbLine
 10
274.164921667
 20
165.72218595
 30
0.0
 11
273.164921667
 21
165.72218595
 31
0.0
  0
LINE
  5
162
330
1F
100
AcDbEntity
  8
0
  6
CONTINUOUS
 62
     7
100
AcDbLine
 10
273.164921667
 20
166.72218595
 30
0.0
 11
274.164921667
 21
165.72218595
 31
0.0
  0
LINE
  5
163
330
1F
100
AcDbEntity
  8
0
  6
CONTINUOUS
 62
     7
100
AcDbLine
 10
250.664921667
 20
106.72218595
 30
0.0
 11
243.164921667
 21
106.72218595
 31
0.0
  0
LINE
  5
164
330
1F
100
AcDbEntity
  8
0
  6
CONTINUOUS
 62
     7
100
AcDbLine
 10
250.664921667
 20
107.32218595
 30
0.0
 11
250.664921667
 21
106.72218595
 31
0.0
  0
ARC
  5
165
330
1F
100
AcDbEntity
  8
0
  6
CONTINUOUS
 62
     7
100
AcDbCircle
 10
258.164921667
 20
136.72218595
 30
0.0
 40
10.3437253933194
100
AcDbArc
 50
308.7093019053
 51
316.4752747987
  0
SPLINE
  5
166
330
1F
100
AcDbEntity
  8
0
  6
CONTINUOUS
 62
     7
100
AcDbSpline
210
0.0
220
0.0
230
1.0
 70
     8
 71
     3
 72
    10
 73
     6
 74
     0
 42
0.00000001
 43
0.00000001
 40
0.0
 40
0.0
 40
0.0
 40
0.0
 40
0.5
 40
0.5
 40
1.0
 40
1.0
 40
1.0
 40
1.0
 10
264.6335704937968
 20
128.6506781994284
 30
0.0
 10
264.5996552070514
 20
128.7644386150512
 30
0.0
 10
264.5588913489938
 20
128.8902340343129
 30
0.0
 10
264.4605004858377
 20
129.1612366108048
 30
0.0
 10
264.4050595752586
 20
129.30027480494
 30
0.0
 10
264.3435117974685
 20
129.4401859500484
 30
0.0
  0
SPLINE
  5
167
330
1F
100
AcDbEntity
  8
0
  6
CONTINUOUS
 62
     7
100
AcDbSpline
210
0.0
220
0.0
230
1.0
 70
     8
 71
     3
 72
     8
 73
     4
 74
     0
 42
0.00000001
 43
0.00000001
 40
0.0
 40
0.0
 40
0.0
 40
0.0
 40
1.0
 40
1.0
 40
1.0
 40
1.0
 10
251.9863315365838
 20
129.4401859500484
 30
0.0
 10
251.8639047441713
 20
129.1618839002687
 30
0.0
 10
251.7640205015558
 20
128.8779209223027
 30
0.0
 10
251.6962728402505
 20
128.6506781994116
 30
0.0
  0
ARC
  5
168
330
1F
100
AcDbEntity
  8
0
  6
CONTINUOUS
 62
     7
100
AcDbCircle
 10
258.164921667
 20
136.72218595
 30
0.0
 40
10.34372539333547
100
AcDbArc
 50
223.5247252013
 51
231.2906980947
  0
ARC
  5
169
330
1F
100
AcDbEntity
  8
0
  6
CONTINUOUS
 62
     7
100
AcDbCircle
 10
258.164921667
 20
126.72218595
 30
0.0
 40
6.750000000000023
100
AcDbArc
 50
163.3991517287
 51
16.6008482714
  0
LINE
  5
16A
330
1F
100
AcDbEntity
  8
0
  6
CONTINUOUS
 62
     7
100
AcDbLine
 10
265.664921667
 20
106.72218595
 30
0.0
 11
250.664921667
 21
106.72218595
 31
0.0
  0
ARC
  5
16B
330
1F
100
AcDbEntity
  8
0
  6
CONTINUOUS
 62
     7
100
AcDbCircle
 10
258.164921667
 20
126.72218595
 30
0.0
 40
6.750000000000013
100
AcDbArc
 50
23.7449908822
 51
156.2550091178
  0
LINE
  5
16C
330
1F
100
AcDbEntity
  8
0
  6
CONTINUOUS
 62
     7
100
AcDbLine
 10
265.664921667
 20
166.72218595
 30
0.0
 11
250.664921667
 21
166.72218595
 31
0.0
  0
ARC
  5
16D
330
1F
100
AcDbEntity
  8
0
  6
CONTINUOUS
 62
     8
100
AcDbCircle
 10
258.164921667
 20
136.72218595
 30
0.0
 40
9.54999999999999
100
AcDbArc
 50
310.3137500289
 51
321.7521641206
  0
ARC
  5
16E
330
1F
100
AcDbEntity
  8
0
  6
CONTINUOUS
 62
     8
100
AcDbCircle
 10
258.164921667
 20
136.72218595
 30
0.0
 40
9.549999999999986
100
AcDbArc
 50
218.2478358794
 51
229.6862499711
  0
LINE
  5
16F
330
1F
100
AcDbEntity
  8
0
  6
CONTINUOUS
 62
     7
100
AcDbLine
 10
258.164921667
 20
173.92218595
 30
0.0
 11
258.164921667
 21
99.52218595
 31
0.0
  0
DIMENSION
  5
170
330
1F
100
AcDbEntity
  8
0
  6
CONTINUOUS
 62
     7
100
AcDbDimension
  2
_D
 10
292.1714856075
 20
106.72218595
 30
0.0
 11
292.1714856075
 21
135.0709310457
 31
0.0
 70
   160
  1
<>
  3
SLDDIMSTYLE1
100
AcDbAlignedDimension
 13
273.164921667
 23
166.72218595
 33
0.0
 14
273.164921667
 24
106.72218595
 34
0.0
 50
90.0
100
AcDbRotatedDimension
  0
DIMENSION
  5
17B
330
1F
100
AcDbEntity
  8
0
  6
CONTINUOUS
 62
     7
100
AcDbDimension
  2
_D_1
 10
242.164921667
 20
184.5530476195
 30
0.0
 11
258.8112101374
 21
184.5530476195
 31
0.0
 70
   160
  1
<>
  3
SLDDIMSTYLE1
100
AcDbAlignedDimension
 13
274.164921667
 23
165.72218595
 33
0.0
 14
242.164921667
 24
165.72218595
 34
0.0
100
AcDbRotatedDimension
  0
INSERT
  5
190
330
1F
100
AcDbEntity
  8
0
  6
CONTINUOUS
 62
     7
100
AcDbBlockReference
  2
SW_CENTERMARKSYMBOL_0
 10
258.164921667
 20
126.72218595
 30
0.0
  0
LINE
  5
191
330
1F
100
AcDbEntity
  8
0
  6
CENTER
 62
     7
100
AcDbLine
 10
258.164921667
 20
177.5744788888
 30
0.0
 11
258.164921667
 21
96.7084978813
 31
0.0
  0
LINE
  5
192
330
1F
100
AcDbEntity
  8
0
  6
CONTINUOUS
 62
     7
100
AcDbLine
 10
250.164921667
 20
175.5744788888
 30
0.0
 11
258.164921667
 21
175.5744788888
 31
0.0
  0
INSERT
  5
193
330
1F
100
AcDbEntity
  8
0
  6
CONTINUOUS
 62
     7
100
AcDbBlockReference
  2
_OPEN30
 10
258.164921667
 20
175.5744788888
 30
0.0
 41
3.0
 42
3.0
 50
0.0
  0
LINE
  5
194
330
1F
100
AcDbEntity
  8
0
  6
CONTINUOUS
 62
     7
100
AcDbLine
 10
250.164921667
 20
98.7084978813
 30
0.0
 11
258.164921667
 21
98.7084978813
 31
0.0
  0
INSERT
  5
195
330
1F
100
AcDbEntity
  8
0
  6
CONTINUOUS
 62
     7
100
AcDbBlockReference
  2
_OPEN30
 10
258.164921667
 20
98.7084978813
 30
0.0
 41
3.0
 42
3.0
 50
0.0
  0
MTEXT
  5
196
330
1F
100
AcDbEntity
  8
0
  6
CONTINUOUS
 62
     7
100
AcDbMText
 10
250.164921667
 20
181.2179001654
 30
0.0
 40
4.8506944444
 41
0.0
 71
     1
 72
     1
  1
A
  7
SLDTEXTSTYLE0
  0
MTEXT
  5
197
330
1F
100
AcDbEntity
  8
0
  6
CONTINUOUS
 62
     7
100
AcDbMText
 10
250.164921667
 20
96.8292385962
 30
0.0
 40
4.8506944444
 41
0.0
 71
     1
 72
     1
  1
A
  7
SLDTEXTSTYLE0
  0
LINE
  5
198
330
1F
100
AcDbEntity
  8
0
  6
PHANTOM
 62
     7
100
AcDbLine
 10
165.2884030998
 20
133.22218595
 30
0.0
 11
160.7884030998
 21
133.22218595
 31
0.0
  0
LINE
  5
199
330
1F
100
AcDbEntity
  8
0
  6
PHANTOM
 62
     7
100
AcDbLine
 10
160.7884030998
 20
120.22218595
 30
0.0
 11
165.2884030998
 21
120.22218595
 31
0.0
  0
LINE
  5
19A
330
1F
100
AcDbEntity
  8
0
  6
PHANTOM
 62
     7
100
AcDbLine
 10
165.2884030998
 20
120.22218595
 30
0.0
 11
165.7884030998
 21
120.72218595
 31
0.0
  0
LINE
  5
19B
330
1F
100
AcDbEntity
  8
0
  6
PHANTOM
 62
     7
100
AcDbLine
 10
165.7884030998
 20
132.72218595
 30
0.0
 11
165.2884030998
 21
133.22218595
 31
0.0
  0
LINE
  5
19C
330
1F
100
AcDbEntity
  8
0
  6
PHANTOM
 62
     7
100
AcDbLine
 10
136.2884030998
 20
130.72218595
 30
0.0
 11
135.7884030998
 21
130.22218595
 31
0.0
  0
LINE
  5
19D
330
1F
100
AcDbEntity
  8
0
  6
PHANTOM
 62
     7
100
AcDbLine
 10
135.7884030998
 20
123.22218595
 30
0.0
 11
136.2884030998
 21
122.72218595
 31
0.0
  0
LINE
  5
19E
330
1F
100
AcDbEntity
  8
0
  6
PHANTOM
 62
     7
100
AcDbLine
 10
136.2884030998
 20
122.72218595
 30
0.0
 11
160.7884030998
 21
122.72218595
 31
0.0
  0
LINE
  5
19F
330
1F
100
AcDbEntity
  8
0
  6
PHANTOM
 62
     7
100
AcDbLine
 10
160.7884030998
 20
130.72218595
 30
0.0
 11
136.2884030998
 21
130.72218595
 31
0.0
  0
LINE
  5
1A0
330
1F
100
AcDbEntity
  8
0
  6
CONTINUOUS
 62
     7
100
AcDbLine
 10
160.7884030998
 20
119.97218595
 30
0.0
 11
166.2884030998
 21
119.97218595
 31
0.0
  0
LINE
  5
1A1
330
1F
100
AcDbEntity
  8
0
  6
CONTINUOUS
 62
     7
100
AcDbLine
 10
166.2884030998
 20
106.72218595
 30
0.0
 11
166.2884030998
 21
119.97218595
 31
0.0
  0
LINE
  5
1A2
330
1F
100
AcDbEntity
  8
0
  6
CONTINUOUS
 62
     7
100
AcDbLine
 10
166.2884030998
 20
106.72218595
 30
0.0
 11
159.7884030998
 21
106.72218595
 31
0.0
  0
LINE
  5
1A3
330
1F
100
AcDbEntity
  8
0
  6
CONTINUOUS
 62
     7
100
AcDbLine
 10
158.7884030998
 20
107.72218595
 30
0.0
 11
159.7884030998
 21
106.72218595
 31
0.0
  0
LINE
  5
1A4
330
1F
100
AcDbEntity
  8
0
  6
CONTINUOUS
 62
     7
100
AcDbLine
 10
158.7884030998
 20
107.72218595
 30
0.0
 11
158.7884030998
 21
116.72218595
 31
0.0
  0
LINE
  5
1A5
330
1F
100
AcDbEntity
  8
0
  6
CONTINUOUS
 62
     7
100
AcDbLine
 10
155.2884030998
 20
116.72218595
 30
0.0
 11
158.7884030998
 21
116.72218595
 31
0.0
  0
LINE
  5
1A6
330
1F
100
AcDbEntity
  8
0
  6
CONTINUOUS
 62
     7
100
AcDbLine
 10
155.2884030998
 20
121.52218595
 30
0.0
 11
155.2884030998
 21
116.72218595
 31
0.0
  0
LINE
  5
1A7
330
1F
100
AcDbEntity
  8
0
  6
CONTINUOUS
 62
     7
100
AcDbLine
 10
155.2884030998
 20
121.52218595
 30
0.0
 11
156.2384030998
 21
122.47218595
 31
0.0
  0
LINE
  5
1A8
330
1F
100
AcDbEntity
  8
0
  6
CONTINUOUS
 62
     7
100
AcDbLine
 10
156.2384030998
 20
122.47218595
 30
0.0
 11
160.7884030998
 21
122.47218595
 31
0.0
  0
LINE
  5
1A9
330
1F
100
AcDbEntity
  8
0
  6
CONTINUOUS
 62
     7
100
AcDbLine
 10
160.7884030998
 20
120.22218595
 30
0.0
 11
160.7884030998
 21
119.97218595
 31
0.0
  0
LINE
  5
1AA
330
1F
100
AcDbEntity
  8
0
  6
CONTINUOUS
 62
     7
100
AcDbLine
 10
156.2384030998
 20
130.97218595
 30
0.0
 11
155.2884030998
 21
131.92218595
 31
0.0
  0
LINE
  5
1AB
330
1F
100
AcDbEntity
  8
0
  6
CONTINUOUS
 62
     7
100
AcDbLine
 10
156.2384030998
 20
130.97218595
 30
0.0
 11
156.2384030998
 21
130.72218595
 31
0.0
  0
LINE
  5
1AC
330
1F
100
AcDbEntity
  8
0
  6
CONTINUOUS
 62
     7
100
AcDbLine
 10
156.2384030998
 20
122.72218595
 30
0.0
 11
156.2384030998
 21
122.47218595
 31
0.0
  0
LINE
  5
1AD
330
1F
100
AcDbEntity
  8
0
  6
CONTINUOUS
 62
     7
100
AcDbLine
 10
155.2884030998
 20
131.92218595
 30
0.0
 11
155.2884030998
 21
130.72218595
 31
0.0
  0
LINE
  5
1AE
330
1F
100
AcDbEntity
  8
0
  6
CONTINUOUS
 62
     7
100
AcDbLine
 10
155.2884030998
 20
122.72218595
 30
0.0
 11
155.2884030998
 21
121.52218595
 31
0.0
  0
LINE
  5
1AF
330
1F
100
AcDbEntity
  8
0
  6
CONTINUOUS
 62
     7
100
AcDbLine
 10
160.7884030998
 20
130.97218595
 30
0.0
 11
156.2384030998
 21
130.97218595
 31
0.0
  0
LINE
  5
1B0
330
1F
100
AcDbEntity
  8
0
  6
CONTINUOUS
 62
     7
100
AcDbLine
 10
155.2884030998
 20
136.72218595
 30
0.0
 11
155.2884030998
 21
131.92218595
 31
0.0
  0
LINE
  5
1B1
330
1F
100
AcDbEntity
  8
0
  6
CONTINUOUS
 62
     7
100
AcDbLine
 10
158.7884030998
 20
165.72218595
 30
0.0
 11
158.7884030998
 21
136.72218595
 31
0.0
  0
LINE
  5
1B2
330
1F
100
AcDbEntity
  8
0
  6
CONTINUOUS
 62
     7
100
AcDbLine
 10
159.7884030998
 20
166.72218595
 30
0.0
 11
158.7884030998
 21
165.72218595
 31
0.0
  0
LINE
  5
1B3
330
1F
100
AcDbEntity
  8
0
  6
CONTINUOUS
 62
     7
100
AcDbLine
 10
165.9884030998
 20
166.72218595
 30
0.0
 11
159.7884030998
 21
166.72218595
 31
0.0
  0
LINE
  5
1B4
330
1F
100
AcDbEntity
  8
0
  6
CONTINUOUS
 62
     7
100
AcDbLine
 10
165.9884030998
 20
166.72218595
 30
0.0
 11
165.9884030998
 21
133.47218595
 31
0.0
  0
LINE
  5
1B5
330
1F
100
AcDbEntity
  8
0
  6
CONTINUOUS
 62
     7
100
AcDbLine
 10
165.9884030998
 20
133.47218595
 30
0.0
 11
160.7884030998
 21
133.47218595
 31
0.0
  0
LINE
  5
1B6
330
1F
100
AcDbEntity
  8
0
  6
CONTINUOUS
 62
     7
100
AcDbLine
 10
160.7884030998
 20
133.47218595
 30
0.0
 11
160.7884030998
 21
133.22218595
 31
0.0
  0
LINE
  5
1B7
330
1F
100
AcDbEntity
  8
0
  6
CONTINUOUS
 62
     7
100
AcDbLine
 10
158.7884030998
 20
136.72218595
 30
0.0
 11
155.2884030998
 21
136.72218595
 31
0.0
  0
SPLINE
  5
1B8
330
1F
100
AcDbEntity
  8
0
  6
CONTINUOUS
 62
     7
100
AcDbSpline
210
0.0
220
0.0
230
1.0
 70
     8
 71
     3
 72
    10
 73
     6
 74
     0
 42
0.00000001
 43
0.00000001
 40
0.0
 40
0.0
 40
0.0
 40
0.0
 40
0.5
 40
0.5
 40
1.0
 40
1.0
 40
1.0
 40
1.0
 10
166.2884030998056
 20
128.6506781994284
 30
0.0
 10
166.1914097512338
 20
128.7644386150512
 30
0.0
 10
166.1173954323192
 20
128.8902340343129
 30
0.0
 10
166.0146274369863
 20
129.1612366108048
 30
0.0
 10
165.9884030998056
 20
129.30027480494
 30
0.0
 10
165.9884030998056
 20
129.4401859500484
 30
0.0
  0
LINE
  5
1B9
330
1F
100
AcDbEntity
  8
0
  6
CONTINUOUS
 62
     7
100
AcDbLine
 10
166.2884030998
 20
119.97218595
 30
0.0
 11
166.2884030998
 21
128.6506781994
 31
0.0
  0
LINE
  5
1BA
330
1F
100
AcDbEntity
  8
0
  6
CONTINUOUS
 62
     7
100
AcDbLine
 10
165.9884030998
 20
129.44018595
 30
0.0
 11
165.9884030998
 21
133.47218595
 31
0.0
  0
SPLINE
  5
1BB
330
1F
100
AcDbEntity
  8
0
  6
CONTINUOUS
 62
     7
100
AcDbSpline
210
0.0
220
0.0
230
1.0
 70
     8
 71
     3
 72
    14
 73
    10
 74
     0
 42
0.00000001
 43
0.00000001
 40
0.0
 40
0.0
 40
0.0
 40
0.0
 40
0.25
 40
0.25
 40
0.5
 40
0.5
 40
0.75
 40
0.75
 40
1.0
 40
1.0
 40
1.0
 40
1.0
 10
166.2884030998056
 20
132.748503147861
 30
0.0
 10
166.2884030998056
 20
133.0159991714009
 30
0.0
 10
166.303301805623
 20
133.2790008656017
 30
0.0
 10
166.3770550509809
 20
133.7930045416323
 30
0.0
 10
166.4372400496436
 20
134.0434452670944
 30
0.0
 10
166.6158832400322
 20
134.542576717712
 30
0.0
 10
166.7328703197377
 20
134.7851350750468
 30
0.0
 10
166.9747218837392
 20
135.2834422313705
 30
0.0
 10
167.0977313642948
 20
135.5405486697294
 30
0.0
 10
167.1884030998056
 20
135.817859998728
 30
0.0
  0
LINE
  5
1BC
330
1F
100
AcDbEntity
  8
0
  6
CONTINUOUS
 62
     7
100
AcDbLine
 10
166.2884030998
 20
128.6506781994
 30
0.0
 11
166.2884030998
 21
132.7485031479
 31
0.0
  0
LINE
  5
1BD
330
1F
100
AcDbEntity
  8
0
  6
CONTINUOUS
 62
     7
100
AcDbLine
 10
175.2884030998
 20
166.72218595
 30
0.0
 11
175.2884030998
 21
106.72218595
 31
0.0
  0
LINE
  5
1BE
330
1F
100
AcDbEntity
  8
0
  6
CONTINUOUS
 62
     7
100
AcDbLine
 10
175.6884030998
 20
166.72218595
 30
0.0
 11
175.6884030998
 21
106.72218595
 31
0.0
  0
LINE
  5
1BF
330
1F
100
AcDbEntity
  8
0
  6
CONTINUOUS
 62
     7
100
AcDbLine
 10
175.6884030998
 20
166.72218595
 30
0.0
 11
175.2884030998
 21
166.72218595
 31
0.0
  0
LINE
  5
1C0
330
1F
100
AcDbEntity
  8
0
  6
CONTINUOUS
 62
     7
100
AcDbLine
 10
175.6884030998
 20
106.72218595
 30
0.0
 11
175.2884030998
 21
106.72218595
 31
0.0
  0
LINE
  5
1C1
330
1F
100
AcDbEntity
  8
0
  6
CONTINUOUS
 62
     7
100
AcDbLine
 10
183.8884030998
 20
166.12218595
 30
0.0
 11
183.2884030998
 21
166.72218595
 31
0.0
  0
LINE
  5
1C2
330
1F
100
AcDbEntity
  8
0
  6
CONTINUOUS
 62
     7
100
AcDbLine
 10
183.8884030998
 20
107.32218595
 30
0.0
 11
183.8884030998
 21
166.12218595
 31
0.0
  0
LINE
  5
1C3
330
1F
100
AcDbEntity
  8
0
  6
CONTINUOUS
 62
     7
100
AcDbLine
 10
183.2884030998
 20
106.72218595
 30
0.0
 11
183.8884030998
 21
107.32218595
 31
0.0
  0
LINE
  5
1C4
330
1F
100
AcDbEntity
  8
0
  6
CONTINUOUS
 62
     7
100
AcDbLine
 10
183.2884030998
 20
166.72218595
 30
0.0
 11
175.6884030998
 21
166.72218595
 31
0.0
  0
LINE
  5
1C5
330
1F
100
AcDbEntity
  8
0
  6
CONTINUOUS
 62
     7
100
AcDbLine
 10
183.2884030998
 20
106.72218595
 30
0.0
 11
175.6884030998
 21
106.72218595
 31
0.0
  0
LINE
  5
1C6
330
1F
100
AcDbEntity
  8
0
  6
CONTINUOUS
 62
     7
100
AcDbLine
 10
184.2884030998
 20
165.72218595
 30
0.0
 11
184.2884030998
 21
107.72218595
 31
0.0
  0
LINE
  5
1C7
330
1F
100
AcDbEntity
  8
0
  6
CONTINUOUS
 62
     7
100
AcDbLine
 10
184.2884030998
 20
107.72218595
 30
0.0
 11
183.8884030998
 21
107.32218595
 31
0.0
  0
LINE
  5
1C8
330
1F
100
AcDbEntity
  8
0
  6
CONTINUOUS
 62
     7
100
AcDbLine
 10
183.8884030998
 20
166.12218595
 30
0.0
 11
184.2884030998
 21
165.72218595
 31
0.0
  0
SPLINE
  5
1C9
330
1F
100
AcDbEntity
  8
0
  6
CONTINUOUS
 62
     7
100
AcDbSpline
210
0.0
220
0.0
230
1.0
 70
     8
 71
     3
 72
     8
 73
     4
 74
     0
 42
0.00000001
 43
0.00000001
 40
0.0
 40
0.0
 40
0.0
 40
0.0
 40
1.0
 40
1.0
 40
1.0
 40
1.0
 10
167.1884030998056
 20
135.817859998728
 30
0.0
 10
167.2869454025073
 20
136.119242747948
 30
0.0
 10
167.3876786029409
 20
136.4207117427423
 30
0.0
 10
167.4884030998056
 20
136.7221859500484
 30
0.0
  0
LINE
  5
1CA
330
1F
100
AcDbEntity
  8
0
  6
CONTINUOUS
 62
     7
100
AcDbLine
 10
167.4884030998
 20
106.72218595
 30
0.0
 11
166.2884030998
 21
106.72218595
 31
0.0
  0
LINE
  5
1CB
330
1F
100
AcDbEntity
  8
0
  6
CONTINUOUS
 62
     7
100
AcDbLine
 10
167.1884030998
 20
166.72218595
 30
0.0
 11
165.9884030998
 21
166.72218595
 31
0.0
  0
LINE
  5
1CC
330
1F
100
AcDbEntity
  8
0
  6
CONTINUOUS
 62
     7
100
AcDbLine
 10
175.2884030998
 20
166.72218595
 30
0.0
 11
174.0884030998
 21
166.72218595
 31
0.0
  0
LINE
  5
1CD
330
1F
100
AcDbEntity
  8
0
  6
CONTINUOUS
 62
     7
100
AcDbLine
 10
175.2884030998
 20
106.72218595
 30
0.0
 11
174.0884030998
 21
106.72218595
 31
0.0
  0
LINE
  5
1CE
330
1F
100
AcDbEntity
  8
0
  6
CONTINUOUS
 62
     7
100
AcDbLine
 10
174.0884030998
 20
166.72218595
 30
0.0
 11
167.1884030998
 21
166.72218595
 31
0.0
  0
LINE
  5
1CF
330
1F
100
AcDbEntity
  8
0
  6
CONTINUOUS
 62
     7
100
AcDbLine
 10
174.0884030998
 20
106.72218595
 30
0.0
 11
167.4884030998
 21
106.72218595
 31
0.0
  0
LINE
  5
1D0
330
1F
100
AcDbEntity
  8
0
  6
PHANTOM
 62
     7
100
AcDbLine
 10
165.2884030998
 20
126.72218595
 30
0.0
 11
165.2884030998
 21
120.22218595
 31
0.0
  0
LINE
  5
1D1
330
1F
100
AcDbEntity
  8
0
  6
PHANTOM
 62
     7
100
AcDbLine
 10
165.2884030998
 20
133.22218595
 30
0.0
 11
165.2884030998
 21
126.72218595
 31
0.0
  0
LINE
  5
1D2
330
1F
100
AcDbEntity
  8
0
  6
PHANTOM
 62
     7
100
AcDbLine
 10
160.7884030998
 20
126.72218595
 30
0.0
 11
160.7884030998
 21
133.22218595
 31
0.0
  0
LINE
  5
1D3
330
1F
100
AcDbEntity
  8
0
  6
PHANTOM
 62
     7
100
AcDbLine
 10
160.7884030998
 20
120.22218595
 30
0.0
 11
160.7884030998
 21
126.72218595
 31
0.0
  0
LINE
  5
1D4
330
1F
100
AcDbEntity
  8
0
  6
PHANTOM
 62
     7
100
AcDbLine
 10
165.7884030998
 20
126.72218595
 30
0.0
 11
165.7884030998
 21
132.72218595
 31
0.0
  0
LINE
  5
1D5
330
1F
100
AcDbEntity
  8
0
  6
PHANTOM
 62
     7
100
AcDbLine
 10
165.7884030998
 20
120.72218595
 30
0.0
 11
165.7884030998
 21
126.72218595
 31
0.0
  0
LINE
  5
1D6
330
1F
100
AcDbEntity
  8
0
  6
PHANTOM
 62
     7
100
AcDbLine
 10
136.2884030998
 20
126.72218595
 30
0.0
 11
136.2884030998
 21
130.72218595
 31
0.0
  0
LINE
  5
1D7
330
1F
100
AcDbEntity
  8
0
  6
PHANTOM
 62
     7
100
AcDbLine
 10
136.2884030998
 20
122.72218595
 30
0.0
 11
136.2884030998
 21
126.72218595
 31
0.0
  0
LINE
  5
1D8
330
1F
100
AcDbEntity
  8
0
  6
PHANTOM
 62
     7
100
AcDbLine
 10
135.7884030998
 20
126.72218595
 30
0.0
 11
135.7884030998
 21
123.22218595
 31
0.0
  0
LINE
  5
1D9
330
1F
100
AcDbEntity
  8
0
  6
PHANTOM
 62
     7
100
AcDbLine
 10
135.7884030998
 20
130.22218595
 30
0.0
 11
135.7884030998
 21
126.72218595
 31
0.0
  0
LINE
  5
1DA
330
1F
100
AcDbEntity
  8
0
  6
CONTINUOUS
 62
     8
100
AcDbLine
 10
167.1884030998
 20
136.72218595
 30
0.0
 11
165.9884030998
 21
136.72218595
 31
0.0
  0
LINE
  5
1DB
330
1F
100
AcDbEntity
  8
0
  6
CONTINUOUS
 62
     8
100
AcDbLine
 10
167.1884030998
 20
135.8178599987
 30
0.0
 11
167.1884030998
 21
136.72218595
 31
0.0
  0
LINE
  5
1DC
330
1F
100
AcDbEntity
  8
0
  6
CONTINUOUS
 62
     8
100
AcDbLine
 10
167.4884030998
 20
136.72218595
 30
0.0
 11
167.4884030998
 21
106.72218595
 31
0.0
  0
LINE
  5
1DD
330
1F
100
AcDbEntity
  8
0
  6
CONTINUOUS
 62
     8
100
AcDbLine
 10
167.1884030998
 20
136.72218595
 30
0.0
 11
167.1884030998
 21
166.72218595
 31
0.0
  0
LINE
  5
1DE
330
1F
100
AcDbEntity
  8
0
  6
CONTINUOUS
 62
     8
100
AcDbLine
 10
174.0884030998
 20
166.72218595
 30
0.0
 11
174.0884030998
 21
106.72218595
 31
0.0
  0
LINE
  5
1DF
330
1F
100
AcDbEntity
  8
0
  6
CONTINUOUS
 62
     8
100
AcDbLine
 10
167.4884030998
 20
136.72218595
 30
0.0
 11
167.1884030998
 21
136.72218595
 31
0.0
  0
LINE
  5
1E0
330
1F
100
AcDbEntity
  8
0
  6
CONTINUOUS
 62
     7
100
AcDbLine
 10
160.7884030998
 20
131.72218595
 30
0.0
 11
155.2884030998
 21
131.72218595
 31
0.0
  0
LINE
  5
1E1
330
1F
100
AcDbEntity
  8
0
  6
CONTINUOUS
 62
     7
100
AcDbLine
 10
160.7884030998
 20
121.72218595
 30
0.0
 11
155.2884030998
 21
121.72218595
 31
0.0
  0
DIMENSION
  5
1E2
330
1F
100
AcDbEntity
  8
0
  6
CONTINUOUS
 62
     7
100
AcDbDimension
  2
_D_2
 10
206.2884030998
 20
119.97218595
 30
0.0
 11
206.2884030998
 21
125.6700831103
 31
0.0
 70
   160
  1
%%c<>
  3
SLDDIMSTYLE2
100
AcDbAlignedDimension
 13
165.9884030998
 23
133.47218595
 33
0.0
 14
166.2884030998
 24
119.97218595
 34
0.0
 50
90.0
100
AcDbRotatedDimension
  0
DIMENSION
  5
1F0
330
1F
100
AcDbEntity
  8
0
  6
CONTINUOUS
 62
     7
100
AcDbDimension
  2
_D_3
 10
194.2884030998
 20
126.72218595
 30
0.0
 11
194.2884030998
 21
115.9522642579
 31
0.0
 70
   160
  1
<>
  3
SLDDIMSTYLE1
100
AcDbAlignedDimension
 13
183.2884030998
 23
106.72218595
 33
0.0
 14
186.6432751305
 24
126.72218595
 34
0.0
 50
90.0
100
AcDbRotatedDimension
  0
DIMENSION
  5
1FA
330
1F
100
AcDbEntity
  8
0
  6
CONTINUOUS
 62
     7
100
AcDbDimension
  2
_D_4
 10
160.7884030998
 20
90.72218595
 30
0.0
 11
150.8694037404
 21
90.72218595
 31
0.0
 70
   160
  1
(<>)
  3
SLDDIMSTYLE1
100
AcDbAlignedDimension
 13
155.2884030998
 23
116.72218595
 33
0.0
 14
160.7884030998
 24
119.97218595
 34
0.0
100
AcDbRotatedDimension
  0
DIMENSION
  5
207
330
1F
100
AcDbEntity
  8
0
  6
CONTINUOUS
 62
     7
100
AcDbDimension
  2
_D_5
 10
166.2884030998
 20
90.72218595
 30
0.0
 11
172.1086307609
 21
90.72218595
 31
0.0
 70
   160
  1
<>
  3
SLDDIMSTYLE1
100
AcDbAlignedDimension
 13
160.7884030998
 23
119.97218595
 33
0.0
 14
166.2884030998
 24
106.72218595
 34
0.0
100
AcDbRotatedDimension
  0
DIMENSION
  5
212
330
1F
100
AcDbEntity
  8
0
  6
CONTINUOUS
 62
     7
100
AcDbDimension
  2
_D_6
 10
127.4230611435
 20
122.47218595
 30
0.0
 11
127.4230611435
 21
136.2647019992
 31
0.0
 70
   160
  1
%%c<>
  3
SLDDIMSTYLE1
100
AcDbAlignedDimension
 13
156.2384030998
 23
130.97218595
 33
0.0
 14
156.2384030998
 24
122.47218595
 34
0.0
 50
90.0
100
AcDbRotatedDimension
  0
MTEXT
  5
21E
330
1F
100
AcDbEntity
  8
0
  6
CONTINUOUS
 62
     7
100
AcDbMText
 10
162.9656245576
 20
86.6111099971
 30
0.0
 40
4.2333333333
 41
0.0
 71
     2
 72
     1
  1
A-A
  7
SLDTEXTSTYLE0
  0
INSERT
  5
226
330
1F
100
AcDbEntity
  8
0
  6
CONTINUOUS
 62
     7
100
AcDbBlockReference
  2
SW_NOTE_0_3
 10
212.0056126359
 20
184.8451542454
 30
0.0
  0
LEADER
  5
227
330
1F
100
AcDbEntity
  8
0
  6
CONTINUOUS
 62
     7
100
AcDbLeader
  3
SLDDIMSTYLE0
 76
     2
 10
204.735668198
 20
134.8885486675
 30
0.0
 10
212.0056126359
 20
184.8451542454
 30
0.0
1001
ACAD
1000
DSTYLE
1002
{
1070
     6
1000
OPEN30
1002
}
  0
LINE
  5
228
330
1F
100
AcDbEntity
  8
0
  6
CENTERX2
 62
     7
100
AcDbLine
 10
133.6950933141
 20
126.72218595
 30
0.0
 11
186.6432751305
 21
126.72218595
 31
0.0
  0
LINE
  5
229
330
1F
100
AcDbEntity
  8
0
  6
CONTINUOUS
 62
     7
100
AcDbLine
 10
76.1042551737
 20
136.72218595
 30
0.0
 11
76.1042551737
 21
116.72218595
 31
0.0
  0
LINE
  5
22A
330
1F
100
AcDbEntity
  8
0
  6
CONTINUOUS
 62
     7
100
AcDbLine
 10
75.7042551737
 20
116.72218595
 30
0.0
 11
75.7042551737
 21
136.72218595
 31
0.0
  0
LINE
  5
22B
330
1F
100
AcDbEntity
  8
0
  6
CONTINUOUS
 62
     7
100
AcDbLine
 10
75.7042551737
 20
136.72218595
 30
0.0
 11
76.1042551737
 21
136.72218595
 31
0.0
  0
LINE
  5
22C
330
1F
100
AcDbEntity
  8
0
  6
CONTINUOUS
 62
     7
100
AcDbLine
 10
76.1042551737
 20
116.72218595
 30
0.0
 11
75.7042551737
 21
116.72218595
 31
0.0
  0
LINE
  5
22D
330
1F
100
AcDbEntity
  8
0
  6
CONTINUOUS
 62
     7
100
AcDbLine
 10
91.3042551737
 20
116.72218595
 30
0.0
 11
91.3042551737
 21
136.72218595
 31
0.0
  0
CIRCLE
  5
22E
330
1F
100
AcDbEntity
  8
0
  6
CONTINUOUS
 62
     7
100
AcDbCircle
 10
83.7042551737
 20
126.72218595
 30
0.0
 40
5.200000000000017
  0
LINE
  5
22F
330
1F
100
AcDbEntity
  8
0
  6
CONTINUOUS
 62
     7
100
AcDbLine
 10
91.3042551737
 20
136.72218595
 30
0.0
 11
76.1042551737
 21
136.72218595
 31
0.0
  0
LINE
  5
230
330
1F
100
AcDbEntity
  8
0
  6
CONTINUOUS
 62
     7
100
AcDbLine
 10
76.1042551737
 20
116.72218595
 30
0.0
 11
91.3042551737
 21
116.72218595
 31
0.0
  0
CIRCLE
  5
231
330
1F
100
AcDbEntity
  8
0
  6
CONTINUOUS
 62
     7
100
AcDbCircle
 10
83.7042551737
 20
126.72218595
 30
0.0
 40
4.25
  0
LINE
  5
232
330
1F
100
AcDbEntity
  8
0
  6
CONTINUOUS
 62
     7
100
AcDbLine
 10
91.7042551737
 20
136.72218595
 30
0.0
 11
91.7042551737
 21
116.72218595
 31
0.0
  0
LINE
  5
233
330
1F
100
AcDbEntity
  8
0
  6
CONTINUOUS
 62
     7
100
AcDbLine
 10
91.3042551737
 20
136.72218595
 30
0.0
 11
91.7042551737
 21
136.72218595
 31
0.0
  0
LINE
  5
234
330
1F
100
AcDbEntity
  8
0
  6
CONTINUOUS
 62
     7
100
AcDbLine
 10
91.7042551737
 20
116.72218595
 30
0.0
 11
91.3042551737
 21
116.72218595
 31
0.0
  0
LINE
  5
235
330
1F
100
AcDbEntity
  8
0
  6
CONTINUOUS
 62
     7
100
AcDbLine
 10
68.1042551737
 20
136.72218595
 30
0.0
 11
68.1042551737
 21
116.72218595
 31
0.0
  0
LINE
  5
236
330
1F
100
AcDbEntity
  8
0
  6
CONTINUOUS
 62
     7
100
AcDbLine
 10
67.7042551737
 20
116.72218595
 30
0.0
 11
67.7042551737
 21
136.72218595
 31
0.0
  0
LINE
  5
237
330
1F
100
AcDbEntity
  8
0
  6
CONTINUOUS
 62
     7
100
AcDbLine
 10
67.7042551737
 20
136.72218595
 30
0.0
 11
68.1042551737
 21
136.72218595
 31
0.0
  0
LINE
  5
238
330
1F
100
AcDbEntity
  8
0
  6
CONTINUOUS
 62
     7
100
AcDbLine
 10
68.1042551737
 20
116.72218595
 30
0.0
 11
67.7042551737
 21
116.72218595
 31
0.0
  0
LINE
  5
239
330
1F
100
AcDbEntity
  8
0
  6
CONTINUOUS
 62
     7
100
AcDbLine
 10
72.7042551737
 20
136.72218595
 30
0.0
 11
72.7042551737
 21
116.72218595
 31
0.0
  0
LINE
  5
23A
330
1F
100
AcDbEntity
  8
0
  6
CONTINUOUS
 62
     7
100
AcDbLine
 10
72.7042551737
 20
136.72218595
 30
0.0
 11
68.1042551737
 21
136.72218595
 31
0.0
  0
LINE
  5
23B
330
1F
100
AcDbEntity
  8
0
  6
CONTINUOUS
 62
     7
100
AcDbLine
 10
68.1042551737
 20
116.72218595
 30
0.0
 11
72.7042551737
 21
116.72218595
 31
0.0
  0
LINE
  5
23C
330
1F
100
AcDbEntity
  8
0
  6
CONTINUOUS
 62
     7
100
AcDbLine
 10
94.7042551737
 20
136.72218595
 30
0.0
 11
94.7042551737
 21
116.72218595
 31
0.0
  0
LINE
  5
23D
330
1F
100
AcDbEntity
  8
0
  6
CONTINUOUS
 62
     7
100
AcDbLine
 10
99.3042551737
 20
116.72218595
 30
0.0
 11
99.3042551737
 21
136.72218595
 31
0.0
  0
LINE
  5
23E
330
1F
100
AcDbEntity
  8
0
  6
CONTINUOUS
 62
     7
100
AcDbLine
 10
99.3042551737
 20
136.72218595
 30
0.0
 11
94.7042551737
 21
136.72218595
 31
0.0
  0
LINE
  5
23F
330
1F
100
AcDbEntity
  8
0
  6
CONTINUOUS
 62
     7
100
AcDbLine
 10
94.7042551737
 20
116.72218595
 30
0.0
 11
99.3042551737
 21
116.72218595
 31
0.0
  0
LINE
  5
240
330
1F
100
AcDbEntity
  8
0
  6
CONTINUOUS
 62
     7
100
AcDbLine
 10
99.7042551737
 20
136.72218595
 30
0.0
 11
99.7042551737
 21
116.72218595
 31
0.0
  0
LINE
  5
241
330
1F
100
AcDbEntity
  8
0
  6
CONTINUOUS
 62
     7
100
AcDbLine
 10
99.3042551737
 20
136.72218595
 30
0.0
 11
99.7042551737
 21
136.72218595
 31
0.0
  0
LINE
  5
242
330
1F
100
AcDbEntity
  8
0
  6
CONTINUOUS
 62
     7
100
AcDbLine
 10
99.7042551737
 20
116.72218595
 30
0.0
 11
99.3042551737
 21
116.72218595
 31
0.0
  0
LINE
  5
243
330
1F
100
AcDbEntity
  8
0
  6
CONTINUOUS
 62
     7
100
AcDbLine
 10
75.7042551737
 20
136.72218595
 30
0.0
 11
72.7042551737
 21
136.72218595
 31
0.0
  0
LINE
  5
244
330
1F
100
AcDbEntity
  8
0
  6
CONTINUOUS
 62
     7
100
AcDbLine
 10
72.7042551737
 20
116.72218595
 30
0.0
 11
75.7042551737
 21
116.72218595
 31
0.0
  0
LINE
  5
245
330
1F
100
AcDbEntity
  8
0
  6
CONTINUOUS
 62
     7
100
AcDbLine
 10
94.7042551737
 20
136.72218595
 30
0.0
 11
91.7042551737
 21
136.72218595
 31
0.0
  0
LINE
  5
246
330
1F
100
AcDbEntity
  8
0
  6
CONTINUOUS
 62
     7
100
AcDbLine
 10
91.7042551737
 20
116.72218595
 30
0.0
 11
94.7042551737
 21
116.72218595
 31
0.0
  0
LINE
  5
247
330
1F
100
AcDbEntity
  8
0
  6
CONTINUOUS
 62
     7
100
AcDbLine
 10
67.7042551737
 20
107.72218595
 30
0.0
 11
99.7042551737
 21
107.72218595
 31
0.0
  0
LINE
  5
248
330
1F
100
AcDbEntity
  8
0
  6
CONTINUOUS
 62
     7
100
AcDbLine
 10
99.7042551737
 20
116.72218595
 30
0.0
 11
99.7042551737
 21
107.72218595
 31
0.0
  0
LINE
  5
249
330
1F
100
AcDbEntity
  8
0
  6
CONTINUOUS
 62
     7
100
AcDbLine
 10
67.7042551737
 20
107.72218595
 30
0.0
 11
67.7042551737
 21
116.72218595
 31
0.0
  0
LINE
  5
24A
330
1F
100
AcDbEntity
  8
0
  6
CONTINUOUS
 62
     7
100
AcDbLine
 10
68.7042551737
 20
166.72218595
 30
0.0
 11
98.7042551737
 21
166.72218595
 31
0.0
  0
LINE
  5
24B
330
1F
100
AcDbEntity
  8
0
  6
CONTINUOUS
 62
     7
100
AcDbLine
 10
98.7042551737
 20
166.72218595
 30
0.0
 11
99.7042551737
 21
165.72218595
 31
0.0
  0
LINE
  5
24C
330
1F
100
AcDbEntity
  8
0
  6
CONTINUOUS
 62
     7
100
AcDbLine
 10
99.7042551737
 20
165.72218595
 30
0.0
 11
67.7042551737
 21
165.72218595
 31
0.0
  0
LINE
  5
24D
330
1F
100
AcDbEntity
  8
0
  6
CONTINUOUS
 62
     7
100
AcDbLine
 10
68.7042551737
 20
166.72218595
 30
0.0
 11
67.7042551737
 21
165.72218595
 31
0.0
  0
LINE
  5
24E
330
1F
100
AcDbEntity
  8
0
  6
CONTINUOUS
 62
     7
100
AcDbLine
 10
99.7042551737
 20
165.72218595
 30
0.0
 11
99.7042551737
 21
136.72218595
 31
0.0
  0
LINE
  5
24F
330
1F
100
AcDbEntity
  8
0
  6
CONTINUOUS
 62
     7
100
AcDbLine
 10
67.7042551737
 20
136.72218595
 30
0.0
 11
67.7042551737
 21
165.72218595
 31
0.0
  0
LINE
  5
250
330
1F
100
AcDbEntity
  8
0
  6
CONTINUOUS
 62
     7
100
AcDbLine
 10
99.7042551737
 20
107.72218595
 30
0.0
 11
98.7042551737
 21
106.72218595
 31
0.0
  0
LINE
  5
251
330
1F
100
AcDbEntity
  8
0
  6
CONTINUOUS
 62
     7
100
AcDbLine
 10
98.7042551737
 20
106.72218595
 30
0.0
 11
68.7042551737
 21
106.72218595
 31
0.0
  0
LINE
  5
252
330
1F
100
AcDbEntity
  8
0
  6
CONTINUOUS
 62
     7
100
AcDbLine
 10
67.7042551737
 20
107.72218595
 30
0.0
 11
68.7042551737
 21
106.72218595
 31
0.0
  0
CIRCLE
  5
253
330
1F
100
AcDbEntity
  8
0
  6
HIDDEN
 62
     7
100
AcDbCircle
 10
83.7042551737
 20
126.72218595
 30
0.0
 40
4.25
  0
DIMENSION
  5
254
330
1F
100
AcDbEntity
  8
0
  6
CONTINUOUS
 62
     7
100
AcDbDimension
  2
_D_7
 10
114.2320656869
 20
116.72218595
 30
0.0
 11
114.2320656869
 21
111.6893909296
 31
0.0
 70
   160
  1
<>
  3
SLDDIMSTYLE2
100
AcDbAlignedDimension
 13
98.7042551737
 23
106.72218595
 33
0.0
 14
99.7042551737
 24
116.72218595
 34
0.0
 50
90.0
100
AcDbRotatedDimension
  0
DIMENSION
  5
260
330
1F
100
AcDbEntity
  8
0
  6
CONTINUOUS
 62
     7
100
AcDbDimension
  2
_D_8
 10
114.2320656869
 20
136.72218595
 30
0.0
 11
114.2320656869
 21
125.2086473552
 31
0.0
 70
   160
  1
<>
  3
SLDDIMSTYLE1
100
AcDbAlignedDimension
 13
99.7042551737
 23
116.72218595
 33
0.0
 14
99.7042551737
 24
136.72218595
 34
0.0
 50
90.0
100
AcDbRotatedDimension
  0
DIMENSION
  5
26A
330
1F
100
AcDbEntity
  8
0
  6
CONTINUOUS
 62
     7
100
AcDbDimension
  2
_D_9
 10
114.2320656869
 20
136.72218595
 30
0.0
 11
114.2320656869
 21
149.5513739988
 31
0.0
 70
   160
  1
(<>)
  3
SLDDIMSTYLE1
100
AcDbAlignedDimension
 13
98.7042551737
 23
166.72218595
 33
0.0
 14
99.7042551737
 24
136.72218595
 34
0.0
 50
90.0
100
AcDbRotatedDimension
  0
DIMENSION
  5
276
330
1F
100
AcDbEntity
  8
0
  6
CONTINUOUS
 62
     7
100
AcDbDimension
  2
_D_10
 10
91.7042551737
 20
89.5340296211
 30
0.0
 11
83.5492482325
 21
89.5340296211
 31
0.0
 70
   160
  1
<>h7
  3
SLDDIMSTYLE3
100
AcDbAlignedDimension
 13
75.7042551737
 23
116.72218595
 33
0.0
 14
91.7042551737
 24
116.72218595
 34
0.0
100
AcDbRotatedDimension
  0
INSERT
  5
287
330
1F
100
AcDbEntity
  8
0
  6
CONTINUOUS
 62
     7
100
AcDbBlockReference
  2
SW_NOTE_0_4
 10
105.2919621749
 20
92.308510832
 30
0.0
  0
LEADER
  5
288
330
1F
100
AcDbEntity
  8
0
  6
CONTINUOUS
 62
     7
100
AcDbLeader
  3
SLDDIMSTYLE0
 76
     2
 10
86.8380823354
 20
122.5725923169
 30
0.0
 10
105.2919621749
 20
92.308510832
 30
0.0
1001
ACAD
1000
DSTYLE
1002
{
1070
     6
1000
OPEN30
1002
}
  0
INSERT
  5
294
330
1F
100
AcDbEntity
  8
0
  6
CONTINUOUS
 62
     7
100
AcDbBlockReference
  2
SW_CENTERMARKSYMBOL_1
 10
83.7042551737
 20
126.72218595
 30
0.0
  0
LINE
  5
295
330
1F
100
AcDbEntity
  8
0
  6
CONTINUOUS
 62
     7
100
AcDbLine
 10
273.164921667
 20
247.7543934121
 30
0.0
 11
243.164921667
 21
247.7543934121
 31
0.0
  0
LINE
  5
296
330
1F
100
AcDbEntity
  8
0
  6
CONTINUOUS
 62
     7
100
AcDbLine
 10
273.164921667
 20
224.2543934121
 30
0.0
 11
273.164921667
 21
247.7543934121
 31
0.0
  0
LINE
  5
297
330
1F
100
AcDbEntity
  8
0
  6
CONTINUOUS
 62
     7
100
AcDbLine
 10
265.664921667
 20
224.2543934121
 30
0.0
 11
273.164921667
 21
224.2543934121
 31
0.0
  0
LINE
  5
298
330
1F
100
AcDbEntity
  8
0
  6
CONTINUOUS
 62
     7
100
AcDbLine
 10
265.664921667
 20
224.2543934121
 30
0.0
 11
265.664921667
 21
231.8543934121
 31
0.0
  0
LINE
  5
299
330
1F
100
AcDbEntity
  8
0
  6
CONTINUOUS
 62
     7
100
AcDbLine
 10
265.664921667
 20
231.8543934121
 30
0.0
 11
266.064921667
 21
232.2543934121
 31
0.0
  0
LINE
  5
29A
330
1F
100
AcDbEntity
  8
0
  6
CONTINUOUS
 62
     7
100
AcDbLine
 10
266.064921667
 20
232.2543934121
 30
0.0
 11
267.714921667
 21
232.2543934121
 31
0.0
  0
ARC
  5
29B
330
1F
100
AcDbEntity
  8
0
  6
CONTINUOUS
 62
     7
100
AcDbCircle
 10
267.714921667
 20
233.4543934121
 30
0.0
 40
1.200000000000017
100
AcDbArc
 50
270.0
 51
0.0
  0
LINE
  5
29C
330
1F
100
AcDbEntity
  8
0
  6
CONTINUOUS
 62
     7
100
AcDbLine
 10
268.914921667
 20
233.4543934121
 30
0.0
 11
268.914921667
 21
240.3543934121
 31
0.0
  0
ARC
  5
29D
330
1F
100
AcDbEntity
  8
0
  6
CONTINUOUS
 62
     7
100
AcDbCircle
 10
267.714921667
 20
240.3543934121
 30
0.0
 40
1.200000000000017
100
AcDbArc
 50
0.0
 51
90.0
  0
LINE
  5
29E
330
1F
100
AcDbEntity
  8
0
  6
CONTINUOUS
 62
     7
100
AcDbLine
 10
267.714921667
 20
241.5543934121
 30
0.0
 11
248.614921667
 21
241.5543934121
 31
0.0
  0
ARC
  5
29F
330
1F
100
AcDbEntity
  8
0
  6
CONTINUOUS
 62
     7
100
AcDbCircle
 10
248.614921667
 20
240.3543934121
 30
0.0
 40
1.200000000000017
100
AcDbArc
 50
90.0
 51
180.0
  0
LINE
  5
2A0
330
1F
100
AcDbEntity
  8
0
  6
CONTINUOUS
 62
     7
100
AcDbLine
 10
247.414921667
 20
240.3543934121
 30
0.0
 11
247.414921667
 21
233.4543934121
 31
0.0
  0
ARC
  5
2A1
330
1F
100
AcDbEntity
  8
0
  6
CONTINUOUS
 62
     7
100
AcDbCircle
 10
248.614921667
 20
233.4543934121
 30
0.0
 40
1.200000000000017
100
AcDbArc
 50
180.0
 51
270.0
  0
LINE
  5
2A2
330
1F
100
AcDbEntity
  8
0
  6
CONTINUOUS
 62
     7
100
AcDbLine
 10
248.614921667
 20
232.2543934121
 30
0.0
 11
250.264921667
 21
232.2543934121
 31
0.0
  0
LINE
  5
2A3
330
1F
100
AcDbEntity
  8
0
  6
CONTINUOUS
 62
     7
100
AcDbLine
 10
250.264921667
 20
232.2543934121
 30
0.0
 11
250.664921667
 21
231.8543934121
 31
0.0
  0
LINE
  5
2A4
330
1F
100
AcDbEntity
  8
0
  6
CONTINUOUS
 62
     7
100
AcDbLine
 10
250.664921667
 20
231.8543934121
 30
0.0
 11
250.664921667
 21
224.2543934121
 31
0.0
  0
LINE
  5
2A5
330
1F
100
AcDbEntity
  8
0
  6
CONTINUOUS
 62
     7
100
AcDbLine
 10
243.164921667
 20
224.2543934121
 30
0.0
 11
250.664921667
 21
224.2543934121
 31
0.0
  0
LINE
  5
2A6
330
1F
100
AcDbEntity
  8
0
  6
CONTINUOUS
 62
     7
100
AcDbLine
 10
243.164921667
 20
247.7543934121
 30
0.0
 11
243.164921667
 21
224.2543934121
 31
0.0
  0
LINE
  5
2A7
330
1F
100
AcDbEntity
  8
0
  6
CONTINUOUS
 62
     7
100
AcDbLine
 10
243.164921667
 20
247.7543934121
 30
0.0
 11
242.164921667
 21
248.7543934121
 31
0.0
  0
LINE
  5
2A8
330
1F
100
AcDbEntity
  8
0
  6
CONTINUOUS
 62
     7
100
AcDbLine
 10
242.164921667
 20
248.7543934121
 30
0.0
 11
274.164921667
 21
248.7543934121
 31
0.0
  0
LINE
  5
2A9
330
1F
100
AcDbEntity
  8
0
  6
CONTINUOUS
 62
     7
100
AcDbLine
 10
273.164921667
 20
247.7543934121
 30
0.0
 11
274.164921667
 21
248.7543934121
 31
0.0
  0
LINE
  5
2AA
330
1F
100
AcDbEntity
  8
0
  6
CONTINUOUS
 62
     7
100
AcDbLine
 10
243.164921667
 20
224.2543934121
 30
0.0
 11
242.164921667
 21
224.2543934121
 31
0.0
  0
LINE
  5
2AB
330
1F
100
AcDbEntity
  8
0
  6
CONTINUOUS
 62
     7
100
AcDbLine
 10
242.164921667
 20
224.2543934121
 30
0.0
 11
242.164921667
 21
248.7543934121
 31
0.0
  0
LINE
  5
2AC
330
1F
100
AcDbEntity
  8
0
  6
CONTINUOUS
 62
     7
100
AcDbLine
 10
274.164921667
 20
248.7543934121
 30
0.0
 11
274.164921667
 21
224.2543934121
 31
0.0
  0
LINE
  5
2AD
330
1F
100
AcDbEntity
  8
0
  6
CONTINUOUS
 62
     7
100
AcDbLine
 10
273.164921667
 20
224.2543934121
 30
0.0
 11
274.164921667
 21
224.2543934121
 31
0.0
  0
LINE
  5
2AE
330
1F
100
AcDbEntity
  8
0
  6
CONTINUOUS
 62
     7
100
AcDbLine
 10
274.164921667
 20
224.2543934121
 30
0.0
 11
273.164921667
 21
223.2543934121
 31
0.0
  0
LINE
  5
2AF
330
1F
100
AcDbEntity
  8
0
  6
CONTINUOUS
 62
     7
100
AcDbLine
 10
273.164921667
 20
224.2543934121
 30
0.0
 11
273.164921667
 21
223.2543934121
 31
0.0
  0
LINE
  5
2B0
330
1F
100
AcDbEntity
  8
0
  6
CONTINUOUS
 62
     7
100
AcDbLine
 10
243.164921667
 20
223.2543934121
 30
0.0
 11
242.164921667
 21
224.2543934121
 31
0.0
  0
LINE
  5
2B1
330
1F
100
AcDbEntity
  8
0
  6
CONTINUOUS
 62
     7
100
AcDbLine
 10
243.164921667
 20
223.2543934121
 30
0.0
 11
243.164921667
 21
224.2543934121
 31
0.0
  0
LINE
  5
2B2
330
1F
100
AcDbEntity
  8
0
  6
CONTINUOUS
 62
     7
100
AcDbLine
 10
273.164921667
 20
223.2543934121
 30
0.0
 11
266.064921667
 21
223.2543934121
 31
0.0
  0
LINE
  5
2B3
330
1F
100
AcDbEntity
  8
0
  6
CONTINUOUS
 62
     7
100
AcDbLine
 10
265.664921667
 20
223.6543934121
 30
0.0
 11
266.064921667
 21
223.2543934121
 31
0.0
  0
LINE
  5
2B4
330
1F
100
AcDbEntity
  8
0
  6
CONTINUOUS
 62
     7
100
AcDbLine
 10
265.664921667
 20
223.6543934121
 30
0.0
 11
265.664921667
 21
224.2543934121
 31
0.0
  0
LINE
  5
2B5
330
1F
100
AcDbEntity
  8
0
  6
CONTINUOUS
 62
     7
100
AcDbLine
 10
250.264921667
 20
223.2543934121
 30
0.0
 11
250.664921667
 21
223.6543934121
 31
0.0
  0
LINE
  5
2B6
330
1F
100
AcDbEntity
  8
0
  6
CONTINUOUS
 62
     7
100
AcDbLine
 10
250.264921667
 20
223.2543934121
 30
0.0
 11
243.164921667
 21
223.2543934121
 31
0.0
  0
LINE
  5
2B7
330
1F
100
AcDbEntity
  8
0
  6
CONTINUOUS
 62
     7
100
AcDbLine
 10
250.664921667
 20
224.2543934121
 30
0.0
 11
250.664921667
 21
223.6543934121
 31
0.0
  0
LINE
  5
2B8
330
1F
100
AcDbEntity
  8
0
  6
CONTINUOUS
 62
     7
100
AcDbLine
 10
247.164921667
 20
249.2543934121
 30
0.0
 11
247.164921667
 21
249.0543934121
 31
0.0
  0
LINE
  5
2B9
330
1F
100
AcDbEntity
  8
0
  6
CONTINUOUS
 62
     7
100
AcDbLine
 10
247.164921667
 20
249.0543934121
 30
0.0
 11
250.164921667
 21
249.0543934121
 31
0.0
  0
LINE
  5
2BA
330
1F
100
AcDbEntity
  8
0
  6
CONTINUOUS
 62
     7
100
AcDbLine
 10
250.164921667
 20
249.0543934121
 30
0.0
 11
250.164921667
 21
251.8543934121
 31
0.0
  0
LINE
  5
2BB
330
1F
100
AcDbEntity
  8
0
  6
CONTINUOUS
 62
     7
100
AcDbLine
 10
250.564921667
 20
252.2543934121
 30
0.0
 11
250.164921667
 21
251.8543934121
 31
0.0
  0
LINE
  5
2BC
330
1F
100
AcDbEntity
  8
0
  6
CONTINUOUS
 62
     7
100
AcDbLine
 10
250.564921667
 20
252.2543934121
 30
0.0
 11
265.764921667
 21
252.2543934121
 31
0.0
  0
LINE
  5
2BD
330
1F
100
AcDbEntity
  8
0
  6
CONTINUOUS
 62
     7
100
AcDbLine
 10
266.164921667
 20
251.8543934121
 30
0.0
 11
265.764921667
 21
252.2543934121
 31
0.0
  0
LINE
  5
2BE
330
1F
100
AcDbEntity
  8
0
  6
CONTINUOUS
 62
     7
100
AcDbLine
 10
266.164921667
 20
251.8543934121
 30
0.0
 11
266.164921667
 21
249.0543934121
 31
0.0
  0
LINE
  5
2BF
330
1F
100
AcDbEntity
  8
0
  6
CONTINUOUS
 62
     7
100
AcDbLine
 10
266.164921667
 20
249.0543934121
 30
0.0
 11
269.164921667
 21
249.0543934121
 31
0.0
  0
LINE
  5
2C0
330
1F
100
AcDbEntity
  8
0
  6
CONTINUOUS
 62
     7
100
AcDbLine
 10
269.164921667
 20
249.0543934121
 30
0.0
 11
269.164921667
 21
249.2543934121
 31
0.0
  0
LINE
  5
2C1
330
1F
100
AcDbEntity
  8
0
  6
CONTINUOUS
 62
     7
100
AcDbLine
 10
269.164921667
 20
249.2543934121
 30
0.0
 11
273.764921667
 21
249.2543934121
 31
0.0
  0
LINE
  5
2C2
330
1F
100
AcDbEntity
  8
0
  6
CONTINUOUS
 62
     7
100
AcDbLine
 10
274.164921667
 20
248.8543934121
 30
0.0
 11
273.764921667
 21
249.2543934121
 31
0.0
  0
LINE
  5
2C3
330
1F
100
AcDbEntity
  8
0
  6
CONTINUOUS
 62
     7
100
AcDbLine
 10
242.564921667
 20
249.2543934121
 30
0.0
 11
242.164921667
 21
248.8543934121
 31
0.0
  0
LINE
  5
2C4
330
1F
100
AcDbEntity
  8
0
  6
CONTINUOUS
 62
     7
100
AcDbLine
 10
242.564921667
 20
249.2543934121
 30
0.0
 11
247.164921667
 21
249.2543934121
 31
0.0
  0
LINE
  5
2C5
330
1F
100
AcDbEntity
  8
0
  6
CONTINUOUS
 62
     7
100
AcDbLine
 10
274.164921667
 20
248.7543934121
 30
0.0
 11
274.164921667
 21
248.8543934121
 31
0.0
  0
LINE
  5
2C6
330
1F
100
AcDbEntity
  8
0
  6
CONTINUOUS
 62
     7
100
AcDbLine
 10
242.164921667
 20
248.7543934121
 30
0.0
 11
242.164921667
 21
248.8543934121
 31
0.0
  0
SPLINE
  5
2C7
330
1F
100
AcDbEntity
  8
0
  6
CONTINUOUS
 62
     7
100
AcDbSpline
210
0.0
220
0.0
230
1.0
 70
     8
 71
     3
 72
     8
 73
     4
 74
     0
 42
0.00000001
 43
0.00000001
 40
0.0
 40
0.0
 40
0.0
 40
0.0
 40
1.0
 40
1.0
 40
1.0
 40
1.0
 10
251.9863315365838
 20
241.5543934121149
 30
0.0
 10
251.8639047441713
 20
241.5543934121149
 30
0.0
 10
251.7640205015558
 20
241.4481429910898
 30
0.0
 10
251.6962728402505
 20
241.2543934121008
 30
0.0
  0
LINE
  5
2C8
330
1F
100
AcDbEntity
  8
0
  6
CONTINUOUS
 62
     7
100
AcDbLine
 10
248.614921667
 20
241.2543934121
 30
0.0
 11
251.6962728403
 21
241.2543934121
 31
0.0
  0
SPLINE
  5
2C9
330
1F
100
AcDbEntity
  8
0
  6
CONTINUOUS
 62
     7
100
AcDbSpline
210
0.0
220
0.0
230
1.0
 70
     8
 71
     3
 72
    14
 73
    10
 74
     0
 42
0.00000001
 43
0.00000001
 40
0.0
 40
0.0
 40
0.0
 40
0.0
 40
0.25
 40
0.25
 40
0.5
 40
0.5
 40
0.75
 40
0.75
 40
1.0
 40
1.0
 40
1.0
 40
1.0
 10
247.4530266631639
 20
240.3543934121149
 30
0.0
 10
247.4762762533074
 20
240.4444386875469
 30
0.0
 10
247.5204767560884
 20
240.5668321415451
 30
0.0
 10
247.6713472331791
 20
240.8094234792565
 30
0.0
 10
247.7781423363877
 20
240.9270465561962
 30
0.0
 10
248.0141919351718
 20
241.1036059488894
 30
0.0
 10
248.1421915394266
 20
241.1647826672617
 30
0.0
 10
248.3874580869777
 20
241.2395931384215
 30
0.0
 10
248.5037393800862
 20
241.2543934121153
 30
0.0
 10
248.6149216670263
 20
241.2543934121153
 30
0.0
  0
LINE
  5
2CA
330
1F
100
AcDbEntity
  8
0
  6
CONTINUOUS
 62
     7
100
AcDbLine
 10
264.6335704938
 20
241.2543934121
 30
0.0
 11
267.714921667
 21
241.2543934121
 31
0.0
  0
SPLINE
  5
2CB
330
1F
100
AcDbEntity
  8
0
  6
CONTINUOUS
 62
     7
100
AcDbSpline
210
0.0
220
0.0
230
1.0
 70
     8
 71
     3
 72
    10
 73
     6
 74
     0
 42
0.00000001
 43
0.00000001
 40
0.0
 40
0.0
 40
0.0
 40
0.0
 40
0.5
 40
0.5
 40
1.0
 40
1.0
 40
1.0
 40
1.0
 10
264.6335704937968
 20
241.2543934121149
 30
0.0
 10
264.5996552070514
 20
241.3513867606866
 30
0.0
 10
264.5588913489938
 20
241.4254010796012
 30
0.0
 10
264.4605004858377
 20
241.5281690749342
 30
0.0
 10
264.4050595752586
 20
241.5543934121149
 30
0.0
 10
264.3435117974685
 20
241.5543934121149
 30
0.0
  0
SPLINE
  5
2CC
330
1F
100
AcDbEntity
  8
0
  6
CONTINUOUS
 62
     7
100
AcDbSpline
210
0.0
220
0.0
230
1.0
 70
     8
 71
     3
 72
    14
 73
    10
 74
     0
 42
0.00000001
 43
0.00000001
 40
0.0
 40
0.0
 40
0.0
 40
0.0
 40
0.25
 40
0.25
 40
0.5
 40
0.5
 40
0.75
 40
0.75
 40
1.0
 40
1.0
 40
1.0
 40
1.0
 10
267.7149216670261
 20
241.2543934121149
 30
0.0
 10
267.8262247401564
 20
241.2543934121149
 30
0.0
 10
267.9421692473377
 20
241.2394947062975
 30
0.0
 10
268.1850408589385
 20
241.1657414609396
 30
0.0
 10
268.3127265288197
 20
241.1055564622769
 30
0.0
 10
268.5521931314335
 20
240.9269132718883
 30
0.0
 10
268.6580392220223
 20
240.8099261921827
 30
0.0
 10
268.8087370593842
 20
240.5680746281813
 30
0.0
 10
268.853405329448
 20
240.4450651476257
 30
0.0
 10
268.8768166708884
 20
240.3543934121149
 30
0.0
  0
SPLINE
  5
2CD
330
1F
100
AcDbEntity
  8
0
  6
CONTINUOUS
 62
     7
100
AcDbSpline
210
0.0
220
0.0
230
1.0
 70
     8
 71
     3
 72
     8
 73
     4
 74
     0
 42
0.00000001
 43
0.00000001
 40
0.0
 40
0.0
 40
0.0
 40
0.0
 40
1.0
 40
1.0
 40
1.0
 40
1.0
 10
268.8768166708884
 20
240.3543934121149
 30
0.0
 10
268.9022601840391
 20
240.2558511094131
 30
0.0
 10
268.9149216670261
 20
240.1551179089796
 30
0.0
 10
268.9149216670261
 20
240.0543934121149
 30
0.0
  0
SPLINE
  5
2CE
330
1F
100
AcDbEntity
  8
0
  6
CONTINUOUS
 62
     7
100
AcDbSpline
210
0.0
220
0.0
230
1.0
 70
     8
 71
     3
 72
     8
 73
     4
 74
     0
 42
0.00000001
 43
0.00000001
 40
0.0
 40
0.0
 40
0.0
 40
0.0
 40
1.0
 40
1.0
 40
1.0
 40
1.0
 10
247.4530266631639
 20
240.3543934121149
 30
0.0
 10
247.4275831500132
 20
240.2558511094131
 30
0.0
 10
247.4149216670261
 20
240.1551179089796
 30
0.0
 10
247.4149216670261
 20
240.0543934121149
 30
0.0
  0
LINE
  5
2CF
330
1F
100
AcDbEntity
  8
0
  6
CONTINUOUS
 62
     7
100
AcDbLine
 10
251.6962728403
 20
241.2543934121
 30
0.0
 11
264.6335704938
 21
241.2543934121
 31
0.0
  0
LINE
  5
2D0
330
1F
100
AcDbEntity
  8
0
  6
CONTINUOUS
 62
     8
100
AcDbLine
 10
247.414921667
 20
240.3543934121
 30
0.0
 11
247.4530266632
 21
240.3543934121
 31
0.0
  0
LINE
  5
2D1
330
1F
100
AcDbEntity
  8
0
  6
CONTINUOUS
 62
     8
100
AcDbLine
 10
268.8768166709
 20
240.3543934121
 30
0.0
 11
268.914921667
 21
240.3543934121
 31
0.0
  0
DIMENSION
  5
2D2
330
1F
100
AcDbEntity
  8
0
  6
CONTINUOUS
 62
     7
100
AcDbDimension
  2
_D_11
 10
296.164921667
 20
249.2543934121
 30
0.0
 11
296.164921667
 21
236.8089057836
 31
0.0
 70
   160
  1
<>
  3
SLDDIMSTYLE1
100
AcDbAlignedDimension
 13
273.164921667
 23
223.2543934121
 33
0.0
 14
273.764921667
 24
249.2543934121
 34
0.0
 50
90.0
100
AcDbRotatedDimension
  0
DIMENSION
  5
2DC
330
1F
100
AcDbEntity
  8
0
  6
CONTINUOUS
 62
     7
100
AcDbDimension
  2
_D_12
 10
305.7051569302
 20
252.2543934121
 30
0.0
 11
305.7051569302
 21
238.7379391557
 31
0.0
 70
   160
  1
<>
  3
SLDDIMSTYLE1
100
AcDbAlignedDimension
 13
273.164921667
 23
223.2543934121
 33
0.0
 14
265.764921667
 24
252.2543934121
 34
0.0
 50
90.0
100
AcDbRotatedDimension
  0
DIMENSION
  5
2E6
330
1F
100
AcDbEntity
  8
0
  6
CONTINUOUS
 62
     7
100
AcDbDimension
  2
_D_13
 10
290.164921667
 20
249.2543934121
 30
0.0
 11
290.164921667
 21
258.0380924047
 31
0.0
 70
   160
  1
<>
  3
SLDDIMSTYLE4
100
AcDbAlignedDimension
 13
274.164921667
 23
248.7543934121
 33
0.0
 14
273.764921667
 24
249.2543934121
 34
0.0
 50
90.0
100
AcDbRotatedDimension
  0
LINE
  5
2F3
330
1F
100
AcDbEntity
  8
0
  6
CENTER
 62
     7
100
AcDbLine
 10
283.2904593419
 20
236.9152316026
 30
0.0
 11
233.268536033
 21
236.9152316026
 31
0.0
  0
LINE
  5
2F4
330
1F
100
AcDbEntity
  8
0
  6
CONTINUOUS
 62
     7
100
AcDbLine
 10
281.2904593419
 20
228.9152316026
 30
0.0
 11
281.2904593419
 21
236.9152316026
 31
0.0
  0
INSERT
  5
2F5
330
1F
100
AcDbEntity
  8
0
  6
CONTINUOUS
 62
     7
100
AcDbBlockReference
  2
_OPEN30
 10
281.2904593419
 20
236.9152316026
 30
0.0
 41
3.0
 42
3.0
 50
90.0
  0
LINE
  5
2F6
330
1F
100
AcDbEntity
  8
0
  6
CONTINUOUS
 62
     7
100
AcDbLine
 10
235.268536033
 20
228.9152316026
 30
0.0
 11
235.268536033
 21
236.9152316026
 31
0.0
  0
INSERT
  5
2F7
330
1F
100
AcDbEntity
  8
0
  6
CONTINUOUS
 62
     7
100
AcDbBlockReference
  2
_OPEN30
 10
235.268536033
 20
236.9152316026
 30
0.0
 41
3.0
 42
3.0
 50
90.0
  0
MTEXT
  5
2F8
330
1F
100
AcDbEntity
  8
0
  6
CONTINUOUS
 62
     7
100
AcDbMText
 10
282.7285291291
 20
234.5586528792
 30
0.0
 40
4.8506944444
 41
0.0
 71
     1
 72
     1
  1
B
  7
SLDTEXTSTYLE0
  0
MTEXT
  5
2F9
330
1F
100
AcDbEntity
  8
0
  6
CONTINUOUS
 62
     7
100
AcDbMText
 10
230.2352917776
 20
234.5586528792
 30
0.0
 40
4.8506944444
 41
0.0
 71
     1
 72
     1
  1
B
  7
SLDTEXTSTYLE0
  0
CIRCLE
  5
2FA
330
1F
100
AcDbEntity
  8
0
  6
CONTINUOUS
 62
     7
100
AcDbCircle
 10
258.1431336928
 20
232.4082898195
 30
0.0
 40
14.55086472151282
  0
LEADER
  5
2FF
330
1F
100
AcDbEntity
  8
0
  6
CONTINUOUS
 62
     7
100
AcDbLeader
  3
SLDDIMSTYLE5
 71
     0
 76
     3
 10
246.2200807905
 20
224.0675180547
 30
0.0
 10
221.6170122015
 20
203.8814425532
 30
0.0
 10
217.3642802866
 20
203.8814425532
 30
0.0
1001
ACAD
1000
DSTYLE
1002
{
1070
     6
1000
NONE
1002
}
  0
MTEXT
  5
300
330
1F
100
AcDbEntity
  8
0
  6
CONTINUOUS
 62
     7
100
AcDbMText
 10
217.3642802866
 20
209.5248638298
 30
0.0
 40
5.6444444444
 41
0.0
 71
     1
 72
     1
  1
C
  7
SLDTEXTSTYLE0
  0
CIRCLE
  5
301
330
1F
100
AcDbEntity
  8
0
  6
CONTINUOUS
 62
     7
100
AcDbCircle
 10
267.7894471087
 20
250.2607495535
 30
0.0
 40
4.611697910792884
  0
LEADER
  5
302
330
1F
100
AcDbEntity
  8
0
  6
CONTINUOUS
 62
     7
100
AcDbLeader
  3
SLDDIMSTYLE5
 71
     0
 76
     3
 10
271.7886126216
 20
252.5573628909
 30
0.0
 10
291.5644143291
 20
266.3028382979
 30
0.0
 10
295.7240441164
 20
266.3028382979
 30
0.0
1001
ACAD
1000
DSTYLE
1002
{
1070
     6
1000
NONE
1002
}
  0
MTEXT
  5
303
330
1F
100
AcDbEntity
  8
0
  6
CONTINUOUS
 62
     7
100
AcDbMText
 10
292.0644143291
 20
271.9462595745
 30
0.0
 40
5.6444444444
 41
0.0
 71
     1
 72
     1
  1
D
  7
SLDTEXTSTYLE0
  0
LINE
  5
304
330
1F
100
AcDbEntity
  8
0
  6
CENTERX2
 62
     7
100
AcDbLine
 10
258.164921667
 20
218.6543934121
 30
0.0
 11
258.164921667
 21
254.8574474815
 31
0.0
  0
LINE
  5
305
330
1F
100
AcDbEntity
  8
0
  6
CENTERX2
 62
     7
100
AcDbLine
 10
238.5531596356
 20
236.9043934121
 30
0.0
 11
278.6581271106
 21
236.9043934121
 31
0.0
  0
LINE
  5
306
330
1F
100
AcDbEntity
  8
0
  6
CONTINUOUS
 62
     7
100
AcDbLine
 10
355.2345144789
 20
165.7474705165
 30
0.0
 11
355.2345144789
 21
107.7474705165
 31
0.0
  0
LINE
  5
307
330
1F
100
AcDbEntity
  8
0
  6
CONTINUOUS
 62
     7
100
AcDbLine
 10
355.2345144789
 20
107.7474705165
 30
0.0
 11
354.2345144789
 21
106.7474705165
 31
0.0
  0
LINE
  5
308
330
1F
100
AcDbEntity
  8
0
  6
CONTINUOUS
 62
     7
100
AcDbLine
 10
349.9845144789
 20
166.7474705165
 30
0.0
 11
354.2345144789
 21
166.7474705165
 31
0.0
  0
LINE
  5
309
330
1F
100
AcDbEntity
  8
0
  6
CONTINUOUS
 62
     7
100
AcDbLine
 10
354.2345144789
 20
166.7474705165
 30
0.0
 11
355.2345144789
 21
165.7474705165
 31
0.0
  0
LINE
  5
30A
330
1F
100
AcDbEntity
  8
0
  6
CONTINUOUS
 62
     7
100
AcDbLine
 10
349.9845144789
 20
106.7474705165
 30
0.0
 11
349.9845144789
 21
166.7474705165
 31
0.0
  0
LINE
  5
30B
330
1F
100
AcDbEntity
  8
0
  6
CONTINUOUS
 62
     7
100
AcDbLine
 10
349.9845144789
 20
106.7474705165
 30
0.0
 11
354.2345144789
 21
106.7474705165
 31
0.0
  0
LINE
  5
30C
330
1F
100
AcDbEntity
  8
0
  6
CONTINUOUS
 62
     7
100
AcDbLine
 10
324.2345144789
 20
166.7474705165
 30
0.0
 11
328.4845144789
 21
166.7474705165
 31
0.0
  0
LINE
  5
30D
330
1F
100
AcDbEntity
  8
0
  6
CONTINUOUS
 62
     7
100
AcDbLine
 10
328.4845144789
 20
166.7474705165
 30
0.0
 11
328.4845144789
 21
106.7474705165
 31
0.0
  0
LINE
  5
30E
330
1F
100
AcDbEntity
  8
0
  6
CONTINUOUS
 62
     7
100
AcDbLine
 10
324.2345144789
 20
106.7474705165
 30
0.0
 11
323.2345144789
 21
107.7474705165
 31
0.0
  0
LINE
  5
30F
330
1F
100
AcDbEntity
  8
0
  6
CONTINUOUS
 62
     7
100
AcDbLine
 10
323.2345144789
 20
107.7474705165
 30
0.0
 11
323.2345144789
 21
165.7474705165
 31
0.0
  0
LINE
  5
310
330
1F
100
AcDbEntity
  8
0
  6
CONTINUOUS
 62
     7
100
AcDbLine
 10
323.2345144789
 20
165.7474705165
 30
0.0
 11
324.2345144789
 21
166.7474705165
 31
0.0
  0
LINE
  5
311
330
1F
100
AcDbEntity
  8
0
  6
CONTINUOUS
 62
     7
100
AcDbLine
 10
324.2345144789
 20
106.7474705165
 30
0.0
 11
328.4845144789
 21
106.7474705165
 31
0.0
  0
SPLINE
  5
312
330
1F
100
AcDbEntity
  8
0
  6
CONTINUOUS
 62
     7
100
AcDbSpline
210
0.0
220
0.0
230
1.0
 70
     8
 71
     3
 72
     8
 73
     4
 74
     0
 42
0.00000001
 43
0.00000001
 40
0.0
 40
0.0
 40
0.0
 40
0.0
 40
1.0
 40
1.0
 40
1.0
 40
1.0
 10
349.9464094827923
 20
135.8431445651802
 30
0.0
 10
349.971852995943
 20
136.1445273144002
 30
0.0
 10
349.98451447893
 20
136.4459963091945
 30
0.0
 10
349.98451447893
 20
136.7474705165006
 30
0.0
  0
SPLINE
  5
313
330
1F
100
AcDbEntity
  8
0
  6
CONTINUOUS
 62
     7
100
AcDbSpline
210
0.0
220
0.0
230
1.0
 70
     8
 71
     3
 72
    14
 73
    10
 74
     0
 42
0.00000001
 43
0.00000001
 40
0.0
 40
0.0
 40
0.0
 40
0.0
 40
0.25
 40
0.25
 40
0.5
 40
0.5
 40
0.75
 40
0.75
 40
1.0
 40
1.0
 40
1.0
 40
1.0
 10
348.7845144789301
 20
132.7737877143132
 30
0.0
 10
348.8958175520604
 20
133.0412837378531
 30
0.0
 10
349.0117620592416
 20
133.304285432054
 30
0.0
 10
349.2546336708423
 20
133.8182891080846
 30
0.0
 10
349.3823193407236
 20
134.0687298335466
 30
0.0
 10
349.6217859433374
 20
134.5678612841643
 30
0.0
 10
349.7276320339262
 20
134.8104196414991
 30
0.0
 10
349.8783298712882
 20
135.3087267978227
 30
0.0
 10
349.9229981413519
 20
135.5658332361817
 30
0.0
 10
349.9464094827923
 20
135.8431445651802
 30
0.0
  0
LINE
  5
314
330
1F
100
AcDbEntity
  8
0
  6
CONTINUOUS
 62
     7
100
AcDbLine
 10
349.9845144789
 20
106.7474705165
 30
0.0
 11
348.7845144789
 21
106.7474705165
 31
0.0
  0
ARC
  5
315
330
1F
100
AcDbEntity
  8
0
  6
CONTINUOUS
 62
     7
100
AcDbCircle
 10
339.2345144789
 20
136.7474705165
 30
0.0
 40
10.3437253933194
100
AcDbArc
 50
308.7093019053
 51
337.4081745526
  0
SPLINE
  5
316
330
1F
100
AcDbEntity
  8
0
  6
CONTINUOUS
 62
     7
100
AcDbSpline
210
0.0
220
0.0
230
1.0
 70
     8
 71
     3
 72
    10
 73
     6
 74
     0
 42
0.00000001
 43
0.00000001
 40
0.0
 40
0.0
 40
0.0
 40
0.0
 40
0.5
 40
0.5
 40
1.0
 40
1.0
 40
1.0
 40
1.0
 10
345.7031633057007
 20
128.6759627658806
 30
0.0
 10
345.6692480189554
 20
128.7897231815035
 30
0.0
 10
345.6284841608977
 20
128.9155186007651
 30
0.0
 10
345.5300932977416
 20
129.186521177257
 30
0.0
 10
345.4746523871626
 20
129.3255593713922
 30
0.0
 10
345.4131046093724
 20
129.4654705165007
 30
0.0
  0
SPLINE
  5
317
330
1F
100
AcDbEntity
  8
0
  6
CONTINUOUS
 62
     7
100
AcDbSpline
210
0.0
220
0.0
230
1.0
 70
     8
 71
     3
 72
    14
 73
    10
 74
     0
 42
0.00000001
 43
0.00000001
 40
0.0
 40
0.0
 40
0.0
 40
0.0
 40
0.25
 40
0.25
 40
0.5
 40
0.5
 40
0.75
 40
0.75
 40
1.0
 40
1.0
 40
1.0
 40
1.0
 10
328.5226194750678
 20
135.8431445651802
 30
0.0
 10
328.5458690652113
 20
135.5677492078575
 30
0.0
 10
328.5900695679923
 20
135.311300718087
 30
0.0
 10
328.7409400450831
 20
134.8114416015641
 30
0.0
 10
328.8477351482916
 20
134.5669694886913
 30
0.0
 10
329.0837847470757
 20
134.0746936662573
 30
0.0
 10
329.2117843513306
 20
133.8236924579711
 30
0.0
 10
329.4570508988816
 20
133.304863491459
 30
0.0
 10
329.5733321919901
 20
133.0409934509397
 30
0.0
 10
329.6845144789302
 20
132.7737877143133
 30
0.0
  0
SPLINE
  5
318
330
1F
100
AcDbEntity
  8
0
  6
CONTINUOUS
 62
     7
100
AcDbSpline
210
0.0
220
0.0
230
1.0
 70
     8
 71
     3
 72
     8
 73
     4
 74
     0
 42
0.00000001
 43
0.00000001
 40
0.0
 40
0.0
 40
0.0
 40
0.0
 40
1.0
 40
1.0
 40
1.0
 40
1.0
 10
328.5226194750678
 20
135.8431445651802
 30
0.0
 10
328.4971759619172
 20
136.1445273144002
 30
0.0
 10
328.4845144789301
 20
136.4459963091945
 30
0.0
 10
328.4845144789301
 20
136.7474705165006
 30
0.0
  0
LINE
  5
319
330
1F
100
AcDbEntity
  8
0
  6
CONTINUOUS
 62
     7
100
AcDbLine
 10
329.6845144789
 20
106.7474705165
 30
0.0
 11
328.4845144789
 21
106.7474705165
 31
0.0
  0
SPLINE
  5
31A
330
1F
100
AcDbEntity
  8
0
  6
CONTINUOUS
 62
     7
100
AcDbSpline
210
0.0
220
0.0
230
1.0
 70
     8
 71
     3
 72
     8
 73
     4
 74
     0
 42
0.00000001
 43
0.00000001
 40
0.0
 40
0.0
 40
0.0
 40
0.0
 40
1.0
 40
1.0
 40
1.0
 40
1.0
 10
333.0559243484877
 20
129.4654705165007
 30
0.0
 10
332.9334975560752
 20
129.1871684667209
 30
0.0
 10
332.8336133134598
 20
128.9032054887549
 30
0.0
 10
332.7658656521544
 20
128.6759627658639
 30
0.0
  0
ARC
  5
31B
330
1F
100
AcDbEntity
  8
0
  6
CONTINUOUS
 62
     7
100
AcDbCircle
 10
339.2345144789
 20
136.7474705165
 30
0.0
 40
10.34372539333549
100
AcDbArc
 50
202.5918254474
 51
231.2906980947
  0
LINE
  5
31C
330
1F
100
AcDbEntity
  8
0
  6
CONTINUOUS
 62
     7
100
AcDbLine
 10
349.9845144789
 20
166.7474705165
 30
0.0
 11
348.7845144789
 21
166.7474705165
 31
0.0
  0
LINE
  5
31D
330
1F
100
AcDbEntity
  8
0
  6
CONTINUOUS
 62
     7
100
AcDbLine
 10
329.6845144789
 20
166.7474705165
 30
0.0
 11
328.4845144789
 21
166.7474705165
 31
0.0
  0
ARC
  5
31E
330
1F
100
AcDbEntity
  8
0
  6
CONTINUOUS
 62
     7
100
AcDbCircle
 10
339.2345144789
 20
126.7474705165
 30
0.0
 40
6.750000000000027
100
AcDbArc
 50
163.3991517287
 51
16.6008482714
  0
LINE
  5
31F
330
1F
100
AcDbEntity
  8
0
  6
CONTINUOUS
 62
     7
100
AcDbLine
 10
348.7845144789
 20
106.7474705165
 30
0.0
 11
329.6845144789
 21
106.7474705165
 31
0.0
  0
ARC
  5
320
330
1F
100
AcDbEntity
  8
0
  6
CONTINUOUS
 62
     7
100
AcDbCircle
 10
339.2345144789
 20
126.7474705165
 30
0.0
 40
6.750000000000019
100
AcDbArc
 50
23.7449908822
 51
156.2550091178
  0
LINE
  5
321
330
1F
100
AcDbEntity
  8
0
  6
CONTINUOUS
 62
     7
100
AcDbLine
 10
348.7845144789
 20
166.7474705165
 30
0.0
 11
329.6845144789
 21
166.7474705165
 31
0.0
  0
CIRCLE
  5
322
330
1F
100
AcDbEntity
  8
0
  6
CONTINUOUS
 62
     7
100
AcDbCircle
 10
339.2345144789
 20
126.7474705165
 30
0.0
 40
4.249999999999986
  0
LINE
  5
323
330
1F
100
AcDbEntity
  8
0
  6
CONTINUOUS
 62
     8
100
AcDbLine
 10
348.7845144789
 20
132.7737877143
 30
0.0
 11
348.7845144789
 21
106.7474705165
 31
0.0
  0
ARC
  5
324
330
1F
100
AcDbEntity
  8
0
  6
CONTINUOUS
 62
     8
100
AcDbCircle
 10
339.2345144789
 20
136.7474705165
 30
0.0
 40
9.550000000000011
100
AcDbArc
 50
310.3137500289
 51
0.0
  0
LINE
  5
325
330
1F
100
AcDbEntity
  8
0
  6
CONTINUOUS
 62
     8
100
AcDbLine
 10
349.9845144789
 20
136.7474705165
 30
0.0
 11
348.7845144789
 21
136.7474705165
 31
0.0
  0
LINE
  5
326
330
1F
100
AcDbEntity
  8
0
  6
CONTINUOUS
 62
     8
100
AcDbLine
 10
329.6845144789
 20
132.7737877143
 30
0.0
 11
329.6845144789
 21
106.7474705165
 31
0.0
  0
LINE
  5
327
330
1F
100
AcDbEntity
  8
0
  6
CONTINUOUS
 62
     8
100
AcDbLine
 10
329.6845144789
 20
136.7474705165
 30
0.0
 11
328.4845144789
 21
136.7474705165
 31
0.0
  0
ARC
  5
328
330
1F
100
AcDbEntity
  8
0
  6
CONTINUOUS
 62
     8
100
AcDbCircle
 10
339.2345144789
 20
136.7474705165
 30
0.0
 40
9.550000000000011
100
AcDbArc
 50
180.0
 51
229.6862499711
  0
LINE
  5
329
330
1F
100
AcDbEntity
  8
0
  6
CONTINUOUS
 62
     8
100
AcDbLine
 10
348.7845144789
 20
136.7474705165
 30
0.0
 11
348.7845144789
 21
166.7474705165
 31
0.0
  0
LINE
  5
32A
330
1F
100
AcDbEntity
  8
0
  6
CONTINUOUS
 62
     8
100
AcDbLine
 10
329.6845144789
 20
136.7474705165
 30
0.0
 11
329.6845144789
 21
166.7474705165
 31
0.0
  0
DIMENSION
  5
32B
330
1F
100
AcDbEntity
  8
0
  6
CONTINUOUS
 62
     7
100
AcDbDimension
  2
_D_14
 10
373.7386802335
 20
136.7474705165
 30
0.0
 11
373.7386802335
 21
152.3655174554
 31
0.0
 70
   160
  1
<>
  3
SLDDIMSTYLE1
100
AcDbAlignedDimension
 13
349.9845144789
 23
166.7474705165
 33
0.0
 14
351.5782398722
 24
136.7474705165
 34
0.0
 50
90.0
100
AcDbRotatedDimension
  0
DIMENSION
  5
335
330
1F
100
AcDbEntity
  8
0
  6
CONTINUOUS
 62
     7
100
AcDbDimension
  2
_D_15
 10
339.2345144789
 20
136.7474705165
 30
0.0
 11
360.0816697092
 21
124.711375606
 31
0.0
 70
   164
  1
R
  3
SLDDIMSTYLE6
100
AcDbRadialDimension
 15
348.1924434393
 25
131.5756078198
 35
0.0
 40
0.0
  0
MTEXT
  5
33E
330
1F
100
AcDbEntity
  8
0
  6
CONTINUOUS
 62
     7
100
AcDbMText
 10
338.8513584451
 20
97.7378573497
 30
0.0
 40
4.2333333333
 41
0.0
 71
     2
 72
     1
  1
B-B
  7
SLDTEXTSTYLE0
  0
INSERT
  5
34A
330
1F
100
AcDbEntity
  8
0
  6
CONTINUOUS
 62
     7
100
AcDbBlockReference
  2
SW_CENTERMARKSYMBOL_2
 10
339.2345144789
 20
136.7474705165
 30
0.0
  0
INSERT
  5
356
330
1F
100
AcDbEntity
  8
0
  6
CONTINUOUS
 62
     7
100
AcDbBlockReference
  2
SW_CENTERMARKSYMBOL_3
 10
339.2345144789
 20
126.7474705165
 30
0.0
  0
LINE
  5
357
330
1F
100
AcDbEntity
  8
0
  6
CONTINUOUS
 62
     7
100
AcDbLine
 10
142.3617746398
 20
230.1888273981
 30
0.0
 11
151.4214468837
 21
230.1888273981
 31
0.0
  0
LINE
  5
358
330
1F
100
AcDbEntity
  8
0
  6
CONTINUOUS
 62
     7
100
AcDbLine
 10
142.3617746398
 20
230.1888273981
 30
0.0
 11
142.3617746398
 21
245.3888276544
 31
0.0
  0
LINE
  5
359
330
1F
100
AcDbEntity
  8
0
  6
CONTINUOUS
 62
     7
100
AcDbLine
 10
142.3617746398
 20
245.3888276544
 30
0.0
 11
143.1617742122
 21
246.188828158
 31
0.0
  0
LINE
  5
35A
330
1F
100
AcDbEntity
  8
0
  6
CONTINUOUS
 62
     7
100
AcDbLine
 10
143.1617742122
 20
246.188828158
 30
0.0
 11
146.4617741943
 21
246.188828158
 31
0.0
  0
ARC
  5
35B
330
1F
100
AcDbEntity
  8
0
  6
CONTINUOUS
 62
     7
100
AcDbCircle
 10
146.4617759521
 20
248.5888279112
 30
0.0
 40
2.399999753208052
100
AcDbArc
 50
269.9999580363
 51
359.9999974963
  0
LINE
  5
35C
330
1F
100
AcDbEntity
  8
0
  6
CONTINUOUS
 62
     7
100
AcDbLine
 10
148.8617757053
 20
248.5888278064
 30
0.0
 11
148.8617757053
 21
262.3888281126
 31
0.0
  0
ARC
  5
35D
330
1F
100
AcDbEntity
  8
0
  6
CONTINUOUS
 62
     7
100
AcDbCircle
 10
146.4617759521
 20
262.3888284734
 30
0.0
 40
2.399999753208105
100
AcDbArc
 50
359.9999913869
 51
90.0000419637
  0
LINE
  5
35E
330
1F
100
AcDbEntity
  8
0
  6
CONTINUOUS
 62
     7
100
AcDbLine
 10
146.4617741943
 20
264.7888282266
 30
0.0
 11
108.2617757559
 21
264.7888282266
 31
0.0
  0
ARC
  5
35F
330
1F
100
AcDbEntity
  8
0
  6
CONTINUOUS
 62
     7
100
AcDbCircle
 10
108.2617739982
 20
262.3888284734
 30
0.0
 40
2.399999753208097
100
AcDbArc
 50
89.9999580363
 51
180.0000086131
  0
LINE
  5
360
330
1F
100
AcDbEntity
  8
0
  6
CONTINUOUS
 62
     7
100
AcDbLine
 10
105.8617742449
 20
262.3888281126
 30
0.0
 11
105.8617742449
 21
248.5888278064
 31
0.0
  0
ARC
  5
361
330
1F
100
AcDbEntity
  8
0
  6
CONTINUOUS
 62
     7
100
AcDbCircle
 10
108.2617739982
 20
248.5888279112
 30
0.0
 40
2.39999975320804
100
AcDbArc
 50
180.0000025037
 51
270.0000419637
  0
LINE
  5
362
330
1F
100
AcDbEntity
  8
0
  6
CONTINUOUS
 62
     7
100
AcDbLine
 10
108.2617757559
 20
246.188828158
 30
0.0
 11
111.561775738
 21
246.188828158
 31
0.0
  0
LINE
  5
363
330
1F
100
AcDbEntity
  8
0
  6
CONTINUOUS
 62
     7
100
AcDbLine
 10
111.561775738
 20
246.188828158
 30
0.0
 11
112.3617753104
 21
245.3888276544
 31
0.0
  0
LINE
  5
364
330
1F
100
AcDbEntity
  8
0
  6
CONTINUOUS
 62
     7
100
AcDbLine
 10
112.3617753104
 20
245.3888276544
 30
0.0
 11
112.3617753104
 21
230.1888273981
 31
0.0
  0
LINE
  5
365
330
1F
100
AcDbEntity
  8
0
  6
CONTINUOUS
 62
     7
100
AcDbLine
 10
103.2149517626
 20
230.1888273981
 30
0.0
 11
112.3617753104
 21
230.1888273981
 31
0.0
  0
LINE
  5
366
330
1F
100
AcDbEntity
  8
0
  6
CONTINUOUS
 62
     7
100
AcDbLine
 10
149.9397685469
 20
228.1888289329
 30
0.0
 11
143.1617742122
 21
228.1888289329
 31
0.0
  0
LINE
  5
367
330
1F
100
AcDbEntity
  8
0
  6
CONTINUOUS
 62
     7
100
AcDbLine
 10
142.3617746398
 20
228.9888275739
 30
0.0
 11
143.1617742122
 21
228.1888289329
 31
0.0
  0
LINE
  5
368
330
1F
100
AcDbEntity
  8
0
  6
CONTINUOUS
 62
     7
100
AcDbLine
 10
142.3617746398
 20
228.9888275739
 30
0.0
 11
142.3617746398
 21
230.1888273981
 31
0.0
  0
LINE
  5
369
330
1F
100
AcDbEntity
  8
0
  6
CONTINUOUS
 62
     7
100
AcDbLine
 10
111.561775738
 20
228.1888289329
 30
0.0
 11
112.3617753104
 21
228.9888275739
 31
0.0
  0
LINE
  5
36A
330
1F
100
AcDbEntity
  8
0
  6
CONTINUOUS
 62
     7
100
AcDbLine
 10
111.561775738
 20
228.1888289329
 30
0.0
 11
104.6966300995
 21
228.1888289329
 31
0.0
  0
LINE
  5
36B
330
1F
100
AcDbEntity
  8
0
  6
CONTINUOUS
 62
     7
100
AcDbLine
 10
112.3617753104
 20
230.1888273981
 30
0.0
 11
112.3617753104
 21
228.9888275739
 31
0.0
  0
SPLINE
  5
36C
330
1F
100
AcDbEntity
  8
0
  6
CONTINUOUS
 62
     7
100
AcDbSpline
210
0.0
220
0.0
230
1.0
 70
     8
 71
     3
 72
    10
 73
     6
 74
     0
 42
0.00000001
 43
0.00000001
 40
0.0
 40
0.0
 40
0.0
 40
0.0
 40
0.316634345547843
 40
0.8220970965583715
 40
1.0
 40
1.0
 40
1.0
 40
1.0
 10
115.0045949683016
 20
264.788828226564
 30
0.0
 10
114.9113014448472
 20
264.7667074884433
 30
0.0
 10
114.6690777700059
 20
264.7092740645634
 30
0.0
 10
114.5133293245768
 20
264.4229060969374
 30
0.0
 10
114.4428302057559
 20
264.2371792228572
 30
0.0
 10
114.4244769305414
 20
264.1888283144808
 30
0.0
  0
LINE
  5
36D
330
1F
100
AcDbEntity
  8
0
  6
CONTINUOUS
 62
     7
100
AcDbLine
 10
108.2617757559
 20
264.1888283145
 30
0.0
 11
114.4244769305
 21
264.1888283145
 31
0.0
  0
SPLINE
  5
36E
330
1F
100
AcDbEntity
  8
0
  6
CONTINUOUS
 62
     7
100
AcDbSpline
210
0.0
220
0.0
230
1.0
 70
     8
 71
     3
 72
    12
 73
     8
 74
     0
 42
0.00000001
 43
0.00000001
 40
0.0
 40
0.0
 40
0.0
 40
0.0
 40
0.1453339861901213
 40
0.3313821910585618
 40
0.5501912803935539
 40
0.7567586802817535
 40
1.0
 40
1.0
 40
1.0
 40
1.0
 10
105.9379843712276
 20
262.3888281125701
 30
0.0
 10
105.9845784597203
 20
262.5347657819878
 30
0.0
 10
106.0908196187214
 20
262.8675244567988
 30
0.0
 10
106.4109178180529
 20
263.3594814811195
 30
0.0
 10
106.8912902327938
 20
263.7954357399099
 30
0.0
 10
107.5300605713876
 20
264.1210074649023
 30
0.0
 10
108.0049640438611
 20
264.1650250794764
 30
0.0
 10
108.2617757559246
 20
264.1888283144808
 30
0.0
  0
LINE
  5
36F
330
1F
100
AcDbEntity
  8
0
  6
CONTINUOUS
 62
     7
100
AcDbLine
 10
140.2990730197
 20
264.1888283145
 30
0.0
 11
146.4617741943
 21
264.1888283145
 31
0.0
  0
SPLINE
  5
370
330
1F
100
AcDbEntity
  8
0
  6
CONTINUOUS
 62
     7
100
AcDbSpline
210
0.0
220
0.0
230
1.0
 70
     8
 71
     3
 72
    10
 73
     6
 74
     0
 42
0.00000001
 43
0.00000001
 40
0.0
 40
0.0
 40
0.0
 40
0.0
 40
0.5683416334054388
 40
0.9789792678634094
 40
1.0
 40
1.0
 40
1.0
 40
1.0
 10
140.2990730196661
 20
264.1888283144808
 30
0.0
 10
140.2382167687521
 20
264.346242586659
 30
0.0
 10
140.1333907196596
 20
264.6173916629722
 30
0.0
 10
139.8513745716532
 20
264.7871468937941
 30
0.0
 10
139.7251040546894
 20
264.7887501517293
 30
0.0
 10
139.7189549819058
 20
264.788828226564
 30
0.0
  0
SPLINE
  5
371
330
1F
100
AcDbEntity
  8
0
  6
CONTINUOUS
 62
     7
100
AcDbSpline
210
0.0
220
0.0
230
1.0
 70
     8
 71
     3
 72
    11
 73
     7
 74
     0
 42
0.00000001
 43
0.00000001
 40
0.0
 40
0.0
 40
0.0
 40
0.0
 40
0.2242404719864231
 40
0.4941283430059549
 40
0.7684762914610629
 40
1.0
 40
1.0
 40
1.0
 40
1.0
 10
146.4617741942829
 20
264.1888283144808
 30
0.0
 10
146.6981192976023
 20
264.1683823898722
 30
0.0
 10
147.2189209764709
 20
264.1233284762829
 30
0.0
 10
147.9486833784403
 20
263.7320750989275
 30
0.0
 10
148.5240273322089
 20
263.124178642381
 30
0.0
 10
148.7034491084303
 20
262.6197097938169
 30
0.0
 10
148.7855655789799
 20
262.3888281125701
 30
0.0
  0
SPLINE
  5
372
330
1F
100
AcDbEntity
  8
0
  6
CONTINUOUS
 62
     7
100
AcDbSpline
210
0.0
220
0.0
230
1.0
 70
     8
 71
     3
 72
     9
 73
     5
 74
     0
 42
0.00000001
 43
0.00000001
 40
0.0
 40
0.0
 40
0.0
 40
0.0
 40
0.9782742358347953
 40
1.0
 40
1.0
 40
1.0
 40
1.0
 10
148.7855655789799
 20
262.3888281125701
 30
0.0
 10
148.8231026981296
 20
262.1940111966943
 30
0.0
 10
148.8614734512116
 20
261.9948677369777
 30
0.0
 10
148.8617692781934
 20
261.7932093823417
 30
0.0
 10
148.8617757052606
 20
261.7888282004869
 30
0.0
  0
SPLINE
  5
373
330
1F
100
AcDbEntity
  8
0
  6
CONTINUOUS
 62
     7
100
AcDbSpline
210
0.0
220
0.0
230
1.0
 70
     8
 71
     3
 72
     9
 73
     5
 74
     0
 42
0.00000001
 43
0.00000001
 40
0.0
 40
0.0
 40
0.0
 40
0.0
 40
0.0217257641652046
 40
1.0
 40
1.0
 40
1.0
 40
1.0
 10
105.8617742449468
 20
261.7888282004869
 30
0.0
 10
105.8617806720141
 20
261.7932093823417
 30
0.0
 10
105.8620764989959
 20
261.9948677369776
 30
0.0
 10
105.9004472520779
 20
262.1940111966943
 30
0.0
 10
105.9379843712276
 20
262.3888281125701
 30
0.0
  0
LINE
  5
374
330
1F
100
AcDbEntity
  8
0
  6
CONTINUOUS
 62
     7
100
AcDbLine
 10
114.4244769305
 20
264.1888283145
 30
0.0
 11
140.2990730197
 21
264.1888283145
 31
0.0
  0
LINE
  5
375
330
1F
100
AcDbEntity
  8
0
  6
CONTINUOUS
 62
     8
100
AcDbLine
 10
105.8617742449
 20
262.3888281126
 30
0.0
 11
105.9379843712
 21
262.3888281126
 31
0.0
  0
LINE
  5
376
330
1F
100
AcDbEntity
  8
0
  6
CONTINUOUS
 62
     8
100
AcDbLine
 10
148.785565579
 20
262.3888281126
 30
0.0
 11
148.8617757053
 21
262.3888281126
 31
0.0
  0
DIMENSION
  5
377
330
1F
100
AcDbEntity
  8
0
  6
CONTINUOUS
 62
     7
100
AcDbDimension
  2
_D_16
 10
177.2100208373
 20
246.1888280984
 30
0.0
 11
177.2100208373
 21
236.977560495
 31
0.0
 70
   160
  1
<>
  3
SLDDIMSTYLE7
100
AcDbAlignedDimension
 13
149.9397685469
 23
228.1888280984
 33
0.0
 14
146.4617749751
 24
246.1888280984
 34
0.0
 50
90.0
100
AcDbRotatedDimension
  0
DIMENSION
  5
386
330
1F
100
AcDbEntity
  8
0
  6
CONTINUOUS
 62
     7
100
AcDbDimension
  2
_D_17
 10
177.2100208373
 20
264.1888280984
 30
0.0
 11
177.2100208373
 21
255.0657356054
 31
0.0
 70
   160
  1
<>
  3
SLDDIMSTYLE7
100
AcDbAlignedDimension
 13
146.4617749751
 23
246.1888280984
 33
0.0
 14
146.4617749751
 24
264.1888280984
 34
0.0
 50
90.0
100
AcDbRotatedDimension
  0
DIMENSION
  5
394
330
1F
100
AcDbEntity
  8
0
  6
CONTINUOUS
 62
     7
100
AcDbDimension
  2
_D_18
 10
177.2100208373
 20
264.7888280984
 30
0.0
 11
177.2100208373
 21
273.4335993409
 31
0.0
 70
   160
  1
<>
  3
SLDDIMSTYLE8
100
AcDbAlignedDimension
 13
146.4617749751
 23
264.1888280984
 33
0.0
 14
146.4617749751
 24
264.7888280984
 34
0.0
 50
90.0
100
AcDbRotatedDimension
  0
DIMENSION
  5
3A1
330
1F
100
AcDbEntity
  8
0
  6
CONTINUOUS
 62
     7
100
AcDbDimension
  2
_D_19
 10
142.3617749751
 20
215.951667186
 30
0.0
 11
126.572406016
 21
215.951667186
 31
0.0
 70
   160
  1
<>
  3
SLDDIMSTYLE9
100
AcDbAlignedDimension
 13
112.3617749751
 23
228.9888280984
 33
0.0
 14
142.3617749751
 24
228.9888280984
 34
0.0
100
AcDbRotatedDimension
  0
DIMENSION
  5
3B1
330
1F
100
AcDbEntity
  8
0
  6
CONTINUOUS
 62
     7
100
AcDbDimension
  2
_D_20
 10
148.8617749751
 20
206.1888280984
 30
0.0
 11
126.572406016
 21
206.1888280984
 31
0.0
 70
   160
  1
<>
  3
SLDDIMSTYLE10
100
AcDbAlignedDimension
 13
105.8617749751
 23
248.5888280984
 33
0.0
 14
148.8617749751
 24
248.5888280984
 34
0.0
100
AcDbRotatedDimension
  0
MTEXT
  5
3C2
330
1F
100
AcDbEntity
  8
0
  6
CONTINUOUS
 62
     7
100
AcDbMText
 10
166.1524710182
 20
210.7521099878
 30
0.0
 40
4.2333333333
 41
0.0
 71
     2
 72
     1
  1
C  (2 : 1)
  7
SLDTEXTSTYLE1
  0
LINE
  5
3C3
330
1F
100
AcDbEntity
  8
0
  6
CENTERX2
 62
     7
100
AcDbLine
 10
127.3617749751
 20
223.988828617
 30
0.0
 11
127.3617749751
 21
275.5983168211
 31
0.0
  0
LINE
  5
3C4
330
1F
100
AcDbEntity
  8
0
  6
CONTINUOUS
 62
     7
100
AcDbLine
 10
361.2605097268
 20
227.6413666523
 30
0.0
 11
322.5488366123
 21
227.6413666523
 31
0.0
  0
LINE
  5
3C5
330
1F
100
AcDbEntity
  8
0
  6
CONTINUOUS
 62
     7
100
AcDbLine
 10
320.11095309
 20
232.6413674719
 30
0.0
 11
363.6983909208
 21
232.6413674719
 31
0.0
  0
LINE
  5
3C6
330
1F
100
AcDbEntity
  8
0
  6
CONTINUOUS
 62
     7
100
AcDbLine
 10
321.1121597823
 20
250.1413656837
 30
0.0
 11
331.7820454512
 21
250.1413656837
 31
0.0
  0
LINE
  5
3C7
330
1F
100
AcDbEntity
  8
0
  6
CONTINUOUS
 62
     7
100
AcDbLine
 10
333.7820467103
 20
248.1413690812
 30
0.0
 11
331.7820454512
 21
250.1413656837
 31
0.0
  0
LINE
  5
3C8
330
1F
100
AcDbEntity
  8
0
  6
CONTINUOUS
 62
     7
100
AcDbLine
 10
333.7820467103
 20
248.1413690812
 30
0.0
 11
333.7820467103
 21
234.1413695804
 31
0.0
  0
LINE
  5
3C9
330
1F
100
AcDbEntity
  8
0
  6
CONTINUOUS
 62
     7
100
AcDbLine
 10
333.7820467103
 20
234.1413695804
 30
0.0
 11
348.7820445124
 21
234.1413695804
 31
0.0
  0
LINE
  5
3CA
330
1F
100
AcDbEntity
  8
0
  6
CONTINUOUS
 62
     7
100
AcDbLine
 10
348.7820445124
 20
234.1413695804
 30
0.0
 11
348.7820445124
 21
235.1413678816
 31
0.0
  0
LINE
  5
3CB
330
1F
100
AcDbEntity
  8
0
  6
CONTINUOUS
 62
     7
100
AcDbLine
 10
348.7820445124
 20
235.1413678816
 30
0.0
 11
364.407453363
 21
235.1413678816
 31
0.0
  0
DIMENSION
  5
3CC
330
1F
100
AcDbEntity
  8
0
  6
CONTINUOUS
 62
     7
100
AcDbDimension
  2
_D_21
 10
348.7820448104
 20
263.7162868455
 30
0.0
 11
341.626817736
 21
263.7162868455
 31
0.0
 70
   160
  1
<>
  3
SLDDIMSTYLE11
100
AcDbAlignedDimension
 13
333.7820448104
 23
248.1413677699
 33
0.0
 14
348.7820448104
 24
235.1413677699
 34
0.0
100
AcDbRotatedDimension
  0
DIMENSION
  5
3D7
330
1F
100
AcDbEntity
  8
0
  6
CONTINUOUS
 62
     7
100
AcDbDimension
  2
_D_22
 10
378.4648867848
 20
234.1413677699
 30
0.0
 11
378.4648867848
 21
248.8318107727
 31
0.0
 70
   160
  1
<>
  3
SLDDIMSTYLE12
100
AcDbAlignedDimension
 13
364.407453363
 23
235.1413677699
 33
0.0
 14
348.7820448104
 24
234.1413677699
 34
0.0
 50
90.0
100
AcDbRotatedDimension
  0
DIMENSION
  5
3E4
330
1F
100
AcDbEntity
  8
0
  6
CONTINUOUS
 62
     7
100
AcDbDimension
  2
_D_23
 10
389.7820448104
 20
232.6413677699
 30
0.0
 11
389.7820448104
 21
248.8318107727
 31
0.0
 70
   160
  1
(<>)
  3
SLDDIMSTYLE12
100
AcDbAlignedDimension
 13
364.407453363
 23
235.1413677699
 33
0.0
 14
363.6983909208
 24
232.6413677699
 34
0.0
 50
90.0
100
AcDbRotatedDimension
  0
MTEXT
  5
3F2
330
1F
100
AcDbEntity
  8
0
  6
CONTINUOUS
 62
     7
100
AcDbMText
 10
352.6880760118
 20
219.2928986891
 30
0.0
 40
4.2333333333
 41
0.0
 71
     2
 72
     1
  1
D  (5 : 1)
  7
SLDTEXTSTYLE1
  0
ENDSEC
  0
SECTION
  2
OBJECTS
  0
DICTIONARY
  5
C
330
0
100
AcDbDictionary
  3
ACAD_GROUP
350
D
  3
ACAD_MLINESTYLE
350
17
  3
ACAD_SCALELIST
350
47
  3
DWGPROPS
350
3F3
1001
ACAD
1000
TREAT_AS_HARD
1070
     0
  0
DICTIONARY
  5
D
102
{ACAD_REACTORS
330
C
102
}
330
C
100
AcDbDictionary
1001
ACAD
1000
TREAT_AS_HARD
1070
     0
  0
DICTIONARY
  5
17
102
{ACAD_REACTORS
330
C
102
}
330
C
100
AcDbDictionary
  3
STANDARD
350
18
1001
ACAD
1000
TREAT_AS_HARD
1070
     0
  0
DICTIONARY
  5
47
102
{ACAD_REACTORS
330
C
102
}
330
C
100
AcDbDictionary
1001
ACAD
1000
TREAT_AS_HARD
1070
     0
  0
XRECORD
  5
3F3
102
{ACAD_REACTORS
330
C
102
}
330
C
100
AcDbXrecord
  1
DWGPROPS COOKIE
  2

  3

  4

  6

  7

  8
55006
  9

300
=
301
=
302
=
303
=
304
=
305
=
306
=
307
=
308
=
309
=
 40
0.0
 41
2460651.313223762
 42
2460651.313226667
  1

 90
        0
  0
MLINESTYLE
  5
18
102
{ACAD_REACTORS
330
17
102
}
330
17
100
AcDbMlineStyle
  2
Standard
 70
     0
  3

 62
   256
 51
90.0
 52
90.0
 71
     2
 49
0.5
 62
   256
  6
BYLAYER
 49
-0.5
 62
   256
  6
BYLAYER
  0
ENDSEC
  0
EOF
