  0
SECTION
  2
HEADER
  9
$ACADVER
  1
AC1014
  9
$DWGCODEPAGE
  3
ANSI_932
  9
$LTSCALE
 40
20.0
  9
$FILLMODE
 70
     1
  9
$CLAYER
  8
0
  9
$PDMODE
 70
     0
  9
$SPLFRAME
 70
     0
  9
$SPLINETYPE
 70
     6
  9
$SPLINESEGS
 70
     8
  9
$DIMASZ
 40
2.000000
  9
$DIMEXE
 40
2.000000
  9
$DIMEXO
 40
0.800000
  9
$DIMTAD
 70
     1
  9
$DIMTIH
 70
     0
  9
$DIMTOH
 70
     0
  9
$DIMTVP
 40
0.500000
  9
$DIMTXT
 40
3.100000
  9
$EXTMIN
 10
0.000000
 20
0.000000
 30
0.000000
  9
$EXTMAX
 10
420.000000
 20
594.000000
 30
0.000000
  9
$MEASUREMENT
 70
  1
  9
$LIMMIN
 10
0.000000
 20
0.000000
  9
$LIMMAX
 10
420.000000
 20
594.000000
  9
$HANDLING
 70
     1
  9
$HANDSEED
  5
427
  9
$DIMBLK
  1
_OPEN
  9
$DIMDEC
 70
     3
  9
$DIMAUNIT
 70
     1
  9
$DIMZIN
 70
     8
  9
$DIMTOFL
 70
     1
  0
ENDSEC
  0
SECTION
  2
CLASSES
  0
ENDSEC
  0
SECTION
  2
TABLES
  0
TABLE
  2
VPORT
  5
3DE
100
AcDbSymbolTable
 70
     1
  0
VPORT
  5
3DF
100
AcDbSymbolTableRecord
100
AcDbViewportTableRecord
  2
*ACTIVE
 70
     0
 12
297.000000
 22
210.000000
 40
420.000000
 41
1.414286
  0
ENDTAB
  0
TABLE
  2
LTYPE
  5
3E0
100
AcDbSymbolTable
 70
     4
  0
LTYPE
  5
3E1
100
AcDbSymbolTableRecord
100
AcDbLinetypeTableRecord
  2
BYBLOCK
 70
     0
  3

 72
    65
 73
     0
 40
0.0
  0
LTYPE
  5
3E2
100
AcDbSymbolTableRecord
100
AcDbLinetypeTableRecord
  2
BYLAYER
 70
     0
  3

 72
    65
 73
     0
 40
0.0
  0
LTYPE
  5
3E3
100
AcDbSymbolTableRecord
100
AcDbLinetypeTableRecord
  2
CONTINUOUS
 70
     0
  3
Solid line (NEC CAE2D for Win R14.2 : 2021.06.16)
 72
    65
 73
     0
 40
0.0
  0
LTYPE
  5
3E4
100
AcDbSymbolTableRecord
100
AcDbLinetypeTableRecord
  2
HIDDEN
 70
     0
  3
__ __ __ __ __ __ __ __ __ __ __ __ __ __
 72
    65
 73
     2
 40
0.375
 49
0.25
 74
     0
 49
-0.125
 74
     0
  0
LTYPE
  5
3E5
100
AcDbSymbolTableRecord
100
AcDbLinetypeTableRecord
  2
CENTER
 70
     0
  3
____ _ ____ _ ____ _ ____ _ ____ _ ____
 72
    65
 73
     4
 40
2.0
 49
1.25
 74
     0
 49
-0.25
 74
     0
 49
0.25
 74
     0
 49
-0.25
 74
     0
  0
LTYPE
  5
3E6
100
AcDbSymbolTableRecord
100
AcDbLinetypeTableRecord
  2
PHANTOM
 70
     0
  3
______  __  __  ______  __  __  ______ 
 72
    65
 73
     6
 40
2.5
 49
1.25
 74
     0
 49
-0.25
 74
     0
 49
0.25
 74
     0
 49
-0.25
 74
     0
 49
0.25
 74
     0
 49
-0.25
 74
     0
  0
ENDTAB
  0
TABLE
  2
LAYER
  5
3E7
100
AcDbSymbolTable
 70
     8
  0
LAYER
  5
3E8
100
AcDbSymbolTableRecord
100
AcDbLayerTableRecord
  2
0
 70
     0
 62
     7
  6
CONTINUOUS
  0
LAYER
  5
3E9
100
AcDbSymbolTableRecord
100
AcDbLayerTableRecord
  2
MAIN0
 70
     0
 62
     7
  6
CONTINUOUS
  0
LAYER
  5
3EA
100
AcDbSymbolTableRecord
100
AcDbLayerTableRecord
  2
MAIN1
 70
     0
 62
     7
  6
CONTINUOUS
  0
LAYER
  5
3EB
100
AcDbSymbolTableRecord
100
AcDbLayerTableRecord
  2
MAIN2
 70
     0
 62
     7
  6
CONTINUOUS
  0
LAYER
  5
3EC
100
AcDbSymbolTableRecord
100
AcDbLayerTableRecord
  2
MAIN10
 70
     0
 62
     7
  6
CONTINUOUS
  0
LAYER
  5
3ED
100
AcDbSymbolTableRecord
100
AcDbLayerTableRecord
  2
MAIN1023
 70
     0
 62
    16
  6
CONTINUOUS
  0
LAYER
  5
3EE
100
AcDbSymbolTableRecord
100
AcDbLayerTableRecord
  2
WAKU0
 70
     0
 62
     7
  6
CONTINUOUS
  0
LAYER
  5
3EF
100
AcDbSymbolTableRecord
100
AcDbLayerTableRecord
  2
WAKU1023
 70
     0
 62
    16
  6
CONTINUOUS
  0
ENDTAB
  0
TABLE
  2
STYLE
  5
3F0
100
AcDbSymbolTable
 70
     4
  0
STYLE
  5
3F1
100
AcDbSymbolTableRecord
100
AcDbTextStyleTableRecord
  2
STANDARD
 70
    64
 40
0.0
 41
1.0
 50
0.0
 71
     0
 42
3.140094041824341
  3
TXT
  4

  0
STYLE
  5
3F2
100
AcDbSymbolTableRecord
100
AcDbTextStyleTableRecord
  2
ANKTATE
 70
    68
 40
0.0
 41
1.0
 50
0.0
 71
     0
 42
3.140094041824341
  3
TXT
  4

  0
STYLE
  5
3F3
100
AcDbSymbolTableRecord
100
AcDbTextStyleTableRecord
  2
KNJYOKO
 70
    64
 40
0.0
 41
1.0
 50
0.0
 71
     0
 42
3.140094041824341
  3
TXT
  4
BIGFONT
  0
STYLE
  5
3F4
100
AcDbSymbolTableRecord
100
AcDbTextStyleTableRecord
  2
KNJTATE
 70
    68
 40
0.0
 41
1.0
 50
0.0
 71
     0
 42
3.140094041824341
  3
TXT
  4
BIGFONT
  0
ENDTAB
  0
TABLE
  2
VIEW
  5
3F5
100
AcDbSymbolTable
 70
     0
  0
ENDTAB
  0
TABLE
  2
UCS
  5
3F6
100
AcDbSymbolTable
 70
     0
  0
ENDTAB
  0
TABLE
  2
APPID
  5
3F7
100
AcDbSymbolTable
 70
     1
  0
APPID
  5
3F8
100
AcDbSymbolTableRecord
100
AcDbRegAppTableRecord
  2
ACAD
 70
     0
  0
ENDTAB
  0
TABLE
  2
DIMSTYLE
  5
3F9
100
AcDbSymbolTable
 70
     1
  0
DIMSTYLE
105
3FA
100
AcDbSymbolTableRecord
100
AcDbDimStyleTableRecord
  2
STANDARD
 70
     0
 41
2.000000
 44
2.000000
 42
0.800000
145
0.661290
140
3.100000
144
1.000000
146
0.903226
340
3F1
  0
DIMSTYLE
105
3FB
100
AcDbSymbolTableRecord
100
AcDbDimStyleTableRecord
  2
MAIN001
 70
     0
 41
2.000000
 44
2.000000
 42
0.800000
145
0.661290
140
3.100000
144
1.000000
146
0.903226
 77
     1
 73
     0
 74
     0
271
     3
275
     1
 78
     8
172
     1
340
3F1
  0
DIMSTYLE
105
3FC
100
AcDbSymbolTableRecord
100
AcDbDimStyleTableRecord
  2
WAKU002
 70
     0
 41
2.000000
 44
2.000000
 42
0.800000
145
0.661290
140
3.100000
144
1.000000
146
0.903226
 77
     1
 73
     0
 74
     0
271
     3
275
     1
 78
     8
172
     1
340
3F1
  0
ENDTAB
  0
TABLE
  2
BLOCK_RECORD
  5
3FD
100
AcDbSymbolTable
 70
    42
  0
BLOCK_RECORD
  5
3FE
100
AcDbSymbolTableRecord
100
AcDbBlockTableRecord
  2
*MODEL_SPACE
  0
BLOCK_RECORD
  5
3FF
100
AcDbSymbolTableRecord
100
AcDbBlockTableRecord
  2
*PAPER_SPACE
  0
BLOCK_RECORD
  5
1
100
AcDbSymbolTableRecord
100
AcDbBlockTableRecord
  2
_NONE
  0
BLOCK_RECORD
  5
4
100
AcDbSymbolTableRecord
100
AcDbBlockTableRecord
  2
_CLOSED
  0
BLOCK_RECORD
  5
B
100
AcDbSymbolTableRecord
100
AcDbBlockTableRecord
  2
_DOT
  0
BLOCK_RECORD
  5
13
100
AcDbSymbolTableRecord
100
AcDbBlockTableRecord
  2
_OPEN
  0
BLOCK_RECORD
  5
19
100
AcDbSymbolTableRecord
100
AcDbBlockTableRecord
  2
_ORIGIN
  0
BLOCK_RECORD
  5
1E
100
AcDbSymbolTableRecord
100
AcDbBlockTableRecord
  2
_OPEN30
  0
BLOCK_RECORD
  5
24
100
AcDbSymbolTableRecord
100
AcDbBlockTableRecord
  2
_BOXFILLED
  0
BLOCK_RECORD
  5
29
100
AcDbSymbolTableRecord
100
AcDbBlockTableRecord
  2
_BOXBLANK
  0
BLOCK_RECORD
  5
31
100
AcDbSymbolTableRecord
100
AcDbBlockTableRecord
  2
_OBLIQUE
  0
BLOCK_RECORD
  5
35
100
AcDbSymbolTableRecord
100
AcDbBlockTableRecord
  2
_OPEN90
  0
BLOCK_RECORD
  5
3B
100
AcDbSymbolTableRecord
100
AcDbBlockTableRecord
  2
_CLOSEDBLANK
  0
BLOCK_RECORD
  5
41
100
AcDbSymbolTableRecord
100
AcDbBlockTableRecord
  2
_DOTBLANK
  0
BLOCK_RECORD
  5
400
100
AcDbSymbolTableRecord
100
AcDbBlockTableRecord
  2
*D0
  0
BLOCK_RECORD
  5
401
100
AcDbSymbolTableRecord
100
AcDbBlockTableRecord
  2
*D1
  0
BLOCK_RECORD
  5
402
100
AcDbSymbolTableRecord
100
AcDbBlockTableRecord
  2
*D2
  0
BLOCK_RECORD
  5
403
100
AcDbSymbolTableRecord
100
AcDbBlockTableRecord
  2
*D3
  0
BLOCK_RECORD
  5
404
100
AcDbSymbolTableRecord
100
AcDbBlockTableRecord
  2
*D4
  0
BLOCK_RECORD
  5
405
100
AcDbSymbolTableRecord
100
AcDbBlockTableRecord
  2
*D5
  0
BLOCK_RECORD
  5
406
100
AcDbSymbolTableRecord
100
AcDbBlockTableRecord
  2
*D6
  0
BLOCK_RECORD
  5
407
100
AcDbSymbolTableRecord
100
AcDbBlockTableRecord
  2
*D7
  0
BLOCK_RECORD
  5
408
100
AcDbSymbolTableRecord
100
AcDbBlockTableRecord
  2
*D8
  0
BLOCK_RECORD
  5
409
100
AcDbSymbolTableRecord
100
AcDbBlockTableRecord
  2
*D9
  0
BLOCK_RECORD
  5
40A
100
AcDbSymbolTableRecord
100
AcDbBlockTableRecord
  2
*D10
  0
BLOCK_RECORD
  5
40B
100
AcDbSymbolTableRecord
100
AcDbBlockTableRecord
  2
*D11
  0
BLOCK_RECORD
  5
40C
100
AcDbSymbolTableRecord
100
AcDbBlockTableRecord
  2
*D12
  0
BLOCK_RECORD
  5
40D
100
AcDbSymbolTableRecord
100
AcDbBlockTableRecord
  2
*D13
  0
BLOCK_RECORD
  5
40E
100
AcDbSymbolTableRecord
100
AcDbBlockTableRecord
  2
*D14
  0
BLOCK_RECORD
  5
40F
100
AcDbSymbolTableRecord
100
AcDbBlockTableRecord
  2
*D15
  0
BLOCK_RECORD
  5
410
100
AcDbSymbolTableRecord
100
AcDbBlockTableRecord
  2
*D16
  0
BLOCK_RECORD
  5
411
100
AcDbSymbolTableRecord
100
AcDbBlockTableRecord
  2
*D17
  0
BLOCK_RECORD
  5
412
100
AcDbSymbolTableRecord
100
AcDbBlockTableRecord
  2
*D18
  0
BLOCK_RECORD
  5
413
100
AcDbSymbolTableRecord
100
AcDbBlockTableRecord
  2
*D19
  0
BLOCK_RECORD
  5
414
100
AcDbSymbolTableRecord
100
AcDbBlockTableRecord
  2
*D20
  0
BLOCK_RECORD
  5
415
100
AcDbSymbolTableRecord
100
AcDbBlockTableRecord
  2
*D21
  0
BLOCK_RECORD
  5
416
100
AcDbSymbolTableRecord
100
AcDbBlockTableRecord
  2
*D22
  0
BLOCK_RECORD
  5
417
100
AcDbSymbolTableRecord
100
AcDbBlockTableRecord
  2
*D23
  0
BLOCK_RECORD
  5
418
100
AcDbSymbolTableRecord
100
AcDbBlockTableRecord
  2
*D24
  0
BLOCK_RECORD
  5
419
100
AcDbSymbolTableRecord
100
AcDbBlockTableRecord
  2
D25
  0
BLOCK_RECORD
  5
41A
100
AcDbSymbolTableRecord
100
AcDbBlockTableRecord
  2
*D26
  0
BLOCK_RECORD
  5
41B
100
AcDbSymbolTableRecord
100
AcDbBlockTableRecord
  2
*D27
  0
BLOCK_RECORD
  5
41C
100
AcDbSymbolTableRecord
100
AcDbBlockTableRecord
  2
*D28
  0
BLOCK_RECORD
  5
41D
100
AcDbSymbolTableRecord
100
AcDbBlockTableRecord
  2
M0
  0
ENDTAB
  0
ENDSEC
  0
SECTION
  2
BLOCKS
  0
BLOCK
  5
41E
100
AcDbEntity
  8
0
100
AcDbBlockBegin
  2
*MODEL_SPACE
 70
     0
 10
0.0
 20
0.0
 30
0.0
  3
*MODEL_SPACE
  1

  0
ENDBLK
  5
41F
100
AcDbEntity
  8
0
100
AcDbBlockEnd
  0
BLOCK
  5
420
100
AcDbEntity
  8
0
100
AcDbBlockBegin
  2
*PAPER_SPACE
 70
     0
 10
0.0
 20
0.0
 30
0.0
  3
*PAPER_SPACE
  1

  0
ENDBLK
  5
421
100
AcDbEntity
  8
0
100
AcDbBlockEnd
  0
BLOCK
  5
2
100
AcDbEntity
  8
0
100
AcDbBlockBegin
  2
_NONE
 70
     0
 10
0.0
 20
0.0
 30
0.0
  3
_NONE
  1

  0
ENDBLK
  5
3
100
AcDbEntity
  8
0
100
AcDbBlockEnd
  0
BLOCK
  5
5
100
AcDbEntity
  8
0
100
AcDbBlockBegin
  2
_CLOSED
 70
     0
 10
0.0
 20
0.0
 30
0.0
  3
_CLOSED
  1

  0
LINE
  5
6
100
AcDbEntity
  8
0
  6
BYBLOCK
 62
     0
100
AcDbLine
 10
-1.0
 20
0.166667
 30
0.0
 11
0.0
 21
0.0
 31
0.0
  0
LINE
  5
7
100
AcDbEntity
  8
0
  6
BYBLOCK
 62
     0
100
AcDbLine
 10
0.0
 20
0.0
 30
0.0
 11
-1.0
 21
-0.166667
 31
0.0
  0
LINE
  5
8
100
AcDbEntity
  8
0
  6
BYBLOCK
 62
     0
100
AcDbLine
 10
-1.0
 20
0.166667
 30
0.0
 11
-1.0
 21
-0.166667
 31
0.0
  0
LINE
  5
9
100
AcDbEntity
  8
0
  6
BYBLOCK
 62
     0
100
AcDbLine
 10
0.0
 20
0.0
 30
0.0
 11
-1.0
 21
0.0
 31
0.0
  0
ENDBLK
  5
A
100
AcDbEntity
  8
0
100
AcDbBlockEnd
  0
BLOCK
  5
C
100
AcDbEntity
  8
0
100
AcDbBlockBegin
  2
_DOT
 70
     0
 10
0.0
 20
0.0
 30
0.0
  3
_DOT
  1

  0
POLYLINE
  5
D
100
AcDbEntity
  8
0
  6
BYBLOCK
 62
     0
100
AcDb2dPolyline
 66
     1
 10
0.0
 20
0.0
 30
0.0
 70
     1
 40
0.5
 41
0.5
  0
VERTEX
  5
E
100
AcDbEntity
  8
0
  6
BYBLOCK
 62
     0
100
AcDbVertex
100
AcDb2dVertex
 10
-0.25
 20
0.0
 30
0.0
 42
1.0
  0
VERTEX
  5
F
100
AcDbEntity
  8
0
  6
BYBLOCK
 62
     0
100
AcDbVertex
100
AcDb2dVertex
 10
0.25
 20
0.0
 30
0.0
 42
1.0
  0
SEQEND
  5
10
100
AcDbEntity
  8
0
  6
BYBLOCK
 62
     0
  0
LINE
  5
11
100
AcDbEntity
  8
0
  6
BYBLOCK
 62
     0
100
AcDbLine
 10
-0.5
 20
0.0
 30
0.0
 11
-1.0
 21
0.0
 31
0.0
  0
ENDBLK
  5
12
100
AcDbEntity
  8
0
100
AcDbBlockEnd
  0
BLOCK
  5
14
100
AcDbEntity
  8
0
100
AcDbBlockBegin
  2
_OPEN
 70
     0
 10
0.0
 20
0.0
 30
0.0
  3
_OPEN
  1

  0
LINE
  5
15
100
AcDbEntity
  8
0
  6
BYBLOCK
 62
     0
100
AcDbLine
 10
-1.0
 20
0.166667
 30
0.0
 11
0.0
 21
0.0
 31
0.0
  0
LINE
  5
16
100
AcDbEntity
  8
0
  6
BYBLOCK
 62
     0
100
AcDbLine
 10
0.0
 20
0.0
 30
0.0
 11
-1.0
 21
-0.166667
 31
0.0
  0
LINE
  5
17
100
AcDbEntity
  8
0
  6
BYBLOCK
 62
     0
100
AcDbLine
 10
0.0
 20
0.0
 30
0.0
 11
-1.0
 21
0.0
 31
0.0
  0
ENDBLK
  5
18
100
AcDbEntity
  8
0
100
AcDbBlockEnd
  0
BLOCK
  5
1A
100
AcDbEntity
  8
0
100
AcDbBlockBegin
  2
_ORIGIN
 70
     0
 10
0.0
 20
0.0
 30
0.0
  3
_ORIGIN
  1

  0
CIRCLE
  5
1B
100
AcDbEntity
  8
0
  6
BYBLOCK
 62
     0
100
AcDbCircle
 10
0.0
 20
0.0
 30
0.0
 40
0.5
  0
LINE
  5
1C
100
AcDbEntity
  8
0
  6
BYBLOCK
 62
     0
100
AcDbLine
 10
0.0
 20
0.0
 30
0.0
 11
-1.0
 21
0.0
 31
0.0
  0
ENDBLK
  5
1D
100
AcDbEntity
  8
0
100
AcDbBlockEnd
  0
BLOCK
  5
1F
100
AcDbEntity
  8
0
100
AcDbBlockBegin
  2
_OPEN30
 70
     0
 10
0.0
 20
0.0
 30
0.0
  3
_OPEN30
  1

  0
LINE
  5
20
100
AcDbEntity
  8
0
  6
BYBLOCK
 62
     0
100
AcDbLine
 10
-1.0
 20
0.267949
 30
0.0
 11
0.0
 21
0.0
 31
0.0
  0
LINE
  5
21
100
AcDbEntity
  8
0
  6
BYBLOCK
 62
     0
100
AcDbLine
 10
0.0
 20
0.0
 30
0.0
 11
-1.0
 21
-0.267949
 31
0.0
  0
LINE
  5
22
100
AcDbEntity
  8
0
  6
BYBLOCK
 62
     0
100
AcDbLine
 10
0.0
 20
0.0
 30
0.0
 11
-1.0
 21
0.0
 31
0.0
  0
ENDBLK
  5
23
100
AcDbEntity
  8
0
100
AcDbBlockEnd
  0
BLOCK
  5
25
100
AcDbEntity
  8
0
100
AcDbBlockBegin
  2
_BOXFILLED
 70
     0
 10
0.0
 20
0.0
 30
0.0
  3
_BOXFILLED
  1

  0
SOLID
  5
26
100
AcDbEntity
  8
0
  6
BYBLOCK
 62
     0
100
AcDbTrace
 10
-0.5
 20
0.5
 30
0.0
 11
0.5
 21
0.5
 31
0.0
 12
-0.5
 22
-0.5
 32
0.0
 13
0.5
 23
-0.5
 33
0.0
  0
LINE
  5
27
100
AcDbEntity
  8
0
  6
BYBLOCK
 62
     0
100
AcDbLine
 10
-0.5
 20
0.0
 30
0.0
 11
-1.0
 21
0.0
 31
0.0
  0
ENDBLK
  5
28
100
AcDbEntity
  8
0
100
AcDbBlockEnd
  0
BLOCK
  5
2A
100
AcDbEntity
  8
0
100
AcDbBlockBegin
  2
_BOXBLANK
 70
     0
 10
0.0
 20
0.0
 30
0.0
  3
_BOXBLANK
  1

  0
LINE
  5
2B
100
AcDbEntity
  8
0
  6
BYBLOCK
 62
     0
100
AcDbLine
 10
-0.5
 20
-0.5
 30
0.0
 11
0.5
 21
-0.5
 31
0.0
  0
LINE
  5
2C
100
AcDbEntity
  8
0
  6
BYBLOCK
 62
     0
100
AcDbLine
 10
0.5
 20
-0.5
 30
0.0
 11
0.5
 21
0.5
 31
0.0
  0
LINE
  5
2D
100
AcDbEntity
  8
0
  6
BYBLOCK
 62
     0
100
AcDbLine
 10
0.5
 20
0.5
 30
0.0
 11
-0.5
 21
0.5
 31
0.0
  0
LINE
  5
2E
100
AcDbEntity
  8
0
  6
BYBLOCK
 62
     0
100
AcDbLine
 10
-0.5
 20
0.5
 30
0.0
 11
-0.5
 21
-0.5
 31
0.0
  0
LINE
  5
2F
100
AcDbEntity
  8
0
  6
BYBLOCK
 62
     0
100
AcDbLine
 10
-0.5
 20
0.0
 30
0.0
 11
-1.0
 21
0.0
 31
0.0
  0
ENDBLK
  5
30
100
AcDbEntity
  8
0
100
AcDbBlockEnd
  0
BLOCK
  5
32
100
AcDbEntity
  8
0
100
AcDbBlockBegin
  2
_OBLIQUE
 70
     0
 10
0.0
 20
0.0
 30
0.0
  3
_OBLIQUE
  1

  0
LINE
  5
33
100
AcDbEntity
  8
0
  6
BYBLOCK
 62
     0
100
AcDbLine
 10
-0.5
 20
-0.5
 30
0.0
 11
0.5
 21
0.5
 31
0.0
  0
ENDBLK
  5
34
100
AcDbEntity
  8
0
100
AcDbBlockEnd
  0
BLOCK
  5
36
100
AcDbEntity
  8
0
100
AcDbBlockBegin
  2
_OPEN90
 70
     0
 10
0.0
 20
0.0
 30
0.0
  3
_OPEN90
  1

  0
LINE
  5
37
100
AcDbEntity
  8
0
  6
BYBLOCK
 62
     0
100
AcDbLine
 10
-0.5
 20
0.5
 30
0.0
 11
0.0
 21
0.0
 31
0.0
  0
LINE
  5
38
100
AcDbEntity
  8
0
  6
BYBLOCK
 62
     0
100
AcDbLine
 10
0.0
 20
0.0
 30
0.0
 11
-0.5
 21
-0.5
 31
0.0
  0
LINE
  5
39
100
AcDbEntity
  8
0
  6
BYBLOCK
 62
     0
100
AcDbLine
 10
0.0
 20
0.0
 30
0.0
 11
-1.0
 21
0.0
 31
0.0
  0
ENDBLK
  5
3A
100
AcDbEntity
  8
0
100
AcDbBlockEnd
  0
BLOCK
  5
3C
100
AcDbEntity
  8
0
100
AcDbBlockBegin
  2
_CLOSEDBLANK
 70
     0
 10
0.0
 20
0.0
 30
0.0
  3
_CLOSEDBLANK
  1

  0
LINE
  5
3D
100
AcDbEntity
  8
0
  6
BYBLOCK
 62
     0
100
AcDbLine
 10
-1.0
 20
0.1666666666666666
 30
0.0
 11
0.0
 21
0.0
 31
0.0
  0
LINE
  5
3E
100
AcDbEntity
  8
0
  6
BYBLOCK
 62
     0
100
AcDbLine
 10
0.0
 20
0.0
 30
0.0
 11
-1.0
 21
-0.1666666666666666
 31
0.0
  0
LINE
  5
3F
100
AcDbEntity
  8
0
  6
BYBLOCK
 62
     0
100
AcDbLine
 10
-1.0
 20
0.1666666666666666
 30
0.0
 11
-1.0
 21
-0.1666666666666666
 31
0.0
  0
ENDBLK
  5
40
100
AcDbEntity
  8
0
100
AcDbBlockEnd
  0
BLOCK
  5
42
100
AcDbEntity
  8
0
100
AcDbBlockBegin
  2
_DOTBLANK
 70
     0
 10
0.0
 20
0.0
 30
0.0
  3
_DOTBLANK
  1

  0
CIRCLE
  5
43
100
AcDbEntity
  8
0
  6
BYBLOCK
 62
     0
100
AcDbCircle
 10
0.0
 20
0.0
 30
0.0
 40
0.5
  0
LINE
  5
44
100
AcDbEntity
  8
0
  6
BYBLOCK
 62
     0
100
AcDbLine
 10
-0.5
 20
0.0
 30
0.0
 11
-1.0
 21
0.0
 31
0.0
  0
ENDBLK
  5
45
100
AcDbEntity
  8
0
100
AcDbBlockEnd
  0
BLOCK
  5
B7
100
AcDbEntity
  8
MAIN0
  6
CONTINUOUS
 62
12
100
AcDbBlockBegin
  2
*D0
 70
    65
 10
0.0
 20
0.0
 30
0.0
  0
LINE
  5
B8
100
AcDbEntity
  8
MAIN0
  6
BYBLOCK
 62
0
100
AcDbLine
 10
516.7639792304432
 20
239.4331256349688
 30
0.0000000000000000
 11
516.7639792304432
 21
253.5095437938517
 31
0.0000000000000000
  0
LINE
  5
B9
100
AcDbEntity
  8
MAIN0
  6
BYBLOCK
 62
0
100
AcDbLine
 10
516.7639792304432
 20
251.5095437938517
 30
0.0000000000000000
 11
521.7639792304399
 21
251.5095437938517
 31
0.0000000000000000
  0
INSERT
  5
BA
100
AcDbEntity
  8
MAIN0
  6
BYBLOCK
 62
0
100
AcDbBlockReference
  2
_OPEN
 10
516.7639792304432
 20
251.5095437938517
 30
0.0000000000000000
 41
1.910672187805176
 42
1.910672187805176
 43
1.910672187805176
 50
0.0000000000000000
  0
INSERT
  5
BB
100
AcDbEntity
  8
MAIN0
  6
BYBLOCK
 62
0
100
AcDbBlockReference
  2
_OPEN
 10
521.7639792304399
 20
251.5095437938517
 30
0.0000000000000000
 41
1.910672187805176
 42
1.910672187805176
 43
1.910672187805176
 50
180.0000000000000
  0
LINE
  5
BC
100
AcDbEntity
  8
MAIN0
  6
BYBLOCK
 62
0
100
AcDbLine
 10
514.8533070426380
 20
251.5095437938517
 30
0.0000000000000000
 11
513.7639792304432
 21
251.5095437938517
 31
0.0000000000000000
  0
LINE
  5
BD
100
AcDbEntity
  8
MAIN0
  6
BYBLOCK
 62
0
100
AcDbLine
 10
523.6746514182451
 20
251.5095437938517
 30
0.0000000000000000
 11
524.7639792304399
 21
251.5095437938517
 31
0.0000000000000000
  0
LINE
  5
BE
100
AcDbEntity
  8
MAIN0
  6
BYBLOCK
 62
0
100
AcDbLine
 10
521.7639792304399
 20
242.9331256349686
 30
0.0000000000000000
 11
521.7639792304399
 21
253.5095437938517
 31
0.0000000000000000
  0
MTEXT
  5
BF
100
AcDbEntity
  8
MAIN0
  6
BYBLOCK
 62
0
100
AcDbMText
 10
519.2639792304415
 20
253.5595437461680
 30
0.0000000000000000
 40
3.099999904632568
 41
0.0000000000000000
 71
     5
 72
     1
  1
\A1;5
 11
1.000000000000000
 21
0.0000000000000000
 31
0.0000000000000000
  7
STANDARD
  0
ENDBLK
  5
C0
100
AcDbEntity
  8
MAIN0
  6
CONTINUOUS
 62
12
100
AcDbBlockEnd
  0
BLOCK
  5
C6
100
AcDbEntity
  8
MAIN0
  6
CONTINUOUS
 62
12
100
AcDbBlockBegin
  2
*D1
 70
    65
 10
0.0
 20
0.0
 30
0.0
  0
LINE
  5
C7
100
AcDbEntity
  8
MAIN0
  6
BYBLOCK
 62
0
100
AcDbLine
 10
94.78324922138881
 20
161.1247628941427
 30
0.0000000000000000
 11
94.78324922138881
 21
182.1331256230482
 31
0.0000000000000000
  0
LINE
  5
C8
100
AcDbEntity
  8
MAIN0
  6
BYBLOCK
 62
0
100
AcDbLine
 10
96.69392140919399
 20
163.1247628941428
 30
0.0000000000000000
 11
122.8725770335836
 21
163.1247628941428
 31
0.0000000000000000
  0
INSERT
  5
C9
100
AcDbEntity
  8
MAIN0
  6
BYBLOCK
 62
0
100
AcDbBlockReference
  2
_OPEN
 10
94.78324922138881
 20
163.1247628941428
 30
0.0000000000000000
 41
1.910672187805176
 42
1.910672187805176
 43
1.910672187805176
 50
180.0000000000000
  0
INSERT
  5
CA
100
AcDbEntity
  8
MAIN0
  6
BYBLOCK
 62
0
100
AcDbBlockReference
  2
_OPEN
 10
124.7832492213888
 20
163.1247628941428
 30
0.0000000000000000
 41
1.910672187805176
 42
1.910672187805176
 43
1.910672187805176
 50
0.0000000000000000
  0
LINE
  5
CB
100
AcDbEntity
  8
MAIN0
  6
BYBLOCK
 62
0
100
AcDbLine
 10
124.7832492213888
 20
161.1247628941427
 30
0.0000000000000000
 11
124.7832492213888
 21
182.1331256230482
 31
0.0000000000000000
  0
MTEXT
  5
CC
100
AcDbEntity
  8
MAIN0
  6
BYBLOCK
 62
0
100
AcDbMText
 10
109.7832492213888
 20
165.1747628464590
 30
0.0000000000000000
 40
3.099999904632568
 41
0.0000000000000000
 71
     5
 72
     1
  1
\A1;\U+220530
 11
1.000000000000000
 21
0.0000000000000000
 31
0.0000000000000000
  7
STANDARD
  0
ENDBLK
  5
CD
100
AcDbEntity
  8
MAIN0
  6
CONTINUOUS
 62
12
100
AcDbBlockEnd
  0
BLOCK
  5
CF
100
AcDbEntity
  8
MAIN0
  6
CONTINUOUS
 62
12
100
AcDbBlockBegin
  2
*D2
 70
    65
 10
0.0
 20
0.0
 30
0.0
  0
LINE
  5
D0
100
AcDbEntity
  8
MAIN0
  6
BYBLOCK
 62
0
100
AcDbLine
 10
149.7832492213888
 20
199.2788098524496
 30
0.0000000000000000
 11
149.7832492213888
 21
151.1247628941427
 31
0.0000000000000000
  0
LINE
  5
D1
100
AcDbEntity
  8
MAIN0
  6
BYBLOCK
 62
0
100
AcDbLine
 10
147.8725770335836
 20
153.1247628941427
 30
0.0000000000000000
 11
111.6939214091939
 21
153.1247628941427
 31
0.0000000000000000
  0
INSERT
  5
D2
100
AcDbEntity
  8
MAIN0
  6
BYBLOCK
 62
0
100
AcDbBlockReference
  2
_OPEN
 10
149.7832492213888
 20
153.1247628941427
 30
0.0000000000000000
 41
1.910672187805176
 42
1.910672187805176
 43
1.910672187805176
 50
360.0000000000000
  0
INSERT
  5
D3
100
AcDbEntity
  8
MAIN0
  6
BYBLOCK
 62
0
100
AcDbBlockReference
  2
_OPEN
 10
109.7832492213888
 20
153.1247628941427
 30
0.0000000000000000
 41
1.910672187805176
 42
1.910672187805176
 43
1.910672187805176
 50
180.0000000000000
  0
LINE
  5
D4
100
AcDbEntity
  8
MAIN0
  6
BYBLOCK
 62
0
100
AcDbLine
 10
109.7832492213888
 20
171.2825495178718
 30
0.0000000000000000
 11
109.7832492213888
 21
151.1247628941427
 31
0.0000000000000000
  0
MTEXT
  5
D5
100
AcDbEntity
  8
MAIN0
  6
BYBLOCK
 62
0
100
AcDbMText
 10
129.7832492213888
 20
155.1747628464590
 30
0.0000000000000000
 40
3.099999904632568
 41
0.0000000000000000
 71
     5
 72
     1
  1
\A1;40
 11
1.000000000000000
 21
0.0000000000000000
 31
0.0000000000000000
  7
STANDARD
  0
ENDBLK
  5
D6
100
AcDbEntity
  8
MAIN0
  6
CONTINUOUS
 62
12
100
AcDbBlockEnd
  0
BLOCK
  5
D8
100
AcDbEntity
  8
MAIN0
  6
CONTINUOUS
 62
12
100
AcDbBlockBegin
  2
*D3
 70
    65
 10
0.0
 20
0.0
 30
0.0
  0
LINE
  5
D9
100
AcDbEntity
  8
MAIN0
  6
BYBLOCK
 62
0
100
AcDbLine
 10
109.7832492213888
 20
171.2825495178718
 30
0.0000000000000000
 11
109.7832492213888
 21
151.1247628941427
 31
0.0000000000000000
  0
LINE
  5
DA
100
AcDbEntity
  8
MAIN0
  6
BYBLOCK
 62
0
100
AcDbLine
 10
107.8725770335836
 20
153.1247628941427
 30
0.0000000000000000
 11
71.69392140919393
 21
153.1247628941427
 31
0.0000000000000000
  0
INSERT
  5
DB
100
AcDbEntity
  8
MAIN0
  6
BYBLOCK
 62
0
100
AcDbBlockReference
  2
_OPEN
 10
109.7832492213888
 20
153.1247628941427
 30
0.0000000000000000
 41
1.910672187805176
 42
1.910672187805176
 43
1.910672187805176
 50
360.0000000000000
  0
INSERT
  5
DC
100
AcDbEntity
  8
MAIN0
  6
BYBLOCK
 62
0
100
AcDbBlockReference
  2
_OPEN
 10
69.78324922138876
 20
153.1247628941427
 30
0.0000000000000000
 41
1.910672187805176
 42
1.910672187805176
 43
1.910672187805176
 50
180.0000000000000
  0
LINE
  5
DD
100
AcDbEntity
  8
MAIN0
  6
BYBLOCK
 62
0
100
AcDbLine
 10
69.78324922138876
 20
199.2788098524496
 30
0.0000000000000000
 11
69.78324922138876
 21
151.1247628941427
 31
0.0000000000000000
  0
MTEXT
  5
DE
100
AcDbEntity
  8
MAIN0
  6
BYBLOCK
 62
0
100
AcDbMText
 10
89.78324922138876
 20
155.1747628464590
 30
0.0000000000000000
 40
3.099999904632568
 41
0.0000000000000000
 71
     5
 72
     1
  1
\A1;40
 11
1.000000000000000
 21
0.0000000000000000
 31
0.0000000000000000
  7
STANDARD
  0
ENDBLK
  5
DF
100
AcDbEntity
  8
MAIN0
  6
CONTINUOUS
 62
12
100
AcDbBlockEnd
  0
BLOCK
  5
E1
100
AcDbEntity
  8
MAIN0
  6
CONTINUOUS
 62
12
100
AcDbBlockBegin
  2
*D4
 70
    65
 10
0.0
 20
0.0
 30
0.0
  0
LINE
  5
E2
100
AcDbEntity
  8
MAIN0
  6
BYBLOCK
 62
0
100
AcDbLine
 10
477.7639792304431
 20
238.9331256349694
 30
0.0000000000000000
 11
477.7639792304431
 21
265.8742946055507
 31
0.0000000000000000
  0
LINE
  5
E3
100
AcDbEntity
  8
MAIN0
  6
BYBLOCK
 62
0
100
AcDbLine
 10
479.6746514182483
 20
263.8742946055507
 30
0.0000000000000000
 11
519.8533070426347
 21
263.8742946055507
 31
0.0000000000000000
  0
INSERT
  5
E4
100
AcDbEntity
  8
MAIN0
  6
BYBLOCK
 62
0
100
AcDbBlockReference
  2
_OPEN
 10
477.7639792304431
 20
263.8742946055507
 30
0.0000000000000000
 41
1.910672187805176
 42
1.910672187805176
 43
1.910672187805176
 50
180.0000000000000
  0
INSERT
  5
E5
100
AcDbEntity
  8
MAIN0
  6
BYBLOCK
 62
0
100
AcDbBlockReference
  2
_OPEN
 10
521.7639792304399
 20
263.8742946055507
 30
0.0000000000000000
 41
1.910672187805176
 42
1.910672187805176
 43
1.910672187805176
 50
0.0000000000000000
  0
LINE
  5
E6
100
AcDbEntity
  8
MAIN0
  6
BYBLOCK
 62
0
100
AcDbLine
 10
521.7639792304399
 20
242.9331256349686
 30
0.0000000000000000
 11
521.7639792304399
 21
265.8742946055507
 31
0.0000000000000000
  0
MTEXT
  5
E7
100
AcDbEntity
  8
MAIN0
  6
BYBLOCK
 62
0
100
AcDbMText
 10
499.7639792304415
 20
265.9242945578670
 30
0.0000000000000000
 40
3.099999904632568
 41
0.0000000000000000
 71
     5
 72
     1
  1
\A1;44
 11
1.000000000000000
 21
0.0000000000000000
 31
0.0000000000000000
  7
STANDARD
  0
ENDBLK
  5
E8
100
AcDbEntity
  8
MAIN0
  6
CONTINUOUS
 62
12
100
AcDbBlockEnd
  0
BLOCK
  5
EC
100
AcDbEntity
  8
MAIN0
  6
CONTINUOUS
 62
12
100
AcDbBlockBegin
  2
*D5
 70
    65
 10
0.0
 20
0.0
 30
0.0
  0
LINE
  5
ED
100
AcDbEntity
  8
MAIN0
  6
BYBLOCK
 62
0
100
AcDbLine
 10
49.79069163718430
 20
305.6340431250696
 30
0.0000000000000000
 11
35.43410785660507
 21
305.6340431250696
 31
0.0000000000000000
  0
LINE
  5
EE
100
AcDbEntity
  8
MAIN0
  6
BYBLOCK
 62
0
100
AcDbLine
 10
37.43410785660507
 20
307.5447153128748
 30
0.0000000000000000
 11
37.43410785660507
 21
327.1233709372644
 31
0.0000000000000000
  0
INSERT
  5
EF
100
AcDbEntity
  8
MAIN0
  6
BYBLOCK
 62
0
100
AcDbBlockReference
  2
_OPEN
 10
37.43410785660507
 20
305.6340431250696
 30
0.0000000000000000
 41
1.910672187805176
 42
1.910672187805176
 43
1.910672187805176
 50
270.0000000000000
  0
INSERT
  5
F0
100
AcDbEntity
  8
MAIN0
  6
BYBLOCK
 62
0
100
AcDbBlockReference
  2
_OPEN
 10
37.43410785660507
 20
329.0340431250696
 30
0.0000000000000000
 41
1.910672187805176
 42
1.910672187805176
 43
1.910672187805176
 50
90.00000000000000
  0
LINE
  5
F1
100
AcDbEntity
  8
MAIN0
  6
BYBLOCK
 62
0
100
AcDbLine
 10
42.86681757963703
 20
329.0340431250696
 30
0.0000000000000000
 11
35.43410785660507
 21
329.0340431250696
 31
0.0000000000000000
  0
MTEXT
  5
F2
100
AcDbEntity
  8
MAIN0
  6
BYBLOCK
 62
0
100
AcDbMText
 10
35.38410790428878
 20
317.3340431250696
 30
0.0000000000000000
 40
3.099999904632568
 41
0.0000000000000000
 71
     5
 72
     1
  1
\A1;MAX 23
 11
6.123233995736766e-017
 21
1.000000000000000
 31
0.0000000000000000
  7
STANDARD
  0
ENDBLK
  5
F3
100
AcDbEntity
  8
MAIN0
  6
CONTINUOUS
 62
12
100
AcDbBlockEnd
  0
BLOCK
  5
F5
100
AcDbEntity
  8
MAIN0
  6
CONTINUOUS
 62
12
100
AcDbBlockBegin
  2
*D6
 70
    65
 10
0.0
 20
0.0
 30
0.0
  0
LINE
  5
F6
100
AcDbEntity
  8
MAIN0
  6
BYBLOCK
 62
0
100
AcDbLine
 10
42.86681757963703
 20
329.0340431250696
 30
0.0000000000000000
 11
35.43410785660507
 21
329.0340431250696
 31
0.0000000000000000
  0
LINE
  5
F7
100
AcDbEntity
  8
MAIN0
  6
BYBLOCK
 62
0
100
AcDbLine
 10
37.43410785660507
 20
330.9447153128748
 30
0.0000000000000000
 11
37.43410785660507
 21
337.7233709372645
 31
0.0000000000000000
  0
INSERT
  5
F8
100
AcDbEntity
  8
MAIN0
  6
BYBLOCK
 62
0
100
AcDbBlockReference
  2
_OPEN
 10
37.43410785660507
 20
329.0340431250696
 30
0.0000000000000000
 41
1.910672187805176
 42
1.910672187805176
 43
1.910672187805176
 50
270.0000000000000
  0
INSERT
  5
F9
100
AcDbEntity
  8
MAIN0
  6
BYBLOCK
 62
0
100
AcDbBlockReference
  2
_OPEN
 10
37.43410785660507
 20
339.6340431250696
 30
0.0000000000000000
 41
1.910672187805176
 42
1.910672187805176
 43
1.910672187805176
 50
90.00000000000000
  0
LINE
  5
FA
100
AcDbEntity
  8
MAIN0
  6
BYBLOCK
 62
0
100
AcDbLine
 10
60.50404079701485
 20
339.6340431250696
 30
0.0000000000000000
 11
35.43410785660507
 21
339.6340431250696
 31
0.0000000000000000
  0
MTEXT
  5
FB
100
AcDbEntity
  8
MAIN0
  6
BYBLOCK
 62
0
100
AcDbMText
 10
35.38410790428878
 20
334.3340431250696
 30
0.0000000000000000
 40
3.099999904632568
 41
0.0000000000000000
 71
     5
 72
     1
  1
\A1;11
 11
6.123233995736766e-017
 21
1.000000000000000
 31
0.0000000000000000
  7
STANDARD
  0
ENDBLK
  5
FC
100
AcDbEntity
  8
MAIN0
  6
CONTINUOUS
 62
12
100
AcDbBlockEnd
  0
BLOCK
  5
FE
100
AcDbEntity
  8
MAIN0
  6
CONTINUOUS
 62
12
100
AcDbBlockBegin
  2
*D7
 70
    65
 10
0.0
 20
0.0
 30
0.0
  0
LINE
  5
FF
100
AcDbEntity
  8
MAIN0
  6
BYBLOCK
 62
0
100
AcDbLine
 10
60.50404079701485
 20
339.6340431250696
 30
0.0000000000000000
 11
35.43410785660507
 21
339.6340431250696
 31
0.0000000000000000
  0
LINE
  5
100
100
AcDbEntity
  8
MAIN0
  6
BYBLOCK
 62
0
100
AcDbLine
 10
37.43410785660507
 20
341.5447153128748
 30
0.0000000000000000
 11
37.43410785660507
 21
378.7233709372645
 31
0.0000000000000000
  0
INSERT
  5
101
100
AcDbEntity
  8
MAIN0
  6
BYBLOCK
 62
0
100
AcDbBlockReference
  2
_OPEN
 10
37.43410785660507
 20
339.6340431250696
 30
0.0000000000000000
 41
1.910672187805176
 42
1.910672187805176
 43
1.910672187805176
 50
270.0000000000000
  0
INSERT
  5
102
100
AcDbEntity
  8
MAIN0
  6
BYBLOCK
 62
0
100
AcDbBlockReference
  2
_OPEN
 10
37.43410785660507
 20
380.6340431250696
 30
0.0000000000000000
 41
1.910672187805176
 42
1.910672187805176
 43
1.910672187805176
 50
90.00000000000000
  0
LINE
  5
103
100
AcDbEntity
  8
MAIN0
  6
BYBLOCK
 62
0
100
AcDbLine
 10
60.50404079701485
 20
380.6340431250696
 30
0.0000000000000000
 11
35.43410785660507
 21
380.6340431250696
 31
0.0000000000000000
  0
MTEXT
  5
104
100
AcDbEntity
  8
MAIN0
  6
BYBLOCK
 62
0
100
AcDbMText
 10
35.38410790428878
 20
360.1340431250696
 30
0.0000000000000000
 40
3.099999904632568
 41
0.0000000000000000
 71
     5
 72
     1
  1
\A1;41
 11
6.123233995736766e-017
 21
1.000000000000000
 31
0.0000000000000000
  7
STANDARD
  0
ENDBLK
  5
105
100
AcDbEntity
  8
MAIN0
  6
CONTINUOUS
 62
12
100
AcDbBlockEnd
  0
BLOCK
  5
107
100
AcDbEntity
  8
MAIN0
  6
CONTINUOUS
 62
12
100
AcDbBlockBegin
  2
*D8
 70
    65
 10
0.0
 20
0.0
 30
0.0
  0
LINE
  5
108
100
AcDbEntity
  8
MAIN0
  6
BYBLOCK
 62
0
100
AcDbLine
 10
111.9028394494476
 20
352.7261607314263
 30
0.0000000000000000
 11
104.0933947532996
 21
366.2525157240538
 31
0.0000000000000000
  0
LINE
  5
109
100
AcDbEntity
  8
MAIN0
  6
BYBLOCK
 62
0
100
AcDbLine
 10
106.7480854062433
 20
365.4758010103874
 30
0.0000000000000000
 11
123.7036985489119
 21
375.2651288225823
 31
0.0000000000000000
  0
INSERT
  5
10A
100
AcDbEntity
  8
MAIN0
  6
BYBLOCK
 62
0
100
AcDbBlockReference
  2
_OPEN
 10
105.0933947532996
 20
364.5204649164848
 30
0.0000000000000000
 41
1.910672187805176
 42
1.910672187805176
 43
1.910672187805176
 50
210.0000000000002
  0
INSERT
  5
10B
100
AcDbEntity
  8
MAIN0
  6
BYBLOCK
 62
0
100
AcDbBlockReference
  2
_OPEN
 10
125.3583892018556
 20
376.2204649164850
 30
0.0000000000000000
 41
1.910672187805176
 42
1.910672187805176
 43
1.910672187805176
 50
30.00000000000019
  0
LINE
  5
10C
100
AcDbEntity
  8
MAIN0
  6
BYBLOCK
 62
0
100
AcDbLine
 10
129.5061676398742
 20
369.0363019232980
 30
0.0000000000000000
 11
124.3583892018556
 21
377.9525157240538
 31
0.0000000000000000
  0
MTEXT
  5
10D
100
AcDbEntity
  8
MAIN0
  6
BYBLOCK
 62
0
100
AcDbMText
 10
114.2008920014195
 20
372.1458169529477
 30
0.0000000000000000
 40
3.099999904632568
 41
0.0000000000000000
 71
     5
 72
     1
  1
\A1;MAX 23
 11
0.8660254037844377
 21
0.5000000000000016
 31
0.0000000000000000
  7
STANDARD
  0
ENDBLK
  5
10E
100
AcDbEntity
  8
MAIN0
  6
CONTINUOUS
 62
12
100
AcDbBlockEnd
  0
BLOCK
  5
110
100
AcDbEntity
  8
MAIN0
  6
CONTINUOUS
 62
12
100
AcDbBlockBegin
  2
*D9
 70
    65
 10
0.0
 20
0.0
 30
0.0
  0
LINE
  5
111
100
AcDbEntity
  8
MAIN0
  6
BYBLOCK
 62
0
100
AcDbLine
 10
129.1061676339136
 20
369.7291222566494
 30
0.0000000000000000
 11
124.3583892018555
 21
377.9525157240538
 31
0.0000000000000000
  0
LINE
  5
112
100
AcDbEntity
  8
MAIN0
  6
BYBLOCK
 62
0
100
AcDbLine
 10
127.0130798547992
 20
377.1758010103875
 30
0.0000000000000000
 11
132.8835678290268
 21
380.5651288225823
 31
0.0000000000000000
  0
INSERT
  5
113
100
AcDbEntity
  8
MAIN0
  6
BYBLOCK
 62
0
100
AcDbBlockReference
  2
_OPEN
 10
125.3583892018555
 20
376.2204649164850
 30
0.0000000000000000
 41
1.910672187805176
 42
1.910672187805176
 43
1.910672187805176
 50
210.0000000000000
  0
INSERT
  5
114
100
AcDbEntity
  8
MAIN0
  6
BYBLOCK
 62
0
100
AcDbBlockReference
  2
_OPEN
 10
134.5382584819705
 20
381.5204649164849
 30
0.0000000000000000
 41
1.910672187805176
 42
1.910672187805176
 43
1.910672187805176
 50
30.00000000000004
  0
LINE
  5
115
100
AcDbEntity
  8
MAIN0
  6
BYBLOCK
 62
0
100
AcDbLine
 10
146.0972235647743
 20
361.4997501101543
 30
0.0000000000000000
 11
133.5382584819705
 21
383.2525157240538
 31
0.0000000000000000
  0
MTEXT
  5
116
100
AcDbEntity
  8
MAIN0
  6
BYBLOCK
 62
0
100
AcDbMText
 10
128.9233238657548
 20
380.6458169529477
 30
0.0000000000000000
 40
3.099999904632568
 41
0.0000000000000000
 71
     5
 72
     1
  1
\A1;11
 11
0.8660254037844377
 21
0.5000000000000016
 31
0.0000000000000000
  7
STANDARD
  0
ENDBLK
  5
117
100
AcDbEntity
  8
MAIN0
  6
CONTINUOUS
 62
12
100
AcDbBlockEnd
  0
BLOCK
  5
119
100
AcDbEntity
  8
MAIN0
  6
CONTINUOUS
 62
12
100
AcDbBlockBegin
  2
*D10
 70
    65
 10
0.0
 20
0.0
 30
0.0
  0
LINE
  5
11A
100
AcDbEntity
  8
MAIN0
  6
BYBLOCK
 62
0
100
AcDbLine
 10
146.0972235647743
 20
361.4997501101543
 30
0.0000000000000000
 11
133.5382584819705
 21
383.2525157240538
 31
0.0000000000000000
  0
LINE
  5
11B
100
AcDbEntity
  8
MAIN0
  6
BYBLOCK
 62
0
100
AcDbLine
 10
136.1929491349141
 20
382.4758010103875
 30
0.0000000000000000
 11
168.3906093841887
 21
401.0651288225823
 31
0.0000000000000000
  0
INSERT
  5
11C
100
AcDbEntity
  8
MAIN0
  6
BYBLOCK
 62
0
100
AcDbBlockReference
  2
_OPEN
 10
134.5382584819705
 20
381.5204649164849
 30
0.0000000000000000
 41
1.910672187805176
 42
1.910672187805176
 43
1.910672187805176
 50
210.0000000000001
  0
INSERT
  5
11D
100
AcDbEntity
  8
MAIN0
  6
BYBLOCK
 62
0
100
AcDbBlockReference
  2
_OPEN
 10
170.0453000371324
 20
402.0204649164849
 30
0.0000000000000000
 41
1.910672187805176
 42
1.910672187805176
 43
1.910672187805176
 50
30.00000000000005
  0
LINE
  5
11E
100
AcDbEntity
  8
MAIN0
  6
BYBLOCK
 62
0
100
AcDbLine
 10
181.6042651199361
 20
381.9997501101543
 30
0.0000000000000000
 11
169.0453000371324
 21
403.7525157240539
 31
0.0000000000000000
  0
MTEXT
  5
11F
100
AcDbEntity
  8
MAIN0
  6
BYBLOCK
 62
0
100
AcDbMText
 10
151.2667792833933
 20
393.5458169529477
 30
0.0000000000000000
 40
3.099999904632568
 41
0.0000000000000000
 71
     5
 72
     1
  1
\A1;41
 11
0.8660254037844377
 21
0.5000000000000016
 31
0.0000000000000000
  7
STANDARD
  0
ENDBLK
  5
120
100
AcDbEntity
  8
MAIN0
  6
CONTINUOUS
 62
12
100
AcDbBlockEnd
  0
BLOCK
  5
122
100
AcDbEntity
  8
MAIN0
  6
CONTINUOUS
 62
12
100
AcDbBlockBegin
  2
*D11
 70
    65
 10
0.0
 20
0.0
 30
0.0
  0
LINE
  5
123
100
AcDbEntity
  8
MAIN0
  6
BYBLOCK
 62
0
100
AcDbLine
 10
470.7639792304435
 20
304.9331256349687
 30
0.0000000000000000
 11
470.7639792304435
 21
343.1541331755732
 31
0.0000000000000000
  0
LINE
  5
124
100
AcDbEntity
  8
MAIN0
  6
BYBLOCK
 62
0
100
AcDbLine
 10
470.7639792304435
 20
341.1541331755732
 30
0.0000000000000000
 11
475.7639792304435
 21
341.1541331755732
 31
0.0000000000000000
  0
INSERT
  5
125
100
AcDbEntity
  8
MAIN0
  6
BYBLOCK
 62
0
100
AcDbBlockReference
  2
_OPEN
 10
470.7639792304435
 20
341.1541331755732
 30
0.0000000000000000
 41
1.910672187805176
 42
1.910672187805176
 43
1.910672187805176
 50
0.0000000000000000
  0
INSERT
  5
126
100
AcDbEntity
  8
MAIN0
  6
BYBLOCK
 62
0
100
AcDbBlockReference
  2
_OPEN
 10
475.7639792304435
 20
341.1541331755732
 30
0.0000000000000000
 41
1.910672187805176
 42
1.910672187805176
 43
1.910672187805176
 50
180.0000000000000
  0
LINE
  5
127
100
AcDbEntity
  8
MAIN0
  6
BYBLOCK
 62
0
100
AcDbLine
 10
468.8533070426383
 20
341.1541331755732
 30
0.0000000000000000
 11
467.7639792304435
 21
341.1541331755732
 31
0.0000000000000000
  0
LINE
  5
128
100
AcDbEntity
  8
MAIN0
  6
BYBLOCK
 62
0
100
AcDbLine
 10
477.6746514182487
 20
341.1541331755732
 30
0.0000000000000000
 11
478.7639792304435
 21
341.1541331755732
 31
0.0000000000000000
  0
LINE
  5
129
100
AcDbEntity
  8
MAIN0
  6
BYBLOCK
 62
0
100
AcDbLine
 10
475.7639792304435
 20
281.9331256349687
 30
0.0000000000000000
 11
475.7639792304435
 21
343.1541331755732
 31
0.0000000000000000
  0
MTEXT
  5
12A
100
AcDbEntity
  8
MAIN0
  6
BYBLOCK
 62
0
100
AcDbMText
 10
473.2639792304435
 20
343.2041331278895
 30
0.0000000000000000
 40
3.099999904632568
 41
0.0000000000000000
 71
     5
 72
     1
  1
\A1;5
 11
1.000000000000000
 21
0.0000000000000000
 31
0.0000000000000000
  7
STANDARD
  0
ENDBLK
  5
12B
100
AcDbEntity
  8
MAIN0
  6
CONTINUOUS
 62
12
100
AcDbBlockEnd
  0
BLOCK
  5
12D
100
AcDbEntity
  8
MAIN0
  6
CONTINUOUS
 62
12
100
AcDbBlockBegin
  2
*D12
 70
    65
 10
0.0
 20
0.0
 30
0.0
  0
LINE
  5
12E
100
AcDbEntity
  8
MAIN0
  6
BYBLOCK
 62
0
100
AcDbLine
 10
373.7639792304439
 20
305.9331256349686
 30
0.0000000000000000
 11
373.7639792304439
 21
343.1541331755731
 31
0.0000000000000000
  0
LINE
  5
12F
100
AcDbEntity
  8
MAIN0
  6
BYBLOCK
 62
0
100
AcDbLine
 10
375.6746514182490
 20
341.1541331755731
 30
0.0000000000000000
 11
468.8533070426383
 21
341.1541331755731
 31
0.0000000000000000
  0
INSERT
  5
130
100
AcDbEntity
  8
MAIN0
  6
BYBLOCK
 62
0
100
AcDbBlockReference
  2
_OPEN
 10
373.7639792304439
 20
341.1541331755731
 30
0.0000000000000000
 41
1.910672187805176
 42
1.910672187805176
 43
1.910672187805176
 50
180.0000000000000
  0
INSERT
  5
131
100
AcDbEntity
  8
MAIN0
  6
BYBLOCK
 62
0
100
AcDbBlockReference
  2
_OPEN
 10
470.7639792304435
 20
341.1541331755731
 30
0.0000000000000000
 41
1.910672187805176
 42
1.910672187805176
 43
1.910672187805176
 50
0.0000000000000000
  0
LINE
  5
132
100
AcDbEntity
  8
MAIN0
  6
BYBLOCK
 62
0
100
AcDbLine
 10
470.7639792304435
 20
304.9331256349687
 30
0.0000000000000000
 11
470.7639792304435
 21
343.1541331755731
 31
0.0000000000000000
  0
MTEXT
  5
133
100
AcDbEntity
  8
MAIN0
  6
BYBLOCK
 62
0
100
AcDbMText
 10
422.2639792304437
 20
343.2041331278894
 30
0.0000000000000000
 40
3.099999904632568
 41
0.0000000000000000
 71
     5
 72
     1
  1
\A1;97
 11
1.000000000000000
 21
0.0000000000000000
 31
0.0000000000000000
  7
STANDARD
  0
ENDBLK
  5
134
100
AcDbEntity
  8
MAIN0
  6
CONTINUOUS
 62
12
100
AcDbBlockEnd
  0
BLOCK
  5
136
100
AcDbEntity
  8
MAIN0
  6
CONTINUOUS
 62
12
100
AcDbBlockBegin
  2
*D13
 70
    65
 10
0.0
 20
0.0
 30
0.0
  0
LINE
  5
137
100
AcDbEntity
  8
MAIN0
  6
BYBLOCK
 62
0
100
AcDbLine
 10
304.7639792304437
 20
172.1985113117640
 30
0.0000000000000000
 11
304.7639792304437
 21
128.4216163709850
 31
0.0000000000000000
  0
LINE
  5
138
100
AcDbEntity
  8
MAIN0
  6
BYBLOCK
 62
0
100
AcDbLine
 10
306.6746514182489
 20
130.4216163709850
 30
0.0000000000000000
 11
468.8533070426383
 21
130.4216163709850
 31
0.0000000000000000
  0
INSERT
  5
139
100
AcDbEntity
  8
MAIN0
  6
BYBLOCK
 62
0
100
AcDbBlockReference
  2
_OPEN
 10
304.7639792304437
 20
130.4216163709850
 30
0.0000000000000000
 41
1.910672187805176
 42
1.910672187805176
 43
1.910672187805176
 50
180.0000000000000
  0
INSERT
  5
13A
100
AcDbEntity
  8
MAIN0
  6
BYBLOCK
 62
0
100
AcDbBlockReference
  2
_OPEN
 10
470.7639792304435
 20
130.4216163709850
 30
0.0000000000000000
 41
1.910672187805176
 42
1.910672187805176
 43
1.910672187805176
 50
0.0000000000000000
  0
LINE
  5
13B
100
AcDbEntity
  8
MAIN0
  6
BYBLOCK
 62
0
100
AcDbLine
 10
470.7639792304435
 20
147.3331256111271
 30
0.0000000000000000
 11
470.7639792304435
 21
128.4216163709850
 31
0.0000000000000000
  0
MTEXT
  5
13C
100
AcDbEntity
  8
MAIN0
  6
BYBLOCK
 62
0
100
AcDbMText
 10
387.7639792304436
 20
132.4716163233013
 30
0.0000000000000000
 40
3.099999904632568
 41
0.0000000000000000
 71
     5
 72
     1
  1
\A1;166
 11
1.000000000000000
 21
0.0000000000000000
 31
0.0000000000000000
  7
STANDARD
  0
ENDBLK
  5
13D
100
AcDbEntity
  8
MAIN0
  6
CONTINUOUS
 62
12
100
AcDbBlockEnd
  0
BLOCK
  5
13F
100
AcDbEntity
  8
MAIN0
  6
CONTINUOUS
 62
12
100
AcDbBlockBegin
  2
*D14
 70
    65
 10
0.0
 20
0.0
 30
0.0
  0
LINE
  5
140
100
AcDbEntity
  8
MAIN0
  6
BYBLOCK
 62
0
100
AcDbLine
 10
299.7639792304436
 20
229.2048334355337
 30
0.0000000000000000
 11
299.7639792304436
 21
333.0283983801541
 31
0.0000000000000000
  0
LINE
  5
141
100
AcDbEntity
  8
MAIN0
  6
BYBLOCK
 62
0
100
AcDbLine
 10
301.6746514182488
 20
331.0283983801541
 30
0.0000000000000000
 11
308.8533070426385
 21
331.0283983801541
 31
0.0000000000000000
  0
INSERT
  5
142
100
AcDbEntity
  8
MAIN0
  6
BYBLOCK
 62
0
100
AcDbBlockReference
  2
_OPEN
 10
299.7639792304436
 20
331.0283983801541
 30
0.0000000000000000
 41
1.910672187805176
 42
1.910672187805176
 43
1.910672187805176
 50
180.0000000000000
  0
INSERT
  5
143
100
AcDbEntity
  8
MAIN0
  6
BYBLOCK
 62
0
100
AcDbBlockReference
  2
_OPEN
 10
310.7639792304436
 20
331.0283983801541
 30
0.0000000000000000
 41
1.910672187805176
 42
1.910672187805176
 43
1.910672187805176
 50
0.0000000000000000
  0
LINE
  5
144
100
AcDbEntity
  8
MAIN0
  6
BYBLOCK
 62
0
100
AcDbLine
 10
310.7639792304436
 20
255.0945043113575
 30
0.0000000000000000
 11
310.7639792304436
 21
333.0283983801541
 31
0.0000000000000000
  0
MTEXT
  5
145
100
AcDbEntity
  8
MAIN0
  6
BYBLOCK
 62
0
100
AcDbMText
 10
305.2639792304436
 20
333.0783983324704
 30
0.0000000000000000
 40
3.099999904632568
 41
0.0000000000000000
 71
     5
 72
     1
  1
\A1;11
 11
1.000000000000000
 21
0.0000000000000000
 31
0.0000000000000000
  7
STANDARD
  0
ENDBLK
  5
146
100
AcDbEntity
  8
MAIN0
  6
CONTINUOUS
 62
12
100
AcDbBlockEnd
  0
BLOCK
  5
148
100
AcDbEntity
  8
MAIN0
  6
CONTINUOUS
 62
12
100
AcDbBlockBegin
  2
*D15
 70
    65
 10
0.0
 20
0.0
 30
0.0
  0
LINE
  5
149
100
AcDbEntity
  8
MAIN0
  6
BYBLOCK
 62
0
100
AcDbLine
 10
310.7639792304436
 20
255.0945043113575
 30
0.0000000000000000
 11
310.7639792304436
 21
333.0283983801541
 31
0.0000000000000000
  0
LINE
  5
14A
100
AcDbEntity
  8
MAIN0
  6
BYBLOCK
 62
0
100
AcDbLine
 10
312.6746514182488
 20
331.0283983801541
 30
0.0000000000000000
 11
468.8533070426383
 21
331.0283983801541
 31
0.0000000000000000
  0
INSERT
  5
14B
100
AcDbEntity
  8
MAIN0
  6
BYBLOCK
 62
0
100
AcDbBlockReference
  2
_OPEN
 10
310.7639792304436
 20
331.0283983801541
 30
0.0000000000000000
 41
1.910672187805176
 42
1.910672187805176
 43
1.910672187805176
 50
180.0000000000000
  0
INSERT
  5
14C
100
AcDbEntity
  8
MAIN0
  6
BYBLOCK
 62
0
100
AcDbBlockReference
  2
_OPEN
 10
470.7639792304435
 20
331.0283983801541
 30
0.0000000000000000
 41
1.910672187805176
 42
1.910672187805176
 43
1.910672187805176
 50
0.0000000000000000
  0
LINE
  5
14D
100
AcDbEntity
  8
MAIN0
  6
BYBLOCK
 62
0
100
AcDbLine
 10
470.7639792304435
 20
304.9331256349687
 30
0.0000000000000000
 11
470.7639792304435
 21
333.0283983801541
 31
0.0000000000000000
  0
MTEXT
  5
14E
100
AcDbEntity
  8
MAIN0
  6
BYBLOCK
 62
0
100
AcDbMText
 10
390.7639792304436
 20
333.0783983324704
 30
0.0000000000000000
 40
3.099999904632568
 41
0.0000000000000000
 71
     5
 72
     1
  1
\A1;160
 11
1.000000000000000
 21
0.0000000000000000
 31
0.0000000000000000
  7
STANDARD
  0
ENDBLK
  5
14F
100
AcDbEntity
  8
MAIN0
  6
CONTINUOUS
 62
12
100
AcDbBlockEnd
  0
BLOCK
  5
151
100
AcDbEntity
  8
MAIN0
  6
CONTINUOUS
 62
12
100
AcDbBlockBegin
  2
*D16
 70
    65
 10
0.0
 20
0.0
 30
0.0
  0
LINE
  5
152
100
AcDbEntity
  8
MAIN0
  6
BYBLOCK
 62
0
100
AcDbLine
 10
284.7639792304415
 20
271.4331256349686
 30
0.0000000000000000
 11
284.7639792304415
 21
333.0283983801541
 31
0.0000000000000000
  0
LINE
  5
153
100
AcDbEntity
  8
MAIN0
  6
BYBLOCK
 62
0
100
AcDbLine
 10
284.7639792304415
 20
331.0283983801541
 30
0.0000000000000000
 11
299.7639792304436
 21
331.0283983801541
 31
0.0000000000000000
  0
INSERT
  5
154
100
AcDbEntity
  8
MAIN0
  6
BYBLOCK
 62
0
100
AcDbBlockReference
  2
_OPEN
 10
284.7639792304415
 20
331.0283983801541
 30
0.0000000000000000
 41
2.000000000000000
 42
2.000000000000000
 43
2.000000000000000
 50
0.0000000000000000
  0
INSERT
  5
155
100
AcDbEntity
  8
MAIN0
  6
BYBLOCK
 62
0
100
AcDbBlockReference
  2
_OPEN
 10
299.7639792304436
 20
331.0283983801541
 30
0.0000000000000000
 41
2.000000000000000
 42
2.000000000000000
 43
2.000000000000000
 50
180.0000000000000
  0
LINE
  5
156
100
AcDbEntity
  8
MAIN0
  6
BYBLOCK
 62
0
100
AcDbLine
 10
282.7639792304415
 20
331.0283983801541
 30
0.0000000000000000
 11
281.7639792304415
 21
331.0283983801541
 31
0.0000000000000000
  0
LINE
  5
157
100
AcDbEntity
  8
MAIN0
  6
BYBLOCK
 62
0
100
AcDbLine
 10
301.7639792304436
 20
331.0283983801541
 30
0.0000000000000000
 11
302.7639792304436
 21
331.0283983801541
 31
0.0000000000000000
  0
LINE
  5
158
100
AcDbEntity
  8
MAIN0
  6
BYBLOCK
 62
0
100
AcDbLine
 10
299.7639792304436
 20
229.2048334355337
 30
0.0000000000000000
 11
299.7639792304436
 21
333.0283983801541
 31
0.0000000000000000
  0
MTEXT
  5
159
100
AcDbEntity
  8
MAIN0
  6
BYBLOCK
 62
0
100
AcDbMText
 10
292.3662308412089
 20
333.0783983324704
 30
0.0000000000000000
 40
3.099999904632568
 41
0.0000000000000000
 71
     5
 72
     1
  1
\A1;MIN 15
 11
1.000000000000000
 21
0.0000000000000000
 31
0.0000000000000000
  7
STANDARD
  0
ENDBLK
  5
15A
100
AcDbEntity
  8
MAIN0
  6
CONTINUOUS
 62
12
100
AcDbBlockEnd
  0
BLOCK
  5
15C
100
AcDbEntity
  8
MAIN0
  6
CONTINUOUS
 62
12
100
AcDbBlockBegin
  2
*D17
 70
    65
 10
0.0
 20
0.0
 30
0.0
  0
LINE
  5
15D
100
AcDbEntity
  8
MAIN0
  6
BYBLOCK
 62
0
100
AcDbLine
 10
123.5832492333098
 20
181.1331256230481
 30
0.0000000000000000
 11
161.6188858299294
 21
181.1331256230481
 31
0.0000000000000000
  0
LINE
  5
15E
100
AcDbEntity
  8
MAIN0
  6
BYBLOCK
 62
0
100
AcDbLine
 10
159.6188858299294
 20
183.0437978108533
 30
0.0000000000000000
 11
159.6188858299294
 21
224.2224534352427
 31
0.0000000000000000
  0
INSERT
  5
15F
100
AcDbEntity
  8
MAIN0
  6
BYBLOCK
 62
0
100
AcDbBlockReference
  2
_OPEN
 10
159.6188858299294
 20
181.1331256230481
 30
0.0000000000000000
 41
1.910672187805176
 42
1.910672187805176
 43
1.910672187805176
 50
270.0000000000000
  0
INSERT
  5
160
100
AcDbEntity
  8
MAIN0
  6
BYBLOCK
 62
0
100
AcDbBlockReference
  2
_OPEN
 10
159.6188858299294
 20
226.1331256230479
 30
0.0000000000000000
 41
1.910672187805176
 42
1.910672187805176
 43
1.910672187805176
 50
90.00000000000000
  0
LINE
  5
161
100
AcDbEntity
  8
MAIN0
  6
BYBLOCK
 62
0
100
AcDbLine
 10
155.8909450835380
 20
226.1331256230479
 30
0.0000000000000000
 11
161.6188858299294
 21
226.1331256230479
 31
0.0000000000000000
  0
MTEXT
  5
162
100
AcDbEntity
  8
MAIN0
  6
BYBLOCK
 62
0
100
AcDbMText
 10
157.5688858776131
 20
203.6331256230480
 30
0.0000000000000000
 40
3.099999904632568
 41
0.0000000000000000
 71
     5
 72
     1
  1
\A1;45
 11
6.123233995736766e-017
 21
1.000000000000000
 31
0.0000000000000000
  7
STANDARD
  0
ENDBLK
  5
163
100
AcDbEntity
  8
MAIN0
  6
CONTINUOUS
 62
12
100
AcDbBlockEnd
  0
BLOCK
  5
165
100
AcDbEntity
  8
MAIN0
  6
CONTINUOUS
 62
12
100
AcDbBlockBegin
  2
*D18
 70
    65
 10
0.0
 20
0.0
 30
0.0
  0
LINE
  5
166
100
AcDbEntity
  8
MAIN0
  6
BYBLOCK
 62
0
100
AcDbLine
 10
470.7639792304435
 20
304.9331256349687
 30
0.0000000000000000
 11
470.7639792304435
 21
353.1541331755731
 31
0.0000000000000000
  0
LINE
  5
167
100
AcDbEntity
  8
MAIN0
  6
BYBLOCK
 62
0
100
AcDbLine
 10
472.6746514182487
 20
351.1541331755731
 30
0.0000000000000000
 11
519.8533070426347
 21
351.1541331755731
 31
0.0000000000000000
  0
INSERT
  5
168
100
AcDbEntity
  8
MAIN0
  6
BYBLOCK
 62
0
100
AcDbBlockReference
  2
_OPEN
 10
470.7639792304435
 20
351.1541331755731
 30
0.0000000000000000
 41
1.910672187805176
 42
1.910672187805176
 43
1.910672187805176
 50
180.0000000000000
  0
INSERT
  5
169
100
AcDbEntity
  8
MAIN0
  6
BYBLOCK
 62
0
100
AcDbBlockReference
  2
_OPEN
 10
521.7639792304399
 20
351.1541331755731
 30
0.0000000000000000
 41
1.910672187805176
 42
1.910672187805176
 43
1.910672187805176
 50
0.0000000000000000
  0
LINE
  5
16A
100
AcDbEntity
  8
MAIN0
  6
BYBLOCK
 62
0
100
AcDbLine
 10
521.7639792304399
 20
242.9331256349686
 30
0.0000000000000000
 11
521.7639792304399
 21
353.1541331755731
 31
0.0000000000000000
  0
MTEXT
  5
16B
100
AcDbEntity
  8
MAIN0
  6
BYBLOCK
 62
0
100
AcDbMText
 10
496.2639792304417
 20
353.2041331278894
 30
0.0000000000000000
 40
3.099999904632568
 41
0.0000000000000000
 71
     5
 72
     1
  1
\A1;MAX 51
 11
1.000000000000000
 21
0.0000000000000000
 31
0.0000000000000000
  7
STANDARD
  0
ENDBLK
  5
16C
100
AcDbEntity
  8
MAIN0
  6
CONTINUOUS
 62
12
100
AcDbBlockEnd
  0
BLOCK
  5
16E
100
AcDbEntity
  8
MAIN0
  6
CONTINUOUS
 62
12
100
AcDbBlockBegin
  2
*D19
 70
    65
 10
0.0
 20
0.0
 30
0.0
  0
LINE
  5
16F
100
AcDbEntity
  8
MAIN0
  6
BYBLOCK
 62
0
100
AcDbLine
 10
210.7639792304440
 20
269.9331256349687
 30
0.0000000000000000
 11
210.7639792304440
 21
343.1541331755731
 31
0.0000000000000000
  0
LINE
  5
170
100
AcDbEntity
  8
MAIN0
  6
BYBLOCK
 62
0
100
AcDbLine
 10
212.6746514182491
 20
341.1541331755731
 30
0.0000000000000000
 11
371.8533070426387
 21
341.1541331755731
 31
0.0000000000000000
  0
INSERT
  5
171
100
AcDbEntity
  8
MAIN0
  6
BYBLOCK
 62
0
100
AcDbBlockReference
  2
_OPEN
 10
210.7639792304440
 20
341.1541331755731
 30
0.0000000000000000
 41
1.910672187805176
 42
1.910672187805176
 43
1.910672187805176
 50
180.0000000000000
  0
INSERT
  5
172
100
AcDbEntity
  8
MAIN0
  6
BYBLOCK
 62
0
100
AcDbBlockReference
  2
_OPEN
 10
373.7639792304439
 20
341.1541331755731
 30
0.0000000000000000
 41
1.910672187805176
 42
1.910672187805176
 43
1.910672187805176
 50
0.0000000000000000
  0
LINE
  5
173
100
AcDbEntity
  8
MAIN0
  6
BYBLOCK
 62
0
100
AcDbLine
 10
373.7639792304439
 20
305.9331256349686
 30
0.0000000000000000
 11
373.7639792304439
 21
343.1541331755731
 31
0.0000000000000000
  0
MTEXT
  5
174
100
AcDbEntity
  8
MAIN0
  6
BYBLOCK
 62
0
100
AcDbMText
 10
292.2639792304439
 20
343.2041331278894
 30
0.0000000000000000
 40
3.099999904632568
 41
0.0000000000000000
 71
     5
 72
     1
  1
\A1;163
 11
1.000000000000000
 21
0.0000000000000000
 31
0.0000000000000000
  7
STANDARD
  0
ENDBLK
  5
175
100
AcDbEntity
  8
MAIN0
  6
CONTINUOUS
 62
12
100
AcDbBlockEnd
  0
BLOCK
  5
177
100
AcDbEntity
  8
MAIN0
  6
CONTINUOUS
 62
12
100
AcDbBlockBegin
  2
*D20
 70
    65
 10
0.0
 20
0.0
 30
0.0
  0
LINE
  5
178
100
AcDbEntity
  8
MAIN0
  6
BYBLOCK
 62
0
100
AcDbLine
 10
210.7639792304440
 20
269.9331256349687
 30
0.0000000000000000
 11
210.7639792304440
 21
353.1541331755731
 31
0.0000000000000000
  0
LINE
  5
179
100
AcDbEntity
  8
MAIN0
  6
BYBLOCK
 62
0
100
AcDbLine
 10
212.6746514182491
 20
351.1541331755731
 30
0.0000000000000000
 11
468.8533070426383
 21
351.1541331755731
 31
0.0000000000000000
  0
INSERT
  5
17A
100
AcDbEntity
  8
MAIN0
  6
BYBLOCK
 62
0
100
AcDbBlockReference
  2
_OPEN
 10
210.7639792304440
 20
351.1541331755731
 30
0.0000000000000000
 41
1.910672187805176
 42
1.910672187805176
 43
1.910672187805176
 50
180.0000000000000
  0
INSERT
  5
17B
100
AcDbEntity
  8
MAIN0
  6
BYBLOCK
 62
0
100
AcDbBlockReference
  2
_OPEN
 10
470.7639792304435
 20
351.1541331755731
 30
0.0000000000000000
 41
1.910672187805176
 42
1.910672187805176
 43
1.910672187805176
 50
0.0000000000000000
  0
LINE
  5
17C
100
AcDbEntity
  8
MAIN0
  6
BYBLOCK
 62
0
100
AcDbLine
 10
470.7639792304435
 20
304.9331256349687
 30
0.0000000000000000
 11
470.7639792304435
 21
353.1541331755731
 31
0.0000000000000000
  0
MTEXT
  5
17D
100
AcDbEntity
  8
MAIN0
  6
BYBLOCK
 62
0
100
AcDbMText
 10
340.7639792304437
 20
353.2041331278894
 30
0.0000000000000000
 40
3.099999904632568
 41
0.0000000000000000
 71
     5
 72
     1
  1
\A1;260
 11
1.000000000000000
 21
0.0000000000000000
 31
0.0000000000000000
  7
STANDARD
  0
ENDBLK
  5
17E
100
AcDbEntity
  8
MAIN0
  6
CONTINUOUS
 62
12
100
AcDbBlockEnd
  0
BLOCK
  5
180
100
AcDbEntity
  8
MAIN0
  6
CONTINUOUS
 62
3
100
AcDbBlockBegin
  2
*D21
 70
    65
 10
0.0
 20
0.0
 30
0.0
  0
LINE
  5
181
100
AcDbEntity
  8
MAIN0
  6
BYBLOCK
 62
0
100
AcDbLine
 10
521.5639792423608
 20
238.6331256230479
 30
0.0000000000000000
 11
537.6057096159566
 21
238.6331256230479
 31
0.0000000000000000
  0
LINE
  5
182
100
AcDbEntity
  8
MAIN0
  6
BYBLOCK
 62
0
100
AcDbLine
 10
535.6057096159566
 20
236.6331256230479
 30
0.0000000000000000
 11
535.6057096159566
 21
215.6331256230479
 31
0.0000000000000000
  0
INSERT
  5
183
100
AcDbEntity
  8
MAIN0
  6
BYBLOCK
 62
0
100
AcDbBlockReference
  2
_OPEN
 10
535.6057096159566
 20
238.6331256230479
 30
0.0000000000000000
 41
2.000000000000000
 42
2.000000000000000
 43
2.000000000000000
 50
90.00000000000000
  0
INSERT
  5
184
100
AcDbEntity
  8
MAIN0
  6
BYBLOCK
 62
0
100
AcDbBlockReference
  2
_OPEN
 10
535.6057096159566
 20
213.6331256230479
 30
0.0000000000000000
 41
2.000000000000000
 42
2.000000000000000
 43
2.000000000000000
 50
270.0000000000000
  0
LINE
  5
185
100
AcDbEntity
  8
MAIN0
  6
BYBLOCK
 62
0
100
AcDbLine
 10
521.5639792423608
 20
213.6331256230479
 30
0.0000000000000000
 11
537.6057096159566
 21
213.6331256230479
 31
0.0000000000000000
  0
MTEXT
  5
186
100
AcDbEntity
  8
MAIN0
  6
BYBLOCK
 62
0
100
AcDbMText
 10
533.5557096636403
 20
226.1331256230479
 30
0.0000000000000000
 40
3.099999904632568
 41
0.0000000000000000
 71
     5
 72
     1
  1
\A1;\U+220525H8
 11
6.123233995736766e-017
 21
1.000000000000000
 31
0.0000000000000000
  7
STANDARD
  0
ENDBLK
  5
187
100
AcDbEntity
  8
MAIN0
  6
CONTINUOUS
 62
3
100
AcDbBlockEnd
  0
BLOCK
  5
189
100
AcDbEntity
  8
MAIN0
  6
CONTINUOUS
 62
3
100
AcDbBlockBegin
  2
*D22
 70
    65
 10
0.0
 20
0.0
 30
0.0
  0
LINE
  5
18A
100
AcDbEntity
  8
MAIN0
  6
BYBLOCK
 62
0
100
AcDbLine
 10
501.6979538385793
 20
243.6331256230477
 30
0.0000000000000000
 11
547.6057096159566
 21
243.6331256230477
 31
0.0000000000000000
  0
LINE
  5
18B
100
AcDbEntity
  8
MAIN0
  6
BYBLOCK
 62
0
100
AcDbLine
 10
545.6057096159566
 20
241.6331256230477
 30
0.0000000000000000
 11
545.6057096159566
 21
210.6331256230481
 31
0.0000000000000000
  0
INSERT
  5
18C
100
AcDbEntity
  8
MAIN0
  6
BYBLOCK
 62
0
100
AcDbBlockReference
  2
_OPEN
 10
545.6057096159566
 20
243.6331256230477
 30
0.0000000000000000
 41
2.000000000000000
 42
2.000000000000000
 43
2.000000000000000
 50
90.00000000000000
  0
INSERT
  5
18D
100
AcDbEntity
  8
MAIN0
  6
BYBLOCK
 62
0
100
AcDbBlockReference
  2
_OPEN
 10
545.6057096159566
 20
208.6331256230481
 30
0.0000000000000000
 41
2.000000000000000
 42
2.000000000000000
 43
2.000000000000000
 50
270.0000000000000
  0
LINE
  5
18E
100
AcDbEntity
  8
MAIN0
  6
BYBLOCK
 62
0
100
AcDbLine
 10
501.6979538385793
 20
208.6331256230481
 30
0.0000000000000000
 11
547.6057096159566
 21
208.6331256230481
 31
0.0000000000000000
  0
MTEXT
  5
18F
100
AcDbEntity
  8
MAIN0
  6
BYBLOCK
 62
0
100
AcDbMText
 10
543.5557096636403
 20
226.1331256230479
 30
0.0000000000000000
 40
3.099999904632568
 41
0.0000000000000000
 71
     5
 72
     1
  1
\A1;\U+220535
 11
6.123233995736766e-017
 21
1.000000000000000
 31
0.0000000000000000
  7
STANDARD
  0
ENDBLK
  5
190
100
AcDbEntity
  8
MAIN0
  6
CONTINUOUS
 62
3
100
AcDbBlockEnd
  0
BLOCK
  5
192
100
AcDbEntity
  8
MAIN0
  6
CONTINUOUS
 62
3
100
AcDbBlockBegin
  2
*D23
 70
    65
 10
0.0
 20
0.0
 30
0.0
  0
LINE
  5
193
100
AcDbEntity
  8
MAIN0
  6
BYBLOCK
 62
0
100
AcDbLine
 10
476.5639792423644
 20
281.1331256230478
 30
0.0000000000000000
 11
557.6057096159566
 21
281.1331256230478
 31
0.0000000000000000
  0
LINE
  5
194
100
AcDbEntity
  8
MAIN0
  6
BYBLOCK
 62
0
100
AcDbLine
 10
555.6057096159566
 20
279.1331256230478
 30
0.0000000000000000
 11
555.6057096159566
 21
173.1331256230480
 31
0.0000000000000000
  0
INSERT
  5
195
100
AcDbEntity
  8
MAIN0
  6
BYBLOCK
 62
0
100
AcDbBlockReference
  2
_OPEN
 10
555.6057096159566
 20
281.1331256230478
 30
0.0000000000000000
 41
2.000000000000000
 42
2.000000000000000
 43
2.000000000000000
 50
90.00000000000000
  0
INSERT
  5
196
100
AcDbEntity
  8
MAIN0
  6
BYBLOCK
 62
0
100
AcDbBlockReference
  2
_OPEN
 10
555.6057096159566
 20
171.1331256230480
 30
0.0000000000000000
 41
2.000000000000000
 42
2.000000000000000
 43
2.000000000000000
 50
270.0000000000000
  0
LINE
  5
197
100
AcDbEntity
  8
MAIN0
  6
BYBLOCK
 62
0
100
AcDbLine
 10
476.5639792423644
 20
171.1331256230480
 30
0.0000000000000000
 11
557.6057096159566
 21
171.1331256230480
 31
0.0000000000000000
  0
MTEXT
  5
198
100
AcDbEntity
  8
MAIN0
  6
BYBLOCK
 62
0
100
AcDbMText
 10
553.5557096636403
 20
226.1331256230479
 30
0.0000000000000000
 40
3.099999904632568
 41
0.0000000000000000
 71
     5
 72
     1
  1
\A1;\U+2205110h7
 11
6.123233995736766e-017
 21
1.000000000000000
 31
0.0000000000000000
  7
STANDARD
  0
ENDBLK
  5
199
100
AcDbEntity
  8
MAIN0
  6
CONTINUOUS
 62
3
100
AcDbBlockEnd
  0
BLOCK
  5
19B
100
AcDbEntity
  8
MAIN0
  6
CONTINUOUS
 62
3
100
AcDbBlockBegin
  2
*D24
 70
    65
 10
0.0
 20
0.0
 30
0.0
  0
LINE
  5
19C
100
AcDbEntity
  8
MAIN0
  6
BYBLOCK
 62
0
100
AcDbLine
 10
469.5639792423644
 20
146.1331256230480
 30
0.0000000000000000
 11
577.6057096159566
 21
146.1331256230480
 31
0.0000000000000000
  0
LINE
  5
19D
100
AcDbEntity
  8
MAIN0
  6
BYBLOCK
 62
0
100
AcDbLine
 10
575.6057096159566
 20
148.1331256230480
 30
0.0000000000000000
 11
575.6057096159566
 21
304.1331256230478
 31
0.0000000000000000
  0
INSERT
  5
19E
100
AcDbEntity
  8
MAIN0
  6
BYBLOCK
 62
0
100
AcDbBlockReference
  2
_OPEN
 10
575.6057096159566
 20
146.1331256230480
 30
0.0000000000000000
 41
2.000000000000000
 42
2.000000000000000
 43
2.000000000000000
 50
270.0000000000000
  0
INSERT
  5
19F
100
AcDbEntity
  8
MAIN0
  6
BYBLOCK
 62
0
100
AcDbBlockReference
  2
_OPEN
 10
575.6057096159566
 20
306.1331256230478
 30
0.0000000000000000
 41
2.000000000000000
 42
2.000000000000000
 43
2.000000000000000
 50
90.00000000000000
  0
LINE
  5
1A0
100
AcDbEntity
  8
MAIN0
  6
BYBLOCK
 62
0
100
AcDbLine
 10
469.5639792423644
 20
306.1331256230478
 30
0.0000000000000000
 11
577.6057096159566
 21
306.1331256230478
 31
0.0000000000000000
  0
MTEXT
  5
1A1
100
AcDbEntity
  8
MAIN0
  6
BYBLOCK
 62
0
100
AcDbMText
 10
573.5557096636403
 20
226.1331256230479
 30
0.0000000000000000
 40
3.099999904632568
 41
0.0000000000000000
 71
     5
 72
     1
  1
\A1;\U+2205160
 11
6.123233995736766e-017
 21
1.000000000000000
 31
0.0000000000000000
  7
STANDARD
  0
ENDBLK
  5
1A2
100
AcDbEntity
  8
MAIN0
  6
CONTINUOUS
 62
3
100
AcDbBlockEnd
  0
BLOCK
  5
1A4
100
AcDbEntity
  8
MAIN0
  6
CONTINUOUS
 62
3
100
AcDbBlockBegin
  2
D25
 70
    64
 10
0.0
 20
0.0
 30
0.0
  0
LINE
  5
1A5
100
AcDbEntity
  8
MAIN0
  6
BYBLOCK
 62
0
100
AcDbLine
 10
35.51484596121367
 20
10.21377202689715
 30
0.0000000000000000
 11
35.51484596121367
 21
-65.00000000000017
 31
0.0000000000000000
  0
LINE
  5
1A6
100
AcDbEntity
  8
MAIN0
  6
BYBLOCK
 62
0
100
AcDbLine
 10
36.11484598505552
 20
-63.00000000000017
 30
0.0000000000000000
 11
35.51484596121367
 21
-65.00000000000017
 31
0.0000000000000000
  0
LINE
  5
1A7
100
AcDbEntity
  8
MAIN0
  6
BYBLOCK
 62
0
100
AcDbLine
 10
35.51484596121367
 20
-65.00000000000017
 30
0.0000000000000000
 11
34.91484593737181
 21
-63.00000000000017
 31
0.0000000000000000
  0
LINE
  5
1A8
100
AcDbEntity
  8
MAIN0
  6
BYBLOCK
 62
0
100
AcDbLine
 10
-54.81357660764220
 20
-65.00000000000017
 30
0.0000000000000000
 11
37.51484596121367
 21
-65.00000000000017
 31
0.0000000000000000
  0
MTEXT
  5
1A9
100
AcDbEntity
  8
MAIN0
  6
BYBLOCK
 62
0
100
AcDbMText
 10
33.46484600889738
 20
0.5887719786192110
 30
0.0000000000000000
 40
3.099999904632568
 41
0.0000000000000000
 71
     5
 72
     1
  1
\A1;\U+2205130\H0.903226x;\U+00B10.2
 11
6.123233995736766e-017
 21
1.000000000000000
 31
0.0000000000000000
  7
STANDARD
  0
ENDBLK
  5
1AA
100
AcDbEntity
  8
MAIN0
  6
CONTINUOUS
 62
3
100
AcDbBlockEnd
  0
BLOCK
  5
1B5
100
AcDbEntity
  8
MAIN0
  6
CONTINUOUS
 62
3
100
AcDbBlockBegin
  2
*D26
 70
    65
 10
0.0
 20
0.0
 30
0.0
  0
LINE
  5
1B6
100
AcDbEntity
  8
MAIN0
  6
BYBLOCK
 62
0
100
AcDbLine
 10
254.7639792304430
 20
256.9331256349681
 30
0.0000000000000000
 11
254.7639792304430
 21
261.8434621034610
 31
0.0000000000000000
  0
LINE
  5
1B7
100
AcDbEntity
  8
MAIN0
  6
BYBLOCK
 62
0
100
AcDbLine
 10
254.7639792304430
 20
259.8434621034610
 30
0.0000000000000000
 11
258.7639792304429
 21
259.8434621034610
 31
0.0000000000000000
  0
INSERT
  5
1B8
100
AcDbEntity
  8
MAIN0
  6
BYBLOCK
 62
0
100
AcDbBlockReference
  2
_OPEN
 10
254.7639792304430
 20
259.8434621034610
 30
0.0000000000000000
 41
2.000000000000000
 42
2.000000000000000
 43
2.000000000000000
 50
0.0000000000000000
  0
INSERT
  5
1B9
100
AcDbEntity
  8
MAIN0
  6
BYBLOCK
 62
0
100
AcDbBlockReference
  2
_DOT
 10
259.7639792304429
 20
259.8434621034610
 30
0.0000000000000000
 41
1.000000000000000
 42
1.000000000000000
 43
1.000000000000000
 50
0.0000000000000000
  0
LINE
  5
1BA
100
AcDbEntity
  8
MAIN0
  6
BYBLOCK
 62
0
100
AcDbLine
 10
252.7639792304430
 20
259.8434621034610
 30
0.0000000000000000
 11
251.7639792304430
 21
259.8434621034610
 31
0.0000000000000000
  0
LINE
  5
1BB
100
AcDbEntity
  8
MAIN0
  6
BYBLOCK
 62
0
100
AcDbLine
 10
259.7639792304429
 20
256.9331256349681
 30
0.0000000000000000
 11
259.7639792304429
 21
261.8434621034610
 31
0.0000000000000000
  0
MTEXT
  5
1BC
100
AcDbEntity
  8
MAIN0
  6
BYBLOCK
 62
0
100
AcDbMText
 10
257.2639792304429
 20
261.8934620557773
 30
0.0000000000000000
 40
3.099999904632568
 41
0.0000000000000000
 71
     5
 72
     1
  1
\A1;5
 11
1.000000000000000
 21
0.0000000000000000
 31
0.0000000000000000
  7
STANDARD
  0
ENDBLK
  5
1BD
100
AcDbEntity
  8
MAIN0
  6
CONTINUOUS
 62
3
100
AcDbBlockEnd
  0
BLOCK
  5
1BF
100
AcDbEntity
  8
MAIN0
  6
CONTINUOUS
 62
3
100
AcDbBlockBegin
  2
*D27
 70
    65
 10
0.0
 20
0.0
 30
0.0
  0
LINE
  5
1C0
100
AcDbEntity
  8
MAIN0
  6
BYBLOCK
 62
0
100
AcDbLine
 10
259.7639792304429
 20
256.9331256349681
 30
0.0000000000000000
 11
259.7639792304429
 21
261.8434621034610
 31
0.0000000000000000
  0
LINE
  5
1C1
100
AcDbEntity
  8
MAIN0
  6
BYBLOCK
 62
0
100
AcDbLine
 10
260.7639792304429
 20
259.8434621034610
 30
0.0000000000000000
 11
262.7639792304442
 21
259.8434621034610
 31
0.0000000000000000
  0
INSERT
  5
1C2
100
AcDbEntity
  8
MAIN0
  6
BYBLOCK
 62
0
100
AcDbBlockReference
  2
_DOT
 10
259.7639792304429
 20
259.8434621034610
 30
0.0000000000000000
 41
1.000000000000000
 42
1.000000000000000
 43
1.000000000000000
 50
180.0000000000000
  0
INSERT
  5
1C3
100
AcDbEntity
  8
MAIN0
  6
BYBLOCK
 62
0
100
AcDbBlockReference
  2
_OPEN
 10
262.7639792304442
 20
259.8434621034610
 30
0.0000000000000000
 41
2.000000000000000
 42
2.000000000000000
 43
2.000000000000000
 50
180.0000000000000
  0
LINE
  5
1C4
100
AcDbEntity
  8
MAIN0
  6
BYBLOCK
 62
0
100
AcDbLine
 10
264.7639792304442
 20
259.8434621034610
 30
0.0000000000000000
 11
267.5578701835082
 21
259.8434621034610
 31
0.0000000000000000
  0
LINE
  5
1C5
100
AcDbEntity
  8
MAIN0
  6
BYBLOCK
 62
0
100
AcDbLine
 10
262.7639792304440
 20
266.8279238368561
 30
0.0000000000000000
 11
262.7639792304443
 21
257.8434621034610
 31
0.0000000000000000
  0
MTEXT
  5
1C6
100
AcDbEntity
  8
MAIN0
  6
BYBLOCK
 62
0
100
AcDbMText
 10
266.5078702137022
 20
261.8934620557773
 30
0.0000000000000000
 40
3.099999904632568
 41
0.0000000000000000
 71
     5
 72
     1
  1
\A1;3
 11
1.000000000000000
 21
0.0000000000000000
 31
0.0000000000000000
  7
STANDARD
  0
ENDBLK
  5
1C7
100
AcDbEntity
  8
MAIN0
  6
CONTINUOUS
 62
3
100
AcDbBlockEnd
  0
BLOCK
  5
1CB
100
AcDbEntity
  8
MAIN0
  6
CONTINUOUS
 62
3
100
AcDbBlockBegin
  2
*D28
 70
    65
 10
0.0
 20
0.0
 30
0.0
  0
LINE
  5
1CC
100
AcDbEntity
  8
MAIN0
  6
BYBLOCK
 62
0
100
AcDbLine
 10
326.4564674583349
 20
238.1331256230479
 30
0.0000000000000000
 11
326.4564674583349
 21
214.1331256230479
 31
0.0000000000000000
  0
INSERT
  5
1CD
100
AcDbEntity
  8
MAIN0
  6
BYBLOCK
 62
0
100
AcDbBlockReference
  2
_OPEN
 10
326.4564674583349
 20
240.1331256230479
 30
0.0000000000000000
 41
2.000000000000000
 42
2.000000000000000
 43
2.000000000000000
 50
90.00000000000000
  0
INSERT
  5
1CE
100
AcDbEntity
  8
MAIN0
  6
BYBLOCK
 62
0
100
AcDbBlockReference
  2
_OPEN
 10
326.4564674583349
 20
212.1331256230479
 30
0.0000000000000000
 41
2.000000000000000
 42
2.000000000000000
 43
2.000000000000000
 50
270.0000000000000
  0
LINE
  5
1CF
100
AcDbEntity
  8
MAIN0
  6
BYBLOCK
 62
0
100
AcDbLine
 10
311.9919566091692
 20
212.1331256230479
 30
0.0000000000000000
 11
328.4564674583349
 21
212.1331256230479
 31
0.0000000000000000
  0
MTEXT
  5
1D0
100
AcDbEntity
  8
MAIN0
  6
BYBLOCK
 62
0
100
AcDbMText
 10
324.4064675060187
 20
226.1331256230479
 30
0.0000000000000000
 40
3.099999904632568
 41
0.0000000000000000
 71
     5
 72
     1
  1
\A1;28
 11
6.123233995736766e-017
 21
1.000000000000000
 31
0.0000000000000000
  7
STANDARD
  0
ENDBLK
  5
1D1
100
AcDbEntity
  8
MAIN0
  6
CONTINUOUS
 62
3
100
AcDbBlockEnd
  0
BLOCK
  5
1F9
100
AcDbEntity
  8
MAIN0
  6
BYBLOCK
 62
3
100
AcDbBlockBegin
  2
M0
 70
    64
 10
0.0
 20
0.0
 30
0.0
  0
LINE
  5
1FA
100
AcDbEntity
  8
MAIN0
  6
BYBLOCK
 62
0
100
AcDbLine
 10
214.2142279655689
 20
119.8715623742261
 30
0.0000000000000000
 11
291.2142279655689
 21
119.8715623742261
 31
0.0000000000000000
  0
LINE
  5
1FB
100
AcDbEntity
  8
MAIN0
  6
BYBLOCK
 62
0
100
AcDbLine
 10
214.2142279655689
 20
112.8715623742261
 30
0.0000000000000000
 11
291.2142279655689
 21
112.8715623742261
 31
0.0000000000000000
  0
LINE
  5
1FC
100
AcDbEntity
  8
MAIN0
  6
BYBLOCK
 62
0
100
AcDbLine
 10
214.2142279655689
 20
27.37156237422613
 30
0.0000000000000000
 11
214.2142279655689
 21
119.8715623742262
 31
0.0000000000000000
  0
LINE
  5
1FD
100
AcDbEntity
  8
MAIN0
  6
BYBLOCK
 62
0
100
AcDbLine
 10
214.2142279655690
 20
105.8715623742261
 30
0.0000000000000000
 11
291.2142279655689
 21
105.8715623742261
 31
0.0000000000000000
  0
LINE
  5
1FE
100
AcDbEntity
  8
MAIN0
  6
BYBLOCK
 62
0
100
AcDbLine
 10
214.2142279655690
 20
98.87156237422614
 30
0.0000000000000000
 11
291.2142279655689
 21
98.87156237422614
 31
0.0000000000000000
  0
LINE
  5
1FF
100
AcDbEntity
  8
MAIN0
  6
BYBLOCK
 62
0
100
AcDbLine
 10
257.1974163338422
 20
88.87156237422613
 30
0.0000000000000000
 11
291.2142279655689
 21
88.87156237422613
 31
0.0000000000000000
  0
LINE
  5
200
100
AcDbEntity
  8
MAIN0
  6
BYBLOCK
 62
0
100
AcDbLine
 10
214.2142279655689
 20
78.87156237422613
 30
0.0000000000000000
 11
291.2142279655689
 21
78.87156237422613
 31
0.0000000000000000
  0
LINE
  5
201
100
AcDbEntity
  8
MAIN0
  6
BYBLOCK
 62
0
100
AcDbLine
 10
214.2142279655689
 20
68.87156237422613
 30
0.0000000000000000
 11
291.2142279655689
 21
68.87156237422613
 31
0.0000000000000000
  0
LINE
  5
202
100
AcDbEntity
  8
MAIN0
  6
BYBLOCK
 62
0
100
AcDbLine
 10
214.2142279655689
 20
61.87156237422613
 30
0.0000000000000000
 11
291.2142279655689
 21
61.87156237422613
 31
0.0000000000000000
  0
LINE
  5
203
100
AcDbEntity
  8
MAIN0
  6
BYBLOCK
 62
0
100
AcDbLine
 10
214.2142279655689
 20
54.87156237422613
 30
0.0000000000000000
 11
291.2142279655689
 21
54.87156237422613
 31
0.0000000000000000
  0
LINE
  5
204
100
AcDbEntity
  8
MAIN0
  6
BYBLOCK
 62
0
100
AcDbLine
 10
214.2142279655689
 20
44.87156237422613
 30
0.0000000000000000
 11
291.2142279655689
 21
44.87156237422613
 31
0.0000000000000000
  0
LINE
  5
205
100
AcDbEntity
  8
MAIN0
  6
BYBLOCK
 62
0
100
AcDbLine
 10
214.2142279655689
 20
27.37156237422616
 30
0.0000000000000000
 11
291.2142279655689
 21
27.37156237422590
 31
0.0000000000000000
  0
LINE
  5
206
100
AcDbEntity
  8
MAIN0
  6
BYBLOCK
 62
0
100
AcDbLine
 10
261.2142279655688
 20
27.37156237422602
 30
0.0000000000000000
 11
261.2142279655688
 21
112.8715623742261
 31
0.0000000000000000
  0
LINE
  5
207
100
AcDbEntity
  8
MAIN0
  6
BYBLOCK
 62
0
100
AcDbLine
 10
291.2142279655689
 20
27.37156237422590
 30
0.0000000000000000
 11
291.2142279655689
 21
119.8715623742262
 31
0.0000000000000000
  0
LINE
  5
208
100
AcDbEntity
  8
MAIN0
  6
BYBLOCK
 62
0
100
AcDbLine
 10
214.2142279655689
 20
37.87156237422613
 30
0.0000000000000000
 11
291.2142279655689
 21
37.87156237422613
 31
0.0000000000000000
  0
MTEXT
  5
209
100
AcDbEntity
  8
MAIN0
  6
BYBLOCK
 62
0
100
AcDbMText
 10
216.2142279655689
 20
66.87156237422626
 30
0.0000000000000000
 40
3.000000000000000
 41
0.0000000000000000
 71
     1
 72
     1
  1
{\H0.93x;MAX. SPEED}
 11
1.000000000000000
 21
0.0000000000000000
 31
0.0000000000000000
  7
STANDARD
  0
MTEXT
  5
20A
100
AcDbEntity
  8
MAIN0
  6
BYBLOCK
 62
0
100
AcDbMText
 10
216.2142279655689
 20
59.87156237422626
 30
0.0000000000000000
 40
3.000000000000000
 41
0.0000000000000000
 71
     1
 72
     1
  1
{\H0.91x;MASS}
 11
1.000000000000000
 21
0.0000000000000000
 31
0.0000000000000000
  7
STANDARD
  0
MTEXT
  5
20B
100
AcDbEntity
  8
MAIN0
  6
BYBLOCK
 62
0
100
AcDbMText
 10
216.2142279655689
 20
51.37156237422620
 30
0.0000000000000000
 40
3.000000000000000
 41
0.0000000000000000
 71
     1
 72
     1
  1
{\H0.59x;ＭＯＭＥＮＴ　ＯＦ　ＩＮＥＲＴＩＡ}
 11
1.000000000000000
 21
0.0000000000000000
 31
0.0000000000000000
  7
KNJYOKO
  0
MTEXT
  5
20C
100
AcDbEntity
  8
MAIN0
  6
BYBLOCK
 62
0
100
AcDbMText
 10
276.2142279655688
 20
109.6715616112865
 30
0.0000000000000000
 40
2.799999237060547
 41
0.0000000000000000
 71
     1
 72
     1
  1
{\H0.62x;　　　　mm}
 11
1.000000000000000
 21
0.0000000000000000
 31
0.0000000000000000
  7
KNJYOKO
  0
MTEXT
  5
20D
100
AcDbEntity
  8
MAIN0
  6
BYBLOCK
 62
0
100
AcDbMText
 10
276.2142279655688
 20
52.17156161128658
 30
0.0000000000000000
 40
2.799999237060547
 41
0.0000000000000000
 71
     1
 72
     1
  1
{\H0.64x;　　kg・m}
 11
1.000000000000000
 21
0.0000000000000000
 31
0.0000000000000000
  7
KNJYOKO
  0
MTEXT
  5
20E
100
AcDbEntity
  8
MAIN0
  6
BYBLOCK
 62
0
100
AcDbMText
 10
276.2142279655688
 20
58.67156161128658
 30
0.0000000000000000
 40
2.799999237060547
 41
0.0000000000000000
 71
     1
 72
     1
  1
{\H0.62x;　　　　kg}
 11
1.000000000000000
 21
0.0000000000000000
 31
0.0000000000000000
  7
KNJYOKO
  0
MTEXT
  5
20F
100
AcDbEntity
  8
MAIN0
  6
BYBLOCK
 62
0
100
AcDbMText
 10
219.4642279655689
 20
119.0215624695936
 30
0.0000000000000000
 40
5.300000190734863
 41
0.0000000000000000
 71
     1
 72
     1
  1
{\H0.94x;SPECIFICATIONS}
 11
1.000000000000000
 21
0.0000000000000000
 31
0.0000000000000000
  7
STANDARD
  0
MTEXT
  5
210
100
AcDbEntity
  8
MAIN0
  6
BYBLOCK
 62
0
100
AcDbMText
 10
216.2142279655689
 20
110.8715623742261
 30
0.0000000000000000
 40
3.000000000000000
 41
0.0000000000000000
 71
     1
 72
     1
  1
{\H0.93x;PISTON DIA}
 11
1.000000000000000
 21
0.0000000000000000
 31
0.0000000000000000
  7
STANDARD
  0
MTEXT
  5
211
100
AcDbEntity
  8
MAIN0
  6
BYBLOCK
 62
0
100
AcDbMText
 10
216.2142279655689
 20
103.8715623742264
 30
0.0000000000000000
 40
3.000000000000000
 41
0.0000000000000000
 71
     1
 72
     1
  1
{\H0.93x;PISTON STROKE}
 11
1.000000000000000
 21
0.0000000000000000
 31
0.0000000000000000
  7
STANDARD
  0
MTEXT
  5
212
100
AcDbEntity
  8
MAIN0
  6
BYBLOCK
 62
0
100
AcDbMText
 10
216.2142279655689
 20
94.87156237422637
 30
0.0000000000000000
 40
3.000000000000000
 41
0.0000000000000000
 71
     1
 72
     1
  1
{\H0.93x;PISTON THRUST}
 11
1.000000000000000
 21
0.0000000000000000
 31
0.0000000000000000
  7
STANDARD
  0
MTEXT
  5
213
100
AcDbEntity
  8
MAIN0
  6
BYBLOCK
 62
0
100
AcDbMText
 10
214.2142279655689
 20
88.87156237422626
 30
0.0000000000000000
 40
3.000000000000000
 41
0.0000000000000000
 71
     1
 72
     1
  1
{\H0.94x;(AT  　 　　　　　)}
 11
1.000000000000000
 21
0.0000000000000000
 31
0.0000000000000000
  7
KNJYOKO
  0
MTEXT
  5
214
100
AcDbEntity
  8
MAIN0
  6
BYBLOCK
 62
0
100
AcDbMText
 10
216.2142279655689
 20
35.87156237422620
 30
0.0000000000000000
 40
3.000000000000000
 41
0.0000000000000000
 71
     1
 72
     1
  1
{\H0.93x;OIL LEAKAGE}
 11
1.000000000000000
 21
0.0000000000000000
 31
0.0000000000000000
  7
STANDARD
  0
MTEXT
  5
215
100
AcDbEntity
  8
MAIN0
  6
BYBLOCK
 62
0
100
AcDbMText
 10
253.4973387073845
 20
95.10785255493643
 30
0.0000000000000000
 40
3.000000000000000
 41
0.0000000000000000
 71
     1
 72
     1
  1
{\H0.63x;PUSH}
 11
1.000000000000000
 21
0.0000000000000000
 31
0.0000000000000000
  7
STANDARD
  0
MTEXT
  5
216
100
AcDbEntity
  8
MAIN0
  6
BYBLOCK
 62
0
100
AcDbMText
 10
253.4973387073845
 20
85.10785255493632
 30
0.0000000000000000
 40
3.000000000000000
 41
0.0000000000000000
 71
     1
 72
     1
  1
{\H0.63x;PULL}
 11
1.000000000000000
 21
0.0000000000000000
 31
0.0000000000000000
  7
STANDARD
  0
MTEXT
  5
217
100
AcDbEntity
  8
MAIN0
  6
BYBLOCK
 62
0
100
AcDbMText
 10
216.2142279655689
 20
31.37156237422620
 30
0.0000000000000000
 40
2.000000000000000
 41
0.0000000000000000
 71
     1
 72
     1
  1
{\H0.94x;ISO,VG 32,50℃,3.0MPa}
 11
1.000000000000000
 21
0.0000000000000000
 31
0.0000000000000000
  7
KNJYOKO
  0
MTEXT
  5
218
100
AcDbEntity
  8
MAIN0
  6
BYBLOCK
 62
0
100
AcDbMText
 10
276.2142279655688
 20
31.17156161128658
 30
0.0000000000000000
 40
2.799999237060547
 41
0.0000000000000000
 71
     1
 72
     1
  1
{\H0.69x;　l/min}
 11
1.000000000000000
 21
0.0000000000000000
 31
0.0000000000000000
  7
KNJYOKO
  0
MTEXT
  5
219
100
AcDbEntity
  8
MAIN0
  6
BYBLOCK
 62
0
100
AcDbMText
 10
216.2142279655689
 20
75.37156237422626
 30
0.0000000000000000
 40
3.000000000000000
 41
0.0000000000000000
 71
     1
 72
     1
  1
{\H0.63x;MAX. OPERATING PRESSURE}
 11
1.000000000000000
 21
0.0000000000000000
 31
0.0000000000000000
  7
STANDARD
  0
MTEXT
  5
21A
100
AcDbEntity
  8
MAIN0
  6
BYBLOCK
 62
0
100
AcDbMText
 10
288.1247739401923
 20
52.42713220241838
 30
0.0000000000000000
 40
2.000000000000000
 41
0.0000000000000000
 71
     1
 72
     1
  1
{\H0.81x;2}
 11
1.000000000000000
 21
0.0000000000000000
 31
0.0000000000000000
  7
STANDARD
  0
MTEXT
  5
21B
100
AcDbEntity
  8
MAIN0
  6
BYBLOCK
 62
0
100
AcDbMText
 10
276.2142279655688
 20
76.17156161128658
 30
0.0000000000000000
 40
2.799999237060547
 41
0.0000000000000000
 71
     1
 72
     1
  1
{\H0.64x;　　　MPa}
 11
1.000000000000000
 21
0.0000000000000000
 31
0.0000000000000000
  7
KNJYOKO
  0
MTEXT
  5
21C
100
AcDbEntity
  8
MAIN0
  6
BYBLOCK
 62
0
100
AcDbMText
 10
237.1319209209374
 20
88.67156161128682
 30
0.0000000000000000
 40
2.799999237060547
 41
0.0000000000000000
 71
     1
 72
     1
  1
{\H0.64x;　　　MPa}
 11
1.000000000000000
 21
0.0000000000000000
 31
0.0000000000000000
  7
KNJYOKO
  0
MTEXT
  5
21D
100
AcDbEntity
  8
MAIN0
  6
BYBLOCK
 62
0
100
AcDbMText
 10
276.2142279655688
 20
96.17156161128669
 30
0.0000000000000000
 40
2.799999237060547
 41
0.0000000000000000
 71
     1
 72
     1
  1
{\H0.62x;　　　　kN}
 11
1.000000000000000
 21
0.0000000000000000
 31
0.0000000000000000
  7
KNJYOKO
  0
MTEXT
  5
21E
100
AcDbEntity
  8
MAIN0
  6
BYBLOCK
 62
0
100
AcDbMText
 10
276.2142279655688
 20
65.67156161128658
 30
0.0000000000000000
 40
2.799999237060547
 41
0.0000000000000000
 71
     1
 72
     1
  1
{\H0.65x;　　min}
 11
1.000000000000000
 21
0.0000000000000000
 31
0.0000000000000000
  7
KNJYOKO
  0
MTEXT
  5
21F
100
AcDbEntity
  8
MAIN0
  6
BYBLOCK
 62
0
100
AcDbMText
 10
286.3688962138887
 20
66.34110616418134
 30
0.0000000000000000
 40
2.000000000000000
 41
0.0000000000000000
 71
     1
 72
     1
  1
{\H0.88x;-1}
 11
1.000000000000000
 21
0.0000000000000000
 31
0.0000000000000000
  7
STANDARD
  0
MTEXT
  5
220
100
AcDbEntity
  8
MAIN0
  6
BYBLOCK
 62
0
100
AcDbMText
 10
276.2142279655688
 20
102.6715616112867
 30
0.0000000000000000
 40
2.799999237060547
 41
0.0000000000000000
 71
     1
 72
     1
  1
{\H0.62x;　　　　mm}
 11
1.000000000000000
 21
0.0000000000000000
 31
0.0000000000000000
  7
KNJYOKO
  0
MTEXT
  5
221
100
AcDbEntity
  8
MAIN0
  6
BYBLOCK
 62
0
100
AcDbMText
 10
276.2142279655688
 20
86.17156161128658
 30
0.0000000000000000
 40
2.799999237060547
 41
0.0000000000000000
 71
     1
 72
     1
  1
{\H0.62x;　　　　kN}
 11
1.000000000000000
 21
0.0000000000000000
 31
0.0000000000000000
  7
KNJYOKO
  0
ENDBLK
  5
222
100
AcDbEntity
  8
MAIN0
  6
BYBLOCK
 62
3
100
AcDbBlockEnd
  0
ENDSEC
  0
SECTION
  2
ENTITIES
  0
LINE
  5
46
100
AcDbEntity
  8
MAIN0
  6
CENTER
 62
12
100
AcDbLine
 10
109.7832492213888
 20
172.1893341652877
 30
0.0000000000000000
 11
109.7832492213888
 21
293.6089983983919
 31
0.0000000000000000
  0
LINE
  5
47
100
AcDbEntity
  8
MAIN0
  6
CENTER
 62
12
100
AcDbLine
 10
57.26798714571444
 20
226.1331256230479
 30
0.0000000000000000
 11
155.0909450716171
 21
226.1331256230479
 31
0.0000000000000000
  0
LINE
  5
48
100
AcDbEntity
  8
MAIN0
  6
CONTINUOUS
 62
12
100
AcDbLine
 10
475.2772870471007
 20
161.1331256230477
 30
0.0000000000000000
 11
567.6057096159566
 21
161.1331256230477
 31
0.0000000000000000
  0
LINE
  5
49
100
AcDbEntity
  8
MAIN0
  6
CONTINUOUS
 62
3
100
AcDbLine
 10
373.7639792304439
 20
147.1331256230480
 30
0.0000000000000000
 11
373.7639792304439
 21
305.1331256230477
 31
0.0000000000000000
  0
LINE
  5
4A
100
AcDbEntity
  8
MAIN0
  6
CENTER
 62
12
100
AcDbLine
 10
120.8663069061922
 20
332.4978092361068
 30
0.0000000000000000
 11
214.7963223330939
 21
386.7283289278145
 31
0.0000000000000000
  0
LINE
  5
4B
100
AcDbEntity
  8
MAIN0
  6
CENTER
 62
12
100
AcDbLine
 10
71.79069163718421
 20
293.6089983983920
 30
0.0000000000000000
 11
71.79069163718421
 21
405.5690082675810
 31
0.0000000000000000
  0
LINE
  5
4C
100
AcDbEntity
  8
MAIN0
  6
CENTER
 62
12
100
AcDbLine
 10
120.8663069061921
 20
332.4978092361068
 30
0.0000000000000000
 11
164.1528015221929
 21
257.5234012796367
 31
0.0000000000000000
  0
LINE
  5
4D
100
AcDbEntity
  8
MAIN0
  6
CENTER
 62
12
100
AcDbLine
 10
109.7832492213888
 20
293.6089983983919
 30
0.0000000000000000
 11
71.79069163718421
 21
293.6089983983919
 31
0.0000000000000000
  0
LINE
  5
4E
100
AcDbEntity
  8
MAIN0
  6
CONTINUOUS
 62
3
100
AcDbLine
 10
49.79069163718424
 20
305.6340431250696
 30
0.0000000000000000
 11
71.79069163718421
 21
305.6340431250696
 31
0.0000000000000000
  0
LINE
  5
4F
100
AcDbEntity
  8
MAIN0
  6
PHANTOM
 62
12
100
AcDbLine
 10
49.79069163718421
 20
401.6340431250696
 30
0.0000000000000000
 11
71.79069163718421
 21
401.6340431250696
 31
0.0000000000000000
  0
LINE
  5
50
100
AcDbEntity
  8
MAIN0
  6
PHANTOM
 62
12
100
AcDbLine
 10
111.9028394494475
 20
352.7261607314264
 30
0.0000000000000000
 11
122.9028394494475
 21
333.6736018481687
 31
0.0000000000000000
  0
LINE
  5
51
100
AcDbEntity
  8
MAIN0
  6
CONTINUOUS
 62
3
100
AcDbLine
 10
195.0412782127533
 20
400.7261607314265
 30
0.0000000000000000
 11
216.2912782127535
 21
363.9200810705875
 31
0.0000000000000000
  0
LINE
  5
52
100
AcDbEntity
  8
MAIN0
  6
CONTINUOUS
 62
3
100
AcDbLine
 10
49.79069163718421
 20
360.6340431250696
 30
0.0000000000000000
 11
71.79069163718421
 21
360.6340431250696
 31
0.0000000000000000
  0
LINE
  5
53
100
AcDbEntity
  8
MAIN0
  6
CONTINUOUS
 62
3
100
AcDbLine
 10
147.4098810046096
 20
373.2261607314266
 30
0.0000000000000000
 11
168.6598810046097
 21
336.4200810705876
 31
0.0000000000000000
  0
LINE
  5
54
100
AcDbEntity
  8
MAIN0
  6
CENTER
 62
12
100
AcDbLine
 10
60.50404079701485
 20
339.6340431250696
 30
0.0000000000000000
 11
79.81152561058678
 21
339.6340431250696
 31
0.0000000000000000
  0
LINE
  5
55
100
AcDbEntity
  8
MAIN0
  6
CENTER
 62
12
100
AcDbLine
 10
49.29069163718418
 20
353.6340431250696
 30
0.0000000000000000
 11
63.12575765971920
 21
353.6340431250696
 31
0.0000000000000000
  0
LINE
  5
56
100
AcDbEntity
  8
MAIN0
  6
CENTER
 62
12
100
AcDbLine
 10
49.29069163718418
 20
312.6340431250696
 30
0.0000000000000000
 11
63.20520684390684
 21
312.6340431250696
 31
0.0000000000000000
  0
LINE
  5
57
100
AcDbEntity
  8
MAIN0
  6
CENTER
 62
12
100
AcDbLine
 10
55.79069163718421
 20
303.8946609116454
 30
0.0000000000000000
 11
55.79069163718421
 21
362.4469748049630
 31
0.0000000000000000
  0
LINE
  5
58
100
AcDbEntity
  8
MAIN0
  6
CENTER
 62
12
100
AcDbLine
 10
60.50404079701485
 20
380.6340431250696
 30
0.0000000000000000
 11
76.71117869901573
 21
380.6340431250696
 31
0.0000000000000000
  0
LINE
  5
59
100
AcDbEntity
  8
MAIN0
  6
CONTINUOUS
 62
3
100
AcDbLine
 10
58.54069163718421
 20
312.6340431250696
 30
0.0000000000000000
 11
58.54069163718421
 21
349.4582198529471
 31
0.0000000000000000
  0
LINE
  5
5A
100
AcDbEntity
  8
MAIN0
  6
CONTINUOUS
 62
3
100
AcDbLine
 10
53.04069163718421
 20
312.6340431250696
 30
0.0000000000000000
 11
53.04069163718421
 21
349.4582198529471
 31
0.0000000000000000
  0
LINE
  5
5B
100
AcDbEntity
  8
MAIN0
  6
CONTINUOUS
 62
3
100
AcDbLine
 10
42.86681757963731
 20
330.6340431250696
 30
0.0000000000000000
 11
47.79069163718421
 21
330.6340431250696
 31
0.0000000000000000
  0
LINE
  5
5C
100
AcDbEntity
  8
MAIN0
  6
HIDDEN
 62
12
100
AcDbLine
 10
47.79069163718418
 20
330.6340431250696
 30
0.0000000000000000
 11
94.29069163718413
 21
330.6340431250696
 31
0.0000000000000000
  0
LINE
  5
5D
100
AcDbEntity
  8
MAIN0
  6
CONTINUOUS
 62
3
100
AcDbLine
 10
94.29069163718418
 20
330.6340431250696
 30
0.0000000000000000
 11
100.1479799311155
 21
330.6340431250696
 31
0.0000000000000000
  0
LINE
  5
5E
100
AcDbEntity
  8
MAIN0
  6
CONTINUOUS
 62
3
100
AcDbLine
 10
42.86681757963731
 20
329.0340431250696
 30
0.0000000000000000
 11
47.79069163718421
 21
329.0340431250696
 31
0.0000000000000000
  0
LINE
  5
5F
100
AcDbEntity
  8
MAIN0
  6
HIDDEN
 62
12
100
AcDbLine
 10
47.79069163718418
 20
329.0340431250696
 30
0.0000000000000000
 11
94.29069163718413
 21
329.0340431250696
 31
0.0000000000000000
  0
LINE
  5
60
100
AcDbEntity
  8
MAIN0
  6
CONTINUOUS
 62
3
100
AcDbLine
 10
94.29069163718413
 20
329.0340431250696
 30
0.0000000000000000
 11
100.1479799311155
 21
329.0340431250696
 31
0.0000000000000000
  0
LINE
  5
61
100
AcDbEntity
  8
MAIN0
  6
CENTER
 62
12
100
AcDbLine
 10
94.29069163718427
 20
353.6340431250696
 30
0.0000000000000000
 11
80.45562561464925
 21
353.6340431250696
 31
0.0000000000000000
  0
LINE
  5
62
100
AcDbEntity
  8
MAIN0
  6
CENTER
 62
12
100
AcDbLine
 10
87.79069163718424
 20
320.2607325871836
 30
0.0000000000000000
 11
87.79069163718424
 21
362.4469748049630
 31
0.0000000000000000
  0
LINE
  5
63
100
AcDbEntity
  8
MAIN0
  6
CONTINUOUS
 62
3
100
AcDbLine
 10
71.79069163718427
 20
373.6340431250696
 30
0.0000000000000000
 11
92.29069163718435
 21
373.6340431250696
 31
0.0000000000000000
  0
LINE
  5
64
100
AcDbEntity
  8
MAIN0
  6
CONTINUOUS
 62
3
100
AcDbLine
 10
71.79069163718427
 20
388.6340431250696
 30
0.0000000000000000
 11
92.29069163718421
 21
388.6340431250696
 31
0.0000000000000000
  0
LINE
  5
65
100
AcDbEntity
  8
MAIN0
  6
CONTINUOUS
 62
3
100
AcDbLine
 10
71.79069163718430
 20
318.6340431250696
 30
0.0000000000000000
 11
92.29069163718421
 21
318.6340431250696
 31
0.0000000000000000
  0
LINE
  5
66
100
AcDbEntity
  8
MAIN0
  6
CONTINUOUS
 62
3
100
AcDbLine
 10
71.79069163718430
 20
317.6340431250696
 30
0.0000000000000000
 11
92.29069163718421
 21
317.6340431250696
 31
0.0000000000000000
  0
LINE
  5
67
100
AcDbEntity
  8
MAIN0
  6
CENTER
 62
12
100
AcDbLine
 10
94.29069163718427
 20
339.6340431250696
 30
0.0000000000000000
 11
80.45562561464925
 21
339.6340431250696
 31
0.0000000000000000
  0
LINE
  5
68
100
AcDbEntity
  8
MAIN0
  6
CENTER
 62
12
100
AcDbLine
 10
94.29069163718427
 20
325.6340431250696
 30
0.0000000000000000
 11
80.45562561464925
 21
325.6340431250696
 31
0.0000000000000000
  0
LINE
  5
69
100
AcDbEntity
  8
MAIN0
  6
CONTINUOUS
 62
3
100
AcDbLine
 10
90.54069163718424
 20
325.6340431250696
 30
0.0000000000000000
 11
90.54069163718424
 21
353.6340431250696
 31
0.0000000000000000
  0
LINE
  5
6A
100
AcDbEntity
  8
MAIN0
  6
CONTINUOUS
 62
3
100
AcDbLine
 10
85.04069163718424
 20
325.6340431250696
 30
0.0000000000000000
 11
85.04069163718424
 21
353.6340431250696
 31
0.0000000000000000
  0
LINE
  5
6B
100
AcDbEntity
  8
MAIN0
  6
CONTINUOUS
 62
3
100
AcDbLine
 10
78.79069163718421
 20
340.6340431250696
 30
0.0000000000000000
 11
78.79069163718424
 21
351.6340429168196
 31
0.0000000000000000
  0
LINE
  5
6C
100
AcDbEntity
  8
MAIN0
  6
HIDDEN
 62
12
100
AcDbLine
 10
78.79069163718421
 20
351.6340429168196
 30
0.0000000000000000
 11
78.79069163718421
 21
365.6340431250696
 31
0.0000000000000000
  0
LINE
  5
6D
100
AcDbEntity
  8
MAIN0
  6
CONTINUOUS
 62
3
100
AcDbLine
 10
47.79069163718421
 20
307.6340431250696
 30
0.0000000000000000
 11
47.79069163718421
 21
358.6340431250696
 31
0.0000000000000000
  0
LINE
  5
6E
100
AcDbEntity
  8
MAIN0
  6
PHANTOM
 62
12
100
AcDbLine
 10
47.79069163718421
 20
360.6340431250696
 30
0.0000000000000000
 11
47.79069163718421
 21
399.6340431250696
 31
0.0000000000000000
  0
LINE
  5
6F
100
AcDbEntity
  8
MAIN0
  6
PHANTOM
 62
12
100
AcDbLine
 10
112.6348902570164
 20
355.4582115389953
 30
0.0000000000000000
 11
146.4098810046096
 21
374.9582115389954
 31
0.0000000000000000
  0
LINE
  5
70
100
AcDbEntity
  8
MAIN0
  6
CONTINUOUS
 62
3
100
AcDbLine
 10
148.1419318121785
 20
375.9582115389954
 30
0.0000000000000000
 11
192.3092274051846
 21
401.4582115389954
 31
0.0000000000000000
  0
LINE
  5
71
100
AcDbEntity
  8
MAIN0
  6
CENTER
 62
12
100
AcDbLine
 10
150.4098810046096
 20
368.0300083087199
 30
0.0000000000000000
 11
198.0412782127535
 21
395.5300083087199
 31
0.0000000000000000
  0
LINE
  5
72
100
AcDbEntity
  8
MAIN0
  6
CENTER
 62
12
100
AcDbLine
 10
188.7291003862624
 20
397.6591734333188
 30
0.0000000000000000
 11
195.1168684282625
 21
386.5952346376097
 31
0.0000000000000000
  0
LINE
  5
73
100
AcDbEntity
  8
MAIN0
  6
CENTER
 62
12
100
AcDbLine
 10
153.2220588311005
 20
377.1591734333188
 30
0.0000000000000000
 11
160.1825478064152
 21
365.1032528825507
 31
0.0000000000000000
  0
LINE
  5
74
100
AcDbEntity
  8
MAIN0
  6
CONTINUOUS
 62
3
100
AcDbLine
 10
158.7134278664729
 20
375.9994898051883
 30
0.0000000000000000
 11
190.6041003862624
 21
394.4115781691270
 31
0.0000000000000000
  0
LINE
  5
75
100
AcDbEntity
  8
MAIN0
  6
CONTINUOUS
 62
3
100
AcDbLine
 10
161.4634278664728
 20
371.2363500843738
 30
0.0000000000000000
 11
193.3541003862625
 21
389.6484384483126
 31
0.0000000000000000
  0
LINE
  5
76
100
AcDbEntity
  8
MAIN0
  6
CENTER
 62
12
100
AcDbLine
 10
182.0042651258967
 20
381.3069297768029
 30
0.0000000000000000
 11
192.3900172811125
 21
363.3182793691511
 31
0.0000000000000000
  0
LINE
  5
77
100
AcDbEntity
  8
MAIN0
  6
CENTER
 62
12
100
AcDbLine
 10
146.4972235707348
 20
360.8069297768029
 30
0.0000000000000000
 11
157.5959722166740
 21
341.5833332215999
 31
0.0000000000000000
  0
LINE
  5
78
100
AcDbEntity
  8
MAIN0
  6
CONTINUOUS
 62
3
100
AcDbLine
 10
130.8918082859292
 20
369.8363019232980
 30
0.0000000000000000
 11
144.5534745440585
 21
346.1736018481687
 31
0.0000000000000000
  0
LINE
  5
79
100
AcDbEntity
  8
MAIN0
  6
CONTINUOUS
 62
3
100
AcDbLine
 10
158.2151408021878
 20
322.5109017730396
 30
0.0000000000000000
 11
144.5534745440584
 21
346.1736018481688
 31
0.0000000000000000
  0
LINE
  5
7A
100
AcDbEntity
  8
MAIN0
  6
CONTINUOUS
 62
3
100
AcDbLine
 10
129.5061676398742
 20
369.0363019232980
 30
0.0000000000000000
 11
143.1678338980034
 21
345.3736018481688
 31
0.0000000000000000
  0
LINE
  5
7B
100
AcDbEntity
  8
MAIN0
  6
CONTINUOUS
 62
3
100
AcDbLine
 10
156.8295001561328
 20
321.7109017730396
 30
0.0000000000000000
 11
143.1678338980034
 21
345.3736018481689
 31
0.0000000000000000
  0
LINE
  5
7C
100
AcDbEntity
  8
MAIN0
  6
CONTINUOUS
 62
3
100
AcDbLine
 10
170.0928937065016
 20
334.9380302630189
 30
0.0000000000000000
 11
216.4252528089689
 21
361.6880302630187
 31
0.0000000000000000
  0
LINE
  5
7D
100
AcDbEntity
  8
MAIN0
  6
CENTER
 62
12
100
AcDbLine
 10
166.4098810046096
 20
340.3171953876179
 30
0.0000000000000000
 11
203.5729920241331
 21
361.7733275386637
 31
0.0000000000000000
  0
LINE
  5
7E
100
AcDbEntity
  8
MAIN0
  6
CENTER
 62
12
100
AcDbLine
 10
175.7220588311006
 20
338.1880302630189
 30
0.0000000000000000
 11
168.7615698557859
 21
350.2439508137869
 31
0.0000000000000000
  0
LINE
  5
7F
100
AcDbEntity
  8
MAIN0
  6
CENTER
 62
12
100
AcDbLine
 10
187.8464144840827
 20
345.1880302630189
 30
0.0000000000000000
 11
180.8859255087680
 21
357.2439508137870
 31
0.0000000000000000
  0
LINE
  5
80
100
AcDbEntity
  8
MAIN0
  6
CENTER
 62
12
100
AcDbLine
 10
199.9707701370649
 20
352.1880302630190
 30
0.0000000000000000
 11
193.0102811617501
 21
364.2439508137870
 31
0.0000000000000000
  0
LINE
  5
81
100
AcDbEntity
  8
MAIN0
  6
CONTINUOUS
 62
3
100
AcDbLine
 10
171.0970588311007
 20
346.1987652480251
 30
0.0000000000000000
 11
195.3457701370649
 21
360.1987652480250
 31
0.0000000000000000
  0
LINE
  5
82
100
AcDbEntity
  8
MAIN0
  6
CONTINUOUS
 62
3
100
AcDbLine
 10
173.8470588311007
 20
341.4356255272107
 30
0.0000000000000000
 11
198.0957701370649
 21
355.4356255272106
 31
0.0000000000000000
  0
LINE
  5
83
100
AcDbEntity
  8
MAIN0
  6
HIDDEN
 62
12
100
AcDbLine
 10
168.8380842348851
 20
352.1114240216776
 30
0.0000000000000000
 11
180.9624398878671
 21
359.1114240216776
 31
0.0000000000000000
  0
LINE
  5
84
100
AcDbEntity
  8
MAIN0
  6
CONTINUOUS
 62
3
100
AcDbLine
 10
180.9624398878671
 20
359.1114240216776
 30
0.0000000000000000
 11
190.4887193294959
 21
364.6114240216776
 31
0.0000000000000000
  0
LINE
  5
85
100
AcDbEntity
  8
MAIN0
  6
CONTINUOUS
 62
3
100
AcDbLine
 10
206.9073036165378
 20
382.1736018481688
 30
0.0000000000000000
 11
217.1573036165378
 21
364.4200810705877
 31
0.0000000000000000
  0
LINE
  5
86
100
AcDbEntity
  8
MAIN0
  6
CONTINUOUS
 62
3
100
AcDbLine
 10
145.4194999478429
 20
346.6736018481688
 30
0.0000000000000000
 11
155.6694999478429
 21
328.9200810705878
 31
0.0000000000000000
  0
LINE
  5
87
100
AcDbEntity
  8
MAIN0
  6
PHANTOM
 62
12
100
AcDbLine
 10
133.2951442948607
 20
339.6736018481688
 30
0.0000000000000000
 11
143.5451442948607
 21
321.9200810705877
 31
0.0000000000000000
  0
LINE
  5
88
100
AcDbEntity
  8
MAIN0
  6
PHANTOM
 62
12
100
AcDbLine
 10
146.2771951024297
 20
321.1880302630189
 30
0.0000000000000000
 11
156.6694999478430
 21
327.1880302630190
 31
0.0000000000000000
  0
LINE
  5
89
100
AcDbEntity
  8
MAIN0
  6
CONTINUOUS
 62
3
100
AcDbLine
 10
158.4015507554118
 20
328.1880302630189
 30
0.0000000000000000
 11
170.0928937065017
 21
334.9380302630189
 31
0.0000000000000000
  0
LINE
  5
8A
100
AcDbEntity
  8
MAIN0
  6
CONTINUOUS
 62
3
100
AcDbLine
 10
49.79069163718427
 20
360.6340431250696
 30
0.0000000000000000
 11
47.79069163718424
 21
358.6340431250696
 31
0.0000000000000000
  0
LINE
  5
8B
100
AcDbEntity
  8
MAIN0
  6
CONTINUOUS
 62
3
100
AcDbLine
 10
49.79069163718424
 20
305.6340431250696
 30
0.0000000000000000
 11
47.79069163718424
 21
307.6340431250696
 31
0.0000000000000000
  0
LINE
  5
8C
100
AcDbEntity
  8
MAIN0
  6
PHANTOM
 62
12
100
AcDbLine
 10
49.79069163718691
 20
401.6340431250673
 30
0.0000000000000000
 11
47.79069163718688
 21
399.6340431250673
 31
0.0000000000000000
  0
LINE
  5
8D
100
AcDbEntity
  8
MAIN0
  6
CONTINUOUS
 62
3
100
AcDbLine
 10
92.29069163718424
 20
388.6340431250696
 30
0.0000000000000000
 11
94.29069163718424
 21
386.6340431250696
 31
0.0000000000000000
  0
LINE
  5
8E
100
AcDbEntity
  8
MAIN0
  6
CONTINUOUS
 62
3
100
AcDbLine
 10
92.29069163718432
 20
373.6340431250696
 30
0.0000000000000000
 11
94.29069163718432
 21
371.6340431250696
 31
0.0000000000000000
  0
LINE
  5
8F
100
AcDbEntity
  8
MAIN0
  6
CONTINUOUS
 62
3
100
AcDbLine
 10
92.29069163718427
 20
318.6340431250696
 30
0.0000000000000000
 11
94.29069163718421
 21
320.6340431250696
 31
0.0000000000000000
  0
LINE
  5
90
100
AcDbEntity
  8
MAIN0
  6
CONTINUOUS
 62
3
100
AcDbLine
 10
195.0412782127535
 20
400.7261607314265
 30
0.0000000000000000
 11
192.3092274051846
 21
401.4582115389953
 31
0.0000000000000000
  0
LINE
  5
91
100
AcDbEntity
  8
MAIN0
  6
CONTINUOUS
 62
3
100
AcDbLine
 10
147.4098810046094
 20
373.2261607314264
 30
0.0000000000000000
 11
148.1419318121783
 21
375.9582115389953
 31
0.0000000000000000
  0
LINE
  5
92
100
AcDbEntity
  8
MAIN0
  6
PHANTOM
 62
12
100
AcDbLine
 10
111.9028394494475
 20
352.7261607314264
 30
0.0000000000000000
 11
112.6348902570163
 21
355.4582115389953
 31
0.0000000000000000
  0
LINE
  5
93
100
AcDbEntity
  8
MAIN0
  6
PHANTOM
 62
12
100
AcDbLine
 10
143.5451442948607
 20
321.9200810705877
 30
0.0000000000000000
 11
146.2771951024296
 21
321.1880302630189
 31
0.0000000000000000
  0
LINE
  5
94
100
AcDbEntity
  8
MAIN0
  6
CONTINUOUS
 62
3
100
AcDbLine
 10
155.6694999478428
 20
328.9200810705877
 30
0.0000000000000000
 11
158.4015507554117
 21
328.1880302630189
 31
0.0000000000000000
  0
LINE
  5
95
100
AcDbEntity
  8
MAIN0
  6
CONTINUOUS
 62
3
100
AcDbLine
 10
168.6598810046095
 20
336.4200810705877
 30
0.0000000000000000
 11
171.3919318121783
 21
335.6880302630188
 31
0.0000000000000000
  0
LINE
  5
96
100
AcDbEntity
  8
MAIN0
  6
CONTINUOUS
 62
3
100
AcDbLine
 10
216.2912782127536
 20
363.9200810705876
 30
0.0000000000000000
 11
215.5592274051847
 21
361.1880302630187
 31
0.0000000000000000
  0
LINE
  5
97
100
AcDbEntity
  8
MAIN0
  6
CONTINUOUS
 62
3
100
AcDbLine
 10
346.7639792304439
 20
190.1331256230479
 30
0.0000000000000000
 11
346.7639792304439
 21
262.1331256230479
 31
0.0000000000000000
  0
LINE
  5
98
100
AcDbEntity
  8
MAIN0
  6
CONTINUOUS
 62
3
100
AcDbLine
 10
346.7639792304440
 20
252.1331256230483
 30
0.0000000000000000
 11
345.7639792304440
 21
250.4010748154794
 31
0.0000000000000000
  0
LINE
  5
99
100
AcDbEntity
  8
MAIN0
  6
CONTINUOUS
 62
3
100
AcDbLine
 10
346.7639792304440
 20
200.1331256230475
 30
0.0000000000000000
 11
345.7639792304440
 21
201.8651764306163
 31
0.0000000000000000
  0
LINE
  5
9A
100
AcDbEntity
  8
MAIN0
  6
CONTINUOUS
 62
3
100
AcDbLine
 10
246.7639792304433
 20
231.6331256230479
 30
0.0000000000000000
 11
251.7639792304431
 21
231.6331256230479
 31
0.0000000000000000
  0
CIRCLE
  5
9B
100
AcDbEntity
  8
MAIN0
  6
CONTINUOUS
 62
3
100
AcDbCircle
 10
55.79069163718421
 20
353.6340431250696
 30
0.0000000000000000
 40
5.000000000000000
  0
ARC
  5
9C
100
AcDbEntity
  8
MAIN0
  6
CONTINUOUS
 62
3
100
AcDbCircle
 10
55.79069163718421
 20
312.6340431250696
 30
0.0000000000000000
 40
2.750000000000000
100
AcDbArc
 50
179.9999999999998
 51
359.9999999999998
  0
ARC
  5
9D
100
AcDbEntity
  8
MAIN0
  6
CONTINUOUS
 62
12
100
AcDbCircle
 10
71.79069163718421
 20
339.6340431250696
 30
0.0000000000000000
 40
6.000000000000000
100
AcDbArc
 50
89.99999999999970
 51
269.9999999999999
  0
ARC
  5
9E
100
AcDbEntity
  8
MAIN0
  6
CONTINUOUS
 62
3
100
AcDbCircle
 10
71.79069163718421
 20
339.6340431250696
 30
0.0000000000000000
 40
5.500000000000000
100
AcDbArc
 50
89.99999999999970
 51
269.9999999999999
  0
ARC
  5
9F
100
AcDbEntity
  8
MAIN0
  6
CONTINUOUS
 62
3
100
AcDbCircle
 10
87.79069163718424
 20
353.6340431250696
 30
0.0000000000000000
 40
2.750000000000000
100
AcDbArc
 50
0.0000000000000000
 51
179.9999999999998
  0
ARC
  5
A0
100
AcDbEntity
  8
MAIN0
  6
CONTINUOUS
 62
3
100
AcDbCircle
 10
87.79069163718424
 20
339.6340431250696
 30
0.0000000000000000
 40
2.750000000000000
100
AcDbArc
 50
179.9999999999998
 51
359.9999999999998
  0
ARC
  5
A1
100
AcDbEntity
  8
MAIN0
  6
CONTINUOUS
 62
3
100
AcDbCircle
 10
87.79069163718424
 20
325.6340431250696
 30
0.0000000000000000
 40
2.750000000000000
100
AcDbArc
 50
179.9999999999998
 51
359.9999999999998
  0
ARC
  5
A2
100
AcDbEntity
  8
MAIN0
  6
HIDDEN
 62
12
100
AcDbCircle
 10
71.79069163718421
 20
365.6340431250696
 30
0.0000000000000000
 40
7.000000000000000
100
AcDbArc
 50
0.0000000000000000
 51
89.99999999999970
  0
ARC
  5
A3
100
AcDbEntity
  8
MAIN0
  6
CONTINUOUS
 62
3
100
AcDbCircle
 10
71.79069163718421
 20
351.6340431250696
 30
0.0000000000000000
 40
7.000000000000000
100
AcDbArc
 50
0.0000000000000000
 51
89.99999999999970
  0
ARC
  5
A4
100
AcDbEntity
  8
MAIN0
  6
CONTINUOUS
 62
3
100
AcDbCircle
 10
71.79069163718421
 20
340.6340431250696
 30
0.0000000000000000
 40
7.000000000000000
100
AcDbArc
 50
269.9999999999999
 51
359.9999999999998
  0
ARC
  5
A5
100
AcDbEntity
  8
MAIN0
  6
CONTINUOUS
 62
3
100
AcDbCircle
 10
196.7207701370649
 20
357.8171953876178
 30
0.0000000000000000
 40
2.750000000000000
100
AcDbArc
 50
299.9999946766659
 51
480.0000086929682
  0
ARC
  5
A6
100
AcDbEntity
  8
MAIN0
  6
CONTINUOUS
 62
3
100
AcDbCircle
 10
184.5964144840827
 20
350.8171953876178
 30
0.0000000000000000
 40
2.750000000000000
100
AcDbArc
 50
299.9999942501418
 51
480.0000048595168
  0
ARC
  5
A7
100
AcDbEntity
  8
MAIN0
  6
CONTINUOUS
 62
3
100
AcDbCircle
 10
172.4720588311005
 20
343.8171953876178
 30
0.0000000000000000
 40
2.750000000000000
100
AcDbArc
 50
120.0000058495738
 51
299.9999955874897
  0
ARC
  5
A8
100
AcDbEntity
  8
MAIN0
  6
CONTINUOUS
 62
3
100
AcDbCircle
 10
191.9791003862625
 20
392.0300083087199
 30
0.0000000000000000
 40
2.750000000000000
100
AcDbArc
 50
299.9999999999998
 51
480.0000123247905
  0
CIRCLE
  5
A9
100
AcDbEntity
  8
MAIN0
  6
CONTINUOUS
 62
3
100
AcDbCircle
 10
156.4720588311005
 20
371.5300083087199
 30
0.0000000000000000
 40
5.000000000000000
  0
ARC
  5
AA
100
AcDbEntity
  8
MAIN0
  6
CONTINUOUS
 62
3
100
AcDbCircle
 10
186.9887193294959
 20
370.6736018481689
 30
0.0000000000000000
 40
7.000000000000000
100
AcDbArc
 50
299.9999999999998
 51
390.0000000000008
  0
ARC
  5
AB
100
AcDbEntity
  8
MAIN0
  6
HIDDEN
 62
12
100
AcDbCircle
 10
165.3380842348850
 20
358.1736018481688
 30
0.0000000000000000
 40
7.000000000000000
100
AcDbArc
 50
209.9999999999996
 51
299.9999999999997
  0
ARC
  5
AC
100
AcDbEntity
  8
MAIN0
  6
CONTINUOUS
 62
3
100
AcDbCircle
 10
177.4624398878671
 20
365.1736018481688
 30
0.0000000000000000
 40
7.000000000000000
100
AcDbArc
 50
209.9999999999996
 51
299.9999999999997
  0
ARC
  5
AD
100
AcDbEntity
  8
MAIN0
  6
CONTINUOUS
 62
3
100
AcDbCircle
 10
187.8547447332803
 20
371.1736018481689
 30
0.0000000000000000
 40
5.500000000000000
100
AcDbArc
 50
30.00000000000010
 51
210.0000000000000
  0
ARC
  5
AE
100
AcDbEntity
  8
MAIN0
  6
CONTINUOUS
 62
12
100
AcDbCircle
 10
187.8547447332803
 20
371.1736018481689
 30
0.0000000000000000
 40
6.000000000000000
100
AcDbArc
 50
30.00000000000009
 51
210.0000000000000
  0
MTEXT
  5
AF
100
AcDbEntity
  8
MAIN0
  6
CONTINUOUS
 62
4
100
AcDbMText
 10
285.7836187674802
 20
220.3549888740894
 30
0.0000000000000000
 40
5.000000000000000
 41
0.0000000000000000
 71
     1
 72
     1
  1
{\H0.94x;{A}}
 11
1.000000000000000
 21
0.0000000000000000
 31
0.0000000000000000
  7
STANDARD
  0
MTEXT
  5
B0
100
AcDbEntity
  8
MAIN0
  6
CONTINUOUS
 62
4
100
AcDbMText
 10
320.5946470329703
 20
248.3949214715115
 30
0.0000000000000000
 40
5.000000000000000
 41
0.0000000000000000
 71
     1
 72
     1
  1
{\H0.94x;{B}}
 11
1.000000000000000
 21
0.0000000000000000
 31
0.0000000000000000
  7
STANDARD
  0
MTEXT
  5
B1
100
AcDbEntity
  8
MAIN0
  6
CONTINUOUS
 62
4
100
AcDbMText
 10
490.0157044565490
 20
350.7488617563324
 30
0.0000000000000000
 40
3.099999904632568
 41
0.0000000000000000
 71
     1
 72
     1
  1
{\H0.70x;{MIN 26}}
 11
1.000000000000000
 21
0.0000000000000000
 31
0.0000000000000000
  7
STANDARD
  0
MTEXT
  5
B2
100
AcDbEntity
  8
MAIN0
  6
CONTINUOUS
 62
4
100
AcDbMText
 10
307.9808603399193
 20
177.7575500766438
 30
0.0000000000000000
 40
5.000000000000000
 41
0.0000000000000000
 71
     1
 72
     1
  1
{\H0.94x;{D}}
 11
1.000000000000000
 21
0.0000000000000000
 31
0.0000000000000000
  7
STANDARD
  0
MTEXT
  5
B3
100
AcDbEntity
  8
MAIN0
  6
CONTINUOUS
 62
4
100
AcDbMText
 10
310.4385450857158
 20
177.1132469332186
 30
0.0000000000000000
 40
5.000000000000000
 41
0.0000000000000000
 71
     1
 72
     1
  1
{\H0.94x;{ｒ}}
 11
1.000000000000000
 21
0.0000000000000000
 31
0.0000000000000000
  7
KNJYOKO
  0
SPLINE
  5
B4
100
AcDbEntity
  8
MAIN0
  6
CONTINUOUS
 62
12
100
AcDbSpline
210
0.0000000000000000
220
0.0000000000000000
230
1.000000000000000
 70
     8
 71
     3
 72
    23
 73
    19
 74
     0
 42
1.000000000000000e-007
 43
1.000000000000000e-007
 12
-0.2175376390833179
 22
-0.9767411404779836
 32
0.0000000000000000
 13
0.2011474385650445
 23
-0.9808785619137836
 33
0.0000000000000000
 40
0.0000000000000000
 40
0.0000000000000000
 40
0.0000000000000000
 40
0.0000000000000000
 40
7.377772860595822
 40
13.70573744429625
 40
19.85556188338182
 40
23.41931380750930
 40
28.17160602177569
 40
31.71904909538989
 40
35.40941351737729
 40
40.70725785348634
 40
47.47488798281347
 40
55.65916308372175
 40
64.75913762343669
 40
71.31429019254784
 40
77.01225171426364
 40
83.31077041603624
 40
94.59176936342300
 40
97.51439565305907
 40
97.51439565305907
 40
97.51439565305907
 40
97.51439565305907
 10
273.9918941956498
 20
270.1519808186226
 30
0.0000000000000000
 10
273.4569130990541
 20
267.7499227259406
 30
0.0000000000000000
 10
272.4630751772113
 20
263.2876035184628
 30
0.0000000000000000
 10
270.2458242574879
 20
257.0305790675741
 30
0.0000000000000000
 10
271.7260506633915
 20
251.1297739291284
 30
0.0000000000000000
 10
267.8155886406596
 20
247.6129847146827
 30
0.0000000000000000
 10
263.0221798875260
 20
247.4221946395128
 30
0.0000000000000000
 10
262.6573275482627
 20
242.8383647187871
 30
0.0000000000000000
 10
260.4300542527236
 20
239.1720226846648
 30
0.0000000000000000
 10
262.4322760929846
 20
233.8052468165312
 30
0.0000000000000000
 10
262.4794796418138
 20
227.1071133477190
 30
0.0000000000000000
 10
261.6604987646503
 20
219.1344441577020
 30
0.0000000000000000
 10
260.2038660094656
 20
211.1605637759727
 30
0.0000000000000000
 10
263.2916702153843
 20
204.1319284783904
 30
0.0000000000000000
 10
269.0782562022100
 20
201.1584527490175
 30
0.0000000000000000
 10
271.9702516433059
 20
193.5018689750736
 30
0.0000000000000000
 10
272.8435936533799
 20
186.8281786216060
 30
0.0000000000000000
 10
273.7959345983020
 20
182.1841681227881
 30
0.0000000000000000
 10
273.9918941956498
 20
181.2285876321249
 30
0.0000000000000000
  0
SPLINE
  5
B5
100
AcDbEntity
  8
MAIN0
  6
CONTINUOUS
 62
12
100
AcDbSpline
210
0.0000000000000000
220
0.0000000000000000
230
1.000000000000000
 70
     8
 71
     3
 72
    11
 73
     7
 74
     0
 42
1.000000000000000e-007
 43
1.000000000000000e-007
 12
-0.9478070789847166
 22
-0.1321291131078528
 32
0.0000000000000000
 13
0.7864758616728409
 23
-0.5420227684572367
 33
0.0000000000000000
 40
0.0000000000000000
 40
0.0000000000000000
 40
0.0000000000000000
 40
0.0000000000000000
 40
39.53704540748220
 40
52.68872510796916
 40
62.71690926281644
 40
71.02832343840157
 40
71.02832343840157
 40
71.02832343840157
 40
71.02832343840157
 10
475.6529384487834
 20
182.5251246753291
 30
0.0000000000000000
 10
463.1617746089995
 20
180.7837930937972
 30
0.0000000000000000
 10
446.5155257289953
 20
178.4632215873641
 30
0.0000000000000000
 10
427.2448259779540
 20
158.5304250640619
 30
0.0000000000000000
 10
438.2514827257780
 20
151.3431753332253
 30
0.0000000000000000
 10
443.0593665256649
 20
148.0296820467403
 30
0.0000000000000000
 10
445.2382754008194
 20
146.5280234729919
 30
0.0000000000000000
  0
SPLINE
  5
B6
100
AcDbEntity
  8
MAIN0
  6
CONTINUOUS
 62
12
100
AcDbSpline
210
0.0000000000000000
220
0.0000000000000000
230
1.000000000000000
 70
     8
 71
     3
 72
    13
 73
     9
 74
     0
 42
1.000000000000000e-007
 43
1.000000000000000e-007
 12
-0.3204282915691579
 22
-0.9483373265061061
 32
0.0000000000000000
 13
0.1394513798367143
 23
-0.9905305422135058
 33
0.0000000000000000
 40
0.0000000000000000
 40
0.0000000000000000
 40
0.0000000000000000
 40
0.0000000000000000
 40
6.109288989233445
 40
13.18791582660396
 40
25.50794656036874
 40
34.04417763520246
 40
41.09486230799496
 40
48.32087004983407
 40
48.32087004983407
 40
48.32087004983407
 40
48.32087004983407
 10
475.5887842947068
 20
249.4502283737300
 30
0.0000000000000000
 10
474.9362546168660
 20
247.5190061114291
 30
0.0000000000000000
 10
473.5276608376405
 20
243.3501418323656
 30
0.0000000000000000
 10
472.2535347355566
 20
234.8770415376763
 30
0.0000000000000000
 10
472.8694482816233
 20
225.5861018039879
 30
0.0000000000000000
 10
472.2739661950861
 20
216.1875915402783
 30
0.0000000000000000
 10
474.6534113797718
 20
208.8746051628946
 30
0.0000000000000000
 10
475.3170461986800
 20
204.1607718700678
 30
0.0000000000000000
 10
475.6529384487834
 20
201.7749114145468
 30
0.0000000000000000
  0
DIMENSION
  5
C1
100
AcDbEntity
  8
MAIN0
  6
CONTINUOUS
 62
12
100
AcDbDimension
  2
*D0
 10
516.7639792304432
 20
251.5095437938517
 30
0.0000000000000000
 11
519.2639792304415
 21
252.0095437938517
 31
0.0000000000000000
 70
32
  3
MAIN001
100
AcDbAlignedDimension
 13
521.7639792304399
 23
242.9331256349686
 33
0.0000000000000000
 14
516.7639792304432
 24
239.4331256349688
 34
0.0000000000000000
100
AcDbRotatedDimension
1001
ACAD
1000
DSTYLE
1002
{
1070
   173
1070
     1
1070
     6
1000
_OPEN
1070
     7
1000
_OPEN
1070
    41
1040
1.910672
1070
   287
1070
     0
1002
}
  0
LEADER
  5
C2
100
AcDbEntity
  8
MAIN0
  6
CONTINUOUS
 62
12
100
AcDbLeader
  3
MAIN001
 73
     0
 74
     0
 75
     1
 40
3.100000381469727
 41
8.000999999999976
 76
     3
 10
491.1945681697889
 20
214.1331256230485
 30
0.0000000000000000
 10
503.0969189378877
 20
193.5176493631950
 30
0.0000000000000000
 10
505.0319194376131
 20
193.5176493631950
 30
0.0000000000000000
340
C3
213
-0.001000000000033197
223
-0.5000000000000000
233
0.0000000000000000
1001
ACAD
1000
DSTYLE
1002
{
1070
   147
1040
0.0
1070
    77
1070
     1
1070
   173
1070
     1
1070
     6
1000
_OPEN
1070
     7
1000
_OPEN
1002
}
  0
MTEXT
  5
C3
102
{ACAD_REACTORS
330
C2
102
}
100
AcDbEntity
  8
MAIN0
  6
CONTINUOUS
 62
4
100
AcDbMText
 10
505.0329194376131
 20
197.1176497446647
 30
0.0000000000000000
 40
3.100000381469727
 41
0.0000000000000000
 71
     1
 72
     1
  1
{\H0.90x;{M24}}
 11
1.000000000000000
 21
0.0000000000000000
 31
0.0000000000000000
  7
STANDARD
  0
LEADER
  5
C4
100
AcDbEntity
  8
MAIN0
  6
CONTINUOUS
 62
12
100
AcDbLeader
  3
MAIN001
 73
     0
 75
     1
 40
3.100000381469727
 41
13.59900038146975
 76
     3
 10
304.7639792304437
 20
181.1331256230479
 30
0.0000000000000000
 10
295.6313248816996
 20
161.8175965431155
 30
0.0000000000000000
 10
293.6943243819742
 20
161.8175965431155
 30
0.0000000000000000
340
C5
213
0.0000000000000000
223
-0.5000000000000000
233
0.0000000000000000
1001
ACAD
1000
DSTYLE
1002
{
1070
   147
1040
0.0
1070
    77
1070
     1
1070
   173
1070
     1
1070
     6
1000
_OPEN
1070
     7
1000
_OPEN
1002
}
  0
MTEXT
  5
C5
102
{ACAD_REACTORS
330
C4
102
}
100
AcDbEntity
  8
MAIN0
  6
CONTINUOUS
 62
4
100
AcDbMText
 10
280.0953240005045
 20
165.4175969245853
 30
0.0000000000000000
 40
3.100000381469727
 41
0.0000000000000000
 71
     1
 72
     1
  1
{\H0.92x;{Rc1/4}}
 11
1.000000000000000
 21
0.0000000000000000
 31
0.0000000000000000
  7
STANDARD
  0
DIMENSION
  5
CE
100
AcDbEntity
  8
MAIN0
  6
CONTINUOUS
 62
12
100
AcDbDimension
  2
*D1
 10
94.78324922138881
 20
163.1247628941428
 30
0.0000000000000000
 11
109.7832492213888
 21
163.6247628941428
 31
0.0000000000000000
 70
160
  1
\A1;\U+220530
  3
MAIN001
100
AcDbAlignedDimension
 13
124.7832492213888
 23
161.1247628941427
 33
0.0000000000000000
 14
94.78324922138881
 24
161.1247628941427
 34
0.0000000000000000
100
AcDbRotatedDimension
1001
ACAD
1000
DSTYLE
1002
{
1070
   173
1070
     1
1070
     6
1000
_OPEN
1070
     7
1000
_OPEN
1070
    41
1040
1.910672
1002
}
  0
DIMENSION
  5
D7
100
AcDbEntity
  8
MAIN0
  6
CONTINUOUS
 62
12
100
AcDbDimension
  2
*D2
 10
149.7832492213888
 20
153.1247628941427
 30
0.0000000000000000
 11
129.7832492213888
 21
153.6247628941427
 31
0.0000000000000000
 70
32
  3
MAIN001
100
AcDbAlignedDimension
 13
109.7832492213888
 23
171.2825495178718
 33
0.0000000000000000
 14
149.7832492213888
 24
199.2788098524496
 34
0.0000000000000000
100
AcDbRotatedDimension
1001
ACAD
1000
DSTYLE
1002
{
1070
   173
1070
     1
1070
     6
1000
_OPEN
1070
     7
1000
_OPEN
1070
    41
1040
1.910672
1002
}
  0
DIMENSION
  5
E0
100
AcDbEntity
  8
MAIN0
  6
CONTINUOUS
 62
12
100
AcDbDimension
  2
*D3
 10
109.7832492213888
 20
153.1247628941427
 30
0.0000000000000000
 11
89.78324922138876
 21
153.6247628941427
 31
0.0000000000000000
 70
32
  3
MAIN001
100
AcDbAlignedDimension
 13
69.78324922138876
 23
199.2788098524496
 33
0.0000000000000000
 14
109.7832492213888
 24
171.2825495178718
 34
0.0000000000000000
100
AcDbRotatedDimension
1001
ACAD
1000
DSTYLE
1002
{
1070
   173
1070
     1
1070
     6
1000
_OPEN
1070
     7
1000
_OPEN
1070
    41
1040
1.910672
1002
}
  0
DIMENSION
  5
E9
100
AcDbEntity
  8
MAIN0
  6
CONTINUOUS
 62
12
100
AcDbDimension
  2
*D4
 10
477.7639792304431
 20
263.8742946055507
 30
0.0000000000000000
 11
499.7639792304415
 21
264.3742946055507
 31
0.0000000000000000
 70
32
  3
MAIN001
100
AcDbAlignedDimension
 13
521.7639792304399
 23
242.9331256349686
 33
0.0000000000000000
 14
477.7639792304431
 24
238.9331256349694
 34
0.0000000000000000
100
AcDbRotatedDimension
1001
ACAD
1000
DSTYLE
1002
{
1070
   173
1070
     1
1070
     6
1000
_OPEN
1070
     7
1000
_OPEN
1070
    41
1040
1.910672
1002
}
  0
LEADER
  5
EA
100
AcDbEntity
  8
MAIN0
  6
CONTINUOUS
 62
12
100
AcDbLeader
  3
MAIN001
 73
     0
 74
     0
 75
     1
 40
3.100000381469727
 41
19.20100076293949
 76
     3
 10
312.9202006951929
 20
248.1802536818619
 30
0.0000000000000000
 10
324.8673806652074
 20
292.7677363371254
 30
0.0000000000000000
 10
326.8023811649327
 20
292.7677363371254
 30
0.0000000000000000
340
EB
213
-0.001000000000033197
223
-0.5000000000000000
233
0.0000000000000000
1001
ACAD
1000
DSTYLE
1002
{
1070
   147
1040
0.0
1070
    77
1070
     1
1070
   173
1070
     1
1070
     6
1000
_OPEN
1070
     7
1000
_OPEN
1002
}
  0
MTEXT
  5
EB
102
{ACAD_REACTORS
330
EA
102
}
100
AcDbEntity
  8
MAIN0
  6
CONTINUOUS
 62
4
100
AcDbMText
 10
326.8033811649328
 20
296.3677367185951
 30
0.0000000000000000
 40
3.100000381469727
 41
0.0000000000000000
 71
     1
 72
     1
  1
{\H0.93x;{2-Rc3/8}}
 11
1.000000000000000
 21
0.0000000000000000
 31
0.0000000000000000
  7
STANDARD
  0
DIMENSION
  5
F4
100
AcDbEntity
  8
MAIN0
  6
CONTINUOUS
 62
12
100
AcDbDimension
  2
*D5
 10
37.43410785660507
 20
305.6340431250696
 30
0.0000000000000000
 11
36.93410785660507
 21
317.3340431250696
 31
0.0000000000000000
 70
32
  1
\A1;MAX 23
  3
MAIN001
100
AcDbAlignedDimension
 13
42.86681757963703
 23
329.0340431250696
 33
0.0000000000000000
 14
49.79069163718430
 24
305.6340431250696
 34
0.0000000000000000
 50
90.00000000000000
100
AcDbRotatedDimension
1001
ACAD
1000
DSTYLE
1002
{
1070
   173
1070
     1
1070
     6
1000
_OPEN
1070
     7
1000
_OPEN
1070
    41
1040
1.910672
1002
}
  0
DIMENSION
  5
FD
100
AcDbEntity
  8
MAIN0
  6
CONTINUOUS
 62
12
100
AcDbDimension
  2
*D6
 10
37.43410785660507
 20
329.0340431250696
 30
0.0000000000000000
 11
36.93410785660507
 21
334.3340431250696
 31
0.0000000000000000
 70
32
  1
\A1;11
  3
MAIN001
100
AcDbAlignedDimension
 13
60.50404079701485
 23
339.6340431250696
 33
0.0000000000000000
 14
42.86681757963703
 24
329.0340431250696
 34
0.0000000000000000
 50
90.00000000000000
100
AcDbRotatedDimension
1001
ACAD
1000
DSTYLE
1002
{
1070
   173
1070
     1
1070
     6
1000
_OPEN
1070
     7
1000
_OPEN
1070
    41
1040
1.910672
1002
}
  0
DIMENSION
  5
106
100
AcDbEntity
  8
MAIN0
  6
CONTINUOUS
 62
12
100
AcDbDimension
  2
*D7
 10
37.43410785660507
 20
339.6340431250696
 30
0.0000000000000000
 11
36.93410785660507
 21
360.1340431250696
 31
0.0000000000000000
 70
32
  3
MAIN001
100
AcDbAlignedDimension
 13
60.50404079701485
 23
380.6340431250696
 33
0.0000000000000000
 14
60.50404079701485
 24
339.6340431250696
 34
0.0000000000000000
 50
90.00000000000000
100
AcDbRotatedDimension
1001
ACAD
1000
DSTYLE
1002
{
1070
   173
1070
     1
1070
     6
1000
_OPEN
1070
     7
1000
_OPEN
1070
    41
1040
1.910672
1002
}
  0
DIMENSION
  5
10F
100
AcDbEntity
  8
MAIN0
  6
CONTINUOUS
 62
12
100
AcDbDimension
  2
*D8
 10
105.0933947532996
 20
364.5204649164848
 30
0.0000000000000000
 11
114.9758919775776
 21
370.8034776183771
 31
0.0000000000000000
 70
32
  1
\A1;MAX 23
  3
MAIN001
100
AcDbAlignedDimension
 13
129.5061676398742
 23
369.0363019232980
 33
0.0000000000000000
 14
111.9028394494476
 24
352.7261607314263
 34
0.0000000000000000
 50
30.00000000000025
100
AcDbRotatedDimension
1001
ACAD
1000
DSTYLE
1002
{
1070
   173
1070
     1
1070
     6
1000
_OPEN
1070
     7
1000
_OPEN
1070
    41
1040
1.910672
1002
}
  0
DIMENSION
  5
118
100
AcDbEntity
  8
MAIN0
  6
CONTINUOUS
 62
12
100
AcDbDimension
  2
*D9
 10
125.3583892018555
 20
376.2204649164850
 30
0.0000000000000000
 11
129.6983238419130
 21
379.3034776183771
 31
0.0000000000000000
 70
32
  1
\A1;11
  3
MAIN001
100
AcDbAlignedDimension
 13
146.0972235647743
 23
361.4997501101543
 33
0.0000000000000000
 14
129.1061676339136
 24
369.7291222566494
 34
0.0000000000000000
 50
30.00000000000004
100
AcDbRotatedDimension
1001
ACAD
1000
DSTYLE
1002
{
1070
   173
1070
     1
1070
     6
1000
_OPEN
1070
     7
1000
_OPEN
1070
    41
1040
1.910672
1002
}
  0
DIMENSION
  5
121
100
AcDbEntity
  8
MAIN0
  6
CONTINUOUS
 62
12
100
AcDbDimension
  2
*D10
 10
134.5382584819705
 20
381.5204649164849
 30
0.0000000000000000
 11
152.0417792595514
 21
392.2034776183771
 31
0.0000000000000000
 70
33
  3
MAIN001
100
AcDbAlignedDimension
 13
181.6042651199361
 23
381.9997501101543
 33
0.0000000000000000
 14
146.0972235647743
 24
361.4997501101543
 34
0.0000000000000000
 50
30.00000000000005
1001
ACAD
1000
DSTYLE
1002
{
1070
   173
1070
     1
1070
     6
1000
_OPEN
1070
     7
1000
_OPEN
1070
    41
1040
1.910672
1002
}
  0
DIMENSION
  5
12C
100
AcDbEntity
  8
MAIN0
  6
CONTINUOUS
 62
12
100
AcDbDimension
  2
*D11
 10
470.7639792304435
 20
341.1541331755732
 30
0.0000000000000000
 11
473.2639792304435
 21
341.6541331755732
 31
0.0000000000000000
 70
32
  3
MAIN001
100
AcDbAlignedDimension
 13
475.7639792304435
 23
281.9331256349687
 33
0.0000000000000000
 14
470.7639792304435
 24
304.9331256349687
 34
0.0000000000000000
100
AcDbRotatedDimension
1001
ACAD
1000
DSTYLE
1002
{
1070
   173
1070
     1
1070
     6
1000
_OPEN
1070
     7
1000
_OPEN
1070
    41
1040
1.910672
1070
   287
1070
     0
1002
}
  0
DIMENSION
  5
135
100
AcDbEntity
  8
MAIN0
  6
CONTINUOUS
 62
12
100
AcDbDimension
  2
*D12
 10
373.7639792304439
 20
341.1541331755731
 30
0.0000000000000000
 11
422.2639792304437
 21
341.6541331755731
 31
0.0000000000000000
 70
32
  3
MAIN001
100
AcDbAlignedDimension
 13
470.7639792304435
 23
304.9331256349687
 33
0.0000000000000000
 14
373.7639792304439
 24
305.9331256349686
 34
0.0000000000000000
100
AcDbRotatedDimension
1001
ACAD
1000
DSTYLE
1002
{
1070
   173
1070
     1
1070
     6
1000
_OPEN
1070
     7
1000
_OPEN
1070
    41
1040
1.910672
1002
}
  0
DIMENSION
  5
13E
100
AcDbEntity
  8
MAIN0
  6
CONTINUOUS
 62
12
100
AcDbDimension
  2
*D13
 10
304.7639792304437
 20
130.4216163709850
 30
0.0000000000000000
 11
387.7639792304436
 21
130.9216163709850
 31
0.0000000000000000
 70
32
  3
MAIN001
100
AcDbAlignedDimension
 13
470.7639792304435
 23
147.3331256111271
 33
0.0000000000000000
 14
304.7639792304437
 24
172.1985113117640
 34
0.0000000000000000
100
AcDbRotatedDimension
1001
ACAD
1000
DSTYLE
1002
{
1070
   173
1070
     1
1070
     6
1000
_OPEN
1070
     7
1000
_OPEN
1070
    41
1040
1.910672
1002
}
  0
DIMENSION
  5
147
100
AcDbEntity
  8
MAIN0
  6
CONTINUOUS
 62
12
100
AcDbDimension
  2
*D14
 10
299.7639792304436
 20
331.0283983801541
 30
0.0000000000000000
 11
305.2639792304436
 21
331.5283983801541
 31
0.0000000000000000
 70
32
  3
MAIN001
100
AcDbAlignedDimension
 13
310.7639792304436
 23
255.0945043113575
 33
0.0000000000000000
 14
299.7639792304436
 24
229.2048334355337
 34
0.0000000000000000
100
AcDbRotatedDimension
1001
ACAD
1000
DSTYLE
1002
{
1070
   173
1070
     1
1070
     6
1000
_OPEN
1070
     7
1000
_OPEN
1070
    41
1040
1.910672
1002
}
  0
DIMENSION
  5
150
100
AcDbEntity
  8
MAIN0
  6
CONTINUOUS
 62
12
100
AcDbDimension
  2
*D15
 10
310.7639792304436
 20
331.0283983801541
 30
0.0000000000000000
 11
390.7639792304436
 21
331.5283983801541
 31
0.0000000000000000
 70
32
  3
MAIN001
100
AcDbAlignedDimension
 13
470.7639792304435
 23
304.9331256349687
 33
0.0000000000000000
 14
310.7639792304436
 24
255.0945043113575
 34
0.0000000000000000
100
AcDbRotatedDimension
1001
ACAD
1000
DSTYLE
1002
{
1070
   173
1070
     1
1070
     6
1000
_OPEN
1070
     7
1000
_OPEN
1070
    41
1040
1.910672
1002
}
  0
DIMENSION
  5
15B
100
AcDbEntity
  8
MAIN0
  6
CONTINUOUS
 62
12
100
AcDbDimension
  2
*D16
 10
284.7639792304415
 20
331.0283983801541
 30
0.0000000000000000
 11
292.3662308412089
 21
331.5283983801541
 31
0.0000000000000000
 70
160
  1
\A1;MIN 15
  3
MAIN001
100
AcDbAlignedDimension
 13
299.7639792304436
 23
229.2048334355337
 33
0.0000000000000000
 14
284.7639792304415
 24
271.4331256349686
 34
0.0000000000000000
100
AcDbRotatedDimension
1001
ACAD
1000
DSTYLE
1002
{
1070
   173
1070
     1
1070
     6
1000
_OPEN
1070
     7
1000
_OPEN
1070
    41
1040
2.000000
1070
   287
1070
     0
1002
}
  0
DIMENSION
  5
164
100
AcDbEntity
  8
MAIN0
  6
CONTINUOUS
 62
12
100
AcDbDimension
  2
*D17
 10
159.6188858299294
 20
181.1331256230481
 30
0.0000000000000000
 11
159.1188858299294
 21
203.6331256230480
 31
0.0000000000000000
 70
32
  3
MAIN001
100
AcDbAlignedDimension
 13
155.8909450835380
 23
226.1331256230479
 33
0.0000000000000000
 14
123.5832492333098
 24
181.1331256230481
 34
0.0000000000000000
 50
90.00000000000000
100
AcDbRotatedDimension
1001
ACAD
1000
DSTYLE
1002
{
1070
   173
1070
     1
1070
     6
1000
_OPEN
1070
     7
1000
_OPEN
1070
    41
1040
1.910672
1002
}
  0
DIMENSION
  5
16D
100
AcDbEntity
  8
MAIN0
  6
CONTINUOUS
 62
12
100
AcDbDimension
  2
*D18
 10
470.7639792304435
 20
351.1541331755731
 30
0.0000000000000000
 11
496.2639792304417
 21
351.6541331755731
 31
0.0000000000000000
 70
32
  1
\A1;MAX 51
  3
MAIN001
100
AcDbAlignedDimension
 13
521.7639792304399
 23
242.9331256349686
 33
0.0000000000000000
 14
470.7639792304435
 24
304.9331256349687
 34
0.0000000000000000
100
AcDbRotatedDimension
1001
ACAD
1000
DSTYLE
1002
{
1070
   173
1070
     1
1070
     6
1000
_OPEN
1070
     7
1000
_OPEN
1070
    41
1040
1.910672
1002
}
  0
DIMENSION
  5
176
100
AcDbEntity
  8
MAIN0
  6
CONTINUOUS
 62
12
100
AcDbDimension
  2
*D19
 10
210.7639792304440
 20
341.1541331755731
 30
0.0000000000000000
 11
292.2639792304439
 21
341.6541331755731
 31
0.0000000000000000
 70
32
  3
MAIN001
100
AcDbAlignedDimension
 13
373.7639792304439
 23
305.9331256349686
 33
0.0000000000000000
 14
210.7639792304440
 24
269.9331256349687
 34
0.0000000000000000
100
AcDbRotatedDimension
1001
ACAD
1000
DSTYLE
1002
{
1070
   173
1070
     1
1070
     6
1000
_OPEN
1070
     7
1000
_OPEN
1070
    41
1040
1.910672
1002
}
  0
DIMENSION
  5
17F
100
AcDbEntity
  8
MAIN0
  6
CONTINUOUS
 62
12
100
AcDbDimension
  2
*D20
 10
210.7639792304440
 20
351.1541331755731
 30
0.0000000000000000
 11
340.7639792304437
 21
351.6541331755731
 31
0.0000000000000000
 70
32
  3
MAIN001
100
AcDbAlignedDimension
 13
470.7639792304435
 23
304.9331256349687
 33
0.0000000000000000
 14
210.7639792304440
 24
269.9331256349687
 34
0.0000000000000000
100
AcDbRotatedDimension
1001
ACAD
1000
DSTYLE
1002
{
1070
   173
1070
     1
1070
     6
1000
_OPEN
1070
     7
1000
_OPEN
1070
    41
1040
1.910672
1002
}
  0
DIMENSION
  5
188
100
AcDbEntity
  8
MAIN0
  6
CONTINUOUS
 62
3
100
AcDbDimension
  2
*D21
 10
535.6057096159566
 20
238.6331256230479
 30
0.0000000000000000
 11
535.1057096159566
 21
226.1331256230479
 31
0.0000000000000000
 70
32
  1
\A1;\U+220525H8
  3
MAIN001
100
AcDbAlignedDimension
 13
520.7639792304399
 23
213.6331256230479
 33
0.0000000000000000
 14
520.7639792304399
 24
238.6331256230479
 34
0.0000000000000000
 50
90.00000000000000
100
AcDbRotatedDimension
1001
ACAD
1000
DSTYLE
1002
{
1070
   173
1070
     1
1070
     6
1000
_OPEN
1070
     7
1000
_OPEN
1070
    41
1040
2.000000
1002
}
  0
DIMENSION
  5
191
100
AcDbEntity
  8
MAIN0
  6
CONTINUOUS
 62
3
100
AcDbDimension
  2
*D22
 10
545.6057096159566
 20
243.6331256230477
 30
0.0000000000000000
 11
545.1057096159566
 21
226.1331256230479
 31
0.0000000000000000
 70
32
  1
\A1;\U+220535
  3
MAIN001
100
AcDbAlignedDimension
 13
500.8979538266584
 23
208.6331256230481
 33
0.0000000000000000
 14
500.8979538266584
 24
243.6331256230477
 34
0.0000000000000000
 50
90.00000000000000
100
AcDbRotatedDimension
1001
ACAD
1000
DSTYLE
1002
{
1070
   173
1070
     1
1070
     6
1000
_OPEN
1070
     7
1000
_OPEN
1070
    41
1040
2.000000
1002
}
  0
DIMENSION
  5
19A
100
AcDbEntity
  8
MAIN0
  6
CONTINUOUS
 62
3
100
AcDbDimension
  2
*D23
 10
555.6057096159566
 20
281.1331256230478
 30
0.0000000000000000
 11
555.1057096159566
 21
226.1331256230479
 31
0.0000000000000000
 70
32
  1
\A1;\U+2205110h7
  3
MAIN001
100
AcDbAlignedDimension
 13
475.7639792304435
 23
171.1331256230480
 33
0.0000000000000000
 14
475.7639792304435
 24
281.1331256230478
 34
0.0000000000000000
 50
90.00000000000000
100
AcDbRotatedDimension
1001
ACAD
1000
DSTYLE
1002
{
1070
   173
1070
     1
1070
     6
1000
_OPEN
1070
     7
1000
_OPEN
1070
    41
1040
2.000000
1002
}
  0
DIMENSION
  5
1A3
100
AcDbEntity
  8
MAIN0
  6
CONTINUOUS
 62
3
100
AcDbDimension
  2
*D24
 10
575.6057096159566
 20
146.1331256230480
 30
0.0000000000000000
 11
575.1057096159566
 21
226.1331256230479
 31
0.0000000000000000
 70
32
  1
\A1;\U+2205160
  3
MAIN001
100
AcDbAlignedDimension
 13
468.7639792304435
 23
306.1331256230478
 33
0.0000000000000000
 14
468.7639792304435
 24
146.1331256230480
 34
0.0000000000000000
 50
90.00000000000000
100
AcDbRotatedDimension
1001
ACAD
1000
DSTYLE
1002
{
1070
   173
1070
     1
1070
     6
1000
_OPEN
1070
     7
1000
_OPEN
1070
    41
1040
2.000000
1002
}
  0
INSERT
  5
1AB
100
AcDbEntity
  8
MAIN0
  6
CONTINUOUS
 62
3
100
AcDbBlockReference
  2
D25
 10
530.0908636547429
 20
226.1331256230479
 30
0.0000000000000000
 50
0.0000000000000000
  0
LEADER
  5
1AC
100
AcDbEntity
  8
MAIN0
  6
CONTINUOUS
 62
3
100
AcDbLeader
  3
MAIN001
 73
     0
 74
     0
 75
     1
 40
3.099999904632568
 41
22.63100065088270
 76
     3
 10
470.7639792304435
 20
161.1331256230477
 30
0.0000000000000000
 10
487.0894113409446
 20
130.4216163709850
 30
0.0000000000000000
 10
489.0144112851547
 20
130.4216163709850
 30
0.0000000000000000
340
1AD
213
0.0000000000000000
223
-0.5000000000000000
233
0.0000000000000000
1001
ACAD
1000
DSTYLE
1002
{
1070
   147
1040
0.0
1070
    77
1070
     1
1070
   173
1070
     1
1070
     6
1000
_OPEN
1070
     7
1000
_OPEN
1002
}
  0
MTEXT
  5
1AD
102
{ACAD_REACTORS
330
1AC
102
}
100
AcDbEntity
  8
MAIN0
  6
CONTINUOUS
 62
3
100
AcDbMText
 10
489.0154112851546
 20
134.0216162756175
 30
0.0000000000000000
 40
3.099999904632568
 41
0.0000000000000000
 71
     1
 72
     1
  1
{\H0.93x;{6-M12×24}}
 11
1.000000000000000
 21
0.0000000000000000
 31
0.0000000000000000
  7
KNJYOKO
  0
ARC
  5
1AE
100
AcDbEntity
  8
MAIN0
  6
PHANTOM
 62
12
100
AcDbCircle
 10
152.3477031781184
 20
350.6736018481689
 30
0.0000000000000000
 40
5.500000000000000
100
AcDbArc
 50
30.00000000000010
 51
210.0000000000000
  0
ARC
  5
1AF
100
AcDbEntity
  8
MAIN0
  6
PHANTOM
 62
12
100
AcDbCircle
 10
152.3477031781184
 20
350.6736018481689
 30
0.0000000000000000
 40
6.000000000000000
100
AcDbArc
 50
30.00000000000009
 51
210.0000000000000
  0
ARC
  5
1B0
100
AcDbEntity
  8
MAIN0
  6
PHANTOM
 62
12
100
AcDbCircle
 10
71.79069163718421
 20
380.6340431250696
 30
0.0000000000000000
 40
6.000000000000000
100
AcDbArc
 50
89.99999999999970
 51
269.9999999999999
  0
ARC
  5
1B1
100
AcDbEntity
  8
MAIN0
  6
PHANTOM
 62
12
100
AcDbCircle
 10
71.79069163718421
 20
380.6340431250696
 30
0.0000000000000000
 40
5.500000000000000
100
AcDbArc
 50
89.99999999999970
 51
269.9999999999999
  0
LEADER
  5
1B2
100
AcDbEntity
  8
MAIN0
  6
CONTINUOUS
 62
3
100
AcDbLeader
  3
MAIN001
 73
     0
 74
     0
 75
     1
 40
3.099999904632568
 41
13.57100041007996
 76
     3
 10
227.7639792304517
 20
272.8146891591964
 30
0.0000000000000000
 10
233.1736094618451
 20
289.6545646523589
 30
0.0000000000000000
 10
235.0986094060551
 20
289.6545646523589
 30
0.0000000000000000
340
1B3
213
-0.001000000000004775
223
-0.5000000000000000
233
0.0000000000000000
1001
ACAD
1000
DSTYLE
1002
{
1070
   147
1040
0.0
1070
    77
1070
     1
1070
   173
1070
     1
1070
     6
1000
_OPEN
1070
     7
1000
_OPEN
1002
}
  0
MTEXT
  5
1B3
102
{ACAD_REACTORS
330
1B2
102
}
100
AcDbEntity
  8
MAIN0
  6
CONTINUOUS
 62
3
100
AcDbMText
 10
235.0996094060551
 20
293.2545645569915
 30
0.0000000000000000
 40
3.099999904632568
 41
0.0000000000000000
 71
     1
 72
     1
  1
{\H0.92x;{M12x1}}
 11
1.000000000000000
 21
0.0000000000000000
 31
0.0000000000000000
  7
STANDARD
  0
LINE
  5
1B4
100
AcDbEntity
  8
MAIN0
  6
CENTER
 62
3
100
AcDbLine
 10
262.7639792304439
 20
267.6279238487770
 30
0.0000000000000000
 11
262.7639792304442
 21
277.0557699828590
 31
0.0000000000000000
  0
DIMENSION
  5
1BE
100
AcDbEntity
  8
MAIN0
  6
CONTINUOUS
 62
3
100
AcDbDimension
  2
*D26
 10
254.7639792304430
 20
259.8434621034610
 30
0.0000000000000000
 11
257.2639792304429
 21
260.3434621034610
 31
0.0000000000000000
 70
32
  3
MAIN001
100
AcDbAlignedDimension
 13
259.7639792304429
 23
256.1331256230472
 33
0.0000000000000000
 14
254.7639792304430
 24
256.1331256230472
 34
0.0000000000000000
100
AcDbRotatedDimension
1001
ACAD
1000
DSTYLE
1002
{
1070
   173
1070
     1
1070
     6
1000
_DOT
1070
     7
1000
_OPEN
1070
    41
1040
2.000000
1070
   287
1070
     0
1002
}
  0
DIMENSION
  5
1C8
100
AcDbEntity
  8
MAIN0
  6
CONTINUOUS
 62
3
100
AcDbDimension
  2
*D27
 10
259.7639792304429
 20
259.8434621034610
 30
0.0000000000000000
 11
266.5078702137022
 21
260.3434621034610
 31
0.0000000000000000
 70
160
  3
MAIN001
100
AcDbAlignedDimension
 13
262.7639792304439
 23
267.6279238487770
 33
0.0000000000000000
 14
259.7639792304429
 24
256.1331256230472
 34
0.0000000000000000
100
AcDbRotatedDimension
1001
ACAD
1000
DSTYLE
1002
{
1070
   173
1070
     1
1070
     6
1000
_OPEN
1070
     7
1000
_DOT
1070
    41
1040
2.000000
1070
   287
1070
     0
1002
}
  0
LINE
  5
1C9
100
AcDbEntity
  8
MAIN0
  6
CENTER
 62
12
100
AcDbLine
 10
191.4962726831254
 20
226.1331256230479
 30
0.0000000000000000
 11
320.8564670768652
 21
226.1331256230479
 31
0.0000000000000000
  0
LINE
  5
1CA
100
AcDbEntity
  8
MAIN0
  6
CENTER
 62
12
100
AcDbLine
 10
326.9564674583349
 20
226.1331256230479
 30
0.0000000000000000
 11
530.0908636547429
 21
226.1331256230479
 31
0.0000000000000000
  0
DIMENSION
  5
1D2
100
AcDbEntity
  8
MAIN0
  6
CONTINUOUS
 62
3
100
AcDbDimension
  2
*D28
 10
326.4564674583349
 20
240.1331256230479
 30
0.0000000000000000
 11
325.9564674583349
 21
226.1331256230479
 31
0.0000000000000000
 70
32
  3
MAIN001
100
AcDbAlignedDimension
 13
311.1919565972482
 23
212.1331256230479
 33
0.0000000000000000
 14
327.5887599536576
 24
240.1331256230479
 34
0.0000000000000000
 50
90.00000000000000
100
AcDbRotatedDimension
1001
ACAD
1000
DSTYLE
1002
{
1070
   173
1070
     1
1070
     6
1000
_OPEN
1070
     7
1000
_OPEN
1070
    41
1040
2.000000
1002
}
  0
LINE
  5
1D3
100
AcDbEntity
  8
MAIN0
  6
CONTINUOUS
 62
3
100
AcDbLine
 10
516.7639792304399
 20
238.6331256230531
 30
0.0000000000000000
 11
520.8979538266547
 21
238.6331256230531
 31
0.0000000000000000
  0
LINE
  5
1D4
100
AcDbEntity
  8
MAIN0
  6
CONTINUOUS
 62
3
100
AcDbLine
 10
516.7639792304400
 20
213.6331256230531
 30
0.0000000000000000
 11
516.7639792304399
 21
238.6331256230530
 31
0.0000000000000000
  0
LINE
  5
1D5
100
AcDbEntity
  8
MAIN0
  6
CONTINUOUS
 62
3
100
AcDbLine
 10
515.6092786920600
 20
236.6331256230525
 30
0.0000000000000000
 11
516.7639792304395
 21
238.6331256230530
 31
0.0000000000000000
  0
LINE
  5
1D6
100
AcDbEntity
  8
MAIN0
  6
CONTINUOUS
 62
3
100
AcDbLine
 10
515.6092786920599
 20
226.1331256230530
 30
0.0000000000000000
 11
515.6092786920599
 21
236.6331256230522
 31
0.0000000000000000
  0
LINE
  5
1D7
100
AcDbEntity
  8
MAIN0
  6
CONTINUOUS
 62
3
100
AcDbLine
 10
515.6092786920600
 20
215.6331256230536
 30
0.0000000000000000
 11
516.7639792304395
 21
213.6331256230532
 31
0.0000000000000000
  0
LINE
  5
1D8
100
AcDbEntity
  8
MAIN0
  6
CONTINUOUS
 62
3
100
AcDbLine
 10
515.6092786920599
 20
226.1331256230530
 30
0.0000000000000000
 11
515.6092786920599
 21
215.6331256230539
 31
0.0000000000000000
  0
LINE
  5
1D9
100
AcDbEntity
  8
MAIN0
  6
CONTINUOUS
 62
3
100
AcDbLine
 10
516.7639792304399
 20
213.6331256230530
 30
0.0000000000000000
 11
520.8979538266549
 21
213.6331256230530
 31
0.0000000000000000
  0
LINE
  5
1DA
100
AcDbEntity
  8
MAIN0
  6
CONTINUOUS
 62
3
100
AcDbLine
 10
520.8979538266548
 20
213.6331256230531
 30
0.0000000000000000
 11
520.8979538266548
 21
226.1331256230530
 31
0.0000000000000000
  0
LINE
  5
1DB
100
AcDbEntity
  8
MAIN0
  6
CONTINUOUS
 62
3
100
AcDbLine
 10
520.8979538266549
 20
213.6331256230531
 30
0.0000000000000000
 11
521.7639792304398
 21
213.1331256230528
 31
0.0000000000000000
  0
LINE
  5
1DC
100
AcDbEntity
  8
MAIN0
  6
CONTINUOUS
 62
3
100
AcDbLine
 10
520.8979538266549
 20
238.6331256230531
 30
0.0000000000000000
 11
521.7639792304399
 21
239.1331256230534
 31
0.0000000000000000
  0
LINE
  5
1DD
100
AcDbEntity
  8
MAIN0
  6
CONTINUOUS
 62
3
100
AcDbLine
 10
520.8979538266548
 20
238.6331256230530
 30
0.0000000000000000
 11
520.8979538266548
 21
226.1331256230531
 31
0.0000000000000000
  0
LINE
  5
1DE
100
AcDbEntity
  8
MAIN0
  6
CONTINUOUS
 62
3
100
AcDbLine
 10
335.7639792304439
 20
265.1331256230479
 30
0.0000000000000000
 11
345.7639792304439
 21
265.1331256230479
 31
0.0000000000000000
  0
LINE
  5
1DF
100
AcDbEntity
  8
MAIN0
  6
CONTINUOUS
 62
3
100
AcDbLine
 10
335.7639792304439
 20
265.1331256230479
 30
0.0000000000000000
 11
334.7639792304440
 21
266.1331256230478
 31
0.0000000000000000
  0
LINE
  5
1E0
100
AcDbEntity
  8
MAIN0
  6
CONTINUOUS
 62
3
100
AcDbLine
 10
335.7639792304439
 20
187.1331256230479
 30
0.0000000000000000
 11
345.7639792304439
 21
187.1331256230479
 31
0.0000000000000000
  0
LINE
  5
1E1
100
AcDbEntity
  8
MAIN0
  6
CONTINUOUS
 62
3
100
AcDbLine
 10
335.7639792304439
 20
187.1331256230479
 30
0.0000000000000000
 11
334.7639792304440
 21
186.1331256230480
 31
0.0000000000000000
  0
LINE
  5
1E2
100
AcDbEntity
  8
MAIN0
  6
CONTINUOUS
 62
3
100
AcDbLine
 10
335.7639792304439
 20
265.1331256230479
 30
0.0000000000000000
 11
335.7639792304439
 21
187.1331256230479
 31
0.0000000000000000
  0
LINE
  5
1E3
100
AcDbEntity
  8
MAIN0
  6
CONTINUOUS
 62
3
100
AcDbLine
 10
334.7639792304440
 20
186.1331256230480
 30
0.0000000000000000
 11
334.7639792304440
 21
266.1331256230478
 31
0.0000000000000000
  0
LINE
  5
1E4
100
AcDbEntity
  8
MAIN0
  6
CONTINUOUS
 62
3
100
AcDbLine
 10
85.78324922138881
 20
271.1331256230477
 30
0.0000000000000000
 11
85.78324922138881
 21
274.3331256230477
 31
0.0000000000000000
  0
LINE
  5
1E5
100
AcDbEntity
  8
MAIN0
  6
CONTINUOUS
 62
3
100
AcDbLine
 10
133.7832492213888
 20
271.1331256230477
 30
0.0000000000000000
 11
133.7832492213888
 21
274.3331256230477
 31
0.0000000000000000
  0
LINE
  5
1E6
100
AcDbEntity
  8
MAIN0
  6
CONTINUOUS
 62
3
100
AcDbLine
 10
136.7543923916884
 20
269.4177353138742
 30
0.0000000000000000
 11
139.5256736837985
 21
271.0177353138743
 31
0.0000000000000000
  0
LINE
  5
1E7
100
AcDbEntity
  8
MAIN0
  6
CONTINUOUS
 62
3
100
AcDbLine
 10
160.7543923916884
 20
227.8485159322211
 30
0.0000000000000000
 11
163.5256736837986
 21
229.4485159322211
 31
0.0000000000000000
  0
LINE
  5
1E8
100
AcDbEntity
  8
MAIN0
  6
CONTINUOUS
 62
3
100
AcDbLine
 10
94.29069163718415
 20
320.6340431250696
 30
0.0000000000000000
 11
94.29069163718415
 21
371.6340431250699
 31
0.0000000000000000
  0
LINE
  5
1E9
100
AcDbEntity
  8
MAIN0
  6
CONTINUOUS
 62
3
100
AcDbLine
 10
92.29069163718421
 20
317.6340431250698
 30
0.0000000000000000
 11
93.29069163718410
 21
318.6340431250696
 31
0.0000000000000000
  0
LINE
  5
1EA
100
AcDbEntity
  8
MAIN0
  6
CONTINUOUS
 62
3
100
AcDbLine
 10
93.29069163718418
 20
318.6340431250696
 30
0.0000000000000000
 11
94.29069163718424
 21
319.6340431250696
 31
0.0000000000000000
  0
LINE
  5
1EB
100
AcDbEntity
  8
MAIN0
  6
CONTINUOUS
 62
3
100
AcDbLine
 10
94.29069163718421
 20
319.6340431250696
 30
0.0000000000000000
 11
94.29069163718421
 21
373.1340431250699
 31
0.0000000000000000
  0
LINE
  5
1EC
100
AcDbEntity
  8
MAIN0
  6
CONTINUOUS
 62
3
100
AcDbLine
 10
94.29069163718421
 20
373.1340431250699
 30
0.0000000000000000
 11
94.29069163718421
 21
386.6340431250696
 31
0.0000000000000000
  0
LINE
  5
1ED
100
AcDbEntity
  8
MAIN0
  6
CONTINUOUS
 62
3
100
AcDbLine
 10
171.3919318121783
 20
335.6880302630189
 30
0.0000000000000000
 11
215.5592274051847
 21
361.1880302630187
 31
0.0000000000000000
  0
LINE
  5
1EE
100
AcDbEntity
  8
MAIN0
  6
CONTINUOUS
 62
3
100
AcDbLine
 10
216.4252528089691
 20
361.6880302630189
 30
0.0000000000000000
 11
216.7912782127535
 21
363.0540556668032
 31
0.0000000000000000
  0
LINE
  5
1EF
100
AcDbEntity
  8
MAIN0
  6
CONTINUOUS
 62
3
100
AcDbLine
 10
216.7912782127535
 20
363.0540556668031
 30
0.0000000000000000
 11
217.1573036165380
 21
364.4200810705878
 31
0.0000000000000000
  0
LINE
  5
1F0
100
AcDbEntity
  8
MAIN0
  6
CONTINUOUS
 62
3
100
AcDbLine
 10
90.28324910304829
 20
181.1331256230480
 30
0.0000000000000000
 11
129.2832492213888
 21
181.1331256230480
 31
0.0000000000000000
  0
LINE
  5
1F1
100
AcDbEntity
  8
MAIN0
  6
CONTINUOUS
 62
3
100
AcDbLine
 10
89.28324922138887
 20
182.1331255932457
 30
0.0000000000000000
 11
89.28324922138887
 21
184.1331256230479
 31
0.0000000000000000
  0
ARC
  5
1F2
100
AcDbEntity
  8
MAIN0
  6
CONTINUOUS
 62
3
100
AcDbCircle
 10
90.28324922138901
 20
182.1331256230480
 30
0.0000000000000000
 40
1.000000000000000
100
AcDbArc
 50
179.9999999999998
 51
269.9999999999999
  0
ARC
  5
1F3
100
AcDbEntity
  8
MAIN0
  6
CONTINUOUS
 62
3
100
AcDbCircle
 10
86.28324922138901
 20
184.1331256230480
 30
0.0000000000000000
 40
3.000000000000000
100
AcDbArc
 50
0.0000000000000000
 51
89.99999999999970
  0
LINE
  5
1F4
100
AcDbEntity
  8
MAIN0
  6
CONTINUOUS
 62
3
100
AcDbLine
 10
130.2832492213886
 20
182.1331255483479
 30
0.0000000000000000
 11
130.2832492213886
 21
186.5888466436556
 31
0.0000000000000000
  0
ARC
  5
1F5
100
AcDbEntity
  8
MAIN0
  6
CONTINUOUS
 62
3
100
AcDbCircle
 10
129.2832492213888
 20
182.1331256230480
 30
0.0000000000000000
 40
1.000000000000000
100
AcDbArc
 50
269.9999999999999
 51
360.0000000000000
  0
ARC
  5
1F6
100
AcDbEntity
  8
MAIN0
  6
CONTINUOUS
 62
3
100
AcDbCircle
 10
133.2832492213888
 20
186.5888466436557
 30
0.0000000000000000
 40
3.000000000000000
100
AcDbArc
 50
120.7217684180164
 51
179.9999999999998
  0
LEADER
  5
1F7
100
AcDbEntity
  8
MAIN0
  6
CONTINUOUS
 62
3
100
AcDbLeader
  3
MAIN001
 73
     0
 74
     0
 75
     1
 40
3.099999904632568
 41
55.42100162601471
 76
     3
 10
205.6057096159566
 20
376.1331256230479
 30
0.0000000000000000
 10
235.6057096159566
 20
386.1331256230479
 30
0.0000000000000000
 10
237.5307095601667
 20
386.1331256230479
 30
0.0000000000000000
340
1F8
213
-0.001000000000004775
223
-0.5000000000000000
233
0.0000000000000000
1001
ACAD
1000
DSTYLE
1002
{
1070
   147
1040
0.0
1070
    77
1070
     1
1070
   173
1070
     1
1070
     6
1000
_DOT
1070
     7
1000
_DOT
1002
}
  0
MTEXT
  5
1F8
102
{ACAD_REACTORS
330
1F7
102
}
100
AcDbEntity
  8
MAIN0
  6
CONTINUOUS
 62
3
100
AcDbMText
 10
237.5317095601667
 20
389.7331255276804
 30
0.0000000000000000
 40
3.099999904632568
 41
0.0000000000000000
 71
     1
 72
     1
  1
{\H0.94x;{近接スイッチ取付プレート\PTHE MOUNTING PLATE \PFOR PROXIMITY SWITCH}}
 11
1.000000000000000
 21
0.0000000000000000
 31
0.0000000000000000
  7
KNJYOKO
  0
INSERT
  5
223
100
AcDbEntity
  8
MAIN0
  6
CONTINUOUS
 62
3
100
AcDbBlockReference
  2
M0
 10
0.0000000000000000
 20
0.0000000000000000
 30
0.0000000000000000
 50
0.0000000000000000
  0
MTEXT
  5
224
100
AcDbEntity
  8
MAIN0
  6
CONTINUOUS
 62
4
100
AcDbMText
 10
263.2142279655688
 20
110.9715627556957
 30
0.0000000000000000
 40
3.100000381469727
 41
0.0000000000000000
 71
     1
 72
     1
  1
{\H0.91x;{ 125}}
 11
1.000000000000000
 21
0.0000000000000000
 31
0.0000000000000000
  7
STANDARD
  0
MTEXT
  5
225
100
AcDbEntity
  8
MAIN0
  6
CONTINUOUS
 62
4
100
AcDbMText
 10
263.2142279655688
 20
103.9715627556959
 30
0.0000000000000000
 40
3.100000381469727
 41
0.0000000000000000
 71
     1
 72
     1
  1
{\H0.91x;{  25}}
 11
1.000000000000000
 21
0.0000000000000000
 31
0.0000000000000000
  7
STANDARD
  0
LINE
  5
226
100
AcDbEntity
  8
MAIN0
  6
CONTINUOUS
 62
3
100
AcDbLine
 10
346.7639792304439
 20
190.1331256230479
 30
0.0000000000000000
 11
372.7639792304439
 21
190.1331256230478
 31
0.0000000000000000
  0
LINE
  5
227
100
AcDbEntity
  8
MAIN0
  6
CONTINUOUS
 62
3
100
AcDbLine
 10
346.7639792304439
 20
262.1331256230479
 30
0.0000000000000000
 11
372.7639792304438
 21
262.1331256230479
 31
0.0000000000000000
  0
LINE
  5
228
100
AcDbEntity
  8
MAIN0
  6
CONTINUOUS
 62
3
100
AcDbLine
 10
387.7639792304436
 20
146.1331256230474
 30
0.0000000000000000
 11
387.7639792304436
 21
306.1331256230478
 31
0.0000000000000000
  0
LINE
  5
229
100
AcDbEntity
  8
MAIN0
  6
CONTINUOUS
 62
3
100
AcDbLine
 10
374.7639792304439
 20
306.1331256230477
 30
0.0000000000000000
 11
387.7639792304437
 21
306.1331256230477
 31
0.0000000000000000
  0
LINE
  5
22A
100
AcDbEntity
  8
MAIN0
  6
CONTINUOUS
 62
3
100
AcDbLine
 10
374.7639792304439
 20
146.1331256230481
 30
0.0000000000000000
 11
387.7639792304436
 21
146.1331256230481
 31
0.0000000000000000
  0
LINE
  5
22B
100
AcDbEntity
  8
MAIN0
  6
CONTINUOUS
 62
3
100
AcDbLine
 10
260.7639792304439
 20
233.6331256230479
 30
0.0000000000000000
 11
262.1218886746571
 21
233.6331256230479
 31
0.0000000000000000
  0
LINE
  5
22C
100
AcDbEntity
  8
MAIN0
  6
CONTINUOUS
 62
3
100
AcDbLine
 10
260.7639792304439
 20
218.6331256230479
 30
0.0000000000000000
 11
261.5211692860158
 21
218.6331256230479
 31
0.0000000000000000
  0
LINE
  5
22D
100
AcDbEntity
  8
MAIN0
  6
CONTINUOUS
 62
3
100
AcDbLine
 10
260.7639792304439
 20
214.6331256230479
 30
0.0000000000000000
 11
260.7639792304439
 21
218.6331256230479
 31
0.0000000000000000
  0
LINE
  5
22E
100
AcDbEntity
  8
MAIN0
  6
CONTINUOUS
 62
3
100
AcDbLine
 10
260.7639792304439
 20
233.6331256230479
 30
0.0000000000000000
 11
260.7639792304439
 21
237.6331256230478
 31
0.0000000000000000
  0
ARC
  5
22F
100
AcDbEntity
  8
MAIN0
  6
CONTINUOUS
 62
3
100
AcDbCircle
 10
372.7639792304439
 20
263.1331256230479
 30
0.0000000000000000
 40
1.000000000000000
100
AcDbArc
 50
269.9999999999999
 51
359.9999999999998
  0
ARC
  5
230
100
AcDbEntity
  8
MAIN0
  6
CONTINUOUS
 62
3
100
AcDbCircle
 10
372.7639792304439
 20
189.1331256230479
 30
0.0000000000000000
 40
1.000000000000000
100
AcDbArc
 50
0.0000000000000000
 51
89.99999999999970
  0
ARC
  5
231
100
AcDbEntity
  8
MAIN0
  6
CONTINUOUS
 62
3
100
AcDbCircle
 10
374.7639792304439
 20
147.1331256230480
 30
0.0000000000000000
 40
1.000000000000000
100
AcDbArc
 50
179.9999999999998
 51
269.9999999999999
  0
ARC
  5
232
100
AcDbEntity
  8
MAIN0
  6
CONTINUOUS
 62
3
100
AcDbCircle
 10
374.7639792304439
 20
305.1331256230477
 30
0.0000000000000000
 40
1.000000000000000
100
AcDbArc
 50
89.99999999999970
 51
179.9999999999998
  0
ARC
  5
233
100
AcDbEntity
  8
MAIN0
  6
CONTINUOUS
 62
3
100
AcDbCircle
 10
261.7639792304439
 20
237.6331256230478
 30
0.0000000000000000
 40
1.000000000000000
100
AcDbArc
 50
129.2671247915284
 51
179.9999999999998
  0
ARC
  5
234
100
AcDbEntity
  8
MAIN0
  6
CONTINUOUS
 62
3
100
AcDbCircle
 10
261.7639792304439
 20
214.6331256230479
 30
0.0000000000000000
 40
1.000000000000000
100
AcDbArc
 50
179.9999999999998
 51
217.9216996238017
  0
LINE
  5
235
100
AcDbEntity
  8
MAIN0
  6
CONTINUOUS
 62
3
100
AcDbLine
 10
470.7639792304435
 20
181.8834769190759
 30
0.0000000000000000
 11
470.7639792304435
 21
304.1331256230478
 31
0.0000000000000000
  0
LINE
  5
236
100
AcDbEntity
  8
MAIN0
  6
CONTINUOUS
 62
3
100
AcDbLine
 10
475.7639792304435
 20
243.6331256230479
 30
0.0000000000000000
 11
475.7639792304435
 21
281.1331256230478
 31
0.0000000000000000
  0
LINE
  5
237
100
AcDbEntity
  8
MAIN0
  6
CONTINUOUS
 62
3
100
AcDbLine
 10
470.7639792304435
 20
281.1331256230478
 30
0.0000000000000000
 11
475.7639792304435
 21
281.1331256230478
 31
0.0000000000000000
  0
LINE
  5
238
100
AcDbEntity
  8
MAIN0
  6
CONTINUOUS
 62
3
100
AcDbLine
 10
387.7639792304436
 20
306.1331256230478
 30
0.0000000000000000
 11
468.7639792304435
 21
306.1331256230478
 31
0.0000000000000000
  0
LINE
  5
239
100
AcDbEntity
  8
MAIN0
  6
CONTINUOUS
 62
3
100
AcDbLine
 10
470.7639792304435
 20
171.1331256230480
 30
0.0000000000000000
 11
470.7639792304435
 21
148.1331256230480
 31
0.0000000000000000
  0
LINE
  5
23A
100
AcDbEntity
  8
MAIN0
  6
CONTINUOUS
 62
3
100
AcDbLine
 10
475.7639792304435
 20
208.6331256230479
 30
0.0000000000000000
 11
475.7639792304435
 21
171.1331256230480
 31
0.0000000000000000
  0
LINE
  5
23B
100
AcDbEntity
  8
MAIN0
  6
CONTINUOUS
 62
3
100
AcDbLine
 10
470.7639792304435
 20
171.1331256230480
 30
0.0000000000000000
 11
475.7639792304435
 21
171.1331256230480
 31
0.0000000000000000
  0
LINE
  5
23C
100
AcDbEntity
  8
MAIN0
  6
CONTINUOUS
 62
3
100
AcDbLine
 10
387.7639792304436
 20
146.1331256230480
 30
0.0000000000000000
 11
468.7639792304435
 21
146.1331256230480
 31
0.0000000000000000
  0
LINE
  5
23D
100
AcDbEntity
  8
MAIN0
  6
CENTER
 62
12
100
AcDbLine
 10
435.8213289548919
 20
161.1331256230477
 30
0.0000000000000000
 11
474.4772870351798
 21
161.1331256230477
 31
0.0000000000000000
  0
LINE
  5
23E
100
AcDbEntity
  8
MAIN0
  6
CONTINUOUS
 62
3
100
AcDbLine
 10
469.1639792304436
 20
166.2331256230479
 30
0.0000000000000000
 11
469.1639792304437
 21
156.0331256230479
 31
0.0000000000000000
  0
ARC
  5
23F
100
AcDbEntity
  8
MAIN0
  6
CONTINUOUS
 62
3
100
AcDbCircle
 10
468.7639792304436
 20
304.1331256230478
 30
0.0000000000000000
 40
2.000000000000000
100
AcDbArc
 50
0.0000000000000000
 51
89.99999999999970
  0
ARC
  5
240
100
AcDbEntity
  8
MAIN0
  6
CONTINUOUS
 62
3
100
AcDbCircle
 10
468.7639792304436
 20
148.1331256230480
 30
0.0000000000000000
 40
2.000000000000000
100
AcDbArc
 50
269.9999999999999
 51
359.9999999999998
  0
LINE
  5
241
100
AcDbEntity
  8
MAIN0
  6
CONTINUOUS
 62
3
100
AcDbLine
 10
473.7984491048361
 20
243.6331256230477
 30
0.0000000000000000
 11
500.8979538266584
 21
243.6331256230477
 31
0.0000000000000000
  0
LINE
  5
242
100
AcDbEntity
  8
MAIN0
  6
CONTINUOUS
 62
3
100
AcDbLine
 10
501.7639792304428
 20
243.1331256230477
 30
0.0000000000000000
 11
520.7639792304399
 21
243.1331256230477
 31
0.0000000000000000
  0
LINE
  5
243
100
AcDbEntity
  8
MAIN0
  6
CONTINUOUS
 62
3
100
AcDbLine
 10
500.8979538266584
 20
243.6331256230478
 30
0.0000000000000000
 11
501.7639792304427
 21
243.1331256230479
 31
0.0000000000000000
  0
LINE
  5
244
100
AcDbEntity
  8
MAIN0
  6
CONTINUOUS
 62
3
100
AcDbLine
 10
474.5611117058099
 20
208.6331256230481
 30
0.0000000000000000
 11
500.8979538266584
 21
208.6331256230481
 31
0.0000000000000000
  0
LINE
  5
245
100
AcDbEntity
  8
MAIN0
  6
CONTINUOUS
 62
3
100
AcDbLine
 10
501.7639792304428
 20
209.1331256230481
 30
0.0000000000000000
 11
520.7639792304399
 21
209.1331256230481
 31
0.0000000000000000
  0
LINE
  5
246
100
AcDbEntity
  8
MAIN0
  6
CONTINUOUS
 62
3
100
AcDbLine
 10
500.8979538266584
 20
208.6331256230479
 30
0.0000000000000000
 11
501.7639792304427
 21
209.1331256230479
 31
0.0000000000000000
  0
LINE
  5
247
100
AcDbEntity
  8
MAIN0
  6
CONTINUOUS
 62
3
100
AcDbLine
 10
521.7639792304399
 20
210.1331256230479
 30
0.0000000000000000
 11
521.7639792304399
 21
242.1331256230479
 31
0.0000000000000000
  0
LINE
  5
248
100
AcDbEntity
  8
MAIN0
  6
CONTINUOUS
 62
3
100
AcDbLine
 10
520.7639792304431
 20
243.1331256230479
 30
0.0000000000000000
 11
521.7639792304431
 21
242.1331256230479
 31
0.0000000000000000
  0
LINE
  5
249
100
AcDbEntity
  8
MAIN0
  6
CONTINUOUS
 62
3
100
AcDbLine
 10
520.7639792304431
 20
209.1331256230479
 30
0.0000000000000000
 11
521.7639792304431
 21
210.1331256230479
 31
0.0000000000000000
  0
LINE
  5
24A
100
AcDbEntity
  8
MAIN0
  6
CONTINUOUS
 62
3
100
AcDbLine
 10
57.79069163718421
 20
354.7887441250696
 30
0.0000000000000000
 11
55.79069163718424
 21
355.9434451250696
 31
0.0000000000000000
  0
LINE
  5
24B
100
AcDbEntity
  8
MAIN0
  6
CONTINUOUS
 62
3
100
AcDbLine
 10
55.79069163718424
 20
355.9434451250696
 30
0.0000000000000000
 11
53.79069163718430
 21
354.7887441250696
 31
0.0000000000000000
  0
LINE
  5
24C
100
AcDbEntity
  8
MAIN0
  6
CONTINUOUS
 62
3
100
AcDbLine
 10
53.79069163718421
 20
354.7887441250697
 30
0.0000000000000000
 11
53.79069163718421
 21
352.4793421250697
 31
0.0000000000000000
  0
LINE
  5
24D
100
AcDbEntity
  8
MAIN0
  6
CONTINUOUS
 62
3
100
AcDbLine
 10
53.79069163718421
 20
352.4793421250696
 30
0.0000000000000000
 11
55.79069163718418
 21
351.3246421250697
 31
0.0000000000000000
  0
LINE
  5
24E
100
AcDbEntity
  8
MAIN0
  6
CONTINUOUS
 62
3
100
AcDbLine
 10
55.79069163718427
 20
351.3246421250697
 30
0.0000000000000000
 11
57.79069163718424
 21
352.4793451250696
 31
0.0000000000000000
  0
LINE
  5
24F
100
AcDbEntity
  8
MAIN0
  6
CONTINUOUS
 62
3
100
AcDbLine
 10
57.79069163718421
 20
352.4793451250696
 30
0.0000000000000000
 11
57.79069163718421
 21
354.7887441250697
 31
0.0000000000000000
  0
CIRCLE
  5
250
100
AcDbEntity
  8
MAIN0
  6
CONTINUOUS
 62
3
100
AcDbCircle
 10
55.79069163718421
 20
353.6340431250696
 30
0.0000000000000000
 40
4.249999999999996
  0
LINE
  5
251
100
AcDbEntity
  8
MAIN0
  6
CONTINUOUS
 62
3
100
AcDbLine
 10
158.4720588311005
 20
372.6847093087198
 30
0.0000000000000000
 11
156.4720588311005
 21
373.8394103087198
 31
0.0000000000000000
  0
LINE
  5
252
100
AcDbEntity
  8
MAIN0
  6
CONTINUOUS
 62
3
100
AcDbLine
 10
156.4720588311006
 20
373.8394103087198
 30
0.0000000000000000
 11
154.4720588311007
 21
372.6847093087199
 31
0.0000000000000000
  0
LINE
  5
253
100
AcDbEntity
  8
MAIN0
  6
CONTINUOUS
 62
3
100
AcDbLine
 10
154.4720588311005
 20
372.6847093087198
 30
0.0000000000000000
 11
154.4720588311005
 21
370.3753073087198
 31
0.0000000000000000
  0
LINE
  5
254
100
AcDbEntity
  8
MAIN0
  6
CONTINUOUS
 62
3
100
AcDbLine
 10
154.4720588311005
 20
370.3753073087198
 30
0.0000000000000000
 11
156.4720588311005
 21
369.2206073087198
 31
0.0000000000000000
  0
LINE
  5
255
100
AcDbEntity
  8
MAIN0
  6
CONTINUOUS
 62
3
100
AcDbLine
 10
156.4720588311005
 20
369.2206073087198
 30
0.0000000000000000
 11
158.4720588311007
 21
370.3753103087199
 31
0.0000000000000000
  0
LINE
  5
256
100
AcDbEntity
  8
MAIN0
  6
CONTINUOUS
 62
3
100
AcDbLine
 10
158.4720588311005
 20
370.3753103087198
 30
0.0000000000000000
 11
158.4720588311005
 21
372.6847093087198
 31
0.0000000000000000
  0
CIRCLE
  5
257
100
AcDbEntity
  8
MAIN0
  6
CONTINUOUS
 62
3
100
AcDbCircle
 10
156.4720588311005
 20
371.5300083087199
 30
0.0000000000000000
 40
4.249999999999996
  0
CIRCLE
  5
258
100
AcDbEntity
  8
MAIN0
  6
CONTINUOUS
 62
12
100
AcDbCircle
 10
87.79069163718424
 20
353.6340431250696
 30
0.0000000000000000
 40
2.500000000000000
  0
CIRCLE
  5
259
100
AcDbEntity
  8
MAIN0
  6
CONTINUOUS
 62
3
100
AcDbCircle
 10
87.79069163718424
 20
353.6340431250696
 30
0.0000000000000000
 40
2.099999999999994
  0
CIRCLE
  5
25A
100
AcDbEntity
  8
MAIN0
  6
CONTINUOUS
 62
12
100
AcDbCircle
 10
172.4720588311005
 20
343.8171953876178
 30
0.0000000000000000
 40
2.500000000000000
  0
CIRCLE
  5
25B
100
AcDbEntity
  8
MAIN0
  6
CONTINUOUS
 62
3
100
AcDbCircle
 10
172.4720588311005
 20
343.8171953876178
 30
0.0000000000000000
 40
2.099999999999994
  0
LINE
  5
25C
100
AcDbEntity
  8
MAIN0
  6
CONTINUOUS
 62
3
100
AcDbLine
 10
282.3413294996333
 20
267.1331256230475
 30
0.0000000000000000
 11
331.1866289612541
 21
267.1331256230475
 31
0.0000000000000000
  0
LINE
  5
25D
100
AcDbEntity
  8
MAIN0
  6
CONTINUOUS
 62
3
100
AcDbLine
 10
282.8048806497229
 20
238.8510933202926
 30
0.0000000000000000
 11
290.7639792304437
 21
238.8510933202926
 31
0.0000000000000000
  0
LINE
  5
25E
100
AcDbEntity
  8
MAIN0
  6
CONTINUOUS
 62
3
100
AcDbLine
 10
283.4310541980001
 20
260.6158791154265
 30
0.0000000000000000
 11
290.7639792304437
 21
260.6158791154265
 31
0.0000000000000000
  0
LINE
  5
25F
100
AcDbEntity
  8
MAIN0
  6
CONTINUOUS
 62
3
100
AcDbLine
 10
290.7639792304437
 20
260.6158791154265
 30
0.0000000000000000
 11
290.7639792304437
 21
238.8510933202926
 31
0.0000000000000000
  0
LINE
  5
260
100
AcDbEntity
  8
MAIN0
  6
CONTINUOUS
 62
3
100
AcDbLine
 10
294.6138513304436
 20
252.1874413817253
 30
0.0000000000000000
 11
327.2969827304439
 21
252.1874413817253
 31
0.0000000000000000
  0
LINE
  5
261
100
AcDbEntity
  8
MAIN0
  6
CONTINUOUS
 62
3
100
AcDbLine
 10
286.2309757304436
 20
200.0788098643705
 30
0.0000000000000000
 11
327.2969827304439
 21
200.0788098643705
 31
0.0000000000000000
  0
LINE
  5
262
100
AcDbEntity
  8
MAIN0
  6
CONTINUOUS
 62
3
100
AcDbLine
 10
290.7639792304437
 20
238.8510933202925
 30
0.0000000000000000
 11
294.6138513304438
 21
252.1874413817254
 31
0.0000000000000000
  0
LINE
  5
263
100
AcDbEntity
  8
MAIN0
  6
CONTINUOUS
 62
3
100
AcDbLine
 10
331.7639792304439
 20
186.1331256230482
 30
0.0000000000000000
 11
331.7639792304439
 21
266.1331256230474
 31
0.0000000000000000
  0
LINE
  5
264
100
AcDbEntity
  8
MAIN0
  6
CENTER
 62
12
100
AcDbLine
 10
295.6581894769161
 20
240.1331256230479
 30
0.0000000000000000
 11
327.5887599536576
 21
240.1331256230479
 31
0.0000000000000000
  0
LINE
  5
265
100
AcDbEntity
  8
MAIN0
  6
CENTER
 62
12
100
AcDbLine
 10
285.1297209604034
 20
212.1331256230479
 30
0.0000000000000000
 11
311.1919565972482
 21
212.1331256230479
 31
0.0000000000000000
  0
LINE
  5
266
100
AcDbEntity
  8
MAIN0
  6
CENTER
 62
12
100
AcDbLine
 10
310.7639792304436
 20
254.2945042994366
 30
0.0000000000000000
 11
310.7639792304436
 21
223.8310175326695
 31
0.0000000000000000
  0
LINE
  5
267
100
AcDbEntity
  8
MAIN0
  6
CENTER
 62
12
100
AcDbLine
 10
299.7639792304436
 20
228.4048334236127
 30
0.0000000000000000
 11
299.7639792304436
 21
197.2509459921135
 31
0.0000000000000000
  0
LINE
  5
268
100
AcDbEntity
  8
MAIN0
  6
CONTINUOUS
 62
3
100
AcDbLine
 10
281.7639792304437
 20
266.1331256230478
 30
0.0000000000000000
 11
282.3413294996332
 21
267.1331256230475
 31
0.0000000000000000
  0
LINE
  5
269
100
AcDbEntity
  8
MAIN0
  6
CONTINUOUS
 62
3
100
AcDbLine
 10
282.3413294996332
 20
185.1331256230480
 30
0.0000000000000000
 11
281.7639792304437
 21
186.1331256230477
 31
0.0000000000000000
  0
LINE
  5
26A
100
AcDbEntity
  8
MAIN0
  6
CONTINUOUS
 62
3
100
AcDbLine
 10
331.1866289612541
 20
267.1331256230476
 30
0.0000000000000000
 11
331.7639792304439
 21
266.1331256230474
 31
0.0000000000000000
  0
LINE
  5
26B
100
AcDbEntity
  8
MAIN0
  6
CONTINUOUS
 62
3
100
AcDbLine
 10
331.1866289612541
 20
185.1331256230479
 30
0.0000000000000000
 11
331.7639792304439
 21
186.1331256230482
 31
0.0000000000000000
  0
ARC
  5
26C
100
AcDbEntity
  8
MAIN0
  6
CONTINUOUS
 62
3
100
AcDbCircle
 10
253.5479533857977
 20
226.1331256230478
 30
0.0000000000000000
 40
78.21602584464620
100
AcDbArc
 50
340.5425255662330
 51
379.4574744337668
  0
ARC
  5
26D
100
AcDbEntity
  8
MAIN0
  6
CONTINUOUS
 62
3
100
AcDbCircle
 10
221.6684010415127
 20
223.9614969662579
 30
0.0000000000000000
 40
78.21599999999995
100
AcDbArc
 50
21.15374252409700
 51
27.94541854805983
  0
ARC
  5
26E
100
AcDbEntity
  8
MAIN0
  6
CONTINUOUS
 62
3
100
AcDbCircle
 10
304.7639792304437
 20
126.0061436266738
 30
0.0000000000000000
 40
60.99999999999625
100
AcDbArc
 50
76.34136644349999
 51
103.6817072922514
  0
ARC
  5
26F
100
AcDbEntity
  8
MAIN0
  6
CONTINUOUS
 62
3
100
AcDbCircle
 10
359.9800050750901
 20
226.1331256230479
 30
0.0000000000000000
 40
78.21602584464625
100
AcDbArc
 50
170.6421270324403
 51
199.4574744337666
  0
ARC
  5
270
100
AcDbEntity
  8
MAIN0
  6
CONTINUOUS
 62
3
100
AcDbCircle
 10
281.4341709130626
 20
272.1023225564522
 30
0.0000000000000000
 40
50.00000000000000
100
AcDbArc
 50
336.5282022431862
 51
354.2963039588780
  0
ARC
  5
271
100
AcDbEntity
  8
MAIN0
  6
CONTINUOUS
 62
3
100
AcDbCircle
 10
332.0937875478246
 20
272.1023225564530
 30
0.0000000000000000
 40
50.00000000000000
100
AcDbArc
 50
185.7036960411226
 51
193.2811096523984
  0
ARC
  5
272
100
AcDbEntity
  8
MAIN0
  6
CONTINUOUS
 62
3
100
AcDbCircle
 10
332.0937875478246
 20
180.1639286896428
 30
0.0000000000000000
 40
50.00000000000000
100
AcDbArc
 50
156.5282022431852
 51
174.2963039588770
  0
ARC
  5
273
100
AcDbEntity
  8
MAIN0
  6
CONTINUOUS
 62
3
100
AcDbCircle
 10
281.4341709130626
 20
180.1639286896438
 30
0.0000000000000000
 40
50.00000000000000
100
AcDbArc
 50
5.703696041121529
 51
23.47179775681351
  0
ARC
  5
274
100
AcDbEntity
  8
MAIN0
  6
CONTINUOUS
 62
3
100
AcDbCircle
 10
366.3853220628179
 20
247.3378777535095
 30
0.0000000000000000
 40
84.01021293363669
100
AcDbArc
 50
170.9061413644370
 51
185.7979594798232
  0
LINE
  5
275
100
AcDbEntity
  8
MAIN0
  6
CONTINUOUS
 62
3
100
AcDbLine
 10
215.7639792304516
 20
274.3331256230477
 30
0.0000000000000000
 11
215.7639792304516
 21
271.1331256230478
 31
0.0000000000000000
  0
LINE
  5
276
100
AcDbEntity
  8
MAIN0
  6
CONTINUOUS
 62
3
100
AcDbLine
 10
216.3054792304516
 20
274.3331256230477
 30
0.0000000000000000
 11
216.3054792304516
 21
271.1331256230478
 31
0.0000000000000000
  0
LINE
  5
277
100
AcDbEntity
  8
MAIN0
  6
CONTINUOUS
 62
3
100
AcDbLine
 10
227.2224792304515
 20
274.3331256230477
 30
0.0000000000000000
 11
227.2224792304515
 21
271.1331256230478
 31
0.0000000000000000
  0
LINE
  5
278
100
AcDbEntity
  8
MAIN0
  6
CONTINUOUS
 62
3
100
AcDbLine
 10
227.7639792304517
 20
274.3331256230477
 30
0.0000000000000000
 11
227.7639792304517
 21
271.1331256230478
 31
0.0000000000000000
  0
LINE
  5
279
100
AcDbEntity
  8
MAIN0
  6
CONTINUOUS
 62
3
100
AcDbLine
 10
250.7639792304430
 20
231.6331256230479
 30
0.0000000000000000
 11
252.2639792304430
 21
233.1331256230479
 31
0.0000000000000000
  0
LINE
  5
27A
100
AcDbEntity
  8
MAIN0
  6
CONTINUOUS
 62
3
100
AcDbLine
 10
252.2639792304430
 20
233.1331256230479
 30
0.0000000000000000
 11
252.2639792304430
 21
239.1331256230479
 31
0.0000000000000000
  0
LINE
  5
27B
100
AcDbEntity
  8
MAIN0
  6
CONTINUOUS
 62
3
100
AcDbLine
 10
252.2639792304430
 20
239.1331256230479
 30
0.0000000000000000
 11
251.3979538266585
 21
239.6331256230479
 31
0.0000000000000000
  0
LINE
  5
27C
100
AcDbEntity
  8
MAIN0
  6
CONTINUOUS
 62
3
100
AcDbLine
 10
251.3979538266585
 20
239.6331256230479
 30
0.0000000000000000
 11
247.1300046342274
 21
239.6331256230479
 31
0.0000000000000000
  0
LINE
  5
27D
100
AcDbEntity
  8
MAIN0
  6
CONTINUOUS
 62
3
100
AcDbLine
 10
247.1300046342274
 20
239.6331256230479
 30
0.0000000000000000
 11
246.2639792304430
 21
239.1331256230479
 31
0.0000000000000000
  0
LINE
  5
27E
100
AcDbEntity
  8
MAIN0
  6
CONTINUOUS
 62
3
100
AcDbLine
 10
246.2639792304430
 20
239.1331256230479
 30
0.0000000000000000
 11
246.2639792304430
 21
233.1331256230479
 31
0.0000000000000000
  0
LINE
  5
27F
100
AcDbEntity
  8
MAIN0
  6
CONTINUOUS
 62
3
100
AcDbLine
 10
246.2639792304430
 20
233.1331256230479
 30
0.0000000000000000
 11
247.7639792304430
 21
231.6331256230479
 31
0.0000000000000000
  0
LINE
  5
280
100
AcDbEntity
  8
MAIN0
  6
CONTINUOUS
 62
3
100
AcDbLine
 10
247.7639792304430
 20
231.6331256230479
 30
0.0000000000000000
 11
250.7639792304430
 21
231.6331256230479
 31
0.0000000000000000
  0
LINE
  5
281
100
AcDbEntity
  8
MAIN0
  6
CONTINUOUS
 62
3
100
AcDbLine
 10
252.2639792304430
 20
233.1331256230479
 30
0.0000000000000000
 11
246.2639792304430
 21
233.1331256230479
 31
0.0000000000000000
  0
LINE
  5
282
100
AcDbEntity
  8
MAIN0
  6
CONTINUOUS
 62
3
100
AcDbLine
 10
252.2639792304430
 20
239.1331256230479
 30
0.0000000000000000
 11
246.2639792304430
 21
239.1331256230479
 31
0.0000000000000000
  0
LINE
  5
283
100
AcDbEntity
  8
MAIN0
  6
CONTINUOUS
 62
3
100
AcDbLine
 10
251.7227132304430
 20
232.5918596230478
 30
0.0000000000000000
 11
251.7227132304430
 21
239.4456256938510
 31
0.0000000000000000
  0
LINE
  5
284
100
AcDbEntity
  8
MAIN0
  6
CONTINUOUS
 62
3
100
AcDbLine
 10
246.8052452304430
 20
232.5918596230478
 30
0.0000000000000000
 11
246.8052452304430
 21
239.4456256938510
 31
0.0000000000000000
  0
LINE
  5
285
100
AcDbEntity
  8
MAIN0
  6
HIDDEN
 62
3
100
AcDbLine
 10
250.7639792304430
 20
231.6331256230479
 30
0.0000000000000000
 11
249.2639792304430
 21
233.1331256230479
 31
0.0000000000000000
  0
LINE
  5
286
100
AcDbEntity
  8
MAIN0
  6
HIDDEN
 62
3
100
AcDbLine
 10
249.2639792304430
 20
233.1331256230479
 30
0.0000000000000000
 11
247.7639792304430
 21
231.6331256230479
 31
0.0000000000000000
  0
LINE
  5
287
100
AcDbEntity
  8
MAIN0
  6
CONTINUOUS
 62
3
100
AcDbLine
 10
250.7639792304430
 20
239.6331256230479
 30
0.0000000000000000
 11
252.2639792304430
 21
241.1331256230479
 31
0.0000000000000000
  0
LINE
  5
288
100
AcDbEntity
  8
MAIN0
  6
CONTINUOUS
 62
3
100
AcDbLine
 10
252.2639792304430
 20
241.1331256230479
 30
0.0000000000000000
 11
252.2639792304430
 21
245.1331256230479
 31
0.0000000000000000
  0
LINE
  5
289
100
AcDbEntity
  8
MAIN0
  6
CONTINUOUS
 62
3
100
AcDbLine
 10
252.2639792304430
 20
245.1331256230479
 30
0.0000000000000000
 11
251.3979538266585
 21
245.6331256230479
 31
0.0000000000000000
  0
LINE
  5
28A
100
AcDbEntity
  8
MAIN0
  6
CONTINUOUS
 62
3
100
AcDbLine
 10
251.3979538266585
 20
245.6331256230479
 30
0.0000000000000000
 11
247.1300046342274
 21
245.6331256230479
 31
0.0000000000000000
  0
LINE
  5
28B
100
AcDbEntity
  8
MAIN0
  6
CONTINUOUS
 62
3
100
AcDbLine
 10
247.1300046342274
 20
245.6331256230479
 30
0.0000000000000000
 11
246.2639792304430
 21
245.1331256230479
 31
0.0000000000000000
  0
LINE
  5
28C
100
AcDbEntity
  8
MAIN0
  6
CONTINUOUS
 62
3
100
AcDbLine
 10
246.2639792304430
 20
245.1331256230479
 30
0.0000000000000000
 11
246.2639792304430
 21
241.1331256230479
 31
0.0000000000000000
  0
LINE
  5
28D
100
AcDbEntity
  8
MAIN0
  6
CONTINUOUS
 62
3
100
AcDbLine
 10
246.2639792304430
 20
241.1331256230479
 30
0.0000000000000000
 11
247.7639792304430
 21
239.6331256230479
 31
0.0000000000000000
  0
LINE
  5
28E
100
AcDbEntity
  8
MAIN0
  6
CONTINUOUS
 62
3
100
AcDbLine
 10
247.7639792304430
 20
239.6331256230479
 30
0.0000000000000000
 11
250.7639792304430
 21
239.6331256230479
 31
0.0000000000000000
  0
LINE
  5
28F
100
AcDbEntity
  8
MAIN0
  6
CONTINUOUS
 62
3
100
AcDbLine
 10
252.2639792304430
 20
241.1331256230479
 30
0.0000000000000000
 11
246.2639792304430
 21
241.1331256230479
 31
0.0000000000000000
  0
LINE
  5
290
100
AcDbEntity
  8
MAIN0
  6
CONTINUOUS
 62
3
100
AcDbLine
 10
252.2639792304430
 20
245.1331256230479
 30
0.0000000000000000
 11
246.2639792304430
 21
245.1331256230479
 31
0.0000000000000000
  0
LINE
  5
291
100
AcDbEntity
  8
MAIN0
  6
CONTINUOUS
 62
3
100
AcDbLine
 10
251.7227132304430
 20
240.5918596230478
 30
0.0000000000000000
 11
251.7227132304430
 21
245.4456256938510
 31
0.0000000000000000
  0
LINE
  5
292
100
AcDbEntity
  8
MAIN0
  6
CONTINUOUS
 62
3
100
AcDbLine
 10
246.8052452304430
 20
240.5918596230478
 30
0.0000000000000000
 11
246.8052452304430
 21
245.4456256938510
 31
0.0000000000000000
  0
LINE
  5
293
100
AcDbEntity
  8
MAIN0
  6
HIDDEN
 62
3
100
AcDbLine
 10
250.7639792304430
 20
239.6331256230479
 30
0.0000000000000000
 11
249.2639792304430
 21
241.1331256230479
 31
0.0000000000000000
  0
LINE
  5
294
100
AcDbEntity
  8
MAIN0
  6
HIDDEN
 62
3
100
AcDbLine
 10
249.2639792304430
 20
241.1331256230479
 30
0.0000000000000000
 11
247.7639792304430
 21
239.6331256230479
 31
0.0000000000000000
  0
LINE
  5
295
100
AcDbEntity
  8
MAIN0
  6
CONTINUOUS
 62
3
100
AcDbLine
 10
98.03324922138876
 20
275.3331236230475
 30
0.0000000000000000
 11
98.03324922138876
 21
279.8331236230475
 31
0.0000000000000000
  0
LINE
  5
296
100
AcDbEntity
  8
MAIN0
  6
CONTINUOUS
 62
3
100
AcDbLine
 10
98.03324922138873
 20
279.8331236230475
 30
0.0000000000000000
 11
97.16722381760428
 21
280.3331236230475
 31
0.0000000000000000
  0
LINE
  5
297
100
AcDbEntity
  8
MAIN0
  6
CONTINUOUS
 62
3
100
AcDbLine
 10
97.16722381760431
 20
280.3331236230475
 30
0.0000000000000000
 11
90.39927462517321
 21
280.3331236230475
 31
0.0000000000000000
  0
LINE
  5
298
100
AcDbEntity
  8
MAIN0
  6
CONTINUOUS
 62
3
100
AcDbLine
 10
90.39927462517318
 20
280.3331236230475
 30
0.0000000000000000
 11
89.53324922138876
 21
279.8331236230475
 31
0.0000000000000000
  0
LINE
  5
299
100
AcDbEntity
  8
MAIN0
  6
CONTINUOUS
 62
3
100
AcDbLine
 10
89.53324922138876
 20
279.8331236230475
 30
0.0000000000000000
 11
89.53324922138876
 21
275.3331236230475
 31
0.0000000000000000
  0
LINE
  5
29A
100
AcDbEntity
  8
MAIN0
  6
CONTINUOUS
 62
3
100
AcDbLine
 10
98.03324922138876
 20
279.8331236230475
 30
0.0000000000000000
 11
89.53324922138876
 21
279.8331236230475
 31
0.0000000000000000
  0
LINE
  5
29B
100
AcDbEntity
  8
MAIN0
  6
CONTINUOUS
 62
3
100
AcDbLine
 10
121.5332492213887
 20
275.3331236230475
 30
0.0000000000000000
 11
121.5332492213887
 21
279.8331236230475
 31
0.0000000000000000
  0
LINE
  5
29C
100
AcDbEntity
  8
MAIN0
  6
CONTINUOUS
 62
3
100
AcDbLine
 10
121.5332492213887
 20
279.8331236230475
 30
0.0000000000000000
 11
122.3992746251732
 21
280.3331236230475
 31
0.0000000000000000
  0
LINE
  5
29D
100
AcDbEntity
  8
MAIN0
  6
CONTINUOUS
 62
3
100
AcDbLine
 10
122.3992746251732
 20
280.3331236230475
 30
0.0000000000000000
 11
129.1672238176043
 21
280.3331236230475
 31
0.0000000000000000
  0
LINE
  5
29E
100
AcDbEntity
  8
MAIN0
  6
CONTINUOUS
 62
3
100
AcDbLine
 10
129.1672238176043
 20
280.3331236230475
 30
0.0000000000000000
 11
130.0332492213887
 21
279.8331236230475
 31
0.0000000000000000
  0
LINE
  5
29F
100
AcDbEntity
  8
MAIN0
  6
CONTINUOUS
 62
3
100
AcDbLine
 10
130.0332492213887
 20
279.8331236230475
 30
0.0000000000000000
 11
130.0332492213887
 21
275.3331236230475
 31
0.0000000000000000
  0
LINE
  5
2A0
100
AcDbEntity
  8
MAIN0
  6
CONTINUOUS
 62
3
100
AcDbLine
 10
121.5332492213887
 20
279.8331236230475
 30
0.0000000000000000
 11
130.0332492213887
 21
279.8331236230475
 31
0.0000000000000000
  0
LINE
  5
2A1
100
AcDbEntity
  8
MAIN0
  6
CONTINUOUS
 62
3
100
AcDbLine
 10
146.5166973555319
 20
260.9089231175148
 30
0.0000000000000000
 11
150.4138116725619
 21
263.1589231175148
 31
0.0000000000000000
  0
LINE
  5
2A2
100
AcDbEntity
  8
MAIN0
  6
CONTINUOUS
 62
3
100
AcDbLine
 10
150.4138116725619
 20
263.1589231175149
 30
0.0000000000000000
 11
150.4138116725619
 21
264.1589231175149
 31
0.0000000000000000
  0
LINE
  5
2A3
100
AcDbEntity
  8
MAIN0
  6
CONTINUOUS
 62
3
100
AcDbLine
 10
150.4138116725619
 20
264.1589231175149
 30
0.0000000000000000
 11
147.0298370763463
 21
270.0201390496825
 31
0.0000000000000000
  0
LINE
  5
2A4
100
AcDbEntity
  8
MAIN0
  6
CONTINUOUS
 62
3
100
AcDbLine
 10
147.0298370763463
 20
270.0201390496825
 30
0.0000000000000000
 11
146.1638116725619
 21
270.5201390496825
 31
0.0000000000000000
  0
LINE
  5
2A5
100
AcDbEntity
  8
MAIN0
  6
CONTINUOUS
 62
3
100
AcDbLine
 10
146.1638116725619
 20
270.5201390496825
 30
0.0000000000000000
 11
142.2666973555319
 21
268.2701390496825
 31
0.0000000000000000
  0
LINE
  5
2A6
100
AcDbEntity
  8
MAIN0
  6
CONTINUOUS
 62
3
100
AcDbLine
 10
150.4138116725619
 20
263.1589231175148
 30
0.0000000000000000
 11
146.1638116725619
 21
270.5201390496825
 31
0.0000000000000000
  0
LINE
  5
2A7
100
AcDbEntity
  8
MAIN0
  6
CONTINUOUS
 62
3
100
AcDbLine
 10
162.5166973555320
 20
233.1961101964128
 30
0.0000000000000000
 11
166.4138116725619
 21
235.4461101964128
 31
0.0000000000000000
  0
LINE
  5
2A8
100
AcDbEntity
  8
MAIN0
  6
CONTINUOUS
 62
3
100
AcDbLine
 10
166.4138116725619
 20
235.4461101964128
 30
0.0000000000000000
 11
166.4138116725619
 21
236.4461101964128
 31
0.0000000000000000
  0
LINE
  5
2A9
100
AcDbEntity
  8
MAIN0
  6
CONTINUOUS
 62
3
100
AcDbLine
 10
166.4138116725619
 20
236.4461101964128
 30
0.0000000000000000
 11
163.0298370763464
 21
242.3073261285805
 31
0.0000000000000000
  0
LINE
  5
2AA
100
AcDbEntity
  8
MAIN0
  6
CONTINUOUS
 62
3
100
AcDbLine
 10
163.0298370763464
 20
242.3073261285805
 30
0.0000000000000000
 11
162.1638116725620
 21
242.8073261285805
 31
0.0000000000000000
  0
LINE
  5
2AB
100
AcDbEntity
  8
MAIN0
  6
CONTINUOUS
 62
3
100
AcDbLine
 10
162.1638116725619
 20
242.8073261285805
 30
0.0000000000000000
 11
158.2666973555320
 21
240.5573261285805
 31
0.0000000000000000
  0
LINE
  5
2AC
100
AcDbEntity
  8
MAIN0
  6
CONTINUOUS
 62
3
100
AcDbLine
 10
166.4138116725619
 20
235.4461101964128
 30
0.0000000000000000
 11
162.1638116725619
 21
242.8073261285805
 31
0.0000000000000000
  0
MTEXT
  5
2AD
100
AcDbEntity
  8
MAIN0
  6
CONTINUOUS
 62
3
100
AcDbMText
 10
263.2142279655688
 20
97.47156227885870
 30
0.0000000000000000
 40
3.099999904632568
 41
0.0000000000000000
 71
     1
 72
     1
  1
{\H0.91x;{  45}}
 11
1.000000000000000
 21
0.0000000000000000
 31
0.0000000000000000
  7
STANDARD
  0
MTEXT
  5
2AE
100
AcDbEntity
  8
MAIN0
  6
CONTINUOUS
 62
3
100
AcDbMText
 10
263.2142279655688
 20
87.47156227885859
 30
0.0000000000000000
 40
3.099999904632568
 41
0.0000000000000000
 71
     1
 72
     1
  1
{\H0.91x;{  42}}
 11
1.000000000000000
 21
0.0000000000000000
 31
0.0000000000000000
  7
STANDARD
  0
MTEXT
  5
2AF
100
AcDbEntity
  8
MAIN0
  6
CONTINUOUS
 62
3
100
AcDbMText
 10
263.2142279655688
 20
77.47156227885859
 30
0.0000000000000000
 40
3.099999904632568
 41
0.0000000000000000
 71
     1
 72
     1
  1
{\H0.81x;{ 4.0}}
 11
1.000000000000000
 21
0.0000000000000000
 31
0.0000000000000000
  7
STANDARD
  0
MTEXT
  5
2B0
100
AcDbEntity
  8
MAIN0
  6
CONTINUOUS
 62
4
100
AcDbMText
 10
263.2142279655688
 20
66.97156275569574
 30
0.0000000000000000
 40
3.100000381469727
 41
0.0000000000000000
 71
     1
 72
     1
  1
{\H0.91x;{6000}}
 11
1.000000000000000
 21
0.0000000000000000
 31
0.0000000000000000
  7
STANDARD
  0
MTEXT
  5
2B1
100
AcDbEntity
  8
MAIN0
  6
CONTINUOUS
 62
4
100
AcDbMText
 10
263.2142279655688
 20
59.97156275569574
 30
0.0000000000000000
 40
3.100000381469727
 41
0.0000000000000000
 71
     1
 72
     1
  1
{\H0.91x;{10.5}}
 11
1.000000000000000
 21
0.0000000000000000
 31
0.0000000000000000
  7
STANDARD
  0
MTEXT
  5
2B2
100
AcDbEntity
  8
MAIN0
  6
CONTINUOUS
 62
3
100
AcDbMText
 10
263.2142279655688
 20
51.47156227885859
 30
0.0000000000000000
 40
3.099999904632568
 41
0.0000000000000000
 71
     1
 72
     1
  1
{\H0.84x;{0.023}}
 11
1.000000000000000
 21
0.0000000000000000
 31
0.0000000000000000
  7
STANDARD
  0
MTEXT
  5
2B3
100
AcDbEntity
  8
MAIN0
  6
CONTINUOUS
 62
4
100
AcDbMText
 10
263.2142279655688
 20
32.47156275569574
 30
0.0000000000000000
 40
3.100000381469727
 41
0.0000000000000000
 71
     1
 72
     1
  1
{\H0.91x;{ 0.8}}
 11
1.000000000000000
 21
0.0000000000000000
 31
0.0000000000000000
  7
STANDARD
  0
LINE
  5
2B4
100
AcDbEntity
  8
MAIN0
  6
CONTINUOUS
 62
12
100
AcDbLine
 10
446.7639792304435
 20
155.1331256230480
 30
0.0000000000000000
 11
470.0639792304435
 21
155.1331256230479
 31
0.0000000000000000
  0
LINE
  5
2B5
100
AcDbEntity
  8
MAIN0
  6
CONTINUOUS
 62
12
100
AcDbLine
 10
446.7639792304436
 20
167.1331256230480
 30
0.0000000000000000
 11
470.0639792304436
 21
167.1331256230480
 31
0.0000000000000000
  0
LINE
  5
2B6
100
AcDbEntity
  8
MAIN0
  6
CONTINUOUS
 62
3
100
AcDbLine
 10
469.1639792304437
 20
156.0331256230478
 30
0.0000000000000000
 11
470.7639792304435
 21
154.4331256230476
 31
0.0000000000000000
  0
LINE
  5
2B7
100
AcDbEntity
  8
MAIN0
  6
CONTINUOUS
 62
3
100
AcDbLine
 10
469.1639792304435
 20
166.2331256230478
 30
0.0000000000000000
 11
470.7639792304435
 21
167.8331256230476
 31
0.0000000000000000
  0
LINE
  5
2B8
100
AcDbEntity
  8
MAIN0
  6
CONTINUOUS
 62
3
100
AcDbLine
 10
442.7639792304435
 20
156.0331256230479
 30
0.0000000000000000
 11
469.1639792304437
 21
156.0331256230479
 31
0.0000000000000000
  0
LINE
  5
2B9
100
AcDbEntity
  8
MAIN0
  6
CONTINUOUS
 62
3
100
AcDbLine
 10
442.7639792304435
 20
166.2331256230479
 30
0.0000000000000000
 11
469.1639792304435
 21
166.2331256230479
 31
0.0000000000000000
  0
LINE
  5
2BA
100
AcDbEntity
  8
MAIN0
  6
CONTINUOUS
 62
3
100
AcDbLine
 10
446.7639792304435
 20
155.1331256230479
 30
0.0000000000000000
 11
446.7639792304436
 21
167.1331256230479
 31
0.0000000000000000
  0
LINE
  5
2BB
100
AcDbEntity
  8
MAIN0
  6
CONTINUOUS
 62
3
100
AcDbLine
 10
442.7639792304435
 20
156.0331256230479
 30
0.0000000000000000
 11
442.7639792304436
 21
166.2331256230479
 31
0.0000000000000000
  0
LINE
  5
2BC
100
AcDbEntity
  8
MAIN0
  6
CONTINUOUS
 62
3
100
AcDbLine
 10
439.8194928575764
 20
161.1331256230480
 30
0.0000000000000000
 11
442.7639792304435
 21
156.0331256230479
 31
0.0000000000000000
  0
LINE
  5
2BD
100
AcDbEntity
  8
MAIN0
  6
CONTINUOUS
 62
3
100
AcDbLine
 10
439.8194928575765
 20
161.1331256230480
 30
0.0000000000000000
 11
442.7639792304435
 21
166.2331256230478
 31
0.0000000000000000
  0
LINE
  5
2BE
100
AcDbEntity
  8
MAIN0
  6
CONTINUOUS
 62
12
100
AcDbLine
 10
477.7639792304431
 20
214.1331256230485
 30
0.0000000000000000
 11
516.4753040958474
 21
214.1331256230485
 31
0.0000000000000000
  0
LINE
  5
2BF
100
AcDbEntity
  8
MAIN0
  6
CONTINUOUS
 62
12
100
AcDbLine
 10
477.7639792304431
 20
238.1331256230485
 30
0.0000000000000000
 11
516.4753040958422
 21
238.1331256230485
 31
0.0000000000000000
  0
LINE
  5
2C0
100
AcDbEntity
  8
MAIN0
  6
CONTINUOUS
 62
3
100
AcDbLine
 10
472.8296245919773
 20
215.6331256230484
 30
0.0000000000000000
 11
515.6092786920599
 21
215.6331256230484
 31
0.0000000000000000
  0
LINE
  5
2C1
100
AcDbEntity
  8
MAIN0
  6
CONTINUOUS
 62
3
100
AcDbLine
 10
472.7654704379007
 20
236.6331256230484
 30
0.0000000000000000
 11
515.6092786920599
 21
236.6331256230484
 31
0.0000000000000000
  0
LINE
  5
2C2
100
AcDbEntity
  8
MAIN0
  6
CONTINUOUS
 62
3
100
AcDbLine
 10
477.7639792304431
 20
214.1331256230485
 30
0.0000000000000000
 11
477.7639792304431
 21
238.1331256230485
 31
0.0000000000000000
  0
LINE
  5
2C3
100
AcDbEntity
  8
MAIN0
  6
CONTINUOUS
 62
3
100
AcDbLine
 10
345.7639792304439
 20
187.1331256230479
 30
0.0000000000000000
 11
345.7639792304439
 21
265.1331256230479
 31
0.0000000000000000
  0
LINE
  5
2C4
100
AcDbEntity
  8
MAIN0
  6
CONTINUOUS
 62
3
100
AcDbLine
 10
331.7639792304439
 20
266.1331256230478
 30
0.0000000000000000
 11
334.7639792304440
 21
266.1331256230478
 31
0.0000000000000000
  0
LINE
  5
2C5
100
AcDbEntity
  8
MAIN0
  6
CONTINUOUS
 62
3
100
AcDbLine
 10
281.7639792304437
 20
186.1331256229641
 30
0.0000000000000000
 11
281.7639792304437
 21
266.1331256230477
 31
0.0000000000000000
  0
LINE
  5
2C6
100
AcDbEntity
  8
MAIN0
  6
CONTINUOUS
 62
3
100
AcDbLine
 10
279.3639792304437
 20
266.1331256230478
 30
0.0000000000000000
 11
281.7639792304437
 21
266.1331256230478
 31
0.0000000000000000
  0
LINE
  5
2C7
100
AcDbEntity
  8
MAIN0
  6
CONTINUOUS
 62
3
100
AcDbLine
 10
321.7639792304437
 20
185.1331256230479
 30
0.0000000000000000
 11
331.1866289612540
 21
185.1331256230479
 31
0.0000000000000000
  0
LINE
  5
2C8
100
AcDbEntity
  8
MAIN0
  6
CONTINUOUS
 62
3
100
AcDbLine
 10
331.7639792304439
 20
186.1331256230480
 30
0.0000000000000000
 11
334.7639792304440
 21
186.1331256230480
 31
0.0000000000000000
  0
LINE
  5
2C9
100
AcDbEntity
  8
MAIN0
  6
CONTINUOUS
 62
3
100
AcDbLine
 10
279.3639792304437
 20
186.1331256230480
 30
0.0000000000000000
 11
281.7639792304437
 21
186.1331256230480
 31
0.0000000000000000
  0
LINE
  5
2CA
100
AcDbEntity
  8
MAIN0
  6
CENTER
 62
12
100
AcDbLine
 10
304.7639792304437
 20
172.9985113236849
 30
0.0000000000000000
 11
304.7639792304437
 21
204.2343178214476
 31
0.0000000000000000
  0
LINE
  5
2CB
100
AcDbEntity
  8
MAIN0
  6
CONTINUOUS
 62
3
100
AcDbLine
 10
317.7639792304437
 20
181.1331256230479
 30
0.0000000000000000
 11
291.7639792304439
 21
181.1331256230479
 31
0.0000000000000000
  0
LINE
  5
2CC
100
AcDbEntity
  8
MAIN0
  6
CONTINUOUS
 62
3
100
AcDbLine
 10
282.3413294996331
 20
185.1331256230479
 30
0.0000000000000000
 11
287.7639792304437
 21
185.1331256230479
 31
0.0000000000000000
  0
LINE
  5
2CD
100
AcDbEntity
  8
MAIN0
  6
HIDDEN
 62
12
100
AcDbLine
 10
149.7832492213886
 20
238.8510933202928
 30
0.0000000000000000
 11
137.2173442837137
 21
260.6158791154264
 31
0.0000000000000000
  0
LINE
  5
2CE
100
AcDbEntity
  8
MAIN0
  6
HIDDEN
 62
12
100
AcDbLine
 10
122.7832492213888
 20
181.1331256230481
 30
0.0000000000000000
 11
96.78324922138879
 21
181.1331256230482
 31
0.0000000000000000
  0
LINE
  5
2CF
100
AcDbEntity
  8
MAIN0
  6
HIDDEN
 62
12
100
AcDbLine
 10
124.7832492213888
 20
183.1331255054254
 30
0.0000000000000000
 11
124.7832492213888
 21
185.4701220706357
 31
0.0000000000000000
  0
LINE
  5
2D0
100
AcDbEntity
  8
MAIN0
  6
HIDDEN
 62
12
100
AcDbLine
 10
94.78324922138884
 20
183.1331251644705
 30
0.0000000000000000
 11
94.78324922138884
 21
185.4701220706357
 31
0.0000000000000000
  0
LINE
  5
2D1
100
AcDbEntity
  8
MAIN0
  6
HIDDEN
 62
12
100
AcDbLine
 10
103.2047492213888
 20
181.1331256230481
 30
0.0000000000000000
 11
103.3500902243397
 21
185.7840377174755
 31
0.0000000000000000
  0
LINE
  5
2D2
100
AcDbEntity
  8
MAIN0
  6
HIDDEN
 62
12
100
AcDbLine
 10
104.0607492213888
 20
181.1331256230480
 30
0.0000000000000000
 11
104.2052551023884
 21
185.7573138150364
 31
0.0000000000000000
  0
LINE
  5
2D3
100
AcDbEntity
  8
MAIN0
  6
HIDDEN
 62
12
100
AcDbLine
 10
116.2157931012378
 20
185.8037214678795
 30
0.0000000000000000
 11
116.3617492213888
 21
181.1331256230481
 31
0.0000000000000000
  0
LINE
  5
2D4
100
AcDbEntity
  8
MAIN0
  6
HIDDEN
 62
12
100
AcDbLine
 10
115.3606282231891
 20
185.7769975654405
 30
0.0000000000000000
 11
115.5057492213888
 21
181.1331256230481
 31
0.0000000000000000
  0
LINE
  5
2D5
100
AcDbEntity
  8
MAIN0
  6
CENTER
 62
12
100
AcDbLine
 10
138.4080790679860
 20
240.1331256230479
 30
0.0000000000000000
 11
153.9279633966199
 21
240.1331256230479
 31
0.0000000000000000
  0
LINE
  5
2D6
100
AcDbEntity
  8
MAIN0
  6
CENTER
 62
12
100
AcDbLine
 10
138.2789210359376
 20
212.1331256230479
 30
0.0000000000000000
 11
153.9279633966199
 21
212.1331256230479
 31
0.0000000000000000
  0
LINE
  5
2D7
100
AcDbEntity
  8
MAIN0
  6
HIDDEN
 62
12
100
AcDbLine
 10
138.7832492213887
 20
204.1458756230480
 30
0.0000000000000000
 11
149.7832492213888
 21
203.8021256230479
 31
0.0000000000000000
  0
LINE
  5
2D8
100
AcDbEntity
  8
MAIN0
  6
HIDDEN
 62
12
100
AcDbLine
 10
138.7832492213887
 20
205.0018756230481
 30
0.0000000000000000
 11
149.7832492213888
 21
204.6581256230480
 31
0.0000000000000000
  0
LINE
  5
2D9
100
AcDbEntity
  8
MAIN0
  6
HIDDEN
 62
12
100
AcDbLine
 10
149.7832492213887
 20
220.4641256230479
 30
0.0000000000000000
 11
138.7832492213888
 21
220.1203756230479
 31
0.0000000000000000
  0
LINE
  5
2DA
100
AcDbEntity
  8
MAIN0
  6
HIDDEN
 62
12
100
AcDbLine
 10
149.7832492213888
 20
219.6081256230479
 30
0.0000000000000000
 11
138.7832492213887
 21
219.2643756230479
 31
0.0000000000000000
  0
LINE
  5
2DB
100
AcDbEntity
  8
MAIN0
  6
HIDDEN
 62
12
100
AcDbLine
 10
138.7832492213888
 20
232.1458756230480
 30
0.0000000000000000
 11
149.7832492213888
 21
231.8021256230479
 31
0.0000000000000000
  0
LINE
  5
2DC
100
AcDbEntity
  8
MAIN0
  6
HIDDEN
 62
12
100
AcDbLine
 10
138.7832492213887
 20
233.0018756230480
 30
0.0000000000000000
 11
149.7832492213888
 21
232.6581256230479
 31
0.0000000000000000
  0
LINE
  5
2DD
100
AcDbEntity
  8
MAIN0
  6
HIDDEN
 62
12
100
AcDbLine
 10
149.7832492213888
 20
248.4641256230479
 30
0.0000000000000000
 11
138.7832492213888
 21
248.1203756230479
 31
0.0000000000000000
  0
LINE
  5
2DE
100
AcDbEntity
  8
MAIN0
  6
HIDDEN
 62
12
100
AcDbLine
 10
149.7832492213888
 20
247.6081256230477
 30
0.0000000000000000
 11
138.7832492213888
 21
247.2643756230477
 31
0.0000000000000000
  0
LINE
  5
2DF
100
AcDbEntity
  8
MAIN0
  6
HIDDEN
 62
12
100
AcDbLine
 10
69.78324922138876
 20
200.0788098643705
 30
0.0000000000000000
 11
69.78324922138876
 21
252.1874413817253
 31
0.0000000000000000
  0
LINE
  5
2E0
100
AcDbEntity
  8
MAIN0
  6
CONTINUOUS
 62
3
100
AcDbLine
 10
149.7832492213888
 20
200.0788098643704
 30
0.0000000000000000
 11
149.7832492213888
 21
210.3533917849884
 31
0.0000000000000000
  0
LINE
  5
2E1
100
AcDbEntity
  8
MAIN0
  6
HIDDEN
 62
12
100
AcDbLine
 10
149.7832492213888
 20
210.3533917849884
 30
0.0000000000000000
 11
149.7832492213888
 21
252.1874413817252
 31
0.0000000000000000
  0
ARC
  5
2E2
100
AcDbEntity
  8
MAIN0
  6
CONTINUOUS
 62
3
100
AcDbCircle
 10
321.7639792304437
 20
183.1331256230479
 30
0.0000000000000000
 40
2.000000000000000
100
AcDbArc
 50
89.99999999999970
 51
179.9999999999998
  0
ARC
  5
2E3
100
AcDbEntity
  8
MAIN0
  6
CONTINUOUS
 62
3
100
AcDbCircle
 10
317.7639792304439
 20
183.1331256230479
 30
0.0000000000000000
 40
2.000000000000000
100
AcDbArc
 50
269.9999999999999
 51
359.9999999999998
  0
ARC
  5
2E4
100
AcDbEntity
  8
MAIN0
  6
CONTINUOUS
 62
3
100
AcDbCircle
 10
291.7639792304437
 20
183.1331256230479
 30
0.0000000000000000
 40
2.000000000000000
100
AcDbArc
 50
179.9999999999998
 51
269.9999999999999
  0
ARC
  5
2E5
100
AcDbEntity
  8
MAIN0
  6
CONTINUOUS
 62
3
100
AcDbCircle
 10
287.7639792304437
 20
183.1331256230479
 30
0.0000000000000000
 40
2.000000000000000
100
AcDbArc
 50
0.0000000000000000
 51
89.99999999999970
  0
ARC
  5
2E6
100
AcDbEntity
  8
MAIN0
  6
HIDDEN
 62
12
100
AcDbCircle
 10
109.7832492213887
 20
206.1331256230481
 30
0.0000000000000000
 40
60.99999999999966
100
AcDbArc
 50
49.02438965740429
 51
130.9756103425957
  0
ARC
  5
2E7
100
AcDbEntity
  8
MAIN0
  6
HIDDEN
 62
12
100
AcDbCircle
 10
126.7832492213888
 20
185.4701220706357
 30
0.0000000000000000
 40
2.000000000000000
100
AcDbArc
 50
105.6548217036081
 51
179.9999999999998
  0
ARC
  5
2E8
100
AcDbEntity
  8
MAIN0
  6
HIDDEN
 62
12
100
AcDbCircle
 10
92.78324922138881
 20
185.4701220706357
 30
0.0000000000000000
 40
2.000000000000000
100
AcDbArc
 50
0.0000000000000000
 51
74.34517829639128
  0
ARC
  5
2E9
100
AcDbEntity
  8
MAIN0
  6
HIDDEN
 62
12
100
AcDbCircle
 10
109.7832492213887
 20
246.1331256230477
 30
0.0000000000000000
 40
60.99999999999966
100
AcDbArc
 50
229.0243896574039
 51
291.3855919881229
  0
ARC
  5
2EA
100
AcDbEntity
  8
MAIN0
  6
CONTINUOUS
 62
3
100
AcDbCircle
 10
109.7832492213887
 20
246.1331256230477
 30
0.0000000000000000
 40
60.99999999999966
100
AcDbArc
 50
291.3855919881229
 51
310.9756103425955
  0
ARC
  5
2EB
100
AcDbEntity
  8
MAIN0
  6
HIDDEN
 62
12
100
AcDbCircle
 10
96.78324922138879
 20
183.1331256230481
 30
0.0000000000000000
 40
2.000000000000000
100
AcDbArc
 50
179.9999999999998
 51
209.9999999999996
  0
ARC
  5
2EC
100
AcDbEntity
  8
MAIN0
  6
HIDDEN
 62
12
100
AcDbCircle
 10
96.78324922138879
 20
183.1331256230481
 30
0.0000000000000000
 40
2.000000000000000
100
AcDbArc
 50
209.9999999999996
 51
269.9999999999999
  0
ARC
  5
2ED
100
AcDbEntity
  8
MAIN0
  6
HIDDEN
 62
12
100
AcDbCircle
 10
122.7832492213888
 20
183.1331256230481
 30
0.0000000000000000
 40
2.000000000000000
100
AcDbArc
 50
269.9999999999999
 51
330.0000000000015
  0
ARC
  5
2EE
100
AcDbEntity
  8
MAIN0
  6
HIDDEN
 62
12
100
AcDbCircle
 10
122.7832492213888
 20
183.1331256230481
 30
0.0000000000000000
 40
2.000000000000000
100
AcDbArc
 50
330.0000000000015
 51
359.9999999999998
  0
LINE
  5
2EF
100
AcDbEntity
  8
MAIN0
  6
CONTINUOUS
 62
3
100
AcDbLine
 10
277.3639792304438
 20
266.1331256230477
 30
0.0000000000000000
 11
279.2639792304437
 21
266.1331256230477
 31
0.0000000000000000
  0
LINE
  5
2F0
100
AcDbEntity
  8
MAIN0
  6
CONTINUOUS
 62
3
100
AcDbLine
 10
212.7639792304414
 20
181.1331256230480
 30
0.0000000000000000
 11
276.0242332682881
 21
181.1331256230479
 31
0.0000000000000000
  0
LINE
  5
2F1
100
AcDbEntity
  8
MAIN0
  6
CONTINUOUS
 62
3
100
AcDbLine
 10
276.2921824607192
 20
270.1331256230477
 30
0.0000000000000000
 11
277.3639792304437
 21
266.1331256230477
 31
0.0000000000000000
  0
LINE
  5
2F2
100
AcDbEntity
  8
MAIN0
  6
CONTINUOUS
 62
3
100
AcDbLine
 10
277.3639792304438
 20
186.1331256230481
 30
0.0000000000000000
 11
279.2639792304437
 21
186.1331256230481
 31
0.0000000000000000
  0
LINE
  5
2F3
100
AcDbEntity
  8
MAIN0
  6
CONTINUOUS
 62
3
100
AcDbLine
 10
276.0242332682881
 20
181.1331256230480
 30
0.0000000000000000
 11
277.3639792304437
 21
186.1331256230480
 31
0.0000000000000000
  0
LINE
  5
2F4
100
AcDbEntity
  8
MAIN0
  6
CONTINUOUS
 62
3
100
AcDbLine
 10
238.7639792304416
 20
187.1331256230480
 30
0.0000000000000000
 11
266.7639792304439
 21
187.1331256230480
 31
0.0000000000000000
  0
LINE
  5
2F5
100
AcDbEntity
  8
MAIN0
  6
CONTINUOUS
 62
3
100
AcDbLine
 10
261.7639792304439
 20
241.4189239587244
 30
0.0000000000000000
 11
261.7639792304439
 21
246.1331256230477
 31
0.0000000000000000
  0
LINE
  5
2F6
100
AcDbEntity
  8
MAIN0
  6
CONTINUOUS
 62
3
100
AcDbLine
 10
258.7639792304438
 20
233.6331256230479
 30
0.0000000000000000
 11
258.7639792304438
 21
249.1331256230477
 31
0.0000000000000000
  0
LINE
  5
2F7
100
AcDbEntity
  8
MAIN0
  6
CONTINUOUS
 62
3
100
AcDbLine
 10
261.7639792304438
 20
243.6331256230477
 30
0.0000000000000000
 11
258.7639792304438
 21
243.6331256230477
 31
0.0000000000000000
  0
LINE
  5
2F8
100
AcDbEntity
  8
MAIN0
  6
CONTINUOUS
 62
3
100
AcDbLine
 10
261.7639792304439
 20
246.1331256230477
 30
0.0000000000000000
 11
263.4701172548107
 21
246.1331256230477
 31
0.0000000000000000
  0
LINE
  5
2F9
100
AcDbEntity
  8
MAIN0
  6
CONTINUOUS
 62
3
100
AcDbLine
 10
260.7639792304438
 20
251.1331256230477
 30
0.0000000000000000
 11
262.9355521056976
 21
251.1331256230477
 31
0.0000000000000000
  0
LINE
  5
2FA
100
AcDbEntity
  8
MAIN0
  6
CONTINUOUS
 62
3
100
AcDbLine
 10
264.3497656680706
 20
251.7189120606745
 30
0.0000000000000000
 11
268.4710860116305
 21
255.8402324042343
 31
0.0000000000000000
  0
LINE
  5
2FB
100
AcDbEntity
  8
MAIN0
  6
CONTINUOUS
 62
3
100
AcDbLine
 10
258.7639792304438
 20
218.6331256230479
 30
0.0000000000000000
 11
258.7639792304438
 21
203.1331256230481
 31
0.0000000000000000
  0
LINE
  5
2FC
100
AcDbEntity
  8
MAIN0
  6
CONTINUOUS
 62
3
100
AcDbLine
 10
260.7639792304438
 20
201.1331256230481
 30
0.0000000000000000
 11
262.9355521056976
 21
201.1331256230481
 31
0.0000000000000000
  0
LINE
  5
2FD
100
AcDbEntity
  8
MAIN0
  6
CONTINUOUS
 62
3
100
AcDbLine
 10
264.3497656680708
 20
200.5473391854211
 30
0.0000000000000000
 11
267.5139832622588
 21
197.3831215912331
 31
0.0000000000000000
  0
LINE
  5
2FE
100
AcDbEntity
  8
MAIN0
  6
CONTINUOUS
 62
3
100
AcDbLine
 10
261.7639792304439
 20
206.1331256230481
 30
0.0000000000000000
 11
261.7639792304439
 21
208.1203662215171
 31
0.0000000000000000
  0
LINE
  5
2FF
100
AcDbEntity
  8
MAIN0
  6
CONTINUOUS
 62
3
100
AcDbLine
 10
258.7639792304438
 20
208.6331256230481
 30
0.0000000000000000
 11
261.6121959582737
 21
208.6331256230481
 31
0.0000000000000000
  0
LINE
  5
300
100
AcDbEntity
  8
MAIN0
  6
CONTINUOUS
 62
3
100
AcDbLine
 10
261.7639792304439
 20
206.1331256230481
 30
0.0000000000000000
 11
262.7331942068245
 21
206.1331256230481
 31
0.0000000000000000
  0
LINE
  5
301
100
AcDbEntity
  8
MAIN0
  6
CONTINUOUS
 62
3
100
AcDbLine
 10
236.7639792304416
 20
189.1331256230481
 30
0.0000000000000000
 11
236.7639792304416
 21
190.1331256230479
 31
0.0000000000000000
  0
LINE
  5
302
100
AcDbEntity
  8
MAIN0
  6
CONTINUOUS
 62
3
100
AcDbLine
 10
212.7639792304418
 20
192.1331256230480
 30
0.0000000000000000
 11
234.7639792304417
 21
192.1331256230480
 31
0.0000000000000000
  0
LINE
  5
303
100
AcDbEntity
  8
MAIN0
  6
CENTER
 62
12
100
AcDbLine
 10
206.0397986695307
 20
187.1331256230480
 30
0.0000000000000000
 11
220.6562653832268
 21
187.1331256230480
 31
0.0000000000000000
  0
LINE
  5
304
100
AcDbEntity
  8
MAIN0
  6
CONTINUOUS
 62
3
100
AcDbLine
 10
268.6180288522178
 20
188.3831256230480
 30
0.0000000000000000
 11
272.2639812304438
 21
188.3831256230480
 31
0.0000000000000000
  0
LINE
  5
305
100
AcDbEntity
  8
MAIN0
  6
CONTINUOUS
 62
3
100
AcDbLine
 10
267.0139792304438
 20
197.8831256230481
 30
0.0000000000000000
 11
270.2265551856887
 21
197.8831256230481
 31
0.0000000000000000
  0
LINE
  5
306
100
AcDbEntity
  8
MAIN0
  6
CENTER
 62
12
100
AcDbLine
 10
263.7236441731005
 20
193.1331256230480
 30
0.0000000000000000
 11
287.3123452569922
 21
193.1331256230480
 31
0.0000000000000000
  0
LINE
  5
307
100
AcDbEntity
  8
MAIN0
  6
CONTINUOUS
 62
3
100
AcDbLine
 10
268.7639792304439
 20
263.1331256230478
 30
0.0000000000000000
 11
268.7639792304439
 21
256.5473391854210
 31
0.0000000000000000
  0
LINE
  5
308
100
AcDbEntity
  8
MAIN0
  6
CONTINUOUS
 62
3
100
AcDbLine
 10
264.7639792304437
 20
252.1331256230477
 30
0.0000000000000000
 11
269.8639792304434
 21
252.1331256230477
 31
0.0000000000000000
  0
LINE
  5
309
100
AcDbEntity
  8
MAIN0
  6
CONTINUOUS
 62
3
100
AcDbLine
 10
269.8639792304434
 20
252.1331256230477
 30
0.0000000000000000
 11
269.8639792304439
 21
270.1331256230478
 31
0.0000000000000000
  0
LINE
  5
30A
100
AcDbEntity
  8
MAIN0
  6
CONTINUOUS
 62
3
100
AcDbLine
 10
214.7639792304440
 20
265.1331256230478
 30
0.0000000000000000
 11
214.7639792304440
 21
270.1331256230478
 31
0.0000000000000000
  0
LINE
  5
30B
100
AcDbEntity
  8
MAIN0
  6
CONTINUOUS
 62
3
100
AcDbLine
 10
210.7639792304440
 20
269.1331256230478
 30
0.0000000000000000
 11
212.7639792304440
 21
269.1331256230478
 31
0.0000000000000000
  0
LINE
  5
30C
100
AcDbEntity
  8
MAIN0
  6
CONTINUOUS
 62
3
100
AcDbLine
 10
210.7639792304440
 20
183.1331256230480
 30
0.0000000000000000
 11
210.7639792304440
 21
269.1331256230478
 31
0.0000000000000000
  0
LINE
  5
30D
100
AcDbEntity
  8
MAIN0
  6
CONTINUOUS
 62
3
100
AcDbLine
 10
210.7639792304440
 20
183.1331256230480
 30
0.0000000000000000
 11
212.7639792304440
 21
183.1331256230480
 31
0.0000000000000000
  0
LINE
  5
30E
100
AcDbEntity
  8
MAIN0
  6
CONTINUOUS
 62
3
100
AcDbLine
 10
187.7639792304441
 20
271.1331256230478
 30
0.0000000000000000
 11
187.7639792304441
 21
274.3331256230477
 31
0.0000000000000000
  0
LINE
  5
30F
100
AcDbEntity
  8
MAIN0
  6
CONTINUOUS
 62
3
100
AcDbLine
 10
242.7639792304442
 20
271.1331256230478
 30
0.0000000000000000
 11
242.7639792304442
 21
274.3331256230477
 31
0.0000000000000000
  0
LINE
  5
310
100
AcDbEntity
  8
MAIN0
  6
CENTER
 62
12
100
AcDbLine
 10
221.7639792304441
 20
267.6279238487782
 30
0.0000000000000000
 11
221.7639792304441
 21
277.0557699828602
 31
0.0000000000000000
  0
LINE
  5
311
100
AcDbEntity
  8
MAIN0
  6
CONTINUOUS
 62
3
100
AcDbLine
 10
271.7639792304439
 20
270.1331256230478
 30
0.0000000000000000
 11
271.7639792304439
 21
270.6331256230478
 31
0.0000000000000000
  0
LINE
  5
312
100
AcDbEntity
  8
MAIN0
  6
CONTINUOUS
 62
3
100
AcDbLine
 10
200.7639792304440
 20
270.1331256230478
 30
0.0000000000000000
 11
200.7639792304440
 21
270.6331256230478
 31
0.0000000000000000
  0
LINE
  5
313
100
AcDbEntity
  8
MAIN0
  6
CONTINUOUS
 62
3
100
AcDbLine
 10
202.7639792304439
 20
270.6331256230478
 30
0.0000000000000000
 11
202.7639792304439
 21
271.1331256230478
 31
0.0000000000000000
  0
LINE
  5
314
100
AcDbEntity
  8
MAIN0
  6
CONTINUOUS
 62
3
100
AcDbLine
 10
257.7639792304439
 20
270.6331256230479
 30
0.0000000000000000
 11
257.7639792304439
 21
271.1331256230478
 31
0.0000000000000000
  0
LINE
  5
315
100
AcDbEntity
  8
MAIN0
  6
CONTINUOUS
 62
3
100
AcDbLine
 10
87.78324922138881
 20
270.1331256230477
 30
0.0000000000000000
 11
135.1866610657321
 21
270.1331256230477
 31
0.0000000000000000
  0
LINE
  5
316
100
AcDbEntity
  8
MAIN0
  6
CONTINUOUS
 62
3
100
AcDbLine
 10
135.1866610657322
 20
270.1331256230477
 30
0.0000000000000000
 11
159.3883669879040
 21
228.2145413360058
 31
0.0000000000000000
  0
LINE
  5
317
100
AcDbEntity
  8
MAIN0
  6
CENTER
 62
12
100
AcDbLine
 10
140.9276756344116
 20
244.1143685963632
 30
0.0000000000000000
 11
164.1528015221930
 21
257.5234012796367
 31
0.0000000000000000
  0
LINE
  5
318
100
AcDbEntity
  8
MAIN0
  6
CONTINUOUS
 62
3
100
AcDbLine
 10
154.1466026716987
 20
225.1882072970161
 30
0.0000000000000000
 11
159.3883669879039
 21
228.2145413360057
 31
0.0000000000000000
  0
LINE
  5
319
100
AcDbEntity
  8
MAIN0
  6
CONTINUOUS
 62
3
100
AcDbLine
 10
66.78324922138876
 20
187.1331256230480
 30
0.0000000000000000
 11
66.78324922138876
 21
265.1331256230478
 31
0.0000000000000000
  0
LINE
  5
31A
100
AcDbEntity
  8
MAIN0
  6
CONTINUOUS
 62
3
100
AcDbLine
 10
65.78324922138876
 20
265.1331256230477
 30
0.0000000000000000
 11
83.78324922138884
 21
265.1331256230477
 31
0.0000000000000000
  0
LINE
  5
31B
100
AcDbEntity
  8
MAIN0
  6
CONTINUOUS
 62
3
100
AcDbLine
 10
86.78324922138881
 20
268.1331256230478
 30
0.0000000000000000
 11
86.78324922138881
 21
269.1331256230477
 31
0.0000000000000000
  0
LINE
  5
31C
100
AcDbEntity
  8
MAIN0
  6
CONTINUOUS
 62
3
100
AcDbLine
 10
65.78324922138876
 20
187.1331256230480
 30
0.0000000000000000
 11
86.28324922138881
 21
187.1331256230480
 31
0.0000000000000000
  0
LINE
  5
31D
100
AcDbEntity
  8
MAIN0
  6
CENTER
 62
12
100
AcDbLine
 10
126.1340292565338
 20
254.4535073873019
 30
0.0000000000000000
 11
132.2964871253203
 21
265.1271975155429
 31
0.0000000000000000
  0
LINE
  5
31E
100
AcDbEntity
  8
MAIN0
  6
CENTER
 62
12
100
AcDbLine
 10
126.1340292565337
 20
197.8127438587938
 30
0.0000000000000000
 11
132.2964871253204
 21
187.1390537305527
 31
0.0000000000000000
  0
LINE
  5
31F
100
AcDbEntity
  8
MAIN0
  6
PHANTOM
 62
12
100
AcDbLine
 10
229.7639792304430
 20
256.1331256230477
 30
0.0000000000000000
 11
234.7639792304430
 21
256.1331256230477
 31
0.0000000000000000
  0
LINE
  5
320
100
AcDbEntity
  8
MAIN0
  6
PHANTOM
 62
12
100
AcDbLine
 10
234.7639792304431
 20
252.6530886835947
 30
0.0000000000000000
 11
234.7639792304431
 21
256.1331256230472
 31
0.0000000000000000
  0
LINE
  5
321
100
AcDbEntity
  8
MAIN0
  6
PHANTOM
 62
12
100
AcDbLine
 10
229.7639792304431
 20
246.1331256230477
 30
0.0000000000000000
 11
229.7639792304431
 21
256.1331256230472
 31
0.0000000000000000
  0
LINE
  5
322
100
AcDbEntity
  8
MAIN0
  6
PHANTOM
 62
12
100
AcDbLine
 10
218.7639792304431
 20
246.1331256230477
 30
0.0000000000000000
 11
229.7639792304431
 21
246.1331256230477
 31
0.0000000000000000
  0
LINE
  5
323
100
AcDbEntity
  8
MAIN0
  6
PHANTOM
 62
12
100
AcDbLine
 10
229.7639792304430
 20
196.1331256230481
 30
0.0000000000000000
 11
234.7639792304430
 21
196.1331256230481
 31
0.0000000000000000
  0
LINE
  5
324
100
AcDbEntity
  8
MAIN0
  6
PHANTOM
 62
12
100
AcDbLine
 10
234.7639792304431
 20
196.1331256230486
 30
0.0000000000000000
 11
234.7639792304431
 21
199.5037441769824
 31
0.0000000000000000
  0
LINE
  5
325
100
AcDbEntity
  8
MAIN0
  6
PHANTOM
 62
12
100
AcDbLine
 10
229.7639792304431
 20
206.1331256230481
 30
0.0000000000000000
 11
229.7639792304431
 21
196.1331256230486
 31
0.0000000000000000
  0
LINE
  5
326
100
AcDbEntity
  8
MAIN0
  6
PHANTOM
 62
12
100
AcDbLine
 10
218.7639792304431
 20
206.1331256230481
 30
0.0000000000000000
 11
229.7639792304431
 21
206.1331256230481
 31
0.0000000000000000
  0
LINE
  5
327
100
AcDbEntity
  8
MAIN0
  6
PHANTOM
 62
12
100
AcDbLine
 10
218.7639792304431
 20
206.1331256230481
 30
0.0000000000000000
 11
218.7639792304431
 21
246.1331256230477
 31
0.0000000000000000
  0
LINE
  5
328
100
AcDbEntity
  8
MAIN0
  6
CONTINUOUS
 62
3
100
AcDbLine
 10
87.28324922138887
 20
270.6331256230477
 30
0.0000000000000000
 11
132.2832492213890
 21
270.6331256230477
 31
0.0000000000000000
  0
LINE
  5
329
100
AcDbEntity
  8
MAIN0
  6
CONTINUOUS
 62
3
100
AcDbLine
 10
85.78324922138881
 20
271.1331256230477
 30
0.0000000000000000
 11
133.7832492213888
 21
271.1331256230477
 31
0.0000000000000000
  0
LINE
  5
32A
100
AcDbEntity
  8
MAIN0
  6
CONTINUOUS
 62
3
100
AcDbLine
 10
85.78324922138881
 20
274.3331256230477
 30
0.0000000000000000
 11
133.7832492213888
 21
274.3331256230477
 31
0.0000000000000000
  0
LINE
  5
32B
100
AcDbEntity
  8
MAIN0
  6
CONTINUOUS
 62
3
100
AcDbLine
 10
132.2832492213888
 20
270.1331256230477
 30
0.0000000000000000
 11
132.2832492213888
 21
271.1331256230477
 31
0.0000000000000000
  0
LINE
  5
32C
100
AcDbEntity
  8
MAIN0
  6
CONTINUOUS
 62
3
100
AcDbLine
 10
87.28324922138881
 20
270.1331256230477
 30
0.0000000000000000
 11
87.28324922138881
 21
271.1331256230477
 31
0.0000000000000000
  0
LINE
  5
32D
100
AcDbEntity
  8
MAIN0
  6
CENTER
 62
12
100
AcDbLine
 10
125.7832492213888
 20
268.1132838766801
 30
0.0000000000000000
 11
125.7832492213888
 21
282.7036096373656
 31
0.0000000000000000
  0
LINE
  5
32E
100
AcDbEntity
  8
MAIN0
  6
CENTER
 62
12
100
AcDbLine
 10
93.78324922138876
 20
268.1132838766801
 30
0.0000000000000000
 11
93.78324922138876
 21
282.7036096373656
 31
0.0000000000000000
  0
LINE
  5
32F
100
AcDbEntity
  8
MAIN0
  6
CONTINUOUS
 62
3
100
AcDbLine
 10
88.78324922138876
 20
275.3331236230475
 30
0.0000000000000000
 11
98.78324922138876
 21
275.3331236230475
 31
0.0000000000000000
  0
LINE
  5
330
100
AcDbEntity
  8
MAIN0
  6
CONTINUOUS
 62
3
100
AcDbLine
 10
98.78324922138879
 20
274.3331256230476
 30
0.0000000000000000
 11
98.78324922138879
 21
275.3331236230476
 31
0.0000000000000000
  0
LINE
  5
331
100
AcDbEntity
  8
MAIN0
  6
CONTINUOUS
 62
3
100
AcDbLine
 10
88.78324922138876
 20
274.3331256230476
 30
0.0000000000000000
 11
88.78324922138876
 21
275.3331236230476
 31
0.0000000000000000
  0
LINE
  5
332
100
AcDbEntity
  8
MAIN0
  6
CONTINUOUS
 62
3
100
AcDbLine
 10
120.7832492213888
 20
275.3331236230475
 30
0.0000000000000000
 11
130.7832492213888
 21
275.3331236230475
 31
0.0000000000000000
  0
LINE
  5
333
100
AcDbEntity
  8
MAIN0
  6
CONTINUOUS
 62
3
100
AcDbLine
 10
130.7832492213888
 20
274.3331256230476
 30
0.0000000000000000
 11
130.7832492213888
 21
275.3331236230476
 31
0.0000000000000000
  0
LINE
  5
334
100
AcDbEntity
  8
MAIN0
  6
CONTINUOUS
 62
3
100
AcDbLine
 10
120.7832492213888
 20
274.3331256230476
 30
0.0000000000000000
 11
120.7832492213888
 21
275.3331236230476
 31
0.0000000000000000
  0
LINE
  5
335
100
AcDbEntity
  8
MAIN0
  6
CONTINUOUS
 62
3
100
AcDbLine
 10
137.0713796897962
 20
267.8686972081975
 30
0.0000000000000000
 11
159.5713796897963
 21
228.8975540378977
 31
0.0000000000000000
  0
LINE
  5
336
100
AcDbEntity
  8
MAIN0
  6
CONTINUOUS
 62
3
100
AcDbLine
 10
139.5256736837985
 20
271.0177353138743
 30
0.0000000000000000
 11
163.5256736837986
 21
229.4485159322211
 31
0.0000000000000000
  0
LINE
  5
337
100
AcDbEntity
  8
MAIN0
  6
CONTINUOUS
 62
3
100
AcDbLine
 10
136.7543923916883
 20
269.4177353138742
 30
0.0000000000000000
 11
160.7543923916884
 21
227.8485159322212
 31
0.0000000000000000
  0
LINE
  5
338
100
AcDbEntity
  8
MAIN0
  6
CONTINUOUS
 62
3
100
AcDbLine
 10
159.1383669879040
 20
228.6475540378978
 30
0.0000000000000000
 11
160.0043923916884
 21
229.1475540378978
 31
0.0000000000000000
  0
LINE
  5
339
100
AcDbEntity
  8
MAIN0
  6
CONTINUOUS
 62
3
100
AcDbLine
 10
136.6383669879039
 20
267.6186972081976
 30
0.0000000000000000
 11
137.5043923916883
 21
268.1186972081976
 31
0.0000000000000000
  0
LINE
  5
33A
100
AcDbEntity
  8
MAIN0
  6
CENTER
 62
12
100
AcDbLine
 10
154.1391327239253
 20
233.2667982893129
 30
0.0000000000000000
 11
167.1188709072388
 21
240.7606536234598
 31
0.0000000000000000
  0
LINE
  5
33B
100
AcDbEntity
  8
MAIN0
  6
CENTER
 62
12
100
AcDbLine
 10
138.1391327239253
 20
260.9796112104149
 30
0.0000000000000000
 11
151.1188709072388
 21
268.4734665445618
 31
0.0000000000000000
  0
LINE
  5
33C
100
AcDbEntity
  8
MAIN0
  6
CONTINUOUS
 62
3
100
AcDbLine
 10
141.8916973555321
 20
268.9196581025209
 30
0.0000000000000000
 11
146.8916973555321
 21
260.2594040646765
 31
0.0000000000000000
  0
LINE
  5
33D
100
AcDbEntity
  8
MAIN0
  6
CONTINUOUS
 62
3
100
AcDbLine
 10
146.0256736837985
 20
259.7594050646765
 30
0.0000000000000000
 11
146.8916973555321
 21
260.2594040646765
 31
0.0000000000000000
  0
LINE
  5
33E
100
AcDbEntity
  8
MAIN0
  6
CONTINUOUS
 62
3
100
AcDbLine
 10
141.0256736837985
 20
268.4196591025209
 30
0.0000000000000000
 11
141.8916973555321
 21
268.9196581025209
 31
0.0000000000000000
  0
LINE
  5
33F
100
AcDbEntity
  8
MAIN0
  6
CONTINUOUS
 62
3
100
AcDbLine
 10
157.8916973555321
 20
241.2068451814189
 30
0.0000000000000000
 11
162.8916973555321
 21
232.5465911435745
 31
0.0000000000000000
  0
LINE
  5
340
100
AcDbEntity
  8
MAIN0
  6
CONTINUOUS
 62
3
100
AcDbLine
 10
162.0256736837986
 20
232.0465921435744
 30
0.0000000000000000
 11
162.8916973555321
 21
232.5465911435744
 31
0.0000000000000000
  0
LINE
  5
341
100
AcDbEntity
  8
MAIN0
  6
CONTINUOUS
 62
3
100
AcDbLine
 10
157.0256736837985
 20
240.7068461814189
 30
0.0000000000000000
 11
157.8916973555321
 21
241.2068451814189
 31
0.0000000000000000
  0
LINE
  5
342
100
AcDbEntity
  8
MAIN0
  6
CONTINUOUS
 62
3
100
AcDbLine
 10
65.78324922138876
 20
187.1331256230480
 30
0.0000000000000000
 11
65.78324922138876
 21
265.1331256230478
 31
0.0000000000000000
  0
LINE
  5
343
100
AcDbEntity
  8
MAIN0
  6
CONTINUOUS
 62
3
100
AcDbLine
 10
279.2639792304437
 20
188.1331256230333
 30
0.0000000000000000
 11
279.2639792304437
 21
266.1331256230478
 31
0.0000000000000000
  0
LINE
  5
344
100
AcDbEntity
  8
MAIN0
  6
CONTINUOUS
 62
3
100
AcDbLine
 10
279.2639792304437
 20
188.1331256230479
 30
0.0000000000000000
 11
279.2639792304438
 21
186.1331256230479
 31
0.0000000000000000
  0
LINE
  5
345
100
AcDbEntity
  8
MAIN0
  6
CONTINUOUS
 62
3
100
AcDbLine
 10
212.7639792304413
 20
181.1331256230479
 30
0.0000000000000000
 11
212.7639792304415
 21
185.1331256230480
 31
0.0000000000000000
  0
LINE
  5
346
100
AcDbEntity
  8
MAIN0
  6
CONTINUOUS
 62
3
100
AcDbLine
 10
212.7639792304416
 20
189.1331256230480
 30
0.0000000000000000
 11
212.7639792304440
 21
270.1331256230478
 31
0.0000000000000000
  0
LINE
  5
347
100
AcDbEntity
  8
MAIN0
  6
CONTINUOUS
 62
3
100
AcDbLine
 10
277.3639792304437
 20
266.1331256230478
 30
0.0000000000000000
 11
277.3639792304436
 21
186.1331256230480
 31
0.0000000000000000
  0
LINE
  5
348
100
AcDbEntity
  8
MAIN0
  6
CONTINUOUS
 62
3
100
AcDbLine
 10
272.2639812304438
 20
188.3831256230480
 30
0.0000000000000000
 11
272.2639812304438
 21
190.5094844448857
 31
0.0000000000000000
  0
LINE
  5
349
100
AcDbEntity
  8
MAIN0
  6
PHANTOM
 62
12
100
AcDbLine
 10
284.7639792304415
 20
270.1331256230477
 30
0.0000000000000000
 11
284.7639792304415
 21
270.6331256230477
 31
0.0000000000000000
  0
LINE
  5
34A
100
AcDbEntity
  8
MAIN0
  6
PHANTOM
 62
12
100
AcDbLine
 10
277.3040471282483
 20
270.1331256230477
 30
0.0000000000000000
 11
284.7639792304437
 21
270.1331256230477
 31
0.0000000000000000
  0
LINE
  5
34B
100
AcDbEntity
  8
MAIN0
  6
PHANTOM
 62
12
100
AcDbLine
 10
273.0520995677193
 20
270.6331256230477
 30
0.0000000000000000
 11
284.7639792304437
 21
270.6331256230477
 31
0.0000000000000000
  0
LINE
  5
34C
100
AcDbEntity
  8
MAIN0
  6
PHANTOM
 62
12
100
AcDbLine
 10
283.7639792304415
 20
270.6331256230477
 30
0.0000000000000000
 11
283.7639792304415
 21
274.3331256230477
 31
0.0000000000000000
  0
LINE
  5
34D
100
AcDbEntity
  8
MAIN0
  6
PHANTOM
 62
12
100
AcDbLine
 10
273.0520995677193
 20
271.1331256230477
 30
0.0000000000000000
 11
283.7639792304415
 21
271.1331256230477
 31
0.0000000000000000
  0
LINE
  5
34E
100
AcDbEntity
  8
MAIN0
  6
PHANTOM
 62
12
100
AcDbLine
 10
273.0520995677193
 20
274.3331256230477
 30
0.0000000000000000
 11
283.7639792304415
 21
274.3331256230477
 31
0.0000000000000000
  0
LINE
  5
34F
100
AcDbEntity
  8
MAIN0
  6
CONTINUOUS
 62
3
100
AcDbLine
 10
276.0242332682880
 20
181.1331256230479
 30
0.0000000000000000
 11
276.0242332682880
 21
270.1331256230478
 31
0.0000000000000000
  0
ARC
  5
350
100
AcDbEntity
  8
MAIN0
  6
CONTINUOUS
 62
3
100
AcDbCircle
 10
266.7639792304439
 20
263.1331256230478
 30
0.0000000000000000
 40
2.000000000000000
100
AcDbArc
 50
7.180798978638723
 51
89.99999999999970
  0
ARC
  5
351
100
AcDbEntity
  8
MAIN0
  6
CONTINUOUS
 62
3
100
AcDbCircle
 10
266.7639792304439
 20
189.1331256230480
 30
0.0000000000000000
 40
2.000000000000000
100
AcDbArc
 50
269.9999999999999
 51
352.8192010213611
  0
ARC
  5
352
100
AcDbEntity
  8
MAIN0
  6
CONTINUOUS
 62
3
100
AcDbCircle
 10
262.9355521056976
 20
253.1331256230477
 30
0.0000000000000000
 40
2.000000000000000
100
AcDbArc
 50
269.9999999999999
 51
314.9999999999998
  0
ARC
  5
353
100
AcDbEntity
  8
MAIN0
  6
CONTINUOUS
 62
3
100
AcDbCircle
 10
260.7639792304439
 20
249.1331256230477
 30
0.0000000000000000
 40
2.000000000000000
100
AcDbArc
 50
89.99999999999970
 51
179.9999999999998
  0
ARC
  5
354
100
AcDbEntity
  8
MAIN0
  6
CONTINUOUS
 62
3
100
AcDbCircle
 10
262.9355521056976
 20
199.1331256230481
 30
0.0000000000000000
 40
2.000000000000000
100
AcDbArc
 50
45.00000000000004
 51
89.99999999999970
  0
ARC
  5
355
100
AcDbEntity
  8
MAIN0
  6
CONTINUOUS
 62
3
100
AcDbCircle
 10
260.7639792304439
 20
203.1331256230481
 30
0.0000000000000000
 40
2.000000000000000
100
AcDbArc
 50
179.9999999999998
 51
269.9999999999999
  0
ARC
  5
356
100
AcDbEntity
  8
MAIN0
  6
CONTINUOUS
 62
3
100
AcDbCircle
 10
238.7639792304417
 20
189.1331256230481
 30
0.0000000000000000
 40
2.000000000000000
100
AcDbArc
 50
179.9999999999998
 51
269.9999999999999
  0
ARC
  5
357
100
AcDbEntity
  8
MAIN0
  6
CONTINUOUS
 62
3
100
AcDbCircle
 10
234.7639792304417
 20
190.1331256230480
 30
0.0000000000000000
 40
2.000000000000000
100
AcDbArc
 50
0.0000000000000000
 51
89.99999999999970
  0
ARC
  5
358
100
AcDbEntity
  8
MAIN0
  6
CONTINUOUS
 62
3
100
AcDbCircle
 10
267.7639792304439
 20
256.5473391854210
 30
0.0000000000000000
 40
1.000000000000000
100
AcDbArc
 50
314.9999999999993
 51
359.9999999999998
  0
CIRCLE
  5
359
100
AcDbEntity
  8
MAIN0
  6
CONTINUOUS
 62
3
100
AcDbCircle
 10
109.7832492213887
 20
226.1331256230479
 30
0.0000000000000000
 40
43.00000000000000
  0
ARC
  5
35A
100
AcDbEntity
  8
MAIN0
  6
CONTINUOUS
 62
3
100
AcDbCircle
 10
83.78324922138881
 20
268.1331256230478
 30
0.0000000000000000
 40
3.000000000000000
100
AcDbArc
 50
269.9999999999999
 51
359.9999999999998
  0
ARC
  5
35B
100
AcDbEntity
  8
MAIN0
  6
CONTINUOUS
 62
3
100
AcDbCircle
 10
87.78324922138881
 20
269.1331256230477
 30
0.0000000000000000
 40
1.000000000000000
100
AcDbArc
 50
89.99999999999970
 51
179.9999999999998
  0
ARC
  5
35C
100
AcDbEntity
  8
MAIN0
  6
CONTINUOUS
 62
3
100
AcDbCircle
 10
155.6466026716987
 20
222.5901310856629
 30
0.0000000000000000
 40
3.000000000000000
100
AcDbArc
 50
119.9999999999995
 51
175.5826112895583
  0
ARC
  5
35D
100
AcDbEntity
  8
MAIN0
  6
CENTER
 62
12
100
AcDbCircle
 10
109.7832492213887
 20
226.1331256230479
 30
0.0000000000000000
 40
39.00000000000000
100
AcDbArc
 50
49.39868058096894
 51
69.26354707624148
  0
ARC
  5
35E
100
AcDbEntity
  8
MAIN0
  6
CENTER
 62
12
100
AcDbCircle
 10
109.7832492213887
 20
226.1331256230479
 30
0.0000000000000000
 40
39.00000000000000
100
AcDbArc
 50
169.3986805809687
 51
189.2635470762414
  0
ARC
  5
35F
100
AcDbEntity
  8
MAIN0
  6
CENTER
 62
12
100
AcDbCircle
 10
109.7832492213887
 20
226.1331256230479
 30
0.0000000000000000
 40
39.00000000000000
100
AcDbArc
 50
289.3986805809687
 51
309.2635470762416
  0
LINE
  5
360
100
AcDbEntity
  8
MAIN0
  6
CONTINUOUS
 62
3
100
AcDbLine
 10
187.7639792304441
 20
274.3331256230477
 30
0.0000000000000000
 11
242.7639792304442
 21
274.3331256230477
 31
0.0000000000000000
  0
LINE
  5
361
100
AcDbEntity
  8
MAIN0
  6
CONTINUOUS
 62
3
100
AcDbLine
 10
200.7639792304440
 20
270.6331256230478
 30
0.0000000000000000
 11
271.7639792304439
 21
270.6331256230478
 31
0.0000000000000000
  0
LINE
  5
362
100
AcDbEntity
  8
MAIN0
  6
CONTINUOUS
 62
3
100
AcDbLine
 10
187.7639792304441
 20
271.1331256230478
 30
0.0000000000000000
 11
257.7639792304439
 21
271.1331256230478
 31
0.0000000000000000
  0
LINE
  5
363
100
AcDbEntity
  8
MAIN0
  6
CONTINUOUS
 62
3
100
AcDbLine
 10
200.7639792304440
 20
270.1331256230478
 30
0.0000000000000000
 11
276.2921824607192
 21
270.1331256230478
 31
0.0000000000000000
  0
LINE
  5
364
100
AcDbEntity
  8
MAIN0
  6
CONTINUOUS
 62
3
100
AcDbLine
 10
212.7639792304439
 20
265.1331256230477
 30
0.0000000000000000
 11
266.7639792304439
 21
265.1331256230478
 31
0.0000000000000000
  0
CIRCLE
  5
365
100
AcDbEntity
  8
MAIN0
  6
CONTINUOUS
 62
12
100
AcDbCircle
 10
310.7639792304437
 20
240.1331256230479
 30
0.0000000000000000
 40
8.330999999999998
  0
CIRCLE
  5
366
100
AcDbEntity
  8
MAIN0
  6
CONTINUOUS
 62
3
100
AcDbCircle
 10
310.7639792304437
 20
240.1331256230479
 30
0.0000000000000000
 40
7.474999999999998
  0
CIRCLE
  5
367
100
AcDbEntity
  8
MAIN0
  6
CONTINUOUS
 62
12
100
AcDbCircle
 10
299.7639792304437
 20
212.1331256230479
 30
0.0000000000000000
 40
8.330999999999998
  0
CIRCLE
  5
368
100
AcDbEntity
  8
MAIN0
  6
CONTINUOUS
 62
3
100
AcDbCircle
 10
299.7639792304437
 20
212.1331256230479
 30
0.0000000000000000
 40
7.474999999999998
  0
LINE
  5
369
100
AcDbEntity
  8
MAIN0
  6
HIDDEN
 62
12
100
AcDbLine
 10
298.1854792304438
 20
181.1331256230479
 30
0.0000000000000000
 11
298.4979792304439
 21
191.1331256230479
 31
0.0000000000000000
  0
LINE
  5
36A
100
AcDbEntity
  8
MAIN0
  6
HIDDEN
 62
12
100
AcDbLine
 10
299.0414792304438
 20
181.1331256230479
 30
0.0000000000000000
 11
299.3539792304439
 21
191.1331256230480
 31
0.0000000000000000
  0
LINE
  5
36B
100
AcDbEntity
  8
MAIN0
  6
HIDDEN
 62
12
100
AcDbLine
 10
311.0299792304438
 20
191.1331256230479
 30
0.0000000000000000
 11
311.3424792304438
 21
181.1331256230479
 31
0.0000000000000000
  0
LINE
  5
36C
100
AcDbEntity
  8
MAIN0
  6
HIDDEN
 62
12
100
AcDbLine
 10
310.1739792304437
 20
191.1331256230479
 30
0.0000000000000000
 11
310.4864792304437
 21
181.1331256230479
 31
0.0000000000000000
  0
LINE
  5
36D
100
AcDbEntity
  8
MAIN0
  6
CONTINUOUS
 62
3
100
AcDbLine
 10
243.7639792304433
 20
220.1331256230479
 30
0.0000000000000000
 11
243.7639792304433
 21
232.1331256230479
 31
0.0000000000000000
  0
LINE
  5
36E
100
AcDbEntity
  8
MAIN0
  6
CONTINUOUS
 62
3
100
AcDbLine
 10
258.7639792304432
 20
233.6331256230479
 30
0.0000000000000000
 11
262.1279075522471
 21
233.6331256230479
 31
0.0000000000000000
  0
LINE
  5
36F
100
AcDbEntity
  8
MAIN0
  6
CONTINUOUS
 62
3
100
AcDbLine
 10
258.7639792304431
 20
218.6331256230478
 30
0.0000000000000000
 11
261.4745760924369
 21
218.6331256230478
 31
0.0000000000000000
  0
LINE
  5
370
100
AcDbEntity
  8
MAIN0
  6
CONTINUOUS
 62
3
100
AcDbLine
 10
258.7639792304431
 20
218.6331256230479
 30
0.0000000000000000
 11
258.7639792304431
 21
233.6331256230479
 31
0.0000000000000000
  0
LINE
  5
371
100
AcDbEntity
  8
MAIN0
  6
CONTINUOUS
 62
3
100
AcDbLine
 10
255.7639792304431
 20
232.8292780457545
 30
0.0000000000000000
 11
258.7639792304432
 21
233.6331256230479
 31
0.0000000000000000
  0
LINE
  5
372
100
AcDbEntity
  8
MAIN0
  6
CONTINUOUS
 62
3
100
AcDbLine
 10
246.7639792304433
 20
220.1331256230479
 30
0.0000000000000000
 11
246.7639792304433
 21
232.1331256230479
 31
0.0000000000000000
  0
LINE
  5
373
100
AcDbEntity
  8
MAIN0
  6
CONTINUOUS
 62
3
100
AcDbLine
 10
251.7639792304431
 20
220.1331256230479
 30
0.0000000000000000
 11
251.7639792304431
 21
232.1331256230479
 31
0.0000000000000000
  0
LINE
  5
374
100
AcDbEntity
  8
MAIN0
  6
CONTINUOUS
 62
3
100
AcDbLine
 10
243.7639792304433
 20
232.1331256230479
 30
0.0000000000000000
 11
246.7639792304433
 21
232.1331256230479
 31
0.0000000000000000
  0
LINE
  5
375
100
AcDbEntity
  8
MAIN0
  6
CONTINUOUS
 62
3
100
AcDbLine
 10
251.7639792304431
 20
232.1331256230479
 30
0.0000000000000000
 11
255.7639792304431
 21
232.1331256230479
 31
0.0000000000000000
  0
LINE
  5
376
100
AcDbEntity
  8
MAIN0
  6
CONTINUOUS
 62
3
100
AcDbLine
 10
255.7639792304431
 20
219.4369732003413
 30
0.0000000000000000
 11
258.7639792304432
 21
218.6331256230479
 31
0.0000000000000000
  0
LINE
  5
377
100
AcDbEntity
  8
MAIN0
  6
CONTINUOUS
 62
3
100
AcDbLine
 10
251.7639792304431
 20
220.6331256230479
 30
0.0000000000000000
 11
246.7639792304433
 21
220.6331256230479
 31
0.0000000000000000
  0
LINE
  5
378
100
AcDbEntity
  8
MAIN0
  6
CONTINUOUS
 62
3
100
AcDbLine
 10
243.7639792304433
 20
220.1331256230479
 30
0.0000000000000000
 11
246.7639792304433
 21
220.1331256230479
 31
0.0000000000000000
  0
LINE
  5
379
100
AcDbEntity
  8
MAIN0
  6
CONTINUOUS
 62
3
100
AcDbLine
 10
251.7639792304431
 20
220.1331256230479
 30
0.0000000000000000
 11
255.7639792304431
 21
220.1331256230479
 31
0.0000000000000000
  0
LINE
  5
37A
100
AcDbEntity
  8
MAIN0
  6
CONTINUOUS
 62
3
100
AcDbLine
 10
255.7639792304431
 20
219.4369732003413
 30
0.0000000000000000
 11
255.7639792304431
 21
232.8292780457545
 31
0.0000000000000000
  0
LINE
  5
37B
100
AcDbEntity
  8
MAIN0
  6
CONTINUOUS
 62
3
100
AcDbLine
 10
255.7639792304430
 20
232.1331256230479
 30
0.0000000000000000
 11
255.7639792304430
 21
241.1331256230478
 31
0.0000000000000000
  0
LINE
  5
37C
100
AcDbEntity
  8
MAIN0
  6
CONTINUOUS
 62
3
100
AcDbLine
 10
255.7639792304430
 20
241.1331256230478
 30
0.0000000000000000
 11
256.7639792304430
 21
241.1331256230478
 31
0.0000000000000000
  0
LINE
  5
37D
100
AcDbEntity
  8
MAIN0
  6
CONTINUOUS
 62
3
100
AcDbLine
 10
256.7639792304432
 20
254.1331256230477
 30
0.0000000000000000
 11
259.7639792304428
 21
254.1331256230477
 31
0.0000000000000000
  0
LINE
  5
37E
100
AcDbEntity
  8
MAIN0
  6
CONTINUOUS
 62
3
100
AcDbLine
 10
254.7639792304430
 20
256.1331256230477
 30
0.0000000000000000
 11
259.7639792304429
 21
256.1331256230477
 31
0.0000000000000000
  0
LINE
  5
37F
100
AcDbEntity
  8
MAIN0
  6
CONTINUOUS
 62
3
100
AcDbLine
 10
256.7639792304432
 20
237.1943805073258
 30
0.0000000000000000
 11
256.7639792304432
 21
254.1331256230477
 31
0.0000000000000000
  0
LINE
  5
380
100
AcDbEntity
  8
MAIN0
  6
CONTINUOUS
 62
3
100
AcDbLine
 10
259.7639792304429
 20
252.6530886835947
 30
0.0000000000000000
 11
259.7639792304429
 21
256.1331256230472
 31
0.0000000000000000
  0
LINE
  5
381
100
AcDbEntity
  8
MAIN0
  6
CONTINUOUS
 62
3
100
AcDbLine
 10
243.7639792304431
 20
232.1331256230479
 30
0.0000000000000000
 11
243.7639792304431
 21
246.1331256230477
 31
0.0000000000000000
  0
LINE
  5
382
100
AcDbEntity
  8
MAIN0
  6
CONTINUOUS
 62
3
100
AcDbLine
 10
254.7639792304430
 20
246.1331256230477
 30
0.0000000000000000
 11
254.7639792304430
 21
256.1331256230472
 31
0.0000000000000000
  0
LINE
  5
383
100
AcDbEntity
  8
MAIN0
  6
CONTINUOUS
 62
3
100
AcDbLine
 10
243.7639792304431
 20
246.1331256230477
 30
0.0000000000000000
 11
254.7639792304430
 21
246.1331256230477
 31
0.0000000000000000
  0
LINE
  5
384
100
AcDbEntity
  8
MAIN0
  6
CONTINUOUS
 62
3
100
AcDbLine
 10
255.7639792304430
 20
220.1331256230479
 30
0.0000000000000000
 11
255.7639792304430
 21
211.1331256230479
 31
0.0000000000000000
  0
LINE
  5
385
100
AcDbEntity
  8
MAIN0
  6
CONTINUOUS
 62
3
100
AcDbLine
 10
255.7639792304430
 20
211.1331256230479
 30
0.0000000000000000
 11
256.7639792304430
 21
211.1331256230479
 31
0.0000000000000000
  0
LINE
  5
386
100
AcDbEntity
  8
MAIN0
  6
CONTINUOUS
 62
3
100
AcDbLine
 10
256.7639792304432
 20
198.1331256230481
 30
0.0000000000000000
 11
259.7639792304428
 21
198.1331256230481
 31
0.0000000000000000
  0
LINE
  5
387
100
AcDbEntity
  8
MAIN0
  6
CONTINUOUS
 62
3
100
AcDbLine
 10
254.7639792304430
 20
196.1331256230481
 30
0.0000000000000000
 11
259.7639792304429
 21
196.1331256230481
 31
0.0000000000000000
  0
LINE
  5
388
100
AcDbEntity
  8
MAIN0
  6
CONTINUOUS
 62
3
100
AcDbLine
 10
256.7639792304432
 20
215.0718707387700
 30
0.0000000000000000
 11
256.7639792304432
 21
198.1331256230481
 31
0.0000000000000000
  0
LINE
  5
389
100
AcDbEntity
  8
MAIN0
  6
CONTINUOUS
 62
3
100
AcDbLine
 10
259.7639792304429
 20
196.1331256230486
 30
0.0000000000000000
 11
259.7639792304429
 21
199.5037441769824
 31
0.0000000000000000
  0
LINE
  5
38A
100
AcDbEntity
  8
MAIN0
  6
CONTINUOUS
 62
3
100
AcDbLine
 10
243.7639792304431
 20
220.1331256230479
 30
0.0000000000000000
 11
243.7639792304431
 21
206.1331256230481
 31
0.0000000000000000
  0
LINE
  5
38B
100
AcDbEntity
  8
MAIN0
  6
CONTINUOUS
 62
3
100
AcDbLine
 10
254.7639792304430
 20
206.1331256230481
 30
0.0000000000000000
 11
254.7639792304430
 21
196.1331256230486
 31
0.0000000000000000
  0
LINE
  5
38C
100
AcDbEntity
  8
MAIN0
  6
CONTINUOUS
 62
3
100
AcDbLine
 10
243.7639792304431
 20
206.1331256230481
 30
0.0000000000000000
 11
254.7639792304430
 21
206.1331256230481
 31
0.0000000000000000
  0
LINE
  5
38D
100
AcDbEntity
  8
MAIN0
  6
CENTER
 62
12
100
AcDbLine
 10
249.2639792304430
 20
229.5113181553757
 30
0.0000000000000000
 11
249.2639792304430
 21
248.7911992825432
 31
0.0000000000000000
  0
LINE
  5
38E
100
AcDbEntity
  8
MAIN0
  6
CONTINUOUS
 62
3
100
AcDbLine
 10
267.5639862304438
 20
188.8831236230479
 30
0.0000000000000000
 11
272.2639812304438
 21
188.8831256230479
 31
0.0000000000000000
  0
LINE
  5
38F
100
AcDbEntity
  8
MAIN0
  6
CONTINUOUS
 62
3
100
AcDbLine
 10
267.5639802304438
 20
197.3831216230480
 30
0.0000000000000000
 11
267.5639862304438
 21
188.8831236230480
 31
0.0000000000000000
  0
LINE
  5
390
100
AcDbEntity
  8
MAIN0
  6
CONTINUOUS
 62
3
100
AcDbLine
 10
267.2640082304437
 20
196.8636226230480
 30
0.0000000000000000
 11
267.5639802304438
 21
197.3831216230481
 31
0.0000000000000000
  0
LINE
  5
391
100
AcDbEntity
  8
MAIN0
  6
CONTINUOUS
 62
3
100
AcDbLine
 10
267.2640122304438
 20
189.4026556230479
 30
0.0000000000000000
 11
267.5639862304438
 21
188.8831236230479
 31
0.0000000000000000
  0
LINE
  5
392
100
AcDbEntity
  8
MAIN0
  6
CONTINUOUS
 62
3
100
AcDbLine
 10
267.2639792304438
 20
189.4027127765212
 30
0.0000000000000000
 11
267.2639792304438
 21
196.8635724001238
 31
0.0000000000000000
  0
LINE
  5
393
100
AcDbEntity
  8
MAIN0
  6
CONTINUOUS
 62
3
100
AcDbLine
 10
267.5638282304438
 20
197.3831216230479
 30
0.0000000000000000
 11
270.4223811383365
 21
197.3831234475983
 31
0.0000000000000000
  0
LINE
  5
394
100
AcDbEntity
  8
MAIN0
  6
CONTINUOUS
 62
3
100
AcDbLine
 10
208.1639772304440
 20
189.3331236230480
 30
0.0000000000000000
 11
208.1639812304440
 21
184.9331246230480
 31
0.0000000000000000
  0
LINE
  5
395
100
AcDbEntity
  8
MAIN0
  6
CONTINUOUS
 62
3
100
AcDbLine
 10
209.4639812304439
 20
183.6331246230480
 30
0.0000000000000000
 11
210.7639792304440
 21
183.6331256230480
 31
0.0000000000000000
  0
LINE
  5
396
100
AcDbEntity
  8
MAIN0
  6
CONTINUOUS
 62
3
100
AcDbLine
 10
210.7639792304439
 20
190.6331256230480
 30
0.0000000000000000
 11
209.4639802304440
 21
190.6331246230480
 31
0.0000000000000000
  0
LINE
  5
397
100
AcDbEntity
  8
MAIN0
  6
CONTINUOUS
 62
3
100
AcDbLine
 10
210.7639792304440
 20
189.1331256230480
 30
0.0000000000000000
 11
218.7639792304440
 21
189.1331256230480
 31
0.0000000000000000
  0
LINE
  5
398
100
AcDbEntity
  8
MAIN0
  6
CONTINUOUS
 62
3
100
AcDbLine
 10
218.7639792304440
 20
189.1331256230480
 30
0.0000000000000000
 11
218.7639792304440
 21
185.1331256230480
 31
0.0000000000000000
  0
LINE
  5
399
100
AcDbEntity
  8
MAIN0
  6
CONTINUOUS
 62
3
100
AcDbLine
 10
218.7639792304440
 20
185.1331256230480
 30
0.0000000000000000
 11
210.7639792304440
 21
185.1331256230480
 31
0.0000000000000000
  0
LINE
  5
39A
100
AcDbEntity
  8
MAIN0
  6
CONTINUOUS
 62
12
100
AcDbLine
 10
210.7639792304440
 20
188.6331256230480
 30
0.0000000000000000
 11
218.7639792304440
 21
188.6331256230480
 31
0.0000000000000000
  0
LINE
  5
39B
100
AcDbEntity
  8
MAIN0
  6
CONTINUOUS
 62
12
100
AcDbLine
 10
210.7639792304440
 20
185.6331256230480
 30
0.0000000000000000
 11
218.7639792304440
 21
185.6331256230480
 31
0.0000000000000000
  0
ARC
  5
39C
100
AcDbEntity
  8
MAIN0
  6
CONTINUOUS
 62
3
100
AcDbCircle
 10
209.4639762304440
 20
189.3331216230480
 30
0.0000000000000000
 40
1.299999999999997
100
AcDbArc
 50
89.99982499999918
 51
179.9999079999998
  0
ARC
  5
39D
100
AcDbEntity
  8
MAIN0
  6
CONTINUOUS
 62
3
100
AcDbCircle
 10
209.4639812304440
 20
184.9331246230481
 30
0.0000000000000000
 40
1.299999999999997
100
AcDbArc
 50
179.9999999999998
 51
269.9999999999999
  0
LINE
  5
39E
100
AcDbEntity
  8
MAIN0
  6
CONTINUOUS
 62
3
100
AcDbLine
 10
127.8336803199562
 20
258.4585474692084
 30
0.0000000000000000
 11
130.7328181228211
 21
261.3576852720734
 31
0.0000000000000000
  0
LINE
  5
39F
100
AcDbEntity
  8
MAIN0
  6
CONTINUOUS
 62
3
100
AcDbLine
 10
127.8336803199562
 20
261.3576852720734
 30
0.0000000000000000
 11
130.7328181228211
 21
258.4585474692085
 31
0.0000000000000000
  0
CIRCLE
  5
3A0
100
AcDbEntity
  8
MAIN0
  6
CONTINUOUS
 62
3
100
AcDbCircle
 10
129.2832492213886
 20
259.9081163706408
 30
0.0000000000000000
 40
3.499999999999993
  0
LINE
  5
3A1
100
AcDbEntity
  8
MAIN0
  6
CONTINUOUS
 62
3
100
AcDbLine
 10
72.76339716528142
 20
225.6025465805878
 30
0.0000000000000000
 11
68.80310127749621
 21
226.6637046655081
 31
0.0000000000000000
  0
LINE
  5
3A2
100
AcDbEntity
  8
MAIN0
  6
CONTINUOUS
 62
3
100
AcDbLine
 10
70.25267017892861
 20
224.1529776791553
 30
0.0000000000000000
 11
71.31382826384899
 21
228.1132735669405
 31
0.0000000000000000
  0
CIRCLE
  5
3A3
100
AcDbEntity
  8
MAIN0
  6
CONTINUOUS
 62
3
100
AcDbCircle
 10
70.78324922138881
 20
226.1331256230479
 30
0.0000000000000000
 40
3.499999999999993
  0
LINE
  5
3A4
100
AcDbEntity
  8
MAIN0
  6
CONTINUOUS
 62
3
100
AcDbLine
 10
128.7526701789285
 20
194.3382828193474
 30
0.0000000000000000
 11
129.8138282638488
 21
190.3779869315623
 31
0.0000000000000000
  0
LINE
  5
3A5
100
AcDbEntity
  8
MAIN0
  6
CONTINUOUS
 62
3
100
AcDbLine
 10
131.2633971652813
 20
192.8887139179150
 30
0.0000000000000000
 11
127.3031012774960
 21
191.8275558329947
 31
0.0000000000000000
  0
CIRCLE
  5
3A6
100
AcDbEntity
  8
MAIN0
  6
CONTINUOUS
 62
3
100
AcDbCircle
 10
129.2832492213886
 20
192.3581348754548
 30
0.0000000000000000
 40
3.499999999999993
  0
LINE
  5
3A7
100
AcDbEntity
  8
WAKU0
  6
CONTINUOUS
 62
3
100
AcDbLine
 10
412.0000000000000
 20
51.00000000000000
 30
0.0000000000000000
 11
582.0000000000000
 21
51.00000000000000
 31
0.0000000000000000
  0
LINE
  5
3A8
100
AcDbEntity
  8
WAKU0
  6
CONTINUOUS
 62
3
100
AcDbLine
 10
412.0000000000000
 20
51.00000000000000
 30
0.0000000000000000
 11
412.0000000000000
 21
12.00000000000000
 31
0.0000000000000000
  0
LINE
  5
3A9
100
AcDbEntity
  8
WAKU0
  6
CONTINUOUS
 62
3
100
AcDbLine
 10
484.0000000000000
 20
51.00000000000000
 30
0.0000000000000000
 11
484.0000000000000
 21
12.00000000000000
 31
0.0000000000000000
  0
LINE
  5
3AA
100
AcDbEntity
  8
WAKU0
  6
CONTINUOUS
 62
3
100
AcDbLine
 10
504.0000000000000
 20
51.00000000000000
 30
0.0000000000000000
 11
504.0000000000000
 21
12.00000000000000
 31
0.0000000000000000
  0
LINE
  5
3AB
100
AcDbEntity
  8
WAKU0
  6
CONTINUOUS
 62
3
100
AcDbLine
 10
516.0000000000000
 20
51.00000000000000
 30
0.0000000000000000
 11
516.0000000000000
 21
12.00000000000000
 31
0.0000000000000000
  0
LINE
  5
3AC
100
AcDbEntity
  8
WAKU0
  6
CONTINUOUS
 62
3
100
AcDbLine
 10
516.0000000000000
 20
37.00000000000000
 30
0.0000000000000000
 11
582.0000000000000
 21
37.00000000000000
 31
0.0000000000000000
  0
LINE
  5
3AD
100
AcDbEntity
  8
WAKU0
  6
CONTINUOUS
 62
3
100
AcDbLine
 10
504.0000000000000
 20
23.00000000000000
 30
0.0000000000000000
 11
582.0000000000000
 21
23.00000000000000
 31
0.0000000000000000
  0
LINE
  5
3AE
100
AcDbEntity
  8
WAKU0
  6
CONTINUOUS
 62
3
100
AcDbLine
 10
547.0000000000000
 20
51.00000000000000
 30
0.0000000000000000
 11
547.0000000000000
 21
44.00000000000000
 31
0.0000000000000000
  0
LINE
  5
3AF
100
AcDbEntity
  8
WAKU0
  6
CONTINUOUS
 62
3
100
AcDbLine
 10
559.0000000000000
 20
51.00000000000000
 30
0.0000000000000000
 11
559.0000000000000
 21
44.00000000000000
 31
0.0000000000000000
  0
LINE
  5
3B0
100
AcDbEntity
  8
WAKU0
  6
CONTINUOUS
 62
3
100
AcDbLine
 10
484.0000000000000
 20
31.50000000000000
 30
0.0000000000000000
 11
504.0000000000000
 21
31.50000000000000
 31
0.0000000000000000
  0
LINE
  5
3B1
100
AcDbEntity
  8
WAKU0
  6
CONTINUOUS
 62
3
100
AcDbLine
 10
504.0000000000000
 20
44.00000000000000
 30
0.0000000000000000
 11
582.0000000000000
 21
44.00000000000000
 31
0.0000000000000000
  0
LINE
  5
3B2
100
AcDbEntity
  8
WAKU0
  6
CONTINUOUS
 62
3
100
AcDbLine
 10
412.0000000000000
 20
37.00000000000000
 30
0.0000000000000000
 11
484.0000000000000
 21
37.00000000000000
 31
0.0000000000000000
  0
LINE
  5
3B3
100
AcDbEntity
  8
WAKU0
  6
CONTINUOUS
 62
3
100
AcDbLine
 10
412.0000000000000
 20
23.00000000000000
 30
0.0000000000000000
 11
484.0000000000000
 21
23.00000000000000
 31
0.0000000000000000
  0
LINE
  5
3B4
100
AcDbEntity
  8
WAKU0
  6
CONTINUOUS
 62
3
100
AcDbLine
 10
460.0000000000000
 20
37.00000000000000
 30
0.0000000000000000
 11
460.0000000000000
 21
12.00000000000000
 31
0.0000000000000000
  0
LINE
  5
3B5
100
AcDbEntity
  8
WAKU0
  6
CONTINUOUS
 62
3
100
AcDbLine
 10
436.0000000000000
 20
37.00000000000000
 30
0.0000000000000000
 11
436.0000000000000
 21
23.00000000000000
 31
0.0000000000000000
  0
LINE
  5
3B6
100
AcDbEntity
  8
WAKU0
  6
CONTINUOUS
 62
3
100
AcDbLine
 10
472.0000000000000
 20
26.00000000000000
 30
0.0000000000000000
 11
472.0000000000000
 21
23.00000000000000
 31
0.0000000000000000
  0
LINE
  5
3B7
100
AcDbEntity
  8
WAKU0
  6
CONTINUOUS
 62
3
100
AcDbLine
 10
448.0000000000000
 20
26.00000000000000
 30
0.0000000000000000
 11
448.0000000000000
 21
23.00000000000000
 31
0.0000000000000000
  0
LINE
  5
3B8
100
AcDbEntity
  8
WAKU0
  6
CONTINUOUS
 62
3
100
AcDbLine
 10
424.0000000000000
 20
26.00000000000000
 30
0.0000000000000000
 11
424.0000000000000
 21
23.00000000000000
 31
0.0000000000000000
  0
LINE
  5
3B9
100
AcDbEntity
  8
WAKU0
  6
CONTINUOUS
 62
3
100
AcDbLine
 10
430.0000000000000
 20
51.00000000000000
 30
0.0000000000000000
 11
430.0000000000000
 21
37.00000000000000
 31
0.0000000000000000
  0
LINE
  5
3BA
100
AcDbEntity
  8
WAKU0
  6
CONTINUOUS
 62
3
100
AcDbLine
 10
412.0000000000000
 20
45.00000000000000
 30
0.0000000000000000
 11
484.0000000000000
 21
45.00000000000000
 31
0.0000000000000000
  0
LINE
  5
3BB
100
AcDbEntity
  8
WAKU0
  6
HIDDEN
 62
3
100
AcDbLine
 10
532.5000000000000
 20
23.00000000000000
 30
0.0000000000000000
 11
532.5000000000000
 21
12.00000000000000
 31
0.0000000000000000
  0
LINE
  5
3BC
100
AcDbEntity
  8
WAKU0
  6
HIDDEN
 62
3
100
AcDbLine
 10
544.9000000000000
 20
23.00000000000000
 30
0.0000000000000000
 11
544.9000000000000
 21
12.00000000000000
 31
0.0000000000000000
  0
MTEXT
  5
3BD
100
AcDbEntity
  8
WAKU0
  6
CONTINUOUS
 62
3
100
AcDbMText
 10
516.4820000231266
 20
49.04999995231628
 30
0.0000000000000000
 40
3.099999904632568
 41
0.0000000000000000
 71
     1
 72
     1
  1
{\H0.93x;{Y1225RE47}}
 11
1.000000000000000
 21
0.0000000000000000
 31
0.0000000000000000
  7
STANDARD
  0
MTEXT
  5
3BE
100
AcDbEntity
  8
WAKU0
  6
CONTINUOUS
 62
3
100
AcDbMText
 10
522.7500004470348
 20
43.50000000000000
 30
0.0000000000000000
 40
3.000000000000000
 41
0.0000000000000000
 71
     1
 72
     1
  1
{\H0.59x;{回転油圧シリンダ\PＲＯＴＡＲＹ　ＨＹＤＲＡＵＬＩＣ　ＣＹＬＩＮＤＥＲ}}
 11
1.000000000000000
 21
0.0000000000000000
 31
0.0000000000000000
  7
KNJYOKO
  0
MTEXT
  5
3BF
100
AcDbEntity
  8
WAKU0
  6
CONTINUOUS
 62
3
100
AcDbMText
 10
520.4500010497868
 20
34.23333326975504
 30
0.0000000000000000
 40
3.099999904632568
 41
0.0000000000000000
 71
     1
 72
     1
  1
{\H0.71x;{Ｙ１２２５ＲＥ４７　ガイケイ\PＹ１２２５ＲＥ４７　ＯＵＴＳＩＤＥ　ＶＩＥＷ}}
 11
1.000000000000000
 21
0.0000000000000000
 31
0.0000000000000000
  7
KNJYOKO
  0
MTEXT
  5
3C0
100
AcDbEntity
  8
WAKU0
  6
CONTINUOUS
 62
3
100
AcDbMText
 10
490.0049998760223
 20
39.29999995231628
 30
0.0000000000000000
 40
3.099999904632568
 41
0.0000000000000000
 71
     1
 72
     1
  1
{\H0.90x;{1:1}}
 11
1.000000000000000
 21
0.0000000000000000
 31
0.0000000000000000
  7
STANDARD
  0
MTEXT
  5
3C1
100
AcDbEntity
  8
WAKU0
  6
CONTINUOUS
 62
3
100
AcDbMText
 10
546.4000001549721
 20
20.15000009536743
 30
0.0000000000000000
 40
5.300000190734863
 41
0.0000000000000000
 71
     1
 72
     1
  1
{\H0.90x;{0135}}
 11
1.000000000000000
 21
0.0000000000000000
 31
0.0000000000000000
  7
STANDARD
  0
MTEXT
  5
3C2
100
AcDbEntity
  8
WAKU0
  6
CONTINUOUS
 62
3
100
AcDbMText
 10
534.3000000834466
 20
20.15000009536743
 30
0.0000000000000000
 40
5.300000190734863
 41
0.0000000000000000
 71
     1
 72
     1
  1
{\H0.87x;{23}}
 11
1.000000000000000
 21
0.0000000000000000
 31
0.0000000000000000
  7
STANDARD
  0
MTEXT
  5
3C3
100
AcDbEntity
  8
WAKU0
  6
CONTINUOUS
 62
3
100
AcDbMText
 10
517.5000001192093
 20
20.15000009536743
 30
0.0000000000000000
 40
5.300000190734863
 41
0.0000000000000000
 71
     1
 72
     1
  1
{\H0.89x;{61R}}
 11
1.000000000000000
 21
0.0000000000000000
 31
0.0000000000000000
  7
STANDARD
  0
MTEXT
  5
3C4
100
AcDbEntity
  8
WAKU0
  6
CONTINUOUS
 62
3
100
AcDbMText
 10
572.0000000476837
 20
20.15000009536743
 30
0.0000000000000000
 40
5.300000190734863
 41
0.0000000000000000
 71
     1
 72
     1
  1
{\H0.81x;{2}}
 11
1.000000000000000
 21
0.0000000000000000
 31
0.0000000000000000
  7
STANDARD
  0
MTEXT
  5
3C5
100
AcDbEntity
  8
WAKU0
  6
CONTINUOUS
 62
3
100
AcDbMText
 10
572.0000000819564
 20
44.84999990463257
 30
0.0000000000000000
 40
5.300000190734863
 41
0.0000000000000000
 71
     7
 72
     1
  1
{\H0.81x;{ }}
 11
1.000000000000000
 21
0.0000000000000000
 31
0.0000000000000000
  7
STANDARD
  0
MTEXT
  5
3C6
100
AcDbEntity
  8
WAKU0
  6
CONTINUOUS
 62
3
100
AcDbMText
 10
461.3850002884865
 20
33.00000000000000
 30
0.0000000000000000
 40
3.000000000000000
 41
0.0000000000000000
 71
     7
 72
     1
  1
{\H0.93x;{DRAWN BY}}
 11
1.000000000000000
 21
0.0000000000000000
 31
0.0000000000000000
  7
STANDARD
  0
MTEXT
  5
3C7
100
AcDbEntity
  8
WAKU0
  6
CONTINUOUS
 62
3
100
AcDbMText
 10
441.2149997949600
 20
32.95000004768372
 30
0.0000000000000000
 40
3.099999904632568
 41
0.0000000000000000
 71
     7
 72
     1
  1
{\H0.92x;{CHIEF}}
 11
1.000000000000000
 21
0.0000000000000000
 31
0.0000000000000000
  7
STANDARD
  0
MTEXT
  5
3C8
100
AcDbEntity
  8
WAKU0
  6
CONTINUOUS
 62
3
100
AcDbMText
 10
414.4249997138977
 20
32.95000004768372
 30
0.0000000000000000
 40
3.099999904632568
 41
0.0000000000000000
 71
     7
 72
     1
  1
{\H0.92x;{MANAGER}}
 11
1.000000000000000
 21
0.0000000000000000
 31
0.0000000000000000
  7
STANDARD
  0
MTEXT
  5
3C9
100
AcDbEntity
  8
WAKU0
  6
CONTINUOUS
 62
3
100
AcDbMText
 10
413.0850002169609
 20
46.50000000000000
 30
0.0000000000000000
 40
3.000000000000000
 41
0.0000000000000000
 71
     7
 72
     1
  1
{\H0.92x;{CAREER}}
 11
1.000000000000000
 21
0.0000000000000000
 31
0.0000000000000000
  7
STANDARD
  0
MTEXT
  5
3CA
100
AcDbEntity
  8
WAKU0
  6
CONTINUOUS
 62
3
100
AcDbMText
 10
466.6099998354912
 20
18.95000004768372
 30
0.0000000000000000
 40
3.099999904632568
 41
0.0000000000000000
 71
     7
 72
     1
  1
{\H0.91x;{DATE}}
 11
1.000000000000000
 21
0.0000000000000000
 31
0.0000000000000000
  7
STANDARD
  0
MTEXT
  5
3CB
100
AcDbEntity
  8
WAKU0
  6
CONTINUOUS
 62
3
100
AcDbMText
 10
485.9000002145767
 20
26.50000000000000
 30
0.0000000000000000
 40
3.000000000000000
 41
0.0000000000000000
 71
     7
 72
     1
  1
{\H0.63x;{3RD ANGLE}}
 11
1.000000000000000
 21
0.0000000000000000
 31
0.0000000000000000
  7
STANDARD
  0
MTEXT
  5
3CC
100
AcDbEntity
  8
WAKU0
  6
CONTINUOUS
 62
3
100
AcDbMText
 10
487.2149997949600
 20
45.95000004768372
 30
0.0000000000000000
 40
3.099999904632568
 41
0.0000000000000000
 71
     7
 72
     1
  1
{\H0.92x;{SCALE}}
 11
1.000000000000000
 21
0.0000000000000000
 31
0.0000000000000000
  7
STANDARD
  0
MTEXT
  5
3CD
100
AcDbEntity
  8
WAKU0
  6
CONTINUOUS
 62
3
100
AcDbMText
 10
577.7000000476837
 20
46.00000000000000
 30
0.0000000000000000
 40
3.000000000000000
 41
0.0000000000000000
 71
     7
 72
     1
  1
{\H0.63x;{kg}}
 11
1.000000000000000
 21
0.0000000000000000
 31
0.0000000000000000
  7
STANDARD
  0
MTEXT
  5
3CE
100
AcDbEntity
  8
WAKU0
  6
CONTINUOUS
 62
3
100
AcDbMText
 10
547.6000001430512
 20
46.00000000000000
 30
0.0000000000000000
 40
3.000000000000000
 41
0.0000000000000000
 71
     7
 72
     1
  1
{\H0.63x;{WEIGHT}}
 11
1.000000000000000
 21
0.0000000000000000
 31
0.0000000000000000
  7
STANDARD
  0
MTEXT
  5
3CF
100
AcDbEntity
  8
WAKU0
  6
CONTINUOUS
 62
3
100
AcDbMText
 10
506.0049998760223
 20
18.13333336512248
 30
0.0000000000000000
 40
3.099999904632568
 41
0.0000000000000000
 71
     7
 72
     1
  1
{\H0.90x;{DRW\PNO.}}
 11
1.000000000000000
 21
0.0000000000000000
 31
0.0000000000000000
  7
STANDARD
  0
MTEXT
  5
3D0
100
AcDbEntity
  8
WAKU0
  6
CONTINUOUS
 62
3
100
AcDbMText
 10
504.6099998354912
 20
31.95000004768372
 30
0.0000000000000000
 40
3.099999904632568
 41
0.0000000000000000
 71
     7
 72
     1
  1
{\H0.91x;{NAME}}
 11
1.000000000000000
 21
0.0000000000000000
 31
0.0000000000000000
  7
STANDARD
  0
MTEXT
  5
3D1
100
AcDbEntity
  8
WAKU0
  6
CONTINUOUS
 62
3
100
AcDbMText
 10
504.6099998354912
 20
45.95000004768372
 30
0.0000000000000000
 40
3.099999904632568
 41
0.0000000000000000
 71
     7
 72
     1
  1
{\H0.91x;{TYPE}}
 11
1.000000000000000
 21
0.0000000000000000
 31
0.0000000000000000
  7
STANDARD
  0
LINE
  5
3D2
100
AcDbEntity
  8
WAKU0
  6
HIDDEN
 62
3
100
AcDbLine
 10
579.1599564743885
 20
13.84999990463257
 30
0.0000000000000000
 11
568.9400436209789
 21
13.84999990463257
 31
0.0000000000000000
  0
LINE
  5
3D3
100
AcDbEntity
  8
WAKU0
  6
HIDDEN
 62
3
100
AcDbLine
 10
579.1599564743885
 20
13.84999990463250
 30
0.0000000000000000
 11
574.0500000476851
 21
22.70070406014901
 31
0.0000000000000000
  0
LINE
  5
3D4
100
AcDbEntity
  8
WAKU0
  6
HIDDEN
 62
3
100
AcDbLine
 10
574.0500000476851
 20
22.70070406014902
 30
0.0000000000000000
 11
568.9400436209789
 21
13.84999990463248
 31
0.0000000000000000
  0
MTEXT
  5
3D5
100
AcDbEntity
  8
WAKU0
  6
CONTINUOUS
 62
3
100
AcDbMText
 10
419.0000009614873
 20
20.63471521698214
 30
0.0000000000000000
 40
3.140094041824341
 41
0.0000000000000000
 71
     1
 72
     1
  1
{\H0.83x;{Ｋｉｔａｇａｗａ\PＣｏｒｐｏｒａｔｉｏｎ}}
 11
1.000000000000000
 21
0.0000000000000000
 31
0.0000000000000000
  7
KNJYOKO
  0
LINE
  5
3D6
100
AcDbEntity
  8
WAKU0
  6
CONTINUOUS
 62
3
100
AcDbLine
 10
502.4713877753800
 20
15.78041421262812
 30
0.0000000000000000
 11
502.4713877753800
 21
21.78041421262815
 31
0.0000000000000000
  0
LINE
  5
3D7
100
AcDbEntity
  8
WAKU0
  6
CONTINUOUS
 62
3
100
AcDbLine
 10
495.9336941228225
 20
17.28041421262811
 30
0.0000000000000000
 11
495.9336941228225
 21
20.28041421262824
 31
0.0000000000000000
  0
LINE
  5
3D8
100
AcDbEntity
  8
WAKU0
  6
CENTER
 62
12
100
AcDbLine
 10
485.4321805514995
 20
18.78041421262813
 30
0.0000000000000000
 11
503.2765788964694
 21
18.78041421262813
 31
0.0000000000000000
  0
LINE
  5
3D9
100
AcDbEntity
  8
WAKU0
  6
CENTER
 62
12
100
AcDbLine
 10
489.4474565857986
 20
14.55921662918448
 30
0.0000000000000000
 11
489.4474565857986
 21
22.89865102149943
 31
0.0000000000000000
  0
LINE
  5
3DA
100
AcDbEntity
  8
WAKU0
  6
CONTINUOUS
 62
3
100
AcDbLine
 10
495.9336941228225
 20
20.28041421262797
 30
0.0000000000000000
 11
502.4713877753800
 21
21.78041421262795
 31
0.0000000000000000
  0
LINE
  5
3DB
100
AcDbEntity
  8
WAKU0
  6
CONTINUOUS
 62
3
100
AcDbLine
 10
495.9336941228225
 20
17.28041421262811
 30
0.0000000000000000
 11
502.4713877753799
 21
15.78041421262812
 31
0.0000000000000000
  0
CIRCLE
  5
3DC
100
AcDbEntity
  8
WAKU0
  6
CONTINUOUS
 62
3
100
AcDbCircle
 10
489.4474565857986
 20
18.78041421262813
 30
0.0000000000000000
 40
1.499999999999972
  0
CIRCLE
  5
3DD
100
AcDbEntity
  8
WAKU0
  6
CONTINUOUS
 62
3
100
AcDbCircle
 10
489.4474565857986
 20
18.78041421262813
 30
0.0000000000000000
 40
2.999999999999979
  0
ENDSEC
  0
SECTION
  2
OBJECTS
  0
DICTIONARY
  5
422
100
AcDbDictionary
  3
ACAD_GROUP
350
423
  3
ACAD_MLINESTYLE
350
424
  3
DWGPROPS
350
425
  0
DICTIONARY
  5
423
102
{ACAD_REACTORS
330
422
102
}
100
AcDbDictionary
  0
DICTIONARY
  5
424
102
{ACAD_REACTORS
330
422
102
}
100
AcDbDictionary
  3
STANDARD
350
426
  0
MLINESTYLE
  5
426
102
{ACAD_REACTORS
330
424
102
}
100
AcDbMlineStyle
  2
STANDARD
 70
     0
  3

 62
   256
 51
90.00
 52
90.00
 71
     2
 49
0.50
 62
   256
  6
BYLAYER
 49
-0.50
 62
   256
  6
BYLAYER
  0
XRECORD
  5
425
102
{ACAD_REACTORS
330
422
102
}
100
AcDbXrecord
280
     1
  1
DWGPROPS COOKIE
  2
Ｙ１２２５ＲＥ４７　ガイケイ
  3

  4

  6
回転油圧シリンダ
  7

  8

  9

300
=
301
=
302
=
303
=
304
=
305
=
306
=
307
=
308
=
309
=
 40
0.000000
 41
0.000000
 42
0.000000
  1

 90
        0
  0
ENDSEC
  0
EOF
