  0
SECTION
  2
HEADER
  9
$ACADVER
  1
AC1014
  9
$DWGCODEPAGE
  3
ANSI_932
  9
$LTSCALE
 40
20.0
  9
$FILLMODE
 70
     1
  9
$CLAYER
  8
0
  9
$PDMODE
 70
     0
  9
$SPLFRAME
 70
     0
  9
$SPLINETYPE
 70
     6
  9
$SPLINESEGS
 70
     8
  9
$DIMASZ
 40
2.000000
  9
$DIMEXE
 40
2.000000
  9
$DIMEXO
 40
0.800000
  9
$DIMTAD
 70
     1
  9
$DIMTIH
 70
     0
  9
$DIMTOH
 70
     0
  9
$DIMTVP
 40
0.500000
  9
$DIMTXT
 40
3.100000
  9
$EXTMIN
 10
0.000000
 20
0.000000
 30
0.000000
  9
$EXTMAX
 10
420.000000
 20
594.000000
 30
0.000000
  9
$MEASUREMENT
 70
  1
  9
$LIMMIN
 10
0.000000
 20
0.000000
  9
$LIMMAX
 10
420.000000
 20
594.000000
  9
$HANDLING
 70
     1
  9
$HANDSEED
  5
430
  9
$DIMBLK
  1
_OPEN
  9
$DIMDEC
 70
     3
  9
$DIMAUNIT
 70
     1
  9
$DIMZIN
 70
     8
  9
$DIMTOFL
 70
     1
  0
ENDSEC
  0
SECTION
  2
CLASSES
  0
ENDSEC
  0
SECTION
  2
TABLES
  0
TABLE
  2
VPORT
  5
3E4
100
AcDbSymbolTable
 70
     1
  0
VPORT
  5
3E5
100
AcDbSymbolTableRecord
100
AcDbViewportTableRecord
  2
*ACTIVE
 70
     0
 12
291.000000
 22
204.042164
 40
408.084328
 41
1.426176
  0
ENDTAB
  0
TABLE
  2
LTYPE
  5
3E6
100
AcDbSymbolTable
 70
     3
  0
LTYPE
  5
3E7
100
AcDbSymbolTableRecord
100
AcDbLinetypeTableRecord
  2
BYBLOCK
 70
     0
  3

 72
    65
 73
     0
 40
0.0
  0
LTYPE
  5
3E8
100
AcDbSymbolTableRecord
100
AcDbLinetypeTableRecord
  2
BYLAYER
 70
     0
  3

 72
    65
 73
     0
 40
0.0
  0
LTYPE
  5
3E9
100
AcDbSymbolTableRecord
100
AcDbLinetypeTableRecord
  2
CONTINUOUS
 70
     0
  3
Solid line (NEC CAE2D for Win R14.2 : 2021.06.16)
 72
    65
 73
     0
 40
0.0
  0
LTYPE
  5
3EA
100
AcDbSymbolTableRecord
100
AcDbLinetypeTableRecord
  2
HIDDEN
 70
     0
  3
__ __ __ __ __ __ __ __ __ __ __ __ __ __
 72
    65
 73
     2
 40
0.375
 49
0.25
 74
     0
 49
-0.125
 74
     0
  0
LTYPE
  5
3EB
100
AcDbSymbolTableRecord
100
AcDbLinetypeTableRecord
  2
CENTER
 70
     0
  3
____ _ ____ _ ____ _ ____ _ ____ _ ____
 72
    65
 73
     4
 40
2.0
 49
1.25
 74
     0
 49
-0.25
 74
     0
 49
0.25
 74
     0
 49
-0.25
 74
     0
  0
ENDTAB
  0
TABLE
  2
LAYER
  5
3EC
100
AcDbSymbolTable
 70
    11
  0
LAYER
  5
3ED
100
AcDbSymbolTableRecord
100
AcDbLayerTableRecord
  2
0
 70
     0
 62
     7
  6
CONTINUOUS
  0
LAYER
  5
3EE
100
AcDbSymbolTableRecord
100
AcDbLayerTableRecord
  2
MAIN0
 70
     0
 62
     7
  6
CONTINUOUS
  0
LAYER
  5
3EF
100
AcDbSymbolTableRecord
100
AcDbLayerTableRecord
  2
MAIN1
 70
     0
 62
     7
  6
CONTINUOUS
  0
LAYER
  5
3F0
100
AcDbSymbolTableRecord
100
AcDbLayerTableRecord
  2
MAIN3
 70
     0
 62
     7
  6
CONTINUOUS
  0
LAYER
  5
3F1
100
AcDbSymbolTableRecord
100
AcDbLayerTableRecord
  2
MAIN10
 70
     0
 62
     7
  6
CONTINUOUS
  0
LAYER
  5
3F2
100
AcDbSymbolTableRecord
100
AcDbLayerTableRecord
  2
MAIN1023
 70
     0
 62
    16
  6
CONTINUOUS
  0
LAYER
  5
3F3
100
AcDbSymbolTableRecord
100
AcDbLayerTableRecord
  2
DUMMY0
 70
     0
 62
     7
  6
CONTINUOUS
  0
LAYER
  5
3F4
100
AcDbSymbolTableRecord
100
AcDbLayerTableRecord
  2
DUMMY10
 70
     0
 62
     7
  6
CONTINUOUS
  0
LAYER
  5
3F5
100
AcDbSymbolTableRecord
100
AcDbLayerTableRecord
  2
DUMMY1023
 70
     0
 62
    16
  6
CONTINUOUS
  0
LAYER
  5
3F6
100
AcDbSymbolTableRecord
100
AcDbLayerTableRecord
  2
WAKU0
 70
     0
 62
     7
  6
CONTINUOUS
  0
LAYER
  5
3F7
100
AcDbSymbolTableRecord
100
AcDbLayerTableRecord
  2
WAKU1023
 70
     0
 62
    16
  6
CONTINUOUS
  0
ENDTAB
  0
TABLE
  2
STYLE
  5
3F8
100
AcDbSymbolTable
 70
     4
  0
STYLE
  5
3F9
100
AcDbSymbolTableRecord
100
AcDbTextStyleTableRecord
  2
STANDARD
 70
    64
 40
0.0
 41
1.0
 50
0.0
 71
     0
 42
3.140094041824341
  3
TXT
  4

  0
STYLE
  5
3FA
100
AcDbSymbolTableRecord
100
AcDbTextStyleTableRecord
  2
ANKTATE
 70
    68
 40
0.0
 41
1.0
 50
0.0
 71
     0
 42
3.140094041824341
  3
TXT
  4

  0
STYLE
  5
3FB
100
AcDbSymbolTableRecord
100
AcDbTextStyleTableRecord
  2
KNJYOKO
 70
    64
 40
0.0
 41
1.0
 50
0.0
 71
     0
 42
3.140094041824341
  3
TXT
  4
BIGFONT
  0
STYLE
  5
3FC
100
AcDbSymbolTableRecord
100
AcDbTextStyleTableRecord
  2
KNJTATE
 70
    68
 40
0.0
 41
1.0
 50
0.0
 71
     0
 42
3.140094041824341
  3
TXT
  4
BIGFONT
  0
ENDTAB
  0
TABLE
  2
VIEW
  5
3FD
100
AcDbSymbolTable
 70
     0
  0
ENDTAB
  0
TABLE
  2
UCS
  5
3FE
100
AcDbSymbolTable
 70
     0
  0
ENDTAB
  0
TABLE
  2
APPID
  5
3FF
100
AcDbSymbolTable
 70
     1
  0
APPID
  5
400
100
AcDbSymbolTableRecord
100
AcDbRegAppTableRecord
  2
ACAD
 70
     0
  0
ENDTAB
  0
TABLE
  2
DIMSTYLE
  5
401
100
AcDbSymbolTable
 70
     1
  0
DIMSTYLE
105
402
100
AcDbSymbolTableRecord
100
AcDbDimStyleTableRecord
  2
STANDARD
 70
     0
 41
2.000000
 44
2.000000
 42
0.800000
145
0.661290
140
3.100000
144
1.000000
146
0.903226
340
3F9
  0
DIMSTYLE
105
403
100
AcDbSymbolTableRecord
100
AcDbDimStyleTableRecord
  2
MAIN001
 70
     0
 41
2.000000
 44
2.000000
 42
0.800000
145
0.661290
140
3.100000
144
1.000000
146
0.903226
 77
     1
 73
     0
 74
     0
271
     3
275
     1
 78
     8
172
     1
340
3F9
  0
DIMSTYLE
105
404
100
AcDbSymbolTableRecord
100
AcDbDimStyleTableRecord
  2
DUMMY002
 70
     0
 41
2.000000
 44
2.000000
 42
0.800000
145
0.661290
140
3.100000
144
1.000000
146
0.903226
 77
     1
 73
     0
 74
     0
271
     3
275
     1
 78
     8
172
     1
340
3F9
  0
DIMSTYLE
105
405
100
AcDbSymbolTableRecord
100
AcDbDimStyleTableRecord
  2
WAKU003
 70
     0
 41
2.000000
 44
2.000000
 42
0.800000
145
0.661290
140
3.100000
144
1.000000
146
0.903226
 77
     1
 73
     0
 74
     0
271
     3
275
     1
 78
     8
172
     1
340
3F9
  0
ENDTAB
  0
TABLE
  2
BLOCK_RECORD
  5
406
100
AcDbSymbolTable
 70
    42
  0
BLOCK_RECORD
  5
407
100
AcDbSymbolTableRecord
100
AcDbBlockTableRecord
  2
*MODEL_SPACE
  0
BLOCK_RECORD
  5
408
100
AcDbSymbolTableRecord
100
AcDbBlockTableRecord
  2
*PAPER_SPACE
  0
BLOCK_RECORD
  5
1
100
AcDbSymbolTableRecord
100
AcDbBlockTableRecord
  2
_NONE
  0
BLOCK_RECORD
  5
4
100
AcDbSymbolTableRecord
100
AcDbBlockTableRecord
  2
_CLOSED
  0
BLOCK_RECORD
  5
B
100
AcDbSymbolTableRecord
100
AcDbBlockTableRecord
  2
_DOT
  0
BLOCK_RECORD
  5
13
100
AcDbSymbolTableRecord
100
AcDbBlockTableRecord
  2
_OPEN
  0
BLOCK_RECORD
  5
19
100
AcDbSymbolTableRecord
100
AcDbBlockTableRecord
  2
_ORIGIN
  0
BLOCK_RECORD
  5
1E
100
AcDbSymbolTableRecord
100
AcDbBlockTableRecord
  2
_OPEN30
  0
BLOCK_RECORD
  5
24
100
AcDbSymbolTableRecord
100
AcDbBlockTableRecord
  2
_BOXFILLED
  0
BLOCK_RECORD
  5
29
100
AcDbSymbolTableRecord
100
AcDbBlockTableRecord
  2
_BOXBLANK
  0
BLOCK_RECORD
  5
31
100
AcDbSymbolTableRecord
100
AcDbBlockTableRecord
  2
_OBLIQUE
  0
BLOCK_RECORD
  5
35
100
AcDbSymbolTableRecord
100
AcDbBlockTableRecord
  2
_OPEN90
  0
BLOCK_RECORD
  5
3B
100
AcDbSymbolTableRecord
100
AcDbBlockTableRecord
  2
_CLOSEDBLANK
  0
BLOCK_RECORD
  5
41
100
AcDbSymbolTableRecord
100
AcDbBlockTableRecord
  2
_DOTBLANK
  0
BLOCK_RECORD
  5
409
100
AcDbSymbolTableRecord
100
AcDbBlockTableRecord
  2
*D0
  0
BLOCK_RECORD
  5
40A
100
AcDbSymbolTableRecord
100
AcDbBlockTableRecord
  2
*D1
  0
BLOCK_RECORD
  5
40B
100
AcDbSymbolTableRecord
100
AcDbBlockTableRecord
  2
*D2
  0
BLOCK_RECORD
  5
40C
100
AcDbSymbolTableRecord
100
AcDbBlockTableRecord
  2
*D3
  0
BLOCK_RECORD
  5
40D
100
AcDbSymbolTableRecord
100
AcDbBlockTableRecord
  2
*D4
  0
BLOCK_RECORD
  5
40E
100
AcDbSymbolTableRecord
100
AcDbBlockTableRecord
  2
*D5
  0
BLOCK_RECORD
  5
40F
100
AcDbSymbolTableRecord
100
AcDbBlockTableRecord
  2
*D6
  0
BLOCK_RECORD
  5
410
100
AcDbSymbolTableRecord
100
AcDbBlockTableRecord
  2
*D7
  0
BLOCK_RECORD
  5
411
100
AcDbSymbolTableRecord
100
AcDbBlockTableRecord
  2
*D8
  0
BLOCK_RECORD
  5
412
100
AcDbSymbolTableRecord
100
AcDbBlockTableRecord
  2
*D9
  0
BLOCK_RECORD
  5
413
100
AcDbSymbolTableRecord
100
AcDbBlockTableRecord
  2
*D10
  0
BLOCK_RECORD
  5
414
100
AcDbSymbolTableRecord
100
AcDbBlockTableRecord
  2
*D11
  0
BLOCK_RECORD
  5
415
100
AcDbSymbolTableRecord
100
AcDbBlockTableRecord
  2
*D12
  0
BLOCK_RECORD
  5
416
100
AcDbSymbolTableRecord
100
AcDbBlockTableRecord
  2
*D13
  0
BLOCK_RECORD
  5
417
100
AcDbSymbolTableRecord
100
AcDbBlockTableRecord
  2
*D14
  0
BLOCK_RECORD
  5
418
100
AcDbSymbolTableRecord
100
AcDbBlockTableRecord
  2
D15
  0
BLOCK_RECORD
  5
419
100
AcDbSymbolTableRecord
100
AcDbBlockTableRecord
  2
*D16
  0
BLOCK_RECORD
  5
41A
100
AcDbSymbolTableRecord
100
AcDbBlockTableRecord
  2
*D17
  0
BLOCK_RECORD
  5
41B
100
AcDbSymbolTableRecord
100
AcDbBlockTableRecord
  2
M0
  0
BLOCK_RECORD
  5
41C
100
AcDbSymbolTableRecord
100
AcDbBlockTableRecord
  2
*D18
  0
BLOCK_RECORD
  5
41D
100
AcDbSymbolTableRecord
100
AcDbBlockTableRecord
  2
*D19
  0
BLOCK_RECORD
  5
41E
100
AcDbSymbolTableRecord
100
AcDbBlockTableRecord
  2
*D20
  0
BLOCK_RECORD
  5
41F
100
AcDbSymbolTableRecord
100
AcDbBlockTableRecord
  2
*D21
  0
BLOCK_RECORD
  5
420
100
AcDbSymbolTableRecord
100
AcDbBlockTableRecord
  2
*D22
  0
BLOCK_RECORD
  5
421
100
AcDbSymbolTableRecord
100
AcDbBlockTableRecord
  2
*D23
  0
BLOCK_RECORD
  5
422
100
AcDbSymbolTableRecord
100
AcDbBlockTableRecord
  2
*D24
  0
BLOCK_RECORD
  5
423
100
AcDbSymbolTableRecord
100
AcDbBlockTableRecord
  2
*D25
  0
BLOCK_RECORD
  5
424
100
AcDbSymbolTableRecord
100
AcDbBlockTableRecord
  2
*D26
  0
BLOCK_RECORD
  5
425
100
AcDbSymbolTableRecord
100
AcDbBlockTableRecord
  2
*D27
  0
BLOCK_RECORD
  5
426
100
AcDbSymbolTableRecord
100
AcDbBlockTableRecord
  2
*D28
  0
ENDTAB
  0
ENDSEC
  0
SECTION
  2
BLOCKS
  0
BLOCK
  5
427
100
AcDbEntity
  8
0
100
AcDbBlockBegin
  2
*MODEL_SPACE
 70
     0
 10
0.0
 20
0.0
 30
0.0
  3
*MODEL_SPACE
  1

  0
ENDBLK
  5
428
100
AcDbEntity
  8
0
100
AcDbBlockEnd
  0
BLOCK
  5
429
100
AcDbEntity
  8
0
100
AcDbBlockBegin
  2
*PAPER_SPACE
 70
     0
 10
0.0
 20
0.0
 30
0.0
  3
*PAPER_SPACE
  1

  0
ENDBLK
  5
42A
100
AcDbEntity
  8
0
100
AcDbBlockEnd
  0
BLOCK
  5
2
100
AcDbEntity
  8
0
100
AcDbBlockBegin
  2
_NONE
 70
     0
 10
0.0
 20
0.0
 30
0.0
  3
_NONE
  1

  0
ENDBLK
  5
3
100
AcDbEntity
  8
0
100
AcDbBlockEnd
  0
BLOCK
  5
5
100
AcDbEntity
  8
0
100
AcDbBlockBegin
  2
_CLOSED
 70
     0
 10
0.0
 20
0.0
 30
0.0
  3
_CLOSED
  1

  0
LINE
  5
6
100
AcDbEntity
  8
0
  6
BYBLOCK
 62
     0
100
AcDbLine
 10
-1.0
 20
0.166667
 30
0.0
 11
0.0
 21
0.0
 31
0.0
  0
LINE
  5
7
100
AcDbEntity
  8
0
  6
BYBLOCK
 62
     0
100
AcDbLine
 10
0.0
 20
0.0
 30
0.0
 11
-1.0
 21
-0.166667
 31
0.0
  0
LINE
  5
8
100
AcDbEntity
  8
0
  6
BYBLOCK
 62
     0
100
AcDbLine
 10
-1.0
 20
0.166667
 30
0.0
 11
-1.0
 21
-0.166667
 31
0.0
  0
LINE
  5
9
100
AcDbEntity
  8
0
  6
BYBLOCK
 62
     0
100
AcDbLine
 10
0.0
 20
0.0
 30
0.0
 11
-1.0
 21
0.0
 31
0.0
  0
ENDBLK
  5
A
100
AcDbEntity
  8
0
100
AcDbBlockEnd
  0
BLOCK
  5
C
100
AcDbEntity
  8
0
100
AcDbBlockBegin
  2
_DOT
 70
     0
 10
0.0
 20
0.0
 30
0.0
  3
_DOT
  1

  0
POLYLINE
  5
D
100
AcDbEntity
  8
0
  6
BYBLOCK
 62
     0
100
AcDb2dPolyline
 66
     1
 10
0.0
 20
0.0
 30
0.0
 70
     1
 40
0.5
 41
0.5
  0
VERTEX
  5
E
100
AcDbEntity
  8
0
  6
BYBLOCK
 62
     0
100
AcDbVertex
100
AcDb2dVertex
 10
-0.25
 20
0.0
 30
0.0
 42
1.0
  0
VERTEX
  5
F
100
AcDbEntity
  8
0
  6
BYBLOCK
 62
     0
100
AcDbVertex
100
AcDb2dVertex
 10
0.25
 20
0.0
 30
0.0
 42
1.0
  0
SEQEND
  5
10
100
AcDbEntity
  8
0
  6
BYBLOCK
 62
     0
  0
LINE
  5
11
100
AcDbEntity
  8
0
  6
BYBLOCK
 62
     0
100
AcDbLine
 10
-0.5
 20
0.0
 30
0.0
 11
-1.0
 21
0.0
 31
0.0
  0
ENDBLK
  5
12
100
AcDbEntity
  8
0
100
AcDbBlockEnd
  0
BLOCK
  5
14
100
AcDbEntity
  8
0
100
AcDbBlockBegin
  2
_OPEN
 70
     0
 10
0.0
 20
0.0
 30
0.0
  3
_OPEN
  1

  0
LINE
  5
15
100
AcDbEntity
  8
0
  6
BYBLOCK
 62
     0
100
AcDbLine
 10
-1.0
 20
0.166667
 30
0.0
 11
0.0
 21
0.0
 31
0.0
  0
LINE
  5
16
100
AcDbEntity
  8
0
  6
BYBLOCK
 62
     0
100
AcDbLine
 10
0.0
 20
0.0
 30
0.0
 11
-1.0
 21
-0.166667
 31
0.0
  0
LINE
  5
17
100
AcDbEntity
  8
0
  6
BYBLOCK
 62
     0
100
AcDbLine
 10
0.0
 20
0.0
 30
0.0
 11
-1.0
 21
0.0
 31
0.0
  0
ENDBLK
  5
18
100
AcDbEntity
  8
0
100
AcDbBlockEnd
  0
BLOCK
  5
1A
100
AcDbEntity
  8
0
100
AcDbBlockBegin
  2
_ORIGIN
 70
     0
 10
0.0
 20
0.0
 30
0.0
  3
_ORIGIN
  1

  0
CIRCLE
  5
1B
100
AcDbEntity
  8
0
  6
BYBLOCK
 62
     0
100
AcDbCircle
 10
0.0
 20
0.0
 30
0.0
 40
0.5
  0
LINE
  5
1C
100
AcDbEntity
  8
0
  6
BYBLOCK
 62
     0
100
AcDbLine
 10
0.0
 20
0.0
 30
0.0
 11
-1.0
 21
0.0
 31
0.0
  0
ENDBLK
  5
1D
100
AcDbEntity
  8
0
100
AcDbBlockEnd
  0
BLOCK
  5
1F
100
AcDbEntity
  8
0
100
AcDbBlockBegin
  2
_OPEN30
 70
     0
 10
0.0
 20
0.0
 30
0.0
  3
_OPEN30
  1

  0
LINE
  5
20
100
AcDbEntity
  8
0
  6
BYBLOCK
 62
     0
100
AcDbLine
 10
-1.0
 20
0.267949
 30
0.0
 11
0.0
 21
0.0
 31
0.0
  0
LINE
  5
21
100
AcDbEntity
  8
0
  6
BYBLOCK
 62
     0
100
AcDbLine
 10
0.0
 20
0.0
 30
0.0
 11
-1.0
 21
-0.267949
 31
0.0
  0
LINE
  5
22
100
AcDbEntity
  8
0
  6
BYBLOCK
 62
     0
100
AcDbLine
 10
0.0
 20
0.0
 30
0.0
 11
-1.0
 21
0.0
 31
0.0
  0
ENDBLK
  5
23
100
AcDbEntity
  8
0
100
AcDbBlockEnd
  0
BLOCK
  5
25
100
AcDbEntity
  8
0
100
AcDbBlockBegin
  2
_BOXFILLED
 70
     0
 10
0.0
 20
0.0
 30
0.0
  3
_BOXFILLED
  1

  0
SOLID
  5
26
100
AcDbEntity
  8
0
  6
BYBLOCK
 62
     0
100
AcDbTrace
 10
-0.5
 20
0.5
 30
0.0
 11
0.5
 21
0.5
 31
0.0
 12
-0.5
 22
-0.5
 32
0.0
 13
0.5
 23
-0.5
 33
0.0
  0
LINE
  5
27
100
AcDbEntity
  8
0
  6
BYBLOCK
 62
     0
100
AcDbLine
 10
-0.5
 20
0.0
 30
0.0
 11
-1.0
 21
0.0
 31
0.0
  0
ENDBLK
  5
28
100
AcDbEntity
  8
0
100
AcDbBlockEnd
  0
BLOCK
  5
2A
100
AcDbEntity
  8
0
100
AcDbBlockBegin
  2
_BOXBLANK
 70
     0
 10
0.0
 20
0.0
 30
0.0
  3
_BOXBLANK
  1

  0
LINE
  5
2B
100
AcDbEntity
  8
0
  6
BYBLOCK
 62
     0
100
AcDbLine
 10
-0.5
 20
-0.5
 30
0.0
 11
0.5
 21
-0.5
 31
0.0
  0
LINE
  5
2C
100
AcDbEntity
  8
0
  6
BYBLOCK
 62
     0
100
AcDbLine
 10
0.5
 20
-0.5
 30
0.0
 11
0.5
 21
0.5
 31
0.0
  0
LINE
  5
2D
100
AcDbEntity
  8
0
  6
BYBLOCK
 62
     0
100
AcDbLine
 10
0.5
 20
0.5
 30
0.0
 11
-0.5
 21
0.5
 31
0.0
  0
LINE
  5
2E
100
AcDbEntity
  8
0
  6
BYBLOCK
 62
     0
100
AcDbLine
 10
-0.5
 20
0.5
 30
0.0
 11
-0.5
 21
-0.5
 31
0.0
  0
LINE
  5
2F
100
AcDbEntity
  8
0
  6
BYBLOCK
 62
     0
100
AcDbLine
 10
-0.5
 20
0.0
 30
0.0
 11
-1.0
 21
0.0
 31
0.0
  0
ENDBLK
  5
30
100
AcDbEntity
  8
0
100
AcDbBlockEnd
  0
BLOCK
  5
32
100
AcDbEntity
  8
0
100
AcDbBlockBegin
  2
_OBLIQUE
 70
     0
 10
0.0
 20
0.0
 30
0.0
  3
_OBLIQUE
  1

  0
LINE
  5
33
100
AcDbEntity
  8
0
  6
BYBLOCK
 62
     0
100
AcDbLine
 10
-0.5
 20
-0.5
 30
0.0
 11
0.5
 21
0.5
 31
0.0
  0
ENDBLK
  5
34
100
AcDbEntity
  8
0
100
AcDbBlockEnd
  0
BLOCK
  5
36
100
AcDbEntity
  8
0
100
AcDbBlockBegin
  2
_OPEN90
 70
     0
 10
0.0
 20
0.0
 30
0.0
  3
_OPEN90
  1

  0
LINE
  5
37
100
AcDbEntity
  8
0
  6
BYBLOCK
 62
     0
100
AcDbLine
 10
-0.5
 20
0.5
 30
0.0
 11
0.0
 21
0.0
 31
0.0
  0
LINE
  5
38
100
AcDbEntity
  8
0
  6
BYBLOCK
 62
     0
100
AcDbLine
 10
0.0
 20
0.0
 30
0.0
 11
-0.5
 21
-0.5
 31
0.0
  0
LINE
  5
39
100
AcDbEntity
  8
0
  6
BYBLOCK
 62
     0
100
AcDbLine
 10
0.0
 20
0.0
 30
0.0
 11
-1.0
 21
0.0
 31
0.0
  0
ENDBLK
  5
3A
100
AcDbEntity
  8
0
100
AcDbBlockEnd
  0
BLOCK
  5
3C
100
AcDbEntity
  8
0
100
AcDbBlockBegin
  2
_CLOSEDBLANK
 70
     0
 10
0.0
 20
0.0
 30
0.0
  3
_CLOSEDBLANK
  1

  0
LINE
  5
3D
100
AcDbEntity
  8
0
  6
BYBLOCK
 62
     0
100
AcDbLine
 10
-1.0
 20
0.1666666666666666
 30
0.0
 11
0.0
 21
0.0
 31
0.0
  0
LINE
  5
3E
100
AcDbEntity
  8
0
  6
BYBLOCK
 62
     0
100
AcDbLine
 10
0.0
 20
0.0
 30
0.0
 11
-1.0
 21
-0.1666666666666666
 31
0.0
  0
LINE
  5
3F
100
AcDbEntity
  8
0
  6
BYBLOCK
 62
     0
100
AcDbLine
 10
-1.0
 20
0.1666666666666666
 30
0.0
 11
-1.0
 21
-0.1666666666666666
 31
0.0
  0
ENDBLK
  5
40
100
AcDbEntity
  8
0
100
AcDbBlockEnd
  0
BLOCK
  5
42
100
AcDbEntity
  8
0
100
AcDbBlockBegin
  2
_DOTBLANK
 70
     0
 10
0.0
 20
0.0
 30
0.0
  3
_DOTBLANK
  1

  0
CIRCLE
  5
43
100
AcDbEntity
  8
0
  6
BYBLOCK
 62
     0
100
AcDbCircle
 10
0.0
 20
0.0
 30
0.0
 40
0.5
  0
LINE
  5
44
100
AcDbEntity
  8
0
  6
BYBLOCK
 62
     0
100
AcDbLine
 10
-0.5
 20
0.0
 30
0.0
 11
-1.0
 21
0.0
 31
0.0
  0
ENDBLK
  5
45
100
AcDbEntity
  8
0
100
AcDbBlockEnd
  0
BLOCK
  5
54
100
AcDbEntity
  8
MAIN10
  6
CONTINUOUS
 62
12
100
AcDbBlockBegin
  2
*D0
 70
    65
 10
0.0
 20
0.0
 30
0.0
  0
LINE
  5
55
100
AcDbEntity
  8
MAIN10
  6
BYBLOCK
 62
0
100
AcDbLine
 10
473.3780474716846
 20
238.2649383903430
 30
0.0000000000000000
 11
473.3780474716846
 21
269.4349225456754
 31
0.0000000000000000
  0
LINE
  5
56
100
AcDbEntity
  8
MAIN10
  6
BYBLOCK
 62
0
100
AcDbLine
 10
475.2887196594897
 20
267.4349225456754
 30
0.0000000000000000
 11
516.4673752838789
 21
267.4349225456754
 31
0.0000000000000000
  0
INSERT
  5
57
100
AcDbEntity
  8
MAIN10
  6
BYBLOCK
 62
0
100
AcDbBlockReference
  2
_OPEN
 10
473.3780474716846
 20
267.4349225456754
 30
0.0000000000000000
 41
1.910672187805176
 42
1.910672187805176
 43
1.910672187805176
 50
180.0000000000000
  0
INSERT
  5
58
100
AcDbEntity
  8
MAIN10
  6
BYBLOCK
 62
0
100
AcDbBlockReference
  2
_OPEN
 10
518.3780474716841
 20
267.4349225456754
 30
0.0000000000000000
 41
1.910672187805176
 42
1.910672187805176
 43
1.910672187805176
 50
0.0000000000000000
  0
LINE
  5
59
100
AcDbEntity
  8
MAIN10
  6
BYBLOCK
 62
0
100
AcDbLine
 10
518.3780474716841
 20
244.2649383903421
 30
0.0000000000000000
 11
518.3780474716841
 21
269.4349225456754
 31
0.0000000000000000
  0
MTEXT
  5
5A
100
AcDbEntity
  8
MAIN10
  6
BYBLOCK
 62
0
100
AcDbMText
 10
496.0780482346240
 20
268.4349225456754
 30
0.0000000000000000
 40
3.100000381469727
 41
0.0000000000000000
 71
     1
 72
     1
  1
\A1;45
 11
1.000000000000000
 21
0.0000000000000000
 31
0.0000000000000000
  7
STANDARD
  0
ENDBLK
  5
5B
100
AcDbEntity
  8
MAIN10
  6
CONTINUOUS
 62
12
100
AcDbBlockEnd
  0
BLOCK
  5
5D
100
AcDbEntity
  8
MAIN10
  6
CONTINUOUS
 62
12
100
AcDbBlockBegin
  2
*D1
 70
    65
 10
0.0
 20
0.0
 30
0.0
  0
LINE
  5
5E
100
AcDbEntity
  8
MAIN10
  6
BYBLOCK
 62
0
100
AcDbLine
 10
513.3780474716841
 20
238.7649383903428
 30
0.0000000000000000
 11
513.3780474716841
 21
259.9849306777986
 31
0.0000000000000000
  0
LINE
  5
5F
100
AcDbEntity
  8
MAIN10
  6
BYBLOCK
 62
0
100
AcDbLine
 10
513.3780474716841
 20
257.9849306777986
 30
0.0000000000000000
 11
518.3780474716841
 21
257.9849306777986
 31
0.0000000000000000
  0
INSERT
  5
60
100
AcDbEntity
  8
MAIN10
  6
BYBLOCK
 62
0
100
AcDbBlockReference
  2
_OPEN
 10
513.3780474716841
 20
257.9849306777986
 30
0.0000000000000000
 41
1.910672187805176
 42
1.910672187805176
 43
1.910672187805176
 50
0.0000000000000000
  0
INSERT
  5
61
100
AcDbEntity
  8
MAIN10
  6
BYBLOCK
 62
0
100
AcDbBlockReference
  2
_OPEN
 10
518.3780474716841
 20
257.9849306777986
 30
0.0000000000000000
 41
1.910672187805176
 42
1.910672187805176
 43
1.910672187805176
 50
180.0000000000000
  0
LINE
  5
62
100
AcDbEntity
  8
MAIN10
  6
BYBLOCK
 62
0
100
AcDbLine
 10
511.4673752838789
 20
257.9849306777986
 30
0.0000000000000000
 11
510.3780474716841
 21
257.9849306777986
 31
0.0000000000000000
  0
LINE
  5
63
100
AcDbEntity
  8
MAIN10
  6
BYBLOCK
 62
0
100
AcDbLine
 10
520.2887196594893
 20
257.9849306777986
 30
0.0000000000000000
 11
521.3780474716841
 21
257.9849306777986
 31
0.0000000000000000
  0
LINE
  5
64
100
AcDbEntity
  8
MAIN10
  6
BYBLOCK
 62
0
100
AcDbLine
 10
518.3780474716841
 20
244.2649383903421
 30
0.0000000000000000
 11
518.3780474716841
 21
259.9849306777986
 31
0.0000000000000000
  0
MTEXT
  5
65
100
AcDbEntity
  8
MAIN10
  6
BYBLOCK
 62
0
100
AcDbMText
 10
516.0780477577864
 20
258.9849306777986
 30
0.0000000000000000
 40
3.100000381469727
 41
0.0000000000000000
 71
     1
 72
     1
  1
\A1;5
 11
1.000000000000000
 21
0.0000000000000000
 31
0.0000000000000000
  7
STANDARD
  0
ENDBLK
  5
66
100
AcDbEntity
  8
MAIN10
  6
CONTINUOUS
 62
12
100
AcDbBlockEnd
  0
BLOCK
  5
6A
100
AcDbEntity
  8
MAIN10
  6
CONTINUOUS
 62
12
100
AcDbBlockBegin
  2
*D2
 70
    65
 10
0.0
 20
0.0
 30
0.0
  0
LINE
  5
6B
100
AcDbEntity
  8
MAIN10
  6
BYBLOCK
 62
0
100
AcDbLine
 10
293.3780474716842
 20
251.4263170667311
 30
0.0000000000000000
 11
293.3780474716842
 21
329.3602111355277
 31
0.0000000000000000
  0
LINE
  5
6C
100
AcDbEntity
  8
MAIN10
  6
BYBLOCK
 62
0
100
AcDbLine
 10
295.2887196594894
 20
327.3602111355277
 30
0.0000000000000000
 11
460.4673752838794
 21
327.3602111355277
 31
0.0000000000000000
  0
INSERT
  5
6D
100
AcDbEntity
  8
MAIN10
  6
BYBLOCK
 62
0
100
AcDbBlockReference
  2
_OPEN
 10
293.3780474716842
 20
327.3602111355277
 30
0.0000000000000000
 41
1.910672187805176
 42
1.910672187805176
 43
1.910672187805176
 50
180.0000000000000
  0
INSERT
  5
6E
100
AcDbEntity
  8
MAIN10
  6
BYBLOCK
 62
0
100
AcDbBlockReference
  2
_OPEN
 10
462.3780474716846
 20
327.3602111355277
 30
0.0000000000000000
 41
1.910672187805176
 42
1.910672187805176
 43
1.910672187805176
 50
0.0000000000000000
  0
LINE
  5
6F
100
AcDbEntity
  8
MAIN10
  6
BYBLOCK
 62
0
100
AcDbLine
 10
462.3780474716846
 20
316.2649383903423
 30
0.0000000000000000
 11
462.3780474716846
 21
329.3602111355277
 31
0.0000000000000000
  0
MTEXT
  5
70
100
AcDbEntity
  8
MAIN10
  6
BYBLOCK
 62
0
100
AcDbMText
 10
377.8280473740819
 20
328.3602111355277
 30
0.0000000000000000
 40
3.099999904632568
 41
0.0000000000000000
 71
     1
 72
     1
  1
\A1;169
 11
1.000000000000000
 21
0.0000000000000000
 31
0.0000000000000000
  7
STANDARD
  0
ENDBLK
  5
71
100
AcDbEntity
  8
MAIN10
  6
CONTINUOUS
 62
12
100
AcDbBlockEnd
  0
BLOCK
  5
73
100
AcDbEntity
  8
MAIN10
  6
CONTINUOUS
 62
12
100
AcDbBlockBegin
  2
*D3
 70
    65
 10
0.0
 20
0.0
 30
0.0
  0
LINE
  5
74
100
AcDbEntity
  8
MAIN10
  6
BYBLOCK
 62
0
100
AcDbLine
 10
193.3780474716846
 20
266.2649383903423
 30
0.0000000000000000
 11
193.3780474716846
 21
339.3602111355277
 31
0.0000000000000000
  0
LINE
  5
75
100
AcDbEntity
  8
MAIN10
  6
BYBLOCK
 62
0
100
AcDbLine
 10
195.2887196594898
 20
337.3602111355277
 30
0.0000000000000000
 11
354.4673752838794
 21
337.3602111355277
 31
0.0000000000000000
  0
INSERT
  5
76
100
AcDbEntity
  8
MAIN10
  6
BYBLOCK
 62
0
100
AcDbBlockReference
  2
_OPEN
 10
193.3780474716846
 20
337.3602111355277
 30
0.0000000000000000
 41
1.910672187805176
 42
1.910672187805176
 43
1.910672187805176
 50
180.0000000000000
  0
INSERT
  5
77
100
AcDbEntity
  8
MAIN10
  6
BYBLOCK
 62
0
100
AcDbBlockReference
  2
_OPEN
 10
356.3780474716846
 20
337.3602111355277
 30
0.0000000000000000
 41
1.910672187805176
 42
1.910672187805176
 43
1.910672187805176
 50
0.0000000000000000
  0
LINE
  5
78
100
AcDbEntity
  8
MAIN10
  6
BYBLOCK
 62
0
100
AcDbLine
 10
356.3780474716846
 20
317.2649383903423
 30
0.0000000000000000
 11
356.3780474716846
 21
339.3602111355277
 31
0.0000000000000000
  0
MTEXT
  5
79
100
AcDbEntity
  8
MAIN10
  6
BYBLOCK
 62
0
100
AcDbMText
 10
274.8280473740817
 20
338.3602111355277
 30
0.0000000000000000
 40
3.099999904632568
 41
0.0000000000000000
 71
     1
 72
     1
  1
\A1;163
 11
1.000000000000000
 21
0.0000000000000000
 31
0.0000000000000000
  7
STANDARD
  0
ENDBLK
  5
7A
100
AcDbEntity
  8
MAIN10
  6
CONTINUOUS
 62
12
100
AcDbBlockEnd
  0
BLOCK
  5
7C
100
AcDbEntity
  8
MAIN10
  6
CONTINUOUS
 62
12
100
AcDbBlockBegin
  2
*D4
 70
    65
 10
0.0
 20
0.0
 30
0.0
  0
LINE
  5
7D
100
AcDbEntity
  8
MAIN10
  6
BYBLOCK
 62
0
100
AcDbLine
 10
356.3780474716846
 20
317.2649383903423
 30
0.0000000000000000
 11
356.3780474716846
 21
339.3602111355277
 31
0.0000000000000000
  0
LINE
  5
7E
100
AcDbEntity
  8
MAIN10
  6
BYBLOCK
 62
0
100
AcDbLine
 10
358.2887196594897
 20
337.3602111355277
 30
0.0000000000000000
 11
460.4673752838794
 21
337.3602111355277
 31
0.0000000000000000
  0
INSERT
  5
7F
100
AcDbEntity
  8
MAIN10
  6
BYBLOCK
 62
0
100
AcDbBlockReference
  2
_OPEN
 10
356.3780474716846
 20
337.3602111355277
 30
0.0000000000000000
 41
1.910672187805176
 42
1.910672187805176
 43
1.910672187805176
 50
180.0000000000000
  0
INSERT
  5
80
100
AcDbEntity
  8
MAIN10
  6
BYBLOCK
 62
0
100
AcDbBlockReference
  2
_OPEN
 10
462.3780474716846
 20
337.3602111355277
 30
0.0000000000000000
 41
1.910672187805176
 42
1.910672187805176
 43
1.910672187805176
 50
0.0000000000000000
  0
LINE
  5
81
100
AcDbEntity
  8
MAIN10
  6
BYBLOCK
 62
0
100
AcDbLine
 10
462.3780474716846
 20
316.2649383903423
 30
0.0000000000000000
 11
462.3780474716846
 21
339.3602111355277
 31
0.0000000000000000
  0
MTEXT
  5
82
100
AcDbEntity
  8
MAIN10
  6
BYBLOCK
 62
0
100
AcDbMText
 10
409.3280473740820
 20
338.3602111355277
 30
0.0000000000000000
 40
3.099999904632568
 41
0.0000000000000000
 71
     1
 72
     1
  1
\A1;106
 11
1.000000000000000
 21
0.0000000000000000
 31
0.0000000000000000
  7
STANDARD
  0
ENDBLK
  5
83
100
AcDbEntity
  8
MAIN10
  6
CONTINUOUS
 62
12
100
AcDbBlockEnd
  0
BLOCK
  5
85
100
AcDbEntity
  8
MAIN10
  6
CONTINUOUS
 62
12
100
AcDbBlockBegin
  2
*D5
 70
    65
 10
0.0
 20
0.0
 30
0.0
  0
LINE
  5
86
100
AcDbEntity
  8
MAIN10
  6
BYBLOCK
 62
0
100
AcDbLine
 10
462.3780474716846
 20
316.2649383903423
 30
0.0000000000000000
 11
462.3780474716846
 21
339.3602111355277
 31
0.0000000000000000
  0
LINE
  5
87
100
AcDbEntity
  8
MAIN10
  6
BYBLOCK
 62
0
100
AcDbLine
 10
462.3780474716846
 20
337.3602111355277
 30
0.0000000000000000
 11
467.3780474716846
 21
337.3602111355277
 31
0.0000000000000000
  0
INSERT
  5
88
100
AcDbEntity
  8
MAIN10
  6
BYBLOCK
 62
0
100
AcDbBlockReference
  2
_OPEN
 10
462.3780474716846
 20
337.3602111355277
 30
0.0000000000000000
 41
1.910672187805176
 42
1.910672187805176
 43
1.910672187805176
 50
0.0000000000000000
  0
INSERT
  5
89
100
AcDbEntity
  8
MAIN10
  6
BYBLOCK
 62
0
100
AcDbBlockReference
  2
_OPEN
 10
467.3780474716846
 20
337.3602111355277
 30
0.0000000000000000
 41
1.910672187805176
 42
1.910672187805176
 43
1.910672187805176
 50
180.0000000000000
  0
LINE
  5
8A
100
AcDbEntity
  8
MAIN10
  6
BYBLOCK
 62
0
100
AcDbLine
 10
460.4673752838794
 20
337.3602111355277
 30
0.0000000000000000
 11
459.3780474716846
 21
337.3602111355277
 31
0.0000000000000000
  0
LINE
  5
8B
100
AcDbEntity
  8
MAIN10
  6
BYBLOCK
 62
0
100
AcDbLine
 10
469.2887196594897
 20
337.3602111355277
 30
0.0000000000000000
 11
470.3780474716846
 21
337.3602111355277
 31
0.0000000000000000
  0
LINE
  5
8C
100
AcDbEntity
  8
MAIN10
  6
BYBLOCK
 62
0
100
AcDbLine
 10
467.3780474716846
 20
278.2649383903423
 30
0.0000000000000000
 11
467.3780474716846
 21
339.3602111355277
 31
0.0000000000000000
  0
MTEXT
  5
8D
100
AcDbEntity
  8
MAIN10
  6
BYBLOCK
 62
0
100
AcDbMText
 10
464.8280474709395
 20
338.3602111355277
 30
0.0000000000000000
 40
3.099999904632568
 41
0.0000000000000000
 71
     1
 72
     1
  1
\A1;5
 11
1.000000000000000
 21
0.0000000000000000
 31
0.0000000000000000
  7
STANDARD
  0
ENDBLK
  5
8E
100
AcDbEntity
  8
MAIN10
  6
CONTINUOUS
 62
12
100
AcDbBlockEnd
  0
BLOCK
  5
90
100
AcDbEntity
  8
MAIN10
  6
CONTINUOUS
 62
12
100
AcDbBlockBegin
  2
*D6
 70
    65
 10
0.0
 20
0.0
 30
0.0
  0
LINE
  5
91
100
AcDbEntity
  8
MAIN10
  6
BYBLOCK
 62
0
100
AcDbLine
 10
287.3780474716843
 20
168.5303240671375
 30
0.0000000000000000
 11
287.3780474716843
 21
106.0182253403895
 31
0.0000000000000000
  0
LINE
  5
92
100
AcDbEntity
  8
MAIN10
  6
BYBLOCK
 62
0
100
AcDbLine
 10
289.2887196594895
 20
108.0182253403895
 30
0.0000000000000000
 11
460.4673752838794
 21
108.0182253403895
 31
0.0000000000000000
  0
INSERT
  5
93
100
AcDbEntity
  8
MAIN10
  6
BYBLOCK
 62
0
100
AcDbBlockReference
  2
_OPEN
 10
287.3780474716843
 20
108.0182253403895
 30
0.0000000000000000
 41
1.910672187805176
 42
1.910672187805176
 43
1.910672187805176
 50
180.0000000000000
  0
INSERT
  5
94
100
AcDbEntity
  8
MAIN10
  6
BYBLOCK
 62
0
100
AcDbBlockReference
  2
_OPEN
 10
462.3780474716846
 20
108.0182253403895
 30
0.0000000000000000
 41
1.910672187805176
 42
1.910672187805176
 43
1.910672187805176
 50
0.0000000000000000
  0
LINE
  5
95
100
AcDbEntity
  8
MAIN10
  6
BYBLOCK
 62
0
100
AcDbLine
 10
462.3780474716846
 20
128.6649383665006
 30
0.0000000000000000
 11
462.3780474716846
 21
106.0182253403895
 31
0.0000000000000000
  0
MTEXT
  5
96
100
AcDbEntity
  8
MAIN10
  6
BYBLOCK
 62
0
100
AcDbMText
 10
374.8280473740819
 20
109.0182253403895
 30
0.0000000000000000
 40
3.099999904632568
 41
0.0000000000000000
 71
     1
 72
     1
  1
\A1;175
 11
1.000000000000000
 21
0.0000000000000000
 31
0.0000000000000000
  7
STANDARD
  0
ENDBLK
  5
97
100
AcDbEntity
  8
MAIN10
  6
CONTINUOUS
 62
12
100
AcDbBlockEnd
  0
BLOCK
  5
99
100
AcDbEntity
  8
MAIN10
  6
CONTINUOUS
 62
12
100
AcDbBlockBegin
  2
*D7
 70
    65
 10
0.0
 20
0.0
 30
0.0
  0
LINE
  5
9A
100
AcDbEntity
  8
MAIN10
  6
BYBLOCK
 62
0
100
AcDbLine
 10
193.3780474716846
 20
266.2649383903423
 30
0.0000000000000000
 11
193.3780474716846
 21
349.3602111355277
 31
0.0000000000000000
  0
LINE
  5
9B
100
AcDbEntity
  8
MAIN10
  6
BYBLOCK
 62
0
100
AcDbLine
 10
195.2887196594898
 20
347.3602111355277
 30
0.0000000000000000
 11
460.4673752838794
 21
347.3602111355277
 31
0.0000000000000000
  0
INSERT
  5
9C
100
AcDbEntity
  8
MAIN10
  6
BYBLOCK
 62
0
100
AcDbBlockReference
  2
_OPEN
 10
193.3780474716846
 20
347.3602111355277
 30
0.0000000000000000
 41
1.910672187805176
 42
1.910672187805176
 43
1.910672187805176
 50
180.0000000000000
  0
INSERT
  5
9D
100
AcDbEntity
  8
MAIN10
  6
BYBLOCK
 62
0
100
AcDbBlockReference
  2
_OPEN
 10
462.3780474716846
 20
347.3602111355277
 30
0.0000000000000000
 41
1.910672187805176
 42
1.910672187805176
 43
1.910672187805176
 50
0.0000000000000000
  0
LINE
  5
9E
100
AcDbEntity
  8
MAIN10
  6
BYBLOCK
 62
0
100
AcDbLine
 10
462.3780474716846
 20
316.2649383903423
 30
0.0000000000000000
 11
462.3780474716846
 21
349.3602111355277
 31
0.0000000000000000
  0
MTEXT
  5
9F
100
AcDbEntity
  8
MAIN10
  6
BYBLOCK
 62
0
100
AcDbMText
 10
327.8280473740819
 20
348.3602111355277
 30
0.0000000000000000
 40
3.099999904632568
 41
0.0000000000000000
 71
     1
 72
     1
  1
\A1;269
 11
1.000000000000000
 21
0.0000000000000000
 31
0.0000000000000000
  7
STANDARD
  0
ENDBLK
  5
A0
100
AcDbEntity
  8
MAIN10
  6
CONTINUOUS
 62
12
100
AcDbBlockEnd
  0
BLOCK
  5
A2
100
AcDbEntity
  8
MAIN10
  6
CONTINUOUS
 62
12
100
AcDbBlockBegin
  2
*D8
 70
    65
 10
0.0
 20
0.0
 30
0.0
  0
LINE
  5
A3
100
AcDbEntity
  8
MAIN10
  6
BYBLOCK
 62
0
100
AcDbLine
 10
462.3780474716846
 20
316.2649383903423
 30
0.0000000000000000
 11
462.3780474716846
 21
349.3602111355277
 31
0.0000000000000000
  0
LINE
  5
A4
100
AcDbEntity
  8
MAIN10
  6
BYBLOCK
 62
0
100
AcDbLine
 10
464.2887196594897
 20
347.3602111355277
 30
0.0000000000000000
 11
516.4673752838789
 21
347.3602111355277
 31
0.0000000000000000
  0
INSERT
  5
A5
100
AcDbEntity
  8
MAIN10
  6
BYBLOCK
 62
0
100
AcDbBlockReference
  2
_OPEN
 10
462.3780474716846
 20
347.3602111355277
 30
0.0000000000000000
 41
1.910672187805176
 42
1.910672187805176
 43
1.910672187805176
 50
180.0000000000000
  0
INSERT
  5
A6
100
AcDbEntity
  8
MAIN10
  6
BYBLOCK
 62
0
100
AcDbBlockReference
  2
_OPEN
 10
518.3780474716841
 20
347.3602111355277
 30
0.0000000000000000
 41
1.910672187805176
 42
1.910672187805176
 43
1.910672187805176
 50
0.0000000000000000
  0
LINE
  5
A7
100
AcDbEntity
  8
MAIN10
  6
BYBLOCK
 62
0
100
AcDbLine
 10
518.3780474716841
 20
244.2649383903421
 30
0.0000000000000000
 11
518.3780474716841
 21
349.3602111355277
 31
0.0000000000000000
  0
MTEXT
  5
A8
100
AcDbEntity
  8
MAIN10
  6
BYBLOCK
 62
0
100
AcDbMText
 10
490.3280508050743
 20
348.3602111355277
 30
0.0000000000000000
 40
3.099999904632568
 41
0.0000000000000000
 71
     1
 72
     1
  1
\A1;MAX 56
 11
1.000000000000000
 21
0.0000000000000000
 31
0.0000000000000000
  7
STANDARD
  0
ENDBLK
  5
A9
100
AcDbEntity
  8
MAIN10
  6
CONTINUOUS
 62
12
100
AcDbBlockEnd
  0
BLOCK
  5
AB
100
AcDbEntity
  8
MAIN10
  6
CONTINUOUS
 62
12
100
AcDbBlockBegin
  2
*D9
 70
    65
 10
0.0
 20
0.0
 30
0.0
  0
LINE
  5
AC
100
AcDbEntity
  8
MAIN10
  6
BYBLOCK
 62
0
100
AcDbLine
 10
72.39731746262939
 20
195.6106226078231
 30
0.0000000000000000
 11
72.39731746262939
 21
149.4565756495167
 31
0.0000000000000000
  0
LINE
  5
AD
100
AcDbEntity
  8
MAIN10
  6
BYBLOCK
 62
0
100
AcDbLine
 10
74.30798965043456
 20
151.4565756495167
 30
0.0000000000000000
 11
110.4866452748242
 21
151.4565756495167
 31
0.0000000000000000
  0
INSERT
  5
AE
100
AcDbEntity
  8
MAIN10
  6
BYBLOCK
 62
0
100
AcDbBlockReference
  2
_OPEN
 10
72.39731746262939
 20
151.4565756495167
 30
0.0000000000000000
 41
1.910672187805176
 42
1.910672187805176
 43
1.910672187805176
 50
180.0000000000000
  0
INSERT
  5
AF
100
AcDbEntity
  8
MAIN10
  6
BYBLOCK
 62
0
100
AcDbBlockReference
  2
_OPEN
 10
112.3973174626294
 20
151.4565756495167
 30
0.0000000000000000
 41
1.910672187805176
 42
1.910672187805176
 43
1.910672187805176
 50
0.0000000000000000
  0
LINE
  5
B0
100
AcDbEntity
  8
MAIN10
  6
BYBLOCK
 62
0
100
AcDbLine
 10
112.3973174626294
 20
167.7211469087403
 30
0.0000000000000000
 11
112.3973174626294
 21
149.4565756495167
 31
0.0000000000000000
  0
MTEXT
  5
B1
100
AcDbEntity
  8
MAIN10
  6
BYBLOCK
 62
0
100
AcDbMText
 10
92.34731789029272
 20
152.4565756495167
 30
0.0000000000000000
 40
3.099999904632568
 41
0.0000000000000000
 71
     1
 72
     1
  1
\A1;40
 11
1.000000000000000
 21
0.0000000000000000
 31
0.0000000000000000
  7
STANDARD
  0
ENDBLK
  5
B2
100
AcDbEntity
  8
MAIN10
  6
CONTINUOUS
 62
12
100
AcDbBlockEnd
  0
BLOCK
  5
B4
100
AcDbEntity
  8
MAIN10
  6
CONTINUOUS
 62
12
100
AcDbBlockBegin
  2
*D10
 70
    65
 10
0.0
 20
0.0
 30
0.0
  0
LINE
  5
B5
100
AcDbEntity
  8
MAIN10
  6
BYBLOCK
 62
0
100
AcDbLine
 10
112.3973174626294
 20
167.7211469087403
 30
0.0000000000000000
 11
112.3973174626294
 21
149.4565756495167
 31
0.0000000000000000
  0
LINE
  5
B6
100
AcDbEntity
  8
MAIN10
  6
BYBLOCK
 62
0
100
AcDbLine
 10
114.3079896504346
 20
151.4565756495167
 30
0.0000000000000000
 11
150.4866452748242
 21
151.4565756495167
 31
0.0000000000000000
  0
INSERT
  5
B7
100
AcDbEntity
  8
MAIN10
  6
BYBLOCK
 62
0
100
AcDbBlockReference
  2
_OPEN
 10
112.3973174626294
 20
151.4565756495167
 30
0.0000000000000000
 41
1.910672187805176
 42
1.910672187805176
 43
1.910672187805176
 50
180.0000000000000
  0
INSERT
  5
B8
100
AcDbEntity
  8
MAIN10
  6
BYBLOCK
 62
0
100
AcDbBlockReference
  2
_OPEN
 10
152.3973174626294
 20
151.4565756495167
 30
0.0000000000000000
 41
1.910672187805176
 42
1.910672187805176
 43
1.910672187805176
 50
0.0000000000000000
  0
LINE
  5
B9
100
AcDbEntity
  8
MAIN10
  6
BYBLOCK
 62
0
100
AcDbLine
 10
152.3973174626294
 20
195.6106226078231
 30
0.0000000000000000
 11
152.3973174626294
 21
149.4565756495167
 31
0.0000000000000000
  0
MTEXT
  5
BA
100
AcDbEntity
  8
MAIN10
  6
BYBLOCK
 62
0
100
AcDbMText
 10
132.3473178902927
 20
152.4565756495167
 30
0.0000000000000000
 40
3.099999904632568
 41
0.0000000000000000
 71
     1
 72
     1
  1
\A1;40
 11
1.000000000000000
 21
0.0000000000000000
 31
0.0000000000000000
  7
STANDARD
  0
ENDBLK
  5
BB
100
AcDbEntity
  8
MAIN10
  6
CONTINUOUS
 62
12
100
AcDbBlockEnd
  0
BLOCK
  5
BD
100
AcDbEntity
  8
MAIN10
  6
CONTINUOUS
 62
3
100
AcDbBlockBegin
  2
*D11
 70
    65
 10
0.0
 20
0.0
 30
0.0
  0
LINE
  5
BE
100
AcDbEntity
  8
MAIN10
  6
BYBLOCK
 62
0
100
AcDbLine
 10
461.1780474836055
 20
127.4649383784216
 30
0.0000000000000000
 11
575.3780474716841
 21
127.4649383784216
 31
0.0000000000000000
  0
LINE
  5
BF
100
AcDbEntity
  8
MAIN10
  6
BYBLOCK
 62
0
100
AcDbLine
 10
573.3780474716841
 20
129.4649383784216
 30
0.0000000000000000
 11
573.3780474716841
 21
315.4649383784213
 31
0.0000000000000000
  0
INSERT
  5
C0
100
AcDbEntity
  8
MAIN10
  6
BYBLOCK
 62
0
100
AcDbBlockReference
  2
_OPEN
 10
573.3780474716841
 20
127.4649383784216
 30
0.0000000000000000
 41
2.000000000000000
 42
2.000000000000000
 43
2.000000000000000
 50
270.0000000000000
  0
INSERT
  5
C1
100
AcDbEntity
  8
MAIN10
  6
BYBLOCK
 62
0
100
AcDbBlockReference
  2
_OPEN
 10
573.3780474716841
 20
317.4649383784213
 30
0.0000000000000000
 41
2.000000000000000
 42
2.000000000000000
 43
2.000000000000000
 50
90.00000000000000
  0
LINE
  5
C2
100
AcDbEntity
  8
MAIN10
  6
BYBLOCK
 62
0
100
AcDbLine
 10
461.1780474836055
 20
317.4649383784213
 30
0.0000000000000000
 11
575.3780474716841
 21
317.4649383784213
 31
0.0000000000000000
  0
MTEXT
  5
C3
100
AcDbEntity
  8
MAIN10
  6
BYBLOCK
 62
0
100
AcDbMText
 10
571.3280475193678
 20
222.4649383784214
 30
0.0000000000000000
 40
3.099999904632568
 41
0.0000000000000000
 71
     5
 72
     1
  1
\A1;\U+2205190
 11
6.123233995736766e-017
 21
1.000000000000000
 31
0.0000000000000000
  7
STANDARD
  0
ENDBLK
  5
C4
100
AcDbEntity
  8
MAIN10
  6
CONTINUOUS
 62
3
100
AcDbBlockEnd
  0
BLOCK
  5
C6
100
AcDbEntity
  8
MAIN10
  6
CONTINUOUS
 62
3
100
AcDbBlockBegin
  2
*D12
 70
    65
 10
0.0
 20
0.0
 30
0.0
  0
LINE
  5
C7
100
AcDbEntity
  8
MAIN10
  6
BYBLOCK
 62
0
100
AcDbLine
 10
468.1780474836055
 20
277.4649383784214
 30
0.0000000000000000
 11
555.3780474716841
 21
277.4649383784214
 31
0.0000000000000000
  0
LINE
  5
C8
100
AcDbEntity
  8
MAIN10
  6
BYBLOCK
 62
0
100
AcDbLine
 10
553.3780474716841
 20
275.4649383784214
 30
0.0000000000000000
 11
553.3780474716841
 21
169.4649383784215
 31
0.0000000000000000
  0
INSERT
  5
C9
100
AcDbEntity
  8
MAIN10
  6
BYBLOCK
 62
0
100
AcDbBlockReference
  2
_OPEN
 10
553.3780474716841
 20
277.4649383784214
 30
0.0000000000000000
 41
2.000000000000000
 42
2.000000000000000
 43
2.000000000000000
 50
90.00000000000000
  0
INSERT
  5
CA
100
AcDbEntity
  8
MAIN10
  6
BYBLOCK
 62
0
100
AcDbBlockReference
  2
_OPEN
 10
553.3780474716841
 20
167.4649383784215
 30
0.0000000000000000
 41
2.000000000000000
 42
2.000000000000000
 43
2.000000000000000
 50
270.0000000000000
  0
LINE
  5
CB
100
AcDbEntity
  8
MAIN10
  6
BYBLOCK
 62
0
100
AcDbLine
 10
468.1780474836055
 20
167.4649383784215
 30
0.0000000000000000
 11
555.3780474716841
 21
167.4649383784215
 31
0.0000000000000000
  0
MTEXT
  5
CC
100
AcDbEntity
  8
MAIN10
  6
BYBLOCK
 62
0
100
AcDbMText
 10
551.3280475193678
 20
222.4649383784214
 30
0.0000000000000000
 40
3.099999904632568
 41
0.0000000000000000
 71
     5
 72
     1
  1
\A1;\U+2205110h7
 11
6.123233995736766e-017
 21
1.000000000000000
 31
0.0000000000000000
  7
STANDARD
  0
ENDBLK
  5
CD
100
AcDbEntity
  8
MAIN10
  6
CONTINUOUS
 62
3
100
AcDbBlockEnd
  0
BLOCK
  5
CF
100
AcDbEntity
  8
MAIN10
  6
CONTINUOUS
 62
3
100
AcDbBlockBegin
  2
*D13
 70
    65
 10
0.0
 20
0.0
 30
0.0
  0
LINE
  5
D0
100
AcDbEntity
  8
MAIN10
  6
BYBLOCK
 62
0
100
AcDbLine
 10
493.3120220798205
 20
244.9649383784212
 30
0.0000000000000000
 11
545.3780474716841
 21
244.9649383784212
 31
0.0000000000000000
  0
LINE
  5
D1
100
AcDbEntity
  8
MAIN10
  6
BYBLOCK
 62
0
100
AcDbLine
 10
543.3780474716841
 20
242.9649383784212
 30
0.0000000000000000
 11
543.3780474716841
 21
201.9649383784217
 31
0.0000000000000000
  0
INSERT
  5
D2
100
AcDbEntity
  8
MAIN10
  6
BYBLOCK
 62
0
100
AcDbBlockReference
  2
_OPEN
 10
543.3780474716841
 20
244.9649383784212
 30
0.0000000000000000
 41
2.000000000000000
 42
2.000000000000000
 43
2.000000000000000
 50
90.00000000000000
  0
INSERT
  5
D3
100
AcDbEntity
  8
MAIN10
  6
BYBLOCK
 62
0
100
AcDbBlockReference
  2
_OPEN
 10
543.3780474716841
 20
199.9649383784217
 30
0.0000000000000000
 41
2.000000000000000
 42
2.000000000000000
 43
2.000000000000000
 50
270.0000000000000
  0
LINE
  5
D4
100
AcDbEntity
  8
MAIN10
  6
BYBLOCK
 62
0
100
AcDbLine
 10
493.3120220798205
 20
199.9649383784217
 30
0.0000000000000000
 11
545.3780474716841
 21
199.9649383784217
 31
0.0000000000000000
  0
MTEXT
  5
D5
100
AcDbEntity
  8
MAIN10
  6
BYBLOCK
 62
0
100
AcDbMText
 10
541.3280475193678
 20
222.4649383784214
 30
0.0000000000000000
 40
3.099999904632568
 41
0.0000000000000000
 71
     5
 72
     1
  1
\A1;\U+220545
 11
6.123233995736766e-017
 21
1.000000000000000
 31
0.0000000000000000
  7
STANDARD
  0
ENDBLK
  5
D6
100
AcDbEntity
  8
MAIN10
  6
CONTINUOUS
 62
3
100
AcDbBlockEnd
  0
BLOCK
  5
D8
100
AcDbEntity
  8
MAIN10
  6
CONTINUOUS
 62
3
100
AcDbBlockBegin
  2
*D14
 70
    65
 10
0.0
 20
0.0
 30
0.0
  0
LINE
  5
D9
100
AcDbEntity
  8
MAIN10
  6
BYBLOCK
 62
0
100
AcDbLine
 10
518.3120220798191
 20
237.9649383784220
 30
0.0000000000000000
 11
535.3780474716841
 21
237.9649383784220
 31
0.0000000000000000
  0
LINE
  5
DA
100
AcDbEntity
  8
MAIN10
  6
BYBLOCK
 62
0
100
AcDbLine
 10
533.3780474716841
 20
235.9649383784220
 30
0.0000000000000000
 11
533.3780474716841
 21
208.9649383784209
 31
0.0000000000000000
  0
INSERT
  5
DB
100
AcDbEntity
  8
MAIN10
  6
BYBLOCK
 62
0
100
AcDbBlockReference
  2
_OPEN
 10
533.3780474716841
 20
237.9649383784220
 30
0.0000000000000000
 41
2.000000000000000
 42
2.000000000000000
 43
2.000000000000000
 50
90.00000000000000
  0
INSERT
  5
DC
100
AcDbEntity
  8
MAIN10
  6
BYBLOCK
 62
0
100
AcDbBlockReference
  2
_OPEN
 10
533.3780474716841
 20
206.9649383784209
 30
0.0000000000000000
 41
2.000000000000000
 42
2.000000000000000
 43
2.000000000000000
 50
270.0000000000000
  0
LINE
  5
DD
100
AcDbEntity
  8
MAIN10
  6
BYBLOCK
 62
0
100
AcDbLine
 10
518.3120220798191
 20
206.9649383784209
 30
0.0000000000000000
 11
535.3780474716841
 21
206.9649383784209
 31
0.0000000000000000
  0
MTEXT
  5
DE
100
AcDbEntity
  8
MAIN10
  6
BYBLOCK
 62
0
100
AcDbMText
 10
531.3280475193678
 20
222.4649383784214
 30
0.0000000000000000
 40
3.099999904632568
 41
0.0000000000000000
 71
     5
 72
     1
  1
\A1;\U+220531H8
 11
6.123233995736766e-017
 21
1.000000000000000
 31
0.0000000000000000
  7
STANDARD
  0
ENDBLK
  5
DF
100
AcDbEntity
  8
MAIN10
  6
CONTINUOUS
 62
3
100
AcDbBlockEnd
  0
BLOCK
  5
E1
100
AcDbEntity
  8
MAIN10
  6
CONTINUOUS
 62
3
100
AcDbBlockBegin
  2
D15
 70
    64
 10
0.0
 20
0.0
 30
0.0
  0
LINE
  5
E2
100
AcDbEntity
  8
MAIN10
  6
BYBLOCK
 62
0
100
AcDbLine
 10
37.49347724350810
 20
9.108950374933761
 30
0.0000000000000000
 11
37.49347724350810
 21
-65.00000000000026
 31
0.0000000000000000
  0
LINE
  5
E3
100
AcDbEntity
  8
MAIN10
  6
BYBLOCK
 62
0
100
AcDbLine
 10
38.09347726734995
 20
-63.00000000000026
 30
0.0000000000000000
 11
37.49347724350810
 21
-65.00000000000026
 31
0.0000000000000000
  0
LINE
  5
E4
100
AcDbEntity
  8
MAIN10
  6
BYBLOCK
 62
0
100
AcDbLine
 10
37.49347724350810
 20
-65.00000000000026
 30
0.0000000000000000
 11
36.89347721966624
 21
-63.00000000000026
 31
0.0000000000000000
  0
LINE
  5
E5
100
AcDbEntity
  8
MAIN10
  6
BYBLOCK
 62
0
100
AcDbLine
 10
-59.32697055348888
 20
-65.00000000000026
 30
0.0000000000000000
 11
39.49347724350810
 21
-65.00000000000026
 31
0.0000000000000000
  0
MTEXT
  5
E6
100
AcDbEntity
  8
MAIN10
  6
BYBLOCK
 62
0
100
AcDbMText
 10
35.44347729119181
 20
-0.5160499991088113
 30
0.0000000000000000
 40
3.099999904632568
 41
0.0000000000000000
 71
     5
 72
     1
  1
\A1;\U+2205130\H0.903226x;\U+00B10.2
 11
6.123233995736766e-017
 21
1.000000000000000
 31
0.0000000000000000
  7
STANDARD
  0
ENDBLK
  5
E7
100
AcDbEntity
  8
MAIN10
  6
CONTINUOUS
 62
3
100
AcDbBlockEnd
  0
BLOCK
  5
10A
100
AcDbEntity
  8
MAIN10
  6
CONTINUOUS
 62
3
100
AcDbBlockBegin
  2
*D16
 70
    65
 10
0.0
 20
0.0
 30
0.0
  0
LINE
  5
10B
100
AcDbEntity
  8
MAIN10
  6
BYBLOCK
 62
0
100
AcDbLine
 10
237.3780474716836
 20
253.2649383903417
 30
0.0000000000000000
 11
237.3780474716836
 21
257.4649383784212
 31
0.0000000000000000
  0
LINE
  5
10C
100
AcDbEntity
  8
MAIN10
  6
BYBLOCK
 62
0
100
AcDbLine
 10
237.3780474716836
 20
255.4649383784212
 30
0.0000000000000000
 11
241.3780474716836
 21
255.4649383784212
 31
0.0000000000000000
  0
INSERT
  5
10D
100
AcDbEntity
  8
MAIN10
  6
BYBLOCK
 62
0
100
AcDbBlockReference
  2
_OPEN
 10
237.3780474716836
 20
255.4649383784212
 30
0.0000000000000000
 41
2.000000000000000
 42
2.000000000000000
 43
2.000000000000000
 50
0.0000000000000000
  0
INSERT
  5
10E
100
AcDbEntity
  8
MAIN10
  6
BYBLOCK
 62
0
100
AcDbBlockReference
  2
_DOT
 10
242.3780474716836
 20
255.4649383784212
 30
0.0000000000000000
 41
1.000000000000000
 42
1.000000000000000
 43
1.000000000000000
 50
0.0000000000000000
  0
LINE
  5
10F
100
AcDbEntity
  8
MAIN10
  6
BYBLOCK
 62
0
100
AcDbLine
 10
235.3780474716836
 20
255.4649383784212
 30
0.0000000000000000
 11
232.8745274597818
 21
255.4649383784212
 31
0.0000000000000000
  0
LINE
  5
110
100
AcDbEntity
  8
MAIN10
  6
BYBLOCK
 62
0
100
AcDbLine
 10
242.3780474716836
 20
253.2649383903417
 30
0.0000000000000000
 11
242.3780474716836
 21
257.4649383784212
 31
0.0000000000000000
  0
MTEXT
  5
111
100
AcDbEntity
  8
MAIN10
  6
BYBLOCK
 62
0
100
AcDbMText
 10
233.9245276154697
 20
257.5149383307375
 30
0.0000000000000000
 40
3.099999904632568
 41
0.0000000000000000
 71
     5
 72
     1
  1
\A1;5
 11
1.000000000000000
 21
0.0000000000000000
 31
0.0000000000000000
  7
STANDARD
  0
ENDBLK
  5
112
100
AcDbEntity
  8
MAIN10
  6
CONTINUOUS
 62
3
100
AcDbBlockEnd
  0
BLOCK
  5
114
100
AcDbEntity
  8
MAIN10
  6
CONTINUOUS
 62
3
100
AcDbBlockBegin
  2
*D17
 70
    65
 10
0.0
 20
0.0
 30
0.0
  0
LINE
  5
115
100
AcDbEntity
  8
MAIN10
  6
BYBLOCK
 62
0
100
AcDbLine
 10
242.3780474716836
 20
253.2649383903417
 30
0.0000000000000000
 11
242.3780474716836
 21
257.4649383784212
 31
0.0000000000000000
  0
LINE
  5
116
100
AcDbEntity
  8
MAIN10
  6
BYBLOCK
 62
0
100
AcDbLine
 10
243.3780474716836
 20
255.4649383784212
 30
0.0000000000000000
 11
245.3780474716847
 21
255.4649383784212
 31
0.0000000000000000
  0
INSERT
  5
117
100
AcDbEntity
  8
MAIN10
  6
BYBLOCK
 62
0
100
AcDbBlockReference
  2
_DOT
 10
242.3780474716836
 20
255.4649383784212
 30
0.0000000000000000
 41
1.000000000000000
 42
1.000000000000000
 43
1.000000000000000
 50
180.0000000000000
  0
INSERT
  5
118
100
AcDbEntity
  8
MAIN10
  6
BYBLOCK
 62
0
100
AcDbBlockReference
  2
_OPEN
 10
245.3780474716847
 20
255.4649383784212
 30
0.0000000000000000
 41
2.000000000000000
 42
2.000000000000000
 43
2.000000000000000
 50
180.0000000000000
  0
LINE
  5
119
100
AcDbEntity
  8
MAIN10
  6
BYBLOCK
 62
0
100
AcDbLine
 10
247.3780474716847
 20
255.4649383784212
 30
0.0000000000000000
 11
250.1241741234486
 21
255.4649383784212
 31
0.0000000000000000
  0
LINE
  5
11A
100
AcDbEntity
  8
MAIN10
  6
BYBLOCK
 62
0
100
AcDbLine
 10
245.3780474716847
 20
261.6649383665004
 30
0.0000000000000000
 11
245.3780474716847
 21
253.4649383784212
 31
0.0000000000000000
  0
MTEXT
  5
11B
100
AcDbEntity
  8
MAIN10
  6
BYBLOCK
 62
0
100
AcDbMText
 10
249.0741739844505
 20
257.5149383307375
 30
0.0000000000000000
 40
3.099999904632568
 41
0.0000000000000000
 71
     5
 72
     1
  1
\A1;3
 11
1.000000000000000
 21
0.0000000000000000
 31
0.0000000000000000
  7
STANDARD
  0
ENDBLK
  5
11C
100
AcDbEntity
  8
MAIN10
  6
CONTINUOUS
 62
3
100
AcDbBlockEnd
  0
BLOCK
  5
120
100
AcDbEntity
  8
MAIN0
  6
BYBLOCK
 62
3
100
AcDbBlockBegin
  2
M0
 70
    64
 10
0.0
 20
0.0
 30
0.0
  0
LINE
  5
121
100
AcDbEntity
  8
MAIN0
  6
BYBLOCK
 62
0
100
AcDbLine
 10
203.2949445506338
 20
108.8754249276546
 30
0.0000000000000000
 11
280.2949445506338
 21
108.8754249276546
 31
0.0000000000000000
  0
LINE
  5
122
100
AcDbEntity
  8
MAIN0
  6
BYBLOCK
 62
0
100
AcDbLine
 10
203.2949445506338
 20
101.8754249276546
 30
0.0000000000000000
 11
280.2949445506338
 21
101.8754249276546
 31
0.0000000000000000
  0
LINE
  5
123
100
AcDbEntity
  8
MAIN0
  6
BYBLOCK
 62
0
100
AcDbLine
 10
203.2949445506338
 20
16.37542492765459
 30
0.0000000000000000
 11
203.2949445506338
 21
108.8754249276546
 31
0.0000000000000000
  0
LINE
  5
124
100
AcDbEntity
  8
MAIN0
  6
BYBLOCK
 62
0
100
AcDbLine
 10
203.2949445506339
 20
94.87542492765461
 30
0.0000000000000000
 11
280.2949445506338
 21
94.87542492765461
 31
0.0000000000000000
  0
LINE
  5
125
100
AcDbEntity
  8
MAIN0
  6
BYBLOCK
 62
0
100
AcDbLine
 10
203.2949445506339
 20
87.87542492765459
 30
0.0000000000000000
 11
280.2949445506338
 21
87.87542492765459
 31
0.0000000000000000
  0
LINE
  5
126
100
AcDbEntity
  8
MAIN0
  6
BYBLOCK
 62
0
100
AcDbLine
 10
246.2781329189072
 20
77.87542492765459
 30
0.0000000000000000
 11
280.2949445506338
 21
77.87542492765459
 31
0.0000000000000000
  0
LINE
  5
127
100
AcDbEntity
  8
MAIN0
  6
BYBLOCK
 62
0
100
AcDbLine
 10
203.2949445506338
 20
67.87542492765459
 30
0.0000000000000000
 11
280.2949445506338
 21
67.87542492765459
 31
0.0000000000000000
  0
LINE
  5
128
100
AcDbEntity
  8
MAIN0
  6
BYBLOCK
 62
0
100
AcDbLine
 10
203.2949445506338
 20
57.87542492765459
 30
0.0000000000000000
 11
280.2949445506338
 21
57.87542492765459
 31
0.0000000000000000
  0
LINE
  5
129
100
AcDbEntity
  8
MAIN0
  6
BYBLOCK
 62
0
100
AcDbLine
 10
203.2949445506338
 20
50.87542492765459
 30
0.0000000000000000
 11
280.2949445506338
 21
50.87542492765459
 31
0.0000000000000000
  0
LINE
  5
12A
100
AcDbEntity
  8
MAIN0
  6
BYBLOCK
 62
0
100
AcDbLine
 10
203.2949445506338
 20
43.87542492765459
 30
0.0000000000000000
 11
280.2949445506338
 21
43.87542492765459
 31
0.0000000000000000
  0
LINE
  5
12B
100
AcDbEntity
  8
MAIN0
  6
BYBLOCK
 62
0
100
AcDbLine
 10
203.2949445506338
 20
33.87542492765459
 30
0.0000000000000000
 11
280.2949445506338
 21
33.87542492765459
 31
0.0000000000000000
  0
LINE
  5
12C
100
AcDbEntity
  8
MAIN0
  6
BYBLOCK
 62
0
100
AcDbLine
 10
203.2949445506338
 20
16.37542492765462
 30
0.0000000000000000
 11
280.2949445506337
 21
16.37542492765437
 31
0.0000000000000000
  0
LINE
  5
12D
100
AcDbEntity
  8
MAIN0
  6
BYBLOCK
 62
0
100
AcDbLine
 10
250.2949445506337
 20
16.37542492765448
 30
0.0000000000000000
 11
250.2949445506337
 21
101.8754249276546
 31
0.0000000000000000
  0
LINE
  5
12E
100
AcDbEntity
  8
MAIN0
  6
BYBLOCK
 62
0
100
AcDbLine
 10
280.2949445506338
 20
16.37542492765437
 30
0.0000000000000000
 11
280.2949445506338
 21
108.8754249276546
 31
0.0000000000000000
  0
LINE
  5
12F
100
AcDbEntity
  8
MAIN0
  6
BYBLOCK
 62
0
100
AcDbLine
 10
203.2949445506338
 20
26.87542492765459
 30
0.0000000000000000
 11
280.2949445506338
 21
26.87542492765459
 31
0.0000000000000000
  0
MTEXT
  5
130
100
AcDbEntity
  8
MAIN0
  6
BYBLOCK
 62
0
100
AcDbMText
 10
205.2949445506338
 20
55.87542492765472
 30
0.0000000000000000
 40
3.000000000000000
 41
0.0000000000000000
 71
     1
 72
     1
  1
{\H0.93x;MAX. SPEED}
 11
1.000000000000000
 21
0.0000000000000000
 31
0.0000000000000000
  7
STANDARD
  0
MTEXT
  5
131
100
AcDbEntity
  8
MAIN0
  6
BYBLOCK
 62
0
100
AcDbMText
 10
205.2949445506338
 20
48.87542492765472
 30
0.0000000000000000
 40
3.000000000000000
 41
0.0000000000000000
 71
     1
 72
     1
  1
{\H0.91x;MASS}
 11
1.000000000000000
 21
0.0000000000000000
 31
0.0000000000000000
  7
STANDARD
  0
MTEXT
  5
132
100
AcDbEntity
  8
MAIN0
  6
BYBLOCK
 62
0
100
AcDbMText
 10
205.2949445506338
 20
40.37542492765466
 30
0.0000000000000000
 40
3.000000000000000
 41
0.0000000000000000
 71
     1
 72
     1
  1
{\H0.59x;ＭＯＭＥＮＴ　ＯＦ　ＩＮＥＲＴＩＡ}
 11
1.000000000000000
 21
0.0000000000000000
 31
0.0000000000000000
  7
KNJYOKO
  0
MTEXT
  5
133
100
AcDbEntity
  8
MAIN0
  6
BYBLOCK
 62
0
100
AcDbMText
 10
265.2949445506337
 20
98.67542416471500
 30
0.0000000000000000
 40
2.799999237060547
 41
0.0000000000000000
 71
     1
 72
     1
  1
{\H0.62x;　　　　mm}
 11
1.000000000000000
 21
0.0000000000000000
 31
0.0000000000000000
  7
KNJYOKO
  0
MTEXT
  5
134
100
AcDbEntity
  8
MAIN0
  6
BYBLOCK
 62
0
100
AcDbMText
 10
265.2949445506337
 20
41.17542416471504
 30
0.0000000000000000
 40
2.799999237060547
 41
0.0000000000000000
 71
     1
 72
     1
  1
{\H0.64x;　　kg・m}
 11
1.000000000000000
 21
0.0000000000000000
 31
0.0000000000000000
  7
KNJYOKO
  0
MTEXT
  5
135
100
AcDbEntity
  8
MAIN0
  6
BYBLOCK
 62
0
100
AcDbMText
 10
265.2949445506337
 20
47.67542416471504
 30
0.0000000000000000
 40
2.799999237060547
 41
0.0000000000000000
 71
     1
 72
     1
  1
{\H0.62x;　　　　kg}
 11
1.000000000000000
 21
0.0000000000000000
 31
0.0000000000000000
  7
KNJYOKO
  0
MTEXT
  5
136
100
AcDbEntity
  8
MAIN0
  6
BYBLOCK
 62
0
100
AcDbMText
 10
208.5449445506338
 20
108.0254250230220
 30
0.0000000000000000
 40
5.300000190734863
 41
0.0000000000000000
 71
     1
 72
     1
  1
{\H0.94x;SPECIFICATIONS}
 11
1.000000000000000
 21
0.0000000000000000
 31
0.0000000000000000
  7
STANDARD
  0
MTEXT
  5
137
100
AcDbEntity
  8
MAIN0
  6
BYBLOCK
 62
0
100
AcDbMText
 10
205.2949445506338
 20
99.87542492765461
 30
0.0000000000000000
 40
3.000000000000000
 41
0.0000000000000000
 71
     1
 72
     1
  1
{\H0.93x;PISTON DIA}
 11
1.000000000000000
 21
0.0000000000000000
 31
0.0000000000000000
  7
STANDARD
  0
MTEXT
  5
138
100
AcDbEntity
  8
MAIN0
  6
BYBLOCK
 62
0
100
AcDbMText
 10
205.2949445506338
 20
92.87542492765483
 30
0.0000000000000000
 40
3.000000000000000
 41
0.0000000000000000
 71
     1
 72
     1
  1
{\H0.93x;PISTON STROKE}
 11
1.000000000000000
 21
0.0000000000000000
 31
0.0000000000000000
  7
STANDARD
  0
MTEXT
  5
139
100
AcDbEntity
  8
MAIN0
  6
BYBLOCK
 62
0
100
AcDbMText
 10
205.2949445506338
 20
83.87542492765483
 30
0.0000000000000000
 40
3.000000000000000
 41
0.0000000000000000
 71
     1
 72
     1
  1
{\H0.93x;PISTON THRUST}
 11
1.000000000000000
 21
0.0000000000000000
 31
0.0000000000000000
  7
STANDARD
  0
MTEXT
  5
13A
100
AcDbEntity
  8
MAIN0
  6
BYBLOCK
 62
0
100
AcDbMText
 10
203.2949445506338
 20
77.87542492765472
 30
0.0000000000000000
 40
3.000000000000000
 41
0.0000000000000000
 71
     1
 72
     1
  1
{\H0.94x;(AT  　 　　　　　)}
 11
1.000000000000000
 21
0.0000000000000000
 31
0.0000000000000000
  7
KNJYOKO
  0
MTEXT
  5
13B
100
AcDbEntity
  8
MAIN0
  6
BYBLOCK
 62
0
100
AcDbMText
 10
205.2949445506338
 20
24.87542492765466
 30
0.0000000000000000
 40
3.000000000000000
 41
0.0000000000000000
 71
     1
 72
     1
  1
{\H0.93x;OIL LEAKAGE}
 11
1.000000000000000
 21
0.0000000000000000
 31
0.0000000000000000
  7
STANDARD
  0
MTEXT
  5
13C
100
AcDbEntity
  8
MAIN0
  6
BYBLOCK
 62
0
100
AcDbMText
 10
242.5780552924494
 20
84.11171510836489
 30
0.0000000000000000
 40
3.000000000000000
 41
0.0000000000000000
 71
     1
 72
     1
  1
{\H0.63x;PUSH}
 11
1.000000000000000
 21
0.0000000000000000
 31
0.0000000000000000
  7
STANDARD
  0
MTEXT
  5
13D
100
AcDbEntity
  8
MAIN0
  6
BYBLOCK
 62
0
100
AcDbMText
 10
242.5780552924494
 20
74.11171510836478
 30
0.0000000000000000
 40
3.000000000000000
 41
0.0000000000000000
 71
     1
 72
     1
  1
{\H0.63x;PULL}
 11
1.000000000000000
 21
0.0000000000000000
 31
0.0000000000000000
  7
STANDARD
  0
MTEXT
  5
13E
100
AcDbEntity
  8
MAIN0
  6
BYBLOCK
 62
0
100
AcDbMText
 10
205.2949445506338
 20
20.37542492765466
 30
0.0000000000000000
 40
2.000000000000000
 41
0.0000000000000000
 71
     1
 72
     1
  1
{\H0.94x;ISO,VG 32,50℃,3.0MPa}
 11
1.000000000000000
 21
0.0000000000000000
 31
0.0000000000000000
  7
KNJYOKO
  0
MTEXT
  5
13F
100
AcDbEntity
  8
MAIN0
  6
BYBLOCK
 62
0
100
AcDbMText
 10
265.2949445506337
 20
20.17542416471504
 30
0.0000000000000000
 40
2.799999237060547
 41
0.0000000000000000
 71
     1
 72
     1
  1
{\H0.69x;　L/min}
 11
1.000000000000000
 21
0.0000000000000000
 31
0.0000000000000000
  7
KNJYOKO
  0
MTEXT
  5
140
100
AcDbEntity
  8
MAIN0
  6
BYBLOCK
 62
0
100
AcDbMText
 10
205.2949445506338
 20
64.37542492765472
 30
0.0000000000000000
 40
3.000000000000000
 41
0.0000000000000000
 71
     1
 72
     1
  1
{\H0.63x;MAX. OPERATING PRESSURE}
 11
1.000000000000000
 21
0.0000000000000000
 31
0.0000000000000000
  7
STANDARD
  0
MTEXT
  5
141
100
AcDbEntity
  8
MAIN0
  6
BYBLOCK
 62
0
100
AcDbMText
 10
277.2054905252572
 20
41.43099475584684
 30
0.0000000000000000
 40
2.000000000000000
 41
0.0000000000000000
 71
     1
 72
     1
  1
{\H0.81x;2}
 11
1.000000000000000
 21
0.0000000000000000
 31
0.0000000000000000
  7
STANDARD
  0
MTEXT
  5
142
100
AcDbEntity
  8
MAIN0
  6
BYBLOCK
 62
0
100
AcDbMText
 10
265.2949445506337
 20
65.17542416471504
 30
0.0000000000000000
 40
2.799999237060547
 41
0.0000000000000000
 71
     1
 72
     1
  1
{\H0.64x;　　　MPa}
 11
1.000000000000000
 21
0.0000000000000000
 31
0.0000000000000000
  7
KNJYOKO
  0
MTEXT
  5
143
100
AcDbEntity
  8
MAIN0
  6
BYBLOCK
 62
0
100
AcDbMText
 10
226.2126375060023
 20
77.67542416471528
 30
0.0000000000000000
 40
2.799999237060547
 41
0.0000000000000000
 71
     1
 72
     1
  1
{\H0.64x;　　　MPa}
 11
1.000000000000000
 21
0.0000000000000000
 31
0.0000000000000000
  7
KNJYOKO
  0
MTEXT
  5
144
100
AcDbEntity
  8
MAIN0
  6
BYBLOCK
 62
0
100
AcDbMText
 10
265.2949445506337
 20
85.17542416471515
 30
0.0000000000000000
 40
2.799999237060547
 41
0.0000000000000000
 71
     1
 72
     1
  1
{\H0.62x;　　　　kN}
 11
1.000000000000000
 21
0.0000000000000000
 31
0.0000000000000000
  7
KNJYOKO
  0
MTEXT
  5
145
100
AcDbEntity
  8
MAIN0
  6
BYBLOCK
 62
0
100
AcDbMText
 10
265.2949445506337
 20
54.67542416471504
 30
0.0000000000000000
 40
2.799999237060547
 41
0.0000000000000000
 71
     1
 72
     1
  1
{\H0.65x;　　min}
 11
1.000000000000000
 21
0.0000000000000000
 31
0.0000000000000000
  7
KNJYOKO
  0
MTEXT
  5
146
100
AcDbEntity
  8
MAIN0
  6
BYBLOCK
 62
0
100
AcDbMText
 10
275.4496127989536
 20
55.34496871760980
 30
0.0000000000000000
 40
2.000000000000000
 41
0.0000000000000000
 71
     1
 72
     1
  1
{\H0.88x;-1}
 11
1.000000000000000
 21
0.0000000000000000
 31
0.0000000000000000
  7
STANDARD
  0
MTEXT
  5
147
100
AcDbEntity
  8
MAIN0
  6
BYBLOCK
 62
0
100
AcDbMText
 10
265.2949445506337
 20
91.67542416471515
 30
0.0000000000000000
 40
2.799999237060547
 41
0.0000000000000000
 71
     1
 72
     1
  1
{\H0.62x;　　　　mm}
 11
1.000000000000000
 21
0.0000000000000000
 31
0.0000000000000000
  7
KNJYOKO
  0
MTEXT
  5
148
100
AcDbEntity
  8
MAIN0
  6
BYBLOCK
 62
0
100
AcDbMText
 10
265.2949445506337
 20
75.17542416471504
 30
0.0000000000000000
 40
2.799999237060547
 41
0.0000000000000000
 71
     1
 72
     1
  1
{\H0.62x;　　　　kN}
 11
1.000000000000000
 21
0.0000000000000000
 31
0.0000000000000000
  7
KNJYOKO
  0
ENDBLK
  5
149
100
AcDbEntity
  8
MAIN0
  6
BYBLOCK
 62
3
100
AcDbBlockEnd
  0
BLOCK
  5
1E2
100
AcDbEntity
  8
MAIN10
  6
CONTINUOUS
 62
12
100
AcDbBlockBegin
  2
*D18
 70
    65
 10
0.0
 20
0.0
 30
0.0
  0
LINE
  5
1E3
100
AcDbEntity
  8
MAIN10
  6
BYBLOCK
 62
0
100
AcDbLine
 10
97.39731746262947
 20
178.6649379079232
 30
0.0000000000000000
 11
97.39731746262947
 21
159.4565756495167
 31
0.0000000000000000
  0
LINE
  5
1E4
100
AcDbEntity
  8
MAIN10
  6
BYBLOCK
 62
0
100
AcDbLine
 10
99.30798965043465
 20
161.4565756495167
 30
0.0000000000000000
 11
125.4866452748243
 21
161.4565756495167
 31
0.0000000000000000
  0
INSERT
  5
1E5
100
AcDbEntity
  8
MAIN10
  6
BYBLOCK
 62
0
100
AcDbBlockReference
  2
_OPEN
 10
97.39731746262947
 20
161.4565756495167
 30
0.0000000000000000
 41
1.910672187805176
 42
1.910672187805176
 43
1.910672187805176
 50
180.0000000000000
  0
INSERT
  5
1E6
100
AcDbEntity
  8
MAIN10
  6
BYBLOCK
 62
0
100
AcDbBlockReference
  2
_OPEN
 10
127.3973174626295
 20
161.4565756495167
 30
0.0000000000000000
 41
1.910672187805176
 42
1.910672187805176
 43
1.910672187805176
 50
0.0000000000000000
  0
LINE
  5
1E7
100
AcDbEntity
  8
MAIN10
  6
BYBLOCK
 62
0
100
AcDbLine
 10
127.3973174626295
 20
178.6649382488781
 30
0.0000000000000000
 11
127.3973174626295
 21
159.4565756495167
 31
0.0000000000000000
  0
MTEXT
  5
1E8
100
AcDbEntity
  8
MAIN10
  6
BYBLOCK
 62
0
100
AcDbMText
 10
117.3585365515617
 20
162.4565756495167
 30
0.0000000000000000
 40
3.099999904632568
 41
0.0000000000000000
 71
     1
 72
     1
  1
\A1;\U+220530
 11
1.000000000000000
 21
0.0000000000000000
 31
0.0000000000000000
  7
STANDARD
  0
ENDBLK
  5
1E9
100
AcDbEntity
  8
MAIN10
  6
CONTINUOUS
 62
12
100
AcDbBlockEnd
  0
BLOCK
  5
1EB
100
AcDbEntity
  8
MAIN10
  6
CONTINUOUS
 62
12
100
AcDbBlockBegin
  2
*D19
 70
    65
 10
0.0
 20
0.0
 30
0.0
  0
LINE
  5
1EC
100
AcDbEntity
  8
MAIN10
  6
BYBLOCK
 62
0
100
AcDbLine
 10
293.8060248384888
 20
208.4649383784214
 30
0.0000000000000000
 11
306.1311763037173
 21
208.4649383784214
 31
0.0000000000000000
  0
LINE
  5
1ED
100
AcDbEntity
  8
MAIN10
  6
BYBLOCK
 62
0
100
AcDbLine
 10
304.1311763037173
 20
210.3756105662266
 30
0.0000000000000000
 11
304.1311763037173
 21
234.5542661906163
 31
0.0000000000000000
  0
INSERT
  5
1EE
100
AcDbEntity
  8
MAIN10
  6
BYBLOCK
 62
0
100
AcDbBlockReference
  2
_OPEN
 10
304.1311763037173
 20
208.4649383784214
 30
0.0000000000000000
 41
1.910672187805176
 42
1.910672187805176
 43
1.910672187805176
 50
270.0000000000000
  0
INSERT
  5
1EF
100
AcDbEntity
  8
MAIN10
  6
BYBLOCK
 62
0
100
AcDbBlockReference
  2
_OPEN
 10
304.1311763037173
 20
236.4649383784214
 30
0.0000000000000000
 41
1.910672187805176
 42
1.910672187805176
 43
1.910672187805176
 50
90.00000000000000
  0
MTEXT
  5
1F0
100
AcDbEntity
  8
MAIN10
  6
BYBLOCK
 62
0
100
AcDbMText
 10
302.0811761129825
 20
218.7150317620356
 30
0.0000000000000000
 40
3.100000381469727
 41
0.0000000000000000
 71
     5
 72
     1
  1
\A1;28
 11
6.123233995736766e-017
 21
1.000000000000000
 31
0.0000000000000000
  7
STANDARD
  0
ENDBLK
  5
1F1
100
AcDbEntity
  8
MAIN10
  6
CONTINUOUS
 62
12
100
AcDbBlockEnd
  0
BLOCK
  5
1F5
100
AcDbEntity
  8
MAIN10
  6
CONTINUOUS
 62
12
100
AcDbBlockBegin
  2
*D20
 70
    65
 10
0.0
 20
0.0
 30
0.0
  0
LINE
  5
1F6
100
AcDbEntity
  8
MAIN10
  6
BYBLOCK
 62
0
100
AcDbLine
 10
52.40475987842487
 20
301.9658558804432
 30
0.0000000000000000
 11
38.04817609784570
 21
301.9658558804432
 31
0.0000000000000000
  0
LINE
  5
1F7
100
AcDbEntity
  8
MAIN10
  6
BYBLOCK
 62
0
100
AcDbLine
 10
40.04817609784570
 20
303.8765280682484
 30
0.0000000000000000
 11
40.04817609784570
 21
323.4551836926380
 31
0.0000000000000000
  0
INSERT
  5
1F8
100
AcDbEntity
  8
MAIN10
  6
BYBLOCK
 62
0
100
AcDbBlockReference
  2
_OPEN
 10
40.04817609784570
 20
301.9658558804432
 30
0.0000000000000000
 41
1.910672187805176
 42
1.910672187805176
 43
1.910672187805176
 50
270.0000000000000
  0
INSERT
  5
1F9
100
AcDbEntity
  8
MAIN10
  6
BYBLOCK
 62
0
100
AcDbBlockReference
  2
_OPEN
 10
40.04817609784570
 20
325.3658558804432
 30
0.0000000000000000
 41
1.910672187805176
 42
1.910672187805176
 43
1.910672187805176
 50
90.00000000000000
  0
LINE
  5
1FA
100
AcDbEntity
  8
MAIN10
  6
BYBLOCK
 62
0
100
AcDbLine
 10
45.48088582087794
 20
325.3658558804432
 30
0.0000000000000000
 11
38.04817609784570
 21
325.3658558804432
 31
0.0000000000000000
  0
MTEXT
  5
1FB
100
AcDbEntity
  8
MAIN10
  6
BYBLOCK
 62
0
100
AcDbMText
 10
39.04817609784575
 20
313.6158592138330
 30
0.0000000000000000
 40
3.099999904632568
 41
0.0000000000000000
 71
     1
 72
     1
  1
\A1;MAX 23
 11
5.390302858158119e-015
 21
1.000000000000000
 31
0.0000000000000000
  7
STANDARD
  0
ENDBLK
  5
1FC
100
AcDbEntity
  8
MAIN10
  6
CONTINUOUS
 62
12
100
AcDbBlockEnd
  0
BLOCK
  5
1FE
100
AcDbEntity
  8
MAIN10
  6
CONTINUOUS
 62
12
100
AcDbBlockBegin
  2
*D21
 70
    65
 10
0.0
 20
0.0
 30
0.0
  0
LINE
  5
1FF
100
AcDbEntity
  8
MAIN10
  6
BYBLOCK
 62
0
100
AcDbLine
 10
45.48088582087794
 20
325.3658558804432
 30
0.0000000000000000
 11
38.04817609784570
 21
325.3658558804432
 31
0.0000000000000000
  0
LINE
  5
200
100
AcDbEntity
  8
MAIN10
  6
BYBLOCK
 62
0
100
AcDbLine
 10
40.04817609784570
 20
327.2765280682484
 30
0.0000000000000000
 11
40.04817609784570
 21
334.0551836926380
 31
0.0000000000000000
  0
INSERT
  5
201
100
AcDbEntity
  8
MAIN10
  6
BYBLOCK
 62
0
100
AcDbBlockReference
  2
_OPEN
 10
40.04817609784570
 20
325.3658558804432
 30
0.0000000000000000
 41
1.910672187805176
 42
1.910672187805176
 43
1.910672187805176
 50
270.0000000000000
  0
INSERT
  5
202
100
AcDbEntity
  8
MAIN10
  6
BYBLOCK
 62
0
100
AcDbBlockReference
  2
_OPEN
 10
40.04817609784570
 20
335.9658558804432
 30
0.0000000000000000
 41
1.910672187805176
 42
1.910672187805176
 43
1.910672187805176
 50
90.00000000000000
  0
LINE
  5
203
100
AcDbEntity
  8
MAIN10
  6
BYBLOCK
 62
0
100
AcDbLine
 10
62.31810902633455
 20
335.9658558804432
 30
0.0000000000000000
 11
38.04817609784570
 21
335.9658558804432
 31
0.0000000000000000
  0
MTEXT
  5
204
100
AcDbEntity
  8
MAIN10
  6
BYBLOCK
 62
0
100
AcDbMText
 10
39.04817609784570
 20
330.6158563081065
 30
0.0000000000000000
 40
3.099999904632568
 41
0.0000000000000000
 71
     1
 72
     1
  1
\A1;11
 11
5.390302858158119e-015
 21
1.000000000000000
 31
0.0000000000000000
  7
STANDARD
  0
ENDBLK
  5
205
100
AcDbEntity
  8
MAIN10
  6
CONTINUOUS
 62
12
100
AcDbBlockEnd
  0
BLOCK
  5
207
100
AcDbEntity
  8
MAIN10
  6
CONTINUOUS
 62
12
100
AcDbBlockBegin
  2
*D22
 70
    65
 10
0.0
 20
0.0
 30
0.0
  0
LINE
  5
208
100
AcDbEntity
  8
MAIN10
  6
BYBLOCK
 62
0
100
AcDbLine
 10
62.31810902633455
 20
335.9658558804432
 30
0.0000000000000000
 11
38.04817609784570
 21
335.9658558804432
 31
0.0000000000000000
  0
LINE
  5
209
100
AcDbEntity
  8
MAIN10
  6
BYBLOCK
 62
0
100
AcDbLine
 10
40.04817609784570
 20
337.8765280682484
 30
0.0000000000000000
 11
40.04817609784570
 21
375.0551836926380
 31
0.0000000000000000
  0
INSERT
  5
20A
100
AcDbEntity
  8
MAIN10
  6
BYBLOCK
 62
0
100
AcDbBlockReference
  2
_OPEN
 10
40.04817609784570
 20
335.9658558804432
 30
0.0000000000000000
 41
1.910672187805176
 42
1.910672187805176
 43
1.910672187805176
 50
270.0000000000000
  0
INSERT
  5
20B
100
AcDbEntity
  8
MAIN10
  6
BYBLOCK
 62
0
100
AcDbBlockReference
  2
_OPEN
 10
40.04817609784570
 20
376.9658558804432
 30
0.0000000000000000
 41
1.910672187805176
 42
1.910672187805176
 43
1.910672187805176
 50
90.00000000000000
  0
LINE
  5
20C
100
AcDbEntity
  8
MAIN10
  6
BYBLOCK
 62
0
100
AcDbLine
 10
62.31810902633458
 20
376.9658558804432
 30
0.0000000000000000
 11
38.04817609784570
 21
376.9658558804432
 31
0.0000000000000000
  0
MTEXT
  5
20D
100
AcDbEntity
  8
MAIN10
  6
BYBLOCK
 62
0
100
AcDbMText
 10
39.04817609784570
 20
356.4158563081065
 30
0.0000000000000000
 40
3.099999904632568
 41
0.0000000000000000
 71
     1
 72
     1
  1
\A1;41
 11
5.390302858158119e-015
 21
1.000000000000000
 31
0.0000000000000000
  7
STANDARD
  0
ENDBLK
  5
20E
100
AcDbEntity
  8
MAIN10
  6
CONTINUOUS
 62
12
100
AcDbBlockEnd
  0
BLOCK
  5
210
100
AcDbEntity
  8
MAIN10
  6
CONTINUOUS
 62
12
100
AcDbBlockBegin
  2
*D23
 70
    65
 10
0.0
 20
0.0
 30
0.0
  0
LINE
  5
211
100
AcDbEntity
  8
MAIN10
  6
BYBLOCK
 62
0
100
AcDbLine
 10
114.8669076847277
 20
356.4517557144747
 30
0.0000000000000000
 11
106.7074629945403
 21
370.5843284794273
 31
0.0000000000000000
  0
LINE
  5
212
100
AcDbEntity
  8
MAIN10
  6
BYBLOCK
 62
0
100
AcDbLine
 10
109.3621536474839
 20
369.8076137657610
 30
0.0000000000000000
 11
126.3177667901524
 21
379.5969415779558
 31
0.0000000000000000
  0
INSERT
  5
213
100
AcDbEntity
  8
MAIN10
  6
BYBLOCK
 62
0
100
AcDbBlockReference
  2
_OPEN
 10
107.7074629945402
 20
368.8522776718584
 30
0.0000000000000000
 41
1.910672187805176
 42
1.910672187805176
 43
1.910672187805176
 50
210.0000000000001
  0
INSERT
  5
214
100
AcDbEntity
  8
MAIN10
  6
BYBLOCK
 62
0
100
AcDbBlockReference
  2
_OPEN
 10
127.9724574430960
 20
380.5522776718585
 30
0.0000000000000000
 41
1.910672187805176
 42
1.910672187805176
 43
1.910672187805176
 50
30.00000000000006
  0
LINE
  5
215
100
AcDbEntity
  8
MAIN10
  6
BYBLOCK
 62
0
100
AcDbLine
 10
131.7202358751542
 20
374.0609350120229
 30
0.0000000000000000
 11
126.9724574430961
 21
382.2843284794274
 31
0.0000000000000000
  0
MTEXT
  5
216
100
AcDbEntity
  8
MAIN10
  6
BYBLOCK
 62
0
100
AcDbMText
 10
117.2966618354291
 20
375.5433047423377
 30
0.0000000000000000
 40
3.099999904632568
 41
0.0000000000000000
 71
     1
 72
     1
  1
\A1;MAX 23
 11
0.8660254037844377
 21
0.5000000000000016
 31
0.0000000000000000
  7
STANDARD
  0
ENDBLK
  5
217
100
AcDbEntity
  8
MAIN10
  6
CONTINUOUS
 62
12
100
AcDbBlockEnd
  0
BLOCK
  5
219
100
AcDbEntity
  8
MAIN10
  6
CONTINUOUS
 62
12
100
AcDbBlockBegin
  2
*D24
 70
    65
 10
0.0
 20
0.0
 30
0.0
  0
LINE
  5
21A
100
AcDbEntity
  8
MAIN10
  6
BYBLOCK
 62
0
100
AcDbLine
 10
131.7202358751543
 20
374.0609350120230
 30
0.0000000000000000
 11
126.9724574430961
 21
382.2843284794274
 31
0.0000000000000000
  0
LINE
  5
21B
100
AcDbEntity
  8
MAIN10
  6
BYBLOCK
 62
0
100
AcDbLine
 10
129.6271480960398
 20
381.5076137657611
 30
0.0000000000000000
 11
135.4976360702674
 21
384.8969415779558
 31
0.0000000000000000
  0
INSERT
  5
21C
100
AcDbEntity
  8
MAIN10
  6
BYBLOCK
 62
0
100
AcDbBlockReference
  2
_OPEN
 10
127.9724574430961
 20
380.5522776718585
 30
0.0000000000000000
 41
1.910672187805176
 42
1.910672187805176
 43
1.910672187805176
 50
210.0000000000000
  0
INSERT
  5
21D
100
AcDbEntity
  8
MAIN10
  6
BYBLOCK
 62
0
100
AcDbBlockReference
  2
_OPEN
 10
137.1523267232111
 20
385.8522776718584
 30
0.0000000000000000
 41
1.910672187805176
 42
1.910672187805176
 43
1.910672187805176
 50
30.00000000000004
  0
LINE
  5
21E
100
AcDbEntity
  8
MAIN10
  6
BYBLOCK
 62
0
100
AcDbLine
 10
148.7112918060148
 20
365.8315628655279
 30
0.0000000000000000
 11
136.1523267232111
 21
387.5843284794273
 31
0.0000000000000000
  0
MTEXT
  5
21F
100
AcDbEntity
  8
MAIN10
  6
BYBLOCK
 62
0
100
AcDbMText
 10
132.0190911833317
 20
384.0433032894745
 30
0.0000000000000000
 40
3.099999904632568
 41
0.0000000000000000
 71
     1
 72
     1
  1
\A1;11
 11
0.8660254037844377
 21
0.5000000000000016
 31
0.0000000000000000
  7
STANDARD
  0
ENDBLK
  5
220
100
AcDbEntity
  8
MAIN10
  6
CONTINUOUS
 62
12
100
AcDbBlockEnd
  0
BLOCK
  5
222
100
AcDbEntity
  8
MAIN10
  6
CONTINUOUS
 62
12
100
AcDbBlockBegin
  2
*D25
 70
    65
 10
0.0
 20
0.0
 30
0.0
  0
LINE
  5
223
100
AcDbEntity
  8
MAIN10
  6
BYBLOCK
 62
0
100
AcDbLine
 10
148.7112918060148
 20
365.8315628655279
 30
0.0000000000000000
 11
136.1523267232111
 21
387.5843284794273
 31
0.0000000000000000
  0
LINE
  5
224
100
AcDbEntity
  8
MAIN10
  6
BYBLOCK
 62
0
100
AcDbLine
 10
138.8070173761547
 20
386.8076137657610
 30
0.0000000000000000
 11
171.0046776254293
 21
405.3969415779559
 31
0.0000000000000000
  0
INSERT
  5
225
100
AcDbEntity
  8
MAIN10
  6
BYBLOCK
 62
0
100
AcDbBlockReference
  2
_OPEN
 10
137.1523267232111
 20
385.8522776718584
 30
0.0000000000000000
 41
1.910672187805176
 42
1.910672187805176
 43
1.910672187805176
 50
210.0000000000001
  0
INSERT
  5
226
100
AcDbEntity
  8
MAIN10
  6
BYBLOCK
 62
0
100
AcDbBlockReference
  2
_OPEN
 10
172.6593682783730
 20
406.3522776718585
 30
0.0000000000000000
 41
1.910672187805176
 42
1.910672187805176
 43
1.910672187805176
 50
30.00000000000014
  0
LINE
  5
227
100
AcDbEntity
  8
MAIN10
  6
BYBLOCK
 62
0
100
AcDbLine
 10
184.2183333611768
 20
386.3315628655279
 30
0.0000000000000000
 11
171.6593682783730
 21
408.0843284794274
 31
0.0000000000000000
  0
MTEXT
  5
228
100
AcDbEntity
  8
MAIN10
  6
BYBLOCK
 62
0
100
AcDbMText
 10
154.3625466009701
 20
396.9433032894746
 30
0.0000000000000000
 40
3.099999904632568
 41
0.0000000000000000
 71
     1
 72
     1
  1
\A1;41
 11
0.8660254037844377
 21
0.5000000000000016
 31
0.0000000000000000
  7
STANDARD
  0
ENDBLK
  5
229
100
AcDbEntity
  8
MAIN10
  6
CONTINUOUS
 62
12
100
AcDbBlockEnd
  0
BLOCK
  5
22B
100
AcDbEntity
  8
MAIN10
  6
CONTINUOUS
 62
12
100
AcDbBlockBegin
  2
*D26
 70
    65
 10
0.0
 20
0.0
 30
0.0
  0
LINE
  5
22C
100
AcDbEntity
  8
MAIN10
  6
BYBLOCK
 62
0
100
AcDbLine
 10
282.3780474716842
 20
225.5366461909072
 30
0.0000000000000000
 11
282.3780474716842
 21
329.3602111355277
 31
0.0000000000000000
  0
LINE
  5
22D
100
AcDbEntity
  8
MAIN10
  6
BYBLOCK
 62
0
100
AcDbLine
 10
284.2887196594894
 20
327.3602111355277
 30
0.0000000000000000
 11
291.4673752838791
 21
327.3602111355277
 31
0.0000000000000000
  0
INSERT
  5
22E
100
AcDbEntity
  8
MAIN10
  6
BYBLOCK
 62
0
100
AcDbBlockReference
  2
_OPEN
 10
282.3780474716842
 20
327.3602111355277
 30
0.0000000000000000
 41
1.910672187805176
 42
1.910672187805176
 43
1.910672187805176
 50
180.0000000000000
  0
INSERT
  5
22F
100
AcDbEntity
  8
MAIN10
  6
BYBLOCK
 62
0
100
AcDbBlockReference
  2
_OPEN
 10
293.3780474716842
 20
327.3602111355277
 30
0.0000000000000000
 41
1.910672187805176
 42
1.910672187805176
 43
1.910672187805176
 50
0.0000000000000000
  0
LINE
  5
230
100
AcDbEntity
  8
MAIN10
  6
BYBLOCK
 62
0
100
AcDbLine
 10
293.3780474716842
 20
251.4263170667311
 30
0.0000000000000000
 11
293.3780474716842
 21
329.3602111355277
 31
0.0000000000000000
  0
MTEXT
  5
231
100
AcDbEntity
  8
MAIN10
  6
BYBLOCK
 62
0
100
AcDbMText
 10
287.8280478993476
 20
328.3602111355277
 30
0.0000000000000000
 40
3.099999904632568
 41
0.0000000000000000
 71
     1
 72
     1
  1
\A1;11
 11
1.000000000000000
 21
0.0000000000000000
 31
0.0000000000000000
  7
STANDARD
  0
ENDBLK
  5
232
100
AcDbEntity
  8
MAIN10
  6
CONTINUOUS
 62
12
100
AcDbBlockEnd
  0
BLOCK
  5
234
100
AcDbEntity
  8
MAIN10
  6
CONTINUOUS
 62
12
100
AcDbBlockBegin
  2
*D27
 70
    65
 10
0.0
 20
0.0
 30
0.0
  0
LINE
  5
235
100
AcDbEntity
  8
MAIN10
  6
BYBLOCK
 62
0
100
AcDbLine
 10
267.3780474716821
 20
267.7649383903421
 30
0.0000000000000000
 11
267.3780474716821
 21
329.3602111355277
 31
0.0000000000000000
  0
LINE
  5
236
100
AcDbEntity
  8
MAIN10
  6
BYBLOCK
 62
0
100
AcDbLine
 10
269.2887196594872
 20
327.3602111355277
 30
0.0000000000000000
 11
280.4673752838791
 21
327.3602111355277
 31
0.0000000000000000
  0
INSERT
  5
237
100
AcDbEntity
  8
MAIN10
  6
BYBLOCK
 62
0
100
AcDbBlockReference
  2
_OPEN
 10
267.3780474716821
 20
327.3602111355277
 30
0.0000000000000000
 41
1.910672187805176
 42
1.910672187805176
 43
1.910672187805176
 50
180.0000000000000
  0
INSERT
  5
238
100
AcDbEntity
  8
MAIN10
  6
BYBLOCK
 62
0
100
AcDbBlockReference
  2
_OPEN
 10
282.3780474716842
 20
327.3602111355277
 30
0.0000000000000000
 41
1.910672187805176
 42
1.910672187805176
 43
1.910672187805176
 50
0.0000000000000000
  0
LINE
  5
239
100
AcDbEntity
  8
MAIN10
  6
BYBLOCK
 62
0
100
AcDbLine
 10
267.3780474716821
 20
327.3602111355277
 30
0.0000000000000000
 11
249.9780535751977
 21
327.3602111355277
 31
0.0000000000000000
  0
LINE
  5
23A
100
AcDbEntity
  8
MAIN10
  6
BYBLOCK
 62
0
100
AcDbLine
 10
282.3780474716842
 20
225.5366461909072
 30
0.0000000000000000
 11
282.3780474716842
 21
329.3602111355277
 31
0.0000000000000000
  0
MTEXT
  5
23B
100
AcDbEntity
  8
MAIN10
  6
BYBLOCK
 62
0
100
AcDbMText
 10
258.1280538568297
 20
328.3602111355277
 30
0.0000000000000000
 40
3.099999904632568
 41
0.0000000000000000
 71
     1
 72
     1
  1
\A1;MIN 15
 11
1.000000000000000
 21
0.0000000000000000
 31
0.0000000000000000
  7
STANDARD
  0
ENDBLK
  5
23C
100
AcDbEntity
  8
MAIN10
  6
CONTINUOUS
 62
12
100
AcDbBlockEnd
  0
BLOCK
  5
23E
100
AcDbEntity
  8
MAIN10
  6
CONTINUOUS
 62
12
100
AcDbBlockBegin
  2
*D28
 70
    65
 10
0.0
 20
0.0
 30
0.0
  0
LINE
  5
23F
100
AcDbEntity
  8
MAIN10
  6
BYBLOCK
 62
0
100
AcDbLine
 10
126.1973174745504
 20
177.4649383784217
 30
0.0000000000000000
 11
164.2329540711700
 21
177.4649383784217
 31
0.0000000000000000
  0
LINE
  5
240
100
AcDbEntity
  8
MAIN10
  6
BYBLOCK
 62
0
100
AcDbLine
 10
162.2329540711700
 20
179.3756105662268
 30
0.0000000000000000
 11
162.2329540711700
 21
220.5542661906163
 31
0.0000000000000000
  0
INSERT
  5
241
100
AcDbEntity
  8
MAIN10
  6
BYBLOCK
 62
0
100
AcDbBlockReference
  2
_OPEN
 10
162.2329540711700
 20
177.4649383784217
 30
0.0000000000000000
 41
1.910672187805176
 42
1.910672187805176
 43
1.910672187805176
 50
270.0000000000000
  0
INSERT
  5
242
100
AcDbEntity
  8
MAIN10
  6
BYBLOCK
 62
0
100
AcDbBlockReference
  2
_OPEN
 10
162.2329540711700
 20
222.4649383784214
 30
0.0000000000000000
 41
1.910672187805176
 42
1.910672187805176
 43
1.910672187805176
 50
90.00000000000000
  0
LINE
  5
243
100
AcDbEntity
  8
MAIN10
  6
BYBLOCK
 62
0
100
AcDbLine
 10
158.5050133247787
 20
222.4649383784214
 30
0.0000000000000000
 11
164.2329540711700
 21
222.4649383784214
 31
0.0000000000000000
  0
MTEXT
  5
244
100
AcDbEntity
  8
MAIN10
  6
BYBLOCK
 62
0
100
AcDbMText
 10
161.2329540711700
 20
199.9149388060850
 30
0.0000000000000000
 40
3.099999904632568
 41
0.0000000000000000
 71
     1
 72
     1
  1
\A1;45
 11
5.390302858158119e-015
 21
1.000000000000000
 31
0.0000000000000000
  7
STANDARD
  0
ENDBLK
  5
245
100
AcDbEntity
  8
MAIN10
  6
CONTINUOUS
 62
12
100
AcDbBlockEnd
  0
ENDSEC
  0
SECTION
  2
ENTITIES
  0
LINE
  5
46
100
AcDbEntity
  8
MAIN0
  6
CONTINUOUS
 62
12
100
AcDbLine
 10
467.4095337250770
 20
157.4649383784212
 30
0.0000000000000000
 11
563.3087241639114
 21
157.4649383784212
 31
0.0000000000000000
  0
LINE
  5
47
100
AcDbEntity
  8
MAIN0
  6
CONTINUOUS
 62
3
100
AcDbLine
 10
512.0790093660071
 20
235.7149383784220
 30
0.0000000000000000
 11
512.0790093660071
 21
209.2149383784220
 31
0.0000000000000000
  0
LINE
  5
48
100
AcDbEntity
  8
MAIN0
  6
CONTINUOUS
 62
3
100
AcDbLine
 10
356.3780474716846
 20
128.4649383784216
 30
0.0000000000000000
 11
356.3780474716846
 21
316.4649383784213
 31
0.0000000000000000
  0
LINE
  5
49
100
AcDbEntity
  8
MAIN0
  6
CONTINUOUS
 62
3
100
AcDbLine
 10
329.3780474716845
 20
186.4649383784214
 30
0.0000000000000000
 11
329.3780474716845
 21
258.4649383784214
 31
0.0000000000000000
  0
LINE
  5
4A
100
AcDbEntity
  8
MAIN0
  6
CONTINUOUS
 62
3
100
AcDbLine
 10
462.3780474716846
 20
244.9649383784212
 30
0.0000000000000000
 11
462.3780474716846
 21
315.4649383784213
 31
0.0000000000000000
  0
LINE
  5
4B
100
AcDbEntity
  8
MAIN0
  6
CONTINUOUS
 62
3
100
AcDbLine
 10
462.3780474716846
 20
129.4649383784216
 30
0.0000000000000000
 11
462.3780474716846
 21
167.4649383784216
 31
0.0000000000000000
  0
LINE
  5
4C
100
AcDbEntity
  8
MAIN0
  6
CONTINUOUS
 62
3
100
AcDbLine
 10
462.3780474716845
 20
171.3118463617829
 30
0.0000000000000000
 11
462.3780474716846
 21
189.2091204962096
 31
0.0000000000000000
  0
MTEXT
  5
4D
100
AcDbEntity
  8
MAIN0
  6
CONTINUOUS
 62
4
100
AcDbMText
 10
269.9567566108356
 20
213.0550148435357
 30
0.0000000000000000
 40
5.000000000000000
 41
0.0000000000000000
 71
     1
 72
     1
  1
{\H0.67x;{A}}
 11
1.000000000000000
 21
0.0000000000000000
 31
0.0000000000000000
  7
STANDARD
  0
MTEXT
  5
4E
100
AcDbEntity
  8
MAIN0
  6
CONTINUOUS
 62
4
100
AcDbMText
 10
303.0392033809087
 20
245.1487224599027
 30
0.0000000000000000
 40
5.000000000000000
 41
0.0000000000000000
 71
     1
 72
     1
  1
{\H0.94x;{B}}
 11
1.000000000000000
 21
0.0000000000000000
 31
0.0000000000000000
  7
STANDARD
  0
MTEXT
  5
4F
100
AcDbEntity
  8
MAIN0
  6
CONTINUOUS
 62
4
100
AcDbMText
 10
484.1683353540213
 20
346.7105741082578
 30
0.0000000000000000
 40
3.099999904632568
 41
0.0000000000000000
 71
     1
 72
     1
  1
{\H0.70x;{MIN 26}}
 11
1.000000000000000
 21
0.0000000000000000
 31
0.0000000000000000
  7
STANDARD
  0
MTEXT
  5
50
100
AcDbEntity
  8
MAIN0
  6
CONTINUOUS
 62
4
100
AcDbMText
 10
289.6599466016500
 20
175.5070868741742
 30
0.0000000000000000
 40
5.000000000000000
 41
0.0000000000000000
 71
     1
 72
     1
  1
{\H0.94x;{D}}
 11
1.000000000000000
 21
0.0000000000000000
 31
0.0000000000000000
  7
STANDARD
  0
MTEXT
  5
51
100
AcDbEntity
  8
MAIN0
  6
CONTINUOUS
 62
4
100
AcDbMText
 10
291.8101021077612
 20
174.8999945563199
 30
0.0000000000000000
 40
5.000000000000000
 41
0.0000000000000000
 71
     1
 72
     1
  1
{\H0.94x;{ｒ}}
 11
1.000000000000000
 21
0.0000000000000000
 31
0.0000000000000000
  7
KNJYOKO
  0
SPLINE
  5
52
100
AcDbEntity
  8
MAIN0
  6
CONTINUOUS
 62
12
100
AcDbSpline
210
0.0000000000000000
220
0.0000000000000000
230
1.000000000000000
 70
     8
 71
     3
 72
    15
 73
    11
 74
     0
 42
1.000000000000000e-007
 43
1.000000000000000e-007
 12
-0.5423498713830668
 22
-0.8455557860817180
 32
0.0000000000000000
 13
0.3433334245372066
 23
-0.9443785442004185
 33
0.0000000000000000
 40
0.0000000000000000
 40
0.0000000000000000
 40
0.0000000000000000
 40
0.0000000000000000
 40
7.449993726240304
 40
15.36260207282546
 40
24.94682826461008
 40
35.82221475273207
 40
50.20930945148234
 40
63.98978234639526
 40
75.21430229052396
 40
78.86919683359952
 40
78.86919683359952
 40
78.86919683359952
 40
78.86919683359952
 10
467.3684367551415
 20
254.6201932394346
 30
0.0000000000000000
 10
466.0216023753978
 20
252.5203981389363
 30
0.0000000000000000
 10
463.2443006226293
 20
248.1904191149537
 30
0.0000000000000000
 10
460.6864326830557
 20
240.2376292225328
 30
0.0000000000000000
 10
455.8691754518393
 20
231.9248652939703
 30
0.0000000000000000
 10
455.4421570913725
 20
219.9321802324387
 30
0.0000000000000000
 10
457.3939486293363
 20
207.3722325499611
 30
0.0000000000000000
 10
457.3590981075977
 20
193.2967192791568
 30
0.0000000000000000
 10
465.3109813785095
 20
186.7000078766106
 30
0.0000000000000000
 10
467.0138481555094
 20
182.0160746126172
 30
0.0000000000000000
 10
467.4321306421083
 20
180.8655399500186
 30
0.0000000000000000
  0
SPLINE
  5
53
100
AcDbEntity
  8
MAIN0
  6
CONTINUOUS
 62
12
100
AcDbSpline
210
0.0000000000000000
220
0.0000000000000000
230
1.000000000000000
 70
     8
 71
     3
 72
    16
 73
    12
 74
     0
 42
1.000000000000000e-007
 43
1.000000000000000e-007
 12
-0.9404092212242290
 22
-0.3526598861683681
 32
0.0000000000000000
 13
0.8835409977594964
 23
-0.4693098537482570
 33
0.0000000000000000
 40
0.0000000000000000
 40
0.0000000000000000
 40
0.0000000000000000
 40
0.0000000000000000
 40
8.822129715772334
 40
22.03864524859660
 40
39.08368679514217
 40
49.96318917134408
 40
58.36199785893632
 40
71.27313060088216
 40
84.37886983818504
 40
93.17842596113621
 40
96.53963907947906
 40
96.53963907947906
 40
96.53963907947906
 40
96.53963907947906
 10
467.3047428681747
 20
172.9041227256284
 30
0.0000000000000000
 10
464.5392721563251
 20
171.8670523051861
 30
0.0000000000000000
 10
457.6308237513017
 20
169.2763369302940
 30
0.0000000000000000
 10
444.8572534332369
 20
167.3943828235771
 30
0.0000000000000000
 10
430.4107649406891
 20
165.6913952618964
 30
0.0000000000000000
 10
422.6043535544922
 20
154.4599836545521
 30
0.0000000000000000
 10
426.4381839002430
 20
142.3793304104998
 30
0.0000000000000000
 10
439.8555524231538
 20
142.4897688125896
 30
0.0000000000000000
 10
449.6785023747866
 20
136.5574248499124
 30
0.0000000000000000
 10
457.7653961886575
 20
133.9328958532023
 30
0.0000000000000000
 10
461.3469089183164
 20
132.0305062418361
 30
0.0000000000000000
 10
462.3368321157375
 20
131.5046894295074
 30
0.0000000000000000
  0
DIMENSION
  5
5C
100
AcDbEntity
  8
MAIN10
  6
CONTINUOUS
 62
12
100
AcDbDimension
  2
*D0
 10
473.3780474716846
 20
267.4349225456754
 30
0.0000000000000000
 11
493.2780480438892
 21
268.4349225456754
 31
0.0000000000000000
 70
32
  3
MAIN001
100
AcDbAlignedDimension
 13
518.3780474716841
 23
244.2649383903421
 33
0.0000000000000000
 14
473.3780474716846
 24
238.2649383903430
 34
0.0000000000000000
100
AcDbRotatedDimension
1001
ACAD
1000
DSTYLE
1002
{
1070
   173
1070
     1
1070
     6
1000
_OPEN
1070
     7
1000
_OPEN
1070
    41
1040
1.910672
1002
}
  0
DIMENSION
  5
67
100
AcDbEntity
  8
MAIN10
  6
CONTINUOUS
 62
12
100
AcDbDimension
  2
*D1
 10
513.3780474716841
 20
257.9849306777986
 30
0.0000000000000000
 11
514.6780476624190
 21
258.9849306777986
 31
0.0000000000000000
 70
32
  3
MAIN001
100
AcDbAlignedDimension
 13
518.3780474716841
 23
244.2649383903421
 33
0.0000000000000000
 14
513.3780474716841
 24
238.7649383903428
 34
0.0000000000000000
100
AcDbRotatedDimension
1001
ACAD
1000
DSTYLE
1002
{
1070
   173
1070
     1
1070
     6
1000
_OPEN
1070
     7
1000
_OPEN
1070
    41
1040
1.910672
1070
   287
1070
     0
1002
}
  0
LEADER
  5
68
100
AcDbEntity
  8
MAIN10
  6
CONTINUOUS
 62
12
100
AcDbLeader
  3
MAIN001
 73
     0
 74
     0
 75
     1
 40
3.100000381469727
 41
8.000999999999976
 76
     3
 10
492.3344948825979
 20
207.4649383784221
 30
0.0000000000000000
 10
507.6568472843657
 20
180.9258455270854
 30
0.0000000000000000
 10
509.5918477840910
 20
180.9258455270854
 30
0.0000000000000000
340
69
213
-0.001000000000033197
223
-0.5000000000000000
233
0.0000000000000000
1001
ACAD
1000
DSTYLE
1002
{
1070
   147
1040
0.0
1070
    77
1070
     1
1070
   173
1070
     1
1070
     6
1000
_OPEN
1070
     7
1000
_OPEN
1002
}
  0
MTEXT
  5
69
102
{ACAD_REACTORS
330
68
102
}
100
AcDbEntity
  8
MAIN10
  6
CONTINUOUS
 62
4
100
AcDbMText
 10
509.5928477840910
 20
184.5258459085551
 30
0.0000000000000000
 40
3.100000381469727
 41
0.0000000000000000
 71
     1
 72
     1
  1
{\H0.90x;{M30}}
 11
1.000000000000000
 21
0.0000000000000000
 31
0.0000000000000000
  7
STANDARD
  0
DIMENSION
  5
72
100
AcDbEntity
  8
MAIN10
  6
CONTINUOUS
 62
12
100
AcDbDimension
  2
*D2
 10
293.3780474716842
 20
327.3602111355277
 30
0.0000000000000000
 11
374.7280474694493
 21
328.3602111355277
 31
0.0000000000000000
 70
32
  3
MAIN001
100
AcDbAlignedDimension
 13
462.3780474716846
 23
316.2649383903423
 33
0.0000000000000000
 14
293.3780474716842
 24
251.4263170667311
 34
0.0000000000000000
100
AcDbRotatedDimension
1001
ACAD
1000
DSTYLE
1002
{
1070
   173
1070
     1
1070
     6
1000
_OPEN
1070
     7
1000
_OPEN
1070
    41
1040
1.910672
1002
}
  0
DIMENSION
  5
7B
100
AcDbEntity
  8
MAIN10
  6
CONTINUOUS
 62
12
100
AcDbDimension
  2
*D3
 10
193.3780474716846
 20
337.3602111355277
 30
0.0000000000000000
 11
271.7280474694492
 21
338.3602111355277
 31
0.0000000000000000
 70
32
  3
MAIN001
100
AcDbAlignedDimension
 13
356.3780474716846
 23
317.2649383903423
 33
0.0000000000000000
 14
193.3780474716846
 24
266.2649383903423
 34
0.0000000000000000
100
AcDbRotatedDimension
1001
ACAD
1000
DSTYLE
1002
{
1070
   173
1070
     1
1070
     6
1000
_OPEN
1070
     7
1000
_OPEN
1070
    41
1040
1.910672
1002
}
  0
DIMENSION
  5
84
100
AcDbEntity
  8
MAIN10
  6
CONTINUOUS
 62
12
100
AcDbDimension
  2
*D4
 10
356.3780474716846
 20
337.3602111355277
 30
0.0000000000000000
 11
406.2280474694494
 21
338.3602111355277
 31
0.0000000000000000
 70
32
  3
MAIN001
100
AcDbAlignedDimension
 13
462.3780474716846
 23
316.2649383903423
 33
0.0000000000000000
 14
356.3780474716846
 24
317.2649383903423
 34
0.0000000000000000
100
AcDbRotatedDimension
1001
ACAD
1000
DSTYLE
1002
{
1070
   173
1070
     1
1070
     6
1000
_OPEN
1070
     7
1000
_OPEN
1070
    41
1040
1.910672
1002
}
  0
DIMENSION
  5
8F
100
AcDbEntity
  8
MAIN10
  6
CONTINUOUS
 62
12
100
AcDbDimension
  2
*D5
 10
462.3780474716846
 20
337.3602111355277
 30
0.0000000000000000
 11
463.8280474709395
 21
338.3602111355277
 31
0.0000000000000000
 70
32
  3
MAIN001
100
AcDbAlignedDimension
 13
467.3780474716846
 23
278.2649383903423
 33
0.0000000000000000
 14
462.3780474716846
 24
316.2649383903423
 34
0.0000000000000000
100
AcDbRotatedDimension
1001
ACAD
1000
DSTYLE
1002
{
1070
   173
1070
     1
1070
     6
1000
_OPEN
1070
     7
1000
_OPEN
1070
    41
1040
1.910672
1070
   287
1070
     0
1002
}
  0
DIMENSION
  5
98
100
AcDbEntity
  8
MAIN10
  6
CONTINUOUS
 62
12
100
AcDbDimension
  2
*D6
 10
287.3780474716843
 20
108.0182253403895
 30
0.0000000000000000
 11
371.7280474694493
 21
109.0182253403895
 31
0.0000000000000000
 70
32
  3
MAIN001
100
AcDbAlignedDimension
 13
462.3780474716846
 23
128.6649383665006
 33
0.0000000000000000
 14
287.3780474716843
 24
168.5303240671375
 34
0.0000000000000000
100
AcDbRotatedDimension
1001
ACAD
1000
DSTYLE
1002
{
1070
   173
1070
     1
1070
     6
1000
_OPEN
1070
     7
1000
_OPEN
1070
    41
1040
1.910672
1002
}
  0
DIMENSION
  5
A1
100
AcDbEntity
  8
MAIN10
  6
CONTINUOUS
 62
12
100
AcDbDimension
  2
*D7
 10
193.3780474716846
 20
347.3602111355277
 30
0.0000000000000000
 11
324.7280474694493
 21
348.3602111355277
 31
0.0000000000000000
 70
32
  3
MAIN001
100
AcDbAlignedDimension
 13
462.3780474716846
 23
316.2649383903423
 33
0.0000000000000000
 14
193.3780474716846
 24
266.2649383903423
 34
0.0000000000000000
100
AcDbRotatedDimension
1001
ACAD
1000
DSTYLE
1002
{
1070
   173
1070
     1
1070
     6
1000
_OPEN
1070
     7
1000
_OPEN
1070
    41
1040
1.910672
1002
}
  0
DIMENSION
  5
AA
100
AcDbEntity
  8
MAIN10
  6
CONTINUOUS
 62
12
100
AcDbDimension
  2
*D8
 10
462.3780474716846
 20
347.3602111355277
 30
0.0000000000000000
 11
484.0780508050743
 21
348.3602111355277
 31
0.0000000000000000
 70
32
  1
\A1;MAX 56
  3
MAIN001
100
AcDbAlignedDimension
 13
518.3780474716841
 23
244.2649383903421
 33
0.0000000000000000
 14
462.3780474716846
 24
316.2649383903423
 34
0.0000000000000000
100
AcDbRotatedDimension
1001
ACAD
1000
DSTYLE
1002
{
1070
   173
1070
     1
1070
     6
1000
_OPEN
1070
     7
1000
_OPEN
1070
    41
1040
1.910672
1002
}
  0
DIMENSION
  5
B3
100
AcDbEntity
  8
MAIN10
  6
CONTINUOUS
 62
12
100
AcDbDimension
  2
*D9
 10
72.39731746262939
 20
151.4565756495167
 30
0.0000000000000000
 11
90.29731793797643
 21
152.4565756495167
 31
0.0000000000000000
 70
32
  3
MAIN001
100
AcDbAlignedDimension
 13
112.3973174626294
 23
167.7211469087403
 33
0.0000000000000000
 14
72.39731746262939
 24
195.6106226078231
 34
0.0000000000000000
100
AcDbRotatedDimension
1001
ACAD
1000
DSTYLE
1002
{
1070
   173
1070
     1
1070
     6
1000
_OPEN
1070
     7
1000
_OPEN
1070
    41
1040
1.910672
1002
}
  0
DIMENSION
  5
BC
100
AcDbEntity
  8
MAIN10
  6
CONTINUOUS
 62
12
100
AcDbDimension
  2
*D10
 10
112.3973174626294
 20
151.4565756495167
 30
0.0000000000000000
 11
130.2973179379764
 21
152.4565756495167
 31
0.0000000000000000
 70
32
  3
MAIN001
100
AcDbAlignedDimension
 13
152.3973174626294
 23
195.6106226078231
 33
0.0000000000000000
 14
112.3973174626294
 24
167.7211469087403
 34
0.0000000000000000
100
AcDbRotatedDimension
1001
ACAD
1000
DSTYLE
1002
{
1070
   173
1070
     1
1070
     6
1000
_OPEN
1070
     7
1000
_OPEN
1070
    41
1040
1.910672
1002
}
  0
DIMENSION
  5
C5
100
AcDbEntity
  8
MAIN10
  6
CONTINUOUS
 62
3
100
AcDbDimension
  2
*D11
 10
573.3780474716841
 20
127.4649383784216
 30
0.0000000000000000
 11
572.8780474716841
 21
222.4649383784214
 31
0.0000000000000000
 70
32
  1
\A1;\U+2205190
  3
MAIN001
100
AcDbAlignedDimension
 13
460.3780474716846
 23
317.4649383784213
 33
0.0000000000000000
 14
460.3780474716846
 24
127.4649383784216
 34
0.0000000000000000
 50
90.00000000000000
100
AcDbRotatedDimension
1001
ACAD
1000
DSTYLE
1002
{
1070
   173
1070
     1
1070
     6
1000
_OPEN
1070
     7
1000
_OPEN
1070
    41
1040
2.000000
1002
}
  0
DIMENSION
  5
CE
100
AcDbEntity
  8
MAIN10
  6
CONTINUOUS
 62
3
100
AcDbDimension
  2
*D12
 10
553.3780474716841
 20
277.4649383784214
 30
0.0000000000000000
 11
552.8780474716841
 21
222.4649383784214
 31
0.0000000000000000
 70
32
  1
\A1;\U+2205110h7
  3
MAIN001
100
AcDbAlignedDimension
 13
467.3780474716846
 23
167.4649383784215
 33
0.0000000000000000
 14
467.3780474716846
 24
277.4649383784214
 34
0.0000000000000000
 50
90.00000000000000
100
AcDbRotatedDimension
1001
ACAD
1000
DSTYLE
1002
{
1070
   173
1070
     1
1070
     6
1000
_OPEN
1070
     7
1000
_OPEN
1070
    41
1040
2.000000
1002
}
  0
DIMENSION
  5
D7
100
AcDbEntity
  8
MAIN10
  6
CONTINUOUS
 62
3
100
AcDbDimension
  2
*D13
 10
543.3780474716841
 20
244.9649383784212
 30
0.0000000000000000
 11
542.8780474716841
 21
222.4649383784214
 31
0.0000000000000000
 70
32
  1
\A1;\U+220545
  3
MAIN001
100
AcDbAlignedDimension
 13
492.5120220678996
 23
199.9649383784217
 33
0.0000000000000000
 14
492.5120220678996
 24
244.9649383784212
 34
0.0000000000000000
 50
90.00000000000000
100
AcDbRotatedDimension
1001
ACAD
1000
DSTYLE
1002
{
1070
   173
1070
     1
1070
     6
1000
_OPEN
1070
     7
1000
_OPEN
1070
    41
1040
2.000000
1002
}
  0
DIMENSION
  5
E0
100
AcDbEntity
  8
MAIN10
  6
CONTINUOUS
 62
3
100
AcDbDimension
  2
*D14
 10
533.3780474716841
 20
237.9649383784220
 30
0.0000000000000000
 11
532.8780474716841
 21
222.4649383784214
 31
0.0000000000000000
 70
32
  1
\A1;\U+220531H8
  3
MAIN001
100
AcDbAlignedDimension
 13
517.5120220678982
 23
206.9649383784209
 33
0.0000000000000000
 14
517.5120220678982
 24
237.9649383784220
 34
0.0000000000000000
 50
90.00000000000000
100
AcDbRotatedDimension
1001
ACAD
1000
DSTYLE
1002
{
1070
   173
1070
     1
1070
     6
1000
_OPEN
1070
     7
1000
_OPEN
1070
    41
1040
2.000000
1002
}
  0
INSERT
  5
E8
100
AcDbEntity
  8
MAIN10
  6
CONTINUOUS
 62
3
100
AcDbBlockReference
  2
D15
 10
525.8845702281760
 20
222.4649383784214
 30
0.0000000000000000
 50
0.0000000000000000
  0
LEADER
  5
E9
100
AcDbEntity
  8
MAIN0
  6
CONTINUOUS
 62
3
100
AcDbLeader
  3
MAIN001
 73
     0
 74
     0
 75
     1
 40
3.099999904632568
 41
25.42100073194501
 76
     3
 10
451.0101929178962
 20
151.4649383784215
 30
0.0000000000000000
 10
477.8381994992499
 20
110.3406167230905
 30
0.0000000000000000
 10
479.7631994434599
 20
110.3406167230905
 30
0.0000000000000000
340
EA
213
0.0000000000000000
223
-0.5000000000000000
233
0.0000000000000000
1001
ACAD
1000
DSTYLE
1002
{
1070
   147
1040
0.0
1070
    77
1070
     1
1070
   173
1070
     1
1070
     6
1000
_OPEN
1070
     7
1000
_OPEN
1002
}
  0
MTEXT
  5
EA
102
{ACAD_REACTORS
330
E9
102
}
100
AcDbEntity
  8
MAIN0
  6
CONTINUOUS
 62
3
100
AcDbMText
 10
479.7641994434599
 20
113.9406166277230
 30
0.0000000000000000
 40
3.099999904632568
 41
0.0000000000000000
 71
     1
 72
     1
  1
{\H0.93x;{12-M12×24}}
 11
1.000000000000000
 21
0.0000000000000000
 31
0.0000000000000000
  7
KNJYOKO
  0
LINE
  5
EB
100
AcDbEntity
  8
MAIN0
  6
CONTINUOUS
 62
3
100
AcDbLine
 10
198.3780474716847
 20
267.4649383784213
 30
0.0000000000000000
 11
198.3780474716847
 21
270.6649383784213
 31
0.0000000000000000
  0
LINE
  5
EC
100
AcDbEntity
  8
MAIN0
  6
CONTINUOUS
 62
3
100
AcDbLine
 10
210.3780474716847
 20
267.4649383784213
 30
0.0000000000000000
 11
210.3780474716847
 21
270.6649383784213
 31
0.0000000000000000
  0
LINE
  5
ED
100
AcDbEntity
  8
MAIN0
  6
CONTINUOUS
 62
3
100
AcDbLine
 10
209.7780474716847
 20
267.4649383784213
 30
0.0000000000000000
 11
209.7780474716847
 21
270.6649383784213
 31
0.0000000000000000
  0
LINE
  5
EE
100
AcDbEntity
  8
MAIN0
  6
CONTINUOUS
 62
3
100
AcDbLine
 10
198.9780474716847
 20
267.4649383784213
 30
0.0000000000000000
 11
198.9780474716847
 21
270.6649383784213
 31
0.0000000000000000
  0
ARC
  5
EF
100
AcDbEntity
  8
MAIN0
  6
CONTINUOUS
 62
3
100
AcDbCircle
 10
154.9617714193591
 20
355.0054146035424
 30
0.0000000000000000
 40
5.400000000000000
100
AcDbArc
 50
30.00000000000010
 51
210.0000000000000
  0
ARC
  5
F0
100
AcDbEntity
  8
MAIN0
  6
CONTINUOUS
 62
12
100
AcDbCircle
 10
154.9617714193591
 20
355.0054146035424
 30
0.0000000000000000
 40
6.000000000000000
100
AcDbArc
 50
30.00000000000009
 51
210.0000000000000
  0
ARC
  5
F1
100
AcDbEntity
  8
MAIN0
  6
CENTER
 62
12
100
AcDbCircle
 10
74.40475987842484
 20
376.9658558804432
 30
0.0000000000000000
 40
6.000000000000000
100
AcDbArc
 50
89.99999999999970
 51
269.9999999999999
  0
ARC
  5
F2
100
AcDbEntity
  8
MAIN0
  6
CENTER
 62
12
100
AcDbCircle
 10
74.40475987842484
 20
376.9658558804432
 30
0.0000000000000000
 40
5.400000000000000
100
AcDbArc
 50
89.99999999999970
 51
269.9999999999999
  0
LEADER
  5
F3
100
AcDbEntity
  8
MAIN0
  6
CONTINUOUS
 62
3
100
AcDbLeader
  3
MAIN001
 73
     0
 74
     0
 75
     1
 40
3.099999904632568
 41
14.26100040769578
 76
     3
 10
210.3780474716847
 20
269.3703109688162
 30
0.0000000000000000
 10
216.8181933792434
 20
288.3405249628242
 30
0.0000000000000000
 10
218.7431933234535
 20
288.3405249628242
 30
0.0000000000000000
340
F4
213
-0.001000000000004775
223
-0.5000000000000000
233
0.0000000000000000
1001
ACAD
1000
DSTYLE
1002
{
1070
   147
1040
0.0
1070
    77
1070
     1
1070
   173
1070
     1
1070
     6
1000
_OPEN
1070
     7
1000
_OPEN
1002
}
  0
MTEXT
  5
F4
102
{ACAD_REACTORS
330
F3
102
}
100
AcDbEntity
  8
MAIN0
  6
CONTINUOUS
 62
3
100
AcDbMText
 10
218.7441933234535
 20
291.9405248674568
 30
0.0000000000000000
 40
3.099999904632568
 41
0.0000000000000000
 71
     1
 72
     1
  1
{\H0.92x;{M12×1}}
 11
1.000000000000000
 21
0.0000000000000000
 31
0.0000000000000000
  7
KNJYOKO
  0
ARC
  5
F5
100
AcDbEntity
  8
MAIN0
  6
CONTINUOUS
 62
3
100
AcDbCircle
 10
353.3780474716846
 20
183.4649383784215
 30
0.0000000000000000
 40
3.000000000000000
100
AcDbArc
 50
0.0000000000000000
 51
90.00000000000000
  0
ARC
  5
F6
100
AcDbEntity
  8
MAIN0
  6
CONTINUOUS
 62
3
100
AcDbCircle
 10
353.3780474716846
 20
261.4649383784214
 30
0.0000000000000000
 40
3.000000000000000
100
AcDbArc
 50
270.0000000000000
 51
360.0000000000000
  0
LINE
  5
F7
100
AcDbEntity
  8
MAIN0
  6
CONTINUOUS
 62
3
100
AcDbLine
 10
318.3780474716846
 20
261.4649383784214
 30
0.0000000000000000
 11
317.3780474716847
 21
262.4649383784213
 31
0.0000000000000000
  0
LINE
  5
F8
100
AcDbEntity
  8
MAIN0
  6
CONTINUOUS
 62
3
100
AcDbLine
 10
318.3780474716846
 20
261.4649383784214
 30
0.0000000000000000
 11
328.3780474716846
 21
261.4649383784214
 31
0.0000000000000000
  0
LINE
  5
F9
100
AcDbEntity
  8
MAIN0
  6
CONTINUOUS
 62
3
100
AcDbLine
 10
318.3780474716846
 20
183.4649383784214
 30
0.0000000000000000
 11
317.3780474716847
 21
182.4649383784215
 31
0.0000000000000000
  0
LINE
  5
FA
100
AcDbEntity
  8
MAIN0
  6
CONTINUOUS
 62
3
100
AcDbLine
 10
318.3780474716846
 20
183.4649383784214
 30
0.0000000000000000
 11
328.3780474716846
 21
183.4649383784214
 31
0.0000000000000000
  0
LINE
  5
FB
100
AcDbEntity
  8
MAIN0
  6
CONTINUOUS
 62
3
100
AcDbLine
 10
317.3780474716847
 20
182.4649383784216
 30
0.0000000000000000
 11
317.3780474716847
 21
262.4649383784213
 31
0.0000000000000000
  0
LINE
  5
FC
100
AcDbEntity
  8
MAIN0
  6
CONTINUOUS
 62
3
100
AcDbLine
 10
318.3780474716846
 20
261.4649383784214
 30
0.0000000000000000
 11
318.3780474716846
 21
183.4649383784214
 31
0.0000000000000000
  0
LINE
  5
FD
100
AcDbEntity
  8
MAIN0
  6
CONTINUOUS
 62
3
100
AcDbLine
 10
163.3684606329290
 20
224.1803286875947
 30
0.0000000000000000
 11
166.1397419250392
 21
225.7803286875947
 31
0.0000000000000000
  0
LINE
  5
FE
100
AcDbEntity
  8
MAIN0
  6
CONTINUOUS
 62
3
100
AcDbLine
 10
139.3684606329290
 20
265.7495480692478
 30
0.0000000000000000
 11
142.1397419250392
 21
267.3495480692478
 31
0.0000000000000000
  0
LINE
  5
FF
100
AcDbEntity
  8
MAIN0
  6
CONTINUOUS
 62
3
100
AcDbLine
 10
136.3973174626295
 20
267.4649383784212
 30
0.0000000000000000
 11
136.3973174626295
 21
270.6649383784213
 31
0.0000000000000000
  0
LINE
  5
100
100
AcDbEntity
  8
MAIN0
  6
CONTINUOUS
 62
3
100
AcDbLine
 10
88.39731746262945
 20
267.4649383784212
 30
0.0000000000000000
 11
88.39731746262945
 21
270.6649383784213
 31
0.0000000000000000
  0
LINE
  5
101
100
AcDbEntity
  8
MAIN0
  6
CONTINUOUS
 62
3
100
AcDbLine
 10
174.7560000534189
 20
338.7208049127158
 30
0.0000000000000000
 11
218.9232956464253
 21
364.2208049127157
 31
0.0000000000000000
  0
LINE
  5
102
100
AcDbEntity
  8
MAIN0
  6
CONTINUOUS
 62
3
100
AcDbLine
 10
98.40475987842484
 20
316.9658558804432
 30
0.0000000000000000
 11
98.40475987842484
 21
367.9658558804432
 31
0.0000000000000000
  0
LINE
  5
103
100
AcDbEntity
  8
MAIN0
  6
CONTINUOUS
 62
3
100
AcDbLine
 10
92.89731734428887
 20
177.4649383784216
 30
0.0000000000000000
 11
131.8973174626294
 21
177.4649383784216
 31
0.0000000000000000
  0
LINE
  5
104
100
AcDbEntity
  8
MAIN0
  6
CONTINUOUS
 62
3
100
AcDbLine
 10
91.89731746262945
 20
178.4649383486192
 30
0.0000000000000000
 11
91.89731746262945
 21
180.4649383784214
 31
0.0000000000000000
  0
ARC
  5
105
100
AcDbEntity
  8
MAIN0
  6
CONTINUOUS
 62
3
100
AcDbCircle
 10
92.89731746262959
 20
178.4649383784216
 30
0.0000000000000000
 40
1.000000000000000
100
AcDbArc
 50
179.9999999999998
 51
269.9999999999999
  0
ARC
  5
106
100
AcDbEntity
  8
MAIN0
  6
CONTINUOUS
 62
3
100
AcDbCircle
 10
88.89731746262945
 20
180.4649383784216
 30
0.0000000000000000
 40
3.000000000000000
100
AcDbArc
 50
359.9999999999998
 51
449.9999999999999
  0
LINE
  5
107
100
AcDbEntity
  8
MAIN0
  6
CONTINUOUS
 62
3
100
AcDbLine
 10
132.8973174626293
 20
178.4649383037215
 30
0.0000000000000000
 11
132.8973174626292
 21
182.9206593990292
 31
0.0000000000000000
  0
ARC
  5
108
100
AcDbEntity
  8
MAIN0
  6
CONTINUOUS
 62
3
100
AcDbCircle
 10
131.8973174626294
 20
178.4649383784216
 30
0.0000000000000000
 40
1.000000000000000
100
AcDbArc
 50
269.9999999999999
 51
360.0000000000000
  0
ARC
  5
109
100
AcDbEntity
  8
MAIN0
  6
CONTINUOUS
 62
3
100
AcDbCircle
 10
135.8973174626294
 20
182.9206593990293
 30
0.0000000000000000
 40
3.000000000000000
100
AcDbArc
 50
120.7217684180167
 51
180.0000000000000
  0
DIMENSION
  5
113
100
AcDbEntity
  8
MAIN10
  6
CONTINUOUS
 62
3
100
AcDbDimension
  2
*D16
 10
237.3780474716836
 20
255.4649383784212
 30
0.0000000000000000
 11
233.9245276154697
 21
255.9649383784212
 31
0.0000000000000000
 70
160
  3
MAIN001
100
AcDbAlignedDimension
 13
242.3780474716836
 23
252.4649383784208
 33
0.0000000000000000
 14
237.3780474716836
 24
252.4649383784208
 34
0.0000000000000000
100
AcDbRotatedDimension
1001
ACAD
1000
DSTYLE
1002
{
1070
   173
1070
     1
1070
     6
1000
_DOT
1070
     7
1000
_OPEN
1070
    41
1040
2.000000
1070
   287
1070
     0
1002
}
  0
DIMENSION
  5
11D
100
AcDbEntity
  8
MAIN10
  6
CONTINUOUS
 62
3
100
AcDbDimension
  2
*D17
 10
242.3780474716836
 20
255.4649383784212
 30
0.0000000000000000
 11
249.0741739844505
 21
255.9649383784212
 31
0.0000000000000000
 70
160
  3
MAIN001
100
AcDbAlignedDimension
 13
245.3780474716847
 23
262.4649383784213
 33
0.0000000000000000
 14
242.3780474716836
 24
252.4649383784208
 34
0.0000000000000000
100
AcDbRotatedDimension
1001
ACAD
1000
DSTYLE
1002
{
1070
   173
1070
     1
1070
     6
1000
_OPEN
1070
     7
1000
_DOT
1070
    41
1040
2.000000
1070
   287
1070
     0
1002
}
  0
LEADER
  5
11E
100
AcDbEntity
  8
MAIN0
  6
CONTINUOUS
 62
3
100
AcDbLeader
  3
MAIN001
 73
     0
 74
     0
 75
     1
 40
3.099999904632568
 41
55.42100162601471
 76
     3
 10
207.9722790229721
 20
371.9768525121193
 30
0.0000000000000000
 10
229.5841351530314
 20
380.9639704575809
 30
0.0000000000000000
 10
231.5091350972415
 20
380.9639704575809
 30
0.0000000000000000
340
11F
213
-0.001000000000004775
223
-0.5000000000000000
233
0.0000000000000000
1001
ACAD
1000
DSTYLE
1002
{
1070
   147
1040
0.0
1070
    77
1070
     1
1070
   173
1070
     1
1070
     6
1000
_DOT
1070
     7
1000
_DOT
1002
}
  0
MTEXT
  5
11F
102
{ACAD_REACTORS
330
11E
102
}
100
AcDbEntity
  8
MAIN0
  6
CONTINUOUS
 62
3
100
AcDbMText
 10
231.5101350972415
 20
384.5639703622135
 30
0.0000000000000000
 40
3.099999904632568
 41
0.0000000000000000
 71
     1
 72
     1
  1
{\H0.94x;{近接スイッチ取付プレート\PTHE MOUNTING PLATE \PFOR PROXIMITY SWITCH}}
 11
1.000000000000000
 21
0.0000000000000000
 31
0.0000000000000000
  7
KNJYOKO
  0
INSERT
  5
14A
100
AcDbEntity
  8
MAIN0
  6
CONTINUOUS
 62
3
100
AcDbBlockReference
  2
M0
 10
0.0000000000000000
 20
0.0000000000000000
 30
0.0000000000000000
 50
0.0000000000000000
  0
LINE
  5
14B
100
AcDbEntity
  8
MAIN0
  6
CONTINUOUS
 62
3
100
AcDbLine
 10
467.3780474716846
 20
244.9649383784212
 30
0.0000000000000000
 11
467.3780474716846
 21
277.4649383784213
 31
0.0000000000000000
  0
LINE
  5
14C
100
AcDbEntity
  8
MAIN0
  6
CONTINUOUS
 62
3
100
AcDbLine
 10
462.3780474716846
 20
277.4649383784214
 30
0.0000000000000000
 11
467.3780474716846
 21
277.4649383784214
 31
0.0000000000000000
  0
LINE
  5
14D
100
AcDbEntity
  8
MAIN0
  6
CONTINUOUS
 62
3
100
AcDbLine
 10
370.3780474716845
 20
317.4649383784213
 30
0.0000000000000000
 11
460.3780474716846
 21
317.4649383784213
 31
0.0000000000000000
  0
LINE
  5
14E
100
AcDbEntity
  8
MAIN0
  6
CONTINUOUS
 62
3
100
AcDbLine
 10
467.3780474716846
 20
199.9649383784217
 30
0.0000000000000000
 11
467.3780474716846
 21
167.4649383784216
 31
0.0000000000000000
  0
LINE
  5
14F
100
AcDbEntity
  8
MAIN0
  6
CONTINUOUS
 62
3
100
AcDbLine
 10
462.3780474716846
 20
167.4649383784215
 30
0.0000000000000000
 11
467.3780474716846
 21
167.4649383784215
 31
0.0000000000000000
  0
LINE
  5
150
100
AcDbEntity
  8
MAIN0
  6
CONTINUOUS
 62
3
100
AcDbLine
 10
369.3780474716846
 20
127.4649383784216
 30
0.0000000000000000
 11
460.3780474716846
 21
127.4649383784216
 31
0.0000000000000000
  0
LINE
  5
151
100
AcDbEntity
  8
MAIN0
  6
CENTER
 62
12
100
AcDbLine
 10
430.8522874500874
 20
157.4649383784212
 30
0.0000000000000000
 11
465.7575996627662
 21
157.4649383784212
 31
0.0000000000000000
  0
LINE
  5
152
100
AcDbEntity
  8
MAIN0
  6
CONTINUOUS
 62
3
100
AcDbLine
 10
460.7780474716845
 20
162.5649383784214
 30
0.0000000000000000
 11
460.7780474716847
 21
152.3649383784214
 31
0.0000000000000000
  0
LINE
  5
153
100
AcDbEntity
  8
MAIN0
  6
CONTINUOUS
 62
3
100
AcDbLine
 10
370.3780474716846
 20
127.4649383784216
 30
0.0000000000000000
 11
370.3780474716846
 21
317.4649383784410
 31
0.0000000000000000
  0
ARC
  5
154
100
AcDbEntity
  8
MAIN0
  6
CONTINUOUS
 62
3
100
AcDbCircle
 10
460.3780474716846
 20
315.4649383784213
 30
0.0000000000000000
 40
2.000000000000000
100
AcDbArc
 50
0.0000000000000000
 51
89.99999999999970
  0
ARC
  5
155
100
AcDbEntity
  8
MAIN0
  6
CONTINUOUS
 62
3
100
AcDbCircle
 10
460.3780474716846
 20
129.4649383784216
 30
0.0000000000000000
 40
2.000000000000000
100
AcDbArc
 50
269.9999999999999
 51
359.9999999999998
  0
LINE
  5
156
100
AcDbEntity
  8
MAIN0
  6
CONTINUOUS
 62
3
100
AcDbLine
 10
462.3780474716845
 20
244.9649383784212
 30
0.0000000000000000
 11
492.5120220678996
 21
244.9649383784212
 31
0.0000000000000000
  0
LINE
  5
157
100
AcDbEntity
  8
MAIN0
  6
CONTINUOUS
 62
3
100
AcDbLine
 10
457.6227763769479
 20
199.9649383784217
 30
0.0000000000000000
 11
492.5120220678996
 21
199.9649383784217
 31
0.0000000000000000
  0
LINE
  5
158
100
AcDbEntity
  8
MAIN0
  6
CONTINUOUS
 62
3
100
AcDbLine
 10
518.3780474716841
 20
201.4649383784217
 30
0.0000000000000000
 11
518.3780474716841
 21
243.4649383784212
 31
0.0000000000000000
  0
LINE
  5
159
100
AcDbEntity
  8
MAIN0
  6
CONTINUOUS
 62
3
100
AcDbLine
 10
493.3780474716837
 20
244.4649383784212
 30
0.0000000000000000
 11
517.3780474716841
 21
244.4649383784212
 31
0.0000000000000000
  0
LINE
  5
15A
100
AcDbEntity
  8
MAIN0
  6
CONTINUOUS
 62
3
100
AcDbLine
 10
492.5120220678996
 20
244.9649383784214
 30
0.0000000000000000
 11
493.3780474716840
 21
244.4649383784214
 31
0.0000000000000000
  0
LINE
  5
15B
100
AcDbEntity
  8
MAIN0
  6
CONTINUOUS
 62
3
100
AcDbLine
 10
517.3780474716845
 20
244.4649383784214
 30
0.0000000000000000
 11
518.3780474716845
 21
243.4649383784214
 31
0.0000000000000000
  0
LINE
  5
15C
100
AcDbEntity
  8
MAIN0
  6
CONTINUOUS
 62
3
100
AcDbLine
 10
493.3780474716837
 20
200.4649383784217
 30
0.0000000000000000
 11
517.3780474716841
 21
200.4649383784217
 31
0.0000000000000000
  0
LINE
  5
15D
100
AcDbEntity
  8
MAIN0
  6
CONTINUOUS
 62
3
100
AcDbLine
 10
492.5120220678996
 20
199.9649383784215
 30
0.0000000000000000
 11
493.3780474716840
 21
200.4649383784215
 31
0.0000000000000000
  0
LINE
  5
15E
100
AcDbEntity
  8
MAIN0
  6
CONTINUOUS
 62
3
100
AcDbLine
 10
517.3780474716845
 20
200.4649383784214
 30
0.0000000000000000
 11
518.3780474716845
 21
201.4649383784214
 31
0.0000000000000000
  0
LINE
  5
15F
100
AcDbEntity
  8
MAIN0
  6
CONTINUOUS
 62
3
100
AcDbLine
 10
513.3780474716841
 20
237.9649383784220
 30
0.0000000000000000
 11
517.5120220678982
 21
237.9649383784220
 31
0.0000000000000000
  0
LINE
  5
160
100
AcDbEntity
  8
MAIN0
  6
CONTINUOUS
 62
3
100
AcDbLine
 10
517.5120220678999
 20
237.9649383784219
 30
0.0000000000000000
 11
518.3780474716845
 21
238.4649383784220
 31
0.0000000000000000
  0
LINE
  5
161
100
AcDbEntity
  8
MAIN0
  6
CONTINUOUS
 62
3
100
AcDbLine
 10
512.0790093660077
 20
235.7149383784219
 30
0.0000000000000000
 11
513.3780474716843
 21
237.9649383784220
 31
0.0000000000000000
  0
LINE
  5
162
100
AcDbEntity
  8
MAIN0
  6
CONTINUOUS
 62
3
100
AcDbLine
 10
513.3780474716841
 20
206.9649383784209
 30
0.0000000000000000
 11
517.5120220678982
 21
206.9649383784209
 31
0.0000000000000000
  0
LINE
  5
163
100
AcDbEntity
  8
MAIN0
  6
CONTINUOUS
 62
3
100
AcDbLine
 10
517.5120220678998
 20
206.9649383784209
 30
0.0000000000000000
 11
518.3780474716843
 21
206.4649383784208
 31
0.0000000000000000
  0
LINE
  5
164
100
AcDbEntity
  8
MAIN0
  6
CONTINUOUS
 62
3
100
AcDbLine
 10
512.0790093660070
 20
209.2149383784221
 30
0.0000000000000000
 11
513.3780474716843
 21
206.9649383784209
 31
0.0000000000000000
  0
LINE
  5
165
100
AcDbEntity
  8
MAIN0
  6
CONTINUOUS
 62
3
100
AcDbLine
 10
513.3780474716841
 20
206.9649383784209
 30
0.0000000000000000
 11
513.3780474716841
 21
237.9649383784220
 31
0.0000000000000000
  0
LINE
  5
166
100
AcDbEntity
  8
MAIN0
  6
CONTINUOUS
 62
3
100
AcDbLine
 10
517.5120220678982
 20
206.9649383784209
 30
0.0000000000000000
 11
517.5120220678982
 21
237.9649383784220
 31
0.0000000000000000
  0
LINE
  5
167
100
AcDbEntity
  8
MAIN0
  6
CONTINUOUS
 62
3
100
AcDbLine
 10
357.3780474716846
 20
317.4649383784213
 30
0.0000000000000000
 11
370.3780474716846
 21
317.4649383784213
 31
0.0000000000000000
  0
LINE
  5
168
100
AcDbEntity
  8
MAIN0
  6
CONTINUOUS
 62
3
100
AcDbLine
 10
357.3780474716846
 20
127.4649383784216
 30
0.0000000000000000
 11
369.3780474716845
 21
127.4649383784216
 31
0.0000000000000000
  0
LINE
  5
169
100
AcDbEntity
  8
MAIN0
  6
CONTINUOUS
 62
3
100
AcDbLine
 10
329.3780474716845
 20
186.4649383784215
 30
0.0000000000000000
 11
353.3780474716846
 21
186.4649383784215
 31
0.0000000000000000
  0
LINE
  5
16A
100
AcDbEntity
  8
MAIN0
  6
CONTINUOUS
 62
3
100
AcDbLine
 10
328.3780474716845
 20
198.1969891859898
 30
0.0000000000000000
 11
329.3780474716845
 21
196.4649383784210
 31
0.0000000000000000
  0
LINE
  5
16B
100
AcDbEntity
  8
MAIN0
  6
CONTINUOUS
 62
3
100
AcDbLine
 10
329.3780474716845
 20
258.4649383784215
 30
0.0000000000000000
 11
353.3780474716846
 21
258.4649383784214
 31
0.0000000000000000
  0
LINE
  5
16C
100
AcDbEntity
  8
MAIN0
  6
CONTINUOUS
 62
3
100
AcDbLine
 10
328.3780474716844
 20
246.7328875708532
 30
0.0000000000000000
 11
329.3780474716843
 21
248.4649383784220
 31
0.0000000000000000
  0
ARC
  5
16D
100
AcDbEntity
  8
MAIN0
  6
CONTINUOUS
 62
3
100
AcDbCircle
 10
357.3780474716846
 20
316.4649383784213
 30
0.0000000000000000
 40
1.000000000000000
100
AcDbArc
 50
89.99999999999970
 51
179.9999999999998
  0
ARC
  5
16E
100
AcDbEntity
  8
MAIN0
  6
CONTINUOUS
 62
3
100
AcDbCircle
 10
357.3780474716846
 20
128.4649383784216
 30
0.0000000000000000
 40
1.000000000000000
100
AcDbArc
 50
179.9999999999998
 51
269.9999999999999
  0
LINE
  5
16F
100
AcDbEntity
  8
MAIN0
  6
CONTINUOUS
 62
12
100
AcDbLine
 10
473.3780474716846
 20
207.4649383784221
 30
0.0000000000000000
 11
513.0893723370864
 21
207.4649383784221
 31
0.0000000000000000
  0
LINE
  5
170
100
AcDbEntity
  8
MAIN0
  6
CONTINUOUS
 62
12
100
AcDbLine
 10
473.3780474716846
 20
237.4649383784221
 30
0.0000000000000000
 11
513.0893723370864
 21
237.4649383784221
 31
0.0000000000000000
  0
LINE
  5
171
100
AcDbEntity
  8
MAIN0
  6
CONTINUOUS
 62
3
100
AcDbLine
 10
460.3780474716841
 20
209.2149383784220
 30
0.0000000000000000
 11
512.0790093660035
 21
209.2149383784220
 31
0.0000000000000000
  0
LINE
  5
172
100
AcDbEntity
  8
MAIN0
  6
CONTINUOUS
 62
3
100
AcDbLine
 10
460.3780474716841
 20
235.7149383784219
 30
0.0000000000000000
 11
512.0790093660071
 21
235.7149383784219
 31
0.0000000000000000
  0
LINE
  5
173
100
AcDbEntity
  8
MAIN0
  6
CONTINUOUS
 62
3
100
AcDbLine
 10
473.3780474716846
 20
207.4649383784221
 30
0.0000000000000000
 11
473.3780474716846
 21
237.4649383784221
 31
0.0000000000000000
  0
LINE
  5
174
100
AcDbEntity
  8
MAIN0
  6
CENTER
 62
12
100
AcDbLine
 10
112.3973174626294
 20
168.5211469206612
 30
0.0000000000000000
 11
112.3973174626294
 21
289.9408111537655
 31
0.0000000000000000
  0
LINE
  5
175
100
AcDbEntity
  8
MAIN0
  6
CENTER
 62
12
100
AcDbLine
 10
56.49409288838783
 20
222.4649383784214
 30
0.0000000000000000
 11
157.7050133128577
 21
222.4649383784214
 31
0.0000000000000000
  0
LINE
  5
176
100
AcDbEntity
  8
MAIN0
  6
CENTER
 62
12
100
AcDbLine
 10
174.1103409243660
 20
222.4649383784214
 30
0.0000000000000000
 11
525.8845702281760
 21
222.4649383784214
 31
0.0000000000000000
  0
LINE
  5
177
100
AcDbEntity
  8
MAIN0
  6
CONTINUOUS
 62
3
100
AcDbLine
 10
243.3780474716845
 20
229.9649383784214
 30
0.0000000000000000
 11
244.7359569158978
 21
229.9649383784214
 31
0.0000000000000000
  0
LINE
  5
178
100
AcDbEntity
  8
MAIN0
  6
CONTINUOUS
 62
3
100
AcDbLine
 10
243.3780474716845
 20
214.9649383784214
 30
0.0000000000000000
 11
244.1352375272564
 21
214.9649383784214
 31
0.0000000000000000
  0
LINE
  5
179
100
AcDbEntity
  8
MAIN0
  6
CONTINUOUS
 62
3
100
AcDbLine
 10
243.3780474716845
 20
210.9649383784215
 30
0.0000000000000000
 11
243.3780474716845
 21
214.9649383784214
 31
0.0000000000000000
  0
LINE
  5
17A
100
AcDbEntity
  8
MAIN0
  6
CONTINUOUS
 62
3
100
AcDbLine
 10
243.3780474716845
 20
229.9649383784214
 30
0.0000000000000000
 11
243.3780474716845
 21
233.9649383784214
 31
0.0000000000000000
  0
LINE
  5
17B
100
AcDbEntity
  8
MAIN0
  6
CENTER
 62
12
100
AcDbLine
 10
120.0162735322951
 20
334.8296219914804
 30
0.0000000000000000
 11
217.4103905743346
 21
391.0601416831880
 31
0.0000000000000000
  0
LINE
  5
17C
100
AcDbEntity
  8
MAIN0
  6
CENTER
 62
12
100
AcDbLine
 10
74.40475987842484
 20
289.9408111537655
 30
0.0000000000000000
 11
74.40475987842484
 21
401.9008210229546
 31
0.0000000000000000
  0
LINE
  5
17D
100
AcDbEntity
  8
MAIN0
  6
CENTER
 62
12
100
AcDbLine
 10
120.0162735322951
 20
334.8296219914803
 30
0.0000000000000000
 11
166.7668697634336
 21
253.8552140350103
 31
0.0000000000000000
  0
LINE
  5
17E
100
AcDbEntity
  8
MAIN0
  6
CENTER
 62
12
100
AcDbLine
 10
112.3973174626294
 20
289.9408111537655
 30
0.0000000000000000
 11
74.40475987842484
 21
289.9408111537655
 31
0.0000000000000000
  0
LINE
  5
17F
100
AcDbEntity
  8
MAIN0
  6
CONTINUOUS
 62
3
100
AcDbLine
 10
52.40475987842484
 20
301.9658558804432
 30
0.0000000000000000
 11
74.40475987842487
 21
301.9658558804432
 31
0.0000000000000000
  0
LINE
  5
180
100
AcDbEntity
  8
MAIN0
  6
CENTER
 62
12
100
AcDbLine
 10
52.40475987842484
 20
397.9658558804432
 30
0.0000000000000000
 11
74.40475987842484
 21
397.9658558804432
 31
0.0000000000000000
  0
LINE
  5
181
100
AcDbEntity
  8
MAIN0
  6
CENTER
 62
12
100
AcDbLine
 10
115.2669076906882
 20
355.7589353811234
 30
0.0000000000000000
 11
125.5169076906882
 21
338.0054146035423
 31
0.0000000000000000
  0
LINE
  5
182
100
AcDbEntity
  8
MAIN0
  6
CONTINUOUS
 62
3
100
AcDbLine
 10
197.6553464539941
 20
405.0579734868001
 30
0.0000000000000000
 11
219.6553464539941
 21
366.9528557202846
 31
0.0000000000000000
  0
LINE
  5
183
100
AcDbEntity
  8
MAIN0
  6
CONTINUOUS
 62
3
100
AcDbLine
 10
52.40475987842481
 20
356.9658558804432
 30
0.0000000000000000
 11
74.40475987842484
 21
356.9658558804432
 31
0.0000000000000000
  0
LINE
  5
184
100
AcDbEntity
  8
MAIN0
  6
CONTINUOUS
 62
3
100
AcDbLine
 10
150.0239492458501
 20
377.5579734868000
 30
0.0000000000000000
 11
172.0239492458500
 21
339.4528557202847
 31
0.0000000000000000
  0
LINE
  5
185
100
AcDbEntity
  8
MAIN0
  6
CENTER
 62
12
100
AcDbLine
 10
63.11810903825548
 20
335.9658558804432
 30
0.0000000000000000
 11
78.92800101931829
 21
335.9658558804432
 31
0.0000000000000000
  0
LINE
  5
186
100
AcDbEntity
  8
MAIN0
  6
CENTER
 62
12
100
AcDbLine
 10
51.90475987842481
 20
349.9658558804432
 30
0.0000000000000000
 11
65.73982590095983
 21
349.9658558804432
 31
0.0000000000000000
  0
LINE
  5
187
100
AcDbEntity
  8
MAIN0
  6
CENTER
 62
12
100
AcDbLine
 10
51.90475987842481
 20
308.9658558804432
 30
0.0000000000000000
 11
65.81927508514747
 21
308.9658558804432
 31
0.0000000000000000
  0
LINE
  5
188
100
AcDbEntity
  8
MAIN0
  6
CENTER
 62
12
100
AcDbLine
 10
58.40475987842484
 20
300.2264736670189
 30
0.0000000000000000
 11
58.40475987842484
 21
358.7787875603365
 31
0.0000000000000000
  0
LINE
  5
189
100
AcDbEntity
  8
MAIN0
  6
CENTER
 62
12
100
AcDbLine
 10
63.11810903825548
 20
376.9658558804432
 30
0.0000000000000000
 11
79.32524694025636
 21
376.9658558804432
 31
0.0000000000000000
  0
LINE
  5
18A
100
AcDbEntity
  8
MAIN0
  6
CONTINUOUS
 62
3
100
AcDbLine
 10
61.15475987842484
 20
308.9658558804431
 30
0.0000000000000000
 11
61.15475987842484
 21
345.7900326083206
 31
0.0000000000000000
  0
LINE
  5
18B
100
AcDbEntity
  8
MAIN0
  6
CONTINUOUS
 62
3
100
AcDbLine
 10
55.65475987842484
 20
308.9658558804431
 30
0.0000000000000000
 11
55.65475987842484
 21
345.7900326083206
 31
0.0000000000000000
  0
LINE
  5
18C
100
AcDbEntity
  8
MAIN0
  6
CONTINUOUS
 62
3
100
AcDbLine
 10
45.48088582087794
 20
326.9658558804432
 30
0.0000000000000000
 11
50.40475987842484
 21
326.9658558804432
 31
0.0000000000000000
  0
LINE
  5
18D
100
AcDbEntity
  8
MAIN0
  6
HIDDEN
 62
12
100
AcDbLine
 10
50.40475987842481
 20
326.9658558804432
 30
0.0000000000000000
 11
98.40475987842484
 21
326.9658558804432
 31
0.0000000000000000
  0
LINE
  5
18E
100
AcDbEntity
  8
MAIN0
  6
CONTINUOUS
 62
3
100
AcDbLine
 10
98.40475987842487
 20
326.9658558804432
 30
0.0000000000000000
 11
102.7620481723562
 21
326.9658558804432
 31
0.0000000000000000
  0
LINE
  5
18F
100
AcDbEntity
  8
MAIN0
  6
CONTINUOUS
 62
3
100
AcDbLine
 10
45.48088582087794
 20
325.3658558804432
 30
0.0000000000000000
 11
50.40475987842484
 21
325.3658558804432
 31
0.0000000000000000
  0
LINE
  5
190
100
AcDbEntity
  8
MAIN0
  6
HIDDEN
 62
12
100
AcDbLine
 10
50.40475987842481
 20
325.3658558804432
 30
0.0000000000000000
 11
98.40475987842484
 21
325.3658558804432
 31
0.0000000000000000
  0
LINE
  5
191
100
AcDbEntity
  8
MAIN0
  6
CONTINUOUS
 62
3
100
AcDbLine
 10
98.40475987842487
 20
325.3658558804432
 30
0.0000000000000000
 11
102.7620481723562
 21
325.3658558804432
 31
0.0000000000000000
  0
LINE
  5
192
100
AcDbEntity
  8
MAIN0
  6
CENTER
 62
12
100
AcDbLine
 10
96.90475987842490
 20
349.9658558804432
 30
0.0000000000000000
 11
83.06969385588988
 21
349.9658558804432
 31
0.0000000000000000
  0
LINE
  5
193
100
AcDbEntity
  8
MAIN0
  6
CENTER
 62
12
100
AcDbLine
 10
90.40475987842487
 20
316.5925453425572
 30
0.0000000000000000
 11
90.40475987842487
 21
358.7787875603365
 31
0.0000000000000000
  0
LINE
  5
194
100
AcDbEntity
  8
MAIN0
  6
CONTINUOUS
 62
3
100
AcDbLine
 10
74.40475987842490
 20
369.9658558804432
 30
0.0000000000000000
 11
96.40475987842487
 21
369.9658558804432
 31
0.0000000000000000
  0
LINE
  5
195
100
AcDbEntity
  8
MAIN0
  6
CONTINUOUS
 62
3
100
AcDbLine
 10
74.40475987842490
 20
384.9658558804432
 30
0.0000000000000000
 11
94.90475987842484
 21
384.9658558804432
 31
0.0000000000000000
  0
LINE
  5
196
100
AcDbEntity
  8
MAIN0
  6
CONTINUOUS
 62
3
100
AcDbLine
 10
74.40475987842493
 20
314.9658558804432
 30
0.0000000000000000
 11
96.40475987842484
 21
314.9658558804432
 31
0.0000000000000000
  0
LINE
  5
197
100
AcDbEntity
  8
MAIN0
  6
CONTINUOUS
 62
3
100
AcDbLine
 10
74.40475987842493
 20
313.9658558804432
 30
0.0000000000000000
 11
94.90475987842484
 21
313.9658558804432
 31
0.0000000000000000
  0
LINE
  5
198
100
AcDbEntity
  8
MAIN0
  6
CENTER
 62
12
100
AcDbLine
 10
96.90475987842490
 20
335.9658558804432
 30
0.0000000000000000
 11
83.06969385588988
 21
335.9658558804432
 31
0.0000000000000000
  0
LINE
  5
199
100
AcDbEntity
  8
MAIN0
  6
CENTER
 62
12
100
AcDbLine
 10
96.90475987842490
 20
321.9658558804432
 30
0.0000000000000000
 11
83.06969385588988
 21
321.9658558804432
 31
0.0000000000000000
  0
LINE
  5
19A
100
AcDbEntity
  8
MAIN0
  6
CONTINUOUS
 62
3
100
AcDbLine
 10
93.15475987842487
 20
321.9658558804431
 30
0.0000000000000000
 11
93.15475987842487
 21
349.9658558804431
 31
0.0000000000000000
  0
LINE
  5
19B
100
AcDbEntity
  8
MAIN0
  6
CONTINUOUS
 62
3
100
AcDbLine
 10
87.65475987842487
 20
321.9658558804431
 30
0.0000000000000000
 11
87.65475987842487
 21
349.9658558804431
 31
0.0000000000000000
  0
LINE
  5
19C
100
AcDbEntity
  8
MAIN0
  6
CONTINUOUS
 62
3
100
AcDbLine
 10
81.40475987842484
 20
336.9658558804431
 30
0.0000000000000000
 11
81.40475987842487
 21
347.9658556721931
 31
0.0000000000000000
  0
LINE
  5
19D
100
AcDbEntity
  8
MAIN0
  6
HIDDEN
 62
12
100
AcDbLine
 10
81.40475987842484
 20
347.9658556721931
 30
0.0000000000000000
 11
81.40475987842484
 21
361.9658558804432
 31
0.0000000000000000
  0
LINE
  5
19E
100
AcDbEntity
  8
MAIN0
  6
CONTINUOUS
 62
3
100
AcDbLine
 10
50.40475987842484
 20
303.9658558804432
 30
0.0000000000000000
 11
50.40475987842484
 21
354.9658558804432
 31
0.0000000000000000
  0
LINE
  5
19F
100
AcDbEntity
  8
MAIN0
  6
CENTER
 62
12
100
AcDbLine
 10
50.40475987842484
 20
356.9658558804432
 30
0.0000000000000000
 11
50.40475987842484
 21
395.9658558804432
 31
0.0000000000000000
  0
LINE
  5
1A0
100
AcDbEntity
  8
MAIN0
  6
CENTER
 62
12
100
AcDbLine
 10
115.2489584982570
 20
359.7900242943689
 30
0.0000000000000000
 11
149.0239492458500
 21
379.2900242943689
 31
0.0000000000000000
  0
LINE
  5
1A1
100
AcDbEntity
  8
MAIN0
  6
CONTINUOUS
 62
3
100
AcDbLine
 10
150.7560000534189
 20
380.2900242943689
 30
0.0000000000000000
 11
194.9232956464253
 21
405.7900242943690
 31
0.0000000000000000
  0
LINE
  5
1A2
100
AcDbEntity
  8
MAIN0
  6
CENTER
 62
12
100
AcDbLine
 10
153.0239492458501
 20
372.3618210640934
 30
0.0000000000000000
 11
200.6553464539941
 21
399.8618210640934
 31
0.0000000000000000
  0
LINE
  5
1A3
100
AcDbEntity
  8
MAIN0
  6
CENTER
 62
12
100
AcDbLine
 10
191.3431686275030
 20
401.9909861886923
 30
0.0000000000000000
 11
197.7309366695031
 21
390.9270473929833
 31
0.0000000000000000
  0
LINE
  5
1A4
100
AcDbEntity
  8
MAIN0
  6
CENTER
 62
12
100
AcDbLine
 10
155.8361270723411
 20
381.4909861886923
 30
0.0000000000000000
 11
162.7966160476558
 21
369.4350656379243
 31
0.0000000000000000
  0
LINE
  5
1A5
100
AcDbEntity
  8
MAIN0
  6
CONTINUOUS
 62
3
100
AcDbLine
 10
161.3274961077135
 20
380.3313025605618
 30
0.0000000000000000
 11
193.2181686275031
 21
398.7433909245006
 31
0.0000000000000000
  0
LINE
  5
1A6
100
AcDbEntity
  8
MAIN0
  6
CONTINUOUS
 62
3
100
AcDbLine
 10
164.0774961077135
 20
375.5681628397474
 30
0.0000000000000000
 11
195.9681686275030
 21
393.9802512036861
 31
0.0000000000000000
  0
LINE
  5
1A7
100
AcDbEntity
  8
MAIN0
  6
CENTER
 62
12
100
AcDbLine
 10
184.6183333671372
 20
385.6387425321764
 30
0.0000000000000000
 11
193.4043009173534
 21
370.4210003415504
 31
0.0000000000000000
  0
LINE
  5
1A8
100
AcDbEntity
  8
MAIN0
  6
CENTER
 62
12
100
AcDbLine
 10
149.1112918119753
 20
365.1387425321765
 30
0.0000000000000000
 11
157.8972593621915
 21
349.9210003415506
 31
0.0000000000000000
  0
LINE
  5
1A9
100
AcDbEntity
  8
MAIN0
  6
CONTINUOUS
 62
3
100
AcDbLine
 10
133.5058765271699
 20
374.1681146786716
 30
0.0000000000000000
 11
147.1675427852991
 21
350.5054146035423
 31
0.0000000000000000
  0
LINE
  5
1AA
100
AcDbEntity
  8
MAIN0
  6
CONTINUOUS
 62
3
100
AcDbLine
 10
160.8292090434284
 20
326.8427145284131
 30
0.0000000000000000
 11
147.1675427852991
 21
350.5054146035424
 31
0.0000000000000000
  0
LINE
  5
1AB
100
AcDbEntity
  8
MAIN0
  6
CONTINUOUS
 62
3
100
AcDbLine
 10
132.1202358811148
 20
373.3681146786717
 30
0.0000000000000000
 11
145.7819021392441
 21
349.7054146035424
 31
0.0000000000000000
  0
LINE
  5
1AC
100
AcDbEntity
  8
MAIN0
  6
CONTINUOUS
 62
3
100
AcDbLine
 10
159.4435683973734
 20
326.0427145284132
 30
0.0000000000000000
 11
145.7819021392440
 21
349.7054146035424
 31
0.0000000000000000
  0
LINE
  5
1AD
100
AcDbEntity
  8
MAIN0
  6
HIDDEN
 62
12
100
AcDbLine
 10
172.7069619477422
 20
339.2698430183925
 30
0.0000000000000000
 11
219.0393210502097
 21
366.0198430183924
 31
0.0000000000000000
  0
LINE
  5
1AE
100
AcDbEntity
  8
MAIN0
  6
CENTER
 62
12
100
AcDbLine
 10
169.0239492458501
 20
344.6490081429914
 30
0.0000000000000000
 11
206.1870602653739
 21
366.1051402940374
 31
0.0000000000000000
  0
LINE
  5
1AF
100
AcDbEntity
  8
MAIN0
  6
CENTER
 62
12
100
AcDbLine
 10
178.3361270723413
 20
342.5198430183924
 30
0.0000000000000000
 11
171.3756380970265
 21
354.5757635691605
 31
0.0000000000000000
  0
LINE
  5
1B0
100
AcDbEntity
  8
MAIN0
  6
CENTER
 62
12
100
AcDbLine
 10
190.4604827253234
 20
349.5198430183925
 30
0.0000000000000000
 11
183.4999937500086
 21
361.5757635691606
 31
0.0000000000000000
  0
LINE
  5
1B1
100
AcDbEntity
  8
MAIN0
  6
CENTER
 62
12
100
AcDbLine
 10
202.5848383783053
 20
356.5198430183924
 30
0.0000000000000000
 11
195.6243494029906
 21
368.5757635691605
 31
0.0000000000000000
  0
LINE
  5
1B2
100
AcDbEntity
  8
MAIN0
  6
CONTINUOUS
 62
3
100
AcDbLine
 10
173.7111270723412
 20
350.5305780033986
 30
0.0000000000000000
 11
197.9598383783054
 21
364.5305780033986
 31
0.0000000000000000
  0
LINE
  5
1B3
100
AcDbEntity
  8
MAIN0
  6
CONTINUOUS
 62
3
100
AcDbLine
 10
176.4611270723412
 20
345.7674382825842
 30
0.0000000000000000
 11
200.7098383783054
 21
359.7674382825841
 31
0.0000000000000000
  0
LINE
  5
1B4
100
AcDbEntity
  8
MAIN0
  6
HIDDEN
 62
12
100
AcDbLine
 10
171.4521524761255
 20
356.4432367770511
 30
0.0000000000000000
 11
183.5765081291077
 21
363.4432367770512
 31
0.0000000000000000
  0
LINE
  5
1B5
100
AcDbEntity
  8
MAIN0
  6
CONTINUOUS
 62
3
100
AcDbLine
 10
183.5765081291077
 20
363.4432367770512
 30
0.0000000000000000
 11
193.1027875707363
 21
368.9432367770511
 31
0.0000000000000000
  0
LINE
  5
1B6
100
AcDbEntity
  8
MAIN0
  6
CONTINUOUS
 62
3
100
AcDbLine
 10
209.5213718577786
 20
386.5054146035424
 30
0.0000000000000000
 11
219.7713718577786
 21
368.7518938259614
 31
0.0000000000000000
  0
LINE
  5
1B7
100
AcDbEntity
  8
MAIN0
  6
CONTINUOUS
 62
3
100
AcDbLine
 10
148.0335681890836
 20
351.0054146035424
 30
0.0000000000000000
 11
158.2835681890835
 21
333.2518938259614
 31
0.0000000000000000
  0
LINE
  5
1B8
100
AcDbEntity
  8
MAIN0
  6
CENTER
 62
12
100
AcDbLine
 10
135.9092125361014
 20
344.0054146035423
 30
0.0000000000000000
 11
146.9092125361014
 21
324.9528557202847
 31
0.0000000000000000
  0
LINE
  5
1B9
100
AcDbEntity
  8
MAIN0
  6
CENTER
 62
12
100
AcDbLine
 10
149.6412633436703
 20
324.2208049127157
 30
0.0000000000000000
 11
160.0335681890836
 21
330.2208049127158
 31
0.0000000000000000
  0
LINE
  5
1BA
100
AcDbEntity
  8
MAIN0
  6
CONTINUOUS
 62
3
100
AcDbLine
 10
161.0156189966524
 20
332.5198430183925
 30
0.0000000000000000
 11
172.7069619477423
 21
339.2698430183924
 31
0.0000000000000000
  0
LINE
  5
1BB
100
AcDbEntity
  8
MAIN0
  6
CONTINUOUS
 62
3
100
AcDbLine
 10
52.40475987842487
 20
356.9658558804432
 30
0.0000000000000000
 11
50.40475987842493
 21
354.9658558804433
 31
0.0000000000000000
  0
LINE
  5
1BC
100
AcDbEntity
  8
MAIN0
  6
CONTINUOUS
 62
3
100
AcDbLine
 10
52.40475987842484
 20
301.9658558804432
 30
0.0000000000000000
 11
50.40475987842487
 21
303.9658558804432
 31
0.0000000000000000
  0
LINE
  5
1BD
100
AcDbEntity
  8
MAIN0
  6
CENTER
 62
12
100
AcDbLine
 10
52.40475987842495
 20
397.9658558804431
 30
0.0000000000000000
 11
50.40475987842507
 21
395.9658558804432
 31
0.0000000000000000
  0
LINE
  5
1BE
100
AcDbEntity
  8
MAIN0
  6
CONTINUOUS
 62
3
100
AcDbLine
 10
94.90475987842484
 20
384.9658558804432
 30
0.0000000000000000
 11
96.90475987842487
 21
382.9658558804432
 31
0.0000000000000000
  0
LINE
  5
1BF
100
AcDbEntity
  8
MAIN0
  6
CONTINUOUS
 62
3
100
AcDbLine
 10
96.40475987842493
 20
369.9658558804431
 30
0.0000000000000000
 11
98.40475987842493
 21
367.9658558804431
 31
0.0000000000000000
  0
LINE
  5
1C0
100
AcDbEntity
  8
MAIN0
  6
CONTINUOUS
 62
3
100
AcDbLine
 10
96.40475987842487
 20
314.9658558804433
 30
0.0000000000000000
 11
98.40475987842490
 21
316.9658558804433
 31
0.0000000000000000
  0
LINE
  5
1C1
100
AcDbEntity
  8
MAIN0
  6
CONTINUOUS
 62
3
100
AcDbLine
 10
197.6553464539942
 20
405.0579734868001
 30
0.0000000000000000
 11
194.9232956464252
 21
405.7900242943690
 31
0.0000000000000000
  0
LINE
  5
1C2
100
AcDbEntity
  8
MAIN0
  6
CONTINUOUS
 62
3
100
AcDbLine
 10
150.0239492458501
 20
377.5579734868000
 30
0.0000000000000000
 11
150.7560000534189
 21
380.2900242943688
 31
0.0000000000000000
  0
LINE
  5
1C3
100
AcDbEntity
  8
MAIN0
  6
CENTER
 62
12
100
AcDbLine
 10
114.5169076906881
 20
357.0579734867999
 30
0.0000000000000000
 11
115.2489584982570
 21
359.7900242943688
 31
0.0000000000000000
  0
LINE
  5
1C4
100
AcDbEntity
  8
MAIN0
  6
CENTER
 62
12
100
AcDbLine
 10
146.9092125361014
 20
324.9528557202846
 30
0.0000000000000000
 11
149.6412633436703
 21
324.2208049127157
 31
0.0000000000000000
  0
LINE
  5
1C5
100
AcDbEntity
  8
MAIN0
  6
CONTINUOUS
 62
3
100
AcDbLine
 10
158.2835681890835
 20
333.2518938259613
 30
0.0000000000000000
 11
161.0156189966524
 21
332.5198430183924
 31
0.0000000000000000
  0
LINE
  5
1C6
100
AcDbEntity
  8
MAIN0
  6
CONTINUOUS
 62
3
100
AcDbLine
 10
172.0239492458500
 20
339.4528557202847
 30
0.0000000000000000
 11
174.7560000534189
 21
338.7208049127158
 31
0.0000000000000000
  0
LINE
  5
1C7
100
AcDbEntity
  8
MAIN0
  6
CONTINUOUS
 62
3
100
AcDbLine
 10
219.6553464539942
 20
366.9528557202846
 30
0.0000000000000000
 11
218.9232956464253
 21
364.2208049127157
 31
0.0000000000000000
  0
LINE
  5
1C8
100
AcDbEntity
  8
MAIN0
  6
CONTINUOUS
 62
3
100
AcDbLine
 10
229.3780474716839
 20
227.9649383784214
 30
0.0000000000000000
 11
234.3780474716837
 21
227.9649383784214
 31
0.0000000000000000
  0
ARC
  5
1C9
100
AcDbEntity
  8
MAIN0
  6
CONTINUOUS
 62
3
100
AcDbCircle
 10
244.3780474716845
 20
233.9649383784214
 30
0.0000000000000000
 40
1.000000000000000
100
AcDbArc
 50
129.2671247915284
 51
179.9999999999998
  0
ARC
  5
1CA
100
AcDbEntity
  8
MAIN0
  6
CONTINUOUS
 62
3
100
AcDbCircle
 10
244.3780474716845
 20
210.9649383784215
 30
0.0000000000000000
 40
1.000000000000000
100
AcDbArc
 50
179.9999999999998
 51
217.9216996238017
  0
CIRCLE
  5
1CB
100
AcDbEntity
  8
MAIN0
  6
CONTINUOUS
 62
3
100
AcDbCircle
 10
58.40475987842484
 20
349.9658558804432
 30
0.0000000000000000
 40
5.000000000000000
  0
ARC
  5
1CC
100
AcDbEntity
  8
MAIN0
  6
CONTINUOUS
 62
3
100
AcDbCircle
 10
58.40475987842484
 20
308.9658558804432
 30
0.0000000000000000
 40
2.750000000000000
100
AcDbArc
 50
179.9999999999998
 51
359.9999999999998
  0
ARC
  5
1CD
100
AcDbEntity
  8
MAIN0
  6
CONTINUOUS
 62
12
100
AcDbCircle
 10
74.40475987842484
 20
335.9658558804432
 30
0.0000000000000000
 40
6.000000000000000
100
AcDbArc
 50
89.99999999999970
 51
269.9999999999999
  0
ARC
  5
1CE
100
AcDbEntity
  8
MAIN0
  6
CONTINUOUS
 62
3
100
AcDbCircle
 10
74.40475987842484
 20
335.9658558804432
 30
0.0000000000000000
 40
5.400000000000000
100
AcDbArc
 50
89.99999999999970
 51
269.9999999999999
  0
ARC
  5
1CF
100
AcDbEntity
  8
MAIN0
  6
CONTINUOUS
 62
3
100
AcDbCircle
 10
90.40475987842487
 20
349.9658558804432
 30
0.0000000000000000
 40
2.750000000000000
100
AcDbArc
 50
0.0000000000000000
 51
179.9999999999998
  0
ARC
  5
1D0
100
AcDbEntity
  8
MAIN0
  6
CONTINUOUS
 62
3
100
AcDbCircle
 10
90.40475987842487
 20
335.9658558804432
 30
0.0000000000000000
 40
2.750000000000000
100
AcDbArc
 50
179.9999999999998
 51
359.9999999999998
  0
ARC
  5
1D1
100
AcDbEntity
  8
MAIN0
  6
CONTINUOUS
 62
3
100
AcDbCircle
 10
90.40475987842487
 20
321.9658558804432
 30
0.0000000000000000
 40
2.750000000000000
100
AcDbArc
 50
179.9999999999998
 51
359.9999999999998
  0
ARC
  5
1D2
100
AcDbEntity
  8
MAIN0
  6
HIDDEN
 62
12
100
AcDbCircle
 10
74.40475987842484
 20
361.9658558804432
 30
0.0000000000000000
 40
7.000000000000000
100
AcDbArc
 50
0.0000000000000000
 51
89.99999999999970
  0
ARC
  5
1D3
100
AcDbEntity
  8
MAIN0
  6
CONTINUOUS
 62
3
100
AcDbCircle
 10
74.40475987842484
 20
347.9658558804432
 30
0.0000000000000000
 40
7.000000000000000
100
AcDbArc
 50
0.0000000000000000
 51
89.99999999999970
  0
ARC
  5
1D4
100
AcDbEntity
  8
MAIN0
  6
CONTINUOUS
 62
3
100
AcDbCircle
 10
74.40475987842484
 20
336.9658558804432
 30
0.0000000000000000
 40
7.000000000000000
100
AcDbArc
 50
269.9999999999999
 51
359.9999999999998
  0
ARC
  5
1D5
100
AcDbEntity
  8
MAIN0
  6
CONTINUOUS
 62
3
100
AcDbCircle
 10
199.3348383783055
 20
362.1490081429914
 30
0.0000000000000000
 40
2.750000000000000
100
AcDbArc
 50
299.9999946766659
 51
480.0000086929682
  0
ARC
  5
1D6
100
AcDbEntity
  8
MAIN0
  6
CONTINUOUS
 62
3
100
AcDbCircle
 10
187.2104827253234
 20
355.1490081429914
 30
0.0000000000000000
 40
2.750000000000000
100
AcDbArc
 50
299.9999942501418
 51
480.0000048595168
  0
ARC
  5
1D7
100
AcDbEntity
  8
MAIN0
  6
CONTINUOUS
 62
3
100
AcDbCircle
 10
175.0861270723412
 20
348.1490081429914
 30
0.0000000000000000
 40
2.750000000000000
100
AcDbArc
 50
120.0000058495738
 51
299.9999955874897
  0
ARC
  5
1D8
100
AcDbEntity
  8
MAIN0
  6
CONTINUOUS
 62
3
100
AcDbCircle
 10
194.5931686275032
 20
396.3618210640934
 30
0.0000000000000000
 40
2.750000000000000
100
AcDbArc
 50
299.9999999999998
 51
480.0000123247905
  0
CIRCLE
  5
1D9
100
AcDbEntity
  8
MAIN0
  6
CONTINUOUS
 62
3
100
AcDbCircle
 10
159.0861270723412
 20
375.8618210640934
 30
0.0000000000000000
 40
5.000000000000000
  0
ARC
  5
1DA
100
AcDbEntity
  8
MAIN0
  6
CONTINUOUS
 62
3
100
AcDbCircle
 10
189.6027875707365
 20
375.0054146035424
 30
0.0000000000000000
 40
7.000000000000000
100
AcDbArc
 50
299.9999999999998
 51
390.0000000000008
  0
ARC
  5
1DB
100
AcDbEntity
  8
MAIN0
  6
HIDDEN
 62
12
100
AcDbCircle
 10
167.9521524761256
 20
362.5054146035424
 30
0.0000000000000000
 40
7.000000000000000
100
AcDbArc
 50
209.9999999999996
 51
299.9999999999997
  0
ARC
  5
1DC
100
AcDbEntity
  8
MAIN0
  6
CONTINUOUS
 62
3
100
AcDbCircle
 10
180.0765081291077
 20
369.5054146035424
 30
0.0000000000000000
 40
7.000000000000000
100
AcDbArc
 50
209.9999999999996
 51
299.9999999999997
  0
ARC
  5
1DD
100
AcDbEntity
  8
MAIN0
  6
CENTER
 62
12
100
AcDbCircle
 10
190.4688129745209
 20
375.5054146035424
 30
0.0000000000000000
 40
5.400000000000000
100
AcDbArc
 50
30.00000000000010
 51
210.0000000000000
  0
ARC
  5
1DE
100
AcDbEntity
  8
MAIN0
  6
CENTER
 62
12
100
AcDbCircle
 10
190.4688129745209
 20
375.5054146035424
 30
0.0000000000000000
 40
6.000000000000000
100
AcDbArc
 50
30.00000000000009
 51
210.0000000000000
  0
SPLINE
  5
1DF
100
AcDbEntity
  8
MAIN0
  6
CONTINUOUS
 62
12
100
AcDbSpline
210
0.0000000000000000
220
0.0000000000000000
230
1.000000000000000
 70
     8
 71
     3
 72
    23
 73
    19
 74
     0
 42
1.000000000000000e-007
 43
1.000000000000000e-007
 12
-0.2175376390833463
 22
-0.9767411404779836
 32
0.0000000000000000
 13
0.2011474385652150
 23
-0.9808785619138689
 33
0.0000000000000000
 40
0.0000000000000000
 40
0.0000000000000000
 40
0.0000000000000000
 40
0.0000000000000000
 40
7.377772860595822
 40
13.70573744429625
 40
19.85556188338182
 40
23.41931380750930
 40
28.17160602177569
 40
31.71904909538989
 40
35.40941351737729
 40
40.70725785348634
 40
47.47488798281347
 40
55.65916308372175
 40
64.75913762343669
 40
71.31429019254784
 40
77.01225171426364
 40
83.31077041603624
 40
94.59176936342300
 40
97.51439565305907
 40
97.51439565305907
 40
97.51439565305907
 40
97.51439565305907
 10
256.6059624368904
 20
266.4837935739961
 30
0.0000000000000000
 10
256.0709813402947
 20
264.0817354813142
 30
0.0000000000000000
 10
255.0771434184519
 20
259.6194162738364
 30
0.0000000000000000
 10
252.8598924987285
 20
253.3623918229477
 30
0.0000000000000000
 10
254.3401189046321
 20
247.4615866845019
 30
0.0000000000000000
 10
250.4296568819002
 20
243.9447974700562
 30
0.0000000000000000
 10
245.6362481287666
 20
243.7540073948864
 30
0.0000000000000000
 10
245.2713957895033
 20
239.1701774741607
 30
0.0000000000000000
 10
243.0441224939642
 20
235.5038354400383
 30
0.0000000000000000
 10
245.0463443342252
 20
230.1370595719048
 30
0.0000000000000000
 10
245.0935478830545
 20
223.4389261030925
 30
0.0000000000000000
 10
244.2745670058909
 20
215.4662569130756
 30
0.0000000000000000
 10
242.8179342507063
 20
207.4923765313463
 30
0.0000000000000000
 10
245.9057384566249
 20
200.4637412337640
 30
0.0000000000000000
 10
251.6923244434506
 20
197.4902655043911
 30
0.0000000000000000
 10
254.5843198845465
 20
189.8336817304472
 30
0.0000000000000000
 10
255.4576618946206
 20
183.1599913769796
 30
0.0000000000000000
 10
256.4100028395426
 20
178.5159808781617
 30
0.0000000000000000
 10
256.6059624368904
 20
177.5604003874984
 30
0.0000000000000000
  0
LEADER
  5
1E0
100
AcDbEntity
  8
MAIN10
  6
CONTINUOUS
 62
12
100
AcDbLeader
  3
MAIN001
 73
     0
 75
     1
 40
3.100000381469727
 41
13.59900038146975
 76
     3
 10
280.8751414015270
 20
179.8839441333857
 30
0.0000000000000000
 10
274.3965981303866
 20
165.9906632536045
 30
0.0000000000000000
 10
272.4595976306613
 20
165.9906632536045
 30
0.0000000000000000
340
1E1
213
0.0000000000000000
223
-0.5000000000000000
233
0.0000000000000000
1001
ACAD
1000
DSTYLE
1002
{
1070
   147
1040
0.0
1070
    77
1070
     1
1070
   173
1070
     1
1070
     6
1000
_OPEN
1070
     7
1000
_OPEN
1002
}
  0
MTEXT
  5
1E1
102
{ACAD_REACTORS
330
1E0
102
}
100
AcDbEntity
  8
MAIN10
  6
CONTINUOUS
 62
4
100
AcDbMText
 10
258.8605972491915
 20
169.5906636350742
 30
0.0000000000000000
 40
3.100000381469727
 41
0.0000000000000000
 71
     1
 72
     1
  1
{\H0.92x;{Rc1/4}}
 11
1.000000000000000
 21
0.0000000000000000
 31
0.0000000000000000
  7
STANDARD
  0
DIMENSION
  5
1EA
100
AcDbEntity
  8
MAIN10
  6
CONTINUOUS
 62
12
100
AcDbDimension
  2
*D18
 10
97.39731746262947
 20
161.4565756495167
 30
0.0000000000000000
 11
114.0085366469291
 21
162.4565756495167
 31
0.0000000000000000
 70
160
  1
\A1;\U+220530
  3
MAIN001
100
AcDbAlignedDimension
 13
127.3973174626295
 23
178.6649382488781
 33
0.0000000000000000
 14
97.39731746262947
 24
178.6649379079232
 34
0.0000000000000000
100
AcDbRotatedDimension
1001
ACAD
1000
DSTYLE
1002
{
1070
   173
1070
     1
1070
     6
1000
_OPEN
1070
     7
1000
_OPEN
1070
    41
1040
1.910672
1002
}
  0
DIMENSION
  5
1F2
100
AcDbEntity
  8
MAIN10
  6
CONTINUOUS
 62
12
100
AcDbDimension
  2
*D19
 10
304.1311763037173
 20
208.4649383784214
 30
0.0000000000000000
 11
303.6311763037173
 21
218.7150317620356
 31
0.0000000000000000
 70
160
  3
MAIN001
100
AcDbAlignedDimension
 13
278.2722577181567
 23
236.4649383784214
 33
0.0000000000000000
 14
293.8060248384888
 24
208.4649383784214
 34
0.0000000000000000
 50
90.00000000000000
100
AcDbRotatedDimension
1001
ACAD
1000
DSTYLE
1002
{
1070
   173
1070
     1
1070
     6
1000
_OPEN
1070
     7
1000
_OPEN
1070
    41
1040
1.910672
1002
}
  0
LEADER
  5
1F3
100
AcDbEntity
  8
MAIN10
  6
CONTINUOUS
 62
12
100
AcDbLeader
  3
MAIN001
 73
     0
 74
     0
 75
     1
 40
3.100000381469727
 41
19.20100076293949
 76
     3
 10
295.5342689364335
 20
244.5120664372354
 30
0.0000000000000000
 10
307.4814489064480
 20
289.0995490924989
 30
0.0000000000000000
 10
309.4164494061733
 20
289.0995490924989
 30
0.0000000000000000
340
1F4
213
-0.001000000000033197
223
-0.5000000000000000
233
0.0000000000000000
1001
ACAD
1000
DSTYLE
1002
{
1070
   147
1040
0.0
1070
    77
1070
     1
1070
   173
1070
     1
1070
     6
1000
_OPEN
1070
     7
1000
_OPEN
1002
}
  0
MTEXT
  5
1F4
102
{ACAD_REACTORS
330
1F3
102
}
100
AcDbEntity
  8
MAIN10
  6
CONTINUOUS
 62
4
100
AcDbMText
 10
309.4174494061734
 20
292.6995494739687
 30
0.0000000000000000
 40
3.100000381469727
 41
0.0000000000000000
 71
     1
 72
     1
  1
{\H0.93x;{2-Rc3/8}}
 11
1.000000000000000
 21
0.0000000000000000
 31
0.0000000000000000
  7
STANDARD
  0
DIMENSION
  5
1FD
100
AcDbEntity
  8
MAIN10
  6
CONTINUOUS
 62
12
100
AcDbDimension
  2
*D20
 10
40.04817609784570
 20
301.9658558804432
 30
0.0000000000000000
 11
39.04817609784573
 21
307.3658592138330
 31
0.0000000000000000
 70
32
  1
\A1;MAX 23
  3
MAIN001
100
AcDbAlignedDimension
 13
45.48088582087794
 23
325.3658558804432
 33
0.0000000000000000
 14
52.40475987842487
 24
301.9658558804432
 34
0.0000000000000000
 50
90.00000000000000
100
AcDbRotatedDimension
1001
ACAD
1000
DSTYLE
1002
{
1070
   173
1070
     1
1070
     6
1000
_OPEN
1070
     7
1000
_OPEN
1070
    41
1040
1.910672
1002
}
  0
DIMENSION
  5
206
100
AcDbEntity
  8
MAIN10
  6
CONTINUOUS
 62
12
100
AcDbDimension
  2
*D21
 10
40.04817609784570
 20
325.3658558804432
 30
0.0000000000000000
 11
39.04817609784570
 21
328.5658563557902
 31
0.0000000000000000
 70
32
  1
\A1;11
  3
MAIN001
100
AcDbAlignedDimension
 13
62.31810902633455
 23
335.9658558804432
 33
0.0000000000000000
 14
45.48088582087794
 24
325.3658558804432
 34
0.0000000000000000
 50
90.00000000000000
100
AcDbRotatedDimension
1001
ACAD
1000
DSTYLE
1002
{
1070
   173
1070
     1
1070
     6
1000
_OPEN
1070
     7
1000
_OPEN
1070
    41
1040
1.910672
1002
}
  0
DIMENSION
  5
20F
100
AcDbEntity
  8
MAIN10
  6
CONTINUOUS
 62
12
100
AcDbDimension
  2
*D22
 10
40.04817609784570
 20
335.9658558804432
 30
0.0000000000000000
 11
39.04817609784570
 21
354.3658563557902
 31
0.0000000000000000
 70
32
  3
MAIN001
100
AcDbAlignedDimension
 13
62.31810902633458
 23
376.9658558804432
 33
0.0000000000000000
 14
62.31810902633455
 24
335.9658558804432
 34
0.0000000000000000
 50
90.00000000000000
100
AcDbRotatedDimension
1001
ACAD
1000
DSTYLE
1002
{
1070
   173
1070
     1
1070
     6
1000
_OPEN
1070
     7
1000
_OPEN
1070
    41
1040
1.910672
1002
}
  0
DIMENSION
  5
218
100
AcDbEntity
  8
MAIN10
  6
CONTINUOUS
 62
12
100
AcDbDimension
  2
*D23
 10
107.7074629945402
 20
368.8522776718584
 30
0.0000000000000000
 11
111.8840030617764
 21
372.4183047423377
 31
0.0000000000000000
 70
32
  1
\A1;MAX 23
  3
MAIN001
100
AcDbAlignedDimension
 13
131.7202358751542
 23
374.0609350120229
 33
0.0000000000000000
 14
114.8669076847277
 24
356.4517557144747
 34
0.0000000000000000
 50
30.00000000000014
100
AcDbRotatedDimension
1001
ACAD
1000
DSTYLE
1002
{
1070
   173
1070
     1
1070
     6
1000
_OPEN
1070
     7
1000
_OPEN
1070
    41
1040
1.910672
1002
}
  0
DIMENSION
  5
221
100
AcDbEntity
  8
MAIN10
  6
CONTINUOUS
 62
12
100
AcDbDimension
  2
*D24
 10
127.9724574430961
 20
380.5522776718585
 30
0.0000000000000000
 11
130.2437391468689
 21
383.0183033133164
 31
0.0000000000000000
 70
32
  1
\A1;11
  3
MAIN001
100
AcDbAlignedDimension
 13
148.7112918060148
 23
365.8315628655279
 33
0.0000000000000000
 14
131.7202358751543
 24
374.0609350120230
 34
0.0000000000000000
 50
30.00000000000004
100
AcDbRotatedDimension
1001
ACAD
1000
DSTYLE
1002
{
1070
   173
1070
     1
1070
     6
1000
_OPEN
1070
     7
1000
_OPEN
1070
    41
1040
1.910672
1002
}
  0
DIMENSION
  5
22A
100
AcDbEntity
  8
MAIN10
  6
CONTINUOUS
 62
12
100
AcDbDimension
  2
*D25
 10
137.1523267232111
 20
385.8522776718584
 30
0.0000000000000000
 11
152.5871945645073
 21
395.9183033133164
 31
0.0000000000000000
 70
33
  3
MAIN001
100
AcDbAlignedDimension
 13
184.2183333611768
 23
386.3315628655279
 33
0.0000000000000000
 14
148.7112918060148
 24
365.8315628655279
 34
0.0000000000000000
 50
30.00000000000012
1001
ACAD
1000
DSTYLE
1002
{
1070
   173
1070
     1
1070
     6
1000
_OPEN
1070
     7
1000
_OPEN
1070
    41
1040
1.910672
1002
}
  0
DIMENSION
  5
233
100
AcDbEntity
  8
MAIN10
  6
CONTINUOUS
 62
12
100
AcDbDimension
  2
*D26
 10
282.3780474716842
 20
327.3602111355277
 30
0.0000000000000000
 11
285.7780479470313
 21
328.3602111355277
 31
0.0000000000000000
 70
32
  3
MAIN001
100
AcDbAlignedDimension
 13
293.3780474716842
 23
251.4263170667311
 33
0.0000000000000000
 14
282.3780474716842
 24
225.5366461909072
 34
0.0000000000000000
100
AcDbRotatedDimension
1001
ACAD
1000
DSTYLE
1002
{
1070
   173
1070
     1
1070
     6
1000
_OPEN
1070
     7
1000
_OPEN
1070
    41
1040
1.910672
1002
}
  0
DIMENSION
  5
23D
100
AcDbEntity
  8
MAIN10
  6
CONTINUOUS
 62
12
100
AcDbDimension
  2
*D27
 10
267.3780474716821
 20
327.3602111355277
 30
0.0000000000000000
 11
251.8780538568297
 21
328.3602111355277
 31
0.0000000000000000
 70
160
  1
\A1;MIN 15
  3
MAIN001
100
AcDbAlignedDimension
 13
282.3780474716842
 23
225.5366461909072
 33
0.0000000000000000
 14
267.3780474716821
 24
267.7649383903421
 34
0.0000000000000000
100
AcDbRotatedDimension
1001
ACAD
1000
DSTYLE
1002
{
1070
   173
1070
     1
1070
     6
1000
_OPEN
1070
     7
1000
_OPEN
1070
    41
1040
1.910672
1002
}
  0
DIMENSION
  5
246
100
AcDbEntity
  8
MAIN10
  6
CONTINUOUS
 62
12
100
AcDbDimension
  2
*D28
 10
162.2329540711700
 20
177.4649383784217
 30
0.0000000000000000
 11
161.2329540711700
 21
197.8649388537687
 31
0.0000000000000000
 70
32
  3
MAIN001
100
AcDbAlignedDimension
 13
158.5050133247787
 23
222.4649383784214
 33
0.0000000000000000
 14
126.1973174745504
 24
177.4649383784217
 34
0.0000000000000000
 50
90.00000000000000
100
AcDbRotatedDimension
1001
ACAD
1000
DSTYLE
1002
{
1070
   173
1070
     1
1070
     6
1000
_OPEN
1070
     7
1000
_OPEN
1070
    41
1040
1.910672
1002
}
  0
LINE
  5
247
100
AcDbEntity
  8
MAIN0
  6
CONTINUOUS
 62
3
100
AcDbLine
 10
94.90475987842487
 20
313.9658558804433
 30
0.0000000000000000
 11
95.90475987842476
 21
314.9658558804432
 31
0.0000000000000000
  0
LINE
  5
248
100
AcDbEntity
  8
MAIN0
  6
HIDDEN
 62
12
100
AcDbLine
 10
95.90475987842481
 20
314.9658558804431
 30
0.0000000000000000
 11
96.90475987842490
 21
315.9658558804433
 31
0.0000000000000000
  0
LINE
  5
249
100
AcDbEntity
  8
MAIN0
  6
HIDDEN
 62
12
100
AcDbLine
 10
96.90475987842484
 20
315.9658558804432
 30
0.0000000000000000
 11
96.90475987842484
 21
369.4658558804432
 31
0.0000000000000000
  0
LINE
  5
24A
100
AcDbEntity
  8
MAIN0
  6
CONTINUOUS
 62
3
100
AcDbLine
 10
96.90475987842484
 20
369.4658558804432
 30
0.0000000000000000
 11
96.90475987842484
 21
382.9658558804432
 31
0.0000000000000000
  0
LINE
  5
24B
100
AcDbEntity
  8
MAIN0
  6
HIDDEN
 62
12
100
AcDbLine
 10
219.0393210502097
 20
366.0198430183924
 30
0.0000000000000000
 11
219.4053464539942
 21
367.3858684221768
 31
0.0000000000000000
  0
LINE
  5
24C
100
AcDbEntity
  8
MAIN0
  6
CONTINUOUS
 62
3
100
AcDbLine
 10
219.4053464539942
 20
367.3858684221768
 30
0.0000000000000000
 11
219.7713718577786
 21
368.7518938259614
 31
0.0000000000000000
  0
LINE
  5
24D
100
AcDbEntity
  8
MAIN0
  6
CONTINUOUS
 62
3
100
AcDbLine
 10
233.3780474716837
 20
227.9649383784214
 30
0.0000000000000000
 11
234.8780474716837
 21
229.4649383784214
 31
0.0000000000000000
  0
LINE
  5
24E
100
AcDbEntity
  8
MAIN0
  6
CONTINUOUS
 62
3
100
AcDbLine
 10
234.8780474716837
 20
229.4649383784214
 30
0.0000000000000000
 11
234.8780474716837
 21
235.4649383784214
 31
0.0000000000000000
  0
LINE
  5
24F
100
AcDbEntity
  8
MAIN0
  6
CONTINUOUS
 62
3
100
AcDbLine
 10
234.8780474716837
 20
235.4649383784214
 30
0.0000000000000000
 11
234.0120220678992
 21
235.9649383784214
 31
0.0000000000000000
  0
LINE
  5
250
100
AcDbEntity
  8
MAIN0
  6
CONTINUOUS
 62
3
100
AcDbLine
 10
234.0120220678992
 20
235.9649383784214
 30
0.0000000000000000
 11
229.7440728754681
 21
235.9649383784214
 31
0.0000000000000000
  0
LINE
  5
251
100
AcDbEntity
  8
MAIN0
  6
CONTINUOUS
 62
3
100
AcDbLine
 10
229.7440728754681
 20
235.9649383784214
 30
0.0000000000000000
 11
228.8780474716837
 21
235.4649383784214
 31
0.0000000000000000
  0
LINE
  5
252
100
AcDbEntity
  8
MAIN0
  6
CONTINUOUS
 62
3
100
AcDbLine
 10
228.8780474716837
 20
235.4649383784214
 30
0.0000000000000000
 11
228.8780474716837
 21
229.4649383784214
 31
0.0000000000000000
  0
LINE
  5
253
100
AcDbEntity
  8
MAIN0
  6
CONTINUOUS
 62
3
100
AcDbLine
 10
228.8780474716837
 20
229.4649383784214
 30
0.0000000000000000
 11
230.3780474716837
 21
227.9649383784214
 31
0.0000000000000000
  0
LINE
  5
254
100
AcDbEntity
  8
MAIN0
  6
CONTINUOUS
 62
3
100
AcDbLine
 10
230.3780474716837
 20
227.9649383784214
 30
0.0000000000000000
 11
233.3780474716837
 21
227.9649383784214
 31
0.0000000000000000
  0
LINE
  5
255
100
AcDbEntity
  8
MAIN0
  6
CONTINUOUS
 62
3
100
AcDbLine
 10
234.8780474716837
 20
229.4649383784214
 30
0.0000000000000000
 11
228.8780474716837
 21
229.4649383784214
 31
0.0000000000000000
  0
LINE
  5
256
100
AcDbEntity
  8
MAIN0
  6
CONTINUOUS
 62
3
100
AcDbLine
 10
234.8780474716837
 20
235.4649383784214
 30
0.0000000000000000
 11
228.8780474716837
 21
235.4649383784214
 31
0.0000000000000000
  0
LINE
  5
257
100
AcDbEntity
  8
MAIN0
  6
CONTINUOUS
 62
3
100
AcDbLine
 10
234.3367814716837
 20
228.9236723784214
 30
0.0000000000000000
 11
234.3367814716837
 21
235.7774384492246
 31
0.0000000000000000
  0
LINE
  5
258
100
AcDbEntity
  8
MAIN0
  6
CONTINUOUS
 62
3
100
AcDbLine
 10
229.4193134716837
 20
228.9236723784214
 30
0.0000000000000000
 11
229.4193134716837
 21
235.7774384492246
 31
0.0000000000000000
  0
LINE
  5
259
100
AcDbEntity
  8
MAIN0
  6
HIDDEN
 62
3
100
AcDbLine
 10
233.3780474716837
 20
227.9649383784214
 30
0.0000000000000000
 11
231.8780474716837
 21
229.4649383784214
 31
0.0000000000000000
  0
LINE
  5
25A
100
AcDbEntity
  8
MAIN0
  6
HIDDEN
 62
3
100
AcDbLine
 10
231.8780474716837
 20
229.4649383784214
 30
0.0000000000000000
 11
230.3780474716837
 21
227.9649383784214
 31
0.0000000000000000
  0
LINE
  5
25B
100
AcDbEntity
  8
MAIN0
  6
CONTINUOUS
 62
3
100
AcDbLine
 10
233.3780474716837
 20
235.9649383784214
 30
0.0000000000000000
 11
234.8780474716837
 21
237.4649383784214
 31
0.0000000000000000
  0
LINE
  5
25C
100
AcDbEntity
  8
MAIN0
  6
CONTINUOUS
 62
3
100
AcDbLine
 10
234.8780474716837
 20
237.4649383784214
 30
0.0000000000000000
 11
234.8780474716837
 21
241.4649383784214
 31
0.0000000000000000
  0
LINE
  5
25D
100
AcDbEntity
  8
MAIN0
  6
CONTINUOUS
 62
3
100
AcDbLine
 10
234.8780474716837
 20
241.4649383784214
 30
0.0000000000000000
 11
234.0120220678992
 21
241.9649383784214
 31
0.0000000000000000
  0
LINE
  5
25E
100
AcDbEntity
  8
MAIN0
  6
CONTINUOUS
 62
3
100
AcDbLine
 10
234.0120220678992
 20
241.9649383784214
 30
0.0000000000000000
 11
229.7440728754681
 21
241.9649383784214
 31
0.0000000000000000
  0
LINE
  5
25F
100
AcDbEntity
  8
MAIN0
  6
CONTINUOUS
 62
3
100
AcDbLine
 10
229.7440728754681
 20
241.9649383784214
 30
0.0000000000000000
 11
228.8780474716837
 21
241.4649383784214
 31
0.0000000000000000
  0
LINE
  5
260
100
AcDbEntity
  8
MAIN0
  6
CONTINUOUS
 62
3
100
AcDbLine
 10
228.8780474716837
 20
241.4649383784214
 30
0.0000000000000000
 11
228.8780474716837
 21
237.4649383784214
 31
0.0000000000000000
  0
LINE
  5
261
100
AcDbEntity
  8
MAIN0
  6
CONTINUOUS
 62
3
100
AcDbLine
 10
228.8780474716837
 20
237.4649383784214
 30
0.0000000000000000
 11
230.3780474716837
 21
235.9649383784214
 31
0.0000000000000000
  0
LINE
  5
262
100
AcDbEntity
  8
MAIN0
  6
CONTINUOUS
 62
3
100
AcDbLine
 10
230.3780474716837
 20
235.9649383784214
 30
0.0000000000000000
 11
233.3780474716837
 21
235.9649383784214
 31
0.0000000000000000
  0
LINE
  5
263
100
AcDbEntity
  8
MAIN0
  6
CONTINUOUS
 62
3
100
AcDbLine
 10
234.8780474716837
 20
237.4649383784214
 30
0.0000000000000000
 11
228.8780474716837
 21
237.4649383784214
 31
0.0000000000000000
  0
LINE
  5
264
100
AcDbEntity
  8
MAIN0
  6
CONTINUOUS
 62
3
100
AcDbLine
 10
234.8780474716837
 20
241.4649383784214
 30
0.0000000000000000
 11
228.8780474716837
 21
241.4649383784214
 31
0.0000000000000000
  0
LINE
  5
265
100
AcDbEntity
  8
MAIN0
  6
CONTINUOUS
 62
3
100
AcDbLine
 10
234.3367814716837
 20
236.9236723784214
 30
0.0000000000000000
 11
234.3367814716837
 21
241.7774384492246
 31
0.0000000000000000
  0
LINE
  5
266
100
AcDbEntity
  8
MAIN0
  6
CONTINUOUS
 62
3
100
AcDbLine
 10
229.4193134716837
 20
236.9236723784214
 30
0.0000000000000000
 11
229.4193134716837
 21
241.7774384492246
 31
0.0000000000000000
  0
LINE
  5
267
100
AcDbEntity
  8
MAIN0
  6
HIDDEN
 62
3
100
AcDbLine
 10
233.3780474716837
 20
235.9649383784214
 30
0.0000000000000000
 11
231.8780474716837
 21
237.4649383784214
 31
0.0000000000000000
  0
LINE
  5
268
100
AcDbEntity
  8
MAIN0
  6
HIDDEN
 62
3
100
AcDbLine
 10
231.8780474716837
 20
237.4649383784214
 30
0.0000000000000000
 11
230.3780474716837
 21
235.9649383784214
 31
0.0000000000000000
  0
LINE
  5
269
100
AcDbEntity
  8
MAIN0
  6
CONTINUOUS
 62
3
100
AcDbLine
 10
459.1944794189874
 20
233.6649383784215
 30
0.0000000000000000
 11
459.1944794189875
 21
211.2649383784215
 31
0.0000000000000000
  0
LINE
  5
26A
100
AcDbEntity
  8
MAIN0
  6
CONTINUOUS
 62
3
100
AcDbLine
 10
460.3780474716842
 20
209.2149383769359
 30
0.0000000000000000
 11
460.3780474716841
 21
235.7149383799068
 31
0.0000000000000000
  0
LINE
  5
26B
100
AcDbEntity
  8
MAIN0
  6
CONTINUOUS
 62
3
100
AcDbLine
 10
459.1944794189876
 20
211.2649383784215
 30
0.0000000000000000
 11
460.3780474716841
 21
209.2149383769361
 31
0.0000000000000000
  0
LINE
  5
26C
100
AcDbEntity
  8
MAIN0
  6
CONTINUOUS
 62
3
100
AcDbLine
 10
459.1944794189874
 20
233.6649383784215
 30
0.0000000000000000
 11
460.3780474716838
 21
235.7149383799068
 31
0.0000000000000000
  0
LINE
  5
26D
100
AcDbEntity
  8
MAIN0
  6
CONTINUOUS
 62
3
100
AcDbLine
 10
457.3440255470831
 20
233.6649383784213
 30
0.0000000000000000
 11
459.1944794189874
 21
233.6649383784215
 31
0.0000000000000000
  0
LINE
  5
26E
100
AcDbEntity
  8
MAIN0
  6
CONTINUOUS
 62
12
100
AcDbLine
 10
457.6638477810412
 20
234.4649375846302
 30
0.0000000000000000
 11
459.6563596343392
 21
234.4649383784214
 31
0.0000000000000000
  0
LINE
  5
26F
100
AcDbEntity
  8
MAIN0
  6
CONTINUOUS
 62
3
100
AcDbLine
 10
456.6617671522956
 20
211.2649382513407
 30
0.0000000000000000
 11
459.1944794189875
 21
211.2649383784214
 31
0.0000000000000000
  0
LINE
  5
270
100
AcDbEntity
  8
MAIN0
  6
CONTINUOUS
 62
12
100
AcDbLine
 10
456.7426426123752
 20
210.4649378666289
 30
0.0000000000000000
 11
459.6563596343392
 21
210.4649383784214
 31
0.0000000000000000
  0
LINE
  5
271
100
AcDbEntity
  8
MAIN0
  6
CONTINUOUS
 62
3
100
AcDbLine
 10
250.3780494716844
 20
193.7149383784216
 30
0.0000000000000000
 11
249.8780494716844
 21
192.8489129746371
 31
0.0000000000000000
  0
LINE
  5
272
100
AcDbEntity
  8
MAIN0
  6
CONTINUOUS
 62
3
100
AcDbLine
 10
249.8780494716844
 20
192.8489129746371
 30
0.0000000000000000
 11
249.8780494716844
 21
186.0809637822060
 31
0.0000000000000000
  0
LINE
  5
273
100
AcDbEntity
  8
MAIN0
  6
CONTINUOUS
 62
3
100
AcDbLine
 10
249.8780494716844
 20
186.0809637822060
 30
0.0000000000000000
 11
250.3780494716844
 21
185.2149383784216
 31
0.0000000000000000
  0
LINE
  5
274
100
AcDbEntity
  8
MAIN0
  6
CONTINUOUS
 62
3
100
AcDbLine
 10
250.3780494716844
 20
185.2149383784216
 30
0.0000000000000000
 11
254.8780494716844
 21
185.2149383784216
 31
0.0000000000000000
  0
LINE
  5
275
100
AcDbEntity
  8
MAIN0
  6
CONTINUOUS
 62
3
100
AcDbLine
 10
250.3780494716844
 20
193.7149383784216
 30
0.0000000000000000
 11
250.3780494716844
 21
185.2149383784216
 31
0.0000000000000000
  0
LINE
  5
276
100
AcDbEntity
  8
MAIN0
  6
CONTINUOUS
 62
3
100
AcDbLine
 10
250.3780494716844
 20
193.7149383784216
 30
0.0000000000000000
 11
253.0314853051237
 21
193.7149350720674
 31
0.0000000000000000
  0
MTEXT
  5
277
100
AcDbEntity
  8
MAIN0
  6
CONTINUOUS
 62
3
100
AcDbMText
 10
252.2949445506337
 20
99.97542483228705
 30
0.0000000000000000
 40
3.099999904632568
 41
0.0000000000000000
 71
     1
 72
     1
  1
{\H0.92x;{  150}}
 11
1.000000000000000
 21
0.0000000000000000
 31
0.0000000000000000
  7
STANDARD
  0
MTEXT
  5
278
100
AcDbEntity
  8
MAIN0
  6
CONTINUOUS
 62
3
100
AcDbMText
 10
252.2949445506337
 20
92.97542483228716
 30
0.0000000000000000
 40
3.099999904632568
 41
0.0000000000000000
 71
     1
 72
     1
  1
{\H0.92x;{   30}}
 11
1.000000000000000
 21
0.0000000000000000
 31
0.0000000000000000
  7
STANDARD
  0
MTEXT
  5
279
100
AcDbEntity
  8
MAIN0
  6
CONTINUOUS
 62
3
100
AcDbMText
 10
252.2949445506337
 20
86.47542483228716
 30
0.0000000000000000
 40
3.099999904632568
 41
0.0000000000000000
 71
     1
 72
     1
  1
{\H0.92x;{   65}}
 11
1.000000000000000
 21
0.0000000000000000
 31
0.0000000000000000
  7
STANDARD
  0
MTEXT
  5
27A
100
AcDbEntity
  8
MAIN0
  6
CONTINUOUS
 62
3
100
AcDbMText
 10
252.2949445506337
 20
76.47542483228705
 30
0.0000000000000000
 40
3.099999904632568
 41
0.0000000000000000
 71
     1
 72
     1
  1
{\H0.92x;{   60}}
 11
1.000000000000000
 21
0.0000000000000000
 31
0.0000000000000000
  7
STANDARD
  0
MTEXT
  5
27B
100
AcDbEntity
  8
MAIN0
  6
CONTINUOUS
 62
3
100
AcDbMText
 10
215.2126375060023
 20
77.97542483228727
 30
0.0000000000000000
 40
3.099999904632568
 41
0.0000000000000000
 71
     1
 72
     1
  1
{\H0.81x;{ 4.0}}
 11
1.000000000000000
 21
0.0000000000000000
 31
0.0000000000000000
  7
STANDARD
  0
MTEXT
  5
27C
100
AcDbEntity
  8
MAIN0
  6
CONTINUOUS
 62
3
100
AcDbMText
 10
252.2949445506337
 20
66.47542483228705
 30
0.0000000000000000
 40
3.099999904632568
 41
0.0000000000000000
 71
     1
 72
     1
  1
{\H0.81x;{ 4.0}}
 11
1.000000000000000
 21
0.0000000000000000
 31
0.0000000000000000
  7
STANDARD
  0
MTEXT
  5
27D
100
AcDbEntity
  8
MAIN0
  6
CONTINUOUS
 62
3
100
AcDbMText
 10
252.2949445506337
 20
55.97542483228705
 30
0.0000000000000000
 40
3.099999904632568
 41
0.0000000000000000
 71
     1
 72
     1
  1
{\H0.92x;{ 5500}}
 11
1.000000000000000
 21
0.0000000000000000
 31
0.0000000000000000
  7
STANDARD
  0
MTEXT
  5
27E
100
AcDbEntity
  8
MAIN0
  6
CONTINUOUS
 62
3
100
AcDbMText
 10
252.2949445506337
 20
48.97542483228705
 30
0.0000000000000000
 40
3.099999904632568
 41
0.0000000000000000
 71
     1
 72
     1
  1
{\H0.92x;{   14}}
 11
1.000000000000000
 21
0.0000000000000000
 31
0.0000000000000000
  7
STANDARD
  0
MTEXT
  5
27F
100
AcDbEntity
  8
MAIN0
  6
CONTINUOUS
 62
3
100
AcDbMText
 10
252.5023486104331
 20
41.04155352357543
 30
0.0000000000000000
 40
3.099999904632568
 41
0.0000000000000000
 71
     1
 72
     1
  1
{\H0.92x;{ 0.048}}
 11
1.000000000000000
 21
0.0000000000000000
 31
0.0000000000000000
  7
STANDARD
  0
MTEXT
  5
280
100
AcDbEntity
  8
MAIN0
  6
CONTINUOUS
 62
4
100
AcDbMText
 10
252.2949445506337
 20
21.47542530912421
 30
0.0000000000000000
 40
3.100000381469727
 41
0.0000000000000000
 71
     1
 72
     1
  1
{\H0.91x;{ 0.8}}
 11
1.000000000000000
 21
0.0000000000000000
 31
0.0000000000000000
  7
STANDARD
  0
LINE
  5
281
100
AcDbEntity
  8
MAIN0
  6
CONTINUOUS
 62
12
100
AcDbLine
 10
438.3780474716846
 20
151.4649383784215
 30
0.0000000000000000
 11
461.6780474716845
 21
151.4649383784215
 31
0.0000000000000000
  0
LINE
  5
282
100
AcDbEntity
  8
MAIN0
  6
CONTINUOUS
 62
12
100
AcDbLine
 10
438.3780474716846
 20
163.4649383784216
 30
0.0000000000000000
 11
461.6780474716846
 21
163.4649383784216
 31
0.0000000000000000
  0
LINE
  5
283
100
AcDbEntity
  8
MAIN0
  6
CONTINUOUS
 62
3
100
AcDbLine
 10
460.7780474716847
 20
152.3649383784213
 30
0.0000000000000000
 11
462.3780474716846
 21
150.7649383784211
 31
0.0000000000000000
  0
LINE
  5
284
100
AcDbEntity
  8
MAIN0
  6
CONTINUOUS
 62
3
100
AcDbLine
 10
460.7780474716845
 20
162.5649383784214
 30
0.0000000000000000
 11
462.3780474716846
 21
164.1649383784211
 31
0.0000000000000000
  0
LINE
  5
285
100
AcDbEntity
  8
MAIN0
  6
CONTINUOUS
 62
3
100
AcDbLine
 10
435.3780474716846
 20
152.3649383784214
 30
0.0000000000000000
 11
460.7780474716847
 21
152.3649383784214
 31
0.0000000000000000
  0
LINE
  5
286
100
AcDbEntity
  8
MAIN0
  6
CONTINUOUS
 62
3
100
AcDbLine
 10
435.3780474716846
 20
162.5649383784215
 30
0.0000000000000000
 11
460.7780474716845
 21
162.5649383784215
 31
0.0000000000000000
  0
LINE
  5
287
100
AcDbEntity
  8
MAIN0
  6
CONTINUOUS
 62
3
100
AcDbLine
 10
438.3780474716846
 20
151.4649383784215
 30
0.0000000000000000
 11
438.3780474716846
 21
163.4649383784215
 31
0.0000000000000000
  0
LINE
  5
288
100
AcDbEntity
  8
MAIN0
  6
CONTINUOUS
 62
3
100
AcDbLine
 10
435.3780474716846
 20
152.3649383784214
 30
0.0000000000000000
 11
435.3780474716846
 21
162.5649383784214
 31
0.0000000000000000
  0
LINE
  5
289
100
AcDbEntity
  8
MAIN0
  6
CONTINUOUS
 62
3
100
AcDbLine
 10
432.4335610988175
 20
157.4649383784216
 30
0.0000000000000000
 11
435.3780474716845
 21
152.3649383784214
 31
0.0000000000000000
  0
LINE
  5
28A
100
AcDbEntity
  8
MAIN0
  6
CONTINUOUS
 62
3
100
AcDbLine
 10
432.4335610988175
 20
157.4649383784216
 30
0.0000000000000000
 11
435.3780474716846
 21
162.5649383784214
 31
0.0000000000000000
  0
LINE
  5
28B
100
AcDbEntity
  8
MAIN0
  6
CONTINUOUS
 62
3
100
AcDbLine
 10
60.40475987842484
 20
351.1205568804432
 30
0.0000000000000000
 11
58.40475987842484
 21
352.2752578804432
 31
0.0000000000000000
  0
LINE
  5
28C
100
AcDbEntity
  8
MAIN0
  6
CONTINUOUS
 62
3
100
AcDbLine
 10
58.40475987842490
 20
352.2752578804432
 30
0.0000000000000000
 11
56.40475987842487
 21
351.1205568804433
 31
0.0000000000000000
  0
LINE
  5
28D
100
AcDbEntity
  8
MAIN0
  6
CONTINUOUS
 62
3
100
AcDbLine
 10
56.40475987842484
 20
351.1205568804433
 30
0.0000000000000000
 11
56.40475987842484
 21
348.8111548804432
 31
0.0000000000000000
  0
LINE
  5
28E
100
AcDbEntity
  8
MAIN0
  6
CONTINUOUS
 62
3
100
AcDbLine
 10
56.40475987842481
 20
348.8111548804432
 30
0.0000000000000000
 11
58.40475987842481
 21
347.6564548804432
 31
0.0000000000000000
  0
LINE
  5
28F
100
AcDbEntity
  8
MAIN0
  6
CONTINUOUS
 62
3
100
AcDbLine
 10
58.40475987842487
 20
347.6564548804432
 30
0.0000000000000000
 11
60.40475987842490
 21
348.8111578804433
 31
0.0000000000000000
  0
LINE
  5
290
100
AcDbEntity
  8
MAIN0
  6
CONTINUOUS
 62
3
100
AcDbLine
 10
60.40475987842484
 20
348.8111578804432
 30
0.0000000000000000
 11
60.40475987842484
 21
351.1205568804433
 31
0.0000000000000000
  0
CIRCLE
  5
291
100
AcDbEntity
  8
MAIN0
  6
CONTINUOUS
 62
3
100
AcDbCircle
 10
58.40475987842484
 20
349.9658558804432
 30
0.0000000000000000
 40
4.249999999999996
  0
LINE
  5
292
100
AcDbEntity
  8
MAIN0
  6
CONTINUOUS
 62
3
100
AcDbLine
 10
161.0861270723411
 20
377.0165220640934
 30
0.0000000000000000
 11
159.0861270723411
 21
378.1712230640933
 31
0.0000000000000000
  0
LINE
  5
293
100
AcDbEntity
  8
MAIN0
  6
CONTINUOUS
 62
3
100
AcDbLine
 10
159.0861270723411
 20
378.1712230640934
 30
0.0000000000000000
 11
157.0861270723411
 21
377.0165220640934
 31
0.0000000000000000
  0
LINE
  5
294
100
AcDbEntity
  8
MAIN0
  6
CONTINUOUS
 62
3
100
AcDbLine
 10
157.0861270723412
 20
377.0165220640934
 30
0.0000000000000000
 11
157.0861270723412
 21
374.7071200640934
 31
0.0000000000000000
  0
LINE
  5
295
100
AcDbEntity
  8
MAIN0
  6
CONTINUOUS
 62
3
100
AcDbLine
 10
157.0861270723411
 20
374.7071200640934
 30
0.0000000000000000
 11
159.0861270723411
 21
373.5524200640934
 31
0.0000000000000000
  0
LINE
  5
296
100
AcDbEntity
  8
MAIN0
  6
CONTINUOUS
 62
3
100
AcDbLine
 10
159.0861270723411
 20
373.5524200640934
 30
0.0000000000000000
 11
161.0861270723411
 21
374.7071230640934
 31
0.0000000000000000
  0
LINE
  5
297
100
AcDbEntity
  8
MAIN0
  6
CONTINUOUS
 62
3
100
AcDbLine
 10
161.0861270723412
 20
374.7071230640934
 30
0.0000000000000000
 11
161.0861270723412
 21
377.0165220640934
 31
0.0000000000000000
  0
CIRCLE
  5
298
100
AcDbEntity
  8
MAIN0
  6
CONTINUOUS
 62
3
100
AcDbCircle
 10
159.0861270723412
 20
375.8618210640934
 30
0.0000000000000000
 40
4.249999999999996
  0
CIRCLE
  5
299
100
AcDbEntity
  8
MAIN0
  6
CONTINUOUS
 62
12
100
AcDbCircle
 10
90.40475987842487
 20
349.9658558804432
 30
0.0000000000000000
 40
2.500000000000000
  0
CIRCLE
  5
29A
100
AcDbEntity
  8
MAIN0
  6
CONTINUOUS
 62
3
100
AcDbCircle
 10
90.40475987842487
 20
349.9658558804432
 30
0.0000000000000000
 40
2.099999999999994
  0
CIRCLE
  5
29B
100
AcDbEntity
  8
MAIN0
  6
CONTINUOUS
 62
12
100
AcDbCircle
 10
175.0861270723412
 20
348.1490081429914
 30
0.0000000000000000
 40
2.500000000000000
  0
CIRCLE
  5
29C
100
AcDbEntity
  8
MAIN0
  6
CONTINUOUS
 62
3
100
AcDbCircle
 10
175.0861270723412
 20
348.1490081429914
 30
0.0000000000000000
 40
2.099999999999994
  0
LINE
  5
29D
100
AcDbEntity
  8
MAIN0
  6
CONTINUOUS
 62
3
100
AcDbLine
 10
264.9553977408739
 20
263.4649383784211
 30
0.0000000000000000
 11
313.8006972024947
 21
263.4649383784211
 31
0.0000000000000000
  0
LINE
  5
29E
100
AcDbEntity
  8
MAIN0
  6
CONTINUOUS
 62
3
100
AcDbLine
 10
265.4189488909635
 20
235.1829060756661
 30
0.0000000000000000
 11
273.3780474716843
 21
235.1829060756661
 31
0.0000000000000000
  0
LINE
  5
29F
100
AcDbEntity
  8
MAIN0
  6
CONTINUOUS
 62
3
100
AcDbLine
 10
266.0451224392407
 20
256.9476918708000
 30
0.0000000000000000
 11
273.3780474716843
 21
256.9476918708000
 31
0.0000000000000000
  0
LINE
  5
2A0
100
AcDbEntity
  8
MAIN0
  6
CONTINUOUS
 62
3
100
AcDbLine
 10
273.3780474716843
 20
256.9476918708000
 30
0.0000000000000000
 11
273.3780474716843
 21
235.1829060756661
 31
0.0000000000000000
  0
LINE
  5
2A1
100
AcDbEntity
  8
MAIN0
  6
CONTINUOUS
 62
3
100
AcDbLine
 10
277.2279195716842
 20
248.5192541370988
 30
0.0000000000000000
 11
309.9110509716844
 21
248.5192541370988
 31
0.0000000000000000
  0
LINE
  5
2A2
100
AcDbEntity
  8
MAIN0
  6
CONTINUOUS
 62
3
100
AcDbLine
 10
268.8450439716842
 20
196.4106226197441
 30
0.0000000000000000
 11
309.9110509716844
 21
196.4106226197441
 31
0.0000000000000000
  0
LINE
  5
2A3
100
AcDbEntity
  8
MAIN0
  6
CONTINUOUS
 62
3
100
AcDbLine
 10
273.3780474716844
 20
235.1829060756661
 30
0.0000000000000000
 11
277.2279195716844
 21
248.5192541370990
 31
0.0000000000000000
  0
LINE
  5
2A4
100
AcDbEntity
  8
MAIN0
  6
CONTINUOUS
 62
3
100
AcDbLine
 10
314.3780474716846
 20
182.4649383784218
 30
0.0000000000000000
 11
314.3780474716846
 21
262.4649383784210
 31
0.0000000000000000
  0
LINE
  5
2A5
100
AcDbEntity
  8
MAIN0
  6
CENTER
 62
12
100
AcDbLine
 10
278.2722577181567
 20
236.4649383784214
 30
0.0000000000000000
 11
310.2028281948982
 21
236.4649383784214
 31
0.0000000000000000
  0
LINE
  5
2A6
100
AcDbEntity
  8
MAIN0
  6
CENTER
 62
12
100
AcDbLine
 10
267.7437892016440
 20
208.4649383784214
 30
0.0000000000000000
 11
293.8060248384888
 21
208.4649383784214
 31
0.0000000000000000
  0
LINE
  5
2A7
100
AcDbEntity
  8
MAIN0
  6
CENTER
 62
12
100
AcDbLine
 10
293.3780474716843
 20
250.6263170548101
 30
0.0000000000000000
 11
293.3780474716842
 21
220.1628302880431
 31
0.0000000000000000
  0
LINE
  5
2A8
100
AcDbEntity
  8
MAIN0
  6
CENTER
 62
12
100
AcDbLine
 10
282.3780474716842
 20
224.7366461789863
 30
0.0000000000000000
 11
282.3780474716842
 21
193.5827587474870
 31
0.0000000000000000
  0
LINE
  5
2A9
100
AcDbEntity
  8
MAIN0
  6
CONTINUOUS
 62
3
100
AcDbLine
 10
264.3780474716844
 20
262.4649383784213
 30
0.0000000000000000
 11
264.9553977408739
 21
263.4649383784211
 31
0.0000000000000000
  0
LINE
  5
2AA
100
AcDbEntity
  8
MAIN0
  6
CONTINUOUS
 62
3
100
AcDbLine
 10
264.9553977408738
 20
181.4649383784216
 30
0.0000000000000000
 11
264.3780474716843
 21
182.4649383784213
 31
0.0000000000000000
  0
LINE
  5
2AB
100
AcDbEntity
  8
MAIN0
  6
CONTINUOUS
 62
3
100
AcDbLine
 10
313.8006972024948
 20
263.4649383784212
 30
0.0000000000000000
 11
314.3780474716846
 21
262.4649383784210
 31
0.0000000000000000
  0
LINE
  5
2AC
100
AcDbEntity
  8
MAIN0
  6
CONTINUOUS
 62
3
100
AcDbLine
 10
313.8006972024947
 20
181.4649383784214
 30
0.0000000000000000
 11
314.3780474716846
 21
182.4649383784218
 31
0.0000000000000000
  0
ARC
  5
2AD
100
AcDbEntity
  8
MAIN0
  6
CONTINUOUS
 62
3
100
AcDbCircle
 10
236.1620216270383
 20
222.4649383784214
 30
0.0000000000000000
 40
78.21602584464620
100
AcDbArc
 50
340.5425255662330
 51
379.4574744337668
  0
ARC
  5
2AE
100
AcDbEntity
  8
MAIN0
  6
CONTINUOUS
 62
3
100
AcDbCircle
 10
204.2824692827533
 20
220.2933097216315
 30
0.0000000000000000
 40
78.21599999999995
100
AcDbArc
 50
21.15374252409700
 51
27.94541854805983
  0
ARC
  5
2AF
100
AcDbEntity
  8
MAIN0
  6
CONTINUOUS
 62
3
100
AcDbCircle
 10
287.3780474716843
 20
122.3379563820474
 30
0.0000000000000000
 40
60.99999999999625
100
AcDbArc
 50
76.34136644349999
 51
103.6817072922514
  0
ARC
  5
2B0
100
AcDbEntity
  8
MAIN0
  6
CONTINUOUS
 62
3
100
AcDbCircle
 10
342.5940733163307
 20
222.4649383784214
 30
0.0000000000000000
 40
78.21602584464625
100
AcDbArc
 50
170.6421270324403
 51
199.4574744337666
  0
ARC
  5
2B1
100
AcDbEntity
  8
MAIN0
  6
CONTINUOUS
 62
3
100
AcDbCircle
 10
264.0482391543034
 20
268.4341353118257
 30
0.0000000000000000
 40
50.00000000000000
100
AcDbArc
 50
336.5282022431862
 51
354.2963039588780
  0
ARC
  5
2B2
100
AcDbEntity
  8
MAIN0
  6
CONTINUOUS
 62
3
100
AcDbCircle
 10
314.7078557890652
 20
268.4341353118265
 30
0.0000000000000000
 40
50.00000000000000
100
AcDbArc
 50
185.7036960411226
 51
193.2811096523984
  0
ARC
  5
2B3
100
AcDbEntity
  8
MAIN0
  6
CONTINUOUS
 62
3
100
AcDbCircle
 10
314.7078557890652
 20
176.4957414450163
 30
0.0000000000000000
 40
50.00000000000000
100
AcDbArc
 50
156.5282022431852
 51
174.2963039588770
  0
ARC
  5
2B4
100
AcDbEntity
  8
MAIN0
  6
CONTINUOUS
 62
3
100
AcDbCircle
 10
264.0482391543033
 20
176.4957414450174
 30
0.0000000000000000
 40
50.00000000000000
100
AcDbArc
 50
5.703696041121529
 51
23.47179775681351
  0
ARC
  5
2B5
100
AcDbEntity
  8
MAIN0
  6
CONTINUOUS
 62
3
100
AcDbCircle
 10
348.9993903040586
 20
243.6696905088831
 30
0.0000000000000000
 40
84.01021293363669
100
AcDbArc
 50
170.9061413644370
 51
185.7979594798232
  0
LINE
  5
2B6
100
AcDbEntity
  8
MAIN0
  6
CONTINUOUS
 62
3
100
AcDbLine
 10
328.3780474716846
 20
183.4649383784214
 30
0.0000000000000000
 11
328.3780474716846
 21
261.4649383784214
 31
0.0000000000000000
  0
LINE
  5
2B7
100
AcDbEntity
  8
MAIN0
  6
CONTINUOUS
 62
3
100
AcDbLine
 10
314.3780474716845
 20
262.4649383784213
 30
0.0000000000000000
 11
317.3780474716847
 21
262.4649383784213
 31
0.0000000000000000
  0
LINE
  5
2B8
100
AcDbEntity
  8
MAIN0
  6
CONTINUOUS
 62
3
100
AcDbLine
 10
264.3780474716843
 20
182.4649383783377
 30
0.0000000000000000
 11
264.3780474716843
 21
262.4649383784212
 31
0.0000000000000000
  0
LINE
  5
2B9
100
AcDbEntity
  8
MAIN0
  6
CONTINUOUS
 62
3
100
AcDbLine
 10
261.9780474716845
 20
262.4649383784213
 30
0.0000000000000000
 11
264.3780474716843
 21
262.4649383784213
 31
0.0000000000000000
  0
LINE
  5
2BA
100
AcDbEntity
  8
MAIN0
  6
CONTINUOUS
 62
3
100
AcDbLine
 10
304.3780474716843
 20
181.4649383784214
 30
0.0000000000000000
 11
313.8006972024947
 21
181.4649383784214
 31
0.0000000000000000
  0
LINE
  5
2BB
100
AcDbEntity
  8
MAIN0
  6
CONTINUOUS
 62
3
100
AcDbLine
 10
314.3780474716845
 20
182.4649383784216
 30
0.0000000000000000
 11
317.3780474716847
 21
182.4649383784216
 31
0.0000000000000000
  0
LINE
  5
2BC
100
AcDbEntity
  8
MAIN0
  6
CONTINUOUS
 62
3
100
AcDbLine
 10
261.9780474716845
 20
182.4649383784216
 30
0.0000000000000000
 11
264.3780474716843
 21
182.4649383784216
 31
0.0000000000000000
  0
LINE
  5
2BD
100
AcDbEntity
  8
MAIN0
  6
CENTER
 62
12
100
AcDbLine
 10
287.3780474716843
 20
169.3303240790585
 30
0.0000000000000000
 11
287.3780474716843
 21
200.5661305768212
 31
0.0000000000000000
  0
LINE
  5
2BE
100
AcDbEntity
  8
MAIN0
  6
CONTINUOUS
 62
3
100
AcDbLine
 10
300.3780474716844
 20
177.4649383784214
 30
0.0000000000000000
 11
274.3780474716845
 21
177.4649383784215
 31
0.0000000000000000
  0
LINE
  5
2BF
100
AcDbEntity
  8
MAIN0
  6
CONTINUOUS
 62
3
100
AcDbLine
 10
264.9553977408737
 20
181.4649383784214
 30
0.0000000000000000
 11
270.3780474716843
 21
181.4649383784214
 31
0.0000000000000000
  0
LINE
  5
2C0
100
AcDbEntity
  8
MAIN0
  6
HIDDEN
 62
12
100
AcDbLine
 10
152.3973174626293
 20
235.1829060756663
 30
0.0000000000000000
 11
139.8314125249543
 21
256.9476918707999
 31
0.0000000000000000
  0
LINE
  5
2C1
100
AcDbEntity
  8
MAIN0
  6
HIDDEN
 62
12
100
AcDbLine
 10
125.3973174626295
 20
177.4649383784216
 30
0.0000000000000000
 11
99.39731746262942
 21
177.4649383784217
 31
0.0000000000000000
  0
LINE
  5
2C2
100
AcDbEntity
  8
MAIN0
  6
HIDDEN
 62
12
100
AcDbLine
 10
127.3973174626295
 20
179.4649382607990
 30
0.0000000000000000
 11
127.3973174626295
 21
181.8019348260092
 31
0.0000000000000000
  0
LINE
  5
2C3
100
AcDbEntity
  8
MAIN0
  6
HIDDEN
 62
12
100
AcDbLine
 10
97.39731746262947
 20
179.4649379198441
 30
0.0000000000000000
 11
97.39731746262947
 21
181.8019348260092
 31
0.0000000000000000
  0
LINE
  5
2C4
100
AcDbEntity
  8
MAIN0
  6
HIDDEN
 62
12
100
AcDbLine
 10
105.8188174626294
 20
177.4649383784217
 30
0.0000000000000000
 11
105.9641584655803
 21
182.1158504728491
 31
0.0000000000000000
  0
LINE
  5
2C5
100
AcDbEntity
  8
MAIN0
  6
HIDDEN
 62
12
100
AcDbLine
 10
106.6748174626294
 20
177.4649383784216
 30
0.0000000000000000
 11
106.8193233436291
 21
182.0891265704100
 31
0.0000000000000000
  0
LINE
  5
2C6
100
AcDbEntity
  8
MAIN0
  6
HIDDEN
 62
12
100
AcDbLine
 10
118.8298613424785
 20
182.1355342232531
 30
0.0000000000000000
 11
118.9758174626294
 21
177.4649383784217
 31
0.0000000000000000
  0
LINE
  5
2C7
100
AcDbEntity
  8
MAIN0
  6
HIDDEN
 62
12
100
AcDbLine
 10
117.9746964644297
 20
182.1088103208140
 30
0.0000000000000000
 11
118.1198174626294
 21
177.4649383784216
 31
0.0000000000000000
  0
LINE
  5
2C8
100
AcDbEntity
  8
MAIN0
  6
CENTER
 62
12
100
AcDbLine
 10
141.0221473092266
 20
236.4649383784214
 30
0.0000000000000000
 11
156.5420316378605
 21
236.4649383784214
 31
0.0000000000000000
  0
LINE
  5
2C9
100
AcDbEntity
  8
MAIN0
  6
CENTER
 62
12
100
AcDbLine
 10
140.8929892771783
 20
208.4649383784214
 30
0.0000000000000000
 11
156.5420316378605
 21
208.4649383784214
 31
0.0000000000000000
  0
LINE
  5
2CA
100
AcDbEntity
  8
MAIN0
  6
HIDDEN
 62
12
100
AcDbLine
 10
141.3973174626294
 20
200.4776883784216
 30
0.0000000000000000
 11
152.3973174626294
 21
200.1339383784215
 31
0.0000000000000000
  0
LINE
  5
2CB
100
AcDbEntity
  8
MAIN0
  6
HIDDEN
 62
12
100
AcDbLine
 10
141.3973174626294
 20
201.3336883784216
 30
0.0000000000000000
 11
152.3973174626294
 21
200.9899383784215
 31
0.0000000000000000
  0
LINE
  5
2CC
100
AcDbEntity
  8
MAIN0
  6
HIDDEN
 62
12
100
AcDbLine
 10
152.3973174626294
 20
216.7959383784215
 30
0.0000000000000000
 11
141.3973174626294
 21
216.4521883784215
 31
0.0000000000000000
  0
LINE
  5
2CD
100
AcDbEntity
  8
MAIN0
  6
HIDDEN
 62
12
100
AcDbLine
 10
152.3973174626294
 20
215.9399383784215
 30
0.0000000000000000
 11
141.3973174626294
 21
215.5961883784215
 31
0.0000000000000000
  0
LINE
  5
2CE
100
AcDbEntity
  8
MAIN0
  6
HIDDEN
 62
12
100
AcDbLine
 10
141.3973174626294
 20
228.4776883784215
 30
0.0000000000000000
 11
152.3973174626294
 21
228.1339383784215
 31
0.0000000000000000
  0
LINE
  5
2CF
100
AcDbEntity
  8
MAIN0
  6
HIDDEN
 62
12
100
AcDbLine
 10
141.3973174626294
 20
229.3336883784216
 30
0.0000000000000000
 11
152.3973174626294
 21
228.9899383784215
 31
0.0000000000000000
  0
LINE
  5
2D0
100
AcDbEntity
  8
MAIN0
  6
HIDDEN
 62
12
100
AcDbLine
 10
152.3973174626294
 20
244.7959383784214
 30
0.0000000000000000
 11
141.3973174626294
 21
244.4521883784214
 31
0.0000000000000000
  0
LINE
  5
2D1
100
AcDbEntity
  8
MAIN0
  6
HIDDEN
 62
12
100
AcDbLine
 10
152.3973174626294
 20
243.9399383784215
 30
0.0000000000000000
 11
141.3973174626294
 21
243.5961883784214
 31
0.0000000000000000
  0
LINE
  5
2D2
100
AcDbEntity
  8
MAIN0
  6
HIDDEN
 62
12
100
AcDbLine
 10
72.39731746262939
 20
196.4106226197441
 30
0.0000000000000000
 11
72.39731746262939
 21
248.5192541370988
 31
0.0000000000000000
  0
LINE
  5
2D3
100
AcDbEntity
  8
MAIN0
  6
CONTINUOUS
 62
3
100
AcDbLine
 10
152.3973174626294
 20
196.4106226197439
 30
0.0000000000000000
 11
152.3973174626294
 21
206.6852045403620
 31
0.0000000000000000
  0
LINE
  5
2D4
100
AcDbEntity
  8
MAIN0
  6
HIDDEN
 62
12
100
AcDbLine
 10
152.3973174626294
 20
206.6852045403620
 30
0.0000000000000000
 11
152.3973174626294
 21
248.5192541370988
 31
0.0000000000000000
  0
ARC
  5
2D5
100
AcDbEntity
  8
MAIN0
  6
CONTINUOUS
 62
3
100
AcDbCircle
 10
304.3780474716843
 20
179.4649383784214
 30
0.0000000000000000
 40
2.000000000000000
100
AcDbArc
 50
89.99999999999970
 51
179.9999999999998
  0
ARC
  5
2D6
100
AcDbEntity
  8
MAIN0
  6
CONTINUOUS
 62
3
100
AcDbCircle
 10
300.3780474716845
 20
179.4649383784214
 30
0.0000000000000000
 40
2.000000000000000
100
AcDbArc
 50
269.9999999999999
 51
359.9999999999998
  0
ARC
  5
2D7
100
AcDbEntity
  8
MAIN0
  6
CONTINUOUS
 62
3
100
AcDbCircle
 10
274.3780474716843
 20
179.4649383784214
 30
0.0000000000000000
 40
2.000000000000000
100
AcDbArc
 50
179.9999999999998
 51
269.9999999999999
  0
ARC
  5
2D8
100
AcDbEntity
  8
MAIN0
  6
CONTINUOUS
 62
3
100
AcDbCircle
 10
270.3780474716843
 20
179.4649383784214
 30
0.0000000000000000
 40
2.000000000000000
100
AcDbArc
 50
0.0000000000000000
 51
89.99999999999970
  0
ARC
  5
2D9
100
AcDbEntity
  8
MAIN0
  6
HIDDEN
 62
12
100
AcDbCircle
 10
112.3973174626294
 20
202.4649383784217
 30
0.0000000000000000
 40
60.99999999999966
100
AcDbArc
 50
49.02438965740429
 51
130.9756103425957
  0
ARC
  5
2DA
100
AcDbEntity
  8
MAIN0
  6
HIDDEN
 62
12
100
AcDbCircle
 10
129.3973174626295
 20
181.8019348260092
 30
0.0000000000000000
 40
2.000000000000000
100
AcDbArc
 50
105.6548217036081
 51
179.9999999999998
  0
ARC
  5
2DB
100
AcDbEntity
  8
MAIN0
  6
HIDDEN
 62
12
100
AcDbCircle
 10
95.39731746262945
 20
181.8019348260092
 30
0.0000000000000000
 40
2.000000000000000
100
AcDbArc
 50
0.0000000000000000
 51
74.34517829639128
  0
ARC
  5
2DC
100
AcDbEntity
  8
MAIN0
  6
HIDDEN
 62
12
100
AcDbCircle
 10
112.3973174626294
 20
242.4649383784212
 30
0.0000000000000000
 40
60.99999999999966
100
AcDbArc
 50
229.0243896574039
 51
291.3855919881229
  0
ARC
  5
2DD
100
AcDbEntity
  8
MAIN0
  6
CONTINUOUS
 62
3
100
AcDbCircle
 10
112.3973174626294
 20
242.4649383784212
 30
0.0000000000000000
 40
60.99999999999966
100
AcDbArc
 50
291.3855919881229
 51
310.9756103425955
  0
ARC
  5
2DE
100
AcDbEntity
  8
MAIN0
  6
HIDDEN
 62
12
100
AcDbCircle
 10
99.39731746262942
 20
179.4649383784217
 30
0.0000000000000000
 40
2.000000000000000
100
AcDbArc
 50
179.9999999999998
 51
209.9999999999996
  0
ARC
  5
2DF
100
AcDbEntity
  8
MAIN0
  6
HIDDEN
 62
12
100
AcDbCircle
 10
99.39731746262942
 20
179.4649383784217
 30
0.0000000000000000
 40
2.000000000000000
100
AcDbArc
 50
209.9999999999996
 51
269.9999999999999
  0
ARC
  5
2E0
100
AcDbEntity
  8
MAIN0
  6
HIDDEN
 62
12
100
AcDbCircle
 10
125.3973174626295
 20
179.4649383784217
 30
0.0000000000000000
 40
2.000000000000000
100
AcDbArc
 50
269.9999999999999
 51
330.0000000000015
  0
ARC
  5
2E1
100
AcDbEntity
  8
MAIN0
  6
HIDDEN
 62
12
100
AcDbCircle
 10
125.3973174626295
 20
179.4649383784217
 30
0.0000000000000000
 40
2.000000000000000
100
AcDbArc
 50
330.0000000000015
 51
359.9999999999998
  0
LINE
  5
2E2
100
AcDbEntity
  8
MAIN0
  6
CONTINUOUS
 62
3
100
AcDbLine
 10
259.9780474716844
 20
262.4649383784212
 30
0.0000000000000000
 11
261.8780474716845
 21
262.4649383784213
 31
0.0000000000000000
  0
LINE
  5
2E3
100
AcDbEntity
  8
MAIN0
  6
CONTINUOUS
 62
3
100
AcDbLine
 10
195.3780474716820
 20
177.4649383784215
 30
0.0000000000000000
 11
258.6383015095287
 21
177.4649383784214
 31
0.0000000000000000
  0
LINE
  5
2E4
100
AcDbEntity
  8
MAIN0
  6
CONTINUOUS
 62
3
100
AcDbLine
 10
258.9062507019597
 20
266.4649383784213
 30
0.0000000000000000
 11
259.9780474716843
 21
262.4649383784212
 31
0.0000000000000000
  0
LINE
  5
2E5
100
AcDbEntity
  8
MAIN0
  6
CONTINUOUS
 62
3
100
AcDbLine
 10
259.9780474716844
 20
182.4649383784216
 30
0.0000000000000000
 11
261.8780474716845
 21
182.4649383784216
 31
0.0000000000000000
  0
LINE
  5
2E6
100
AcDbEntity
  8
MAIN0
  6
CONTINUOUS
 62
3
100
AcDbLine
 10
258.6383015095286
 20
177.4649383784215
 30
0.0000000000000000
 11
259.9780474716843
 21
182.4649383784217
 31
0.0000000000000000
  0
LINE
  5
2E7
100
AcDbEntity
  8
MAIN0
  6
CONTINUOUS
 62
3
100
AcDbLine
 10
221.3780474716822
 20
183.4649383784216
 30
0.0000000000000000
 11
249.3780474716845
 21
183.4649383784216
 31
0.0000000000000000
  0
LINE
  5
2E8
100
AcDbEntity
  8
MAIN0
  6
CONTINUOUS
 62
3
100
AcDbLine
 10
244.3780474716845
 20
237.7507367140979
 30
0.0000000000000000
 11
244.3780474716845
 21
242.4649383784212
 31
0.0000000000000000
  0
LINE
  5
2E9
100
AcDbEntity
  8
MAIN0
  6
CONTINUOUS
 62
3
100
AcDbLine
 10
241.3780474716845
 20
229.9649383784214
 30
0.0000000000000000
 11
241.3780474716845
 21
245.4649383784212
 31
0.0000000000000000
  0
LINE
  5
2EA
100
AcDbEntity
  8
MAIN0
  6
CONTINUOUS
 62
3
100
AcDbLine
 10
244.3780474716845
 20
239.9649383784212
 30
0.0000000000000000
 11
241.3780474716845
 21
239.9649383784212
 31
0.0000000000000000
  0
LINE
  5
2EB
100
AcDbEntity
  8
MAIN0
  6
CONTINUOUS
 62
3
100
AcDbLine
 10
244.3780474716845
 20
242.4649383784212
 30
0.0000000000000000
 11
246.0841854960513
 21
242.4649383784212
 31
0.0000000000000000
  0
LINE
  5
2EC
100
AcDbEntity
  8
MAIN0
  6
CONTINUOUS
 62
3
100
AcDbLine
 10
243.3780474716845
 20
247.4649383784212
 30
0.0000000000000000
 11
245.5496203469382
 21
247.4649383784212
 31
0.0000000000000000
  0
LINE
  5
2ED
100
AcDbEntity
  8
MAIN0
  6
CONTINUOUS
 62
3
100
AcDbLine
 10
246.9638339093114
 20
248.0507248160481
 30
0.0000000000000000
 11
251.0851542528711
 21
252.1720451596077
 31
0.0000000000000000
  0
LINE
  5
2EE
100
AcDbEntity
  8
MAIN0
  6
CONTINUOUS
 62
3
100
AcDbLine
 10
241.3780474716845
 20
214.9649383784215
 30
0.0000000000000000
 11
241.3780474716845
 21
199.4649383784217
 31
0.0000000000000000
  0
LINE
  5
2EF
100
AcDbEntity
  8
MAIN0
  6
CONTINUOUS
 62
3
100
AcDbLine
 10
243.3780474716845
 20
197.4649383784217
 30
0.0000000000000000
 11
245.5496203469382
 21
197.4649383784217
 31
0.0000000000000000
  0
LINE
  5
2F0
100
AcDbEntity
  8
MAIN0
  6
CONTINUOUS
 62
3
100
AcDbLine
 10
246.9638339093114
 20
196.8791519407948
 30
0.0000000000000000
 11
250.2865423886876
 21
193.5564434614186
 31
0.0000000000000000
  0
LINE
  5
2F1
100
AcDbEntity
  8
MAIN0
  6
CONTINUOUS
 62
3
100
AcDbLine
 10
244.3780474716845
 20
202.4649383784217
 30
0.0000000000000000
 11
244.3780474716845
 21
204.4521789768907
 31
0.0000000000000000
  0
LINE
  5
2F2
100
AcDbEntity
  8
MAIN0
  6
CONTINUOUS
 62
3
100
AcDbLine
 10
241.3780474716845
 20
204.9649383784217
 30
0.0000000000000000
 11
244.2262641995143
 21
204.9649383784217
 31
0.0000000000000000
  0
LINE
  5
2F3
100
AcDbEntity
  8
MAIN0
  6
CONTINUOUS
 62
3
100
AcDbLine
 10
244.3780474716845
 20
202.4649383784217
 30
0.0000000000000000
 11
245.3472624480652
 21
202.4649383784217
 31
0.0000000000000000
  0
LINE
  5
2F4
100
AcDbEntity
  8
MAIN0
  6
CONTINUOUS
 62
3
100
AcDbLine
 10
219.3780474716822
 20
185.4649383784217
 30
0.0000000000000000
 11
219.3780474716823
 21
186.4649383784214
 31
0.0000000000000000
  0
LINE
  5
2F5
100
AcDbEntity
  8
MAIN0
  6
CONTINUOUS
 62
3
100
AcDbLine
 10
195.3780474716824
 20
188.4649383784216
 30
0.0000000000000000
 11
217.3780474716823
 21
188.4649383784216
 31
0.0000000000000000
  0
LINE
  5
2F6
100
AcDbEntity
  8
MAIN0
  6
CENTER
 62
12
100
AcDbLine
 10
190.5037556551085
 20
183.4649383784216
 30
0.0000000000000000
 11
203.6703336244675
 21
183.4649383784216
 31
0.0000000000000000
  0
LINE
  5
2F7
100
AcDbEntity
  8
MAIN0
  6
CONTINUOUS
 62
3
100
AcDbLine
 10
251.2320970934584
 20
184.7149383784216
 30
0.0000000000000000
 11
254.8780494716844
 21
184.7149383784216
 31
0.0000000000000000
  0
LINE
  5
2F8
100
AcDbEntity
  8
MAIN0
  6
CONTINUOUS
 62
3
100
AcDbLine
 10
249.6280474716844
 20
194.2149383784217
 30
0.0000000000000000
 11
252.8406234269293
 21
194.2149383784217
 31
0.0000000000000000
  0
LINE
  5
2F9
100
AcDbEntity
  8
MAIN0
  6
CENTER
 62
12
100
AcDbLine
 10
246.3377124143411
 20
189.4649383784216
 30
0.0000000000000000
 11
268.1601489977868
 21
189.4649383784216
 31
0.0000000000000000
  0
LINE
  5
2FA
100
AcDbEntity
  8
MAIN0
  6
CONTINUOUS
 62
3
100
AcDbLine
 10
251.3780474716845
 20
259.4649383784213
 30
0.0000000000000000
 11
251.3780474716845
 21
252.8791519407945
 31
0.0000000000000000
  0
LINE
  5
2FB
100
AcDbEntity
  8
MAIN0
  6
CONTINUOUS
 62
3
100
AcDbLine
 10
247.3780474716844
 20
248.4649383784212
 30
0.0000000000000000
 11
252.4780474716840
 21
248.4649383784212
 31
0.0000000000000000
  0
LINE
  5
2FC
100
AcDbEntity
  8
MAIN0
  6
CONTINUOUS
 62
3
100
AcDbLine
 10
252.4780474716840
 20
248.4649383784213
 30
0.0000000000000000
 11
252.4780474716845
 21
266.4649383784213
 31
0.0000000000000000
  0
LINE
  5
2FD
100
AcDbEntity
  8
MAIN0
  6
CONTINUOUS
 62
3
100
AcDbLine
 10
197.3780474716846
 20
261.4649383784213
 30
0.0000000000000000
 11
197.3780474716846
 21
266.4649383784213
 31
0.0000000000000000
  0
LINE
  5
2FE
100
AcDbEntity
  8
MAIN0
  6
CONTINUOUS
 62
3
100
AcDbLine
 10
193.3780474716846
 20
265.4649383784213
 30
0.0000000000000000
 11
195.3780474716846
 21
265.4649383784213
 31
0.0000000000000000
  0
LINE
  5
2FF
100
AcDbEntity
  8
MAIN0
  6
CONTINUOUS
 62
3
100
AcDbLine
 10
193.3780474716846
 20
179.4649383784216
 30
0.0000000000000000
 11
193.3780474716846
 21
265.4649383784213
 31
0.0000000000000000
  0
LINE
  5
300
100
AcDbEntity
  8
MAIN0
  6
CONTINUOUS
 62
3
100
AcDbLine
 10
193.3780474716846
 20
179.4649383784216
 30
0.0000000000000000
 11
195.3780474716846
 21
179.4649383784216
 31
0.0000000000000000
  0
LINE
  5
301
100
AcDbEntity
  8
MAIN0
  6
CONTINUOUS
 62
3
100
AcDbLine
 10
170.3780474716847
 20
267.4649383784213
 30
0.0000000000000000
 11
170.3780474716847
 21
270.6649383784213
 31
0.0000000000000000
  0
LINE
  5
302
100
AcDbEntity
  8
MAIN0
  6
CONTINUOUS
 62
3
100
AcDbLine
 10
225.3780474716848
 20
267.4649383784213
 30
0.0000000000000000
 11
225.3780474716848
 21
270.6649383784213
 31
0.0000000000000000
  0
LINE
  5
303
100
AcDbEntity
  8
MAIN0
  6
CENTER
 62
12
100
AcDbLine
 10
204.3780474716847
 20
262.4649383784213
 30
0.0000000000000000
 11
204.3780474716847
 21
275.6649383784213
 31
0.0000000000000000
  0
LINE
  5
304
100
AcDbEntity
  8
MAIN0
  6
CONTINUOUS
 62
3
100
AcDbLine
 10
254.3780474716845
 20
266.4649383784213
 30
0.0000000000000000
 11
254.3780474716845
 21
266.9649383784213
 31
0.0000000000000000
  0
LINE
  5
305
100
AcDbEntity
  8
MAIN0
  6
CONTINUOUS
 62
3
100
AcDbLine
 10
183.3780474716845
 20
266.4649383784213
 30
0.0000000000000000
 11
183.3780474716845
 21
266.9649383784213
 31
0.0000000000000000
  0
LINE
  5
306
100
AcDbEntity
  8
MAIN0
  6
CONTINUOUS
 62
3
100
AcDbLine
 10
185.3780474716845
 20
266.9649383784213
 30
0.0000000000000000
 11
185.3780474716845
 21
267.4649383784213
 31
0.0000000000000000
  0
LINE
  5
307
100
AcDbEntity
  8
MAIN0
  6
CONTINUOUS
 62
3
100
AcDbLine
 10
240.3780474716845
 20
266.9649383784214
 30
0.0000000000000000
 11
240.3780474716845
 21
267.4649383784213
 31
0.0000000000000000
  0
LINE
  5
308
100
AcDbEntity
  8
MAIN0
  6
CONTINUOUS
 62
3
100
AcDbLine
 10
90.39731746262945
 20
266.4649383784212
 30
0.0000000000000000
 11
137.8007293069728
 21
266.4649383784213
 31
0.0000000000000000
  0
LINE
  5
309
100
AcDbEntity
  8
MAIN0
  6
CONTINUOUS
 62
3
100
AcDbLine
 10
137.8007293069728
 20
266.4649383784213
 30
0.0000000000000000
 11
162.0024352291446
 21
224.5463540913794
 31
0.0000000000000000
  0
LINE
  5
30A
100
AcDbEntity
  8
MAIN0
  6
CENTER
 62
12
100
AcDbLine
 10
143.5417438756522
 20
240.4461813517368
 30
0.0000000000000000
 11
166.7668697634337
 21
253.8552140350103
 31
0.0000000000000000
  0
LINE
  5
30B
100
AcDbEntity
  8
MAIN0
  6
CONTINUOUS
 62
3
100
AcDbLine
 10
156.7606709129394
 20
221.5200200523897
 30
0.0000000000000000
 11
162.0024352291446
 21
224.5463540913794
 31
0.0000000000000000
  0
LINE
  5
30C
100
AcDbEntity
  8
MAIN0
  6
CONTINUOUS
 62
3
100
AcDbLine
 10
69.39731746262939
 20
183.4649383784216
 30
0.0000000000000000
 11
69.39731746262939
 21
261.4649383784213
 31
0.0000000000000000
  0
LINE
  5
30D
100
AcDbEntity
  8
MAIN0
  6
CONTINUOUS
 62
3
100
AcDbLine
 10
68.39731746262939
 20
261.4649383784213
 30
0.0000000000000000
 11
86.39731746262947
 21
261.4649383784213
 31
0.0000000000000000
  0
LINE
  5
30E
100
AcDbEntity
  8
MAIN0
  6
CONTINUOUS
 62
3
100
AcDbLine
 10
89.39731746262945
 20
264.4649383784213
 30
0.0000000000000000
 11
89.39731746262945
 21
265.4649383784212
 31
0.0000000000000000
  0
LINE
  5
30F
100
AcDbEntity
  8
MAIN0
  6
CONTINUOUS
 62
3
100
AcDbLine
 10
68.39731746262939
 20
183.4649383784216
 30
0.0000000000000000
 11
88.89731746262945
 21
183.4649383784216
 31
0.0000000000000000
  0
LINE
  5
310
100
AcDbEntity
  8
MAIN0
  6
CENTER
 62
12
100
AcDbLine
 10
128.7480974977744
 20
250.7853201426754
 30
0.0000000000000000
 11
134.9105553665610
 21
261.4590102709164
 31
0.0000000000000000
  0
LINE
  5
311
100
AcDbEntity
  8
MAIN0
  6
CENTER
 62
12
100
AcDbLine
 10
128.7480974977744
 20
194.1445566141673
 30
0.0000000000000000
 11
134.9105553665610
 21
183.4708664859262
 31
0.0000000000000000
  0
LINE
  5
312
100
AcDbEntity
  8
MAIN0
  6
CENTER
 62
12
100
AcDbLine
 10
207.3780474716837
 20
252.4649383784212
 30
0.0000000000000000
 11
212.3780474716837
 21
252.4649383784212
 31
0.0000000000000000
  0
LINE
  5
313
100
AcDbEntity
  8
MAIN0
  6
CENTER
 62
12
100
AcDbLine
 10
212.3780474716837
 20
248.9849014389683
 30
0.0000000000000000
 11
212.3780474716837
 21
252.4649383784208
 31
0.0000000000000000
  0
LINE
  5
314
100
AcDbEntity
  8
MAIN0
  6
CENTER
 62
12
100
AcDbLine
 10
207.3780474716837
 20
242.4649383784212
 30
0.0000000000000000
 11
207.3780474716837
 21
252.4649383784208
 31
0.0000000000000000
  0
LINE
  5
315
100
AcDbEntity
  8
MAIN0
  6
CENTER
 62
12
100
AcDbLine
 10
196.3780474716837
 20
242.4649383784212
 30
0.0000000000000000
 11
207.3780474716837
 21
242.4649383784212
 31
0.0000000000000000
  0
LINE
  5
316
100
AcDbEntity
  8
MAIN0
  6
CENTER
 62
12
100
AcDbLine
 10
207.3780474716837
 20
192.4649383784217
 30
0.0000000000000000
 11
212.3780474716837
 21
192.4649383784217
 31
0.0000000000000000
  0
LINE
  5
317
100
AcDbEntity
  8
MAIN0
  6
CENTER
 62
12
100
AcDbLine
 10
212.3780474716837
 20
192.4649383784221
 30
0.0000000000000000
 11
212.3780474716837
 21
195.8355569323559
 31
0.0000000000000000
  0
LINE
  5
318
100
AcDbEntity
  8
MAIN0
  6
CENTER
 62
12
100
AcDbLine
 10
207.3780474716837
 20
202.4649383784217
 30
0.0000000000000000
 11
207.3780474716837
 21
192.4649383784221
 31
0.0000000000000000
  0
LINE
  5
319
100
AcDbEntity
  8
MAIN0
  6
CENTER
 62
12
100
AcDbLine
 10
196.3780474716837
 20
202.4649383784217
 30
0.0000000000000000
 11
207.3780474716837
 21
202.4649383784217
 31
0.0000000000000000
  0
LINE
  5
31A
100
AcDbEntity
  8
MAIN0
  6
CENTER
 62
12
100
AcDbLine
 10
196.3780474716837
 20
202.4649383784217
 30
0.0000000000000000
 11
196.3780474716837
 21
242.4649383784212
 31
0.0000000000000000
  0
LINE
  5
31B
100
AcDbEntity
  8
MAIN0
  6
CONTINUOUS
 62
3
100
AcDbLine
 10
89.89731746262950
 20
266.9649383784212
 30
0.0000000000000000
 11
134.8973174626296
 21
266.9649383784212
 31
0.0000000000000000
  0
LINE
  5
31C
100
AcDbEntity
  8
MAIN0
  6
CONTINUOUS
 62
3
100
AcDbLine
 10
88.39731746262945
 20
267.4649383784212
 30
0.0000000000000000
 11
136.3973174626294
 21
267.4649383784212
 31
0.0000000000000000
  0
LINE
  5
31D
100
AcDbEntity
  8
MAIN0
  6
CONTINUOUS
 62
3
100
AcDbLine
 10
88.39731746262945
 20
270.6649383784213
 30
0.0000000000000000
 11
136.3973174626294
 21
270.6649383784213
 31
0.0000000000000000
  0
LINE
  5
31E
100
AcDbEntity
  8
MAIN0
  6
CONTINUOUS
 62
3
100
AcDbLine
 10
134.8973174626295
 20
266.4649383784212
 30
0.0000000000000000
 11
134.8973174626295
 21
267.4649383784212
 31
0.0000000000000000
  0
LINE
  5
31F
100
AcDbEntity
  8
MAIN0
  6
CONTINUOUS
 62
3
100
AcDbLine
 10
89.89731746262945
 20
266.4649383784212
 30
0.0000000000000000
 11
89.89731746262945
 21
267.4649383784212
 31
0.0000000000000000
  0
LINE
  5
320
100
AcDbEntity
  8
MAIN0
  6
CENTER
 62
12
100
AcDbLine
 10
128.3973174626294
 20
264.4450966320537
 30
0.0000000000000000
 11
128.3973174626294
 21
279.0354223927391
 31
0.0000000000000000
  0
LINE
  5
321
100
AcDbEntity
  8
MAIN0
  6
CENTER
 62
12
100
AcDbLine
 10
96.39731746262939
 20
264.4450966320537
 30
0.0000000000000000
 11
96.39731746262939
 21
279.0354223927391
 31
0.0000000000000000
  0
LINE
  5
322
100
AcDbEntity
  8
MAIN0
  6
CONTINUOUS
 62
3
100
AcDbLine
 10
91.39731746262939
 20
271.6649363784211
 30
0.0000000000000000
 11
101.3973174626294
 21
271.6649363784211
 31
0.0000000000000000
  0
LINE
  5
323
100
AcDbEntity
  8
MAIN0
  6
CONTINUOUS
 62
3
100
AcDbLine
 10
101.3973174626294
 20
270.6649383784211
 30
0.0000000000000000
 11
101.3973174626294
 21
271.6649363784212
 31
0.0000000000000000
  0
LINE
  5
324
100
AcDbEntity
  8
MAIN0
  6
CONTINUOUS
 62
3
100
AcDbLine
 10
91.39731746262939
 20
270.6649383784211
 30
0.0000000000000000
 11
91.39731746262939
 21
271.6649363784212
 31
0.0000000000000000
  0
LINE
  5
325
100
AcDbEntity
  8
MAIN0
  6
CONTINUOUS
 62
3
100
AcDbLine
 10
124.1473184626294
 20
271.6649403784213
 30
0.0000000000000000
 11
124.1473214626294
 21
276.3650893784212
 31
0.0000000000000000
  0
LINE
  5
326
100
AcDbEntity
  8
MAIN0
  6
CONTINUOUS
 62
3
100
AcDbLine
 10
132.6473194626294
 20
276.3649313784212
 30
0.0000000000000000
 11
132.6473174626294
 21
271.6649363784212
 31
0.0000000000000000
  0
LINE
  5
327
100
AcDbEntity
  8
MAIN0
  6
CONTINUOUS
 62
3
100
AcDbLine
 10
124.1473214626294
 20
276.3649373784212
 30
0.0000000000000000
 11
132.6473194626294
 21
276.3649313784212
 31
0.0000000000000000
  0
LINE
  5
328
100
AcDbEntity
  8
MAIN0
  6
CONTINUOUS
 62
3
100
AcDbLine
 10
132.1277303091561
 20
276.6649383784212
 30
0.0000000000000000
 11
124.6668706855536
 21
276.6649383784212
 31
0.0000000000000000
  0
LINE
  5
329
100
AcDbEntity
  8
MAIN0
  6
CONTINUOUS
 62
3
100
AcDbLine
 10
123.3973174626294
 20
271.6649363784211
 30
0.0000000000000000
 11
133.3973174626294
 21
271.6649363784211
 31
0.0000000000000000
  0
LINE
  5
32A
100
AcDbEntity
  8
MAIN0
  6
CONTINUOUS
 62
3
100
AcDbLine
 10
133.3973174626294
 20
270.6649383784211
 30
0.0000000000000000
 11
133.3973174626294
 21
271.6649363784212
 31
0.0000000000000000
  0
LINE
  5
32B
100
AcDbEntity
  8
MAIN0
  6
CONTINUOUS
 62
3
100
AcDbLine
 10
123.3973174626294
 20
270.6649383784211
 30
0.0000000000000000
 11
123.3973174626294
 21
271.6649363784212
 31
0.0000000000000000
  0
LINE
  5
32C
100
AcDbEntity
  8
MAIN0
  6
CONTINUOUS
 62
3
100
AcDbLine
 10
124.6668204626295
 20
276.6649093784213
 30
0.0000000000000000
 11
124.1473214626294
 21
276.3649373784213
 31
0.0000000000000000
  0
LINE
  5
32D
100
AcDbEntity
  8
MAIN0
  6
CONTINUOUS
 62
3
100
AcDbLine
 10
132.1277874626294
 20
276.6649053784213
 30
0.0000000000000000
 11
132.6473194626294
 21
276.3649313784213
 31
0.0000000000000000
  0
LINE
  5
32E
100
AcDbEntity
  8
MAIN0
  6
CONTINUOUS
 62
3
100
AcDbLine
 10
139.6854479310368
 20
264.2005099635711
 30
0.0000000000000000
 11
162.1854479310369
 21
225.2293667932712
 31
0.0000000000000000
  0
LINE
  5
32F
100
AcDbEntity
  8
MAIN0
  6
CONTINUOUS
 62
3
100
AcDbLine
 10
142.1397419250392
 20
267.3495480692478
 30
0.0000000000000000
 11
166.1397419250392
 21
225.7803286875947
 31
0.0000000000000000
  0
LINE
  5
330
100
AcDbEntity
  8
MAIN0
  6
CONTINUOUS
 62
3
100
AcDbLine
 10
139.3684606329290
 20
265.7495480692478
 30
0.0000000000000000
 11
163.3684606329290
 21
224.1803286875947
 31
0.0000000000000000
  0
LINE
  5
331
100
AcDbEntity
  8
MAIN0
  6
CONTINUOUS
 62
3
100
AcDbLine
 10
161.7524352291446
 20
224.9793667932714
 30
0.0000000000000000
 11
162.6184606329290
 21
225.4793667932714
 31
0.0000000000000000
  0
LINE
  5
332
100
AcDbEntity
  8
MAIN0
  6
CONTINUOUS
 62
3
100
AcDbLine
 10
139.2524352291445
 20
263.9505099635711
 30
0.0000000000000000
 11
140.1184606329290
 21
264.4505099635712
 31
0.0000000000000000
  0
LINE
  5
333
100
AcDbEntity
  8
MAIN0
  6
CENTER
 62
12
100
AcDbLine
 10
156.7532009651660
 20
229.5986110446865
 30
0.0000000000000000
 11
169.7329391484795
 21
237.0924663788334
 31
0.0000000000000000
  0
LINE
  5
334
100
AcDbEntity
  8
MAIN0
  6
CENTER
 62
12
100
AcDbLine
 10
140.7532009651659
 20
257.3114239657885
 30
0.0000000000000000
 11
153.7329391484794
 21
264.8052792999354
 31
0.0000000000000000
  0
LINE
  5
335
100
AcDbEntity
  8
MAIN0
  6
CONTINUOUS
 62
3
100
AcDbLine
 10
144.8807695608745
 20
264.6019529390308
 30
0.0000000000000000
 11
148.9512194964464
 21
266.9520248409545
 31
0.0000000000000000
  0
LINE
  5
336
100
AcDbEntity
  8
MAIN0
  6
CONTINUOUS
 62
3
100
AcDbLine
 10
153.2010816644327
 20
259.5907316408376
 30
0.0000000000000000
 11
149.1307655967728
 21
257.2407358728884
 31
0.0000000000000000
  0
LINE
  5
337
100
AcDbEntity
  8
MAIN0
  6
CONTINUOUS
 62
3
100
AcDbLine
 10
148.9510878605851
 20
266.9519488409545
 30
0.0000000000000000
 11
153.2010816644326
 21
259.5907316408377
 31
0.0000000000000000
  0
LINE
  5
338
100
AcDbEntity
  8
MAIN0
  6
CONTINUOUS
 62
3
100
AcDbLine
 10
149.4706207330091
 20
266.6520355097139
 30
0.0000000000000000
 11
148.9510878605851
 21
266.9519488409545
 31
0.0000000000000000
  0
LINE
  5
339
100
AcDbEntity
  8
MAIN0
  6
CONTINUOUS
 62
3
100
AcDbLine
 10
153.2011007689075
 20
260.1906465509165
 30
0.0000000000000000
 11
153.2010816644327
 21
259.5907316408376
 31
0.0000000000000000
  0
LINE
  5
33A
100
AcDbEntity
  8
MAIN0
  6
CONTINUOUS
 62
3
100
AcDbLine
 10
153.2011007710092
 20
260.1907125472764
 30
0.0000000000000000
 11
149.4706709592080
 21
266.6520065153858
 31
0.0000000000000000
  0
LINE
  5
33B
100
AcDbEntity
  8
MAIN0
  6
CONTINUOUS
 62
3
100
AcDbLine
 10
144.5057655967727
 20
265.2514708578945
 30
0.0000000000000000
 11
149.5057655967727
 21
256.5912168200501
 31
0.0000000000000000
  0
LINE
  5
33C
100
AcDbEntity
  8
MAIN0
  6
CONTINUOUS
 62
3
100
AcDbLine
 10
148.6397419250392
 20
256.0912178200501
 30
0.0000000000000000
 11
149.5057655967727
 21
256.5912168200500
 31
0.0000000000000000
  0
LINE
  5
33D
100
AcDbEntity
  8
MAIN0
  6
CONTINUOUS
 62
3
100
AcDbLine
 10
143.6397419250392
 20
264.7514718578944
 30
0.0000000000000000
 11
144.5057655967727
 21
265.2514708578944
 31
0.0000000000000000
  0
LINE
  5
33E
100
AcDbEntity
  8
MAIN0
  6
CONTINUOUS
 62
3
100
AcDbLine
 10
160.8807695608745
 20
236.8891400179287
 30
0.0000000000000000
 11
164.9512194964465
 21
239.2392119198525
 31
0.0000000000000000
  0
LINE
  5
33F
100
AcDbEntity
  8
MAIN0
  6
CONTINUOUS
 62
3
100
AcDbLine
 10
169.2010816644327
 20
231.8779187197356
 30
0.0000000000000000
 11
165.1307655967729
 21
229.5279229517864
 31
0.0000000000000000
  0
LINE
  5
340
100
AcDbEntity
  8
MAIN0
  6
CONTINUOUS
 62
3
100
AcDbLine
 10
164.9510878605851
 20
239.2391359198525
 30
0.0000000000000000
 11
169.2010816644327
 21
231.8779187197355
 31
0.0000000000000000
  0
LINE
  5
341
100
AcDbEntity
  8
MAIN0
  6
CONTINUOUS
 62
3
100
AcDbLine
 10
169.2011007710092
 20
232.4778996261743
 30
0.0000000000000000
 11
165.4706709592079
 21
238.9391935942837
 31
0.0000000000000000
  0
LINE
  5
342
100
AcDbEntity
  8
MAIN0
  6
CONTINUOUS
 62
3
100
AcDbLine
 10
160.5057655967727
 20
237.5386579367924
 30
0.0000000000000000
 11
165.5057655967727
 21
228.8784038989480
 31
0.0000000000000000
  0
LINE
  5
343
100
AcDbEntity
  8
MAIN0
  6
CONTINUOUS
 62
3
100
AcDbLine
 10
164.6397419250392
 20
228.3784048989480
 30
0.0000000000000000
 11
165.5057655967728
 21
228.8784038989480
 31
0.0000000000000000
  0
LINE
  5
344
100
AcDbEntity
  8
MAIN0
  6
CONTINUOUS
 62
3
100
AcDbLine
 10
159.6397419250392
 20
237.0386589367924
 30
0.0000000000000000
 11
160.5057655967728
 21
237.5386579367924
 31
0.0000000000000000
  0
LINE
  5
345
100
AcDbEntity
  8
MAIN0
  6
CONTINUOUS
 62
3
100
AcDbLine
 10
165.4706207330092
 20
238.9392225886119
 30
0.0000000000000000
 11
164.9510878605851
 21
239.2391359198525
 31
0.0000000000000000
  0
LINE
  5
346
100
AcDbEntity
  8
MAIN0
  6
CONTINUOUS
 62
3
100
AcDbLine
 10
169.2011007689075
 20
232.4778336298145
 30
0.0000000000000000
 11
169.2010816644327
 21
231.8779187197356
 31
0.0000000000000000
  0
LINE
  5
347
100
AcDbEntity
  8
MAIN0
  6
CONTINUOUS
 62
3
100
AcDbLine
 10
68.39731746262939
 20
183.4649383784216
 30
0.0000000000000000
 11
68.39731746262939
 21
261.4649383784213
 31
0.0000000000000000
  0
LINE
  5
348
100
AcDbEntity
  8
MAIN0
  6
CONTINUOUS
 62
3
100
AcDbLine
 10
261.8780474716845
 20
184.4649383784069
 30
0.0000000000000000
 11
261.8780474716845
 21
262.4649383784213
 31
0.0000000000000000
  0
LINE
  5
349
100
AcDbEntity
  8
MAIN0
  6
CONTINUOUS
 62
3
100
AcDbLine
 10
261.8780474716844
 20
184.4649383784214
 30
0.0000000000000000
 11
261.8780474716845
 21
182.4649383784215
 31
0.0000000000000000
  0
LINE
  5
34A
100
AcDbEntity
  8
MAIN0
  6
CONTINUOUS
 62
3
100
AcDbLine
 10
195.3780474716820
 20
177.4649383784216
 30
0.0000000000000000
 11
195.3780474716821
 21
181.4649383784216
 31
0.0000000000000000
  0
LINE
  5
34B
100
AcDbEntity
  8
MAIN0
  6
CONTINUOUS
 62
3
100
AcDbLine
 10
195.3780474716823
 20
185.4649383784216
 30
0.0000000000000000
 11
195.3780474716846
 21
266.4649383784213
 31
0.0000000000000000
  0
LINE
  5
34C
100
AcDbEntity
  8
MAIN0
  6
CONTINUOUS
 62
3
100
AcDbLine
 10
259.9780474716843
 20
262.4649383784213
 30
0.0000000000000000
 11
259.9780474716843
 21
182.4649383784216
 31
0.0000000000000000
  0
LINE
  5
34D
100
AcDbEntity
  8
MAIN0
  6
CONTINUOUS
 62
3
100
AcDbLine
 10
254.8780494716844
 20
184.7149383784216
 30
0.0000000000000000
 11
254.8780494716844
 21
186.8412972002593
 31
0.0000000000000000
  0
LINE
  5
34E
100
AcDbEntity
  8
MAIN0
  6
CENTER
 62
12
100
AcDbLine
 10
267.3780474716821
 20
266.4649383784212
 30
0.0000000000000000
 11
267.3780474716821
 21
266.9649383784212
 31
0.0000000000000000
  0
LINE
  5
34F
100
AcDbEntity
  8
MAIN0
  6
CENTER
 62
12
100
AcDbLine
 10
259.9181153694890
 20
266.4649383784212
 30
0.0000000000000000
 11
267.3780474716843
 21
266.4649383784212
 31
0.0000000000000000
  0
LINE
  5
350
100
AcDbEntity
  8
MAIN0
  6
CENTER
 62
12
100
AcDbLine
 10
255.6661678089600
 20
266.9649383784212
 30
0.0000000000000000
 11
267.3780474716843
 21
266.9649383784212
 31
0.0000000000000000
  0
LINE
  5
351
100
AcDbEntity
  8
MAIN0
  6
CENTER
 62
12
100
AcDbLine
 10
266.3780474716821
 20
266.9649383784212
 30
0.0000000000000000
 11
266.3780474716821
 21
270.6649383784213
 31
0.0000000000000000
  0
LINE
  5
352
100
AcDbEntity
  8
MAIN0
  6
CENTER
 62
12
100
AcDbLine
 10
255.6661678089600
 20
267.4649383784212
 30
0.0000000000000000
 11
266.3780474716821
 21
267.4649383784212
 31
0.0000000000000000
  0
LINE
  5
353
100
AcDbEntity
  8
MAIN0
  6
CENTER
 62
12
100
AcDbLine
 10
255.6661678089600
 20
270.6649383784213
 30
0.0000000000000000
 11
266.3780474716821
 21
270.6649383784213
 31
0.0000000000000000
  0
LINE
  5
354
100
AcDbEntity
  8
MAIN0
  6
CONTINUOUS
 62
3
100
AcDbLine
 10
258.6383015095286
 20
177.4649383784214
 30
0.0000000000000000
 11
258.6383015095286
 21
266.4649383784213
 31
0.0000000000000000
  0
ARC
  5
355
100
AcDbEntity
  8
MAIN0
  6
CONTINUOUS
 62
3
100
AcDbCircle
 10
249.3780474716845
 20
259.4649383784213
 30
0.0000000000000000
 40
2.000000000000000
100
AcDbArc
 50
7.180798978638723
 51
89.99999999999970
  0
ARC
  5
356
100
AcDbEntity
  8
MAIN0
  6
CONTINUOUS
 62
3
100
AcDbCircle
 10
249.3780474716845
 20
185.4649383784216
 30
0.0000000000000000
 40
2.000000000000000
100
AcDbArc
 50
269.9999999999999
 51
352.8192010213611
  0
ARC
  5
357
100
AcDbEntity
  8
MAIN0
  6
CONTINUOUS
 62
3
100
AcDbCircle
 10
245.5496203469382
 20
249.4649383784212
 30
0.0000000000000000
 40
2.000000000000000
100
AcDbArc
 50
269.9999999999999
 51
314.9999999999998
  0
ARC
  5
358
100
AcDbEntity
  8
MAIN0
  6
CONTINUOUS
 62
3
100
AcDbCircle
 10
243.3780474716845
 20
245.4649383784212
 30
0.0000000000000000
 40
2.000000000000000
100
AcDbArc
 50
89.99999999999970
 51
179.9999999999998
  0
ARC
  5
359
100
AcDbEntity
  8
MAIN0
  6
CONTINUOUS
 62
3
100
AcDbCircle
 10
245.5496203469382
 20
195.4649383784217
 30
0.0000000000000000
 40
2.000000000000000
100
AcDbArc
 50
45.00000000000004
 51
89.99999999999970
  0
ARC
  5
35A
100
AcDbEntity
  8
MAIN0
  6
CONTINUOUS
 62
3
100
AcDbCircle
 10
243.3780474716845
 20
199.4649383784217
 30
0.0000000000000000
 40
2.000000000000000
100
AcDbArc
 50
179.9999999999998
 51
269.9999999999999
  0
ARC
  5
35B
100
AcDbEntity
  8
MAIN0
  6
CONTINUOUS
 62
3
100
AcDbCircle
 10
221.3780474716823
 20
185.4649383784217
 30
0.0000000000000000
 40
2.000000000000000
100
AcDbArc
 50
179.9999999999998
 51
269.9999999999999
  0
ARC
  5
35C
100
AcDbEntity
  8
MAIN0
  6
CONTINUOUS
 62
3
100
AcDbCircle
 10
217.3780474716823
 20
186.4649383784216
 30
0.0000000000000000
 40
2.000000000000000
100
AcDbArc
 50
0.0000000000000000
 51
89.99999999999970
  0
ARC
  5
35D
100
AcDbEntity
  8
MAIN0
  6
CONTINUOUS
 62
3
100
AcDbCircle
 10
250.3780474716845
 20
252.8791519407945
 30
0.0000000000000000
 40
1.000000000000000
100
AcDbArc
 50
314.9999999999993
 51
359.9999999999998
  0
CIRCLE
  5
35E
100
AcDbEntity
  8
MAIN0
  6
CONTINUOUS
 62
3
100
AcDbCircle
 10
112.3973174626293
 20
222.4649383784214
 30
0.0000000000000000
 40
43.00000000000000
  0
ARC
  5
35F
100
AcDbEntity
  8
MAIN0
  6
CONTINUOUS
 62
3
100
AcDbCircle
 10
86.39731746262945
 20
264.4649383784213
 30
0.0000000000000000
 40
3.000000000000000
100
AcDbArc
 50
269.9999999999999
 51
359.9999999999998
  0
ARC
  5
360
100
AcDbEntity
  8
MAIN0
  6
CONTINUOUS
 62
3
100
AcDbCircle
 10
90.39731746262945
 20
265.4649383784212
 30
0.0000000000000000
 40
1.000000000000000
100
AcDbArc
 50
89.99999999999970
 51
179.9999999999998
  0
ARC
  5
361
100
AcDbEntity
  8
MAIN0
  6
CONTINUOUS
 62
3
100
AcDbCircle
 10
158.2606709129393
 20
218.9219438410364
 30
0.0000000000000000
 40
3.000000000000000
100
AcDbArc
 50
119.9999999999995
 51
175.5826112895583
  0
ARC
  5
362
100
AcDbEntity
  8
MAIN0
  6
CENTER
 62
12
100
AcDbCircle
 10
112.3973174626293
 20
222.4649383784214
 30
0.0000000000000000
 40
39.00000000000000
100
AcDbArc
 50
49.39868058096894
 51
69.26354707624148
  0
ARC
  5
363
100
AcDbEntity
  8
MAIN0
  6
CENTER
 62
12
100
AcDbCircle
 10
112.3973174626293
 20
222.4649383784214
 30
0.0000000000000000
 40
39.00000000000000
100
AcDbArc
 50
169.3986805809687
 51
189.2635470762414
  0
ARC
  5
364
100
AcDbEntity
  8
MAIN0
  6
CENTER
 62
12
100
AcDbCircle
 10
112.3973174626293
 20
222.4649383784214
 30
0.0000000000000000
 40
39.00000000000000
100
AcDbArc
 50
289.3986805809687
 51
309.2635470762416
  0
LINE
  5
365
100
AcDbEntity
  8
MAIN0
  6
CONTINUOUS
 62
3
100
AcDbLine
 10
170.3780474716847
 20
270.6649383784213
 30
0.0000000000000000
 11
225.3780474716848
 21
270.6649383784213
 31
0.0000000000000000
  0
LINE
  5
366
100
AcDbEntity
  8
MAIN0
  6
CONTINUOUS
 62
3
100
AcDbLine
 10
170.3780474716847
 20
267.4649383784213
 30
0.0000000000000000
 11
240.3780474716845
 21
267.4649383784213
 31
0.0000000000000000
  0
LINE
  5
367
100
AcDbEntity
  8
MAIN0
  6
CONTINUOUS
 62
3
100
AcDbLine
 10
183.3780474716846
 20
266.9649383784213
 30
0.0000000000000000
 11
254.3780474716845
 21
266.9649383784213
 31
0.0000000000000000
  0
LINE
  5
368
100
AcDbEntity
  8
MAIN0
  6
CONTINUOUS
 62
3
100
AcDbLine
 10
183.3780474716846
 20
266.4649383784213
 30
0.0000000000000000
 11
258.9062507019599
 21
266.4649383784213
 31
0.0000000000000000
  0
LINE
  5
369
100
AcDbEntity
  8
MAIN0
  6
CONTINUOUS
 62
3
100
AcDbLine
 10
195.3780474716845
 20
261.4649383784213
 30
0.0000000000000000
 11
249.3780474716845
 21
261.4649383784213
 31
0.0000000000000000
  0
CIRCLE
  5
36A
100
AcDbEntity
  8
MAIN0
  6
CONTINUOUS
 62
12
100
AcDbCircle
 10
293.3780474716843
 20
236.4649383784214
 30
0.0000000000000000
 40
8.330999999999998
  0
CIRCLE
  5
36B
100
AcDbEntity
  8
MAIN0
  6
CONTINUOUS
 62
3
100
AcDbCircle
 10
293.3780474716843
 20
236.4649383784214
 30
0.0000000000000000
 40
7.474999999999998
  0
CIRCLE
  5
36C
100
AcDbEntity
  8
MAIN0
  6
CONTINUOUS
 62
12
100
AcDbCircle
 10
282.3780474716843
 20
208.4649383784214
 30
0.0000000000000000
 40
8.330999999999998
  0
CIRCLE
  5
36D
100
AcDbEntity
  8
MAIN0
  6
CONTINUOUS
 62
3
100
AcDbCircle
 10
282.3780474716843
 20
208.4649383784214
 30
0.0000000000000000
 40
7.474999999999998
  0
LINE
  5
36E
100
AcDbEntity
  8
MAIN0
  6
CENTER
 62
12
100
AcDbLine
 10
245.3780474716847
 20
262.4649383784213
 30
0.0000000000000000
 11
245.3780474716847
 21
275.6649383784213
 31
0.0000000000000000
  0
LINE
  5
36F
100
AcDbEntity
  8
MAIN0
  6
HIDDEN
 62
12
100
AcDbLine
 10
280.7995474716844
 20
177.4649383784214
 30
0.0000000000000000
 11
281.1120474716845
 21
187.4649383784215
 31
0.0000000000000000
  0
LINE
  5
370
100
AcDbEntity
  8
MAIN0
  6
HIDDEN
 62
12
100
AcDbLine
 10
281.6555474716844
 20
177.4649383784214
 30
0.0000000000000000
 11
281.9680474716844
 21
187.4649383784215
 31
0.0000000000000000
  0
LINE
  5
371
100
AcDbEntity
  8
MAIN0
  6
HIDDEN
 62
12
100
AcDbLine
 10
293.6440474716844
 20
187.4649383784214
 30
0.0000000000000000
 11
293.9565474716844
 21
177.4649383784214
 31
0.0000000000000000
  0
LINE
  5
372
100
AcDbEntity
  8
MAIN0
  6
HIDDEN
 62
12
100
AcDbLine
 10
292.7880474716844
 20
187.4649383784214
 30
0.0000000000000000
 11
293.1005474716844
 21
177.4649383784214
 31
0.0000000000000000
  0
LINE
  5
373
100
AcDbEntity
  8
MAIN0
  6
CONTINUOUS
 62
3
100
AcDbLine
 10
226.3780474716839
 20
216.4649383784215
 30
0.0000000000000000
 11
226.3780474716839
 21
228.4649383784214
 31
0.0000000000000000
  0
LINE
  5
374
100
AcDbEntity
  8
MAIN0
  6
CONTINUOUS
 62
3
100
AcDbLine
 10
241.3780474716838
 20
229.9649383784214
 30
0.0000000000000000
 11
244.7419757934877
 21
229.9649383784214
 31
0.0000000000000000
  0
LINE
  5
375
100
AcDbEntity
  8
MAIN0
  6
CONTINUOUS
 62
3
100
AcDbLine
 10
241.3780474716837
 20
214.9649383784214
 30
0.0000000000000000
 11
244.0886443336776
 21
214.9649383784214
 31
0.0000000000000000
  0
LINE
  5
376
100
AcDbEntity
  8
MAIN0
  6
CONTINUOUS
 62
3
100
AcDbLine
 10
241.3780474716837
 20
214.9649383784215
 30
0.0000000000000000
 11
241.3780474716837
 21
229.9649383784214
 31
0.0000000000000000
  0
LINE
  5
377
100
AcDbEntity
  8
MAIN0
  6
CONTINUOUS
 62
3
100
AcDbLine
 10
238.3780474716837
 20
229.1610908011280
 30
0.0000000000000000
 11
241.3780474716838
 21
229.9649383784214
 31
0.0000000000000000
  0
LINE
  5
378
100
AcDbEntity
  8
MAIN0
  6
CONTINUOUS
 62
3
100
AcDbLine
 10
229.3780474716839
 20
216.4649383784215
 30
0.0000000000000000
 11
229.3780474716839
 21
228.4649383784214
 31
0.0000000000000000
  0
LINE
  5
379
100
AcDbEntity
  8
MAIN0
  6
CONTINUOUS
 62
3
100
AcDbLine
 10
234.3780474716837
 20
216.4649383784215
 30
0.0000000000000000
 11
234.3780474716837
 21
228.4649383784214
 31
0.0000000000000000
  0
LINE
  5
37A
100
AcDbEntity
  8
MAIN0
  6
CONTINUOUS
 62
3
100
AcDbLine
 10
226.3780474716839
 20
228.4649383784214
 30
0.0000000000000000
 11
229.3780474716839
 21
228.4649383784214
 31
0.0000000000000000
  0
LINE
  5
37B
100
AcDbEntity
  8
MAIN0
  6
CONTINUOUS
 62
3
100
AcDbLine
 10
234.3780474716837
 20
228.4649383784214
 30
0.0000000000000000
 11
238.3780474716837
 21
228.4649383784214
 31
0.0000000000000000
  0
LINE
  5
37C
100
AcDbEntity
  8
MAIN0
  6
CONTINUOUS
 62
3
100
AcDbLine
 10
238.3780474716837
 20
215.7687859557148
 30
0.0000000000000000
 11
241.3780474716838
 21
214.9649383784214
 31
0.0000000000000000
  0
LINE
  5
37D
100
AcDbEntity
  8
MAIN0
  6
CONTINUOUS
 62
3
100
AcDbLine
 10
234.3780474716837
 20
216.9649383784215
 30
0.0000000000000000
 11
229.3780474716839
 21
216.9649383784215
 31
0.0000000000000000
  0
LINE
  5
37E
100
AcDbEntity
  8
MAIN0
  6
CONTINUOUS
 62
3
100
AcDbLine
 10
226.3780474716839
 20
216.4649383784215
 30
0.0000000000000000
 11
229.3780474716839
 21
216.4649383784215
 31
0.0000000000000000
  0
LINE
  5
37F
100
AcDbEntity
  8
MAIN0
  6
CONTINUOUS
 62
3
100
AcDbLine
 10
234.3780474716837
 20
216.4649383784215
 30
0.0000000000000000
 11
238.3780474716837
 21
216.4649383784215
 31
0.0000000000000000
  0
LINE
  5
380
100
AcDbEntity
  8
MAIN0
  6
CONTINUOUS
 62
3
100
AcDbLine
 10
238.3780474716837
 20
215.7687859557148
 30
0.0000000000000000
 11
238.3780474716837
 21
229.1610908011280
 31
0.0000000000000000
  0
LINE
  5
381
100
AcDbEntity
  8
MAIN0
  6
CONTINUOUS
 62
3
100
AcDbLine
 10
238.3780474716836
 20
228.4649383784215
 30
0.0000000000000000
 11
238.3780474716836
 21
237.4649383784214
 31
0.0000000000000000
  0
LINE
  5
382
100
AcDbEntity
  8
MAIN0
  6
CONTINUOUS
 62
3
100
AcDbLine
 10
238.3780474716836
 20
237.4649383784214
 30
0.0000000000000000
 11
239.3780474716837
 21
237.4649383784214
 31
0.0000000000000000
  0
LINE
  5
383
100
AcDbEntity
  8
MAIN0
  6
CONTINUOUS
 62
3
100
AcDbLine
 10
239.3780474716838
 20
250.4649383784212
 30
0.0000000000000000
 11
242.3780474716835
 21
250.4649383784212
 31
0.0000000000000000
  0
LINE
  5
384
100
AcDbEntity
  8
MAIN0
  6
CONTINUOUS
 62
3
100
AcDbLine
 10
237.3780474716836
 20
252.4649383784212
 30
0.0000000000000000
 11
242.3780474716836
 21
252.4649383784212
 31
0.0000000000000000
  0
LINE
  5
385
100
AcDbEntity
  8
MAIN0
  6
CONTINUOUS
 62
3
100
AcDbLine
 10
239.3780474716838
 20
233.5261932626993
 30
0.0000000000000000
 11
239.3780474716838
 21
250.4649383784212
 31
0.0000000000000000
  0
LINE
  5
386
100
AcDbEntity
  8
MAIN0
  6
CONTINUOUS
 62
3
100
AcDbLine
 10
242.3780474716836
 20
248.9849014389683
 30
0.0000000000000000
 11
242.3780474716836
 21
252.4649383784208
 31
0.0000000000000000
  0
LINE
  5
387
100
AcDbEntity
  8
MAIN0
  6
CONTINUOUS
 62
3
100
AcDbLine
 10
226.3780474716837
 20
228.4649383784214
 30
0.0000000000000000
 11
226.3780474716837
 21
242.4649383784212
 31
0.0000000000000000
  0
LINE
  5
388
100
AcDbEntity
  8
MAIN0
  6
CONTINUOUS
 62
3
100
AcDbLine
 10
237.3780474716836
 20
242.4649383784212
 30
0.0000000000000000
 11
237.3780474716836
 21
252.4649383784208
 31
0.0000000000000000
  0
LINE
  5
389
100
AcDbEntity
  8
MAIN0
  6
CONTINUOUS
 62
3
100
AcDbLine
 10
226.3780474716837
 20
242.4649383784212
 30
0.0000000000000000
 11
237.3780474716836
 21
242.4649383784212
 31
0.0000000000000000
  0
LINE
  5
38A
100
AcDbEntity
  8
MAIN0
  6
CONTINUOUS
 62
3
100
AcDbLine
 10
238.3780474716836
 20
216.4649383784214
 30
0.0000000000000000
 11
238.3780474716836
 21
207.4649383784215
 31
0.0000000000000000
  0
LINE
  5
38B
100
AcDbEntity
  8
MAIN0
  6
CONTINUOUS
 62
3
100
AcDbLine
 10
238.3780474716836
 20
207.4649383784215
 30
0.0000000000000000
 11
239.3780474716837
 21
207.4649383784215
 31
0.0000000000000000
  0
LINE
  5
38C
100
AcDbEntity
  8
MAIN0
  6
CONTINUOUS
 62
3
100
AcDbLine
 10
239.3780474716838
 20
194.4649383784217
 30
0.0000000000000000
 11
242.3780474716835
 21
194.4649383784217
 31
0.0000000000000000
  0
LINE
  5
38D
100
AcDbEntity
  8
MAIN0
  6
CONTINUOUS
 62
3
100
AcDbLine
 10
237.3780474716836
 20
192.4649383784217
 30
0.0000000000000000
 11
242.3780474716836
 21
192.4649383784217
 31
0.0000000000000000
  0
LINE
  5
38E
100
AcDbEntity
  8
MAIN0
  6
CONTINUOUS
 62
3
100
AcDbLine
 10
239.3780474716838
 20
211.4036834941435
 30
0.0000000000000000
 11
239.3780474716838
 21
194.4649383784217
 31
0.0000000000000000
  0
LINE
  5
38F
100
AcDbEntity
  8
MAIN0
  6
CONTINUOUS
 62
3
100
AcDbLine
 10
242.3780474716836
 20
192.4649383784221
 30
0.0000000000000000
 11
242.3780474716836
 21
195.8355569323559
 31
0.0000000000000000
  0
LINE
  5
390
100
AcDbEntity
  8
MAIN0
  6
CONTINUOUS
 62
3
100
AcDbLine
 10
226.3780474716837
 20
216.4649383784215
 30
0.0000000000000000
 11
226.3780474716837
 21
202.4649383784217
 31
0.0000000000000000
  0
LINE
  5
391
100
AcDbEntity
  8
MAIN0
  6
CONTINUOUS
 62
3
100
AcDbLine
 10
237.3780474716836
 20
202.4649383784217
 30
0.0000000000000000
 11
237.3780474716836
 21
192.4649383784221
 31
0.0000000000000000
  0
LINE
  5
392
100
AcDbEntity
  8
MAIN0
  6
CONTINUOUS
 62
3
100
AcDbLine
 10
226.3780474716837
 20
202.4649383784217
 30
0.0000000000000000
 11
237.3780474716836
 21
202.4649383784217
 31
0.0000000000000000
  0
LINE
  5
393
100
AcDbEntity
  8
MAIN0
  6
CENTER
 62
12
100
AcDbLine
 10
231.8780474716837
 20
225.8431309107492
 30
0.0000000000000000
 11
231.8780474716837
 21
245.1230120379168
 31
0.0000000000000000
  0
LINE
  5
394
100
AcDbEntity
  8
MAIN0
  6
CONTINUOUS
 62
3
100
AcDbLine
 10
190.7780454716846
 20
185.6649363784216
 30
0.0000000000000000
 11
190.7780494716846
 21
181.2649373784215
 31
0.0000000000000000
  0
LINE
  5
395
100
AcDbEntity
  8
MAIN0
  6
CONTINUOUS
 62
3
100
AcDbLine
 10
192.0780494716846
 20
179.9649373784215
 30
0.0000000000000000
 11
193.3780474716846
 21
179.9649383784215
 31
0.0000000000000000
  0
LINE
  5
396
100
AcDbEntity
  8
MAIN0
  6
CONTINUOUS
 62
3
100
AcDbLine
 10
193.3780474716846
 20
186.9649383784216
 30
0.0000000000000000
 11
192.0780484716846
 21
186.9649373784216
 31
0.0000000000000000
  0
LINE
  5
397
100
AcDbEntity
  8
MAIN0
  6
CONTINUOUS
 62
3
100
AcDbLine
 10
193.3780474716846
 20
185.4649383784216
 30
0.0000000000000000
 11
201.3780474716846
 21
185.4649383784216
 31
0.0000000000000000
  0
LINE
  5
398
100
AcDbEntity
  8
MAIN0
  6
CONTINUOUS
 62
3
100
AcDbLine
 10
201.3780474716846
 20
185.4649383784216
 30
0.0000000000000000
 11
201.3780474716846
 21
181.4649383784216
 31
0.0000000000000000
  0
LINE
  5
399
100
AcDbEntity
  8
MAIN0
  6
CONTINUOUS
 62
3
100
AcDbLine
 10
201.3780474716846
 20
181.4649383784216
 30
0.0000000000000000
 11
193.3780474716846
 21
181.4649383784216
 31
0.0000000000000000
  0
LINE
  5
39A
100
AcDbEntity
  8
MAIN0
  6
CONTINUOUS
 62
12
100
AcDbLine
 10
193.3780474716846
 20
184.9649383784216
 30
0.0000000000000000
 11
201.3780474716846
 21
184.9649383784216
 31
0.0000000000000000
  0
LINE
  5
39B
100
AcDbEntity
  8
MAIN0
  6
CONTINUOUS
 62
12
100
AcDbLine
 10
193.3780474716846
 20
181.9649383784216
 30
0.0000000000000000
 11
201.3780474716846
 21
181.9649383784216
 31
0.0000000000000000
  0
ARC
  5
39C
100
AcDbEntity
  8
MAIN0
  6
CONTINUOUS
 62
3
100
AcDbCircle
 10
192.0780444716847
 20
185.6649343784216
 30
0.0000000000000000
 40
1.299999999999997
100
AcDbArc
 50
89.99982499999918
 51
179.9999079999998
  0
ARC
  5
39D
100
AcDbEntity
  8
MAIN0
  6
CONTINUOUS
 62
3
100
AcDbCircle
 10
192.0780494716846
 20
181.2649373784215
 30
0.0000000000000000
 40
1.299999999999997
100
AcDbArc
 50
179.9999999999998
 51
269.9999999999999
  0
LINE
  5
39E
100
AcDbEntity
  8
MAIN0
  6
CONTINUOUS
 62
3
100
AcDbLine
 10
130.4477485611969
 20
254.7903602245821
 30
0.0000000000000000
 11
133.3468863640617
 21
257.6894980274469
 31
0.0000000000000000
  0
LINE
  5
39F
100
AcDbEntity
  8
MAIN0
  6
CONTINUOUS
 62
3
100
AcDbLine
 10
130.4477485611969
 20
257.6894980274469
 30
0.0000000000000000
 11
133.3468863640617
 21
254.7903602245821
 31
0.0000000000000000
  0
CIRCLE
  5
3A0
100
AcDbEntity
  8
MAIN0
  6
CONTINUOUS
 62
3
100
AcDbCircle
 10
131.8973174626293
 20
256.2399291260144
 30
0.0000000000000000
 40
3.499999999999993
  0
LINE
  5
3A1
100
AcDbEntity
  8
MAIN0
  6
CONTINUOUS
 62
3
100
AcDbLine
 10
75.37746540652205
 20
221.9343593359612
 30
0.0000000000000000
 11
71.41716951873681
 21
222.9955174208816
 31
0.0000000000000000
  0
LINE
  5
3A2
100
AcDbEntity
  8
MAIN0
  6
CONTINUOUS
 62
3
100
AcDbLine
 10
72.86673842016924
 20
220.4847904345288
 30
0.0000000000000000
 11
73.92789650508962
 21
224.4450863223140
 31
0.0000000000000000
  0
CIRCLE
  5
3A3
100
AcDbEntity
  8
MAIN0
  6
CONTINUOUS
 62
3
100
AcDbCircle
 10
73.39731746262945
 20
222.4649383784214
 30
0.0000000000000000
 40
3.499999999999993
  0
LINE
  5
3A4
100
AcDbEntity
  8
MAIN0
  6
CONTINUOUS
 62
3
100
AcDbLine
 10
131.3667384201691
 20
190.6700955747210
 30
0.0000000000000000
 11
132.4278965050894
 21
186.7097996869358
 31
0.0000000000000000
  0
LINE
  5
3A5
100
AcDbEntity
  8
MAIN0
  6
CONTINUOUS
 62
3
100
AcDbLine
 10
133.8774654065219
 20
189.2205266732885
 30
0.0000000000000000
 11
129.9171695187367
 21
188.1593685883682
 31
0.0000000000000000
  0
CIRCLE
  5
3A6
100
AcDbEntity
  8
MAIN0
  6
CONTINUOUS
 62
3
100
AcDbCircle
 10
131.8973174626293
 20
188.6899476308284
 30
0.0000000000000000
 40
3.499999999999993
  0
LINE
  5
3A7
100
AcDbEntity
  8
MAIN0
  6
CONTINUOUS
 62
3
100
AcDbLine
 10
92.14731846262941
 20
271.6649403784213
 30
0.0000000000000000
 11
92.14732146262941
 21
276.3650893784213
 31
0.0000000000000000
  0
LINE
  5
3A8
100
AcDbEntity
  8
MAIN0
  6
CONTINUOUS
 62
3
100
AcDbLine
 10
100.6473194626294
 20
276.3649313784213
 30
0.0000000000000000
 11
100.6473174626294
 21
271.6649363784213
 31
0.0000000000000000
  0
LINE
  5
3A9
100
AcDbEntity
  8
MAIN0
  6
CONTINUOUS
 62
3
100
AcDbLine
 10
92.14732146262944
 20
276.3649373784213
 30
0.0000000000000000
 11
100.6473194626294
 21
276.3649313784213
 31
0.0000000000000000
  0
LINE
  5
3AA
100
AcDbEntity
  8
MAIN0
  6
CONTINUOUS
 62
3
100
AcDbLine
 10
92.66682046262946
 20
276.6649093784213
 30
0.0000000000000000
 11
92.14732146262949
 21
276.3649373784213
 31
0.0000000000000000
  0
LINE
  5
3AB
100
AcDbEntity
  8
MAIN0
  6
CONTINUOUS
 62
3
100
AcDbLine
 10
100.1277874626295
 20
276.6649053784213
 30
0.0000000000000000
 11
100.6473194626294
 21
276.3649313784214
 31
0.0000000000000000
  0
LINE
  5
3AC
100
AcDbEntity
  8
MAIN0
  6
CONTINUOUS
 62
3
100
AcDbLine
 10
100.1277303091561
 20
276.6649383784212
 30
0.0000000000000000
 11
92.66687068555359
 21
276.6649383784212
 31
0.0000000000000000
  0
LINE
  5
3AD
100
AcDbEntity
  8
WAKU0
  6
CONTINUOUS
 62
3
100
AcDbLine
 10
412.0000000000000
 20
51.00000000000000
 30
0.0000000000000000
 11
582.0000000000000
 21
51.00000000000000
 31
0.0000000000000000
  0
LINE
  5
3AE
100
AcDbEntity
  8
WAKU0
  6
CONTINUOUS
 62
3
100
AcDbLine
 10
412.0000000000000
 20
51.00000000000000
 30
0.0000000000000000
 11
412.0000000000000
 21
12.00000000000000
 31
0.0000000000000000
  0
LINE
  5
3AF
100
AcDbEntity
  8
WAKU0
  6
CONTINUOUS
 62
3
100
AcDbLine
 10
484.0000000000000
 20
51.00000000000000
 30
0.0000000000000000
 11
484.0000000000000
 21
12.00000000000000
 31
0.0000000000000000
  0
LINE
  5
3B0
100
AcDbEntity
  8
WAKU0
  6
CONTINUOUS
 62
3
100
AcDbLine
 10
504.0000000000000
 20
51.00000000000000
 30
0.0000000000000000
 11
504.0000000000000
 21
12.00000000000000
 31
0.0000000000000000
  0
LINE
  5
3B1
100
AcDbEntity
  8
WAKU0
  6
CONTINUOUS
 62
3
100
AcDbLine
 10
516.0000000000000
 20
51.00000000000000
 30
0.0000000000000000
 11
516.0000000000000
 21
12.00000000000000
 31
0.0000000000000000
  0
LINE
  5
3B2
100
AcDbEntity
  8
WAKU0
  6
CONTINUOUS
 62
3
100
AcDbLine
 10
516.0000000000000
 20
37.00000000000000
 30
0.0000000000000000
 11
582.0000000000000
 21
37.00000000000000
 31
0.0000000000000000
  0
LINE
  5
3B3
100
AcDbEntity
  8
WAKU0
  6
CONTINUOUS
 62
3
100
AcDbLine
 10
504.0000000000000
 20
23.00000000000000
 30
0.0000000000000000
 11
582.0000000000000
 21
23.00000000000000
 31
0.0000000000000000
  0
LINE
  5
3B4
100
AcDbEntity
  8
WAKU0
  6
CONTINUOUS
 62
3
100
AcDbLine
 10
547.0000000000000
 20
51.00000000000000
 30
0.0000000000000000
 11
547.0000000000000
 21
44.00000000000000
 31
0.0000000000000000
  0
LINE
  5
3B5
100
AcDbEntity
  8
WAKU0
  6
CONTINUOUS
 62
3
100
AcDbLine
 10
559.0000000000000
 20
51.00000000000000
 30
0.0000000000000000
 11
559.0000000000000
 21
44.00000000000000
 31
0.0000000000000000
  0
LINE
  5
3B6
100
AcDbEntity
  8
WAKU0
  6
CONTINUOUS
 62
3
100
AcDbLine
 10
484.0000000000000
 20
31.50000000000000
 30
0.0000000000000000
 11
504.0000000000000
 21
31.50000000000000
 31
0.0000000000000000
  0
LINE
  5
3B7
100
AcDbEntity
  8
WAKU0
  6
CONTINUOUS
 62
3
100
AcDbLine
 10
504.0000000000000
 20
44.00000000000000
 30
0.0000000000000000
 11
582.0000000000000
 21
44.00000000000000
 31
0.0000000000000000
  0
LINE
  5
3B8
100
AcDbEntity
  8
WAKU0
  6
CONTINUOUS
 62
3
100
AcDbLine
 10
412.0000000000000
 20
37.00000000000000
 30
0.0000000000000000
 11
484.0000000000000
 21
37.00000000000000
 31
0.0000000000000000
  0
LINE
  5
3B9
100
AcDbEntity
  8
WAKU0
  6
CONTINUOUS
 62
3
100
AcDbLine
 10
412.0000000000000
 20
23.00000000000000
 30
0.0000000000000000
 11
484.0000000000000
 21
23.00000000000000
 31
0.0000000000000000
  0
LINE
  5
3BA
100
AcDbEntity
  8
WAKU0
  6
CONTINUOUS
 62
3
100
AcDbLine
 10
460.0000000000000
 20
37.00000000000000
 30
0.0000000000000000
 11
460.0000000000000
 21
12.00000000000000
 31
0.0000000000000000
  0
LINE
  5
3BB
100
AcDbEntity
  8
WAKU0
  6
CONTINUOUS
 62
3
100
AcDbLine
 10
436.0000000000000
 20
37.00000000000000
 30
0.0000000000000000
 11
436.0000000000000
 21
23.00000000000000
 31
0.0000000000000000
  0
LINE
  5
3BC
100
AcDbEntity
  8
WAKU0
  6
CONTINUOUS
 62
3
100
AcDbLine
 10
472.0000000000000
 20
26.00000000000000
 30
0.0000000000000000
 11
472.0000000000000
 21
23.00000000000000
 31
0.0000000000000000
  0
LINE
  5
3BD
100
AcDbEntity
  8
WAKU0
  6
CONTINUOUS
 62
3
100
AcDbLine
 10
448.0000000000000
 20
26.00000000000000
 30
0.0000000000000000
 11
448.0000000000000
 21
23.00000000000000
 31
0.0000000000000000
  0
LINE
  5
3BE
100
AcDbEntity
  8
WAKU0
  6
CONTINUOUS
 62
3
100
AcDbLine
 10
424.0000000000000
 20
26.00000000000000
 30
0.0000000000000000
 11
424.0000000000000
 21
23.00000000000000
 31
0.0000000000000000
  0
LINE
  5
3BF
100
AcDbEntity
  8
WAKU0
  6
CONTINUOUS
 62
3
100
AcDbLine
 10
430.0000000000000
 20
51.00000000000000
 30
0.0000000000000000
 11
430.0000000000000
 21
37.00000000000000
 31
0.0000000000000000
  0
LINE
  5
3C0
100
AcDbEntity
  8
WAKU0
  6
CONTINUOUS
 62
3
100
AcDbLine
 10
412.0000000000000
 20
45.00000000000000
 30
0.0000000000000000
 11
484.0000000000000
 21
45.00000000000000
 31
0.0000000000000000
  0
LINE
  5
3C1
100
AcDbEntity
  8
WAKU0
  6
HIDDEN
 62
3
100
AcDbLine
 10
532.5000000000000
 20
23.00000000000000
 30
0.0000000000000000
 11
532.5000000000000
 21
12.00000000000000
 31
0.0000000000000000
  0
LINE
  5
3C2
100
AcDbEntity
  8
WAKU0
  6
HIDDEN
 62
3
100
AcDbLine
 10
544.9000000000000
 20
23.00000000000000
 30
0.0000000000000000
 11
544.9000000000000
 21
12.00000000000000
 31
0.0000000000000000
  0
MTEXT
  5
3C3
100
AcDbEntity
  8
WAKU0
  6
CONTINUOUS
 62
3
100
AcDbMText
 10
516.4820000231266
 20
49.04999995231628
 30
0.0000000000000000
 40
3.099999904632568
 41
0.0000000000000000
 71
     1
 72
     1
  1
{\H0.93x;{Y1530RE47}}
 11
1.000000000000000
 21
0.0000000000000000
 31
0.0000000000000000
  7
STANDARD
  0
MTEXT
  5
3C4
100
AcDbEntity
  8
WAKU0
  6
CONTINUOUS
 62
3
100
AcDbMText
 10
522.7500004470348
 20
43.50000000000000
 30
0.0000000000000000
 40
3.000000000000000
 41
0.0000000000000000
 71
     1
 72
     1
  1
{\H0.59x;{回転油圧シリンダ\PＲＯＴＡＲＹ　ＨＹＤＲＡＵＬＩＣ　ＣＹＬＩＮＤＥＲ}}
 11
1.000000000000000
 21
0.0000000000000000
 31
0.0000000000000000
  7
KNJYOKO
  0
MTEXT
  5
3C5
100
AcDbEntity
  8
WAKU0
  6
CONTINUOUS
 62
3
100
AcDbMText
 10
520.4500010497868
 20
34.23333326975504
 30
0.0000000000000000
 40
3.099999904632568
 41
0.0000000000000000
 71
     1
 72
     1
  1
{\H0.71x;{Ｙ１５３０ＲＥ４７　ガイケイ\PＹ１５３０ＲＥ４７　ＯＵＴＳＩＤＥ　ＶＩＥＷ}}
 11
1.000000000000000
 21
0.0000000000000000
 31
0.0000000000000000
  7
KNJYOKO
  0
MTEXT
  5
3C6
100
AcDbEntity
  8
WAKU0
  6
CONTINUOUS
 62
3
100
AcDbMText
 10
490.0049998760223
 20
39.29999995231628
 30
0.0000000000000000
 40
3.099999904632568
 41
0.0000000000000000
 71
     1
 72
     1
  1
{\H0.90x;{1:1}}
 11
1.000000000000000
 21
0.0000000000000000
 31
0.0000000000000000
  7
STANDARD
  0
MTEXT
  5
3C7
100
AcDbEntity
  8
WAKU0
  6
CONTINUOUS
 62
3
100
AcDbMText
 10
546.4000001549721
 20
20.15000009536743
 30
0.0000000000000000
 40
5.300000190734863
 41
0.0000000000000000
 71
     1
 72
     1
  1
{\H0.90x;{0136}}
 11
1.000000000000000
 21
0.0000000000000000
 31
0.0000000000000000
  7
STANDARD
  0
MTEXT
  5
3C8
100
AcDbEntity
  8
WAKU0
  6
CONTINUOUS
 62
3
100
AcDbMText
 10
534.3000000834466
 20
20.15000009536743
 30
0.0000000000000000
 40
5.300000190734863
 41
0.0000000000000000
 71
     1
 72
     1
  1
{\H0.87x;{23}}
 11
1.000000000000000
 21
0.0000000000000000
 31
0.0000000000000000
  7
STANDARD
  0
MTEXT
  5
3C9
100
AcDbEntity
  8
WAKU0
  6
CONTINUOUS
 62
3
100
AcDbMText
 10
517.5000001192093
 20
20.15000009536743
 30
0.0000000000000000
 40
5.300000190734863
 41
0.0000000000000000
 71
     1
 72
     1
  1
{\H0.89x;{61R}}
 11
1.000000000000000
 21
0.0000000000000000
 31
0.0000000000000000
  7
STANDARD
  0
MTEXT
  5
3CA
100
AcDbEntity
  8
WAKU0
  6
CONTINUOUS
 62
3
100
AcDbMText
 10
572.0000000476837
 20
20.15000009536743
 30
0.0000000000000000
 40
5.300000190734863
 41
0.0000000000000000
 71
     1
 72
     1
  1
{\H0.81x;{1}}
 11
1.000000000000000
 21
0.0000000000000000
 31
0.0000000000000000
  7
STANDARD
  0
MTEXT
  5
3CB
100
AcDbEntity
  8
WAKU0
  6
CONTINUOUS
 62
3
100
AcDbMText
 10
572.0000000819564
 20
44.84999990463257
 30
0.0000000000000000
 40
5.300000190734863
 41
0.0000000000000000
 71
     7
 72
     1
  1
{\H0.81x;{ }}
 11
1.000000000000000
 21
0.0000000000000000
 31
0.0000000000000000
  7
STANDARD
  0
MTEXT
  5
3CC
100
AcDbEntity
  8
WAKU0
  6
CONTINUOUS
 62
3
100
AcDbMText
 10
461.3850002884865
 20
33.00000000000000
 30
0.0000000000000000
 40
3.000000000000000
 41
0.0000000000000000
 71
     7
 72
     1
  1
{\H0.93x;{DRAWN BY}}
 11
1.000000000000000
 21
0.0000000000000000
 31
0.0000000000000000
  7
STANDARD
  0
MTEXT
  5
3CD
100
AcDbEntity
  8
WAKU0
  6
CONTINUOUS
 62
3
100
AcDbMText
 10
441.2149997949600
 20
32.95000004768372
 30
0.0000000000000000
 40
3.099999904632568
 41
0.0000000000000000
 71
     7
 72
     1
  1
{\H0.92x;{CHIEF}}
 11
1.000000000000000
 21
0.0000000000000000
 31
0.0000000000000000
  7
STANDARD
  0
MTEXT
  5
3CE
100
AcDbEntity
  8
WAKU0
  6
CONTINUOUS
 62
3
100
AcDbMText
 10
414.4249997138977
 20
32.95000004768372
 30
0.0000000000000000
 40
3.099999904632568
 41
0.0000000000000000
 71
     7
 72
     1
  1
{\H0.92x;{MANAGER}}
 11
1.000000000000000
 21
0.0000000000000000
 31
0.0000000000000000
  7
STANDARD
  0
MTEXT
  5
3CF
100
AcDbEntity
  8
WAKU0
  6
CONTINUOUS
 62
3
100
AcDbMText
 10
413.0850002169609
 20
46.50000000000000
 30
0.0000000000000000
 40
3.000000000000000
 41
0.0000000000000000
 71
     7
 72
     1
  1
{\H0.92x;{CAREER}}
 11
1.000000000000000
 21
0.0000000000000000
 31
0.0000000000000000
  7
STANDARD
  0
MTEXT
  5
3D0
100
AcDbEntity
  8
WAKU0
  6
CONTINUOUS
 62
3
100
AcDbMText
 10
466.6099998354912
 20
18.95000004768372
 30
0.0000000000000000
 40
3.099999904632568
 41
0.0000000000000000
 71
     7
 72
     1
  1
{\H0.91x;{DATE}}
 11
1.000000000000000
 21
0.0000000000000000
 31
0.0000000000000000
  7
STANDARD
  0
MTEXT
  5
3D1
100
AcDbEntity
  8
WAKU0
  6
CONTINUOUS
 62
3
100
AcDbMText
 10
485.9000002145767
 20
26.50000000000000
 30
0.0000000000000000
 40
3.000000000000000
 41
0.0000000000000000
 71
     7
 72
     1
  1
{\H0.63x;{3RD ANGLE}}
 11
1.000000000000000
 21
0.0000000000000000
 31
0.0000000000000000
  7
STANDARD
  0
MTEXT
  5
3D2
100
AcDbEntity
  8
WAKU0
  6
CONTINUOUS
 62
3
100
AcDbMText
 10
487.2149997949600
 20
45.95000004768372
 30
0.0000000000000000
 40
3.099999904632568
 41
0.0000000000000000
 71
     7
 72
     1
  1
{\H0.92x;{SCALE}}
 11
1.000000000000000
 21
0.0000000000000000
 31
0.0000000000000000
  7
STANDARD
  0
MTEXT
  5
3D3
100
AcDbEntity
  8
WAKU0
  6
CONTINUOUS
 62
3
100
AcDbMText
 10
577.7000000476837
 20
46.00000000000000
 30
0.0000000000000000
 40
3.000000000000000
 41
0.0000000000000000
 71
     7
 72
     1
  1
{\H0.63x;{kg}}
 11
1.000000000000000
 21
0.0000000000000000
 31
0.0000000000000000
  7
STANDARD
  0
MTEXT
  5
3D4
100
AcDbEntity
  8
WAKU0
  6
CONTINUOUS
 62
3
100
AcDbMText
 10
547.6000001430512
 20
46.00000000000000
 30
0.0000000000000000
 40
3.000000000000000
 41
0.0000000000000000
 71
     7
 72
     1
  1
{\H0.63x;{WEIGHT}}
 11
1.000000000000000
 21
0.0000000000000000
 31
0.0000000000000000
  7
STANDARD
  0
MTEXT
  5
3D5
100
AcDbEntity
  8
WAKU0
  6
CONTINUOUS
 62
3
100
AcDbMText
 10
506.0049998760223
 20
18.13333336512248
 30
0.0000000000000000
 40
3.099999904632568
 41
0.0000000000000000
 71
     7
 72
     1
  1
{\H0.90x;{DRW\PNO.}}
 11
1.000000000000000
 21
0.0000000000000000
 31
0.0000000000000000
  7
STANDARD
  0
MTEXT
  5
3D6
100
AcDbEntity
  8
WAKU0
  6
CONTINUOUS
 62
3
100
AcDbMText
 10
504.6099998354912
 20
31.95000004768372
 30
0.0000000000000000
 40
3.099999904632568
 41
0.0000000000000000
 71
     7
 72
     1
  1
{\H0.91x;{NAME}}
 11
1.000000000000000
 21
0.0000000000000000
 31
0.0000000000000000
  7
STANDARD
  0
MTEXT
  5
3D7
100
AcDbEntity
  8
WAKU0
  6
CONTINUOUS
 62
3
100
AcDbMText
 10
504.6099998354912
 20
45.95000004768372
 30
0.0000000000000000
 40
3.099999904632568
 41
0.0000000000000000
 71
     7
 72
     1
  1
{\H0.91x;{TYPE}}
 11
1.000000000000000
 21
0.0000000000000000
 31
0.0000000000000000
  7
STANDARD
  0
LINE
  5
3D8
100
AcDbEntity
  8
WAKU0
  6
HIDDEN
 62
3
100
AcDbLine
 10
579.1599564743885
 20
13.84999990463257
 30
0.0000000000000000
 11
568.9400436209789
 21
13.84999990463257
 31
0.0000000000000000
  0
LINE
  5
3D9
100
AcDbEntity
  8
WAKU0
  6
HIDDEN
 62
3
100
AcDbLine
 10
579.1599564743885
 20
13.84999990463250
 30
0.0000000000000000
 11
574.0500000476851
 21
22.70070406014901
 31
0.0000000000000000
  0
LINE
  5
3DA
100
AcDbEntity
  8
WAKU0
  6
HIDDEN
 62
3
100
AcDbLine
 10
574.0500000476851
 20
22.70070406014902
 30
0.0000000000000000
 11
568.9400436209789
 21
13.84999990463248
 31
0.0000000000000000
  0
MTEXT
  5
3DB
100
AcDbEntity
  8
WAKU0
  6
CONTINUOUS
 62
3
100
AcDbMText
 10
419.0000009614873
 20
20.63471521698214
 30
0.0000000000000000
 40
3.140094041824341
 41
0.0000000000000000
 71
     1
 72
     1
  1
{\H0.83x;{Ｋｉｔａｇａｗａ\PＣｏｒｐｏｒａｔｉｏｎ}}
 11
1.000000000000000
 21
0.0000000000000000
 31
0.0000000000000000
  7
KNJYOKO
  0
LINE
  5
3DC
100
AcDbEntity
  8
WAKU0
  6
CONTINUOUS
 62
3
100
AcDbLine
 10
502.4713877753800
 20
15.78041421262812
 30
0.0000000000000000
 11
502.4713877753800
 21
21.78041421262815
 31
0.0000000000000000
  0
LINE
  5
3DD
100
AcDbEntity
  8
WAKU0
  6
CONTINUOUS
 62
3
100
AcDbLine
 10
495.9336941228225
 20
17.28041421262811
 30
0.0000000000000000
 11
495.9336941228225
 21
20.28041421262824
 31
0.0000000000000000
  0
LINE
  5
3DE
100
AcDbEntity
  8
WAKU0
  6
CENTER
 62
12
100
AcDbLine
 10
485.4321805514995
 20
18.78041421262813
 30
0.0000000000000000
 11
503.2765788964694
 21
18.78041421262813
 31
0.0000000000000000
  0
LINE
  5
3DF
100
AcDbEntity
  8
WAKU0
  6
CENTER
 62
12
100
AcDbLine
 10
489.4474565857986
 20
14.55921662918448
 30
0.0000000000000000
 11
489.4474565857986
 21
22.89865102149943
 31
0.0000000000000000
  0
LINE
  5
3E0
100
AcDbEntity
  8
WAKU0
  6
CONTINUOUS
 62
3
100
AcDbLine
 10
495.9336941228225
 20
20.28041421262797
 30
0.0000000000000000
 11
502.4713877753800
 21
21.78041421262795
 31
0.0000000000000000
  0
LINE
  5
3E1
100
AcDbEntity
  8
WAKU0
  6
CONTINUOUS
 62
3
100
AcDbLine
 10
495.9336941228225
 20
17.28041421262811
 30
0.0000000000000000
 11
502.4713877753799
 21
15.78041421262812
 31
0.0000000000000000
  0
CIRCLE
  5
3E2
100
AcDbEntity
  8
WAKU0
  6
CONTINUOUS
 62
3
100
AcDbCircle
 10
489.4474565857986
 20
18.78041421262813
 30
0.0000000000000000
 40
1.499999999999972
  0
CIRCLE
  5
3E3
100
AcDbEntity
  8
WAKU0
  6
CONTINUOUS
 62
3
100
AcDbCircle
 10
489.4474565857986
 20
18.78041421262813
 30
0.0000000000000000
 40
2.999999999999979
  0
ENDSEC
  0
SECTION
  2
OBJECTS
  0
DICTIONARY
  5
42B
100
AcDbDictionary
  3
ACAD_GROUP
350
42C
  3
ACAD_MLINESTYLE
350
42D
  3
DWGPROPS
350
42E
  0
DICTIONARY
  5
42C
102
{ACAD_REACTORS
330
42B
102
}
100
AcDbDictionary
  0
DICTIONARY
  5
42D
102
{ACAD_REACTORS
330
42B
102
}
100
AcDbDictionary
  3
STANDARD
350
42F
  0
MLINESTYLE
  5
42F
102
{ACAD_REACTORS
330
42D
102
}
100
AcDbMlineStyle
  2
STANDARD
 70
     0
  3

 62
   256
 51
90.00
 52
90.00
 71
     2
 49
0.50
 62
   256
  6
BYLAYER
 49
-0.50
 62
   256
  6
BYLAYER
  0
XRECORD
  5
42E
102
{ACAD_REACTORS
330
42B
102
}
100
AcDbXrecord
280
     1
  1
DWGPROPS COOKIE
  2
Ｙ１５３０ＲＥ４７　ガイケイ
  3

  4

  6
回転油圧シリンダ
  7

  8

  9

300
=
301
=
302
=
303
=
304
=
305
=
306
=
307
=
308
=
309
=
 40
0.000000
 41
0.000000
 42
0.000000
  1

 90
        0
  0
ENDSEC
  0
EOF
