  0
SECTION
  2
HEADER
  9
$ACADVER
  1
AC1014
  9
$DWGCODEPAGE
  3
ANSI_932
  9
$LTSCALE
 40
20.0
  9
$FILLMODE
 70
     1
  9
$CLAYER
  8
0
  9
$PDMODE
 70
     0
  9
$SPLFRAME
 70
     0
  9
$SPLINETYPE
 70
     6
  9
$SPLINESEGS
 70
     8
  9
$DIMASZ
 40
2.000000
  9
$DIMEXE
 40
2.000000
  9
$DIMEXO
 40
0.800000
  9
$DIMTAD
 70
     1
  9
$DIMTIH
 70
     0
  9
$DIMTOH
 70
     0
  9
$DIMTVP
 40
0.500000
  9
$DIMTXT
 40
3.100000
  9
$EXTMIN
 10
0.000000
 20
0.000000
 30
0.000000
  9
$EXTMAX
 10
420.000000
 20
594.000000
 30
0.000000
  9
$MEASUREMENT
 70
  1
  9
$LIMMIN
 10
0.000000
 20
0.000000
  9
$LIMMAX
 10
420.000000
 20
594.000000
  9
$HANDLING
 70
     1
  9
$HANDSEED
  5
423
  9
$DIMBLK
  1
_OPEN
  9
$DIMDEC
 70
     3
  9
$DIMAUNIT
 70
     1
  9
$DIMZIN
 70
     8
  9
$DIMTOFL
 70
     1
  0
ENDSEC
  0
SECTION
  2
CLASSES
  0
ENDSEC
  0
SECTION
  2
TABLES
  0
TABLE
  2
VPORT
  5
3D4
100
AcDbSymbolTable
 70
     1
  0
VPORT
  5
3D5
100
AcDbSymbolTableRecord
100
AcDbViewportTableRecord
  2
*ACTIVE
 70
     0
 12
445.500000
 22
322.833779
 40
645.667558
 41
1.493891
  0
ENDTAB
  0
TABLE
  2
LTYPE
  5
3D6
100
AcDbSymbolTable
 70
     3
  0
LTYPE
  5
3D7
100
AcDbSymbolTableRecord
100
AcDbLinetypeTableRecord
  2
BYBLOCK
 70
     0
  3

 72
    65
 73
     0
 40
0.0
  0
LTYPE
  5
3D8
100
AcDbSymbolTableRecord
100
AcDbLinetypeTableRecord
  2
BYLAYER
 70
     0
  3

 72
    65
 73
     0
 40
0.0
  0
LTYPE
  5
3D9
100
AcDbSymbolTableRecord
100
AcDbLinetypeTableRecord
  2
CONTINUOUS
 70
     0
  3
Solid line (NEC CAE2D for Win R14.2 : 2021.06.16)
 72
    65
 73
     0
 40
0.0
  0
LTYPE
  5
3DA
100
AcDbSymbolTableRecord
100
AcDbLinetypeTableRecord
  2
HIDDEN
 70
     0
  3
__ __ __ __ __ __ __ __ __ __ __ __ __ __
 72
    65
 73
     2
 40
0.375
 49
0.25
 74
     0
 49
-0.125
 74
     0
  0
LTYPE
  5
3DB
100
AcDbSymbolTableRecord
100
AcDbLinetypeTableRecord
  2
CENTER
 70
     0
  3
____ _ ____ _ ____ _ ____ _ ____ _ ____
 72
    65
 73
     4
 40
2.0
 49
1.25
 74
     0
 49
-0.25
 74
     0
 49
0.25
 74
     0
 49
-0.25
 74
     0
  0
ENDTAB
  0
TABLE
  2
LAYER
  5
3DC
100
AcDbSymbolTable
 70
    13
  0
LAYER
  5
3DD
100
AcDbSymbolTableRecord
100
AcDbLayerTableRecord
  2
0
 70
     0
 62
     7
  6
CONTINUOUS
  0
LAYER
  5
3DE
100
AcDbSymbolTableRecord
100
AcDbLayerTableRecord
  2
MAIN0
 70
     0
 62
     7
  6
CONTINUOUS
  0
LAYER
  5
3DF
100
AcDbSymbolTableRecord
100
AcDbLayerTableRecord
  2
MAIN1
 70
     0
 62
     7
  6
CONTINUOUS
  0
LAYER
  5
3E0
100
AcDbSymbolTableRecord
100
AcDbLayerTableRecord
  2
MAIN10
 70
     0
 62
     7
  6
CONTINUOUS
  0
LAYER
  5
3E1
100
AcDbSymbolTableRecord
100
AcDbLayerTableRecord
  2
MAIN1023
 70
     0
 62
    16
  6
CONTINUOUS
  0
LAYER
  5
3E2
100
AcDbSymbolTableRecord
100
AcDbLayerTableRecord
  2
DUMMY0
 70
     0
 62
     7
  6
CONTINUOUS
  0
LAYER
  5
3E3
100
AcDbSymbolTableRecord
100
AcDbLayerTableRecord
  2
DUMMY10
 70
     0
 62
     7
  6
CONTINUOUS
  0
LAYER
  5
3E4
100
AcDbSymbolTableRecord
100
AcDbLayerTableRecord
  2
DUMMY1023
 70
     0
 62
    16
  6
CONTINUOUS
  0
LAYER
  5
3E5
100
AcDbSymbolTableRecord
100
AcDbLayerTableRecord
  2
A0
 70
     0
 62
     7
  6
CONTINUOUS
  0
LAYER
  5
3E6
100
AcDbSymbolTableRecord
100
AcDbLayerTableRecord
  2
A1
 70
     0
 62
     7
  6
CONTINUOUS
  0
LAYER
  5
3E7
100
AcDbSymbolTableRecord
100
AcDbLayerTableRecord
  2
A1023
 70
     0
 62
    16
  6
CONTINUOUS
  0
LAYER
  5
3E8
100
AcDbSymbolTableRecord
100
AcDbLayerTableRecord
  2
WAKU0
 70
     0
 62
     7
  6
CONTINUOUS
  0
LAYER
  5
3E9
100
AcDbSymbolTableRecord
100
AcDbLayerTableRecord
  2
WAKU1023
 70
     0
 62
    16
  6
CONTINUOUS
  0
ENDTAB
  0
TABLE
  2
STYLE
  5
3EA
100
AcDbSymbolTable
 70
     4
  0
STYLE
  5
3EB
100
AcDbSymbolTableRecord
100
AcDbTextStyleTableRecord
  2
STANDARD
 70
    64
 40
0.0
 41
1.0
 50
0.0
 71
     0
 42
3.140094041824341
  3
TXT
  4

  0
STYLE
  5
3EC
100
AcDbSymbolTableRecord
100
AcDbTextStyleTableRecord
  2
ANKTATE
 70
    68
 40
0.0
 41
1.0
 50
0.0
 71
     0
 42
3.140094041824341
  3
TXT
  4

  0
STYLE
  5
3ED
100
AcDbSymbolTableRecord
100
AcDbTextStyleTableRecord
  2
KNJYOKO
 70
    64
 40
0.0
 41
1.0
 50
0.0
 71
     0
 42
3.140094041824341
  3
TXT
  4
BIGFONT
  0
STYLE
  5
3EE
100
AcDbSymbolTableRecord
100
AcDbTextStyleTableRecord
  2
KNJTATE
 70
    68
 40
0.0
 41
1.0
 50
0.0
 71
     0
 42
3.140094041824341
  3
TXT
  4
BIGFONT
  0
ENDTAB
  0
TABLE
  2
VIEW
  5
3EF
100
AcDbSymbolTable
 70
     0
  0
ENDTAB
  0
TABLE
  2
UCS
  5
3F0
100
AcDbSymbolTable
 70
     0
  0
ENDTAB
  0
TABLE
  2
APPID
  5
3F1
100
AcDbSymbolTable
 70
     1
  0
APPID
  5
3F2
100
AcDbSymbolTableRecord
100
AcDbRegAppTableRecord
  2
ACAD
 70
     0
  0
ENDTAB
  0
TABLE
  2
DIMSTYLE
  5
3F3
100
AcDbSymbolTable
 70
     1
  0
DIMSTYLE
105
3F4
100
AcDbSymbolTableRecord
100
AcDbDimStyleTableRecord
  2
STANDARD
 70
     0
 41
2.000000
 44
2.000000
 42
0.800000
145
0.661290
140
3.100000
144
1.000000
146
0.903226
340
3EB
  0
DIMSTYLE
105
3F5
100
AcDbSymbolTableRecord
100
AcDbDimStyleTableRecord
  2
MAIN001
 70
     0
 41
3.000000
 44
3.000000
 42
1.200000
145
0.607527
140
4.650000
144
1.000000
146
0.903226
 77
     1
 73
     0
 74
     0
271
     3
275
     1
 78
     8
172
     1
340
3EB
  0
DIMSTYLE
105
3F6
100
AcDbSymbolTableRecord
100
AcDbDimStyleTableRecord
  2
DUMMY002
 70
     0
 41
2.000000
 44
2.000000
 42
0.800000
145
0.661290
140
3.100000
144
1.000000
146
0.903226
 77
     1
 73
     0
 74
     0
271
     3
275
     1
 78
     8
172
     1
340
3EB
  0
DIMSTYLE
105
3F7
100
AcDbSymbolTableRecord
100
AcDbDimStyleTableRecord
  2
A003
 70
     0
 41
2.000000
 44
2.000000
 42
0.800000
145
0.661290
140
3.100000
144
1.000000
146
0.903226
 77
     1
 73
     0
 74
     0
271
     3
275
     1
 78
     8
172
     1
340
3EB
  0
DIMSTYLE
105
3F8
100
AcDbSymbolTableRecord
100
AcDbDimStyleTableRecord
  2
WAKU004
 70
     0
 41
2.000000
 44
2.000000
 42
0.800000
145
0.661290
140
3.100000
144
1.000000
146
0.903226
 77
     1
 73
     0
 74
     0
271
     3
275
     1
 78
     8
172
     1
340
3EB
  0
ENDTAB
  0
TABLE
  2
BLOCK_RECORD
  5
3F9
100
AcDbSymbolTable
 70
    42
  0
BLOCK_RECORD
  5
3FA
100
AcDbSymbolTableRecord
100
AcDbBlockTableRecord
  2
*MODEL_SPACE
  0
BLOCK_RECORD
  5
3FB
100
AcDbSymbolTableRecord
100
AcDbBlockTableRecord
  2
*PAPER_SPACE
  0
BLOCK_RECORD
  5
1
100
AcDbSymbolTableRecord
100
AcDbBlockTableRecord
  2
_NONE
  0
BLOCK_RECORD
  5
4
100
AcDbSymbolTableRecord
100
AcDbBlockTableRecord
  2
_CLOSED
  0
BLOCK_RECORD
  5
B
100
AcDbSymbolTableRecord
100
AcDbBlockTableRecord
  2
_DOT
  0
BLOCK_RECORD
  5
13
100
AcDbSymbolTableRecord
100
AcDbBlockTableRecord
  2
_OPEN
  0
BLOCK_RECORD
  5
19
100
AcDbSymbolTableRecord
100
AcDbBlockTableRecord
  2
_ORIGIN
  0
BLOCK_RECORD
  5
1E
100
AcDbSymbolTableRecord
100
AcDbBlockTableRecord
  2
_OPEN30
  0
BLOCK_RECORD
  5
24
100
AcDbSymbolTableRecord
100
AcDbBlockTableRecord
  2
_BOXFILLED
  0
BLOCK_RECORD
  5
29
100
AcDbSymbolTableRecord
100
AcDbBlockTableRecord
  2
_BOXBLANK
  0
BLOCK_RECORD
  5
31
100
AcDbSymbolTableRecord
100
AcDbBlockTableRecord
  2
_OBLIQUE
  0
BLOCK_RECORD
  5
35
100
AcDbSymbolTableRecord
100
AcDbBlockTableRecord
  2
_OPEN90
  0
BLOCK_RECORD
  5
3B
100
AcDbSymbolTableRecord
100
AcDbBlockTableRecord
  2
_CLOSEDBLANK
  0
BLOCK_RECORD
  5
41
100
AcDbSymbolTableRecord
100
AcDbBlockTableRecord
  2
_DOTBLANK
  0
BLOCK_RECORD
  5
3FC
100
AcDbSymbolTableRecord
100
AcDbBlockTableRecord
  2
*D0
  0
BLOCK_RECORD
  5
3FD
100
AcDbSymbolTableRecord
100
AcDbBlockTableRecord
  2
*D1
  0
BLOCK_RECORD
  5
3FE
100
AcDbSymbolTableRecord
100
AcDbBlockTableRecord
  2
*D2
  0
BLOCK_RECORD
  5
3FF
100
AcDbSymbolTableRecord
100
AcDbBlockTableRecord
  2
*D3
  0
BLOCK_RECORD
  5
400
100
AcDbSymbolTableRecord
100
AcDbBlockTableRecord
  2
*D4
  0
BLOCK_RECORD
  5
401
100
AcDbSymbolTableRecord
100
AcDbBlockTableRecord
  2
*D5
  0
BLOCK_RECORD
  5
402
100
AcDbSymbolTableRecord
100
AcDbBlockTableRecord
  2
*D6
  0
BLOCK_RECORD
  5
403
100
AcDbSymbolTableRecord
100
AcDbBlockTableRecord
  2
*D7
  0
BLOCK_RECORD
  5
404
100
AcDbSymbolTableRecord
100
AcDbBlockTableRecord
  2
*D8
  0
BLOCK_RECORD
  5
405
100
AcDbSymbolTableRecord
100
AcDbBlockTableRecord
  2
*D9
  0
BLOCK_RECORD
  5
406
100
AcDbSymbolTableRecord
100
AcDbBlockTableRecord
  2
*D10
  0
BLOCK_RECORD
  5
407
100
AcDbSymbolTableRecord
100
AcDbBlockTableRecord
  2
*D11
  0
BLOCK_RECORD
  5
408
100
AcDbSymbolTableRecord
100
AcDbBlockTableRecord
  2
*D12
  0
BLOCK_RECORD
  5
409
100
AcDbSymbolTableRecord
100
AcDbBlockTableRecord
  2
*D13
  0
BLOCK_RECORD
  5
40A
100
AcDbSymbolTableRecord
100
AcDbBlockTableRecord
  2
*D14
  0
BLOCK_RECORD
  5
40B
100
AcDbSymbolTableRecord
100
AcDbBlockTableRecord
  2
*D15
  0
BLOCK_RECORD
  5
40C
100
AcDbSymbolTableRecord
100
AcDbBlockTableRecord
  2
*D16
  0
BLOCK_RECORD
  5
40D
100
AcDbSymbolTableRecord
100
AcDbBlockTableRecord
  2
*D17
  0
BLOCK_RECORD
  5
40E
100
AcDbSymbolTableRecord
100
AcDbBlockTableRecord
  2
*D18
  0
BLOCK_RECORD
  5
40F
100
AcDbSymbolTableRecord
100
AcDbBlockTableRecord
  2
*D19
  0
BLOCK_RECORD
  5
410
100
AcDbSymbolTableRecord
100
AcDbBlockTableRecord
  2
*D20
  0
BLOCK_RECORD
  5
411
100
AcDbSymbolTableRecord
100
AcDbBlockTableRecord
  2
*D21
  0
BLOCK_RECORD
  5
412
100
AcDbSymbolTableRecord
100
AcDbBlockTableRecord
  2
*D22
  0
BLOCK_RECORD
  5
413
100
AcDbSymbolTableRecord
100
AcDbBlockTableRecord
  2
*D23
  0
BLOCK_RECORD
  5
414
100
AcDbSymbolTableRecord
100
AcDbBlockTableRecord
  2
*D24
  0
BLOCK_RECORD
  5
415
100
AcDbSymbolTableRecord
100
AcDbBlockTableRecord
  2
D25
  0
BLOCK_RECORD
  5
416
100
AcDbSymbolTableRecord
100
AcDbBlockTableRecord
  2
*D26
  0
BLOCK_RECORD
  5
417
100
AcDbSymbolTableRecord
100
AcDbBlockTableRecord
  2
*D27
  0
BLOCK_RECORD
  5
418
100
AcDbSymbolTableRecord
100
AcDbBlockTableRecord
  2
*D28
  0
BLOCK_RECORD
  5
419
100
AcDbSymbolTableRecord
100
AcDbBlockTableRecord
  2
M0
  0
ENDTAB
  0
ENDSEC
  0
SECTION
  2
BLOCKS
  0
BLOCK
  5
41A
100
AcDbEntity
  8
0
100
AcDbBlockBegin
  2
*MODEL_SPACE
 70
     0
 10
0.0
 20
0.0
 30
0.0
  3
*MODEL_SPACE
  1

  0
ENDBLK
  5
41B
100
AcDbEntity
  8
0
100
AcDbBlockEnd
  0
BLOCK
  5
41C
100
AcDbEntity
  8
0
100
AcDbBlockBegin
  2
*PAPER_SPACE
 70
     0
 10
0.0
 20
0.0
 30
0.0
  3
*PAPER_SPACE
  1

  0
ENDBLK
  5
41D
100
AcDbEntity
  8
0
100
AcDbBlockEnd
  0
BLOCK
  5
2
100
AcDbEntity
  8
0
100
AcDbBlockBegin
  2
_NONE
 70
     0
 10
0.0
 20
0.0
 30
0.0
  3
_NONE
  1

  0
ENDBLK
  5
3
100
AcDbEntity
  8
0
100
AcDbBlockEnd
  0
BLOCK
  5
5
100
AcDbEntity
  8
0
100
AcDbBlockBegin
  2
_CLOSED
 70
     0
 10
0.0
 20
0.0
 30
0.0
  3
_CLOSED
  1

  0
LINE
  5
6
100
AcDbEntity
  8
0
  6
BYBLOCK
 62
     0
100
AcDbLine
 10
-1.0
 20
0.166667
 30
0.0
 11
0.0
 21
0.0
 31
0.0
  0
LINE
  5
7
100
AcDbEntity
  8
0
  6
BYBLOCK
 62
     0
100
AcDbLine
 10
0.0
 20
0.0
 30
0.0
 11
-1.0
 21
-0.166667
 31
0.0
  0
LINE
  5
8
100
AcDbEntity
  8
0
  6
BYBLOCK
 62
     0
100
AcDbLine
 10
-1.0
 20
0.166667
 30
0.0
 11
-1.0
 21
-0.166667
 31
0.0
  0
LINE
  5
9
100
AcDbEntity
  8
0
  6
BYBLOCK
 62
     0
100
AcDbLine
 10
0.0
 20
0.0
 30
0.0
 11
-1.0
 21
0.0
 31
0.0
  0
ENDBLK
  5
A
100
AcDbEntity
  8
0
100
AcDbBlockEnd
  0
BLOCK
  5
C
100
AcDbEntity
  8
0
100
AcDbBlockBegin
  2
_DOT
 70
     0
 10
0.0
 20
0.0
 30
0.0
  3
_DOT
  1

  0
POLYLINE
  5
D
100
AcDbEntity
  8
0
  6
BYBLOCK
 62
     0
100
AcDb2dPolyline
 66
     1
 10
0.0
 20
0.0
 30
0.0
 70
     1
 40
0.5
 41
0.5
  0
VERTEX
  5
E
100
AcDbEntity
  8
0
  6
BYBLOCK
 62
     0
100
AcDbVertex
100
AcDb2dVertex
 10
-0.25
 20
0.0
 30
0.0
 42
1.0
  0
VERTEX
  5
F
100
AcDbEntity
  8
0
  6
BYBLOCK
 62
     0
100
AcDbVertex
100
AcDb2dVertex
 10
0.25
 20
0.0
 30
0.0
 42
1.0
  0
SEQEND
  5
10
100
AcDbEntity
  8
0
  6
BYBLOCK
 62
     0
  0
LINE
  5
11
100
AcDbEntity
  8
0
  6
BYBLOCK
 62
     0
100
AcDbLine
 10
-0.5
 20
0.0
 30
0.0
 11
-1.0
 21
0.0
 31
0.0
  0
ENDBLK
  5
12
100
AcDbEntity
  8
0
100
AcDbBlockEnd
  0
BLOCK
  5
14
100
AcDbEntity
  8
0
100
AcDbBlockBegin
  2
_OPEN
 70
     0
 10
0.0
 20
0.0
 30
0.0
  3
_OPEN
  1

  0
LINE
  5
15
100
AcDbEntity
  8
0
  6
BYBLOCK
 62
     0
100
AcDbLine
 10
-1.0
 20
0.166667
 30
0.0
 11
0.0
 21
0.0
 31
0.0
  0
LINE
  5
16
100
AcDbEntity
  8
0
  6
BYBLOCK
 62
     0
100
AcDbLine
 10
0.0
 20
0.0
 30
0.0
 11
-1.0
 21
-0.166667
 31
0.0
  0
LINE
  5
17
100
AcDbEntity
  8
0
  6
BYBLOCK
 62
     0
100
AcDbLine
 10
0.0
 20
0.0
 30
0.0
 11
-1.0
 21
0.0
 31
0.0
  0
ENDBLK
  5
18
100
AcDbEntity
  8
0
100
AcDbBlockEnd
  0
BLOCK
  5
1A
100
AcDbEntity
  8
0
100
AcDbBlockBegin
  2
_ORIGIN
 70
     0
 10
0.0
 20
0.0
 30
0.0
  3
_ORIGIN
  1

  0
CIRCLE
  5
1B
100
AcDbEntity
  8
0
  6
BYBLOCK
 62
     0
100
AcDbCircle
 10
0.0
 20
0.0
 30
0.0
 40
0.5
  0
LINE
  5
1C
100
AcDbEntity
  8
0
  6
BYBLOCK
 62
     0
100
AcDbLine
 10
0.0
 20
0.0
 30
0.0
 11
-1.0
 21
0.0
 31
0.0
  0
ENDBLK
  5
1D
100
AcDbEntity
  8
0
100
AcDbBlockEnd
  0
BLOCK
  5
1F
100
AcDbEntity
  8
0
100
AcDbBlockBegin
  2
_OPEN30
 70
     0
 10
0.0
 20
0.0
 30
0.0
  3
_OPEN30
  1

  0
LINE
  5
20
100
AcDbEntity
  8
0
  6
BYBLOCK
 62
     0
100
AcDbLine
 10
-1.0
 20
0.267949
 30
0.0
 11
0.0
 21
0.0
 31
0.0
  0
LINE
  5
21
100
AcDbEntity
  8
0
  6
BYBLOCK
 62
     0
100
AcDbLine
 10
0.0
 20
0.0
 30
0.0
 11
-1.0
 21
-0.267949
 31
0.0
  0
LINE
  5
22
100
AcDbEntity
  8
0
  6
BYBLOCK
 62
     0
100
AcDbLine
 10
0.0
 20
0.0
 30
0.0
 11
-1.0
 21
0.0
 31
0.0
  0
ENDBLK
  5
23
100
AcDbEntity
  8
0
100
AcDbBlockEnd
  0
BLOCK
  5
25
100
AcDbEntity
  8
0
100
AcDbBlockBegin
  2
_BOXFILLED
 70
     0
 10
0.0
 20
0.0
 30
0.0
  3
_BOXFILLED
  1

  0
SOLID
  5
26
100
AcDbEntity
  8
0
  6
BYBLOCK
 62
     0
100
AcDbTrace
 10
-0.5
 20
0.5
 30
0.0
 11
0.5
 21
0.5
 31
0.0
 12
-0.5
 22
-0.5
 32
0.0
 13
0.5
 23
-0.5
 33
0.0
  0
LINE
  5
27
100
AcDbEntity
  8
0
  6
BYBLOCK
 62
     0
100
AcDbLine
 10
-0.5
 20
0.0
 30
0.0
 11
-1.0
 21
0.0
 31
0.0
  0
ENDBLK
  5
28
100
AcDbEntity
  8
0
100
AcDbBlockEnd
  0
BLOCK
  5
2A
100
AcDbEntity
  8
0
100
AcDbBlockBegin
  2
_BOXBLANK
 70
     0
 10
0.0
 20
0.0
 30
0.0
  3
_BOXBLANK
  1

  0
LINE
  5
2B
100
AcDbEntity
  8
0
  6
BYBLOCK
 62
     0
100
AcDbLine
 10
-0.5
 20
-0.5
 30
0.0
 11
0.5
 21
-0.5
 31
0.0
  0
LINE
  5
2C
100
AcDbEntity
  8
0
  6
BYBLOCK
 62
     0
100
AcDbLine
 10
0.5
 20
-0.5
 30
0.0
 11
0.5
 21
0.5
 31
0.0
  0
LINE
  5
2D
100
AcDbEntity
  8
0
  6
BYBLOCK
 62
     0
100
AcDbLine
 10
0.5
 20
0.5
 30
0.0
 11
-0.5
 21
0.5
 31
0.0
  0
LINE
  5
2E
100
AcDbEntity
  8
0
  6
BYBLOCK
 62
     0
100
AcDbLine
 10
-0.5
 20
0.5
 30
0.0
 11
-0.5
 21
-0.5
 31
0.0
  0
LINE
  5
2F
100
AcDbEntity
  8
0
  6
BYBLOCK
 62
     0
100
AcDbLine
 10
-0.5
 20
0.0
 30
0.0
 11
-1.0
 21
0.0
 31
0.0
  0
ENDBLK
  5
30
100
AcDbEntity
  8
0
100
AcDbBlockEnd
  0
BLOCK
  5
32
100
AcDbEntity
  8
0
100
AcDbBlockBegin
  2
_OBLIQUE
 70
     0
 10
0.0
 20
0.0
 30
0.0
  3
_OBLIQUE
  1

  0
LINE
  5
33
100
AcDbEntity
  8
0
  6
BYBLOCK
 62
     0
100
AcDbLine
 10
-0.5
 20
-0.5
 30
0.0
 11
0.5
 21
0.5
 31
0.0
  0
ENDBLK
  5
34
100
AcDbEntity
  8
0
100
AcDbBlockEnd
  0
BLOCK
  5
36
100
AcDbEntity
  8
0
100
AcDbBlockBegin
  2
_OPEN90
 70
     0
 10
0.0
 20
0.0
 30
0.0
  3
_OPEN90
  1

  0
LINE
  5
37
100
AcDbEntity
  8
0
  6
BYBLOCK
 62
     0
100
AcDbLine
 10
-0.5
 20
0.5
 30
0.0
 11
0.0
 21
0.0
 31
0.0
  0
LINE
  5
38
100
AcDbEntity
  8
0
  6
BYBLOCK
 62
     0
100
AcDbLine
 10
0.0
 20
0.0
 30
0.0
 11
-0.5
 21
-0.5
 31
0.0
  0
LINE
  5
39
100
AcDbEntity
  8
0
  6
BYBLOCK
 62
     0
100
AcDbLine
 10
0.0
 20
0.0
 30
0.0
 11
-1.0
 21
0.0
 31
0.0
  0
ENDBLK
  5
3A
100
AcDbEntity
  8
0
100
AcDbBlockEnd
  0
BLOCK
  5
3C
100
AcDbEntity
  8
0
100
AcDbBlockBegin
  2
_CLOSEDBLANK
 70
     0
 10
0.0
 20
0.0
 30
0.0
  3
_CLOSEDBLANK
  1

  0
LINE
  5
3D
100
AcDbEntity
  8
0
  6
BYBLOCK
 62
     0
100
AcDbLine
 10
-1.0
 20
0.1666666666666666
 30
0.0
 11
0.0
 21
0.0
 31
0.0
  0
LINE
  5
3E
100
AcDbEntity
  8
0
  6
BYBLOCK
 62
     0
100
AcDbLine
 10
0.0
 20
0.0
 30
0.0
 11
-1.0
 21
-0.1666666666666666
 31
0.0
  0
LINE
  5
3F
100
AcDbEntity
  8
0
  6
BYBLOCK
 62
     0
100
AcDbLine
 10
-1.0
 20
0.1666666666666666
 30
0.0
 11
-1.0
 21
-0.1666666666666666
 31
0.0
  0
ENDBLK
  5
40
100
AcDbEntity
  8
0
100
AcDbBlockEnd
  0
BLOCK
  5
42
100
AcDbEntity
  8
0
100
AcDbBlockBegin
  2
_DOTBLANK
 70
     0
 10
0.0
 20
0.0
 30
0.0
  3
_DOTBLANK
  1

  0
CIRCLE
  5
43
100
AcDbEntity
  8
0
  6
BYBLOCK
 62
     0
100
AcDbCircle
 10
0.0
 20
0.0
 30
0.0
 40
0.5
  0
LINE
  5
44
100
AcDbEntity
  8
0
  6
BYBLOCK
 62
     0
100
AcDbLine
 10
-0.5
 20
0.0
 30
0.0
 11
-1.0
 21
0.0
 31
0.0
  0
ENDBLK
  5
45
100
AcDbEntity
  8
0
100
AcDbBlockEnd
  0
BLOCK
  5
C0
100
AcDbEntity
  8
MAIN10
  6
CONTINUOUS
 62
12
100
AcDbBlockBegin
  2
*D0
 70
    65
 10
0.0
 20
0.0
 30
0.0
  0
LINE
  5
C1
100
AcDbEntity
  8
MAIN10
  6
BYBLOCK
 62
0
100
AcDbLine
 10
682.4865521235881
 20
362.9454988600228
 30
0.0000000000000000
 11
682.4865521235881
 21
395.7229579242837
 31
0.0000000000000000
  0
LINE
  5
C2
100
AcDbEntity
  8
MAIN10
  6
BYBLOCK
 62
0
100
AcDbLine
 10
684.3972243113933
 20
392.7229579242837
 30
0.0000000000000000
 11
740.5758799357827
 21
392.7229579242837
 31
0.0000000000000000
  0
INSERT
  5
C3
100
AcDbEntity
  8
MAIN10
  6
BYBLOCK
 62
0
100
AcDbBlockReference
  2
_OPEN
 10
682.4865521235881
 20
392.7229579242837
 30
0.0000000000000000
 41
2.866008281707764
 42
2.866008281707764
 43
2.866008281707764
 50
180.0000000000000
  0
INSERT
  5
C4
100
AcDbEntity
  8
MAIN10
  6
BYBLOCK
 62
0
100
AcDbBlockReference
  2
_OPEN
 10
742.4865521235879
 20
392.7229579242837
 30
0.0000000000000000
 41
2.866008281707764
 42
2.866008281707764
 43
2.866008281707764
 50
0.0000000000000000
  0
LINE
  5
C5
100
AcDbEntity
  8
MAIN10
  6
BYBLOCK
 62
0
100
AcDbLine
 10
742.4865521235879
 20
370.9454988600217
 30
0.0000000000000000
 11
742.4865521235879
 21
395.7229579242837
 31
0.0000000000000000
  0
MTEXT
  5
C6
100
AcDbEntity
  8
MAIN10
  6
BYBLOCK
 62
0
100
AcDbMText
 10
712.4865521235880
 20
396.0479578527581
 30
0.0000000000000000
 40
4.649999856948853
 41
0.0000000000000000
 71
     5
 72
     1
  1
\A1;60
 11
1.000000000000000
 21
0.0000000000000000
 31
0.0000000000000000
  7
STANDARD
  0
ENDBLK
  5
C7
100
AcDbEntity
  8
MAIN10
  6
CONTINUOUS
 62
12
100
AcDbBlockEnd
  0
BLOCK
  5
C9
100
AcDbEntity
  8
MAIN10
  6
CONTINUOUS
 62
12
100
AcDbBlockBegin
  2
*D1
 70
    65
 10
0.0
 20
0.0
 30
0.0
  0
LINE
  5
CA
100
AcDbEntity
  8
MAIN10
  6
BYBLOCK
 62
0
100
AcDbLine
 10
737.4865521235879
 20
363.4454988600226
 30
0.0000000000000000
 11
737.4865521235879
 21
384.0229325874645
 31
0.0000000000000000
  0
LINE
  5
CB
100
AcDbEntity
  8
MAIN10
  6
BYBLOCK
 62
0
100
AcDbLine
 10
737.4865521235879
 20
381.0229325874645
 30
0.0000000000000000
 11
742.4865521235879
 21
381.0229325874645
 31
0.0000000000000000
  0
INSERT
  5
CC
100
AcDbEntity
  8
MAIN10
  6
BYBLOCK
 62
0
100
AcDbBlockReference
  2
_OPEN
 10
737.4865521235879
 20
381.0229325874645
 30
0.0000000000000000
 41
2.866008281707764
 42
2.866008281707764
 43
2.866008281707764
 50
0.0000000000000000
  0
INSERT
  5
CD
100
AcDbEntity
  8
MAIN10
  6
BYBLOCK
 62
0
100
AcDbBlockReference
  2
_OPEN
 10
742.4865521235879
 20
381.0229325874645
 30
0.0000000000000000
 41
2.866008281707764
 42
2.866008281707764
 43
2.866008281707764
 50
180.0000000000000
  0
LINE
  5
CE
100
AcDbEntity
  8
MAIN10
  6
BYBLOCK
 62
0
100
AcDbLine
 10
734.6205438418801
 20
381.0229325874645
 30
0.0000000000000000
 11
732.9865521235879
 21
381.0229325874645
 31
0.0000000000000000
  0
LINE
  5
CF
100
AcDbEntity
  8
MAIN10
  6
BYBLOCK
 62
0
100
AcDbLine
 10
745.3525604052957
 20
381.0229325874645
 30
0.0000000000000000
 11
746.9865521235879
 21
381.0229325874645
 31
0.0000000000000000
  0
LINE
  5
D0
100
AcDbEntity
  8
MAIN10
  6
BYBLOCK
 62
0
100
AcDbLine
 10
742.4865521235879
 20
370.9454988600217
 30
0.0000000000000000
 11
742.4865521235879
 21
384.0229325874645
 31
0.0000000000000000
  0
MTEXT
  5
D1
100
AcDbEntity
  8
MAIN10
  6
BYBLOCK
 62
0
100
AcDbMText
 10
739.9865521235879
 20
384.3479325159389
 30
0.0000000000000000
 40
4.649999856948853
 41
0.0000000000000000
 71
     5
 72
     1
  1
\A1;5
 11
1.000000000000000
 21
0.0000000000000000
 31
0.0000000000000000
  7
STANDARD
  0
ENDBLK
  5
D2
100
AcDbEntity
  8
MAIN10
  6
CONTINUOUS
 62
12
100
AcDbBlockEnd
  0
BLOCK
  5
D4
100
AcDbEntity
  8
MAIN10
  6
CONTINUOUS
 62
12
100
AcDbBlockBegin
  2
*D2
 70
    65
 10
0.0
 20
0.0
 30
0.0
  0
LINE
  5
D5
100
AcDbEntity
  8
MAIN10
  6
BYBLOCK
 62
0
100
AcDbLine
 10
722.8205267376834
 20
316.2454988421407
 30
0.0000000000000000
 11
785.4865521235879
 21
316.2454988421407
 31
0.0000000000000000
  0
LINE
  5
D6
100
AcDbEntity
  8
MAIN10
  6
BYBLOCK
 62
0
100
AcDbLine
 10
782.4865521235879
 20
318.1561710299459
 30
0.0000000000000000
 11
782.4865521235879
 21
369.3348266543351
 31
0.0000000000000000
  0
INSERT
  5
D7
100
AcDbEntity
  8
MAIN10
  6
BYBLOCK
 62
0
100
AcDbBlockReference
  2
_OPEN
 10
782.4865521235879
 20
316.2454988421408
 30
0.0000000000000000
 41
2.866008281707764
 42
2.866008281707764
 43
2.866008281707764
 50
270.0000000000000
  0
INSERT
  5
D8
100
AcDbEntity
  8
MAIN10
  6
BYBLOCK
 62
0
100
AcDbBlockReference
  2
_OPEN
 10
782.4865521235879
 20
371.2454988421403
 30
0.0000000000000000
 41
2.866008281707764
 42
2.866008281707764
 43
2.866008281707764
 50
90.00000000000000
  0
LINE
  5
D9
100
AcDbEntity
  8
MAIN10
  6
BYBLOCK
 62
0
100
AcDbLine
 10
722.8205267376834
 20
371.2454988421403
 30
0.0000000000000000
 11
785.4865521235879
 21
371.2454988421403
 31
0.0000000000000000
  0
MTEXT
  5
DA
100
AcDbEntity
  8
MAIN10
  6
BYBLOCK
 62
0
100
AcDbMText
 10
779.1615518374856
 20
343.7454988421405
 30
0.0000000000000000
 40
4.650000572204590
 41
0.0000000000000000
 71
     5
 72
     1
  1
\A1;\U+220555
 11
6.123233995736766e-017
 21
1.000000000000000
 31
0.0000000000000000
  7
STANDARD
  0
ENDBLK
  5
DB
100
AcDbEntity
  8
MAIN10
  6
CONTINUOUS
 62
12
100
AcDbBlockEnd
  0
BLOCK
  5
DF
100
AcDbEntity
  8
MAIN10
  6
CONTINUOUS
 62
12
100
AcDbBlockBegin
  2
*D3
 70
    65
 10
0.0
 20
0.0
 30
0.0
  0
LINE
  5
E0
100
AcDbEntity
  8
MAIN10
  6
BYBLOCK
 62
0
100
AcDbLine
 10
189.5058221145333
 20
299.5454983656818
 30
0.0000000000000000
 11
189.5058221145333
 21
267.7371361132358
 31
0.0000000000000000
  0
LINE
  5
E1
100
AcDbEntity
  8
MAIN10
  6
BYBLOCK
 62
0
100
AcDbLine
 10
191.4164943023384
 20
270.7371361132358
 30
0.0000000000000000
 11
217.5951499267281
 21
270.7371361132358
 31
0.0000000000000000
  0
INSERT
  5
E2
100
AcDbEntity
  8
MAIN10
  6
BYBLOCK
 62
0
100
AcDbBlockReference
  2
_OPEN
 10
189.5058221145333
 20
270.7371361132358
 30
0.0000000000000000
 41
2.866008281707764
 42
2.866008281707764
 43
2.866008281707764
 50
180.0000000000000
  0
INSERT
  5
E3
100
AcDbEntity
  8
MAIN10
  6
BYBLOCK
 62
0
100
AcDbBlockReference
  2
_OPEN
 10
219.5058221145332
 20
270.7371361132358
 30
0.0000000000000000
 41
2.866008281707764
 42
2.866008281707764
 43
2.866008281707764
 50
0.0000000000000000
  0
LINE
  5
E4
100
AcDbEntity
  8
MAIN10
  6
BYBLOCK
 62
0
100
AcDbLine
 10
219.5058221145332
 20
299.5454987066367
 30
0.0000000000000000
 11
219.5058221145332
 21
267.7371361132358
 31
0.0000000000000000
  0
MTEXT
  5
E5
100
AcDbEntity
  8
MAIN10
  6
BYBLOCK
 62
0
100
AcDbMText
 10
210.8963414574986
 20
273.8121360417102
 30
0.0000000000000000
 40
4.649999856948853
 41
0.0000000000000000
 71
     5
 72
     1
  1
\A1;\U+220530
 11
1.000000000000000
 21
0.0000000000000000
 31
0.0000000000000000
  7
STANDARD
  0
ENDBLK
  5
E6
100
AcDbEntity
  8
MAIN10
  6
CONTINUOUS
 62
12
100
AcDbBlockEnd
  0
BLOCK
  5
E8
100
AcDbEntity
  8
MAIN10
  6
CONTINUOUS
 62
12
100
AcDbBlockBegin
  2
*D4
 70
    65
 10
0.0
 20
0.0
 30
0.0
  0
LINE
  5
E9
100
AcDbEntity
  8
MAIN10
  6
BYBLOCK
 62
0
100
AcDbLine
 10
492.1145295082740
 20
329.7454988421405
 30
0.0000000000000000
 11
509.1790403514793
 21
329.7454988421405
 31
0.0000000000000000
  0
LINE
  5
EA
100
AcDbEntity
  8
MAIN10
  6
BYBLOCK
 62
0
100
AcDbLine
 10
506.1790403514793
 20
331.6561710299457
 30
0.0000000000000000
 11
506.1790403514793
 21
355.8348266543354
 31
0.0000000000000000
  0
INSERT
  5
EB
100
AcDbEntity
  8
MAIN10
  6
BYBLOCK
 62
0
100
AcDbBlockReference
  2
_OPEN
 10
506.1790403514793
 20
329.7454988421405
 30
0.0000000000000000
 41
2.866008281707764
 42
2.866008281707764
 43
2.866008281707764
 50
270.0000000000000
  0
INSERT
  5
EC
100
AcDbEntity
  8
MAIN10
  6
BYBLOCK
 62
0
100
AcDbBlockReference
  2
_OPEN
 10
506.1790403514793
 20
357.7454988421405
 30
0.0000000000000000
 41
2.866008281707764
 42
2.866008281707764
 43
2.866008281707764
 50
90.00000000000000
  0
MTEXT
  5
ED
100
AcDbEntity
  8
MAIN10
  6
BYBLOCK
 62
0
100
AcDbMText
 10
503.1040404230049
 20
340.0462352934903
 30
0.0000000000000000
 40
4.649999856948853
 41
0.0000000000000000
 71
     5
 72
     1
  1
\A1;28
 11
6.123233995736766e-017
 21
1.000000000000000
 31
0.0000000000000000
  7
STANDARD
  0
ENDBLK
  5
EE
100
AcDbEntity
  8
MAIN10
  6
CONTINUOUS
 62
12
100
AcDbBlockEnd
  0
BLOCK
  5
F2
100
AcDbEntity
  8
MAIN10
  6
CONTINUOUS
 62
12
100
AcDbBlockBegin
  2
*D5
 70
    65
 10
0.0
 20
0.0
 30
0.0
  0
LINE
  5
F3
100
AcDbEntity
  8
MAIN10
  6
BYBLOCK
 62
0
100
AcDbLine
 10
218.7058221324146
 20
298.7454988421408
 30
0.0000000000000000
 11
267.5300375462006
 21
298.7454988421408
 31
0.0000000000000000
  0
LINE
  5
F4
100
AcDbEntity
  8
MAIN10
  6
BYBLOCK
 62
0
100
AcDbLine
 10
264.5300375462006
 20
300.6561710299459
 30
0.0000000000000000
 11
264.5300375462006
 21
341.8348266543354
 31
0.0000000000000000
  0
INSERT
  5
F5
100
AcDbEntity
  8
MAIN10
  6
BYBLOCK
 62
0
100
AcDbBlockReference
  2
_OPEN
 10
264.5300375462006
 20
298.7454988421408
 30
0.0000000000000000
 41
2.866008281707764
 42
2.866008281707764
 43
2.866008281707764
 50
270.0000000000000
  0
INSERT
  5
F6
100
AcDbEntity
  8
MAIN10
  6
BYBLOCK
 62
0
100
AcDbBlockReference
  2
_OPEN
 10
264.5300375462006
 20
343.7454988421405
 30
0.0000000000000000
 41
2.866008281707764
 42
2.866008281707764
 43
2.866008281707764
 50
90.00000000000000
  0
LINE
  5
F7
100
AcDbEntity
  8
MAIN10
  6
BYBLOCK
 62
0
100
AcDbLine
 10
251.0135179826429
 20
343.7454988421405
 30
0.0000000000000000
 11
267.5300375462006
 21
343.7454988421405
 31
0.0000000000000000
  0
MTEXT
  5
F8
100
AcDbEntity
  8
MAIN10
  6
BYBLOCK
 62
0
100
AcDbMText
 10
261.2050376177262
 20
321.2454988421407
 30
0.0000000000000000
 40
4.649999856948853
 41
0.0000000000000000
 71
     5
 72
     1
  1
\A1;45
 11
6.123233995736766e-017
 21
1.000000000000000
 31
0.0000000000000000
  7
STANDARD
  0
ENDBLK
  5
F9
100
AcDbEntity
  8
MAIN10
  6
CONTINUOUS
 62
12
100
AcDbBlockEnd
  0
BLOCK
  5
FB
100
AcDbEntity
  8
MAIN10
  6
CONTINUOUS
 62
12
100
AcDbBlockBegin
  2
*D6
 70
    65
 10
0.0
 20
0.0
 30
0.0
  0
LINE
  5
FC
100
AcDbEntity
  8
MAIN10
  6
BYBLOCK
 62
0
100
AcDbLine
 10
104.8132645124497
 20
448.2464163441623
 30
0.0000000000000000
 11
86.01326453033107
 21
448.2464163441623
 31
0.0000000000000000
  0
LINE
  5
FD
100
AcDbEntity
  8
MAIN10
  6
BYBLOCK
 62
0
100
AcDbLine
 10
89.01326453033107
 20
450.1570885319675
 30
0.0000000000000000
 11
89.01326453033107
 21
474.3357441563571
 31
0.0000000000000000
  0
INSERT
  5
FE
100
AcDbEntity
  8
MAIN10
  6
BYBLOCK
 62
0
100
AcDbBlockReference
  2
_OPEN
 10
89.01326453033107
 20
448.2464163441623
 30
0.0000000000000000
 41
2.866008281707764
 42
2.866008281707764
 43
2.866008281707764
 50
270.0000000000000
  0
INSERT
  5
FF
100
AcDbEntity
  8
MAIN10
  6
BYBLOCK
 62
0
100
AcDbBlockReference
  2
_OPEN
 10
89.01326453033107
 20
476.2464163441623
 30
0.0000000000000000
 41
2.866008281707764
 42
2.866008281707764
 43
2.866008281707764
 50
90.00000000000000
  0
LINE
  5
100
100
AcDbEntity
  8
MAIN10
  6
BYBLOCK
 62
0
100
AcDbLine
 10
96.38939045490042
 20
476.2464163441623
 30
0.0000000000000000
 11
86.01326453033107
 21
476.2464163441623
 31
0.0000000000000000
  0
MTEXT
  5
101
100
AcDbEntity
  8
MAIN10
  6
BYBLOCK
 62
0
100
AcDbMText
 10
85.68826460185665
 20
462.2464163441623
 30
0.0000000000000000
 40
4.649999856948853
 41
0.0000000000000000
 71
     5
 72
     1
  1
\A1;MAX 28
 11
6.123233995736766e-017
 21
1.000000000000000
 31
0.0000000000000000
  7
STANDARD
  0
ENDBLK
  5
102
100
AcDbEntity
  8
MAIN10
  6
CONTINUOUS
 62
12
100
AcDbBlockEnd
  0
BLOCK
  5
104
100
AcDbEntity
  8
MAIN10
  6
CONTINUOUS
 62
12
100
AcDbBlockBegin
  2
*D7
 70
    65
 10
0.0
 20
0.0
 30
0.0
  0
LINE
  5
105
100
AcDbEntity
  8
MAIN10
  6
BYBLOCK
 62
0
100
AcDbLine
 10
96.38939045490042
 20
476.2464163441623
 30
0.0000000000000000
 11
86.01326453033107
 21
476.2464163441623
 31
0.0000000000000000
  0
LINE
  5
106
100
AcDbEntity
  8
MAIN10
  6
BYBLOCK
 62
0
100
AcDbLine
 10
89.01326453033107
 20
478.1570885319675
 30
0.0000000000000000
 11
89.01326453033107
 21
485.3357441563571
 31
0.0000000000000000
  0
INSERT
  5
107
100
AcDbEntity
  8
MAIN10
  6
BYBLOCK
 62
0
100
AcDbBlockReference
  2
_OPEN
 10
89.01326453033107
 20
476.2464163441623
 30
0.0000000000000000
 41
2.866008281707764
 42
2.866008281707764
 43
2.866008281707764
 50
270.0000000000000
  0
INSERT
  5
108
100
AcDbEntity
  8
MAIN10
  6
BYBLOCK
 62
0
100
AcDbBlockReference
  2
_OPEN
 10
89.01326453033107
 20
487.2464163441623
 30
0.0000000000000000
 41
2.866008281707764
 42
2.866008281707764
 43
2.866008281707764
 50
90.00000000000000
  0
LINE
  5
109
100
AcDbEntity
  8
MAIN10
  6
BYBLOCK
 62
0
100
AcDbLine
 10
114.0266136722785
 20
487.2464163441623
 30
0.0000000000000000
 11
86.01326453033107
 21
487.2464163441623
 31
0.0000000000000000
  0
MTEXT
  5
10A
100
AcDbEntity
  8
MAIN10
  6
BYBLOCK
 62
0
100
AcDbMText
 10
85.68826460185665
 20
481.7464163441623
 30
0.0000000000000000
 40
4.649999856948853
 41
0.0000000000000000
 71
     5
 72
     1
  1
\A1;11
 11
6.123233995736766e-017
 21
1.000000000000000
 31
0.0000000000000000
  7
STANDARD
  0
ENDBLK
  5
10B
100
AcDbEntity
  8
MAIN10
  6
CONTINUOUS
 62
12
100
AcDbBlockEnd
  0
BLOCK
  5
10D
100
AcDbEntity
  8
MAIN10
  6
CONTINUOUS
 62
12
100
AcDbBlockBegin
  2
*D8
 70
    65
 10
0.0
 20
0.0
 30
0.0
  0
LINE
  5
10E
100
AcDbEntity
  8
MAIN10
  6
BYBLOCK
 62
0
100
AcDbLine
 10
114.0266136722785
 20
487.2464163441623
 30
0.0000000000000000
 11
86.01326453033107
 21
487.2464163441623
 31
0.0000000000000000
  0
LINE
  5
10F
100
AcDbEntity
  8
MAIN10
  6
BYBLOCK
 62
0
100
AcDbLine
 10
89.01326453033107
 20
489.1570885319675
 30
0.0000000000000000
 11
89.01326453033107
 21
531.3357441563571
 31
0.0000000000000000
  0
INSERT
  5
110
100
AcDbEntity
  8
MAIN10
  6
BYBLOCK
 62
0
100
AcDbBlockReference
  2
_OPEN
 10
89.01326453033107
 20
487.2464163441623
 30
0.0000000000000000
 41
2.866008281707764
 42
2.866008281707764
 43
2.866008281707764
 50
270.0000000000000
  0
INSERT
  5
111
100
AcDbEntity
  8
MAIN10
  6
BYBLOCK
 62
0
100
AcDbBlockReference
  2
_OPEN
 10
89.01326453033107
 20
533.2464163441623
 30
0.0000000000000000
 41
2.866008281707764
 42
2.866008281707764
 43
2.866008281707764
 50
90.00000000000000
  0
LINE
  5
112
100
AcDbEntity
  8
MAIN10
  6
BYBLOCK
 62
0
100
AcDbLine
 10
114.0266136722785
 20
533.2464163441623
 30
0.0000000000000000
 11
86.01326453033107
 21
533.2464163441623
 31
0.0000000000000000
  0
MTEXT
  5
113
100
AcDbEntity
  8
MAIN10
  6
BYBLOCK
 62
0
100
AcDbMText
 10
85.68826460185665
 20
510.2464163441623
 30
0.0000000000000000
 40
4.649999856948853
 41
0.0000000000000000
 71
     5
 72
     1
  1
\A1;46
 11
6.123233995736766e-017
 21
1.000000000000000
 31
0.0000000000000000
  7
STANDARD
  0
ENDBLK
  5
114
100
AcDbEntity
  8
MAIN10
  6
CONTINUOUS
 62
12
100
AcDbBlockEnd
  0
BLOCK
  5
116
100
AcDbEntity
  8
MAIN10
  6
CONTINUOUS
 62
12
100
AcDbBlockBegin
  2
*D9
 70
    65
 10
0.0
 20
0.0
 30
0.0
  0
LINE
  5
117
100
AcDbEntity
  8
MAIN10
  6
BYBLOCK
 62
0
100
AcDbLine
 10
385.4865521235884
 20
387.9454988600218
 30
0.0000000000000000
 11
385.4865521235884
 21
519.2454988421404
 31
0.0000000000000000
  0
LINE
  5
118
100
AcDbEntity
  8
MAIN10
  6
BYBLOCK
 62
0
100
AcDbLine
 10
387.3972243113935
 20
516.2454988421404
 30
0.0000000000000000
 11
549.5758799357832
 21
516.2454988421404
 31
0.0000000000000000
  0
INSERT
  5
119
100
AcDbEntity
  8
MAIN10
  6
BYBLOCK
 62
0
100
AcDbBlockReference
  2
_OPEN
 10
385.4865521235884
 20
516.2454988421404
 30
0.0000000000000000
 41
2.866008281707764
 42
2.866008281707764
 43
2.866008281707764
 50
180.0000000000000
  0
INSERT
  5
11A
100
AcDbEntity
  8
MAIN10
  6
BYBLOCK
 62
0
100
AcDbBlockReference
  2
_OPEN
 10
551.4865521235884
 20
516.2454988421404
 30
0.0000000000000000
 41
2.866008281707764
 42
2.866008281707764
 43
2.866008281707764
 50
0.0000000000000000
  0
LINE
  5
11B
100
AcDbEntity
  8
MAIN10
  6
BYBLOCK
 62
0
100
AcDbLine
 10
551.4865521235884
 20
466.4454988600218
 30
0.0000000000000000
 11
551.4865521235884
 21
519.2454988421404
 31
0.0000000000000000
  0
MTEXT
  5
11C
100
AcDbEntity
  8
MAIN10
  6
BYBLOCK
 62
0
100
AcDbMText
 10
468.4865521235884
 20
519.5704987706148
 30
0.0000000000000000
 40
4.649999856948853
 41
0.0000000000000000
 71
     5
 72
     1
  1
\A1;166
 11
1.000000000000000
 21
0.0000000000000000
 31
0.0000000000000000
  7
STANDARD
  0
ENDBLK
  5
11D
100
AcDbEntity
  8
MAIN10
  6
CONTINUOUS
 62
12
100
AcDbBlockEnd
  0
BLOCK
  5
11F
100
AcDbEntity
  8
MAIN10
  6
CONTINUOUS
 62
12
100
AcDbBlockBegin
  2
*D10
 70
    65
 10
0.0
 20
0.0
 30
0.0
  0
LINE
  5
120
100
AcDbEntity
  8
MAIN10
  6
BYBLOCK
 62
0
100
AcDbLine
 10
551.4865521235884
 20
466.4454988600218
 30
0.0000000000000000
 11
551.4865521235884
 21
519.2454988421404
 31
0.0000000000000000
  0
LINE
  5
121
100
AcDbEntity
  8
MAIN10
  6
BYBLOCK
 62
0
100
AcDbLine
 10
553.3972243113935
 20
516.2454988421404
 30
0.0000000000000000
 11
671.5758799357831
 21
516.2454988421404
 31
0.0000000000000000
  0
INSERT
  5
122
100
AcDbEntity
  8
MAIN10
  6
BYBLOCK
 62
0
100
AcDbBlockReference
  2
_OPEN
 10
551.4865521235884
 20
516.2454988421404
 30
0.0000000000000000
 41
2.866008281707764
 42
2.866008281707764
 43
2.866008281707764
 50
180.0000000000000
  0
INSERT
  5
123
100
AcDbEntity
  8
MAIN10
  6
BYBLOCK
 62
0
100
AcDbBlockReference
  2
_OPEN
 10
673.4865521235882
 20
516.2454988421404
 30
0.0000000000000000
 41
2.866008281707764
 42
2.866008281707764
 43
2.866008281707764
 50
0.0000000000000000
  0
LINE
  5
124
100
AcDbEntity
  8
MAIN10
  6
BYBLOCK
 62
0
100
AcDbLine
 10
673.4865521235882
 20
465.4454988600218
 30
0.0000000000000000
 11
673.4865521235882
 21
519.2454988421404
 31
0.0000000000000000
  0
MTEXT
  5
125
100
AcDbEntity
  8
MAIN10
  6
BYBLOCK
 62
0
100
AcDbMText
 10
612.4865521235882
 20
519.5704987706148
 30
0.0000000000000000
 40
4.649999856948853
 41
0.0000000000000000
 71
     5
 72
     1
  1
\A1;122
 11
1.000000000000000
 21
0.0000000000000000
 31
0.0000000000000000
  7
STANDARD
  0
ENDBLK
  5
126
100
AcDbEntity
  8
MAIN10
  6
CONTINUOUS
 62
12
100
AcDbBlockEnd
  0
BLOCK
  5
128
100
AcDbEntity
  8
MAIN10
  6
CONTINUOUS
 62
12
100
AcDbBlockBegin
  2
*D11
 70
    65
 10
0.0
 20
0.0
 30
0.0
  0
LINE
  5
129
100
AcDbEntity
  8
MAIN10
  6
BYBLOCK
 62
0
100
AcDbLine
 10
673.4865521235882
 20
465.4454988600218
 30
0.0000000000000000
 11
673.4865521235882
 21
519.2454988421404
 31
0.0000000000000000
  0
LINE
  5
12A
100
AcDbEntity
  8
MAIN10
  6
BYBLOCK
 62
0
100
AcDbLine
 10
673.4865521235882
 20
516.2454988421404
 30
0.0000000000000000
 11
678.4865521235884
 21
516.2454988421404
 31
0.0000000000000000
  0
INSERT
  5
12B
100
AcDbEntity
  8
MAIN10
  6
BYBLOCK
 62
0
100
AcDbBlockReference
  2
_OPEN
 10
673.4865521235882
 20
516.2454988421404
 30
0.0000000000000000
 41
2.866008281707764
 42
2.866008281707764
 43
2.866008281707764
 50
0.0000000000000000
  0
INSERT
  5
12C
100
AcDbEntity
  8
MAIN10
  6
BYBLOCK
 62
0
100
AcDbBlockReference
  2
_OPEN
 10
678.4865521235884
 20
516.2454988421404
 30
0.0000000000000000
 41
2.866008281707764
 42
2.866008281707764
 43
2.866008281707764
 50
180.0000000000000
  0
LINE
  5
12D
100
AcDbEntity
  8
MAIN10
  6
BYBLOCK
 62
0
100
AcDbLine
 10
670.6205438418805
 20
516.2454988421404
 30
0.0000000000000000
 11
668.9865521235882
 21
516.2454988421404
 31
0.0000000000000000
  0
LINE
  5
12E
100
AcDbEntity
  8
MAIN10
  6
BYBLOCK
 62
0
100
AcDbLine
 10
681.3525604052961
 20
516.2454988421404
 30
0.0000000000000000
 11
682.9865521235884
 21
516.2454988421404
 31
0.0000000000000000
  0
LINE
  5
12F
100
AcDbEntity
  8
MAIN10
  6
BYBLOCK
 62
0
100
AcDbLine
 10
678.4865521235884
 20
404.9454988600218
 30
0.0000000000000000
 11
678.4865521235884
 21
519.2454988421404
 31
0.0000000000000000
  0
MTEXT
  5
130
100
AcDbEntity
  8
MAIN10
  6
BYBLOCK
 62
0
100
AcDbMText
 10
675.9865521235882
 20
519.5704987706148
 30
0.0000000000000000
 40
4.649999856948853
 41
0.0000000000000000
 71
     5
 72
     1
  1
\A1;5
 11
1.000000000000000
 21
0.0000000000000000
 31
0.0000000000000000
  7
STANDARD
  0
ENDBLK
  5
131
100
AcDbEntity
  8
MAIN10
  6
CONTINUOUS
 62
12
100
AcDbBlockEnd
  0
BLOCK
  5
133
100
AcDbEntity
  8
MAIN10
  6
CONTINUOUS
 62
12
100
AcDbBlockBegin
  2
*D12
 70
    65
 10
0.0
 20
0.0
 30
0.0
  0
LINE
  5
134
100
AcDbEntity
  8
MAIN10
  6
BYBLOCK
 62
0
100
AcDbLine
 10
479.4865521235880
 20
347.2172066605868
 30
0.0000000000000000
 11
479.4865521235880
 21
504.2454988421404
 31
0.0000000000000000
  0
LINE
  5
135
100
AcDbEntity
  8
MAIN10
  6
BYBLOCK
 62
0
100
AcDbLine
 10
481.3972243113932
 20
501.2454988421404
 30
0.0000000000000000
 11
488.5758799357828
 21
501.2454988421404
 31
0.0000000000000000
  0
INSERT
  5
136
100
AcDbEntity
  8
MAIN10
  6
BYBLOCK
 62
0
100
AcDbBlockReference
  2
_OPEN
 10
479.4865521235880
 20
501.2454988421404
 30
0.0000000000000000
 41
2.866008281707764
 42
2.866008281707764
 43
2.866008281707764
 50
180.0000000000000
  0
INSERT
  5
137
100
AcDbEntity
  8
MAIN10
  6
BYBLOCK
 62
0
100
AcDbBlockReference
  2
_OPEN
 10
490.4865521235880
 20
501.2454988421404
 30
0.0000000000000000
 41
2.866008281707764
 42
2.866008281707764
 43
2.866008281707764
 50
0.0000000000000000
  0
LINE
  5
138
100
AcDbEntity
  8
MAIN10
  6
BYBLOCK
 62
0
100
AcDbLine
 10
490.4865521235880
 20
373.1068775364107
 30
0.0000000000000000
 11
490.4865521235880
 21
504.2454988421404
 31
0.0000000000000000
  0
MTEXT
  5
139
100
AcDbEntity
  8
MAIN10
  6
BYBLOCK
 62
0
100
AcDbMText
 10
484.9865521235880
 20
504.5704987706148
 30
0.0000000000000000
 40
4.649999856948853
 41
0.0000000000000000
 71
     5
 72
     1
  1
\A1;11
 11
1.000000000000000
 21
0.0000000000000000
 31
0.0000000000000000
  7
STANDARD
  0
ENDBLK
  5
13A
100
AcDbEntity
  8
MAIN10
  6
CONTINUOUS
 62
12
100
AcDbBlockEnd
  0
BLOCK
  5
13C
100
AcDbEntity
  8
MAIN10
  6
CONTINUOUS
 62
12
100
AcDbBlockBegin
  2
*D13
 70
    65
 10
0.0
 20
0.0
 30
0.0
  0
LINE
  5
13D
100
AcDbEntity
  8
MAIN10
  6
BYBLOCK
 62
0
100
AcDbLine
 10
490.4865521235880
 20
373.1068775364107
 30
0.0000000000000000
 11
490.4865521235880
 21
504.2454988421404
 31
0.0000000000000000
  0
LINE
  5
13E
100
AcDbEntity
  8
MAIN10
  6
BYBLOCK
 62
0
100
AcDbLine
 10
492.3972243113932
 20
501.2454988421404
 30
0.0000000000000000
 11
671.5758799357831
 21
501.2454988421404
 31
0.0000000000000000
  0
INSERT
  5
13F
100
AcDbEntity
  8
MAIN10
  6
BYBLOCK
 62
0
100
AcDbBlockReference
  2
_OPEN
 10
490.4865521235880
 20
501.2454988421404
 30
0.0000000000000000
 41
2.866008281707764
 42
2.866008281707764
 43
2.866008281707764
 50
180.0000000000000
  0
INSERT
  5
140
100
AcDbEntity
  8
MAIN10
  6
BYBLOCK
 62
0
100
AcDbBlockReference
  2
_OPEN
 10
673.4865521235882
 20
501.2454988421404
 30
0.0000000000000000
 41
2.866008281707764
 42
2.866008281707764
 43
2.866008281707764
 50
0.0000000000000000
  0
LINE
  5
141
100
AcDbEntity
  8
MAIN10
  6
BYBLOCK
 62
0
100
AcDbLine
 10
673.4865521235882
 20
465.4454988600218
 30
0.0000000000000000
 11
673.4865521235882
 21
504.2454988421404
 31
0.0000000000000000
  0
MTEXT
  5
142
100
AcDbEntity
  8
MAIN10
  6
BYBLOCK
 62
0
100
AcDbMText
 10
581.9865521235881
 20
504.5704987706148
 30
0.0000000000000000
 40
4.649999856948853
 41
0.0000000000000000
 71
     5
 72
     1
  1
\A1;183
 11
1.000000000000000
 21
0.0000000000000000
 31
0.0000000000000000
  7
STANDARD
  0
ENDBLK
  5
143
100
AcDbEntity
  8
MAIN10
  6
CONTINUOUS
 62
12
100
AcDbBlockEnd
  0
BLOCK
  5
145
100
AcDbEntity
  8
MAIN10
  6
CONTINUOUS
 62
12
100
AcDbBlockBegin
  2
*D14
 70
    65
 10
0.0
 20
0.0
 30
0.0
  0
LINE
  5
146
100
AcDbEntity
  8
MAIN10
  6
BYBLOCK
 62
0
100
AcDbLine
 10
222.4452853147291
 20
485.5787263448694
 30
0.0000000000000000
 11
212.8267702257978
 21
502.2384831722662
 31
0.0000000000000000
  0
LINE
  5
147
100
AcDbEntity
  8
MAIN10
  6
BYBLOCK
 62
0
100
AcDbLine
 10
215.9814608787414
 20
500.5957430548156
 30
0.0000000000000000
 11
236.9207908788184
 21
512.6850708670104
 31
0.0000000000000000
  0
INSERT
  5
148
100
AcDbEntity
  8
MAIN10
  6
BYBLOCK
 62
0
100
AcDbBlockReference
  2
_OPEN
 10
214.3267702257978
 20
499.6404069609130
 30
0.0000000000000000
 41
2.866008281707764
 42
2.866008281707764
 43
2.866008281707764
 50
210.0000000000000
  0
INSERT
  5
149
100
AcDbEntity
  8
MAIN10
  6
BYBLOCK
 62
0
100
AcDbBlockReference
  2
_OPEN
 10
238.5754815317621
 20
513.6404069609130
 30
0.0000000000000000
 41
2.866008281707764
 42
2.866008281707764
 43
2.866008281707764
 50
30.00000000000002
  0
LINE
  5
14A
100
AcDbEntity
  8
MAIN10
  6
BYBLOCK
 62
0
100
AcDbLine
 10
243.2823303625641
 20
505.4879056424177
 30
0.0000000000000000
 11
237.0754815317621
 21
516.2384831722663
 31
0.0000000000000000
  0
MTEXT
  5
14B
100
AcDbEntity
  8
MAIN10
  6
BYBLOCK
 62
0
100
AcDbMText
 10
224.7886259145427
 20
509.5199413665533
 30
0.0000000000000000
 40
4.649999856948853
 41
0.0000000000000000
 71
     5
 72
     1
  1
\A1;MAX 28
 11
0.8660254037844385
 21
0.5000000000000002
 31
0.0000000000000000
  7
STANDARD
  0
ENDBLK
  5
14C
100
AcDbEntity
  8
MAIN10
  6
CONTINUOUS
 62
12
100
AcDbBlockEnd
  0
BLOCK
  5
14E
100
AcDbEntity
  8
MAIN10
  6
CONTINUOUS
 62
12
100
AcDbBlockBegin
  2
*D15
 70
    65
 10
0.0
 20
0.0
 30
0.0
  0
LINE
  5
14F
100
AcDbEntity
  8
MAIN10
  6
BYBLOCK
 62
0
100
AcDbLine
 10
243.2823303625641
 20
505.4879056424177
 30
0.0000000000000000
 11
237.0754815317621
 21
516.2384831722663
 31
0.0000000000000000
  0
LINE
  5
150
100
AcDbEntity
  8
MAIN10
  6
BYBLOCK
 62
0
100
AcDbLine
 10
240.2301721847057
 20
514.5957430548156
 30
0.0000000000000000
 11
246.4470703204472
 21
518.1850708670104
 31
0.0000000000000000
  0
INSERT
  5
151
100
AcDbEntity
  8
MAIN10
  6
BYBLOCK
 62
0
100
AcDbBlockReference
  2
_OPEN
 10
238.5754815317620
 20
513.6404069609130
 30
0.0000000000000000
 41
2.866008281707764
 42
2.866008281707764
 43
2.866008281707764
 50
210.0000000000000
  0
INSERT
  5
152
100
AcDbEntity
  8
MAIN10
  6
BYBLOCK
 62
0
100
AcDbBlockReference
  2
_OPEN
 10
248.1017609733909
 20
519.1404069609130
 30
0.0000000000000000
 41
2.866008281707764
 42
2.866008281707764
 43
2.866008281707764
 50
30.00000000000002
  0
LINE
  5
153
100
AcDbEntity
  8
MAIN10
  6
BYBLOCK
 62
0
100
AcDbLine
 10
260.6197964549384
 20
497.4585334959227
 30
0.0000000000000000
 11
246.6017609733908
 21
521.7384831722662
 31
0.0000000000000000
  0
MTEXT
  5
154
100
AcDbEntity
  8
MAIN10
  6
BYBLOCK
 62
0
100
AcDbMText
 10
241.6761212883392
 20
519.2699413665532
 30
0.0000000000000000
 40
4.649999856948853
 41
0.0000000000000000
 71
     5
 72
     1
  1
\A1;11
 11
0.8660254037844385
 21
0.5000000000000003
 31
0.0000000000000000
  7
STANDARD
  0
ENDBLK
  5
155
100
AcDbEntity
  8
MAIN10
  6
CONTINUOUS
 62
12
100
AcDbBlockEnd
  0
BLOCK
  5
157
100
AcDbEntity
  8
MAIN10
  6
CONTINUOUS
 62
12
100
AcDbBlockBegin
  2
*D16
 70
    65
 10
0.0
 20
0.0
 30
0.0
  0
LINE
  5
158
100
AcDbEntity
  8
MAIN10
  6
BYBLOCK
 62
0
100
AcDbLine
 10
260.6197964549384
 20
497.4585334959227
 30
0.0000000000000000
 11
246.6017609733908
 21
521.7384831722662
 31
0.0000000000000000
  0
LINE
  5
159
100
AcDbEntity
  8
MAIN10
  6
BYBLOCK
 62
0
100
AcDbLine
 10
249.7564516263345
 20
520.0957430548156
 30
0.0000000000000000
 11
286.2842388945314
 21
541.1850708670104
 31
0.0000000000000000
  0
INSERT
  5
15A
100
AcDbEntity
  8
MAIN10
  6
BYBLOCK
 62
0
100
AcDbBlockReference
  2
_OPEN
 10
248.1017609733908
 20
519.1404069609130
 30
0.0000000000000000
 41
2.866008281707764
 42
2.866008281707764
 43
2.866008281707764
 50
210.0000000000000
  0
INSERT
  5
15B
100
AcDbEntity
  8
MAIN10
  6
BYBLOCK
 62
0
100
AcDbBlockReference
  2
_OPEN
 10
287.9389295474750
 20
542.1404069609130
 30
0.0000000000000000
 41
2.866008281707764
 42
2.866008281707764
 43
2.866008281707764
 50
29.99999999999999
  0
LINE
  5
15C
100
AcDbEntity
  8
MAIN10
  6
BYBLOCK
 62
0
100
AcDbLine
 10
300.4569650290226
 20
520.4585334959227
 30
0.0000000000000000
 11
286.4389295474750
 21
544.7384831722663
 31
0.0000000000000000
  0
MTEXT
  5
15D
100
AcDbEntity
  8
MAIN10
  6
BYBLOCK
 62
0
100
AcDbMText
 10
266.3578452961957
 20
533.5199413665532
 30
0.0000000000000000
 40
4.649999856948853
 41
0.0000000000000000
 71
     5
 72
     1
  1
\A1;46
 11
0.8660254037844384
 21
0.5000000000000006
 31
0.0000000000000000
  7
STANDARD
  0
ENDBLK
  5
15E
100
AcDbEntity
  8
MAIN10
  6
CONTINUOUS
 62
12
100
AcDbBlockEnd
  0
BLOCK
  5
160
100
AcDbEntity
  8
MAIN10
  6
CONTINUOUS
 62
12
100
AcDbBlockBegin
  2
*D17
 70
    65
 10
0.0
 20
0.0
 30
0.0
  0
LINE
  5
161
100
AcDbEntity
  8
MAIN10
  6
BYBLOCK
 62
0
100
AcDbLine
 10
484.4865521235881
 20
289.4108845248962
 30
0.0000000000000000
 11
484.4865521235881
 21
188.0606835266745
 31
0.0000000000000000
  0
LINE
  5
162
100
AcDbEntity
  8
MAIN10
  6
BYBLOCK
 62
0
100
AcDbLine
 10
486.3972243113933
 20
191.0606835266745
 30
0.0000000000000000
 11
671.5758799357831
 21
191.0606835266745
 31
0.0000000000000000
  0
INSERT
  5
163
100
AcDbEntity
  8
MAIN10
  6
BYBLOCK
 62
0
100
AcDbBlockReference
  2
_OPEN
 10
484.4865521235881
 20
191.0606835266745
 30
0.0000000000000000
 41
2.866008281707764
 42
2.866008281707764
 43
2.866008281707764
 50
180.0000000000000
  0
INSERT
  5
164
100
AcDbEntity
  8
MAIN10
  6
BYBLOCK
 62
0
100
AcDbBlockReference
  2
_OPEN
 10
673.4865521235882
 20
191.0606835266745
 30
0.0000000000000000
 41
2.866008281707764
 42
2.866008281707764
 43
2.866008281707764
 50
0.0000000000000000
  0
LINE
  5
165
100
AcDbEntity
  8
MAIN10
  6
BYBLOCK
 62
0
100
AcDbLine
 10
673.4865521235882
 20
222.0454988242593
 30
0.0000000000000000
 11
673.4865521235882
 21
188.0606835266745
 31
0.0000000000000000
  0
MTEXT
  5
166
100
AcDbEntity
  8
MAIN10
  6
BYBLOCK
 62
0
100
AcDbMText
 10
578.9865521235881
 20
194.3856834551489
 30
0.0000000000000000
 40
4.649999856948853
 41
0.0000000000000000
 71
     5
 72
     1
  1
\A1;189
 11
1.000000000000000
 21
0.0000000000000000
 31
0.0000000000000000
  7
STANDARD
  0
ENDBLK
  5
167
100
AcDbEntity
  8
MAIN10
  6
CONTINUOUS
 62
12
100
AcDbBlockEnd
  0
BLOCK
  5
16B
100
AcDbEntity
  8
MAIN10
  6
CONTINUOUS
 62
12
100
AcDbBlockBegin
  2
*D18
 70
    65
 10
0.0
 20
0.0
 30
0.0
  0
LINE
  5
16C
100
AcDbEntity
  8
MAIN10
  6
BYBLOCK
 62
0
100
AcDbLine
 10
164.5058221145337
 20
316.4911830655818
 30
0.0000000000000000
 11
164.5058221145337
 21
252.7371361132358
 31
0.0000000000000000
  0
LINE
  5
16D
100
AcDbEntity
  8
MAIN10
  6
BYBLOCK
 62
0
100
AcDbLine
 10
166.4164943023388
 20
255.7371361132358
 30
0.0000000000000000
 11
202.5951499267280
 21
255.7371361132358
 31
0.0000000000000000
  0
INSERT
  5
16E
100
AcDbEntity
  8
MAIN10
  6
BYBLOCK
 62
0
100
AcDbBlockReference
  2
_OPEN
 10
164.5058221145337
 20
255.7371361132358
 30
0.0000000000000000
 41
2.866008281707764
 42
2.866008281707764
 43
2.866008281707764
 50
180.0000000000000
  0
INSERT
  5
16F
100
AcDbEntity
  8
MAIN10
  6
BYBLOCK
 62
0
100
AcDbBlockReference
  2
_OPEN
 10
204.5058221145332
 20
255.7371361132358
 30
0.0000000000000000
 41
2.866008281707764
 42
2.866008281707764
 43
2.866008281707764
 50
0.0000000000000000
  0
LINE
  5
170
100
AcDbEntity
  8
MAIN10
  6
BYBLOCK
 62
0
100
AcDbLine
 10
204.5058221145332
 20
288.6017073664989
 30
0.0000000000000000
 11
204.5058221145332
 21
252.7371361132358
 31
0.0000000000000000
  0
MTEXT
  5
171
100
AcDbEntity
  8
MAIN10
  6
BYBLOCK
 62
0
100
AcDbMText
 10
184.5058221145334
 20
259.0621360417102
 30
0.0000000000000000
 40
4.649999856948853
 41
0.0000000000000000
 71
     5
 72
     1
  1
\A1;40
 11
1.000000000000000
 21
0.0000000000000000
 31
0.0000000000000000
  7
STANDARD
  0
ENDBLK
  5
172
100
AcDbEntity
  8
MAIN10
  6
CONTINUOUS
 62
12
100
AcDbBlockEnd
  0
BLOCK
  5
174
100
AcDbEntity
  8
MAIN10
  6
CONTINUOUS
 62
12
100
AcDbBlockBegin
  2
*D19
 70
    65
 10
0.0
 20
0.0
 30
0.0
  0
LINE
  5
175
100
AcDbEntity
  8
MAIN10
  6
BYBLOCK
 62
0
100
AcDbLine
 10
204.5058221145332
 20
288.6017073664989
 30
0.0000000000000000
 11
204.5058221145332
 21
252.7371361132358
 31
0.0000000000000000
  0
LINE
  5
176
100
AcDbEntity
  8
MAIN10
  6
BYBLOCK
 62
0
100
AcDbLine
 10
206.4164943023384
 20
255.7371361132358
 30
0.0000000000000000
 11
242.5951499267279
 21
255.7371361132358
 31
0.0000000000000000
  0
INSERT
  5
177
100
AcDbEntity
  8
MAIN10
  6
BYBLOCK
 62
0
100
AcDbBlockReference
  2
_OPEN
 10
204.5058221145332
 20
255.7371361132358
 30
0.0000000000000000
 41
2.866008281707764
 42
2.866008281707764
 43
2.866008281707764
 50
180.0000000000000
  0
INSERT
  5
178
100
AcDbEntity
  8
MAIN10
  6
BYBLOCK
 62
0
100
AcDbBlockReference
  2
_OPEN
 10
244.5058221145331
 20
255.7371361132358
 30
0.0000000000000000
 41
2.866008281707764
 42
2.866008281707764
 43
2.866008281707764
 50
0.0000000000000000
  0
LINE
  5
179
100
AcDbEntity
  8
MAIN10
  6
BYBLOCK
 62
0
100
AcDbLine
 10
244.5058221145331
 20
316.4911830655818
 30
0.0000000000000000
 11
244.5058221145331
 21
252.7371361132358
 31
0.0000000000000000
  0
MTEXT
  5
17A
100
AcDbEntity
  8
MAIN10
  6
BYBLOCK
 62
0
100
AcDbMText
 10
224.5058221145332
 20
259.0621360417102
 30
0.0000000000000000
 40
4.649999856948853
 41
0.0000000000000000
 71
     5
 72
     1
  1
\A1;40
 11
1.000000000000000
 21
0.0000000000000000
 31
0.0000000000000000
  7
STANDARD
  0
ENDBLK
  5
17B
100
AcDbEntity
  8
MAIN10
  6
CONTINUOUS
 62
12
100
AcDbBlockEnd
  0
BLOCK
  5
17D
100
AcDbEntity
  8
MAIN10
  6
CONTINUOUS
 62
12
100
AcDbBlockBegin
  2
*D20
 70
    65
 10
0.0
 20
0.0
 30
0.0
  0
LINE
  5
17E
100
AcDbEntity
  8
MAIN10
  6
BYBLOCK
 62
0
100
AcDbLine
 10
469.4865521235859
 20
389.4454988600217
 30
0.0000000000000000
 11
469.4865521235859
 21
504.2454988421404
 31
0.0000000000000000
  0
LINE
  5
17F
100
AcDbEntity
  8
MAIN10
  6
BYBLOCK
 62
0
100
AcDbLine
 10
471.3972243113910
 20
501.2454988421404
 30
0.0000000000000000
 11
477.5758799357828
 21
501.2454988421404
 31
0.0000000000000000
  0
INSERT
  5
180
100
AcDbEntity
  8
MAIN10
  6
BYBLOCK
 62
0
100
AcDbBlockReference
  2
_OPEN
 10
469.4865521235859
 20
501.2454988421404
 30
0.0000000000000000
 41
2.866008281707764
 42
2.866008281707764
 43
2.866008281707764
 50
180.0000000000000
  0
INSERT
  5
181
100
AcDbEntity
  8
MAIN10
  6
BYBLOCK
 62
0
100
AcDbBlockReference
  2
_OPEN
 10
479.4865521235880
 20
501.2454988421404
 30
0.0000000000000000
 41
2.866008281707764
 42
2.866008281707764
 43
2.866008281707764
 50
0.0000000000000000
  0
LINE
  5
182
100
AcDbEntity
  8
MAIN10
  6
BYBLOCK
 62
0
100
AcDbLine
 10
469.4865521235859
 20
501.2454988421404
 30
0.0000000000000000
 11
446.2365617013073
 21
501.2454988421404
 31
0.0000000000000000
  0
LINE
  5
183
100
AcDbEntity
  8
MAIN10
  6
BYBLOCK
 62
0
100
AcDbLine
 10
479.4865521235880
 20
347.2172066605868
 30
0.0000000000000000
 11
479.4865521235880
 21
504.2454988421404
 31
0.0000000000000000
  0
MTEXT
  5
184
100
AcDbEntity
  8
MAIN10
  6
BYBLOCK
 62
0
100
AcDbMText
 10
455.6115617013073
 20
502.7454988421404
 30
0.0000000000000000
 40
4.649999856948853
 41
0.0000000000000000
 71
     1
 72
     1
  1
\A1;MIN 10
 11
1.000000000000000
 21
0.0000000000000000
 31
0.0000000000000000
  7
STANDARD
  0
ENDBLK
  5
185
100
AcDbEntity
  8
MAIN10
  6
CONTINUOUS
 62
12
100
AcDbBlockEnd
  0
BLOCK
  5
187
100
AcDbEntity
  8
MAIN10
  6
CONTINUOUS
 62
12
100
AcDbBlockBegin
  2
*D21
 70
    65
 10
0.0
 20
0.0
 30
0.0
  0
LINE
  5
188
100
AcDbEntity
  8
MAIN10
  6
BYBLOCK
 62
0
100
AcDbLine
 10
385.4865521235884
 20
387.9454988600218
 30
0.0000000000000000
 11
385.4865521235884
 21
534.2454988421404
 31
0.0000000000000000
  0
LINE
  5
189
100
AcDbEntity
  8
MAIN10
  6
BYBLOCK
 62
0
100
AcDbLine
 10
387.3972243113935
 20
531.2454988421404
 30
0.0000000000000000
 11
671.5758799357831
 21
531.2454988421404
 31
0.0000000000000000
  0
INSERT
  5
18A
100
AcDbEntity
  8
MAIN10
  6
BYBLOCK
 62
0
100
AcDbBlockReference
  2
_OPEN
 10
385.4865521235884
 20
531.2454988421404
 30
0.0000000000000000
 41
2.866008281707764
 42
2.866008281707764
 43
2.866008281707764
 50
180.0000000000000
  0
INSERT
  5
18B
100
AcDbEntity
  8
MAIN10
  6
BYBLOCK
 62
0
100
AcDbBlockReference
  2
_OPEN
 10
673.4865521235882
 20
531.2454988421404
 30
0.0000000000000000
 41
2.866008281707764
 42
2.866008281707764
 43
2.866008281707764
 50
0.0000000000000000
  0
LINE
  5
18C
100
AcDbEntity
  8
MAIN10
  6
BYBLOCK
 62
0
100
AcDbLine
 10
673.4865521235882
 20
465.4454988600218
 30
0.0000000000000000
 11
673.4865521235882
 21
534.2454988421404
 31
0.0000000000000000
  0
MTEXT
  5
18D
100
AcDbEntity
  8
MAIN10
  6
BYBLOCK
 62
0
100
AcDbMText
 10
529.4865521235884
 20
534.5704987706148
 30
0.0000000000000000
 40
4.649999856948853
 41
0.0000000000000000
 71
     5
 72
     1
  1
\A1;288
 11
1.000000000000000
 21
0.0000000000000000
 31
0.0000000000000000
  7
STANDARD
  0
ENDBLK
  5
18E
100
AcDbEntity
  8
MAIN10
  6
CONTINUOUS
 62
12
100
AcDbBlockEnd
  0
BLOCK
  5
190
100
AcDbEntity
  8
MAIN10
  6
CONTINUOUS
 62
12
100
AcDbBlockBegin
  2
*D22
 70
    65
 10
0.0
 20
0.0
 30
0.0
  0
LINE
  5
191
100
AcDbEntity
  8
MAIN10
  6
BYBLOCK
 62
0
100
AcDbLine
 10
673.4865521235882
 20
465.4454988600218
 30
0.0000000000000000
 11
673.4865521235882
 21
534.2454988421404
 31
0.0000000000000000
  0
LINE
  5
192
100
AcDbEntity
  8
MAIN10
  6
BYBLOCK
 62
0
100
AcDbLine
 10
675.3972243113934
 20
531.2454988421404
 30
0.0000000000000000
 11
740.5758799357827
 21
531.2454988421404
 31
0.0000000000000000
  0
INSERT
  5
193
100
AcDbEntity
  8
MAIN10
  6
BYBLOCK
 62
0
100
AcDbBlockReference
  2
_OPEN
 10
673.4865521235882
 20
531.2454988421404
 30
0.0000000000000000
 41
2.866008281707764
 42
2.866008281707764
 43
2.866008281707764
 50
180.0000000000000
  0
INSERT
  5
194
100
AcDbEntity
  8
MAIN10
  6
BYBLOCK
 62
0
100
AcDbBlockReference
  2
_OPEN
 10
742.4865521235879
 20
531.2454988421404
 30
0.0000000000000000
 41
2.866008281707764
 42
2.866008281707764
 43
2.866008281707764
 50
0.0000000000000000
  0
LINE
  5
195
100
AcDbEntity
  8
MAIN10
  6
BYBLOCK
 62
0
100
AcDbLine
 10
742.4865521235879
 20
370.9454988600217
 30
0.0000000000000000
 11
742.4865521235879
 21
534.2454988421404
 31
0.0000000000000000
  0
MTEXT
  5
196
100
AcDbEntity
  8
MAIN10
  6
BYBLOCK
 62
0
100
AcDbMText
 10
707.9865521235881
 20
534.5704987706148
 30
0.0000000000000000
 40
4.649999856948853
 41
0.0000000000000000
 71
     5
 72
     1
  1
\A1;MAX 69
 11
1.000000000000000
 21
0.0000000000000000
 31
0.0000000000000000
  7
STANDARD
  0
ENDBLK
  5
197
100
AcDbEntity
  8
MAIN10
  6
CONTINUOUS
 62
12
100
AcDbBlockEnd
  0
BLOCK
  5
199
100
AcDbEntity
  8
MAIN10
  6
CONTINUOUS
 62
3
100
AcDbBlockBegin
  2
*D23
 70
    65
 10
0.0
 20
0.0
 30
0.0
  0
LINE
  5
19A
100
AcDbEntity
  8
MAIN10
  6
BYBLOCK
 62
0
100
AcDbLine
 10
742.8205267376834
 20
362.2454988421412
 30
0.0000000000000000
 11
770.4865521235879
 21
362.2454988421412
 31
0.0000000000000000
  0
LINE
  5
19B
100
AcDbEntity
  8
MAIN10
  6
BYBLOCK
 62
0
100
AcDbLine
 10
767.4865521235879
 20
359.2454988421412
 30
0.0000000000000000
 11
767.4865521235879
 21
328.2454988421399
 31
0.0000000000000000
  0
INSERT
  5
19C
100
AcDbEntity
  8
MAIN10
  6
BYBLOCK
 62
0
100
AcDbBlockReference
  2
_OPEN
 10
767.4865521235879
 20
362.2454988421412
 30
0.0000000000000000
 41
3.000000000000000
 42
3.000000000000000
 43
3.000000000000000
 50
90.00000000000000
  0
INSERT
  5
19D
100
AcDbEntity
  8
MAIN10
  6
BYBLOCK
 62
0
100
AcDbBlockReference
  2
_OPEN
 10
767.4865521235879
 20
325.2454988421399
 30
0.0000000000000000
 41
3.000000000000000
 42
3.000000000000000
 43
3.000000000000000
 50
270.0000000000000
  0
LINE
  5
19E
100
AcDbEntity
  8
MAIN10
  6
BYBLOCK
 62
0
100
AcDbLine
 10
742.8205267376834
 20
325.2454988421399
 30
0.0000000000000000
 11
770.4865521235879
 21
325.2454988421399
 31
0.0000000000000000
  0
MTEXT
  5
19F
100
AcDbEntity
  8
MAIN10
  6
BYBLOCK
 62
0
100
AcDbMText
 10
764.6615521951135
 20
343.7454988421405
 30
0.0000000000000000
 40
4.649999856948853
 41
0.0000000000000000
 71
     5
 72
     1
  1
\A1;\U+220537H8
 11
6.123233995736766e-017
 21
1.000000000000000
 31
0.0000000000000000
  7
STANDARD
  0
ENDBLK
  5
1A0
100
AcDbEntity
  8
MAIN10
  6
CONTINUOUS
 62
3
100
AcDbBlockEnd
  0
BLOCK
  5
1A2
100
AcDbEntity
  8
MAIN10
  6
CONTINUOUS
 62
3
100
AcDbBlockBegin
  2
*D24
 70
    65
 10
0.0
 20
0.0
 30
0.0
  0
LINE
  5
1A3
100
AcDbEntity
  8
MAIN10
  6
BYBLOCK
 62
0
100
AcDbLine
 10
679.6865521414698
 20
283.7454988421407
 30
0.0000000000000000
 11
800.4865521235879
 21
283.7454988421407
 31
0.0000000000000000
  0
LINE
  5
1A4
100
AcDbEntity
  8
MAIN10
  6
BYBLOCK
 62
0
100
AcDbLine
 10
797.4865521235879
 20
286.7454988421407
 30
0.0000000000000000
 11
797.4865521235879
 21
400.7454988421404
 31
0.0000000000000000
  0
INSERT
  5
1A5
100
AcDbEntity
  8
MAIN10
  6
BYBLOCK
 62
0
100
AcDbBlockReference
  2
_OPEN
 10
797.4865521235879
 20
283.7454988421407
 30
0.0000000000000000
 41
3.000000000000000
 42
3.000000000000000
 43
3.000000000000000
 50
270.0000000000000
  0
INSERT
  5
1A6
100
AcDbEntity
  8
MAIN10
  6
BYBLOCK
 62
0
100
AcDbBlockReference
  2
_OPEN
 10
797.4865521235879
 20
403.7454988421404
 30
0.0000000000000000
 41
3.000000000000000
 42
3.000000000000000
 43
3.000000000000000
 50
90.00000000000000
  0
LINE
  5
1A7
100
AcDbEntity
  8
MAIN10
  6
BYBLOCK
 62
0
100
AcDbLine
 10
679.6865521414698
 20
403.7454988421404
 30
0.0000000000000000
 11
800.4865521235879
 21
403.7454988421404
 31
0.0000000000000000
  0
MTEXT
  5
1A8
100
AcDbEntity
  8
MAIN10
  6
BYBLOCK
 62
0
100
AcDbMText
 10
794.6615521951135
 20
343.7454988421405
 30
0.0000000000000000
 40
4.649999856948853
 41
0.0000000000000000
 71
     5
 72
     1
  1
\A1;\U+2205120h7
 11
6.123233995736766e-017
 21
1.000000000000000
 31
0.0000000000000000
  7
STANDARD
  0
ENDBLK
  5
1A9
100
AcDbEntity
  8
MAIN10
  6
CONTINUOUS
 62
3
100
AcDbBlockEnd
  0
BLOCK
  5
1AB
100
AcDbEntity
  8
MAIN10
  6
CONTINUOUS
 62
3
100
AcDbBlockBegin
  2
D25
 70
    64
 10
0.0
 20
0.0
 30
0.0
  0
LINE
  5
1AC
100
AcDbEntity
  8
MAIN10
  6
BYBLOCK
 62
0
100
AcDbLine
 10
57.04457274807282
 20
10.09706122745576
 30
0.0000000000000000
 11
57.04457274807282
 21
-72.50000000000028
 31
0.0000000000000000
  0
LINE
  5
1AD
100
AcDbEntity
  8
MAIN10
  6
BYBLOCK
 62
0
100
AcDbLine
 10
57.94457278383561
 20
-69.50000000000028
 30
0.0000000000000000
 11
57.04457274807282
 21
-72.50000000000028
 31
0.0000000000000000
  0
LINE
  5
1AE
100
AcDbEntity
  8
MAIN10
  6
BYBLOCK
 62
0
100
AcDbLine
 10
57.04457274807282
 20
-72.50000000000028
 30
0.0000000000000000
 11
56.14457271231004
 21
-69.50000000000028
 31
0.0000000000000000
  0
LINE
  5
1AF
100
AcDbEntity
  8
MAIN10
  6
BYBLOCK
 62
0
100
AcDbLine
 10
-77.25517773829239
 20
-72.50000000000028
 30
0.0000000000000000
 11
60.04457274807282
 21
-72.50000000000028
 31
0.0000000000000000
  0
MTEXT
  5
1B0
100
AcDbEntity
  8
MAIN10
  6
BYBLOCK
 62
0
100
AcDbMText
 10
53.96957281959840
 20
0.5353023074057478
 30
0.0000000000000000
 40
4.649999856948853
 41
0.0000000000000000
 71
     5
 72
     1
  1
\A1;\U+2205145\H0.903226x;\U+00B10.2
 11
6.123233995736766e-017
 21
1.000000000000000
 31
0.0000000000000000
  7
STANDARD
  0
ENDBLK
  5
1B1
100
AcDbEntity
  8
MAIN10
  6
CONTINUOUS
 62
3
100
AcDbBlockEnd
  0
BLOCK
  5
1B3
100
AcDbEntity
  8
MAIN10
  6
CONTINUOUS
 62
3
100
AcDbBlockBegin
  2
*D26
 70
    65
 10
0.0
 20
0.0
 30
0.0
  0
LINE
  5
1B4
100
AcDbEntity
  8
MAIN10
  6
BYBLOCK
 62
0
100
AcDbLine
 10
672.6865521414696
 20
466.2454988421404
 30
0.0000000000000000
 11
830.4865521235879
 21
466.2454988421404
 31
0.0000000000000000
  0
LINE
  5
1B5
100
AcDbEntity
  8
MAIN10
  6
BYBLOCK
 62
0
100
AcDbLine
 10
827.4865521235879
 20
463.2454988421404
 30
0.0000000000000000
 11
827.4865521235879
 21
224.2454988421406
 31
0.0000000000000000
  0
INSERT
  5
1B6
100
AcDbEntity
  8
MAIN10
  6
BYBLOCK
 62
0
100
AcDbBlockReference
  2
_OPEN
 10
827.4865521235879
 20
466.2454988421404
 30
0.0000000000000000
 41
3.000000000000000
 42
3.000000000000000
 43
3.000000000000000
 50
90.00000000000000
  0
INSERT
  5
1B7
100
AcDbEntity
  8
MAIN10
  6
BYBLOCK
 62
0
100
AcDbBlockReference
  2
_OPEN
 10
827.4865521235879
 20
221.2454988421406
 30
0.0000000000000000
 41
3.000000000000000
 42
3.000000000000000
 43
3.000000000000000
 50
270.0000000000000
  0
LINE
  5
1B8
100
AcDbEntity
  8
MAIN10
  6
BYBLOCK
 62
0
100
AcDbLine
 10
672.6865521414696
 20
221.2454988421407
 30
0.0000000000000000
 11
830.4865521235879
 21
221.2454988421406
 31
0.0000000000000000
  0
MTEXT
  5
1B9
100
AcDbEntity
  8
MAIN10
  6
BYBLOCK
 62
0
100
AcDbMText
 10
824.6615521951135
 20
343.7454988421405
 30
0.0000000000000000
 40
4.649999856948853
 41
0.0000000000000000
 71
     5
 72
     1
  1
\A1;\U+2205245
 11
6.123233995736766e-017
 21
1.000000000000000
 31
0.0000000000000000
  7
STANDARD
  0
ENDBLK
  5
1BA
100
AcDbEntity
  8
MAIN10
  6
CONTINUOUS
 62
3
100
AcDbBlockEnd
  0
BLOCK
  5
1CB
100
AcDbEntity
  8
MAIN10
  6
CONTINUOUS
 62
3
100
AcDbBlockBegin
  2
*D27
 70
    65
 10
0.0
 20
0.0
 30
0.0
  0
LINE
  5
1CC
100
AcDbEntity
  8
MAIN10
  6
BYBLOCK
 62
0
100
AcDbLine
 10
434.4865521235873
 20
374.9454988600213
 30
0.0000000000000000
 11
434.4865521235873
 21
378.7454988421405
 31
0.0000000000000000
  0
LINE
  5
1CD
100
AcDbEntity
  8
MAIN10
  6
BYBLOCK
 62
0
100
AcDbLine
 10
434.4865521235873
 20
375.7454988421405
 30
0.0000000000000000
 11
438.4865521235873
 21
375.7454988421405
 31
0.0000000000000000
  0
INSERT
  5
1CE
100
AcDbEntity
  8
MAIN10
  6
BYBLOCK
 62
0
100
AcDbBlockReference
  2
_OPEN
 10
434.4865521235873
 20
375.7454988421405
 30
0.0000000000000000
 41
3.000000000000000
 42
3.000000000000000
 43
3.000000000000000
 50
0.0000000000000000
  0
INSERT
  5
1CF
100
AcDbEntity
  8
MAIN10
  6
BYBLOCK
 62
0
100
AcDbBlockReference
  2
_DOT
 10
439.4865521235873
 20
375.7454988421405
 30
0.0000000000000000
 41
1.500000000000000
 42
1.500000000000000
 43
1.500000000000000
 50
0.0000000000000000
  0
LINE
  5
1D0
100
AcDbEntity
  8
MAIN10
  6
BYBLOCK
 62
0
100
AcDbLine
 10
431.4865521235873
 20
375.7454988421405
 30
0.0000000000000000
 11
427.6598122618484
 21
375.7454988421405
 31
0.0000000000000000
  0
LINE
  5
1D1
100
AcDbEntity
  8
MAIN10
  6
BYBLOCK
 62
0
100
AcDbLine
 10
439.4865521235873
 20
374.9454988600213
 30
0.0000000000000000
 11
439.4865521235873
 21
378.7454988421405
 31
0.0000000000000000
  0
MTEXT
  5
1D2
100
AcDbEntity
  8
MAIN10
  6
BYBLOCK
 62
0
100
AcDbMText
 10
429.1598122618484
 20
378.8204987706150
 30
0.0000000000000000
 40
4.649999856948853
 41
0.0000000000000000
 71
     5
 72
     1
  1
\A1;5
 11
1.000000000000000
 21
0.0000000000000000
 31
0.0000000000000000
  7
STANDARD
  0
ENDBLK
  5
1D3
100
AcDbEntity
  8
MAIN10
  6
CONTINUOUS
 62
3
100
AcDbBlockEnd
  0
BLOCK
  5
1D5
100
AcDbEntity
  8
MAIN10
  6
CONTINUOUS
 62
3
100
AcDbBlockBegin
  2
*D28
 70
    65
 10
0.0
 20
0.0
 30
0.0
  0
LINE
  5
1D6
100
AcDbEntity
  8
MAIN10
  6
BYBLOCK
 62
0
100
AcDbLine
 10
439.4865521235873
 20
374.9454988600213
 30
0.0000000000000000
 11
439.4865521235873
 21
378.7454988421405
 31
0.0000000000000000
  0
LINE
  5
1D7
100
AcDbEntity
  8
MAIN10
  6
BYBLOCK
 62
0
100
AcDbLine
 10
440.4865521235873
 20
375.7454988421405
 30
0.0000000000000000
 11
442.4865521235873
 21
375.7454988421405
 31
0.0000000000000000
  0
INSERT
  5
1D8
100
AcDbEntity
  8
MAIN10
  6
BYBLOCK
 62
0
100
AcDbBlockReference
  2
_DOT
 10
439.4865521235873
 20
375.7454988421405
 30
0.0000000000000000
 41
1.500000000000000
 42
1.500000000000000
 43
1.500000000000000
 50
180.0000000000000
  0
INSERT
  5
1D9
100
AcDbEntity
  8
MAIN10
  6
BYBLOCK
 62
0
100
AcDbBlockReference
  2
_OPEN
 10
442.4865521235873
 20
375.7454988421405
 30
0.0000000000000000
 41
3.000000000000000
 42
3.000000000000000
 43
3.000000000000000
 50
180.0000000000000
  0
LINE
  5
1DA
100
AcDbEntity
  8
MAIN10
  6
BYBLOCK
 62
0
100
AcDbLine
 10
445.4865521235873
 20
375.7454988421405
 30
0.0000000000000000
 11
447.6138307761468
 21
375.7454988421405
 31
0.0000000000000000
  0
LINE
  5
1DB
100
AcDbEntity
  8
MAIN10
  6
BYBLOCK
 62
0
100
AcDbLine
 10
442.4865521235873
 20
382.5454988242590
 30
0.0000000000000000
 11
442.4865521235873
 21
372.7454988421405
 31
0.0000000000000000
  0
MTEXT
  5
1DC
100
AcDbEntity
  8
MAIN10
  6
BYBLOCK
 62
0
100
AcDbMText
 10
446.1138307761468
 20
378.8204987706150
 30
0.0000000000000000
 40
4.649999856948853
 41
0.0000000000000000
 71
     5
 72
     1
  1
\A1;3
 11
1.000000000000000
 21
0.0000000000000000
 31
0.0000000000000000
  7
STANDARD
  0
ENDBLK
  5
1DD
100
AcDbEntity
  8
MAIN10
  6
CONTINUOUS
 62
3
100
AcDbBlockEnd
  0
BLOCK
  5
368
100
AcDbEntity
  8
A0
  6
BYBLOCK
 62
3
100
AcDbBlockBegin
  2
M0
 70
    64
 10
0.0
 20
0.0
 30
0.0
  0
LINE
  5
369
100
AcDbEntity
  8
A0
  6
BYBLOCK
 62
0
100
AcDbLine
 10
203.2949445507296
 20
108.3371817560812
 30
0.0000000000000000
 11
280.2949445507296
 21
108.3371817560812
 31
0.0000000000000000
  0
LINE
  5
36A
100
AcDbEntity
  8
A0
  6
BYBLOCK
 62
0
100
AcDbLine
 10
203.2949445507296
 20
101.3371817560812
 30
0.0000000000000000
 11
280.2949445507296
 21
101.3371817560812
 31
0.0000000000000000
  0
LINE
  5
36B
100
AcDbEntity
  8
A0
  6
BYBLOCK
 62
0
100
AcDbLine
 10
203.2949445507296
 20
15.83718175608118
 30
0.0000000000000000
 11
203.2949445507296
 21
108.3371817560812
 31
0.0000000000000000
  0
LINE
  5
36C
100
AcDbEntity
  8
A0
  6
BYBLOCK
 62
0
100
AcDbLine
 10
203.2949445507296
 20
94.33718175608118
 30
0.0000000000000000
 11
280.2949445507295
 21
94.33718175608118
 31
0.0000000000000000
  0
LINE
  5
36D
100
AcDbEntity
  8
A0
  6
BYBLOCK
 62
0
100
AcDbLine
 10
203.2949445507296
 20
87.33718175608118
 30
0.0000000000000000
 11
280.2949445507295
 21
87.33718175608118
 31
0.0000000000000000
  0
LINE
  5
36E
100
AcDbEntity
  8
A0
  6
BYBLOCK
 62
0
100
AcDbLine
 10
246.2781329190029
 20
77.33718175608118
 30
0.0000000000000000
 11
280.2949445507295
 21
77.33718175608118
 31
0.0000000000000000
  0
LINE
  5
36F
100
AcDbEntity
  8
A0
  6
BYBLOCK
 62
0
100
AcDbLine
 10
203.2949445507296
 20
67.33718175608118
 30
0.0000000000000000
 11
280.2949445507295
 21
67.33718175608118
 31
0.0000000000000000
  0
LINE
  5
370
100
AcDbEntity
  8
A0
  6
BYBLOCK
 62
0
100
AcDbLine
 10
203.2949445507296
 20
57.33718175608118
 30
0.0000000000000000
 11
280.2949445507295
 21
57.33718175608118
 31
0.0000000000000000
  0
LINE
  5
371
100
AcDbEntity
  8
A0
  6
BYBLOCK
 62
0
100
AcDbLine
 10
203.2949445507296
 20
50.33718175608118
 30
0.0000000000000000
 11
280.2949445507295
 21
50.33718175608118
 31
0.0000000000000000
  0
LINE
  5
372
100
AcDbEntity
  8
A0
  6
BYBLOCK
 62
0
100
AcDbLine
 10
203.2949445507296
 20
43.33718175608118
 30
0.0000000000000000
 11
280.2949445507295
 21
43.33718175608118
 31
0.0000000000000000
  0
LINE
  5
373
100
AcDbEntity
  8
A0
  6
BYBLOCK
 62
0
100
AcDbLine
 10
203.2949445507296
 20
33.33718175608118
 30
0.0000000000000000
 11
280.2949445507295
 21
33.33718175608118
 31
0.0000000000000000
  0
LINE
  5
374
100
AcDbEntity
  8
A0
  6
BYBLOCK
 62
0
100
AcDbLine
 10
203.2949445507296
 20
15.83718175608118
 30
0.0000000000000000
 11
280.2949445507296
 21
15.83718175608092
 31
0.0000000000000000
  0
LINE
  5
375
100
AcDbEntity
  8
A0
  6
BYBLOCK
 62
0
100
AcDbLine
 10
250.2949445507294
 20
15.83718175608107
 30
0.0000000000000000
 11
250.2949445507294
 21
101.3371817560812
 31
0.0000000000000000
  0
LINE
  5
376
100
AcDbEntity
  8
A0
  6
BYBLOCK
 62
0
100
AcDbLine
 10
280.2949445507295
 20
15.83718175608095
 30
0.0000000000000000
 11
280.2949445507295
 21
108.3371817560812
 31
0.0000000000000000
  0
LINE
  5
377
100
AcDbEntity
  8
A0
  6
BYBLOCK
 62
0
100
AcDbLine
 10
203.2949445507296
 20
26.33718175608118
 30
0.0000000000000000
 11
280.2949445507295
 21
26.33718175608118
 31
0.0000000000000000
  0
MTEXT
  5
378
100
AcDbEntity
  8
A0
  6
BYBLOCK
 62
0
100
AcDbMText
 10
205.2949445507296
 20
55.33718175608129
 30
0.0000000000000000
 40
3.000000000000000
 41
0.0000000000000000
 71
     1
 72
     1
  1
{\H0.93x;MAX. SPEED}
 11
1.000000000000000
 21
0.0000000000000000
 31
0.0000000000000000
  7
STANDARD
  0
MTEXT
  5
379
100
AcDbEntity
  8
A0
  6
BYBLOCK
 62
0
100
AcDbMText
 10
205.2949445507296
 20
48.33718175608129
 30
0.0000000000000000
 40
3.000000000000000
 41
0.0000000000000000
 71
     1
 72
     1
  1
{\H0.91x;MASS}
 11
1.000000000000000
 21
0.0000000000000000
 31
0.0000000000000000
  7
STANDARD
  0
MTEXT
  5
37A
100
AcDbEntity
  8
A0
  6
BYBLOCK
 62
0
100
AcDbMText
 10
205.2949445507296
 20
39.83718175608124
 30
0.0000000000000000
 40
3.000000000000000
 41
0.0000000000000000
 71
     1
 72
     1
  1
{\H0.59x;ＭＯＭＥＮＴ　ＯＦ　ＩＮＥＲＴＩＡ}
 11
1.000000000000000
 21
0.0000000000000000
 31
0.0000000000000000
  7
KNJYOKO
  0
MTEXT
  5
37B
100
AcDbEntity
  8
A0
  6
BYBLOCK
 62
0
100
AcDbMText
 10
265.2949445507294
 20
98.13718099314158
 30
0.0000000000000000
 40
2.799999237060547
 41
0.0000000000000000
 71
     1
 72
     1
  1
{\H0.62x;　　　　mm}
 11
1.000000000000000
 21
0.0000000000000000
 31
0.0000000000000000
  7
KNJYOKO
  0
MTEXT
  5
37C
100
AcDbEntity
  8
A0
  6
BYBLOCK
 62
0
100
AcDbMText
 10
265.2949445507294
 20
40.63718099314161
 30
0.0000000000000000
 40
2.799999237060547
 41
0.0000000000000000
 71
     1
 72
     1
  1
{\H0.64x;　　kg・m}
 11
1.000000000000000
 21
0.0000000000000000
 31
0.0000000000000000
  7
KNJYOKO
  0
MTEXT
  5
37D
100
AcDbEntity
  8
A0
  6
BYBLOCK
 62
0
100
AcDbMText
 10
265.2949445507294
 20
47.13718099314161
 30
0.0000000000000000
 40
2.799999237060547
 41
0.0000000000000000
 71
     1
 72
     1
  1
{\H0.62x;　　　　kg}
 11
1.000000000000000
 21
0.0000000000000000
 31
0.0000000000000000
  7
KNJYOKO
  0
MTEXT
  5
37E
100
AcDbEntity
  8
A0
  6
BYBLOCK
 62
0
100
AcDbMText
 10
208.5449445507296
 20
107.4871818514486
 30
0.0000000000000000
 40
5.300000190734863
 41
0.0000000000000000
 71
     1
 72
     1
  1
{\H0.94x;SPECIFICATIONS}
 11
1.000000000000000
 21
0.0000000000000000
 31
0.0000000000000000
  7
STANDARD
  0
MTEXT
  5
37F
100
AcDbEntity
  8
A0
  6
BYBLOCK
 62
0
100
AcDbMText
 10
205.2949445507296
 20
99.33718175608118
 30
0.0000000000000000
 40
3.000000000000000
 41
0.0000000000000000
 71
     1
 72
     1
  1
{\H0.93x;PISTON DIA}
 11
1.000000000000000
 21
0.0000000000000000
 31
0.0000000000000000
  7
STANDARD
  0
MTEXT
  5
380
100
AcDbEntity
  8
A0
  6
BYBLOCK
 62
0
100
AcDbMText
 10
205.2949445507296
 20
92.33718175608141
 30
0.0000000000000000
 40
3.000000000000000
 41
0.0000000000000000
 71
     1
 72
     1
  1
{\H0.93x;PISTON STROKE}
 11
1.000000000000000
 21
0.0000000000000000
 31
0.0000000000000000
  7
STANDARD
  0
MTEXT
  5
381
100
AcDbEntity
  8
A0
  6
BYBLOCK
 62
0
100
AcDbMText
 10
205.2949445507296
 20
83.33718175608141
 30
0.0000000000000000
 40
3.000000000000000
 41
0.0000000000000000
 71
     1
 72
     1
  1
{\H0.93x;PISTON THRUST}
 11
1.000000000000000
 21
0.0000000000000000
 31
0.0000000000000000
  7
STANDARD
  0
MTEXT
  5
382
100
AcDbEntity
  8
A0
  6
BYBLOCK
 62
0
100
AcDbMText
 10
203.2949445507296
 20
77.33718175608129
 30
0.0000000000000000
 40
3.000000000000000
 41
0.0000000000000000
 71
     1
 72
     1
  1
{\H0.94x;(AT  　 　　　　　)}
 11
1.000000000000000
 21
0.0000000000000000
 31
0.0000000000000000
  7
KNJYOKO
  0
MTEXT
  5
383
100
AcDbEntity
  8
A0
  6
BYBLOCK
 62
0
100
AcDbMText
 10
205.2949445507296
 20
24.33718175608124
 30
0.0000000000000000
 40
3.000000000000000
 41
0.0000000000000000
 71
     1
 72
     1
  1
{\H0.93x;OIL LEAKAGE}
 11
1.000000000000000
 21
0.0000000000000000
 31
0.0000000000000000
  7
STANDARD
  0
MTEXT
  5
384
100
AcDbEntity
  8
A0
  6
BYBLOCK
 62
0
100
AcDbMText
 10
242.5780552925451
 20
83.57347193679146
 30
0.0000000000000000
 40
3.000000000000000
 41
0.0000000000000000
 71
     1
 72
     1
  1
{\H0.63x;PUSH}
 11
1.000000000000000
 21
0.0000000000000000
 31
0.0000000000000000
  7
STANDARD
  0
MTEXT
  5
385
100
AcDbEntity
  8
A0
  6
BYBLOCK
 62
0
100
AcDbMText
 10
242.5780552925451
 20
73.57347193679135
 30
0.0000000000000000
 40
3.000000000000000
 41
0.0000000000000000
 71
     1
 72
     1
  1
{\H0.63x;PULL}
 11
1.000000000000000
 21
0.0000000000000000
 31
0.0000000000000000
  7
STANDARD
  0
MTEXT
  5
386
100
AcDbEntity
  8
A0
  6
BYBLOCK
 62
0
100
AcDbMText
 10
205.2949445507296
 20
19.83718175608124
 30
0.0000000000000000
 40
2.000000000000000
 41
0.0000000000000000
 71
     1
 72
     1
  1
{\H0.94x;ISO,VG 32,50℃,3.0MPa}
 11
1.000000000000000
 21
0.0000000000000000
 31
0.0000000000000000
  7
KNJYOKO
  0
MTEXT
  5
387
100
AcDbEntity
  8
A0
  6
BYBLOCK
 62
0
100
AcDbMText
 10
265.2949445507294
 20
19.63718099314161
 30
0.0000000000000000
 40
2.799999237060547
 41
0.0000000000000000
 71
     1
 72
     1
  1
{\H0.69x;　L/min}
 11
1.000000000000000
 21
0.0000000000000000
 31
0.0000000000000000
  7
KNJYOKO
  0
MTEXT
  5
388
100
AcDbEntity
  8
A0
  6
BYBLOCK
 62
0
100
AcDbMText
 10
205.2949445507296
 20
63.83718175608129
 30
0.0000000000000000
 40
3.000000000000000
 41
0.0000000000000000
 71
     1
 72
     1
  1
{\H0.63x;MAX. OPERATING PRESSURE}
 11
1.000000000000000
 21
0.0000000000000000
 31
0.0000000000000000
  7
STANDARD
  0
MTEXT
  5
389
100
AcDbEntity
  8
A0
  6
BYBLOCK
 62
0
100
AcDbMText
 10
277.2054905253529
 20
40.89275158427341
 30
0.0000000000000000
 40
2.000000000000000
 41
0.0000000000000000
 71
     1
 72
     1
  1
{\H0.81x;2}
 11
1.000000000000000
 21
0.0000000000000000
 31
0.0000000000000000
  7
STANDARD
  0
MTEXT
  5
38A
100
AcDbEntity
  8
A0
  6
BYBLOCK
 62
0
100
AcDbMText
 10
265.2949445507294
 20
64.63718099314161
 30
0.0000000000000000
 40
2.799999237060547
 41
0.0000000000000000
 71
     1
 72
     1
  1
{\H0.64x;　　　MPa}
 11
1.000000000000000
 21
0.0000000000000000
 31
0.0000000000000000
  7
KNJYOKO
  0
MTEXT
  5
38B
100
AcDbEntity
  8
A0
  6
BYBLOCK
 62
0
100
AcDbMText
 10
226.2126375060981
 20
77.13718099314185
 30
0.0000000000000000
 40
2.799999237060547
 41
0.0000000000000000
 71
     1
 72
     1
  1
{\H0.64x;　　　MPa}
 11
1.000000000000000
 21
0.0000000000000000
 31
0.0000000000000000
  7
KNJYOKO
  0
MTEXT
  5
38C
100
AcDbEntity
  8
A0
  6
BYBLOCK
 62
0
100
AcDbMText
 10
265.2949445507294
 20
84.63718099314173
 30
0.0000000000000000
 40
2.799999237060547
 41
0.0000000000000000
 71
     1
 72
     1
  1
{\H0.62x;　　　　kN}
 11
1.000000000000000
 21
0.0000000000000000
 31
0.0000000000000000
  7
KNJYOKO
  0
MTEXT
  5
38D
100
AcDbEntity
  8
A0
  6
BYBLOCK
 62
0
100
AcDbMText
 10
265.2949445507294
 20
54.13718099314161
 30
0.0000000000000000
 40
2.799999237060547
 41
0.0000000000000000
 71
     1
 72
     1
  1
{\H0.65x;　　min}
 11
1.000000000000000
 21
0.0000000000000000
 31
0.0000000000000000
  7
KNJYOKO
  0
MTEXT
  5
38E
100
AcDbEntity
  8
A0
  6
BYBLOCK
 62
0
100
AcDbMText
 10
275.4496127990494
 20
54.80672554603638
 30
0.0000000000000000
 40
2.000000000000000
 41
0.0000000000000000
 71
     1
 72
     1
  1
{\H0.88x;-1}
 11
1.000000000000000
 21
0.0000000000000000
 31
0.0000000000000000
  7
STANDARD
  0
MTEXT
  5
38F
100
AcDbEntity
  8
A0
  6
BYBLOCK
 62
0
100
AcDbMText
 10
265.2949445507294
 20
91.13718099314173
 30
0.0000000000000000
 40
2.799999237060547
 41
0.0000000000000000
 71
     1
 72
     1
  1
{\H0.62x;　　　　mm}
 11
1.000000000000000
 21
0.0000000000000000
 31
0.0000000000000000
  7
KNJYOKO
  0
MTEXT
  5
390
100
AcDbEntity
  8
A0
  6
BYBLOCK
 62
0
100
AcDbMText
 10
265.2949445507294
 20
74.63718099314161
 30
0.0000000000000000
 40
2.799999237060547
 41
0.0000000000000000
 71
     1
 72
     1
  1
{\H0.62x;　　　　kN}
 11
1.000000000000000
 21
0.0000000000000000
 31
0.0000000000000000
  7
KNJYOKO
  0
ENDBLK
  5
391
100
AcDbEntity
  8
A0
  6
BYBLOCK
 62
3
100
AcDbBlockEnd
  0
ENDSEC
  0
SECTION
  2
ENTITIES
  0
LINE
  5
46
100
AcDbEntity
  8
MAIN0
  6
CONTINUOUS
 62
3
100
AcDbLine
 10
551.4865521235884
 20
222.2454988421407
 30
0.0000000000000000
 11
551.4865521235884
 21
465.2454988421404
 31
0.0000000000000000
  0
LINE
  5
47
100
AcDbEntity
  8
MAIN0
  6
CONTINUOUS
 62
3
100
AcDbLine
 10
526.4865521235881
 20
307.7454988421405
 30
0.0000000000000000
 11
526.4865521235881
 21
379.7454988421405
 31
0.0000000000000000
  0
LINE
  5
48
100
AcDbEntity
  8
MAIN0
  6
CONTINUOUS
 62
3
100
AcDbLine
 10
673.4865521235882
 20
369.4113151091677
 30
0.0000000000000000
 11
673.4865521235882
 21
464.2454988421404
 31
0.0000000000000000
  0
LINE
  5
49
100
AcDbEntity
  8
MAIN0
  6
CONTINUOUS
 62
3
100
AcDbLine
 10
673.4865521235882
 20
223.2454988421407
 30
0.0000000000000000
 11
673.4865521235882
 21
283.7454988421407
 31
0.0000000000000000
  0
LINE
  5
4A
100
AcDbEntity
  8
MAIN0
  6
CONTINUOUS
 62
3
100
AcDbLine
 10
673.4865521235881
 20
291.7070671734888
 30
0.0000000000000000
 11
673.4865521235882
 21
311.8060366035387
 31
0.0000000000000000
  0
LINE
  5
4B
100
AcDbEntity
  8
MAIN0
  6
CENTER
 62
12
100
AcDbLine
 10
204.5058221145332
 20
289.8017073843803
 30
0.0000000000000000
 11
204.5058221145332
 21
422.4514761997344
 31
0.0000000000000000
  0
LINE
  5
4C
100
AcDbEntity
  8
MAIN0
  6
CENTER
 62
12
100
AcDbLine
 10
154.8012162652677
 20
343.7454988421405
 30
0.0000000000000000
 11
249.8135179647615
 21
343.7454988421405
 31
0.0000000000000000
  0
LINE
  5
4D
100
AcDbEntity
  8
MAIN0
  6
CENTER
 62
12
100
AcDbLine
 10
371.2188455762698
 20
343.7454988421405
 30
0.0000000000000000
 11
755.4419793755151
 21
343.7454988421405
 31
0.0000000000000000
  0
LINE
  5
4E
100
AcDbEntity
  8
MAIN0
  6
CONTINUOUS
 62
3
100
AcDbLine
 10
440.4865521235882
 20
351.2454988421405
 30
0.0000000000000000
 11
441.8444615678015
 21
351.2454988421405
 31
0.0000000000000000
  0
LINE
  5
4F
100
AcDbEntity
  8
MAIN0
  6
CONTINUOUS
 62
3
100
AcDbLine
 10
440.4865521235882
 20
336.2454988421405
 30
0.0000000000000000
 11
441.2437421791602
 21
336.2454988421405
 31
0.0000000000000000
  0
LINE
  5
50
100
AcDbEntity
  8
MAIN0
  6
CONTINUOUS
 62
3
100
AcDbLine
 10
440.4865521235882
 20
332.2454988421406
 30
0.0000000000000000
 11
440.4865521235882
 21
336.2454988421405
 31
0.0000000000000000
  0
LINE
  5
51
100
AcDbEntity
  8
MAIN0
  6
CONTINUOUS
 62
3
100
AcDbLine
 10
440.4865521235882
 20
351.2454988421405
 30
0.0000000000000000
 11
440.4865521235882
 21
355.2454988421405
 31
0.0000000000000000
  0
LINE
  5
52
100
AcDbEntity
  8
MAIN0
  6
CENTER
 62
12
100
AcDbLine
 10
220.2946511652767
 20
459.2800554362773
 30
0.0000000000000000
 11
337.8606510786496
 21
527.1568171338108
 31
0.0000000000000000
  0
LINE
  5
53
100
AcDbEntity
  8
MAIN0
  6
CENTER
 62
12
100
AcDbLine
 10
126.5132645303311
 20
422.4514761997344
 30
0.0000000000000000
 11
126.5132645303311
 21
567.2547724135470
 31
0.0000000000000000
  0
LINE
  5
54
100
AcDbEntity
  8
MAIN0
  6
CENTER
 62
12
100
AcDbLine
 10
220.2946511652767
 20
459.2800554362773
 30
0.0000000000000000
 11
266.3753744153373
 21
379.4659015176516
 31
0.0000000000000000
  0
LINE
  5
55
100
AcDbEntity
  8
MAIN0
  6
CENTER
 62
12
100
AcDbLine
 10
126.5132645303311
 20
422.4514761997344
 30
0.0000000000000000
 11
204.5058221145332
 21
422.4514761997344
 31
0.0000000000000000
  0
LINE
  5
56
100
AcDbEntity
  8
MAIN0
  6
CONTINUOUS
 62
3
100
AcDbLine
 10
106.0132645303310
 20
448.2464163441623
 30
0.0000000000000000
 11
126.5132645303310
 21
448.2464163441623
 31
0.0000000000000000
  0
LINE
  5
57
100
AcDbEntity
  8
MAIN0
  6
CENTER
 62
12
100
AcDbLine
 10
106.0132645303311
 20
554.2464163441623
 30
0.0000000000000000
 11
126.5132645303311
 21
554.2464163441623
 31
0.0000000000000000
  0
LINE
  5
58
100
AcDbEntity
  8
MAIN0
  6
CENTER
 62
12
100
AcDbLine
 10
223.0452853236698
 20
484.5394958448424
 30
0.0000000000000000
 11
233.2952853236698
 21
466.7859750672614
 31
0.0000000000000000
  0
LINE
  5
59
100
AcDbEntity
  8
MAIN0
  6
CONTINUOUS
 62
3
100
AcDbLine
 10
314.8439781248203
 20
537.5394958448426
 30
0.0000000000000000
 11
335.3439781248203
 21
502.0324542896805
 31
0.0000000000000000
  0
LINE
  5
5A
100
AcDbEntity
  8
MAIN0
  6
CONTINUOUS
 62
3
100
AcDbLine
 10
106.0132645303311
 20
508.2464163441623
 30
0.0000000000000000
 11
126.5132645303311
 21
508.2464163441623
 31
0.0000000000000000
  0
LINE
  5
5B
100
AcDbEntity
  8
MAIN0
  6
CONTINUOUS
 62
3
100
AcDbLine
 10
262.8824538977539
 20
507.5394958448424
 30
0.0000000000000000
 11
283.3824538977539
 21
472.0324542896804
 31
0.0000000000000000
  0
LINE
  5
5C
100
AcDbEntity
  8
MAIN0
  6
CENTER
 62
12
100
AcDbLine
 10
115.2266136901599
 20
487.2464163441623
 30
0.0000000000000000
 11
131.0365056712253
 21
487.2464163441623
 31
0.0000000000000000
  0
LINE
  5
5D
100
AcDbEntity
  8
MAIN0
  6
CENTER
 62
12
100
AcDbLine
 10
104.0132645303311
 20
501.2464163441623
 30
0.0000000000000000
 11
117.8483305528644
 21
501.2464163441623
 31
0.0000000000000000
  0
LINE
  5
5E
100
AcDbEntity
  8
MAIN0
  6
CENTER
 62
12
100
AcDbLine
 10
104.0132645303311
 20
455.2464163441623
 30
0.0000000000000000
 11
117.9277797370523
 21
455.2464163441623
 31
0.0000000000000000
  0
LINE
  5
5F
100
AcDbEntity
  8
MAIN0
  6
CENTER
 62
12
100
AcDbLine
 10
110.5132645303311
 20
449.5658886387372
 30
0.0000000000000000
 11
110.5132645303311
 21
510.0593480240556
 31
0.0000000000000000
  0
LINE
  5
60
100
AcDbEntity
  8
MAIN0
  6
CENTER
 62
12
100
AcDbLine
 10
115.2266136901599
 20
533.2464163441623
 30
0.0000000000000000
 11
131.4337515921616
 21
533.2464163441623
 31
0.0000000000000000
  0
LINE
  5
61
100
AcDbEntity
  8
MAIN0
  6
CONTINUOUS
 62
3
100
AcDbLine
 10
113.2632645303311
 20
455.2464163441622
 30
0.0000000000000000
 11
113.2632645303311
 21
497.0705930720397
 31
0.0000000000000000
  0
LINE
  5
62
100
AcDbEntity
  8
MAIN0
  6
CONTINUOUS
 62
3
100
AcDbLine
 10
107.7632645303311
 20
455.2464163441622
 30
0.0000000000000000
 11
107.7632645303311
 21
497.0705930720397
 31
0.0000000000000000
  0
LINE
  5
63
100
AcDbEntity
  8
MAIN0
  6
CONTINUOUS
 62
3
100
AcDbLine
 10
149.0132645303311
 20
462.2464163441622
 30
0.0000000000000000
 11
149.0132645303311
 21
539.2464163441621
 31
0.0000000000000000
  0
LINE
  5
64
100
AcDbEntity
  8
MAIN0
  6
CONTINUOUS
 62
3
100
AcDbLine
 10
97.58939047278182
 20
478.2464163441623
 30
0.0000000000000000
 11
104.0132645303311
 21
478.2464163441623
 31
0.0000000000000000
  0
LINE
  5
65
100
AcDbEntity
  8
MAIN0
  6
HIDDEN
 62
12
100
AcDbLine
 10
104.0132645303311
 20
478.2464163441623
 30
0.0000000000000000
 11
149.0132645303311
 21
478.2464163441623
 31
0.0000000000000000
  0
LINE
  5
66
100
AcDbEntity
  8
MAIN0
  6
CONTINUOUS
 62
3
100
AcDbLine
 10
149.0132645303311
 20
478.2464163441623
 30
0.0000000000000000
 11
154.8705528242608
 21
478.2464163441623
 31
0.0000000000000000
  0
LINE
  5
67
100
AcDbEntity
  8
MAIN0
  6
CONTINUOUS
 62
3
100
AcDbLine
 10
97.58939047278182
 20
476.2464163441623
 30
0.0000000000000000
 11
104.0132645303311
 21
476.2464163441623
 31
0.0000000000000000
  0
LINE
  5
68
100
AcDbEntity
  8
MAIN0
  6
HIDDEN
 62
12
100
AcDbLine
 10
104.0132645303311
 20
476.2464163441623
 30
0.0000000000000000
 11
149.0132645303311
 21
476.2464163441623
 31
0.0000000000000000
  0
LINE
  5
69
100
AcDbEntity
  8
MAIN0
  6
CONTINUOUS
 62
3
100
AcDbLine
 10
149.0132645303311
 20
476.2464163441623
 30
0.0000000000000000
 11
154.8705528242608
 21
476.2464163441623
 31
0.0000000000000000
  0
LINE
  5
6A
100
AcDbEntity
  8
MAIN0
  6
CENTER
 62
12
100
AcDbLine
 10
149.0132645303311
 20
501.2464163441623
 30
0.0000000000000000
 11
135.1781985077942
 21
501.2464163441623
 31
0.0000000000000000
  0
LINE
  5
6B
100
AcDbEntity
  8
MAIN0
  6
CENTER
 62
12
100
AcDbLine
 10
142.5132645303311
 20
462.8333182128906
 30
0.0000000000000000
 11
142.5132645303311
 21
510.0593480240556
 31
0.0000000000000000
  0
LINE
  5
6C
100
AcDbEntity
  8
MAIN0
  6
CONTINUOUS
 62
3
100
AcDbLine
 10
126.5132645303311
 20
521.2464163441623
 30
0.0000000000000000
 11
147.0132645303311
 21
521.2464163441623
 31
0.0000000000000000
  0
LINE
  5
6D
100
AcDbEntity
  8
MAIN0
  6
CONTINUOUS
 62
3
100
AcDbLine
 10
126.5132645303311
 20
541.2464163441623
 30
0.0000000000000000
 11
147.0132645303311
 21
541.2464163441623
 31
0.0000000000000000
  0
LINE
  5
6E
100
AcDbEntity
  8
MAIN0
  6
CONTINUOUS
 62
3
100
AcDbLine
 10
126.5132645303311
 20
461.2464163441623
 30
0.0000000000000000
 11
147.0132645303311
 21
461.2464163441623
 31
0.0000000000000000
  0
LINE
  5
6F
100
AcDbEntity
  8
MAIN0
  6
CONTINUOUS
 62
3
100
AcDbLine
 10
126.5132645303311
 20
460.2464163441623
 30
0.0000000000000000
 11
147.0132645303311
 21
460.2464163441623
 31
0.0000000000000000
  0
LINE
  5
70
100
AcDbEntity
  8
MAIN0
  6
CENTER
 62
12
100
AcDbLine
 10
149.0132645303311
 20
482.2464163441623
 30
0.0000000000000000
 11
135.1781985077942
 21
482.2464163441623
 31
0.0000000000000000
  0
LINE
  5
71
100
AcDbEntity
  8
MAIN0
  6
CENTER
 62
12
100
AcDbLine
 10
149.0132645303311
 20
468.2464163441623
 30
0.0000000000000000
 11
135.1781985077942
 21
468.2464163441623
 31
0.0000000000000000
  0
LINE
  5
72
100
AcDbEntity
  8
MAIN0
  6
CONTINUOUS
 62
3
100
AcDbLine
 10
145.2632645303311
 20
468.2464163441622
 30
0.0000000000000000
 11
145.2632645303311
 21
501.2464163441623
 31
0.0000000000000000
  0
LINE
  5
73
100
AcDbEntity
  8
MAIN0
  6
CONTINUOUS
 62
3
100
AcDbLine
 10
139.7632645303311
 20
468.2464163441622
 30
0.0000000000000000
 11
139.7632645303311
 21
501.2464163441623
 31
0.0000000000000000
  0
LINE
  5
74
100
AcDbEntity
  8
MAIN0
  6
CONTINUOUS
 62
3
100
AcDbLine
 10
133.5132645303318
 20
488.2464163441622
 30
0.0000000000000000
 11
133.5132645303319
 21
499.2464161359122
 31
0.0000000000000000
  0
LINE
  5
75
100
AcDbEntity
  8
MAIN0
  6
HIDDEN
 62
12
100
AcDbLine
 10
133.5132645303305
 20
499.2464161359122
 30
0.0000000000000000
 11
133.5132645303304
 21
513.2464163441622
 31
0.0000000000000000
  0
LINE
  5
76
100
AcDbEntity
  8
MAIN0
  6
CONTINUOUS
 62
3
100
AcDbLine
 10
104.0132645303311
 20
450.2464163441622
 30
0.0000000000000000
 11
104.0132645303311
 21
506.2464163441623
 31
0.0000000000000000
  0
LINE
  5
77
100
AcDbEntity
  8
MAIN0
  6
CENTER
 62
12
100
AcDbLine
 10
104.0132645303311
 20
508.2464163441623
 30
0.0000000000000000
 11
104.0132645303311
 21
552.2464163441622
 31
0.0000000000000000
  0
LINE
  5
78
100
AcDbEntity
  8
MAIN0
  6
CENTER
 62
12
100
AcDbLine
 10
223.7773361312387
 20
487.2715466524113
 30
0.0000000000000000
 11
261.8824538977539
 21
509.2715466524113
 31
0.0000000000000000
  0
LINE
  5
79
100
AcDbEntity
  8
MAIN0
  6
CONTINUOUS
 62
3
100
AcDbLine
 10
263.6145047053227
 20
510.2715466524113
 30
0.0000000000000000
 11
312.1119273172513
 21
538.2715466524114
 31
0.0000000000000000
  0
LINE
  5
7A
100
AcDbEntity
  8
MAIN0
  6
CENTER
 62
12
100
AcDbLine
 10
265.1324538977539
 20
503.6423815278124
 30
0.0000000000000000
 11
316.1022116660258
 21
533.0697848958544
 31
0.0000000000000000
  0
LINE
  5
7B
100
AcDbEntity
  8
MAIN0
  6
CENTER
 62
12
100
AcDbLine
 10
307.7818002983291
 20
535.7715466524114
 30
0.0000000000000000
 11
314.1695683403293
 21
524.7076078567025
 31
0.0000000000000000
  0
LINE
  5
7C
100
AcDbEntity
  8
MAIN0
  6
CENTER
 62
12
100
AcDbLine
 10
267.9446317242449
 20
512.7715466524114
 30
0.0000000000000000
 11
274.9051206995596
 21
500.7156261016434
 31
0.0000000000000000
  0
LINE
  5
7D
100
AcDbEntity
  8
MAIN0
  6
CONTINUOUS
 62
3
100
AcDbLine
 10
273.4360007596174
 20
511.6118630242809
 30
0.0000000000000000
 11
309.6568002983292
 21
532.5239513882196
 31
0.0000000000000000
  0
LINE
  5
7E
100
AcDbEntity
  8
MAIN0
  6
CONTINUOUS
 62
3
100
AcDbLine
 10
276.1860007596173
 20
506.8487233034665
 30
0.0000000000000000
 11
312.4068002983292
 21
527.7608116674053
 31
0.0000000000000000
  0
LINE
  5
7F
100
AcDbEntity
  8
MAIN0
  6
CENTER
 62
12
100
AcDbLine
 10
301.0569650379634
 20
519.4193029958956
 30
0.0000000000000000
 11
309.8429325881796
 21
504.2015608052697
 31
0.0000000000000000
  0
LINE
  5
80
100
AcDbEntity
  8
MAIN0
  6
CENTER
 62
12
100
AcDbLine
 10
261.2197964638791
 20
496.4193029958956
 30
0.0000000000000000
 11
270.0057640140954
 21
481.2015608052697
 31
0.0000000000000000
  0
LINE
  5
81
100
AcDbEntity
  8
MAIN0
  6
CONTINUOUS
 62
3
100
AcDbLine
 10
245.6143811790736
 20
505.4486751423907
 30
0.0000000000000000
 11
259.2760474372029
 21
481.7859750672614
 31
0.0000000000000000
  0
LINE
  5
82
100
AcDbEntity
  8
MAIN0
  6
CONTINUOUS
 62
3
100
AcDbLine
 10
272.9377136953322
 20
458.1232749921322
 30
0.0000000000000000
 11
259.2760474372029
 21
481.7859750672615
 31
0.0000000000000000
  0
LINE
  5
83
100
AcDbEntity
  8
MAIN0
  6
CONTINUOUS
 62
3
100
AcDbLine
 10
243.8823303715047
 20
504.4486751423906
 30
0.0000000000000000
 11
257.5439966296340
 21
480.7859750672614
 31
0.0000000000000000
  0
LINE
  5
84
100
AcDbEntity
  8
MAIN0
  6
CONTINUOUS
 62
3
100
AcDbLine
 10
271.2056628877633
 20
457.1232749921322
 30
0.0000000000000000
 11
257.5439966296340
 21
480.7859750672615
 31
0.0000000000000000
  0
LINE
  5
85
100
AcDbEntity
  8
MAIN0
  6
CONTINUOUS
 62
3
100
AcDbLine
 10
286.1145047053227
 20
471.3004034821116
 30
0.0000000000000000
 11
339.8080797399579
 21
502.3004034821113
 31
0.0000000000000000
  0
LINE
  5
86
100
AcDbEntity
  8
MAIN0
  6
CENTER
 62
12
100
AcDbLine
 10
281.1324538977539
 20
475.9295686067105
 30
0.0000000000000000
 11
321.7518839457297
 21
499.3812074792384
 31
0.0000000000000000
  0
LINE
  5
87
100
AcDbEntity
  8
MAIN0
  6
CENTER
 62
12
100
AcDbLine
 10
290.4446317242451
 20
473.8004034821115
 30
0.0000000000000000
 11
283.4841427489304
 21
485.8563240328796
 31
0.0000000000000000
  0
LINE
  5
88
100
AcDbEntity
  8
MAIN0
  6
CENTER
 62
12
100
AcDbLine
 10
306.8991143961495
 20
483.3004034821116
 30
0.0000000000000000
 11
299.9386254208347
 21
495.3563240328796
 31
0.0000000000000000
  0
LINE
  5
89
100
AcDbEntity
  8
MAIN0
  6
CENTER
 62
12
100
AcDbLine
 10
319.0234700491315
 20
490.3004034821116
 30
0.0000000000000000
 11
312.0629810738168
 21
502.3563240328797
 31
0.0000000000000000
  0
LINE
  5
8A
100
AcDbEntity
  8
MAIN0
  6
CONTINUOUS
 62
3
100
AcDbLine
 10
285.8196317242449
 20
481.8111384671176
 30
0.0000000000000000
 11
314.3984700491315
 21
498.3111384671176
 31
0.0000000000000000
  0
LINE
  5
8B
100
AcDbEntity
  8
MAIN0
  6
CONTINUOUS
 62
3
100
AcDbLine
 10
288.5696317242450
 20
477.0479987463033
 30
0.0000000000000000
 11
317.1484700491316
 21
493.5479987463032
 31
0.0000000000000000
  0
LINE
  5
8C
100
AcDbEntity
  8
MAIN0
  6
HIDDEN
 62
12
100
AcDbLine
 10
287.8907841469516
 20
490.2237972407702
 30
0.0000000000000000
 11
300.0151397999338
 21
497.2237972407704
 31
0.0000000000000000
  0
LINE
  5
8D
100
AcDbEntity
  8
MAIN0
  6
CONTINUOUS
 62
3
100
AcDbLine
 10
300.0151384930416
 20
497.2237964862358
 30
0.0000000000000000
 11
309.5414192415626
 21
502.7237972407703
 31
0.0000000000000000
  0
LINE
  5
8E
100
AcDbEntity
  8
MAIN0
  6
CONTINUOUS
 62
3
100
AcDbLine
 10
330.2901305475267
 20
522.7859750672616
 30
0.0000000000000000
 11
340.5401305475267
 21
505.0324542896805
 31
0.0000000000000000
  0
LINE
  5
8F
100
AcDbEntity
  8
MAIN0
  6
CONTINUOUS
 62
3
100
AcDbLine
 10
260.1420728409873
 20
482.2859750672614
 30
0.0000000000000000
 11
270.3920728409873
 21
464.5324542896804
 31
0.0000000000000000
  0
LINE
  5
90
100
AcDbEntity
  8
MAIN0
  6
CENTER
 62
12
100
AcDbLine
 10
243.6875901690830
 20
472.7859750672614
 30
0.0000000000000000
 11
253.9375901690830
 21
455.0324542896804
 31
0.0000000000000000
  0
LINE
  5
91
100
AcDbEntity
  8
MAIN0
  6
CENTER
 62
12
100
AcDbLine
 10
256.6696409766519
 20
454.3004034821115
 30
0.0000000000000000
 11
271.3920728409872
 21
462.8004034821116
 31
0.0000000000000000
  0
LINE
  5
92
100
AcDbEntity
  8
MAIN0
  6
CONTINUOUS
 62
3
100
AcDbLine
 10
273.1241236485562
 20
463.8004034821116
 30
0.0000000000000000
 11
286.1145047053228
 21
471.3004034821115
 31
0.0000000000000000
  0
LINE
  5
93
100
AcDbEntity
  8
MAIN0
  6
CONTINUOUS
 62
3
100
AcDbLine
 10
106.0132645303303
 20
508.2464163441606
 30
0.0000000000000000
 11
104.0132645303303
 21
506.2464163441607
 31
0.0000000000000000
  0
LINE
  5
94
100
AcDbEntity
  8
MAIN0
  6
CONTINUOUS
 62
3
100
AcDbLine
 10
106.0132645303301
 20
448.2464163441608
 30
0.0000000000000000
 11
104.0132645303298
 21
450.2464163441612
 31
0.0000000000000000
  0
LINE
  5
95
100
AcDbEntity
  8
MAIN0
  6
CENTER
 62
12
100
AcDbLine
 10
106.0132645303290
 20
554.2464163441620
 30
0.0000000000000000
 11
104.0132645303290
 21
552.2464163441618
 31
0.0000000000000000
  0
LINE
  5
96
100
AcDbEntity
  8
MAIN0
  6
CONTINUOUS
 62
3
100
AcDbLine
 10
147.0132645303310
 20
541.2464163441600
 30
0.0000000000000000
 11
149.0132645303287
 21
539.2464163441622
 31
0.0000000000000000
  0
LINE
  5
97
100
AcDbEntity
  8
MAIN0
  6
CONTINUOUS
 62
3
100
AcDbLine
 10
147.0132645303301
 20
521.2464163441608
 30
0.0000000000000000
 11
149.0132645303305
 21
519.2464163441605
 31
0.0000000000000000
  0
LINE
  5
98
100
AcDbEntity
  8
MAIN0
  6
CONTINUOUS
 62
3
100
AcDbLine
 10
147.0132645303300
 20
461.2464163441611
 30
0.0000000000000000
 11
149.0132645303299
 21
463.2464163441611
 31
0.0000000000000000
  0
LINE
  5
99
100
AcDbEntity
  8
MAIN0
  6
CONTINUOUS
 62
3
100
AcDbLine
 10
147.0132645303289
 20
460.2464163441621
 30
0.0000000000000000
 11
149.0132645303289
 21
462.2464163441621
 31
0.0000000000000000
  0
LINE
  5
9A
100
AcDbEntity
  8
MAIN0
  6
CONTINUOUS
 62
3
100
AcDbLine
 10
314.8439781248201
 20
537.5394958448425
 30
0.0000000000000000
 11
312.1119273172512
 21
538.2715466524113
 31
0.0000000000000000
  0
LINE
  5
9B
100
AcDbEntity
  8
MAIN0
  6
CONTINUOUS
 62
3
100
AcDbLine
 10
262.8824538977539
 20
507.5394958448424
 30
0.0000000000000000
 11
263.6145047053227
 21
510.2715466524113
 31
0.0000000000000000
  0
LINE
  5
9C
100
AcDbEntity
  8
MAIN0
  6
CENTER
 62
12
100
AcDbLine
 10
223.0452853236698
 20
484.5394958448424
 30
0.0000000000000000
 11
223.7773361312387
 21
487.2715466524112
 31
0.0000000000000000
  0
LINE
  5
9D
100
AcDbEntity
  8
MAIN0
  6
CENTER
 62
12
100
AcDbLine
 10
253.9375901690830
 20
455.0324542896803
 30
0.0000000000000000
 11
256.6696409766519
 21
454.3004034821114
 31
0.0000000000000000
  0
LINE
  5
9E
100
AcDbEntity
  8
MAIN0
  6
CONTINUOUS
 62
3
100
AcDbLine
 10
270.3920728409873
 20
464.5324542896804
 30
0.0000000000000000
 11
273.1241236485562
 21
463.8004034821115
 31
0.0000000000000000
  0
LINE
  5
9F
100
AcDbEntity
  8
MAIN0
  6
CONTINUOUS
 62
3
100
AcDbLine
 10
283.3824538977538
 20
472.0324542896804
 30
0.0000000000000000
 11
286.1145047053227
 21
471.3004034821115
 31
0.0000000000000000
  0
LINE
  5
A0
100
AcDbEntity
  8
MAIN0
  6
CONTINUOUS
 62
3
100
AcDbLine
 10
340.5401305475267
 20
505.0324542896804
 30
0.0000000000000000
 11
339.8080797399579
 21
502.3004034821115
 31
0.0000000000000000
  0
LINE
  5
A1
100
AcDbEntity
  8
MAIN0
  6
CONTINUOUS
 62
3
100
AcDbLine
 10
335.3439781248201
 20
502.0324542896804
 30
0.0000000000000000
 11
334.6119273172512
 21
499.3004034821115
 31
0.0000000000000000
  0
LINE
  5
A2
100
AcDbEntity
  8
MAIN0
  6
CONTINUOUS
 62
3
100
AcDbLine
 10
426.4865521235877
 20
349.2454988421405
 30
0.0000000000000000
 11
431.4865521235875
 21
349.2454988421405
 31
0.0000000000000000
  0
ARC
  5
A3
100
AcDbEntity
  8
MAIN0
  6
CONTINUOUS
 62
3
100
AcDbCircle
 10
441.4865521235882
 20
355.2454988421405
 30
0.0000000000000000
 40
0.9999999999999999
100
AcDbArc
 50
129.2671247915284
 51
179.9999999999998
  0
ARC
  5
A4
100
AcDbEntity
  8
MAIN0
  6
CONTINUOUS
 62
3
100
AcDbCircle
 10
441.4865521235882
 20
332.2454988421406
 30
0.0000000000000000
 40
0.9999999999999999
100
AcDbArc
 50
179.9999999999998
 51
217.9216996238017
  0
CIRCLE
  5
A5
100
AcDbEntity
  8
MAIN0
  6
CONTINUOUS
 62
3
100
AcDbCircle
 10
110.5132645303311
 20
501.2464163441623
 30
0.0000000000000000
 40
4.999999999999996
  0
ARC
  5
A6
100
AcDbEntity
  8
MAIN0
  6
CONTINUOUS
 62
3
100
AcDbCircle
 10
110.5132645303311
 20
455.2464163441623
 30
0.0000000000000000
 40
2.749999999999993
100
AcDbArc
 50
179.9999999999998
 51
359.9999999999998
  0
ARC
  5
A7
100
AcDbEntity
  8
MAIN0
  6
CONTINUOUS
 62
12
100
AcDbCircle
 10
126.5132645303311
 20
487.2464163441623
 30
0.0000000000000000
 40
6.000000000000000
100
AcDbArc
 50
89.99999999999970
 51
269.9999999999999
  0
ARC
  5
A8
100
AcDbEntity
  8
MAIN0
  6
CONTINUOUS
 62
3
100
AcDbCircle
 10
126.5132645303311
 20
487.2464163441623
 30
0.0000000000000000
 40
5.600000000000000
100
AcDbArc
 50
89.99999999999970
 51
269.9999999999999
  0
ARC
  5
A9
100
AcDbEntity
  8
MAIN0
  6
CONTINUOUS
 62
3
100
AcDbCircle
 10
142.5132645303311
 20
501.2464163441623
 30
0.0000000000000000
 40
2.749999999999993
100
AcDbArc
 50
0.0000000000000000
 51
179.9999999999998
  0
ARC
  5
AA
100
AcDbEntity
  8
MAIN0
  6
CONTINUOUS
 62
3
100
AcDbCircle
 10
142.5132645303311
 20
482.2464163441623
 30
0.0000000000000000
 40
2.749999999999993
100
AcDbArc
 50
179.9999999999998
 51
359.9999999999998
  0
ARC
  5
AB
100
AcDbEntity
  8
MAIN0
  6
CONTINUOUS
 62
3
100
AcDbCircle
 10
142.5132645303311
 20
468.2464163441623
 30
0.0000000000000000
 40
2.749999999999993
100
AcDbArc
 50
179.9999999999998
 51
359.9999999999998
  0
ARC
  5
AC
100
AcDbEntity
  8
MAIN0
  6
HIDDEN
 62
12
100
AcDbCircle
 10
126.5132645303311
 20
513.2464163441623
 30
0.0000000000000000
 40
6.999999999999996
100
AcDbArc
 50
0.0000000000000000
 51
89.99999999999970
  0
ARC
  5
AD
100
AcDbEntity
  8
MAIN0
  6
CONTINUOUS
 62
3
100
AcDbCircle
 10
126.5132645303311
 20
499.2464163441623
 30
0.0000000000000000
 40
6.999999999999996
100
AcDbArc
 50
0.0000000000000000
 51
89.99999999999970
  0
ARC
  5
AE
100
AcDbEntity
  8
MAIN0
  6
CONTINUOUS
 62
3
100
AcDbCircle
 10
126.5132645303311
 20
488.2464163441623
 30
0.0000000000000000
 40
6.999999999999996
100
AcDbArc
 50
269.9999999999999
 51
359.9999999999998
  0
ARC
  5
AF
100
AcDbEntity
  8
MAIN0
  6
CONTINUOUS
 62
3
100
AcDbCircle
 10
315.7734700491315
 20
495.9295686067104
 30
0.0000000000000000
 40
2.749999999999993
100
AcDbArc
 50
299.9999946766659
 51
480.0000086929682
  0
ARC
  5
B0
100
AcDbEntity
  8
MAIN0
  6
CONTINUOUS
 62
3
100
AcDbCircle
 10
303.6491143961493
 20
488.9295686067104
 30
0.0000000000000000
 40
2.749999999999993
100
AcDbArc
 50
299.9999942501418
 51
480.0000048595168
  0
ARC
  5
B1
100
AcDbEntity
  8
MAIN0
  6
CONTINUOUS
 62
3
100
AcDbCircle
 10
287.1946317242449
 20
479.4295686067105
 30
0.0000000000000000
 40
2.749999999999993
100
AcDbArc
 50
120.0000058495738
 51
299.9999955874897
  0
ARC
  5
B2
100
AcDbEntity
  8
MAIN0
  6
CONTINUOUS
 62
3
100
AcDbCircle
 10
311.0318002983290
 20
530.1423815278125
 30
0.0000000000000000
 40
2.749999999999993
100
AcDbArc
 50
299.9999999999998
 51
480.0000123247905
  0
CIRCLE
  5
B3
100
AcDbEntity
  8
MAIN0
  6
CONTINUOUS
 62
3
100
AcDbCircle
 10
271.1946317242449
 20
507.1423815278125
 30
0.0000000000000000
 40
4.999999999999996
  0
ARC
  5
B4
100
AcDbEntity
  8
MAIN0
  6
CONTINUOUS
 62
3
100
AcDbCircle
 10
306.0414192415625
 20
508.7859750672615
 30
0.0000000000000000
 40
6.999999999999996
100
AcDbArc
 50
299.9999999999998
 51
390.0000000000008
  0
ARC
  5
B5
100
AcDbEntity
  8
MAIN0
  6
HIDDEN
 62
12
100
AcDbCircle
 10
284.3907841469515
 20
496.2859750672615
 30
0.0000000000000000
 40
6.999999999999996
100
AcDbArc
 50
209.9999999999996
 51
299.9999999999997
  0
ARC
  5
B6
100
AcDbEntity
  8
MAIN0
  6
CONTINUOUS
 62
3
100
AcDbCircle
 10
296.5151397999336
 20
503.2859750672615
 30
0.0000000000000000
 40
6.999999999999996
100
AcDbArc
 50
209.9999999999996
 51
299.9999999999997
  0
ARC
  5
B7
100
AcDbEntity
  8
MAIN0
  6
CONTINUOUS
 62
3
100
AcDbCircle
 10
306.9074446453469
 20
509.2859750672615
 30
0.0000000000000000
 40
5.600000000000000
100
AcDbArc
 50
30.00000000000010
 51
210.0000000000000
  0
ARC
  5
B8
100
AcDbEntity
  8
MAIN0
  6
CONTINUOUS
 62
12
100
AcDbCircle
 10
306.9074446453469
 20
509.2859750672615
 30
0.0000000000000000
 40
6.000000000000000
100
AcDbArc
 50
30.00000000000009
 51
210.0000000000000
  0
MTEXT
  5
B9
100
AcDbEntity
  8
MAIN0
  6
CONTINUOUS
 62
4
100
AcDbMText
 10
464.8230241154733
 20
340.2552232761608
 30
0.0000000000000000
 40
7.500000000000000
 41
0.0000000000000000
 71
     1
 72
     1
  1
{\H0.94x;{A}}
 11
1.000000000000000
 21
0.0000000000000000
 31
0.0000000000000000
  7
STANDARD
  0
MTEXT
  5
BA
100
AcDbEntity
  8
MAIN0
  6
CONTINUOUS
 62
4
100
AcDbMText
 10
500.0041956501656
 20
367.3264175254772
 30
0.0000000000000000
 40
7.500000000000000
 41
0.0000000000000000
 71
     1
 72
     1
  1
{\H0.94x;{B}}
 11
1.000000000000000
 21
0.0000000000000000
 31
0.0000000000000000
  7
STANDARD
  0
MTEXT
  5
BB
100
AcDbEntity
  8
MAIN0
  6
CONTINUOUS
 62
4
100
AcDbMText
 10
698.4068622152929
 20
529.9740476478796
 30
0.0000000000000000
 40
4.649999856948853
 41
0.0000000000000000
 71
     1
 72
     1
  1
{\H0.70x;{MIN 34}}
 11
1.000000000000000
 21
0.0000000000000000
 31
0.0000000000000000
  7
STANDARD
  0
MTEXT
  5
BC
100
AcDbEntity
  8
MAIN0
  6
CONTINUOUS
 62
4
100
AcDbMText
 10
489.4034651974110
 20
295.5531892495871
 30
0.0000000000000000
 40
6.000000000000000
 41
0.0000000000000000
 71
     1
 72
     1
  1
{\H0.94x;{D}}
 11
1.000000000000000
 21
0.0000000000000000
 31
0.0000000000000000
  7
STANDARD
  0
MTEXT
  5
BD
100
AcDbEntity
  8
MAIN0
  6
CONTINUOUS
 62
4
100
AcDbMText
 10
492.3797824630703
 20
294.8586992886102
 30
0.0000000000000000
 40
6.000000000000000
 41
0.0000000000000000
 71
     1
 72
     1
  1
{\H0.95x;{ｒ}}
 11
1.000000000000000
 21
0.0000000000000000
 31
0.0000000000000000
  7
KNJYOKO
  0
SPLINE
  5
BE
100
AcDbEntity
  8
MAIN0
  6
CONTINUOUS
 62
12
100
AcDbSpline
210
0.0000000000000000
220
0.0000000000000000
230
1.000000000000000
 70
     8
 71
     3
 72
    21
 73
    17
 74
     0
 42
1.000000000000000e-007
 43
1.000000000000000e-007
 12
-0.5266441684433403
 22
-0.4400830787365067
 32
0.0000000000000000
 13
0.4871726415487387
 23
-0.4611402444217845
 33
0.0000000000000000
 40
0.0000000000000000
 40
0.0000000000000000
 40
0.0000000000000000
 40
0.0000000000000000
 40
4.090551552783104
 40
13.19515466940099
 40
31.92329931878089
 40
50.22319013442336
 40
66.71631128211982
 40
83.65638169767732
 40
96.43123288652470
 40
109.4292341848534
 40
125.3658702414702
 40
141.0026231890916
 40
158.5708730970508
 40
172.7805356536124
 40
181.6474911329540
 40
187.2649416222349
 40
187.2649416222349
 40
187.2649416222349
 40
187.2649416222349
 10
678.4326662714158
 20
293.8077616678754
 30
0.0000000000000000
 10
677.7145778977524
 20
293.2077008275156
 30
0.0000000000000000
 10
675.3981941449699
 20
291.2720460637440
 30
0.0000000000000000
 10
667.7531042338181
 20
292.5841557771591
 30
0.0000000000000000
 10
657.9430135202892
 20
289.9416695199409
 30
0.0000000000000000
 10
645.8286876240226
 20
290.5983661114028
 30
0.0000000000000000
 10
634.8141998192670
 20
286.6508925278953
 30
0.0000000000000000
 10
626.3621870430795
 20
280.2916102853415
 30
0.0000000000000000
 10
622.6846999837153
 20
270.7389124626375
 30
0.0000000000000000
 10
626.5909380117033
 20
261.5374494409462
 30
0.0000000000000000
 10
634.7027629830792
 20
255.4373167114185
 30
0.0000000000000000
 10
644.7499674472288
 20
251.2215769218630
 30
0.0000000000000000
 10
654.8489116967903
 20
247.6938610649308
 30
0.0000000000000000
 10
663.9710094513116
 20
247.9982347580512
 30
0.0000000000000000
 10
670.1859520425526
 20
245.7813065802911
 30
0.0000000000000000
 10
672.5380874815519
 20
243.5548590773993
 30
0.0000000000000000
 10
673.4503102127627
 20
242.6913815801812
 30
0.0000000000000000
  0
SPLINE
  5
BF
100
AcDbEntity
  8
MAIN0
  6
CONTINUOUS
 62
12
100
AcDbSpline
210
0.0000000000000000
220
0.0000000000000000
230
1.000000000000000
 70
     8
 71
     3
 72
    23
 73
    19
 74
     0
 42
1.000000000000000e-007
 43
1.000000000000000e-007
 12
-0.1450250927222072
 22
-0.6511607603186604
 32
0.0000000000000000
 13
0.1340982923766774
 23
-0.6539190412758558
 33
0.0000000000000000
 40
0.0000000000000000
 40
0.0000000000000000
 40
0.0000000000000000
 40
0.0000000000000000
 40
11.06665929089373
 40
20.55860616644418
 40
29.78334282507285
 40
35.12897071126395
 40
42.25740903266353
 40
47.57857364308484
 40
53.11412027606593
 40
61.06088678022945
 40
71.21233197422021
 40
83.48874462558274
 40
97.13870643515503
 40
106.9714352888218
 40
115.5183775713955
 40
124.9661556240544
 40
141.8876540451346
 40
146.2715934795886
 40
146.2715934795886
 40
146.2715934795886
 40
146.2715934795886
 10
453.7144670887942
 20
387.7643540377152
 30
0.0000000000000000
 10
453.1794859921985
 20
385.3622959450333
 30
0.0000000000000000
 10
452.1856480703557
 20
380.8999767375555
 30
0.0000000000000000
 10
449.9683971506323
 20
374.6429522866668
 30
0.0000000000000000
 10
451.4486235565358
 20
368.7421471482210
 30
0.0000000000000000
 10
447.5381615338040
 20
365.2253579337753
 30
0.0000000000000000
 10
442.7447527806704
 20
365.0345678586055
 30
0.0000000000000000
 10
442.3799004414071
 20
360.4507379378798
 30
0.0000000000000000
 10
440.1526271458679
 20
356.7843959037575
 30
0.0000000000000000
 10
442.1548489861290
 20
351.4176200356238
 30
0.0000000000000000
 10
442.2020525349582
 20
344.7194865668116
 30
0.0000000000000000
 10
441.3830716577947
 20
336.7468173767946
 30
0.0000000000000000
 10
439.9264389026100
 20
328.7729369950653
 30
0.0000000000000000
 10
443.0142431085287
 20
321.7443016974831
 30
0.0000000000000000
 10
448.8008290953544
 20
318.7708259681102
 30
0.0000000000000000
 10
451.6928245364503
 20
311.1142421941663
 30
0.0000000000000000
 10
452.5661665465243
 20
304.4405518406987
 30
0.0000000000000000
 10
453.5185074914464
 20
299.7965413418808
 30
0.0000000000000000
 10
453.7144670887942
 20
298.8409608512175
 30
0.0000000000000000
  0
DIMENSION
  5
C8
100
AcDbEntity
  8
MAIN10
  6
CONTINUOUS
 62
12
100
AcDbDimension
  2
*D0
 10
682.4865521235881
 20
392.7229579242837
 30
0.0000000000000000
 11
712.4865521235880
 21
393.7229579242837
 31
0.0000000000000000
 70
32
  3
MAIN001
100
AcDbAlignedDimension
 13
742.4865521235879
 23
370.9454988600217
 33
0.0000000000000000
 14
682.4865521235881
 24
362.9454988600228
 34
0.0000000000000000
100
AcDbRotatedDimension
1001
ACAD
1000
DSTYLE
1002
{
1070
   173
1070
     1
1070
     6
1000
_OPEN
1070
     7
1000
_OPEN
1070
    41
1040
2.866008
1002
}
  0
DIMENSION
  5
D3
100
AcDbEntity
  8
MAIN10
  6
CONTINUOUS
 62
12
100
AcDbDimension
  2
*D1
 10
737.4865521235879
 20
381.0229325874645
 30
0.0000000000000000
 11
739.9865521235879
 21
382.0229325874645
 31
0.0000000000000000
 70
32
  3
MAIN001
100
AcDbAlignedDimension
 13
742.4865521235879
 23
370.9454988600217
 33
0.0000000000000000
 14
737.4865521235879
 24
363.4454988600226
 34
0.0000000000000000
100
AcDbRotatedDimension
1001
ACAD
1000
DSTYLE
1002
{
1070
   173
1070
     1
1070
     6
1000
_OPEN
1070
     7
1000
_OPEN
1070
    41
1040
2.866008
1070
   287
1070
     0
1002
}
  0
DIMENSION
  5
DC
100
AcDbEntity
  8
MAIN10
  6
CONTINUOUS
 62
12
100
AcDbDimension
  2
*D2
 10
782.4865521235879
 20
316.2454988421408
 30
0.0000000000000000
 11
781.4865521235879
 21
343.7454988421405
 31
0.0000000000000000
 70
32
  1
\A1;\U+220555
  3
MAIN001
100
AcDbAlignedDimension
 13
722.8205267376834
 23
371.2454988421403
 33
0.0000000000000000
 14
722.8205267376834
 24
316.2454988421407
 34
0.0000000000000000
 50
90.00000000000000
100
AcDbRotatedDimension
1001
ACAD
1000
DSTYLE
1002
{
1070
   173
1070
     1
1070
     6
1000
_OPEN
1070
     7
1000
_OPEN
1070
    41
1040
2.866008
1002
}
  0
LEADER
  5
DD
100
AcDbEntity
  8
MAIN10
  6
CONTINUOUS
 62
12
100
AcDbLeader
  3
MAIN001
 73
     0
 75
     1
 40
4.650000572204590
 41
20.39900057220461
 76
     3
 10
477.9836460534308
 20
301.1645045971048
 30
0.0000000000000000
 10
468.2658311467202
 20
280.3245832774330
 30
0.0000000000000000
 10
465.3608303971322
 20
280.3245832774330
 30
0.0000000000000000
340
DE
213
0.0000000000000000
223
-0.7500000000000000
233
0.0000000000000000
1001
ACAD
1000
DSTYLE
1002
{
1070
   147
1040
0.0
1070
    77
1070
     1
1070
   173
1070
     1
1070
     6
1000
_OPEN
1070
     7
1000
_OPEN
1002
}
  0
MTEXT
  5
DE
102
{ACAD_REACTORS
330
DD
102
}
100
AcDbEntity
  8
MAIN10
  6
CONTINUOUS
 62
4
100
AcDbMText
 10
444.9618298249276
 20
285.7245838496376
 30
0.0000000000000000
 40
4.650000572204590
 41
0.0000000000000000
 71
     1
 72
     1
  1
{\H0.92x;{Rc1/4}}
 11
1.000000000000000
 21
0.0000000000000000
 31
0.0000000000000000
  7
STANDARD
  0
DIMENSION
  5
E7
100
AcDbEntity
  8
MAIN10
  6
CONTINUOUS
 62
12
100
AcDbDimension
  2
*D3
 10
189.5058221145333
 20
270.7371361132358
 30
0.0000000000000000
 11
210.8963414574986
 21
271.4871361132358
 31
0.0000000000000000
 70
160
  1
\A1;\U+220530
  3
MAIN001
100
AcDbAlignedDimension
 13
219.5058221145332
 23
299.5454987066367
 33
0.0000000000000000
 14
189.5058221145333
 24
299.5454983656818
 34
0.0000000000000000
100
AcDbRotatedDimension
1001
ACAD
1000
DSTYLE
1002
{
1070
   173
1070
     1
1070
     6
1000
_OPEN
1070
     7
1000
_OPEN
1070
    41
1040
2.866008
1002
}
  0
DIMENSION
  5
EF
100
AcDbEntity
  8
MAIN10
  6
CONTINUOUS
 62
12
100
AcDbDimension
  2
*D4
 10
506.1790403514793
 20
329.7454988421405
 30
0.0000000000000000
 11
505.4290403514793
 21
340.0462352934903
 31
0.0000000000000000
 70
160
  3
MAIN001
100
AcDbAlignedDimension
 13
475.3807623700604
 23
357.7454988421405
 33
0.0000000000000000
 14
492.1145295082740
 24
329.7454988421405
 34
0.0000000000000000
 50
90.00000000000000
100
AcDbRotatedDimension
1001
ACAD
1000
DSTYLE
1002
{
1070
   173
1070
     1
1070
     6
1000
_OPEN
1070
     7
1000
_OPEN
1070
    41
1040
2.866008
1002
}
  0
LEADER
  5
F0
100
AcDbEntity
  8
MAIN10
  6
CONTINUOUS
 62
12
100
AcDbLeader
  3
MAIN001
 73
     0
 74
     0
 75
     1
 40
4.650000572204590
 41
28.80100114440916
 76
     3
 10
492.6427735883373
 20
365.7926269009545
 30
0.0000000000000000
 10
510.5635435433591
 20
432.6738508838498
 30
0.0000000000000000
 10
513.4665442929471
 20
432.6738508838498
 30
0.0000000000000000
340
F1
213
0.0000000000000000
223
-0.7500000000000000
233
0.0000000000000000
1001
ACAD
1000
DSTYLE
1002
{
1070
   147
1040
0.0
1070
    77
1070
     1
1070
   173
1070
     1
1070
     6
1000
_OPEN
1070
     7
1000
_OPEN
1002
}
  0
MTEXT
  5
F1
102
{ACAD_REACTORS
330
F0
102
}
100
AcDbEntity
  8
MAIN10
  6
CONTINUOUS
 62
4
100
AcDbMText
 10
513.4675442929471
 20
438.0738514560544
 30
0.0000000000000000
 40
4.650000572204590
 41
0.0000000000000000
 71
     1
 72
     1
  1
{\H0.93x;{2-Rc3/8}}
 11
1.000000000000000
 21
0.0000000000000000
 31
0.0000000000000000
  7
STANDARD
  0
DIMENSION
  5
FA
100
AcDbEntity
  8
MAIN10
  6
CONTINUOUS
 62
12
100
AcDbDimension
  2
*D5
 10
264.5300375462006
 20
298.7454988421408
 30
0.0000000000000000
 11
263.5300375462006
 21
321.2454988421407
 31
0.0000000000000000
 70
32
  3
MAIN001
100
AcDbAlignedDimension
 13
251.0135179826429
 23
343.7454988421405
 33
0.0000000000000000
 14
218.7058221324146
 24
298.7454988421408
 34
0.0000000000000000
 50
90.00000000000000
100
AcDbRotatedDimension
1001
ACAD
1000
DSTYLE
1002
{
1070
   173
1070
     1
1070
     6
1000
_OPEN
1070
     7
1000
_OPEN
1070
    41
1040
2.866008
1002
}
  0
DIMENSION
  5
103
100
AcDbEntity
  8
MAIN10
  6
CONTINUOUS
 62
12
100
AcDbDimension
  2
*D6
 10
89.01326453033107
 20
448.2464163441623
 30
0.0000000000000000
 11
88.01326453033107
 21
462.2464163441623
 31
0.0000000000000000
 70
32
  1
\A1;MAX 28
  3
MAIN001
100
AcDbAlignedDimension
 13
96.38939045490042
 23
476.2464163441623
 33
0.0000000000000000
 14
104.8132645124497
 24
448.2464163441623
 34
0.0000000000000000
 50
90.00000000000000
100
AcDbRotatedDimension
1001
ACAD
1000
DSTYLE
1002
{
1070
   173
1070
     1
1070
     6
1000
_OPEN
1070
     7
1000
_OPEN
1070
    41
1040
2.866008
1002
}
  0
DIMENSION
  5
10C
100
AcDbEntity
  8
MAIN10
  6
CONTINUOUS
 62
12
100
AcDbDimension
  2
*D7
 10
89.01326453033107
 20
476.2464163441623
 30
0.0000000000000000
 11
88.01326453033107
 21
481.7464163441623
 31
0.0000000000000000
 70
32
  3
MAIN001
100
AcDbAlignedDimension
 13
114.0266136722785
 23
487.2464163441623
 33
0.0000000000000000
 14
96.38939045490042
 24
476.2464163441623
 34
0.0000000000000000
 50
90.00000000000000
100
AcDbRotatedDimension
1001
ACAD
1000
DSTYLE
1002
{
1070
   173
1070
     1
1070
     6
1000
_OPEN
1070
     7
1000
_OPEN
1070
    41
1040
2.866008
1002
}
  0
DIMENSION
  5
115
100
AcDbEntity
  8
MAIN10
  6
CONTINUOUS
 62
12
100
AcDbDimension
  2
*D8
 10
89.01326453033107
 20
487.2464163441623
 30
0.0000000000000000
 11
88.01326453033107
 21
510.2464163441623
 31
0.0000000000000000
 70
32
  3
MAIN001
100
AcDbAlignedDimension
 13
114.0266136722785
 23
533.2464163441623
 33
0.0000000000000000
 14
114.0266136722785
 24
487.2464163441623
 34
0.0000000000000000
 50
90.00000000000000
100
AcDbRotatedDimension
1001
ACAD
1000
DSTYLE
1002
{
1070
   173
1070
     1
1070
     6
1000
_OPEN
1070
     7
1000
_OPEN
1070
    41
1040
2.866008
1002
}
  0
DIMENSION
  5
11E
100
AcDbEntity
  8
MAIN10
  6
CONTINUOUS
 62
12
100
AcDbDimension
  2
*D9
 10
385.4865521235884
 20
516.2454988421404
 30
0.0000000000000000
 11
468.4865521235884
 21
517.2454988421404
 31
0.0000000000000000
 70
32
  3
MAIN001
100
AcDbAlignedDimension
 13
551.4865521235884
 23
466.4454988600218
 33
0.0000000000000000
 14
385.4865521235884
 24
387.9454988600218
 34
0.0000000000000000
100
AcDbRotatedDimension
1001
ACAD
1000
DSTYLE
1002
{
1070
   173
1070
     1
1070
     6
1000
_OPEN
1070
     7
1000
_OPEN
1070
    41
1040
2.866008
1002
}
  0
DIMENSION
  5
127
100
AcDbEntity
  8
MAIN10
  6
CONTINUOUS
 62
12
100
AcDbDimension
  2
*D10
 10
551.4865521235884
 20
516.2454988421404
 30
0.0000000000000000
 11
612.4865521235882
 21
517.2454988421404
 31
0.0000000000000000
 70
32
  3
MAIN001
100
AcDbAlignedDimension
 13
673.4865521235882
 23
465.4454988600218
 33
0.0000000000000000
 14
551.4865521235884
 24
466.4454988600218
 34
0.0000000000000000
100
AcDbRotatedDimension
1001
ACAD
1000
DSTYLE
1002
{
1070
   173
1070
     1
1070
     6
1000
_OPEN
1070
     7
1000
_OPEN
1070
    41
1040
2.866008
1002
}
  0
DIMENSION
  5
132
100
AcDbEntity
  8
MAIN10
  6
CONTINUOUS
 62
12
100
AcDbDimension
  2
*D11
 10
673.4865521235882
 20
516.2454988421404
 30
0.0000000000000000
 11
675.9865521235882
 21
517.2454988421404
 31
0.0000000000000000
 70
32
  3
MAIN001
100
AcDbAlignedDimension
 13
678.4865521235884
 23
404.9454988600218
 33
0.0000000000000000
 14
673.4865521235882
 24
465.4454988600218
 34
0.0000000000000000
100
AcDbRotatedDimension
1001
ACAD
1000
DSTYLE
1002
{
1070
   173
1070
     1
1070
     6
1000
_OPEN
1070
     7
1000
_OPEN
1070
    41
1040
2.866008
1070
   287
1070
     0
1002
}
  0
DIMENSION
  5
13B
100
AcDbEntity
  8
MAIN10
  6
CONTINUOUS
 62
12
100
AcDbDimension
  2
*D12
 10
479.4865521235880
 20
501.2454988421404
 30
0.0000000000000000
 11
484.9865521235880
 21
502.2454988421404
 31
0.0000000000000000
 70
32
  3
MAIN001
100
AcDbAlignedDimension
 13
490.4865521235880
 23
373.1068775364107
 33
0.0000000000000000
 14
479.4865521235880
 24
347.2172066605868
 34
0.0000000000000000
100
AcDbRotatedDimension
1001
ACAD
1000
DSTYLE
1002
{
1070
   173
1070
     1
1070
     6
1000
_OPEN
1070
     7
1000
_OPEN
1070
    41
1040
2.866008
1002
}
  0
DIMENSION
  5
144
100
AcDbEntity
  8
MAIN10
  6
CONTINUOUS
 62
12
100
AcDbDimension
  2
*D13
 10
490.4865521235880
 20
501.2454988421404
 30
0.0000000000000000
 11
581.9865521235881
 21
502.2454988421404
 31
0.0000000000000000
 70
32
  3
MAIN001
100
AcDbAlignedDimension
 13
673.4865521235882
 23
465.4454988600218
 33
0.0000000000000000
 14
490.4865521235880
 24
373.1068775364107
 34
0.0000000000000000
100
AcDbRotatedDimension
1001
ACAD
1000
DSTYLE
1002
{
1070
   173
1070
     1
1070
     6
1000
_OPEN
1070
     7
1000
_OPEN
1070
    41
1040
2.866008
1002
}
  0
DIMENSION
  5
14D
100
AcDbEntity
  8
MAIN10
  6
CONTINUOUS
 62
12
100
AcDbDimension
  2
*D14
 10
214.3267702257978
 20
499.6404069609130
 30
0.0000000000000000
 11
225.9511258787799
 21
507.5064323646974
 31
0.0000000000000000
 70
32
  1
\A1;MAX 28
  3
MAIN001
100
AcDbAlignedDimension
 13
243.2823303625641
 23
505.4879056424177
 33
0.0000000000000000
 14
222.4452853147291
 24
485.5787263448694
 34
0.0000000000000000
 50
29.99999999999999
100
AcDbRotatedDimension
1001
ACAD
1000
DSTYLE
1002
{
1070
   173
1070
     1
1070
     6
1000
_OPEN
1070
     7
1000
_OPEN
1070
    41
1040
2.866008
1002
}
  0
DIMENSION
  5
156
100
AcDbEntity
  8
MAIN10
  6
CONTINUOUS
 62
12
100
AcDbDimension
  2
*D15
 10
238.5754815317620
 20
513.6404069609130
 30
0.0000000000000000
 11
242.8386212525764
 21
517.2564323646974
 31
0.0000000000000000
 70
32
  3
MAIN001
100
AcDbAlignedDimension
 13
260.6197964549384
 23
497.4585334959227
 33
0.0000000000000000
 14
243.2823303625641
 24
505.4879056424177
 34
0.0000000000000000
 50
29.99999999999995
100
AcDbRotatedDimension
1001
ACAD
1000
DSTYLE
1002
{
1070
   173
1070
     1
1070
     6
1000
_OPEN
1070
     7
1000
_OPEN
1070
    41
1040
2.866008
1002
}
  0
DIMENSION
  5
15F
100
AcDbEntity
  8
MAIN10
  6
CONTINUOUS
 62
12
100
AcDbDimension
  2
*D16
 10
248.1017609733908
 20
519.1404069609130
 30
0.0000000000000000
 11
267.5203452604329
 21
531.5064323646974
 31
0.0000000000000000
 70
33
  3
MAIN001
100
AcDbAlignedDimension
 13
300.4569650290226
 23
520.4585334959227
 33
0.0000000000000000
 14
260.6197964549384
 24
497.4585334959227
 34
0.0000000000000000
 50
29.99999999999999
1001
ACAD
1000
DSTYLE
1002
{
1070
   173
1070
     1
1070
     6
1000
_OPEN
1070
     7
1000
_OPEN
1070
    41
1040
2.866008
1002
}
  0
DIMENSION
  5
168
100
AcDbEntity
  8
MAIN10
  6
CONTINUOUS
 62
12
100
AcDbDimension
  2
*D17
 10
484.4865521235881
 20
191.0606835266745
 30
0.0000000000000000
 11
578.9865521235881
 21
192.0606835266745
 31
0.0000000000000000
 70
32
  3
MAIN001
100
AcDbAlignedDimension
 13
673.4865521235882
 23
222.0454988242593
 33
0.0000000000000000
 14
484.4865521235881
 24
289.4108845248962
 34
0.0000000000000000
100
AcDbRotatedDimension
1001
ACAD
1000
DSTYLE
1002
{
1070
   173
1070
     1
1070
     6
1000
_OPEN
1070
     7
1000
_OPEN
1070
    41
1040
2.866008
1002
}
  0
LEADER
  5
169
100
AcDbEntity
  8
MAIN10
  6
CONTINUOUS
 62
12
100
AcDbLeader
  3
MAIN001
 73
     0
 74
     0
 75
     1
 40
4.650000572204590
 41
12.00099999999998
 76
     3
 10
708.1025865961783
 20
325.7454988421417
 30
0.0000000000000000
 10
729.2454521333153
 20
289.1249815142233
 30
0.0000000000000000
 10
732.1484528829034
 20
289.1249815142233
 30
0.0000000000000000
340
16A
213
0.0000000000000000
223
-0.7500000000000000
233
0.0000000000000000
1001
ACAD
1000
DSTYLE
1002
{
1070
   147
1040
0.0
1070
    77
1070
     1
1070
   173
1070
     1
1070
     6
1000
_OPEN
1070
     7
1000
_OPEN
1002
}
  0
MTEXT
  5
16A
102
{ACAD_REACTORS
330
169
102
}
100
AcDbEntity
  8
MAIN10
  6
CONTINUOUS
 62
4
100
AcDbMText
 10
732.1494528829034
 20
294.5249820864279
 30
0.0000000000000000
 40
4.650000572204590
 41
0.0000000000000000
 71
     1
 72
     1
  1
{\H0.90x;{M36}}
 11
1.000000000000000
 21
0.0000000000000000
 31
0.0000000000000000
  7
STANDARD
  0
DIMENSION
  5
173
100
AcDbEntity
  8
MAIN10
  6
CONTINUOUS
 62
12
100
AcDbDimension
  2
*D18
 10
164.5058221145337
 20
255.7371361132358
 30
0.0000000000000000
 11
184.5058221145334
 21
256.7371361132358
 31
0.0000000000000000
 70
32
  3
MAIN001
100
AcDbAlignedDimension
 13
204.5058221145332
 23
288.6017073664989
 33
0.0000000000000000
 14
164.5058221145337
 24
316.4911830655818
 34
0.0000000000000000
100
AcDbRotatedDimension
1001
ACAD
1000
DSTYLE
1002
{
1070
   173
1070
     1
1070
     6
1000
_OPEN
1070
     7
1000
_OPEN
1070
    41
1040
2.866008
1002
}
  0
DIMENSION
  5
17C
100
AcDbEntity
  8
MAIN10
  6
CONTINUOUS
 62
12
100
AcDbDimension
  2
*D19
 10
204.5058221145332
 20
255.7371361132358
 30
0.0000000000000000
 11
224.5058221145332
 21
256.7371361132358
 31
0.0000000000000000
 70
32
  3
MAIN001
100
AcDbAlignedDimension
 13
244.5058221145331
 23
316.4911830655818
 33
0.0000000000000000
 14
204.5058221145332
 24
288.6017073664989
 34
0.0000000000000000
100
AcDbRotatedDimension
1001
ACAD
1000
DSTYLE
1002
{
1070
   173
1070
     1
1070
     6
1000
_OPEN
1070
     7
1000
_OPEN
1070
    41
1040
2.866008
1002
}
  0
DIMENSION
  5
186
100
AcDbEntity
  8
MAIN10
  6
CONTINUOUS
 62
12
100
AcDbDimension
  2
*D20
 10
469.4865521235859
 20
501.2454988421404
 30
0.0000000000000000
 11
446.2365617013073
 21
502.7454988421404
 31
0.0000000000000000
 70
160
  1
\A1;MIN 10
  3
MAIN001
100
AcDbAlignedDimension
 13
479.4865521235880
 23
347.2172066605868
 33
0.0000000000000000
 14
469.4865521235859
 24
389.4454988600217
 34
0.0000000000000000
100
AcDbRotatedDimension
1001
ACAD
1000
DSTYLE
1002
{
1070
   173
1070
     1
1070
     6
1000
_OPEN
1070
     7
1000
_OPEN
1070
    41
1040
2.866008
1002
}
  0
DIMENSION
  5
18F
100
AcDbEntity
  8
MAIN10
  6
CONTINUOUS
 62
12
100
AcDbDimension
  2
*D21
 10
385.4865521235884
 20
531.2454988421404
 30
0.0000000000000000
 11
529.4865521235884
 21
532.2454988421404
 31
0.0000000000000000
 70
32
  3
MAIN001
100
AcDbAlignedDimension
 13
673.4865521235882
 23
465.4454988600218
 33
0.0000000000000000
 14
385.4865521235884
 24
387.9454988600218
 34
0.0000000000000000
100
AcDbRotatedDimension
1001
ACAD
1000
DSTYLE
1002
{
1070
   173
1070
     1
1070
     6
1000
_OPEN
1070
     7
1000
_OPEN
1070
    41
1040
2.866008
1002
}
  0
DIMENSION
  5
198
100
AcDbEntity
  8
MAIN10
  6
CONTINUOUS
 62
12
100
AcDbDimension
  2
*D22
 10
673.4865521235882
 20
531.2454988421404
 30
0.0000000000000000
 11
707.9865521235881
 21
532.2454988421404
 31
0.0000000000000000
 70
32
  1
\A1;MAX 69
  3
MAIN001
100
AcDbAlignedDimension
 13
742.4865521235879
 23
370.9454988600217
 33
0.0000000000000000
 14
673.4865521235882
 24
465.4454988600218
 34
0.0000000000000000
100
AcDbRotatedDimension
1001
ACAD
1000
DSTYLE
1002
{
1070
   173
1070
     1
1070
     6
1000
_OPEN
1070
     7
1000
_OPEN
1070
    41
1040
2.866008
1002
}
  0
DIMENSION
  5
1A1
100
AcDbEntity
  8
MAIN10
  6
CONTINUOUS
 62
3
100
AcDbDimension
  2
*D23
 10
767.4865521235879
 20
362.2454988421412
 30
0.0000000000000000
 11
766.9865521235879
 21
343.7454988421405
 31
0.0000000000000000
 70
32
  1
\A1;\U+220537H8
  3
MAIN001
100
AcDbAlignedDimension
 13
741.6205267198020
 23
325.2454988421399
 33
0.0000000000000000
 14
741.6205267198020
 24
362.2454988421412
 34
0.0000000000000000
 50
90.00000000000000
100
AcDbRotatedDimension
1001
ACAD
1000
DSTYLE
1002
{
1070
   173
1070
     1
1070
     6
1000
_OPEN
1070
     7
1000
_OPEN
1070
    41
1040
3.000000
1002
}
  0
DIMENSION
  5
1AA
100
AcDbEntity
  8
MAIN10
  6
CONTINUOUS
 62
3
100
AcDbDimension
  2
*D24
 10
797.4865521235879
 20
283.7454988421407
 30
0.0000000000000000
 11
796.9865521235879
 21
343.7454988421405
 31
0.0000000000000000
 70
32
  1
\A1;\U+2205120h7
  3
MAIN001
100
AcDbAlignedDimension
 13
678.4865521235884
 23
403.7454988421404
 33
0.0000000000000000
 14
678.4865521235884
 24
283.7454988421407
 34
0.0000000000000000
 50
90.00000000000000
100
AcDbRotatedDimension
1001
ACAD
1000
DSTYLE
1002
{
1070
   173
1070
     1
1070
     6
1000
_OPEN
1070
     7
1000
_OPEN
1070
    41
1040
3.000000
1002
}
  0
INSERT
  5
1B2
100
AcDbEntity
  8
MAIN10
  6
CONTINUOUS
 62
3
100
AcDbBlockReference
  2
D25
 10
755.4419793755151
 20
343.7454988421405
 30
0.0000000000000000
 50
0.0000000000000000
  0
DIMENSION
  5
1BB
100
AcDbEntity
  8
MAIN10
  6
CONTINUOUS
 62
3
100
AcDbDimension
  2
*D26
 10
827.4865521235879
 20
466.2454988421404
 30
0.0000000000000000
 11
826.9865521235879
 21
343.7454988421405
 31
0.0000000000000000
 70
32
  1
\A1;\U+2205245
  3
MAIN001
100
AcDbAlignedDimension
 13
671.4865521235882
 23
221.2454988421407
 33
0.0000000000000000
 14
671.4865521235882
 24
466.2454988421404
 34
0.0000000000000000
 50
90.00000000000000
100
AcDbRotatedDimension
1001
ACAD
1000
DSTYLE
1002
{
1070
   173
1070
     1
1070
     6
1000
_OPEN
1070
     7
1000
_OPEN
1070
    41
1040
3.000000
1002
}
  0
LEADER
  5
1BC
100
AcDbEntity
  8
MAIN0
  6
CONTINUOUS
 62
3
100
AcDbLeader
  3
MAIN001
 73
     0
 74
     0
 75
     1
 40
4.649999856948853
 41
38.13100109791765
 76
     3
 10
656.1313778713191
 20
263.2454988421407
 30
0.0000000000000000
 10
690.2223680412213
 20
237.6248553703613
 30
0.0000000000000000
 10
693.1103679575364
 20
237.6248553703613
 30
0.0000000000000000
340
1BD
213
-0.001000000000090040
223
-0.7500000000000000
233
0.0000000000000000
1001
ACAD
1000
DSTYLE
1002
{
1070
   147
1040
0.0
1070
    77
1070
     1
1070
   173
1070
     1
1070
     6
1000
_OPEN
1070
     7
1000
_OPEN
1002
}
  0
MTEXT
  5
1BD
102
{ACAD_REACTORS
330
1BC
102
}
100
AcDbEntity
  8
MAIN0
  6
CONTINUOUS
 62
3
100
AcDbMText
 10
693.1113679575365
 20
243.0248552273102
 30
0.0000000000000000
 40
4.649999856948853
 41
0.0000000000000000
 71
     1
 72
     1
  1
{\H0.93x;{12-M16×30}}
 11
1.000000000000000
 21
0.0000000000000000
 31
0.0000000000000000
  7
KNJYOKO
  0
LINE
  5
1BE
100
AcDbEntity
  8
MAIN0
  6
CONTINUOUS
 62
3
100
AcDbLine
 10
390.4865521235885
 20
388.7454988421404
 30
0.0000000000000000
 11
390.4865521235885
 21
391.9454988421404
 31
0.0000000000000000
  0
LINE
  5
1BF
100
AcDbEntity
  8
MAIN0
  6
CONTINUOUS
 62
3
100
AcDbLine
 10
391.0865521235885
 20
388.7454988421404
 30
0.0000000000000000
 11
391.0865521235885
 21
391.9454988421404
 31
0.0000000000000000
  0
LINE
  5
1C0
100
AcDbEntity
  8
MAIN0
  6
CONTINUOUS
 62
3
100
AcDbLine
 10
402.4865521235885
 20
388.7454988421404
 30
0.0000000000000000
 11
402.4865521235885
 21
391.9454988421404
 31
0.0000000000000000
  0
LINE
  5
1C1
100
AcDbEntity
  8
MAIN0
  6
CONTINUOUS
 62
3
100
AcDbLine
 10
401.8865521235884
 20
388.7454988421404
 30
0.0000000000000000
 11
401.8865521235884
 21
391.9454988421404
 31
0.0000000000000000
  0
LEADER
  5
1C2
100
AcDbEntity
  8
MAIN0
  6
CONTINUOUS
 62
3
100
AcDbLeader
  3
MAIN001
 73
     0
 74
     0
 75
     1
 40
4.649999856948853
 41
20.35600061511991
 76
     3
 10
402.4865521235885
 20
390.4478834504400
 30
0.0000000000000000
 10
409.8556743540421
 20
408.2269370751641
 30
0.0000000000000000
 10
412.7436742703572
 20
408.2269370751641
 30
0.0000000000000000
340
1C3
213
0.0000000000000000
223
-0.7500000000000000
233
0.0000000000000000
1001
ACAD
1000
DSTYLE
1002
{
1070
   147
1040
0.0
1070
    77
1070
     1
1070
   173
1070
     1
1070
     6
1000
_OPEN
1070
     7
1000
_OPEN
1002
}
  0
MTEXT
  5
1C3
102
{ACAD_REACTORS
330
1C2
102
}
100
AcDbEntity
  8
MAIN0
  6
CONTINUOUS
 62
3
100
AcDbMText
 10
412.7446742703572
 20
413.6269369321129
 30
0.0000000000000000
 40
4.649999856948853
 41
0.0000000000000000
 71
     1
 72
     1
  1
{\H0.92x;{M12x1}}
 11
1.000000000000000
 21
0.0000000000000000
 31
0.0000000000000000
  7
STANDARD
  0
ARC
  5
1C4
100
AcDbEntity
  8
MAIN0
  6
CENTER
 62
12
100
AcDbCircle
 10
267.0702760712627
 20
486.2859750672614
 30
0.0000000000000000
 40
5.600000000000000
100
AcDbArc
 50
30.00000000000010
 51
210.0000000000000
  0
ARC
  5
1C5
100
AcDbEntity
  8
MAIN0
  6
CENTER
 62
12
100
AcDbCircle
 10
267.0702760712627
 20
486.2859750672614
 30
0.0000000000000000
 40
6.000000000000000
100
AcDbArc
 50
30.00000000000009
 51
210.0000000000000
  0
ARC
  5
1C6
100
AcDbEntity
  8
MAIN0
  6
CENTER
 62
12
100
AcDbCircle
 10
126.5132645303311
 20
533.2464163441623
 30
0.0000000000000000
 40
6.000000000000000
100
AcDbArc
 50
89.99999999999970
 51
269.9999999999999
  0
ARC
  5
1C7
100
AcDbEntity
  8
MAIN0
  6
CENTER
 62
12
100
AcDbCircle
 10
126.5132645303311
 20
533.2464163441623
 30
0.0000000000000000
 40
5.600000000000000
100
AcDbArc
 50
89.99999999999970
 51
269.9999999999999
  0
SPLINE
  5
1C8
100
AcDbEntity
  8
MAIN0
  6
CONTINUOUS
 62
3
100
AcDbSpline
210
0.0000000000000000
220
0.0000000000000000
230
1.000000000000000
 70
     8
 71
     3
 72
    12
 73
     8
 74
     0
 42
1.000000000000000e-007
 43
1.000000000000000e-007
 12
-0.4565486246090416
 22
-0.8993464703209142
 32
0.0000000000000000
 13
0.6287395862706973
 23
-0.8282822579152693
 33
0.0000000000000000
 40
0.0000000000000000
 40
0.0000000000000000
 40
0.0000000000000000
 40
0.0000000000000000
 40
18.43123232501483
 40
28.95414677860723
 40
51.36990197927999
 40
61.45995079415416
 40
79.08456191271213
 40
79.08456191271213
 40
79.08456191271213
 40
79.08456191271213
 10
678.4872610316730
 20
379.9625419733112
 30
0.0000000000000000
 10
675.6823431090613
 20
374.4371873949222
 30
0.0000000000000000
 10
671.2760178128942
 20
365.7572508260908
 30
0.0000000000000000
 10
668.7946013794128
 20
348.6394859315650
 30
0.0000000000000000
 10
669.1765986288697
 20
334.4531941468617
 30
0.0000000000000000
 10
668.9843539492409
 20
317.3225709919118
 30
0.0000000000000000
 10
674.7927885559670
 20
309.6707172895728
 30
0.0000000000000000
 10
678.4865521235884
 20
304.8046663921869
 30
0.0000000000000000
  0
ARC
  5
1C9
100
AcDbEntity
  8
MAIN0
  6
CONTINUOUS
 62
3
100
AcDbCircle
 10
548.4865521235884
 20
382.7454988421405
 30
0.0000000000000000
 40
3.000000000000000
100
AcDbArc
 50
270.0000000000000
 51
360.0000000000000
  0
ARC
  5
1CA
100
AcDbEntity
  8
MAIN0
  6
CONTINUOUS
 62
3
100
AcDbCircle
 10
548.4865521235884
 20
304.7454988421405
 30
0.0000000000000000
 40
3.000000000000000
100
AcDbArc
 50
0.0000000000000000
 51
90.00000000000000
  0
DIMENSION
  5
1D4
100
AcDbEntity
  8
MAIN10
  6
CONTINUOUS
 62
3
100
AcDbDimension
  2
*D27
 10
434.4865521235873
 20
375.7454988421405
 30
0.0000000000000000
 11
429.1598122618484
 21
376.4954988421405
 31
0.0000000000000000
 70
160
  3
MAIN001
100
AcDbAlignedDimension
 13
439.4865521235873
 23
373.7454988421399
 33
0.0000000000000000
 14
434.4865521235873
 24
373.7454988421399
 34
0.0000000000000000
100
AcDbRotatedDimension
1001
ACAD
1000
DSTYLE
1002
{
1070
   173
1070
     1
1070
     6
1000
_DOT
1070
     7
1000
_OPEN
1070
    41
1040
3.000000
1070
   287
1070
     0
1002
}
  0
DIMENSION
  5
1DE
100
AcDbEntity
  8
MAIN10
  6
CONTINUOUS
 62
3
100
AcDbDimension
  2
*D28
 10
439.4865521235873
 20
375.7454988421405
 30
0.0000000000000000
 11
446.1138307761468
 21
376.4954988421405
 31
0.0000000000000000
 70
160
  3
MAIN001
100
AcDbAlignedDimension
 13
442.4865521235873
 23
383.7454988421404
 33
0.0000000000000000
 14
439.4865521235873
 24
373.7454988421399
 34
0.0000000000000000
100
AcDbRotatedDimension
1001
ACAD
1000
DSTYLE
1002
{
1070
   173
1070
     1
1070
     6
1000
_OPEN
1070
     7
1000
_DOT
1070
    41
1040
3.000000
1070
   287
1070
     0
1002
}
  0
LEADER
  5
1DF
100
AcDbEntity
  8
MAIN0
  6
CONTINUOUS
 62
3
100
AcDbLeader
  3
MAIN001
 73
     0
 74
     0
 75
     1
 40
4.649999856948853
 41
83.13100243902204
 76
     3
 10
317.4865521235879
 20
523.7454988421405
 30
0.0000000000000000
 10
362.4865521235879
 20
553.7454988421405
 30
0.0000000000000000
 10
365.3745520399030
 20
553.7454988421405
 30
0.0000000000000000
340
1E0
213
0.0000000000000000
223
-0.7500000000000000
233
0.0000000000000000
1001
ACAD
1000
DSTYLE
1002
{
1070
   147
1040
0.0
1070
    77
1070
     1
1070
   173
1070
     1
1070
     6
1000
_DOT
1070
     7
1000
_DOT
1002
}
  0
MTEXT
  5
1E0
102
{ACAD_REACTORS
330
1DF
102
}
100
AcDbEntity
  8
MAIN0
  6
CONTINUOUS
 62
3
100
AcDbMText
 10
365.3755520399030
 20
559.1454986990893
 30
0.0000000000000000
 40
4.649999856948853
 41
0.0000000000000000
 71
     1
 72
     1
  1
{\H0.94x;{近接スイッチ取付プレート\PTHE MOUNTING PLATE \PFOR PROXIMITY SWITCH}}
 11
1.000000000000000
 21
0.0000000000000000
 31
0.0000000000000000
  7
KNJYOKO
  0
LINE
  5
1E1
100
AcDbEntity
  8
MAIN0
  6
CONTINUOUS
 62
3
100
AcDbLine
 10
567.4865521235882
 20
466.2454988421404
 30
0.0000000000000000
 11
671.4865521235882
 21
466.2454988421404
 31
0.0000000000000000
  0
LINE
  5
1E2
100
AcDbEntity
  8
MAIN0
  6
CONTINUOUS
 62
3
100
AcDbLine
 10
678.4865521235884
 20
371.2454988421403
 30
0.0000000000000000
 11
678.4865521235884
 21
403.7454988421404
 31
0.0000000000000000
  0
LINE
  5
1E3
100
AcDbEntity
  8
MAIN0
  6
CONTINUOUS
 62
3
100
AcDbLine
 10
673.4865521235882
 20
403.7454988421404
 30
0.0000000000000000
 11
678.4865521235884
 21
403.7454988421404
 31
0.0000000000000000
  0
LINE
  5
1E4
100
AcDbEntity
  8
MAIN0
  6
CONTINUOUS
 62
3
100
AcDbLine
 10
565.4865521235882
 20
221.2454988421406
 30
0.0000000000000000
 11
671.4865521235882
 21
221.2454988421407
 31
0.0000000000000000
  0
LINE
  5
1E5
100
AcDbEntity
  8
MAIN0
  6
CONTINUOUS
 62
3
100
AcDbLine
 10
678.4865521235884
 20
316.2454988421408
 30
0.0000000000000000
 11
678.4865521235884
 21
283.7454988421407
 31
0.0000000000000000
  0
LINE
  5
1E6
100
AcDbEntity
  8
MAIN0
  6
CONTINUOUS
 62
3
100
AcDbLine
 10
673.4865521235882
 20
283.7454988421407
 30
0.0000000000000000
 11
678.4865521235884
 21
283.7454988421407
 31
0.0000000000000000
  0
LINE
  5
1E7
100
AcDbEntity
  8
MAIN0
  6
CENTER
 62
12
100
AcDbLine
 10
630.6558427119355
 20
271.2454988421403
 30
0.0000000000000000
 11
676.9868016193414
 21
271.2454988421403
 31
0.0000000000000000
  0
LINE
  5
1E8
100
AcDbEntity
  8
MAIN0
  6
CONTINUOUS
 62
3
100
AcDbLine
 10
671.8865521235884
 20
264.2454988421405
 30
0.0000000000000000
 11
671.8865521235882
 21
278.2454988421405
 31
0.0000000000000000
  0
LINE
  5
1E9
100
AcDbEntity
  8
MAIN0
  6
CONTINUOUS
 62
3
100
AcDbLine
 10
567.4865521235884
 20
221.2454988421407
 30
0.0000000000000000
 11
567.4865521235884
 21
466.2454988421546
 31
0.0000000000000000
  0
ARC
  5
1EA
100
AcDbEntity
  8
MAIN0
  6
CONTINUOUS
 62
3
100
AcDbCircle
 10
671.4865521235882
 20
464.2454988421404
 30
0.0000000000000000
 40
1.999999999999986
100
AcDbArc
 50
0.0000000000000000
 51
89.99999999999970
  0
ARC
  5
1EB
100
AcDbEntity
  8
MAIN0
  6
CONTINUOUS
 62
3
100
AcDbCircle
 10
671.4865521235882
 20
223.2454988421407
 30
0.0000000000000000
 40
1.999999999999986
100
AcDbArc
 50
269.9999999999999
 51
359.9999999999998
  0
LINE
  5
1EC
100
AcDbEntity
  8
MAIN0
  6
CONTINUOUS
 62
3
100
AcDbLine
 10
673.4865521235882
 20
371.2454988421403
 30
0.0000000000000000
 11
721.6205267198020
 21
371.2454988421403
 31
0.0000000000000000
  0
LINE
  5
1ED
100
AcDbEntity
  8
MAIN0
  6
CONTINUOUS
 62
3
100
AcDbLine
 10
671.1045947651724
 20
316.2454988421408
 30
0.0000000000000000
 11
721.6205267198020
 21
316.2454988421408
 31
0.0000000000000000
  0
LINE
  5
1EE
100
AcDbEntity
  8
MAIN0
  6
CONTINUOUS
 62
3
100
AcDbLine
 10
742.4865521235879
 20
317.7454988421408
 30
0.0000000000000000
 11
742.4865521235879
 21
369.7454988421403
 31
0.0000000000000000
  0
LINE
  5
1EF
100
AcDbEntity
  8
MAIN0
  6
CONTINUOUS
 62
3
100
AcDbLine
 10
722.4865521235843
 20
370.7454988421403
 30
0.0000000000000000
 11
741.4865521235879
 21
370.7454988421403
 31
0.0000000000000000
  0
LINE
  5
1F0
100
AcDbEntity
  8
MAIN0
  6
CONTINUOUS
 62
3
100
AcDbLine
 10
721.6205267198030
 20
371.2454988421405
 30
0.0000000000000000
 11
722.4865521235874
 21
370.7454988421405
 31
0.0000000000000000
  0
LINE
  5
1F1
100
AcDbEntity
  8
MAIN0
  6
CONTINUOUS
 62
3
100
AcDbLine
 10
722.4865521235843
 20
316.7454988421408
 30
0.0000000000000000
 11
741.4865521235879
 21
316.7454988421408
 31
0.0000000000000000
  0
LINE
  5
1F2
100
AcDbEntity
  8
MAIN0
  6
CONTINUOUS
 62
3
100
AcDbLine
 10
721.6205267198030
 20
316.2454988421406
 30
0.0000000000000000
 11
722.4865521235874
 21
316.7454988421407
 31
0.0000000000000000
  0
LINE
  5
1F3
100
AcDbEntity
  8
MAIN0
  6
CONTINUOUS
 62
3
100
AcDbLine
 10
741.4865521235881
 20
370.7454988421404
 30
0.0000000000000000
 11
742.4865521235881
 21
369.7454988421404
 31
0.0000000000000000
  0
LINE
  5
1F4
100
AcDbEntity
  8
MAIN0
  6
CONTINUOUS
 62
3
100
AcDbLine
 10
741.4865521235881
 20
316.7454988421406
 30
0.0000000000000000
 11
742.4865521235881
 21
317.7454988421406
 31
0.0000000000000000
  0
LINE
  5
1F5
100
AcDbEntity
  8
MAIN0
  6
CONTINUOUS
 62
3
100
AcDbLine
 10
737.4865521235879
 20
362.2454988421412
 30
0.0000000000000000
 11
741.6205267198020
 21
362.2454988421412
 31
0.0000000000000000
  0
LINE
  5
1F6
100
AcDbEntity
  8
MAIN0
  6
CONTINUOUS
 62
3
100
AcDbLine
 10
742.4865521235851
 20
362.7454988421398
 30
0.0000000000000000
 11
741.6205267198006
 21
362.2454988421398
 31
0.0000000000000000
  0
LINE
  5
1F7
100
AcDbEntity
  8
MAIN0
  6
CONTINUOUS
 62
3
100
AcDbLine
 10
736.0431764506138
 20
359.7454988421412
 30
0.0000000000000000
 11
737.4865521235879
 21
362.2454988421414
 31
0.0000000000000000
  0
LINE
  5
1F8
100
AcDbEntity
  8
MAIN0
  6
CONTINUOUS
 62
3
100
AcDbLine
 10
737.4865521235879
 20
325.2454988421399
 30
0.0000000000000000
 11
741.6205267198020
 21
325.2454988421399
 31
0.0000000000000000
  0
LINE
  5
1F9
100
AcDbEntity
  8
MAIN0
  6
CONTINUOUS
 62
3
100
AcDbLine
 10
742.4865521235874
 20
324.7454988421399
 30
0.0000000000000000
 11
741.6205267198031
 21
325.2454988421399
 31
0.0000000000000000
  0
LINE
  5
1FA
100
AcDbEntity
  8
MAIN0
  6
CONTINUOUS
 62
3
100
AcDbLine
 10
736.0431764506129
 20
327.7454988421413
 30
0.0000000000000000
 11
737.4865521235879
 21
325.2454988421396
 31
0.0000000000000000
  0
LINE
  5
1FB
100
AcDbEntity
  8
MAIN0
  6
CONTINUOUS
 62
3
100
AcDbLine
 10
737.4865521235879
 20
325.2454988421399
 30
0.0000000000000000
 11
737.4865521235879
 21
362.2454988421412
 31
0.0000000000000000
  0
LINE
  5
1FC
100
AcDbEntity
  8
MAIN0
  6
CONTINUOUS
 62
3
100
AcDbLine
 10
741.6205267198020
 20
325.2454988421399
 30
0.0000000000000000
 11
741.6205267198020
 21
362.2454988421412
 31
0.0000000000000000
  0
LINE
  5
1FD
100
AcDbEntity
  8
MAIN0
  6
CONTINUOUS
 62
3
100
AcDbLine
 10
736.0431764506102
 20
359.7454988421412
 30
0.0000000000000000
 11
736.0431764506102
 21
327.7454988421413
 31
0.0000000000000000
  0
LINE
  5
1FE
100
AcDbEntity
  8
MAIN0
  6
CONTINUOUS
 62
3
100
AcDbLine
 10
552.4865521235884
 20
466.2454988421404
 30
0.0000000000000000
 11
567.4865521235882
 21
466.2454988421404
 31
0.0000000000000000
  0
LINE
  5
1FF
100
AcDbEntity
  8
MAIN0
  6
CONTINUOUS
 62
3
100
AcDbLine
 10
552.4865521235884
 20
221.2454988421407
 30
0.0000000000000000
 11
567.4865521235882
 21
221.2454988421407
 31
0.0000000000000000
  0
LINE
  5
200
100
AcDbEntity
  8
MAIN0
  6
CONTINUOUS
 62
3
100
AcDbLine
 10
526.4865521235882
 20
307.7454988421405
 30
0.0000000000000000
 11
548.4865521235884
 21
307.7454988421405
 31
0.0000000000000000
  0
LINE
  5
201
100
AcDbEntity
  8
MAIN0
  6
CONTINUOUS
 62
3
100
AcDbLine
 10
525.4865521235882
 20
319.4775496497089
 30
0.0000000000000000
 11
526.4865521235882
 21
317.7454988421400
 31
0.0000000000000000
  0
LINE
  5
202
100
AcDbEntity
  8
MAIN0
  6
CONTINUOUS
 62
3
100
AcDbLine
 10
526.4865521235882
 20
379.7454988421406
 30
0.0000000000000000
 11
548.4865521235884
 21
379.7454988421405
 31
0.0000000000000000
  0
LINE
  5
203
100
AcDbEntity
  8
MAIN0
  6
CONTINUOUS
 62
3
100
AcDbLine
 10
525.4865521235881
 20
368.0134480345723
 30
0.0000000000000000
 11
526.4865521235881
 21
369.7454988421411
 31
0.0000000000000000
  0
ARC
  5
204
100
AcDbEntity
  8
MAIN0
  6
CONTINUOUS
 62
3
100
AcDbCircle
 10
552.4865521235884
 20
465.2454988421404
 30
0.0000000000000000
 40
0.9999999999999999
100
AcDbArc
 50
89.99999999999970
 51
179.9999999999998
  0
ARC
  5
205
100
AcDbEntity
  8
MAIN0
  6
CONTINUOUS
 62
3
100
AcDbCircle
 10
552.4865521235884
 20
222.2454988421407
 30
0.0000000000000000
 40
0.9999999999999999
100
AcDbArc
 50
179.9999999999998
 51
269.9999999999999
  0
LINE
  5
206
100
AcDbEntity
  8
MAIN0
  6
CONTINUOUS
 62
3
100
AcDbLine
 10
112.5132645303291
 20
502.4011173441620
 30
0.0000000000000000
 11
110.5132645303300
 21
503.5558183441615
 31
0.0000000000000000
  0
LINE
  5
207
100
AcDbEntity
  8
MAIN0
  6
CONTINUOUS
 62
3
100
AcDbLine
 10
110.5132645303288
 20
503.5558183441622
 30
0.0000000000000000
 11
108.5132645303287
 21
502.4011173441621
 31
0.0000000000000000
  0
LINE
  5
208
100
AcDbEntity
  8
MAIN0
  6
CONTINUOUS
 62
3
100
AcDbLine
 10
108.5132645303311
 20
502.4011173441623
 30
0.0000000000000000
 11
108.5132645303311
 21
500.0917153441623
 31
0.0000000000000000
  0
LINE
  5
209
100
AcDbEntity
  8
MAIN0
  6
CONTINUOUS
 62
3
100
AcDbLine
 10
108.5132645303294
 20
500.0917153441619
 30
0.0000000000000000
 11
110.5132645303315
 21
498.9370153441606
 31
0.0000000000000000
  0
LINE
  5
20A
100
AcDbEntity
  8
MAIN0
  6
CONTINUOUS
 62
3
100
AcDbLine
 10
110.5132645303297
 20
498.9370153441605
 30
0.0000000000000000
 11
112.5132645303297
 21
500.0917183441605
 31
0.0000000000000000
  0
LINE
  5
20B
100
AcDbEntity
  8
MAIN0
  6
CONTINUOUS
 62
3
100
AcDbLine
 10
112.5132645303311
 20
500.0917183441623
 30
0.0000000000000000
 11
112.5132645303311
 21
502.4011173441623
 31
0.0000000000000000
  0
CIRCLE
  5
20C
100
AcDbEntity
  8
MAIN0
  6
CONTINUOUS
 62
3
100
AcDbCircle
 10
110.5132645303311
 20
501.2464163441623
 30
0.0000000000000000
 40
4.249999999999996
  0
LINE
  5
20D
100
AcDbEntity
  8
MAIN0
  6
CONTINUOUS
 62
3
100
AcDbLine
 10
273.1946317242449
 20
508.2970825278125
 30
0.0000000000000000
 11
271.1946317242449
 21
509.4517835278124
 31
0.0000000000000000
  0
LINE
  5
20E
100
AcDbEntity
  8
MAIN0
  6
CONTINUOUS
 62
3
100
AcDbLine
 10
271.1946317242449
 20
509.4517835278124
 30
0.0000000000000000
 11
269.1946317242449
 21
508.2970825278125
 31
0.0000000000000000
  0
LINE
  5
20F
100
AcDbEntity
  8
MAIN0
  6
CONTINUOUS
 62
3
100
AcDbLine
 10
269.1946317242449
 20
508.2970825278125
 30
0.0000000000000000
 11
269.1946317242449
 21
505.9876805278125
 31
0.0000000000000000
  0
LINE
  5
210
100
AcDbEntity
  8
MAIN0
  6
CONTINUOUS
 62
3
100
AcDbLine
 10
269.1946317242449
 20
505.9876805278124
 30
0.0000000000000000
 11
271.1946317242449
 21
504.8329805278124
 31
0.0000000000000000
  0
LINE
  5
211
100
AcDbEntity
  8
MAIN0
  6
CONTINUOUS
 62
3
100
AcDbLine
 10
271.1946317242449
 20
504.8329805278124
 30
0.0000000000000000
 11
273.1946317242450
 21
505.9876835278125
 31
0.0000000000000000
  0
LINE
  5
212
100
AcDbEntity
  8
MAIN0
  6
CONTINUOUS
 62
3
100
AcDbLine
 10
273.1946317242449
 20
505.9876835278125
 30
0.0000000000000000
 11
273.1946317242449
 21
508.2970825278125
 31
0.0000000000000000
  0
CIRCLE
  5
213
100
AcDbEntity
  8
MAIN0
  6
CONTINUOUS
 62
3
100
AcDbCircle
 10
271.1946317242449
 20
507.1423815278125
 30
0.0000000000000000
 40
4.249999999999996
  0
CIRCLE
  5
214
100
AcDbEntity
  8
MAIN0
  6
CONTINUOUS
 62
12
100
AcDbCircle
 10
142.5132645303311
 20
501.2464163441623
 30
0.0000000000000000
 40
2.499999999999993
  0
CIRCLE
  5
215
100
AcDbEntity
  8
MAIN0
  6
CONTINUOUS
 62
3
100
AcDbCircle
 10
142.5132645303311
 20
501.2464163441623
 30
0.0000000000000000
 40
2.099999999999994
  0
CIRCLE
  5
216
100
AcDbEntity
  8
MAIN0
  6
CONTINUOUS
 62
12
100
AcDbCircle
 10
287.1946317242449
 20
479.4295686067105
 30
0.0000000000000000
 40
2.499999999999993
  0
CIRCLE
  5
217
100
AcDbEntity
  8
MAIN0
  6
CONTINUOUS
 62
3
100
AcDbCircle
 10
287.1946317242449
 20
479.4295686067105
 30
0.0000000000000000
 40
2.099999999999994
  0
LINE
  5
218
100
AcDbEntity
  8
MAIN0
  6
CONTINUOUS
 62
3
100
AcDbLine
 10
462.0639023927777
 20
384.7454988421402
 30
0.0000000000000000
 11
510.9092018543985
 21
384.7454988421402
 31
0.0000000000000000
  0
LINE
  5
219
100
AcDbEntity
  8
MAIN0
  6
CONTINUOUS
 62
3
100
AcDbLine
 10
462.5274535428673
 20
356.4634665393853
 30
0.0000000000000000
 11
470.4865521235881
 21
356.4634665393853
 31
0.0000000000000000
  0
LINE
  5
21A
100
AcDbEntity
  8
MAIN0
  6
CONTINUOUS
 62
3
100
AcDbLine
 10
463.1536270911445
 20
378.2282523345191
 30
0.0000000000000000
 11
470.4865521235881
 21
378.2282523345191
 31
0.0000000000000000
  0
LINE
  5
21B
100
AcDbEntity
  8
MAIN0
  6
CONTINUOUS
 62
3
100
AcDbLine
 10
470.4865521235881
 20
378.2282523345191
 30
0.0000000000000000
 11
470.4865521235881
 21
356.4634665393853
 31
0.0000000000000000
  0
LINE
  5
21C
100
AcDbEntity
  8
MAIN0
  6
CONTINUOUS
 62
3
100
AcDbLine
 10
474.3364242235880
 20
369.7998146008179
 30
0.0000000000000000
 11
507.0195556235882
 21
369.7998146008179
 31
0.0000000000000000
  0
LINE
  5
21D
100
AcDbEntity
  8
MAIN0
  6
CONTINUOUS
 62
3
100
AcDbLine
 10
465.9535486235880
 20
317.6911830834632
 30
0.0000000000000000
 11
507.0195556235882
 21
317.6911830834632
 31
0.0000000000000000
  0
LINE
  5
21E
100
AcDbEntity
  8
MAIN0
  6
CONTINUOUS
 62
3
100
AcDbLine
 10
470.4865521235881
 20
356.4634665393852
 30
0.0000000000000000
 11
474.3364242235882
 21
369.7998146008181
 31
0.0000000000000000
  0
LINE
  5
21F
100
AcDbEntity
  8
MAIN0
  6
CONTINUOUS
 62
3
100
AcDbLine
 10
511.4865521235883
 20
303.7454988421410
 30
0.0000000000000000
 11
511.4865521235883
 21
383.7454988421400
 31
0.0000000000000000
  0
LINE
  5
220
100
AcDbEntity
  8
MAIN0
  6
CENTER
 62
12
100
AcDbLine
 10
475.3807623700604
 20
357.7454988421405
 30
0.0000000000000000
 11
507.3113328468020
 21
357.7454988421405
 31
0.0000000000000000
  0
LINE
  5
221
100
AcDbEntity
  8
MAIN0
  6
CENTER
 62
12
100
AcDbLine
 10
464.8522938535477
 20
329.7454988421405
 30
0.0000000000000000
 11
490.9145294903926
 21
329.7454988421405
 31
0.0000000000000000
  0
LINE
  5
222
100
AcDbEntity
  8
MAIN0
  6
CENTER
 62
12
100
AcDbLine
 10
490.4865521235880
 20
371.9068775185293
 30
0.0000000000000000
 11
490.4865521235880
 21
341.4433907517622
 31
0.0000000000000000
  0
LINE
  5
223
100
AcDbEntity
  8
MAIN0
  6
CENTER
 62
12
100
AcDbLine
 10
479.4865521235880
 20
346.0172066427054
 30
0.0000000000000000
 11
479.4865521235880
 21
314.8633192112062
 31
0.0000000000000000
  0
LINE
  5
224
100
AcDbEntity
  8
MAIN0
  6
CONTINUOUS
 62
3
100
AcDbLine
 10
461.4865521235881
 20
383.7454988421404
 30
0.0000000000000000
 11
462.0639023927776
 21
384.7454988421402
 31
0.0000000000000000
  0
LINE
  5
225
100
AcDbEntity
  8
MAIN0
  6
CONTINUOUS
 62
3
100
AcDbLine
 10
462.0639023927776
 20
302.7454988421407
 30
0.0000000000000000
 11
461.4865521235881
 21
303.7454988421404
 31
0.0000000000000000
  0
LINE
  5
226
100
AcDbEntity
  8
MAIN0
  6
CONTINUOUS
 62
3
100
AcDbLine
 10
510.9092018543985
 20
384.7454988421403
 30
0.0000000000000000
 11
511.4865521235882
 21
383.7454988421401
 31
0.0000000000000000
  0
LINE
  5
227
100
AcDbEntity
  8
MAIN0
  6
CONTINUOUS
 62
3
100
AcDbLine
 10
510.9092018543985
 20
302.7454988421405
 30
0.0000000000000000
 11
511.4865521235883
 21
303.7454988421409
 31
0.0000000000000000
  0
ARC
  5
228
100
AcDbEntity
  8
MAIN0
  6
CONTINUOUS
 62
3
100
AcDbCircle
 10
433.2705262789421
 20
343.7454988421405
 30
0.0000000000000000
 40
78.21602584464620
100
AcDbArc
 50
340.5425255662330
 51
379.4574744337668
  0
ARC
  5
229
100
AcDbEntity
  8
MAIN0
  6
CONTINUOUS
 62
3
100
AcDbCircle
 10
401.3909739346570
 20
341.5738701853505
 30
0.0000000000000000
 40
78.21599999999995
100
AcDbArc
 50
21.15374252409700
 51
27.94541854805983
  0
ARC
  5
22A
100
AcDbEntity
  8
MAIN0
  6
CONTINUOUS
 62
3
100
AcDbCircle
 10
484.4865521235881
 20
243.6185168457665
 30
0.0000000000000000
 40
60.99999999999625
100
AcDbArc
 50
76.34136644349999
 51
103.6817072922514
  0
ARC
  5
22B
100
AcDbEntity
  8
MAIN0
  6
CONTINUOUS
 62
3
100
AcDbCircle
 10
539.7025779682344
 20
343.7454988421405
 30
0.0000000000000000
 40
78.21602584464625
100
AcDbArc
 50
170.6421270324403
 51
199.4574744337666
  0
ARC
  5
22C
100
AcDbEntity
  8
MAIN0
  6
CONTINUOUS
 62
3
100
AcDbCircle
 10
461.1567438062072
 20
389.7146957755448
 30
0.0000000000000000
 40
49.99999999999989
100
AcDbArc
 50
336.5282022431862
 51
354.2963039588780
  0
ARC
  5
22D
100
AcDbEntity
  8
MAIN0
  6
CONTINUOUS
 62
3
100
AcDbCircle
 10
511.8163604409689
 20
389.7146957755456
 30
0.0000000000000000
 40
49.99999999999989
100
AcDbArc
 50
185.7036960411226
 51
193.2811096523984
  0
ARC
  5
22E
100
AcDbEntity
  8
MAIN0
  6
CONTINUOUS
 62
3
100
AcDbCircle
 10
511.8163604409689
 20
297.7763019087354
 30
0.0000000000000000
 40
49.99999999999989
100
AcDbArc
 50
156.5282022431852
 51
174.2963039588770
  0
ARC
  5
22F
100
AcDbEntity
  8
MAIN0
  6
CONTINUOUS
 62
3
100
AcDbCircle
 10
461.1567438062070
 20
297.7763019087365
 30
0.0000000000000000
 40
49.99999999999989
100
AcDbArc
 50
5.703696041121529
 51
23.47179775681351
  0
ARC
  5
230
100
AcDbEntity
  8
MAIN0
  6
CONTINUOUS
 62
3
100
AcDbCircle
 10
546.1078949559624
 20
364.9502509726022
 30
0.0000000000000000
 40
84.01021293363669
100
AcDbArc
 50
170.9061413644370
 51
185.7979594798232
  0
LINE
  5
231
100
AcDbEntity
  8
MAIN0
  6
CONTINUOUS
 62
3
100
AcDbLine
 10
430.4865521235874
 20
349.2454988421405
 30
0.0000000000000000
 11
431.9865521235874
 21
350.7454988421405
 31
0.0000000000000000
  0
LINE
  5
232
100
AcDbEntity
  8
MAIN0
  6
CONTINUOUS
 62
3
100
AcDbLine
 10
431.9865521235874
 20
350.7454988421405
 30
0.0000000000000000
 11
431.9865521235874
 21
356.7454988421405
 31
0.0000000000000000
  0
LINE
  5
233
100
AcDbEntity
  8
MAIN0
  6
CONTINUOUS
 62
3
100
AcDbLine
 10
431.9865521235874
 20
356.7454988421405
 30
0.0000000000000000
 11
431.1205267198030
 21
357.2454988421405
 31
0.0000000000000000
  0
LINE
  5
234
100
AcDbEntity
  8
MAIN0
  6
CONTINUOUS
 62
3
100
AcDbLine
 10
431.1205267198030
 20
357.2454988421405
 30
0.0000000000000000
 11
426.8525775273719
 21
357.2454988421405
 31
0.0000000000000000
  0
LINE
  5
235
100
AcDbEntity
  8
MAIN0
  6
CONTINUOUS
 62
3
100
AcDbLine
 10
426.8525775273719
 20
357.2454988421405
 30
0.0000000000000000
 11
425.9865521235874
 21
356.7454988421405
 31
0.0000000000000000
  0
LINE
  5
236
100
AcDbEntity
  8
MAIN0
  6
CONTINUOUS
 62
3
100
AcDbLine
 10
425.9865521235874
 20
356.7454988421405
 30
0.0000000000000000
 11
425.9865521235874
 21
350.7454988421405
 31
0.0000000000000000
  0
LINE
  5
237
100
AcDbEntity
  8
MAIN0
  6
CONTINUOUS
 62
3
100
AcDbLine
 10
425.9865521235874
 20
350.7454988421405
 30
0.0000000000000000
 11
427.4865521235874
 21
349.2454988421405
 31
0.0000000000000000
  0
LINE
  5
238
100
AcDbEntity
  8
MAIN0
  6
CONTINUOUS
 62
3
100
AcDbLine
 10
427.4865521235874
 20
349.2454988421405
 30
0.0000000000000000
 11
430.4865521235874
 21
349.2454988421405
 31
0.0000000000000000
  0
LINE
  5
239
100
AcDbEntity
  8
MAIN0
  6
CONTINUOUS
 62
3
100
AcDbLine
 10
431.9865521235874
 20
350.7454988421405
 30
0.0000000000000000
 11
425.9865521235874
 21
350.7454988421405
 31
0.0000000000000000
  0
LINE
  5
23A
100
AcDbEntity
  8
MAIN0
  6
CONTINUOUS
 62
3
100
AcDbLine
 10
431.9865521235874
 20
356.7454988421405
 30
0.0000000000000000
 11
425.9865521235874
 21
356.7454988421405
 31
0.0000000000000000
  0
LINE
  5
23B
100
AcDbEntity
  8
MAIN0
  6
CONTINUOUS
 62
3
100
AcDbLine
 10
431.4452861235874
 20
350.2042328421405
 30
0.0000000000000000
 11
431.4452861235874
 21
357.0579989129437
 31
0.0000000000000000
  0
LINE
  5
23C
100
AcDbEntity
  8
MAIN0
  6
CONTINUOUS
 62
3
100
AcDbLine
 10
426.5278181235875
 20
350.2042328421405
 30
0.0000000000000000
 11
426.5278181235875
 21
357.0579989129437
 31
0.0000000000000000
  0
LINE
  5
23D
100
AcDbEntity
  8
MAIN0
  6
HIDDEN
 62
3
100
AcDbLine
 10
430.4865521235874
 20
349.2454988421405
 30
0.0000000000000000
 11
428.9865521235874
 21
350.7454988421405
 31
0.0000000000000000
  0
LINE
  5
23E
100
AcDbEntity
  8
MAIN0
  6
HIDDEN
 62
3
100
AcDbLine
 10
428.9865521235874
 20
350.7454988421405
 30
0.0000000000000000
 11
427.4865521235874
 21
349.2454988421405
 31
0.0000000000000000
  0
LINE
  5
23F
100
AcDbEntity
  8
MAIN0
  6
CONTINUOUS
 62
3
100
AcDbLine
 10
430.4865521235874
 20
357.2454988421405
 30
0.0000000000000000
 11
431.9865521235874
 21
358.7454988421405
 31
0.0000000000000000
  0
LINE
  5
240
100
AcDbEntity
  8
MAIN0
  6
CONTINUOUS
 62
3
100
AcDbLine
 10
431.9865521235874
 20
358.7454988421405
 30
0.0000000000000000
 11
431.9865521235874
 21
362.7454988421405
 31
0.0000000000000000
  0
LINE
  5
241
100
AcDbEntity
  8
MAIN0
  6
CONTINUOUS
 62
3
100
AcDbLine
 10
431.9865521235874
 20
362.7454988421405
 30
0.0000000000000000
 11
431.1205267198030
 21
363.2454988421405
 31
0.0000000000000000
  0
LINE
  5
242
100
AcDbEntity
  8
MAIN0
  6
CONTINUOUS
 62
3
100
AcDbLine
 10
431.1205267198030
 20
363.2454988421405
 30
0.0000000000000000
 11
426.8525775273719
 21
363.2454988421405
 31
0.0000000000000000
  0
LINE
  5
243
100
AcDbEntity
  8
MAIN0
  6
CONTINUOUS
 62
3
100
AcDbLine
 10
426.8525775273719
 20
363.2454988421405
 30
0.0000000000000000
 11
425.9865521235874
 21
362.7454988421405
 31
0.0000000000000000
  0
LINE
  5
244
100
AcDbEntity
  8
MAIN0
  6
CONTINUOUS
 62
3
100
AcDbLine
 10
425.9865521235874
 20
362.7454988421405
 30
0.0000000000000000
 11
425.9865521235874
 21
358.7454988421405
 31
0.0000000000000000
  0
LINE
  5
245
100
AcDbEntity
  8
MAIN0
  6
CONTINUOUS
 62
3
100
AcDbLine
 10
425.9865521235874
 20
358.7454988421405
 30
0.0000000000000000
 11
427.4865521235874
 21
357.2454988421405
 31
0.0000000000000000
  0
LINE
  5
246
100
AcDbEntity
  8
MAIN0
  6
CONTINUOUS
 62
3
100
AcDbLine
 10
427.4865521235874
 20
357.2454988421405
 30
0.0000000000000000
 11
430.4865521235874
 21
357.2454988421405
 31
0.0000000000000000
  0
LINE
  5
247
100
AcDbEntity
  8
MAIN0
  6
CONTINUOUS
 62
3
100
AcDbLine
 10
431.9865521235874
 20
358.7454988421405
 30
0.0000000000000000
 11
425.9865521235874
 21
358.7454988421405
 31
0.0000000000000000
  0
LINE
  5
248
100
AcDbEntity
  8
MAIN0
  6
CONTINUOUS
 62
3
100
AcDbLine
 10
431.9865521235874
 20
362.7454988421405
 30
0.0000000000000000
 11
425.9865521235874
 21
362.7454988421405
 31
0.0000000000000000
  0
LINE
  5
249
100
AcDbEntity
  8
MAIN0
  6
CONTINUOUS
 62
3
100
AcDbLine
 10
431.4452861235874
 20
358.2042328421405
 30
0.0000000000000000
 11
431.4452861235874
 21
363.0579989129437
 31
0.0000000000000000
  0
LINE
  5
24A
100
AcDbEntity
  8
MAIN0
  6
CONTINUOUS
 62
3
100
AcDbLine
 10
426.5278181235875
 20
358.2042328421405
 30
0.0000000000000000
 11
426.5278181235875
 21
363.0579989129437
 31
0.0000000000000000
  0
LINE
  5
24B
100
AcDbEntity
  8
MAIN0
  6
HIDDEN
 62
3
100
AcDbLine
 10
430.4865521235874
 20
357.2454988421405
 30
0.0000000000000000
 11
428.9865521235874
 21
358.7454988421405
 31
0.0000000000000000
  0
LINE
  5
24C
100
AcDbEntity
  8
MAIN0
  6
HIDDEN
 62
3
100
AcDbLine
 10
428.9865521235874
 20
358.7454988421405
 30
0.0000000000000000
 11
427.4865521235874
 21
357.2454988421405
 31
0.0000000000000000
  0
LINE
  5
24D
100
AcDbEntity
  8
MAIN0
  6
CONTINUOUS
 62
3
100
AcDbLine
 10
673.4865521235845
 20
327.7454988421449
 30
0.0000000000000000
 11
673.4865521235865
 21
359.7454988421449
 31
0.0000000000000000
  0
LINE
  5
24E
100
AcDbEntity
  8
MAIN0
  6
CONTINUOUS
 62
3
100
AcDbLine
 10
673.4865521235844
 20
327.7454988421449
 30
0.0000000000000000
 11
670.7152708314773
 21
332.5454988421405
 31
0.0000000000000000
  0
LINE
  5
24F
100
AcDbEntity
  8
MAIN0
  6
CONTINUOUS
 62
3
100
AcDbLine
 10
670.7152708314734
 20
354.9454988421405
 30
0.0000000000000000
 11
673.4865521235865
 21
359.7454988421450
 31
0.0000000000000000
  0
LINE
  5
250
100
AcDbEntity
  8
MAIN0
  6
CONTINUOUS
 62
3
100
AcDbLine
 10
670.7152708314734
 20
354.9454988421406
 30
0.0000000000000000
 11
670.7152708314773
 21
332.5454988421406
 31
0.0000000000000000
  0
LINE
  5
251
100
AcDbEntity
  8
MAIN0
  6
CONTINUOUS
 62
12
100
AcDbLine
 10
669.9014891932013
 20
355.7454988133126
 30
0.0000000000000000
 11
671.1771510468252
 21
355.7454988421405
 31
0.0000000000000000
  0
LINE
  5
252
100
AcDbEntity
  8
MAIN0
  6
CONTINUOUS
 62
3
100
AcDbLine
 10
669.8028995123516
 20
354.9454987846879
 30
0.0000000000000000
 11
670.7152708314734
 21
354.9454988421405
 31
0.0000000000000000
  0
LINE
  5
253
100
AcDbEntity
  8
MAIN0
  6
CONTINUOUS
 62
3
100
AcDbLine
 10
669.0836306304625
 20
332.5454967776354
 30
0.0000000000000000
 11
670.7152708314773
 21
332.5454988421406
 31
0.0000000000000000
  0
LINE
  5
254
100
AcDbEntity
  8
MAIN0
  6
CONTINUOUS
 62
12
100
AcDbLine
 10
669.0866198096059
 20
331.7454988421404
 30
0.0000000000000000
 11
671.1771510468288
 21
331.7454988421405
 31
0.0000000000000000
  0
LINE
  5
255
100
AcDbEntity
  8
MAIN0
  6
CONTINUOUS
 62
12
100
AcDbLine
 10
643.4865521235882
 20
263.2454988421407
 30
0.0000000000000000
 11
672.8865521235882
 21
263.2454988421406
 31
0.0000000000000000
  0
LINE
  5
256
100
AcDbEntity
  8
MAIN0
  6
CONTINUOUS
 62
12
100
AcDbLine
 10
643.4865521235882
 20
279.2454988421407
 30
0.0000000000000000
 11
672.8865521235882
 21
279.2454988421406
 31
0.0000000000000000
  0
LINE
  5
257
100
AcDbEntity
  8
MAIN0
  6
CONTINUOUS
 62
3
100
AcDbLine
 10
671.8865521235884
 20
264.2454988421405
 30
0.0000000000000000
 11
673.4865521235881
 21
262.6454988421402
 31
0.0000000000000000
  0
LINE
  5
258
100
AcDbEntity
  8
MAIN0
  6
CONTINUOUS
 62
3
100
AcDbLine
 10
671.8865521235882
 20
278.2454988421405
 30
0.0000000000000000
 11
673.4865521235882
 21
279.8454988421402
 31
0.0000000000000000
  0
LINE
  5
259
100
AcDbEntity
  8
MAIN0
  6
CONTINUOUS
 62
3
100
AcDbLine
 10
639.4865521235881
 20
264.2454988421406
 30
0.0000000000000000
 11
671.8865521235884
 21
264.2454988421405
 31
0.0000000000000000
  0
LINE
  5
25A
100
AcDbEntity
  8
MAIN0
  6
CONTINUOUS
 62
3
100
AcDbLine
 10
639.4865521235884
 20
278.2454988421406
 30
0.0000000000000000
 11
671.8865521235882
 21
278.2454988421405
 31
0.0000000000000000
  0
LINE
  5
25B
100
AcDbEntity
  8
MAIN0
  6
CONTINUOUS
 62
3
100
AcDbLine
 10
643.4865521235882
 20
263.2454988421407
 30
0.0000000000000000
 11
643.4865521235882
 21
279.2454988421407
 31
0.0000000000000000
  0
LINE
  5
25C
100
AcDbEntity
  8
MAIN0
  6
CONTINUOUS
 62
3
100
AcDbLine
 10
639.4865521235882
 20
264.2454988421405
 30
0.0000000000000000
 11
639.4865521235884
 21
278.2454988421405
 31
0.0000000000000000
  0
LINE
  5
25D
100
AcDbEntity
  8
MAIN0
  6
CONTINUOUS
 62
3
100
AcDbLine
 10
635.4451002392609
 20
271.2454988421406
 30
0.0000000000000000
 11
639.4865521235881
 21
264.2454988421406
 31
0.0000000000000000
  0
LINE
  5
25E
100
AcDbEntity
  8
MAIN0
  6
CONTINUOUS
 62
3
100
AcDbLine
 10
635.4451002392609
 20
271.2454988421406
 30
0.0000000000000000
 11
639.4865521235882
 21
278.2454988421405
 31
0.0000000000000000
  0
LINE
  5
25F
100
AcDbEntity
  8
MAIN0
  6
CONTINUOUS
 62
12
100
AcDbLine
 10
682.4865521235881
 20
325.7454988421417
 30
0.0000000000000000
 11
737.1978769889902
 21
325.7454988421417
 31
0.0000000000000000
  0
LINE
  5
260
100
AcDbEntity
  8
MAIN0
  6
CONTINUOUS
 62
12
100
AcDbLine
 10
682.4865521235881
 20
361.7454988421414
 30
0.0000000000000000
 11
737.1978769889902
 21
361.7454988421414
 31
0.0000000000000000
  0
LINE
  5
261
100
AcDbEntity
  8
MAIN0
  6
CONTINUOUS
 62
3
100
AcDbLine
 10
673.4865521235844
 20
327.7454988421412
 30
0.0000000000000000
 11
736.0431764506102
 21
327.7454988421412
 31
0.0000000000000000
  0
LINE
  5
262
100
AcDbEntity
  8
MAIN0
  6
CONTINUOUS
 62
3
100
AcDbLine
 10
673.4865521235865
 20
359.7454988421412
 30
0.0000000000000000
 11
736.0431764506102
 21
359.7454988421412
 31
0.0000000000000000
  0
LINE
  5
263
100
AcDbEntity
  8
MAIN0
  6
CONTINUOUS
 62
3
100
AcDbLine
 10
682.4865521235881
 20
325.7454988421417
 30
0.0000000000000000
 11
682.4865521235881
 21
361.7454988421414
 31
0.0000000000000000
  0
LINE
  5
264
100
AcDbEntity
  8
MAIN0
  6
CONTINUOUS
 62
3
100
AcDbLine
 10
525.4865521235884
 20
303.7454988421407
 30
0.0000000000000000
 11
525.4865521235884
 21
383.7454988421404
 31
0.0000000000000000
  0
LINE
  5
265
100
AcDbEntity
  8
MAIN0
  6
CONTINUOUS
 62
3
100
AcDbLine
 10
511.4865521235882
 20
383.7454988421404
 30
0.0000000000000000
 11
525.4865521235881
 21
383.7454988421404
 31
0.0000000000000000
  0
LINE
  5
266
100
AcDbEntity
  8
MAIN0
  6
CONTINUOUS
 62
3
100
AcDbLine
 10
461.4865521235881
 20
303.7454988420569
 30
0.0000000000000000
 11
461.4865521235881
 21
383.7454988421403
 31
0.0000000000000000
  0
LINE
  5
267
100
AcDbEntity
  8
MAIN0
  6
CONTINUOUS
 62
3
100
AcDbLine
 10
459.0865521235882
 20
383.7454988421404
 30
0.0000000000000000
 11
461.4865521235881
 21
383.7454988421404
 31
0.0000000000000000
  0
LINE
  5
268
100
AcDbEntity
  8
MAIN0
  6
CONTINUOUS
 62
3
100
AcDbLine
 10
501.4865521235881
 20
302.7454988421405
 30
0.0000000000000000
 11
510.9092018543984
 21
302.7454988421405
 31
0.0000000000000000
  0
LINE
  5
269
100
AcDbEntity
  8
MAIN0
  6
CONTINUOUS
 62
3
100
AcDbLine
 10
511.4865521235882
 20
303.7454988421407
 30
0.0000000000000000
 11
525.4865521235881
 21
303.7454988421407
 31
0.0000000000000000
  0
LINE
  5
26A
100
AcDbEntity
  8
MAIN0
  6
CONTINUOUS
 62
3
100
AcDbLine
 10
459.0865521235882
 20
303.7454988421407
 30
0.0000000000000000
 11
461.4865521235881
 21
303.7454988421407
 31
0.0000000000000000
  0
LINE
  5
26B
100
AcDbEntity
  8
MAIN0
  6
CENTER
 62
12
100
AcDbLine
 10
484.4865521235881
 20
290.6108845427776
 30
0.0000000000000000
 11
484.4865521235881
 21
321.8466910405403
 31
0.0000000000000000
  0
LINE
  5
26C
100
AcDbEntity
  8
MAIN0
  6
CONTINUOUS
 62
3
100
AcDbLine
 10
497.4865521235881
 20
298.7454988421405
 30
0.0000000000000000
 11
471.4865521235882
 21
298.7454988421406
 31
0.0000000000000000
  0
LINE
  5
26D
100
AcDbEntity
  8
MAIN0
  6
CONTINUOUS
 62
3
100
AcDbLine
 10
462.0639023927774
 20
302.7454988421405
 30
0.0000000000000000
 11
467.4865521235881
 21
302.7454988421405
 31
0.0000000000000000
  0
LINE
  5
26E
100
AcDbEntity
  8
MAIN0
  6
HIDDEN
 62
12
100
AcDbLine
 10
244.5058221145330
 20
356.4634665393854
 30
0.0000000000000000
 11
231.9399171768581
 21
378.2282523345190
 31
0.0000000000000000
  0
LINE
  5
26F
100
AcDbEntity
  8
MAIN0
  6
CONTINUOUS
 62
3
100
AcDbLine
 10
217.5058221145332
 20
298.7454988421407
 30
0.0000000000000000
 11
191.5058221145332
 21
298.7454988421407
 31
0.0000000000000000
  0
LINE
  5
270
100
AcDbEntity
  8
MAIN0
  6
HIDDEN
 62
12
100
AcDbLine
 10
219.5058221145332
 20
300.7454987245181
 30
0.0000000000000000
 11
219.5058221145332
 21
303.0824952897283
 31
0.0000000000000000
  0
LINE
  5
271
100
AcDbEntity
  8
MAIN0
  6
HIDDEN
 62
12
100
AcDbLine
 10
189.5058221145333
 20
300.7454983835632
 30
0.0000000000000000
 11
189.5058221145333
 21
303.0824952897283
 31
0.0000000000000000
  0
LINE
  5
272
100
AcDbEntity
  8
MAIN0
  6
HIDDEN
 62
12
100
AcDbLine
 10
197.9273221145332
 20
298.7454988421408
 30
0.0000000000000000
 11
198.0726631174840
 21
303.3964109365681
 31
0.0000000000000000
  0
LINE
  5
273
100
AcDbEntity
  8
MAIN0
  6
HIDDEN
 62
12
100
AcDbLine
 10
198.7833221145332
 20
298.7454988421408
 30
0.0000000000000000
 11
198.9278279955328
 21
303.3696870341291
 31
0.0000000000000000
  0
LINE
  5
274
100
AcDbEntity
  8
MAIN0
  6
HIDDEN
 62
12
100
AcDbLine
 10
210.9383659943823
 20
303.4160946869721
 30
0.0000000000000000
 11
211.0843221145332
 21
298.7454988421408
 31
0.0000000000000000
  0
LINE
  5
275
100
AcDbEntity
  8
MAIN0
  6
HIDDEN
 62
12
100
AcDbLine
 10
210.0832011163336
 20
303.3893707845332
 30
0.0000000000000000
 11
210.2283221145332
 21
298.7454988421408
 31
0.0000000000000000
  0
LINE
  5
276
100
AcDbEntity
  8
MAIN0
  6
CENTER
 62
12
100
AcDbLine
 10
233.1306519611303
 20
357.7454988421405
 30
0.0000000000000000
 11
248.6505362897643
 21
357.7454988421405
 31
0.0000000000000000
  0
LINE
  5
277
100
AcDbEntity
  8
MAIN0
  6
CENTER
 62
12
100
AcDbLine
 10
233.0014939290820
 20
329.7454988421405
 30
0.0000000000000000
 11
248.6505362897643
 21
329.7454988421405
 31
0.0000000000000000
  0
LINE
  5
278
100
AcDbEntity
  8
MAIN0
  6
HIDDEN
 62
12
100
AcDbLine
 10
233.5058221145332
 20
321.7582488421408
 30
0.0000000000000000
 11
244.5058221145332
 21
321.4144988421407
 31
0.0000000000000000
  0
LINE
  5
279
100
AcDbEntity
  8
MAIN0
  6
HIDDEN
 62
12
100
AcDbLine
 10
233.5058221145332
 20
322.6142488421409
 30
0.0000000000000000
 11
244.5058221145332
 21
322.2704988421408
 31
0.0000000000000000
  0
LINE
  5
27A
100
AcDbEntity
  8
MAIN0
  6
HIDDEN
 62
12
100
AcDbLine
 10
244.5058221145332
 20
338.0764988421406
 30
0.0000000000000000
 11
233.5058221145331
 21
337.7327488421406
 31
0.0000000000000000
  0
LINE
  5
27B
100
AcDbEntity
  8
MAIN0
  6
HIDDEN
 62
12
100
AcDbLine
 10
244.5058221145332
 20
337.2204988421406
 30
0.0000000000000000
 11
233.5058221145332
 21
336.8767488421406
 31
0.0000000000000000
  0
LINE
  5
27C
100
AcDbEntity
  8
MAIN0
  6
HIDDEN
 62
12
100
AcDbLine
 10
233.5058221145332
 20
349.7582488421406
 30
0.0000000000000000
 11
244.5058221145332
 21
349.4144988421406
 31
0.0000000000000000
  0
LINE
  5
27D
100
AcDbEntity
  8
MAIN0
  6
HIDDEN
 62
12
100
AcDbLine
 10
233.5058221145332
 20
350.6142488421407
 30
0.0000000000000000
 11
244.5058221145332
 21
350.2704988421406
 31
0.0000000000000000
  0
LINE
  5
27E
100
AcDbEntity
  8
MAIN0
  6
HIDDEN
 62
12
100
AcDbLine
 10
244.5058221145332
 20
366.0764988421404
 30
0.0000000000000000
 11
233.5058221145332
 21
365.7327488421404
 31
0.0000000000000000
  0
LINE
  5
27F
100
AcDbEntity
  8
MAIN0
  6
HIDDEN
 62
12
100
AcDbLine
 10
244.5058221145332
 20
365.2204988421404
 30
0.0000000000000000
 11
233.5058221145332
 21
364.8767488421403
 31
0.0000000000000000
  0
LINE
  5
280
100
AcDbEntity
  8
MAIN0
  6
HIDDEN
 62
12
100
AcDbLine
 10
164.5058221145337
 20
317.6911830834632
 30
0.0000000000000000
 11
164.5058221145337
 21
369.7998146008179
 31
0.0000000000000000
  0
LINE
  5
281
100
AcDbEntity
  8
MAIN0
  6
CONTINUOUS
 62
3
100
AcDbLine
 10
244.5058221145331
 20
317.6911830834632
 30
0.0000000000000000
 11
244.5058221145331
 21
327.9657650040811
 31
0.0000000000000000
  0
LINE
  5
282
100
AcDbEntity
  8
MAIN0
  6
HIDDEN
 62
12
100
AcDbLine
 10
244.5058221145331
 20
327.9657650040811
 30
0.0000000000000000
 11
244.5058221145331
 21
369.7998146008179
 31
0.0000000000000000
  0
ARC
  5
283
100
AcDbEntity
  8
MAIN0
  6
CONTINUOUS
 62
3
100
AcDbCircle
 10
501.4865521235881
 20
300.7454988421405
 30
0.0000000000000000
 40
1.999999999999986
100
AcDbArc
 50
89.99999999999970
 51
179.9999999999998
  0
ARC
  5
284
100
AcDbEntity
  8
MAIN0
  6
CONTINUOUS
 62
3
100
AcDbCircle
 10
497.4865521235882
 20
300.7454988421405
 30
0.0000000000000000
 40
1.999999999999986
100
AcDbArc
 50
269.9999999999999
 51
359.9999999999998
  0
ARC
  5
285
100
AcDbEntity
  8
MAIN0
  6
CONTINUOUS
 62
3
100
AcDbCircle
 10
471.4865521235881
 20
300.7454988421405
 30
0.0000000000000000
 40
1.999999999999986
100
AcDbArc
 50
179.9999999999998
 51
269.9999999999999
  0
ARC
  5
286
100
AcDbEntity
  8
MAIN0
  6
CONTINUOUS
 62
3
100
AcDbCircle
 10
467.4865521235881
 20
300.7454988421405
 30
0.0000000000000000
 40
1.999999999999986
100
AcDbArc
 50
0.0000000000000000
 51
89.99999999999970
  0
ARC
  5
287
100
AcDbEntity
  8
MAIN0
  6
HIDDEN
 62
12
100
AcDbCircle
 10
204.5058221145332
 20
323.7454988421408
 30
0.0000000000000000
 40
60.99999999999966
100
AcDbArc
 50
49.02438965740429
 51
130.9756103425957
  0
ARC
  5
288
100
AcDbEntity
  8
MAIN0
  6
HIDDEN
 62
12
100
AcDbCircle
 10
221.5058221145332
 20
303.0824952897283
 30
0.0000000000000000
 40
1.999999999999986
100
AcDbArc
 50
105.6548217036081
 51
179.9999999999998
  0
ARC
  5
289
100
AcDbEntity
  8
MAIN0
  6
HIDDEN
 62
12
100
AcDbCircle
 10
187.5058221145337
 20
303.0824952897283
 30
0.0000000000000000
 40
1.999999999999986
100
AcDbArc
 50
0.0000000000000000
 51
74.34517829639128
  0
ARC
  5
28A
100
AcDbEntity
  8
MAIN0
  6
HIDDEN
 62
12
100
AcDbCircle
 10
204.5058221145332
 20
363.7454988421403
 30
0.0000000000000000
 40
60.99999999999966
100
AcDbArc
 50
229.0243896574039
 51
292.6565551289872
  0
ARC
  5
28B
100
AcDbEntity
  8
MAIN0
  6
CONTINUOUS
 62
3
100
AcDbCircle
 10
204.5058221145332
 20
363.7454988421403
 30
0.0000000000000000
 40
60.99999999999966
100
AcDbArc
 50
292.6565551289872
 51
310.9756103425955
  0
ARC
  5
28C
100
AcDbEntity
  8
MAIN0
  6
HIDDEN
 62
12
100
AcDbCircle
 10
191.5058221145332
 20
300.7454988421408
 30
0.0000000000000000
 40
1.999999999999986
100
AcDbArc
 50
179.9999999999998
 51
209.9999999999996
  0
ARC
  5
28D
100
AcDbEntity
  8
MAIN0
  6
CONTINUOUS
 62
3
100
AcDbCircle
 10
191.5058221145332
 20
300.7454988421408
 30
0.0000000000000000
 40
1.999999999999986
100
AcDbArc
 50
209.9999999999996
 51
269.9999999999999
  0
ARC
  5
28E
100
AcDbEntity
  8
MAIN0
  6
CONTINUOUS
 62
3
100
AcDbCircle
 10
217.5058221145332
 20
300.7454988421408
 30
0.0000000000000000
 40
1.999999999999986
100
AcDbArc
 50
269.9999999999999
 51
330.0000000000015
  0
ARC
  5
28F
100
AcDbEntity
  8
MAIN0
  6
HIDDEN
 62
12
100
AcDbCircle
 10
217.5058221145332
 20
300.7454988421408
 30
0.0000000000000000
 40
1.999999999999986
100
AcDbArc
 50
330.0000000000015
 51
359.9999999999998
  0
LINE
  5
290
100
AcDbEntity
  8
MAIN0
  6
CONTINUOUS
 62
3
100
AcDbLine
 10
457.0865521235882
 20
383.7454988421404
 30
0.0000000000000000
 11
458.9865521235882
 21
383.7454988421404
 31
0.0000000000000000
  0
LINE
  5
291
100
AcDbEntity
  8
MAIN0
  6
CONTINUOUS
 62
3
100
AcDbLine
 10
387.4865521235857
 20
298.7454988421405
 30
0.0000000000000000
 11
455.7468061614325
 21
298.7454988421405
 31
0.0000000000000000
  0
LINE
  5
292
100
AcDbEntity
  8
MAIN0
  6
CONTINUOUS
 62
3
100
AcDbLine
 10
456.0147553538635
 20
387.7454988421404
 30
0.0000000000000000
 11
457.0865521235880
 21
383.7454988421403
 31
0.0000000000000000
  0
LINE
  5
293
100
AcDbEntity
  8
MAIN0
  6
CONTINUOUS
 62
3
100
AcDbLine
 10
457.0865521235882
 20
303.7454988421407
 30
0.0000000000000000
 11
458.9865521235882
 21
303.7454988421407
 31
0.0000000000000000
  0
LINE
  5
294
100
AcDbEntity
  8
MAIN0
  6
CONTINUOUS
 62
3
100
AcDbLine
 10
455.7468061614324
 20
298.7454988421406
 30
0.0000000000000000
 11
457.0865521235880
 21
303.7454988421408
 31
0.0000000000000000
  0
LINE
  5
295
100
AcDbEntity
  8
MAIN0
  6
CONTINUOUS
 62
3
100
AcDbLine
 10
418.4865521235860
 20
304.7454988421407
 30
0.0000000000000000
 11
446.4865521235882
 21
304.7454988421407
 31
0.0000000000000000
  0
LINE
  5
296
100
AcDbEntity
  8
MAIN0
  6
CONTINUOUS
 62
3
100
AcDbLine
 10
441.4865521235882
 20
359.0312971778170
 30
0.0000000000000000
 11
441.4865521235882
 21
363.7454988421403
 31
0.0000000000000000
  0
LINE
  5
297
100
AcDbEntity
  8
MAIN0
  6
CONTINUOUS
 62
3
100
AcDbLine
 10
438.4865521235882
 20
351.2454988421405
 30
0.0000000000000000
 11
438.4865521235882
 21
366.7454988421403
 31
0.0000000000000000
  0
LINE
  5
298
100
AcDbEntity
  8
MAIN0
  6
CONTINUOUS
 62
3
100
AcDbLine
 10
441.4865521235882
 20
361.2454988421403
 30
0.0000000000000000
 11
438.4865521235882
 21
361.2454988421403
 31
0.0000000000000000
  0
LINE
  5
299
100
AcDbEntity
  8
MAIN0
  6
CONTINUOUS
 62
3
100
AcDbLine
 10
441.4865521235882
 20
363.7454988421403
 30
0.0000000000000000
 11
443.1926901479551
 21
363.7454988421403
 31
0.0000000000000000
  0
LINE
  5
29A
100
AcDbEntity
  8
MAIN0
  6
CONTINUOUS
 62
3
100
AcDbLine
 10
440.4865521235882
 20
368.7454988421403
 30
0.0000000000000000
 11
442.6581249988420
 21
368.7454988421403
 31
0.0000000000000000
  0
LINE
  5
29B
100
AcDbEntity
  8
MAIN0
  6
CONTINUOUS
 62
3
100
AcDbLine
 10
444.0723385612151
 20
369.3312852797672
 30
0.0000000000000000
 11
448.1936589047748
 21
373.4526056233268
 31
0.0000000000000000
  0
LINE
  5
29C
100
AcDbEntity
  8
MAIN0
  6
CONTINUOUS
 62
3
100
AcDbLine
 10
438.4865521235882
 20
336.2454988421405
 30
0.0000000000000000
 11
438.4865521235882
 21
320.7454988421408
 31
0.0000000000000000
  0
LINE
  5
29D
100
AcDbEntity
  8
MAIN0
  6
CONTINUOUS
 62
3
100
AcDbLine
 10
440.4865521235882
 20
318.7454988421408
 30
0.0000000000000000
 11
442.6581249988420
 21
318.7454988421408
 31
0.0000000000000000
  0
LINE
  5
29E
100
AcDbEntity
  8
MAIN0
  6
CONTINUOUS
 62
3
100
AcDbLine
 10
444.0723385612151
 20
318.1597124045139
 30
0.0000000000000000
 11
447.2365561554032
 21
314.9954948103259
 31
0.0000000000000000
  0
LINE
  5
29F
100
AcDbEntity
  8
MAIN0
  6
CONTINUOUS
 62
3
100
AcDbLine
 10
441.4865521235882
 20
323.7454988421408
 30
0.0000000000000000
 11
441.4865521235882
 21
325.7327394406098
 31
0.0000000000000000
  0
LINE
  5
2A0
100
AcDbEntity
  8
MAIN0
  6
CONTINUOUS
 62
3
100
AcDbLine
 10
438.4865521235882
 20
326.2454988421408
 30
0.0000000000000000
 11
441.3347688514181
 21
326.2454988421408
 31
0.0000000000000000
  0
LINE
  5
2A1
100
AcDbEntity
  8
MAIN0
  6
CONTINUOUS
 62
3
100
AcDbLine
 10
441.4865521235882
 20
323.7454988421408
 30
0.0000000000000000
 11
442.4557670999689
 21
323.7454988421408
 31
0.0000000000000000
  0
LINE
  5
2A2
100
AcDbEntity
  8
MAIN0
  6
CONTINUOUS
 62
3
100
AcDbLine
 10
416.4865521235861
 20
306.7454988421408
 30
0.0000000000000000
 11
416.4865521235861
 21
307.7454988421405
 31
0.0000000000000000
  0
LINE
  5
2A3
100
AcDbEntity
  8
MAIN0
  6
CONTINUOUS
 62
3
100
AcDbLine
 10
387.4865521235861
 20
309.7454988421407
 30
0.0000000000000000
 11
414.4865521235861
 21
309.7454988421407
 31
0.0000000000000000
  0
LINE
  5
2A4
100
AcDbEntity
  8
MAIN0
  6
CENTER
 62
12
100
AcDbLine
 10
382.6122603070122
 20
304.7454988421407
 30
0.0000000000000000
 11
395.7788382763713
 21
304.7454988421407
 31
0.0000000000000000
  0
LINE
  5
2A5
100
AcDbEntity
  8
MAIN0
  6
CONTINUOUS
 62
3
100
AcDbLine
 10
448.3406017453622
 20
305.9954988421407
 30
0.0000000000000000
 11
451.9865541235882
 21
305.9954988421407
 31
0.0000000000000000
  0
LINE
  5
2A6
100
AcDbEntity
  8
MAIN0
  6
CONTINUOUS
 62
3
100
AcDbLine
 10
446.7365521235882
 20
315.4954988421408
 30
0.0000000000000000
 11
449.9491280788331
 21
315.4954988421408
 31
0.0000000000000000
  0
LINE
  5
2A7
100
AcDbEntity
  8
MAIN0
  6
CENTER
 62
12
100
AcDbLine
 10
443.4462170662449
 20
310.7454988421407
 30
0.0000000000000000
 11
464.3712698697250
 21
310.7454988421407
 31
0.0000000000000000
  0
LINE
  5
2A8
100
AcDbEntity
  8
MAIN0
  6
CONTINUOUS
 62
3
100
AcDbLine
 10
448.4865521235882
 20
380.7454988421403
 30
0.0000000000000000
 11
448.4865521235882
 21
374.1597124045136
 31
0.0000000000000000
  0
LINE
  5
2A9
100
AcDbEntity
  8
MAIN0
  6
CONTINUOUS
 62
3
100
AcDbLine
 10
444.4865521235881
 20
369.7454988421403
 30
0.0000000000000000
 11
449.4865521235877
 21
369.7454988421403
 31
0.0000000000000000
  0
LINE
  5
2AA
100
AcDbEntity
  8
MAIN0
  6
CONTINUOUS
 62
3
100
AcDbLine
 10
449.4865521235877
 20
369.7454988421404
 30
0.0000000000000000
 11
449.4865521235883
 21
387.7454988421404
 31
0.0000000000000000
  0
LINE
  5
2AB
100
AcDbEntity
  8
MAIN0
  6
CONTINUOUS
 62
3
100
AcDbLine
 10
389.4865521235884
 20
382.7454988421404
 30
0.0000000000000000
 11
389.4865521235884
 21
387.7454988421404
 31
0.0000000000000000
  0
LINE
  5
2AC
100
AcDbEntity
  8
MAIN0
  6
CONTINUOUS
 62
3
100
AcDbLine
 10
385.4865521235884
 20
386.7454988421404
 30
0.0000000000000000
 11
387.4865521235884
 21
386.7454988421404
 31
0.0000000000000000
  0
LINE
  5
2AD
100
AcDbEntity
  8
MAIN0
  6
CONTINUOUS
 62
3
100
AcDbLine
 10
385.4865521235884
 20
300.7454988421407
 30
0.0000000000000000
 11
385.4865521235884
 21
386.7454988421404
 31
0.0000000000000000
  0
LINE
  5
2AE
100
AcDbEntity
  8
MAIN0
  6
CONTINUOUS
 62
3
100
AcDbLine
 10
385.4865521235884
 20
300.7454988421407
 30
0.0000000000000000
 11
387.4865521235884
 21
300.7454988421407
 31
0.0000000000000000
  0
LINE
  5
2AF
100
AcDbEntity
  8
MAIN0
  6
CONTINUOUS
 62
3
100
AcDbLine
 10
357.4865521235885
 20
388.7454988421404
 30
0.0000000000000000
 11
357.4865521235885
 21
391.9454988421404
 31
0.0000000000000000
  0
LINE
  5
2B0
100
AcDbEntity
  8
MAIN0
  6
CONTINUOUS
 62
3
100
AcDbLine
 10
417.4865521235886
 20
388.7454988421404
 30
0.0000000000000000
 11
417.4865521235886
 21
391.9454988421404
 31
0.0000000000000000
  0
LINE
  5
2B1
100
AcDbEntity
  8
MAIN0
  6
CENTER
 62
12
100
AcDbLine
 10
396.4865521235885
 20
383.7454988421404
 30
0.0000000000000000
 11
396.4865521235885
 21
396.9454988421404
 31
0.0000000000000000
  0
LINE
  5
2B2
100
AcDbEntity
  8
MAIN0
  6
CONTINUOUS
 62
3
100
AcDbLine
 10
450.4865521235883
 20
387.7454988421404
 30
0.0000000000000000
 11
450.4865521235883
 21
388.2454988421404
 31
0.0000000000000000
  0
LINE
  5
2B3
100
AcDbEntity
  8
MAIN0
  6
CONTINUOUS
 62
3
100
AcDbLine
 10
369.4865521235883
 20
387.7454988421404
 30
0.0000000000000000
 11
369.4865521235883
 21
388.2454988421404
 31
0.0000000000000000
  0
LINE
  5
2B4
100
AcDbEntity
  8
MAIN0
  6
CONTINUOUS
 62
3
100
AcDbLine
 10
370.4865521235882
 20
388.2454988421404
 30
0.0000000000000000
 11
370.4865521235882
 21
388.7454988421404
 31
0.0000000000000000
  0
LINE
  5
2B5
100
AcDbEntity
  8
MAIN0
  6
CONTINUOUS
 62
3
100
AcDbLine
 10
430.4865521235882
 20
388.2454988421405
 30
0.0000000000000000
 11
430.4865521235882
 21
388.7454988421404
 31
0.0000000000000000
  0
LINE
  5
2B6
100
AcDbEntity
  8
MAIN0
  6
CONTINUOUS
 62
3
100
AcDbLine
 10
182.5058221145337
 20
387.7454988421403
 30
0.0000000000000000
 11
229.9092339588765
 21
387.7454988421403
 31
0.0000000000000000
  0
LINE
  5
2B7
100
AcDbEntity
  8
MAIN0
  6
CONTINUOUS
 62
3
100
AcDbLine
 10
229.9092339588766
 20
387.7454988421404
 30
0.0000000000000000
 11
254.1109398810484
 21
345.8269145550985
 31
0.0000000000000000
  0
LINE
  5
2B8
100
AcDbEntity
  8
MAIN0
  6
CENTER
 62
12
100
AcDbLine
 10
235.6502485275560
 20
361.7267418154559
 30
0.0000000000000000
 11
266.3753744153373
 21
379.4659015176516
 31
0.0000000000000000
  0
LINE
  5
2B9
100
AcDbEntity
  8
MAIN0
  6
CONTINUOUS
 62
3
100
AcDbLine
 10
248.8691755648431
 20
342.8005805161088
 30
0.0000000000000000
 11
254.1109398810483
 21
345.8269145550985
 31
0.0000000000000000
  0
LINE
  5
2BA
100
AcDbEntity
  8
MAIN0
  6
CONTINUOUS
 62
3
100
AcDbLine
 10
161.5058221145337
 20
304.7454988421407
 30
0.0000000000000000
 11
161.5058221145337
 21
382.7454988421404
 31
0.0000000000000000
  0
LINE
  5
2BB
100
AcDbEntity
  8
MAIN0
  6
CONTINUOUS
 62
3
100
AcDbLine
 10
160.5058221145337
 20
382.7454988421404
 30
0.0000000000000000
 11
178.5058221145337
 21
382.7454988421404
 31
0.0000000000000000
  0
LINE
  5
2BC
100
AcDbEntity
  8
MAIN0
  6
CONTINUOUS
 62
3
100
AcDbLine
 10
181.5058221145337
 20
385.7454988421404
 30
0.0000000000000000
 11
181.5058221145337
 21
386.7454988421403
 31
0.0000000000000000
  0
LINE
  5
2BD
100
AcDbEntity
  8
MAIN0
  6
CONTINUOUS
 62
3
100
AcDbLine
 10
160.5058221145337
 20
304.7454988421407
 30
0.0000000000000000
 11
178.5058221145337
 21
304.7454988421407
 31
0.0000000000000000
  0
LINE
  5
2BE
100
AcDbEntity
  8
MAIN0
  6
CONTINUOUS
 62
3
100
AcDbLine
 10
181.5058221145337
 20
301.7454988421407
 30
0.0000000000000000
 11
181.5058221145337
 21
300.7454988421408
 31
0.0000000000000000
  0
LINE
  5
2BF
100
AcDbEntity
  8
MAIN0
  6
CONTINUOUS
 62
3
100
AcDbLine
 10
182.5058219074635
 20
299.7454988421408
 30
0.0000000000000000
 11
226.5058221145332
 21
299.7454988421408
 31
0.0000000000000000
  0
LINE
  5
2C0
100
AcDbEntity
  8
MAIN0
  6
CONTINUOUS
 62
3
100
AcDbLine
 10
227.5058221145332
 20
300.7454988421408
 30
0.0000000000000000
 11
227.5058221145332
 21
305.7981669201201
 31
0.0000000000000000
  0
LINE
  5
2C1
100
AcDbEntity
  8
MAIN0
  6
CENTER
 62
12
100
AcDbLine
 10
220.8566021496782
 20
372.0658806063945
 30
0.0000000000000000
 11
227.0190600184648
 21
382.7395707346355
 31
0.0000000000000000
  0
LINE
  5
2C2
100
AcDbEntity
  8
MAIN0
  6
CENTER
 62
12
100
AcDbLine
 10
220.8566021496781
 20
315.4251170778865
 30
0.0000000000000000
 11
227.0190600184647
 21
304.7514269496455
 31
0.0000000000000000
  0
LINE
  5
2C3
100
AcDbEntity
  8
MAIN0
  6
CENTER
 62
12
100
AcDbLine
 10
399.4865521235874
 20
373.7454988421403
 30
0.0000000000000000
 11
404.4865521235874
 21
373.7454988421403
 31
0.0000000000000000
  0
LINE
  5
2C4
100
AcDbEntity
  8
MAIN0
  6
CENTER
 62
12
100
AcDbLine
 10
404.4865521235874
 20
370.2654619026874
 30
0.0000000000000000
 11
404.4865521235874
 21
373.7454988421399
 31
0.0000000000000000
  0
LINE
  5
2C5
100
AcDbEntity
  8
MAIN0
  6
CENTER
 62
12
100
AcDbLine
 10
399.4865521235874
 20
363.7454988421403
 30
0.0000000000000000
 11
399.4865521235874
 21
373.7454988421399
 31
0.0000000000000000
  0
LINE
  5
2C6
100
AcDbEntity
  8
MAIN0
  6
CENTER
 62
12
100
AcDbLine
 10
388.4865521235874
 20
363.7454988421403
 30
0.0000000000000000
 11
399.4865521235874
 21
363.7454988421403
 31
0.0000000000000000
  0
LINE
  5
2C7
100
AcDbEntity
  8
MAIN0
  6
CENTER
 62
12
100
AcDbLine
 10
399.4865521235874
 20
313.7454988421408
 30
0.0000000000000000
 11
404.4865521235874
 21
313.7454988421408
 31
0.0000000000000000
  0
LINE
  5
2C8
100
AcDbEntity
  8
MAIN0
  6
CENTER
 62
12
100
AcDbLine
 10
404.4865521235874
 20
313.7454988421412
 30
0.0000000000000000
 11
404.4865521235874
 21
317.1161173960750
 31
0.0000000000000000
  0
LINE
  5
2C9
100
AcDbEntity
  8
MAIN0
  6
CENTER
 62
12
100
AcDbLine
 10
399.4865521235874
 20
323.7454988421408
 30
0.0000000000000000
 11
399.4865521235874
 21
313.7454988421412
 31
0.0000000000000000
  0
LINE
  5
2CA
100
AcDbEntity
  8
MAIN0
  6
CENTER
 62
12
100
AcDbLine
 10
388.4865521235874
 20
323.7454988421408
 30
0.0000000000000000
 11
399.4865521235874
 21
323.7454988421408
 31
0.0000000000000000
  0
LINE
  5
2CB
100
AcDbEntity
  8
MAIN0
  6
CENTER
 62
12
100
AcDbLine
 10
388.4865521235874
 20
323.7454988421408
 30
0.0000000000000000
 11
388.4865521235874
 21
363.7454988421403
 31
0.0000000000000000
  0
LINE
  5
2CC
100
AcDbEntity
  8
MAIN0
  6
CONTINUOUS
 62
3
100
AcDbLine
 10
182.0058221145337
 20
388.2454988421403
 30
0.0000000000000000
 11
227.0058221145334
 21
388.2454988421403
 31
0.0000000000000000
  0
LINE
  5
2CD
100
AcDbEntity
  8
MAIN0
  6
CONTINUOUS
 62
3
100
AcDbLine
 10
182.0058221145337
 20
388.7454988421403
 30
0.0000000000000000
 11
227.0058221145333
 21
388.7454988421403
 31
0.0000000000000000
  0
LINE
  5
2CE
100
AcDbEntity
  8
MAIN0
  6
CONTINUOUS
 62
3
100
AcDbLine
 10
182.0058221145337
 20
391.9454988421404
 30
0.0000000000000000
 11
227.0058221145332
 21
391.9454988421404
 31
0.0000000000000000
  0
LINE
  5
2CF
100
AcDbEntity
  8
MAIN0
  6
CONTINUOUS
 62
3
100
AcDbLine
 10
227.0058221145332
 20
387.7454988421403
 30
0.0000000000000000
 11
227.0058221145332
 21
391.9454988421404
 31
0.0000000000000000
  0
LINE
  5
2D0
100
AcDbEntity
  8
MAIN0
  6
CONTINUOUS
 62
3
100
AcDbLine
 10
182.0058221145337
 20
387.7454988421403
 30
0.0000000000000000
 11
182.0058221145337
 21
391.9454988421404
 31
0.0000000000000000
  0
LINE
  5
2D1
100
AcDbEntity
  8
MAIN0
  6
CENTER
 62
12
100
AcDbLine
 10
220.5058221145332
 20
385.7256570957728
 30
0.0000000000000000
 11
220.5058221145332
 21
400.3159828564582
 31
0.0000000000000000
  0
LINE
  5
2D2
100
AcDbEntity
  8
MAIN0
  6
CENTER
 62
12
100
AcDbLine
 10
188.5058221145337
 20
385.7256570957728
 30
0.0000000000000000
 11
188.5058221145337
 21
400.3159828564582
 31
0.0000000000000000
  0
LINE
  5
2D3
100
AcDbEntity
  8
MAIN0
  6
CONTINUOUS
 62
3
100
AcDbLine
 10
183.5058221145337
 20
392.9454968421402
 30
0.0000000000000000
 11
193.5058221145332
 21
392.9454968421402
 31
0.0000000000000000
  0
LINE
  5
2D4
100
AcDbEntity
  8
MAIN0
  6
CONTINUOUS
 62
3
100
AcDbLine
 10
193.5058221145332
 20
391.9454988421402
 30
0.0000000000000000
 11
193.5058221145332
 21
392.9454968421402
 31
0.0000000000000000
  0
LINE
  5
2D5
100
AcDbEntity
  8
MAIN0
  6
CONTINUOUS
 62
3
100
AcDbLine
 10
183.5058221145337
 20
391.9454988421402
 30
0.0000000000000000
 11
183.5058221145337
 21
392.9454968421402
 31
0.0000000000000000
  0
LINE
  5
2D6
100
AcDbEntity
  8
MAIN0
  6
CONTINUOUS
 62
3
100
AcDbLine
 10
216.2558231145331
 20
392.9455008421404
 30
0.0000000000000000
 11
216.2558261145332
 21
397.6456498421403
 31
0.0000000000000000
  0
LINE
  5
2D7
100
AcDbEntity
  8
MAIN0
  6
CONTINUOUS
 62
3
100
AcDbLine
 10
224.7558241145332
 20
397.6454918421403
 30
0.0000000000000000
 11
224.7558221145332
 21
392.9454968421403
 31
0.0000000000000000
  0
LINE
  5
2D8
100
AcDbEntity
  8
MAIN0
  6
CONTINUOUS
 62
3
100
AcDbLine
 10
216.2558261145332
 20
397.6454978421403
 30
0.0000000000000000
 11
224.7558241145332
 21
397.6454918421403
 31
0.0000000000000000
  0
LINE
  5
2D9
100
AcDbEntity
  8
MAIN0
  6
CONTINUOUS
 62
3
100
AcDbLine
 10
224.2362349610599
 20
397.9454988421404
 30
0.0000000000000000
 11
216.7753753374573
 21
397.9454988421404
 31
0.0000000000000000
  0
LINE
  5
2DA
100
AcDbEntity
  8
MAIN0
  6
CONTINUOUS
 62
3
100
AcDbLine
 10
215.5058221145332
 20
392.9454968421402
 30
0.0000000000000000
 11
225.5058221145332
 21
392.9454968421402
 31
0.0000000000000000
  0
LINE
  5
2DB
100
AcDbEntity
  8
MAIN0
  6
CONTINUOUS
 62
3
100
AcDbLine
 10
225.5058221145332
 20
391.9454988421402
 30
0.0000000000000000
 11
225.5058221145332
 21
392.9454968421402
 31
0.0000000000000000
  0
LINE
  5
2DC
100
AcDbEntity
  8
MAIN0
  6
CONTINUOUS
 62
3
100
AcDbLine
 10
215.5058221145332
 20
391.9454988421402
 30
0.0000000000000000
 11
215.5058221145332
 21
392.9454968421402
 31
0.0000000000000000
  0
LINE
  5
2DD
100
AcDbEntity
  8
MAIN0
  6
CONTINUOUS
 62
3
100
AcDbLine
 10
216.7753251145332
 20
397.9454698421404
 30
0.0000000000000000
 11
216.2558261145332
 21
397.6454978421403
 31
0.0000000000000000
  0
LINE
  5
2DE
100
AcDbEntity
  8
MAIN0
  6
CONTINUOUS
 62
3
100
AcDbLine
 10
224.2362921145332
 20
397.9454658421404
 30
0.0000000000000000
 11
224.7558241145332
 21
397.6454918421404
 31
0.0000000000000000
  0
LINE
  5
2DF
100
AcDbEntity
  8
MAIN0
  6
CONTINUOUS
 62
3
100
AcDbLine
 10
231.7939525829406
 20
385.4810704272902
 30
0.0000000000000000
 11
254.2939525829407
 21
346.5099272569904
 31
0.0000000000000000
  0
LINE
  5
2E0
100
AcDbEntity
  8
MAIN0
  6
CONTINUOUS
 62
3
100
AcDbLine
 10
234.9982465769430
 20
387.3310704272902
 30
0.0000000000000000
 11
257.4982465769430
 21
348.3599272569904
 31
0.0000000000000000
  0
LINE
  5
2E1
100
AcDbEntity
  8
MAIN0
  6
CONTINUOUS
 62
3
100
AcDbLine
 10
232.2269652848329
 20
385.7310704272901
 30
0.0000000000000000
 11
254.7269652848328
 21
346.7599272569905
 31
0.0000000000000000
  0
LINE
  5
2E2
100
AcDbEntity
  8
MAIN0
  6
CONTINUOUS
 62
3
100
AcDbLine
 10
253.8609398810484
 20
346.2599272569905
 30
0.0000000000000000
 11
257.4982465769431
 21
348.3599272569905
 31
0.0000000000000000
  0
LINE
  5
2E3
100
AcDbEntity
  8
MAIN0
  6
CONTINUOUS
 62
3
100
AcDbLine
 10
231.3609398810482
 20
385.2310704272902
 30
0.0000000000000000
 11
234.9982465769429
 21
387.3310704272902
 31
0.0000000000000000
  0
LINE
  5
2E4
100
AcDbEntity
  8
MAIN0
  6
CENTER
 62
12
100
AcDbLine
 10
248.8617056170698
 20
350.8791715084056
 30
0.0000000000000000
 11
261.8414438003832
 21
358.3730268425525
 31
0.0000000000000000
  0
LINE
  5
2E5
100
AcDbEntity
  8
MAIN0
  6
CENTER
 62
12
100
AcDbLine
 10
232.8617056170697
 20
378.5919844295076
 30
0.0000000000000000
 11
245.8414438003833
 21
386.0858397636545
 31
0.0000000000000000
  0
LINE
  5
2E6
100
AcDbEntity
  8
MAIN0
  6
CONTINUOUS
 62
3
100
AcDbLine
 10
236.9892742127782
 20
385.8825134027499
 30
0.0000000000000000
 11
241.0597241483502
 21
388.2325853046737
 31
0.0000000000000000
  0
LINE
  5
2E7
100
AcDbEntity
  8
MAIN0
  6
CONTINUOUS
 62
3
100
AcDbLine
 10
245.3095863163364
 20
380.8712921045567
 30
0.0000000000000000
 11
241.2392702486766
 21
378.5212963366075
 31
0.0000000000000000
  0
LINE
  5
2E8
100
AcDbEntity
  8
MAIN0
  6
CONTINUOUS
 62
3
100
AcDbLine
 10
241.0595925124889
 20
388.2325093046736
 30
0.0000000000000000
 11
245.3095863163364
 21
380.8712921045567
 31
0.0000000000000000
  0
LINE
  5
2E9
100
AcDbEntity
  8
MAIN0
  6
CONTINUOUS
 62
3
100
AcDbLine
 10
241.5791253849129
 20
387.9325959734330
 30
0.0000000000000000
 11
241.0595925124889
 21
388.2325093046736
 31
0.0000000000000000
  0
LINE
  5
2EA
100
AcDbEntity
  8
MAIN0
  6
CONTINUOUS
 62
3
100
AcDbLine
 10
245.3096054208113
 20
381.4712070146356
 30
0.0000000000000000
 11
245.3095863163364
 21
380.8712921045567
 31
0.0000000000000000
  0
LINE
  5
2EB
100
AcDbEntity
  8
MAIN0
  6
CONTINUOUS
 62
3
100
AcDbLine
 10
245.3096054229129
 20
381.4712730109955
 30
0.0000000000000000
 11
241.5791756111117
 21
387.9325669791049
 31
0.0000000000000000
  0
LINE
  5
2EC
100
AcDbEntity
  8
MAIN0
  6
CONTINUOUS
 62
3
100
AcDbLine
 10
236.6142702486765
 20
386.5320313216135
 30
0.0000000000000000
 11
241.6142702486765
 21
377.8717772837692
 31
0.0000000000000000
  0
LINE
  5
2ED
100
AcDbEntity
  8
MAIN0
  6
CONTINUOUS
 62
3
100
AcDbLine
 10
240.7482465769430
 20
377.3717782837692
 30
0.0000000000000000
 11
241.6142702486765
 21
377.8717772837691
 31
0.0000000000000000
  0
LINE
  5
2EE
100
AcDbEntity
  8
MAIN0
  6
CONTINUOUS
 62
3
100
AcDbLine
 10
235.7482465769429
 20
386.0320323216135
 30
0.0000000000000000
 11
236.6142702486765
 21
386.5320313216135
 31
0.0000000000000000
  0
LINE
  5
2EF
100
AcDbEntity
  8
MAIN0
  6
CONTINUOUS
 62
3
100
AcDbLine
 10
252.9892742127782
 20
358.1697004816478
 30
0.0000000000000000
 11
257.0597241483503
 21
360.5197723835716
 31
0.0000000000000000
  0
LINE
  5
2F0
100
AcDbEntity
  8
MAIN0
  6
CONTINUOUS
 62
3
100
AcDbLine
 10
261.3095863163364
 20
353.1584791834547
 30
0.0000000000000000
 11
257.2392702486766
 21
350.8084834155055
 31
0.0000000000000000
  0
LINE
  5
2F1
100
AcDbEntity
  8
MAIN0
  6
CONTINUOUS
 62
3
100
AcDbLine
 10
257.0595925124889
 20
360.5196963835716
 30
0.0000000000000000
 11
261.3095863163364
 21
353.1584791834547
 31
0.0000000000000000
  0
LINE
  5
2F2
100
AcDbEntity
  8
MAIN0
  6
CONTINUOUS
 62
3
100
AcDbLine
 10
261.3096054229130
 20
353.7584600898935
 30
0.0000000000000000
 11
257.5791756111117
 21
360.2197540580028
 31
0.0000000000000000
  0
LINE
  5
2F3
100
AcDbEntity
  8
MAIN0
  6
CONTINUOUS
 62
3
100
AcDbLine
 10
252.6142702486765
 20
358.8192184005115
 30
0.0000000000000000
 11
257.6142702486765
 21
350.1589643626671
 31
0.0000000000000000
  0
LINE
  5
2F4
100
AcDbEntity
  8
MAIN0
  6
CONTINUOUS
 62
3
100
AcDbLine
 10
256.7482465769430
 20
349.6589653626672
 30
0.0000000000000000
 11
257.6142702486765
 21
350.1589643626671
 31
0.0000000000000000
  0
LINE
  5
2F5
100
AcDbEntity
  8
MAIN0
  6
CONTINUOUS
 62
3
100
AcDbLine
 10
251.7482465769429
 20
358.3192194005115
 30
0.0000000000000000
 11
252.6142702486765
 21
358.8192184005115
 31
0.0000000000000000
  0
LINE
  5
2F6
100
AcDbEntity
  8
MAIN0
  6
CONTINUOUS
 62
3
100
AcDbLine
 10
257.5791253849129
 20
360.2197830523310
 30
0.0000000000000000
 11
257.0595925124889
 21
360.5196963835716
 31
0.0000000000000000
  0
LINE
  5
2F7
100
AcDbEntity
  8
MAIN0
  6
CONTINUOUS
 62
3
100
AcDbLine
 10
261.3096054208113
 20
353.7583940935336
 30
0.0000000000000000
 11
261.3095863163364
 21
353.1584791834547
 31
0.0000000000000000
  0
LINE
  5
2F8
100
AcDbEntity
  8
MAIN0
  6
CONTINUOUS
 62
3
100
AcDbLine
 10
160.5058221145337
 20
304.7454988421407
 30
0.0000000000000000
 11
160.5058221145337
 21
382.7454988421404
 31
0.0000000000000000
  0
LINE
  5
2F9
100
AcDbEntity
  8
MAIN0
  6
CONTINUOUS
 62
3
100
AcDbLine
 10
458.9865521235882
 20
305.7454988421260
 30
0.0000000000000000
 11
458.9865521235882
 21
383.7454988421404
 31
0.0000000000000000
  0
LINE
  5
2FA
100
AcDbEntity
  8
MAIN0
  6
CONTINUOUS
 62
3
100
AcDbLine
 10
458.9865521235882
 20
305.7454988421405
 30
0.0000000000000000
 11
458.9865521235882
 21
303.7454988421406
 31
0.0000000000000000
  0
LINE
  5
2FB
100
AcDbEntity
  8
MAIN0
  6
CONTINUOUS
 62
3
100
AcDbLine
 10
387.4865521235857
 20
298.7454988421406
 30
0.0000000000000000
 11
387.4865521235859
 21
303.2454988421407
 31
0.0000000000000000
  0
LINE
  5
2FC
100
AcDbEntity
  8
MAIN0
  6
CONTINUOUS
 62
3
100
AcDbLine
 10
387.4865521235860
 20
306.2454988421407
 30
0.0000000000000000
 11
387.4865521235884
 21
387.7454988421404
 31
0.0000000000000000
  0
LINE
  5
2FD
100
AcDbEntity
  8
MAIN0
  6
CENTER
 62
12
100
AcDbLine
 10
442.4865521235873
 20
383.7454988421404
 30
0.0000000000000000
 11
442.4865521235873
 21
396.9454988421404
 31
0.0000000000000000
  0
LINE
  5
2FE
100
AcDbEntity
  8
MAIN0
  6
CONTINUOUS
 62
3
100
AcDbLine
 10
457.0865521235880
 20
383.7454988421404
 30
0.0000000000000000
 11
457.0865521235880
 21
303.7454988421407
 31
0.0000000000000000
  0
LINE
  5
2FF
100
AcDbEntity
  8
MAIN0
  6
CONTINUOUS
 62
3
100
AcDbLine
 10
451.9865541235882
 20
305.9954988421407
 30
0.0000000000000000
 11
451.9865541235882
 21
308.1218576639784
 31
0.0000000000000000
  0
LINE
  5
300
100
AcDbEntity
  8
MAIN0
  6
CENTER
 62
12
100
AcDbLine
 10
469.4865521235859
 20
387.7454988421403
 30
0.0000000000000000
 11
469.4865521235859
 21
388.2454988421403
 31
0.0000000000000000
  0
LINE
  5
301
100
AcDbEntity
  8
MAIN0
  6
CENTER
 62
12
100
AcDbLine
 10
457.0266200213927
 20
387.7454988421403
 30
0.0000000000000000
 11
469.4865521235859
 21
387.7454988421403
 31
0.0000000000000000
  0
LINE
  5
302
100
AcDbEntity
  8
MAIN0
  6
CENTER
 62
12
100
AcDbLine
 10
452.7746724608637
 20
388.2454988421403
 30
0.0000000000000000
 11
469.4865521235859
 21
388.2454988421403
 31
0.0000000000000000
  0
LINE
  5
303
100
AcDbEntity
  8
MAIN0
  6
CENTER
 62
12
100
AcDbLine
 10
463.4865521235859
 20
388.2454988421403
 30
0.0000000000000000
 11
463.4865521235859
 21
391.9454988421404
 31
0.0000000000000000
  0
LINE
  5
304
100
AcDbEntity
  8
MAIN0
  6
CENTER
 62
12
100
AcDbLine
 10
452.7746724608637
 20
388.7454988421403
 30
0.0000000000000000
 11
463.4865521235859
 21
388.7454988421403
 31
0.0000000000000000
  0
LINE
  5
305
100
AcDbEntity
  8
MAIN0
  6
CENTER
 62
12
100
AcDbLine
 10
452.7746724608637
 20
391.9454988421404
 30
0.0000000000000000
 11
463.4865521235859
 21
391.9454988421404
 31
0.0000000000000000
  0
LINE
  5
306
100
AcDbEntity
  8
MAIN0
  6
CONTINUOUS
 62
3
100
AcDbLine
 10
455.7468061614324
 20
298.7454988421405
 30
0.0000000000000000
 11
455.7468061614324
 21
387.7454988421404
 31
0.0000000000000000
  0
ARC
  5
307
100
AcDbEntity
  8
MAIN0
  6
CONTINUOUS
 62
3
100
AcDbCircle
 10
446.4865521235882
 20
380.7454988421404
 30
0.0000000000000000
 40
1.999999999999986
100
AcDbArc
 50
7.180798978638723
 51
89.99999999999970
  0
ARC
  5
308
100
AcDbEntity
  8
MAIN0
  6
CONTINUOUS
 62
3
100
AcDbCircle
 10
446.4865521235882
 20
306.7454988421407
 30
0.0000000000000000
 40
1.999999999999986
100
AcDbArc
 50
269.9999999999999
 51
352.8192010213611
  0
ARC
  5
309
100
AcDbEntity
  8
MAIN0
  6
CONTINUOUS
 62
3
100
AcDbCircle
 10
442.6581249988420
 20
370.7454988421403
 30
0.0000000000000000
 40
1.999999999999986
100
AcDbArc
 50
269.9999999999999
 51
314.9999999999998
  0
ARC
  5
30A
100
AcDbEntity
  8
MAIN0
  6
CONTINUOUS
 62
3
100
AcDbCircle
 10
440.4865521235882
 20
366.7454988421403
 30
0.0000000000000000
 40
1.999999999999986
100
AcDbArc
 50
89.99999999999970
 51
179.9999999999998
  0
ARC
  5
30B
100
AcDbEntity
  8
MAIN0
  6
CONTINUOUS
 62
3
100
AcDbCircle
 10
442.6581249988420
 20
316.7454988421408
 30
0.0000000000000000
 40
1.999999999999986
100
AcDbArc
 50
45.00000000000004
 51
89.99999999999970
  0
ARC
  5
30C
100
AcDbEntity
  8
MAIN0
  6
CONTINUOUS
 62
3
100
AcDbCircle
 10
440.4865521235882
 20
320.7454988421408
 30
0.0000000000000000
 40
1.999999999999986
100
AcDbArc
 50
179.9999999999998
 51
269.9999999999999
  0
ARC
  5
30D
100
AcDbEntity
  8
MAIN0
  6
CONTINUOUS
 62
3
100
AcDbCircle
 10
418.4865521235861
 20
306.7454988421408
 30
0.0000000000000000
 40
1.999999999999986
100
AcDbArc
 50
179.9999999999998
 51
269.9999999999999
  0
ARC
  5
30E
100
AcDbEntity
  8
MAIN0
  6
CONTINUOUS
 62
3
100
AcDbCircle
 10
414.4865521235861
 20
307.7454988421407
 30
0.0000000000000000
 40
1.999999999999986
100
AcDbArc
 50
0.0000000000000000
 51
89.99999999999970
  0
ARC
  5
30F
100
AcDbEntity
  8
MAIN0
  6
CONTINUOUS
 62
3
100
AcDbCircle
 10
447.4865521235882
 20
374.1597124045136
 30
0.0000000000000000
 40
0.9999999999999999
100
AcDbArc
 50
314.9999999999993
 51
359.9999999999998
  0
CIRCLE
  5
310
100
AcDbEntity
  8
MAIN0
  6
CONTINUOUS
 62
3
100
AcDbCircle
 10
204.5058221145331
 20
343.7454988421405
 30
0.0000000000000000
 40
42.99999999999989
  0
ARC
  5
311
100
AcDbEntity
  8
MAIN0
  6
CONTINUOUS
 62
3
100
AcDbCircle
 10
178.5058221145337
 20
385.7454988421404
 30
0.0000000000000000
 40
3.000000000000000
100
AcDbArc
 50
269.9999999999999
 51
359.9999999999998
  0
ARC
  5
312
100
AcDbEntity
  8
MAIN0
  6
CONTINUOUS
 62
3
100
AcDbCircle
 10
182.5058221145337
 20
386.7454988421403
 30
0.0000000000000000
 40
0.9999999999999999
100
AcDbArc
 50
89.99999999999970
 51
179.9999999999998
  0
ARC
  5
313
100
AcDbEntity
  8
MAIN0
  6
CONTINUOUS
 62
3
100
AcDbCircle
 10
178.5058221145337
 20
301.7454988421407
 30
0.0000000000000000
 40
3.000000000000000
100
AcDbArc
 50
359.9999999999998
 51
449.9999999999999
  0
ARC
  5
314
100
AcDbEntity
  8
MAIN0
  6
CONTINUOUS
 62
3
100
AcDbCircle
 10
182.5058221145337
 20
300.7454988421408
 30
0.0000000000000000
 40
0.9999999999999999
100
AcDbArc
 50
179.9999999999998
 51
269.9999999999999
  0
ARC
  5
315
100
AcDbEntity
  8
MAIN0
  6
CONTINUOUS
 62
3
100
AcDbCircle
 10
226.5058221145332
 20
300.7454988421408
 30
0.0000000000000000
 40
0.9999999999999999
100
AcDbArc
 50
269.9999999999999
 51
360.0000000000000
  0
ARC
  5
316
100
AcDbEntity
  8
MAIN0
  6
CONTINUOUS
 62
3
100
AcDbCircle
 10
230.5058221145332
 20
305.7981669201201
 30
0.0000000000000000
 40
3.000000000000000
100
AcDbArc
 50
124.4173887104413
 51
179.9999999999998
  0
ARC
  5
317
100
AcDbEntity
  8
MAIN0
  6
CONTINUOUS
 62
3
100
AcDbCircle
 10
250.3691755648431
 20
340.2025043047555
 30
0.0000000000000000
 40
3.000000000000000
100
AcDbArc
 50
119.9999999999995
 51
175.5826112895583
  0
ARC
  5
318
100
AcDbEntity
  8
MAIN0
  6
CENTER
 62
12
100
AcDbCircle
 10
204.5058221145331
 20
343.7454988421405
 30
0.0000000000000000
 40
39.00000000000000
100
AcDbArc
 50
49.39868058096894
 51
69.26354707624148
  0
ARC
  5
319
100
AcDbEntity
  8
MAIN0
  6
CENTER
 62
12
100
AcDbCircle
 10
204.5058221145331
 20
343.7454988421405
 30
0.0000000000000000
 40
39.00000000000000
100
AcDbArc
 50
169.3986805809687
 51
189.2635470762414
  0
ARC
  5
31A
100
AcDbEntity
  8
MAIN0
  6
CENTER
 62
12
100
AcDbCircle
 10
204.5058221145331
 20
343.7454988421405
 30
0.0000000000000000
 40
39.00000000000000
100
AcDbArc
 50
289.3986805809687
 51
309.2635470762416
  0
LINE
  5
31B
100
AcDbEntity
  8
MAIN0
  6
CONTINUOUS
 62
3
100
AcDbLine
 10
357.4865521235885
 20
391.9454988421404
 30
0.0000000000000000
 11
417.4865521235886
 21
391.9454988421404
 31
0.0000000000000000
  0
LINE
  5
31C
100
AcDbEntity
  8
MAIN0
  6
CONTINUOUS
 62
3
100
AcDbLine
 10
357.4865521235885
 20
388.7454988421404
 30
0.0000000000000000
 11
430.4865521235882
 21
388.7454988421404
 31
0.0000000000000000
  0
LINE
  5
31D
100
AcDbEntity
  8
MAIN0
  6
CONTINUOUS
 62
3
100
AcDbLine
 10
369.4865521235884
 20
388.2454988421404
 30
0.0000000000000000
 11
450.4865521235883
 21
388.2454988421404
 31
0.0000000000000000
  0
LINE
  5
31E
100
AcDbEntity
  8
MAIN0
  6
CONTINUOUS
 62
3
100
AcDbLine
 10
369.4865521235884
 20
387.7454988421404
 30
0.0000000000000000
 11
456.0147553538636
 21
387.7454988421404
 31
0.0000000000000000
  0
LINE
  5
31F
100
AcDbEntity
  8
MAIN0
  6
CONTINUOUS
 62
3
100
AcDbLine
 10
387.4865521235882
 20
382.7454988421404
 30
0.0000000000000000
 11
446.4865521235882
 21
382.7454988421404
 31
0.0000000000000000
  0
CIRCLE
  5
320
100
AcDbEntity
  8
MAIN0
  6
CONTINUOUS
 62
12
100
AcDbCircle
 10
490.4865521235881
 20
357.7454988421405
 30
0.0000000000000000
 40
8.330999999999998
  0
CIRCLE
  5
321
100
AcDbEntity
  8
MAIN0
  6
CONTINUOUS
 62
3
100
AcDbCircle
 10
490.4865521235881
 20
357.7454988421405
 30
0.0000000000000000
 40
7.474999999999998
  0
CIRCLE
  5
322
100
AcDbEntity
  8
MAIN0
  6
CONTINUOUS
 62
12
100
AcDbCircle
 10
479.4865521235881
 20
329.7454988421405
 30
0.0000000000000000
 40
8.330999999999998
  0
CIRCLE
  5
323
100
AcDbEntity
  8
MAIN0
  6
CONTINUOUS
 62
3
100
AcDbCircle
 10
479.4865521235881
 20
329.7454988421405
 30
0.0000000000000000
 40
7.474999999999998
  0
LINE
  5
324
100
AcDbEntity
  8
MAIN0
  6
HIDDEN
 62
12
100
AcDbLine
 10
477.9080521235882
 20
298.7454988421405
 30
0.0000000000000000
 11
478.2205521235882
 21
308.7454988421407
 31
0.0000000000000000
  0
LINE
  5
325
100
AcDbEntity
  8
MAIN0
  6
HIDDEN
 62
12
100
AcDbLine
 10
478.7640521235882
 20
298.7454988421405
 30
0.0000000000000000
 11
479.0765521235882
 21
308.7454988421405
 31
0.0000000000000000
  0
LINE
  5
326
100
AcDbEntity
  8
MAIN0
  6
HIDDEN
 62
12
100
AcDbLine
 10
490.7525521235881
 20
308.7454988421405
 30
0.0000000000000000
 11
491.0650521235882
 21
298.7454988421405
 31
0.0000000000000000
  0
LINE
  5
327
100
AcDbEntity
  8
MAIN0
  6
HIDDEN
 62
12
100
AcDbLine
 10
489.8965521235882
 20
308.7454988421405
 30
0.0000000000000000
 11
490.2090521235882
 21
298.7454988421405
 31
0.0000000000000000
  0
LINE
  5
328
100
AcDbEntity
  8
MAIN0
  6
CONTINUOUS
 62
3
100
AcDbLine
 10
423.4865521235877
 20
337.7454988421405
 30
0.0000000000000000
 11
423.4865521235877
 21
349.7454988421405
 31
0.0000000000000000
  0
LINE
  5
329
100
AcDbEntity
  8
MAIN0
  6
CONTINUOUS
 62
3
100
AcDbLine
 10
438.4865521235876
 20
351.2454988421405
 30
0.0000000000000000
 11
441.8504804453915
 21
351.2454988421405
 31
0.0000000000000000
  0
LINE
  5
32A
100
AcDbEntity
  8
MAIN0
  6
CONTINUOUS
 62
3
100
AcDbLine
 10
438.4865521235875
 20
336.2454988421405
 30
0.0000000000000000
 11
441.1971489855813
 21
336.2454988421405
 31
0.0000000000000000
  0
LINE
  5
32B
100
AcDbEntity
  8
MAIN0
  6
CONTINUOUS
 62
3
100
AcDbLine
 10
438.4865521235875
 20
336.2454988421406
 30
0.0000000000000000
 11
438.4865521235875
 21
351.2454988421405
 31
0.0000000000000000
  0
LINE
  5
32C
100
AcDbEntity
  8
MAIN0
  6
CONTINUOUS
 62
3
100
AcDbLine
 10
435.4865521235875
 20
350.4416512648471
 30
0.0000000000000000
 11
438.4865521235876
 21
351.2454988421405
 31
0.0000000000000000
  0
LINE
  5
32D
100
AcDbEntity
  8
MAIN0
  6
CONTINUOUS
 62
3
100
AcDbLine
 10
426.4865521235877
 20
337.7454988421405
 30
0.0000000000000000
 11
426.4865521235877
 21
349.7454988421405
 31
0.0000000000000000
  0
LINE
  5
32E
100
AcDbEntity
  8
MAIN0
  6
CONTINUOUS
 62
3
100
AcDbLine
 10
431.4865521235875
 20
337.7454988421405
 30
0.0000000000000000
 11
431.4865521235875
 21
349.7454988421405
 31
0.0000000000000000
  0
LINE
  5
32F
100
AcDbEntity
  8
MAIN0
  6
CONTINUOUS
 62
3
100
AcDbLine
 10
423.4865521235877
 20
349.7454988421405
 30
0.0000000000000000
 11
426.4865521235877
 21
349.7454988421405
 31
0.0000000000000000
  0
LINE
  5
330
100
AcDbEntity
  8
MAIN0
  6
CONTINUOUS
 62
3
100
AcDbLine
 10
431.4865521235875
 20
349.7454988421405
 30
0.0000000000000000
 11
435.4865521235875
 21
349.7454988421405
 31
0.0000000000000000
  0
LINE
  5
331
100
AcDbEntity
  8
MAIN0
  6
CONTINUOUS
 62
3
100
AcDbLine
 10
435.4865521235875
 20
337.0493464194339
 30
0.0000000000000000
 11
438.4865521235876
 21
336.2454988421405
 31
0.0000000000000000
  0
LINE
  5
332
100
AcDbEntity
  8
MAIN0
  6
CONTINUOUS
 62
3
100
AcDbLine
 10
431.4865521235875
 20
338.2454988421406
 30
0.0000000000000000
 11
426.4865521235877
 21
338.2454988421406
 31
0.0000000000000000
  0
LINE
  5
333
100
AcDbEntity
  8
MAIN0
  6
CONTINUOUS
 62
3
100
AcDbLine
 10
423.4865521235877
 20
337.7454988421405
 30
0.0000000000000000
 11
426.4865521235877
 21
337.7454988421405
 31
0.0000000000000000
  0
LINE
  5
334
100
AcDbEntity
  8
MAIN0
  6
CONTINUOUS
 62
3
100
AcDbLine
 10
431.4865521235875
 20
337.7454988421405
 30
0.0000000000000000
 11
435.4865521235875
 21
337.7454988421405
 31
0.0000000000000000
  0
LINE
  5
335
100
AcDbEntity
  8
MAIN0
  6
CONTINUOUS
 62
3
100
AcDbLine
 10
435.4865521235875
 20
337.0493464194339
 30
0.0000000000000000
 11
435.4865521235875
 21
350.4416512648471
 31
0.0000000000000000
  0
LINE
  5
336
100
AcDbEntity
  8
MAIN0
  6
CONTINUOUS
 62
3
100
AcDbLine
 10
435.4865521235873
 20
349.7454988421406
 30
0.0000000000000000
 11
435.4865521235873
 21
358.7454988421405
 31
0.0000000000000000
  0
LINE
  5
337
100
AcDbEntity
  8
MAIN0
  6
CONTINUOUS
 62
3
100
AcDbLine
 10
435.4865521235873
 20
358.7454988421405
 30
0.0000000000000000
 11
436.4865521235874
 21
358.7454988421405
 31
0.0000000000000000
  0
LINE
  5
338
100
AcDbEntity
  8
MAIN0
  6
CONTINUOUS
 62
3
100
AcDbLine
 10
436.4865521235876
 20
371.7454988421403
 30
0.0000000000000000
 11
439.4865521235872
 21
371.7454988421403
 31
0.0000000000000000
  0
LINE
  5
339
100
AcDbEntity
  8
MAIN0
  6
CONTINUOUS
 62
3
100
AcDbLine
 10
434.4865521235873
 20
373.7454988421403
 30
0.0000000000000000
 11
439.4865521235873
 21
373.7454988421403
 31
0.0000000000000000
  0
LINE
  5
33A
100
AcDbEntity
  8
MAIN0
  6
CONTINUOUS
 62
3
100
AcDbLine
 10
436.4865521235876
 20
354.8067537264184
 30
0.0000000000000000
 11
436.4865521235876
 21
371.7454988421403
 31
0.0000000000000000
  0
LINE
  5
33B
100
AcDbEntity
  8
MAIN0
  6
CONTINUOUS
 62
3
100
AcDbLine
 10
439.4865521235873
 20
370.2654619026874
 30
0.0000000000000000
 11
439.4865521235873
 21
373.7454988421399
 31
0.0000000000000000
  0
LINE
  5
33C
100
AcDbEntity
  8
MAIN0
  6
CONTINUOUS
 62
3
100
AcDbLine
 10
423.4865521235874
 20
349.7454988421405
 30
0.0000000000000000
 11
423.4865521235874
 21
363.7454988421403
 31
0.0000000000000000
  0
LINE
  5
33D
100
AcDbEntity
  8
MAIN0
  6
CONTINUOUS
 62
3
100
AcDbLine
 10
434.4865521235873
 20
363.7454988421403
 30
0.0000000000000000
 11
434.4865521235873
 21
373.7454988421399
 31
0.0000000000000000
  0
LINE
  5
33E
100
AcDbEntity
  8
MAIN0
  6
CONTINUOUS
 62
3
100
AcDbLine
 10
423.4865521235874
 20
363.7454988421403
 30
0.0000000000000000
 11
434.4865521235873
 21
363.7454988421403
 31
0.0000000000000000
  0
LINE
  5
33F
100
AcDbEntity
  8
MAIN0
  6
CONTINUOUS
 62
3
100
AcDbLine
 10
435.4865521235873
 20
337.7454988421405
 30
0.0000000000000000
 11
435.4865521235873
 21
328.7454988421406
 31
0.0000000000000000
  0
LINE
  5
340
100
AcDbEntity
  8
MAIN0
  6
CONTINUOUS
 62
3
100
AcDbLine
 10
435.4865521235873
 20
328.7454988421406
 30
0.0000000000000000
 11
436.4865521235874
 21
328.7454988421406
 31
0.0000000000000000
  0
LINE
  5
341
100
AcDbEntity
  8
MAIN0
  6
CONTINUOUS
 62
3
100
AcDbLine
 10
436.4865521235876
 20
315.7454988421408
 30
0.0000000000000000
 11
439.4865521235872
 21
315.7454988421408
 31
0.0000000000000000
  0
LINE
  5
342
100
AcDbEntity
  8
MAIN0
  6
CONTINUOUS
 62
3
100
AcDbLine
 10
434.4865521235873
 20
313.7454988421408
 30
0.0000000000000000
 11
439.4865521235873
 21
313.7454988421408
 31
0.0000000000000000
  0
LINE
  5
343
100
AcDbEntity
  8
MAIN0
  6
CONTINUOUS
 62
3
100
AcDbLine
 10
436.4865521235876
 20
332.6842439578626
 30
0.0000000000000000
 11
436.4865521235876
 21
315.7454988421408
 31
0.0000000000000000
  0
LINE
  5
344
100
AcDbEntity
  8
MAIN0
  6
CONTINUOUS
 62
3
100
AcDbLine
 10
439.4865521235873
 20
313.7454988421412
 30
0.0000000000000000
 11
439.4865521235873
 21
317.1161173960750
 31
0.0000000000000000
  0
LINE
  5
345
100
AcDbEntity
  8
MAIN0
  6
CONTINUOUS
 62
3
100
AcDbLine
 10
423.4865521235874
 20
337.7454988421405
 30
0.0000000000000000
 11
423.4865521235874
 21
323.7454988421408
 31
0.0000000000000000
  0
LINE
  5
346
100
AcDbEntity
  8
MAIN0
  6
CONTINUOUS
 62
3
100
AcDbLine
 10
434.4865521235873
 20
323.7454988421408
 30
0.0000000000000000
 11
434.4865521235873
 21
313.7454988421412
 31
0.0000000000000000
  0
LINE
  5
347
100
AcDbEntity
  8
MAIN0
  6
CONTINUOUS
 62
3
100
AcDbLine
 10
423.4865521235874
 20
323.7454988421408
 30
0.0000000000000000
 11
434.4865521235873
 21
323.7454988421408
 31
0.0000000000000000
  0
LINE
  5
348
100
AcDbEntity
  8
MAIN0
  6
CENTER
 62
12
100
AcDbLine
 10
428.9865521235874
 20
347.1236913744683
 30
0.0000000000000000
 11
428.9865521235874
 21
366.4035725016359
 31
0.0000000000000000
  0
LINE
  5
349
100
AcDbEntity
  8
MAIN0
  6
CONTINUOUS
 62
3
100
AcDbLine
 10
447.2865591235882
 20
306.4954968421406
 30
0.0000000000000000
 11
451.9865541235882
 21
306.4954988421406
 31
0.0000000000000000
  0
LINE
  5
34A
100
AcDbEntity
  8
MAIN0
  6
CONTINUOUS
 62
3
100
AcDbLine
 10
447.2865531235882
 20
314.9954948421405
 30
0.0000000000000000
 11
447.2865591235882
 21
306.4954968421406
 31
0.0000000000000000
  0
LINE
  5
34B
100
AcDbEntity
  8
MAIN0
  6
CONTINUOUS
 62
3
100
AcDbLine
 10
446.9865811235882
 20
314.4759958421406
 30
0.0000000000000000
 11
447.2865531235883
 21
314.9954948421406
 31
0.0000000000000000
  0
LINE
  5
34C
100
AcDbEntity
  8
MAIN0
  6
CONTINUOUS
 62
3
100
AcDbLine
 10
446.9865851235883
 20
307.0150288421407
 30
0.0000000000000000
 11
447.2865591235884
 21
306.4954968421407
 31
0.0000000000000000
  0
LINE
  5
34D
100
AcDbEntity
  8
MAIN0
  6
CONTINUOUS
 62
3
100
AcDbLine
 10
446.9865521235882
 20
307.0150859956139
 30
0.0000000000000000
 11
446.9865521235882
 21
314.4759456192165
 31
0.0000000000000000
  0
LINE
  5
34E
100
AcDbEntity
  8
MAIN0
  6
CONTINUOUS
 62
3
100
AcDbLine
 10
447.2864011235882
 20
314.9954948421408
 30
0.0000000000000000
 11
450.1449540314809
 21
314.9954966666912
 31
0.0000000000000000
  0
LINE
  5
34F
100
AcDbEntity
  8
MAIN0
  6
CONTINUOUS
 62
3
100
AcDbLine
 10
382.8865501235883
 20
306.9454968421407
 30
0.0000000000000000
 11
382.8865541235883
 21
302.5454978421407
 31
0.0000000000000000
  0
LINE
  5
350
100
AcDbEntity
  8
MAIN0
  6
CONTINUOUS
 62
3
100
AcDbLine
 10
384.1865541235883
 20
301.2454978421406
 30
0.0000000000000000
 11
385.4865521235884
 21
301.2454988421406
 31
0.0000000000000000
  0
LINE
  5
351
100
AcDbEntity
  8
MAIN0
  6
CONTINUOUS
 62
3
100
AcDbLine
 10
385.4865521235884
 20
308.2454988421407
 30
0.0000000000000000
 11
384.1865531235883
 21
308.2454978421407
 31
0.0000000000000000
  0
LINE
  5
352
100
AcDbEntity
  8
MAIN0
  6
CONTINUOUS
 62
3
100
AcDbLine
 10
385.4865521235884
 20
306.7454988421407
 30
0.0000000000000000
 11
393.4865521235884
 21
306.7454988421407
 31
0.0000000000000000
  0
LINE
  5
353
100
AcDbEntity
  8
MAIN0
  6
CONTINUOUS
 62
3
100
AcDbLine
 10
393.4865521235884
 20
306.7454988421407
 30
0.0000000000000000
 11
393.4865521235884
 21
302.7454988421407
 31
0.0000000000000000
  0
LINE
  5
354
100
AcDbEntity
  8
MAIN0
  6
CONTINUOUS
 62
3
100
AcDbLine
 10
393.4865521235884
 20
302.7454988421407
 30
0.0000000000000000
 11
385.4865521235884
 21
302.7454988421407
 31
0.0000000000000000
  0
LINE
  5
355
100
AcDbEntity
  8
MAIN0
  6
CONTINUOUS
 62
12
100
AcDbLine
 10
385.4865521235884
 20
306.2454988421407
 30
0.0000000000000000
 11
393.4865521235884
 21
306.2454988421407
 31
0.0000000000000000
  0
LINE
  5
356
100
AcDbEntity
  8
MAIN0
  6
CONTINUOUS
 62
12
100
AcDbLine
 10
385.4865521235884
 20
303.2454988421407
 30
0.0000000000000000
 11
393.4865521235884
 21
303.2454988421407
 31
0.0000000000000000
  0
ARC
  5
357
100
AcDbEntity
  8
MAIN0
  6
CONTINUOUS
 62
3
100
AcDbCircle
 10
384.1865491235884
 20
306.9454948421407
 30
0.0000000000000000
 40
1.299999999999997
100
AcDbArc
 50
89.99982499999918
 51
179.9999079999998
  0
ARC
  5
358
100
AcDbEntity
  8
MAIN0
  6
CONTINUOUS
 62
3
100
AcDbCircle
 10
384.1865541235884
 20
302.5454978421407
 30
0.0000000000000000
 40
1.299999999999997
100
AcDbArc
 50
179.9999999999998
 51
269.9999999999999
  0
LINE
  5
359
100
AcDbEntity
  8
MAIN0
  6
CONTINUOUS
 62
3
100
AcDbLine
 10
222.5562532131006
 20
376.0709206883012
 30
0.0000000000000000
 11
225.4553910159655
 21
378.9700584911660
 31
0.0000000000000000
  0
LINE
  5
35A
100
AcDbEntity
  8
MAIN0
  6
CONTINUOUS
 62
3
100
AcDbLine
 10
222.5562532131006
 20
378.9700584911660
 30
0.0000000000000000
 11
225.4553910159655
 21
376.0709206883012
 31
0.0000000000000000
  0
CIRCLE
  5
35B
100
AcDbEntity
  8
MAIN0
  6
CONTINUOUS
 62
3
100
AcDbCircle
 10
224.0058221145330
 20
377.5204895897335
 30
0.0000000000000000
 40
3.499999999999993
  0
LINE
  5
35C
100
AcDbEntity
  8
MAIN0
  6
CONTINUOUS
 62
3
100
AcDbLine
 10
167.4859700584284
 20
343.2149197996797
 30
0.0000000000000000
 11
163.5256741706411
 21
344.2760778846005
 31
0.0000000000000000
  0
LINE
  5
35D
100
AcDbEntity
  8
MAIN0
  6
CONTINUOUS
 62
3
100
AcDbLine
 10
164.9752430720760
 20
341.7653508982472
 30
0.0000000000000000
 11
166.0364011569963
 21
345.7256467860324
 31
0.0000000000000000
  0
CIRCLE
  5
35E
100
AcDbEntity
  8
MAIN0
  6
CONTINUOUS
 62
3
100
AcDbCircle
 10
165.5058221145337
 20
343.7454988421405
 30
0.0000000000000000
 40
3.499999999999993
  0
LINE
  5
35F
100
AcDbEntity
  8
MAIN0
  6
CONTINUOUS
 62
3
100
AcDbLine
 10
223.4752430720730
 20
311.9506560384399
 30
0.0000000000000000
 11
224.5364011569933
 21
307.9903601506548
 31
0.0000000000000000
  0
LINE
  5
360
100
AcDbEntity
  8
MAIN0
  6
CONTINUOUS
 62
3
100
AcDbLine
 10
225.9859700584257
 20
310.5010871370075
 30
0.0000000000000000
 11
222.0256741706405
 21
309.4399290520872
 31
0.0000000000000000
  0
CIRCLE
  5
361
100
AcDbEntity
  8
MAIN0
  6
CONTINUOUS
 62
3
100
AcDbCircle
 10
224.0058221145331
 20
309.9705080945475
 30
0.0000000000000000
 40
3.499999999999993
  0
LINE
  5
362
100
AcDbEntity
  8
MAIN0
  6
CONTINUOUS
 62
3
100
AcDbLine
 10
184.2558231145341
 20
392.9455008421403
 30
0.0000000000000000
 11
184.2558261145341
 21
397.6456498421402
 31
0.0000000000000000
  0
LINE
  5
363
100
AcDbEntity
  8
MAIN0
  6
CONTINUOUS
 62
3
100
AcDbLine
 10
192.7558241145332
 20
397.6454918421403
 30
0.0000000000000000
 11
192.7558221145332
 21
392.9454968421403
 31
0.0000000000000000
  0
LINE
  5
364
100
AcDbEntity
  8
MAIN0
  6
CONTINUOUS
 62
3
100
AcDbLine
 10
184.2558261145360
 20
397.6454978421403
 30
0.0000000000000000
 11
192.7558241145332
 21
397.6454918421403
 31
0.0000000000000000
  0
LINE
  5
365
100
AcDbEntity
  8
MAIN0
  6
CONTINUOUS
 62
3
100
AcDbLine
 10
184.7753251145333
 20
397.9454698421404
 30
0.0000000000000000
 11
184.2558261145333
 21
397.6454978421404
 31
0.0000000000000000
  0
LINE
  5
366
100
AcDbEntity
  8
MAIN0
  6
CONTINUOUS
 62
3
100
AcDbLine
 10
192.2362921145332
 20
397.9454658421404
 30
0.0000000000000000
 11
192.7558241145332
 21
397.6454918421404
 31
0.0000000000000000
  0
LINE
  5
367
100
AcDbEntity
  8
MAIN0
  6
CONTINUOUS
 62
3
100
AcDbLine
 10
192.2362349610599
 20
397.9454988421404
 30
0.0000000000000000
 11
184.7753753374601
 21
397.9454988421404
 31
0.0000000000000000
  0
INSERT
  5
392
100
AcDbEntity
  8
A0
  6
CONTINUOUS
 62
3
100
AcDbBlockReference
  2
M0
 10
0.0000000000000000
 20
0.0000000000000000
 30
0.0000000000000000
 50
0.0000000000000000
  0
MTEXT
  5
393
100
AcDbEntity
  8
A0
  6
CONTINUOUS
 62
3
100
AcDbMText
 10
252.2949445507294
 20
99.43718166071362
 30
0.0000000000000000
 40
3.099999904632568
 41
0.0000000000000000
 71
     1
 72
     1
  1
{\H0.92x;{  200}}
 11
1.000000000000000
 21
0.0000000000000000
 31
0.0000000000000000
  7
STANDARD
  0
MTEXT
  5
394
100
AcDbEntity
  8
A0
  6
CONTINUOUS
 62
3
100
AcDbMText
 10
252.2949445507294
 20
92.43718166071375
 30
0.0000000000000000
 40
3.099999904632568
 41
0.0000000000000000
 71
     1
 72
     1
  1
{\H0.92x;{   35}}
 11
1.000000000000000
 21
0.0000000000000000
 31
0.0000000000000000
  7
STANDARD
  0
MTEXT
  5
395
100
AcDbEntity
  8
A0
  6
CONTINUOUS
 62
3
100
AcDbMText
 10
252.2949445507294
 20
85.93718166071375
 30
0.0000000000000000
 40
3.099999904632568
 41
0.0000000000000000
 71
     1
 72
     1
  1
{\H0.92x;{  117}}
 11
1.000000000000000
 21
0.0000000000000000
 31
0.0000000000000000
  7
STANDARD
  0
MTEXT
  5
396
100
AcDbEntity
  8
A0
  6
CONTINUOUS
 62
3
100
AcDbMText
 10
252.2949445507294
 20
75.93718166071363
 30
0.0000000000000000
 40
3.099999904632568
 41
0.0000000000000000
 71
     1
 72
     1
  1
{\H0.92x;{  108}}
 11
1.000000000000000
 21
0.0000000000000000
 31
0.0000000000000000
  7
STANDARD
  0
MTEXT
  5
397
100
AcDbEntity
  8
A0
  6
CONTINUOUS
 62
3
100
AcDbMText
 10
252.2949445507294
 20
65.93718166071363
 30
0.0000000000000000
 40
3.099999904632568
 41
0.0000000000000000
 71
     1
 72
     1
  1
{\H0.81x;{ 4.0}}
 11
1.000000000000000
 21
0.0000000000000000
 31
0.0000000000000000
  7
STANDARD
  0
MTEXT
  5
398
100
AcDbEntity
  8
A0
  6
CONTINUOUS
 62
3
100
AcDbMText
 10
252.2949445507294
 20
55.43718166071363
 30
0.0000000000000000
 40
3.099999904632568
 41
0.0000000000000000
 71
     1
 72
     1
  1
{\H0.92x;{ 5500}}
 11
1.000000000000000
 21
0.0000000000000000
 31
0.0000000000000000
  7
STANDARD
  0
MTEXT
  5
399
100
AcDbEntity
  8
A0
  6
CONTINUOUS
 62
3
100
AcDbMText
 10
252.2949445507294
 20
48.43718166071363
 30
0.0000000000000000
 40
3.099999904632568
 41
0.0000000000000000
 71
     1
 72
     1
  1
{\H0.92x;{ 22.5}}
 11
1.000000000000000
 21
0.0000000000000000
 31
0.0000000000000000
  7
STANDARD
  0
MTEXT
  5
39A
100
AcDbEntity
  8
A0
  6
CONTINUOUS
 62
4
100
AcDbMText
 10
252.2949445507294
 20
20.93718213755079
 30
0.0000000000000000
 40
3.100000381469727
 41
0.0000000000000000
 71
     1
 72
     1
  1
{\H0.91x;{ 0.8}}
 11
1.000000000000000
 21
0.0000000000000000
 31
0.0000000000000000
  7
STANDARD
  0
MTEXT
  5
39B
100
AcDbEntity
  8
A0
  6
CONTINUOUS
 62
3
100
AcDbMText
 10
252.3664834996137
 20
38.71148085114133
 30
0.0000000000000000
 40
3.099999904632568
 41
0.0000000000000000
 71
     1
 72
     1
  1
{\H0.92x;{ 0.098}}
 11
1.000000000000000
 21
0.0000000000000000
 31
0.0000000000000000
  7
STANDARD
  0
MTEXT
  5
39C
100
AcDbEntity
  8
A0
  6
CONTINUOUS
 62
3
100
AcDbMText
 10
215.2126375060980
 20
77.43718166071388
 30
0.0000000000000000
 40
3.099999904632568
 41
0.0000000000000000
 71
     1
 72
     1
  1
{\H0.81x;{ 4.0}}
 11
1.000000000000000
 21
0.0000000000000000
 31
0.0000000000000000
  7
STANDARD
  0
LINE
  5
39D
100
AcDbEntity
  8
WAKU0
  6
CONTINUOUS
 62
3
100
AcDbLine
 10
412.0000000000000
 20
51.00000000000000
 30
0.0000000000000000
 11
582.0000000000000
 21
51.00000000000000
 31
0.0000000000000000
  0
LINE
  5
39E
100
AcDbEntity
  8
WAKU0
  6
CONTINUOUS
 62
3
100
AcDbLine
 10
412.0000000000000
 20
51.00000000000000
 30
0.0000000000000000
 11
412.0000000000000
 21
12.00000000000000
 31
0.0000000000000000
  0
LINE
  5
39F
100
AcDbEntity
  8
WAKU0
  6
CONTINUOUS
 62
3
100
AcDbLine
 10
484.0000000000000
 20
51.00000000000000
 30
0.0000000000000000
 11
484.0000000000000
 21
12.00000000000000
 31
0.0000000000000000
  0
LINE
  5
3A0
100
AcDbEntity
  8
WAKU0
  6
CONTINUOUS
 62
3
100
AcDbLine
 10
504.0000000000000
 20
51.00000000000000
 30
0.0000000000000000
 11
504.0000000000000
 21
12.00000000000000
 31
0.0000000000000000
  0
LINE
  5
3A1
100
AcDbEntity
  8
WAKU0
  6
CONTINUOUS
 62
3
100
AcDbLine
 10
516.0000000000000
 20
51.00000000000000
 30
0.0000000000000000
 11
516.0000000000000
 21
12.00000000000000
 31
0.0000000000000000
  0
LINE
  5
3A2
100
AcDbEntity
  8
WAKU0
  6
CONTINUOUS
 62
3
100
AcDbLine
 10
516.0000000000000
 20
37.00000000000000
 30
0.0000000000000000
 11
582.0000000000000
 21
37.00000000000000
 31
0.0000000000000000
  0
LINE
  5
3A3
100
AcDbEntity
  8
WAKU0
  6
CONTINUOUS
 62
3
100
AcDbLine
 10
504.0000000000000
 20
23.00000000000000
 30
0.0000000000000000
 11
582.0000000000000
 21
23.00000000000000
 31
0.0000000000000000
  0
LINE
  5
3A4
100
AcDbEntity
  8
WAKU0
  6
CONTINUOUS
 62
3
100
AcDbLine
 10
547.0000000000000
 20
51.00000000000000
 30
0.0000000000000000
 11
547.0000000000000
 21
44.00000000000000
 31
0.0000000000000000
  0
LINE
  5
3A5
100
AcDbEntity
  8
WAKU0
  6
CONTINUOUS
 62
3
100
AcDbLine
 10
559.0000000000000
 20
51.00000000000000
 30
0.0000000000000000
 11
559.0000000000000
 21
44.00000000000000
 31
0.0000000000000000
  0
LINE
  5
3A6
100
AcDbEntity
  8
WAKU0
  6
CONTINUOUS
 62
3
100
AcDbLine
 10
484.0000000000000
 20
31.50000000000000
 30
0.0000000000000000
 11
504.0000000000000
 21
31.50000000000000
 31
0.0000000000000000
  0
LINE
  5
3A7
100
AcDbEntity
  8
WAKU0
  6
CONTINUOUS
 62
3
100
AcDbLine
 10
504.0000000000000
 20
44.00000000000000
 30
0.0000000000000000
 11
582.0000000000000
 21
44.00000000000000
 31
0.0000000000000000
  0
LINE
  5
3A8
100
AcDbEntity
  8
WAKU0
  6
CONTINUOUS
 62
3
100
AcDbLine
 10
412.0000000000000
 20
37.00000000000000
 30
0.0000000000000000
 11
484.0000000000000
 21
37.00000000000000
 31
0.0000000000000000
  0
LINE
  5
3A9
100
AcDbEntity
  8
WAKU0
  6
CONTINUOUS
 62
3
100
AcDbLine
 10
412.0000000000000
 20
23.00000000000000
 30
0.0000000000000000
 11
484.0000000000000
 21
23.00000000000000
 31
0.0000000000000000
  0
LINE
  5
3AA
100
AcDbEntity
  8
WAKU0
  6
CONTINUOUS
 62
3
100
AcDbLine
 10
460.0000000000000
 20
37.00000000000000
 30
0.0000000000000000
 11
460.0000000000000
 21
12.00000000000000
 31
0.0000000000000000
  0
LINE
  5
3AB
100
AcDbEntity
  8
WAKU0
  6
CONTINUOUS
 62
3
100
AcDbLine
 10
436.0000000000000
 20
37.00000000000000
 30
0.0000000000000000
 11
436.0000000000000
 21
23.00000000000000
 31
0.0000000000000000
  0
LINE
  5
3AC
100
AcDbEntity
  8
WAKU0
  6
CONTINUOUS
 62
3
100
AcDbLine
 10
472.0000000000000
 20
26.00000000000000
 30
0.0000000000000000
 11
472.0000000000000
 21
23.00000000000000
 31
0.0000000000000000
  0
LINE
  5
3AD
100
AcDbEntity
  8
WAKU0
  6
CONTINUOUS
 62
3
100
AcDbLine
 10
448.0000000000000
 20
26.00000000000000
 30
0.0000000000000000
 11
448.0000000000000
 21
23.00000000000000
 31
0.0000000000000000
  0
LINE
  5
3AE
100
AcDbEntity
  8
WAKU0
  6
CONTINUOUS
 62
3
100
AcDbLine
 10
424.0000000000000
 20
26.00000000000000
 30
0.0000000000000000
 11
424.0000000000000
 21
23.00000000000000
 31
0.0000000000000000
  0
LINE
  5
3AF
100
AcDbEntity
  8
WAKU0
  6
CONTINUOUS
 62
3
100
AcDbLine
 10
430.0000000000000
 20
51.00000000000000
 30
0.0000000000000000
 11
430.0000000000000
 21
37.00000000000000
 31
0.0000000000000000
  0
LINE
  5
3B0
100
AcDbEntity
  8
WAKU0
  6
CONTINUOUS
 62
3
100
AcDbLine
 10
412.0000000000000
 20
45.00000000000000
 30
0.0000000000000000
 11
484.0000000000000
 21
45.00000000000000
 31
0.0000000000000000
  0
LINE
  5
3B1
100
AcDbEntity
  8
WAKU0
  6
HIDDEN
 62
3
100
AcDbLine
 10
532.5000000000000
 20
23.00000000000000
 30
0.0000000000000000
 11
532.5000000000000
 21
12.00000000000000
 31
0.0000000000000000
  0
LINE
  5
3B2
100
AcDbEntity
  8
WAKU0
  6
HIDDEN
 62
3
100
AcDbLine
 10
544.9000000000000
 20
23.00000000000000
 30
0.0000000000000000
 11
544.9000000000000
 21
12.00000000000000
 31
0.0000000000000000
  0
MTEXT
  5
3B3
100
AcDbEntity
  8
WAKU0
  6
CONTINUOUS
 62
3
100
AcDbMText
 10
516.4820000231266
 20
49.04999995231628
 30
0.0000000000000000
 40
3.099999904632568
 41
0.0000000000000000
 71
     1
 72
     1
  1
{\H0.93x;{Y2035RE47}}
 11
1.000000000000000
 21
0.0000000000000000
 31
0.0000000000000000
  7
STANDARD
  0
MTEXT
  5
3B4
100
AcDbEntity
  8
WAKU0
  6
CONTINUOUS
 62
3
100
AcDbMText
 10
522.7500004470348
 20
43.50000000000000
 30
0.0000000000000000
 40
3.000000000000000
 41
0.0000000000000000
 71
     1
 72
     1
  1
{\H0.59x;{回転油圧シリンダ\PＲＯＴＡＲＹ　ＨＹＤＲＡＵＬＩＣ　ＣＹＬＩＮＤＥＲ}}
 11
1.000000000000000
 21
0.0000000000000000
 31
0.0000000000000000
  7
KNJYOKO
  0
MTEXT
  5
3B5
100
AcDbEntity
  8
WAKU0
  6
CONTINUOUS
 62
3
100
AcDbMText
 10
520.4500010497868
 20
34.23333326975504
 30
0.0000000000000000
 40
3.099999904632568
 41
0.0000000000000000
 71
     1
 72
     1
  1
{\H0.71x;{Ｙ２０３５ＲＥ４７　ガイケイ\PＹ２０３５ＲＥ４７　ＯＵＴＳＩＤＥ　ＶＩＥＷ}}
 11
1.000000000000000
 21
0.0000000000000000
 31
0.0000000000000000
  7
KNJYOKO
  0
MTEXT
  5
3B6
100
AcDbEntity
  8
WAKU0
  6
CONTINUOUS
 62
3
100
AcDbMText
 10
490.0049998760223
 20
39.29999995231628
 30
0.0000000000000000
 40
3.099999904632568
 41
0.0000000000000000
 71
     1
 72
     1
  1
{\H0.90x;{2:3}}
 11
1.000000000000000
 21
0.0000000000000000
 31
0.0000000000000000
  7
STANDARD
  0
MTEXT
  5
3B7
100
AcDbEntity
  8
WAKU0
  6
CONTINUOUS
 62
3
100
AcDbMText
 10
546.4000001549721
 20
20.15000009536743
 30
0.0000000000000000
 40
5.300000190734863
 41
0.0000000000000000
 71
     1
 72
     1
  1
{\H0.90x;{0137}}
 11
1.000000000000000
 21
0.0000000000000000
 31
0.0000000000000000
  7
STANDARD
  0
MTEXT
  5
3B8
100
AcDbEntity
  8
WAKU0
  6
CONTINUOUS
 62
3
100
AcDbMText
 10
534.3000000834466
 20
20.15000009536743
 30
0.0000000000000000
 40
5.300000190734863
 41
0.0000000000000000
 71
     1
 72
     1
  1
{\H0.87x;{23}}
 11
1.000000000000000
 21
0.0000000000000000
 31
0.0000000000000000
  7
STANDARD
  0
MTEXT
  5
3B9
100
AcDbEntity
  8
WAKU0
  6
CONTINUOUS
 62
3
100
AcDbMText
 10
517.5000001192093
 20
20.15000009536743
 30
0.0000000000000000
 40
5.300000190734863
 41
0.0000000000000000
 71
     1
 72
     1
  1
{\H0.89x;{61R}}
 11
1.000000000000000
 21
0.0000000000000000
 31
0.0000000000000000
  7
STANDARD
  0
MTEXT
  5
3BA
100
AcDbEntity
  8
WAKU0
  6
CONTINUOUS
 62
3
100
AcDbMText
 10
572.0000000476837
 20
20.15000009536743
 30
0.0000000000000000
 40
5.300000190734863
 41
0.0000000000000000
 71
     1
 72
     1
  1
{\H0.81x;{1}}
 11
1.000000000000000
 21
0.0000000000000000
 31
0.0000000000000000
  7
STANDARD
  0
MTEXT
  5
3BB
100
AcDbEntity
  8
WAKU0
  6
CONTINUOUS
 62
3
100
AcDbMText
 10
572.0000000819564
 20
44.84999990463257
 30
0.0000000000000000
 40
5.300000190734863
 41
0.0000000000000000
 71
     7
 72
     1
  1
{\H0.81x;{ }}
 11
1.000000000000000
 21
0.0000000000000000
 31
0.0000000000000000
  7
STANDARD
  0
MTEXT
  5
3BC
100
AcDbEntity
  8
WAKU0
  6
CONTINUOUS
 62
3
100
AcDbMText
 10
461.3850002884865
 20
33.00000000000000
 30
0.0000000000000000
 40
3.000000000000000
 41
0.0000000000000000
 71
     7
 72
     1
  1
{\H0.93x;{DRAWN BY}}
 11
1.000000000000000
 21
0.0000000000000000
 31
0.0000000000000000
  7
STANDARD
  0
MTEXT
  5
3BD
100
AcDbEntity
  8
WAKU0
  6
CONTINUOUS
 62
3
100
AcDbMText
 10
441.2149997949600
 20
32.95000004768372
 30
0.0000000000000000
 40
3.099999904632568
 41
0.0000000000000000
 71
     7
 72
     1
  1
{\H0.92x;{CHIEF}}
 11
1.000000000000000
 21
0.0000000000000000
 31
0.0000000000000000
  7
STANDARD
  0
MTEXT
  5
3BE
100
AcDbEntity
  8
WAKU0
  6
CONTINUOUS
 62
3
100
AcDbMText
 10
414.4249997138977
 20
32.95000004768372
 30
0.0000000000000000
 40
3.099999904632568
 41
0.0000000000000000
 71
     7
 72
     1
  1
{\H0.92x;{MANAGER}}
 11
1.000000000000000
 21
0.0000000000000000
 31
0.0000000000000000
  7
STANDARD
  0
MTEXT
  5
3BF
100
AcDbEntity
  8
WAKU0
  6
CONTINUOUS
 62
3
100
AcDbMText
 10
413.0850002169609
 20
46.50000000000000
 30
0.0000000000000000
 40
3.000000000000000
 41
0.0000000000000000
 71
     7
 72
     1
  1
{\H0.92x;{CAREER}}
 11
1.000000000000000
 21
0.0000000000000000
 31
0.0000000000000000
  7
STANDARD
  0
MTEXT
  5
3C0
100
AcDbEntity
  8
WAKU0
  6
CONTINUOUS
 62
3
100
AcDbMText
 10
466.6099998354912
 20
18.95000004768372
 30
0.0000000000000000
 40
3.099999904632568
 41
0.0000000000000000
 71
     7
 72
     1
  1
{\H0.91x;{DATE}}
 11
1.000000000000000
 21
0.0000000000000000
 31
0.0000000000000000
  7
STANDARD
  0
MTEXT
  5
3C1
100
AcDbEntity
  8
WAKU0
  6
CONTINUOUS
 62
3
100
AcDbMText
 10
485.9000002145767
 20
26.50000000000000
 30
0.0000000000000000
 40
3.000000000000000
 41
0.0000000000000000
 71
     7
 72
     1
  1
{\H0.63x;{3RD ANGLE}}
 11
1.000000000000000
 21
0.0000000000000000
 31
0.0000000000000000
  7
STANDARD
  0
MTEXT
  5
3C2
100
AcDbEntity
  8
WAKU0
  6
CONTINUOUS
 62
3
100
AcDbMText
 10
487.2149997949600
 20
45.95000004768372
 30
0.0000000000000000
 40
3.099999904632568
 41
0.0000000000000000
 71
     7
 72
     1
  1
{\H0.92x;{SCALE}}
 11
1.000000000000000
 21
0.0000000000000000
 31
0.0000000000000000
  7
STANDARD
  0
MTEXT
  5
3C3
100
AcDbEntity
  8
WAKU0
  6
CONTINUOUS
 62
3
100
AcDbMText
 10
577.7000000476837
 20
46.00000000000000
 30
0.0000000000000000
 40
3.000000000000000
 41
0.0000000000000000
 71
     7
 72
     1
  1
{\H0.63x;{kg}}
 11
1.000000000000000
 21
0.0000000000000000
 31
0.0000000000000000
  7
STANDARD
  0
MTEXT
  5
3C4
100
AcDbEntity
  8
WAKU0
  6
CONTINUOUS
 62
3
100
AcDbMText
 10
547.6000001430512
 20
46.00000000000000
 30
0.0000000000000000
 40
3.000000000000000
 41
0.0000000000000000
 71
     7
 72
     1
  1
{\H0.63x;{WEIGHT}}
 11
1.000000000000000
 21
0.0000000000000000
 31
0.0000000000000000
  7
STANDARD
  0
MTEXT
  5
3C5
100
AcDbEntity
  8
WAKU0
  6
CONTINUOUS
 62
3
100
AcDbMText
 10
506.0049998760223
 20
18.13333336512248
 30
0.0000000000000000
 40
3.099999904632568
 41
0.0000000000000000
 71
     7
 72
     1
  1
{\H0.90x;{DRW\PNO.}}
 11
1.000000000000000
 21
0.0000000000000000
 31
0.0000000000000000
  7
STANDARD
  0
MTEXT
  5
3C6
100
AcDbEntity
  8
WAKU0
  6
CONTINUOUS
 62
3
100
AcDbMText
 10
504.6099998354912
 20
31.95000004768372
 30
0.0000000000000000
 40
3.099999904632568
 41
0.0000000000000000
 71
     7
 72
     1
  1
{\H0.91x;{NAME}}
 11
1.000000000000000
 21
0.0000000000000000
 31
0.0000000000000000
  7
STANDARD
  0
MTEXT
  5
3C7
100
AcDbEntity
  8
WAKU0
  6
CONTINUOUS
 62
3
100
AcDbMText
 10
504.6099998354912
 20
45.95000004768372
 30
0.0000000000000000
 40
3.099999904632568
 41
0.0000000000000000
 71
     7
 72
     1
  1
{\H0.91x;{TYPE}}
 11
1.000000000000000
 21
0.0000000000000000
 31
0.0000000000000000
  7
STANDARD
  0
LINE
  5
3C8
100
AcDbEntity
  8
WAKU0
  6
HIDDEN
 62
3
100
AcDbLine
 10
579.1599564743885
 20
13.84999990463257
 30
0.0000000000000000
 11
568.9400436209789
 21
13.84999990463257
 31
0.0000000000000000
  0
LINE
  5
3C9
100
AcDbEntity
  8
WAKU0
  6
HIDDEN
 62
3
100
AcDbLine
 10
579.1599564743885
 20
13.84999990463250
 30
0.0000000000000000
 11
574.0500000476851
 21
22.70070406014901
 31
0.0000000000000000
  0
LINE
  5
3CA
100
AcDbEntity
  8
WAKU0
  6
HIDDEN
 62
3
100
AcDbLine
 10
574.0500000476851
 20
22.70070406014902
 30
0.0000000000000000
 11
568.9400436209789
 21
13.84999990463248
 31
0.0000000000000000
  0
MTEXT
  5
3CB
100
AcDbEntity
  8
WAKU0
  6
CONTINUOUS
 62
3
100
AcDbMText
 10
419.0000009614873
 20
20.63471521698214
 30
0.0000000000000000
 40
3.140094041824341
 41
0.0000000000000000
 71
     1
 72
     1
  1
{\H0.83x;{Ｋｉｔａｇａｗａ\PＣｏｒｐｏｒａｔｉｏｎ}}
 11
1.000000000000000
 21
0.0000000000000000
 31
0.0000000000000000
  7
KNJYOKO
  0
LINE
  5
3CC
100
AcDbEntity
  8
WAKU0
  6
CONTINUOUS
 62
3
100
AcDbLine
 10
502.4713877753800
 20
15.78041421262812
 30
0.0000000000000000
 11
502.4713877753800
 21
21.78041421262815
 31
0.0000000000000000
  0
LINE
  5
3CD
100
AcDbEntity
  8
WAKU0
  6
CONTINUOUS
 62
3
100
AcDbLine
 10
495.9336941228225
 20
17.28041421262811
 30
0.0000000000000000
 11
495.9336941228225
 21
20.28041421262824
 31
0.0000000000000000
  0
LINE
  5
3CE
100
AcDbEntity
  8
WAKU0
  6
CENTER
 62
12
100
AcDbLine
 10
485.4321805514995
 20
18.78041421262813
 30
0.0000000000000000
 11
503.2765788964694
 21
18.78041421262813
 31
0.0000000000000000
  0
LINE
  5
3CF
100
AcDbEntity
  8
WAKU0
  6
CENTER
 62
12
100
AcDbLine
 10
489.4474565857986
 20
14.55921662918448
 30
0.0000000000000000
 11
489.4474565857986
 21
22.89865102149943
 31
0.0000000000000000
  0
LINE
  5
3D0
100
AcDbEntity
  8
WAKU0
  6
CONTINUOUS
 62
3
100
AcDbLine
 10
495.9336941228225
 20
20.28041421262797
 30
0.0000000000000000
 11
502.4713877753800
 21
21.78041421262795
 31
0.0000000000000000
  0
LINE
  5
3D1
100
AcDbEntity
  8
WAKU0
  6
CONTINUOUS
 62
3
100
AcDbLine
 10
495.9336941228225
 20
17.28041421262811
 30
0.0000000000000000
 11
502.4713877753799
 21
15.78041421262812
 31
0.0000000000000000
  0
CIRCLE
  5
3D2
100
AcDbEntity
  8
WAKU0
  6
CONTINUOUS
 62
3
100
AcDbCircle
 10
489.4474565857986
 20
18.78041421262813
 30
0.0000000000000000
 40
1.499999999999972
  0
CIRCLE
  5
3D3
100
AcDbEntity
  8
WAKU0
  6
CONTINUOUS
 62
3
100
AcDbCircle
 10
489.4474565857986
 20
18.78041421262813
 30
0.0000000000000000
 40
2.999999999999979
  0
ENDSEC
  0
SECTION
  2
OBJECTS
  0
DICTIONARY
  5
41E
100
AcDbDictionary
  3
ACAD_GROUP
350
41F
  3
ACAD_MLINESTYLE
350
420
  3
DWGPROPS
350
421
  0
DICTIONARY
  5
41F
102
{ACAD_REACTORS
330
41E
102
}
100
AcDbDictionary
  0
DICTIONARY
  5
420
102
{ACAD_REACTORS
330
41E
102
}
100
AcDbDictionary
  3
STANDARD
350
422
  0
MLINESTYLE
  5
422
102
{ACAD_REACTORS
330
420
102
}
100
AcDbMlineStyle
  2
STANDARD
 70
     0
  3

 62
   256
 51
90.00
 52
90.00
 71
     2
 49
0.50
 62
   256
  6
BYLAYER
 49
-0.50
 62
   256
  6
BYLAYER
  0
XRECORD
  5
421
102
{ACAD_REACTORS
330
41E
102
}
100
AcDbXrecord
280
     1
  1
DWGPROPS COOKIE
  2
Ｙ２０３５ＲＥ４７　ガイケイ
  3

  4

  6
回転油圧シリンダ
  7

  8

  9

300
=
301
=
302
=
303
=
304
=
305
=
306
=
307
=
308
=
309
=
 40
0.000000
 41
0.000000
 42
0.000000
  1

 90
        0
  0
ENDSEC
  0
EOF
