  0
SECTION
  2
HEADER
  9
$ACADVER
  1
AC1014
  9
$DWGCODEPAGE
  3
ANSI_932
  9
$LTSCALE
 40
20.0
  9
$FILLMODE
 70
     1
  9
$CLAYER
  8
0
  9
$PDMODE
 70
     0
  9
$SPLFRAME
 70
     0
  9
$SPLINETYPE
 70
     6
  9
$SPLINESEGS
 70
     8
  9
$DIMASZ
 40
2.000000
  9
$DIMEXE
 40
2.000000
  9
$DIMEXO
 40
0.800000
  9
$DIMTAD
 70
     1
  9
$DIMTIH
 70
     0
  9
$DIMTOH
 70
     0
  9
$DIMTVP
 40
0.500000
  9
$DIMTXT
 40
3.100000
  9
$EXTMIN
 10
0.000000
 20
0.000000
 30
0.000000
  9
$EXTMAX
 10
420.000000
 20
594.000000
 30
0.000000
  9
$MEASUREMENT
 70
  1
  9
$LIMMIN
 10
0.000000
 20
0.000000
  9
$LIMMAX
 10
420.000000
 20
594.000000
  9
$HANDLING
 70
     1
  9
$HANDSEED
  5
432
  9
$DIMBLK
  1
_OPEN
  9
$DIMDEC
 70
     3
  9
$DIMAUNIT
 70
     1
  9
$DIMZIN
 70
     8
  9
$DIMTOFL
 70
     1
  0
ENDSEC
  0
SECTION
  2
CLASSES
  0
ENDSEC
  0
SECTION
  2
TABLES
  0
TABLE
  2
VPORT
  5
3E5
100
AcDbSymbolTable
 70
     1
  0
VPORT
  5
3E6
100
AcDbSymbolTableRecord
100
AcDbViewportTableRecord
  2
*ACTIVE
 70
     0
 12
297.000000
 22
210.000000
 40
420.000000
 41
1.414286
  0
ENDTAB
  0
TABLE
  2
LTYPE
  5
3E7
100
AcDbSymbolTable
 70
     4
  0
LTYPE
  5
3E8
100
AcDbSymbolTableRecord
100
AcDbLinetypeTableRecord
  2
BYBLOCK
 70
     0
  3

 72
    65
 73
     0
 40
0.0
  0
LTYPE
  5
3E9
100
AcDbSymbolTableRecord
100
AcDbLinetypeTableRecord
  2
BYLAYER
 70
     0
  3

 72
    65
 73
     0
 40
0.0
  0
LTYPE
  5
3EA
100
AcDbSymbolTableRecord
100
AcDbLinetypeTableRecord
  2
CONTINUOUS
 70
     0
  3
Solid line (NEC CAE2D for Win R14.2 : 2021.06.16)
 72
    65
 73
     0
 40
0.0
  0
LTYPE
  5
3EB
100
AcDbSymbolTableRecord
100
AcDbLinetypeTableRecord
  2
HIDDEN
 70
     0
  3
__ __ __ __ __ __ __ __ __ __ __ __ __ __
 72
    65
 73
     2
 40
0.375
 49
0.25
 74
     0
 49
-0.125
 74
     0
  0
LTYPE
  5
3EC
100
AcDbSymbolTableRecord
100
AcDbLinetypeTableRecord
  2
CENTER
 70
     0
  3
____ _ ____ _ ____ _ ____ _ ____ _ ____
 72
    65
 73
     4
 40
2.0
 49
1.25
 74
     0
 49
-0.25
 74
     0
 49
0.25
 74
     0
 49
-0.25
 74
     0
  0
LTYPE
  5
3ED
100
AcDbSymbolTableRecord
100
AcDbLinetypeTableRecord
  2
PHANTOM
 70
     0
  3
______  __  __  ______  __  __  ______ 
 72
    65
 73
     6
 40
2.5
 49
1.25
 74
     0
 49
-0.25
 74
     0
 49
0.25
 74
     0
 49
-0.25
 74
     0
 49
0.25
 74
     0
 49
-0.25
 74
     0
  0
ENDTAB
  0
TABLE
  2
LAYER
  5
3EE
100
AcDbSymbolTable
 70
    12
  0
LAYER
  5
3EF
100
AcDbSymbolTableRecord
100
AcDbLayerTableRecord
  2
0
 70
     0
 62
     7
  6
CONTINUOUS
  0
LAYER
  5
3F0
100
AcDbSymbolTableRecord
100
AcDbLayerTableRecord
  2
MAIN0
 70
     0
 62
     7
  6
CONTINUOUS
  0
LAYER
  5
3F1
100
AcDbSymbolTableRecord
100
AcDbLayerTableRecord
  2
MAIN1
 70
     0
 62
     7
  6
CONTINUOUS
  0
LAYER
  5
3F2
100
AcDbSymbolTableRecord
100
AcDbLayerTableRecord
  2
MAIN2
 70
     0
 62
     7
  6
CONTINUOUS
  0
LAYER
  5
3F3
100
AcDbSymbolTableRecord
100
AcDbLayerTableRecord
  2
MAIN3
 70
     0
 62
     7
  6
CONTINUOUS
  0
LAYER
  5
3F4
100
AcDbSymbolTableRecord
100
AcDbLayerTableRecord
  2
MAIN10
 70
     0
 62
     7
  6
CONTINUOUS
  0
LAYER
  5
3F5
100
AcDbSymbolTableRecord
100
AcDbLayerTableRecord
  2
MAIN1023
 70
     0
 62
    16
  6
CONTINUOUS
  0
LAYER
  5
3F6
100
AcDbSymbolTableRecord
100
AcDbLayerTableRecord
  2
DUMMY0
 70
     0
 62
     7
  6
CONTINUOUS
  0
LAYER
  5
3F7
100
AcDbSymbolTableRecord
100
AcDbLayerTableRecord
  2
DUMMY10
 70
     0
 62
     7
  6
CONTINUOUS
  0
LAYER
  5
3F8
100
AcDbSymbolTableRecord
100
AcDbLayerTableRecord
  2
DUMMY1023
 70
     0
 62
    16
  6
CONTINUOUS
  0
LAYER
  5
3F9
100
AcDbSymbolTableRecord
100
AcDbLayerTableRecord
  2
WAKU0
 70
     0
 62
     7
  6
CONTINUOUS
  0
LAYER
  5
3FA
100
AcDbSymbolTableRecord
100
AcDbLayerTableRecord
  2
WAKU1023
 70
     0
 62
    16
  6
CONTINUOUS
  0
ENDTAB
  0
TABLE
  2
STYLE
  5
3FB
100
AcDbSymbolTable
 70
     4
  0
STYLE
  5
3FC
100
AcDbSymbolTableRecord
100
AcDbTextStyleTableRecord
  2
STANDARD
 70
    64
 40
0.0
 41
1.0
 50
0.0
 71
     0
 42
3.140094041824341
  3
TXT
  4

  0
STYLE
  5
3FD
100
AcDbSymbolTableRecord
100
AcDbTextStyleTableRecord
  2
ANKTATE
 70
    68
 40
0.0
 41
1.0
 50
0.0
 71
     0
 42
3.140094041824341
  3
TXT
  4

  0
STYLE
  5
3FE
100
AcDbSymbolTableRecord
100
AcDbTextStyleTableRecord
  2
KNJYOKO
 70
    64
 40
0.0
 41
1.0
 50
0.0
 71
     0
 42
3.140094041824341
  3
TXT
  4
BIGFONT
  0
STYLE
  5
3FF
100
AcDbSymbolTableRecord
100
AcDbTextStyleTableRecord
  2
KNJTATE
 70
    68
 40
0.0
 41
1.0
 50
0.0
 71
     0
 42
3.140094041824341
  3
TXT
  4
BIGFONT
  0
ENDTAB
  0
TABLE
  2
VIEW
  5
400
100
AcDbSymbolTable
 70
     0
  0
ENDTAB
  0
TABLE
  2
UCS
  5
401
100
AcDbSymbolTable
 70
     0
  0
ENDTAB
  0
TABLE
  2
APPID
  5
402
100
AcDbSymbolTable
 70
     1
  0
APPID
  5
403
100
AcDbSymbolTableRecord
100
AcDbRegAppTableRecord
  2
ACAD
 70
     0
  0
ENDTAB
  0
TABLE
  2
DIMSTYLE
  5
404
100
AcDbSymbolTable
 70
     1
  0
DIMSTYLE
105
405
100
AcDbSymbolTableRecord
100
AcDbDimStyleTableRecord
  2
STANDARD
 70
     0
 41
2.000000
 44
2.000000
 42
0.800000
145
0.661290
140
3.100000
144
1.000000
146
0.903226
340
3FC
  0
DIMSTYLE
105
406
100
AcDbSymbolTableRecord
100
AcDbDimStyleTableRecord
  2
MAIN001
 70
     0
 41
2.000000
 44
2.000000
 42
0.800000
145
0.661290
140
3.100000
144
1.000000
146
0.903226
 77
     1
 73
     0
 74
     0
271
     3
275
     1
 78
     8
172
     1
340
3FC
  0
DIMSTYLE
105
407
100
AcDbSymbolTableRecord
100
AcDbDimStyleTableRecord
  2
DUMMY002
 70
     0
 41
2.000000
 44
2.000000
 42
0.800000
145
0.661290
140
3.100000
144
1.000000
146
0.903226
 77
     1
 73
     0
 74
     0
271
     3
275
     1
 78
     8
172
     1
340
3FC
  0
DIMSTYLE
105
408
100
AcDbSymbolTableRecord
100
AcDbDimStyleTableRecord
  2
WAKU003
 70
     0
 41
2.000000
 44
2.000000
 42
0.800000
145
0.661290
140
3.100000
144
1.000000
146
0.903226
 77
     1
 73
     0
 74
     0
271
     3
275
     1
 78
     8
172
     1
340
3FC
  0
ENDTAB
  0
TABLE
  2
BLOCK_RECORD
  5
409
100
AcDbSymbolTable
 70
    41
  0
BLOCK_RECORD
  5
40A
100
AcDbSymbolTableRecord
100
AcDbBlockTableRecord
  2
*MODEL_SPACE
  0
BLOCK_RECORD
  5
40B
100
AcDbSymbolTableRecord
100
AcDbBlockTableRecord
  2
*PAPER_SPACE
  0
BLOCK_RECORD
  5
1
100
AcDbSymbolTableRecord
100
AcDbBlockTableRecord
  2
_NONE
  0
BLOCK_RECORD
  5
4
100
AcDbSymbolTableRecord
100
AcDbBlockTableRecord
  2
_CLOSED
  0
BLOCK_RECORD
  5
B
100
AcDbSymbolTableRecord
100
AcDbBlockTableRecord
  2
_DOT
  0
BLOCK_RECORD
  5
13
100
AcDbSymbolTableRecord
100
AcDbBlockTableRecord
  2
_OPEN
  0
BLOCK_RECORD
  5
19
100
AcDbSymbolTableRecord
100
AcDbBlockTableRecord
  2
_ORIGIN
  0
BLOCK_RECORD
  5
1E
100
AcDbSymbolTableRecord
100
AcDbBlockTableRecord
  2
_OPEN30
  0
BLOCK_RECORD
  5
24
100
AcDbSymbolTableRecord
100
AcDbBlockTableRecord
  2
_BOXFILLED
  0
BLOCK_RECORD
  5
29
100
AcDbSymbolTableRecord
100
AcDbBlockTableRecord
  2
_BOXBLANK
  0
BLOCK_RECORD
  5
31
100
AcDbSymbolTableRecord
100
AcDbBlockTableRecord
  2
_OBLIQUE
  0
BLOCK_RECORD
  5
35
100
AcDbSymbolTableRecord
100
AcDbBlockTableRecord
  2
_OPEN90
  0
BLOCK_RECORD
  5
3B
100
AcDbSymbolTableRecord
100
AcDbBlockTableRecord
  2
_CLOSEDBLANK
  0
BLOCK_RECORD
  5
41
100
AcDbSymbolTableRecord
100
AcDbBlockTableRecord
  2
_DOTBLANK
  0
BLOCK_RECORD
  5
40C
100
AcDbSymbolTableRecord
100
AcDbBlockTableRecord
  2
*D0
  0
BLOCK_RECORD
  5
40D
100
AcDbSymbolTableRecord
100
AcDbBlockTableRecord
  2
*D1
  0
BLOCK_RECORD
  5
40E
100
AcDbSymbolTableRecord
100
AcDbBlockTableRecord
  2
*D2
  0
BLOCK_RECORD
  5
40F
100
AcDbSymbolTableRecord
100
AcDbBlockTableRecord
  2
*D3
  0
BLOCK_RECORD
  5
410
100
AcDbSymbolTableRecord
100
AcDbBlockTableRecord
  2
*D4
  0
BLOCK_RECORD
  5
411
100
AcDbSymbolTableRecord
100
AcDbBlockTableRecord
  2
*D5
  0
BLOCK_RECORD
  5
412
100
AcDbSymbolTableRecord
100
AcDbBlockTableRecord
  2
*D6
  0
BLOCK_RECORD
  5
413
100
AcDbSymbolTableRecord
100
AcDbBlockTableRecord
  2
*D7
  0
BLOCK_RECORD
  5
414
100
AcDbSymbolTableRecord
100
AcDbBlockTableRecord
  2
*D8
  0
BLOCK_RECORD
  5
415
100
AcDbSymbolTableRecord
100
AcDbBlockTableRecord
  2
*D9
  0
BLOCK_RECORD
  5
416
100
AcDbSymbolTableRecord
100
AcDbBlockTableRecord
  2
*D10
  0
BLOCK_RECORD
  5
417
100
AcDbSymbolTableRecord
100
AcDbBlockTableRecord
  2
*D11
  0
BLOCK_RECORD
  5
418
100
AcDbSymbolTableRecord
100
AcDbBlockTableRecord
  2
*D12
  0
BLOCK_RECORD
  5
419
100
AcDbSymbolTableRecord
100
AcDbBlockTableRecord
  2
*D13
  0
BLOCK_RECORD
  5
41A
100
AcDbSymbolTableRecord
100
AcDbBlockTableRecord
  2
*D14
  0
BLOCK_RECORD
  5
41B
100
AcDbSymbolTableRecord
100
AcDbBlockTableRecord
  2
*D15
  0
BLOCK_RECORD
  5
41C
100
AcDbSymbolTableRecord
100
AcDbBlockTableRecord
  2
*D16
  0
BLOCK_RECORD
  5
41D
100
AcDbSymbolTableRecord
100
AcDbBlockTableRecord
  2
*D17
  0
BLOCK_RECORD
  5
41E
100
AcDbSymbolTableRecord
100
AcDbBlockTableRecord
  2
*D18
  0
BLOCK_RECORD
  5
41F
100
AcDbSymbolTableRecord
100
AcDbBlockTableRecord
  2
*D19
  0
BLOCK_RECORD
  5
420
100
AcDbSymbolTableRecord
100
AcDbBlockTableRecord
  2
*D20
  0
BLOCK_RECORD
  5
421
100
AcDbSymbolTableRecord
100
AcDbBlockTableRecord
  2
*D21
  0
BLOCK_RECORD
  5
422
100
AcDbSymbolTableRecord
100
AcDbBlockTableRecord
  2
*D22
  0
BLOCK_RECORD
  5
423
100
AcDbSymbolTableRecord
100
AcDbBlockTableRecord
  2
*D23
  0
BLOCK_RECORD
  5
424
100
AcDbSymbolTableRecord
100
AcDbBlockTableRecord
  2
*D24
  0
BLOCK_RECORD
  5
425
100
AcDbSymbolTableRecord
100
AcDbBlockTableRecord
  2
*D25
  0
BLOCK_RECORD
  5
426
100
AcDbSymbolTableRecord
100
AcDbBlockTableRecord
  2
D26
  0
BLOCK_RECORD
  5
427
100
AcDbSymbolTableRecord
100
AcDbBlockTableRecord
  2
*D27
  0
BLOCK_RECORD
  5
428
100
AcDbSymbolTableRecord
100
AcDbBlockTableRecord
  2
M0
  0
ENDTAB
  0
ENDSEC
  0
SECTION
  2
BLOCKS
  0
BLOCK
  5
429
100
AcDbEntity
  8
0
100
AcDbBlockBegin
  2
*MODEL_SPACE
 70
     0
 10
0.0
 20
0.0
 30
0.0
  3
*MODEL_SPACE
  1

  0
ENDBLK
  5
42A
100
AcDbEntity
  8
0
100
AcDbBlockEnd
  0
BLOCK
  5
42B
100
AcDbEntity
  8
0
100
AcDbBlockBegin
  2
*PAPER_SPACE
 70
     0
 10
0.0
 20
0.0
 30
0.0
  3
*PAPER_SPACE
  1

  0
ENDBLK
  5
42C
100
AcDbEntity
  8
0
100
AcDbBlockEnd
  0
BLOCK
  5
2
100
AcDbEntity
  8
0
100
AcDbBlockBegin
  2
_NONE
 70
     0
 10
0.0
 20
0.0
 30
0.0
  3
_NONE
  1

  0
ENDBLK
  5
3
100
AcDbEntity
  8
0
100
AcDbBlockEnd
  0
BLOCK
  5
5
100
AcDbEntity
  8
0
100
AcDbBlockBegin
  2
_CLOSED
 70
     0
 10
0.0
 20
0.0
 30
0.0
  3
_CLOSED
  1

  0
LINE
  5
6
100
AcDbEntity
  8
0
  6
BYBLOCK
 62
     0
100
AcDbLine
 10
-1.0
 20
0.166667
 30
0.0
 11
0.0
 21
0.0
 31
0.0
  0
LINE
  5
7
100
AcDbEntity
  8
0
  6
BYBLOCK
 62
     0
100
AcDbLine
 10
0.0
 20
0.0
 30
0.0
 11
-1.0
 21
-0.166667
 31
0.0
  0
LINE
  5
8
100
AcDbEntity
  8
0
  6
BYBLOCK
 62
     0
100
AcDbLine
 10
-1.0
 20
0.166667
 30
0.0
 11
-1.0
 21
-0.166667
 31
0.0
  0
LINE
  5
9
100
AcDbEntity
  8
0
  6
BYBLOCK
 62
     0
100
AcDbLine
 10
0.0
 20
0.0
 30
0.0
 11
-1.0
 21
0.0
 31
0.0
  0
ENDBLK
  5
A
100
AcDbEntity
  8
0
100
AcDbBlockEnd
  0
BLOCK
  5
C
100
AcDbEntity
  8
0
100
AcDbBlockBegin
  2
_DOT
 70
     0
 10
0.0
 20
0.0
 30
0.0
  3
_DOT
  1

  0
POLYLINE
  5
D
100
AcDbEntity
  8
0
  6
BYBLOCK
 62
     0
100
AcDb2dPolyline
 66
     1
 10
0.0
 20
0.0
 30
0.0
 70
     1
 40
0.5
 41
0.5
  0
VERTEX
  5
E
100
AcDbEntity
  8
0
  6
BYBLOCK
 62
     0
100
AcDbVertex
100
AcDb2dVertex
 10
-0.25
 20
0.0
 30
0.0
 42
1.0
  0
VERTEX
  5
F
100
AcDbEntity
  8
0
  6
BYBLOCK
 62
     0
100
AcDbVertex
100
AcDb2dVertex
 10
0.25
 20
0.0
 30
0.0
 42
1.0
  0
SEQEND
  5
10
100
AcDbEntity
  8
0
  6
BYBLOCK
 62
     0
  0
LINE
  5
11
100
AcDbEntity
  8
0
  6
BYBLOCK
 62
     0
100
AcDbLine
 10
-0.5
 20
0.0
 30
0.0
 11
-1.0
 21
0.0
 31
0.0
  0
ENDBLK
  5
12
100
AcDbEntity
  8
0
100
AcDbBlockEnd
  0
BLOCK
  5
14
100
AcDbEntity
  8
0
100
AcDbBlockBegin
  2
_OPEN
 70
     0
 10
0.0
 20
0.0
 30
0.0
  3
_OPEN
  1

  0
LINE
  5
15
100
AcDbEntity
  8
0
  6
BYBLOCK
 62
     0
100
AcDbLine
 10
-1.0
 20
0.166667
 30
0.0
 11
0.0
 21
0.0
 31
0.0
  0
LINE
  5
16
100
AcDbEntity
  8
0
  6
BYBLOCK
 62
     0
100
AcDbLine
 10
0.0
 20
0.0
 30
0.0
 11
-1.0
 21
-0.166667
 31
0.0
  0
LINE
  5
17
100
AcDbEntity
  8
0
  6
BYBLOCK
 62
     0
100
AcDbLine
 10
0.0
 20
0.0
 30
0.0
 11
-1.0
 21
0.0
 31
0.0
  0
ENDBLK
  5
18
100
AcDbEntity
  8
0
100
AcDbBlockEnd
  0
BLOCK
  5
1A
100
AcDbEntity
  8
0
100
AcDbBlockBegin
  2
_ORIGIN
 70
     0
 10
0.0
 20
0.0
 30
0.0
  3
_ORIGIN
  1

  0
CIRCLE
  5
1B
100
AcDbEntity
  8
0
  6
BYBLOCK
 62
     0
100
AcDbCircle
 10
0.0
 20
0.0
 30
0.0
 40
0.5
  0
LINE
  5
1C
100
AcDbEntity
  8
0
  6
BYBLOCK
 62
     0
100
AcDbLine
 10
0.0
 20
0.0
 30
0.0
 11
-1.0
 21
0.0
 31
0.0
  0
ENDBLK
  5
1D
100
AcDbEntity
  8
0
100
AcDbBlockEnd
  0
BLOCK
  5
1F
100
AcDbEntity
  8
0
100
AcDbBlockBegin
  2
_OPEN30
 70
     0
 10
0.0
 20
0.0
 30
0.0
  3
_OPEN30
  1

  0
LINE
  5
20
100
AcDbEntity
  8
0
  6
BYBLOCK
 62
     0
100
AcDbLine
 10
-1.0
 20
0.267949
 30
0.0
 11
0.0
 21
0.0
 31
0.0
  0
LINE
  5
21
100
AcDbEntity
  8
0
  6
BYBLOCK
 62
     0
100
AcDbLine
 10
0.0
 20
0.0
 30
0.0
 11
-1.0
 21
-0.267949
 31
0.0
  0
LINE
  5
22
100
AcDbEntity
  8
0
  6
BYBLOCK
 62
     0
100
AcDbLine
 10
0.0
 20
0.0
 30
0.0
 11
-1.0
 21
0.0
 31
0.0
  0
ENDBLK
  5
23
100
AcDbEntity
  8
0
100
AcDbBlockEnd
  0
BLOCK
  5
25
100
AcDbEntity
  8
0
100
AcDbBlockBegin
  2
_BOXFILLED
 70
     0
 10
0.0
 20
0.0
 30
0.0
  3
_BOXFILLED
  1

  0
SOLID
  5
26
100
AcDbEntity
  8
0
  6
BYBLOCK
 62
     0
100
AcDbTrace
 10
-0.5
 20
0.5
 30
0.0
 11
0.5
 21
0.5
 31
0.0
 12
-0.5
 22
-0.5
 32
0.0
 13
0.5
 23
-0.5
 33
0.0
  0
LINE
  5
27
100
AcDbEntity
  8
0
  6
BYBLOCK
 62
     0
100
AcDbLine
 10
-0.5
 20
0.0
 30
0.0
 11
-1.0
 21
0.0
 31
0.0
  0
ENDBLK
  5
28
100
AcDbEntity
  8
0
100
AcDbBlockEnd
  0
BLOCK
  5
2A
100
AcDbEntity
  8
0
100
AcDbBlockBegin
  2
_BOXBLANK
 70
     0
 10
0.0
 20
0.0
 30
0.0
  3
_BOXBLANK
  1

  0
LINE
  5
2B
100
AcDbEntity
  8
0
  6
BYBLOCK
 62
     0
100
AcDbLine
 10
-0.5
 20
-0.5
 30
0.0
 11
0.5
 21
-0.5
 31
0.0
  0
LINE
  5
2C
100
AcDbEntity
  8
0
  6
BYBLOCK
 62
     0
100
AcDbLine
 10
0.5
 20
-0.5
 30
0.0
 11
0.5
 21
0.5
 31
0.0
  0
LINE
  5
2D
100
AcDbEntity
  8
0
  6
BYBLOCK
 62
     0
100
AcDbLine
 10
0.5
 20
0.5
 30
0.0
 11
-0.5
 21
0.5
 31
0.0
  0
LINE
  5
2E
100
AcDbEntity
  8
0
  6
BYBLOCK
 62
     0
100
AcDbLine
 10
-0.5
 20
0.5
 30
0.0
 11
-0.5
 21
-0.5
 31
0.0
  0
LINE
  5
2F
100
AcDbEntity
  8
0
  6
BYBLOCK
 62
     0
100
AcDbLine
 10
-0.5
 20
0.0
 30
0.0
 11
-1.0
 21
0.0
 31
0.0
  0
ENDBLK
  5
30
100
AcDbEntity
  8
0
100
AcDbBlockEnd
  0
BLOCK
  5
32
100
AcDbEntity
  8
0
100
AcDbBlockBegin
  2
_OBLIQUE
 70
     0
 10
0.0
 20
0.0
 30
0.0
  3
_OBLIQUE
  1

  0
LINE
  5
33
100
AcDbEntity
  8
0
  6
BYBLOCK
 62
     0
100
AcDbLine
 10
-0.5
 20
-0.5
 30
0.0
 11
0.5
 21
0.5
 31
0.0
  0
ENDBLK
  5
34
100
AcDbEntity
  8
0
100
AcDbBlockEnd
  0
BLOCK
  5
36
100
AcDbEntity
  8
0
100
AcDbBlockBegin
  2
_OPEN90
 70
     0
 10
0.0
 20
0.0
 30
0.0
  3
_OPEN90
  1

  0
LINE
  5
37
100
AcDbEntity
  8
0
  6
BYBLOCK
 62
     0
100
AcDbLine
 10
-0.5
 20
0.5
 30
0.0
 11
0.0
 21
0.0
 31
0.0
  0
LINE
  5
38
100
AcDbEntity
  8
0
  6
BYBLOCK
 62
     0
100
AcDbLine
 10
0.0
 20
0.0
 30
0.0
 11
-0.5
 21
-0.5
 31
0.0
  0
LINE
  5
39
100
AcDbEntity
  8
0
  6
BYBLOCK
 62
     0
100
AcDbLine
 10
0.0
 20
0.0
 30
0.0
 11
-1.0
 21
0.0
 31
0.0
  0
ENDBLK
  5
3A
100
AcDbEntity
  8
0
100
AcDbBlockEnd
  0
BLOCK
  5
3C
100
AcDbEntity
  8
0
100
AcDbBlockBegin
  2
_CLOSEDBLANK
 70
     0
 10
0.0
 20
0.0
 30
0.0
  3
_CLOSEDBLANK
  1

  0
LINE
  5
3D
100
AcDbEntity
  8
0
  6
BYBLOCK
 62
     0
100
AcDbLine
 10
-1.0
 20
0.1666666666666666
 30
0.0
 11
0.0
 21
0.0
 31
0.0
  0
LINE
  5
3E
100
AcDbEntity
  8
0
  6
BYBLOCK
 62
     0
100
AcDbLine
 10
0.0
 20
0.0
 30
0.0
 11
-1.0
 21
-0.1666666666666666
 31
0.0
  0
LINE
  5
3F
100
AcDbEntity
  8
0
  6
BYBLOCK
 62
     0
100
AcDbLine
 10
-1.0
 20
0.1666666666666666
 30
0.0
 11
-1.0
 21
-0.1666666666666666
 31
0.0
  0
ENDBLK
  5
40
100
AcDbEntity
  8
0
100
AcDbBlockEnd
  0
BLOCK
  5
42
100
AcDbEntity
  8
0
100
AcDbBlockBegin
  2
_DOTBLANK
 70
     0
 10
0.0
 20
0.0
 30
0.0
  3
_DOTBLANK
  1

  0
CIRCLE
  5
43
100
AcDbEntity
  8
0
  6
BYBLOCK
 62
     0
100
AcDbCircle
 10
0.0
 20
0.0
 30
0.0
 40
0.5
  0
LINE
  5
44
100
AcDbEntity
  8
0
  6
BYBLOCK
 62
     0
100
AcDbLine
 10
-0.5
 20
0.0
 30
0.0
 11
-1.0
 21
0.0
 31
0.0
  0
ENDBLK
  5
45
100
AcDbEntity
  8
0
100
AcDbBlockEnd
  0
BLOCK
  5
CA
100
AcDbEntity
  8
MAIN10
  6
CONTINUOUS
 62
12
100
AcDbBlockBegin
  2
*D0
 70
    65
 10
0.0
 20
0.0
 30
0.0
  0
LINE
  5
CB
100
AcDbEntity
  8
MAIN10
  6
BYBLOCK
 62
0
100
AcDbLine
 10
508.1667218028306
 20
236.4101642808099
 30
0.0000000000000000
 11
508.1667218028306
 21
249.7832502307118
 31
0.0000000000000000
  0
LINE
  5
CC
100
AcDbEntity
  8
MAIN10
  6
BYBLOCK
 62
0
100
AcDbLine
 10
508.1667218028306
 20
247.7832502307118
 30
0.0000000000000000
 11
513.1667218028306
 21
247.7832502307118
 31
0.0000000000000000
  0
INSERT
  5
CD
100
AcDbEntity
  8
MAIN10
  6
BYBLOCK
 62
0
100
AcDbBlockReference
  2
_OPEN
 10
508.1667218028306
 20
247.7832502307118
 30
0.0000000000000000
 41
1.910672187805176
 42
1.910672187805176
 43
1.910672187805176
 50
0.0000000000000000
  0
INSERT
  5
CE
100
AcDbEntity
  8
MAIN10
  6
BYBLOCK
 62
0
100
AcDbBlockReference
  2
_OPEN
 10
513.1667218028306
 20
247.7832502307118
 30
0.0000000000000000
 41
1.910672187805176
 42
1.910672187805176
 43
1.910672187805176
 50
180.0000000000000
  0
LINE
  5
CF
100
AcDbEntity
  8
MAIN10
  6
BYBLOCK
 62
0
100
AcDbLine
 10
506.2560496150254
 20
247.7832502307118
 30
0.0000000000000000
 11
505.1667218028306
 21
247.7832502307118
 31
0.0000000000000000
  0
LINE
  5
D0
100
AcDbEntity
  8
MAIN10
  6
BYBLOCK
 62
0
100
AcDbLine
 10
515.0773939906358
 20
247.7832502307118
 30
0.0000000000000000
 11
516.1667218028306
 21
247.7832502307118
 31
0.0000000000000000
  0
LINE
  5
D1
100
AcDbEntity
  8
MAIN10
  6
BYBLOCK
 62
0
100
AcDbLine
 10
513.1667218028306
 20
239.4101642808099
 30
0.0000000000000000
 11
513.1667218028306
 21
249.7832502307118
 31
0.0000000000000000
  0
MTEXT
  5
D2
100
AcDbEntity
  8
MAIN10
  6
BYBLOCK
 62
0
100
AcDbMText
 10
510.8667220889329
 20
248.7832502307118
 30
0.0000000000000000
 40
3.100000381469727
 41
0.0000000000000000
 71
     1
 72
     1
  1
\A1;5
 11
1.000000000000000
 21
0.0000000000000000
 31
0.0000000000000000
  7
STANDARD
  0
ENDBLK
  5
D3
100
AcDbEntity
  8
MAIN10
  6
CONTINUOUS
 62
12
100
AcDbBlockEnd
  0
BLOCK
  5
D7
100
AcDbEntity
  8
MAIN10
  6
CONTINUOUS
 62
12
100
AcDbBlockBegin
  2
*D1
 70
    65
 10
0.0
 20
0.0
 30
0.0
  0
LINE
  5
D8
100
AcDbEntity
  8
MAIN10
  6
BYBLOCK
 62
0
100
AcDbLine
 10
100.1859917937759
 20
181.3101637983907
 30
0.0000000000000000
 11
100.1859917937759
 21
160.1018015399838
 31
0.0000000000000000
  0
LINE
  5
D9
100
AcDbEntity
  8
MAIN10
  6
BYBLOCK
 62
0
100
AcDbLine
 10
102.0966639815811
 20
162.1018015399838
 30
0.0000000000000000
 11
128.2753196059707
 21
162.1018015399838
 31
0.0000000000000000
  0
INSERT
  5
DA
100
AcDbEntity
  8
MAIN10
  6
BYBLOCK
 62
0
100
AcDbBlockReference
  2
_OPEN
 10
100.1859917937759
 20
162.1018015399838
 30
0.0000000000000000
 41
1.910672187805176
 42
1.910672187805176
 43
1.910672187805176
 50
180.0000000000000
  0
INSERT
  5
DB
100
AcDbEntity
  8
MAIN10
  6
BYBLOCK
 62
0
100
AcDbBlockReference
  2
_OPEN
 10
130.1859917937759
 20
162.1018015399838
 30
0.0000000000000000
 41
1.910672187805176
 42
1.910672187805176
 43
1.910672187805176
 50
0.0000000000000000
  0
LINE
  5
DC
100
AcDbEntity
  8
MAIN10
  6
BYBLOCK
 62
0
100
AcDbLine
 10
130.1859917937759
 20
181.3101641393456
 30
0.0000000000000000
 11
130.1859917937759
 21
160.1018015399838
 31
0.0000000000000000
  0
MTEXT
  5
DD
100
AcDbEntity
  8
MAIN10
  6
BYBLOCK
 62
0
100
AcDbMText
 10
120.3972112664130
 20
163.1018015399838
 30
0.0000000000000000
 40
3.100000381469727
 41
0.0000000000000000
 71
     1
 72
     1
  1
\A1;\U+220530
 11
1.000000000000000
 21
0.0000000000000000
 31
0.0000000000000000
  7
STANDARD
  0
ENDBLK
  5
DE
100
AcDbEntity
  8
MAIN10
  6
CONTINUOUS
 62
12
100
AcDbBlockEnd
  0
BLOCK
  5
E0
100
AcDbEntity
  8
MAIN10
  6
CONTINUOUS
 62
12
100
AcDbBlockBegin
  2
*D2
 70
    65
 10
0.0
 20
0.0
 30
0.0
  0
LINE
  5
E1
100
AcDbEntity
  8
MAIN10
  6
BYBLOCK
 62
0
100
AcDbLine
 10
155.1859917937758
 20
198.2558484982906
 30
0.0000000000000000
 11
155.1859917937758
 21
150.1018015399837
 31
0.0000000000000000
  0
LINE
  5
E2
100
AcDbEntity
  8
MAIN10
  6
BYBLOCK
 62
0
100
AcDbLine
 10
153.2753196059707
 20
152.1018015399837
 30
0.0000000000000000
 11
117.0966639815810
 21
152.1018015399837
 31
0.0000000000000000
  0
INSERT
  5
E3
100
AcDbEntity
  8
MAIN10
  6
BYBLOCK
 62
0
100
AcDbBlockReference
  2
_OPEN
 10
155.1859917937758
 20
152.1018015399837
 30
0.0000000000000000
 41
1.910672187805176
 42
1.910672187805176
 43
1.910672187805176
 50
360.0000000000000
  0
INSERT
  5
E4
100
AcDbEntity
  8
MAIN10
  6
BYBLOCK
 62
0
100
AcDbBlockReference
  2
_OPEN
 10
115.1859917937758
 20
152.1018015399837
 30
0.0000000000000000
 41
1.910672187805176
 42
1.910672187805176
 43
1.910672187805176
 50
180.0000000000000
  0
LINE
  5
E5
100
AcDbEntity
  8
MAIN10
  6
BYBLOCK
 62
0
100
AcDbLine
 10
115.1859917937758
 20
170.2595881637129
 30
0.0000000000000000
 11
115.1859917937758
 21
150.1018015399837
 31
0.0000000000000000
  0
MTEXT
  5
E6
100
AcDbEntity
  8
MAIN10
  6
BYBLOCK
 62
0
100
AcDbMText
 10
135.3859925567153
 20
153.1018015399837
 30
0.0000000000000000
 40
3.100000381469727
 41
0.0000000000000000
 71
     1
 72
     1
  1
\A1;40
 11
1.000000000000000
 21
0.0000000000000000
 31
0.0000000000000000
  7
STANDARD
  0
ENDBLK
  5
E7
100
AcDbEntity
  8
MAIN10
  6
CONTINUOUS
 62
12
100
AcDbBlockEnd
  0
BLOCK
  5
E9
100
AcDbEntity
  8
MAIN10
  6
CONTINUOUS
 62
12
100
AcDbBlockBegin
  2
*D3
 70
    65
 10
0.0
 20
0.0
 30
0.0
  0
LINE
  5
EA
100
AcDbEntity
  8
MAIN10
  6
BYBLOCK
 62
0
100
AcDbLine
 10
115.1859917937758
 20
170.2595881637129
 30
0.0000000000000000
 11
115.1859917937758
 21
150.1018015399837
 31
0.0000000000000000
  0
LINE
  5
EB
100
AcDbEntity
  8
MAIN10
  6
BYBLOCK
 62
0
100
AcDbLine
 10
113.2753196059707
 20
152.1018015399837
 30
0.0000000000000000
 11
77.09666398158100
 21
152.1018015399837
 31
0.0000000000000000
  0
INSERT
  5
EC
100
AcDbEntity
  8
MAIN10
  6
BYBLOCK
 62
0
100
AcDbBlockReference
  2
_OPEN
 10
115.1859917937758
 20
152.1018015399837
 30
0.0000000000000000
 41
1.910672187805176
 42
1.910672187805176
 43
1.910672187805176
 50
360.0000000000000
  0
INSERT
  5
ED
100
AcDbEntity
  8
MAIN10
  6
BYBLOCK
 62
0
100
AcDbBlockReference
  2
_OPEN
 10
75.18599179377583
 20
152.1018015399837
 30
0.0000000000000000
 41
1.910672187805176
 42
1.910672187805176
 43
1.910672187805176
 50
180.0000000000000
  0
LINE
  5
EE
100
AcDbEntity
  8
MAIN10
  6
BYBLOCK
 62
0
100
AcDbLine
 10
75.18599179377583
 20
198.2558484982906
 30
0.0000000000000000
 11
75.18599179377583
 21
150.1018015399837
 31
0.0000000000000000
  0
MTEXT
  5
EF
100
AcDbEntity
  8
MAIN10
  6
BYBLOCK
 62
0
100
AcDbMText
 10
95.38599255671528
 20
153.1018015399837
 30
0.0000000000000000
 40
3.100000381469727
 41
0.0000000000000000
 71
     1
 72
     1
  1
\A1;40
 11
1.000000000000000
 21
0.0000000000000000
 31
0.0000000000000000
  7
STANDARD
  0
ENDBLK
  5
F0
100
AcDbEntity
  8
MAIN10
  6
CONTINUOUS
 62
12
100
AcDbBlockEnd
  0
BLOCK
  5
F2
100
AcDbEntity
  8
MAIN10
  6
CONTINUOUS
 62
12
100
AcDbBlockBegin
  2
*D4
 70
    65
 10
0.0
 20
0.0
 30
0.0
  0
LINE
  5
F3
100
AcDbEntity
  8
MAIN10
  6
BYBLOCK
 62
0
100
AcDbLine
 10
317.3946991815562
 20
211.1101642688889
 30
0.0000000000000000
 11
333.8592100307220
 21
211.1101642688889
 31
0.0000000000000000
  0
LINE
  5
F4
100
AcDbEntity
  8
MAIN10
  6
BYBLOCK
 62
0
100
AcDbLine
 10
331.8592100307220
 20
213.0208364566941
 30
0.0000000000000000
 11
331.8592100307220
 21
237.1994920810838
 31
0.0000000000000000
  0
INSERT
  5
F5
100
AcDbEntity
  8
MAIN10
  6
BYBLOCK
 62
0
100
AcDbBlockReference
  2
_OPEN
 10
331.8592100307220
 20
211.1101642688889
 30
0.0000000000000000
 41
1.910672187805176
 42
1.910672187805176
 43
1.910672187805176
 50
270.0000000000000
  0
INSERT
  5
F6
100
AcDbEntity
  8
MAIN10
  6
BYBLOCK
 62
0
100
AcDbBlockReference
  2
_OPEN
 10
331.8592100307220
 20
239.1101642688889
 30
0.0000000000000000
 41
1.910672187805176
 42
1.910672187805176
 43
1.910672187805176
 50
90.00000000000000
  0
MTEXT
  5
F7
100
AcDbEntity
  8
MAIN10
  6
BYBLOCK
 62
0
100
AcDbMText
 10
330.8592100307220
 20
225.3101650318284
 30
0.0000000000000000
 40
3.100000381469727
 41
0.0000000000000000
 71
     1
 72
     1
  1
\A1;28
 11
5.390302858158119e-015
 21
1.000000000000000
 31
0.0000000000000000
  7
STANDARD
  0
ENDBLK
  5
F8
100
AcDbEntity
  8
MAIN10
  6
CONTINUOUS
 62
12
100
AcDbBlockEnd
  0
BLOCK
  5
FC
100
AcDbEntity
  8
MAIN10
  6
CONTINUOUS
 62
12
100
AcDbBlockBegin
  2
*D5
 70
    65
 10
0.0
 20
0.0
 30
0.0
  0
LINE
  5
FD
100
AcDbEntity
  8
MAIN10
  6
BYBLOCK
 62
0
100
AcDbLine
 10
55.19343420957137
 20
304.6110817709107
 30
0.0000000000000000
 11
40.83685042899214
 21
304.6110817709107
 31
0.0000000000000000
  0
LINE
  5
FE
100
AcDbEntity
  8
MAIN10
  6
BYBLOCK
 62
0
100
AcDbLine
 10
42.83685042899214
 20
306.5217539587159
 30
0.0000000000000000
 11
42.83685042899214
 21
326.1004095831055
 31
0.0000000000000000
  0
INSERT
  5
FF
100
AcDbEntity
  8
MAIN10
  6
BYBLOCK
 62
0
100
AcDbBlockReference
  2
_OPEN
 10
42.83685042899214
 20
304.6110817709107
 30
0.0000000000000000
 41
1.910672187805176
 42
1.910672187805176
 43
1.910672187805176
 50
270.0000000000000
  0
INSERT
  5
100
100
AcDbEntity
  8
MAIN10
  6
BYBLOCK
 62
0
100
AcDbBlockReference
  2
_OPEN
 10
42.83685042899214
 20
328.0110817709107
 30
0.0000000000000000
 41
1.910672187805176
 42
1.910672187805176
 43
1.910672187805176
 50
90.00000000000000
  0
LINE
  5
101
100
AcDbEntity
  8
MAIN10
  6
BYBLOCK
 62
0
100
AcDbLine
 10
46.76956015202438
 20
328.0110817709107
 30
0.0000000000000000
 11
40.83685042899214
 21
328.0110817709107
 31
0.0000000000000000
  0
MTEXT
  5
102
100
AcDbEntity
  8
MAIN10
  6
BYBLOCK
 62
0
100
AcDbMText
 10
40.28685023825727
 20
316.3110817709107
 30
0.0000000000000000
 40
3.100000381469727
 41
0.0000000000000000
 71
     5
 72
     1
  1
\A1;MAX 23
 11
6.123233995736766e-017
 21
1.000000000000000
 31
0.0000000000000000
  7
STANDARD
  0
ENDBLK
  5
103
100
AcDbEntity
  8
MAIN10
  6
CONTINUOUS
 62
12
100
AcDbBlockEnd
  0
BLOCK
  5
105
100
AcDbEntity
  8
MAIN10
  6
CONTINUOUS
 62
12
100
AcDbBlockBegin
  2
*D6
 70
    65
 10
0.0
 20
0.0
 30
0.0
  0
LINE
  5
106
100
AcDbEntity
  8
MAIN10
  6
BYBLOCK
 62
0
100
AcDbLine
 10
46.76956015202438
 20
328.0110817709107
 30
0.0000000000000000
 11
40.83685042899214
 21
328.0110817709107
 31
0.0000000000000000
  0
LINE
  5
107
100
AcDbEntity
  8
MAIN10
  6
BYBLOCK
 62
0
100
AcDbLine
 10
42.83685042899214
 20
329.9217539587158
 30
0.0000000000000000
 11
42.83685042899214
 21
336.7004095831055
 31
0.0000000000000000
  0
INSERT
  5
108
100
AcDbEntity
  8
MAIN10
  6
BYBLOCK
 62
0
100
AcDbBlockReference
  2
_OPEN
 10
42.83685042899214
 20
328.0110817709107
 30
0.0000000000000000
 41
1.910672187805176
 42
1.910672187805176
 43
1.910672187805176
 50
270.0000000000000
  0
INSERT
  5
109
100
AcDbEntity
  8
MAIN10
  6
BYBLOCK
 62
0
100
AcDbBlockReference
  2
_OPEN
 10
42.83685042899214
 20
338.6110817709107
 30
0.0000000000000000
 41
1.910672187805176
 42
1.910672187805176
 43
1.910672187805176
 50
90.00000000000000
  0
LINE
  5
10A
100
AcDbEntity
  8
MAIN10
  6
BYBLOCK
 62
0
100
AcDbLine
 10
65.90678336940192
 20
338.6110817709107
 30
0.0000000000000000
 11
40.83685042899214
 21
338.6110817709107
 31
0.0000000000000000
  0
MTEXT
  5
10B
100
AcDbEntity
  8
MAIN10
  6
BYBLOCK
 62
0
100
AcDbMText
 10
40.28685023825727
 20
333.3110817709107
 30
0.0000000000000000
 40
3.100000381469727
 41
0.0000000000000000
 71
     5
 72
     1
  1
\A1;11
 11
6.123233995736766e-017
 21
1.000000000000000
 31
0.0000000000000000
  7
STANDARD
  0
ENDBLK
  5
10C
100
AcDbEntity
  8
MAIN10
  6
CONTINUOUS
 62
12
100
AcDbBlockEnd
  0
BLOCK
  5
10E
100
AcDbEntity
  8
MAIN10
  6
CONTINUOUS
 62
12
100
AcDbBlockBegin
  2
*D7
 70
    65
 10
0.0
 20
0.0
 30
0.0
  0
LINE
  5
10F
100
AcDbEntity
  8
MAIN10
  6
BYBLOCK
 62
0
100
AcDbLine
 10
65.90678336940192
 20
338.6110817709107
 30
0.0000000000000000
 11
40.83685042899214
 21
338.6110817709107
 31
0.0000000000000000
  0
LINE
  5
110
100
AcDbEntity
  8
MAIN10
  6
BYBLOCK
 62
0
100
AcDbLine
 10
42.83685042899214
 20
340.5217539587159
 30
0.0000000000000000
 11
42.83685042899214
 21
377.7004095831055
 31
0.0000000000000000
  0
INSERT
  5
111
100
AcDbEntity
  8
MAIN10
  6
BYBLOCK
 62
0
100
AcDbBlockReference
  2
_OPEN
 10
42.83685042899214
 20
338.6110817709107
 30
0.0000000000000000
 41
1.910672187805176
 42
1.910672187805176
 43
1.910672187805176
 50
270.0000000000000
  0
INSERT
  5
112
100
AcDbEntity
  8
MAIN10
  6
BYBLOCK
 62
0
100
AcDbBlockReference
  2
_OPEN
 10
42.83685042899214
 20
379.6110817709107
 30
0.0000000000000000
 41
1.910672187805176
 42
1.910672187805176
 43
1.910672187805176
 50
90.00000000000000
  0
LINE
  5
113
100
AcDbEntity
  8
MAIN10
  6
BYBLOCK
 62
0
100
AcDbLine
 10
65.90678336940192
 20
379.6110817709107
 30
0.0000000000000000
 11
40.83685042899214
 21
379.6110817709107
 31
0.0000000000000000
  0
MTEXT
  5
114
100
AcDbEntity
  8
MAIN10
  6
BYBLOCK
 62
0
100
AcDbMText
 10
40.78685023825727
 20
359.1110817709107
 30
0.0000000000000000
 40
3.100000381469727
 41
0.0000000000000000
 71
     5
 72
     1
  1
\A1;41
 11
6.123233995736766e-017
 21
1.000000000000000
 31
0.0000000000000000
  7
STANDARD
  0
ENDBLK
  5
115
100
AcDbEntity
  8
MAIN10
  6
CONTINUOUS
 62
12
100
AcDbBlockEnd
  0
BLOCK
  5
117
100
AcDbEntity
  8
MAIN10
  6
CONTINUOUS
 62
12
100
AcDbBlockBegin
  2
*D8
 70
    65
 10
0.0
 20
0.0
 30
0.0
  0
LINE
  5
118
100
AcDbEntity
  8
MAIN10
  6
BYBLOCK
 62
0
100
AcDbLine
 10
117.3055820218346
 20
354.7031993772673
 30
0.0000000000000000
 11
109.4961373256867
 21
368.2295543698948
 31
0.0000000000000000
  0
LINE
  5
119
100
AcDbEntity
  8
MAIN10
  6
BYBLOCK
 62
0
100
AcDbLine
 10
112.1508279786303
 20
367.4528396562284
 30
0.0000000000000000
 11
129.1064411212989
 21
377.2421674684233
 31
0.0000000000000000
  0
INSERT
  5
11A
100
AcDbEntity
  8
MAIN10
  6
BYBLOCK
 62
0
100
AcDbBlockReference
  2
_OPEN
 10
110.4961373256867
 20
366.4975035623259
 30
0.0000000000000000
 41
1.910672187805176
 42
1.910672187805176
 43
1.910672187805176
 50
210.0000000000001
  0
INSERT
  5
11B
100
AcDbEntity
  8
MAIN10
  6
BYBLOCK
 62
0
100
AcDbBlockReference
  2
_OPEN
 10
130.7611317742425
 20
378.1975035623260
 30
0.0000000000000000
 41
1.910672187805176
 42
1.910672187805176
 43
1.910672187805176
 50
30.00000000000008
  0
LINE
  5
11C
100
AcDbEntity
  8
MAIN10
  6
BYBLOCK
 62
0
100
AcDbLine
 10
134.5089102063006
 20
371.7061609024904
 30
0.0000000000000000
 11
129.7611317742425
 21
379.9295543698948
 31
0.0000000000000000
  0
MTEXT
  5
11D
100
AcDbEntity
  8
MAIN10
  6
BYBLOCK
 62
0
100
AcDbMText
 10
120.3018369878217
 20
373.3135274402314
 30
0.0000000000000000
 40
3.100000381469727
 41
0.0000000000000000
 71
     1
 72
     1
  1
\A1;MAX 23
 11
0.8660254037844377
 21
0.5000000000000016
 31
0.0000000000000000
  7
STANDARD
  0
ENDBLK
  5
11E
100
AcDbEntity
  8
MAIN10
  6
CONTINUOUS
 62
12
100
AcDbBlockEnd
  0
BLOCK
  5
120
100
AcDbEntity
  8
MAIN10
  6
CONTINUOUS
 62
12
100
AcDbBlockBegin
  2
*D9
 70
    65
 10
0.0
 20
0.0
 30
0.0
  0
LINE
  5
121
100
AcDbEntity
  8
MAIN10
  6
BYBLOCK
 62
0
100
AcDbLine
 10
134.5089102063006
 20
371.7061609024904
 30
0.0000000000000000
 11
129.7611317742425
 21
379.9295543698948
 31
0.0000000000000000
  0
LINE
  5
122
100
AcDbEntity
  8
MAIN10
  6
BYBLOCK
 62
0
100
AcDbLine
 10
132.4158224271862
 20
379.1528396562285
 30
0.0000000000000000
 11
138.2863104014139
 21
382.5421674684234
 31
0.0000000000000000
  0
INSERT
  5
123
100
AcDbEntity
  8
MAIN10
  6
BYBLOCK
 62
0
100
AcDbBlockReference
  2
_OPEN
 10
130.7611317742425
 20
378.1975035623260
 30
0.0000000000000000
 41
1.910672187805176
 42
1.910672187805176
 43
1.910672187805176
 50
210.0000000000000
  0
INSERT
  5
124
100
AcDbEntity
  8
MAIN10
  6
BYBLOCK
 62
0
100
AcDbBlockReference
  2
_OPEN
 10
139.9410010543576
 20
383.4975035623260
 30
0.0000000000000000
 41
1.910672187805176
 42
1.910672187805176
 43
1.910672187805176
 50
29.99999999999997
  0
LINE
  5
125
100
AcDbEntity
  8
MAIN10
  6
BYBLOCK
 62
0
100
AcDbLine
 10
151.4999661371613
 20
363.4767887559954
 30
0.0000000000000000
 11
138.9410010543575
 21
385.2295543698948
 31
0.0000000000000000
  0
MTEXT
  5
126
100
AcDbEntity
  8
MAIN10
  6
BYBLOCK
 62
0
100
AcDbMText
 10
135.0242721557818
 20
381.8135293475801
 30
0.0000000000000000
 40
3.100000381469727
 41
0.0000000000000000
 71
     1
 72
     1
  1
\A1;11
 11
0.8660254037844377
 21
0.5000000000000016
 31
0.0000000000000000
  7
STANDARD
  0
ENDBLK
  5
127
100
AcDbEntity
  8
MAIN10
  6
CONTINUOUS
 62
12
100
AcDbBlockEnd
  0
BLOCK
  5
129
100
AcDbEntity
  8
MAIN10
  6
CONTINUOUS
 62
12
100
AcDbBlockBegin
  2
*D10
 70
    65
 10
0.0
 20
0.0
 30
0.0
  0
LINE
  5
12A
100
AcDbEntity
  8
MAIN10
  6
BYBLOCK
 62
0
100
AcDbLine
 10
151.4999661371613
 20
363.4767887559954
 30
0.0000000000000000
 11
138.9410010543575
 21
385.2295543698948
 31
0.0000000000000000
  0
LINE
  5
12B
100
AcDbEntity
  8
MAIN10
  6
BYBLOCK
 62
0
100
AcDbLine
 10
141.5956917073013
 20
384.4528396562286
 30
0.0000000000000000
 11
173.7933519565758
 21
403.0421674684234
 31
0.0000000000000000
  0
INSERT
  5
12C
100
AcDbEntity
  8
MAIN10
  6
BYBLOCK
 62
0
100
AcDbBlockReference
  2
_OPEN
 10
139.9410010543576
 20
383.4975035623260
 30
0.0000000000000000
 41
1.910672187805176
 42
1.910672187805176
 43
1.910672187805176
 50
210.0000000000001
  0
INSERT
  5
12D
100
AcDbEntity
  8
MAIN10
  6
BYBLOCK
 62
0
100
AcDbBlockReference
  2
_OPEN
 10
175.4480426095195
 20
403.9975035623260
 30
0.0000000000000000
 41
1.910672187805176
 42
1.910672187805176
 43
1.910672187805176
 50
30.00000000000009
  0
LINE
  5
12E
100
AcDbEntity
  8
MAIN10
  6
BYBLOCK
 62
0
100
AcDbLine
 10
187.0070076923232
 20
383.9767887559954
 30
0.0000000000000000
 11
174.4480426095195
 21
405.7295543698949
 31
0.0000000000000000
  0
MTEXT
  5
12F
100
AcDbEntity
  8
MAIN10
  6
BYBLOCK
 62
0
100
AcDbMText
 10
157.3677275734203
 20
394.7135293475801
 30
0.0000000000000000
 40
3.100000381469727
 41
0.0000000000000000
 71
     1
 72
     1
  1
\A1;41
 11
0.8660254037844377
 21
0.5000000000000016
 31
0.0000000000000000
  7
STANDARD
  0
ENDBLK
  5
130
100
AcDbEntity
  8
MAIN10
  6
CONTINUOUS
 62
12
100
AcDbBlockEnd
  0
BLOCK
  5
132
100
AcDbEntity
  8
MAIN10
  6
CONTINUOUS
 62
12
100
AcDbBlockBegin
  2
*D11
 70
    65
 10
0.0
 20
0.0
 30
0.0
  0
LINE
  5
133
100
AcDbEntity
  8
MAIN10
  6
BYBLOCK
 62
0
100
AcDbLine
 10
305.1667218028307
 20
228.1818720813747
 30
0.0000000000000000
 11
305.1667218028307
 21
332.0054370259952
 31
0.0000000000000000
  0
LINE
  5
134
100
AcDbEntity
  8
MAIN10
  6
BYBLOCK
 62
0
100
AcDbLine
 10
307.0773939906359
 20
330.0054370259952
 30
0.0000000000000000
 11
314.2560496150255
 21
330.0054370259952
 31
0.0000000000000000
  0
INSERT
  5
135
100
AcDbEntity
  8
MAIN10
  6
BYBLOCK
 62
0
100
AcDbBlockReference
  2
_OPEN
 10
305.1667218028307
 20
330.0054370259952
 30
0.0000000000000000
 41
1.910672187805176
 42
1.910672187805176
 43
1.910672187805176
 50
180.0000000000000
  0
INSERT
  5
136
100
AcDbEntity
  8
MAIN10
  6
BYBLOCK
 62
0
100
AcDbBlockReference
  2
_OPEN
 10
316.1667218028307
 20
330.0054370259952
 30
0.0000000000000000
 41
1.910672187805176
 42
1.910672187805176
 43
1.910672187805176
 50
0.0000000000000000
  0
LINE
  5
137
100
AcDbEntity
  8
MAIN10
  6
BYBLOCK
 62
0
100
AcDbLine
 10
316.1667218028307
 20
254.0715429571986
 30
0.0000000000000000
 11
316.1667218028307
 21
332.0054370259952
 31
0.0000000000000000
  0
MTEXT
  5
138
100
AcDbEntity
  8
MAIN10
  6
BYBLOCK
 62
0
100
AcDbMText
 10
310.8667225657702
 20
331.0054370259952
 30
0.0000000000000000
 40
3.100000381469727
 41
0.0000000000000000
 71
     1
 72
     1
  1
\A1;11
 11
1.000000000000000
 21
0.0000000000000000
 31
0.0000000000000000
  7
STANDARD
  0
ENDBLK
  5
139
100
AcDbEntity
  8
MAIN10
  6
CONTINUOUS
 62
12
100
AcDbBlockEnd
  0
BLOCK
  5
13B
100
AcDbEntity
  8
MAIN10
  6
CONTINUOUS
 62
12
100
AcDbBlockBegin
  2
*D12
 70
    65
 10
0.0
 20
0.0
 30
0.0
  0
LINE
  5
13C
100
AcDbEntity
  8
MAIN10
  6
BYBLOCK
 62
0
100
AcDbLine
 10
290.1667218028285
 20
270.4101642808096
 30
0.0000000000000000
 11
290.1667218028285
 21
332.0054370259952
 31
0.0000000000000000
  0
LINE
  5
13D
100
AcDbEntity
  8
MAIN10
  6
BYBLOCK
 62
0
100
AcDbLine
 10
292.0773939906337
 20
330.0054370259952
 30
0.0000000000000000
 11
303.2560496150255
 21
330.0054370259952
 31
0.0000000000000000
  0
INSERT
  5
13E
100
AcDbEntity
  8
MAIN10
  6
BYBLOCK
 62
0
100
AcDbBlockReference
  2
_OPEN
 10
290.1667218028285
 20
330.0054370259952
 30
0.0000000000000000
 41
1.910672187805176
 42
1.910672187805176
 43
1.910672187805176
 50
180.0000000000000
  0
INSERT
  5
13F
100
AcDbEntity
  8
MAIN10
  6
BYBLOCK
 62
0
100
AcDbBlockReference
  2
_OPEN
 10
305.1667218028307
 20
330.0054370259952
 30
0.0000000000000000
 41
1.910672187805176
 42
1.910672187805176
 43
1.910672187805176
 50
0.0000000000000000
  0
LINE
  5
140
100
AcDbEntity
  8
MAIN10
  6
BYBLOCK
 62
0
100
AcDbLine
 10
290.1667218028285
 20
330.0054370259952
 30
0.0000000000000000
 11
272.7667279063442
 21
330.0054370259952
 31
0.0000000000000000
  0
LINE
  5
141
100
AcDbEntity
  8
MAIN10
  6
BYBLOCK
 62
0
100
AcDbLine
 10
305.1667218028307
 20
228.1818720813747
 30
0.0000000000000000
 11
305.1667218028307
 21
332.0054370259952
 31
0.0000000000000000
  0
MTEXT
  5
142
100
AcDbEntity
  8
MAIN10
  6
BYBLOCK
 62
0
100
AcDbMText
 10
281.1667218028286
 20
331.0054370259952
 30
0.0000000000000000
 40
3.100000381469727
 41
0.0000000000000000
 71
     1
 72
     1
  1
\A1;MIN 15
 11
1.000000000000000
 21
0.0000000000000000
 31
0.0000000000000000
  7
STANDARD
  0
ENDBLK
  5
143
100
AcDbEntity
  8
MAIN10
  6
CONTINUOUS
 62
12
100
AcDbBlockEnd
  0
BLOCK
  5
145
100
AcDbEntity
  8
MAIN10
  6
CONTINUOUS
 62
12
100
AcDbBlockBegin
  2
*D13
 70
    65
 10
0.0
 20
0.0
 30
0.0
  0
LINE
  5
146
100
AcDbEntity
  8
MAIN10
  6
BYBLOCK
 62
0
100
AcDbLine
 10
128.9859918056968
 20
180.1101642688892
 30
0.0000000000000000
 11
167.0216284023164
 21
180.1101642688892
 31
0.0000000000000000
  0
LINE
  5
147
100
AcDbEntity
  8
MAIN10
  6
BYBLOCK
 62
0
100
AcDbLine
 10
165.0216284023164
 20
182.0208364566943
 30
0.0000000000000000
 11
165.0216284023164
 21
223.1994920810838
 31
0.0000000000000000
  0
INSERT
  5
148
100
AcDbEntity
  8
MAIN10
  6
BYBLOCK
 62
0
100
AcDbBlockReference
  2
_OPEN
 10
165.0216284023164
 20
180.1101642688892
 30
0.0000000000000000
 41
1.910672187805176
 42
1.910672187805176
 43
1.910672187805176
 50
270.0000000000000
  0
INSERT
  5
149
100
AcDbEntity
  8
MAIN10
  6
BYBLOCK
 62
0
100
AcDbBlockReference
  2
_OPEN
 10
165.0216284023164
 20
225.1101642688889
 30
0.0000000000000000
 41
1.910672187805176
 42
1.910672187805176
 43
1.910672187805176
 50
90.00000000000000
  0
LINE
  5
14A
100
AcDbEntity
  8
MAIN10
  6
BYBLOCK
 62
0
100
AcDbLine
 10
161.2936876559251
 20
225.1101642688889
 30
0.0000000000000000
 11
167.0216284023164
 21
225.1101642688889
 31
0.0000000000000000
  0
MTEXT
  5
14B
100
AcDbEntity
  8
MAIN10
  6
BYBLOCK
 62
0
100
AcDbMText
 10
164.0216284023164
 20
202.8101650318286
 30
0.0000000000000000
 40
3.100000381469727
 41
0.0000000000000000
 71
     1
 72
     1
  1
\A1;45
 11
5.390302858158119e-015
 21
1.000000000000000
 31
0.0000000000000000
  7
STANDARD
  0
ENDBLK
  5
14C
100
AcDbEntity
  8
MAIN10
  6
CONTINUOUS
 62
12
100
AcDbBlockEnd
  0
BLOCK
  5
14E
100
AcDbEntity
  8
MAIN10
  6
CONTINUOUS
 62
12
100
AcDbBlockBegin
  2
*D14
 70
    65
 10
0.0
 20
0.0
 30
0.0
  0
LINE
  5
14F
100
AcDbEntity
  8
MAIN10
  6
BYBLOCK
 62
0
100
AcDbLine
 10
310.1667218028308
 20
171.1755499576050
 30
0.0000000000000000
 11
310.1667218028308
 21
136.0525618105235
 31
0.0000000000000000
  0
LINE
  5
150
100
AcDbEntity
  8
MAIN10
  6
BYBLOCK
 62
0
100
AcDbLine
 10
312.0773939906360
 20
138.0525618105235
 30
0.0000000000000000
 11
466.2560496150255
 21
138.0525618105235
 31
0.0000000000000000
  0
INSERT
  5
151
100
AcDbEntity
  8
MAIN10
  6
BYBLOCK
 62
0
100
AcDbBlockReference
  2
_OPEN
 10
310.1667218028308
 20
138.0525618105235
 30
0.0000000000000000
 41
1.910672187805176
 42
1.910672187805176
 43
1.910672187805176
 50
180.0000000000000
  0
INSERT
  5
152
100
AcDbEntity
  8
MAIN10
  6
BYBLOCK
 62
0
100
AcDbBlockReference
  2
_OPEN
 10
468.1667218028306
 20
138.0525618105235
 30
0.0000000000000000
 41
1.910672187805176
 42
1.910672187805176
 43
1.910672187805176
 50
0.0000000000000000
  0
LINE
  5
153
100
AcDbEntity
  8
MAIN10
  6
BYBLOCK
 62
0
100
AcDbLine
 10
468.1667218028306
 20
158.8101642569681
 30
0.0000000000000000
 11
468.1667218028306
 21
136.0525618105235
 31
0.0000000000000000
  0
MTEXT
  5
154
100
AcDbEntity
  8
MAIN10
  6
BYBLOCK
 62
0
100
AcDbMText
 10
389.3667220889331
 20
139.0525618105235
 30
0.0000000000000000
 40
3.100000381469727
 41
0.0000000000000000
 71
     1
 72
     1
  1
\A1;158
 11
1.000000000000000
 21
0.0000000000000000
 31
0.0000000000000000
  7
STANDARD
  0
ENDBLK
  5
155
100
AcDbEntity
  8
MAIN10
  6
CONTINUOUS
 62
12
100
AcDbBlockEnd
  0
BLOCK
  5
157
100
AcDbEntity
  8
MAIN10
  6
CONTINUOUS
 62
12
100
AcDbBlockBegin
  2
*D15
 70
    65
 10
0.0
 20
0.0
 30
0.0
  0
LINE
  5
158
100
AcDbEntity
  8
MAIN10
  6
BYBLOCK
 62
0
100
AcDbLine
 10
316.1667218028307
 20
254.0715429571986
 30
0.0000000000000000
 11
316.1667218028307
 21
332.0054370259952
 31
0.0000000000000000
  0
LINE
  5
159
100
AcDbEntity
  8
MAIN10
  6
BYBLOCK
 62
0
100
AcDbLine
 10
318.0773939906359
 20
330.0054370259952
 30
0.0000000000000000
 11
466.2560496150255
 21
330.0054370259952
 31
0.0000000000000000
  0
INSERT
  5
15A
100
AcDbEntity
  8
MAIN10
  6
BYBLOCK
 62
0
100
AcDbBlockReference
  2
_OPEN
 10
316.1667218028307
 20
330.0054370259952
 30
0.0000000000000000
 41
1.910672187805176
 42
1.910672187805176
 43
1.910672187805176
 50
180.0000000000000
  0
INSERT
  5
15B
100
AcDbEntity
  8
MAIN10
  6
BYBLOCK
 62
0
100
AcDbBlockReference
  2
_OPEN
 10
468.1667218028306
 20
330.0054370259952
 30
0.0000000000000000
 41
1.910672187805176
 42
1.910672187805176
 43
1.910672187805176
 50
0.0000000000000000
  0
LINE
  5
15C
100
AcDbEntity
  8
MAIN10
  6
BYBLOCK
 62
0
100
AcDbLine
 10
468.1667218028306
 20
291.4101642808097
 30
0.0000000000000000
 11
468.1667218028306
 21
332.0054370259952
 31
0.0000000000000000
  0
MTEXT
  5
15D
100
AcDbEntity
  8
MAIN10
  6
BYBLOCK
 62
0
100
AcDbMText
 10
392.3667220889330
 20
331.0054370259952
 30
0.0000000000000000
 40
3.100000381469727
 41
0.0000000000000000
 71
     1
 72
     1
  1
\A1;152
 11
1.000000000000000
 21
0.0000000000000000
 31
0.0000000000000000
  7
STANDARD
  0
ENDBLK
  5
15E
100
AcDbEntity
  8
MAIN10
  6
CONTINUOUS
 62
12
100
AcDbBlockEnd
  0
BLOCK
  5
160
100
AcDbEntity
  8
MAIN10
  6
CONTINUOUS
 62
12
100
AcDbBlockBegin
  2
*D16
 70
    65
 10
0.0
 20
0.0
 30
0.0
  0
LINE
  5
161
100
AcDbEntity
  8
MAIN10
  6
BYBLOCK
 62
0
100
AcDbLine
 10
216.1667218028310
 20
268.9101642808097
 30
0.0000000000000000
 11
216.1667218028310
 21
342.0054370259952
 31
0.0000000000000000
  0
LINE
  5
162
100
AcDbEntity
  8
MAIN10
  6
BYBLOCK
 62
0
100
AcDbLine
 10
218.0773939906362
 20
340.0054370259952
 30
0.0000000000000000
 11
377.2560496150257
 21
340.0054370259952
 31
0.0000000000000000
  0
INSERT
  5
163
100
AcDbEntity
  8
MAIN10
  6
BYBLOCK
 62
0
100
AcDbBlockReference
  2
_OPEN
 10
216.1667218028310
 20
340.0054370259952
 30
0.0000000000000000
 41
1.910672187805176
 42
1.910672187805176
 43
1.910672187805176
 50
180.0000000000000
  0
INSERT
  5
164
100
AcDbEntity
  8
MAIN10
  6
BYBLOCK
 62
0
100
AcDbBlockReference
  2
_OPEN
 10
379.1667218028309
 20
340.0054370259952
 30
0.0000000000000000
 41
1.910672187805176
 42
1.910672187805176
 43
1.910672187805176
 50
0.0000000000000000
  0
LINE
  5
165
100
AcDbEntity
  8
MAIN10
  6
BYBLOCK
 62
0
100
AcDbLine
 10
379.1667218028309
 20
292.4101642808097
 30
0.0000000000000000
 11
379.1667218028309
 21
342.0054370259952
 31
0.0000000000000000
  0
MTEXT
  5
166
100
AcDbEntity
  8
MAIN10
  6
BYBLOCK
 62
0
100
AcDbMText
 10
297.8667220889331
 20
341.0054370259952
 30
0.0000000000000000
 40
3.100000381469727
 41
0.0000000000000000
 71
     1
 72
     1
  1
\A1;163
 11
1.000000000000000
 21
0.0000000000000000
 31
0.0000000000000000
  7
STANDARD
  0
ENDBLK
  5
167
100
AcDbEntity
  8
MAIN10
  6
CONTINUOUS
 62
12
100
AcDbBlockEnd
  0
BLOCK
  5
169
100
AcDbEntity
  8
MAIN10
  6
CONTINUOUS
 62
12
100
AcDbBlockBegin
  2
*D17
 70
    65
 10
0.0
 20
0.0
 30
0.0
  0
LINE
  5
16A
100
AcDbEntity
  8
MAIN10
  6
BYBLOCK
 62
0
100
AcDbLine
 10
379.1667218028309
 20
292.4101642808097
 30
0.0000000000000000
 11
379.1667218028309
 21
342.0054370259952
 31
0.0000000000000000
  0
LINE
  5
16B
100
AcDbEntity
  8
MAIN10
  6
BYBLOCK
 62
0
100
AcDbLine
 10
381.0773939906361
 20
340.0054370259952
 30
0.0000000000000000
 11
466.2560496150255
 21
340.0054370259952
 31
0.0000000000000000
  0
INSERT
  5
16C
100
AcDbEntity
  8
MAIN10
  6
BYBLOCK
 62
0
100
AcDbBlockReference
  2
_OPEN
 10
379.1667218028309
 20
340.0054370259952
 30
0.0000000000000000
 41
1.910672187805176
 42
1.910672187805176
 43
1.910672187805176
 50
180.0000000000000
  0
INSERT
  5
16D
100
AcDbEntity
  8
MAIN10
  6
BYBLOCK
 62
0
100
AcDbBlockReference
  2
_OPEN
 10
468.1667218028306
 20
340.0054370259952
 30
0.0000000000000000
 41
1.910672187805176
 42
1.910672187805176
 43
1.910672187805176
 50
0.0000000000000000
  0
LINE
  5
16E
100
AcDbEntity
  8
MAIN10
  6
BYBLOCK
 62
0
100
AcDbLine
 10
468.1667218028306
 20
291.4101642808097
 30
0.0000000000000000
 11
468.1667218028306
 21
342.0054370259952
 31
0.0000000000000000
  0
MTEXT
  5
16F
100
AcDbEntity
  8
MAIN10
  6
BYBLOCK
 62
0
100
AcDbMText
 10
423.8667225657703
 20
341.0054370259952
 30
0.0000000000000000
 40
3.100000381469727
 41
0.0000000000000000
 71
     1
 72
     1
  1
\A1;89
 11
1.000000000000000
 21
0.0000000000000000
 31
0.0000000000000000
  7
STANDARD
  0
ENDBLK
  5
170
100
AcDbEntity
  8
MAIN10
  6
CONTINUOUS
 62
12
100
AcDbBlockEnd
  0
BLOCK
  5
172
100
AcDbEntity
  8
MAIN10
  6
CONTINUOUS
 62
12
100
AcDbBlockBegin
  2
*D18
 70
    65
 10
0.0
 20
0.0
 30
0.0
  0
LINE
  5
173
100
AcDbEntity
  8
MAIN10
  6
BYBLOCK
 62
0
100
AcDbLine
 10
468.1667218028306
 20
291.4101642808097
 30
0.0000000000000000
 11
468.1667218028306
 21
342.0054370259952
 31
0.0000000000000000
  0
LINE
  5
174
100
AcDbEntity
  8
MAIN10
  6
BYBLOCK
 62
0
100
AcDbLine
 10
468.1667218028306
 20
340.0054370259952
 30
0.0000000000000000
 11
473.1667218028306
 21
340.0054370259952
 31
0.0000000000000000
  0
INSERT
  5
175
100
AcDbEntity
  8
MAIN10
  6
BYBLOCK
 62
0
100
AcDbBlockReference
  2
_OPEN
 10
468.1667218028306
 20
340.0054370259952
 30
0.0000000000000000
 41
1.910672187805176
 42
1.910672187805176
 43
1.910672187805176
 50
0.0000000000000000
  0
INSERT
  5
176
100
AcDbEntity
  8
MAIN10
  6
BYBLOCK
 62
0
100
AcDbBlockReference
  2
_OPEN
 10
473.1667218028306
 20
340.0054370259952
 30
0.0000000000000000
 41
1.910672187805176
 42
1.910672187805176
 43
1.910672187805176
 50
180.0000000000000
  0
LINE
  5
177
100
AcDbEntity
  8
MAIN10
  6
BYBLOCK
 62
0
100
AcDbLine
 10
466.2560496150255
 20
340.0054370259952
 30
0.0000000000000000
 11
465.1667218028306
 21
340.0054370259952
 31
0.0000000000000000
  0
LINE
  5
178
100
AcDbEntity
  8
MAIN10
  6
BYBLOCK
 62
0
100
AcDbLine
 10
475.0773939906358
 20
340.0054370259952
 30
0.0000000000000000
 11
476.1667218028306
 21
340.0054370259952
 31
0.0000000000000000
  0
LINE
  5
179
100
AcDbEntity
  8
MAIN10
  6
BYBLOCK
 62
0
100
AcDbLine
 10
473.1667218028306
 20
265.9101642808097
 30
0.0000000000000000
 11
473.1667218028306
 21
342.0054370259952
 31
0.0000000000000000
  0
MTEXT
  5
17A
100
AcDbEntity
  8
MAIN10
  6
BYBLOCK
 62
0
100
AcDbMText
 10
470.8667220889329
 20
341.0054370259952
 30
0.0000000000000000
 40
3.100000381469727
 41
0.0000000000000000
 71
     1
 72
     1
  1
\A1;5
 11
1.000000000000000
 21
0.0000000000000000
 31
0.0000000000000000
  7
STANDARD
  0
ENDBLK
  5
17B
100
AcDbEntity
  8
MAIN10
  6
CONTINUOUS
 62
12
100
AcDbBlockEnd
  0
BLOCK
  5
17D
100
AcDbEntity
  8
MAIN10
  6
CONTINUOUS
 62
12
100
AcDbBlockBegin
  2
*D19
 70
    65
 10
0.0
 20
0.0
 30
0.0
  0
LINE
  5
17E
100
AcDbEntity
  8
MAIN10
  6
BYBLOCK
 62
0
100
AcDbLine
 10
216.1667218028310
 20
268.9101642808097
 30
0.0000000000000000
 11
216.1667218028310
 21
352.0054370259952
 31
0.0000000000000000
  0
LINE
  5
17F
100
AcDbEntity
  8
MAIN10
  6
BYBLOCK
 62
0
100
AcDbLine
 10
218.0773939906362
 20
350.0054370259952
 30
0.0000000000000000
 11
466.2560496150255
 21
350.0054370259952
 31
0.0000000000000000
  0
INSERT
  5
180
100
AcDbEntity
  8
MAIN10
  6
BYBLOCK
 62
0
100
AcDbBlockReference
  2
_OPEN
 10
216.1667218028310
 20
350.0054370259952
 30
0.0000000000000000
 41
1.910672187805176
 42
1.910672187805176
 43
1.910672187805176
 50
180.0000000000000
  0
INSERT
  5
181
100
AcDbEntity
  8
MAIN10
  6
BYBLOCK
 62
0
100
AcDbBlockReference
  2
_OPEN
 10
468.1667218028306
 20
350.0054370259952
 30
0.0000000000000000
 41
1.910672187805176
 42
1.910672187805176
 43
1.910672187805176
 50
0.0000000000000000
  0
LINE
  5
182
100
AcDbEntity
  8
MAIN10
  6
BYBLOCK
 62
0
100
AcDbLine
 10
468.1667218028306
 20
291.4101642808097
 30
0.0000000000000000
 11
468.1667218028306
 21
352.0054370259952
 31
0.0000000000000000
  0
MTEXT
  5
183
100
AcDbEntity
  8
MAIN10
  6
BYBLOCK
 62
0
100
AcDbMText
 10
342.3667220889331
 20
351.0054370259952
 30
0.0000000000000000
 40
3.100000381469727
 41
0.0000000000000000
 71
     1
 72
     1
  1
\A1;252
 11
1.000000000000000
 21
0.0000000000000000
 31
0.0000000000000000
  7
STANDARD
  0
ENDBLK
  5
184
100
AcDbEntity
  8
MAIN10
  6
CONTINUOUS
 62
12
100
AcDbBlockEnd
  0
BLOCK
  5
186
100
AcDbEntity
  8
MAIN10
  6
CONTINUOUS
 62
12
100
AcDbBlockBegin
  2
*D20
 70
    65
 10
0.0
 20
0.0
 30
0.0
  0
LINE
  5
187
100
AcDbEntity
  8
MAIN10
  6
BYBLOCK
 62
0
100
AcDbLine
 10
468.1667218028306
 20
291.4101642808097
 30
0.0000000000000000
 11
468.1667218028306
 21
352.0054370259952
 31
0.0000000000000000
  0
LINE
  5
188
100
AcDbEntity
  8
MAIN10
  6
BYBLOCK
 62
0
100
AcDbLine
 10
470.0773939906358
 20
350.0054370259952
 30
0.0000000000000000
 11
511.2560496150254
 21
350.0054370259952
 31
0.0000000000000000
  0
INSERT
  5
189
100
AcDbEntity
  8
MAIN10
  6
BYBLOCK
 62
0
100
AcDbBlockReference
  2
_OPEN
 10
468.1667218028306
 20
350.0054370259952
 30
0.0000000000000000
 41
1.910672187805176
 42
1.910672187805176
 43
1.910672187805176
 50
180.0000000000000
  0
INSERT
  5
18A
100
AcDbEntity
  8
MAIN10
  6
BYBLOCK
 62
0
100
AcDbBlockReference
  2
_OPEN
 10
513.1667218028306
 20
350.0054370259952
 30
0.0000000000000000
 41
1.910672187805176
 42
1.910672187805176
 43
1.910672187805176
 50
0.0000000000000000
  0
LINE
  5
18B
100
AcDbEntity
  8
MAIN10
  6
BYBLOCK
 62
0
100
AcDbLine
 10
513.1667218028306
 20
239.4101642808099
 30
0.0000000000000000
 11
513.1667218028306
 21
352.0054370259952
 31
0.0000000000000000
  0
MTEXT
  5
18C
100
AcDbEntity
  8
MAIN10
  6
BYBLOCK
 62
0
100
AcDbMText
 10
490.8667187510728
 20
351.0054370259952
 30
0.0000000000000000
 40
3.100000381469727
 41
0.0000000000000000
 71
     1
 72
     1
  1
\A1;MAX 45
 11
1.000000000000000
 21
0.0000000000000000
 31
0.0000000000000000
  7
STANDARD
  0
ENDBLK
  5
18D
100
AcDbEntity
  8
MAIN10
  6
CONTINUOUS
 62
12
100
AcDbBlockEnd
  0
BLOCK
  5
191
100
AcDbEntity
  8
MAIN10
  6
CONTINUOUS
 62
12
100
AcDbBlockBegin
  2
*D21
 70
    65
 10
0.0
 20
0.0
 30
0.0
  0
LINE
  5
192
100
AcDbEntity
  8
MAIN10
  6
BYBLOCK
 62
0
100
AcDbLine
 10
260.1667218028300
 20
255.9101642808092
 30
0.0000000000000000
 11
260.1667218028300
 21
260.5762677049656
 31
0.0000000000000000
  0
LINE
  5
193
100
AcDbEntity
  8
MAIN10
  6
BYBLOCK
 62
0
100
AcDbLine
 10
260.1667218028300
 20
258.5762677049656
 30
0.0000000000000000
 11
265.1667218028300
 21
258.5762677049656
 31
0.0000000000000000
  0
INSERT
  5
194
100
AcDbEntity
  8
MAIN10
  6
BYBLOCK
 62
0
100
AcDbBlockReference
  2
_OPEN
 10
260.1667218028300
 20
258.5762677049656
 30
0.0000000000000000
 41
1.910672187805176
 42
1.910672187805176
 43
1.910672187805176
 50
0.0000000000000000
  0
INSERT
  5
195
100
AcDbEntity
  8
MAIN10
  6
BYBLOCK
 62
0
100
AcDbBlockReference
  2
_OPEN
 10
265.1667218028300
 20
258.5762677049656
 30
0.0000000000000000
 41
1.910672187805176
 42
1.910672187805176
 43
1.910672187805176
 50
180.0000000000000
  0
LINE
  5
196
100
AcDbEntity
  8
MAIN10
  6
BYBLOCK
 62
0
100
AcDbLine
 10
258.2560496150248
 20
258.5762677049656
 30
0.0000000000000000
 11
257.1667218028300
 21
258.5762677049656
 31
0.0000000000000000
  0
LINE
  5
197
100
AcDbEntity
  8
MAIN10
  6
BYBLOCK
 62
0
100
AcDbLine
 10
267.0773939906352
 20
258.5762677049656
 30
0.0000000000000000
 11
268.1667218028300
 21
258.5762677049656
 31
0.0000000000000000
  0
LINE
  5
198
100
AcDbEntity
  8
MAIN10
  6
BYBLOCK
 62
0
100
AcDbLine
 10
265.1667218028300
 20
255.9101642808092
 30
0.0000000000000000
 11
265.1667218028300
 21
260.5762677049656
 31
0.0000000000000000
  0
MTEXT
  5
199
100
AcDbEntity
  8
MAIN10
  6
BYBLOCK
 62
0
100
AcDbMText
 10
262.8667220889323
 20
259.5762677049656
 30
0.0000000000000000
 40
3.100000381469727
 41
0.0000000000000000
 71
     1
 72
     1
  1
\A1;5
 11
1.000000000000000
 21
0.0000000000000000
 31
0.0000000000000000
  7
STANDARD
  0
ENDBLK
  5
19A
100
AcDbEntity
  8
MAIN10
  6
CONTINUOUS
 62
12
100
AcDbBlockEnd
  0
BLOCK
  5
19E
100
AcDbEntity
  8
MAIN10
  6
CONTINUOUS
 62
3
100
AcDbBlockBegin
  2
*D22
 70
    65
 10
0.0
 20
0.0
 30
0.0
  0
LINE
  5
19F
100
AcDbEntity
  8
MAIN10
  6
BYBLOCK
 62
0
100
AcDbLine
 10
466.9667209312214
 20
157.6101642688890
 30
0.0000000000000000
 11
570.1667218028269
 21
157.6101642688890
 31
0.0000000000000000
  0
LINE
  5
1A0
100
AcDbEntity
  8
MAIN10
  6
BYBLOCK
 62
0
100
AcDbLine
 10
568.1667218028269
 20
159.6101642688890
 30
0.0000000000000000
 11
568.1667218028269
 21
290.6101642688888
 31
0.0000000000000000
  0
INSERT
  5
1A1
100
AcDbEntity
  8
MAIN10
  6
BYBLOCK
 62
0
100
AcDbBlockReference
  2
_OPEN
 10
568.1667218028269
 20
157.6101642688890
 30
0.0000000000000000
 41
2.000000000000000
 42
2.000000000000000
 43
2.000000000000000
 50
270.0000000000000
  0
INSERT
  5
1A2
100
AcDbEntity
  8
MAIN10
  6
BYBLOCK
 62
0
100
AcDbBlockReference
  2
_OPEN
 10
568.1667218028269
 20
292.6101642688888
 30
0.0000000000000000
 41
2.000000000000000
 42
2.000000000000000
 43
2.000000000000000
 50
90.00000000000000
  0
LINE
  5
1A3
100
AcDbEntity
  8
MAIN10
  6
BYBLOCK
 62
0
100
AcDbLine
 10
466.9667209312214
 20
292.6101642688888
 30
0.0000000000000000
 11
570.1667218028269
 21
292.6101642688888
 31
0.0000000000000000
  0
MTEXT
  5
1A4
100
AcDbEntity
  8
MAIN10
  6
BYBLOCK
 62
0
100
AcDbMText
 10
566.1167218505107
 20
225.1101642688889
 30
0.0000000000000000
 40
3.099999904632568
 41
0.0000000000000000
 71
     5
 72
     1
  1
\A1;\U+2205135
 11
6.123233995736766e-017
 21
1.000000000000000
 31
0.0000000000000000
  7
STANDARD
  0
ENDBLK
  5
1A5
100
AcDbEntity
  8
MAIN10
  6
CONTINUOUS
 62
3
100
AcDbBlockEnd
  0
BLOCK
  5
1A7
100
AcDbEntity
  8
MAIN10
  6
CONTINUOUS
 62
3
100
AcDbBlockBegin
  2
*D23
 70
    65
 10
0.0
 20
0.0
 30
0.0
  0
LINE
  5
1A8
100
AcDbEntity
  8
MAIN10
  6
BYBLOCK
 62
0
100
AcDbLine
 10
473.9667218147515
 20
185.1101642688891
 30
0.0000000000000000
 11
550.1667218028269
 21
185.1101642688891
 31
0.0000000000000000
  0
LINE
  5
1A9
100
AcDbEntity
  8
MAIN10
  6
BYBLOCK
 62
0
100
AcDbLine
 10
548.1667218028269
 20
187.1101642688891
 30
0.0000000000000000
 11
548.1667218028269
 21
263.1101642688889
 31
0.0000000000000000
  0
INSERT
  5
1AA
100
AcDbEntity
  8
MAIN10
  6
BYBLOCK
 62
0
100
AcDbBlockReference
  2
_OPEN
 10
548.1667218028269
 20
185.1101642688891
 30
0.0000000000000000
 41
2.000000000000000
 42
2.000000000000000
 43
2.000000000000000
 50
270.0000000000000
  0
INSERT
  5
1AB
100
AcDbEntity
  8
MAIN10
  6
BYBLOCK
 62
0
100
AcDbBlockReference
  2
_OPEN
 10
548.1667218028269
 20
265.1101642688889
 30
0.0000000000000000
 41
2.000000000000000
 42
2.000000000000000
 43
2.000000000000000
 50
90.00000000000000
  0
LINE
  5
1AC
100
AcDbEntity
  8
MAIN10
  6
BYBLOCK
 62
0
100
AcDbLine
 10
473.9667218147515
 20
265.1101642688889
 30
0.0000000000000000
 11
550.1667218028269
 21
265.1101642688889
 31
0.0000000000000000
  0
MTEXT
  5
1AD
100
AcDbEntity
  8
MAIN10
  6
BYBLOCK
 62
0
100
AcDbMText
 10
546.1167218505107
 20
225.1101642688890
 30
0.0000000000000000
 40
3.099999904632568
 41
0.0000000000000000
 71
     5
 72
     1
  1
\A1;\U+220580h7
 11
6.123233995736766e-017
 21
1.000000000000000
 31
0.0000000000000000
  7
STANDARD
  0
ENDBLK
  5
1AE
100
AcDbEntity
  8
MAIN10
  6
CONTINUOUS
 62
3
100
AcDbBlockEnd
  0
BLOCK
  5
1B0
100
AcDbEntity
  8
MAIN10
  6
CONTINUOUS
 62
3
100
AcDbBlockBegin
  2
*D24
 70
    65
 10
0.0
 20
0.0
 30
0.0
  0
LINE
  5
1B1
100
AcDbEntity
  8
MAIN10
  6
BYBLOCK
 62
0
100
AcDbLine
 10
495.1006964109666
 20
240.1101642688889
 30
0.0000000000000000
 11
540.1667218028269
 21
240.1101642688889
 31
0.0000000000000000
  0
LINE
  5
1B2
100
AcDbEntity
  8
MAIN10
  6
BYBLOCK
 62
0
100
AcDbLine
 10
538.1667218028269
 20
238.1101642688889
 30
0.0000000000000000
 11
538.1667218028269
 21
212.1101642688890
 31
0.0000000000000000
  0
INSERT
  5
1B3
100
AcDbEntity
  8
MAIN10
  6
BYBLOCK
 62
0
100
AcDbBlockReference
  2
_OPEN
 10
538.1667218028269
 20
240.1101642688889
 30
0.0000000000000000
 41
2.000000000000000
 42
2.000000000000000
 43
2.000000000000000
 50
90.00000000000000
  0
INSERT
  5
1B4
100
AcDbEntity
  8
MAIN10
  6
BYBLOCK
 62
0
100
AcDbBlockReference
  2
_OPEN
 10
538.1667218028269
 20
210.1101642688890
 30
0.0000000000000000
 41
2.000000000000000
 42
2.000000000000000
 43
2.000000000000000
 50
270.0000000000000
  0
LINE
  5
1B5
100
AcDbEntity
  8
MAIN10
  6
BYBLOCK
 62
0
100
AcDbLine
 10
495.1006964109666
 20
210.1101642688890
 30
0.0000000000000000
 11
540.1667218028269
 21
210.1101642688890
 31
0.0000000000000000
  0
MTEXT
  5
1B6
100
AcDbEntity
  8
MAIN10
  6
BYBLOCK
 62
0
100
AcDbMText
 10
536.1167218505107
 20
225.1101642688889
 30
0.0000000000000000
 40
3.099999904632568
 41
0.0000000000000000
 71
     5
 72
     1
  1
\A1;\U+220530
 11
6.123233995736766e-017
 21
1.000000000000000
 31
0.0000000000000000
  7
STANDARD
  0
ENDBLK
  5
1B7
100
AcDbEntity
  8
MAIN10
  6
CONTINUOUS
 62
3
100
AcDbBlockEnd
  0
BLOCK
  5
1B9
100
AcDbEntity
  8
MAIN10
  6
CONTINUOUS
 62
3
100
AcDbBlockBegin
  2
*D25
 70
    65
 10
0.0
 20
0.0
 30
0.0
  0
LINE
  5
1BA
100
AcDbEntity
  8
MAIN10
  6
BYBLOCK
 62
0
100
AcDbLine
 10
513.1006964109670
 20
235.6101642688889
 30
0.0000000000000000
 11
530.1667218028269
 21
235.6101642688889
 31
0.0000000000000000
  0
LINE
  5
1BB
100
AcDbEntity
  8
MAIN10
  6
BYBLOCK
 62
0
100
AcDbLine
 10
528.1667218028269
 20
233.6101642688889
 30
0.0000000000000000
 11
528.1667218028269
 21
216.6101642688889
 31
0.0000000000000000
  0
INSERT
  5
1BC
100
AcDbEntity
  8
MAIN10
  6
BYBLOCK
 62
0
100
AcDbBlockReference
  2
_OPEN
 10
528.1667218028269
 20
235.6101642688889
 30
0.0000000000000000
 41
2.000000000000000
 42
2.000000000000000
 43
2.000000000000000
 50
90.00000000000000
  0
INSERT
  5
1BD
100
AcDbEntity
  8
MAIN10
  6
BYBLOCK
 62
0
100
AcDbBlockReference
  2
_OPEN
 10
528.1667218028269
 20
214.6101642688889
 30
0.0000000000000000
 41
2.000000000000000
 42
2.000000000000000
 43
2.000000000000000
 50
270.0000000000000
  0
LINE
  5
1BE
100
AcDbEntity
  8
MAIN10
  6
BYBLOCK
 62
0
100
AcDbLine
 10
513.1006964109670
 20
214.6101642688889
 30
0.0000000000000000
 11
530.1667218028269
 21
214.6101642688889
 31
0.0000000000000000
  0
MTEXT
  5
1BF
100
AcDbEntity
  8
MAIN10
  6
BYBLOCK
 62
0
100
AcDbMText
 10
526.1167218505107
 20
225.1101642688889
 30
0.0000000000000000
 40
3.099999904632568
 41
0.0000000000000000
 71
     5
 72
     1
  1
\A1;\U+220521H8
 11
6.123233995736766e-017
 21
1.000000000000000
 31
0.0000000000000000
  7
STANDARD
  0
ENDBLK
  5
1C0
100
AcDbEntity
  8
MAIN10
  6
CONTINUOUS
 62
3
100
AcDbBlockEnd
  0
BLOCK
  5
1C2
100
AcDbEntity
  8
MAIN10
  6
CONTINUOUS
 62
3
100
AcDbBlockBegin
  2
D26
 70
    64
 10
0.0
 20
0.0
 30
0.0
  0
LINE
  5
1C3
100
AcDbEntity
  8
MAIN10
  6
BYBLOCK
 62
0
100
AcDbLine
 10
39.56324011786262
 20
11.21772666818478
 30
0.0000000000000000
 11
39.56324011786262
 21
-50.00000000000011
 31
0.0000000000000000
  0
LINE
  5
1C4
100
AcDbEntity
  8
MAIN10
  6
BYBLOCK
 62
0
100
AcDbLine
 10
40.16324014170448
 20
-48.00000000000011
 30
0.0000000000000000
 11
39.56324011786262
 21
-50.00000000000011
 31
0.0000000000000000
  0
LINE
  5
1C5
100
AcDbEntity
  8
MAIN10
  6
BYBLOCK
 62
0
100
AcDbLine
 10
39.56324011786262
 20
-50.00000000000011
 30
0.0000000000000000
 11
38.96324009402076
 21
-48.00000000000011
 31
0.0000000000000000
  0
LINE
  5
1C6
100
AcDbEntity
  8
MAIN10
  6
BYBLOCK
 62
0
100
AcDbLine
 10
-45.80016838388221
 20
-50.00000000000011
 30
0.0000000000000000
 11
41.56324011786262
 21
-50.00000000000011
 31
0.0000000000000000
  0
MTEXT
  5
1C7
100
AcDbEntity
  8
MAIN10
  6
BYBLOCK
 62
0
100
AcDbMText
 10
37.51324016554634
 20
1.592726377179276
 30
0.0000000000000000
 40
3.099999904632568
 41
0.0000000000000000
 71
     5
 72
     1
  1
\A1;\U+2205100\H0.903226x;\U+00B10.2
 11
6.123233995736766e-017
 21
1.000000000000000
 31
0.0000000000000000
  7
STANDARD
  0
ENDBLK
  5
1C8
100
AcDbEntity
  8
MAIN10
  6
CONTINUOUS
 62
3
100
AcDbBlockEnd
  0
BLOCK
  5
1CB
100
AcDbEntity
  8
MAIN10
  6
CONTINUOUS
 62
3
100
AcDbBlockBegin
  2
*D27
 70
    65
 10
0.0
 20
0.0
 30
0.0
  0
LINE
  5
1CC
100
AcDbEntity
  8
MAIN10
  6
BYBLOCK
 62
0
100
AcDbLine
 10
513.1667218028306
 20
239.4101642808099
 30
0.0000000000000000
 11
513.1667218028306
 21
258.9490802660174
 31
0.0000000000000000
  0
LINE
  5
1CD
100
AcDbEntity
  8
MAIN10
  6
BYBLOCK
 62
0
100
AcDbLine
 10
511.1667218028306
 20
256.9490802660174
 30
0.0000000000000000
 11
479.1667136433164
 21
256.9490802660174
 31
0.0000000000000000
  0
INSERT
  5
1CE
100
AcDbEntity
  8
MAIN10
  6
BYBLOCK
 62
0
100
AcDbBlockReference
  2
_OPEN
 10
513.1667218028306
 20
256.9490802660174
 30
0.0000000000000000
 41
2.000000000000000
 42
2.000000000000000
 43
2.000000000000000
 50
360.0000000000000
  0
INSERT
  5
1CF
100
AcDbEntity
  8
MAIN10
  6
BYBLOCK
 62
0
100
AcDbBlockReference
  2
_OPEN
 10
477.1667136433164
 20
256.9490802660174
 30
0.0000000000000000
 41
2.000000000000000
 42
2.000000000000000
 43
2.000000000000000
 50
180.0000000000000
  0
LINE
  5
1D0
100
AcDbEntity
  8
MAIN10
  6
BYBLOCK
 62
0
100
AcDbLine
 10
477.1667136433164
 20
234.9101642808098
 30
0.0000000000000000
 11
477.1667136433164
 21
258.9490802660174
 31
0.0000000000000000
  0
MTEXT
  5
1D1
100
AcDbEntity
  8
MAIN10
  6
BYBLOCK
 62
0
100
AcDbMText
 10
495.1667177230735
 20
258.9990802183336
 30
0.0000000000000000
 40
3.099999904632568
 41
0.0000000000000000
 71
     5
 72
     1
  1
\A1;36
 11
1.000000000000000
 21
0.0000000000000000
 31
0.0000000000000000
  7
STANDARD
  0
ENDBLK
  5
1D2
100
AcDbEntity
  8
MAIN10
  6
CONTINUOUS
 62
3
100
AcDbBlockEnd
  0
BLOCK
  5
1E6
100
AcDbEntity
  8
MAIN0
  6
BYBLOCK
 62
3
100
AcDbBlockBegin
  2
M0
 70
    64
 10
0.0
 20
0.0
 30
0.0
  0
LINE
  5
1E7
100
AcDbEntity
  8
MAIN0
  6
BYBLOCK
 62
0
100
AcDbLine
 10
142.5717545802378
 20
125.7645999337317
 30
0.0000000000000000
 11
219.5717545802378
 21
125.7645999337317
 31
0.0000000000000000
  0
LINE
  5
1E8
100
AcDbEntity
  8
MAIN0
  6
BYBLOCK
 62
0
100
AcDbLine
 10
142.5717545802378
 20
118.7645999337317
 30
0.0000000000000000
 11
219.5717545802378
 21
118.7645999337317
 31
0.0000000000000000
  0
LINE
  5
1E9
100
AcDbEntity
  8
MAIN0
  6
BYBLOCK
 62
0
100
AcDbLine
 10
142.5717545802378
 20
33.26459993373166
 30
0.0000000000000000
 11
142.5717545802378
 21
125.7645999337317
 31
0.0000000000000000
  0
LINE
  5
1EA
100
AcDbEntity
  8
MAIN0
  6
BYBLOCK
 62
0
100
AcDbLine
 10
142.5717545802378
 20
111.7645999337317
 30
0.0000000000000000
 11
219.5717545802377
 21
111.7645999337317
 31
0.0000000000000000
  0
LINE
  5
1EB
100
AcDbEntity
  8
MAIN0
  6
BYBLOCK
 62
0
100
AcDbLine
 10
142.5717545802378
 20
104.7645999337317
 30
0.0000000000000000
 11
219.5717545802377
 21
104.7645999337317
 31
0.0000000000000000
  0
LINE
  5
1EC
100
AcDbEntity
  8
MAIN0
  6
BYBLOCK
 62
0
100
AcDbLine
 10
185.5549429485111
 20
94.76459993373166
 30
0.0000000000000000
 11
219.5717545802377
 21
94.76459993373166
 31
0.0000000000000000
  0
LINE
  5
1ED
100
AcDbEntity
  8
MAIN0
  6
BYBLOCK
 62
0
100
AcDbLine
 10
142.5717545802378
 20
84.76459993373166
 30
0.0000000000000000
 11
219.5717545802377
 21
84.76459993373166
 31
0.0000000000000000
  0
LINE
  5
1EE
100
AcDbEntity
  8
MAIN0
  6
BYBLOCK
 62
0
100
AcDbLine
 10
142.5717545802378
 20
74.76459993373166
 30
0.0000000000000000
 11
219.5717545802377
 21
74.76459993373166
 31
0.0000000000000000
  0
LINE
  5
1EF
100
AcDbEntity
  8
MAIN0
  6
BYBLOCK
 62
0
100
AcDbLine
 10
142.5717545802378
 20
67.76459993373166
 30
0.0000000000000000
 11
219.5717545802377
 21
67.76459993373166
 31
0.0000000000000000
  0
LINE
  5
1F0
100
AcDbEntity
  8
MAIN0
  6
BYBLOCK
 62
0
100
AcDbLine
 10
142.5717545802378
 20
60.76459993373166
 30
0.0000000000000000
 11
219.5717545802377
 21
60.76459993373166
 31
0.0000000000000000
  0
LINE
  5
1F1
100
AcDbEntity
  8
MAIN0
  6
BYBLOCK
 62
0
100
AcDbLine
 10
142.5717545802378
 20
50.76459993373166
 30
0.0000000000000000
 11
219.5717545802377
 21
50.76459993373166
 31
0.0000000000000000
  0
LINE
  5
1F2
100
AcDbEntity
  8
MAIN0
  6
BYBLOCK
 62
0
100
AcDbLine
 10
142.5717545802378
 20
33.26459993373166
 30
0.0000000000000000
 11
219.5717545802377
 21
33.26459993373143
 31
0.0000000000000000
  0
LINE
  5
1F3
100
AcDbEntity
  8
MAIN0
  6
BYBLOCK
 62
0
100
AcDbLine
 10
189.5717545802377
 20
33.26459993373155
 30
0.0000000000000000
 11
189.5717545802377
 21
118.7645999337317
 31
0.0000000000000000
  0
LINE
  5
1F4
100
AcDbEntity
  8
MAIN0
  6
BYBLOCK
 62
0
100
AcDbLine
 10
219.5717545802377
 20
33.26459993373143
 30
0.0000000000000000
 11
219.5717545802377
 21
125.7645999337317
 31
0.0000000000000000
  0
LINE
  5
1F5
100
AcDbEntity
  8
MAIN0
  6
BYBLOCK
 62
0
100
AcDbLine
 10
142.5717545802378
 20
43.76459993373166
 30
0.0000000000000000
 11
219.5717545802377
 21
43.76459993373166
 31
0.0000000000000000
  0
MTEXT
  5
1F6
100
AcDbEntity
  8
MAIN0
  6
BYBLOCK
 62
0
100
AcDbMText
 10
144.5717545802378
 20
72.76459993373179
 30
0.0000000000000000
 40
3.000000000000000
 41
0.0000000000000000
 71
     1
 72
     1
  1
{\H0.93x;MAX. SPEED}
 11
1.000000000000000
 21
0.0000000000000000
 31
0.0000000000000000
  7
STANDARD
  0
MTEXT
  5
1F7
100
AcDbEntity
  8
MAIN0
  6
BYBLOCK
 62
0
100
AcDbMText
 10
144.5717545802378
 20
65.76459993373179
 30
0.0000000000000000
 40
3.000000000000000
 41
0.0000000000000000
 71
     1
 72
     1
  1
{\H0.91x;MASS}
 11
1.000000000000000
 21
0.0000000000000000
 31
0.0000000000000000
  7
STANDARD
  0
MTEXT
  5
1F8
100
AcDbEntity
  8
MAIN0
  6
BYBLOCK
 62
0
100
AcDbMText
 10
144.5717545802378
 20
57.26459993373173
 30
0.0000000000000000
 40
3.000000000000000
 41
0.0000000000000000
 71
     1
 72
     1
  1
{\H0.59x;ＭＯＭＥＮＴ　ＯＦ　ＩＮＥＲＴＩＡ}
 11
1.000000000000000
 21
0.0000000000000000
 31
0.0000000000000000
  7
KNJYOKO
  0
MTEXT
  5
1F9
100
AcDbEntity
  8
MAIN0
  6
BYBLOCK
 62
0
100
AcDbMText
 10
204.5717545802377
 20
115.5645991707921
 30
0.0000000000000000
 40
2.799999237060547
 41
0.0000000000000000
 71
     1
 72
     1
  1
{\H0.62x;　　　　mm}
 11
1.000000000000000
 21
0.0000000000000000
 31
0.0000000000000000
  7
KNJYOKO
  0
MTEXT
  5
1FA
100
AcDbEntity
  8
MAIN0
  6
BYBLOCK
 62
0
100
AcDbMText
 10
204.5717545802377
 20
58.06459917079211
 30
0.0000000000000000
 40
2.799999237060547
 41
0.0000000000000000
 71
     1
 72
     1
  1
{\H0.64x;　　kg・m}
 11
1.000000000000000
 21
0.0000000000000000
 31
0.0000000000000000
  7
KNJYOKO
  0
MTEXT
  5
1FB
100
AcDbEntity
  8
MAIN0
  6
BYBLOCK
 62
0
100
AcDbMText
 10
204.5717545802377
 20
64.56459917079211
 30
0.0000000000000000
 40
2.799999237060547
 41
0.0000000000000000
 71
     1
 72
     1
  1
{\H0.62x;　　　　kg}
 11
1.000000000000000
 21
0.0000000000000000
 31
0.0000000000000000
  7
KNJYOKO
  0
MTEXT
  5
1FC
100
AcDbEntity
  8
MAIN0
  6
BYBLOCK
 62
0
100
AcDbMText
 10
147.8217545802378
 20
124.9146000290991
 30
0.0000000000000000
 40
5.300000190734863
 41
0.0000000000000000
 71
     1
 72
     1
  1
{\H0.94x;SPECIFICATIONS}
 11
1.000000000000000
 21
0.0000000000000000
 31
0.0000000000000000
  7
STANDARD
  0
MTEXT
  5
1FD
100
AcDbEntity
  8
MAIN0
  6
BYBLOCK
 62
0
100
AcDbMText
 10
144.5717545802378
 20
116.7645999337317
 30
0.0000000000000000
 40
3.000000000000000
 41
0.0000000000000000
 71
     1
 72
     1
  1
{\H0.93x;PISTON DIA}
 11
1.000000000000000
 21
0.0000000000000000
 31
0.0000000000000000
  7
STANDARD
  0
MTEXT
  5
1FE
100
AcDbEntity
  8
MAIN0
  6
BYBLOCK
 62
0
100
AcDbMText
 10
144.5717545802378
 20
109.7645999337319
 30
0.0000000000000000
 40
3.000000000000000
 41
0.0000000000000000
 71
     1
 72
     1
  1
{\H0.93x;PISTON STROKE}
 11
1.000000000000000
 21
0.0000000000000000
 31
0.0000000000000000
  7
STANDARD
  0
MTEXT
  5
1FF
100
AcDbEntity
  8
MAIN0
  6
BYBLOCK
 62
0
100
AcDbMText
 10
144.5717545802378
 20
100.7645999337319
 30
0.0000000000000000
 40
3.000000000000000
 41
0.0000000000000000
 71
     1
 72
     1
  1
{\H0.93x;PISTON THRUST}
 11
1.000000000000000
 21
0.0000000000000000
 31
0.0000000000000000
  7
STANDARD
  0
MTEXT
  5
200
100
AcDbEntity
  8
MAIN0
  6
BYBLOCK
 62
0
100
AcDbMText
 10
142.5717545802378
 20
94.76459993373179
 30
0.0000000000000000
 40
3.000000000000000
 41
0.0000000000000000
 71
     1
 72
     1
  1
{\H0.94x;(AT  　 　　　　　)}
 11
1.000000000000000
 21
0.0000000000000000
 31
0.0000000000000000
  7
KNJYOKO
  0
MTEXT
  5
201
100
AcDbEntity
  8
MAIN0
  6
BYBLOCK
 62
0
100
AcDbMText
 10
144.5717545802378
 20
41.76459993373173
 30
0.0000000000000000
 40
3.000000000000000
 41
0.0000000000000000
 71
     1
 72
     1
  1
{\H0.93x;OIL LEAKAGE}
 11
1.000000000000000
 21
0.0000000000000000
 31
0.0000000000000000
  7
STANDARD
  0
MTEXT
  5
202
100
AcDbEntity
  8
MAIN0
  6
BYBLOCK
 62
0
100
AcDbMText
 10
181.8548653220533
 20
101.0008901144420
 30
0.0000000000000000
 40
3.000000000000000
 41
0.0000000000000000
 71
     1
 72
     1
  1
{\H0.63x;PUSH}
 11
1.000000000000000
 21
0.0000000000000000
 31
0.0000000000000000
  7
STANDARD
  0
MTEXT
  5
203
100
AcDbEntity
  8
MAIN0
  6
BYBLOCK
 62
0
100
AcDbMText
 10
181.8548653220533
 20
91.00089011444185
 30
0.0000000000000000
 40
3.000000000000000
 41
0.0000000000000000
 71
     1
 72
     1
  1
{\H0.63x;PULL}
 11
1.000000000000000
 21
0.0000000000000000
 31
0.0000000000000000
  7
STANDARD
  0
MTEXT
  5
204
100
AcDbEntity
  8
MAIN0
  6
BYBLOCK
 62
0
100
AcDbMText
 10
144.5717545802378
 20
37.26459993373173
 30
0.0000000000000000
 40
2.000000000000000
 41
0.0000000000000000
 71
     1
 72
     1
  1
{\H0.94x;ISO,VG 32,50℃,3.0MPa}
 11
1.000000000000000
 21
0.0000000000000000
 31
0.0000000000000000
  7
KNJYOKO
  0
MTEXT
  5
205
100
AcDbEntity
  8
MAIN0
  6
BYBLOCK
 62
0
100
AcDbMText
 10
204.5717545802377
 20
37.06459917079211
 30
0.0000000000000000
 40
2.799999237060547
 41
0.0000000000000000
 71
     1
 72
     1
  1
{\H0.69x;　L/min}
 11
1.000000000000000
 21
0.0000000000000000
 31
0.0000000000000000
  7
KNJYOKO
  0
MTEXT
  5
206
100
AcDbEntity
  8
MAIN0
  6
BYBLOCK
 62
0
100
AcDbMText
 10
144.5717545802378
 20
81.26459993373179
 30
0.0000000000000000
 40
3.000000000000000
 41
0.0000000000000000
 71
     1
 72
     1
  1
{\H0.63x;MAX. OPERATING PRESSURE}
 11
1.000000000000000
 21
0.0000000000000000
 31
0.0000000000000000
  7
STANDARD
  0
MTEXT
  5
207
100
AcDbEntity
  8
MAIN0
  6
BYBLOCK
 62
0
100
AcDbMText
 10
216.4823005548611
 20
58.32016976192391
 30
0.0000000000000000
 40
2.000000000000000
 41
0.0000000000000000
 71
     1
 72
     1
  1
{\H0.81x;2}
 11
1.000000000000000
 21
0.0000000000000000
 31
0.0000000000000000
  7
STANDARD
  0
MTEXT
  5
208
100
AcDbEntity
  8
MAIN0
  6
BYBLOCK
 62
0
100
AcDbMText
 10
204.5717545802377
 20
82.06459917079211
 30
0.0000000000000000
 40
2.799999237060547
 41
0.0000000000000000
 71
     1
 72
     1
  1
{\H0.64x;　　　MPa}
 11
1.000000000000000
 21
0.0000000000000000
 31
0.0000000000000000
  7
KNJYOKO
  0
MTEXT
  5
209
100
AcDbEntity
  8
MAIN0
  6
BYBLOCK
 62
0
100
AcDbMText
 10
165.4894475356063
 20
94.56459917079235
 30
0.0000000000000000
 40
2.799999237060547
 41
0.0000000000000000
 71
     1
 72
     1
  1
{\H0.64x;　　　MPa}
 11
1.000000000000000
 21
0.0000000000000000
 31
0.0000000000000000
  7
KNJYOKO
  0
MTEXT
  5
20A
100
AcDbEntity
  8
MAIN0
  6
BYBLOCK
 62
0
100
AcDbMText
 10
204.5717545802377
 20
102.0645991707922
 30
0.0000000000000000
 40
2.799999237060547
 41
0.0000000000000000
 71
     1
 72
     1
  1
{\H0.62x;　　　　kN}
 11
1.000000000000000
 21
0.0000000000000000
 31
0.0000000000000000
  7
KNJYOKO
  0
MTEXT
  5
20B
100
AcDbEntity
  8
MAIN0
  6
BYBLOCK
 62
0
100
AcDbMText
 10
204.5717545802377
 20
71.56459917079211
 30
0.0000000000000000
 40
2.799999237060547
 41
0.0000000000000000
 71
     1
 72
     1
  1
{\H0.65x;　　min}
 11
1.000000000000000
 21
0.0000000000000000
 31
0.0000000000000000
  7
KNJYOKO
  0
MTEXT
  5
20C
100
AcDbEntity
  8
MAIN0
  6
BYBLOCK
 62
0
100
AcDbMText
 10
214.7264228285576
 20
72.23414372368687
 30
0.0000000000000000
 40
2.000000000000000
 41
0.0000000000000000
 71
     1
 72
     1
  1
{\H0.88x;-1}
 11
1.000000000000000
 21
0.0000000000000000
 31
0.0000000000000000
  7
STANDARD
  0
MTEXT
  5
20D
100
AcDbEntity
  8
MAIN0
  6
BYBLOCK
 62
0
100
AcDbMText
 10
204.5717545802377
 20
108.5645991707922
 30
0.0000000000000000
 40
2.799999237060547
 41
0.0000000000000000
 71
     1
 72
     1
  1
{\H0.62x;　　　　mm}
 11
1.000000000000000
 21
0.0000000000000000
 31
0.0000000000000000
  7
KNJYOKO
  0
MTEXT
  5
20E
100
AcDbEntity
  8
MAIN0
  6
BYBLOCK
 62
0
100
AcDbMText
 10
204.5717545802377
 20
92.06459917079211
 30
0.0000000000000000
 40
2.799999237060547
 41
0.0000000000000000
 71
     1
 72
     1
  1
{\H0.62x;　　　　kN}
 11
1.000000000000000
 21
0.0000000000000000
 31
0.0000000000000000
  7
KNJYOKO
  0
ENDBLK
  5
20F
100
AcDbEntity
  8
MAIN0
  6
BYBLOCK
 62
3
100
AcDbBlockEnd
  0
ENDSEC
  0
SECTION
  2
ENTITIES
  0
LINE
  5
46
100
AcDbEntity
  8
MAIN0
  6
CONTINUOUS
 62
12
100
AcDbLine
 10
473.4178203331325
 20
175.1101642688881
 30
0.0000000000000000
 11
560.1144262760463
 21
175.1101642688881
 31
0.0000000000000000
  0
LINE
  5
47
100
AcDbEntity
  8
MAIN0
  6
CONTINUOUS
 62
3
100
AcDbLine
 10
379.1667218028309
 20
158.6101642688889
 30
0.0000000000000000
 11
379.1667218028309
 21
291.6101642688888
 31
0.0000000000000000
  0
LINE
  5
48
100
AcDbEntity
  8
MAIN0
  6
CONTINUOUS
 62
3
100
AcDbLine
 10
352.1667218028309
 20
189.1101642688889
 30
0.0000000000000000
 11
352.1667218028309
 21
261.1101642688889
 31
0.0000000000000000
  0
LINE
  5
49
100
AcDbEntity
  8
MAIN0
  6
CENTER
 62
12
100
AcDbLine
 10
115.1859917937758
 20
171.1663728111287
 30
0.0000000000000000
 11
115.1859917937759
 21
292.5860370442329
 31
0.0000000000000000
  0
LINE
  5
4A
100
AcDbEntity
  8
MAIN0
  6
CENTER
 62
12
100
AcDbLine
 10
65.08824014053283
 20
225.1101642688889
 30
0.0000000000000000
 11
160.4936876440042
 21
225.1101642688889
 31
0.0000000000000000
  0
LINE
  5
4B
100
AcDbEntity
  8
MAIN0
  6
CONTINUOUS
 62
3
100
AcDbLine
 10
266.1667218028309
 20
232.6101642688889
 30
0.0000000000000000
 11
267.5246312470442
 21
232.6101642688889
 31
0.0000000000000000
  0
LINE
  5
4C
100
AcDbEntity
  8
MAIN0
  6
CONTINUOUS
 62
3
100
AcDbLine
 10
266.1667218028309
 20
217.6101642688889
 30
0.0000000000000000
 11
266.9239118584029
 21
217.6101642688889
 31
0.0000000000000000
  0
LINE
  5
4D
100
AcDbEntity
  8
MAIN0
  6
CONTINUOUS
 62
3
100
AcDbLine
 10
266.1667218028309
 20
213.6101642688890
 30
0.0000000000000000
 11
266.1667218028309
 21
217.6101642688889
 31
0.0000000000000000
  0
LINE
  5
4E
100
AcDbEntity
  8
MAIN0
  6
CONTINUOUS
 62
3
100
AcDbLine
 10
266.1667218028309
 20
232.6101642688889
 30
0.0000000000000000
 11
266.1667218028309
 21
236.6101642688888
 31
0.0000000000000000
  0
LINE
  5
4F
100
AcDbEntity
  8
MAIN0
  6
CENTER
 62
12
100
AcDbLine
 10
124.9700113729026
 20
333.7248478819479
 30
0.0000000000000000
 11
220.1990649054811
 21
388.7053675736556
 31
0.0000000000000000
  0
LINE
  5
50
100
AcDbEntity
  8
MAIN0
  6
CENTER
 62
12
100
AcDbLine
 10
77.19343420957128
 20
292.5860370442330
 30
0.0000000000000000
 11
77.19343420957128
 21
404.5460469134221
 31
0.0000000000000000
  0
LINE
  5
51
100
AcDbEntity
  8
MAIN0
  6
CENTER
 62
12
100
AcDbLine
 10
124.9700113729026
 20
333.7248478819478
 30
0.0000000000000000
 11
169.5555440945800
 21
256.5004399254777
 31
0.0000000000000000
  0
LINE
  5
52
100
AcDbEntity
  8
MAIN0
  6
CENTER
 62
12
100
AcDbLine
 10
77.19343420957125
 20
292.5860370442330
 30
0.0000000000000000
 11
115.1859917937758
 21
292.5860370442330
 31
0.0000000000000000
  0
LINE
  5
53
100
AcDbEntity
  8
MAIN0
  6
CONTINUOUS
 62
3
100
AcDbLine
 10
55.19343420957131
 20
304.6110817709107
 30
0.0000000000000000
 11
77.19343420957131
 21
304.6110817709107
 31
0.0000000000000000
  0
LINE
  5
54
100
AcDbEntity
  8
MAIN0
  6
CENTER
 62
12
100
AcDbLine
 10
55.19343420957128
 20
400.6110817709107
 30
0.0000000000000000
 11
77.19343420957128
 21
400.6110817709107
 31
0.0000000000000000
  0
LINE
  5
55
100
AcDbEntity
  8
MAIN0
  6
CENTER
 62
12
100
AcDbLine
 10
117.3055820218345
 20
354.7031993772674
 30
0.0000000000000000
 11
128.3055820218345
 21
335.6506404940097
 31
0.0000000000000000
  0
LINE
  5
56
100
AcDbEntity
  8
MAIN0
  6
CONTINUOUS
 62
3
100
AcDbLine
 10
200.4440207851406
 20
402.7031993772675
 30
0.0000000000000000
 11
222.4440207851407
 21
364.5980816107522
 31
0.0000000000000000
  0
LINE
  5
57
100
AcDbEntity
  8
MAIN0
  6
CONTINUOUS
 62
3
100
AcDbLine
 10
55.19343420957128
 20
359.6110817709107
 30
0.0000000000000000
 11
77.19343420957128
 21
359.6110817709107
 31
0.0000000000000000
  0
LINE
  5
58
100
AcDbEntity
  8
MAIN0
  6
CONTINUOUS
 62
3
100
AcDbLine
 10
152.8126235769966
 20
375.2031993772677
 30
0.0000000000000000
 11
174.8126235769967
 21
337.0980816107521
 31
0.0000000000000000
  0
LINE
  5
59
100
AcDbEntity
  8
MAIN0
  6
CENTER
 62
12
100
AcDbLine
 10
65.90678336940192
 20
338.6110817709107
 30
0.0000000000000000
 11
81.71667535046473
 21
338.6110817709107
 31
0.0000000000000000
  0
LINE
  5
5A
100
AcDbEntity
  8
MAIN0
  6
CENTER
 62
12
100
AcDbLine
 10
54.69343420957125
 20
352.6110817709107
 30
0.0000000000000000
 11
68.52850023210627
 21
352.6110817709107
 31
0.0000000000000000
  0
LINE
  5
5B
100
AcDbEntity
  8
MAIN0
  6
CENTER
 62
12
100
AcDbLine
 10
54.69343420957125
 20
311.6110817709107
 30
0.0000000000000000
 11
68.60794941629391
 21
311.6110817709107
 31
0.0000000000000000
  0
LINE
  5
5C
100
AcDbEntity
  8
MAIN0
  6
CENTER
 62
12
100
AcDbLine
 10
61.19343420957128
 20
302.8716995574864
 30
0.0000000000000000
 11
61.19343420957128
 21
361.4240134508040
 31
0.0000000000000000
  0
LINE
  5
5D
100
AcDbEntity
  8
MAIN0
  6
CENTER
 62
12
100
AcDbLine
 10
65.90678336940192
 20
379.6110817709107
 30
0.0000000000000000
 11
82.11392127140280
 21
379.6110817709107
 31
0.0000000000000000
  0
LINE
  5
5E
100
AcDbEntity
  8
MAIN0
  6
CONTINUOUS
 62
3
100
AcDbLine
 10
63.94343420957128
 20
311.6110817709106
 30
0.0000000000000000
 11
63.94343420957128
 21
348.4352584987881
 31
0.0000000000000000
  0
LINE
  5
5F
100
AcDbEntity
  8
MAIN0
  6
CONTINUOUS
 62
3
100
AcDbLine
 10
58.44343420957128
 20
311.6110817709106
 30
0.0000000000000000
 11
58.44343420957128
 21
348.4352584987881
 31
0.0000000000000000
  0
LINE
  5
60
100
AcDbEntity
  8
MAIN0
  6
CONTINUOUS
 62
3
100
AcDbLine
 10
46.76956015202438
 20
329.6110817709107
 30
0.0000000000000000
 11
53.19343420957128
 21
329.6110817709107
 31
0.0000000000000000
  0
LINE
  5
61
100
AcDbEntity
  8
MAIN0
  6
HIDDEN
 62
12
100
AcDbLine
 10
53.19343420957128
 20
329.6110817709107
 30
0.0000000000000000
 11
101.1934342095713
 21
329.6110817709107
 31
0.0000000000000000
  0
LINE
  5
62
100
AcDbEntity
  8
MAIN0
  6
CONTINUOUS
 62
3
100
AcDbLine
 10
101.1934342095713
 20
329.6110817709107
 30
0.0000000000000000
 11
105.5507225035026
 21
329.6110817709107
 31
0.0000000000000000
  0
LINE
  5
63
100
AcDbEntity
  8
MAIN0
  6
CONTINUOUS
 62
3
100
AcDbLine
 10
46.76956015202438
 20
328.0110817709107
 30
0.0000000000000000
 11
53.19343420957128
 21
328.0110817709107
 31
0.0000000000000000
  0
LINE
  5
64
100
AcDbEntity
  8
MAIN0
  6
HIDDEN
 62
12
100
AcDbLine
 10
53.19343420957128
 20
328.0110817709107
 30
0.0000000000000000
 11
101.1934342095713
 21
328.0110817709107
 31
0.0000000000000000
  0
LINE
  5
65
100
AcDbEntity
  8
MAIN0
  6
CONTINUOUS
 62
3
100
AcDbLine
 10
101.1934342095713
 20
328.0110817709107
 30
0.0000000000000000
 11
105.5507225035026
 21
328.0110817709107
 31
0.0000000000000000
  0
LINE
  5
66
100
AcDbEntity
  8
MAIN0
  6
CENTER
 62
12
100
AcDbLine
 10
99.69343420957134
 20
352.6110817709107
 30
0.0000000000000000
 11
85.85836818703632
 21
352.6110817709107
 31
0.0000000000000000
  0
LINE
  5
67
100
AcDbEntity
  8
MAIN0
  6
CENTER
 62
12
100
AcDbLine
 10
93.19343420957131
 20
319.2377712330247
 30
0.0000000000000000
 11
93.19343420957131
 21
361.4240134508040
 31
0.0000000000000000
  0
LINE
  5
68
100
AcDbEntity
  8
MAIN0
  6
CONTINUOUS
 62
3
100
AcDbLine
 10
77.19343420957134
 20
372.6110817709107
 30
0.0000000000000000
 11
99.19343420957131
 21
372.6110817709107
 31
0.0000000000000000
  0
LINE
  5
69
100
AcDbEntity
  8
MAIN0
  6
CONTINUOUS
 62
3
100
AcDbLine
 10
77.19343420957134
 20
387.6110817709107
 30
0.0000000000000000
 11
97.69343420957128
 21
387.6110817709107
 31
0.0000000000000000
  0
LINE
  5
6A
100
AcDbEntity
  8
MAIN0
  6
CONTINUOUS
 62
3
100
AcDbLine
 10
77.19343420957137
 20
317.6110817709107
 30
0.0000000000000000
 11
99.19343420957122
 21
317.6110817709107
 31
0.0000000000000000
  0
LINE
  5
6B
100
AcDbEntity
  8
MAIN0
  6
CONTINUOUS
 62
3
100
AcDbLine
 10
77.19343420957137
 20
316.6110817709107
 30
0.0000000000000000
 11
97.69343420957128
 21
316.6110817709107
 31
0.0000000000000000
  0
LINE
  5
6C
100
AcDbEntity
  8
MAIN0
  6
CENTER
 62
12
100
AcDbLine
 10
99.69343420957134
 20
338.6110817709107
 30
0.0000000000000000
 11
85.85836818703632
 21
338.6110817709107
 31
0.0000000000000000
  0
LINE
  5
6D
100
AcDbEntity
  8
MAIN0
  6
CENTER
 62
12
100
AcDbLine
 10
99.69343420957134
 20
324.6110817709107
 30
0.0000000000000000
 11
85.85836818703632
 21
324.6110817709107
 31
0.0000000000000000
  0
LINE
  5
6E
100
AcDbEntity
  8
MAIN0
  6
CONTINUOUS
 62
3
100
AcDbLine
 10
95.94343420957131
 20
324.6110817709106
 30
0.0000000000000000
 11
95.94343420957131
 21
352.6110817709106
 31
0.0000000000000000
  0
LINE
  5
6F
100
AcDbEntity
  8
MAIN0
  6
CONTINUOUS
 62
3
100
AcDbLine
 10
90.44343420957131
 20
324.6110817709106
 30
0.0000000000000000
 11
90.44343420957131
 21
352.6110817709106
 31
0.0000000000000000
  0
LINE
  5
70
100
AcDbEntity
  8
MAIN0
  6
CONTINUOUS
 62
3
100
AcDbLine
 10
84.19343420957128
 20
339.6110817709106
 30
0.0000000000000000
 11
84.19343420957131
 21
350.6110815626606
 31
0.0000000000000000
  0
LINE
  5
71
100
AcDbEntity
  8
MAIN0
  6
HIDDEN
 62
12
100
AcDbLine
 10
84.19343420957128
 20
350.6110815626606
 30
0.0000000000000000
 11
84.19343420957128
 21
364.6110817709107
 31
0.0000000000000000
  0
LINE
  5
72
100
AcDbEntity
  8
MAIN0
  6
CONTINUOUS
 62
3
100
AcDbLine
 10
53.19343420957128
 20
306.6110817709107
 30
0.0000000000000000
 11
53.19343420957128
 21
357.6110817709107
 31
0.0000000000000000
  0
LINE
  5
73
100
AcDbEntity
  8
MAIN0
  6
CENTER
 62
12
100
AcDbLine
 10
53.19343420957128
 20
359.6110817709107
 30
0.0000000000000000
 11
53.19343420957128
 21
398.6110817709107
 31
0.0000000000000000
  0
LINE
  5
74
100
AcDbEntity
  8
MAIN0
  6
CENTER
 62
12
100
AcDbLine
 10
118.0376328294034
 20
357.4352501848364
 30
0.0000000000000000
 11
151.8126235769966
 21
376.9352501848364
 31
0.0000000000000000
  0
LINE
  5
75
100
AcDbEntity
  8
MAIN0
  6
CONTINUOUS
 62
3
100
AcDbLine
 10
153.5446743845655
 20
377.9352501848364
 30
0.0000000000000000
 11
197.7119699775716
 21
403.4352501848364
 31
0.0000000000000000
  0
LINE
  5
76
100
AcDbEntity
  8
MAIN0
  6
CENTER
 62
12
100
AcDbLine
 10
155.8126235769966
 20
370.0070469545609
 30
0.0000000000000000
 11
203.4440207851405
 21
397.5070469545609
 31
0.0000000000000000
  0
LINE
  5
77
100
AcDbEntity
  8
MAIN0
  6
CENTER
 62
12
100
AcDbLine
 10
194.1318429586494
 20
399.6362120791598
 30
0.0000000000000000
 11
200.5196110006496
 21
388.5722732834507
 31
0.0000000000000000
  0
LINE
  5
78
100
AcDbEntity
  8
MAIN0
  6
CENTER
 62
12
100
AcDbLine
 10
158.6248014034877
 20
379.1362120791599
 30
0.0000000000000000
 11
165.5852903788024
 21
367.0802915283919
 31
0.0000000000000000
  0
LINE
  5
79
100
AcDbEntity
  8
MAIN0
  6
CONTINUOUS
 62
3
100
AcDbLine
 10
164.1161704388601
 20
377.9765284510294
 30
0.0000000000000000
 11
196.0068429586494
 21
396.3886168149680
 31
0.0000000000000000
  0
LINE
  5
7A
100
AcDbEntity
  8
MAIN0
  6
CONTINUOUS
 62
3
100
AcDbLine
 10
166.8661704388600
 20
373.2133887302149
 30
0.0000000000000000
 11
198.7568429586495
 21
391.6254770941537
 31
0.0000000000000000
  0
LINE
  5
7B
100
AcDbEntity
  8
MAIN0
  6
CENTER
 62
12
100
AcDbLine
 10
187.4070076982837
 20
383.2839684226440
 30
0.0000000000000000
 11
196.1929752485000
 21
368.0662262320180
 31
0.0000000000000000
  0
LINE
  5
7C
100
AcDbEntity
  8
MAIN0
  6
CENTER
 62
12
100
AcDbLine
 10
151.8999661431218
 20
362.7839684226440
 30
0.0000000000000000
 11
160.6859336933381
 21
347.5662262320180
 31
0.0000000000000000
  0
LINE
  5
7D
100
AcDbEntity
  8
MAIN0
  6
CONTINUOUS
 62
3
100
AcDbLine
 10
136.2945508583163
 20
371.8133405691391
 30
0.0000000000000000
 11
149.9562171164456
 21
348.1506404940098
 31
0.0000000000000000
  0
LINE
  5
7E
100
AcDbEntity
  8
MAIN0
  6
CONTINUOUS
 62
3
100
AcDbLine
 10
163.6178833745749
 20
324.4879404188806
 30
0.0000000000000000
 11
149.9562171164455
 21
348.1506404940099
 31
0.0000000000000000
  0
LINE
  5
7F
100
AcDbEntity
  8
MAIN0
  6
CONTINUOUS
 62
3
100
AcDbLine
 10
134.9089102122612
 20
371.0133405691390
 30
0.0000000000000000
 11
148.5705764703905
 21
347.3506404940098
 31
0.0000000000000000
  0
LINE
  5
80
100
AcDbEntity
  8
MAIN0
  6
CONTINUOUS
 62
3
100
AcDbLine
 10
162.2322427285198
 20
323.6879404188807
 30
0.0000000000000000
 11
148.5705764703904
 21
347.3506404940099
 31
0.0000000000000000
  0
LINE
  5
81
100
AcDbEntity
  8
MAIN0
  6
HIDDEN
 62
12
100
AcDbLine
 10
175.4956362788887
 20
336.9150689088599
 30
0.0000000000000000
 11
221.8279953813562
 21
363.6650689088598
 31
0.0000000000000000
  0
LINE
  5
82
100
AcDbEntity
  8
MAIN0
  6
CENTER
 62
12
100
AcDbLine
 10
171.8126235769966
 20
342.2942340334589
 30
0.0000000000000000
 11
208.9757345965203
 21
363.7503661845049
 31
0.0000000000000000
  0
LINE
  5
83
100
AcDbEntity
  8
MAIN0
  6
CENTER
 62
12
100
AcDbLine
 10
181.1248014034878
 20
340.1650689088600
 30
0.0000000000000000
 11
174.1643124281731
 21
352.2209894596281
 31
0.0000000000000000
  0
LINE
  5
84
100
AcDbEntity
  8
MAIN0
  6
CENTER
 62
12
100
AcDbLine
 10
193.2491570564698
 20
347.1650689088600
 30
0.0000000000000000
 11
186.2886680811551
 21
359.2209894596280
 31
0.0000000000000000
  0
LINE
  5
85
100
AcDbEntity
  8
MAIN0
  6
CENTER
 62
12
100
AcDbLine
 10
205.3735127094519
 20
354.1650689088600
 30
0.0000000000000000
 11
198.4130237341372
 21
366.2209894596281
 31
0.0000000000000000
  0
LINE
  5
86
100
AcDbEntity
  8
MAIN0
  6
CONTINUOUS
 62
3
100
AcDbLine
 10
176.4998014034877
 20
348.1758038938661
 30
0.0000000000000000
 11
200.7485127094519
 21
362.1758038938660
 31
0.0000000000000000
  0
LINE
  5
87
100
AcDbEntity
  8
MAIN0
  6
CONTINUOUS
 62
3
100
AcDbLine
 10
179.2498014034877
 20
343.4126641730517
 30
0.0000000000000000
 11
203.4985127094519
 21
357.4126641730517
 31
0.0000000000000000
  0
LINE
  5
88
100
AcDbEntity
  8
MAIN0
  6
HIDDEN
 62
12
100
AcDbLine
 10
174.2408268072720
 20
354.0884626675187
 30
0.0000000000000000
 11
186.3651824602542
 21
361.0884626675187
 31
0.0000000000000000
  0
LINE
  5
89
100
AcDbEntity
  8
MAIN0
  6
CONTINUOUS
 62
3
100
AcDbLine
 10
186.3651824602542
 20
361.0884626675187
 30
0.0000000000000000
 11
195.8914619018830
 21
366.5884626675187
 31
0.0000000000000000
  0
LINE
  5
8A
100
AcDbEntity
  8
MAIN0
  6
CONTINUOUS
 62
3
100
AcDbLine
 10
212.3100461889248
 20
384.1506404940098
 30
0.0000000000000000
 11
222.5600461889249
 21
366.3971197164287
 31
0.0000000000000000
  0
LINE
  5
8B
100
AcDbEntity
  8
MAIN0
  6
CONTINUOUS
 62
3
100
AcDbLine
 10
150.8222425202299
 20
348.6506404940099
 30
0.0000000000000000
 11
161.0722425202299
 21
330.8971197164289
 31
0.0000000000000000
  0
LINE
  5
8C
100
AcDbEntity
  8
MAIN0
  6
CENTER
 62
12
100
AcDbLine
 10
138.6978868672479
 20
341.6506404940099
 30
0.0000000000000000
 11
149.6978868672480
 21
322.5980816107519
 31
0.0000000000000000
  0
LINE
  5
8D
100
AcDbEntity
  8
MAIN0
  6
CENTER
 62
12
100
AcDbLine
 10
152.4299376748167
 20
321.8660308031833
 30
0.0000000000000000
 11
162.8222425202300
 21
327.8660308031833
 31
0.0000000000000000
  0
LINE
  5
8E
100
AcDbEntity
  8
MAIN0
  6
CONTINUOUS
 62
3
100
AcDbLine
 10
163.8042933277989
 20
330.1650689088600
 30
0.0000000000000000
 11
175.4956362788888
 21
336.9150689088600
 31
0.0000000000000000
  0
LINE
  5
8F
100
AcDbEntity
  8
MAIN0
  6
CONTINUOUS
 62
3
100
AcDbLine
 10
55.19343420957131
 20
359.6110817709107
 30
0.0000000000000000
 11
53.19343420957139
 21
357.6110817709108
 31
0.0000000000000000
  0
LINE
  5
90
100
AcDbEntity
  8
MAIN0
  6
CONTINUOUS
 62
3
100
AcDbLine
 10
55.19343420957131
 20
304.6110817709107
 30
0.0000000000000000
 11
53.19343420957131
 21
306.6110817709107
 31
0.0000000000000000
  0
LINE
  5
91
100
AcDbEntity
  8
MAIN0
  6
CENTER
 62
12
100
AcDbLine
 10
55.19343420957233
 20
400.6110817709098
 30
0.0000000000000000
 11
53.19343420957233
 21
398.6110817709097
 31
0.0000000000000000
  0
LINE
  5
92
100
AcDbEntity
  8
MAIN0
  6
CONTINUOUS
 62
3
100
AcDbLine
 10
97.69343420957128
 20
387.6110817709107
 30
0.0000000000000000
 11
99.69343420957131
 21
385.6110817709107
 31
0.0000000000000000
  0
LINE
  5
93
100
AcDbEntity
  8
MAIN0
  6
CONTINUOUS
 62
3
100
AcDbLine
 10
99.19343420957137
 20
372.6110817709106
 30
0.0000000000000000
 11
101.1934342095714
 21
370.6110817709106
 31
0.0000000000000000
  0
LINE
  5
94
100
AcDbEntity
  8
MAIN0
  6
CONTINUOUS
 62
3
100
AcDbLine
 10
99.19343420957131
 20
317.6110817709108
 30
0.0000000000000000
 11
101.1934342095713
 21
319.6110817709108
 31
0.0000000000000000
  0
LINE
  5
95
100
AcDbEntity
  8
MAIN0
  6
CONTINUOUS
 62
3
100
AcDbLine
 10
200.4440207851406
 20
402.7031993772674
 30
0.0000000000000000
 11
197.7119699775717
 21
403.4352501848363
 31
0.0000000000000000
  0
LINE
  5
96
100
AcDbEntity
  8
MAIN0
  6
CONTINUOUS
 62
3
100
AcDbLine
 10
152.8126235769965
 20
375.2031993772675
 30
0.0000000000000000
 11
153.5446743845654
 21
377.9352501848364
 31
0.0000000000000000
  0
LINE
  5
97
100
AcDbEntity
  8
MAIN0
  6
CENTER
 62
12
100
AcDbLine
 10
117.3055820218345
 20
354.7031993772674
 30
0.0000000000000000
 11
118.0376328294034
 21
357.4352501848363
 31
0.0000000000000000
  0
LINE
  5
98
100
AcDbEntity
  8
MAIN0
  6
CENTER
 62
12
100
AcDbLine
 10
149.6978868672478
 20
322.5980816107521
 30
0.0000000000000000
 11
152.4299376748166
 21
321.8660308031832
 31
0.0000000000000000
  0
LINE
  5
99
100
AcDbEntity
  8
MAIN0
  6
CONTINUOUS
 62
3
100
AcDbLine
 10
161.0722425202299
 20
330.8971197164287
 30
0.0000000000000000
 11
163.8042933277988
 21
330.1650689088599
 31
0.0000000000000000
  0
LINE
  5
9A
100
AcDbEntity
  8
MAIN0
  6
CONTINUOUS
 62
3
100
AcDbLine
 10
174.8126235769965
 20
337.0980816107522
 30
0.0000000000000000
 11
177.5446743845654
 21
336.3660308031833
 31
0.0000000000000000
  0
LINE
  5
9B
100
AcDbEntity
  8
MAIN0
  6
CONTINUOUS
 62
3
100
AcDbLine
 10
222.4440207851406
 20
364.5980816107521
 30
0.0000000000000000
 11
221.7119699775718
 21
361.8660308031832
 31
0.0000000000000000
  0
LINE
  5
9C
100
AcDbEntity
  8
MAIN0
  6
CONTINUOUS
 62
3
100
AcDbLine
 10
252.1667218028304
 20
230.6101642688889
 30
0.0000000000000000
 11
257.1667218028302
 21
230.6101642688889
 31
0.0000000000000000
  0
LINE
  5
9D
100
AcDbEntity
  8
MAIN0
  6
CONTINUOUS
 62
12
100
AcDbLine
 10
221.1667218028312
 20
270.1101642688888
 30
0.0000000000000000
 11
221.1667218028312
 21
273.3101642688887
 31
0.0000000000000000
  0
LINE
  5
9E
100
AcDbEntity
  8
MAIN0
  6
CONTINUOUS
 62
3
100
AcDbLine
 10
221.7167218028312
 20
270.1101642688888
 30
0.0000000000000000
 11
221.7167218028312
 21
273.3101642688887
 31
0.0000000000000000
  0
LINE
  5
9F
100
AcDbEntity
  8
MAIN0
  6
CONTINUOUS
 62
12
100
AcDbLine
 10
233.1667218028312
 20
270.1101642688888
 30
0.0000000000000000
 11
233.1667218028312
 21
273.3101642688887
 31
0.0000000000000000
  0
LINE
  5
A0
100
AcDbEntity
  8
MAIN0
  6
CONTINUOUS
 62
3
100
AcDbLine
 10
232.6167218028311
 20
270.1101642688888
 30
0.0000000000000000
 11
232.6167218028311
 21
273.3101642688887
 31
0.0000000000000000
  0
LINE
  5
A1
100
AcDbEntity
  8
MAIN0
  6
CONTINUOUS
 62
3
100
AcDbLine
 10
193.1667218028312
 20
273.3101642688887
 30
0.0000000000000000
 11
248.1667218028313
 21
273.3101642688887
 31
0.0000000000000000
  0
LINE
  5
A2
100
AcDbEntity
  8
MAIN0
  6
CONTINUOUS
 62
3
100
AcDbLine
 10
193.1667218028312
 20
270.1101642688888
 30
0.0000000000000000
 11
263.1667218028309
 21
270.1101642688888
 31
0.0000000000000000
  0
LINE
  5
A3
100
AcDbEntity
  8
MAIN0
  6
CONTINUOUS
 62
3
100
AcDbLine
 10
206.1667218028310
 20
269.6101642688888
 30
0.0000000000000000
 11
277.1667218028310
 21
269.6101642688888
 31
0.0000000000000000
  0
LINE
  5
A4
100
AcDbEntity
  8
MAIN0
  6
CONTINUOUS
 62
3
100
AcDbLine
 10
206.1667218028310
 20
269.1101642688888
 30
0.0000000000000000
 11
281.6949250331063
 21
269.1101642688888
 31
0.0000000000000000
  0
LINE
  5
A5
100
AcDbEntity
  8
MAIN0
  6
CONTINUOUS
 62
3
100
AcDbLine
 10
218.1667218028309
 20
264.1101642688888
 30
0.0000000000000000
 11
272.1667218028309
 21
264.1101642688888
 31
0.0000000000000000
  0
ARC
  5
A6
100
AcDbEntity
  8
MAIN0
  6
CONTINUOUS
 62
3
100
AcDbCircle
 10
267.1667218028309
 20
236.6101642688888
 30
0.0000000000000000
 40
1.000000000000000
100
AcDbArc
 50
129.2671247915284
 51
179.9999999999998
  0
ARC
  5
A7
100
AcDbEntity
  8
MAIN0
  6
CONTINUOUS
 62
3
100
AcDbCircle
 10
267.1667218028309
 20
213.6101642688890
 30
0.0000000000000000
 40
1.000000000000000
100
AcDbArc
 50
179.9999999999998
 51
217.9216996238017
  0
CIRCLE
  5
A8
100
AcDbEntity
  8
MAIN0
  6
CONTINUOUS
 62
3
100
AcDbCircle
 10
61.19343420957128
 20
352.6110817709107
 30
0.0000000000000000
 40
5.000000000000000
  0
ARC
  5
A9
100
AcDbEntity
  8
MAIN0
  6
CONTINUOUS
 62
3
100
AcDbCircle
 10
61.19343420957128
 20
311.6110817709107
 30
0.0000000000000000
 40
2.750000000000000
100
AcDbArc
 50
179.9999999999998
 51
359.9999999999998
  0
ARC
  5
AA
100
AcDbEntity
  8
MAIN0
  6
CONTINUOUS
 62
12
100
AcDbCircle
 10
77.19343420957128
 20
338.6110817709107
 30
0.0000000000000000
 40
6.000000000000000
100
AcDbArc
 50
89.99999999999970
 51
269.9999999999999
  0
ARC
  5
AB
100
AcDbEntity
  8
MAIN0
  6
CONTINUOUS
 62
3
100
AcDbCircle
 10
77.19343420957128
 20
338.6110817709107
 30
0.0000000000000000
 40
5.000000000000000
100
AcDbArc
 50
89.99999999999970
 51
269.9999999999999
  0
ARC
  5
AC
100
AcDbEntity
  8
MAIN0
  6
CONTINUOUS
 62
3
100
AcDbCircle
 10
93.19343420957131
 20
352.6110817709107
 30
0.0000000000000000
 40
2.750000000000000
100
AcDbArc
 50
0.0000000000000000
 51
179.9999999999998
  0
ARC
  5
AD
100
AcDbEntity
  8
MAIN0
  6
CONTINUOUS
 62
3
100
AcDbCircle
 10
93.19343420957131
 20
338.6110817709107
 30
0.0000000000000000
 40
2.750000000000000
100
AcDbArc
 50
179.9999999999998
 51
359.9999999999998
  0
ARC
  5
AE
100
AcDbEntity
  8
MAIN0
  6
CONTINUOUS
 62
3
100
AcDbCircle
 10
93.19343420957131
 20
324.6110817709107
 30
0.0000000000000000
 40
2.750000000000000
100
AcDbArc
 50
179.9999999999998
 51
359.9999999999998
  0
ARC
  5
AF
100
AcDbEntity
  8
MAIN0
  6
HIDDEN
 62
12
100
AcDbCircle
 10
77.19343420957128
 20
364.6110817709107
 30
0.0000000000000000
 40
7.000000000000000
100
AcDbArc
 50
0.0000000000000000
 51
89.99999999999970
  0
ARC
  5
B0
100
AcDbEntity
  8
MAIN0
  6
CONTINUOUS
 62
3
100
AcDbCircle
 10
77.19343420957128
 20
350.6110817709107
 30
0.0000000000000000
 40
7.000000000000000
100
AcDbArc
 50
0.0000000000000000
 51
89.99999999999970
  0
ARC
  5
B1
100
AcDbEntity
  8
MAIN0
  6
CONTINUOUS
 62
3
100
AcDbCircle
 10
77.19343420957128
 20
339.6110817709107
 30
0.0000000000000000
 40
7.000000000000000
100
AcDbArc
 50
269.9999999999999
 51
359.9999999999998
  0
ARC
  5
B2
100
AcDbEntity
  8
MAIN0
  6
CONTINUOUS
 62
3
100
AcDbCircle
 10
202.1235127094519
 20
359.7942340334589
 30
0.0000000000000000
 40
2.750000000000000
100
AcDbArc
 50
299.9999946766659
 51
480.0000086929682
  0
ARC
  5
B3
100
AcDbEntity
  8
MAIN0
  6
CONTINUOUS
 62
3
100
AcDbCircle
 10
189.9991570564698
 20
352.7942340334589
 30
0.0000000000000000
 40
2.750000000000000
100
AcDbArc
 50
299.9999942501418
 51
480.0000048595168
  0
ARC
  5
B4
100
AcDbEntity
  8
MAIN0
  6
CONTINUOUS
 62
3
100
AcDbCircle
 10
177.8748014034876
 20
345.7942340334589
 30
0.0000000000000000
 40
2.750000000000000
100
AcDbArc
 50
120.0000058495738
 51
299.9999955874897
  0
ARC
  5
B5
100
AcDbEntity
  8
MAIN0
  6
CONTINUOUS
 62
3
100
AcDbCircle
 10
197.3818429586495
 20
394.0070469545609
 30
0.0000000000000000
 40
2.750000000000000
100
AcDbArc
 50
299.9999999999998
 51
480.0000123247905
  0
CIRCLE
  5
B6
100
AcDbEntity
  8
MAIN0
  6
CONTINUOUS
 62
3
100
AcDbCircle
 10
161.8748014034876
 20
373.5070469545609
 30
0.0000000000000000
 40
5.000000000000000
  0
ARC
  5
B7
100
AcDbEntity
  8
MAIN0
  6
CONTINUOUS
 62
3
100
AcDbCircle
 10
192.3914619018830
 20
372.6506404940099
 30
0.0000000000000000
 40
7.000000000000000
100
AcDbArc
 50
299.9999999999998
 51
390.0000000000008
  0
ARC
  5
B8
100
AcDbEntity
  8
MAIN0
  6
HIDDEN
 62
12
100
AcDbCircle
 10
170.7408268072720
 20
360.1506404940099
 30
0.0000000000000000
 40
7.000000000000000
100
AcDbArc
 50
209.9999999999996
 51
299.9999999999997
  0
ARC
  5
B9
100
AcDbEntity
  8
MAIN0
  6
CONTINUOUS
 62
3
100
AcDbCircle
 10
182.8651824602541
 20
367.1506404940099
 30
0.0000000000000000
 40
7.000000000000000
100
AcDbArc
 50
209.9999999999996
 51
299.9999999999997
  0
ARC
  5
BA
100
AcDbEntity
  8
MAIN0
  6
CONTINUOUS
 62
3
100
AcDbCircle
 10
193.2574873056674
 20
373.1506404940099
 30
0.0000000000000000
 40
5.000000000000000
100
AcDbArc
 50
30.00000000000010
 51
210.0000000000000
  0
ARC
  5
BB
100
AcDbEntity
  8
MAIN0
  6
CONTINUOUS
 62
12
100
AcDbCircle
 10
193.2574873056674
 20
373.1506404940099
 30
0.0000000000000000
 40
6.000000000000000
100
AcDbArc
 50
30.00000000000009
 51
210.0000000000000
  0
ARC
  5
BC
100
AcDbEntity
  8
MAIN0
  6
CENTER
 62
12
100
AcDbCircle
 10
157.7504457505054
 20
352.6506404940099
 30
0.0000000000000000
 40
5.000000000000000
100
AcDbArc
 50
30.00000000000010
 51
210.0000000000000
  0
ARC
  5
BD
100
AcDbEntity
  8
MAIN0
  6
CENTER
 62
12
100
AcDbCircle
 10
157.7504457505054
 20
352.6506404940099
 30
0.0000000000000000
 40
6.000000000000000
100
AcDbArc
 50
30.00000000000009
 51
210.0000000000000
  0
ARC
  5
BE
100
AcDbEntity
  8
MAIN0
  6
CENTER
 62
12
100
AcDbCircle
 10
77.19343420957128
 20
379.6110817709107
 30
0.0000000000000000
 40
6.000000000000000
100
AcDbArc
 50
89.99999999999970
 51
269.9999999999999
  0
ARC
  5
BF
100
AcDbEntity
  8
MAIN0
  6
CENTER
 62
12
100
AcDbCircle
 10
77.19343420957128
 20
379.6110817709107
 30
0.0000000000000000
 40
5.000000000000000
100
AcDbArc
 50
89.99999999999970
 51
269.9999999999999
  0
MTEXT
  5
C0
100
AcDbEntity
  8
MAIN0
  6
CONTINUOUS
 62
4
100
AcDbMText
 10
293.6144302765106
 20
216.0546008000133
 30
0.0000000000000000
 40
5.000000000000000
 41
0.0000000000000000
 71
     1
 72
     1
  1
{\H0.67x;{A}}
 11
1.000000000000000
 21
0.0000000000000000
 31
0.0000000000000000
  7
STANDARD
  0
MTEXT
  5
C1
100
AcDbEntity
  8
MAIN0
  6
CONTINUOUS
 62
4
100
AcDbMText
 10
325.6546583470878
 20
247.8082140177524
 30
0.0000000000000000
 40
5.000000000000000
 41
0.0000000000000000
 71
     1
 72
     1
  1
{\H0.94x;{B}}
 11
1.000000000000000
 21
0.0000000000000000
 31
0.0000000000000000
  7
STANDARD
  0
MTEXT
  5
C2
100
AcDbEntity
  8
MAIN0
  6
CONTINUOUS
 62
4
100
AcDbMText
 10
482.4226036955699
 20
349.3322272731345
 30
0.0000000000000000
 40
3.100000381469727
 41
0.0000000000000000
 71
     1
 72
     1
  1
{\H0.95x;{MIN 25}}
 11
1.000000000000000
 21
0.0000000000000000
 31
0.0000000000000000
  7
STANDARD
  0
MTEXT
  5
C3
100
AcDbEntity
  8
MAIN0
  6
CONTINUOUS
 62
4
100
AcDbMText
 10
313.7615096539267
 20
177.7919316126113
 30
0.0000000000000000
 40
5.000000000000000
 41
0.0000000000000000
 71
     1
 72
     1
  1
{\H0.94x;{D}}
 11
1.000000000000000
 21
0.0000000000000000
 31
0.0000000000000000
  7
STANDARD
  0
MTEXT
  5
C4
100
AcDbEntity
  8
MAIN0
  6
CONTINUOUS
 62
4
100
AcDbMText
 10
316.1161653774478
 20
177.2098707444988
 30
0.0000000000000000
 40
5.000000000000000
 41
0.0000000000000000
 71
     1
 72
     1
  1
{\H0.94x;{ｒ}}
 11
1.000000000000000
 21
0.0000000000000000
 31
0.0000000000000000
  7
KNJYOKO
  0
SPLINE
  5
C5
100
AcDbEntity
  8
MAIN0
  6
CONTINUOUS
 62
12
100
AcDbSpline
210
0.0000000000000000
220
0.0000000000000000
230
1.000000000000000
 70
     8
 71
     3
 72
    16
 73
    12
 74
     0
 42
1.000000000000000e-007
 43
1.000000000000000e-007
 12
-0.4535138877230338
 22
-0.8927338131202021
 32
0.0000000000000000
 13
0.5845201992987654
 23
-0.8072703160992489
 33
0.0000000000000000
 40
0.0000000000000000
 40
0.0000000000000000
 40
0.0000000000000000
 40
0.0000000000000000
 40
4.108144872005667
 40
10.28682285024488
 40
16.59329199987451
 40
22.99245288138582
 40
35.56256616117412
 40
44.11884188708427
 40
51.01590671080260
 40
56.98410170811133
 40
60.57655508998209
 40
60.57655508998209
 40
60.57655508998209
 40
60.57655508998209
 10
473.1657803575450
 20
255.2557844299998
 30
0.0000000000000000
 10
472.5447467734674
 20
254.0332911511878
 30
0.0000000000000000
 10
470.9896744324233
 20
250.9721596218570
 30
0.0000000000000000
 10
468.9801647654584
 20
245.8463732117628
 30
0.0000000000000000
 10
465.3467761344999
 20
240.4269864454457
 30
0.0000000000000000
 10
465.8380068657497
 20
231.7520252389866
 30
0.0000000000000000
 10
463.6071579084894
 20
222.6889955595835
 30
0.0000000000000000
 10
465.4860908099535
 20
213.5063738842018
 30
0.0000000000000000
 10
466.4875030308223
 20
206.1831878418348
 30
0.0000000000000000
 10
470.4860150752415
 20
202.1587196226715
 30
0.0000000000000000
 10
472.3488124405826
 20
199.5860437429463
 30
0.0000000000000000
 10
473.0487662961635
 20
198.6193500838947
 30
0.0000000000000000
  0
SPLINE
  5
C6
100
AcDbEntity
  8
MAIN0
  6
CONTINUOUS
 62
12
100
AcDbSpline
210
0.0000000000000000
220
0.0000000000000000
230
1.000000000000000
 70
     8
 71
     3
 72
    14
 73
    10
 74
     0
 42
1.000000000000000e-007
 43
1.000000000000000e-007
 12
-0.9654389218309802
 22
-0.2599025755489777
 32
0.0000000000000000
 13
-0.5973387721509766
 23
-0.8311212434984441
 33
0.0000000000000000
 40
0.0000000000000000
 40
0.0000000000000000
 40
0.0000000000000000
 40
0.0000000000000000
 40
4.556926230153099
 40
14.88779326189289
 40
29.96557833347174
 40
38.87676571201314
 40
48.21126120577333
 40
57.37528871133327
 40
61.33879962054789
 40
61.33879962054789
 40
61.33879962054789
 40
61.33879962054789
 10
473.0487662961635
 20
189.5505301932745
 30
0.0000000000000000
 10
471.5822883139961
 20
189.1557445720067
 30
0.0000000000000000
 10
466.7912032889281
 20
187.8659526343380
 30
0.0000000000000000
 10
457.3902860777872
 20
184.3172383557983
 30
0.0000000000000000
 10
444.7942629432998
 20
187.3453498548969
 30
0.0000000000000000
 10
436.3892872959000
 20
178.8447403735283
 30
0.0000000000000000
 10
432.3279769385395
 20
170.4275176456391
 30
0.0000000000000000
 10
433.8574929837718
 20
162.3396822908578
 30
0.0000000000000000
 10
431.2436304244232
 20
158.7028236070708
 30
0.0000000000000000
 10
430.4544441777841
 20
157.6047709019088
 30
0.0000000000000000
  0
SPLINE
  5
C7
100
AcDbEntity
  8
MAIN0
  6
CONTINUOUS
 62
12
100
AcDbSpline
210
0.0000000000000000
220
0.0000000000000000
230
1.000000000000000
 70
     8
 71
     3
 72
    23
 73
    19
 74
     0
 42
1.000000000000000e-007
 43
1.000000000000000e-007
 12
-0.2175376390833321
 22
-0.9767411404779836
 32
0.0000000000000000
 13
0.2011474385650445
 23
-0.9808785619137836
 33
0.0000000000000000
 40
0.0000000000000000
 40
0.0000000000000000
 40
0.0000000000000000
 40
0.0000000000000000
 40
7.377772860595822
 40
13.70573744429625
 40
19.85556188338182
 40
23.41931380750930
 40
28.17160602177569
 40
31.71904909538989
 40
35.40941351737729
 40
40.70725785348634
 40
47.47488798281347
 40
55.65916308372175
 40
64.75913762343669
 40
71.31429019254784
 40
77.01225171426364
 40
83.31077041603624
 40
94.59176936342300
 40
97.51439565305907
 40
97.51439565305907
 40
97.51439565305907
 40
97.51439565305907
 10
279.3946367680368
 20
269.1290194644636
 30
0.0000000000000000
 10
278.8596556714412
 20
266.7269613717817
 30
0.0000000000000000
 10
277.8658177495984
 20
262.2646421643039
 30
0.0000000000000000
 10
275.6485668298749
 20
256.0076177134152
 30
0.0000000000000000
 10
277.1287932357785
 20
250.1068125749694
 30
0.0000000000000000
 10
273.2183312130467
 20
246.5900233605237
 30
0.0000000000000000
 10
268.4249224599130
 20
246.3992332853539
 30
0.0000000000000000
 10
268.0600701206498
 20
241.8154033646281
 30
0.0000000000000000
 10
265.8327968251106
 20
238.1490613305058
 30
0.0000000000000000
 10
267.8350186653717
 20
232.7822854623722
 30
0.0000000000000000
 10
267.8822222142009
 20
226.0841519935600
 30
0.0000000000000000
 10
267.0632413370374
 20
218.1114828035431
 30
0.0000000000000000
 10
265.6066085818527
 20
210.1376024218137
 30
0.0000000000000000
 10
268.6944127877713
 20
203.1089671242315
 30
0.0000000000000000
 10
274.4809987745970
 20
200.1354913948586
 30
0.0000000000000000
 10
277.3729942156929
 20
192.4789076209146
 30
0.0000000000000000
 10
278.2463362257670
 20
185.8052172674471
 30
0.0000000000000000
 10
279.1986771706891
 20
181.1612067686291
 30
0.0000000000000000
 10
279.3946367680368
 20
180.2056262779659
 30
0.0000000000000000
  0
LEADER
  5
C8
100
AcDbEntity
  8
MAIN10
  6
CONTINUOUS
 62
12
100
AcDbLeader
  3
MAIN001
 73
     0
 74
     0
 75
     1
 40
3.100000381469727
 41
18.70100076293943
 76
     3
 10
490.4910388953000
 20
215.1101642688894
 30
0.0000000000000000
 10
500.5047446146417
 20
197.7659171909465
 30
0.0000000000000000
 10
502.4397451143670
 20
197.7659171909465
 30
0.0000000000000000
340
C9
213
-0.001000000000033197
223
-0.5000000000000000
233
0.0000000000000000
1001
ACAD
1000
DSTYLE
1002
{
1070
   147
1040
0.0
1070
    77
1070
     1
1070
   173
1070
     1
1070
     6
1000
_OPEN
1070
     7
1000
_OPEN
1002
}
  0
MTEXT
  5
C9
102
{ACAD_REACTORS
330
C8
102
}
100
AcDbEntity
  8
MAIN10
  6
CONTINUOUS
 62
4
100
AcDbMText
 10
502.4407451143671
 20
201.3659175724162
 30
0.0000000000000000
 40
3.100000381469727
 41
0.0000000000000000
 71
     1
 72
     1
  1
{\H0.93x;{M20×2.5}}
 11
1.000000000000000
 21
0.0000000000000000
 31
0.0000000000000000
  7
KNJYOKO
  0
DIMENSION
  5
D4
100
AcDbEntity
  8
MAIN10
  6
CONTINUOUS
 62
12
100
AcDbDimension
  2
*D0
 10
508.1667218028306
 20
247.7832502307118
 30
0.0000000000000000
 11
509.4667219935654
 21
248.7832502307118
 31
0.0000000000000000
 70
32
  3
MAIN001
100
AcDbAlignedDimension
 13
513.1667218028306
 23
239.4101642808099
 33
0.0000000000000000
 14
508.1667218028306
 24
236.4101642808099
 34
0.0000000000000000
100
AcDbRotatedDimension
1001
ACAD
1000
DSTYLE
1002
{
1070
   173
1070
     1
1070
     6
1000
_OPEN
1070
     7
1000
_OPEN
1070
    41
1040
1.910672
1070
   287
1070
     0
1002
}
  0
LEADER
  5
D5
100
AcDbEntity
  8
MAIN10
  6
CONTINUOUS
 62
12
100
AcDbLeader
  3
MAIN001
 73
     0
 75
     1
 40
3.100000381469727
 41
13.59900038146975
 76
     3
 10
303.6638157326735
 20
182.5291700238532
 30
0.0000000000000000
 10
297.1852724615331
 20
168.6358891440720
 30
0.0000000000000000
 10
295.2482719618078
 20
168.6358891440720
 30
0.0000000000000000
340
D6
213
0.0000000000000000
223
-0.5000000000000000
233
0.0000000000000000
1001
ACAD
1000
DSTYLE
1002
{
1070
   147
1040
0.0
1070
    77
1070
     1
1070
   173
1070
     1
1070
     6
1000
_OPEN
1070
     7
1000
_OPEN
1002
}
  0
MTEXT
  5
D6
102
{ACAD_REACTORS
330
D5
102
}
100
AcDbEntity
  8
MAIN10
  6
CONTINUOUS
 62
4
100
AcDbMText
 10
281.6492715803380
 20
172.2358895255417
 30
0.0000000000000000
 40
3.100000381469727
 41
0.0000000000000000
 71
     1
 72
     1
  1
{\H0.92x;{Rc1/4}}
 11
1.000000000000000
 21
0.0000000000000000
 31
0.0000000000000000
  7
STANDARD
  0
DIMENSION
  5
DF
100
AcDbEntity
  8
MAIN10
  6
CONTINUOUS
 62
12
100
AcDbDimension
  2
*D1
 10
100.1859917937759
 20
162.1018015399838
 30
0.0000000000000000
 11
116.0472113617804
 21
163.1018015399838
 31
0.0000000000000000
 70
160
  1
\A1;\U+220530
  3
MAIN001
100
AcDbAlignedDimension
 13
130.1859917937759
 23
181.3101641393456
 33
0.0000000000000000
 14
100.1859917937759
 24
181.3101637983907
 34
0.0000000000000000
100
AcDbRotatedDimension
1001
ACAD
1000
DSTYLE
1002
{
1070
   173
1070
     1
1070
     6
1000
_OPEN
1070
     7
1000
_OPEN
1070
    41
1040
1.910672
1002
}
  0
DIMENSION
  5
E8
100
AcDbEntity
  8
MAIN10
  6
CONTINUOUS
 62
12
100
AcDbDimension
  2
*D2
 10
155.1859917937758
 20
152.1018015399837
 30
0.0000000000000000
 11
132.5859923659804
 21
153.1018015399837
 31
0.0000000000000000
 70
32
  3
MAIN001
100
AcDbAlignedDimension
 13
115.1859917937758
 23
170.2595881637129
 33
0.0000000000000000
 14
155.1859917937758
 24
198.2558484982906
 34
0.0000000000000000
100
AcDbRotatedDimension
1001
ACAD
1000
DSTYLE
1002
{
1070
   173
1070
     1
1070
     6
1000
_OPEN
1070
     7
1000
_OPEN
1070
    41
1040
1.910672
1002
}
  0
DIMENSION
  5
F1
100
AcDbEntity
  8
MAIN10
  6
CONTINUOUS
 62
12
100
AcDbDimension
  2
*D3
 10
115.1859917937758
 20
152.1018015399837
 30
0.0000000000000000
 11
92.58599236598042
 21
153.1018015399837
 31
0.0000000000000000
 70
32
  3
MAIN001
100
AcDbAlignedDimension
 13
75.18599179377583
 23
198.2558484982906
 33
0.0000000000000000
 14
115.1859917937758
 24
170.2595881637129
 34
0.0000000000000000
100
AcDbRotatedDimension
1001
ACAD
1000
DSTYLE
1002
{
1070
   173
1070
     1
1070
     6
1000
_OPEN
1070
     7
1000
_OPEN
1070
    41
1040
1.910672
1002
}
  0
DIMENSION
  5
F9
100
AcDbEntity
  8
MAIN10
  6
CONTINUOUS
 62
12
100
AcDbDimension
  2
*D4
 10
331.8592100307220
 20
211.1101642688889
 30
0.0000000000000000
 11
330.8592100307220
 21
222.5101648410935
 31
0.0000000000000000
 70
32
  3
MAIN001
100
AcDbAlignedDimension
 13
301.0609320493031
 23
239.1101642688889
 33
0.0000000000000000
 14
317.3946991815562
 24
211.1101642688889
 34
0.0000000000000000
 50
90.00000000000000
100
AcDbRotatedDimension
1001
ACAD
1000
DSTYLE
1002
{
1070
   173
1070
     1
1070
     6
1000
_OPEN
1070
     7
1000
_OPEN
1070
    41
1040
1.910672
1002
}
  0
LEADER
  5
FA
100
AcDbEntity
  8
MAIN10
  6
CONTINUOUS
 62
12
100
AcDbLeader
  3
MAIN001
 73
     0
 74
     0
 75
     1
 40
3.100000381469727
 41
19.20100076293949
 76
     3
 10
318.3229432675799
 20
247.1572923277029
 30
0.0000000000000000
 10
330.2701232375945
 20
291.7447749829664
 30
0.0000000000000000
 10
332.2051237373198
 20
291.7447749829664
 30
0.0000000000000000
340
FB
213
-0.001000000000033197
223
-0.5000000000000000
233
0.0000000000000000
1001
ACAD
1000
DSTYLE
1002
{
1070
   147
1040
0.0
1070
    77
1070
     1
1070
   173
1070
     1
1070
     6
1000
_OPEN
1070
     7
1000
_OPEN
1002
}
  0
MTEXT
  5
FB
102
{ACAD_REACTORS
330
FA
102
}
100
AcDbEntity
  8
MAIN10
  6
CONTINUOUS
 62
4
100
AcDbMText
 10
332.2061237373198
 20
295.3447753644362
 30
0.0000000000000000
 40
3.100000381469727
 41
0.0000000000000000
 71
     1
 72
     1
  1
{\H0.93x;{2-Rc3/8}}
 11
1.000000000000000
 21
0.0000000000000000
 31
0.0000000000000000
  7
STANDARD
  0
DIMENSION
  5
104
100
AcDbEntity
  8
MAIN10
  6
CONTINUOUS
 62
12
100
AcDbDimension
  2
*D5
 10
42.83685042899214
 20
304.6110817709107
 30
0.0000000000000000
 11
41.83685042899214
 21
316.3110817709107
 31
0.0000000000000000
 70
32
  1
\A1;MAX 23
  3
MAIN001
100
AcDbAlignedDimension
 13
46.76956015202438
 23
328.0110817709107
 33
0.0000000000000000
 14
55.19343420957137
 24
304.6110817709107
 34
0.0000000000000000
 50
90.00000000000000
100
AcDbRotatedDimension
1001
ACAD
1000
DSTYLE
1002
{
1070
   173
1070
     1
1070
     6
1000
_OPEN
1070
     7
1000
_OPEN
1070
    41
1040
1.910672
1002
}
  0
DIMENSION
  5
10D
100
AcDbEntity
  8
MAIN10
  6
CONTINUOUS
 62
12
100
AcDbDimension
  2
*D6
 10
42.83685042899214
 20
328.0110817709107
 30
0.0000000000000000
 11
41.83685042899214
 21
333.3110817709107
 31
0.0000000000000000
 70
32
  1
\A1;11
  3
MAIN001
100
AcDbAlignedDimension
 13
65.90678336940192
 23
338.6110817709107
 33
0.0000000000000000
 14
46.76956015202438
 24
328.0110817709107
 34
0.0000000000000000
 50
90.00000000000000
100
AcDbRotatedDimension
1001
ACAD
1000
DSTYLE
1002
{
1070
   173
1070
     1
1070
     6
1000
_OPEN
1070
     7
1000
_OPEN
1070
    41
1040
1.910672
1002
}
  0
DIMENSION
  5
116
100
AcDbEntity
  8
MAIN10
  6
CONTINUOUS
 62
12
100
AcDbDimension
  2
*D7
 10
42.83685042899214
 20
338.6110817709107
 30
0.0000000000000000
 11
42.33685042899214
 21
359.1110817709107
 31
0.0000000000000000
 70
32
  3
MAIN001
100
AcDbAlignedDimension
 13
65.90678336940192
 23
379.6110817709107
 33
0.0000000000000000
 14
65.90678336940192
 24
338.6110817709107
 34
0.0000000000000000
 50
90.00000000000000
100
AcDbRotatedDimension
1001
ACAD
1000
DSTYLE
1002
{
1070
   173
1070
     1
1070
     6
1000
_OPEN
1070
     7
1000
_OPEN
1070
    41
1040
1.910672
1002
}
  0
DIMENSION
  5
11F
100
AcDbEntity
  8
MAIN10
  6
CONTINUOUS
 62
12
100
AcDbDimension
  2
*D8
 10
110.4961373256867
 20
366.4975035623259
 30
0.0000000000000000
 11
113.0272288818320
 21
369.1135304919892
 31
0.0000000000000000
 70
32
  1
\A1;MAX 23
  3
MAIN001
100
AcDbAlignedDimension
 13
134.5089102063006
 23
371.7061609024904
 33
0.0000000000000000
 14
117.3055820218346
 24
354.7031993772673
 34
0.0000000000000000
 50
30.00000000000020
100
AcDbRotatedDimension
1001
ACAD
1000
DSTYLE
1002
{
1070
   173
1070
     1
1070
     6
1000
_OPEN
1070
     7
1000
_OPEN
1070
    41
1040
1.910672
1002
}
  0
DIMENSION
  5
128
100
AcDbEntity
  8
MAIN10
  6
CONTINUOUS
 62
12
100
AcDbDimension
  2
*D9
 10
130.7611317742425
 20
378.1975035623260
 30
0.0000000000000000
 11
132.5994008600042
 21
380.4135292522126
 31
0.0000000000000000
 70
32
  1
\A1;11
  3
MAIN001
100
AcDbAlignedDimension
 13
151.4999661371613
 23
363.4767887559954
 33
0.0000000000000000
 14
134.5089102063006
 24
371.7061609024904
 34
0.0000000000000000
 50
30.00000000000008
100
AcDbRotatedDimension
1001
ACAD
1000
DSTYLE
1002
{
1070
   173
1070
     1
1070
     6
1000
_OPEN
1070
     7
1000
_OPEN
1070
    41
1040
1.910672
1002
}
  0
DIMENSION
  5
131
100
AcDbEntity
  8
MAIN10
  6
CONTINUOUS
 62
12
100
AcDbDimension
  2
*D10
 10
139.9410010543576
 20
383.4975035623260
 30
0.0000000000000000
 11
154.9428562776427
 21
393.3135292522127
 31
0.0000000000000000
 70
33
  3
MAIN001
100
AcDbAlignedDimension
 13
187.0070076923232
 23
383.9767887559954
 33
0.0000000000000000
 14
151.4999661371613
 24
363.4767887559954
 34
0.0000000000000000
 50
30.00000000000007
1001
ACAD
1000
DSTYLE
1002
{
1070
   173
1070
     1
1070
     6
1000
_OPEN
1070
     7
1000
_OPEN
1070
    41
1040
1.910672
1002
}
  0
DIMENSION
  5
13A
100
AcDbEntity
  8
MAIN10
  6
CONTINUOUS
 62
12
100
AcDbDimension
  2
*D11
 10
305.1667218028307
 20
330.0054370259952
 30
0.0000000000000000
 11
308.0667223750353
 21
331.0054370259952
 31
0.0000000000000000
 70
32
  3
MAIN001
100
AcDbAlignedDimension
 13
316.1667218028307
 23
254.0715429571986
 33
0.0000000000000000
 14
305.1667218028307
 24
228.1818720813747
 34
0.0000000000000000
100
AcDbRotatedDimension
1001
ACAD
1000
DSTYLE
1002
{
1070
   173
1070
     1
1070
     6
1000
_OPEN
1070
     7
1000
_OPEN
1070
    41
1040
1.910672
1002
}
  0
DIMENSION
  5
144
100
AcDbEntity
  8
MAIN10
  6
CONTINUOUS
 62
12
100
AcDbDimension
  2
*D12
 10
290.1667218028285
 20
330.0054370259952
 30
0.0000000000000000
 11
272.7667279063442
 21
331.0054370259952
 31
0.0000000000000000
 70
160
  1
\A1;MIN 15
  3
MAIN001
100
AcDbAlignedDimension
 13
305.1667218028307
 23
228.1818720813747
 33
0.0000000000000000
 14
290.1667218028285
 24
270.4101642808096
 34
0.0000000000000000
100
AcDbRotatedDimension
1001
ACAD
1000
DSTYLE
1002
{
1070
   173
1070
     1
1070
     6
1000
_OPEN
1070
     7
1000
_OPEN
1070
    41
1040
1.910672
1002
}
  0
DIMENSION
  5
14D
100
AcDbEntity
  8
MAIN10
  6
CONTINUOUS
 62
12
100
AcDbDimension
  2
*D13
 10
165.0216284023164
 20
180.1101642688892
 30
0.0000000000000000
 11
164.0216284023164
 21
200.0101648410937
 31
0.0000000000000000
 70
32
  3
MAIN001
100
AcDbAlignedDimension
 13
161.2936876559251
 23
225.1101642688889
 33
0.0000000000000000
 14
128.9859918056968
 24
180.1101642688892
 34
0.0000000000000000
 50
90.00000000000000
100
AcDbRotatedDimension
1001
ACAD
1000
DSTYLE
1002
{
1070
   173
1070
     1
1070
     6
1000
_OPEN
1070
     7
1000
_OPEN
1070
    41
1040
1.910672
1002
}
  0
DIMENSION
  5
156
100
AcDbEntity
  8
MAIN10
  6
CONTINUOUS
 62
12
100
AcDbDimension
  2
*D14
 10
310.1667218028308
 20
138.0525618105235
 30
0.0000000000000000
 11
385.1667218028308
 21
139.0525618105235
 31
0.0000000000000000
 70
32
  3
MAIN001
100
AcDbAlignedDimension
 13
468.1667218028306
 23
158.8101642569681
 33
0.0000000000000000
 14
310.1667218028308
 24
171.1755499576050
 34
0.0000000000000000
100
AcDbRotatedDimension
1001
ACAD
1000
DSTYLE
1002
{
1070
   173
1070
     1
1070
     6
1000
_OPEN
1070
     7
1000
_OPEN
1070
    41
1040
1.910672
1002
}
  0
DIMENSION
  5
15F
100
AcDbEntity
  8
MAIN10
  6
CONTINUOUS
 62
12
100
AcDbDimension
  2
*D15
 10
316.1667218028307
 20
330.0054370259952
 30
0.0000000000000000
 11
388.1667218028307
 21
331.0054370259952
 31
0.0000000000000000
 70
32
  3
MAIN001
100
AcDbAlignedDimension
 13
468.1667218028306
 23
291.4101642808097
 33
0.0000000000000000
 14
316.1667218028307
 24
254.0715429571986
 34
0.0000000000000000
100
AcDbRotatedDimension
1001
ACAD
1000
DSTYLE
1002
{
1070
   173
1070
     1
1070
     6
1000
_OPEN
1070
     7
1000
_OPEN
1070
    41
1040
1.910672
1002
}
  0
DIMENSION
  5
168
100
AcDbEntity
  8
MAIN10
  6
CONTINUOUS
 62
12
100
AcDbDimension
  2
*D16
 10
216.1667218028310
 20
340.0054370259952
 30
0.0000000000000000
 11
293.6667218028308
 21
341.0054370259952
 31
0.0000000000000000
 70
32
  3
MAIN001
100
AcDbAlignedDimension
 13
379.1667218028309
 23
292.4101642808097
 33
0.0000000000000000
 14
216.1667218028310
 24
268.9101642808097
 34
0.0000000000000000
100
AcDbRotatedDimension
1001
ACAD
1000
DSTYLE
1002
{
1070
   173
1070
     1
1070
     6
1000
_OPEN
1070
     7
1000
_OPEN
1070
    41
1040
1.910672
1002
}
  0
DIMENSION
  5
171
100
AcDbEntity
  8
MAIN10
  6
CONTINUOUS
 62
12
100
AcDbDimension
  2
*D17
 10
379.1667218028309
 20
340.0054370259952
 30
0.0000000000000000
 11
421.0667223750354
 21
341.0054370259952
 31
0.0000000000000000
 70
32
  3
MAIN001
100
AcDbAlignedDimension
 13
468.1667218028306
 23
291.4101642808097
 33
0.0000000000000000
 14
379.1667218028309
 24
292.4101642808097
 34
0.0000000000000000
100
AcDbRotatedDimension
1001
ACAD
1000
DSTYLE
1002
{
1070
   173
1070
     1
1070
     6
1000
_OPEN
1070
     7
1000
_OPEN
1070
    41
1040
1.910672
1002
}
  0
DIMENSION
  5
17C
100
AcDbEntity
  8
MAIN10
  6
CONTINUOUS
 62
12
100
AcDbDimension
  2
*D18
 10
468.1667218028306
 20
340.0054370259952
 30
0.0000000000000000
 11
469.4667219935654
 21
341.0054370259952
 31
0.0000000000000000
 70
32
  3
MAIN001
100
AcDbAlignedDimension
 13
473.1667218028306
 23
265.9101642808097
 33
0.0000000000000000
 14
468.1667218028306
 24
291.4101642808097
 34
0.0000000000000000
100
AcDbRotatedDimension
1001
ACAD
1000
DSTYLE
1002
{
1070
   173
1070
     1
1070
     6
1000
_OPEN
1070
     7
1000
_OPEN
1070
    41
1040
1.910672
1070
   287
1070
     0
1002
}
  0
DIMENSION
  5
185
100
AcDbEntity
  8
MAIN10
  6
CONTINUOUS
 62
12
100
AcDbDimension
  2
*D19
 10
216.1667218028310
 20
350.0054370259952
 30
0.0000000000000000
 11
338.1667218028308
 21
351.0054370259952
 31
0.0000000000000000
 70
32
  3
MAIN001
100
AcDbAlignedDimension
 13
468.1667218028306
 23
291.4101642808097
 33
0.0000000000000000
 14
216.1667218028310
 24
268.9101642808097
 34
0.0000000000000000
100
AcDbRotatedDimension
1001
ACAD
1000
DSTYLE
1002
{
1070
   173
1070
     1
1070
     6
1000
_OPEN
1070
     7
1000
_OPEN
1070
    41
1040
1.910672
1002
}
  0
DIMENSION
  5
18E
100
AcDbEntity
  8
MAIN10
  6
CONTINUOUS
 62
12
100
AcDbDimension
  2
*D20
 10
468.1667218028306
 20
350.0054370259952
 30
0.0000000000000000
 11
482.4667248545884
 21
351.0054370259952
 31
0.0000000000000000
 70
32
  1
\A1;MAX 45
  3
MAIN001
100
AcDbAlignedDimension
 13
513.1667218028306
 23
239.4101642808099
 33
0.0000000000000000
 14
468.1667218028306
 24
291.4101642808097
 34
0.0000000000000000
100
AcDbRotatedDimension
1001
ACAD
1000
DSTYLE
1002
{
1070
   173
1070
     1
1070
     6
1000
_OPEN
1070
     7
1000
_OPEN
1070
    41
1040
1.910672
1002
}
  0
LEADER
  5
18F
100
AcDbEntity
  8
MAIN10
  6
CONTINUOUS
 62
12
100
AcDbLeader
  3
MAIN001
 73
     0
 74
     0
 75
     1
 40
3.100000381469727
 41
22.70100076293943
 76
     3
 10
457.8769127804239
 20
170.1101642688889
 30
0.0000000000000000
 10
487.2629109173321
 20
140.7241661319807
 30
0.0000000000000000
 10
489.1979114170574
 20
140.7241661319807
 30
0.0000000000000000
340
190
213
-0.001000000000033197
223
-0.5000000000000000
233
0.0000000000000000
1001
ACAD
1000
DSTYLE
1002
{
1070
   147
1040
0.0
1070
    77
1070
     1
1070
   173
1070
     1
1070
     6
1000
_OPEN
1070
     7
1000
_OPEN
1002
}
  0
MTEXT
  5
190
102
{ACAD_REACTORS
330
18F
102
}
100
AcDbEntity
  8
MAIN10
  6
CONTINUOUS
 62
4
100
AcDbMText
 10
489.1989114170575
 20
144.3241665134505
 30
0.0000000000000000
 40
3.100000381469727
 41
0.0000000000000000
 71
     1
 72
     1
  1
{\H0.93x;{6-M10×20}}
 11
1.000000000000000
 21
0.0000000000000000
 31
0.0000000000000000
  7
KNJYOKO
  0
DIMENSION
  5
19B
100
AcDbEntity
  8
MAIN10
  6
CONTINUOUS
 62
12
100
AcDbDimension
  2
*D21
 10
260.1667218028300
 20
258.5762677049656
 30
0.0000000000000000
 11
261.4667219935649
 21
259.5762677049656
 31
0.0000000000000000
 70
32
  3
MAIN001
100
AcDbAlignedDimension
 13
265.1667218028300
 23
255.9101642808092
 33
0.0000000000000000
 14
260.1667218028300
 24
255.9101642808092
 34
0.0000000000000000
100
AcDbRotatedDimension
1001
ACAD
1000
DSTYLE
1002
{
1070
   173
1070
     1
1070
     6
1000
_OPEN
1070
     7
1000
_OPEN
1070
    41
1040
1.910672
1070
   287
1070
     0
1002
}
  0
LEADER
  5
19C
100
AcDbEntity
  8
MAIN10
  6
CONTINUOUS
 62
12
100
AcDbLeader
  3
MAIN001
 73
     0
 74
     0
 75
     1
 40
3.100000381469727
 41
14.30100019073487
 76
     3
 10
233.1667218028312
 20
271.8956543547852
 30
0.0000000000000000
 10
251.0758920717886
 20
289.8048246237427
 30
0.0000000000000000
 10
253.0108925715140
 20
289.8048246237427
 30
0.0000000000000000
340
19D
213
-0.001000000000004775
223
-0.5000000000000000
233
0.0000000000000000
1001
ACAD
1000
DSTYLE
1002
{
1070
   147
1040
0.0
1070
    77
1070
     1
1070
   173
1070
     1
1070
     6
1000
_OPEN
1070
     7
1000
_OPEN
1002
}
  0
MTEXT
  5
19D
102
{ACAD_REACTORS
330
19C
102
}
100
AcDbEntity
  8
MAIN10
  6
CONTINUOUS
 62
4
100
AcDbMText
 10
253.0118925715140
 20
293.4048250052124
 30
0.0000000000000000
 40
3.100000381469727
 41
0.0000000000000000
 71
     1
 72
     1
  1
{\H0.92x;{M12×1}}
 11
1.000000000000000
 21
0.0000000000000000
 31
0.0000000000000000
  7
KNJYOKO
  0
DIMENSION
  5
1A6
100
AcDbEntity
  8
MAIN10
  6
CONTINUOUS
 62
3
100
AcDbDimension
  2
*D22
 10
568.1667218028269
 20
157.6101642688890
 30
0.0000000000000000
 11
567.6667218028269
 21
225.1101642688889
 31
0.0000000000000000
 70
32
  1
\A1;\U+2205135
  3
MAIN001
100
AcDbAlignedDimension
 13
466.1667209193004
 23
292.6101642688888
 33
0.0000000000000000
 14
466.1667209193004
 24
157.6101642688890
 34
0.0000000000000000
 50
90.00000000000000
100
AcDbRotatedDimension
1001
ACAD
1000
DSTYLE
1002
{
1070
   173
1070
     1
1070
     6
1000
_OPEN
1070
     7
1000
_OPEN
1070
    41
1040
2.000000
1002
}
  0
DIMENSION
  5
1AF
100
AcDbEntity
  8
MAIN10
  6
CONTINUOUS
 62
3
100
AcDbDimension
  2
*D23
 10
548.1667218028269
 20
185.1101642688891
 30
0.0000000000000000
 11
547.6667218028269
 21
225.1101642688890
 31
0.0000000000000000
 70
32
  1
\A1;\U+220580h7
  3
MAIN001
100
AcDbAlignedDimension
 13
473.1667218028306
 23
265.1101642688889
 33
0.0000000000000000
 14
473.1667218028306
 24
185.1101642688891
 34
0.0000000000000000
 50
90.00000000000000
100
AcDbRotatedDimension
1001
ACAD
1000
DSTYLE
1002
{
1070
   173
1070
     1
1070
     6
1000
_OPEN
1070
     7
1000
_OPEN
1070
    41
1040
2.000000
1002
}
  0
DIMENSION
  5
1B8
100
AcDbEntity
  8
MAIN10
  6
CONTINUOUS
 62
3
100
AcDbDimension
  2
*D24
 10
538.1667218028269
 20
240.1101642688889
 30
0.0000000000000000
 11
537.6667218028269
 21
225.1101642688889
 31
0.0000000000000000
 70
32
  1
\A1;\U+220530
  3
MAIN001
100
AcDbAlignedDimension
 13
494.3006963990457
 23
210.1101642688890
 33
0.0000000000000000
 14
494.3006963990457
 24
240.1101642688889
 34
0.0000000000000000
 50
90.00000000000000
100
AcDbRotatedDimension
1001
ACAD
1000
DSTYLE
1002
{
1070
   173
1070
     1
1070
     6
1000
_OPEN
1070
     7
1000
_OPEN
1070
    41
1040
2.000000
1002
}
  0
DIMENSION
  5
1C1
100
AcDbEntity
  8
MAIN10
  6
CONTINUOUS
 62
3
100
AcDbDimension
  2
*D25
 10
528.1667218028269
 20
235.6101642688889
 30
0.0000000000000000
 11
527.6667218028269
 21
225.1101642688889
 31
0.0000000000000000
 70
32
  1
\A1;\U+220521H8
  3
MAIN001
100
AcDbAlignedDimension
 13
512.3006963990461
 23
214.6101642688889
 33
0.0000000000000000
 14
512.3006963990461
 24
235.6101642688889
 34
0.0000000000000000
 50
90.00000000000000
100
AcDbRotatedDimension
1001
ACAD
1000
DSTYLE
1002
{
1070
   173
1070
     1
1070
     6
1000
_OPEN
1070
     7
1000
_OPEN
1070
    41
1040
2.000000
1002
}
  0
INSERT
  5
1C9
100
AcDbEntity
  8
MAIN10
  6
CONTINUOUS
 62
3
100
AcDbBlockReference
  2
D26
 10
518.6034816849680
 20
225.1101642688889
 30
0.0000000000000000
 50
0.0000000000000000
  0
LINE
  5
1CA
100
AcDbEntity
  8
MAIN0
  6
CONTINUOUS
 62
3
100
AcDbLine
 10
71.18599179377583
 20
186.1101642688890
 30
0.0000000000000000
 11
71.18599179377583
 21
264.1101642688888
 31
0.0000000000000000
  0
DIMENSION
  5
1D3
100
AcDbEntity
  8
MAIN10
  6
CONTINUOUS
 62
3
100
AcDbDimension
  2
*D27
 10
513.1667218028306
 20
256.9490802660174
 30
0.0000000000000000
 11
495.1667177230735
 21
257.4490802660174
 31
0.0000000000000000
 70
32
  3
MAIN001
100
AcDbAlignedDimension
 13
477.1667136433164
 23
234.1101642688889
 33
0.0000000000000000
 14
513.1667218028306
 24
238.6101642688889
 34
0.0000000000000000
100
AcDbRotatedDimension
1001
ACAD
1000
DSTYLE
1002
{
1070
   173
1070
     1
1070
     6
1000
_OPEN
1070
     7
1000
_OPEN
1070
    41
1040
2.000000
1002
}
  0
LINE
  5
1D4
100
AcDbEntity
  8
MAIN0
  6
CONTINUOUS
 62
3
100
AcDbLine
 10
341.1667218028310
 20
264.1101642688889
 30
0.0000000000000000
 11
351.1667218028310
 21
264.1101642688889
 31
0.0000000000000000
  0
LINE
  5
1D5
100
AcDbEntity
  8
MAIN0
  6
CONTINUOUS
 62
3
100
AcDbLine
 10
341.1667218028309
 20
186.1101642688889
 30
0.0000000000000000
 11
351.1667218028310
 21
186.1101642688889
 31
0.0000000000000000
  0
LINE
  5
1D6
100
AcDbEntity
  8
MAIN0
  6
CONTINUOUS
 62
3
100
AcDbLine
 10
340.1667218028311
 20
185.1101642688890
 30
0.0000000000000000
 11
341.1667218028310
 21
186.1101642688889
 31
0.0000000000000000
  0
LINE
  5
1D7
100
AcDbEntity
  8
MAIN0
  6
CONTINUOUS
 62
3
100
AcDbLine
 10
341.1667218028310
 20
264.1101642688889
 30
0.0000000000000000
 11
340.1667218028311
 21
265.1101642688888
 31
0.0000000000000000
  0
LINE
  5
1D8
100
AcDbEntity
  8
MAIN0
  6
CONTINUOUS
 62
3
100
AcDbLine
 10
340.1667218028311
 20
265.1101642688888
 30
0.0000000000000000
 11
340.1667218028311
 21
185.1101642688890
 31
0.0000000000000000
  0
LINE
  5
1D9
100
AcDbEntity
  8
MAIN0
  6
CONTINUOUS
 62
3
100
AcDbLine
 10
341.1667218028309
 20
186.1101642688889
 30
0.0000000000000000
 11
341.1667218028310
 21
264.1101642688889
 31
0.0000000000000000
  0
LINE
  5
1DA
100
AcDbEntity
  8
MAIN0
  6
CONTINUOUS
 62
3
100
AcDbLine
 10
91.18599179377588
 20
270.1101642688887
 30
0.0000000000000000
 11
91.18599179377588
 21
273.3101642688887
 31
0.0000000000000000
  0
LINE
  5
1DB
100
AcDbEntity
  8
MAIN0
  6
CONTINUOUS
 62
3
100
AcDbLine
 10
139.1859917937759
 20
270.1101642688887
 30
0.0000000000000000
 11
139.1859917937759
 21
273.3101642688887
 31
0.0000000000000000
  0
LINE
  5
1DC
100
AcDbEntity
  8
MAIN0
  6
CONTINUOUS
 62
3
100
AcDbLine
 10
142.1571349640755
 20
268.3947739597153
 30
0.0000000000000000
 11
144.9284162561856
 21
269.9947739597153
 31
0.0000000000000000
  0
LINE
  5
1DD
100
AcDbEntity
  8
MAIN0
  6
CONTINUOUS
 62
3
100
AcDbLine
 10
166.1571349640755
 20
226.8255545780622
 30
0.0000000000000000
 11
168.9284162561857
 21
228.4255545780622
 31
0.0000000000000000
  0
LINE
  5
1DE
100
AcDbEntity
  8
MAIN0
  6
CONTINUOUS
 62
3
100
AcDbLine
 10
177.5446743845655
 20
336.3660308031834
 30
0.0000000000000000
 11
221.7119699775717
 21
361.8660308031832
 31
0.0000000000000000
  0
LINE
  5
1DF
100
AcDbEntity
  8
MAIN0
  6
CONTINUOUS
 62
3
100
AcDbLine
 10
101.1934342095713
 20
319.6110817709107
 30
0.0000000000000000
 11
101.1934342095713
 21
370.6110817709107
 31
0.0000000000000000
  0
LINE
  5
1E0
100
AcDbEntity
  8
MAIN0
  6
HIDDEN
 62
12
100
AcDbLine
 10
221.8279953813562
 20
363.6650689088600
 30
0.0000000000000000
 11
222.1940207851406
 21
365.0310943126444
 31
0.0000000000000000
  0
LINE
  5
1E1
100
AcDbEntity
  8
MAIN0
  6
CONTINUOUS
 62
3
100
AcDbLine
 10
222.1940207851406
 20
365.0310943126444
 30
0.0000000000000000
 11
222.5600461889250
 21
366.3971197164289
 31
0.0000000000000000
  0
LINE
  5
1E2
100
AcDbEntity
  8
MAIN0
  6
CONTINUOUS
 62
3
100
AcDbLine
 10
97.69343420957137
 20
316.6110817709107
 30
0.0000000000000000
 11
98.69343420957128
 21
317.6110817709107
 31
0.0000000000000000
  0
LINE
  5
1E3
100
AcDbEntity
  8
MAIN0
  6
HIDDEN
 62
12
100
AcDbLine
 10
98.69343420957125
 20
317.6110817709107
 30
0.0000000000000000
 11
99.69343420957137
 21
318.6110817709107
 31
0.0000000000000000
  0
LINE
  5
1E4
100
AcDbEntity
  8
MAIN0
  6
HIDDEN
 62
12
100
AcDbLine
 10
99.69343420957128
 20
318.6110817709107
 30
0.0000000000000000
 11
99.69343420957125
 21
372.1110817709107
 31
0.0000000000000000
  0
LINE
  5
1E5
100
AcDbEntity
  8
MAIN0
  6
CONTINUOUS
 62
3
100
AcDbLine
 10
99.69343420957125
 20
372.1110817709107
 30
0.0000000000000000
 11
99.69343420957128
 21
385.6110817709107
 31
0.0000000000000000
  0
INSERT
  5
210
100
AcDbEntity
  8
MAIN0
  6
CONTINUOUS
 62
3
100
AcDbBlockReference
  2
M0
 10
0.0000000000000000
 20
0.0000000000000000
 30
0.0000000000000000
 50
0.0000000000000000
  0
MTEXT
  5
211
100
AcDbEntity
  8
MAIN0
  6
CONTINUOUS
 62
4
100
AcDbMText
 10
191.5717545802377
 20
116.8646003152012
 30
0.0000000000000000
 40
3.100000381469727
 41
0.0000000000000000
 71
     1
 72
     1
  1
{\H0.92x;{  105}}
 11
1.000000000000000
 21
0.0000000000000000
 31
0.0000000000000000
  7
STANDARD
  0
MTEXT
  5
212
100
AcDbEntity
  8
MAIN0
  6
CONTINUOUS
 62
4
100
AcDbMText
 10
191.5717545802377
 20
109.8646003152014
 30
0.0000000000000000
 40
3.100000381469727
 41
0.0000000000000000
 71
     1
 72
     1
  1
{\H0.92x;{   20}}
 11
1.000000000000000
 21
0.0000000000000000
 31
0.0000000000000000
  7
STANDARD
  0
MTEXT
  5
213
100
AcDbEntity
  8
MAIN0
  6
CONTINUOUS
 62
4
100
AcDbMText
 10
191.5717545802377
 20
103.3646003152014
 30
0.0000000000000000
 40
3.100000381469727
 41
0.0000000000000000
 71
     1
 72
     1
  1
{\H0.92x;{   31}}
 11
1.000000000000000
 21
0.0000000000000000
 31
0.0000000000000000
  7
STANDARD
  0
MTEXT
  5
214
100
AcDbEntity
  8
MAIN0
  6
CONTINUOUS
 62
4
100
AcDbMText
 10
191.5717545802377
 20
93.36460031520127
 30
0.0000000000000000
 40
3.100000381469727
 41
0.0000000000000000
 71
     1
 72
     1
  1
{\H0.92x;{   29}}
 11
1.000000000000000
 21
0.0000000000000000
 31
0.0000000000000000
  7
STANDARD
  0
MTEXT
  5
215
100
AcDbEntity
  8
MAIN0
  6
CONTINUOUS
 62
4
100
AcDbMText
 10
154.4894475356063
 20
94.86460031520153
 30
0.0000000000000000
 40
3.100000381469727
 41
0.0000000000000000
 71
     1
 72
     1
  1
{\H0.91x;{   4}}
 11
1.000000000000000
 21
0.0000000000000000
 31
0.0000000000000000
  7
STANDARD
  0
MTEXT
  5
216
100
AcDbEntity
  8
MAIN0
  6
CONTINUOUS
 62
4
100
AcDbMText
 10
191.5717545802377
 20
83.36460031520127
 30
0.0000000000000000
 40
3.100000381469727
 41
0.0000000000000000
 71
     1
 72
     1
  1
{\H0.92x;{    4}}
 11
1.000000000000000
 21
0.0000000000000000
 31
0.0000000000000000
  7
STANDARD
  0
MTEXT
  5
217
100
AcDbEntity
  8
MAIN0
  6
CONTINUOUS
 62
4
100
AcDbMText
 10
191.5717545802377
 20
72.86460031520127
 30
0.0000000000000000
 40
3.100000381469727
 41
0.0000000000000000
 71
     1
 72
     1
  1
{\H0.92x;{ 6000}}
 11
1.000000000000000
 21
0.0000000000000000
 31
0.0000000000000000
  7
STANDARD
  0
MTEXT
  5
218
100
AcDbEntity
  8
MAIN0
  6
CONTINUOUS
 62
4
100
AcDbMText
 10
191.5717545802377
 20
65.86460031520127
 30
0.0000000000000000
 40
3.100000381469727
 41
0.0000000000000000
 71
     1
 72
     1
  1
{\H0.92x;{  7.6}}
 11
1.000000000000000
 21
0.0000000000000000
 31
0.0000000000000000
  7
STANDARD
  0
MTEXT
  5
219
100
AcDbEntity
  8
MAIN0
  6
CONTINUOUS
 62
4
100
AcDbMText
 10
191.5717545802377
 20
38.36460031520127
 30
0.0000000000000000
 40
3.100000381469727
 41
0.0000000000000000
 71
     1
 72
     1
  1
{\H0.92x;{  0.8}}
 11
1.000000000000000
 21
0.0000000000000000
 31
0.0000000000000000
  7
STANDARD
  0
MTEXT
  5
21A
100
AcDbEntity
  8
MAIN0
  6
CONTINUOUS
 62
4
100
AcDbMText
 10
191.6236901063898
 20
56.55802996802973
 30
0.0000000000000000
 40
3.100000381469727
 41
0.0000000000000000
 71
     1
 72
     1
  1
{\H0.92x;{ 0.013}}
 11
1.000000000000000
 21
0.0000000000000000
 31
0.0000000000000000
  7
STANDARD
  0
LEADER
  5
21B
100
AcDbEntity
  8
MAIN0
  6
CONTINUOUS
 62
3
100
AcDbLeader
  3
MAIN001
 73
     0
 74
     0
 75
     1
 40
3.099999904632568
 41
55.42100162601471
 76
     3
 10
208.1667218028269
 20
375.1101642688889
 30
0.0000000000000000
 10
238.1667218028269
 20
385.1101642688889
 30
0.0000000000000000
 10
240.0917217470370
 20
385.1101642688889
 30
0.0000000000000000
340
21C
213
-0.001000000000004775
223
-0.5000000000000000
233
0.0000000000000000
1001
ACAD
1000
DSTYLE
1002
{
1070
   147
1040
0.0
1070
    77
1070
     1
1070
   173
1070
     1
1070
     6
1000
_DOT
1070
     7
1000
_DOT
1002
}
  0
MTEXT
  5
21C
102
{ACAD_REACTORS
330
21B
102
}
100
AcDbEntity
  8
MAIN0
  6
CONTINUOUS
 62
3
100
AcDbMText
 10
240.0927217470370
 20
388.7101641735215
 30
0.0000000000000000
 40
3.099999904632568
 41
0.0000000000000000
 71
     1
 72
     1
  1
{\H0.94x;{近接スイッチ取付プレート\PTHE MOUNTING PLATE \PFOR PROXIMITY SWITCH}}
 11
1.000000000000000
 21
0.0000000000000000
 31
0.0000000000000000
  7
KNJYOKO
  0
LINE
  5
21D
100
AcDbEntity
  8
MAIN0
  6
CENTER
 62
12
100
AcDbLine
 10
202.7630571770721
 20
225.1101642688889
 30
0.0000000000000000
 11
326.2592096492523
 21
225.1101642688889
 31
0.0000000000000000
  0
LINE
  5
21E
100
AcDbEntity
  8
MAIN0
  6
CENTER
 62
12
100
AcDbLine
 10
332.3592100307220
 20
225.1101642688889
 30
0.0000000000000000
 11
518.6034816849680
 21
225.1101642688889
 31
0.0000000000000000
  0
LINE
  5
21F
100
AcDbEntity
  8
MAIN0
  6
CONTINUOUS
 62
3
100
AcDbLine
 10
352.1667218028309
 20
189.1101642688890
 30
0.0000000000000000
 11
378.1667218028309
 21
189.1101642688890
 31
0.0000000000000000
  0
LINE
  5
220
100
AcDbEntity
  8
MAIN0
  6
CONTINUOUS
 62
3
100
AcDbLine
 10
351.1667218028309
 20
200.8422150764572
 30
0.0000000000000000
 11
352.1667218028309
 21
199.1101642688885
 31
0.0000000000000000
  0
LINE
  5
221
100
AcDbEntity
  8
MAIN0
  6
CONTINUOUS
 62
3
100
AcDbLine
 10
352.1667218028309
 20
261.1101642688889
 30
0.0000000000000000
 11
378.1667218028309
 21
261.1101642688889
 31
0.0000000000000000
  0
LINE
  5
222
100
AcDbEntity
  8
MAIN0
  6
CONTINUOUS
 62
3
100
AcDbLine
 10
351.1667218028309
 20
249.3781134613207
 30
0.0000000000000000
 11
352.1667218028308
 21
251.1101642688894
 31
0.0000000000000000
  0
LINE
  5
223
100
AcDbEntity
  8
MAIN0
  6
CONTINUOUS
 62
3
100
AcDbLine
 10
380.1667218028309
 20
292.6101642688889
 30
0.0000000000000000
 11
392.1667218028306
 21
292.6101642688889
 31
0.0000000000000000
  0
LINE
  5
224
100
AcDbEntity
  8
MAIN0
  6
CONTINUOUS
 62
3
100
AcDbLine
 10
380.1667218028309
 20
157.6101642688889
 30
0.0000000000000000
 11
392.1667218028304
 21
157.6101642688889
 31
0.0000000000000000
  0
LINE
  5
225
100
AcDbEntity
  8
MAIN0
  6
CONTINUOUS
 62
3
100
AcDbLine
 10
393.1667218028307
 20
157.6101642688890
 30
0.0000000000000000
 11
393.1667218028307
 21
292.6101642688959
 31
0.0000000000000000
  0
ARC
  5
226
100
AcDbEntity
  8
MAIN0
  6
CONTINUOUS
 62
3
100
AcDbCircle
 10
378.1667218028309
 20
262.1101642688889
 30
0.0000000000000000
 40
1.000000000000000
100
AcDbArc
 50
269.9999999999999
 51
359.9999999999998
  0
ARC
  5
227
100
AcDbEntity
  8
MAIN0
  6
CONTINUOUS
 62
3
100
AcDbCircle
 10
378.1667218028309
 20
188.1101642688889
 30
0.0000000000000000
 40
1.000000000000000
100
AcDbArc
 50
0.0000000000000000
 51
89.99999999999970
  0
ARC
  5
228
100
AcDbEntity
  8
MAIN0
  6
CONTINUOUS
 62
3
100
AcDbCircle
 10
380.1667218028309
 20
158.6101642688889
 30
0.0000000000000000
 40
1.000000000000000
100
AcDbArc
 50
179.9999999999998
 51
269.9999999999999
  0
ARC
  5
229
100
AcDbEntity
  8
MAIN0
  6
CONTINUOUS
 62
3
100
AcDbCircle
 10
380.1667218028309
 20
291.6101642688888
 30
0.0000000000000000
 40
1.000000000000000
100
AcDbArc
 50
89.99999999999970
 51
179.9999999999998
  0
LINE
  5
22A
100
AcDbEntity
  8
MAIN0
  6
CONTINUOUS
 62
3
100
AcDbLine
 10
465.9708140864941
 20
240.1101642688889
 30
0.0000000000000000
 11
494.3006963990457
 21
240.1101642688889
 31
0.0000000000000000
  0
LINE
  5
22B
100
AcDbEntity
  8
MAIN0
  6
CONTINUOUS
 62
3
100
AcDbLine
 10
495.1667218028301
 20
239.6101642688889
 30
0.0000000000000000
 11
512.1667218028306
 21
239.6101642688889
 31
0.0000000000000000
  0
LINE
  5
22C
100
AcDbEntity
  8
MAIN0
  6
CONTINUOUS
 62
3
100
AcDbLine
 10
494.3006963990457
 20
240.1101642688889
 30
0.0000000000000000
 11
495.1667218028301
 21
239.6101642688889
 31
0.0000000000000000
  0
LINE
  5
22D
100
AcDbEntity
  8
MAIN0
  6
CONTINUOUS
 62
3
100
AcDbLine
 10
466.0482805815932
 20
210.1101642688890
 30
0.0000000000000000
 11
494.3006963990457
 21
210.1101642688890
 31
0.0000000000000000
  0
LINE
  5
22E
100
AcDbEntity
  8
MAIN0
  6
CONTINUOUS
 62
3
100
AcDbLine
 10
495.1667218028301
 20
210.6101642688890
 30
0.0000000000000000
 11
512.1667218028306
 21
210.6101642688890
 31
0.0000000000000000
  0
LINE
  5
22F
100
AcDbEntity
  8
MAIN0
  6
CONTINUOUS
 62
3
100
AcDbLine
 10
494.3006963990458
 20
210.1101642688890
 30
0.0000000000000000
 11
495.1667218028301
 21
210.6101642688890
 31
0.0000000000000000
  0
LINE
  5
230
100
AcDbEntity
  8
MAIN0
  6
CONTINUOUS
 62
3
100
AcDbLine
 10
513.1667218028306
 20
211.6101642688887
 30
0.0000000000000000
 11
513.1667218028306
 21
238.6101642688889
 31
0.0000000000000000
  0
LINE
  5
231
100
AcDbEntity
  8
MAIN0
  6
CONTINUOUS
 62
3
100
AcDbLine
 10
512.1667218028306
 20
239.6101642688889
 30
0.0000000000000000
 11
513.1667218028306
 21
238.6101642688889
 31
0.0000000000000000
  0
LINE
  5
232
100
AcDbEntity
  8
MAIN0
  6
CONTINUOUS
 62
3
100
AcDbLine
 10
512.1667218028306
 20
210.6101642688889
 30
0.0000000000000000
 11
513.1667218028306
 21
211.6101642688889
 31
0.0000000000000000
  0
LINE
  5
233
100
AcDbEntity
  8
MAIN0
  6
CONTINUOUS
 62
3
100
AcDbLine
 10
508.1667218028306
 20
214.6101642688889
 30
0.0000000000000000
 11
508.1667218028306
 21
235.6101642688889
 31
0.0000000000000000
  0
LINE
  5
234
100
AcDbEntity
  8
MAIN0
  6
CONTINUOUS
 62
3
100
AcDbLine
 10
508.1667218028306
 20
235.6101642688889
 30
0.0000000000000000
 11
512.3006963990461
 21
235.6101642688889
 31
0.0000000000000000
  0
LINE
  5
235
100
AcDbEntity
  8
MAIN0
  6
CONTINUOUS
 62
3
100
AcDbLine
 10
512.3006963990461
 20
235.6101642688890
 30
0.0000000000000000
 11
513.1667218028306
 21
236.1101642688890
 31
0.0000000000000000
  0
LINE
  5
236
100
AcDbEntity
  8
MAIN0
  6
CONTINUOUS
 62
3
100
AcDbLine
 10
507.1563588317488
 20
233.8601642688893
 30
0.0000000000000000
 11
508.1667218028304
 21
235.6101642688889
 31
0.0000000000000000
  0
LINE
  5
237
100
AcDbEntity
  8
MAIN0
  6
CONTINUOUS
 62
3
100
AcDbLine
 10
508.1667218028306
 20
214.6101642688889
 30
0.0000000000000000
 11
512.3006963990461
 21
214.6101642688889
 31
0.0000000000000000
  0
LINE
  5
238
100
AcDbEntity
  8
MAIN0
  6
CONTINUOUS
 62
3
100
AcDbLine
 10
512.3006963990461
 20
214.6101642688889
 30
0.0000000000000000
 11
513.1667218028306
 21
214.1101642688888
 31
0.0000000000000000
  0
LINE
  5
239
100
AcDbEntity
  8
MAIN0
  6
CONTINUOUS
 62
3
100
AcDbLine
 10
507.1563588317488
 20
216.3601642688886
 30
0.0000000000000000
 11
508.1667218028304
 21
214.6101642688890
 31
0.0000000000000000
  0
LINE
  5
23A
100
AcDbEntity
  8
MAIN0
  6
CONTINUOUS
 62
3
100
AcDbLine
 10
512.3006963990461
 20
235.6101642688889
 30
0.0000000000000000
 11
512.3006963990461
 21
214.6101642688889
 31
0.0000000000000000
  0
LINE
  5
23B
100
AcDbEntity
  8
MAIN0
  6
CONTINUOUS
 62
3
100
AcDbLine
 10
507.1563588317482
 20
216.3601642688893
 30
0.0000000000000000
 11
507.1563588317488
 21
233.8601642688893
 31
0.0000000000000000
  0
LINE
  5
23C
100
AcDbEntity
  8
MAIN0
  6
CONTINUOUS
 62
3
100
AcDbLine
 10
473.1667218028306
 20
240.1101642688890
 30
0.0000000000000000
 11
473.1667218028306
 21
265.1101642688888
 31
0.0000000000000000
  0
LINE
  5
23D
100
AcDbEntity
  8
MAIN0
  6
CONTINUOUS
 62
3
100
AcDbLine
 10
468.1667218028306
 20
244.7799279846559
 30
0.0000000000000000
 11
468.1667218028306
 21
290.6101642688888
 31
0.0000000000000000
  0
LINE
  5
23E
100
AcDbEntity
  8
MAIN0
  6
CONTINUOUS
 62
3
100
AcDbLine
 10
468.1667218028306
 20
265.1101642688889
 30
0.0000000000000000
 11
473.1667218028306
 21
265.1101642688889
 31
0.0000000000000000
  0
LINE
  5
23F
100
AcDbEntity
  8
MAIN0
  6
CONTINUOUS
 62
3
100
AcDbLine
 10
473.1667218028306
 20
210.1101642688888
 30
0.0000000000000000
 11
473.1667218028306
 21
185.1101642688890
 31
0.0000000000000000
  0
LINE
  5
240
100
AcDbEntity
  8
MAIN0
  6
CONTINUOUS
 62
3
100
AcDbLine
 10
468.1667218028306
 20
185.1101642688891
 30
0.0000000000000000
 11
473.1667218028306
 21
185.1101642688891
 31
0.0000000000000000
  0
LINE
  5
241
100
AcDbEntity
  8
MAIN0
  6
CENTER
 62
12
100
AcDbLine
 10
441.4946355647069
 20
175.1101642688888
 30
0.0000000000000000
 11
472.0033132891648
 21
175.1101642688888
 31
0.0000000000000000
  0
LINE
  5
242
100
AcDbEntity
  8
MAIN0
  6
CONTINUOUS
 62
3
100
AcDbLine
 10
466.9667218028307
 20
179.3601642688889
 30
0.0000000000000000
 11
466.9667218028308
 21
170.8601642688889
 31
0.0000000000000000
  0
LINE
  5
243
100
AcDbEntity
  8
MAIN0
  6
CONTINUOUS
 62
3
100
AcDbLine
 10
392.1667218028306
 20
157.6101642688890
 30
0.0000000000000000
 11
466.1667209193004
 21
157.6101642688890
 31
0.0000000000000000
  0
LINE
  5
244
100
AcDbEntity
  8
MAIN0
  6
CONTINUOUS
 62
3
100
AcDbLine
 10
392.1667218028307
 20
292.6101642688888
 30
0.0000000000000000
 11
466.1667209193004
 21
292.6101642688888
 31
0.0000000000000000
  0
LINE
  5
245
100
AcDbEntity
  8
MAIN0
  6
CONTINUOUS
 62
3
100
AcDbLine
 10
468.1667218028306
 20
159.6101642688891
 30
0.0000000000000000
 11
468.1667218028306
 21
185.1101642688891
 31
0.0000000000000000
  0
LINE
  5
246
100
AcDbEntity
  8
MAIN0
  6
CONTINUOUS
 62
3
100
AcDbLine
 10
468.1667218028306
 20
188.1938043741705
 30
0.0000000000000000
 11
468.1667218028306
 21
204.8778144071084
 31
0.0000000000000000
  0
ARC
  5
247
100
AcDbEntity
  8
MAIN0
  6
CONTINUOUS
 62
3
100
AcDbCircle
 10
466.1667218028306
 20
290.6101642688889
 30
0.0000000000000000
 40
2.000000000000000
100
AcDbArc
 50
0.0000000000000000
 51
89.99999999999970
  0
ARC
  5
248
100
AcDbEntity
  8
MAIN0
  6
CONTINUOUS
 62
3
100
AcDbCircle
 10
466.1667218028306
 20
159.6101642688890
 30
0.0000000000000000
 40
2.000000000000000
100
AcDbArc
 50
269.9999999999999
 51
359.9999999999998
  0
LINE
  5
249
100
AcDbEntity
  8
MAIN0
  6
CONTINUOUS
 62
3
100
AcDbLine
 10
63.19343420957128
 20
353.7657827709107
 30
0.0000000000000000
 11
61.19343420957128
 21
354.9204837709107
 31
0.0000000000000000
  0
LINE
  5
24A
100
AcDbEntity
  8
MAIN0
  6
CONTINUOUS
 62
3
100
AcDbLine
 10
61.19343420957131
 20
354.9204837709107
 30
0.0000000000000000
 11
59.19343420957131
 21
353.7657827709107
 31
0.0000000000000000
  0
LINE
  5
24B
100
AcDbEntity
  8
MAIN0
  6
CONTINUOUS
 62
3
100
AcDbLine
 10
59.19343420957128
 20
353.7657827709107
 30
0.0000000000000000
 11
59.19343420957128
 21
351.4563807709107
 31
0.0000000000000000
  0
LINE
  5
24C
100
AcDbEntity
  8
MAIN0
  6
CONTINUOUS
 62
3
100
AcDbLine
 10
59.19343420957128
 20
351.4563807709106
 30
0.0000000000000000
 11
61.19343420957128
 21
350.3016807709107
 31
0.0000000000000000
  0
LINE
  5
24D
100
AcDbEntity
  8
MAIN0
  6
CONTINUOUS
 62
3
100
AcDbLine
 10
61.19343420957131
 20
350.3016807709107
 30
0.0000000000000000
 11
63.19343420957131
 21
351.4563837709107
 31
0.0000000000000000
  0
LINE
  5
24E
100
AcDbEntity
  8
MAIN0
  6
CONTINUOUS
 62
3
100
AcDbLine
 10
63.19343420957128
 20
351.4563837709107
 30
0.0000000000000000
 11
63.19343420957128
 21
353.7657827709107
 31
0.0000000000000000
  0
CIRCLE
  5
24F
100
AcDbEntity
  8
MAIN0
  6
CONTINUOUS
 62
3
100
AcDbCircle
 10
61.19343420957128
 20
352.6110817709107
 30
0.0000000000000000
 40
4.249999999999996
  0
LINE
  5
250
100
AcDbEntity
  8
MAIN0
  6
CONTINUOUS
 62
3
100
AcDbLine
 10
163.8748014034875
 20
374.6617479545608
 30
0.0000000000000000
 11
161.8748014034876
 21
375.8164489545608
 31
0.0000000000000000
  0
LINE
  5
251
100
AcDbEntity
  8
MAIN0
  6
CONTINUOUS
 62
3
100
AcDbLine
 10
161.8748014034876
 20
375.8164489545609
 30
0.0000000000000000
 11
159.8748014034877
 21
374.6617479545610
 31
0.0000000000000000
  0
LINE
  5
252
100
AcDbEntity
  8
MAIN0
  6
CONTINUOUS
 62
3
100
AcDbLine
 10
159.8748014034876
 20
374.6617479545608
 30
0.0000000000000000
 11
159.8748014034876
 21
372.3523459545609
 31
0.0000000000000000
  0
LINE
  5
253
100
AcDbEntity
  8
MAIN0
  6
CONTINUOUS
 62
3
100
AcDbLine
 10
159.8748014034875
 20
372.3523459545609
 30
0.0000000000000000
 11
161.8748014034875
 21
371.1976459545609
 31
0.0000000000000000
  0
LINE
  5
254
100
AcDbEntity
  8
MAIN0
  6
CONTINUOUS
 62
3
100
AcDbLine
 10
161.8748014034876
 20
371.1976459545609
 30
0.0000000000000000
 11
163.8748014034877
 21
372.3523489545610
 31
0.0000000000000000
  0
LINE
  5
255
100
AcDbEntity
  8
MAIN0
  6
CONTINUOUS
 62
3
100
AcDbLine
 10
163.8748014034876
 20
372.3523489545609
 30
0.0000000000000000
 11
163.8748014034876
 21
374.6617479545608
 31
0.0000000000000000
  0
CIRCLE
  5
256
100
AcDbEntity
  8
MAIN0
  6
CONTINUOUS
 62
3
100
AcDbCircle
 10
161.8748014034876
 20
373.5070469545609
 30
0.0000000000000000
 40
4.249999999999996
  0
CIRCLE
  5
257
100
AcDbEntity
  8
MAIN0
  6
CONTINUOUS
 62
12
100
AcDbCircle
 10
93.19343420957131
 20
352.6110817709107
 30
0.0000000000000000
 40
2.500000000000000
  0
CIRCLE
  5
258
100
AcDbEntity
  8
MAIN0
  6
CONTINUOUS
 62
3
100
AcDbCircle
 10
93.19343420957131
 20
352.6110817709107
 30
0.0000000000000000
 40
2.099999999999994
  0
CIRCLE
  5
259
100
AcDbEntity
  8
MAIN0
  6
CONTINUOUS
 62
12
100
AcDbCircle
 10
177.8748014034876
 20
345.7942340334589
 30
0.0000000000000000
 40
2.500000000000000
  0
CIRCLE
  5
25A
100
AcDbEntity
  8
MAIN0
  6
CONTINUOUS
 62
3
100
AcDbCircle
 10
177.8748014034876
 20
345.7942340334589
 30
0.0000000000000000
 40
2.099999999999994
  0
LINE
  5
25B
100
AcDbEntity
  8
MAIN0
  6
CONTINUOUS
 62
3
100
AcDbLine
 10
287.7440720720203
 20
266.1101642688886
 30
0.0000000000000000
 11
336.5893715336412
 21
266.1101642688886
 31
0.0000000000000000
  0
LINE
  5
25C
100
AcDbEntity
  8
MAIN0
  6
CONTINUOUS
 62
3
100
AcDbLine
 10
288.2076232221100
 20
237.8281319661336
 30
0.0000000000000000
 11
296.1667218028308
 21
237.8281319661336
 31
0.0000000000000000
  0
LINE
  5
25D
100
AcDbEntity
  8
MAIN0
  6
CONTINUOUS
 62
3
100
AcDbLine
 10
288.8337967703872
 20
259.5929177612675
 30
0.0000000000000000
 11
296.1667218028308
 21
259.5929177612675
 31
0.0000000000000000
  0
LINE
  5
25E
100
AcDbEntity
  8
MAIN0
  6
CONTINUOUS
 62
3
100
AcDbLine
 10
296.1667218028308
 20
259.5929177612675
 30
0.0000000000000000
 11
296.1667218028308
 21
237.8281319661336
 31
0.0000000000000000
  0
LINE
  5
25F
100
AcDbEntity
  8
MAIN0
  6
CONTINUOUS
 62
3
100
AcDbLine
 10
300.0165939028307
 20
251.1644800275663
 30
0.0000000000000000
 11
332.6997253028309
 21
251.1644800275663
 31
0.0000000000000000
  0
LINE
  5
260
100
AcDbEntity
  8
MAIN0
  6
CONTINUOUS
 62
3
100
AcDbLine
 10
291.6337183028306
 20
199.0558485102116
 30
0.0000000000000000
 11
332.6997253028309
 21
199.0558485102116
 31
0.0000000000000000
  0
LINE
  5
261
100
AcDbEntity
  8
MAIN0
  6
CONTINUOUS
 62
3
100
AcDbLine
 10
296.1667218028308
 20
237.8281319661336
 30
0.0000000000000000
 11
300.0165939028308
 21
251.1644800275665
 31
0.0000000000000000
  0
LINE
  5
262
100
AcDbEntity
  8
MAIN0
  6
CONTINUOUS
 62
3
100
AcDbLine
 10
337.1667218028310
 20
185.1101642688893
 30
0.0000000000000000
 11
337.1667218028310
 21
265.1101642688885
 31
0.0000000000000000
  0
LINE
  5
263
100
AcDbEntity
  8
MAIN0
  6
CENTER
 62
12
100
AcDbLine
 10
301.0609320493031
 20
239.1101642688889
 30
0.0000000000000000
 11
332.9915025260447
 21
239.1101642688889
 31
0.0000000000000000
  0
LINE
  5
264
100
AcDbEntity
  8
MAIN0
  6
CENTER
 62
12
100
AcDbLine
 10
290.5324635327904
 20
211.1101642688889
 30
0.0000000000000000
 11
316.5946991696353
 21
211.1101642688889
 31
0.0000000000000000
  0
LINE
  5
265
100
AcDbEntity
  8
MAIN0
  6
CENTER
 62
12
100
AcDbLine
 10
316.1667218028307
 20
253.2715429452776
 30
0.0000000000000000
 11
316.1667218028307
 21
222.8080561785106
 31
0.0000000000000000
  0
LINE
  5
266
100
AcDbEntity
  8
MAIN0
  6
CENTER
 62
12
100
AcDbLine
 10
305.1667218028307
 20
227.3818720694538
 30
0.0000000000000000
 11
305.1667218028307
 21
196.2279846379545
 31
0.0000000000000000
  0
LINE
  5
267
100
AcDbEntity
  8
MAIN0
  6
CONTINUOUS
 62
3
100
AcDbLine
 10
287.1667218028308
 20
265.1101642688888
 30
0.0000000000000000
 11
287.7440720720203
 21
266.1101642688886
 31
0.0000000000000000
  0
LINE
  5
268
100
AcDbEntity
  8
MAIN0
  6
CONTINUOUS
 62
3
100
AcDbLine
 10
287.7440720720202
 20
184.1101642688890
 30
0.0000000000000000
 11
287.1667218028308
 21
185.1101642688888
 31
0.0000000000000000
  0
LINE
  5
269
100
AcDbEntity
  8
MAIN0
  6
CONTINUOUS
 62
3
100
AcDbLine
 10
336.5893715336412
 20
266.1101642688886
 30
0.0000000000000000
 11
337.1667218028310
 21
265.1101642688885
 31
0.0000000000000000
  0
LINE
  5
26A
100
AcDbEntity
  8
MAIN0
  6
CONTINUOUS
 62
3
100
AcDbLine
 10
336.5893715336412
 20
184.1101642688889
 30
0.0000000000000000
 11
337.1667218028310
 21
185.1101642688893
 31
0.0000000000000000
  0
ARC
  5
26B
100
AcDbEntity
  8
MAIN0
  6
CONTINUOUS
 62
3
100
AcDbCircle
 10
258.9506959581848
 20
225.1101642688888
 30
0.0000000000000000
 40
78.21602584464620
100
AcDbArc
 50
340.5425255662330
 51
379.4574744337668
  0
ARC
  5
26C
100
AcDbEntity
  8
MAIN0
  6
CONTINUOUS
 62
3
100
AcDbCircle
 10
227.0711436138997
 20
222.9385356120990
 30
0.0000000000000000
 40
78.21599999999995
100
AcDbArc
 50
21.15374252409700
 51
27.94541854805983
  0
ARC
  5
26D
100
AcDbEntity
  8
MAIN0
  6
CONTINUOUS
 62
3
100
AcDbCircle
 10
310.1667218028308
 20
124.9831822725149
 30
0.0000000000000000
 40
60.99999999999625
100
AcDbArc
 50
76.34136644349999
 51
103.6817072922514
  0
ARC
  5
26E
100
AcDbEntity
  8
MAIN0
  6
CONTINUOUS
 62
3
100
AcDbCircle
 10
365.3827476474771
 20
225.1101642688889
 30
0.0000000000000000
 40
78.21602584464625
100
AcDbArc
 50
170.6421270324403
 51
199.4574744337666
  0
ARC
  5
26F
100
AcDbEntity
  8
MAIN0
  6
CONTINUOUS
 62
3
100
AcDbCircle
 10
286.8369134854498
 20
271.0793612022932
 30
0.0000000000000000
 40
50.00000000000000
100
AcDbArc
 50
336.5282022431862
 51
354.2963039588780
  0
ARC
  5
270
100
AcDbEntity
  8
MAIN0
  6
CONTINUOUS
 62
3
100
AcDbCircle
 10
337.4965301202116
 20
271.0793612022940
 30
0.0000000000000000
 40
50.00000000000000
100
AcDbArc
 50
185.7036960411226
 51
193.2811096523984
  0
ARC
  5
271
100
AcDbEntity
  8
MAIN0
  6
CONTINUOUS
 62
3
100
AcDbCircle
 10
337.4965301202116
 20
179.1409673354838
 30
0.0000000000000000
 40
50.00000000000000
100
AcDbArc
 50
156.5282022431852
 51
174.2963039588770
  0
ARC
  5
272
100
AcDbEntity
  8
MAIN0
  6
CONTINUOUS
 62
3
100
AcDbCircle
 10
286.8369134854497
 20
179.1409673354849
 30
0.0000000000000000
 40
50.00000000000000
100
AcDbArc
 50
5.703696041121529
 51
23.47179775681351
  0
ARC
  5
273
100
AcDbEntity
  8
MAIN0
  6
CONTINUOUS
 62
3
100
AcDbCircle
 10
371.7880646352050
 20
246.3149163993506
 30
0.0000000000000000
 40
84.01021293363669
100
AcDbArc
 50
170.9061413644370
 51
185.7979594798232
  0
LINE
  5
274
100
AcDbEntity
  8
MAIN0
  6
CONTINUOUS
 62
3
100
AcDbLine
 10
256.1667218028301
 20
230.6101642688889
 30
0.0000000000000000
 11
257.6667218028301
 21
232.1101642688889
 31
0.0000000000000000
  0
LINE
  5
275
100
AcDbEntity
  8
MAIN0
  6
CONTINUOUS
 62
3
100
AcDbLine
 10
257.6667218028301
 20
232.1101642688889
 30
0.0000000000000000
 11
257.6667218028301
 21
238.1101642688889
 31
0.0000000000000000
  0
LINE
  5
276
100
AcDbEntity
  8
MAIN0
  6
CONTINUOUS
 62
3
100
AcDbLine
 10
257.6667218028301
 20
238.1101642688889
 30
0.0000000000000000
 11
256.8006963990457
 21
238.6101642688889
 31
0.0000000000000000
  0
LINE
  5
277
100
AcDbEntity
  8
MAIN0
  6
CONTINUOUS
 62
3
100
AcDbLine
 10
256.8006963990457
 20
238.6101642688889
 30
0.0000000000000000
 11
252.5327472066146
 21
238.6101642688889
 31
0.0000000000000000
  0
LINE
  5
278
100
AcDbEntity
  8
MAIN0
  6
CONTINUOUS
 62
3
100
AcDbLine
 10
252.5327472066145
 20
238.6101642688889
 30
0.0000000000000000
 11
251.6667218028301
 21
238.1101642688889
 31
0.0000000000000000
  0
LINE
  5
279
100
AcDbEntity
  8
MAIN0
  6
CONTINUOUS
 62
3
100
AcDbLine
 10
251.6667218028301
 20
238.1101642688889
 30
0.0000000000000000
 11
251.6667218028301
 21
232.1101642688889
 31
0.0000000000000000
  0
LINE
  5
27A
100
AcDbEntity
  8
MAIN0
  6
CONTINUOUS
 62
3
100
AcDbLine
 10
251.6667218028301
 20
232.1101642688889
 30
0.0000000000000000
 11
253.1667218028301
 21
230.6101642688889
 31
0.0000000000000000
  0
LINE
  5
27B
100
AcDbEntity
  8
MAIN0
  6
CONTINUOUS
 62
3
100
AcDbLine
 10
253.1667218028301
 20
230.6101642688889
 30
0.0000000000000000
 11
256.1667218028301
 21
230.6101642688889
 31
0.0000000000000000
  0
LINE
  5
27C
100
AcDbEntity
  8
MAIN0
  6
CONTINUOUS
 62
3
100
AcDbLine
 10
257.6667218028301
 20
232.1101642688889
 30
0.0000000000000000
 11
251.6667218028301
 21
232.1101642688889
 31
0.0000000000000000
  0
LINE
  5
27D
100
AcDbEntity
  8
MAIN0
  6
CONTINUOUS
 62
3
100
AcDbLine
 10
257.6667218028301
 20
238.1101642688889
 30
0.0000000000000000
 11
251.6667218028301
 21
238.1101642688889
 31
0.0000000000000000
  0
LINE
  5
27E
100
AcDbEntity
  8
MAIN0
  6
CONTINUOUS
 62
3
100
AcDbLine
 10
257.1254558028301
 20
231.5688982688889
 30
0.0000000000000000
 11
257.1254558028301
 21
238.4226643396921
 31
0.0000000000000000
  0
LINE
  5
27F
100
AcDbEntity
  8
MAIN0
  6
CONTINUOUS
 62
3
100
AcDbLine
 10
252.2079878028301
 20
231.5688982688889
 30
0.0000000000000000
 11
252.2079878028301
 21
238.4226643396921
 31
0.0000000000000000
  0
LINE
  5
280
100
AcDbEntity
  8
MAIN0
  6
HIDDEN
 62
3
100
AcDbLine
 10
256.1667218028301
 20
230.6101642688889
 30
0.0000000000000000
 11
254.6667218028301
 21
232.1101642688889
 31
0.0000000000000000
  0
LINE
  5
281
100
AcDbEntity
  8
MAIN0
  6
HIDDEN
 62
3
100
AcDbLine
 10
254.6667218028301
 20
232.1101642688889
 30
0.0000000000000000
 11
253.1667218028301
 21
230.6101642688889
 31
0.0000000000000000
  0
LINE
  5
282
100
AcDbEntity
  8
MAIN0
  6
CONTINUOUS
 62
3
100
AcDbLine
 10
256.6667218028301
 20
238.6101642688889
 30
0.0000000000000000
 11
257.6667218028301
 21
239.6101642688889
 31
0.0000000000000000
  0
LINE
  5
283
100
AcDbEntity
  8
MAIN0
  6
CONTINUOUS
 62
3
100
AcDbLine
 10
257.6667218028301
 20
239.6101642688889
 30
0.0000000000000000
 11
257.6667218028301
 21
244.1101642688889
 31
0.0000000000000000
  0
LINE
  5
284
100
AcDbEntity
  8
MAIN0
  6
CONTINUOUS
 62
3
100
AcDbLine
 10
257.6667218028301
 20
244.1101642688889
 30
0.0000000000000000
 11
256.8006963990457
 21
244.6101642688889
 31
0.0000000000000000
  0
LINE
  5
285
100
AcDbEntity
  8
MAIN0
  6
CONTINUOUS
 62
3
100
AcDbLine
 10
256.8006963990457
 20
244.6101642688889
 30
0.0000000000000000
 11
252.5327472066146
 21
244.6101642688889
 31
0.0000000000000000
  0
LINE
  5
286
100
AcDbEntity
  8
MAIN0
  6
CONTINUOUS
 62
3
100
AcDbLine
 10
252.5327472066145
 20
244.6101642688889
 30
0.0000000000000000
 11
251.6667218028301
 21
244.1101642688889
 31
0.0000000000000000
  0
LINE
  5
287
100
AcDbEntity
  8
MAIN0
  6
CONTINUOUS
 62
3
100
AcDbLine
 10
251.6667218028301
 20
244.1101642688889
 30
0.0000000000000000
 11
251.6667218028301
 21
239.6101642688889
 31
0.0000000000000000
  0
LINE
  5
288
100
AcDbEntity
  8
MAIN0
  6
CONTINUOUS
 62
3
100
AcDbLine
 10
251.6667218028301
 20
239.6101642688889
 30
0.0000000000000000
 11
252.6667218028301
 21
238.6101642688889
 31
0.0000000000000000
  0
LINE
  5
289
100
AcDbEntity
  8
MAIN0
  6
CONTINUOUS
 62
3
100
AcDbLine
 10
252.6667218028301
 20
238.6101642688889
 30
0.0000000000000000
 11
256.6667218028301
 21
238.6101642688889
 31
0.0000000000000000
  0
LINE
  5
28A
100
AcDbEntity
  8
MAIN0
  6
CONTINUOUS
 62
3
100
AcDbLine
 10
257.6667218028301
 20
239.6101642688889
 30
0.0000000000000000
 11
251.6667218028301
 21
239.6101642688889
 31
0.0000000000000000
  0
LINE
  5
28B
100
AcDbEntity
  8
MAIN0
  6
CONTINUOUS
 62
3
100
AcDbLine
 10
257.6667218028301
 20
244.1101642688889
 30
0.0000000000000000
 11
251.6667218028301
 21
244.1101642688889
 31
0.0000000000000000
  0
LINE
  5
28C
100
AcDbEntity
  8
MAIN0
  6
CONTINUOUS
 62
3
100
AcDbLine
 10
257.1254558028301
 20
239.0688982688889
 30
0.0000000000000000
 11
257.1254558028301
 21
244.4226643396921
 31
0.0000000000000000
  0
LINE
  5
28D
100
AcDbEntity
  8
MAIN0
  6
CONTINUOUS
 62
3
100
AcDbLine
 10
252.2079878028301
 20
239.0688982688889
 30
0.0000000000000000
 11
252.2079878028301
 21
244.4226643396921
 31
0.0000000000000000
  0
LINE
  5
28E
100
AcDbEntity
  8
MAIN0
  6
PHANTOM
 62
12
100
AcDbLine
 10
467.1667136433161
 20
234.1101642688888
 30
0.0000000000000000
 11
467.1667136433161
 21
216.1101642688892
 31
0.0000000000000000
  0
LINE
  5
28F
100
AcDbEntity
  8
MAIN0
  6
CONTINUOUS
 62
3
100
AcDbLine
 10
476.1667136433164
 20
235.1101642688889
 30
0.0000000000000000
 11
477.1667136433164
 21
234.1101642688889
 31
0.0000000000000000
  0
LINE
  5
290
100
AcDbEntity
  8
MAIN0
  6
CONTINUOUS
 62
3
100
AcDbLine
 10
476.1667136433164
 20
215.1101642688889
 30
0.0000000000000000
 11
477.1667136433164
 21
216.1101642688889
 31
0.0000000000000000
  0
LINE
  5
291
100
AcDbEntity
  8
MAIN0
  6
CONTINUOUS
 62
3
100
AcDbLine
 10
468.1667136433165
 20
235.1101642688889
 30
0.0000000000000000
 11
467.1667136433164
 21
234.1101642688889
 31
0.0000000000000000
  0
LINE
  5
292
100
AcDbEntity
  8
MAIN0
  6
CONTINUOUS
 62
3
100
AcDbLine
 10
468.1667136433163
 20
215.1101642688889
 30
0.0000000000000000
 11
467.1667136433163
 21
216.1101642688889
 31
0.0000000000000000
  0
LINE
  5
293
100
AcDbEntity
  8
MAIN0
  6
CONTINUOUS
 62
3
100
AcDbLine
 10
476.1667136433163
 20
235.1101642688889
 30
0.0000000000000000
 11
468.1667136433164
 21
235.1101642688889
 31
0.0000000000000000
  0
LINE
  5
294
100
AcDbEntity
  8
MAIN0
  6
CONTINUOUS
 62
3
100
AcDbLine
 10
476.1667136433163
 20
215.1101642688889
 30
0.0000000000000000
 11
468.1667136433164
 21
215.1101642688889
 31
0.0000000000000000
  0
LINE
  5
295
100
AcDbEntity
  8
MAIN0
  6
CONTINUOUS
 62
3
100
AcDbLine
 10
477.1667136433164
 20
234.1101642688889
 30
0.0000000000000000
 11
477.1667136433163
 21
216.1101642688890
 31
0.0000000000000000
  0
LINE
  5
296
100
AcDbEntity
  8
MAIN0
  6
CONTINUOUS
 62
3
100
AcDbLine
 10
466.1667136433161
 20
235.1101642688890
 30
0.0000000000000000
 11
467.1667136433161
 21
234.1101642688889
 31
0.0000000000000000
  0
LINE
  5
297
100
AcDbEntity
  8
MAIN0
  6
CONTINUOUS
 62
3
100
AcDbLine
 10
466.1667136433161
 20
215.1101642688889
 30
0.0000000000000000
 11
467.1667136433161
 21
216.1101642688889
 31
0.0000000000000000
  0
LINE
  5
298
100
AcDbEntity
  8
MAIN0
  6
CONTINUOUS
 62
3
100
AcDbLine
 10
467.1667136433161
 20
234.1101642688889
 30
0.0000000000000000
 11
467.1667136433160
 21
216.1101642688890
 31
0.0000000000000000
  0
LINE
  5
299
100
AcDbEntity
  8
MAIN0
  6
CONTINUOUS
 62
3
100
AcDbLine
 10
465.1220118935720
 20
215.1101642688889
 30
0.0000000000000000
 11
466.1667136433160
 21
215.1101642688889
 31
0.0000000000000000
  0
LINE
  5
29A
100
AcDbEntity
  8
MAIN0
  6
CONTINUOUS
 62
3
100
AcDbLine
 10
465.5360722157997
 20
235.1101641087318
 30
0.0000000000000000
 11
466.1667136433160
 21
235.1101642688889
 31
0.0000000000000000
  0
LINE
  5
29B
100
AcDbEntity
  8
MAIN0
  6
CONTINUOUS
 62
3
100
AcDbLine
 10
95.68599179377594
 20
180.1101642688892
 30
0.0000000000000000
 11
134.6859917937759
 21
180.1101642688892
 31
0.0000000000000000
  0
LINE
  5
29C
100
AcDbEntity
  8
MAIN0
  6
CONTINUOUS
 62
3
100
AcDbLine
 10
94.68599179377594
 20
183.1101642688891
 30
0.0000000000000000
 11
94.68599179377594
 21
181.1101642688892
 31
0.0000000000000000
  0
ARC
  5
29D
100
AcDbEntity
  8
MAIN0
  6
CONTINUOUS
 62
3
100
AcDbCircle
 10
95.68599179377594
 20
181.1101642688892
 30
0.0000000000000000
 40
1.000000000000000
100
AcDbArc
 50
180.0000000000000
 51
270.0000000000000
  0
ARC
  5
29E
100
AcDbEntity
  8
MAIN0
  6
CONTINUOUS
 62
3
100
AcDbCircle
 10
91.68599179377594
 20
183.1101642688891
 30
0.0000000000000000
 40
3.000000000000000
100
AcDbArc
 50
0.0000000000000000
 51
90.00000000000000
  0
ARC
  5
29F
100
AcDbEntity
  8
MAIN0
  6
CONTINUOUS
 62
3
100
AcDbCircle
 10
134.6859917937759
 20
181.1101642688892
 30
0.0000000000000000
 40
1.000000000000000
100
AcDbArc
 50
270.0000000000000
 51
360.0000000000000
  0
LINE
  5
2A0
100
AcDbEntity
  8
MAIN0
  6
CONTINUOUS
 62
3
100
AcDbLine
 10
135.6859917937759
 20
181.1101642688892
 30
0.0000000000000000
 11
135.6859917937759
 21
185.5658852894968
 31
0.0000000000000000
  0
ARC
  5
2A1
100
AcDbEntity
  8
MAIN0
  6
CONTINUOUS
 62
3
100
AcDbCircle
 10
138.6859917937759
 20
185.5658852894968
 30
0.0000000000000000
 40
3.000000000000000
100
AcDbArc
 50
120.7217684180168
 51
180.0000000000000
  0
LINE
  5
2A2
100
AcDbEntity
  8
MAIN0
  6
CONTINUOUS
 62
12
100
AcDbLine
 10
465.1220118935721
 20
215.1101642688894
 30
0.0000000000000000
 11
507.8780466682352
 21
215.1101642688894
 31
0.0000000000000000
  0
LINE
  5
2A3
100
AcDbEntity
  8
MAIN0
  6
CONTINUOUS
 62
12
100
AcDbLine
 10
465.5360722157997
 20
235.1101642688894
 30
0.0000000000000000
 11
507.8780466682358
 21
235.1101642688894
 31
0.0000000000000000
  0
LINE
  5
2A4
100
AcDbEntity
  8
MAIN0
  6
CONTINUOUS
 62
3
100
AcDbLine
 10
464.9894183928683
 20
216.3601642688893
 30
0.0000000000000000
 11
507.1563588317480
 21
216.3601642688893
 31
0.0000000000000000
  0
LINE
  5
2A5
100
AcDbEntity
  8
MAIN0
  6
CONTINUOUS
 62
3
100
AcDbLine
 10
465.4994338417952
 20
233.8601642688893
 30
0.0000000000000000
 11
507.1563588317488
 21
233.8601642688893
 31
0.0000000000000000
  0
LINE
  5
2A6
100
AcDbEntity
  8
MAIN0
  6
CONTINUOUS
 62
12
100
AcDbLine
 10
448.1667218028306
 20
170.1101642688890
 30
0.0000000000000000
 11
467.7167218028305
 21
170.1101642688890
 31
0.0000000000000000
  0
LINE
  5
2A7
100
AcDbEntity
  8
MAIN0
  6
CONTINUOUS
 62
12
100
AcDbLine
 10
448.1667218028306
 20
180.1101642688890
 30
0.0000000000000000
 11
467.7167218028307
 21
180.1101642688890
 31
0.0000000000000000
  0
LINE
  5
2A8
100
AcDbEntity
  8
MAIN0
  6
CONTINUOUS
 62
3
100
AcDbLine
 10
466.9667218028308
 20
170.8601642688888
 30
0.0000000000000000
 11
468.1667218028306
 21
169.6601642688887
 31
0.0000000000000000
  0
LINE
  5
2A9
100
AcDbEntity
  8
MAIN0
  6
CONTINUOUS
 62
3
100
AcDbLine
 10
466.9667218028307
 20
179.3601642688888
 30
0.0000000000000000
 11
468.1667218028306
 21
180.5601642688886
 31
0.0000000000000000
  0
LINE
  5
2AA
100
AcDbEntity
  8
MAIN0
  6
CONTINUOUS
 62
3
100
AcDbLine
 10
445.1667218028306
 20
170.8601642688890
 30
0.0000000000000000
 11
467.9667218028308
 21
170.8601642688889
 31
0.0000000000000000
  0
LINE
  5
2AB
100
AcDbEntity
  8
MAIN0
  6
CONTINUOUS
 62
3
100
AcDbLine
 10
445.1667218028306
 20
179.3601642688890
 30
0.0000000000000000
 11
467.9667218028307
 21
179.3601642688889
 31
0.0000000000000000
  0
LINE
  5
2AC
100
AcDbEntity
  8
MAIN0
  6
CONTINUOUS
 62
3
100
AcDbLine
 10
448.1667218028306
 20
170.1101642688890
 30
0.0000000000000000
 11
448.1667218028306
 21
180.1101642688890
 31
0.0000000000000000
  0
LINE
  5
2AD
100
AcDbEntity
  8
MAIN0
  6
CONTINUOUS
 62
3
100
AcDbLine
 10
445.1667218028306
 20
170.8601642688890
 30
0.0000000000000000
 11
445.1667218028306
 21
179.3601642688890
 31
0.0000000000000000
  0
LINE
  5
2AE
100
AcDbEntity
  8
MAIN0
  6
CONTINUOUS
 62
3
100
AcDbLine
 10
442.7129831587747
 20
175.1101642688891
 30
0.0000000000000000
 11
445.1667218028306
 21
170.8601642688889
 31
0.0000000000000000
  0
LINE
  5
2AF
100
AcDbEntity
  8
MAIN0
  6
CONTINUOUS
 62
3
100
AcDbLine
 10
442.7129831587747
 20
175.1101642688890
 30
0.0000000000000000
 11
445.1667218028306
 21
179.3601642688888
 31
0.0000000000000000
  0
LINE
  5
2B0
100
AcDbEntity
  8
MAIN0
  6
CONTINUOUS
 62
3
100
AcDbLine
 10
351.1667218028310
 20
186.1101642688889
 30
0.0000000000000000
 11
351.1667218028310
 21
264.1101642688889
 31
0.0000000000000000
  0
LINE
  5
2B1
100
AcDbEntity
  8
MAIN0
  6
CONTINUOUS
 62
3
100
AcDbLine
 10
337.1667218028309
 20
265.1101642688888
 30
0.0000000000000000
 11
340.1667218028311
 21
265.1101642688888
 31
0.0000000000000000
  0
LINE
  5
2B2
100
AcDbEntity
  8
MAIN0
  6
CONTINUOUS
 62
3
100
AcDbLine
 10
287.1667218028308
 20
185.1101642688051
 30
0.0000000000000000
 11
287.1667218028308
 21
265.1101642688887
 31
0.0000000000000000
  0
LINE
  5
2B3
100
AcDbEntity
  8
MAIN0
  6
CONTINUOUS
 62
3
100
AcDbLine
 10
284.7667218028309
 20
265.1101642688888
 30
0.0000000000000000
 11
287.1667218028308
 21
265.1101642688888
 31
0.0000000000000000
  0
LINE
  5
2B4
100
AcDbEntity
  8
MAIN0
  6
CONTINUOUS
 62
3
100
AcDbLine
 10
327.1667218028308
 20
184.1101642688889
 30
0.0000000000000000
 11
336.5893715336411
 21
184.1101642688889
 31
0.0000000000000000
  0
LINE
  5
2B5
100
AcDbEntity
  8
MAIN0
  6
CONTINUOUS
 62
3
100
AcDbLine
 10
337.1667218028309
 20
185.1101642688890
 30
0.0000000000000000
 11
340.1667218028311
 21
185.1101642688890
 31
0.0000000000000000
  0
LINE
  5
2B6
100
AcDbEntity
  8
MAIN0
  6
CONTINUOUS
 62
3
100
AcDbLine
 10
284.7667218028309
 20
185.1101642688890
 30
0.0000000000000000
 11
287.1667218028308
 21
185.1101642688890
 31
0.0000000000000000
  0
LINE
  5
2B7
100
AcDbEntity
  8
MAIN0
  6
CENTER
 62
12
100
AcDbLine
 10
310.1667218028308
 20
171.9755499695260
 30
0.0000000000000000
 11
310.1667218028308
 21
203.2113564672887
 31
0.0000000000000000
  0
LINE
  5
2B8
100
AcDbEntity
  8
MAIN0
  6
CONTINUOUS
 62
3
100
AcDbLine
 10
323.1667218028308
 20
180.1101642688889
 30
0.0000000000000000
 11
297.1667218028309
 21
180.1101642688890
 31
0.0000000000000000
  0
LINE
  5
2B9
100
AcDbEntity
  8
MAIN0
  6
CONTINUOUS
 62
3
100
AcDbLine
 10
287.7440720720201
 20
184.1101642688889
 30
0.0000000000000000
 11
293.1667218028308
 21
184.1101642688889
 31
0.0000000000000000
  0
LINE
  5
2BA
100
AcDbEntity
  8
MAIN0
  6
HIDDEN
 62
12
100
AcDbLine
 10
155.1859917937757
 20
237.8281319661338
 30
0.0000000000000000
 11
142.6200868561008
 21
259.5929177612674
 31
0.0000000000000000
  0
LINE
  5
2BB
100
AcDbEntity
  8
MAIN0
  6
HIDDEN
 62
12
100
AcDbLine
 10
128.1859917937759
 20
180.1101642688892
 30
0.0000000000000000
 11
102.1859917937759
 21
180.1101642688892
 31
0.0000000000000000
  0
LINE
  5
2BC
100
AcDbEntity
  8
MAIN0
  6
HIDDEN
 62
12
100
AcDbLine
 10
130.1859917937759
 20
182.1101641512665
 30
0.0000000000000000
 11
130.1859917937759
 21
184.4471607164767
 31
0.0000000000000000
  0
LINE
  5
2BD
100
AcDbEntity
  8
MAIN0
  6
HIDDEN
 62
12
100
AcDbLine
 10
100.1859917937759
 20
182.1101638103116
 30
0.0000000000000000
 11
100.1859917937759
 21
184.4471607164767
 31
0.0000000000000000
  0
LINE
  5
2BE
100
AcDbEntity
  8
MAIN0
  6
HIDDEN
 62
12
100
AcDbLine
 10
108.6074917937758
 20
180.1101642688891
 30
0.0000000000000000
 11
108.7528327967267
 21
184.7610763633165
 31
0.0000000000000000
  0
LINE
  5
2BF
100
AcDbEntity
  8
MAIN0
  6
HIDDEN
 62
12
100
AcDbLine
 10
109.4634917937758
 20
180.1101642688891
 30
0.0000000000000000
 11
109.6079976747755
 21
184.7343524608775
 31
0.0000000000000000
  0
LINE
  5
2C0
100
AcDbEntity
  8
MAIN0
  6
HIDDEN
 62
12
100
AcDbLine
 10
121.6185356736249
 20
184.7807601137206
 30
0.0000000000000000
 11
121.7644917937759
 21
180.1101642688892
 31
0.0000000000000000
  0
LINE
  5
2C1
100
AcDbEntity
  8
MAIN0
  6
HIDDEN
 62
12
100
AcDbLine
 10
120.7633707955762
 20
184.7540362112816
 30
0.0000000000000000
 11
120.9084917937759
 21
180.1101642688891
 31
0.0000000000000000
  0
LINE
  5
2C2
100
AcDbEntity
  8
MAIN0
  6
CENTER
 62
12
100
AcDbLine
 10
143.8108216403730
 20
239.1101642688889
 30
0.0000000000000000
 11
159.3307059690069
 21
239.1101642688889
 31
0.0000000000000000
  0
LINE
  5
2C3
100
AcDbEntity
  8
MAIN0
  6
CENTER
 62
12
100
AcDbLine
 10
143.6816636083247
 20
211.1101642688889
 30
0.0000000000000000
 11
159.3307059690069
 21
211.1101642688889
 31
0.0000000000000000
  0
LINE
  5
2C4
100
AcDbEntity
  8
MAIN0
  6
HIDDEN
 62
12
100
AcDbLine
 10
144.1859917937758
 20
203.1229142688891
 30
0.0000000000000000
 11
155.1859917937759
 21
202.7791642688890
 31
0.0000000000000000
  0
LINE
  5
2C5
100
AcDbEntity
  8
MAIN0
  6
HIDDEN
 62
12
100
AcDbLine
 10
144.1859917937758
 20
203.9789142688892
 30
0.0000000000000000
 11
155.1859917937759
 21
203.6351642688891
 31
0.0000000000000000
  0
LINE
  5
2C6
100
AcDbEntity
  8
MAIN0
  6
HIDDEN
 62
12
100
AcDbLine
 10
155.1859917937758
 20
219.4411642688890
 30
0.0000000000000000
 11
144.1859917937758
 21
219.0974142688889
 31
0.0000000000000000
  0
LINE
  5
2C7
100
AcDbEntity
  8
MAIN0
  6
HIDDEN
 62
12
100
AcDbLine
 10
155.1859917937758
 20
218.5851642688890
 30
0.0000000000000000
 11
144.1859917937758
 21
218.2414142688890
 31
0.0000000000000000
  0
LINE
  5
2C8
100
AcDbEntity
  8
MAIN0
  6
HIDDEN
 62
12
100
AcDbLine
 10
144.1859917937758
 20
231.1229142688890
 30
0.0000000000000000
 11
155.1859917937758
 21
230.7791642688890
 31
0.0000000000000000
  0
LINE
  5
2C9
100
AcDbEntity
  8
MAIN0
  6
HIDDEN
 62
12
100
AcDbLine
 10
144.1859917937758
 20
231.9789142688890
 30
0.0000000000000000
 11
155.1859917937759
 21
231.6351642688890
 31
0.0000000000000000
  0
LINE
  5
2CA
100
AcDbEntity
  8
MAIN0
  6
HIDDEN
 62
12
100
AcDbLine
 10
155.1859917937759
 20
247.4411642688889
 30
0.0000000000000000
 11
144.1859917937759
 21
247.0974142688889
 31
0.0000000000000000
  0
LINE
  5
2CB
100
AcDbEntity
  8
MAIN0
  6
HIDDEN
 62
12
100
AcDbLine
 10
155.1859917937759
 20
246.5851642688890
 30
0.0000000000000000
 11
144.1859917937758
 21
246.2414142688889
 31
0.0000000000000000
  0
LINE
  5
2CC
100
AcDbEntity
  8
MAIN0
  6
HIDDEN
 62
12
100
AcDbLine
 10
75.18599179377583
 20
199.0558485102116
 30
0.0000000000000000
 11
75.18599179377583
 21
251.1644800275663
 31
0.0000000000000000
  0
LINE
  5
2CD
100
AcDbEntity
  8
MAIN0
  6
CONTINUOUS
 62
3
100
AcDbLine
 10
155.1859917937758
 20
199.0558485102114
 30
0.0000000000000000
 11
155.1859917937758
 21
209.3304304308295
 31
0.0000000000000000
  0
LINE
  5
2CE
100
AcDbEntity
  8
MAIN0
  6
HIDDEN
 62
12
100
AcDbLine
 10
155.1859917937758
 20
209.3304304308295
 30
0.0000000000000000
 11
155.1859917937758
 21
251.1644800275663
 31
0.0000000000000000
  0
ARC
  5
2CF
100
AcDbEntity
  8
MAIN0
  6
CONTINUOUS
 62
3
100
AcDbCircle
 10
327.1667218028308
 20
182.1101642688889
 30
0.0000000000000000
 40
2.000000000000000
100
AcDbArc
 50
89.99999999999970
 51
179.9999999999998
  0
ARC
  5
2D0
100
AcDbEntity
  8
MAIN0
  6
CONTINUOUS
 62
3
100
AcDbCircle
 10
323.1667218028309
 20
182.1101642688889
 30
0.0000000000000000
 40
2.000000000000000
100
AcDbArc
 50
269.9999999999999
 51
359.9999999999998
  0
ARC
  5
2D1
100
AcDbEntity
  8
MAIN0
  6
CONTINUOUS
 62
3
100
AcDbCircle
 10
297.1667218028308
 20
182.1101642688889
 30
0.0000000000000000
 40
2.000000000000000
100
AcDbArc
 50
179.9999999999998
 51
269.9999999999999
  0
ARC
  5
2D2
100
AcDbEntity
  8
MAIN0
  6
CONTINUOUS
 62
3
100
AcDbCircle
 10
293.1667218028308
 20
182.1101642688889
 30
0.0000000000000000
 40
2.000000000000000
100
AcDbArc
 50
0.0000000000000000
 51
89.99999999999970
  0
ARC
  5
2D3
100
AcDbEntity
  8
MAIN0
  6
HIDDEN
 62
12
100
AcDbCircle
 10
115.1859917937758
 20
205.1101642688892
 30
0.0000000000000000
 40
60.99999999999966
100
AcDbArc
 50
49.02438965740429
 51
130.9756103425957
  0
ARC
  5
2D4
100
AcDbEntity
  8
MAIN0
  6
HIDDEN
 62
12
100
AcDbCircle
 10
132.1859917937759
 20
184.4471607164767
 30
0.0000000000000000
 40
2.000000000000000
100
AcDbArc
 50
105.6548217036081
 51
179.9999999999998
  0
ARC
  5
2D5
100
AcDbEntity
  8
MAIN0
  6
HIDDEN
 62
12
100
AcDbCircle
 10
98.18599179377588
 20
184.4471607164767
 30
0.0000000000000000
 40
2.000000000000000
100
AcDbArc
 50
0.0000000000000000
 51
74.34517829639128
  0
ARC
  5
2D6
100
AcDbEntity
  8
MAIN0
  6
HIDDEN
 62
12
100
AcDbCircle
 10
115.1859917937758
 20
245.1101642688887
 30
0.0000000000000000
 40
60.99999999999966
100
AcDbArc
 50
229.0243896574039
 51
291.3855919881229
  0
ARC
  5
2D7
100
AcDbEntity
  8
MAIN0
  6
CONTINUOUS
 62
3
100
AcDbCircle
 10
115.1859917937758
 20
245.1101642688887
 30
0.0000000000000000
 40
60.99999999999966
100
AcDbArc
 50
291.3855919881229
 51
310.9756103425955
  0
ARC
  5
2D8
100
AcDbEntity
  8
MAIN0
  6
HIDDEN
 62
12
100
AcDbCircle
 10
102.1859917937759
 20
182.1101642688892
 30
0.0000000000000000
 40
2.000000000000000
100
AcDbArc
 50
179.9999999999998
 51
209.9999999999996
  0
ARC
  5
2D9
100
AcDbEntity
  8
MAIN0
  6
HIDDEN
 62
12
100
AcDbCircle
 10
102.1859917937759
 20
182.1101642688892
 30
0.0000000000000000
 40
2.000000000000000
100
AcDbArc
 50
209.9999999999996
 51
269.9999999999999
  0
ARC
  5
2DA
100
AcDbEntity
  8
MAIN0
  6
HIDDEN
 62
12
100
AcDbCircle
 10
128.1859917937759
 20
182.1101642688892
 30
0.0000000000000000
 40
2.000000000000000
100
AcDbArc
 50
269.9999999999999
 51
330.0000000000015
  0
ARC
  5
2DB
100
AcDbEntity
  8
MAIN0
  6
HIDDEN
 62
12
100
AcDbCircle
 10
128.1859917937759
 20
182.1101642688892
 30
0.0000000000000000
 40
2.000000000000000
100
AcDbArc
 50
330.0000000000015
 51
359.9999999999998
  0
LINE
  5
2DC
100
AcDbEntity
  8
MAIN0
  6
CONTINUOUS
 62
3
100
AcDbLine
 10
282.7667218028308
 20
265.1101642688887
 30
0.0000000000000000
 11
284.6667218028309
 21
265.1101642688888
 31
0.0000000000000000
  0
LINE
  5
2DD
100
AcDbEntity
  8
MAIN0
  6
CONTINUOUS
 62
3
100
AcDbLine
 10
218.1667218028285
 20
180.1101642688890
 30
0.0000000000000000
 11
281.4269758406751
 21
180.1101642688889
 31
0.0000000000000000
  0
LINE
  5
2DE
100
AcDbEntity
  8
MAIN0
  6
CONTINUOUS
 62
3
100
AcDbLine
 10
281.6949250331062
 20
269.1101642688888
 30
0.0000000000000000
 11
282.7667218028307
 21
265.1101642688887
 31
0.0000000000000000
  0
LINE
  5
2DF
100
AcDbEntity
  8
MAIN0
  6
CONTINUOUS
 62
3
100
AcDbLine
 10
282.7667218028308
 20
185.1101642688891
 30
0.0000000000000000
 11
284.6667218028309
 21
185.1101642688891
 31
0.0000000000000000
  0
LINE
  5
2E0
100
AcDbEntity
  8
MAIN0
  6
CONTINUOUS
 62
3
100
AcDbLine
 10
281.4269758406750
 20
180.1101642688890
 30
0.0000000000000000
 11
282.7667218028307
 21
185.1101642688892
 31
0.0000000000000000
  0
LINE
  5
2E1
100
AcDbEntity
  8
MAIN0
  6
CONTINUOUS
 62
3
100
AcDbLine
 10
244.1667218028287
 20
186.1101642688891
 30
0.0000000000000000
 11
272.1667218028309
 21
186.1101642688890
 31
0.0000000000000000
  0
LINE
  5
2E2
100
AcDbEntity
  8
MAIN0
  6
CONTINUOUS
 62
3
100
AcDbLine
 10
267.1667218028309
 20
240.3959626045654
 30
0.0000000000000000
 11
267.1667218028309
 21
245.1101642688887
 31
0.0000000000000000
  0
LINE
  5
2E3
100
AcDbEntity
  8
MAIN0
  6
CONTINUOUS
 62
3
100
AcDbLine
 10
264.1667218028309
 20
232.6101642688889
 30
0.0000000000000000
 11
264.1667218028309
 21
248.1101642688887
 31
0.0000000000000000
  0
LINE
  5
2E4
100
AcDbEntity
  8
MAIN0
  6
CONTINUOUS
 62
3
100
AcDbLine
 10
267.1667218028309
 20
242.6101642688887
 30
0.0000000000000000
 11
264.1667218028309
 21
242.6101642688887
 31
0.0000000000000000
  0
LINE
  5
2E5
100
AcDbEntity
  8
MAIN0
  6
CONTINUOUS
 62
3
100
AcDbLine
 10
267.1667218028309
 20
245.1101642688887
 30
0.0000000000000000
 11
268.8728598271978
 21
245.1101642688887
 31
0.0000000000000000
  0
LINE
  5
2E6
100
AcDbEntity
  8
MAIN0
  6
CONTINUOUS
 62
3
100
AcDbLine
 10
266.1667218028309
 20
250.1101642688887
 30
0.0000000000000000
 11
268.3382946780847
 21
250.1101642688887
 31
0.0000000000000000
  0
LINE
  5
2E7
100
AcDbEntity
  8
MAIN0
  6
CONTINUOUS
 62
3
100
AcDbLine
 10
269.7525082404578
 20
250.6959507065156
 30
0.0000000000000000
 11
273.8738285840175
 21
254.8172710500752
 31
0.0000000000000000
  0
LINE
  5
2E8
100
AcDbEntity
  8
MAIN0
  6
CONTINUOUS
 62
3
100
AcDbLine
 10
264.1667218028309
 20
217.6101642688890
 30
0.0000000000000000
 11
264.1667218028309
 21
202.1101642688892
 31
0.0000000000000000
  0
LINE
  5
2E9
100
AcDbEntity
  8
MAIN0
  6
CONTINUOUS
 62
3
100
AcDbLine
 10
266.1667218028309
 20
200.1101642688892
 30
0.0000000000000000
 11
268.3382946780847
 21
200.1101642688892
 31
0.0000000000000000
  0
LINE
  5
2EA
100
AcDbEntity
  8
MAIN0
  6
CONTINUOUS
 62
3
100
AcDbLine
 10
269.7525082404578
 20
199.5243778312623
 30
0.0000000000000000
 11
272.9167258346458
 21
196.3601602370743
 31
0.0000000000000000
  0
LINE
  5
2EB
100
AcDbEntity
  8
MAIN0
  6
CONTINUOUS
 62
3
100
AcDbLine
 10
267.1667218028309
 20
205.1101642688892
 30
0.0000000000000000
 11
267.1667218028309
 21
207.0974048673582
 31
0.0000000000000000
  0
LINE
  5
2EC
100
AcDbEntity
  8
MAIN0
  6
CONTINUOUS
 62
3
100
AcDbLine
 10
264.1667218028309
 20
207.6101642688892
 30
0.0000000000000000
 11
267.0149385306607
 21
207.6101642688892
 31
0.0000000000000000
  0
LINE
  5
2ED
100
AcDbEntity
  8
MAIN0
  6
CONTINUOUS
 62
3
100
AcDbLine
 10
267.1667218028309
 20
205.1101642688892
 30
0.0000000000000000
 11
268.1359367792116
 21
205.1101642688892
 31
0.0000000000000000
  0
LINE
  5
2EE
100
AcDbEntity
  8
MAIN0
  6
CONTINUOUS
 62
3
100
AcDbLine
 10
242.1667218028287
 20
188.1101642688892
 30
0.0000000000000000
 11
242.1667218028287
 21
189.1101642688889
 31
0.0000000000000000
  0
LINE
  5
2EF
100
AcDbEntity
  8
MAIN0
  6
CONTINUOUS
 62
3
100
AcDbLine
 10
218.1667218028289
 20
191.1101642688890
 30
0.0000000000000000
 11
240.1667218028288
 21
191.1101642688890
 31
0.0000000000000000
  0
LINE
  5
2F0
100
AcDbEntity
  8
MAIN0
  6
CENTER
 62
12
100
AcDbLine
 10
211.8395953930725
 20
186.1101642688890
 30
0.0000000000000000
 11
226.4590079556140
 21
186.1101642688890
 31
0.0000000000000000
  0
LINE
  5
2F1
100
AcDbEntity
  8
MAIN0
  6
CONTINUOUS
 62
3
100
AcDbLine
 10
274.0207714246049
 20
187.3601642688890
 30
0.0000000000000000
 11
277.6667238028309
 21
187.3601642688890
 31
0.0000000000000000
  0
LINE
  5
2F2
100
AcDbEntity
  8
MAIN0
  6
CONTINUOUS
 62
3
100
AcDbLine
 10
272.4167218028309
 20
196.8601642688892
 30
0.0000000000000000
 11
275.6292977580758
 21
196.8601642688892
 31
0.0000000000000000
  0
LINE
  5
2F3
100
AcDbEntity
  8
MAIN0
  6
CENTER
 62
12
100
AcDbLine
 10
269.1263867454875
 20
192.1101642688890
 30
0.0000000000000000
 11
290.0514395489677
 21
192.1101642688890
 31
0.0000000000000000
  0
LINE
  5
2F4
100
AcDbEntity
  8
MAIN0
  6
CONTINUOUS
 62
3
100
AcDbLine
 10
274.1667218028309
 20
262.1101642688888
 30
0.0000000000000000
 11
274.1667218028309
 21
255.5243778312620
 31
0.0000000000000000
  0
LINE
  5
2F5
100
AcDbEntity
  8
MAIN0
  6
CONTINUOUS
 62
3
100
AcDbLine
 10
270.1667218028308
 20
251.1101642688887
 30
0.0000000000000000
 11
275.2667218028304
 21
251.1101642688887
 31
0.0000000000000000
  0
LINE
  5
2F6
100
AcDbEntity
  8
MAIN0
  6
CONTINUOUS
 62
3
100
AcDbLine
 10
275.2667218028304
 20
251.1101642688888
 30
0.0000000000000000
 11
275.2667218028309
 21
269.1101642688888
 31
0.0000000000000000
  0
LINE
  5
2F7
100
AcDbEntity
  8
MAIN0
  6
CONTINUOUS
 62
3
100
AcDbLine
 10
220.1667218028310
 20
264.1101642688888
 30
0.0000000000000000
 11
220.1667218028310
 21
269.1101642688888
 31
0.0000000000000000
  0
LINE
  5
2F8
100
AcDbEntity
  8
MAIN0
  6
CONTINUOUS
 62
3
100
AcDbLine
 10
216.1667218028310
 20
268.1101642688888
 30
0.0000000000000000
 11
218.1667218028310
 21
268.1101642688888
 31
0.0000000000000000
  0
LINE
  5
2F9
100
AcDbEntity
  8
MAIN0
  6
CONTINUOUS
 62
3
100
AcDbLine
 10
216.1667218028310
 20
182.1101642688890
 30
0.0000000000000000
 11
216.1667218028310
 21
268.1101642688888
 31
0.0000000000000000
  0
LINE
  5
2FA
100
AcDbEntity
  8
MAIN0
  6
CONTINUOUS
 62
3
100
AcDbLine
 10
216.1667218028310
 20
182.1101642688890
 30
0.0000000000000000
 11
218.1667218028310
 21
182.1101642688890
 31
0.0000000000000000
  0
LINE
  5
2FB
100
AcDbEntity
  8
MAIN0
  6
CONTINUOUS
 62
3
100
AcDbLine
 10
193.1667218028312
 20
270.1101642688888
 30
0.0000000000000000
 11
193.1667218028312
 21
273.3101642688887
 31
0.0000000000000000
  0
LINE
  5
2FC
100
AcDbEntity
  8
MAIN0
  6
CONTINUOUS
 62
3
100
AcDbLine
 10
248.1667218028313
 20
270.1101642688888
 30
0.0000000000000000
 11
248.1667218028313
 21
273.3101642688887
 31
0.0000000000000000
  0
LINE
  5
2FD
100
AcDbEntity
  8
MAIN0
  6
CENTER
 62
12
100
AcDbLine
 10
227.1667218028312
 20
278.2313019317997
 30
0.0000000000000000
 11
227.1667218028312
 21
265.6102821082281
 31
0.0000000000000000
  0
LINE
  5
2FE
100
AcDbEntity
  8
MAIN0
  6
CONTINUOUS
 62
3
100
AcDbLine
 10
277.1667218028310
 20
269.1101642688888
 30
0.0000000000000000
 11
277.1667218028310
 21
269.6101642688888
 31
0.0000000000000000
  0
LINE
  5
2FF
100
AcDbEntity
  8
MAIN0
  6
CONTINUOUS
 62
3
100
AcDbLine
 10
206.1667218028310
 20
269.1101642688888
 30
0.0000000000000000
 11
206.1667218028310
 21
269.6101642688888
 31
0.0000000000000000
  0
LINE
  5
300
100
AcDbEntity
  8
MAIN0
  6
CONTINUOUS
 62
3
100
AcDbLine
 10
208.1667218028309
 20
269.6101642688888
 30
0.0000000000000000
 11
208.1667218028309
 21
270.1101642688888
 31
0.0000000000000000
  0
LINE
  5
301
100
AcDbEntity
  8
MAIN0
  6
CONTINUOUS
 62
3
100
AcDbLine
 10
263.1667218028309
 20
269.6101642688889
 30
0.0000000000000000
 11
263.1667218028309
 21
270.1101642688888
 31
0.0000000000000000
  0
LINE
  5
302
100
AcDbEntity
  8
MAIN0
  6
CONTINUOUS
 62
3
100
AcDbLine
 10
93.18599179377588
 20
269.1101642688887
 30
0.0000000000000000
 11
140.5894036381192
 21
269.1101642688888
 31
0.0000000000000000
  0
LINE
  5
303
100
AcDbEntity
  8
MAIN0
  6
CONTINUOUS
 62
3
100
AcDbLine
 10
140.5894036381193
 20
269.1101642688888
 30
0.0000000000000000
 11
164.7911095602910
 21
227.1915799818469
 31
0.0000000000000000
  0
LINE
  5
304
100
AcDbEntity
  8
MAIN0
  6
CENTER
 62
12
100
AcDbLine
 10
146.3304182067987
 20
243.0914072422043
 30
0.0000000000000000
 11
169.5555440945801
 21
256.5004399254778
 31
0.0000000000000000
  0
LINE
  5
305
100
AcDbEntity
  8
MAIN0
  6
CONTINUOUS
 62
3
100
AcDbLine
 10
159.5493452440858
 20
224.1652459428571
 30
0.0000000000000000
 11
164.7911095602910
 21
227.1915799818468
 31
0.0000000000000000
  0
LINE
  5
306
100
AcDbEntity
  8
MAIN0
  6
CONTINUOUS
 62
3
100
AcDbLine
 10
72.18599179377583
 20
186.1101642688890
 30
0.0000000000000000
 11
72.18599179377583
 21
264.1101642688888
 31
0.0000000000000000
  0
LINE
  5
307
100
AcDbEntity
  8
MAIN0
  6
CONTINUOUS
 62
3
100
AcDbLine
 10
71.18599179377583
 20
264.1101642688888
 30
0.0000000000000000
 11
89.18599179377591
 21
264.1101642688888
 31
0.0000000000000000
  0
LINE
  5
308
100
AcDbEntity
  8
MAIN0
  6
CONTINUOUS
 62
3
100
AcDbLine
 10
92.18599179377588
 20
267.1101642688888
 30
0.0000000000000000
 11
92.18599179377588
 21
268.1101642688887
 31
0.0000000000000000
  0
LINE
  5
309
100
AcDbEntity
  8
MAIN0
  6
CONTINUOUS
 62
3
100
AcDbLine
 10
71.18599179377583
 20
186.1101642688890
 30
0.0000000000000000
 11
91.68599179377588
 21
186.1101642688890
 31
0.0000000000000000
  0
LINE
  5
30A
100
AcDbEntity
  8
MAIN0
  6
CENTER
 62
12
100
AcDbLine
 10
131.5367718289208
 20
253.4305460331429
 30
0.0000000000000000
 11
137.6992296977074
 21
264.1042361613839
 31
0.0000000000000000
  0
LINE
  5
30B
100
AcDbEntity
  8
MAIN0
  6
CENTER
 62
12
100
AcDbLine
 10
131.5367718289208
 20
196.7897825046348
 30
0.0000000000000000
 11
137.6992296977074
 21
186.1160923763938
 31
0.0000000000000000
  0
LINE
  5
30C
100
AcDbEntity
  8
MAIN0
  6
CENTER
 62
12
100
AcDbLine
 10
240.1667218028301
 20
255.1101642688887
 30
0.0000000000000000
 11
245.1667218028301
 21
255.1101642688887
 31
0.0000000000000000
  0
LINE
  5
30D
100
AcDbEntity
  8
MAIN0
  6
CENTER
 62
12
100
AcDbLine
 10
245.1667218028301
 20
251.6301273294358
 30
0.0000000000000000
 11
245.1667218028301
 21
255.1101642688882
 31
0.0000000000000000
  0
LINE
  5
30E
100
AcDbEntity
  8
MAIN0
  6
CENTER
 62
12
100
AcDbLine
 10
240.1667218028301
 20
245.1101642688887
 30
0.0000000000000000
 11
240.1667218028301
 21
255.1101642688882
 31
0.0000000000000000
  0
LINE
  5
30F
100
AcDbEntity
  8
MAIN0
  6
CENTER
 62
12
100
AcDbLine
 10
229.1667218028301
 20
245.1101642688887
 30
0.0000000000000000
 11
240.1667218028301
 21
245.1101642688887
 31
0.0000000000000000
  0
LINE
  5
310
100
AcDbEntity
  8
MAIN0
  6
CENTER
 62
12
100
AcDbLine
 10
240.1667218028301
 20
195.1101642688892
 30
0.0000000000000000
 11
245.1667218028301
 21
195.1101642688892
 31
0.0000000000000000
  0
LINE
  5
311
100
AcDbEntity
  8
MAIN0
  6
CENTER
 62
12
100
AcDbLine
 10
245.1667218028301
 20
195.1101642688896
 30
0.0000000000000000
 11
245.1667218028301
 21
198.4807828228234
 31
0.0000000000000000
  0
LINE
  5
312
100
AcDbEntity
  8
MAIN0
  6
CENTER
 62
12
100
AcDbLine
 10
240.1667218028301
 20
205.1101642688892
 30
0.0000000000000000
 11
240.1667218028301
 21
195.1101642688896
 31
0.0000000000000000
  0
LINE
  5
313
100
AcDbEntity
  8
MAIN0
  6
CENTER
 62
12
100
AcDbLine
 10
229.1667218028301
 20
205.1101642688892
 30
0.0000000000000000
 11
240.1667218028301
 21
205.1101642688892
 31
0.0000000000000000
  0
LINE
  5
314
100
AcDbEntity
  8
MAIN0
  6
CENTER
 62
12
100
AcDbLine
 10
229.1667218028301
 20
205.1101642688892
 30
0.0000000000000000
 11
229.1667218028301
 21
245.1101642688887
 31
0.0000000000000000
  0
LINE
  5
315
100
AcDbEntity
  8
MAIN0
  6
CONTINUOUS
 62
3
100
AcDbLine
 10
92.68599179377594
 20
269.6101642688887
 30
0.0000000000000000
 11
137.6859917937761
 21
269.6101642688887
 31
0.0000000000000000
  0
LINE
  5
316
100
AcDbEntity
  8
MAIN0
  6
CONTINUOUS
 62
3
100
AcDbLine
 10
91.18599179377588
 20
270.1101642688887
 30
0.0000000000000000
 11
139.1859917937759
 21
270.1101642688887
 31
0.0000000000000000
  0
LINE
  5
317
100
AcDbEntity
  8
MAIN0
  6
CONTINUOUS
 62
3
100
AcDbLine
 10
91.18599179377588
 20
273.3101642688887
 30
0.0000000000000000
 11
139.1859917937759
 21
273.3101642688887
 31
0.0000000000000000
  0
LINE
  5
318
100
AcDbEntity
  8
MAIN0
  6
CONTINUOUS
 62
3
100
AcDbLine
 10
137.6859917937759
 20
269.1101642688887
 30
0.0000000000000000
 11
137.6859917937759
 21
270.1101642688887
 31
0.0000000000000000
  0
LINE
  5
319
100
AcDbEntity
  8
MAIN0
  6
CONTINUOUS
 62
3
100
AcDbLine
 10
92.68599179377588
 20
269.1101642688887
 30
0.0000000000000000
 11
92.68599179377588
 21
270.1101642688887
 31
0.0000000000000000
  0
LINE
  5
31A
100
AcDbEntity
  8
MAIN0
  6
CENTER
 62
12
100
AcDbLine
 10
131.1859917937758
 20
267.0903225225212
 30
0.0000000000000000
 11
131.1859917937758
 21
281.6806482832066
 31
0.0000000000000000
  0
LINE
  5
31B
100
AcDbEntity
  8
MAIN0
  6
CENTER
 62
12
100
AcDbLine
 10
99.18599179377583
 20
267.0903225225212
 30
0.0000000000000000
 11
99.18599179377583
 21
281.6806482832066
 31
0.0000000000000000
  0
LINE
  5
31C
100
AcDbEntity
  8
MAIN0
  6
CONTINUOUS
 62
3
100
AcDbLine
 10
94.18599179377583
 20
274.3101622688886
 30
0.0000000000000000
 11
104.1859917937758
 21
274.3101622688886
 31
0.0000000000000000
  0
LINE
  5
31D
100
AcDbEntity
  8
MAIN0
  6
CONTINUOUS
 62
3
100
AcDbLine
 10
104.1859917937759
 20
273.3101642688886
 30
0.0000000000000000
 11
104.1859917937759
 21
274.3101622688886
 31
0.0000000000000000
  0
LINE
  5
31E
100
AcDbEntity
  8
MAIN0
  6
CONTINUOUS
 62
3
100
AcDbLine
 10
94.18599179377583
 20
273.3101642688886
 30
0.0000000000000000
 11
94.18599179377583
 21
274.3101622688886
 31
0.0000000000000000
  0
LINE
  5
31F
100
AcDbEntity
  8
MAIN0
  6
CONTINUOUS
 62
3
100
AcDbLine
 10
126.9359927937758
 20
274.3101662688887
 30
0.0000000000000000
 11
126.9359957937759
 21
279.0103152688886
 31
0.0000000000000000
  0
LINE
  5
320
100
AcDbEntity
  8
MAIN0
  6
CONTINUOUS
 62
3
100
AcDbLine
 10
135.4359937937758
 20
279.0101572688886
 30
0.0000000000000000
 11
135.4359917937758
 21
274.3101622688887
 31
0.0000000000000000
  0
LINE
  5
321
100
AcDbEntity
  8
MAIN0
  6
CONTINUOUS
 62
3
100
AcDbLine
 10
126.9359957937758
 20
279.0101632688887
 30
0.0000000000000000
 11
135.4359937937758
 21
279.0101572688886
 31
0.0000000000000000
  0
LINE
  5
322
100
AcDbEntity
  8
MAIN0
  6
CONTINUOUS
 62
3
100
AcDbLine
 10
134.9164046403026
 20
279.3101642688887
 30
0.0000000000000000
 11
127.4555450167000
 21
279.3101642688887
 31
0.0000000000000000
  0
LINE
  5
323
100
AcDbEntity
  8
MAIN0
  6
CONTINUOUS
 62
3
100
AcDbLine
 10
126.1859917937758
 20
274.3101622688886
 30
0.0000000000000000
 11
136.1859917937758
 21
274.3101622688886
 31
0.0000000000000000
  0
LINE
  5
324
100
AcDbEntity
  8
MAIN0
  6
CONTINUOUS
 62
3
100
AcDbLine
 10
136.1859917937758
 20
273.3101642688886
 30
0.0000000000000000
 11
136.1859917937758
 21
274.3101622688886
 31
0.0000000000000000
  0
LINE
  5
325
100
AcDbEntity
  8
MAIN0
  6
CONTINUOUS
 62
3
100
AcDbLine
 10
126.1859917937758
 20
273.3101642688886
 30
0.0000000000000000
 11
126.1859917937758
 21
274.3101622688886
 31
0.0000000000000000
  0
LINE
  5
326
100
AcDbEntity
  8
MAIN0
  6
CONTINUOUS
 62
3
100
AcDbLine
 10
127.4554947937759
 20
279.3101352688888
 30
0.0000000000000000
 11
126.9359957937759
 21
279.0101632688888
 31
0.0000000000000000
  0
LINE
  5
327
100
AcDbEntity
  8
MAIN0
  6
CONTINUOUS
 62
3
100
AcDbLine
 10
134.9164617937759
 20
279.3101312688888
 30
0.0000000000000000
 11
135.4359937937759
 21
279.0101572688888
 31
0.0000000000000000
  0
LINE
  5
328
100
AcDbEntity
  8
MAIN0
  6
CONTINUOUS
 62
3
100
AcDbLine
 10
142.4741222621833
 20
266.8457358540385
 30
0.0000000000000000
 11
164.9741222621834
 21
227.8745926837387
 31
0.0000000000000000
  0
LINE
  5
329
100
AcDbEntity
  8
MAIN0
  6
CONTINUOUS
 62
3
100
AcDbLine
 10
144.9284162561856
 20
269.9947739597153
 30
0.0000000000000000
 11
168.9284162561857
 21
228.4255545780622
 31
0.0000000000000000
  0
LINE
  5
32A
100
AcDbEntity
  8
MAIN0
  6
CONTINUOUS
 62
3
100
AcDbLine
 10
142.1571349640755
 20
268.3947739597153
 30
0.0000000000000000
 11
166.1571349640755
 21
226.8255545780622
 31
0.0000000000000000
  0
LINE
  5
32B
100
AcDbEntity
  8
MAIN0
  6
CONTINUOUS
 62
3
100
AcDbLine
 10
164.5411095602910
 20
227.6245926837389
 30
0.0000000000000000
 11
165.4071349640755
 21
228.1245926837389
 31
0.0000000000000000
  0
LINE
  5
32C
100
AcDbEntity
  8
MAIN0
  6
CONTINUOUS
 62
3
100
AcDbLine
 10
142.0411095602910
 20
266.5957358540387
 30
0.0000000000000000
 11
142.9071349640754
 21
267.0957358540387
 31
0.0000000000000000
  0
LINE
  5
32D
100
AcDbEntity
  8
MAIN0
  6
CENTER
 62
12
100
AcDbLine
 10
159.5418752963124
 20
232.2438369351540
 30
0.0000000000000000
 11
172.5216134796259
 21
239.7376922693009
 31
0.0000000000000000
  0
LINE
  5
32E
100
AcDbEntity
  8
MAIN0
  6
CENTER
 62
12
100
AcDbLine
 10
143.5418752963124
 20
259.9566498562560
 30
0.0000000000000000
 11
156.5216134796259
 21
267.4505051904029
 31
0.0000000000000000
  0
LINE
  5
32F
100
AcDbEntity
  8
MAIN0
  6
CONTINUOUS
 62
3
100
AcDbLine
 10
147.6694438920209
 20
267.2471788294982
 30
0.0000000000000000
 11
151.7398938275929
 21
269.5972507314220
 31
0.0000000000000000
  0
LINE
  5
330
100
AcDbEntity
  8
MAIN0
  6
CONTINUOUS
 62
3
100
AcDbLine
 10
155.9897559955791
 20
262.2359575313051
 30
0.0000000000000000
 11
151.9194399279193
 21
259.8859617633559
 31
0.0000000000000000
  0
LINE
  5
331
100
AcDbEntity
  8
MAIN0
  6
CONTINUOUS
 62
3
100
AcDbLine
 10
151.7397621917316
 20
269.5971747314220
 30
0.0000000000000000
 11
155.9897559955791
 21
262.2359575313051
 31
0.0000000000000000
  0
LINE
  5
332
100
AcDbEntity
  8
MAIN0
  6
CONTINUOUS
 62
3
100
AcDbLine
 10
152.2592950641556
 20
269.2972614001815
 30
0.0000000000000000
 11
151.7397621917316
 21
269.5971747314221
 31
0.0000000000000000
  0
LINE
  5
333
100
AcDbEntity
  8
MAIN0
  6
CONTINUOUS
 62
3
100
AcDbLine
 10
155.9897751000539
 20
262.8358724413840
 30
0.0000000000000000
 11
155.9897559955791
 21
262.2359575313051
 31
0.0000000000000000
  0
LINE
  5
334
100
AcDbEntity
  8
MAIN0
  6
CONTINUOUS
 62
3
100
AcDbLine
 10
155.9897751021556
 20
262.8359384377438
 30
0.0000000000000000
 11
152.2593452903543
 21
269.2972324058532
 31
0.0000000000000000
  0
LINE
  5
335
100
AcDbEntity
  8
MAIN0
  6
CONTINUOUS
 62
3
100
AcDbLine
 10
147.2944399279192
 20
267.8966967483619
 30
0.0000000000000000
 11
152.2944399279192
 21
259.2364427105176
 31
0.0000000000000000
  0
LINE
  5
336
100
AcDbEntity
  8
MAIN0
  6
CONTINUOUS
 62
3
100
AcDbLine
 10
151.4284162561856
 20
258.7364437105176
 30
0.0000000000000000
 11
152.2944399279192
 21
259.2364427105175
 31
0.0000000000000000
  0
LINE
  5
337
100
AcDbEntity
  8
MAIN0
  6
CONTINUOUS
 62
3
100
AcDbLine
 10
146.4284162561856
 20
267.3966977483619
 30
0.0000000000000000
 11
147.2944399279192
 21
267.8966967483619
 31
0.0000000000000000
  0
LINE
  5
338
100
AcDbEntity
  8
MAIN0
  6
CONTINUOUS
 62
3
100
AcDbLine
 10
163.6694438920209
 20
239.5343659083962
 30
0.0000000000000000
 11
167.7398938275929
 21
241.8844378103200
 31
0.0000000000000000
  0
LINE
  5
339
100
AcDbEntity
  8
MAIN0
  6
CONTINUOUS
 62
3
100
AcDbLine
 10
171.9897559955792
 20
234.5231446102030
 30
0.0000000000000000
 11
167.9194399279193
 21
232.1731488422539
 31
0.0000000000000000
  0
LINE
  5
33A
100
AcDbEntity
  8
MAIN0
  6
CONTINUOUS
 62
3
100
AcDbLine
 10
167.7397621917316
 20
241.8843618103200
 30
0.0000000000000000
 11
171.9897559955792
 21
234.5231446102031
 31
0.0000000000000000
  0
LINE
  5
33B
100
AcDbEntity
  8
MAIN0
  6
CONTINUOUS
 62
3
100
AcDbLine
 10
171.9897751021557
 20
235.1231255166418
 30
0.0000000000000000
 11
168.2593452903544
 21
241.5844194847512
 31
0.0000000000000000
  0
LINE
  5
33C
100
AcDbEntity
  8
MAIN0
  6
CONTINUOUS
 62
3
100
AcDbLine
 10
163.2944399279192
 20
240.1838838272599
 30
0.0000000000000000
 11
168.2944399279192
 21
231.5236297894155
 31
0.0000000000000000
  0
LINE
  5
33D
100
AcDbEntity
  8
MAIN0
  6
CONTINUOUS
 62
3
100
AcDbLine
 10
167.4284162561857
 20
231.0236307894155
 30
0.0000000000000000
 11
168.2944399279192
 21
231.5236297894154
 31
0.0000000000000000
  0
LINE
  5
33E
100
AcDbEntity
  8
MAIN0
  6
CONTINUOUS
 62
3
100
AcDbLine
 10
162.4284162561856
 20
239.6838848272599
 30
0.0000000000000000
 11
163.2944399279192
 21
240.1838838272599
 31
0.0000000000000000
  0
LINE
  5
33F
100
AcDbEntity
  8
MAIN0
  6
CONTINUOUS
 62
3
100
AcDbLine
 10
168.2592950641555
 20
241.5844484790794
 30
0.0000000000000000
 11
167.7397621917315
 21
241.8843618103199
 31
0.0000000000000000
  0
LINE
  5
340
100
AcDbEntity
  8
MAIN0
  6
CONTINUOUS
 62
3
100
AcDbLine
 10
171.9897751000539
 20
235.1230595202820
 30
0.0000000000000000
 11
171.9897559955791
 21
234.5231446102031
 31
0.0000000000000000
  0
LINE
  5
341
100
AcDbEntity
  8
MAIN0
  6
CONTINUOUS
 62
3
100
AcDbLine
 10
284.6667218028309
 20
187.1101642688744
 30
0.0000000000000000
 11
284.6667218028309
 21
265.1101642688888
 31
0.0000000000000000
  0
LINE
  5
342
100
AcDbEntity
  8
MAIN0
  6
CONTINUOUS
 62
3
100
AcDbLine
 10
284.6667218028309
 20
187.1101642688889
 30
0.0000000000000000
 11
284.6667218028309
 21
185.1101642688890
 31
0.0000000000000000
  0
LINE
  5
343
100
AcDbEntity
  8
MAIN0
  6
CONTINUOUS
 62
3
100
AcDbLine
 10
218.1667218028284
 20
180.1101642688891
 30
0.0000000000000000
 11
218.1667218028285
 21
184.6101642688891
 31
0.0000000000000000
  0
LINE
  5
344
100
AcDbEntity
  8
MAIN0
  6
CONTINUOUS
 62
3
100
AcDbLine
 10
218.1667218028287
 20
187.6101642688891
 30
0.0000000000000000
 11
218.1667218028311
 21
269.1101642688888
 31
0.0000000000000000
  0
LINE
  5
345
100
AcDbEntity
  8
MAIN0
  6
CONTINUOUS
 62
3
100
AcDbLine
 10
282.7667218028307
 20
265.1101642688888
 30
0.0000000000000000
 11
282.7667218028307
 21
185.1101642688890
 31
0.0000000000000000
  0
LINE
  5
346
100
AcDbEntity
  8
MAIN0
  6
CONTINUOUS
 62
3
100
AcDbLine
 10
277.6667238028309
 20
187.3601642688890
 30
0.0000000000000000
 11
277.6667238028309
 21
189.4865230907267
 31
0.0000000000000000
  0
LINE
  5
347
100
AcDbEntity
  8
MAIN0
  6
HIDDEN
 62
12
100
AcDbLine
 10
277.6667238028309
 20
189.4865230907267
 30
0.0000000000000000
 11
277.6667238028309
 21
196.3601632688915
 31
0.0000000000000000
  0
LINE
  5
348
100
AcDbEntity
  8
MAIN0
  6
CENTER
 62
12
100
AcDbLine
 10
290.1667218028285
 20
269.1101642688887
 30
0.0000000000000000
 11
290.1667218028285
 21
269.6101642688887
 31
0.0000000000000000
  0
LINE
  5
349
100
AcDbEntity
  8
MAIN0
  6
CENTER
 62
12
100
AcDbLine
 10
282.7067897006354
 20
269.1101642688887
 30
0.0000000000000000
 11
290.1667218028308
 21
269.1101642688887
 31
0.0000000000000000
  0
LINE
  5
34A
100
AcDbEntity
  8
MAIN0
  6
CENTER
 62
12
100
AcDbLine
 10
278.4548421401064
 20
269.6101642688887
 30
0.0000000000000000
 11
290.1667218028308
 21
269.6101642688887
 31
0.0000000000000000
  0
LINE
  5
34B
100
AcDbEntity
  8
MAIN0
  6
CENTER
 62
12
100
AcDbLine
 10
289.1667218028285
 20
269.6101642688887
 30
0.0000000000000000
 11
289.1667218028285
 21
273.3101642688887
 31
0.0000000000000000
  0
LINE
  5
34C
100
AcDbEntity
  8
MAIN0
  6
CENTER
 62
12
100
AcDbLine
 10
278.4548421401064
 20
270.1101642688887
 30
0.0000000000000000
 11
289.1667218028285
 21
270.1101642688887
 31
0.0000000000000000
  0
LINE
  5
34D
100
AcDbEntity
  8
MAIN0
  6
CENTER
 62
12
100
AcDbLine
 10
278.4548421401064
 20
273.3101642688887
 30
0.0000000000000000
 11
289.1667218028285
 21
273.3101642688887
 31
0.0000000000000000
  0
LINE
  5
34E
100
AcDbEntity
  8
MAIN0
  6
CONTINUOUS
 62
3
100
AcDbLine
 10
281.4269758406750
 20
180.1101642688889
 30
0.0000000000000000
 11
281.4269758406751
 21
269.1101642688888
 31
0.0000000000000000
  0
ARC
  5
34F
100
AcDbEntity
  8
MAIN0
  6
CONTINUOUS
 62
3
100
AcDbCircle
 10
272.1667218028309
 20
262.1101642688888
 30
0.0000000000000000
 40
2.000000000000000
100
AcDbArc
 50
7.180798978638723
 51
89.99999999999970
  0
ARC
  5
350
100
AcDbEntity
  8
MAIN0
  6
CONTINUOUS
 62
3
100
AcDbCircle
 10
272.1667218028309
 20
188.1101642688890
 30
0.0000000000000000
 40
2.000000000000000
100
AcDbArc
 50
269.9999999999999
 51
352.8192010213611
  0
ARC
  5
351
100
AcDbEntity
  8
MAIN0
  6
CONTINUOUS
 62
3
100
AcDbCircle
 10
268.3382946780847
 20
252.1101642688887
 30
0.0000000000000000
 40
2.000000000000000
100
AcDbArc
 50
269.9999999999999
 51
314.9999999999998
  0
ARC
  5
352
100
AcDbEntity
  8
MAIN0
  6
CONTINUOUS
 62
3
100
AcDbCircle
 10
266.1667218028309
 20
248.1101642688887
 30
0.0000000000000000
 40
2.000000000000000
100
AcDbArc
 50
89.99999999999970
 51
179.9999999999998
  0
ARC
  5
353
100
AcDbEntity
  8
MAIN0
  6
CONTINUOUS
 62
3
100
AcDbCircle
 10
268.3382946780847
 20
198.1101642688892
 30
0.0000000000000000
 40
2.000000000000000
100
AcDbArc
 50
45.00000000000004
 51
89.99999999999970
  0
ARC
  5
354
100
AcDbEntity
  8
MAIN0
  6
CONTINUOUS
 62
3
100
AcDbCircle
 10
266.1667218028309
 20
202.1101642688892
 30
0.0000000000000000
 40
2.000000000000000
100
AcDbArc
 50
179.9999999999998
 51
269.9999999999999
  0
ARC
  5
355
100
AcDbEntity
  8
MAIN0
  6
CONTINUOUS
 62
3
100
AcDbCircle
 10
244.1667218028288
 20
188.1101642688892
 30
0.0000000000000000
 40
2.000000000000000
100
AcDbArc
 50
179.9999999999998
 51
269.9999999999999
  0
ARC
  5
356
100
AcDbEntity
  8
MAIN0
  6
CONTINUOUS
 62
3
100
AcDbCircle
 10
240.1667218028288
 20
189.1101642688890
 30
0.0000000000000000
 40
2.000000000000000
100
AcDbArc
 50
0.0000000000000000
 51
89.99999999999970
  0
ARC
  5
357
100
AcDbEntity
  8
MAIN0
  6
CONTINUOUS
 62
3
100
AcDbCircle
 10
273.1667218028309
 20
255.5243778312620
 30
0.0000000000000000
 40
1.000000000000000
100
AcDbArc
 50
314.9999999999993
 51
359.9999999999998
  0
CIRCLE
  5
358
100
AcDbEntity
  8
MAIN0
  6
CONTINUOUS
 62
3
100
AcDbCircle
 10
115.1859917937758
 20
225.1101642688889
 30
0.0000000000000000
 40
43.00000000000000
  0
ARC
  5
359
100
AcDbEntity
  8
MAIN0
  6
CONTINUOUS
 62
3
100
AcDbCircle
 10
89.18599179377588
 20
267.1101642688888
 30
0.0000000000000000
 40
3.000000000000000
100
AcDbArc
 50
269.9999999999999
 51
359.9999999999998
  0
ARC
  5
35A
100
AcDbEntity
  8
MAIN0
  6
CONTINUOUS
 62
3
100
AcDbCircle
 10
93.18599179377588
 20
268.1101642688887
 30
0.0000000000000000
 40
1.000000000000000
100
AcDbArc
 50
89.99999999999970
 51
179.9999999999998
  0
ARC
  5
35B
100
AcDbEntity
  8
MAIN0
  6
CONTINUOUS
 62
3
100
AcDbCircle
 10
161.0493452440858
 20
221.5671697315039
 30
0.0000000000000000
 40
3.000000000000000
100
AcDbArc
 50
119.9999999999995
 51
175.5826112895583
  0
ARC
  5
35C
100
AcDbEntity
  8
MAIN0
  6
CENTER
 62
12
100
AcDbCircle
 10
115.1859917937758
 20
225.1101642688889
 30
0.0000000000000000
 40
39.00000000000000
100
AcDbArc
 50
49.39868058096894
 51
69.26354707624148
  0
ARC
  5
35D
100
AcDbEntity
  8
MAIN0
  6
CENTER
 62
12
100
AcDbCircle
 10
115.1859917937758
 20
225.1101642688889
 30
0.0000000000000000
 40
39.00000000000000
100
AcDbArc
 50
169.3986805809687
 51
189.2635470762414
  0
ARC
  5
35E
100
AcDbEntity
  8
MAIN0
  6
CENTER
 62
12
100
AcDbCircle
 10
115.1859917937758
 20
225.1101642688889
 30
0.0000000000000000
 40
39.00000000000000
100
AcDbArc
 50
289.3986805809687
 51
309.2635470762416
  0
CIRCLE
  5
35F
100
AcDbEntity
  8
MAIN0
  6
CONTINUOUS
 62
12
100
AcDbCircle
 10
316.1667218028308
 20
239.1101642688889
 30
0.0000000000000000
 40
8.330999999999998
  0
CIRCLE
  5
360
100
AcDbEntity
  8
MAIN0
  6
CONTINUOUS
 62
3
100
AcDbCircle
 10
316.1667218028308
 20
239.1101642688889
 30
0.0000000000000000
 40
7.474999999999998
  0
CIRCLE
  5
361
100
AcDbEntity
  8
MAIN0
  6
CONTINUOUS
 62
12
100
AcDbCircle
 10
305.1667218028308
 20
211.1101642688889
 30
0.0000000000000000
 40
8.330999999999998
  0
CIRCLE
  5
362
100
AcDbEntity
  8
MAIN0
  6
CONTINUOUS
 62
3
100
AcDbCircle
 10
305.1667218028308
 20
211.1101642688889
 30
0.0000000000000000
 40
7.474999999999998
  0
LINE
  5
363
100
AcDbEntity
  8
MAIN0
  6
CENTER
 62
12
100
AcDbLine
 10
268.1667218028312
 20
278.2313019317997
 30
0.0000000000000000
 11
268.1667218028312
 21
265.6102821082281
 31
0.0000000000000000
  0
LINE
  5
364
100
AcDbEntity
  8
MAIN0
  6
HIDDEN
 62
12
100
AcDbLine
 10
303.5882218028308
 20
180.1101642688889
 30
0.0000000000000000
 11
303.9007218028309
 21
190.1101642688890
 31
0.0000000000000000
  0
LINE
  5
365
100
AcDbEntity
  8
MAIN0
  6
HIDDEN
 62
12
100
AcDbLine
 10
304.4442218028308
 20
180.1101642688889
 30
0.0000000000000000
 11
304.7567218028309
 21
190.1101642688890
 31
0.0000000000000000
  0
LINE
  5
366
100
AcDbEntity
  8
MAIN0
  6
HIDDEN
 62
12
100
AcDbLine
 10
316.4327218028308
 20
190.1101642688889
 30
0.0000000000000000
 11
316.7452218028308
 21
180.1101642688889
 31
0.0000000000000000
  0
LINE
  5
367
100
AcDbEntity
  8
MAIN0
  6
HIDDEN
 62
12
100
AcDbLine
 10
315.5767218028308
 20
190.1101642688889
 30
0.0000000000000000
 11
315.8892218028309
 21
180.1101642688889
 31
0.0000000000000000
  0
LINE
  5
368
100
AcDbEntity
  8
MAIN0
  6
CONTINUOUS
 62
3
100
AcDbLine
 10
249.1667218028304
 20
219.1101642688890
 30
0.0000000000000000
 11
249.1667218028304
 21
231.1101642688889
 31
0.0000000000000000
  0
LINE
  5
369
100
AcDbEntity
  8
MAIN0
  6
CONTINUOUS
 62
3
100
AcDbLine
 10
264.1667218028302
 20
232.6101642688889
 30
0.0000000000000000
 11
267.5306501246342
 21
232.6101642688889
 31
0.0000000000000000
  0
LINE
  5
36A
100
AcDbEntity
  8
MAIN0
  6
CONTINUOUS
 62
3
100
AcDbLine
 10
264.1667218028302
 20
217.6101642688889
 30
0.0000000000000000
 11
266.8773186648240
 21
217.6101642688889
 31
0.0000000000000000
  0
LINE
  5
36B
100
AcDbEntity
  8
MAIN0
  6
CONTINUOUS
 62
3
100
AcDbLine
 10
264.1667218028302
 20
217.6101642688890
 30
0.0000000000000000
 11
264.1667218028302
 21
232.6101642688889
 31
0.0000000000000000
  0
LINE
  5
36C
100
AcDbEntity
  8
MAIN0
  6
CONTINUOUS
 62
3
100
AcDbLine
 10
261.1667218028302
 20
231.8063166915955
 30
0.0000000000000000
 11
264.1667218028302
 21
232.6101642688889
 31
0.0000000000000000
  0
LINE
  5
36D
100
AcDbEntity
  8
MAIN0
  6
CONTINUOUS
 62
3
100
AcDbLine
 10
252.1667218028304
 20
219.1101642688890
 30
0.0000000000000000
 11
252.1667218028304
 21
231.1101642688889
 31
0.0000000000000000
  0
LINE
  5
36E
100
AcDbEntity
  8
MAIN0
  6
CONTINUOUS
 62
3
100
AcDbLine
 10
257.1667218028302
 20
219.1101642688890
 30
0.0000000000000000
 11
257.1667218028302
 21
231.1101642688889
 31
0.0000000000000000
  0
LINE
  5
36F
100
AcDbEntity
  8
MAIN0
  6
CONTINUOUS
 62
3
100
AcDbLine
 10
249.1667218028304
 20
231.1101642688889
 30
0.0000000000000000
 11
252.1667218028304
 21
231.1101642688889
 31
0.0000000000000000
  0
LINE
  5
370
100
AcDbEntity
  8
MAIN0
  6
CONTINUOUS
 62
3
100
AcDbLine
 10
257.1667218028302
 20
231.1101642688889
 30
0.0000000000000000
 11
261.1667218028302
 21
231.1101642688889
 31
0.0000000000000000
  0
LINE
  5
371
100
AcDbEntity
  8
MAIN0
  6
CONTINUOUS
 62
3
100
AcDbLine
 10
261.1667218028302
 20
218.4140118461823
 30
0.0000000000000000
 11
264.1667218028302
 21
217.6101642688889
 31
0.0000000000000000
  0
LINE
  5
372
100
AcDbEntity
  8
MAIN0
  6
CONTINUOUS
 62
3
100
AcDbLine
 10
257.1667218028302
 20
219.6101642688890
 30
0.0000000000000000
 11
252.1667218028304
 21
219.6101642688890
 31
0.0000000000000000
  0
LINE
  5
373
100
AcDbEntity
  8
MAIN0
  6
CONTINUOUS
 62
3
100
AcDbLine
 10
249.1667218028304
 20
219.1101642688890
 30
0.0000000000000000
 11
252.1667218028304
 21
219.1101642688890
 31
0.0000000000000000
  0
LINE
  5
374
100
AcDbEntity
  8
MAIN0
  6
CONTINUOUS
 62
3
100
AcDbLine
 10
257.1667218028302
 20
219.1101642688890
 30
0.0000000000000000
 11
261.1667218028302
 21
219.1101642688890
 31
0.0000000000000000
  0
LINE
  5
375
100
AcDbEntity
  8
MAIN0
  6
CONTINUOUS
 62
3
100
AcDbLine
 10
261.1667218028302
 20
218.4140118461823
 30
0.0000000000000000
 11
261.1667218028302
 21
231.8063166915955
 31
0.0000000000000000
  0
LINE
  5
376
100
AcDbEntity
  8
MAIN0
  6
CONTINUOUS
 62
3
100
AcDbLine
 10
261.1667218028300
 20
231.1101642688890
 30
0.0000000000000000
 11
261.1667218028300
 21
240.1101642688889
 31
0.0000000000000000
  0
LINE
  5
377
100
AcDbEntity
  8
MAIN0
  6
CONTINUOUS
 62
3
100
AcDbLine
 10
261.1667218028300
 20
240.1101642688889
 30
0.0000000000000000
 11
262.1667218028301
 21
240.1101642688889
 31
0.0000000000000000
  0
LINE
  5
378
100
AcDbEntity
  8
MAIN0
  6
CONTINUOUS
 62
3
100
AcDbLine
 10
262.1667218028302
 20
253.1101642688887
 30
0.0000000000000000
 11
265.1667218028299
 21
253.1101642688887
 31
0.0000000000000000
  0
LINE
  5
379
100
AcDbEntity
  8
MAIN0
  6
CONTINUOUS
 62
3
100
AcDbLine
 10
260.1667218028300
 20
255.1101642688887
 30
0.0000000000000000
 11
265.1667218028300
 21
255.1101642688887
 31
0.0000000000000000
  0
LINE
  5
37A
100
AcDbEntity
  8
MAIN0
  6
CONTINUOUS
 62
3
100
AcDbLine
 10
262.1667218028302
 20
236.1714191531668
 30
0.0000000000000000
 11
262.1667218028302
 21
253.1101642688887
 31
0.0000000000000000
  0
LINE
  5
37B
100
AcDbEntity
  8
MAIN0
  6
CONTINUOUS
 62
3
100
AcDbLine
 10
265.1667218028300
 20
251.6301273294358
 30
0.0000000000000000
 11
265.1667218028300
 21
255.1101642688882
 31
0.0000000000000000
  0
LINE
  5
37C
100
AcDbEntity
  8
MAIN0
  6
CONTINUOUS
 62
3
100
AcDbLine
 10
249.1667218028301
 20
231.1101642688889
 30
0.0000000000000000
 11
249.1667218028301
 21
245.1101642688887
 31
0.0000000000000000
  0
LINE
  5
37D
100
AcDbEntity
  8
MAIN0
  6
CONTINUOUS
 62
3
100
AcDbLine
 10
260.1667218028300
 20
245.1101642688887
 30
0.0000000000000000
 11
260.1667218028300
 21
255.1101642688882
 31
0.0000000000000000
  0
LINE
  5
37E
100
AcDbEntity
  8
MAIN0
  6
CONTINUOUS
 62
3
100
AcDbLine
 10
249.1667218028301
 20
245.1101642688887
 30
0.0000000000000000
 11
260.1667218028300
 21
245.1101642688887
 31
0.0000000000000000
  0
LINE
  5
37F
100
AcDbEntity
  8
MAIN0
  6
CONTINUOUS
 62
3
100
AcDbLine
 10
261.1667218028300
 20
219.1101642688889
 30
0.0000000000000000
 11
261.1667218028300
 21
210.1101642688890
 31
0.0000000000000000
  0
LINE
  5
380
100
AcDbEntity
  8
MAIN0
  6
CONTINUOUS
 62
3
100
AcDbLine
 10
261.1667218028300
 20
210.1101642688890
 30
0.0000000000000000
 11
262.1667218028301
 21
210.1101642688890
 31
0.0000000000000000
  0
LINE
  5
381
100
AcDbEntity
  8
MAIN0
  6
CONTINUOUS
 62
3
100
AcDbLine
 10
262.1667218028302
 20
197.1101642688892
 30
0.0000000000000000
 11
265.1667218028299
 21
197.1101642688892
 31
0.0000000000000000
  0
LINE
  5
382
100
AcDbEntity
  8
MAIN0
  6
CONTINUOUS
 62
3
100
AcDbLine
 10
260.1667218028300
 20
195.1101642688892
 30
0.0000000000000000
 11
265.1667218028300
 21
195.1101642688892
 31
0.0000000000000000
  0
LINE
  5
383
100
AcDbEntity
  8
MAIN0
  6
CONTINUOUS
 62
3
100
AcDbLine
 10
262.1667218028302
 20
214.0489093846110
 30
0.0000000000000000
 11
262.1667218028302
 21
197.1101642688892
 31
0.0000000000000000
  0
LINE
  5
384
100
AcDbEntity
  8
MAIN0
  6
CONTINUOUS
 62
3
100
AcDbLine
 10
265.1667218028300
 20
195.1101642688896
 30
0.0000000000000000
 11
265.1667218028300
 21
198.4807828228234
 31
0.0000000000000000
  0
LINE
  5
385
100
AcDbEntity
  8
MAIN0
  6
CONTINUOUS
 62
3
100
AcDbLine
 10
249.1667218028301
 20
219.1101642688890
 30
0.0000000000000000
 11
249.1667218028301
 21
205.1101642688892
 31
0.0000000000000000
  0
LINE
  5
386
100
AcDbEntity
  8
MAIN0
  6
CONTINUOUS
 62
3
100
AcDbLine
 10
260.1667218028300
 20
205.1101642688892
 30
0.0000000000000000
 11
260.1667218028300
 21
195.1101642688896
 31
0.0000000000000000
  0
LINE
  5
387
100
AcDbEntity
  8
MAIN0
  6
CONTINUOUS
 62
3
100
AcDbLine
 10
249.1667218028301
 20
205.1101642688892
 30
0.0000000000000000
 11
260.1667218028300
 21
205.1101642688892
 31
0.0000000000000000
  0
LINE
  5
388
100
AcDbEntity
  8
MAIN0
  6
CENTER
 62
12
100
AcDbLine
 10
254.6667218028301
 20
228.4883568012167
 30
0.0000000000000000
 11
254.6667218028301
 21
247.7682379283843
 31
0.0000000000000000
  0
LINE
  5
389
100
AcDbEntity
  8
MAIN0
  6
HIDDEN
 62
12
100
AcDbLine
 10
277.6667218028309
 20
189.6101642688890
 30
0.0000000000000000
 11
287.6667218028308
 21
189.6101642688890
 31
0.0000000000000000
  0
LINE
  5
38A
100
AcDbEntity
  8
MAIN0
  6
HIDDEN
 62
12
100
AcDbLine
 10
287.6667218028308
 20
189.6101642688890
 30
0.0000000000000000
 11
287.6667218028308
 21
194.6101642688892
 31
0.0000000000000000
  0
LINE
  5
38B
100
AcDbEntity
  8
MAIN0
  6
HIDDEN
 62
12
100
AcDbLine
 10
287.6667218028308
 20
194.6101642688892
 30
0.0000000000000000
 11
277.6667218028309
 21
194.6101642688892
 31
0.0000000000000000
  0
LINE
  5
38C
100
AcDbEntity
  8
MAIN0
  6
HIDDEN
 62
12
100
AcDbLine
 10
277.6667218028309
 20
190.1101642688890
 30
0.0000000000000000
 11
287.6667218028308
 21
190.1101642688890
 31
0.0000000000000000
  0
LINE
  5
38D
100
AcDbEntity
  8
MAIN0
  6
HIDDEN
 62
12
100
AcDbLine
 10
277.6667218028309
 20
194.1101642688889
 30
0.0000000000000000
 11
287.6667218028308
 21
194.1101642688889
 31
0.0000000000000000
  0
LINE
  5
38E
100
AcDbEntity
  8
MAIN0
  6
CONTINUOUS
 62
3
100
AcDbLine
 10
272.9667288028309
 20
187.8601622688890
 30
0.0000000000000000
 11
277.6667238028309
 21
187.8601642688890
 31
0.0000000000000000
  0
LINE
  5
38F
100
AcDbEntity
  8
MAIN0
  6
CONTINUOUS
 62
3
100
AcDbLine
 10
272.9667228028309
 20
196.3601602688890
 30
0.0000000000000000
 11
272.9667288028309
 21
187.8601622688890
 31
0.0000000000000000
  0
LINE
  5
390
100
AcDbEntity
  8
MAIN0
  6
CONTINUOUS
 62
3
100
AcDbLine
 10
272.6667508028310
 20
195.8406612688891
 30
0.0000000000000000
 11
272.9667228028309
 21
196.3601602688890
 31
0.0000000000000000
  0
LINE
  5
391
100
AcDbEntity
  8
MAIN0
  6
CONTINUOUS
 62
3
100
AcDbLine
 10
272.6667548028310
 20
188.3796942688890
 30
0.0000000000000000
 11
272.9667288028309
 21
187.8601622688890
 31
0.0000000000000000
  0
LINE
  5
392
100
AcDbEntity
  8
MAIN0
  6
CONTINUOUS
 62
3
100
AcDbLine
 10
272.6667218028309
 20
188.3797514223623
 30
0.0000000000000000
 11
272.6667218028309
 21
195.8406110459649
 31
0.0000000000000000
  0
LINE
  5
393
100
AcDbEntity
  8
MAIN0
  6
CONTINUOUS
 62
3
100
AcDbLine
 10
272.9665708028309
 20
196.3601602688891
 30
0.0000000000000000
 11
275.8251237107236
 21
196.3601620934396
 31
0.0000000000000000
  0
LINE
  5
394
100
AcDbEntity
  8
MAIN0
  6
HIDDEN
 62
12
100
AcDbLine
 10
275.8251237107236
 20
196.3601620934395
 30
0.0000000000000000
 11
277.6667198028309
 21
196.3601632688891
 31
0.0000000000000000
  0
LINE
  5
395
100
AcDbEntity
  8
MAIN0
  6
CONTINUOUS
 62
3
100
AcDbLine
 10
213.5667198028311
 20
188.3101622688891
 30
0.0000000000000000
 11
213.5667238028311
 21
183.9101632688890
 31
0.0000000000000000
  0
LINE
  5
396
100
AcDbEntity
  8
MAIN0
  6
CONTINUOUS
 62
3
100
AcDbLine
 10
214.8667238028310
 20
182.6101632688890
 30
0.0000000000000000
 11
216.1667218028310
 21
182.6101642688890
 31
0.0000000000000000
  0
LINE
  5
397
100
AcDbEntity
  8
MAIN0
  6
CONTINUOUS
 62
3
100
AcDbLine
 10
216.1667218028310
 20
189.6101642688891
 30
0.0000000000000000
 11
214.8667228028310
 21
189.6101632688891
 31
0.0000000000000000
  0
LINE
  5
398
100
AcDbEntity
  8
MAIN0
  6
CONTINUOUS
 62
3
100
AcDbLine
 10
216.1667218028310
 20
188.1101642688890
 30
0.0000000000000000
 11
224.1667218028310
 21
188.1101642688890
 31
0.0000000000000000
  0
LINE
  5
399
100
AcDbEntity
  8
MAIN0
  6
CONTINUOUS
 62
3
100
AcDbLine
 10
224.1667218028310
 20
188.1101642688890
 30
0.0000000000000000
 11
224.1667218028310
 21
184.1101642688890
 31
0.0000000000000000
  0
LINE
  5
39A
100
AcDbEntity
  8
MAIN0
  6
CONTINUOUS
 62
3
100
AcDbLine
 10
224.1667218028310
 20
184.1101642688890
 30
0.0000000000000000
 11
216.1667218028310
 21
184.1101642688890
 31
0.0000000000000000
  0
LINE
  5
39B
100
AcDbEntity
  8
MAIN0
  6
CONTINUOUS
 62
12
100
AcDbLine
 10
216.1667218028310
 20
187.6101642688890
 30
0.0000000000000000
 11
224.1667218028310
 21
187.6101642688890
 31
0.0000000000000000
  0
LINE
  5
39C
100
AcDbEntity
  8
MAIN0
  6
CONTINUOUS
 62
12
100
AcDbLine
 10
216.1667218028310
 20
184.6101642688890
 30
0.0000000000000000
 11
224.1667218028310
 21
184.6101642688890
 31
0.0000000000000000
  0
ARC
  5
39D
100
AcDbEntity
  8
MAIN0
  6
CONTINUOUS
 62
3
100
AcDbCircle
 10
214.8667188028311
 20
188.3101602688891
 30
0.0000000000000000
 40
1.299999999999997
100
AcDbArc
 50
89.99982499999918
 51
179.9999079999998
  0
ARC
  5
39E
100
AcDbEntity
  8
MAIN0
  6
CONTINUOUS
 62
3
100
AcDbCircle
 10
214.8667238028311
 20
183.9101632688890
 30
0.0000000000000000
 40
1.299999999999997
100
AcDbArc
 50
179.9999999999998
 51
269.9999999999999
  0
LINE
  5
39F
100
AcDbEntity
  8
MAIN0
  6
CONTINUOUS
 62
3
100
AcDbLine
 10
133.2364228923433
 20
257.4355861150496
 30
0.0000000000000000
 11
136.1355606952081
 21
260.3347239179144
 31
0.0000000000000000
  0
LINE
  5
3A0
100
AcDbEntity
  8
MAIN0
  6
CONTINUOUS
 62
3
100
AcDbLine
 10
133.2364228923433
 20
260.3347239179144
 30
0.0000000000000000
 11
136.1355606952081
 21
257.4355861150496
 31
0.0000000000000000
  0
CIRCLE
  5
3A1
100
AcDbEntity
  8
MAIN0
  6
CONTINUOUS
 62
3
100
AcDbCircle
 10
134.6859917937757
 20
258.8851550164819
 30
0.0000000000000000
 40
3.499999999999993
  0
LINE
  5
3A2
100
AcDbEntity
  8
MAIN0
  6
CONTINUOUS
 62
3
100
AcDbLine
 10
78.16613973766846
 20
224.5795852264288
 30
0.0000000000000000
 11
74.20584384988325
 21
225.6407433113491
 31
0.0000000000000000
  0
LINE
  5
3A3
100
AcDbEntity
  8
MAIN0
  6
CONTINUOUS
 62
3
100
AcDbLine
 10
75.65541275131571
 20
223.1300163249963
 30
0.0000000000000000
 11
76.71657083623606
 21
227.0903122127815
 31
0.0000000000000000
  0
CIRCLE
  5
3A4
100
AcDbEntity
  8
MAIN0
  6
CONTINUOUS
 62
3
100
AcDbCircle
 10
76.18599179377588
 20
225.1101642688889
 30
0.0000000000000000
 40
3.499999999999993
  0
LINE
  5
3A5
100
AcDbEntity
  8
MAIN0
  6
CONTINUOUS
 62
3
100
AcDbLine
 10
134.1554127513155
 20
193.3153214651885
 30
0.0000000000000000
 11
135.2165708362359
 21
189.3550255774033
 31
0.0000000000000000
  0
LINE
  5
3A6
100
AcDbEntity
  8
MAIN0
  6
CONTINUOUS
 62
3
100
AcDbLine
 10
136.6661397376683
 20
191.8657525637560
 30
0.0000000000000000
 11
132.7058438498831
 21
190.8045944788357
 31
0.0000000000000000
  0
CIRCLE
  5
3A7
100
AcDbEntity
  8
MAIN0
  6
CONTINUOUS
 62
3
100
AcDbCircle
 10
134.6859917937757
 20
191.3351735212959
 30
0.0000000000000000
 40
3.499999999999993
  0
LINE
  5
3A8
100
AcDbEntity
  8
MAIN0
  6
CONTINUOUS
 62
3
100
AcDbLine
 10
94.93599279377588
 20
274.3101662688887
 30
0.0000000000000000
 11
94.93599579377587
 21
279.0103152688888
 31
0.0000000000000000
  0
LINE
  5
3A9
100
AcDbEntity
  8
MAIN0
  6
CONTINUOUS
 62
3
100
AcDbLine
 10
103.4359937937758
 20
279.0101572688888
 30
0.0000000000000000
 11
103.4359917937758
 21
274.3101622688888
 31
0.0000000000000000
  0
LINE
  5
3AA
100
AcDbEntity
  8
MAIN0
  6
CONTINUOUS
 62
3
100
AcDbLine
 10
94.93599579377587
 20
279.0101632688886
 30
0.0000000000000000
 11
103.4359937937758
 21
279.0101572688886
 31
0.0000000000000000
  0
LINE
  5
3AB
100
AcDbEntity
  8
MAIN0
  6
CONTINUOUS
 62
3
100
AcDbLine
 10
95.45549479377590
 20
279.3101352688888
 30
0.0000000000000000
 11
94.93599579377593
 21
279.0101632688888
 31
0.0000000000000000
  0
LINE
  5
3AC
100
AcDbEntity
  8
MAIN0
  6
CONTINUOUS
 62
3
100
AcDbLine
 10
102.9164617937759
 20
279.3101312688888
 30
0.0000000000000000
 11
103.4359937937759
 21
279.0101572688888
 31
0.0000000000000000
  0
LINE
  5
3AD
100
AcDbEntity
  8
MAIN0
  6
CONTINUOUS
 62
3
100
AcDbLine
 10
102.9164046403026
 20
279.3101642688887
 30
0.0000000000000000
 11
95.45554501670003
 21
279.3101642688887
 31
0.0000000000000000
  0
LINE
  5
3AE
100
AcDbEntity
  8
WAKU0
  6
CONTINUOUS
 62
3
100
AcDbLine
 10
412.0000000000000
 20
51.00000000000000
 30
0.0000000000000000
 11
582.0000000000000
 21
51.00000000000000
 31
0.0000000000000000
  0
LINE
  5
3AF
100
AcDbEntity
  8
WAKU0
  6
CONTINUOUS
 62
3
100
AcDbLine
 10
412.0000000000000
 20
51.00000000000000
 30
0.0000000000000000
 11
412.0000000000000
 21
12.00000000000000
 31
0.0000000000000000
  0
LINE
  5
3B0
100
AcDbEntity
  8
WAKU0
  6
CONTINUOUS
 62
3
100
AcDbLine
 10
484.0000000000000
 20
51.00000000000000
 30
0.0000000000000000
 11
484.0000000000000
 21
12.00000000000000
 31
0.0000000000000000
  0
LINE
  5
3B1
100
AcDbEntity
  8
WAKU0
  6
CONTINUOUS
 62
3
100
AcDbLine
 10
504.0000000000000
 20
51.00000000000000
 30
0.0000000000000000
 11
504.0000000000000
 21
12.00000000000000
 31
0.0000000000000000
  0
LINE
  5
3B2
100
AcDbEntity
  8
WAKU0
  6
CONTINUOUS
 62
3
100
AcDbLine
 10
516.0000000000000
 20
51.00000000000000
 30
0.0000000000000000
 11
516.0000000000000
 21
12.00000000000000
 31
0.0000000000000000
  0
LINE
  5
3B3
100
AcDbEntity
  8
WAKU0
  6
CONTINUOUS
 62
3
100
AcDbLine
 10
516.0000000000000
 20
37.00000000000000
 30
0.0000000000000000
 11
582.0000000000000
 21
37.00000000000000
 31
0.0000000000000000
  0
LINE
  5
3B4
100
AcDbEntity
  8
WAKU0
  6
CONTINUOUS
 62
3
100
AcDbLine
 10
504.0000000000000
 20
23.00000000000000
 30
0.0000000000000000
 11
582.0000000000000
 21
23.00000000000000
 31
0.0000000000000000
  0
LINE
  5
3B5
100
AcDbEntity
  8
WAKU0
  6
CONTINUOUS
 62
3
100
AcDbLine
 10
547.0000000000000
 20
51.00000000000000
 30
0.0000000000000000
 11
547.0000000000000
 21
44.00000000000000
 31
0.0000000000000000
  0
LINE
  5
3B6
100
AcDbEntity
  8
WAKU0
  6
CONTINUOUS
 62
3
100
AcDbLine
 10
559.0000000000000
 20
51.00000000000000
 30
0.0000000000000000
 11
559.0000000000000
 21
44.00000000000000
 31
0.0000000000000000
  0
LINE
  5
3B7
100
AcDbEntity
  8
WAKU0
  6
CONTINUOUS
 62
3
100
AcDbLine
 10
484.0000000000000
 20
31.50000000000000
 30
0.0000000000000000
 11
504.0000000000000
 21
31.50000000000000
 31
0.0000000000000000
  0
LINE
  5
3B8
100
AcDbEntity
  8
WAKU0
  6
CONTINUOUS
 62
3
100
AcDbLine
 10
504.0000000000000
 20
44.00000000000000
 30
0.0000000000000000
 11
582.0000000000000
 21
44.00000000000000
 31
0.0000000000000000
  0
LINE
  5
3B9
100
AcDbEntity
  8
WAKU0
  6
CONTINUOUS
 62
3
100
AcDbLine
 10
412.0000000000000
 20
37.00000000000000
 30
0.0000000000000000
 11
484.0000000000000
 21
37.00000000000000
 31
0.0000000000000000
  0
LINE
  5
3BA
100
AcDbEntity
  8
WAKU0
  6
CONTINUOUS
 62
3
100
AcDbLine
 10
412.0000000000000
 20
23.00000000000000
 30
0.0000000000000000
 11
484.0000000000000
 21
23.00000000000000
 31
0.0000000000000000
  0
LINE
  5
3BB
100
AcDbEntity
  8
WAKU0
  6
CONTINUOUS
 62
3
100
AcDbLine
 10
460.0000000000000
 20
37.00000000000000
 30
0.0000000000000000
 11
460.0000000000000
 21
12.00000000000000
 31
0.0000000000000000
  0
LINE
  5
3BC
100
AcDbEntity
  8
WAKU0
  6
CONTINUOUS
 62
3
100
AcDbLine
 10
436.0000000000000
 20
37.00000000000000
 30
0.0000000000000000
 11
436.0000000000000
 21
23.00000000000000
 31
0.0000000000000000
  0
LINE
  5
3BD
100
AcDbEntity
  8
WAKU0
  6
CONTINUOUS
 62
3
100
AcDbLine
 10
472.0000000000000
 20
26.00000000000000
 30
0.0000000000000000
 11
472.0000000000000
 21
23.00000000000000
 31
0.0000000000000000
  0
LINE
  5
3BE
100
AcDbEntity
  8
WAKU0
  6
CONTINUOUS
 62
3
100
AcDbLine
 10
448.0000000000000
 20
26.00000000000000
 30
0.0000000000000000
 11
448.0000000000000
 21
23.00000000000000
 31
0.0000000000000000
  0
LINE
  5
3BF
100
AcDbEntity
  8
WAKU0
  6
CONTINUOUS
 62
3
100
AcDbLine
 10
424.0000000000000
 20
26.00000000000000
 30
0.0000000000000000
 11
424.0000000000000
 21
23.00000000000000
 31
0.0000000000000000
  0
LINE
  5
3C0
100
AcDbEntity
  8
WAKU0
  6
CONTINUOUS
 62
3
100
AcDbLine
 10
430.0000000000000
 20
51.00000000000000
 30
0.0000000000000000
 11
430.0000000000000
 21
37.00000000000000
 31
0.0000000000000000
  0
LINE
  5
3C1
100
AcDbEntity
  8
WAKU0
  6
CONTINUOUS
 62
3
100
AcDbLine
 10
412.0000000000000
 20
45.00000000000000
 30
0.0000000000000000
 11
484.0000000000000
 21
45.00000000000000
 31
0.0000000000000000
  0
LINE
  5
3C2
100
AcDbEntity
  8
WAKU0
  6
HIDDEN
 62
3
100
AcDbLine
 10
532.5000000000000
 20
23.00000000000000
 30
0.0000000000000000
 11
532.5000000000000
 21
12.00000000000000
 31
0.0000000000000000
  0
LINE
  5
3C3
100
AcDbEntity
  8
WAKU0
  6
HIDDEN
 62
3
100
AcDbLine
 10
544.9000000000000
 20
23.00000000000000
 30
0.0000000000000000
 11
544.9000000000000
 21
12.00000000000000
 31
0.0000000000000000
  0
MTEXT
  5
3C4
100
AcDbEntity
  8
WAKU0
  6
CONTINUOUS
 62
3
100
AcDbMText
 10
516.4820000231266
 20
49.04999995231628
 30
0.0000000000000000
 40
3.099999904632568
 41
0.0000000000000000
 71
     1
 72
     1
  1
{\H0.93x;{Y1020RE47}}
 11
1.000000000000000
 21
0.0000000000000000
 31
0.0000000000000000
  7
STANDARD
  0
MTEXT
  5
3C5
100
AcDbEntity
  8
WAKU0
  6
CONTINUOUS
 62
3
100
AcDbMText
 10
522.7500004470348
 20
43.50000000000000
 30
0.0000000000000000
 40
3.000000000000000
 41
0.0000000000000000
 71
     1
 72
     1
  1
{\H0.59x;{回転油圧シリンダ\PＲＯＴＡＲＹ　ＨＹＤＲＡＵＬＩＣ　ＣＹＬＩＮＤＥＲ}}
 11
1.000000000000000
 21
0.0000000000000000
 31
0.0000000000000000
  7
KNJYOKO
  0
MTEXT
  5
3C6
100
AcDbEntity
  8
WAKU0
  6
CONTINUOUS
 62
3
100
AcDbMText
 10
520.4500010497868
 20
34.23333326975504
 30
0.0000000000000000
 40
3.099999904632568
 41
0.0000000000000000
 71
     1
 72
     1
  1
{\H0.71x;{Ｙ１０２０ＲＥ４７　ガイケイ\PＹ１０２０ＲＥ４７　ＯＵＴＳＩＤＥ　ＶＩＥＷ}}
 11
1.000000000000000
 21
0.0000000000000000
 31
0.0000000000000000
  7
KNJYOKO
  0
MTEXT
  5
3C7
100
AcDbEntity
  8
WAKU0
  6
CONTINUOUS
 62
3
100
AcDbMText
 10
490.0049998760223
 20
39.29999995231628
 30
0.0000000000000000
 40
3.099999904632568
 41
0.0000000000000000
 71
     1
 72
     1
  1
{\H0.90x;{1:1}}
 11
1.000000000000000
 21
0.0000000000000000
 31
0.0000000000000000
  7
STANDARD
  0
MTEXT
  5
3C8
100
AcDbEntity
  8
WAKU0
  6
CONTINUOUS
 62
3
100
AcDbMText
 10
546.4000001549721
 20
20.15000009536743
 30
0.0000000000000000
 40
5.300000190734863
 41
0.0000000000000000
 71
     1
 72
     1
  1
{\H0.90x;{0681}}
 11
1.000000000000000
 21
0.0000000000000000
 31
0.0000000000000000
  7
STANDARD
  0
MTEXT
  5
3C9
100
AcDbEntity
  8
WAKU0
  6
CONTINUOUS
 62
3
100
AcDbMText
 10
534.3000000834466
 20
20.15000009536743
 30
0.0000000000000000
 40
5.300000190734863
 41
0.0000000000000000
 71
     1
 72
     1
  1
{\H0.87x;{23}}
 11
1.000000000000000
 21
0.0000000000000000
 31
0.0000000000000000
  7
STANDARD
  0
MTEXT
  5
3CA
100
AcDbEntity
  8
WAKU0
  6
CONTINUOUS
 62
3
100
AcDbMText
 10
517.5000001192093
 20
20.15000009536743
 30
0.0000000000000000
 40
5.300000190734863
 41
0.0000000000000000
 71
     1
 72
     1
  1
{\H0.89x;{61R}}
 11
1.000000000000000
 21
0.0000000000000000
 31
0.0000000000000000
  7
STANDARD
  0
MTEXT
  5
3CB
100
AcDbEntity
  8
WAKU0
  6
CONTINUOUS
 62
3
100
AcDbMText
 10
572.0000000476837
 20
20.15000009536743
 30
0.0000000000000000
 40
5.300000190734863
 41
0.0000000000000000
 71
     1
 72
     1
  1
{\H0.81x;{1}}
 11
1.000000000000000
 21
0.0000000000000000
 31
0.0000000000000000
  7
STANDARD
  0
MTEXT
  5
3CC
100
AcDbEntity
  8
WAKU0
  6
CONTINUOUS
 62
3
100
AcDbMText
 10
572.0000000819564
 20
44.84999990463257
 30
0.0000000000000000
 40
5.300000190734863
 41
0.0000000000000000
 71
     7
 72
     1
  1
{\H0.81x;{ }}
 11
1.000000000000000
 21
0.0000000000000000
 31
0.0000000000000000
  7
STANDARD
  0
MTEXT
  5
3CD
100
AcDbEntity
  8
WAKU0
  6
CONTINUOUS
 62
3
100
AcDbMText
 10
461.3850002884865
 20
33.00000000000000
 30
0.0000000000000000
 40
3.000000000000000
 41
0.0000000000000000
 71
     7
 72
     1
  1
{\H0.93x;{DRAWN BY}}
 11
1.000000000000000
 21
0.0000000000000000
 31
0.0000000000000000
  7
STANDARD
  0
MTEXT
  5
3CE
100
AcDbEntity
  8
WAKU0
  6
CONTINUOUS
 62
3
100
AcDbMText
 10
441.2149997949600
 20
32.95000004768372
 30
0.0000000000000000
 40
3.099999904632568
 41
0.0000000000000000
 71
     7
 72
     1
  1
{\H0.92x;{CHIEF}}
 11
1.000000000000000
 21
0.0000000000000000
 31
0.0000000000000000
  7
STANDARD
  0
MTEXT
  5
3CF
100
AcDbEntity
  8
WAKU0
  6
CONTINUOUS
 62
3
100
AcDbMText
 10
414.4249997138977
 20
32.95000004768372
 30
0.0000000000000000
 40
3.099999904632568
 41
0.0000000000000000
 71
     7
 72
     1
  1
{\H0.92x;{MANAGER}}
 11
1.000000000000000
 21
0.0000000000000000
 31
0.0000000000000000
  7
STANDARD
  0
MTEXT
  5
3D0
100
AcDbEntity
  8
WAKU0
  6
CONTINUOUS
 62
3
100
AcDbMText
 10
413.0850002169609
 20
46.50000000000000
 30
0.0000000000000000
 40
3.000000000000000
 41
0.0000000000000000
 71
     7
 72
     1
  1
{\H0.92x;{CAREER}}
 11
1.000000000000000
 21
0.0000000000000000
 31
0.0000000000000000
  7
STANDARD
  0
MTEXT
  5
3D1
100
AcDbEntity
  8
WAKU0
  6
CONTINUOUS
 62
3
100
AcDbMText
 10
466.6099998354912
 20
18.95000004768372
 30
0.0000000000000000
 40
3.099999904632568
 41
0.0000000000000000
 71
     7
 72
     1
  1
{\H0.91x;{DATE}}
 11
1.000000000000000
 21
0.0000000000000000
 31
0.0000000000000000
  7
STANDARD
  0
MTEXT
  5
3D2
100
AcDbEntity
  8
WAKU0
  6
CONTINUOUS
 62
3
100
AcDbMText
 10
485.9000002145767
 20
26.50000000000000
 30
0.0000000000000000
 40
3.000000000000000
 41
0.0000000000000000
 71
     7
 72
     1
  1
{\H0.63x;{3RD ANGLE}}
 11
1.000000000000000
 21
0.0000000000000000
 31
0.0000000000000000
  7
STANDARD
  0
MTEXT
  5
3D3
100
AcDbEntity
  8
WAKU0
  6
CONTINUOUS
 62
3
100
AcDbMText
 10
487.2149997949600
 20
45.95000004768372
 30
0.0000000000000000
 40
3.099999904632568
 41
0.0000000000000000
 71
     7
 72
     1
  1
{\H0.92x;{SCALE}}
 11
1.000000000000000
 21
0.0000000000000000
 31
0.0000000000000000
  7
STANDARD
  0
MTEXT
  5
3D4
100
AcDbEntity
  8
WAKU0
  6
CONTINUOUS
 62
3
100
AcDbMText
 10
577.7000000476837
 20
46.00000000000000
 30
0.0000000000000000
 40
3.000000000000000
 41
0.0000000000000000
 71
     7
 72
     1
  1
{\H0.63x;{kg}}
 11
1.000000000000000
 21
0.0000000000000000
 31
0.0000000000000000
  7
STANDARD
  0
MTEXT
  5
3D5
100
AcDbEntity
  8
WAKU0
  6
CONTINUOUS
 62
3
100
AcDbMText
 10
547.6000001430512
 20
46.00000000000000
 30
0.0000000000000000
 40
3.000000000000000
 41
0.0000000000000000
 71
     7
 72
     1
  1
{\H0.63x;{WEIGHT}}
 11
1.000000000000000
 21
0.0000000000000000
 31
0.0000000000000000
  7
STANDARD
  0
MTEXT
  5
3D6
100
AcDbEntity
  8
WAKU0
  6
CONTINUOUS
 62
3
100
AcDbMText
 10
506.0049998760223
 20
18.13333336512248
 30
0.0000000000000000
 40
3.099999904632568
 41
0.0000000000000000
 71
     7
 72
     1
  1
{\H0.90x;{DRW\PNO.}}
 11
1.000000000000000
 21
0.0000000000000000
 31
0.0000000000000000
  7
STANDARD
  0
MTEXT
  5
3D7
100
AcDbEntity
  8
WAKU0
  6
CONTINUOUS
 62
3
100
AcDbMText
 10
504.6099998354912
 20
31.95000004768372
 30
0.0000000000000000
 40
3.099999904632568
 41
0.0000000000000000
 71
     7
 72
     1
  1
{\H0.91x;{NAME}}
 11
1.000000000000000
 21
0.0000000000000000
 31
0.0000000000000000
  7
STANDARD
  0
MTEXT
  5
3D8
100
AcDbEntity
  8
WAKU0
  6
CONTINUOUS
 62
3
100
AcDbMText
 10
504.6099998354912
 20
45.95000004768372
 30
0.0000000000000000
 40
3.099999904632568
 41
0.0000000000000000
 71
     7
 72
     1
  1
{\H0.91x;{TYPE}}
 11
1.000000000000000
 21
0.0000000000000000
 31
0.0000000000000000
  7
STANDARD
  0
LINE
  5
3D9
100
AcDbEntity
  8
WAKU0
  6
HIDDEN
 62
3
100
AcDbLine
 10
579.1599564743885
 20
13.84999990463257
 30
0.0000000000000000
 11
568.9400436209789
 21
13.84999990463257
 31
0.0000000000000000
  0
LINE
  5
3DA
100
AcDbEntity
  8
WAKU0
  6
HIDDEN
 62
3
100
AcDbLine
 10
579.1599564743885
 20
13.84999990463250
 30
0.0000000000000000
 11
574.0500000476851
 21
22.70070406014901
 31
0.0000000000000000
  0
LINE
  5
3DB
100
AcDbEntity
  8
WAKU0
  6
HIDDEN
 62
3
100
AcDbLine
 10
574.0500000476851
 20
22.70070406014902
 30
0.0000000000000000
 11
568.9400436209789
 21
13.84999990463248
 31
0.0000000000000000
  0
MTEXT
  5
3DC
100
AcDbEntity
  8
WAKU0
  6
CONTINUOUS
 62
3
100
AcDbMText
 10
419.0000009614873
 20
20.63471521698214
 30
0.0000000000000000
 40
3.140094041824341
 41
0.0000000000000000
 71
     1
 72
     1
  1
{\H0.83x;{Ｋｉｔａｇａｗａ\PＣｏｒｐｏｒａｔｉｏｎ}}
 11
1.000000000000000
 21
0.0000000000000000
 31
0.0000000000000000
  7
KNJYOKO
  0
LINE
  5
3DD
100
AcDbEntity
  8
WAKU0
  6
CONTINUOUS
 62
3
100
AcDbLine
 10
502.4713877753800
 20
15.78041421262812
 30
0.0000000000000000
 11
502.4713877753800
 21
21.78041421262815
 31
0.0000000000000000
  0
LINE
  5
3DE
100
AcDbEntity
  8
WAKU0
  6
CONTINUOUS
 62
3
100
AcDbLine
 10
495.9336941228225
 20
17.28041421262811
 30
0.0000000000000000
 11
495.9336941228225
 21
20.28041421262824
 31
0.0000000000000000
  0
LINE
  5
3DF
100
AcDbEntity
  8
WAKU0
  6
CENTER
 62
12
100
AcDbLine
 10
485.4321805514995
 20
18.78041421262813
 30
0.0000000000000000
 11
503.2765788964694
 21
18.78041421262813
 31
0.0000000000000000
  0
LINE
  5
3E0
100
AcDbEntity
  8
WAKU0
  6
CENTER
 62
12
100
AcDbLine
 10
489.4474565857986
 20
14.55921662918448
 30
0.0000000000000000
 11
489.4474565857986
 21
22.89865102149943
 31
0.0000000000000000
  0
LINE
  5
3E1
100
AcDbEntity
  8
WAKU0
  6
CONTINUOUS
 62
3
100
AcDbLine
 10
495.9336941228225
 20
20.28041421262797
 30
0.0000000000000000
 11
502.4713877753800
 21
21.78041421262795
 31
0.0000000000000000
  0
LINE
  5
3E2
100
AcDbEntity
  8
WAKU0
  6
CONTINUOUS
 62
3
100
AcDbLine
 10
495.9336941228225
 20
17.28041421262811
 30
0.0000000000000000
 11
502.4713877753799
 21
15.78041421262812
 31
0.0000000000000000
  0
CIRCLE
  5
3E3
100
AcDbEntity
  8
WAKU0
  6
CONTINUOUS
 62
3
100
AcDbCircle
 10
489.4474565857986
 20
18.78041421262813
 30
0.0000000000000000
 40
1.499999999999972
  0
CIRCLE
  5
3E4
100
AcDbEntity
  8
WAKU0
  6
CONTINUOUS
 62
3
100
AcDbCircle
 10
489.4474565857986
 20
18.78041421262813
 30
0.0000000000000000
 40
2.999999999999979
  0
ENDSEC
  0
SECTION
  2
OBJECTS
  0
DICTIONARY
  5
42D
100
AcDbDictionary
  3
ACAD_GROUP
350
42E
  3
ACAD_MLINESTYLE
350
42F
  3
DWGPROPS
350
430
  0
DICTIONARY
  5
42E
102
{ACAD_REACTORS
330
42D
102
}
100
AcDbDictionary
  0
DICTIONARY
  5
42F
102
{ACAD_REACTORS
330
42D
102
}
100
AcDbDictionary
  3
STANDARD
350
431
  0
MLINESTYLE
  5
431
102
{ACAD_REACTORS
330
42F
102
}
100
AcDbMlineStyle
  2
STANDARD
 70
     0
  3

 62
   256
 51
90.00
 52
90.00
 71
     2
 49
0.50
 62
   256
  6
BYLAYER
 49
-0.50
 62
   256
  6
BYLAYER
  0
XRECORD
  5
430
102
{ACAD_REACTORS
330
42D
102
}
100
AcDbXrecord
280
     1
  1
DWGPROPS COOKIE
  2
Ｙ１０２０ＲＥ４７　ガイケイ
  3

  4

  6
回転油圧シリンダ
  7

  8

  9

300
=
301
=
302
=
303
=
304
=
305
=
306
=
307
=
308
=
309
=
 40
0.000000
 41
0.000000
 42
0.000000
  1

 90
        0
  0
ENDSEC
  0
EOF
