  0
SECTION
  2
HEADER
  9
$ACADVER
  1
AC1014
  9
$DWGCODEPAGE
  3
ANSI_932
  9
$LTSCALE
 40
20.0
  9
$FILLMODE
 70
     1
  9
$CLAYER
  8
0
  9
$PDMODE
 70
     0
  9
$SPLFRAME
 70
     0
  9
$SPLINETYPE
 70
     6
  9
$SPLINESEGS
 70
     8
  9
$DIMASZ
 40
2.000000
  9
$DIMEXE
 40
2.000000
  9
$DIMEXO
 40
0.800000
  9
$DIMTAD
 70
     1
  9
$DIMTIH
 70
     0
  9
$DIMTOH
 70
     0
  9
$DIMTVP
 40
0.500000
  9
$DIMTXT
 40
3.100000
  9
$EXTMIN
 10
0.000000
 20
0.000000
 30
0.000000
  9
$EXTMAX
 10
420.000000
 20
594.000000
 30
0.000000
  9
$MEASUREMENT
 70
  1
  9
$LIMMIN
 10
0.000000
 20
0.000000
  9
$LIMMAX
 10
420.000000
 20
594.000000
  9
$HANDLING
 70
     1
  9
$HANDSEED
  5
582
  9
$DIMBLK
  1
_OPEN
  9
$DIMDEC
 70
     3
  9
$DIMAUNIT
 70
     1
  9
$DIMZIN
 70
     8
  9
$DIMTOFL
 70
     1
  0
ENDSEC
  0
SECTION
  2
CLASSES
  0
ENDSEC
  0
SECTION
  2
TABLES
  0
TABLE
  2
VPORT
  5
52F
100
AcDbSymbolTable
 70
     1
  0
VPORT
  5
530
100
AcDbSymbolTableRecord
100
AcDbViewportTableRecord
  2
*ACTIVE
 70
     0
 12
297.000000
 22
210.000000
 40
420.000000
 41
1.414286
  0
ENDTAB
  0
TABLE
  2
LTYPE
  5
531
100
AcDbSymbolTable
 70
     4
  0
LTYPE
  5
532
100
AcDbSymbolTableRecord
100
AcDbLinetypeTableRecord
  2
BYBLOCK
 70
     0
  3

 72
    65
 73
     0
 40
0.0
  0
LTYPE
  5
533
100
AcDbSymbolTableRecord
100
AcDbLinetypeTableRecord
  2
BYLAYER
 70
     0
  3

 72
    65
 73
     0
 40
0.0
  0
LTYPE
  5
534
100
AcDbSymbolTableRecord
100
AcDbLinetypeTableRecord
  2
CONTINUOUS
 70
     0
  3
Solid line (NEC CAE2D for Win R14.2 : 2021.07.14)
 72
    65
 73
     0
 40
0.0
  0
LTYPE
  5
535
100
AcDbSymbolTableRecord
100
AcDbLinetypeTableRecord
  2
HIDDEN
 70
     0
  3
__ __ __ __ __ __ __ __ __ __ __ __ __ __
 72
    65
 73
     2
 40
0.375
 49
0.25
 74
     0
 49
-0.125
 74
     0
  0
LTYPE
  5
536
100
AcDbSymbolTableRecord
100
AcDbLinetypeTableRecord
  2
CENTER
 70
     0
  3
____ _ ____ _ ____ _ ____ _ ____ _ ____
 72
    65
 73
     4
 40
2.0
 49
1.25
 74
     0
 49
-0.25
 74
     0
 49
0.25
 74
     0
 49
-0.25
 74
     0
  0
LTYPE
  5
537
100
AcDbSymbolTableRecord
100
AcDbLinetypeTableRecord
  2
PHANTOM
 70
     0
  3
______  __  __  ______  __  __  ______ 
 72
    65
 73
     6
 40
2.5
 49
1.25
 74
     0
 49
-0.25
 74
     0
 49
0.25
 74
     0
 49
-0.25
 74
     0
 49
0.25
 74
     0
 49
-0.25
 74
     0
  0
ENDTAB
  0
TABLE
  2
LAYER
  5
538
100
AcDbSymbolTable
 70
    10
  0
LAYER
  5
539
100
AcDbSymbolTableRecord
100
AcDbLayerTableRecord
  2
0
 70
     0
 62
     7
  6
CONTINUOUS
  0
LAYER
  5
53A
100
AcDbSymbolTableRecord
100
AcDbLayerTableRecord
  2
MAIN0
 70
     0
 62
     7
  6
CONTINUOUS
  0
LAYER
  5
53B
100
AcDbSymbolTableRecord
100
AcDbLayerTableRecord
  2
MAIN1
 70
     0
 62
     7
  6
CONTINUOUS
  0
LAYER
  5
53C
100
AcDbSymbolTableRecord
100
AcDbLayerTableRecord
  2
MAIN2
 70
     0
 62
     7
  6
CONTINUOUS
  0
LAYER
  5
53D
100
AcDbSymbolTableRecord
100
AcDbLayerTableRecord
  2
MAIN4
 70
     0
 62
     7
  6
CONTINUOUS
  0
LAYER
  5
53E
100
AcDbSymbolTableRecord
100
AcDbLayerTableRecord
  2
MAIN10
 70
     0
 62
     7
  6
CONTINUOUS
  0
LAYER
  5
53F
100
AcDbSymbolTableRecord
100
AcDbLayerTableRecord
  2
MAIN1023
 70
     0
 62
    16
  6
CONTINUOUS
  0
LAYER
  5
540
100
AcDbSymbolTableRecord
100
AcDbLayerTableRecord
  2
WAKU0
 70
     0
 62
     7
  6
CONTINUOUS
  0
LAYER
  5
541
100
AcDbSymbolTableRecord
100
AcDbLayerTableRecord
  2
WAKU1
 70
     0
 62
     7
  6
CONTINUOUS
  0
LAYER
  5
542
100
AcDbSymbolTableRecord
100
AcDbLayerTableRecord
  2
WAKU1023
 70
     0
 62
    16
  6
CONTINUOUS
  0
ENDTAB
  0
TABLE
  2
STYLE
  5
543
100
AcDbSymbolTable
 70
     4
  0
STYLE
  5
544
100
AcDbSymbolTableRecord
100
AcDbTextStyleTableRecord
  2
STANDARD
 70
    64
 40
0.0
 41
1.0
 50
0.0
 71
     0
 42
3.099999904632568
  3
TXT
  4

  0
STYLE
  5
545
100
AcDbSymbolTableRecord
100
AcDbTextStyleTableRecord
  2
ANKTATE
 70
    68
 40
0.0
 41
1.0
 50
0.0
 71
     0
 42
3.099999904632568
  3
TXT
  4

  0
STYLE
  5
546
100
AcDbSymbolTableRecord
100
AcDbTextStyleTableRecord
  2
KNJYOKO
 70
    64
 40
0.0
 41
1.0
 50
0.0
 71
     0
 42
3.099999904632568
  3
TXT
  4
BIGFONT
  0
STYLE
  5
547
100
AcDbSymbolTableRecord
100
AcDbTextStyleTableRecord
  2
KNJTATE
 70
    68
 40
0.0
 41
1.0
 50
0.0
 71
     0
 42
3.099999904632568
  3
TXT
  4
BIGFONT
  0
ENDTAB
  0
TABLE
  2
VIEW
  5
548
100
AcDbSymbolTable
 70
     0
  0
ENDTAB
  0
TABLE
  2
UCS
  5
549
100
AcDbSymbolTable
 70
     0
  0
ENDTAB
  0
TABLE
  2
APPID
  5
54A
100
AcDbSymbolTable
 70
     1
  0
APPID
  5
54B
100
AcDbSymbolTableRecord
100
AcDbRegAppTableRecord
  2
ACAD
 70
     0
  0
ENDTAB
  0
TABLE
  2
DIMSTYLE
  5
54C
100
AcDbSymbolTable
 70
     1
  0
DIMSTYLE
105
54D
100
AcDbSymbolTableRecord
100
AcDbDimStyleTableRecord
  2
STANDARD
 70
     0
 41
2.000000
 44
2.000000
 42
0.800000
145
0.661290
140
3.100000
144
1.000000
146
0.903226
340
544
  0
DIMSTYLE
105
54E
100
AcDbSymbolTableRecord
100
AcDbDimStyleTableRecord
  2
MAIN001
 70
     0
 41
2.000000
 44
2.000000
 42
0.800000
145
0.661290
140
3.100000
144
1.000000
146
0.903226
 77
     1
 73
     0
 74
     0
271
     3
275
     1
 78
     8
172
     1
340
544
  0
DIMSTYLE
105
54F
100
AcDbSymbolTableRecord
100
AcDbDimStyleTableRecord
  2
WAKU002
 70
     0
 41
2.000000
 44
2.000000
 42
0.800000
145
0.661290
140
3.100000
144
1.000000
146
0.903226
 77
     1
 73
     0
 74
     0
271
     3
275
     1
 78
     8
172
     1
340
544
  0
ENDTAB
  0
TABLE
  2
BLOCK_RECORD
  5
550
100
AcDbSymbolTable
 70
    50
  0
BLOCK_RECORD
  5
551
100
AcDbSymbolTableRecord
100
AcDbBlockTableRecord
  2
*MODEL_SPACE
  0
BLOCK_RECORD
  5
552
100
AcDbSymbolTableRecord
100
AcDbBlockTableRecord
  2
*PAPER_SPACE
  0
BLOCK_RECORD
  5
1
100
AcDbSymbolTableRecord
100
AcDbBlockTableRecord
  2
_NONE
  0
BLOCK_RECORD
  5
4
100
AcDbSymbolTableRecord
100
AcDbBlockTableRecord
  2
_CLOSED
  0
BLOCK_RECORD
  5
B
100
AcDbSymbolTableRecord
100
AcDbBlockTableRecord
  2
_DOT
  0
BLOCK_RECORD
  5
13
100
AcDbSymbolTableRecord
100
AcDbBlockTableRecord
  2
_OPEN
  0
BLOCK_RECORD
  5
19
100
AcDbSymbolTableRecord
100
AcDbBlockTableRecord
  2
_ORIGIN
  0
BLOCK_RECORD
  5
1E
100
AcDbSymbolTableRecord
100
AcDbBlockTableRecord
  2
_OPEN30
  0
BLOCK_RECORD
  5
24
100
AcDbSymbolTableRecord
100
AcDbBlockTableRecord
  2
_BOXFILLED
  0
BLOCK_RECORD
  5
29
100
AcDbSymbolTableRecord
100
AcDbBlockTableRecord
  2
_BOXBLANK
  0
BLOCK_RECORD
  5
31
100
AcDbSymbolTableRecord
100
AcDbBlockTableRecord
  2
_OBLIQUE
  0
BLOCK_RECORD
  5
35
100
AcDbSymbolTableRecord
100
AcDbBlockTableRecord
  2
_OPEN90
  0
BLOCK_RECORD
  5
3B
100
AcDbSymbolTableRecord
100
AcDbBlockTableRecord
  2
_CLOSEDBLANK
  0
BLOCK_RECORD
  5
41
100
AcDbSymbolTableRecord
100
AcDbBlockTableRecord
  2
_DOTBLANK
  0
BLOCK_RECORD
  5
553
100
AcDbSymbolTableRecord
100
AcDbBlockTableRecord
  2
M0
  0
BLOCK_RECORD
  5
554
100
AcDbSymbolTableRecord
100
AcDbBlockTableRecord
  2
*D0
  0
BLOCK_RECORD
  5
555
100
AcDbSymbolTableRecord
100
AcDbBlockTableRecord
  2
*D1
  0
BLOCK_RECORD
  5
556
100
AcDbSymbolTableRecord
100
AcDbBlockTableRecord
  2
*D2
  0
BLOCK_RECORD
  5
557
100
AcDbSymbolTableRecord
100
AcDbBlockTableRecord
  2
*D3
  0
BLOCK_RECORD
  5
558
100
AcDbSymbolTableRecord
100
AcDbBlockTableRecord
  2
*D4
  0
BLOCK_RECORD
  5
559
100
AcDbSymbolTableRecord
100
AcDbBlockTableRecord
  2
*D5
  0
BLOCK_RECORD
  5
55A
100
AcDbSymbolTableRecord
100
AcDbBlockTableRecord
  2
*D6
  0
BLOCK_RECORD
  5
55B
100
AcDbSymbolTableRecord
100
AcDbBlockTableRecord
  2
*D7
  0
BLOCK_RECORD
  5
55C
100
AcDbSymbolTableRecord
100
AcDbBlockTableRecord
  2
*D8
  0
BLOCK_RECORD
  5
55D
100
AcDbSymbolTableRecord
100
AcDbBlockTableRecord
  2
*D9
  0
BLOCK_RECORD
  5
55E
100
AcDbSymbolTableRecord
100
AcDbBlockTableRecord
  2
*D10
  0
BLOCK_RECORD
  5
55F
100
AcDbSymbolTableRecord
100
AcDbBlockTableRecord
  2
*D11
  0
BLOCK_RECORD
  5
560
100
AcDbSymbolTableRecord
100
AcDbBlockTableRecord
  2
*D12
  0
BLOCK_RECORD
  5
561
100
AcDbSymbolTableRecord
100
AcDbBlockTableRecord
  2
*D13
  0
BLOCK_RECORD
  5
562
100
AcDbSymbolTableRecord
100
AcDbBlockTableRecord
  2
M1
  0
BLOCK_RECORD
  5
563
100
AcDbSymbolTableRecord
100
AcDbBlockTableRecord
  2
M2
  0
BLOCK_RECORD
  5
564
100
AcDbSymbolTableRecord
100
AcDbBlockTableRecord
  2
*D14
  0
BLOCK_RECORD
  5
565
100
AcDbSymbolTableRecord
100
AcDbBlockTableRecord
  2
*D15
  0
BLOCK_RECORD
  5
566
100
AcDbSymbolTableRecord
100
AcDbBlockTableRecord
  2
*D16
  0
BLOCK_RECORD
  5
567
100
AcDbSymbolTableRecord
100
AcDbBlockTableRecord
  2
*D17
  0
BLOCK_RECORD
  5
568
100
AcDbSymbolTableRecord
100
AcDbBlockTableRecord
  2
*D18
  0
BLOCK_RECORD
  5
569
100
AcDbSymbolTableRecord
100
AcDbBlockTableRecord
  2
*D19
  0
BLOCK_RECORD
  5
56A
100
AcDbSymbolTableRecord
100
AcDbBlockTableRecord
  2
*D20
  0
BLOCK_RECORD
  5
56B
100
AcDbSymbolTableRecord
100
AcDbBlockTableRecord
  2
*D21
  0
BLOCK_RECORD
  5
56C
100
AcDbSymbolTableRecord
100
AcDbBlockTableRecord
  2
*D22
  0
BLOCK_RECORD
  5
56D
100
AcDbSymbolTableRecord
100
AcDbBlockTableRecord
  2
*D23
  0
BLOCK_RECORD
  5
56E
100
AcDbSymbolTableRecord
100
AcDbBlockTableRecord
  2
D24
  0
BLOCK_RECORD
  5
56F
100
AcDbSymbolTableRecord
100
AcDbBlockTableRecord
  2
D25
  0
BLOCK_RECORD
  5
570
100
AcDbSymbolTableRecord
100
AcDbBlockTableRecord
  2
D26
  0
BLOCK_RECORD
  5
571
100
AcDbSymbolTableRecord
100
AcDbBlockTableRecord
  2
*D27
  0
BLOCK_RECORD
  5
572
100
AcDbSymbolTableRecord
100
AcDbBlockTableRecord
  2
M3
  0
BLOCK_RECORD
  5
573
100
AcDbSymbolTableRecord
100
AcDbBlockTableRecord
  2
M4
  0
BLOCK_RECORD
  5
574
100
AcDbSymbolTableRecord
100
AcDbBlockTableRecord
  2
M5
  0
BLOCK_RECORD
  5
575
100
AcDbSymbolTableRecord
100
AcDbBlockTableRecord
  2
*X0
  0
BLOCK_RECORD
  5
576
100
AcDbSymbolTableRecord
100
AcDbBlockTableRecord
  2
*X1
  0
BLOCK_RECORD
  5
577
100
AcDbSymbolTableRecord
100
AcDbBlockTableRecord
  2
*X2
  0
BLOCK_RECORD
  5
578
100
AcDbSymbolTableRecord
100
AcDbBlockTableRecord
  2
*X3
  0
ENDTAB
  0
ENDSEC
  0
SECTION
  2
BLOCKS
  0
BLOCK
  5
579
100
AcDbEntity
  8
0
100
AcDbBlockBegin
  2
*MODEL_SPACE
 70
     0
 10
0.0
 20
0.0
 30
0.0
  3
*MODEL_SPACE
  1

  0
ENDBLK
  5
57A
100
AcDbEntity
  8
0
100
AcDbBlockEnd
  0
BLOCK
  5
57B
100
AcDbEntity
  8
0
100
AcDbBlockBegin
  2
*PAPER_SPACE
 70
     0
 10
0.0
 20
0.0
 30
0.0
  3
*PAPER_SPACE
  1

  0
ENDBLK
  5
57C
100
AcDbEntity
  8
0
100
AcDbBlockEnd
  0
BLOCK
  5
2
100
AcDbEntity
  8
0
100
AcDbBlockBegin
  2
_NONE
 70
     0
 10
0.0
 20
0.0
 30
0.0
  3
_NONE
  1

  0
ENDBLK
  5
3
100
AcDbEntity
  8
0
100
AcDbBlockEnd
  0
BLOCK
  5
5
100
AcDbEntity
  8
0
100
AcDbBlockBegin
  2
_CLOSED
 70
     0
 10
0.0
 20
0.0
 30
0.0
  3
_CLOSED
  1

  0
LINE
  5
6
100
AcDbEntity
  8
0
  6
BYBLOCK
 62
     0
100
AcDbLine
 10
-1.0
 20
0.166667
 30
0.0
 11
0.0
 21
0.0
 31
0.0
  0
LINE
  5
7
100
AcDbEntity
  8
0
  6
BYBLOCK
 62
     0
100
AcDbLine
 10
0.0
 20
0.0
 30
0.0
 11
-1.0
 21
-0.166667
 31
0.0
  0
LINE
  5
8
100
AcDbEntity
  8
0
  6
BYBLOCK
 62
     0
100
AcDbLine
 10
-1.0
 20
0.166667
 30
0.0
 11
-1.0
 21
-0.166667
 31
0.0
  0
LINE
  5
9
100
AcDbEntity
  8
0
  6
BYBLOCK
 62
     0
100
AcDbLine
 10
0.0
 20
0.0
 30
0.0
 11
-1.0
 21
0.0
 31
0.0
  0
ENDBLK
  5
A
100
AcDbEntity
  8
0
100
AcDbBlockEnd
  0
BLOCK
  5
C
100
AcDbEntity
  8
0
100
AcDbBlockBegin
  2
_DOT
 70
     0
 10
0.0
 20
0.0
 30
0.0
  3
_DOT
  1

  0
POLYLINE
  5
D
100
AcDbEntity
  8
0
  6
BYBLOCK
 62
     0
100
AcDb2dPolyline
 66
     1
 10
0.0
 20
0.0
 30
0.0
 70
     1
 40
0.5
 41
0.5
  0
VERTEX
  5
E
100
AcDbEntity
  8
0
  6
BYBLOCK
 62
     0
100
AcDbVertex
100
AcDb2dVertex
 10
-0.25
 20
0.0
 30
0.0
 42
1.0
  0
VERTEX
  5
F
100
AcDbEntity
  8
0
  6
BYBLOCK
 62
     0
100
AcDbVertex
100
AcDb2dVertex
 10
0.25
 20
0.0
 30
0.0
 42
1.0
  0
SEQEND
  5
10
100
AcDbEntity
  8
0
  6
BYBLOCK
 62
     0
  0
LINE
  5
11
100
AcDbEntity
  8
0
  6
BYBLOCK
 62
     0
100
AcDbLine
 10
-0.5
 20
0.0
 30
0.0
 11
-1.0
 21
0.0
 31
0.0
  0
ENDBLK
  5
12
100
AcDbEntity
  8
0
100
AcDbBlockEnd
  0
BLOCK
  5
14
100
AcDbEntity
  8
0
100
AcDbBlockBegin
  2
_OPEN
 70
     0
 10
0.0
 20
0.0
 30
0.0
  3
_OPEN
  1

  0
LINE
  5
15
100
AcDbEntity
  8
0
  6
BYBLOCK
 62
     0
100
AcDbLine
 10
-1.0
 20
0.166667
 30
0.0
 11
0.0
 21
0.0
 31
0.0
  0
LINE
  5
16
100
AcDbEntity
  8
0
  6
BYBLOCK
 62
     0
100
AcDbLine
 10
0.0
 20
0.0
 30
0.0
 11
-1.0
 21
-0.166667
 31
0.0
  0
LINE
  5
17
100
AcDbEntity
  8
0
  6
BYBLOCK
 62
     0
100
AcDbLine
 10
0.0
 20
0.0
 30
0.0
 11
-1.0
 21
0.0
 31
0.0
  0
ENDBLK
  5
18
100
AcDbEntity
  8
0
100
AcDbBlockEnd
  0
BLOCK
  5
1A
100
AcDbEntity
  8
0
100
AcDbBlockBegin
  2
_ORIGIN
 70
     0
 10
0.0
 20
0.0
 30
0.0
  3
_ORIGIN
  1

  0
CIRCLE
  5
1B
100
AcDbEntity
  8
0
  6
BYBLOCK
 62
     0
100
AcDbCircle
 10
0.0
 20
0.0
 30
0.0
 40
0.5
  0
LINE
  5
1C
100
AcDbEntity
  8
0
  6
BYBLOCK
 62
     0
100
AcDbLine
 10
0.0
 20
0.0
 30
0.0
 11
-1.0
 21
0.0
 31
0.0
  0
ENDBLK
  5
1D
100
AcDbEntity
  8
0
100
AcDbBlockEnd
  0
BLOCK
  5
1F
100
AcDbEntity
  8
0
100
AcDbBlockBegin
  2
_OPEN30
 70
     0
 10
0.0
 20
0.0
 30
0.0
  3
_OPEN30
  1

  0
LINE
  5
20
100
AcDbEntity
  8
0
  6
BYBLOCK
 62
     0
100
AcDbLine
 10
-1.0
 20
0.267949
 30
0.0
 11
0.0
 21
0.0
 31
0.0
  0
LINE
  5
21
100
AcDbEntity
  8
0
  6
BYBLOCK
 62
     0
100
AcDbLine
 10
0.0
 20
0.0
 30
0.0
 11
-1.0
 21
-0.267949
 31
0.0
  0
LINE
  5
22
100
AcDbEntity
  8
0
  6
BYBLOCK
 62
     0
100
AcDbLine
 10
0.0
 20
0.0
 30
0.0
 11
-1.0
 21
0.0
 31
0.0
  0
ENDBLK
  5
23
100
AcDbEntity
  8
0
100
AcDbBlockEnd
  0
BLOCK
  5
25
100
AcDbEntity
  8
0
100
AcDbBlockBegin
  2
_BOXFILLED
 70
     0
 10
0.0
 20
0.0
 30
0.0
  3
_BOXFILLED
  1

  0
SOLID
  5
26
100
AcDbEntity
  8
0
  6
BYBLOCK
 62
     0
100
AcDbTrace
 10
-0.5
 20
0.5
 30
0.0
 11
0.5
 21
0.5
 31
0.0
 12
-0.5
 22
-0.5
 32
0.0
 13
0.5
 23
-0.5
 33
0.0
  0
LINE
  5
27
100
AcDbEntity
  8
0
  6
BYBLOCK
 62
     0
100
AcDbLine
 10
-0.5
 20
0.0
 30
0.0
 11
-1.0
 21
0.0
 31
0.0
  0
ENDBLK
  5
28
100
AcDbEntity
  8
0
100
AcDbBlockEnd
  0
BLOCK
  5
2A
100
AcDbEntity
  8
0
100
AcDbBlockBegin
  2
_BOXBLANK
 70
     0
 10
0.0
 20
0.0
 30
0.0
  3
_BOXBLANK
  1

  0
LINE
  5
2B
100
AcDbEntity
  8
0
  6
BYBLOCK
 62
     0
100
AcDbLine
 10
-0.5
 20
-0.5
 30
0.0
 11
0.5
 21
-0.5
 31
0.0
  0
LINE
  5
2C
100
AcDbEntity
  8
0
  6
BYBLOCK
 62
     0
100
AcDbLine
 10
0.5
 20
-0.5
 30
0.0
 11
0.5
 21
0.5
 31
0.0
  0
LINE
  5
2D
100
AcDbEntity
  8
0
  6
BYBLOCK
 62
     0
100
AcDbLine
 10
0.5
 20
0.5
 30
0.0
 11
-0.5
 21
0.5
 31
0.0
  0
LINE
  5
2E
100
AcDbEntity
  8
0
  6
BYBLOCK
 62
     0
100
AcDbLine
 10
-0.5
 20
0.5
 30
0.0
 11
-0.5
 21
-0.5
 31
0.0
  0
LINE
  5
2F
100
AcDbEntity
  8
0
  6
BYBLOCK
 62
     0
100
AcDbLine
 10
-0.5
 20
0.0
 30
0.0
 11
-1.0
 21
0.0
 31
0.0
  0
ENDBLK
  5
30
100
AcDbEntity
  8
0
100
AcDbBlockEnd
  0
BLOCK
  5
32
100
AcDbEntity
  8
0
100
AcDbBlockBegin
  2
_OBLIQUE
 70
     0
 10
0.0
 20
0.0
 30
0.0
  3
_OBLIQUE
  1

  0
LINE
  5
33
100
AcDbEntity
  8
0
  6
BYBLOCK
 62
     0
100
AcDbLine
 10
-0.5
 20
-0.5
 30
0.0
 11
0.5
 21
0.5
 31
0.0
  0
ENDBLK
  5
34
100
AcDbEntity
  8
0
100
AcDbBlockEnd
  0
BLOCK
  5
36
100
AcDbEntity
  8
0
100
AcDbBlockBegin
  2
_OPEN90
 70
     0
 10
0.0
 20
0.0
 30
0.0
  3
_OPEN90
  1

  0
LINE
  5
37
100
AcDbEntity
  8
0
  6
BYBLOCK
 62
     0
100
AcDbLine
 10
-0.5
 20
0.5
 30
0.0
 11
0.0
 21
0.0
 31
0.0
  0
LINE
  5
38
100
AcDbEntity
  8
0
  6
BYBLOCK
 62
     0
100
AcDbLine
 10
0.0
 20
0.0
 30
0.0
 11
-0.5
 21
-0.5
 31
0.0
  0
LINE
  5
39
100
AcDbEntity
  8
0
  6
BYBLOCK
 62
     0
100
AcDbLine
 10
0.0
 20
0.0
 30
0.0
 11
-1.0
 21
0.0
 31
0.0
  0
ENDBLK
  5
3A
100
AcDbEntity
  8
0
100
AcDbBlockEnd
  0
BLOCK
  5
3C
100
AcDbEntity
  8
0
100
AcDbBlockBegin
  2
_CLOSEDBLANK
 70
     0
 10
0.0
 20
0.0
 30
0.0
  3
_CLOSEDBLANK
  1

  0
LINE
  5
3D
100
AcDbEntity
  8
0
  6
BYBLOCK
 62
     0
100
AcDbLine
 10
-1.0
 20
0.1666666666666666
 30
0.0
 11
0.0
 21
0.0
 31
0.0
  0
LINE
  5
3E
100
AcDbEntity
  8
0
  6
BYBLOCK
 62
     0
100
AcDbLine
 10
0.0
 20
0.0
 30
0.0
 11
-1.0
 21
-0.1666666666666666
 31
0.0
  0
LINE
  5
3F
100
AcDbEntity
  8
0
  6
BYBLOCK
 62
     0
100
AcDbLine
 10
-1.0
 20
0.1666666666666666
 30
0.0
 11
-1.0
 21
-0.1666666666666666
 31
0.0
  0
ENDBLK
  5
40
100
AcDbEntity
  8
0
100
AcDbBlockEnd
  0
BLOCK
  5
42
100
AcDbEntity
  8
0
100
AcDbBlockBegin
  2
_DOTBLANK
 70
     0
 10
0.0
 20
0.0
 30
0.0
  3
_DOTBLANK
  1

  0
CIRCLE
  5
43
100
AcDbEntity
  8
0
  6
BYBLOCK
 62
     0
100
AcDbCircle
 10
0.0
 20
0.0
 30
0.0
 40
0.5
  0
LINE
  5
44
100
AcDbEntity
  8
0
  6
BYBLOCK
 62
     0
100
AcDbLine
 10
-0.5
 20
0.0
 30
0.0
 11
-1.0
 21
0.0
 31
0.0
  0
ENDBLK
  5
45
100
AcDbEntity
  8
0
100
AcDbBlockEnd
  0
BLOCK
  5
7B
100
AcDbEntity
  8
MAIN0
  6
BYBLOCK
 62
3
100
AcDbBlockBegin
  2
M0
 70
    64
 10
0.0
 20
0.0
 30
0.0
  0
LINE
  5
7C
100
AcDbEntity
  8
MAIN0
  6
BYBLOCK
 62
0
100
AcDbLine
 10
154.4999922828646
 20
376.1393903397586
 30
0.0000000000000000
 11
154.4999922828646
 21
388.1393903397586
 31
0.0000000000000000
  0
LINE
  5
7D
100
AcDbEntity
  8
MAIN0
  6
BYBLOCK
 62
0
100
AcDbLine
 10
154.4999922828645
 20
376.1393903397587
 30
0.0000000000000000
 11
153.2058970573519
 21
380.9690194712040
 31
0.0000000000000000
  0
LINE
  5
7E
100
AcDbEntity
  8
MAIN0
  6
BYBLOCK
 62
0
100
AcDbLine
 10
154.4999922828647
 20
376.1393903397586
 30
0.0000000000000000
 11
155.7940875083773
 21
380.9690194712038
 31
0.0000000000000000
  0
ENDBLK
  5
7F
100
AcDbEntity
  8
MAIN0
  6
BYBLOCK
 62
3
100
AcDbBlockEnd
  0
BLOCK
  5
84
100
AcDbEntity
  8
MAIN0
  6
CONTINUOUS
 62
3
100
AcDbBlockBegin
  2
*D0
 70
    65
 10
0.0
 20
0.0
 30
0.0
  0
LINE
  5
85
100
AcDbEntity
  8
MAIN0
  6
BYBLOCK
 62
0
100
AcDbLine
 10
283.6350235293933
 20
349.9052738315567
 30
0.0000000000000000
 11
311.1786635124518
 21
337.0614635739922
 31
0.0000000000000000
  0
LINE
  5
86
100
AcDbEntity
  8
MAIN0
  6
BYBLOCK
 62
0
100
AcDbLine
 10
310.2112844618598
 20
339.7193156715470
 30
0.0000000000000000
 11
329.2291062401914
 21
380.5031660881964
 31
0.0000000000000000
  0
INSERT
  5
87
100
AcDbEntity
  8
MAIN0
  6
BYBLOCK
 62
0
100
AcDbBlockReference
  2
_OPEN
 10
309.3660479383784
 20
337.9067000974736
 30
0.0000000000000000
 41
2.000000000000000
 42
2.000000000000000
 43
2.000000000000000
 50
245.0000000000000
  0
INSERT
  5
88
100
AcDbEntity
  8
MAIN0
  6
BYBLOCK
 62
0
100
AcDbBlockReference
  2
_OPEN
 10
330.0743427636728
 20
382.3157816622697
 30
0.0000000000000000
 41
2.000000000000000
 42
2.000000000000000
 43
2.000000000000000
 50
65.00000000000001
  0
LINE
  5
89
100
AcDbEntity
  8
MAIN0
  6
BYBLOCK
 62
0
100
AcDbLine
 10
308.1416943281899
 20
392.5431435913566
 30
0.0000000000000000
 11
331.8869583377460
 21
381.4705451387883
 31
0.0000000000000000
  0
MTEXT
  5
8A
100
AcDbEntity
  8
MAIN0
  6
BYBLOCK
 62
0
100
AcDbMText
 10
317.8622644308166
 20
360.9776082962881
 30
0.0000000000000000
 40
3.099999904632568
 41
0.0000000000000000
 71
     5
 72
     1
  1
\A1;49
 11
0.4226182617406992
 21
0.9063077870366501
 31
0.0000000000000000
  7
STANDARD
  0
ENDBLK
  5
8B
100
AcDbEntity
  8
MAIN0
  6
CONTINUOUS
 62
3
100
AcDbBlockEnd
  0
BLOCK
  5
8D
100
AcDbEntity
  8
MAIN0
  6
CONTINUOUS
 62
3
100
AcDbBlockBegin
  2
*D1
 70
    65
 10
0.0
 20
0.0
 30
0.0
  0
LINE
  5
8E
100
AcDbEntity
  8
MAIN0
  6
BYBLOCK
 62
0
100
AcDbLine
 10
281.7928597235945
 20
396.0027835992390
 30
0.0000000000000000
 11
263.2518515771817
 21
404.6485976878253
 31
0.0000000000000000
  0
LINE
  5
8F
100
AcDbEntity
  8
MAIN0
  6
BYBLOCK
 62
0
100
AcDbLine
 10
264.2192306277736
 20
401.9907455902706
 30
0.0000000000000000
 11
248.5823549433680
 21
368.4573574699142
 31
0.0000000000000000
  0
INSERT
  5
90
100
AcDbEntity
  8
MAIN0
  6
BYBLOCK
 62
0
100
AcDbBlockReference
  2
_OPEN
 10
265.0644671512550
 20
403.8033611643439
 30
0.0000000000000000
 41
2.000000000000000
 42
2.000000000000000
 43
2.000000000000000
 50
65.00000000000057
  0
INSERT
  5
91
100
AcDbEntity
  8
MAIN0
  6
BYBLOCK
 62
0
100
AcDbBlockReference
  2
_OPEN
 10
247.7371184198866
 20
366.6447418958409
 30
0.0000000000000000
 41
2.000000000000000
 42
2.000000000000000
 43
2.000000000000000
 50
245.0000000000006
  0
LINE
  5
92
100
AcDbEntity
  8
MAIN0
  6
BYBLOCK
 62
0
100
AcDbLine
 10
262.7001809961147
 20
359.6673512270934
 30
0.0000000000000000
 11
245.9245028458133
 21
367.4899784193223
 31
0.0000000000000000
  0
MTEXT
  5
93
100
AcDbEntity
  8
MAIN0
  6
BYBLOCK
 62
0
100
AcDbMText
 10
254.5428618653618
 20
386.0904189465088
 30
0.0000000000000000
 40
3.099999904632568
 41
0.0000000000000000
 71
     5
 72
     1
  1
\A1;41
 11
0.4226182617406902
 21
0.9063077870366543
 31
0.0000000000000000
  7
STANDARD
  0
ENDBLK
  5
94
100
AcDbEntity
  8
MAIN0
  6
CONTINUOUS
 62
3
100
AcDbBlockEnd
  0
BLOCK
  5
96
100
AcDbEntity
  8
MAIN0
  6
CONTINUOUS
 62
3
100
AcDbBlockBegin
  2
*D2
 70
    65
 10
0.0
 20
0.0
 30
0.0
  0
LINE
  5
97
100
AcDbEntity
  8
MAIN0
  6
BYBLOCK
 62
0
100
AcDbLine
 10
262.7001809961147
 20
359.6673512270934
 30
0.0000000000000000
 11
245.9245028458133
 21
367.4899784193223
 31
0.0000000000000000
  0
LINE
  5
98
100
AcDbEntity
  8
MAIN0
  6
BYBLOCK
 62
0
100
AcDbLine
 10
247.7371184198866
 20
366.6447418958409
 30
0.0000000000000000
 11
246.0466453729239
 21
363.0195107476945
 31
0.0000000000000000
  0
INSERT
  5
99
100
AcDbEntity
  8
MAIN0
  6
BYBLOCK
 62
0
100
AcDbBlockReference
  2
_OPEN
 10
247.7371184198866
 20
366.6447418958409
 30
0.0000000000000000
 41
2.000000000000000
 42
2.000000000000000
 43
2.000000000000000
 50
245.0000000000004
  0
INSERT
  5
9A
100
AcDbEntity
  8
MAIN0
  6
BYBLOCK
 62
0
100
AcDbBlockReference
  2
_OPEN
 10
246.0466453729239
 20
363.0195107476945
 30
0.0000000000000000
 41
2.000000000000000
 42
2.000000000000000
 43
2.000000000000000
 50
65.00000000000040
  0
LINE
  5
9B
100
AcDbEntity
  8
MAIN0
  6
BYBLOCK
 62
0
100
AcDbLine
 10
248.5823549433680
 20
368.4573574699143
 30
0.0000000000000000
 11
249.0049732051087
 21
369.3636652569509
 31
0.0000000000000000
  0
LINE
  5
9C
100
AcDbEntity
  8
MAIN0
  6
BYBLOCK
 62
0
100
AcDbLine
 10
245.2014088494425
 20
361.2068951736212
 30
0.0000000000000000
 11
244.7787905877019
 21
360.3005873865845
 31
0.0000000000000000
  0
LINE
  5
9D
100
AcDbEntity
  8
MAIN0
  6
BYBLOCK
 62
0
100
AcDbLine
 10
262.7750379452630
 20
355.2189331825898
 30
0.0000000000000000
 11
244.2340297988506
 21
363.8647472711758
 31
0.0000000000000000
  0
MTEXT
  5
9E
100
AcDbEntity
  8
MAIN0
  6
BYBLOCK
 62
0
100
AcDbMText
 10
245.0339509761963
 20
365.6984937381841
 30
0.0000000000000000
 40
3.099999904632568
 41
0.0000000000000000
 71
     5
 72
     1
  1
\A1;4
 11
0.4226182617406910
 21
0.9063077870366539
 31
0.0000000000000000
  7
STANDARD
  0
ENDBLK
  5
9F
100
AcDbEntity
  8
MAIN0
  6
CONTINUOUS
 62
3
100
AcDbBlockEnd
  0
BLOCK
  5
A1
100
AcDbEntity
  8
MAIN0
  6
CONTINUOUS
 62
3
100
AcDbBlockBegin
  2
*D3
 70
    65
 10
0.0
 20
0.0
 30
0.0
  0
LINE
  5
A2
100
AcDbEntity
  8
MAIN0
  6
BYBLOCK
 62
0
100
AcDbLine
 10
301.7170169136641
 20
362.4376823020506
 30
0.0000000000000000
 11
310.1453326151586
 21
358.5074941450957
 31
0.0000000000000000
  0
LINE
  5
A3
100
AcDbEntity
  8
MAIN0
  6
BYBLOCK
 62
0
100
AcDbLine
 10
309.1779535645667
 20
361.1653462426505
 30
0.0000000000000000
 11
320.1660283698247
 21
384.7293487056036
 31
0.0000000000000000
  0
INSERT
  5
A4
100
AcDbEntity
  8
MAIN0
  6
BYBLOCK
 62
0
100
AcDbBlockReference
  2
_OPEN
 10
308.3327170410854
 20
359.3527306685771
 30
0.0000000000000000
 41
2.000000000000000
 42
2.000000000000000
 43
2.000000000000000
 50
245.0000000000007
  0
INSERT
  5
A5
100
AcDbEntity
  8
MAIN0
  6
BYBLOCK
 62
0
100
AcDbBlockReference
  2
_OPEN
 10
321.0112648933061
 20
386.5419642796769
 30
0.0000000000000000
 41
2.000000000000000
 42
2.000000000000000
 43
2.000000000000000
 50
65.00000000000067
  0
LINE
  5
A6
100
AcDbEntity
  8
MAIN0
  6
BYBLOCK
 62
0
100
AcDbLine
 10
308.1416943281899
 20
392.5431435913566
 30
0.0000000000000000
 11
322.8238804673794
 21
385.6967277561955
 31
0.0000000000000000
  0
MTEXT
  5
A7
100
AcDbEntity
  8
MAIN0
  6
BYBLOCK
 62
0
100
AcDbMText
 10
312.8140600469867
 20
373.8137148905435
 30
0.0000000000000000
 40
3.099999904632568
 41
0.0000000000000000
 71
     5
 72
     1
  1
\A1;30
 11
0.4226182617406894
 21
0.9063077870366547
 31
0.0000000000000000
  7
STANDARD
  0
ENDBLK
  5
A8
100
AcDbEntity
  8
MAIN0
  6
CONTINUOUS
 62
3
100
AcDbBlockEnd
  0
BLOCK
  5
AA
100
AcDbEntity
  8
MAIN0
  6
CONTINUOUS
 62
3
100
AcDbBlockBegin
  2
*D4
 70
    65
 10
0.0
 20
0.0
 30
0.0
  0
LINE
  5
AB
100
AcDbEntity
  8
MAIN0
  6
BYBLOCK
 62
0
100
AcDbLine
 10
244.0840295582315
 20
339.8810548855661
 30
0.0000000000000000
 11
238.0828502465514
 21
327.0114843204497
 31
0.0000000000000000
  0
LINE
  5
AC
100
AcDbEntity
  8
MAIN0
  6
BYBLOCK
 62
0
100
AcDbLine
 10
240.7407023441061
 20
327.9788633710415
 30
0.0000000000000000
 11
273.3677826774256
 21
312.7646059483764
 31
0.0000000000000000
  0
INSERT
  5
AD
100
AcDbEntity
  8
MAIN0
  6
BYBLOCK
 62
0
100
AcDbBlockReference
  2
_OPEN
 10
238.9280867700329
 20
328.8240998945229
 30
0.0000000000000000
 41
2.000000000000000
 42
2.000000000000000
 43
2.000000000000000
 50
155.0000000000000
  0
INSERT
  5
AE
100
AcDbEntity
  8
MAIN0
  6
BYBLOCK
 62
0
100
AcDbBlockReference
  2
_OPEN
 10
275.1803982514988
 20
311.9193694248950
 30
0.0000000000000000
 41
2.000000000000000
 42
2.000000000000000
 43
2.000000000000000
 50
335.0000000000000
  0
LINE
  5
AF
100
AcDbEntity
  8
MAIN0
  6
BYBLOCK
 62
0
100
AcDbLine
 10
280.3363410396974
 20
322.9763244159382
 30
0.0000000000000000
 11
274.3351617280175
 21
310.1067538508217
 31
0.0000000000000000
  0
MTEXT
  5
B0
100
AcDbEntity
  8
MAIN0
  6
BYBLOCK
 62
0
100
AcDbMText
 10
257.9206099271823
 20
322.2296655799180
 30
0.0000000000000000
 40
3.099999904632568
 41
0.0000000000000000
 71
     5
 72
     1
  1
\A1;40
 11
0.9063077870366501
 21
-0.4226182617406992
 31
0.0000000000000000
  7
STANDARD
  0
ENDBLK
  5
B1
100
AcDbEntity
  8
MAIN0
  6
CONTINUOUS
 62
3
100
AcDbBlockEnd
  0
BLOCK
  5
266
100
AcDbEntity
  8
MAIN0
  6
CONTINUOUS
 62
3
100
AcDbBlockBegin
  2
*D5
 70
    65
 10
0.0
 20
0.0
 30
0.0
  0
LINE
  5
267
100
AcDbEntity
  8
MAIN0
  6
BYBLOCK
 62
0
100
AcDbLine
 10
518.4339668904524
 20
255.4997958835060
 30
0.0000000000000000
 11
535.4999922828694
 21
255.4997958835060
 31
0.0000000000000000
  0
LINE
  5
268
100
AcDbEntity
  8
MAIN0
  6
BYBLOCK
 62
0
100
AcDbLine
 10
533.4999922828694
 20
253.4997958835060
 30
0.0000000000000000
 11
533.4999922828694
 21
231.4997958835060
 31
0.0000000000000000
  0
INSERT
  5
269
100
AcDbEntity
  8
MAIN0
  6
BYBLOCK
 62
0
100
AcDbBlockReference
  2
_OPEN
 10
533.4999922828694
 20
255.4997958835060
 30
0.0000000000000000
 41
2.000000000000000
 42
2.000000000000000
 43
2.000000000000000
 50
90.00000000000000
  0
INSERT
  5
26A
100
AcDbEntity
  8
MAIN0
  6
BYBLOCK
 62
0
100
AcDbBlockReference
  2
_OPEN
 10
533.4999922828694
 20
229.4997958835060
 30
0.0000000000000000
 41
2.000000000000000
 42
2.000000000000000
 43
2.000000000000000
 50
270.0000000000000
  0
LINE
  5
26B
100
AcDbEntity
  8
MAIN0
  6
BYBLOCK
 62
0
100
AcDbLine
 10
518.4339668904524
 20
229.4997958835060
 30
0.0000000000000000
 11
535.4999922828694
 21
229.4997958835060
 31
0.0000000000000000
  0
MTEXT
  5
26C
100
AcDbEntity
  8
MAIN0
  6
BYBLOCK
 62
0
100
AcDbMText
 10
531.4499923305531
 20
242.4997958835060
 30
0.0000000000000000
 40
3.099999904632568
 41
0.0000000000000000
 71
     5
 72
     1
  1
\A1;\U+220526H8
 11
6.123233995736766e-017
 21
1.000000000000000
 31
0.0000000000000000
  7
STANDARD
  0
ENDBLK
  5
26D
100
AcDbEntity
  8
MAIN0
  6
CONTINUOUS
 62
3
100
AcDbBlockEnd
  0
BLOCK
  5
26F
100
AcDbEntity
  8
MAIN0
  6
CONTINUOUS
 62
3
100
AcDbBlockBegin
  2
*D6
 70
    65
 10
0.0
 20
0.0
 30
0.0
  0
LINE
  5
270
100
AcDbEntity
  8
MAIN0
  6
BYBLOCK
 62
0
100
AcDbLine
 10
474.2999922947903
 20
216.9997958835060
 30
0.0000000000000000
 11
555.4999922828694
 21
216.9997958835060
 31
0.0000000000000000
  0
LINE
  5
271
100
AcDbEntity
  8
MAIN0
  6
BYBLOCK
 62
0
100
AcDbLine
 10
553.4999922828694
 20
218.9997958835060
 30
0.0000000000000000
 11
553.4999922828694
 21
265.9997958835060
 31
0.0000000000000000
  0
INSERT
  5
272
100
AcDbEntity
  8
MAIN0
  6
BYBLOCK
 62
0
100
AcDbBlockReference
  2
_OPEN
 10
553.4999922828694
 20
216.9997958835060
 30
0.0000000000000000
 41
2.000000000000000
 42
2.000000000000000
 43
2.000000000000000
 50
270.0000000000000
  0
INSERT
  5
273
100
AcDbEntity
  8
MAIN0
  6
BYBLOCK
 62
0
100
AcDbBlockReference
  2
_OPEN
 10
553.4999922828694
 20
267.9997958835060
 30
0.0000000000000000
 41
2.000000000000000
 42
2.000000000000000
 43
2.000000000000000
 50
90.00000000000000
  0
LINE
  5
274
100
AcDbEntity
  8
MAIN0
  6
BYBLOCK
 62
0
100
AcDbLine
 10
474.2999922947903
 20
267.9997958835060
 30
0.0000000000000000
 11
555.4999922828694
 21
267.9997958835060
 31
0.0000000000000000
  0
MTEXT
  5
275
100
AcDbEntity
  8
MAIN0
  6
BYBLOCK
 62
0
100
AcDbMText
 10
551.4499923305531
 20
242.4997958835060
 30
0.0000000000000000
 40
3.099999904632568
 41
0.0000000000000000
 71
     5
 72
     1
  1
\A1;\U+220551
 11
6.123233995736766e-017
 21
1.000000000000000
 31
0.0000000000000000
  7
STANDARD
  0
ENDBLK
  5
276
100
AcDbEntity
  8
MAIN0
  6
CONTINUOUS
 62
3
100
AcDbBlockEnd
  0
BLOCK
  5
278
100
AcDbEntity
  8
MAIN0
  6
CONTINUOUS
 62
3
100
AcDbBlockBegin
  2
*D7
 70
    65
 10
0.0
 20
0.0
 30
0.0
  0
LINE
  5
279
100
AcDbEntity
  8
MAIN0
  6
BYBLOCK
 62
0
100
AcDbLine
 10
458.4999922828694
 20
159.6997958715851
 30
0.0000000000000000
 11
458.4999922828694
 21
127.6086453774641
 31
0.0000000000000000
  0
LINE
  5
27A
100
AcDbEntity
  8
MAIN0
  6
BYBLOCK
 62
0
100
AcDbLine
 10
460.4999922828694
 20
129.6086453774641
 30
0.0000000000000000
 11
516.4999922828694
 21
129.6086453774641
 31
0.0000000000000000
  0
INSERT
  5
27B
100
AcDbEntity
  8
MAIN0
  6
BYBLOCK
 62
0
100
AcDbBlockReference
  2
_OPEN
 10
458.4999922828694
 20
129.6086453774641
 30
0.0000000000000000
 41
2.000000000000000
 42
2.000000000000000
 43
2.000000000000000
 50
180.0000000000000
  0
INSERT
  5
27C
100
AcDbEntity
  8
MAIN0
  6
BYBLOCK
 62
0
100
AcDbBlockReference
  2
_OPEN
 10
518.4999922828694
 20
129.6086453774641
 30
0.0000000000000000
 41
2.000000000000000
 42
2.000000000000000
 43
2.000000000000000
 50
0.0000000000000000
  0
LINE
  5
27D
100
AcDbEntity
  8
MAIN0
  6
BYBLOCK
 62
0
100
AcDbLine
 10
518.4999922828694
 20
225.5205307897026
 30
0.0000000000000000
 11
518.4999922828694
 21
127.6086453774641
 31
0.0000000000000000
  0
MTEXT
  5
27E
100
AcDbEntity
  8
MAIN0
  6
BYBLOCK
 62
0
100
AcDbMText
 10
488.4999922828694
 20
131.6586453297804
 30
0.0000000000000000
 40
3.099999904632568
 41
0.0000000000000000
 71
     5
 72
     1
  1
\A1;MAX 60
 11
1.000000000000000
 21
0.0000000000000000
 31
0.0000000000000000
  7
STANDARD
  0
ENDBLK
  5
27F
100
AcDbEntity
  8
MAIN0
  6
CONTINUOUS
 62
3
100
AcDbBlockEnd
  0
BLOCK
  5
281
100
AcDbEntity
  8
MAIN0
  6
CONTINUOUS
 62
3
100
AcDbBlockBegin
  2
*D8
 70
    65
 10
0.0
 20
0.0
 30
0.0
  0
LINE
  5
282
100
AcDbEntity
  8
MAIN0
  6
BYBLOCK
 62
0
100
AcDbLine
 10
513.4999922828694
 20
228.6997958715851
 30
0.0000000000000000
 11
513.4999922828694
 21
207.9997958835060
 31
0.0000000000000000
  0
LINE
  5
283
100
AcDbEntity
  8
MAIN0
  6
BYBLOCK
 62
0
100
AcDbLine
 10
513.4999922828694
 20
209.9997958835060
 30
0.0000000000000000
 11
518.4999922828694
 21
209.9997958835060
 31
0.0000000000000000
  0
INSERT
  5
284
100
AcDbEntity
  8
MAIN0
  6
BYBLOCK
 62
0
100
AcDbBlockReference
  2
_OPEN
 10
513.4999922828694
 20
209.9997958835060
 30
0.0000000000000000
 41
2.000000000000000
 42
2.000000000000000
 43
2.000000000000000
 50
0.0000000000000000
  0
INSERT
  5
285
100
AcDbEntity
  8
MAIN0
  6
BYBLOCK
 62
0
100
AcDbBlockReference
  2
_OPEN
 10
518.4999922828694
 20
209.9997958835060
 30
0.0000000000000000
 41
2.000000000000000
 42
2.000000000000000
 43
2.000000000000000
 50
180.0000000000000
  0
LINE
  5
286
100
AcDbEntity
  8
MAIN0
  6
BYBLOCK
 62
0
100
AcDbLine
 10
511.4999922828694
 20
209.9997958835060
 30
0.0000000000000000
 11
510.4999922828694
 21
209.9997958835060
 31
0.0000000000000000
  0
LINE
  5
287
100
AcDbEntity
  8
MAIN0
  6
BYBLOCK
 62
0
100
AcDbLine
 10
520.4999922828694
 20
209.9997958835060
 30
0.0000000000000000
 11
521.4999922828694
 21
209.9997958835060
 31
0.0000000000000000
  0
LINE
  5
288
100
AcDbEntity
  8
MAIN0
  6
BYBLOCK
 62
0
100
AcDbLine
 10
518.4999922828694
 20
224.5205307897027
 30
0.0000000000000000
 11
518.4999922828694
 21
207.9997958835060
 31
0.0000000000000000
  0
MTEXT
  5
289
100
AcDbEntity
  8
MAIN0
  6
BYBLOCK
 62
0
100
AcDbMText
 10
515.9999922828694
 20
212.0497958358223
 30
0.0000000000000000
 40
3.099999904632568
 41
0.0000000000000000
 71
     5
 72
     1
  1
\A1;5
 11
1.000000000000000
 21
0.0000000000000000
 31
0.0000000000000000
  7
STANDARD
  0
ENDBLK
  5
28A
100
AcDbEntity
  8
MAIN0
  6
CONTINUOUS
 62
3
100
AcDbBlockEnd
  0
BLOCK
  5
28C
100
AcDbEntity
  8
MAIN0
  6
CONTINUOUS
 62
3
100
AcDbBlockBegin
  2
*D9
 70
    65
 10
0.0
 20
0.0
 30
0.0
  0
LINE
  5
28D
100
AcDbEntity
  8
MAIN0
  6
BYBLOCK
 62
0
100
AcDbLine
 10
483.4999922828694
 20
229.6997958715851
 30
0.0000000000000000
 11
483.4999922828694
 21
200.4997958835060
 31
0.0000000000000000
  0
LINE
  5
28E
100
AcDbEntity
  8
MAIN0
  6
BYBLOCK
 62
0
100
AcDbLine
 10
485.4999922828694
 20
202.4997958835060
 30
0.0000000000000000
 11
516.4999922828694
 21
202.4997958835060
 31
0.0000000000000000
  0
INSERT
  5
28F
100
AcDbEntity
  8
MAIN0
  6
BYBLOCK
 62
0
100
AcDbBlockReference
  2
_OPEN
 10
483.4999922828694
 20
202.4997958835060
 30
0.0000000000000000
 41
2.000000000000000
 42
2.000000000000000
 43
2.000000000000000
 50
180.0000000000000
  0
INSERT
  5
290
100
AcDbEntity
  8
MAIN0
  6
BYBLOCK
 62
0
100
AcDbBlockReference
  2
_OPEN
 10
518.4999922828694
 20
202.4997958835060
 30
0.0000000000000000
 41
2.000000000000000
 42
2.000000000000000
 43
2.000000000000000
 50
0.0000000000000000
  0
LINE
  5
291
100
AcDbEntity
  8
MAIN0
  6
BYBLOCK
 62
0
100
AcDbLine
 10
518.4999922828694
 20
224.4975244697030
 30
0.0000000000000000
 11
518.4999922828694
 21
200.4997958835060
 31
0.0000000000000000
  0
MTEXT
  5
292
100
AcDbEntity
  8
MAIN0
  6
BYBLOCK
 62
0
100
AcDbMText
 10
500.9999922828694
 20
204.5497958358223
 30
0.0000000000000000
 40
3.099999904632568
 41
0.0000000000000000
 71
     5
 72
     1
  1
\A1;35
 11
1.000000000000000
 21
0.0000000000000000
 31
0.0000000000000000
  7
STANDARD
  0
ENDBLK
  5
293
100
AcDbEntity
  8
MAIN0
  6
CONTINUOUS
 62
3
100
AcDbBlockEnd
  0
BLOCK
  5
295
100
AcDbEntity
  8
MAIN0
  6
CONTINUOUS
 62
3
100
AcDbBlockBegin
  2
*D10
 70
    65
 10
0.0
 20
0.0
 30
0.0
  0
LINE
  5
296
100
AcDbEntity
  8
MAIN0
  6
BYBLOCK
 62
0
100
AcDbLine
 10
457.2999922947903
 20
158.4997958835060
 30
0.0000000000000000
 11
575.4999922828695
 21
158.4997958835060
 31
0.0000000000000000
  0
LINE
  5
297
100
AcDbEntity
  8
MAIN0
  6
BYBLOCK
 62
0
100
AcDbLine
 10
573.4999922828695
 20
160.4997958835060
 30
0.0000000000000000
 11
573.4999922828695
 21
324.4997958835060
 31
0.0000000000000000
  0
INSERT
  5
298
100
AcDbEntity
  8
MAIN0
  6
BYBLOCK
 62
0
100
AcDbBlockReference
  2
_OPEN
 10
573.4999922828695
 20
158.4997958835060
 30
0.0000000000000000
 41
2.000000000000000
 42
2.000000000000000
 43
2.000000000000000
 50
270.0000000000000
  0
INSERT
  5
299
100
AcDbEntity
  8
MAIN0
  6
BYBLOCK
 62
0
100
AcDbBlockReference
  2
_OPEN
 10
573.4999922828695
 20
326.4997958835060
 30
0.0000000000000000
 41
2.000000000000000
 42
2.000000000000000
 43
2.000000000000000
 50
90.00000000000000
  0
LINE
  5
29A
100
AcDbEntity
  8
MAIN0
  6
BYBLOCK
 62
0
100
AcDbLine
 10
458.2999922947903
 20
326.4997958835060
 30
0.0000000000000000
 11
575.4999922828695
 21
326.4997958835060
 31
0.0000000000000000
  0
MTEXT
  5
29B
100
AcDbEntity
  8
MAIN0
  6
BYBLOCK
 62
0
100
AcDbMText
 10
571.4499923305532
 20
242.4997958835060
 30
0.0000000000000000
 40
3.099999904632568
 41
0.0000000000000000
 71
     5
 72
     1
  1
\A1;\U+2205168h7
 11
6.123233995736766e-017
 21
1.000000000000000
 31
0.0000000000000000
  7
STANDARD
  0
ENDBLK
  5
29C
100
AcDbEntity
  8
MAIN0
  6
CONTINUOUS
 62
3
100
AcDbBlockEnd
  0
BLOCK
  5
29E
100
AcDbEntity
  8
MAIN0
  6
CONTINUOUS
 62
3
100
AcDbBlockBegin
  2
*D11
 70
    65
 10
0.0
 20
0.0
 30
0.0
  0
LINE
  5
29F
100
AcDbEntity
  8
MAIN0
  6
BYBLOCK
 62
0
100
AcDbLine
 10
460.4999922828694
 20
202.4997958835060
 30
0.0000000000000000
 11
471.4999922828694
 21
202.4997958835060
 31
0.0000000000000000
  0
INSERT
  5
2A0
100
AcDbEntity
  8
MAIN0
  6
BYBLOCK
 62
0
100
AcDbBlockReference
  2
_OPEN
 10
458.4999922828694
 20
202.4997958835060
 30
0.0000000000000000
 41
2.000000000000000
 42
2.000000000000000
 43
2.000000000000000
 50
180.0000000000000
  0
INSERT
  5
2A1
100
AcDbEntity
  8
MAIN0
  6
BYBLOCK
 62
0
100
AcDbBlockReference
  2
_OPEN
 10
473.4999922828694
 20
202.4997958835060
 30
0.0000000000000000
 41
2.000000000000000
 42
2.000000000000000
 43
2.000000000000000
 50
0.0000000000000000
  0
LINE
  5
2A2
100
AcDbEntity
  8
MAIN0
  6
BYBLOCK
 62
0
100
AcDbLine
 10
473.4999922828694
 20
216.6997958715851
 30
0.0000000000000000
 11
473.4999922828694
 21
200.4997958835060
 31
0.0000000000000000
  0
MTEXT
  5
2A3
100
AcDbEntity
  8
MAIN0
  6
BYBLOCK
 62
0
100
AcDbMText
 10
465.9999922828694
 20
204.5497958358223
 30
0.0000000000000000
 40
3.099999904632568
 41
0.0000000000000000
 71
     5
 72
     1
  1
\A1;15
 11
1.000000000000000
 21
0.0000000000000000
 31
0.0000000000000000
  7
STANDARD
  0
ENDBLK
  5
2A4
100
AcDbEntity
  8
MAIN0
  6
CONTINUOUS
 62
3
100
AcDbBlockEnd
  0
BLOCK
  5
2A6
100
AcDbEntity
  8
MAIN0
  6
CONTINUOUS
 62
3
100
AcDbBlockBegin
  2
*D12
 70
    65
 10
0.0
 20
0.0
 30
0.0
  0
LINE
  5
2A7
100
AcDbEntity
  8
MAIN0
  6
BYBLOCK
 62
0
100
AcDbLine
 10
314.4999922828701
 20
150.8997958715850
 30
0.0000000000000000
 11
314.4999922828701
 21
127.6086453774641
 31
0.0000000000000000
  0
LINE
  5
2A8
100
AcDbEntity
  8
MAIN0
  6
BYBLOCK
 62
0
100
AcDbLine
 10
316.4999922828701
 20
129.6086453774641
 30
0.0000000000000000
 11
456.4999922828694
 21
129.6086453774641
 31
0.0000000000000000
  0
INSERT
  5
2A9
100
AcDbEntity
  8
MAIN0
  6
BYBLOCK
 62
0
100
AcDbBlockReference
  2
_OPEN
 10
314.4999922828701
 20
129.6086453774641
 30
0.0000000000000000
 41
2.000000000000000
 42
2.000000000000000
 43
2.000000000000000
 50
180.0000000000000
  0
INSERT
  5
2AA
100
AcDbEntity
  8
MAIN0
  6
BYBLOCK
 62
0
100
AcDbBlockReference
  2
_OPEN
 10
458.4999922828694
 20
129.6086453774641
 30
0.0000000000000000
 41
2.000000000000000
 42
2.000000000000000
 43
2.000000000000000
 50
0.0000000000000000
  0
LINE
  5
2AB
100
AcDbEntity
  8
MAIN0
  6
BYBLOCK
 62
0
100
AcDbLine
 10
458.4999922828694
 20
157.1997958715851
 30
0.0000000000000000
 11
458.4999922828694
 21
127.6086453774641
 31
0.0000000000000000
  0
MTEXT
  5
2AC
100
AcDbEntity
  8
MAIN0
  6
BYBLOCK
 62
0
100
AcDbMText
 10
386.4999922828698
 20
131.6586453297804
 30
0.0000000000000000
 40
3.099999904632568
 41
0.0000000000000000
 71
     5
 72
     1
  1
\A1;144
 11
1.000000000000000
 21
0.0000000000000000
 31
0.0000000000000000
  7
STANDARD
  0
ENDBLK
  5
2AD
100
AcDbEntity
  8
MAIN0
  6
CONTINUOUS
 62
3
100
AcDbBlockEnd
  0
BLOCK
  5
2B6
100
AcDbEntity
  8
MAIN0
  6
CONTINUOUS
 62
3
100
AcDbBlockBegin
  2
*D13
 70
    65
 10
0.0
 20
0.0
 30
0.0
  0
LINE
  5
2B7
100
AcDbEntity
  8
MAIN0
  6
BYBLOCK
 62
0
100
AcDbLine
 10
458.4999922828694
 20
159.6997958715851
 30
0.0000000000000000
 11
458.4999922828694
 21
138.4350817389502
 31
0.0000000000000000
  0
LINE
  5
2B8
100
AcDbEntity
  8
MAIN0
  6
BYBLOCK
 62
0
100
AcDbLine
 10
456.4999922828694
 20
140.4350817389502
 30
0.0000000000000000
 11
326.4999922828737
 21
140.4350817389502
 31
0.0000000000000000
  0
INSERT
  5
2B9
100
AcDbEntity
  8
MAIN0
  6
BYBLOCK
 62
0
100
AcDbBlockReference
  2
_OPEN
 10
458.4999922828694
 20
140.4350817389502
 30
0.0000000000000000
 41
2.000000000000000
 42
2.000000000000000
 43
2.000000000000000
 50
360.0000000000000
  0
INSERT
  5
2BA
100
AcDbEntity
  8
MAIN0
  6
BYBLOCK
 62
0
100
AcDbBlockReference
  2
_OPEN
 10
324.4999922828737
 20
140.4350817389502
 30
0.0000000000000000
 41
2.000000000000000
 42
2.000000000000000
 43
2.000000000000000
 50
180.0000000000000
  0
LINE
  5
2BB
100
AcDbEntity
  8
MAIN0
  6
BYBLOCK
 62
0
100
AcDbLine
 10
324.4999922828737
 20
149.4997422231870
 30
0.0000000000000000
 11
324.4999922828737
 21
138.4350817389502
 31
0.0000000000000000
  0
MTEXT
  5
2BC
100
AcDbEntity
  8
MAIN0
  6
BYBLOCK
 62
0
100
AcDbMText
 10
391.4999922828715
 20
142.4850816912664
 30
0.0000000000000000
 40
3.099999904632568
 41
0.0000000000000000
 71
     5
 72
     1
  1
\A1;134
 11
1.000000000000000
 21
0.0000000000000000
 31
0.0000000000000000
  7
STANDARD
  0
ENDBLK
  5
2BD
100
AcDbEntity
  8
MAIN0
  6
CONTINUOUS
 62
3
100
AcDbBlockEnd
  0
BLOCK
  5
2C8
100
AcDbEntity
  8
MAIN0
  6
BYBLOCK
 62
2
100
AcDbBlockBegin
  2
M1
 70
    64
 10
0.0
 20
0.0
 30
0.0
  0
LINE
  5
2C9
100
AcDbEntity
  8
MAIN0
  6
BYBLOCK
 62
0
100
AcDbLine
 10
502.4999922828694
 20
306.7497958835060
 30
0.0000000000000000
 11
502.4999922828694
 21
300.7497958835060
 31
0.0000000000000000
  0
LINE
  5
2CA
100
AcDbEntity
  8
MAIN0
  6
BYBLOCK
 62
0
100
AcDbLine
 10
502.4999922828694
 20
303.7497958835060
 30
0.0000000000000000
 11
514.4999922828692
 21
303.7497958835060
 31
0.0000000000000000
  0
LINE
  5
2CB
100
AcDbEntity
  8
MAIN0
  6
BYBLOCK
 62
0
100
AcDbLine
 10
502.4999922828694
 20
303.7497958835061
 30
0.0000000000000000
 11
507.3296214143147
 21
305.0438911090187
 31
0.0000000000000000
  0
LINE
  5
2CC
100
AcDbEntity
  8
MAIN0
  6
BYBLOCK
 62
0
100
AcDbLine
 10
502.4999922828695
 20
303.7497958835060
 30
0.0000000000000000
 11
507.3296214143148
 21
302.4557006579934
 31
0.0000000000000000
  0
ENDBLK
  5
2CD
100
AcDbEntity
  8
MAIN0
  6
BYBLOCK
 62
2
100
AcDbBlockEnd
  0
BLOCK
  5
2CF
100
AcDbEntity
  8
MAIN0
  6
BYBLOCK
 62
2
100
AcDbBlockBegin
  2
M2
 70
    64
 10
0.0
 20
0.0
 30
0.0
  0
LINE
  5
2D0
100
AcDbEntity
  8
MAIN0
  6
BYBLOCK
 62
0
100
AcDbLine
 10
502.4999922828694
 20
184.2497958835061
 30
0.0000000000000000
 11
502.4999922828694
 21
178.2497958835061
 31
0.0000000000000000
  0
LINE
  5
2D1
100
AcDbEntity
  8
MAIN0
  6
BYBLOCK
 62
0
100
AcDbLine
 10
502.4999922828694
 20
181.2497958835061
 30
0.0000000000000000
 11
514.4999922828692
 21
181.2497958835061
 31
0.0000000000000000
  0
LINE
  5
2D2
100
AcDbEntity
  8
MAIN0
  6
BYBLOCK
 62
0
100
AcDbLine
 10
502.4999922828694
 20
181.2497958835061
 30
0.0000000000000000
 11
507.3296214143148
 21
182.5438911090187
 31
0.0000000000000000
  0
LINE
  5
2D3
100
AcDbEntity
  8
MAIN0
  6
BYBLOCK
 62
0
100
AcDbLine
 10
502.4999922828695
 20
181.2497958835060
 30
0.0000000000000000
 11
507.3296214143147
 21
179.9557006579934
 31
0.0000000000000000
  0
ENDBLK
  5
2D4
100
AcDbEntity
  8
MAIN0
  6
BYBLOCK
 62
2
100
AcDbBlockEnd
  0
BLOCK
  5
2D9
100
AcDbEntity
  8
MAIN0
  6
CONTINUOUS
 62
3
100
AcDbBlockBegin
  2
*D14
 70
    65
 10
0.0
 20
0.0
 30
0.0
  0
LINE
  5
2DA
100
AcDbEntity
  8
MAIN0
  6
BYBLOCK
 62
0
100
AcDbLine
 10
458.4999922828694
 20
159.6997958715851
 30
0.0000000000000000
 11
458.4999922828694
 21
138.4350817389502
 31
0.0000000000000000
  0
LINE
  5
2DB
100
AcDbEntity
  8
MAIN0
  6
BYBLOCK
 62
0
100
AcDbLine
 10
460.4999922828694
 20
140.4350817389502
 30
0.0000000000000000
 11
474.4999922828699
 21
140.4350817389502
 31
0.0000000000000000
  0
INSERT
  5
2DC
100
AcDbEntity
  8
MAIN0
  6
BYBLOCK
 62
0
100
AcDbBlockReference
  2
_OPEN
 10
458.4999922828694
 20
140.4350817389502
 30
0.0000000000000000
 41
2.000000000000000
 42
2.000000000000000
 43
2.000000000000000
 50
180.0000000000000
  0
INSERT
  5
2DD
100
AcDbEntity
  8
MAIN0
  6
BYBLOCK
 62
0
100
AcDbBlockReference
  2
_OPEN
 10
476.4999922828699
 20
140.4350817389502
 30
0.0000000000000000
 41
2.000000000000000
 42
2.000000000000000
 43
2.000000000000000
 50
0.0000000000000000
  0
LINE
  5
2DE
100
AcDbEntity
  8
MAIN0
  6
BYBLOCK
 62
0
100
AcDbLine
 10
476.4999922828699
 20
161.6997958715851
 30
0.0000000000000000
 11
476.4999922828699
 21
138.4350817389502
 31
0.0000000000000000
  0
MTEXT
  5
2DF
100
AcDbEntity
  8
MAIN0
  6
BYBLOCK
 62
0
100
AcDbMText
 10
467.4999922828696
 20
142.4850816912664
 30
0.0000000000000000
 40
3.099999904632568
 41
0.0000000000000000
 71
     5
 72
     1
  1
\A1;18
 11
1.000000000000000
 21
0.0000000000000000
 31
0.0000000000000000
  7
STANDARD
  0
ENDBLK
  5
2E0
100
AcDbEntity
  8
MAIN0
  6
CONTINUOUS
 62
3
100
AcDbBlockEnd
  0
BLOCK
  5
2E2
100
AcDbEntity
  8
MAIN0
  6
CONTINUOUS
 62
3
100
AcDbBlockBegin
  2
*D15
 70
    65
 10
0.0
 20
0.0
 30
0.0
  0
LINE
  5
2E3
100
AcDbEntity
  8
MAIN0
  6
BYBLOCK
 62
0
100
AcDbLine
 10
372.4999922828700
 20
330.2997958954271
 30
0.0000000000000000
 11
372.4999922828700
 21
378.4997958835060
 31
0.0000000000000000
  0
LINE
  5
2E4
100
AcDbEntity
  8
MAIN0
  6
BYBLOCK
 62
0
100
AcDbLine
 10
374.4999922828700
 20
376.4997958835060
 30
0.0000000000000000
 11
407.4999922828700
 21
376.4997958835060
 31
0.0000000000000000
  0
INSERT
  5
2E5
100
AcDbEntity
  8
MAIN0
  6
BYBLOCK
 62
0
100
AcDbBlockReference
  2
_OPEN
 10
372.4999922828700
 20
376.4997958835060
 30
0.0000000000000000
 41
2.000000000000000
 42
2.000000000000000
 43
2.000000000000000
 50
180.0000000000000
  0
INSERT
  5
2E6
100
AcDbEntity
  8
MAIN0
  6
BYBLOCK
 62
0
100
AcDbBlockReference
  2
_OPEN
 10
409.4999922828700
 20
376.4997958835060
 30
0.0000000000000000
 41
2.000000000000000
 42
2.000000000000000
 43
2.000000000000000
 50
0.0000000000000000
  0
LINE
  5
2E7
100
AcDbEntity
  8
MAIN0
  6
BYBLOCK
 62
0
100
AcDbLine
 10
409.4999922828700
 20
330.2997958954271
 30
0.0000000000000000
 11
409.4999922828700
 21
378.4997958835060
 31
0.0000000000000000
  0
MTEXT
  5
2E8
100
AcDbEntity
  8
MAIN0
  6
BYBLOCK
 62
0
100
AcDbMText
 10
390.9999922828700
 20
378.5497958358222
 30
0.0000000000000000
 40
3.099999904632568
 41
0.0000000000000000
 71
     5
 72
     1
  1
\A1;37
 11
1.000000000000000
 21
0.0000000000000000
 31
0.0000000000000000
  7
STANDARD
  0
ENDBLK
  5
2E9
100
AcDbEntity
  8
MAIN0
  6
CONTINUOUS
 62
3
100
AcDbBlockEnd
  0
BLOCK
  5
2EB
100
AcDbEntity
  8
MAIN0
  6
CONTINUOUS
 62
3
100
AcDbBlockBegin
  2
*D16
 70
    65
 10
0.0
 20
0.0
 30
0.0
  0
LINE
  5
2EC
100
AcDbEntity
  8
MAIN0
  6
BYBLOCK
 62
0
100
AcDbLine
 10
409.4999922828700
 20
330.2997958954271
 30
0.0000000000000000
 11
409.4999922828700
 21
378.4997958835060
 31
0.0000000000000000
  0
LINE
  5
2ED
100
AcDbEntity
  8
MAIN0
  6
BYBLOCK
 62
0
100
AcDbLine
 10
411.4999922828700
 20
376.4997958835060
 30
0.0000000000000000
 11
456.4999922828694
 21
376.4997958835060
 31
0.0000000000000000
  0
INSERT
  5
2EE
100
AcDbEntity
  8
MAIN0
  6
BYBLOCK
 62
0
100
AcDbBlockReference
  2
_OPEN
 10
409.4999922828700
 20
376.4997958835060
 30
0.0000000000000000
 41
2.000000000000000
 42
2.000000000000000
 43
2.000000000000000
 50
180.0000000000000
  0
INSERT
  5
2EF
100
AcDbEntity
  8
MAIN0
  6
BYBLOCK
 62
0
100
AcDbBlockReference
  2
_OPEN
 10
458.4999922828694
 20
376.4997958835060
 30
0.0000000000000000
 41
2.000000000000000
 42
2.000000000000000
 43
2.000000000000000
 50
0.0000000000000000
  0
LINE
  5
2F0
100
AcDbEntity
  8
MAIN0
  6
BYBLOCK
 62
0
100
AcDbLine
 10
458.4999922828694
 20
326.2997958954269
 30
0.0000000000000000
 11
458.4999922828694
 21
378.4997958835060
 31
0.0000000000000000
  0
MTEXT
  5
2F1
100
AcDbEntity
  8
MAIN0
  6
BYBLOCK
 62
0
100
AcDbMText
 10
433.9999922828697
 20
378.5497958358222
 30
0.0000000000000000
 40
3.099999904632568
 41
0.0000000000000000
 71
     5
 72
     1
  1
\A1;MIN 49
 11
1.000000000000000
 21
0.0000000000000000
 31
0.0000000000000000
  7
STANDARD
  0
ENDBLK
  5
2F2
100
AcDbEntity
  8
MAIN0
  6
CONTINUOUS
 62
3
100
AcDbBlockEnd
  0
BLOCK
  5
2F6
100
AcDbEntity
  8
MAIN0
  6
CONTINUOUS
 62
3
100
AcDbBlockBegin
  2
*D17
 70
    65
 10
0.0
 20
0.0
 30
0.0
  0
LINE
  5
2F7
100
AcDbEntity
  8
MAIN0
  6
BYBLOCK
 62
0
100
AcDbLine
 10
537.4999922828246
 20
127.1331401069192
 30
0.0000000000000000
 11
537.4999922828246
 21
103.0218635582154
 31
0.0000000000000000
  0
LINE
  5
2F8
100
AcDbEntity
  8
MAIN0
  6
BYBLOCK
 62
0
100
AcDbLine
 10
539.4999922828246
 20
105.0218635582154
 30
0.0000000000000000
 11
567.4999922828246
 21
105.0218635582154
 31
0.0000000000000000
  0
INSERT
  5
2F9
100
AcDbEntity
  8
MAIN0
  6
BYBLOCK
 62
0
100
AcDbBlockReference
  2
_OPEN
 10
537.4999922828246
 20
105.0218635582154
 30
0.0000000000000000
 41
2.000000000000000
 42
2.000000000000000
 43
2.000000000000000
 50
180.0000000000000
  0
INSERT
  5
2FA
100
AcDbEntity
  8
MAIN0
  6
BYBLOCK
 62
0
100
AcDbBlockReference
  2
_OPEN
 10
569.4999922828246
 20
105.0218635582154
 30
0.0000000000000000
 41
2.000000000000000
 42
2.000000000000000
 43
2.000000000000000
 50
0.0000000000000000
  0
LINE
  5
2FB
100
AcDbEntity
  8
MAIN0
  6
BYBLOCK
 62
0
100
AcDbLine
 10
569.4999922828246
 20
127.1331401069254
 30
0.0000000000000000
 11
569.4999922828246
 21
103.0218635582154
 31
0.0000000000000000
  0
MTEXT
  5
2FC
100
AcDbEntity
  8
MAIN0
  6
BYBLOCK
 62
0
100
AcDbMText
 10
553.4999922641981
 20
107.0718635105317
 30
0.0000000000000000
 40
3.099999904632568
 41
0.0000000000000000
 71
     5
 72
     1
  1
\A1;32\H0.903226x;\S 0^ -0.4;
 11
1.000000000000000
 21
0.0000000000000000
 31
0.0000000000000000
  7
STANDARD
  0
ENDBLK
  5
2FD
100
AcDbEntity
  8
MAIN0
  6
CONTINUOUS
 62
3
100
AcDbBlockEnd
  0
BLOCK
  5
308
100
AcDbEntity
  8
MAIN0
  6
CONTINUOUS
 62
3
100
AcDbBlockBegin
  2
*D18
 70
    65
 10
0.0
 20
0.0
 30
0.0
  0
LINE
  5
309
100
AcDbEntity
  8
MAIN0
  6
BYBLOCK
 62
0
100
AcDbLine
 10
503.2999922947902
 20
260.4997958835060
 30
0.0000000000000000
 11
545.4999922828694
 21
260.4997958835060
 31
0.0000000000000000
  0
LINE
  5
30A
100
AcDbEntity
  8
MAIN0
  6
BYBLOCK
 62
0
100
AcDbLine
 10
543.4999922828694
 20
258.4997958835060
 30
0.0000000000000000
 11
543.4999922828694
 21
226.4997958835060
 31
0.0000000000000000
  0
INSERT
  5
30B
100
AcDbEntity
  8
MAIN0
  6
BYBLOCK
 62
0
100
AcDbBlockReference
  2
_OPEN
 10
543.4999922828694
 20
260.4997958835060
 30
0.0000000000000000
 41
2.000000000000000
 42
2.000000000000000
 43
2.000000000000000
 50
90.00000000000000
  0
INSERT
  5
30C
100
AcDbEntity
  8
MAIN0
  6
BYBLOCK
 62
0
100
AcDbBlockReference
  2
_OPEN
 10
543.4999922828694
 20
224.4997958835060
 30
0.0000000000000000
 41
2.000000000000000
 42
2.000000000000000
 43
2.000000000000000
 50
270.0000000000000
  0
LINE
  5
30D
100
AcDbEntity
  8
MAIN0
  6
BYBLOCK
 62
0
100
AcDbLine
 10
503.2999922947903
 20
224.4997958835060
 30
0.0000000000000000
 11
545.4999922828694
 21
224.4997958835060
 31
0.0000000000000000
  0
MTEXT
  5
30E
100
AcDbEntity
  8
MAIN0
  6
BYBLOCK
 62
0
100
AcDbMText
 10
541.4499923305531
 20
242.4997958835060
 30
0.0000000000000000
 40
3.099999904632568
 41
0.0000000000000000
 71
     5
 72
     1
  1
\A1;\U+220536
 11
6.123233995736766e-017
 21
1.000000000000000
 31
0.0000000000000000
  7
STANDARD
  0
ENDBLK
  5
30F
100
AcDbEntity
  8
MAIN0
  6
CONTINUOUS
 62
3
100
AcDbBlockEnd
  0
BLOCK
  5
34E
100
AcDbEntity
  8
MAIN0
  6
CONTINUOUS
 62
3
100
AcDbBlockBegin
  2
*D19
 70
    65
 10
0.0
 20
0.0
 30
0.0
  0
LINE
  5
34F
100
AcDbEntity
  8
MAIN0
  6
BYBLOCK
 62
0
100
AcDbLine
 10
90.40223367375987
 20
404.1229192484960
 30
0.0000000000000000
 11
104.1022336629634
 21
404.1229192484960
 31
0.0000000000000000
  0
LINE
  5
350
100
AcDbEntity
  8
MAIN0
  6
BYBLOCK
 62
0
100
AcDbLine
 10
102.1022336629634
 20
402.1229192484960
 30
0.0000000000000000
 11
102.1022336629634
 21
345.1229192484985
 31
0.0000000000000000
  0
INSERT
  5
351
100
AcDbEntity
  8
MAIN0
  6
BYBLOCK
 62
0
100
AcDbBlockReference
  2
_OPEN
 10
102.1022336629634
 20
404.1229192484960
 30
0.0000000000000000
 41
2.000000000000000
 42
2.000000000000000
 43
2.000000000000000
 50
90.00000000000000
  0
INSERT
  5
352
100
AcDbEntity
  8
MAIN0
  6
BYBLOCK
 62
0
100
AcDbBlockReference
  2
_OPEN
 10
102.1022336629634
 20
343.1229192484985
 30
0.0000000000000000
 41
2.000000000000000
 42
2.000000000000000
 43
2.000000000000000
 50
270.0000000000000
  0
LINE
  5
353
100
AcDbEntity
  8
MAIN0
  6
BYBLOCK
 62
0
100
AcDbLine
 10
92.90926485744461
 20
343.1229192484984
 30
0.0000000000000000
 11
104.1022336629634
 21
343.1229192484985
 31
0.0000000000000000
  0
MTEXT
  5
354
100
AcDbEntity
  8
MAIN0
  6
BYBLOCK
 62
0
100
AcDbMText
 10
100.0522337106471
 20
385.8705719740839
 30
0.0000000000000000
 40
3.099999904632568
 41
0.0000000000000000
 71
     5
 72
     1
  1
\A1;61
 11
6.123233995736766e-017
 21
1.000000000000000
 31
0.0000000000000000
  7
STANDARD
  0
ENDBLK
  5
355
100
AcDbEntity
  8
MAIN0
  6
CONTINUOUS
 62
3
100
AcDbBlockEnd
  0
BLOCK
  5
357
100
AcDbEntity
  8
MAIN0
  6
CONTINUOUS
 62
3
100
AcDbBlockBegin
  2
*D20
 70
    65
 10
0.0
 20
0.0
 30
0.0
  0
LINE
  5
358
100
AcDbEntity
  8
MAIN0
  6
BYBLOCK
 62
0
100
AcDbLine
 10
48.80223364991838
 20
404.1229192484956
 30
0.0000000000000000
 11
31.60223366183925
 21
404.1229192484956
 31
0.0000000000000000
  0
LINE
  5
359
100
AcDbEntity
  8
MAIN0
  6
BYBLOCK
 62
0
100
AcDbLine
 10
33.60223366183925
 20
402.1229192484956
 30
0.0000000000000000
 11
33.60223366183925
 21
364.1229192484957
 31
0.0000000000000000
  0
INSERT
  5
35A
100
AcDbEntity
  8
MAIN0
  6
BYBLOCK
 62
0
100
AcDbBlockReference
  2
_OPEN
 10
33.60223366183925
 20
404.1229192484956
 30
0.0000000000000000
 41
2.000000000000000
 42
2.000000000000000
 43
2.000000000000000
 50
90.00000000000000
  0
INSERT
  5
35B
100
AcDbEntity
  8
MAIN0
  6
BYBLOCK
 62
0
100
AcDbBlockReference
  2
_OPEN
 10
33.60223366183925
 20
362.1229192484957
 30
0.0000000000000000
 41
2.000000000000000
 42
2.000000000000000
 43
2.000000000000000
 50
270.0000000000000
  0
LINE
  5
35C
100
AcDbEntity
  8
MAIN0
  6
BYBLOCK
 62
0
100
AcDbLine
 10
56.66365827721353
 20
362.1229192484956
 30
0.0000000000000000
 11
31.60223366183925
 21
362.1229192484957
 31
0.0000000000000000
  0
MTEXT
  5
35D
100
AcDbEntity
  8
MAIN0
  6
BYBLOCK
 62
0
100
AcDbMText
 10
31.55223370952297
 20
383.1229192484956
 30
0.0000000000000000
 40
3.099999904632568
 41
0.0000000000000000
 71
     5
 72
     1
  1
\A1;42
 11
6.123233995736766e-017
 21
1.000000000000000
 31
0.0000000000000000
  7
STANDARD
  0
ENDBLK
  5
35E
100
AcDbEntity
  8
MAIN0
  6
CONTINUOUS
 62
3
100
AcDbBlockEnd
  0
BLOCK
  5
360
100
AcDbEntity
  8
MAIN0
  6
CONTINUOUS
 62
3
100
AcDbBlockBegin
  2
*D21
 70
    65
 10
0.0
 20
0.0
 30
0.0
  0
LINE
  5
361
100
AcDbEntity
  8
MAIN0
  6
BYBLOCK
 62
0
100
AcDbLine
 10
57.46248768664498
 20
366.1229192484956
 30
0.0000000000000000
 11
39.60223366183925
 21
366.1229192484957
 31
0.0000000000000000
  0
LINE
  5
362
100
AcDbEntity
  8
MAIN0
  6
BYBLOCK
 62
0
100
AcDbLine
 10
41.60223366183925
 20
366.1229192484957
 30
0.0000000000000000
 11
41.60223366183925
 21
362.1229192484957
 31
0.0000000000000000
  0
INSERT
  5
363
100
AcDbEntity
  8
MAIN0
  6
BYBLOCK
 62
0
100
AcDbBlockReference
  2
_OPEN
 10
41.60223366183925
 20
366.1229192484957
 30
0.0000000000000000
 41
2.000000000000000
 42
2.000000000000000
 43
2.000000000000000
 50
270.0000000000000
  0
INSERT
  5
364
100
AcDbEntity
  8
MAIN0
  6
BYBLOCK
 62
0
100
AcDbBlockReference
  2
_OPEN
 10
41.60223366183925
 20
362.1229192484957
 30
0.0000000000000000
 41
2.000000000000000
 42
2.000000000000000
 43
2.000000000000000
 50
90.00000000000000
  0
LINE
  5
365
100
AcDbEntity
  8
MAIN0
  6
BYBLOCK
 62
0
100
AcDbLine
 10
41.60223366183925
 20
368.1229192484957
 30
0.0000000000000000
 11
41.60223366183925
 21
369.1229192484957
 31
0.0000000000000000
  0
LINE
  5
366
100
AcDbEntity
  8
MAIN0
  6
BYBLOCK
 62
0
100
AcDbLine
 10
41.60223366183925
 20
360.1229192484957
 30
0.0000000000000000
 11
41.60223366183925
 21
359.1229192484957
 31
0.0000000000000000
  0
LINE
  5
367
100
AcDbEntity
  8
MAIN0
  6
BYBLOCK
 62
0
100
AcDbLine
 10
56.66365827721353
 20
362.1229192484956
 30
0.0000000000000000
 11
39.60223366183925
 21
362.1229192484957
 31
0.0000000000000000
  0
MTEXT
  5
368
100
AcDbEntity
  8
MAIN0
  6
BYBLOCK
 62
0
100
AcDbMText
 10
39.55223370952297
 20
364.1229192484957
 30
0.0000000000000000
 40
3.099999904632568
 41
0.0000000000000000
 71
     5
 72
     1
  1
\A1;4
 11
6.123233995736766e-017
 21
1.000000000000000
 31
0.0000000000000000
  7
STANDARD
  0
ENDBLK
  5
369
100
AcDbEntity
  8
MAIN0
  6
CONTINUOUS
 62
3
100
AcDbBlockEnd
  0
BLOCK
  5
36B
100
AcDbEntity
  8
MAIN0
  6
CONTINUOUS
 62
3
100
AcDbBlockBegin
  2
*D22
 70
    65
 10
0.0
 20
0.0
 30
0.0
  0
LINE
  5
36C
100
AcDbEntity
  8
MAIN0
  6
BYBLOCK
 62
0
100
AcDbLine
 10
56.66365827721353
 20
362.1229192484956
 30
0.0000000000000000
 11
39.60223366183925
 21
362.1229192484957
 31
0.0000000000000000
  0
LINE
  5
36D
100
AcDbEntity
  8
MAIN0
  6
BYBLOCK
 62
0
100
AcDbLine
 10
41.60223366183925
 20
360.1229192484957
 30
0.0000000000000000
 11
41.60223366183925
 21
323.1229192484980
 31
0.0000000000000000
  0
INSERT
  5
36E
100
AcDbEntity
  8
MAIN0
  6
BYBLOCK
 62
0
100
AcDbBlockReference
  2
_OPEN
 10
41.60223366183925
 20
362.1229192484957
 30
0.0000000000000000
 41
2.000000000000000
 42
2.000000000000000
 43
2.000000000000000
 50
90.00000000000000
  0
INSERT
  5
36F
100
AcDbEntity
  8
MAIN0
  6
BYBLOCK
 62
0
100
AcDbBlockReference
  2
_OPEN
 10
41.60223366183925
 20
321.1229192484980
 30
0.0000000000000000
 41
2.000000000000000
 42
2.000000000000000
 43
2.000000000000000
 50
270.0000000000000
  0
LINE
  5
370
100
AcDbEntity
  8
MAIN0
  6
BYBLOCK
 62
0
100
AcDbLine
 10
57.46248768664560
 20
321.1229192484981
 30
0.0000000000000000
 11
39.60223366183925
 21
321.1229192484980
 31
0.0000000000000000
  0
MTEXT
  5
371
100
AcDbEntity
  8
MAIN0
  6
BYBLOCK
 62
0
100
AcDbMText
 10
39.55223370952297
 20
341.6229192484968
 30
0.0000000000000000
 40
3.099999904632568
 41
0.0000000000000000
 71
     5
 72
     1
  1
\A1;41
 11
6.123233995736766e-017
 21
1.000000000000000
 31
0.0000000000000000
  7
STANDARD
  0
ENDBLK
  5
372
100
AcDbEntity
  8
MAIN0
  6
CONTINUOUS
 62
3
100
AcDbBlockEnd
  0
BLOCK
  5
374
100
AcDbEntity
  8
MAIN0
  6
CONTINUOUS
 62
3
100
AcDbBlockBegin
  2
*D23
 70
    65
 10
0.0
 20
0.0
 30
0.0
  0
LINE
  5
375
100
AcDbEntity
  8
MAIN0
  6
BYBLOCK
 62
0
100
AcDbLine
 10
186.3139168501462
 20
155.0917565106938
 30
0.0000000000000000
 11
189.3860469020924
 21
146.6511485633448
 31
0.0000000000000000
  0
ARC
  5
376
100
AcDbEntity
  8
MAIN0
  6
BYBLOCK
 62
0
100
AcDbCircle
 10
154.4999922828701
 20
242.4997958835060
 30
0.0000000000000000
 40
100.0000000000000
100
AcDbArc
 50
271.1459155902641
 51
288.8540844097408
  0
INSERT
  5
377
100
AcDbEntity
  8
MAIN0
  6
BYBLOCK
 62
0
100
AcDbBlockReference
  2
_OPEN
 10
154.4999922828743
 20
142.4997958835060
 30
0.0000000000000000
 41
2.000000000000000
 42
2.000000000000000
 43
2.000000000000000
 50
180.0000000000025
  0
INSERT
  5
378
100
AcDbEntity
  8
MAIN0
  6
BYBLOCK
 62
0
100
AcDbBlockReference
  2
_OPEN
 10
188.7020066154409
 20
148.5305338049166
 30
0.0000000000000000
 41
2.000000000000000
 42
2.000000000000000
 43
2.000000000000000
 50
20.00000000000239
  0
MTEXT
  5
379
100
AcDbEntity
  8
MAIN0
  6
BYBLOCK
 62
0
100
AcDbMText
 10
167.6844969140935
 20
145.4411983922456
 30
0.0000000000000000
 40
3.099999904632568
 41
0.0000000000000000
 71
     5
 72
     1
  1
\A1;20\U+00B0
 11
0.9908994123941867
 21
0.1346044372108721
 31
0.0000000000000000
  7
STANDARD
  0
ENDBLK
  5
37A
100
AcDbEntity
  8
MAIN0
  6
CONTINUOUS
 62
3
100
AcDbBlockEnd
  0
BLOCK
  5
381
100
AcDbEntity
  8
MAIN0
  6
CONTINUOUS
 62
3
100
AcDbBlockBegin
  2
D24
 70
    64
 10
0.0
 20
0.0
 30
0.0
  0
LINE
  5
382
100
AcDbEntity
  8
MAIN0
  6
BYBLOCK
 62
0
100
AcDbLine
 10
5.083002258538727
 20
-34.21207748078463
 30
0.0000000000000000
 11
5.083002258538727
 21
-91.10000000000001
 31
0.0000000000000000
  0
LINE
  5
383
100
AcDbEntity
  8
MAIN0
  6
BYBLOCK
 62
0
100
AcDbLine
 10
5.683002282380585
 20
-89.10000000000001
 30
0.0000000000000000
 11
5.083002258538727
 21
-91.10000000000001
 31
0.0000000000000000
  0
LINE
  5
384
100
AcDbEntity
  8
MAIN0
  6
BYBLOCK
 62
0
100
AcDbLine
 10
5.083002258538727
 20
-91.10000000000001
 30
0.0000000000000000
 11
4.483002234696869
 21
-89.10000000000001
 31
0.0000000000000000
  0
LINE
  5
385
100
AcDbEntity
  8
MAIN0
  6
BYBLOCK
 62
0
100
AcDbLine
 10
14.28300224661780
 20
-91.10000000000001
 30
0.0000000000000000
 11
3.083002258538727
 21
-91.10000000000001
 31
0.0000000000000000
  0
MTEXT
  5
386
100
AcDbEntity
  8
MAIN0
  6
BYBLOCK
 62
0
100
AcDbMText
 10
3.033002306222443
 20
-42.26207748525498
 30
0.0000000000000000
 40
3.099999904632568
 41
0.0000000000000000
 71
     5
 72
     1
  1
\A1;\U+2205182.2
 11
6.123233995736766e-017
 21
1.000000000000000
 31
0.0000000000000000
  7
STANDARD
  0
ENDBLK
  5
387
100
AcDbEntity
  8
MAIN0
  6
CONTINUOUS
 62
3
100
AcDbBlockEnd
  0
BLOCK
  5
391
100
AcDbEntity
  8
MAIN0
  6
CONTINUOUS
 62
3
100
AcDbBlockBegin
  2
D25
 70
    64
 10
0.0
 20
0.0
 30
0.0
  0
LINE
  5
392
100
AcDbEntity
  8
MAIN0
  6
BYBLOCK
 62
0
100
AcDbLine
 10
8.697027773595409
 20
-29.10000016563888
 30
0.0000000000000000
 11
8.697027773595409
 21
-47.50000000000000
 31
0.0000000000000000
  0
LINE
  5
393
100
AcDbEntity
  8
MAIN0
  6
BYBLOCK
 62
0
100
AcDbLine
 10
9.297027797437266
 20
-45.50000000000000
 30
0.0000000000000000
 11
8.697027773595409
 21
-47.50000000000000
 31
0.0000000000000000
  0
LINE
  5
394
100
AcDbEntity
  8
MAIN0
  6
BYBLOCK
 62
0
100
AcDbLine
 10
8.697027773595409
 20
-47.50000000000000
 30
0.0000000000000000
 11
8.097027749753551
 21
-45.50000000000000
 31
0.0000000000000000
  0
LINE
  5
395
100
AcDbEntity
  8
MAIN0
  6
BYBLOCK
 62
0
100
AcDbLine
 10
-25.73614904272398
 20
-47.50000000000000
 30
0.0000000000000000
 11
10.69702777359541
 21
-47.50000000000000
 31
0.0000000000000000
  0
MTEXT
  5
396
100
AcDbEntity
  8
MAIN0
  6
BYBLOCK
 62
0
100
AcDbMText
 10
6.647027821279124
 20
-32.50000000000000
 30
0.0000000000000000
 40
3.099999904632568
 41
0.0000000000000000
 71
     5
 72
     1
  1
\A1;\U+220595
 11
6.123233995736766e-017
 21
1.000000000000000
 31
0.0000000000000000
  7
STANDARD
  0
ENDBLK
  5
397
100
AcDbEntity
  8
MAIN0
  6
CONTINUOUS
 62
3
100
AcDbBlockEnd
  0
BLOCK
  5
39A
100
AcDbEntity
  8
MAIN0
  6
CONTINUOUS
 62
3
100
AcDbBlockBegin
  2
D26
 70
    64
 10
0.0
 20
0.0
 30
0.0
  0
LINE
  5
39B
100
AcDbEntity
  8
MAIN0
  6
BYBLOCK
 62
0
100
AcDbLine
 10
38.69702777359538
 20
7.624998204962395
 30
0.0000000000000000
 11
38.69702777359538
 21
-74.99999999999999
 31
0.0000000000000000
  0
LINE
  5
39C
100
AcDbEntity
  8
MAIN0
  6
BYBLOCK
 62
0
100
AcDbLine
 10
39.29702779743724
 20
-72.99999999999999
 30
0.0000000000000000
 11
38.69702777359538
 21
-74.99999999999999
 31
0.0000000000000000
  0
LINE
  5
39D
100
AcDbEntity
  8
MAIN0
  6
BYBLOCK
 62
0
100
AcDbLine
 10
38.69702777359538
 20
-74.99999999999999
 30
0.0000000000000000
 11
38.09702774975352
 21
-72.99999999999999
 31
0.0000000000000000
  0
LINE
  5
39E
100
AcDbEntity
  8
MAIN0
  6
BYBLOCK
 62
0
100
AcDbLine
 10
-41.61984826834544
 20
-74.99999999999999
 30
0.0000000000000000
 11
40.69702777359538
 21
-74.99999999999999
 31
0.0000000000000000
  0
MTEXT
  5
39F
100
AcDbEntity
  8
MAIN0
  6
BYBLOCK
 62
0
100
AcDbMText
 10
36.64702782127910
 20
-8.940696716308594e-008
 30
0.0000000000000000
 40
3.099999904632568
 41
0.0000000000000000
 71
     5
 72
     1
  1
\A1;\U+2205150\H0.903226x;\U+00B10.2
 11
6.123233995736766e-017
 21
1.000000000000000
 31
0.0000000000000000
  7
STANDARD
  0
ENDBLK
  5
3A0
100
AcDbEntity
  8
MAIN0
  6
CONTINUOUS
 62
3
100
AcDbBlockEnd
  0
BLOCK
  5
3A5
100
AcDbEntity
  8
MAIN0
  6
CONTINUOUS
 62
3
100
AcDbBlockBegin
  2
*D27
 70
    65
 10
0.0
 20
0.0
 30
0.0
  0
LINE
  5
3A6
100
AcDbEntity
  8
MAIN0
  6
BYBLOCK
 62
0
100
AcDbLine
 10
51.60223366183925
 20
397.1229192484960
 30
0.0000000000000000
 11
87.60223366296282
 21
397.1229192484960
 31
0.0000000000000000
  0
INSERT
  5
3A7
100
AcDbEntity
  8
MAIN0
  6
BYBLOCK
 62
0
100
AcDbBlockReference
  2
_OPEN
 10
49.60223366183925
 20
397.1229192484960
 30
0.0000000000000000
 41
2.000000000000000
 42
2.000000000000000
 43
2.000000000000000
 50
180.0000000000000
  0
INSERT
  5
3A8
100
AcDbEntity
  8
MAIN0
  6
BYBLOCK
 62
0
100
AcDbBlockReference
  2
_OPEN
 10
89.60223366296282
 20
397.1229192484960
 30
0.0000000000000000
 41
2.000000000000000
 42
2.000000000000000
 43
2.000000000000000
 50
0.0000000000000000
  0
MTEXT
  5
3A9
100
AcDbEntity
  8
MAIN0
  6
BYBLOCK
 62
0
100
AcDbMText
 10
69.60223366240103
 20
399.1729192008123
 30
0.0000000000000000
 40
3.099999904632568
 41
0.0000000000000000
 71
     5
 72
     1
  1
\A1;40
 11
1.000000000000000
 21
0.0000000000000000
 31
0.0000000000000000
  7
STANDARD
  0
ENDBLK
  5
3AA
100
AcDbEntity
  8
MAIN0
  6
CONTINUOUS
 62
3
100
AcDbBlockEnd
  0
BLOCK
  5
3BB
100
AcDbEntity
  8
MAIN0
  6
BYBLOCK
 62
3
100
AcDbBlockBegin
  2
M3
 70
    64
 10
0.0
 20
0.0
 30
0.0
  0
LINE
  5
3BC
100
AcDbEntity
  8
MAIN0
  6
BYBLOCK
 62
0
100
AcDbLine
 10
271.8477401784396
 20
39.43774799731247
 30
0.0000000000000000
 11
394.1406715939752
 21
39.43774799731247
 31
0.0000000000000000
  0
MTEXT
  5
3BD
100
AcDbEntity
  8
MAIN0
  6
BYBLOCK
 62
0
100
AcDbMText
 10
272.8477401784396
 20
43.03774790194504
 30
0.0000000000000000
 40
3.099999904632568
 41
0.0000000000000000
 71
     1
 72
     1
  1
{\H0.88x;1.}
 11
1.000000000000000
 21
0.0000000000000000
 31
0.0000000000000000
  7
STANDARD
  0
MTEXT
  5
3BE
100
AcDbEntity
  8
MAIN0
  6
BYBLOCK
 62
0
100
AcDbMText
 10
273.3477401784396
 20
53.43774799731276
 30
0.0000000000000000
 40
6.000000000000000
 41
0.0000000000000000
 71
     1
 72
     1
  1
{\H0.80x;要注意}
 11
1.000000000000000
 21
0.0000000000000000
 31
0.0000000000000000
  7
KNJYOKO
  0
LINE
  5
3BF
100
AcDbEntity
  8
MAIN0
  6
BYBLOCK
 62
0
100
AcDbLine
 10
291.8477401784396
 20
54.93774799731276
 30
0.0000000000000000
 11
291.8477401784396
 21
45.93774799731276
 31
0.0000000000000000
  0
LINE
  5
3C0
100
AcDbEntity
  8
MAIN0
  6
BYBLOCK
 62
0
100
AcDbLine
 10
271.8477401784396
 20
45.93774799731276
 30
0.0000000000000000
 11
291.8477401784396
 21
45.93774799731276
 31
0.0000000000000000
  0
LINE
  5
3C1
100
AcDbEntity
  8
MAIN0
  6
BYBLOCK
 62
0
100
AcDbLine
 10
271.8477401784396
 20
54.93774799731276
 30
0.0000000000000000
 11
271.8477401784396
 21
45.93774799731276
 31
0.0000000000000000
  0
LINE
  5
3C2
100
AcDbEntity
  8
MAIN0
  6
BYBLOCK
 62
0
100
AcDbLine
 10
271.8477401784396
 20
54.93774799731276
 30
0.0000000000000000
 11
291.8477401784396
 21
54.93774799731276
 31
0.0000000000000000
  0
ENDBLK
  5
3C3
100
AcDbEntity
  8
MAIN0
  6
BYBLOCK
 62
3
100
AcDbBlockEnd
  0
BLOCK
  5
3C5
100
AcDbEntity
  8
MAIN0
  6
BYBLOCK
 62
3
100
AcDbBlockBegin
  2
M4
 70
    64
 10
0.0
 20
0.0
 30
0.0
  0
LINE
  5
3C6
100
AcDbEntity
  8
MAIN0
  6
BYBLOCK
 62
0
100
AcDbLine
 10
271.8477401784396
 20
17.43774799731219
 30
0.0000000000000000
 11
410.8680064890486
 21
17.43774799731219
 31
0.0000000000000000
  0
MTEXT
  5
3C7
100
AcDbEntity
  8
MAIN0
  6
BYBLOCK
 62
0
100
AcDbMText
 10
272.8477401784396
 20
21.03774790194476
 30
0.0000000000000000
 40
3.099999904632568
 41
0.0000000000000000
 71
     1
 72
     1
  1
{\H0.88x;1.}
 11
1.000000000000000
 21
0.0000000000000000
 31
0.0000000000000000
  7
STANDARD
  0
MTEXT
  5
3C8
100
AcDbEntity
  8
MAIN0
  6
BYBLOCK
 62
0
100
AcDbMText
 10
273.3477401784396
 20
30.43774799731247
 30
0.0000000000000000
 40
5.000000000000000
 41
0.0000000000000000
 71
     1
 72
     1
  1
{\H0.91x;NOTE}
 11
1.000000000000000
 21
0.0000000000000000
 31
0.0000000000000000
  7
STANDARD
  0
LINE
  5
3C9
100
AcDbEntity
  8
MAIN0
  6
BYBLOCK
 62
0
100
AcDbLine
 10
291.8477401784396
 20
32.93774799731247
 30
0.0000000000000000
 11
291.8477401784396
 21
23.93774799731247
 31
0.0000000000000000
  0
LINE
  5
3CA
100
AcDbEntity
  8
MAIN0
  6
BYBLOCK
 62
0
100
AcDbLine
 10
271.8477401784396
 20
23.93774799731247
 30
0.0000000000000000
 11
291.8477401784396
 21
23.93774799731247
 31
0.0000000000000000
  0
LINE
  5
3CB
100
AcDbEntity
  8
MAIN0
  6
BYBLOCK
 62
0
100
AcDbLine
 10
271.8477401784396
 20
32.93774799731247
 30
0.0000000000000000
 11
271.8477401784396
 21
23.93774799731247
 31
0.0000000000000000
  0
LINE
  5
3CC
100
AcDbEntity
  8
MAIN0
  6
BYBLOCK
 62
0
100
AcDbLine
 10
271.8477401784396
 20
32.93774799731247
 30
0.0000000000000000
 11
291.8477401784396
 21
32.93774799731247
 31
0.0000000000000000
  0
ENDBLK
  5
3CD
100
AcDbEntity
  8
MAIN0
  6
BYBLOCK
 62
3
100
AcDbBlockEnd
  0
BLOCK
  5
3DA
100
AcDbEntity
  8
MAIN0
  6
BYBLOCK
 62
3
100
AcDbBlockBegin
  2
M5
 70
    64
 10
0.0
 20
0.0
 30
0.0
  0
LINE
  5
3DB
100
AcDbEntity
  8
MAIN0
  6
BYBLOCK
 62
0
100
AcDbLine
 10
185.0076145113034
 20
115.5003382080574
 30
0.0000000000000000
 11
262.0076145113034
 21
115.5003382080574
 31
0.0000000000000000
  0
LINE
  5
3DC
100
AcDbEntity
  8
MAIN0
  6
BYBLOCK
 62
0
100
AcDbLine
 10
185.0076145113034
 20
108.5003382080573
 30
0.0000000000000000
 11
262.0076145113034
 21
108.5003382080573
 31
0.0000000000000000
  0
LINE
  5
3DD
100
AcDbEntity
  8
MAIN0
  6
BYBLOCK
 62
0
100
AcDbLine
 10
185.0076145113034
 20
23.00033820805734
 30
0.0000000000000000
 11
185.0076145113034
 21
115.5003382080574
 31
0.0000000000000000
  0
LINE
  5
3DE
100
AcDbEntity
  8
MAIN0
  6
BYBLOCK
 62
0
100
AcDbLine
 10
185.0076145113035
 20
101.5003382080573
 30
0.0000000000000000
 11
262.0076145113034
 21
101.5003382080573
 31
0.0000000000000000
  0
LINE
  5
3DF
100
AcDbEntity
  8
MAIN0
  6
BYBLOCK
 62
0
100
AcDbLine
 10
185.0076145113035
 20
94.50033820805734
 30
0.0000000000000000
 11
262.0076145113034
 21
94.50033820805734
 31
0.0000000000000000
  0
LINE
  5
3E0
100
AcDbEntity
  8
MAIN0
  6
BYBLOCK
 62
0
100
AcDbLine
 10
227.9908028795767
 20
84.50033820805734
 30
0.0000000000000000
 11
262.0076145113034
 21
84.50033820805734
 31
0.0000000000000000
  0
LINE
  5
3E1
100
AcDbEntity
  8
MAIN0
  6
BYBLOCK
 62
0
100
AcDbLine
 10
185.0076145113034
 20
74.50033820805734
 30
0.0000000000000000
 11
262.0076145113034
 21
74.50033820805734
 31
0.0000000000000000
  0
LINE
  5
3E2
100
AcDbEntity
  8
MAIN0
  6
BYBLOCK
 62
0
100
AcDbLine
 10
185.0076145113034
 20
64.50033820805734
 30
0.0000000000000000
 11
262.0076145113034
 21
64.50033820805734
 31
0.0000000000000000
  0
LINE
  5
3E3
100
AcDbEntity
  8
MAIN0
  6
BYBLOCK
 62
0
100
AcDbLine
 10
185.0076145113034
 20
57.50033820805734
 30
0.0000000000000000
 11
262.0076145113034
 21
57.50033820805734
 31
0.0000000000000000
  0
LINE
  5
3E4
100
AcDbEntity
  8
MAIN0
  6
BYBLOCK
 62
0
100
AcDbLine
 10
185.0076145113034
 20
50.50033820805734
 30
0.0000000000000000
 11
262.0076145113034
 21
50.50033820805734
 31
0.0000000000000000
  0
LINE
  5
3E5
100
AcDbEntity
  8
MAIN0
  6
BYBLOCK
 62
0
100
AcDbLine
 10
185.0076145113034
 20
40.50033820805734
 30
0.0000000000000000
 11
262.0076145113034
 21
40.50033820805734
 31
0.0000000000000000
  0
LINE
  5
3E6
100
AcDbEntity
  8
MAIN0
  6
BYBLOCK
 62
0
100
AcDbLine
 10
185.0076145113034
 20
23.00033820805740
 30
0.0000000000000000
 11
262.0076145113034
 21
23.00033820805717
 31
0.0000000000000000
  0
LINE
  5
3E7
100
AcDbEntity
  8
MAIN0
  6
BYBLOCK
 62
0
100
AcDbLine
 10
232.0076145113033
 20
23.00033820805723
 30
0.0000000000000000
 11
232.0076145113033
 21
108.5003382080573
 31
0.0000000000000000
  0
LINE
  5
3E8
100
AcDbEntity
  8
MAIN0
  6
BYBLOCK
 62
0
100
AcDbLine
 10
262.0076145113034
 20
23.00033820805712
 30
0.0000000000000000
 11
262.0076145113034
 21
115.5003382080574
 31
0.0000000000000000
  0
LINE
  5
3E9
100
AcDbEntity
  8
MAIN0
  6
BYBLOCK
 62
0
100
AcDbLine
 10
185.0076145113034
 20
33.50033820805734
 30
0.0000000000000000
 11
262.0076145113034
 21
33.50033820805734
 31
0.0000000000000000
  0
MTEXT
  5
3EA
100
AcDbEntity
  8
MAIN0
  6
BYBLOCK
 62
0
100
AcDbMText
 10
187.0076145113034
 20
62.50033820805749
 30
0.0000000000000000
 40
3.000000000000000
 41
0.0000000000000000
 71
     1
 72
     1
  1
{\H0.93x;MAX. SPEED}
 11
1.000000000000000
 21
0.0000000000000000
 31
0.0000000000000000
  7
STANDARD
  0
MTEXT
  5
3EB
100
AcDbEntity
  8
MAIN0
  6
BYBLOCK
 62
0
100
AcDbMText
 10
187.0076145113034
 20
55.50033820805749
 30
0.0000000000000000
 40
3.000000000000000
 41
0.0000000000000000
 71
     1
 72
     1
  1
{\H0.91x;MASS}
 11
1.000000000000000
 21
0.0000000000000000
 31
0.0000000000000000
  7
STANDARD
  0
MTEXT
  5
3EC
100
AcDbEntity
  8
MAIN0
  6
BYBLOCK
 62
0
100
AcDbMText
 10
187.0076145113034
 20
47.00033820805743
 30
0.0000000000000000
 40
3.000000000000000
 41
0.0000000000000000
 71
     1
 72
     1
  1
{\H0.63x;MOMENT OF INERTIA}
 11
1.000000000000000
 21
0.0000000000000000
 31
0.0000000000000000
  7
STANDARD
  0
MTEXT
  5
3ED
100
AcDbEntity
  8
MAIN0
  6
BYBLOCK
 62
0
100
AcDbMText
 10
247.0076145113033
 20
105.3003374451178
 30
0.0000000000000000
 40
2.799999237060547
 41
0.0000000000000000
 71
     1
 72
     1
  1
{\H0.62x;　　　　mm}
 11
1.000000000000000
 21
0.0000000000000000
 31
0.0000000000000000
  7
KNJYOKO
  0
MTEXT
  5
3EE
100
AcDbEntity
  8
MAIN0
  6
BYBLOCK
 62
0
100
AcDbMText
 10
247.0076145113033
 20
54.30033744511781
 30
0.0000000000000000
 40
2.799999237060547
 41
0.0000000000000000
 71
     1
 72
     1
  1
{\H0.62x;　　　　kg}
 11
1.000000000000000
 21
0.0000000000000000
 31
0.0000000000000000
  7
KNJYOKO
  0
MTEXT
  5
3EF
100
AcDbEntity
  8
MAIN0
  6
BYBLOCK
 62
0
100
AcDbMText
 10
258.6415295527509
 20
47.58404008541032
 30
0.0000000000000000
 40
2.000000000000000
 41
0.0000000000000000
 71
     1
 72
     1
  1
{\H0.81x;2}
 11
1.000000000000000
 21
0.0000000000000000
 31
0.0000000000000000
  7
STANDARD
  0
MTEXT
  5
3F0
100
AcDbEntity
  8
MAIN0
  6
BYBLOCK
 62
0
100
AcDbMText
 10
190.2576145113034
 20
114.6503383034248
 30
0.0000000000000000
 40
5.300000190734863
 41
0.0000000000000000
 71
     1
 72
     1
  1
{\H0.94x;SPECIFICATIONS}
 11
1.000000000000000
 21
0.0000000000000000
 31
0.0000000000000000
  7
STANDARD
  0
MTEXT
  5
3F1
100
AcDbEntity
  8
MAIN0
  6
BYBLOCK
 62
0
100
AcDbMText
 10
187.0076145113034
 20
106.5003382080574
 30
0.0000000000000000
 40
3.000000000000000
 41
0.0000000000000000
 71
     1
 72
     1
  1
{\H0.93x;PISTON DIA}
 11
1.000000000000000
 21
0.0000000000000000
 31
0.0000000000000000
  7
STANDARD
  0
MTEXT
  5
3F2
100
AcDbEntity
  8
MAIN0
  6
BYBLOCK
 62
0
100
AcDbMText
 10
187.0076145113034
 20
99.50033820805760
 30
0.0000000000000000
 40
3.000000000000000
 41
0.0000000000000000
 71
     1
 72
     1
  1
{\H0.93x;PISTON STROKE}
 11
1.000000000000000
 21
0.0000000000000000
 31
0.0000000000000000
  7
STANDARD
  0
MTEXT
  5
3F3
100
AcDbEntity
  8
MAIN0
  6
BYBLOCK
 62
0
100
AcDbMText
 10
187.0076145113034
 20
90.50033820805760
 30
0.0000000000000000
 40
3.000000000000000
 41
0.0000000000000000
 71
     1
 72
     1
  1
{\H0.93x;PISTON THRUST}
 11
1.000000000000000
 21
0.0000000000000000
 31
0.0000000000000000
  7
STANDARD
  0
MTEXT
  5
3F4
100
AcDbEntity
  8
MAIN0
  6
BYBLOCK
 62
0
100
AcDbMText
 10
185.0076145113034
 20
84.50033820805749
 30
0.0000000000000000
 40
3.000000000000000
 41
0.0000000000000000
 71
     1
 72
     1
  1
{\H0.94x;(AT  　 　　　　　)}
 11
1.000000000000000
 21
0.0000000000000000
 31
0.0000000000000000
  7
KNJYOKO
  0
MTEXT
  5
3F5
100
AcDbEntity
  8
MAIN0
  6
BYBLOCK
 62
0
100
AcDbMText
 10
187.0076145113034
 20
31.50033820805743
 30
0.0000000000000000
 40
3.000000000000000
 41
0.0000000000000000
 71
     1
 72
     1
  1
{\H0.93x;OIL LEAKAGE}
 11
1.000000000000000
 21
0.0000000000000000
 31
0.0000000000000000
  7
STANDARD
  0
MTEXT
  5
3F6
100
AcDbEntity
  8
MAIN0
  6
BYBLOCK
 62
0
100
AcDbMText
 10
224.2907252531190
 20
90.73662838876766
 30
0.0000000000000000
 40
3.000000000000000
 41
0.0000000000000000
 71
     1
 72
     1
  1
{\H0.63x;PUSH}
 11
1.000000000000000
 21
0.0000000000000000
 31
0.0000000000000000
  7
STANDARD
  0
MTEXT
  5
3F7
100
AcDbEntity
  8
MAIN0
  6
BYBLOCK
 62
0
100
AcDbMText
 10
224.2907252531190
 20
80.73662838876754
 30
0.0000000000000000
 40
3.000000000000000
 41
0.0000000000000000
 71
     1
 72
     1
  1
{\H0.63x;PULL}
 11
1.000000000000000
 21
0.0000000000000000
 31
0.0000000000000000
  7
STANDARD
  0
MTEXT
  5
3F8
100
AcDbEntity
  8
MAIN0
  6
BYBLOCK
 62
0
100
AcDbMText
 10
187.0076145113034
 20
27.00033820805743
 30
0.0000000000000000
 40
2.000000000000000
 41
0.0000000000000000
 71
     1
 72
     1
  1
{\H0.94x;ISO VG 32,50℃,3.0MPa}
 11
1.000000000000000
 21
0.0000000000000000
 31
0.0000000000000000
  7
KNJYOKO
  0
MTEXT
  5
3F9
100
AcDbEntity
  8
MAIN0
  6
BYBLOCK
 62
0
100
AcDbMText
 10
247.0076145113033
 20
26.80033744511781
 30
0.0000000000000000
 40
2.799999237060547
 41
0.0000000000000000
 71
     1
 72
     1
  1
{\H0.67x;　　/min}
 11
1.000000000000000
 21
0.0000000000000000
 31
0.0000000000000000
  7
KNJYOKO
  0
MTEXT
  5
3FA
100
AcDbEntity
  8
MAIN0
  6
BYBLOCK
 62
0
100
AcDbMText
 10
187.0076145113034
 20
71.00033820805749
 30
0.0000000000000000
 40
3.000000000000000
 41
0.0000000000000000
 71
     1
 72
     1
  1
{\H0.63x;MAX. OPERATING PRESSURE}
 11
1.000000000000000
 21
0.0000000000000000
 31
0.0000000000000000
  7
STANDARD
  0
MTEXT
  5
3FB
100
AcDbEntity
  8
MAIN0
  6
BYBLOCK
 62
0
100
AcDbMText
 10
251.1823643768655
 20
46.15486161450417
 30
0.0000000000000000
 40
2.799999237060547
 41
0.0000000000000000
 71
     1
 72
     1
  1
{\H0.67x;kg・m}
 11
1.000000000000000
 21
0.0000000000000000
 31
0.0000000000000000
  7
KNJYOKO
  0
MTEXT
  5
3FC
100
AcDbEntity
  8
MAIN0
  6
BYBLOCK
 62
0
100
AcDbMText
 10
247.0076145113033
 20
71.80033744511781
 30
0.0000000000000000
 40
2.799999237060547
 41
0.0000000000000000
 71
     1
 72
     1
  1
{\H0.64x;　　　MPa}
 11
1.000000000000000
 21
0.0000000000000000
 31
0.0000000000000000
  7
KNJYOKO
  0
MTEXT
  5
3FD
100
AcDbEntity
  8
MAIN0
  6
BYBLOCK
 62
0
100
AcDbMText
 10
207.9253074666719
 20
84.30033744511805
 30
0.0000000000000000
 40
2.799999237060547
 41
0.0000000000000000
 71
     1
 72
     1
  1
{\H0.64x;　　　MPa}
 11
1.000000000000000
 21
0.0000000000000000
 31
0.0000000000000000
  7
KNJYOKO
  0
MTEXT
  5
3FE
100
AcDbEntity
  8
MAIN0
  6
BYBLOCK
 62
0
100
AcDbMText
 10
247.0076145113033
 20
91.80033744511792
 30
0.0000000000000000
 40
2.799999237060547
 41
0.0000000000000000
 71
     1
 72
     1
  1
{\H0.62x;　　　　kN}
 11
1.000000000000000
 21
0.0000000000000000
 31
0.0000000000000000
  7
KNJYOKO
  0
MTEXT
  5
3FF
100
AcDbEntity
  8
MAIN0
  6
BYBLOCK
 62
0
100
AcDbMText
 10
247.0076145113033
 20
61.30033744511781
 30
0.0000000000000000
 40
2.799999237060547
 41
0.0000000000000000
 71
     1
 72
     1
  1
{\H0.65x;　　min}
 11
1.000000000000000
 21
0.0000000000000000
 31
0.0000000000000000
  7
KNJYOKO
  0
MTEXT
  5
400
100
AcDbEntity
  8
MAIN0
  6
BYBLOCK
 62
0
100
AcDbMText
 10
257.1622827596232
 20
61.96988199801257
 30
0.0000000000000000
 40
2.000000000000000
 41
0.0000000000000000
 71
     1
 72
     1
  1
{\H0.88x;-1}
 11
1.000000000000000
 21
0.0000000000000000
 31
0.0000000000000000
  7
STANDARD
  0
MTEXT
  5
401
100
AcDbEntity
  8
MAIN0
  6
BYBLOCK
 62
0
100
AcDbMText
 10
247.0076145113033
 20
98.30033744511792
 30
0.0000000000000000
 40
2.799999237060547
 41
0.0000000000000000
 71
     1
 72
     1
  1
{\H0.62x;　　　　mm}
 11
1.000000000000000
 21
0.0000000000000000
 31
0.0000000000000000
  7
KNJYOKO
  0
MTEXT
  5
402
100
AcDbEntity
  8
MAIN0
  6
BYBLOCK
 62
0
100
AcDbMText
 10
247.0076145113033
 20
81.80033744511781
 30
0.0000000000000000
 40
2.799999237060547
 41
0.0000000000000000
 71
     1
 72
     1
  1
{\H0.62x;　　　　kN}
 11
1.000000000000000
 21
0.0000000000000000
 31
0.0000000000000000
  7
KNJYOKO
  0
ENDBLK
  5
403
100
AcDbEntity
  8
MAIN0
  6
BYBLOCK
 62
3
100
AcDbBlockEnd
  0
BLOCK
  5
47A
100
AcDbEntity
  8
MAIN0
  6
BYBLOCK
 62
3
100
AcDbBlockBegin
  2
*X0
 70
     1
 10
0.0
 20
0.0
 30
0.0
  0
LINE
  5
47B
100
AcDbEntity
  8
MAIN0
  6
BYBLOCK
 62
0
100
AcDbLine
 10
286.9001418459330
 20
387.5526402789436
 30
0.0000000000000000
 11
288.4859745551731
 21
388.4682212205129
 31
0.0000000000000000
  0
LINE
  5
47C
100
AcDbEntity
  8
MAIN0
  6
BYBLOCK
 62
0
100
AcDbLine
 10
284.6873468139084
 20
388.5844835483012
 30
0.0000000000000000
 11
286.2731795231521
 21
389.5000644898728
 31
0.0000000000000000
  0
LINE
  5
47D
100
AcDbEntity
  8
MAIN0
  6
BYBLOCK
 62
0
100
AcDbLine
 10
282.4745517818875
 20
389.6163268176615
 30
0.0000000000000000
 11
284.0603844911294
 21
390.5319077592321
 31
0.0000000000000000
  0
LINE
  5
47E
100
AcDbEntity
  8
MAIN0
  6
BYBLOCK
 62
0
100
AcDbLine
 10
280.2617567498656
 20
390.6481700870203
 30
0.0000000000000000
 11
281.8475894591112
 21
391.5637510285932
 31
0.0000000000000000
  0
LINE
  5
47F
100
AcDbEntity
  8
MAIN0
  6
BYBLOCK
 62
0
100
AcDbLine
 10
278.0489617178447
 20
391.6800133563801
 30
0.0000000000000000
 11
279.6347944270848
 21
392.5955942979498
 31
0.0000000000000000
  0
LINE
  5
480
100
AcDbEntity
  8
MAIN0
  6
BYBLOCK
 62
0
100
AcDbLine
 10
275.8361666858201
 20
392.7118566257386
 30
0.0000000000000000
 11
277.4219993950638
 21
393.6274375673102
 31
0.0000000000000000
  0
LINE
  5
481
100
AcDbEntity
  8
MAIN0
  6
BYBLOCK
 62
0
100
AcDbLine
 10
273.6233716538019
 20
393.7436998950992
 30
0.0000000000000000
 11
275.2092043630429
 21
394.6592808366703
 31
0.0000000000000000
  0
LINE
  5
482
100
AcDbEntity
  8
MAIN0
  6
BYBLOCK
 62
0
100
AcDbLine
 10
271.4105766217764
 20
394.7755431644573
 30
0.0000000000000000
 11
272.9964093310201
 21
395.6911241060288
 31
0.0000000000000000
  0
LINE
  5
483
100
AcDbEntity
  8
MAIN0
  6
BYBLOCK
 62
0
100
AcDbLine
 10
269.1977815897536
 20
395.8073864338166
 30
0.0000000000000000
 11
270.7836142989964
 21
396.7229673753868
 31
0.0000000000000000
  0
LINE
  5
484
100
AcDbEntity
  8
MAIN0
  6
BYBLOCK
 62
0
100
AcDbLine
 10
266.9849865577317
 20
396.8392297031755
 30
0.0000000000000000
 11
268.5708192669773
 21
397.7548106447479
 31
0.0000000000000000
  0
LINE
  5
485
100
AcDbEntity
  8
MAIN0
  6
BYBLOCK
 62
0
100
AcDbLine
 10
264.7721915257126
 20
397.8710729725361
 30
0.0000000000000000
 11
266.3580242349545
 21
398.7866539141072
 31
0.0000000000000000
  0
LINE
  5
486
100
AcDbEntity
  8
MAIN0
  6
BYBLOCK
 62
0
100
AcDbLine
 10
289.1129368779531
 20
386.5207970095834
 30
0.0000000000000000
 11
290.6987695871977
 21
387.4363779511554
 31
0.0000000000000000
  0
LINE
  5
487
100
AcDbEntity
  8
MAIN0
  6
BYBLOCK
 62
0
100
AcDbLine
 10
291.3257319099758
 20
385.4889537402245
 30
0.0000000000000000
 11
292.9115646192187
 21
386.4045346817951
 31
0.0000000000000000
  0
LINE
  5
488
100
AcDbEntity
  8
MAIN0
  6
BYBLOCK
 62
0
100
AcDbLine
 10
293.5385269419986
 20
384.4571104708652
 30
0.0000000000000000
 11
295.1243596512414
 21
385.3726914124358
 31
0.0000000000000000
  0
LINE
  5
489
100
AcDbEntity
  8
MAIN0
  6
BYBLOCK
 62
0
100
AcDbLine
 10
295.7513219740205
 20
383.4252672015054
 30
0.0000000000000000
 11
297.3371546832615
 21
384.3408481430760
 31
0.0000000000000000
  0
LINE
  5
48A
100
AcDbEntity
  8
MAIN0
  6
BYBLOCK
 62
0
100
AcDbLine
 10
297.9641170060423
 20
382.3934239321465
 30
0.0000000000000000
 11
299.5499497152842
 21
383.3090048737171
 31
0.0000000000000000
  0
LINE
  5
48B
100
AcDbEntity
  8
MAIN0
  6
BYBLOCK
 62
0
100
AcDbLine
 10
300.1769120380651
 20
381.3615806627871
 30
0.0000000000000000
 11
301.7627447473070
 21
382.2771616043577
 31
0.0000000000000000
  0
LINE
  5
48C
100
AcDbEntity
  8
MAIN0
  6
BYBLOCK
 62
0
100
AcDbLine
 10
302.3897070700851
 20
380.3297373934274
 30
0.0000000000000000
 11
303.9755397793298
 21
381.2453183349994
 31
0.0000000000000000
  0
LINE
  5
48D
100
AcDbEntity
  8
MAIN0
  6
BYBLOCK
 62
0
100
AcDbLine
 10
304.6025021021097
 20
379.2978941240689
 30
0.0000000000000000
 11
306.1883348113526
 21
380.2134750656400
 31
0.0000000000000000
  0
LINE
  5
48E
100
AcDbEntity
  8
MAIN0
  6
BYBLOCK
 62
0
100
AcDbLine
 10
306.8152971341298
 20
378.2660508547091
 30
0.0000000000000000
 11
308.4011298433744
 21
379.1816317962811
 31
0.0000000000000000
  0
LINE
  5
48F
100
AcDbEntity
  8
MAIN0
  6
BYBLOCK
 62
0
100
AcDbLine
 10
309.0280921661552
 20
377.2342075853517
 30
0.0000000000000000
 11
310.6139248753954
 21
378.1497885269214
 31
0.0000000000000000
  0
ENDBLK
  5
490
100
AcDbEntity
  8
MAIN0
  6
BYBLOCK
 62
3
100
AcDbBlockEnd
  0
BLOCK
  5
492
100
AcDbEntity
  8
MAIN0
  6
BYBLOCK
 62
3
100
AcDbBlockBegin
  2
*X1
 70
     1
 10
0.0
 20
0.0
 30
0.0
  0
LINE
  5
493
100
AcDbEntity
  8
MAIN0
  6
BYBLOCK
 62
0
100
AcDbLine
 10
271.8971935541367
 20
355.3787138391411
 30
0.0000000000000000
 11
273.4830262633786
 21
356.2942947807118
 31
0.0000000000000000
  0
LINE
  5
494
100
AcDbEntity
  8
MAIN0
  6
BYBLOCK
 62
0
100
AcDbLine
 10
269.6843985221139
 20
356.4105571085005
 30
0.0000000000000000
 11
271.2702312313558
 21
357.3261380500707
 31
0.0000000000000000
  0
LINE
  5
495
100
AcDbEntity
  8
MAIN0
  6
BYBLOCK
 62
0
100
AcDbLine
 10
267.4716034900930
 20
357.4424003778598
 30
0.0000000000000000
 11
269.0574361993358
 21
358.3579813194309
 31
0.0000000000000000
  0
LINE
  5
496
100
AcDbEntity
  8
MAIN0
  6
BYBLOCK
 62
0
100
AcDbLine
 10
265.2588084580711
 20
358.4742436472192
 30
0.0000000000000000
 11
266.8446411673121
 21
359.3898245887897
 31
0.0000000000000000
  0
LINE
  5
497
100
AcDbEntity
  8
MAIN0
  6
BYBLOCK
 62
0
100
AcDbLine
 10
263.0460134260474
 20
359.5060869165781
 30
0.0000000000000000
 11
264.6318461352902
 21
360.4216678581487
 31
0.0000000000000000
  0
LINE
  5
498
100
AcDbEntity
  8
MAIN0
  6
BYBLOCK
 62
0
100
AcDbLine
 10
260.8332183940256
 20
360.5379301859369
 30
0.0000000000000000
 11
262.4190511032675
 21
361.4535111275080
 31
0.0000000000000000
  0
LINE
  5
499
100
AcDbEntity
  8
MAIN0
  6
BYBLOCK
 62
0
100
AcDbLine
 10
258.6204233620064
 20
361.5697734552986
 30
0.0000000000000000
 11
260.2062560712465
 21
362.4853543968674
 31
0.0000000000000000
  0
LINE
  5
49A
100
AcDbEntity
  8
MAIN0
  6
BYBLOCK
 62
0
100
AcDbLine
 10
256.4076283299818
 20
362.6016167246561
 30
0.0000000000000000
 11
257.9934610392238
 21
363.5171976662267
 31
0.0000000000000000
  0
LINE
  5
49B
100
AcDbEntity
  8
MAIN0
  6
BYBLOCK
 62
0
100
AcDbLine
 10
254.1948332979590
 20
363.6334599940151
 30
0.0000000000000000
 11
255.7806660072019
 21
364.5490409355862
 31
0.0000000000000000
  0
LINE
  5
49C
100
AcDbEntity
  8
MAIN0
  6
BYBLOCK
 62
0
100
AcDbLine
 10
251.9820382659372
 20
364.6653032633739
 30
0.0000000000000000
 11
253.5678709751791
 21
365.5808842049445
 31
0.0000000000000000
  0
LINE
  5
49D
100
AcDbEntity
  8
MAIN0
  6
BYBLOCK
 62
0
100
AcDbLine
 10
249.7692432339181
 20
365.6971465327355
 30
0.0000000000000000
 11
251.3550759431582
 21
366.6127274743052
 31
0.0000000000000000
  0
LINE
  5
49E
100
AcDbEntity
  8
MAIN0
  6
BYBLOCK
 62
0
100
AcDbLine
 10
274.1099885861585
 20
354.3468705697823
 30
0.0000000000000000
 11
275.6958212954014
 21
355.2624515113529
 31
0.0000000000000000
  0
LINE
  5
49F
100
AcDbEntity
  8
MAIN0
  6
BYBLOCK
 62
0
100
AcDbLine
 10
276.3227836181822
 20
353.3150273004234
 30
0.0000000000000000
 11
277.9086163274232
 21
354.2306082419940
 31
0.0000000000000000
  0
LINE
  5
4A0
100
AcDbEntity
  8
MAIN0
  6
BYBLOCK
 62
0
100
AcDbLine
 10
278.5355786502004
 20
352.2831840310622
 30
0.0000000000000000
 11
280.1214113594442
 21
353.1987649726337
 31
0.0000000000000000
  0
LINE
  5
4A1
100
AcDbEntity
  8
MAIN0
  6
BYBLOCK
 62
0
100
AcDbLine
 10
280.7483736822251
 20
351.2513407617038
 30
0.0000000000000000
 11
282.3342063914678
 21
352.1669217032749
 31
0.0000000000000000
  0
LINE
  5
4A2
100
AcDbEntity
  8
MAIN0
  6
BYBLOCK
 62
0
100
AcDbLine
 10
282.9611687142478
 20
350.2194974923453
 30
0.0000000000000000
 11
284.5470014234897
 21
351.1350784339160
 31
0.0000000000000000
  0
LINE
  5
4A3
100
AcDbEntity
  8
MAIN0
  6
BYBLOCK
 62
0
100
AcDbLine
 10
285.1739637462705
 20
349.1876542229865
 30
0.0000000000000000
 11
286.7597964555125
 21
350.1032351645566
 31
0.0000000000000000
  0
LINE
  5
4A4
100
AcDbEntity
  8
MAIN0
  6
BYBLOCK
 62
0
100
AcDbLine
 10
287.3867587782906
 20
348.1558109536262
 30
0.0000000000000000
 11
288.9725914875334
 21
349.0713918951968
 31
0.0000000000000000
  0
LINE
  5
4A5
100
AcDbEntity
  8
MAIN0
  6
BYBLOCK
 62
0
100
AcDbLine
 10
289.5995538103115
 20
347.1239676842664
 30
0.0000000000000000
 11
291.1853865195553
 21
348.0395486258375
 31
0.0000000000000000
  0
LINE
  5
4A6
100
AcDbEntity
  8
MAIN0
  6
BYBLOCK
 62
0
100
AcDbLine
 10
291.8123488423361
 20
346.0921244149080
 30
0.0000000000000000
 11
293.3981815515799
 21
347.0077053564800
 31
0.0000000000000000
  0
LINE
  5
4A7
100
AcDbEntity
  8
MAIN0
  6
BYBLOCK
 62
0
100
AcDbLine
 10
294.0251438743607
 20
345.0602811455505
 30
0.0000000000000000
 11
295.6109765836026
 21
345.9758620871206
 31
0.0000000000000000
  0
ENDBLK
  5
4A8
100
AcDbEntity
  8
MAIN0
  6
BYBLOCK
 62
3
100
AcDbBlockEnd
  0
BLOCK
  5
4AA
100
AcDbEntity
  8
MAIN0
  6
BYBLOCK
 62
3
100
AcDbBlockBegin
  2
*X2
 70
     1
 10
0.0
 20
0.0
 30
0.0
  0
LINE
  5
4AB
100
AcDbEntity
  8
MAIN0
  6
BYBLOCK
 62
0
100
AcDbLine
 10
70.40058233576946
 20
355.1229192484964
 30
0.0000000000000000
 11
71.90058233576940
 21
356.6229192484962
 31
0.0000000000000000
  0
LINE
  5
4AC
100
AcDbEntity
  8
MAIN0
  6
BYBLOCK
 62
0
100
AcDbLine
 10
67.57215521102359
 20
355.1229192484968
 30
0.0000000000000000
 11
69.07215521102302
 21
356.6229192484965
 31
0.0000000000000000
  0
LINE
  5
4AD
100
AcDbEntity
  8
MAIN0
  6
BYBLOCK
 62
0
100
AcDbLine
 10
64.74372808627601
 20
355.1229192484964
 30
0.0000000000000000
 11
66.24372808627692
 21
356.6229192484969
 31
0.0000000000000000
  0
LINE
  5
4AE
100
AcDbEntity
  8
MAIN0
  6
BYBLOCK
 62
0
100
AcDbLine
 10
61.91530096152980
 20
355.1229192484967
 30
0.0000000000000000
 11
63.41530096152974
 21
356.6229192484961
 31
0.0000000000000000
  0
LINE
  5
4AF
100
AcDbEntity
  8
MAIN0
  6
BYBLOCK
 62
0
100
AcDbLine
 10
59.08687383678341
 20
355.1229192484971
 30
0.0000000000000000
 11
60.58687383678341
 21
356.6229192484966
 31
0.0000000000000000
  0
LINE
  5
4B0
100
AcDbEntity
  8
MAIN0
  6
BYBLOCK
 62
0
100
AcDbLine
 10
56.25844671203618
 20
355.1229192484962
 30
0.0000000000000000
 11
57.75844671203709
 21
356.6229192484968
 31
0.0000000000000000
  0
LINE
  5
4B1
100
AcDbEntity
  8
MAIN0
  6
BYBLOCK
 62
0
100
AcDbLine
 10
53.43001958729002
 20
355.1229192484966
 30
0.0000000000000000
 11
54.93001958728956
 21
356.6229192484965
 31
0.0000000000000000
  0
LINE
  5
4B2
100
AcDbEntity
  8
MAIN0
  6
BYBLOCK
 62
0
100
AcDbLine
 10
50.60159246254375
 20
355.1229192484971
 30
0.0000000000000000
 11
52.10159246254324
 21
356.6229192484968
 31
0.0000000000000000
  0
LINE
  5
4B3
100
AcDbEntity
  8
MAIN0
  6
BYBLOCK
 62
0
100
AcDbLine
 10
47.77316533779612
 20
355.1229192484959
 30
0.0000000000000000
 11
49.27316533779703
 21
356.6229192484973
 31
0.0000000000000000
  0
LINE
  5
4B4
100
AcDbEntity
  8
MAIN0
  6
BYBLOCK
 62
0
100
AcDbLine
 10
46.23191952118918
 20
356.4101005566359
 30
0.0000000000000000
 11
46.44473821304962
 21
356.6229192484966
 31
0.0000000000000000
  0
LINE
  5
4B5
100
AcDbEntity
  8
MAIN0
  6
BYBLOCK
 62
0
100
AcDbLine
 10
73.22900946051712
 20
355.1229192484972
 30
0.0000000000000000
 11
74.72900946051706
 21
356.6229192484974
 31
0.0000000000000000
  0
LINE
  5
4B6
100
AcDbEntity
  8
MAIN0
  6
BYBLOCK
 62
0
100
AcDbLine
 10
76.05743658526339
 20
355.1229192484967
 30
0.0000000000000000
 11
77.55743658526333
 21
356.6229192484970
 31
0.0000000000000000
  0
LINE
  5
4B7
100
AcDbEntity
  8
MAIN0
  6
BYBLOCK
 62
0
100
AcDbLine
 10
78.88586371000960
 20
355.1229192484964
 30
0.0000000000000000
 11
80.38586371000946
 21
356.6229192484965
 31
0.0000000000000000
  0
LINE
  5
4B8
100
AcDbEntity
  8
MAIN0
  6
BYBLOCK
 62
0
100
AcDbLine
 10
81.71429083475735
 20
355.1229192484975
 30
0.0000000000000000
 11
83.21429083475732
 21
356.6229192484974
 31
0.0000000000000000
  0
LINE
  5
4B9
100
AcDbEntity
  8
MAIN0
  6
BYBLOCK
 62
0
100
AcDbLine
 10
84.54271795950362
 20
355.1229192484972
 30
0.0000000000000000
 11
86.04271795950351
 21
356.6229192484970
 31
0.0000000000000000
  0
LINE
  5
4BA
100
AcDbEntity
  8
MAIN0
  6
BYBLOCK
 62
0
100
AcDbLine
 10
87.37114508424992
 20
355.1229192484968
 30
0.0000000000000000
 11
88.87114508425040
 21
356.6229192484974
 31
0.0000000000000000
  0
LINE
  5
4BB
100
AcDbEntity
  8
MAIN0
  6
BYBLOCK
 62
0
100
AcDbLine
 10
90.19957220899761
 20
355.1229192484979
 30
0.0000000000000000
 11
91.69957220899681
 21
356.6229192484969
 31
0.0000000000000000
  0
LINE
  5
4BC
100
AcDbEntity
  8
MAIN0
  6
BYBLOCK
 62
0
100
AcDbLine
 10
93.02799933374391
 20
355.1229192484974
 30
0.0000000000000000
 11
94.52799933374308
 21
356.6229192484965
 31
0.0000000000000000
  0
ENDBLK
  5
4BD
100
AcDbEntity
  8
MAIN0
  6
BYBLOCK
 62
3
100
AcDbBlockEnd
  0
BLOCK
  5
4BF
100
AcDbEntity
  8
MAIN0
  6
BYBLOCK
 62
3
100
AcDbBlockBegin
  2
*X3
 70
     1
 10
0.0
 20
0.0
 30
0.0
  0
LINE
  5
4C0
100
AcDbEntity
  8
MAIN0
  6
BYBLOCK
 62
0
100
AcDbLine
 10
70.93066078658569
 20
390.6229192484965
 30
0.0000000000000000
 11
72.43066078658490
 21
392.1229192484956
 31
0.0000000000000000
  0
LINE
  5
4C1
100
AcDbEntity
  8
MAIN0
  6
BYBLOCK
 62
0
100
AcDbLine
 10
68.10223366183917
 20
390.6229192484968
 30
0.0000000000000000
 11
69.60223366183871
 21
392.1229192484958
 31
0.0000000000000000
  0
LINE
  5
4C2
100
AcDbEntity
  8
MAIN0
  6
BYBLOCK
 62
0
100
AcDbLine
 10
65.27380653709284
 20
390.6229192484972
 30
0.0000000000000000
 11
66.77380653709233
 21
392.1229192484963
 31
0.0000000000000000
  0
LINE
  5
4C3
100
AcDbEntity
  8
MAIN0
  6
BYBLOCK
 62
0
100
AcDbLine
 10
62.44537941234520
 20
390.6229192484960
 30
0.0000000000000000
 11
63.94537941234512
 21
392.1229192484955
 31
0.0000000000000000
  0
LINE
  5
4C4
100
AcDbEntity
  8
MAIN0
  6
BYBLOCK
 62
0
100
AcDbLine
 10
59.61695228759947
 20
390.6229192484967
 30
0.0000000000000000
 11
61.11695228759902
 21
392.1229192484958
 31
0.0000000000000000
  0
LINE
  5
4C5
100
AcDbEntity
  8
MAIN0
  6
BYBLOCK
 62
0
100
AcDbLine
 10
56.78852516285161
 20
390.6229192484956
 30
0.0000000000000000
 11
58.28852516285258
 21
392.1229192484963
 31
0.0000000000000000
  0
LINE
  5
4C6
100
AcDbEntity
  8
MAIN0
  6
BYBLOCK
 62
0
100
AcDbLine
 10
53.96009803810540
 20
390.6229192484960
 30
0.0000000000000000
 11
55.46009803810483
 21
392.1229192484958
 31
0.0000000000000000
  0
LINE
  5
4C7
100
AcDbEntity
  8
MAIN0
  6
BYBLOCK
 62
0
100
AcDbLine
 10
51.13167091335913
 20
390.6229192484965
 30
0.0000000000000000
 11
52.63167091335856
 21
392.1229192484963
 31
0.0000000000000000
  0
LINE
  5
4C8
100
AcDbEntity
  8
MAIN0
  6
BYBLOCK
 62
0
100
AcDbLine
 10
48.30324378861155
 20
390.6229192484952
 30
0.0000000000000000
 11
49.80324378861241
 21
392.1229192484966
 31
0.0000000000000000
  0
LINE
  5
4C9
100
AcDbEntity
  8
MAIN0
  6
BYBLOCK
 62
0
100
AcDbLine
 10
46.76199797200530
 20
391.9101005566356
 30
0.0000000000000000
 11
46.97481666386511
 21
392.1229192484959
 31
0.0000000000000000
  0
LINE
  5
4CA
100
AcDbEntity
  8
MAIN0
  6
BYBLOCK
 62
0
100
AcDbLine
 10
73.75908791133281
 20
390.6229192484967
 30
0.0000000000000000
 11
75.25908791133270
 21
392.1229192484965
 31
0.0000000000000000
  0
LINE
  5
4CB
100
AcDbEntity
  8
MAIN0
  6
BYBLOCK
 62
0
100
AcDbLine
 10
76.58751503607908
 20
390.6229192484964
 30
0.0000000000000000
 11
78.08751503607897
 21
392.1229192484962
 31
0.0000000000000000
  0
LINE
  5
4CC
100
AcDbEntity
  8
MAIN0
  6
BYBLOCK
 62
0
100
AcDbLine
 10
79.41594216082535
 20
390.6229192484959
 30
0.0000000000000000
 11
80.91594216082524
 21
392.1229192484958
 31
0.0000000000000000
  0
LINE
  5
4CD
100
AcDbEntity
  8
MAIN0
  6
BYBLOCK
 62
0
100
AcDbLine
 10
82.24436928557302
 20
390.6229192484968
 30
0.0000000000000000
 11
83.74436928557290
 21
392.1229192484967
 31
0.0000000000000000
  0
LINE
  5
4CE
100
AcDbEntity
  8
MAIN0
  6
BYBLOCK
 62
0
100
AcDbLine
 10
85.07279641031920
 20
390.6229192484964
 30
0.0000000000000000
 11
86.57279641031909
 21
392.1229192484963
 31
0.0000000000000000
  0
LINE
  5
4CF
100
AcDbEntity
  8
MAIN0
  6
BYBLOCK
 62
0
100
AcDbLine
 10
87.90122353506530
 20
390.6229192484962
 30
0.0000000000000000
 11
89.40122353506575
 21
392.1229192484967
 31
0.0000000000000000
  0
LINE
  5
4D0
100
AcDbEntity
  8
MAIN0
  6
BYBLOCK
 62
0
100
AcDbLine
 10
90.72965065981299
 20
390.6229192484973
 30
0.0000000000000000
 11
92.22965065981219
 21
392.1229192484964
 31
0.0000000000000000
  0
LINE
  5
4D1
100
AcDbEntity
  8
MAIN0
  6
BYBLOCK
 62
0
100
AcDbLine
 10
93.55807778455929
 20
390.6229192484969
 30
0.0000000000000000
 11
95.05807778455846
 21
392.1229192484959
 31
0.0000000000000000
  0
ENDBLK
  5
4D2
100
AcDbEntity
  8
MAIN0
  6
BYBLOCK
 62
3
100
AcDbBlockEnd
  0
ENDSEC
  0
SECTION
  2
ENTITIES
  0
MTEXT
  5
46
100
AcDbEntity
  8
MAIN0
  6
CONTINUOUS
 62
3
100
AcDbMText
 10
49.99449826669144
 20
247.8388215334808
 30
0.0000000000000000
 40
4.000000000000000
 41
0.0000000000000000
 71
     1
 72
     1
  1
{\H0.81x;{A}}
 11
1.000000000000000
 21
0.0000000000000000
 31
0.0000000000000000
  7
STANDARD
  0
LINE
  5
47
100
AcDbEntity
  8
MAIN0
  6
CENTER
 62
3
100
AcDbLine
 10
531.9153300085750
 20
135.0218635582332
 30
0.0000000000000000
 11
574.6397088944538
 21
135.0218635582113
 31
0.0000000000000000
  0
LINE
  5
48
100
AcDbEntity
  8
MAIN0
  6
CENTER
 62
3
100
AcDbLine
 10
553.4999922828274
 20
113.1233875872069
 30
0.0000000000000000
 11
553.4999922828192
 21
156.0187701029515
 31
0.0000000000000000
  0
LINE
  5
49
100
AcDbEntity
  8
MAIN0
  6
CENTER
 62
3
100
AcDbLine
 10
279.7927329850605
 20
347.2834516613859
 30
0.0000000000000000
 11
263.5000841856963
 21
354.8808385681592
 31
0.0000000000000000
  0
ARC
  5
4A
100
AcDbEntity
  8
MAIN0
  6
HIDDEN
 62
3
100
AcDbCircle
 10
271.4232634099497
 20
351.1861994189553
 30
0.0000000000000000
 40
6.500000000000000
100
AcDbArc
 50
155.0000000000000
 51
335.0000000000000
  0
LINE
  5
4B
100
AcDbEntity
  8
MAIN0
  6
CENTER
 62
3
100
AcDbLine
 10
298.8105547633920
 20
388.0673020780351
 30
0.0000000000000000
 11
282.5179059640278
 21
395.6646889848084
 31
0.0000000000000000
  0
LINE
  5
4C
100
AcDbEntity
  8
MAIN0
  6
CONTINUOUS
 62
3
100
AcDbLine
 10
278.4221197773028
 20
381.5756056248874
 30
0.0000000000000000
 11
284.5500845725430
 21
394.7170685369189
 31
0.0000000000000000
  0
LINE
  5
4D
100
AcDbEntity
  8
MAIN0
  6
HIDDEN
 62
3
100
AcDbLine
 10
265.5322627942115
 20
353.9332181202698
 30
0.0000000000000000
 11
278.4221197773027
 21
381.5756056248875
 31
0.0000000000000000
  0
LINE
  5
4E
100
AcDbEntity
  8
MAIN0
  6
CONTINUOUS
 62
3
100
AcDbLine
 10
290.2041210087791
 20
376.0815682222584
 30
0.0000000000000000
 11
296.3320858040193
 21
389.2230311342900
 31
0.0000000000000000
  0
LINE
  5
4F
100
AcDbEntity
  8
MAIN0
  6
HIDDEN
 62
3
100
AcDbLine
 10
277.3142640256879
 20
348.4391807176407
 30
0.0000000000000000
 11
290.2041210087791
 21
376.0815682222585
 31
0.0000000000000000
  0
LINE
  5
50
100
AcDbEntity
  8
MAIN0
  6
PHANTOM
 62
3
100
AcDbLine
 10
311.8557612353179
 20
377.5707107221128
 30
0.0000000000000000
 11
265.1161878750295
 21
399.3657317189127
 31
0.0000000000000000
  0
LINE
  5
51
100
AcDbEntity
  8
MAIN0
  6
PHANTOM
 62
3
100
AcDbLine
 10
296.2188855509120
 20
344.0373226017568
 30
0.0000000000000000
 11
249.4793121906236
 21
365.8323435985567
 31
0.0000000000000000
  0
LINE
  5
52
100
AcDbEntity
  8
MAIN0
  6
CONTINUOUS
 62
3
100
AcDbLine
 10
280.6744356541280
 20
323.7013706563715
 30
0.0000000000000000
 11
309.8350957142363
 21
386.2366079619006
 31
0.0000000000000000
  0
LINE
  5
53
100
AcDbEntity
  8
MAIN0
  6
CONTINUOUS
 62
3
100
AcDbLine
 10
244.4221241726621
 20
340.6061011259994
 30
0.0000000000000000
 11
275.6958755414738
 21
407.6728773667115
 31
0.0000000000000000
  0
LINE
  5
54
100
AcDbEntity
  8
MAIN0
  6
CENTER
 62
3
100
AcDbLine
 10
263.8542140332025
 20
334.9543206488423
 30
0.0000000000000000
 11
294.2313709259446
 21
400.0983438307325
 31
0.0000000000000000
  0
LINE
  5
55
100
AcDbEntity
  8
MAIN0
  6
CENTER
 62
3
100
AcDbLine
 10
263.4252272365481
 20
359.3292566126629
 30
0.0000000000000000
 11
282.9099772889600
 21
350.2433684459872
 31
0.0000000000000000
  0
LINE
  5
56
100
AcDbEntity
  8
MAIN0
  6
PHANTOM
 62
3
100
AcDbLine
 10
278.7433631258263
 20
346.7714904616763
 30
0.0000000000000000
 11
282.8913421676151
 21
355.6668602229211
 31
0.0000000000000000
  0
LINE
  5
57
100
AcDbEntity
  8
MAIN0
  6
PHANTOM
 62
3
100
AcDbLine
 10
263.3361307459311
 20
353.9560009106847
 30
0.0000000000000000
 11
267.4841097882775
 21
362.8513706731251
 31
0.0000000000000000
  0
LINE
  5
58
100
AcDbEntity
  8
MAIN0
  6
PHANTOM
 62
3
100
AcDbLine
 10
267.4841097882774
 20
362.8513706731251
 30
0.0000000000000000
 11
277.2617154986313
 21
363.7068003291936
 31
0.0000000000000000
  0
LINE
  5
59
100
AcDbEntity
  8
MAIN0
  6
PHANTOM
 62
3
100
AcDbLine
 10
268.9657574142572
 20
345.9160608055014
 30
0.0000000000000000
 11
278.7433631258263
 21
346.7714904616763
 31
0.0000000000000000
  0
LINE
  5
5A
100
AcDbEntity
  8
MAIN0
  6
PHANTOM
 62
3
100
AcDbLine
 10
268.9657574145085
 20
345.9160608052298
 30
0.0000000000000000
 11
263.3361307460257
 21
353.9560009105497
 31
0.0000000000000000
  0
LINE
  5
5B
100
AcDbEntity
  8
MAIN0
  6
PHANTOM
 62
3
100
AcDbLine
 10
282.8913421678421
 20
355.6668602225971
 30
0.0000000000000000
 11
277.2617154986595
 21
363.7068003289162
 31
0.0000000000000000
  0
CIRCLE
  5
5C
100
AcDbEntity
  8
MAIN0
  6
PHANTOM
 62
3
100
AcDbCircle
 10
273.1137364569125
 20
354.8114305671018
 30
0.0000000000000000
 40
8.499999999999972
  0
LINE
  5
5D
100
AcDbEntity
  8
MAIN0
  6
CENTER
 62
3
100
AcDbLine
 10
253.3997372713392
 20
348.0276466300074
 30
0.0000000000000000
 11
269.7788413599085
 21
383.1527486996906
 31
0.0000000000000000
  0
ARC
  5
5E
100
AcDbEntity
  8
MAIN0
  6
CONTINUOUS
 62
3
100
AcDbCircle
 10
255.0816279030854
 20
351.6344727293274
 30
0.0000000000000000
 40
2.750000000000000
100
AcDbArc
 50
155.0000000000000
 51
335.0000000000001
  0
CIRCLE
  5
5F
100
AcDbEntity
  8
MAIN0
  6
CONTINUOUS
 62
3
100
AcDbCircle
 10
267.5488666244360
 20
378.3705524469087
 30
0.0000000000000000
 40
5.000000000000000
  0
CIRCLE
  5
60
100
AcDbEntity
  8
MAIN0
  6
CONTINUOUS
 62
3
100
AcDbCircle
 10
267.5488666244360
 20
378.3705524469087
 30
0.0000000000000000
 40
4.250000000000000
  0
LINE
  5
61
100
AcDbEntity
  8
MAIN0
  6
CONTINUOUS
 62
3
100
AcDbLine
 10
265.4558384451790
 20
379.3465475156304
 30
0.0000000000000000
 11
267.3475890582889
 21
380.6711655553428
 31
0.0000000000000000
  0
LINE
  5
62
100
AcDbEntity
  8
MAIN0
  6
CONTINUOUS
 62
3
100
AcDbLine
 10
267.3475890582889
 20
380.6711655553429
 30
0.0000000000000000
 11
269.4406172375459
 21
379.6951704866211
 31
0.0000000000000000
  0
LINE
  5
63
100
AcDbEntity
  8
MAIN0
  6
CONTINUOUS
 62
3
100
AcDbLine
 10
269.4406172375459
 20
379.6951704866211
 30
0.0000000000000000
 11
269.6418948036930
 21
377.3945573781869
 31
0.0000000000000000
  0
LINE
  5
64
100
AcDbEntity
  8
MAIN0
  6
CONTINUOUS
 62
3
100
AcDbLine
 10
269.6418948036931
 20
377.3945573781869
 30
0.0000000000000000
 11
267.7501441905832
 21
376.0699393384745
 31
0.0000000000000000
  0
LINE
  5
65
100
AcDbEntity
  8
MAIN0
  6
CONTINUOUS
 62
3
100
AcDbLine
 10
267.7501441905831
 20
376.0699393384745
 30
0.0000000000000000
 11
265.6571160113260
 21
377.0459344071962
 31
0.0000000000000000
  0
LINE
  5
66
100
AcDbEntity
  8
MAIN0
  6
CONTINUOUS
 62
3
100
AcDbLine
 10
265.6571160113260
 20
377.0459344071962
 30
0.0000000000000000
 11
265.4558384451789
 21
379.3465475156305
 31
0.0000000000000000
  0
LINE
  5
67
100
AcDbEntity
  8
MAIN0
  6
CONTINUOUS
 62
3
100
AcDbLine
 10
255.2293076760482
 20
343.2902741280215
 30
0.0000000000000000
 11
275.7839078151114
 21
333.7055066728625
 31
0.0000000000000000
  0
LINE
  5
68
100
AcDbEntity
  8
MAIN0
  6
CONTINUOUS
 62
3
100
AcDbLine
 10
274.0358203235094
 20
383.6209706511525
 30
0.0000000000000000
 11
294.5904204625726
 21
374.0362031959935
 31
0.0000000000000000
  0
LINE
  5
69
100
AcDbEntity
  8
MAIN0
  6
CENTER
 62
3
100
AcDbLine
 10
263.6760119180848
 20
380.1764942554019
 30
0.0000000000000000
 11
271.9322446547808
 21
376.3265497027704
 31
0.0000000000000000
  0
LINE
  5
6A
100
AcDbEntity
  8
MAIN0
  6
CENTER
 62
3
100
AcDbLine
 10
261.2949961867407
 20
381.2867801251151
 30
0.0000000000000000
 11
273.9883366440966
 21
375.3677782622814
 31
0.0000000000000000
  0
LINE
  5
6B
100
AcDbEntity
  8
MAIN0
  6
CENTER
 62
3
100
AcDbLine
 10
280.4617815999763
 20
335.0763404813313
 30
0.0000000000000000
 11
296.9199583580531
 21
370.3710144379967
 31
0.0000000000000000
  0
ARC
  5
6C
100
AcDbEntity
  8
MAIN0
  6
CONTINUOUS
 62
3
100
AcDbCircle
 10
282.2708615141849
 20
338.9559248771064
 30
0.0000000000000000
 40
2.750000000000000
100
AcDbArc
 50
155.0000000000000
 51
335.0000000000001
  0
CIRCLE
  5
6D
100
AcDbEntity
  8
MAIN0
  6
CONTINUOUS
 62
3
100
AcDbCircle
 10
294.7381002355355
 20
365.6920045946876
 30
0.0000000000000000
 40
5.000000000000000
  0
CIRCLE
  5
6E
100
AcDbEntity
  8
MAIN0
  6
CONTINUOUS
 62
3
100
AcDbCircle
 10
294.7381002355355
 20
365.6920045946876
 30
0.0000000000000000
 40
4.250000000000000
  0
LINE
  5
6F
100
AcDbEntity
  8
MAIN0
  6
CONTINUOUS
 62
3
100
AcDbLine
 10
296.8311284147925
 20
364.7160095259658
 30
0.0000000000000000
 11
296.6298508486453
 21
367.0166226343999
 31
0.0000000000000000
  0
LINE
  5
70
100
AcDbEntity
  8
MAIN0
  6
CONTINUOUS
 62
3
100
AcDbLine
 10
296.6298508486454
 20
367.0166226344001
 30
0.0000000000000000
 11
294.5368226693884
 21
367.9926177031218
 31
0.0000000000000000
  0
LINE
  5
71
100
AcDbEntity
  8
MAIN0
  6
CONTINUOUS
 62
3
100
AcDbLine
 10
294.5368226693884
 20
367.9926177031218
 30
0.0000000000000000
 11
292.6450720562784
 21
366.6679996634094
 31
0.0000000000000000
  0
LINE
  5
72
100
AcDbEntity
  8
MAIN0
  6
CONTINUOUS
 62
3
100
AcDbLine
 10
292.6450720562784
 20
366.6679996634093
 30
0.0000000000000000
 11
292.8463496224255
 21
364.3673865549752
 31
0.0000000000000000
  0
LINE
  5
73
100
AcDbEntity
  8
MAIN0
  6
CONTINUOUS
 62
3
100
AcDbLine
 10
292.8463496224255
 20
364.3673865549752
 30
0.0000000000000000
 11
294.9393778016826
 21
363.3913914862534
 31
0.0000000000000000
  0
LINE
  5
74
100
AcDbEntity
  8
MAIN0
  6
CONTINUOUS
 62
3
100
AcDbLine
 10
294.9393778016826
 20
363.3913914862534
 30
0.0000000000000000
 11
296.8311284147925
 21
364.7160095259658
 31
0.0000000000000000
  0
LINE
  5
75
100
AcDbEntity
  8
MAIN0
  6
CENTER
 62
3
100
AcDbLine
 10
298.6109549418868
 20
363.8860627861944
 30
0.0000000000000000
 11
290.3547222051907
 21
367.7360073388257
 31
0.0000000000000000
  0
LINE
  5
76
100
AcDbEntity
  8
MAIN0
  6
CENTER
 62
3
100
AcDbLine
 10
300.9919706732308
 20
362.7757769164812
 30
0.0000000000000000
 11
288.2986302158748
 21
368.6947787793149
 31
0.0000000000000000
  0
ARC
  5
77
100
AcDbEntity
  8
MAIN0
  6
CONTINUOUS
 62
3
100
AcDbCircle
 10
290.4410851882811
 20
391.9700498356045
 30
0.0000000000000000
 40
6.499999999999972
100
AcDbArc
 50
334.9999999999996
 51
515.0000000000001
  0
LINE
  5
78
100
AcDbEntity
  8
MAIN0
  6
CONTINUOUS
 62
3
100
AcDbLine
 10
307.4166480877566
 20
392.8812382057871
 30
0.0000000000000000
 11
309.8350957142363
 21
386.2366079619005
 31
0.0000000000000000
  0
LINE
  5
79
100
AcDbEntity
  8
MAIN0
  6
CONTINUOUS
 62
3
100
AcDbLine
 10
307.4166480877566
 20
392.8812382057871
 30
0.0000000000000000
 11
275.6958755414738
 21
407.6728773667117
 31
0.0000000000000000
  0
LINE
  5
7A
100
AcDbEntity
  8
MAIN0
  6
CENTER
 62
3
100
AcDbLine
 10
206.9538359777090
 20
361.4874026880336
 30
0.0000000000000000
 11
263.8542140332025
 21
334.9543206488423
 31
0.0000000000000000
  0
INSERT
  5
80
100
AcDbEntity
  8
MAIN0
  6
CONTINUOUS
 62
3
100
AcDbBlockReference
  2
M0
 10
0.0000000000000000
 20
0.0000000000000000
 30
0.0000000000000000
 50
0.0000000000000000
  0
MTEXT
  5
81
100
AcDbEntity
  8
MAIN0
  6
CONTINUOUS
 62
3
100
AcDbMText
 10
152.7839904772257
 20
395.9847283716968
 30
0.0000000000000000
 40
5.000000000000000
 41
0.0000000000000000
 71
     1
 72
     1
  1
{\H0.82x;{Q}}
 11
1.000000000000000
 21
0.0000000000000000
 31
0.0000000000000000
  7
STANDARD
  0
LINE
  5
82
100
AcDbEntity
  8
MAIN0
  6
CONTINUOUS
 62
3
100
AcDbLine
 10
249.4935433125315
 20
351.4817945709144
 30
0.0000000000000000
 11
255.2293076760483
 21
343.2902741280215
 31
0.0000000000000000
  0
LINE
  5
83
100
AcDbEntity
  8
MAIN0
  6
CONTINUOUS
 62
3
100
AcDbLine
 10
275.7839078151114
 20
333.7055066728626
 30
0.0000000000000000
 11
285.7458547960354
 21
334.5770641003361
 31
0.0000000000000000
  0
DIMENSION
  5
8C
100
AcDbEntity
  8
MAIN0
  6
CONTINUOUS
 62
3
100
AcDbDimension
  2
*D0
 10
309.3660479383784
 20
337.9067000974736
 30
0.0000000000000000
 11
319.2670414575073
 21
360.3225500107420
 31
0.0000000000000000
 70
32
  3
MAIN001
100
AcDbAlignedDimension
 13
307.4166480877566
 23
392.8812382057871
 33
0.0000000000000000
 14
282.9099772889600
 24
350.2433684459872
 34
0.0000000000000000
 50
65.00000000000004
100
AcDbRotatedDimension
1001
ACAD
1000
DSTYLE
1002
{
1070
   173
1070
     1
1070
     6
1000
_OPEN
1070
     7
1000
_OPEN
1070
    41
1040
2.000000
1002
}
  0
DIMENSION
  5
95
100
AcDbEntity
  8
MAIN0
  6
CONTINUOUS
 62
3
100
AcDbDimension
  2
*D1
 10
265.0644671512550
 20
403.8033611643439
 30
0.0000000000000000
 11
255.9476388920525
 21
385.4353606609627
 31
0.0000000000000000
 70
32
  3
MAIN001
100
AcDbAlignedDimension
 13
263.4252272365481
 23
359.3292566126629
 33
0.0000000000000000
 14
282.5179059640278
 24
395.6646889848084
 34
0.0000000000000000
 50
65.00000000000054
100
AcDbRotatedDimension
1001
ACAD
1000
DSTYLE
1002
{
1070
   173
1070
     1
1070
     6
1000
_OPEN
1070
     7
1000
_OPEN
1070
    41
1040
2.000000
1002
}
  0
DIMENSION
  5
A0
100
AcDbEntity
  8
MAIN0
  6
CONTINUOUS
 62
3
100
AcDbDimension
  2
*D2
 10
247.7371184198866
 20
366.6447418958409
 30
0.0000000000000000
 11
246.4387280028869
 21
365.0434354526381
 31
0.0000000000000000
 70
32
  3
MAIN001
100
AcDbAlignedDimension
 13
263.5000841856963
 23
354.8808385681592
 33
0.0000000000000000
 14
263.4252272365481
 24
359.3292566126629
 34
0.0000000000000000
 50
65.00000000000038
100
AcDbRotatedDimension
1001
ACAD
1000
DSTYLE
1002
{
1070
   173
1070
     1
1070
     6
1000
_OPEN
1070
     7
1000
_OPEN
1070
    41
1040
2.000000
1070
   287
1070
     0
1002
}
  0
DIMENSION
  5
A9
100
AcDbEntity
  8
MAIN0
  6
CONTINUOUS
 62
3
100
AcDbDimension
  2
*D3
 10
308.3327170410854
 20
359.3527306685771
 30
0.0000000000000000
 11
314.2188370736774
 21
373.1586566049974
 31
0.0000000000000000
 70
32
  3
MAIN001
100
AcDbAlignedDimension
 13
307.4166480877566
 23
392.8812382057872
 33
0.0000000000000000
 14
300.9919706732308
 24
362.7757769164812
 34
0.0000000000000000
 50
65.00000000000067
100
AcDbRotatedDimension
1001
ACAD
1000
DSTYLE
1002
{
1070
   173
1070
     1
1070
     6
1000
_OPEN
1070
     7
1000
_OPEN
1070
    41
1040
2.000000
1002
}
  0
DIMENSION
  5
B2
100
AcDbEntity
  8
MAIN0
  6
CONTINUOUS
 62
3
100
AcDbDimension
  2
*D4
 10
238.9280867700329
 20
328.8240998945229
 30
0.0000000000000000
 11
257.2655516416362
 21
320.8248885532273
 31
0.0000000000000000
 70
33
  3
MAIN001
100
AcDbAlignedDimension
 13
280.6744356541280
 23
323.7013706563715
 33
0.0000000000000000
 14
244.4221241726620
 24
340.6061011259994
 34
0.0000000000000000
 50
155.0000000000000
1001
ACAD
1000
DSTYLE
1002
{
1070
   173
1070
     1
1070
     6
1000
_OPEN
1070
     7
1000
_OPEN
1070
    41
1040
2.000000
1002
}
  0
LEADER
  5
B3
100
AcDbEntity
  8
MAIN0
  6
CONTINUOUS
 62
3
100
AcDbLeader
  3
MAIN001
 73
     0
 74
     0
 75
     1
 40
3.099999904632568
 41
37.90100087022780
 76
     3
 10
88.99214895101417
 20
355.1229192484537
 30
0.0000000000000000
 10
106.7094811252678
 20
381.2812311550083
 30
0.0000000000000000
 10
108.6344810694779
 20
381.2812311550083
 30
0.0000000000000000
340
B4
213
0.0000000000000000
223
-0.5000000000000000
233
0.0000000000000000
1001
ACAD
1000
DSTYLE
1002
{
1070
   147
1040
0.0
1070
    77
1070
     1
1070
   173
1070
     1
1070
     6
1000
_OPEN
1070
     7
1000
_OPEN
1002
}
  0
MTEXT
  5
B4
102
{ACAD_REACTORS
330
B3
102
}
100
AcDbEntity
  8
MAIN0
  6
CONTINUOUS
 62
3
100
AcDbMText
 10
108.6354810694779
 20
384.8812310596409
 30
0.0000000000000000
 40
3.099999904632568
 41
0.0000000000000000
 71
     1
 72
     1
  1
{\H0.94x;{ディテクタブルプレート}}
 11
1.000000000000000
 21
0.0000000000000000
 31
0.0000000000000000
  7
KNJYOKO
  0
LEADER
  5
B5
100
AcDbEntity
  8
MAIN0
  6
CONTINUOUS
 62
3
100
AcDbLeader
  3
MAIN001
 73
     0
 74
     0
 75
     1
 40
3.099999904632568
 41
13.54100031948087
 76
     3
 10
173.0310292369384
 20
248.5702711043559
 30
0.0000000000000000
 10
269.5143195840733
 20
280.1766741745179
 30
0.0000000000000000
 10
271.4393195282834
 20
280.1766741745179
 30
0.0000000000000000
340
B6
213
0.0000000000000000
223
-0.5000000000000000
233
0.0000000000000000
1001
ACAD
1000
DSTYLE
1002
{
1070
   147
1040
0.0
1070
    77
1070
     1
1070
   173
1070
     1
1070
     6
1000
_OPEN
1070
     7
1000
_OPEN
1002
}
  0
MTEXT
  5
B6
102
{ACAD_REACTORS
330
B5
102
}
100
AcDbEntity
  8
MAIN0
  6
CONTINUOUS
 62
3
100
AcDbMText
 10
271.4403195282833
 20
283.7766740791504
 30
0.0000000000000000
 40
3.099999904632568
 41
0.0000000000000000
 71
     1
 72
     1
  1
{\H0.92x;{メイバン}}
 11
1.000000000000000
 21
0.0000000000000000
 31
0.0000000000000000
  7
KNJYOKO
  0
MTEXT
  5
B7
100
AcDbEntity
  8
MAIN0
  6
CONTINUOUS
 62
3
100
AcDbMText
 10
108.6885490330959
 20
380.6478499938634
 30
0.0000000000000000
 40
3.000000000000000
 41
0.0000000000000000
 71
     1
 72
     1
  1
{\H0.63x;{Detectable plate}}
 11
1.000000000000000
 21
0.0000000000000000
 31
0.0000000000000000
  7
STANDARD
  0
MTEXT
  5
B8
100
AcDbEntity
  8
MAIN0
  6
CONTINUOUS
 62
3
100
AcDbMText
 10
271.7741030892999
 20
279.1715750353291
 30
0.0000000000000000
 40
3.000000000000000
 41
0.0000000000000000
 71
     1
 72
     1
  1
{\H0.63x;{Name plate}}
 11
1.000000000000000
 21
0.0000000000000000
 31
0.0000000000000000
  7
STANDARD
  0
LINE
  5
B9
100
AcDbEntity
  8
MAIN0
  6
CONTINUOUS
 62
3
100
AcDbLine
 10
334.4999922828701
 20
266.5040464894423
 30
0.0000000000000000
 11
334.4999922828701
 21
278.4997958835058
 31
0.0000000000000000
  0
LINE
  5
BA
100
AcDbEntity
  8
MAIN0
  6
CENTER
 62
3
100
AcDbLine
 10
333.1245139962907
 20
284.9997958835058
 30
0.0000000000000000
 11
387.4620459954363
 21
284.9997958835058
 31
0.0000000000000000
  0
MTEXT
  5
BB
100
AcDbEntity
  8
MAIN0
  6
CONTINUOUS
 62
3
100
AcDbMText
 10
482.0882500388797
 20
128.9413793264487
 30
0.0000000000000000
 40
3.099999904632568
 41
0.0000000000000000
 71
     1
 72
     1
  1
{\H0.70x;{MIN 30}}
 11
1.000000000000000
 21
0.0000000000000000
 31
0.0000000000000000
  7
STANDARD
  0
LINE
  5
BC
100
AcDbEntity
  8
MAIN0
  6
CONTINUOUS
 62
3
100
AcDbLine
 10
374.0999922828702
 20
278.4997958835058
 30
0.0000000000000000
 11
374.4999922828702
 21
278.0997958835059
 31
0.0000000000000000
  0
LINE
  5
BD
100
AcDbEntity
  8
MAIN0
  6
CONTINUOUS
 62
3
100
AcDbLine
 10
518.4999922828694
 20
258.9997958835060
 30
0.0000000000000000
 11
518.4999922828694
 21
225.9997958835061
 31
0.0000000000000000
  0
LINE
  5
BE
100
AcDbEntity
  8
MAIN0
  6
CONTINUOUS
 62
3
100
AcDbLine
 10
513.4999922828694
 20
255.4997958835060
 30
0.0000000000000000
 11
513.4999922828694
 21
229.4997958835060
 31
0.0000000000000000
  0
LINE
  5
BF
100
AcDbEntity
  8
MAIN0
  6
CONTINUOUS
 62
3
100
AcDbLine
 10
517.6339668785313
 20
229.4997958834803
 30
0.0000000000000000
 11
518.4999922828691
 21
228.9997958831614
 31
0.0000000000000000
  0
LINE
  5
C0
100
AcDbEntity
  8
MAIN0
  6
CONTINUOUS
 62
3
100
AcDbLine
 10
517.6339668785072
 20
255.4997958835060
 30
0.0000000000000000
 11
517.6339668785361
 21
229.4997958835078
 31
0.0000000000000000
  0
LINE
  5
C1
100
AcDbEntity
  8
MAIN0
  6
CONTINUOUS
 62
3
100
AcDbLine
 10
513.4999922828695
 20
229.4997958835060
 30
0.0000000000000000
 11
517.6339668785361
 21
229.4997958835060
 31
0.0000000000000000
  0
LINE
  5
C2
100
AcDbEntity
  8
MAIN0
  6
CONTINUOUS
 62
3
100
AcDbLine
 10
512.2009541770710
 20
231.7497958835061
 30
0.0000000000000000
 11
513.4999922827437
 21
229.4997958835061
 31
0.0000000000000000
  0
LINE
  5
C3
100
AcDbEntity
  8
MAIN0
  6
CONTINUOUS
 62
3
100
AcDbLine
 10
512.2009541772258
 20
253.2497958835060
 30
0.0000000000000000
 11
512.2009541772258
 21
231.7497958835060
 31
0.0000000000000000
  0
LINE
  5
C4
100
AcDbEntity
  8
MAIN0
  6
CONTINUOUS
 62
3
100
AcDbLine
 10
517.6339668785313
 20
255.4997958835317
 30
0.0000000000000000
 11
518.4999922828691
 21
255.9997958838506
 31
0.0000000000000000
  0
LINE
  5
C5
100
AcDbEntity
  8
MAIN0
  6
CONTINUOUS
 62
3
100
AcDbLine
 10
513.4999922828695
 20
255.4997958835060
 30
0.0000000000000000
 11
517.6339668785072
 21
255.4997958835060
 31
0.0000000000000000
  0
LINE
  5
C6
100
AcDbEntity
  8
MAIN0
  6
CONTINUOUS
 62
3
100
AcDbLine
 10
512.2009541770710
 20
253.2497958835058
 30
0.0000000000000000
 11
513.4999922827437
 21
255.4997958835058
 31
0.0000000000000000
  0
LINE
  5
C7
100
AcDbEntity
  8
MAIN0
  6
CONTINUOUS
 62
3
100
AcDbLine
 10
483.4999922828694
 20
254.4997958835060
 30
0.0000000000000000
 11
483.4999922828694
 21
230.4997958835060
 31
0.0000000000000000
  0
LINE
  5
C8
100
AcDbEntity
  8
MAIN0
  6
CONTINUOUS
 62
3
100
AcDbLine
 10
396.4999922828695
 20
326.4997958835060
 30
0.0000000000000000
 11
457.4999922828694
 21
326.4997958835060
 31
0.0000000000000000
  0
LINE
  5
C9
100
AcDbEntity
  8
MAIN0
  6
CONTINUOUS
 62
3
100
AcDbLine
 10
409.4999922828700
 20
158.4997958835060
 30
0.0000000000000000
 11
456.4999922828694
 21
158.4997958835060
 31
0.0000000000000000
  0
ARC
  5
CA
100
AcDbEntity
  8
MAIN0
  6
CONTINUOUS
 62
3
100
AcDbCircle
 10
456.4999922828694
 20
160.4997958835060
 30
0.0000000000000000
 40
2.000000000000000
100
AcDbArc
 50
270.0000000000000
 51
360.0000000000000
  0
LINE
  5
CB
100
AcDbEntity
  8
MAIN0
  6
CONTINUOUS
 62
3
100
AcDbLine
 10
458.4999922828694
 20
216.9997958835060
 30
0.0000000000000000
 11
473.4999922828694
 21
216.9997958835060
 31
0.0000000000000000
  0
ARC
  5
CC
100
AcDbEntity
  8
MAIN0
  6
CONTINUOUS
 62
3
100
AcDbCircle
 10
457.4999922828694
 20
325.4997958835060
 30
0.0000000000000000
 40
1.000000000000000
100
AcDbArc
 50
0.0000000000000000
 51
90.00000000000000
  0
LINE
  5
CD
100
AcDbEntity
  8
MAIN0
  6
CONTINUOUS
 62
3
100
AcDbLine
 10
458.4999922828694
 20
267.9997958835060
 30
0.0000000000000000
 11
473.4999922828694
 21
267.9997958835060
 31
0.0000000000000000
  0
LINE
  5
CE
100
AcDbEntity
  8
MAIN0
  6
CENTER
 62
3
100
AcDbLine
 10
375.1707123754999
 20
167.4997958835060
 30
0.0000000000000000
 11
482.3831162290076
 21
167.4997958835060
 31
0.0000000000000000
  0
LEADER
  5
CF
100
AcDbEntity
  8
MAIN0
  6
CONTINUOUS
 62
3
100
AcDbLeader
  3
MAIN001
 73
     0
 74
     0
 75
     1
 40
3.099999904632568
 41
10.40100000596044
 76
     3
 10
469.6349484666895
 20
162.4997958835060
 30
0.0000000000000000
 10
483.7454072184696
 20
140.5816770449508
 30
0.0000000000000000
 10
485.5304071658089
 20
140.5816770449508
 30
0.0000000000000000
340
D0
213
0.0000000000000000
223
-0.5000000000000000
233
0.0000000000000000
1001
ACAD
1000
DSTYLE
1002
{
1070
   147
1040
0.0
1070
    77
1070
     1
1070
   173
1070
     1
1070
     6
1000
_OPEN
1070
     7
1000
_OPEN
1002
}
  0
MTEXT
  5
D0
102
{ACAD_REACTORS
330
CF
102
}
100
AcDbEntity
  8
MAIN0
  6
CONTINUOUS
 62
3
100
AcDbMText
 10
485.5314071658089
 20
144.1816769495833
 30
0.0000000000000000
 40
3.099999904632568
 41
0.0000000000000000
 71
     1
 72
     1
  1
{\H0.70x;{6-M10}}
 11
1.000000000000000
 21
0.0000000000000000
 31
0.0000000000000000
  7
STANDARD
  0
LEADER
  5
D1
100
AcDbEntity
  8
MAIN0
  6
CONTINUOUS
 62
3
100
AcDbLeader
  3
MAIN001
 73
     0
 74
     0
 75
     1
 40
3.099999904632568
 41
7.991000247955356
 76
     3
 10
498.4999922828701
 20
254.4997958835060
 30
0.0000000000000000
 10
505.9999922828701
 20
278.7497958835060
 30
0.0000000000000000
 10
507.9249922270802
 20
278.7497958835060
 30
0.0000000000000000
340
D2
213
0.0000000000000000
223
-0.5000000000000000
233
0.0000000000000000
1001
ACAD
1000
DSTYLE
1002
{
1070
   147
1040
0.0
1070
    77
1070
     1
1070
   173
1070
     1
1070
     6
1000
_OPEN
1070
     7
1000
_OPEN
1002
}
  0
MTEXT
  5
D2
102
{ACAD_REACTORS
330
D1
102
}
100
AcDbEntity
  8
MAIN0
  6
CONTINUOUS
 62
3
100
AcDbMText
 10
507.9259922270801
 20
282.3497957881385
 30
0.0000000000000000
 40
3.099999904632568
 41
0.0000000000000000
 71
     1
 72
     1
  1
{\H0.90x;{M24}}
 11
1.000000000000000
 21
0.0000000000000000
 31
0.0000000000000000
  7
STANDARD
  0
LINE
  5
D3
100
AcDbEntity
  8
MAIN0
  6
CENTER
 62
12
100
AcDbLine
 10
304.4999922828701
 20
242.4997958835060
 30
0.0000000000000000
 11
524.8029645092740
 21
242.4997958835060
 31
0.0000000000000000
  0
LINE
  5
D4
100
AcDbEntity
  8
MAIN0
  6
CONTINUOUS
 62
3
100
AcDbLine
 10
375.4999922828700
 20
326.9997958835060
 30
0.0000000000000000
 11
409.4999922828700
 21
326.9997958835060
 31
0.0000000000000000
  0
ARC
  5
D5
100
AcDbEntity
  8
MAIN0
  6
CONTINUOUS
 62
3
100
AcDbCircle
 10
377.4999922828699
 20
325.9997958835060
 30
0.0000000000000000
 40
1.000000000000000
100
AcDbArc
 50
90.00000000000000
 51
180.0000000000000
  0
LINE
  5
D6
100
AcDbEntity
  8
MAIN0
  6
CONTINUOUS
 62
3
100
AcDbLine
 10
372.4999922828700
 20
329.4997958835062
 30
0.0000000000000000
 11
409.4999922828700
 21
329.4997958835062
 31
0.0000000000000000
  0
LINE
  5
D7
100
AcDbEntity
  8
MAIN0
  6
PHANTOM
 62
3
100
AcDbLine
 10
379.4999922828700
 20
326.9997958835062
 30
0.0000000000000000
 11
379.4999922828700
 21
329.9997958835062
 31
0.0000000000000000
  0
LINE
  5
D8
100
AcDbEntity
  8
MAIN0
  6
PHANTOM
 62
3
100
AcDbLine
 10
345.4999922828700
 20
326.9997958835062
 30
0.0000000000000000
 11
379.4999922828700
 21
326.9997958835062
 31
0.0000000000000000
  0
LINE
  5
D9
100
AcDbEntity
  8
MAIN0
  6
PHANTOM
 62
3
100
AcDbLine
 10
342.4999922828700
 20
329.4997958835062
 30
0.0000000000000000
 11
379.4999922828700
 21
329.4997958835062
 31
0.0000000000000000
  0
LINE
  5
DA
100
AcDbEntity
  8
MAIN0
  6
CONTINUOUS
 62
3
100
AcDbLine
 10
324.4999922828701
 20
331.9997958835062
 30
0.0000000000000000
 11
334.0999922828701
 21
331.9997958835062
 31
0.0000000000000000
  0
LINE
  5
DB
100
AcDbEntity
  8
MAIN0
  6
CONTINUOUS
 62
3
100
AcDbLine
 10
324.7999922828737
 20
339.2997958835063
 30
0.0000000000000000
 11
421.4999922828699
 21
339.2997958835063
 31
0.0000000000000000
  0
LINE
  5
DC
100
AcDbEntity
  8
MAIN0
  6
CENTER
 62
3
100
AcDbLine
 10
372.4999922828699
 20
351.1883642871943
 30
0.0000000000000000
 11
372.4999922828699
 21
328.2956368410244
 31
0.0000000000000000
  0
LINE
  5
DD
100
AcDbEntity
  8
MAIN0
  6
PHANTOM
 62
3
100
AcDbLine
 10
367.4999922828708
 20
330.4997958835063
 30
0.0000000000000000
 11
370.3922990249349
 21
330.4997958835063
 31
0.0000000000000000
  0
LINE
  5
DE
100
AcDbEntity
  8
MAIN0
  6
PHANTOM
 62
3
100
AcDbLine
 10
367.0414922828699
 20
339.2997958835063
 30
0.0000000000000000
 11
367.0414922828699
 21
330.9582958835069
 31
0.0000000000000000
  0
LINE
  5
DF
100
AcDbEntity
  8
MAIN0
  6
PHANTOM
 62
3
100
AcDbLine
 10
366.4999922828699
 20
339.2997958835063
 30
0.0000000000000000
 11
366.4999922828699
 21
331.4997958835072
 31
0.0000000000000000
  0
LINE
  5
E0
100
AcDbEntity
  8
MAIN0
  6
CONTINUOUS
 62
3
100
AcDbLine
 10
324.7999922828737
 20
342.4997958835063
 30
0.0000000000000000
 11
421.4999922828699
 21
342.4997958835063
 31
0.0000000000000000
  0
LINE
  5
E1
100
AcDbEntity
  8
MAIN0
  6
CONTINUOUS
 62
3
100
AcDbLine
 10
421.4999922828699
 20
342.4997958835062
 30
0.0000000000000000
 11
421.4999922828699
 21
339.2997958835063
 31
0.0000000000000000
  0
ARC
  5
E2
100
AcDbEntity
  8
MAIN0
  6
CONTINUOUS
 62
3
100
AcDbCircle
 10
324.7999922828736
 20
338.9997958835063
 30
0.0000000000000000
 40
3.500000000000000
100
AcDbArc
 50
90.00000000000000
 51
180.0000000000000
  0
ARC
  5
E3
100
AcDbEntity
  8
MAIN0
  6
CONTINUOUS
 62
3
100
AcDbCircle
 10
324.7999922828737
 20
338.9997958835063
 30
0.0000000000000000
 40
0.3000000000000000
100
AcDbArc
 50
90.00000000000000
 51
180.0000000000000
  0
LINE
  5
E4
100
AcDbEntity
  8
MAIN0
  6
CONTINUOUS
 62
3
100
AcDbLine
 10
321.2999922828694
 20
329.9997958835061
 30
0.0000000000000000
 11
315.8999922828694
 21
329.9997958835061
 31
0.0000000000000000
  0
LINE
  5
E5
100
AcDbEntity
  8
MAIN0
  6
CONTINUOUS
 62
3
100
AcDbLine
 10
315.8999922828694
 20
329.9997958835062
 30
0.0000000000000000
 11
315.2999922828694
 21
328.9605653989648
 31
0.0000000000000000
  0
LINE
  5
E6
100
AcDbEntity
  8
MAIN0
  6
CONTINUOUS
 62
3
100
AcDbLine
 10
315.2999922828694
 20
328.9605653989648
 30
0.0000000000000000
 11
315.2999922828694
 21
321.0390263680475
 31
0.0000000000000000
  0
LINE
  5
E7
100
AcDbEntity
  8
MAIN0
  6
CONTINUOUS
 62
3
100
AcDbLine
 10
315.2999922828695
 20
321.0390263680475
 30
0.0000000000000000
 11
315.8999922828695
 21
319.9997958835062
 31
0.0000000000000000
  0
LINE
  5
E8
100
AcDbEntity
  8
MAIN0
  6
CONTINUOUS
 62
3
100
AcDbLine
 10
315.8999922828694
 20
319.9997958835061
 30
0.0000000000000000
 11
321.2999922828694
 21
319.9997958835061
 31
0.0000000000000000
  0
LINE
  5
E9
100
AcDbEntity
  8
MAIN0
  6
CONTINUOUS
 62
3
100
AcDbLine
 10
315.8999922828694
 20
329.9997958835061
 30
0.0000000000000000
 11
315.8999922828694
 21
319.9997958835061
 31
0.0000000000000000
  0
LINE
  5
EA
100
AcDbEntity
  8
MAIN0
  6
CONTINUOUS
 62
3
100
AcDbLine
 10
321.2999922828694
 20
327.9997958835061
 30
0.0000000000000000
 11
333.2999922828694
 21
327.9997958835061
 31
0.0000000000000000
  0
LINE
  5
EB
100
AcDbEntity
  8
MAIN0
  6
CONTINUOUS
 62
3
100
AcDbLine
 10
333.2999922828694
 20
327.9997958835061
 30
0.0000000000000000
 11
333.2999922828694
 21
321.9997958835061
 31
0.0000000000000000
  0
LINE
  5
EC
100
AcDbEntity
  8
MAIN0
  6
CONTINUOUS
 62
3
100
AcDbLine
 10
333.2999922828694
 20
321.9997958835061
 30
0.0000000000000000
 11
321.2999922828694
 21
321.9997958835061
 31
0.0000000000000000
  0
LINE
  5
ED
100
AcDbEntity
  8
MAIN0
  6
CONTINUOUS
 62
3
100
AcDbLine
 10
321.2999922828694
 20
327.4585298835061
 30
0.0000000000000000
 11
333.2999922828694
 21
327.4585298835061
 31
0.0000000000000000
  0
LINE
  5
EE
100
AcDbEntity
  8
MAIN0
  6
CONTINUOUS
 62
3
100
AcDbLine
 10
321.2999922828694
 20
322.5410618835061
 30
0.0000000000000000
 11
333.2999922828694
 21
322.5410618835061
 31
0.0000000000000000
  0
LINE
  5
EF
100
AcDbEntity
  8
MAIN0
  6
CENTER
 62
3
100
AcDbLine
 10
379.4999922828699
 20
372.9614502361478
 30
0.0000000000000000
 11
379.4999922828699
 21
328.2956368410246
 31
0.0000000000000000
  0
LINE
  5
F0
100
AcDbEntity
  8
MAIN0
  6
PHANTOM
 62
3
100
AcDbLine
 10
374.4999922828708
 20
330.4997958835063
 30
0.0000000000000000
 11
384.4999922828690
 21
330.4997958835063
 31
0.0000000000000000
  0
LINE
  5
F1
100
AcDbEntity
  8
MAIN0
  6
PHANTOM
 62
3
100
AcDbLine
 10
373.4999922828699
 20
331.4997958835063
 30
0.0000000000000000
 11
385.4999922828699
 21
331.4997958835063
 31
0.0000000000000000
  0
LINE
  5
F2
100
AcDbEntity
  8
MAIN0
  6
PHANTOM
 62
3
100
AcDbLine
 10
384.4999922828690
 20
330.4997958835064
 30
0.0000000000000000
 11
385.4999922828699
 21
331.4997958835073
 31
0.0000000000000000
  0
LINE
  5
F3
100
AcDbEntity
  8
MAIN0
  6
PHANTOM
 62
3
100
AcDbLine
 10
374.4999922828709
 20
330.4997958835063
 30
0.0000000000000000
 11
373.4999922828700
 21
331.4997958835072
 31
0.0000000000000000
  0
LINE
  5
F4
100
AcDbEntity
  8
MAIN0
  6
PHANTOM
 62
3
100
AcDbLine
 10
384.4074695709002
 20
349.8997958835062
 30
0.0000000000000000
 11
384.4074695709016
 21
347.4997958835068
 31
0.0000000000000000
  0
LINE
  5
F5
100
AcDbEntity
  8
MAIN0
  6
PHANTOM
 62
3
100
AcDbLine
 10
389.3149468591511
 20
349.9406065055888
 30
0.0000000000000000
 11
389.3149468591515
 21
347.4589852614238
 31
0.0000000000000000
  0
LINE
  5
F6
100
AcDbEntity
  8
MAIN0
  6
PHANTOM
 62
3
100
AcDbLine
 10
370.9999922817115
 20
350.6997958835062
 30
0.0000000000000000
 11
387.9999922840285
 21
350.6997958835062
 31
0.0000000000000000
  0
LINE
  5
F7
100
AcDbEntity
  8
MAIN0
  6
PHANTOM
 62
3
100
AcDbLine
 10
387.9999922840285
 20
350.6997958835061
 30
0.0000000000000000
 11
389.3149468591510
 21
349.9406065055889
 31
0.0000000000000000
  0
LINE
  5
F8
100
AcDbEntity
  8
MAIN0
  6
PHANTOM
 62
3
100
AcDbLine
 10
374.5925149948395
 20
349.8997958835063
 30
0.0000000000000000
 11
374.5925149948382
 21
347.4997958835068
 31
0.0000000000000000
  0
ARC
  5
F9
100
AcDbEntity
  8
MAIN0
  6
PHANTOM
 62
3
100
AcDbCircle
 10
379.4999922828698
 20
335.2477125506730
 30
0.0000000000000000
 40
15.45208333283322
100
AcDbArc
 50
71.48256317677496
 51
108.5174368232250
  0
ARC
  5
FA
100
AcDbEntity
  8
MAIN0
  6
PHANTOM
 62
3
100
AcDbCircle
 10
389.4395109264595
 20
335.7690294571605
 30
0.0000000000000000
 40
15.00000000000000
100
AcDbArc
 50
95.50703149208238
 51
109.6010858781950
  0
LINE
  5
FB
100
AcDbEntity
  8
MAIN0
  6
PHANTOM
 62
3
100
AcDbLine
 10
370.9999922817114
 20
350.6997958835062
 30
0.0000000000000000
 11
369.6850377065889
 21
349.9406065055889
 31
0.0000000000000000
  0
ARC
  5
FC
100
AcDbEntity
  8
MAIN0
  6
PHANTOM
 62
3
100
AcDbCircle
 10
369.5604736392803
 20
335.7690294571605
 30
0.0000000000000000
 40
15.00000000000000
100
AcDbArc
 50
70.39891412180502
 51
84.49296850791762
  0
LINE
  5
FD
100
AcDbEntity
  8
MAIN0
  6
PHANTOM
 62
3
100
AcDbLine
 10
369.6850377065887
 20
349.9406065055890
 30
0.0000000000000000
 11
369.6850377065883
 21
347.4589852614240
 31
0.0000000000000000
  0
LINE
  5
FE
100
AcDbEntity
  8
MAIN0
  6
PHANTOM
 62
3
100
AcDbLine
 10
370.9999922817113
 20
346.6997958835063
 30
0.0000000000000000
 11
369.6850377065888
 21
347.4589852614236
 31
0.0000000000000000
  0
ARC
  5
FF
100
AcDbEntity
  8
MAIN0
  6
PHANTOM
 62
3
100
AcDbCircle
 10
369.5604736392803
 20
361.6305623098521
 30
0.0000000000000000
 40
15.00000000000000
100
AcDbArc
 50
275.5070314920824
 51
289.6010858781950
  0
ARC
  5
100
100
AcDbEntity
  8
MAIN0
  6
PHANTOM
 62
3
100
AcDbCircle
 10
379.4999922828698
 20
362.1518792163395
 30
0.0000000000000000
 40
15.45208333283322
100
AcDbArc
 50
251.4825631767750
 51
288.5174368232251
  0
ARC
  5
101
100
AcDbEntity
  8
MAIN0
  6
PHANTOM
 62
3
100
AcDbCircle
 10
389.4395109264595
 20
361.6305623098520
 30
0.0000000000000000
 40
15.00000000000000
100
AcDbArc
 50
250.3989141218050
 51
264.4929685079176
  0
LINE
  5
102
100
AcDbEntity
  8
MAIN0
  6
PHANTOM
 62
3
100
AcDbLine
 10
387.9999922840285
 20
346.6997958835064
 30
0.0000000000000000
 11
389.3149468591510
 21
347.4589852614237
 31
0.0000000000000000
  0
LINE
  5
103
100
AcDbEntity
  8
MAIN0
  6
PHANTOM
 62
3
100
AcDbLine
 10
374.4999922828546
 20
367.4997958835063
 30
0.0000000000000000
 11
384.4999922828237
 21
367.4997958835063
 31
0.0000000000000000
  0
LINE
  5
104
100
AcDbEntity
  8
MAIN0
  6
PHANTOM
 62
3
100
AcDbLine
 10
369.4999922828699
 20
346.6997958835062
 30
0.0000000000000000
 11
389.4999922828699
 21
346.6997958835062
 31
0.0000000000000000
  0
LINE
  5
105
100
AcDbEntity
  8
MAIN0
  6
PHANTOM
 62
3
100
AcDbLine
 10
389.4999922828699
 20
346.6997958835062
 30
0.0000000000000000
 11
389.4999922828699
 21
345.6997958835062
 31
0.0000000000000000
  0
LINE
  5
106
100
AcDbEntity
  8
MAIN0
  6
PHANTOM
 62
3
100
AcDbLine
 10
369.4999922828699
 20
346.6997958835062
 30
0.0000000000000000
 11
369.4999922828699
 21
345.6997958835062
 31
0.0000000000000000
  0
LINE
  5
107
100
AcDbEntity
  8
MAIN0
  6
PHANTOM
 62
3
100
AcDbLine
 10
373.4999922828699
 20
366.4997958835063
 30
0.0000000000000000
 11
385.4999922828700
 21
366.4997958835063
 31
0.0000000000000000
  0
LINE
  5
108
100
AcDbEntity
  8
MAIN0
  6
PHANTOM
 62
3
100
AcDbLine
 10
373.4999922828569
 20
366.4997958835063
 30
0.0000000000000000
 11
374.4999922828546
 21
367.4997958835063
 31
0.0000000000000000
  0
LINE
  5
109
100
AcDbEntity
  8
MAIN0
  6
PHANTOM
 62
3
100
AcDbLine
 10
384.4999922828238
 20
367.4997958835063
 30
0.0000000000000000
 11
385.4999922828699
 21
366.4997958834613
 31
0.0000000000000000
  0
LINE
  5
10A
100
AcDbEntity
  8
MAIN0
  6
PHANTOM
 62
3
100
AcDbLine
 10
374.4999922828546
 20
369.4997958835063
 30
0.0000000000000000
 11
384.4999922828237
 21
369.4997958835063
 31
0.0000000000000000
  0
LINE
  5
10B
100
AcDbEntity
  8
MAIN0
  6
PHANTOM
 62
3
100
AcDbLine
 10
384.4999922827989
 20
369.4997958835063
 30
0.0000000000000000
 11
384.4999922827976
 21
367.4997958835062
 31
0.0000000000000000
  0
LINE
  5
10C
100
AcDbEntity
  8
MAIN0
  6
PHANTOM
 62
3
100
AcDbLine
 10
374.4999922828325
 20
369.4997958835064
 30
0.0000000000000000
 11
374.4999922828313
 21
367.4997958835064
 31
0.0000000000000000
  0
LINE
  5
10D
100
AcDbEntity
  8
MAIN0
  6
PHANTOM
 62
3
100
AcDbLine
 10
385.4999922828699
 20
339.2997958835063
 30
0.0000000000000000
 11
385.4999922828699
 21
331.4997958835063
 31
0.0000000000000000
  0
LINE
  5
10E
100
AcDbEntity
  8
MAIN0
  6
PHANTOM
 62
3
100
AcDbLine
 10
385.4999922828699
 20
366.4997958835063
 30
0.0000000000000000
 11
385.4999922828699
 21
350.6997958835062
 31
0.0000000000000000
  0
LINE
  5
10F
100
AcDbEntity
  8
MAIN0
  6
PHANTOM
 62
3
100
AcDbLine
 10
384.9584922828699
 20
339.2997958835063
 30
0.0000000000000000
 11
384.9584922828699
 21
330.9582958835072
 31
0.0000000000000000
  0
LINE
  5
110
100
AcDbEntity
  8
MAIN0
  6
PHANTOM
 62
3
100
AcDbLine
 10
384.9584922828699
 20
367.0412958834605
 30
0.0000000000000000
 11
384.9584922828699
 21
350.6997958835062
 31
0.0000000000000000
  0
LINE
  5
111
100
AcDbEntity
  8
MAIN0
  6
PHANTOM
 62
3
100
AcDbLine
 10
374.0414922828699
 20
339.2997958835063
 30
0.0000000000000000
 11
374.0414922828699
 21
330.9582958835073
 31
0.0000000000000000
  0
LINE
  5
112
100
AcDbEntity
  8
MAIN0
  6
PHANTOM
 62
3
100
AcDbLine
 10
374.0414922828699
 20
367.0412958835206
 30
0.0000000000000000
 11
374.0414922828699
 21
350.6997958835062
 31
0.0000000000000000
  0
LINE
  5
113
100
AcDbEntity
  8
MAIN0
  6
PHANTOM
 62
3
100
AcDbLine
 10
373.4999922828699
 20
339.2997958835063
 30
0.0000000000000000
 11
373.4999922828699
 21
331.4997958835072
 31
0.0000000000000000
  0
LINE
  5
114
100
AcDbEntity
  8
MAIN0
  6
PHANTOM
 62
3
100
AcDbLine
 10
373.4999922828699
 20
366.4997958835063
 30
0.0000000000000000
 11
373.4999922828699
 21
350.6997958835062
 31
0.0000000000000000
  0
LINE
  5
115
100
AcDbEntity
  8
MAIN0
  6
CONTINUOUS
 62
3
100
AcDbLine
 10
314.8999922828701
 20
318.9997958835061
 30
0.0000000000000000
 11
324.4999922828687
 21
318.9997958835061
 31
0.0000000000000000
  0
LINE
  5
116
100
AcDbEntity
  8
MAIN0
  6
CONTINUOUS
 62
3
100
AcDbLine
 10
321.2999922828736
 20
338.9997958835068
 30
0.0000000000000000
 11
321.2999922828709
 21
318.9997958835061
 31
0.0000000000000000
  0
LINE
  5
117
100
AcDbEntity
  8
MAIN0
  6
PHANTOM
 62
3
100
AcDbLine
 10
366.4999922828699
 20
331.4997958835061
 30
0.0000000000000000
 11
370.3922990249349
 21
331.4997958835061
 31
0.0000000000000000
  0
LINE
  5
118
100
AcDbEntity
  8
MAIN0
  6
PHANTOM
 62
3
100
AcDbLine
 10
367.4999922828708
 20
330.4997958835061
 30
0.0000000000000000
 11
366.4999922828699
 21
331.4997958835070
 31
0.0000000000000000
  0
LINE
  5
119
100
AcDbEntity
  8
MAIN0
  6
CONTINUOUS
 62
3
100
AcDbLine
 10
334.0999922828702
 20
331.9997958835062
 30
0.0000000000000000
 11
334.4999922828702
 21
331.5997958835062
 31
0.0000000000000000
  0
LINE
  5
11A
100
AcDbEntity
  8
MAIN0
  6
PHANTOM
 62
3
100
AcDbLine
 10
314.4999922828701
 20
331.5997958835062
 30
0.0000000000000000
 11
314.4999922828701
 21
318.9997958835062
 31
0.0000000000000000
  0
LINE
  5
11B
100
AcDbEntity
  8
MAIN0
  6
PHANTOM
 62
3
100
AcDbLine
 10
314.8999922828701
 20
331.9997958835062
 30
0.0000000000000000
 11
321.2999922828694
 21
331.9997958835062
 31
0.0000000000000000
  0
LINE
  5
11C
100
AcDbEntity
  8
MAIN0
  6
CONTINUOUS
 62
3
100
AcDbLine
 10
321.2999922828694
 20
329.9997958835061
 30
0.0000000000000000
 11
315.8999922828695
 21
329.9997958835061
 31
0.0000000000000000
  0
LINE
  5
11D
100
AcDbEntity
  8
MAIN0
  6
CONTINUOUS
 62
3
100
AcDbLine
 10
315.8999922828694
 20
329.9997958835062
 30
0.0000000000000000
 11
315.2999922828694
 21
328.9605653989648
 31
0.0000000000000000
  0
LINE
  5
11E
100
AcDbEntity
  8
MAIN0
  6
CONTINUOUS
 62
3
100
AcDbLine
 10
315.2999922828694
 20
328.9605653989648
 30
0.0000000000000000
 11
315.2999922828694
 21
321.0390263680475
 31
0.0000000000000000
  0
LINE
  5
11F
100
AcDbEntity
  8
MAIN0
  6
CONTINUOUS
 62
3
100
AcDbLine
 10
315.2999922828695
 20
321.0390263680475
 30
0.0000000000000000
 11
315.8999922828696
 21
319.9997958835062
 31
0.0000000000000000
  0
LINE
  5
120
100
AcDbEntity
  8
MAIN0
  6
CONTINUOUS
 62
3
100
AcDbLine
 10
315.8999922828695
 20
319.9997958835061
 30
0.0000000000000000
 11
321.2999922828694
 21
319.9997958835061
 31
0.0000000000000000
  0
LINE
  5
121
100
AcDbEntity
  8
MAIN0
  6
CONTINUOUS
 62
3
100
AcDbLine
 10
315.8999922828695
 20
329.9997958835061
 30
0.0000000000000000
 11
315.8999922828695
 21
319.9997958835061
 31
0.0000000000000000
  0
LINE
  5
122
100
AcDbEntity
  8
MAIN0
  6
CONTINUOUS
 62
3
100
AcDbLine
 10
321.2999922828694
 20
327.9997958835061
 30
0.0000000000000000
 11
333.2999922828694
 21
327.9997958835061
 31
0.0000000000000000
  0
LINE
  5
123
100
AcDbEntity
  8
MAIN0
  6
CONTINUOUS
 62
3
100
AcDbLine
 10
333.2999922828694
 20
327.9997958835061
 30
0.0000000000000000
 11
333.2999922828694
 21
321.9997958835061
 31
0.0000000000000000
  0
LINE
  5
124
100
AcDbEntity
  8
MAIN0
  6
CONTINUOUS
 62
3
100
AcDbLine
 10
333.2999922828694
 20
321.9997958835061
 30
0.0000000000000000
 11
321.2999922828694
 21
321.9997958835061
 31
0.0000000000000000
  0
LINE
  5
125
100
AcDbEntity
  8
MAIN0
  6
CONTINUOUS
 62
3
100
AcDbLine
 10
321.2999922828694
 20
327.4585298835061
 30
0.0000000000000000
 11
333.2999922828694
 21
327.4585298835061
 31
0.0000000000000000
  0
LINE
  5
126
100
AcDbEntity
  8
MAIN0
  6
CONTINUOUS
 62
3
100
AcDbLine
 10
321.2999922828694
 20
322.5410618835061
 30
0.0000000000000000
 11
333.2999922828694
 21
322.5410618835061
 31
0.0000000000000000
  0
LINE
  5
127
100
AcDbEntity
  8
MAIN0
  6
CONTINUOUS
 62
3
100
AcDbLine
 10
314.8999922828702
 20
318.9997958835062
 30
0.0000000000000000
 11
314.4999922828702
 21
318.5997958835062
 31
0.0000000000000000
  0
LINE
  5
128
100
AcDbEntity
  8
MAIN0
  6
PHANTOM
 62
3
100
AcDbLine
 10
314.8999922828701
 20
331.9997958835062
 30
0.0000000000000000
 11
314.4999922828701
 21
331.5997958835062
 31
0.0000000000000000
  0
LINE
  5
129
100
AcDbEntity
  8
MAIN0
  6
CONTINUOUS
 62
3
100
AcDbLine
 10
324.4999922828737
 20
338.9997958835064
 30
0.0000000000000000
 11
324.4999922828721
 21
327.9997958835061
 31
0.0000000000000000
  0
LINE
  5
12A
100
AcDbEntity
  8
MAIN0
  6
CONTINUOUS
 62
3
100
AcDbLine
 10
352.9999922828677
 20
345.6997958835063
 30
0.0000000000000000
 11
397.4999922828678
 21
345.6997958835063
 31
0.0000000000000000
  0
LINE
  5
12B
100
AcDbEntity
  8
MAIN0
  6
CONTINUOUS
 62
3
100
AcDbLine
 10
397.4999922828678
 20
345.6997958835063
 30
0.0000000000000000
 11
397.4999922828678
 21
342.4997958835063
 31
0.0000000000000000
  0
LINE
  5
12C
100
AcDbEntity
  8
MAIN0
  6
CONTINUOUS
 62
3
100
AcDbLine
 10
392.4999922828677
 20
345.6997958835063
 30
0.0000000000000000
 11
392.4999922828677
 21
342.4997958835064
 31
0.0000000000000000
  0
LINE
  5
12D
100
AcDbEntity
  8
MAIN0
  6
CONTINUOUS
 62
3
100
AcDbLine
 10
352.9999922828677
 20
345.6997958835063
 30
0.0000000000000000
 11
352.9999922828677
 21
342.4997958835063
 31
0.0000000000000000
  0
LINE
  5
12E
100
AcDbEntity
  8
MAIN0
  6
CONTINUOUS
 62
3
100
AcDbLine
 10
357.9999922828677
 20
345.6997958835062
 30
0.0000000000000000
 11
357.9999922828677
 21
342.4997958835062
 31
0.0000000000000000
  0
LINE
  5
12F
100
AcDbEntity
  8
MAIN0
  6
CONTINUOUS
 62
3
100
AcDbLine
 10
409.4999922828700
 20
154.9997958835058
 30
0.0000000000000000
 11
409.4999922828700
 21
151.3997958835060
 31
0.0000000000000000
  0
LINE
  5
130
100
AcDbEntity
  8
MAIN0
  6
HIDDEN
 62
3
100
AcDbLine
 10
314.4999922828701
 20
152.9997958835059
 30
0.0000000000000000
 11
340.5621513250067
 21
152.9997958835059
 31
0.0000000000000000
  0
LINE
  5
131
100
AcDbEntity
  8
MAIN0
  6
CENTER
 62
3
100
AcDbLine
 10
177.5775286713592
 20
179.0947857594982
 30
0.0000000000000000
 11
186.0403007314084
 21
155.8435106185245
 31
0.0000000000000000
  0
LINE
  5
132
100
AcDbEntity
  8
MAIN0
  6
PHANTOM
 62
3
100
AcDbLine
 10
63.99999228286993
 20
247.2530577214071
 30
0.0000000000000000
 11
71.99999228286993
 21
247.0030577214071
 31
0.0000000000000000
  0
LINE
  5
133
100
AcDbEntity
  8
MAIN0
  6
PHANTOM
 62
3
100
AcDbLine
 10
63.99999228286990
 20
237.7465340456049
 30
0.0000000000000000
 11
71.99999228286993
 21
237.9965340456049
 31
0.0000000000000000
  0
LINE
  5
134
100
AcDbEntity
  8
MAIN0
  6
PHANTOM
 62
3
100
AcDbLine
 10
64.99999228286993
 20
235.4997958835059
 30
0.0000000000000000
 11
64.99999228286993
 21
236.7772958835060
 31
0.0000000000000000
  0
LINE
  5
135
100
AcDbEntity
  8
MAIN0
  6
PHANTOM
 62
3
100
AcDbLine
 10
64.99999228286993
 20
248.2222958835060
 30
0.0000000000000000
 11
64.99999228286993
 21
249.4997958835060
 31
0.0000000000000000
  0
LINE
  5
136
100
AcDbEntity
  8
MAIN0
  6
CENTER
 62
3
100
AcDbLine
 10
410.4999922828700
 20
351.1883642871943
 30
0.0000000000000000
 11
410.4999922828700
 21
328.2956368410246
 31
0.0000000000000000
  0
LINE
  5
137
100
AcDbEntity
  8
MAIN0
  6
CENTER
 62
3
100
AcDbLine
 10
341.4999922828699
 20
351.1883642871943
 30
0.0000000000000000
 11
341.4999922828699
 21
328.2956368410244
 31
0.0000000000000000
  0
CIRCLE
  5
138
100
AcDbEntity
  8
MAIN0
  6
CONTINUOUS
 62
3
100
AcDbCircle
 10
154.4999922828701
 20
242.4997958835060
 30
0.0000000000000000
 40
19.50000000000000
  0
LINE
  5
139
100
AcDbEntity
  8
MAIN0
  6
CONTINUOUS
 62
3
100
AcDbLine
 10
375.4999922828699
 20
277.4997958835058
 30
0.0000000000000000
 11
376.4999922828699
 21
278.4997958835058
 31
0.0000000000000000
  0
LINE
  5
13A
100
AcDbEntity
  8
MAIN0
  6
CONTINUOUS
 62
3
100
AcDbLine
 10
512.9226420135558
 20
230.4997958835060
 30
0.0000000000000000
 11
483.4999922828694
 21
230.4997958835060
 31
0.0000000000000000
  0
LINE
  5
13B
100
AcDbEntity
  8
MAIN0
  6
CONTINUOUS
 62
3
100
AcDbLine
 10
483.4999922828694
 20
254.4997958835060
 30
0.0000000000000000
 11
512.9226420135558
 21
254.4997958835060
 31
0.0000000000000000
  0
LINE
  5
13C
100
AcDbEntity
  8
MAIN0
  6
CONTINUOUS
 62
3
100
AcDbLine
 10
512.2009541770710
 20
231.7497958835060
 30
0.0000000000000000
 11
475.8785929695533
 21
231.7497958835060
 31
0.0000000000000000
  0
LINE
  5
13D
100
AcDbEntity
  8
MAIN0
  6
CONTINUOUS
 62
3
100
AcDbLine
 10
476.2370596968212
 20
253.2497958835060
 30
0.0000000000000000
 11
512.2009541772258
 21
253.2497958835060
 31
0.0000000000000000
  0
LINE
  5
13E
100
AcDbEntity
  8
MAIN0
  6
CONTINUOUS
 62
3
100
AcDbLine
 10
334.4999922828701
 20
266.5040464894423
 30
0.0000000000000000
 11
334.4999922828701
 21
278.4997958835058
 31
0.0000000000000000
  0
LINE
  5
13F
100
AcDbEntity
  8
MAIN0
  6
CONTINUOUS
 62
3
100
AcDbLine
 10
334.4999922828701
 20
278.4997958835058
 30
0.0000000000000000
 11
374.0999922828702
 21
278.4997958835058
 31
0.0000000000000000
  0
LINE
  5
140
100
AcDbEntity
  8
MAIN0
  6
CENTER
 62
3
100
AcDbLine
 10
324.4999922828737
 20
150.2997422351079
 30
0.0000000000000000
 11
324.4999922828717
 21
189.5899456788389
 31
0.0000000000000000
  0
LINE
  5
141
100
AcDbEntity
  8
MAIN0
  6
PHANTOM
 62
3
100
AcDbLine
 10
386.4999922828699
 20
172.4997958835060
 30
0.0000000000000000
 11
476.4999922828699
 21
172.4997958835060
 31
0.0000000000000000
  0
LINE
  5
142
100
AcDbEntity
  8
MAIN0
  6
PHANTOM
 62
3
100
AcDbLine
 10
476.4999922828699
 20
172.4997958835060
 30
0.0000000000000000
 11
476.4999922828699
 21
162.4997958835060
 31
0.0000000000000000
  0
LINE
  5
143
100
AcDbEntity
  8
MAIN0
  6
PHANTOM
 62
3
100
AcDbLine
 10
476.4999922828699
 20
162.4997958835060
 30
0.0000000000000000
 11
386.4999922828699
 21
162.4997958835060
 31
0.0000000000000000
  0
LINE
  5
144
100
AcDbEntity
  8
MAIN0
  6
PHANTOM
 62
3
100
AcDbLine
 10
444.4999922828699
 20
171.6878968835060
 30
0.0000000000000000
 11
476.4999922828699
 21
171.6878968835060
 31
0.0000000000000000
  0
LINE
  5
145
100
AcDbEntity
  8
MAIN0
  6
PHANTOM
 62
3
100
AcDbLine
 10
444.4999922828699
 20
163.3116948835060
 30
0.0000000000000000
 11
476.4999922828699
 21
163.3116948835060
 31
0.0000000000000000
  0
LINE
  5
146
100
AcDbEntity
  8
MAIN0
  6
PHANTOM
 62
3
100
AcDbLine
 10
444.4999922828699
 20
172.4997958835060
 30
0.0000000000000000
 11
444.4999922828699
 21
162.4997958835060
 31
0.0000000000000000
  0
LINE
  5
147
100
AcDbEntity
  8
MAIN0
  6
HIDDEN
 62
3
100
AcDbLine
 10
317.9214922828735
 20
152.9997958835060
 30
0.0000000000000000
 11
318.2152422828735
 21
162.3997958835060
 31
0.0000000000000000
  0
LINE
  5
148
100
AcDbEntity
  8
MAIN0
  6
HIDDEN
 62
3
100
AcDbLine
 10
318.2152422828735
 20
162.3997958835059
 30
0.0000000000000000
 11
330.7847422828735
 21
162.3997958835059
 31
0.0000000000000000
  0
LINE
  5
149
100
AcDbEntity
  8
MAIN0
  6
HIDDEN
 62
3
100
AcDbLine
 10
330.7847422828735
 20
162.3997958835059
 30
0.0000000000000000
 11
331.0784922828735
 21
152.9997958835059
 31
0.0000000000000000
  0
LINE
  5
14A
100
AcDbEntity
  8
MAIN0
  6
HIDDEN
 62
3
100
AcDbLine
 10
318.7774922828737
 20
152.9997958835060
 30
0.0000000000000000
 11
319.0712422828736
 21
162.3997958835059
 31
0.0000000000000000
  0
LINE
  5
14B
100
AcDbEntity
  8
MAIN0
  6
HIDDEN
 62
3
100
AcDbLine
 10
330.2224922828735
 20
152.9997958835059
 30
0.0000000000000000
 11
329.9287422828735
 21
162.3997958835059
 31
0.0000000000000000
  0
LINE
  5
14C
100
AcDbEntity
  8
MAIN0
  6
HIDDEN
 62
3
100
AcDbLine
 10
319.0999922828735
 20
162.3997958835059
 30
0.0000000000000000
 11
319.0999922828735
 21
176.2774589999153
 31
0.0000000000000000
  0
LINE
  5
14D
100
AcDbEntity
  8
MAIN0
  6
HIDDEN
 62
3
100
AcDbLine
 10
329.8999922828735
 20
177.3174973936530
 30
0.0000000000000000
 11
329.8999922828735
 21
162.3997958835059
 31
0.0000000000000000
  0
ARC
  5
14E
100
AcDbEntity
  8
MAIN0
  6
HIDDEN
 62
3
100
AcDbCircle
 10
154.4999922828701
 20
242.4997958835060
 30
0.0000000000000000
 40
87.50000000000017
100
AcDbArc
 50
55.94484441583074
 51
78.12645416477500
  0
CIRCLE
  5
14F
100
AcDbEntity
  8
MAIN0
  6
CENTER
 62
3
100
AcDbCircle
 10
154.4999922828701
 20
242.4997958835060
 30
0.0000000000000000
 40
75.00000000000000
  0
LINE
  5
150
100
AcDbEntity
  8
MAIN0
  6
CENTER
 62
3
100
AcDbLine
 10
170.7272499400512
 20
303.0607459290157
 30
0.0000000000000000
 11
177.2426028666199
 21
327.3763740802372
 31
0.0000000000000000
  0
CIRCLE
  5
151
100
AcDbEntity
  8
MAIN0
  6
HIDDEN
 62
3
100
AcDbCircle
 10
173.9114206652064
 20
314.9442328552806
 30
0.0000000000000000
 40
8.000000000000000
  0
LINE
  5
152
100
AcDbEntity
  8
MAIN0
  6
HIDDEN
 62
3
100
AcDbLine
 10
170.6454343414956
 20
318.2102191789915
 30
0.0000000000000000
 11
169.4500003786048
 21
313.7487988923899
 31
0.0000000000000000
  0
LINE
  5
153
100
AcDbEntity
  8
MAIN0
  6
HIDDEN
 62
3
100
AcDbLine
 10
169.4500003786048
 20
313.7487988923899
 30
0.0000000000000000
 11
172.7159867023157
 21
310.4828125686790
 31
0.0000000000000000
  0
LINE
  5
154
100
AcDbEntity
  8
MAIN0
  6
HIDDEN
 62
3
100
AcDbLine
 10
172.7159867023158
 20
310.4828125686790
 30
0.0000000000000000
 11
177.1774069889173
 21
311.6782465315697
 31
0.0000000000000000
  0
LINE
  5
155
100
AcDbEntity
  8
MAIN0
  6
HIDDEN
 62
3
100
AcDbLine
 10
177.1774069889174
 20
311.6782465315697
 30
0.0000000000000000
 11
178.3728409518081
 21
316.1396668181714
 31
0.0000000000000000
  0
LINE
  5
156
100
AcDbEntity
  8
MAIN0
  6
HIDDEN
 62
3
100
AcDbLine
 10
178.3728409518081
 20
316.1396668181714
 30
0.0000000000000000
 11
175.1068546280972
 21
319.4056531418823
 31
0.0000000000000000
  0
LINE
  5
157
100
AcDbEntity
  8
MAIN0
  6
HIDDEN
 62
3
100
AcDbLine
 10
175.1068546280972
 20
319.4056531418822
 30
0.0000000000000000
 11
170.6454343414956
 21
318.2102191789915
 31
0.0000000000000000
  0
LINE
  5
158
100
AcDbEntity
  8
MAIN0
  6
CENTER
 62
3
100
AcDbLine
 10
110.1662998947289
 20
286.8334882711353
 30
0.0000000000000000
 11
92.36602467007936
 21
304.6337634957758
 31
0.0000000000000000
  0
CIRCLE
  5
159
100
AcDbEntity
  8
MAIN0
  6
HIDDEN
 62
3
100
AcDbCircle
 10
101.4669836936209
 20
295.5328044722389
 30
0.0000000000000000
 40
8.000000000000000
  0
LINE
  5
15A
100
AcDbEntity
  8
MAIN0
  6
HIDDEN
 62
3
100
AcDbLine
 10
97.00556340701922
 20
294.3373705093482
 30
0.0000000000000000
 11
100.2715497307301
 21
291.0713841856373
 31
0.0000000000000000
  0
LINE
  5
15B
100
AcDbEntity
  8
MAIN0
  6
HIDDEN
 62
3
100
AcDbLine
 10
100.2715497307301
 20
291.0713841856372
 30
0.0000000000000000
 11
104.7329700173318
 21
292.2668181485280
 31
0.0000000000000000
  0
LINE
  5
15C
100
AcDbEntity
  8
MAIN0
  6
HIDDEN
 62
3
100
AcDbLine
 10
104.7329700173317
 20
292.2668181485280
 30
0.0000000000000000
 11
105.9284039802224
 21
296.7282384351296
 31
0.0000000000000000
  0
LINE
  5
15D
100
AcDbEntity
  8
MAIN0
  6
HIDDEN
 62
3
100
AcDbLine
 10
105.9284039802225
 20
296.7282384351296
 30
0.0000000000000000
 11
102.6624176565116
 21
299.9942247588405
 31
0.0000000000000000
  0
LINE
  5
15E
100
AcDbEntity
  8
MAIN0
  6
HIDDEN
 62
3
100
AcDbLine
 10
102.6624176565116
 20
299.9942247588405
 30
0.0000000000000000
 11
98.20099736990994
 21
298.7987907959498
 31
0.0000000000000000
  0
LINE
  5
15F
100
AcDbEntity
  8
MAIN0
  6
HIDDEN
 62
3
100
AcDbLine
 10
98.20099736990989
 20
298.7987907959498
 30
0.0000000000000000
 11
97.00556340701914
 21
294.3373705093482
 31
0.0000000000000000
  0
LINE
  5
160
100
AcDbEntity
  8
MAIN0
  6
CENTER
 62
3
100
AcDbLine
 10
93.93904223754780
 20
226.2725382256255
 30
0.0000000000000000
 11
69.62341408632955
 21
219.7571852990446
 31
0.0000000000000000
  0
LINE
  5
161
100
AcDbEntity
  8
MAIN0
  6
HIDDEN
 62
3
100
AcDbLine
 10
80.86012134839376
 20
218.6269472138626
 30
0.0000000000000000
 11
85.32154163499541
 21
219.8223811767533
 31
0.0000000000000000
  0
LINE
  5
162
100
AcDbEntity
  8
MAIN0
  6
HIDDEN
 62
3
100
AcDbLine
 10
85.32154163499538
 20
219.8223811767533
 30
0.0000000000000000
 11
86.51697559788613
 21
224.2838014633550
 31
0.0000000000000000
  0
LINE
  5
163
100
AcDbEntity
  8
MAIN0
  6
HIDDEN
 62
3
100
AcDbLine
 10
86.51697559788613
 20
224.2838014633549
 30
0.0000000000000000
 11
83.25098927417520
 21
227.5497877870658
 31
0.0000000000000000
  0
LINE
  5
164
100
AcDbEntity
  8
MAIN0
  6
HIDDEN
 62
3
100
AcDbLine
 10
83.25098927417523
 20
227.5497877870659
 30
0.0000000000000000
 11
78.78956898757360
 21
226.3543538241751
 31
0.0000000000000000
  0
LINE
  5
165
100
AcDbEntity
  8
MAIN0
  6
HIDDEN
 62
3
100
AcDbLine
 10
78.78956898757357
 20
226.3543538241752
 30
0.0000000000000000
 11
77.59413502468283
 21
221.8929335375735
 31
0.0000000000000000
  0
LINE
  5
166
100
AcDbEntity
  8
MAIN0
  6
HIDDEN
 62
3
100
AcDbLine
 10
77.59413502468280
 20
221.8929335375735
 30
0.0000000000000000
 11
80.86012134839370
 21
218.6269472138626
 31
0.0000000000000000
  0
LINE
  5
167
100
AcDbEntity
  8
MAIN0
  6
CENTER
 62
3
100
AcDbLine
 10
138.2727346256891
 20
181.9388458379963
 30
0.0000000000000000
 11
131.7573816991203
 21
157.6232176867748
 31
0.0000000000000000
  0
CIRCLE
  5
168
100
AcDbEntity
  8
MAIN0
  6
HIDDEN
 62
3
100
AcDbCircle
 10
135.0885639005337
 20
170.0553589117313
 30
0.0000000000000000
 40
8.000000000000000
  0
LINE
  5
169
100
AcDbEntity
  8
MAIN0
  6
HIDDEN
 62
3
100
AcDbLine
 10
138.3545502242447
 20
166.7893725880205
 30
0.0000000000000000
 11
139.5499841871354
 21
171.2507928746221
 31
0.0000000000000000
  0
LINE
  5
16A
100
AcDbEntity
  8
MAIN0
  6
HIDDEN
 62
3
100
AcDbLine
 10
139.5499841871354
 20
171.2507928746221
 30
0.0000000000000000
 11
136.2839978634245
 21
174.5167791983330
 31
0.0000000000000000
  0
LINE
  5
16B
100
AcDbEntity
  8
MAIN0
  6
HIDDEN
 62
3
100
AcDbLine
 10
136.2839978634245
 20
174.5167791983330
 30
0.0000000000000000
 11
131.8225775768229
 21
173.3213452354423
 31
0.0000000000000000
  0
LINE
  5
16C
100
AcDbEntity
  8
MAIN0
  6
HIDDEN
 62
3
100
AcDbLine
 10
131.8225775768229
 20
173.3213452354423
 30
0.0000000000000000
 11
130.6271436139321
 21
168.8599249488407
 31
0.0000000000000000
  0
LINE
  5
16D
100
AcDbEntity
  8
MAIN0
  6
HIDDEN
 62
3
100
AcDbLine
 10
130.6271436139321
 20
168.8599249488406
 30
0.0000000000000000
 11
133.8931299376430
 21
165.5939386251297
 31
0.0000000000000000
  0
LINE
  5
16E
100
AcDbEntity
  8
MAIN0
  6
HIDDEN
 62
3
100
AcDbLine
 10
133.8931299376430
 20
165.5939386251297
 30
0.0000000000000000
 11
138.3545502242446
 21
166.7893725880205
 31
0.0000000000000000
  0
CIRCLE
  5
16F
100
AcDbEntity
  8
MAIN0
  6
HIDDEN
 62
3
100
AcDbCircle
 10
207.5330008718658
 20
189.4667872945195
 30
0.0000000000000000
 40
8.000000000000000
  0
LINE
  5
170
100
AcDbEntity
  8
MAIN0
  6
HIDDEN
 62
3
100
AcDbLine
 10
211.9944211584675
 20
190.6622212574103
 30
0.0000000000000000
 11
208.7284348347565
 21
193.9282075811212
 31
0.0000000000000000
  0
LINE
  5
171
100
AcDbEntity
  8
MAIN0
  6
HIDDEN
 62
3
100
AcDbLine
 10
208.7284348347565
 20
193.9282075811212
 30
0.0000000000000000
 11
204.2670145481549
 21
192.7327736182304
 31
0.0000000000000000
  0
LINE
  5
172
100
AcDbEntity
  8
MAIN0
  6
HIDDEN
 62
3
100
AcDbLine
 10
204.2670145481549
 20
192.7327736182305
 30
0.0000000000000000
 11
203.0715805852641
 21
188.2713533316288
 31
0.0000000000000000
  0
LINE
  5
173
100
AcDbEntity
  8
MAIN0
  6
HIDDEN
 62
3
100
AcDbLine
 10
203.0715805852642
 20
188.2713533316288
 30
0.0000000000000000
 11
206.3375669089751
 21
185.0053670079179
 31
0.0000000000000000
  0
LINE
  5
174
100
AcDbEntity
  8
MAIN0
  6
HIDDEN
 62
3
100
AcDbLine
 10
206.3375669089751
 20
185.0053670079179
 30
0.0000000000000000
 11
210.7989871955767
 21
186.2008009708086
 31
0.0000000000000000
  0
LINE
  5
175
100
AcDbEntity
  8
MAIN0
  6
HIDDEN
 62
3
100
AcDbLine
 10
210.7989871955767
 20
186.2008009708086
 30
0.0000000000000000
 11
211.9944211584674
 21
190.6622212574103
 31
0.0000000000000000
  0
LINE
  5
176
100
AcDbEntity
  8
MAIN0
  6
CENTER
 62
3
100
AcDbLine
 10
97.67693286927440
 20
216.0027681187503
 30
0.0000000000000000
 11
74.86209290915045
 21
205.3640335257568
 31
0.0000000000000000
  0
CIRCLE
  5
177
100
AcDbEntity
  8
MAIN0
  6
CONTINUOUS
 62
3
100
AcDbCircle
 10
86.52690825527569
 20
210.8034262526226
 30
0.0000000000000000
 40
8.500000000000000
  0
CIRCLE
  5
178
100
AcDbEntity
  8
MAIN0
  6
CONTINUOUS
 62
3
100
AcDbCircle
 10
222.4730763104645
 20
274.1961655143894
 30
0.0000000000000000
 40
8.500000000000000
  0
LINE
  5
179
100
AcDbEntity
  8
MAIN0
  6
CENTER
 62
3
100
AcDbLine
 10
211.3230516964660
 20
268.9968236482616
 30
0.0000000000000000
 11
234.1378916565899
 21
279.6355582412551
 31
0.0000000000000000
  0
ARC
  5
17A
100
AcDbEntity
  8
MAIN0
  6
HIDDEN
 62
3
100
AcDbCircle
 10
82.05555531128448
 20
223.0883675004642
 30
0.0000000000000000
 40
8.000000000000000
100
AcDbArc
 50
328.9546163149685
 51
611.0453836855895
  0
ARC
  5
17B
100
AcDbEntity
  8
MAIN0
  6
CONTINUOUS
 62
3
100
AcDbCircle
 10
82.05555531128448
 20
223.0883675004642
 30
0.0000000000000000
 40
8.000000000000000
100
AcDbArc
 50
251.0453836855896
 51
328.9546163149685
  0
LINE
  5
17C
100
AcDbEntity
  8
MAIN0
  6
HIDDEN
 62
3
100
AcDbLine
 10
65.41613561660225
 20
235.9343003626851
 30
0.0000000000000000
 11
74.39999228286990
 21
236.2150458835060
 31
0.0000000000000000
  0
LINE
  5
17D
100
AcDbEntity
  8
MAIN0
  6
HIDDEN
 62
3
100
AcDbLine
 10
74.39999228286996
 20
236.2150458835060
 30
0.0000000000000000
 11
74.39999228286996
 21
248.7845458835060
 31
0.0000000000000000
  0
LINE
  5
17E
100
AcDbEntity
  8
MAIN0
  6
HIDDEN
 62
3
100
AcDbLine
 10
74.39999228286996
 20
248.7845458835060
 30
0.0000000000000000
 11
65.41613561660157
 21
249.0652914043268
 31
0.0000000000000000
  0
LINE
  5
17F
100
AcDbEntity
  8
MAIN0
  6
HIDDEN
 62
3
100
AcDbLine
 10
65.31473840977623
 20
236.7871316999718
 30
0.0000000000000000
 11
74.39999228286985
 21
237.0710458835060
 31
0.0000000000000000
  0
LINE
  5
180
100
AcDbEntity
  8
MAIN0
  6
HIDDEN
 62
3
100
AcDbLine
 10
65.31473840977566
 20
248.2124600670402
 30
0.0000000000000000
 11
74.39999228286999
 21
247.9285458835060
 31
0.0000000000000000
  0
LINE
  5
181
100
AcDbEntity
  8
MAIN0
  6
HIDDEN
 62
3
100
AcDbLine
 10
74.39999228286996
 20
237.0997958835060
 30
0.0000000000000000
 11
125.4999922828701
 21
237.0997958835060
 31
0.0000000000000000
  0
LINE
  5
182
100
AcDbEntity
  8
MAIN0
  6
HIDDEN
 62
3
100
AcDbLine
 10
125.4999922828701
 20
237.0997958835060
 30
0.0000000000000000
 11
125.4999922828701
 21
247.8997958835060
 31
0.0000000000000000
  0
LINE
  5
183
100
AcDbEntity
  8
MAIN0
  6
HIDDEN
 62
3
100
AcDbLine
 10
125.4999922828696
 20
247.8997958835060
 30
0.0000000000000000
 11
74.39999228286999
 21
247.8997958835060
 31
0.0000000000000000
  0
LINE
  5
184
100
AcDbEntity
  8
MAIN0
  6
CENTER
 62
3
100
AcDbLine
 10
162.4999922828667
 20
331.5498913765736
 30
0.0000000000000000
 11
162.4999922828673
 21
318.4607124436184
 31
0.0000000000000000
  0
LINE
  5
185
100
AcDbEntity
  8
MAIN0
  6
CENTER
 62
3
100
AcDbLine
 10
146.4999922828666
 20
331.7267728340341
 30
0.0000000000000000
 11
146.4999922828672
 21
317.4436482803862
 31
0.0000000000000000
  0
MTEXT
  5
186
100
AcDbEntity
  8
MAIN0
  6
CONTINUOUS
 62
3
100
AcDbMText
 10
71.16511205682627
 20
244.7826458795383
 30
0.0000000000000000
 40
5.000000000000000
 41
0.0000000000000000
 71
     1
 72
     1
  1
{\H0.84x;{Ａ}}
 11
-1.836970198721030e-016
 21
-1.000000000000000
 31
0.0000000000000000
  7
KNJYOKO
  0
MTEXT
  5
187
100
AcDbEntity
  8
MAIN0
  6
CONTINUOUS
 62
3
100
AcDbMText
 10
150.6228916520042
 20
158.5175430714803
 30
0.0000000000000000
 40
5.000000000000000
 41
0.0000000000000000
 71
     1
 72
     1
  1
{\H0.84x;{Ｄ}}
 11
1.000000000000000
 21
0.0000000000000000
 31
0.0000000000000000
  7
KNJYOKO
  0
MTEXT
  5
188
100
AcDbEntity
  8
MAIN0
  6
CONTINUOUS
 62
3
100
AcDbMText
 10
154.6228916520042
 20
158.5175430714803
 30
0.0000000000000000
 40
5.000000000000000
 41
0.0000000000000000
 71
     1
 72
     1
  1
{\H0.84x;{ｒ}}
 11
1.000000000000000
 21
0.0000000000000000
 31
0.0000000000000000
  7
KNJYOKO
  0
LINE
  5
189
100
AcDbEntity
  8
MAIN0
  6
CENTER
 62
3
100
AcDbLine
 10
120.6312284607098
 20
149.4461320571645
 30
0.0000000000000000
 11
126.3433793704982
 21
165.1401376983505
 31
0.0000000000000000
  0
LINE
  5
18A
100
AcDbEntity
  8
MAIN0
  6
HIDDEN
 62
3
100
AcDbLine
 10
243.5838489491382
 20
235.9343003626851
 30
0.0000000000000000
 11
234.5999922828706
 21
236.2150458835052
 31
0.0000000000000000
  0
LINE
  5
18B
100
AcDbEntity
  8
MAIN0
  6
HIDDEN
 62
3
100
AcDbLine
 10
234.5999922828707
 20
236.2150458835052
 30
0.0000000000000000
 11
234.5999922828697
 21
248.7845458835052
 31
0.0000000000000000
  0
LINE
  5
18C
100
AcDbEntity
  8
MAIN0
  6
HIDDEN
 62
3
100
AcDbLine
 10
234.5999922828695
 20
248.7845458835052
 30
0.0000000000000000
 11
243.5838489491382
 21
249.0652914043268
 31
0.0000000000000000
  0
LINE
  5
18D
100
AcDbEntity
  8
MAIN0
  6
HIDDEN
 62
3
100
AcDbLine
 10
243.6852461559641
 20
236.7871316999718
 30
0.0000000000000000
 11
234.5999922828706
 21
237.0710458835052
 31
0.0000000000000000
  0
LINE
  5
18E
100
AcDbEntity
  8
MAIN0
  6
HIDDEN
 62
3
100
AcDbLine
 10
243.6852461559642
 20
248.2124600670402
 30
0.0000000000000000
 11
234.5999922828697
 21
247.9285458835052
 31
0.0000000000000000
  0
LINE
  5
18F
100
AcDbEntity
  8
MAIN0
  6
HIDDEN
 62
3
100
AcDbLine
 10
234.5999922828707
 20
237.0997958835083
 30
0.0000000000000000
 11
183.4999922828706
 21
237.0997958835040
 31
0.0000000000000000
  0
LINE
  5
190
100
AcDbEntity
  8
MAIN0
  6
HIDDEN
 62
3
100
AcDbLine
 10
183.4999922828706
 20
237.0997958835048
 30
0.0000000000000000
 11
183.4999922828697
 21
247.8997958835048
 31
0.0000000000000000
  0
LINE
  5
191
100
AcDbEntity
  8
MAIN0
  6
HIDDEN
 62
3
100
AcDbLine
 10
183.4999922828696
 20
247.8997958835041
 30
0.0000000000000000
 11
234.5999922828698
 21
247.8997958835084
 31
0.0000000000000000
  0
LINE
  5
192
100
AcDbEntity
  8
MAIN0
  6
HIDDEN
 62
3
100
AcDbLine
 10
183.4999922828706
 20
237.0997958835048
 30
0.0000000000000000
 11
181.9233010032378
 21
239.8307052876791
 31
0.0000000000000000
  0
LINE
  5
193
100
AcDbEntity
  8
MAIN0
  6
HIDDEN
 62
3
100
AcDbLine
 10
181.9233010032392
 20
245.1688864793337
 30
0.0000000000000000
 11
183.4999922828696
 21
247.8997958835048
 31
0.0000000000000000
  0
MTEXT
  5
194
100
AcDbEntity
  8
MAIN0
  6
CONTINUOUS
 62
3
100
AcDbMText
 10
237.8750494914785
 20
240.2684672265531
 30
0.0000000000000000
 40
5.000000000000000
 41
0.0000000000000000
 71
     1
 72
     1
  1
{\H0.84x;{Ｂ}}
 11
6.123233995736766e-017
 21
1.000000000000000
 31
0.0000000000000000
  7
KNJYOKO
  0
MTEXT
  5
195
100
AcDbEntity
  8
MAIN0
  6
CONTINUOUS
 62
3
100
AcDbMText
 10
49.99449826669149
 20
247.8388215334808
 30
0.0000000000000000
 40
4.000000000000000
 41
0.0000000000000000
 71
     1
 72
     1
  1
{\H0.81x;{A}}
 11
1.000000000000000
 21
0.0000000000000000
 31
0.0000000000000000
  7
STANDARD
  0
MTEXT
  5
196
100
AcDbEntity
  8
MAIN0
  6
CONTINUOUS
 62
3
100
AcDbMText
 10
144.7601373441538
 20
142.2308560410336
 30
0.0000000000000000
 40
4.000000000000000
 41
0.0000000000000000
 71
     1
 72
     1
  1
{\H0.88x;{Dr}}
 11
1.000000000000000
 21
0.0000000000000000
 31
0.0000000000000000
  7
STANDARD
  0
MTEXT
  5
197
100
AcDbEntity
  8
MAIN0
  6
CONTINUOUS
 62
3
100
AcDbMText
 10
254.2159337088588
 20
248.2627410123286
 30
0.0000000000000000
 40
4.000000000000000
 41
0.0000000000000000
 71
     1
 72
     1
  1
{\H0.81x;{B}}
 11
1.000000000000000
 21
0.0000000000000000
 31
0.0000000000000000
  7
STANDARD
  0
LINE
  5
198
100
AcDbEntity
  8
MAIN0
  6
CENTER
 62
3
100
AcDbLine
 10
134.7733254978830
 20
324.9997958835059
 30
0.0000000000000000
 11
174.2849371478346
 21
324.9997958835059
 31
0.0000000000000000
  0
LINE
  5
199
100
AcDbEntity
  8
MAIN0
  6
CONTINUOUS
 62
3
100
AcDbLine
 10
86.08741120306434
 20
302.0735421984607
 30
0.0000000000000000
 11
94.92624596789162
 21
310.9123769632971
 31
0.0000000000000000
  0
LINE
  5
19A
100
AcDbEntity
  8
MAIN0
  6
CONTINUOUS
 62
3
100
AcDbLine
 10
129.4202481918428
 20
155.3199878065871
 30
0.0000000000000000
 11
117.6740904320166
 21
159.5952395981519
 31
0.0000000000000000
  0
LINE
  5
19B
100
AcDbEntity
  8
MAIN0
  6
CONTINUOUS
 62
3
100
AcDbLine
 10
214.0737385981215
 20
310.9123769630149
 30
0.0000000000000000
 11
222.9125733629580
 21
302.0735421981878
 31
0.0000000000000000
  0
ARC
  5
19C
100
AcDbEntity
  8
MAIN0
  6
CENTER
 62
3
100
AcDbCircle
 10
154.4999922828701
 20
242.4997958835060
 30
0.0000000000000000
 40
31.50000000000000
100
AcDbArc
 50
323.5580371514689
 51
349.7128422633253
  0
ARC
  5
19D
100
AcDbEntity
  8
MAIN0
  6
CENTER
 62
3
100
AcDbCircle
 10
154.4999922828701
 20
242.4997958835060
 30
0.0000000000000000
 40
31.50000000000000
100
AcDbArc
 50
233.3979261393764
 51
262.9024233382525
  0
ARC
  5
19E
100
AcDbEntity
  8
MAIN0
  6
CENTER
 62
3
100
AcDbCircle
 10
154.4999922828701
 20
242.4997958835060
 30
0.0000000000000000
 40
31.50000000000000
100
AcDbArc
 50
52.83055480326748
 51
81.83476640732306
  0
ARC
  5
19F
100
AcDbEntity
  8
MAIN0
  6
CENTER
 62
3
100
AcDbCircle
 10
154.4999922828701
 20
242.4997958835060
 30
0.0000000000000000
 40
31.50000000000000
100
AcDbArc
 50
141.8765199234130
 51
171.2831241414582
  0
CIRCLE
  5
1A0
100
AcDbEntity
  8
MAIN0
  6
HIDDEN
 62
3
100
AcDbCircle
 10
183.4999922828701
 20
242.4997958835060
 30
0.0000000000000000
 40
3.100000000000000
  0
CIRCLE
  5
1A1
100
AcDbEntity
  8
MAIN0
  6
HIDDEN
 62
3
100
AcDbCircle
 10
183.4999922828701
 20
242.4997958835060
 30
0.0000000000000000
 40
5.000000000000000
  0
CIRCLE
  5
1A2
100
AcDbEntity
  8
MAIN0
  6
HIDDEN
 62
3
100
AcDbCircle
 10
154.4999922828702
 20
213.4997958835060
 30
0.0000000000000000
 40
3.100000000000000
  0
CIRCLE
  5
1A3
100
AcDbEntity
  8
MAIN0
  6
HIDDEN
 62
3
100
AcDbCircle
 10
154.4999922828702
 20
213.4997958835060
 30
0.0000000000000000
 40
5.000000000000000
  0
LINE
  5
1A4
100
AcDbEntity
  8
MAIN0
  6
HIDDEN
 62
3
100
AcDbLine
 10
157.1690828786965
 20
215.0764871631393
 30
0.0000000000000000
 11
159.8999922828726
 21
213.4997958835060
 31
0.0000000000000000
  0
LINE
  5
1A5
100
AcDbEntity
  8
MAIN0
  6
HIDDEN
 62
3
100
AcDbLine
 10
149.0999922828725
 20
213.4997958835050
 30
0.0000000000000000
 11
151.8309016870412
 21
215.0764871631346
 31
0.0000000000000000
  0
CIRCLE
  5
1A6
100
AcDbEntity
  8
MAIN0
  6
HIDDEN
 62
3
100
AcDbCircle
 10
125.4999922828701
 20
242.4997958835060
 30
0.0000000000000000
 40
3.100000000000000
  0
CIRCLE
  5
1A7
100
AcDbEntity
  8
MAIN0
  6
HIDDEN
 62
3
100
AcDbCircle
 10
125.4999922828701
 20
242.4997958835060
 30
0.0000000000000000
 40
5.000000000000000
  0
LINE
  5
1A8
100
AcDbEntity
  8
MAIN0
  6
HIDDEN
 62
3
100
AcDbLine
 10
127.0766835625012
 20
239.8307052876783
 30
0.0000000000000000
 11
125.4999922828707
 21
237.0997958835071
 31
0.0000000000000000
  0
LINE
  5
1A9
100
AcDbEntity
  8
MAIN0
  6
HIDDEN
 62
3
100
AcDbLine
 10
125.4999922828696
 20
247.8997958835071
 30
0.0000000000000000
 11
127.0766835625024
 21
245.1688864793328
 31
0.0000000000000000
  0
ARC
  5
1AA
100
AcDbEntity
  8
MAIN0
  6
CENTER
 62
3
100
AcDbCircle
 10
154.4999922828701
 20
242.4997958835060
 30
0.0000000000000000
 40
29.00000000000000
100
AcDbArc
 50
346.6277526519326
 51
370.7857646382471
  0
ARC
  5
1AB
100
AcDbEntity
  8
MAIN0
  6
CENTER
 62
3
100
AcDbCircle
 10
154.4999922828701
 20
242.4997958835060
 30
0.0000000000000000
 40
29.00000000000000
100
AcDbArc
 50
256.1831449408456
 51
285.5779229292725
  0
ARC
  5
1AC
100
AcDbEntity
  8
MAIN0
  6
CENTER
 62
3
100
AcDbCircle
 10
154.4999922828701
 20
242.4997958835060
 30
0.0000000000000000
 40
29.00000000000000
100
AcDbArc
 50
166.6824044398644
 51
191.6828824953155
  0
LINE
  5
1AD
100
AcDbEntity
  8
MAIN0
  6
CONTINUOUS
 62
3
100
AcDbLine
 10
108.0457136855225
 20
318.9997958835060
 30
0.0000000000000000
 11
200.9542708802177
 21
318.9997958835060
 31
0.0000000000000000
  0
LINE
  5
1AE
100
AcDbEntity
  8
MAIN0
  6
CENTER
 62
3
100
AcDbLine
 10
187.5895694467476
 20
319.9605991019581
 30
0.0000000000000000
 11
206.9538359777171
 21
361.4874026880298
 31
0.0000000000000000
  0
LINE
  5
1AF
100
AcDbEntity
  8
MAIN0
  6
PHANTOM
 62
3
100
AcDbLine
 10
204.9249821409087
 20
333.6017974080455
 30
0.0000000000000000
 11
204.5023638791664
 21
332.6954896210096
 31
0.0000000000000000
  0
LINE
  5
1B0
100
AcDbEntity
  8
MAIN0
  6
CONTINUOUS
 62
3
100
AcDbLine
 10
186.8475841108931
 20
342.0313982393986
 30
0.0000000000000000
 11
186.4249658491522
 21
341.1250904523621
 31
0.0000000000000000
  0
LINE
  5
1B1
100
AcDbEntity
  8
MAIN0
  6
PHANTOM
 62
3
100
AcDbLine
 10
186.7988264001904
 20
342.0541626428911
 30
0.0000000000000000
 11
204.9249821409087
 21
333.6017974080455
 31
0.0000000000000000
  0
LINE
  5
1B2
100
AcDbEntity
  8
MAIN0
  6
PHANTOM
 62
3
100
AcDbLine
 10
189.5594258771889
 20
344.2976833061769
 30
0.0000000000000000
 11
188.2070474396781
 21
341.3974983877999
 31
0.0000000000000000
  0
ARC
  5
1B3
100
AcDbEntity
  8
MAIN0
  6
PHANTOM
 62
3
100
AcDbCircle
 10
188.8093173072549
 20
332.6327135584644
 30
0.0000000000000000
 40
11.68906249798220
100
AcDbArc
 50
43.67930340697411
 51
86.32069659283603
  0
LINE
  5
1B4
100
AcDbEntity
  8
MAIN0
  6
PHANTOM
 62
3
100
AcDbLine
 10
197.2630420669944
 20
340.7054280813682
 30
0.0000000000000000
 11
195.9106636294834
 21
337.8052431629906
 31
0.0000000000000000
  0
LINE
  5
1B5
100
AcDbEntity
  8
MAIN0
  6
PHANTOM
 62
3
100
AcDbLine
 10
193.7493285815602
 20
343.2266019235376
 30
0.0000000000000000
 11
201.4529447713619
 21
339.6343466987226
 31
0.0000000000000000
  0
LINE
  5
1B6
100
AcDbEntity
  8
MAIN0
  6
PHANTOM
 62
3
100
AcDbLine
 10
204.9666582567996
 20
337.1131728565588
 30
0.0000000000000000
 11
203.6142798192885
 21
334.2129879381812
 31
0.0000000000000000
  0
ARC
  5
1B7
100
AcDbEntity
  8
MAIN0
  6
PHANTOM
 62
3
100
AcDbCircle
 10
196.5129334970595
 20
329.0404583336558
 30
0.0000000000000000
 40
11.68906249798220
100
AcDbArc
 50
43.67930340696933
 51
86.32069659283125
  0
LINE
  5
1B8
100
AcDbEntity
  8
MAIN0
  6
PHANTOM
 62
3
100
AcDbLine
 10
209.9276610650615
 20
353.6675816693303
 30
0.0000000000000000
 11
202.9833072805183
 21
338.7753669199786
 31
0.0000000000000000
  0
LINE
  5
1B9
100
AcDbEntity
  8
MAIN0
  6
PHANTOM
 62
3
100
AcDbLine
 10
209.6657431870202
 20
354.3871951245402
 30
0.0000000000000000
 11
202.5217451009241
 21
339.0668417888701
 31
0.0000000000000000
  0
LINE
  5
1BA
100
AcDbEntity
  8
MAIN0
  6
PHANTOM
 62
3
100
AcDbLine
 10
199.7715810761546
 20
359.0009186884216
 30
0.0000000000000000
 11
192.6275829898536
 21
343.6805653523120
 31
0.0000000000000000
  0
LINE
  5
1BB
100
AcDbEntity
  8
MAIN0
  6
PHANTOM
 62
3
100
AcDbLine
 10
199.0519676206406
 20
358.7390008102595
 30
0.0000000000000000
 11
192.1076138360883
 21
343.8467860608882
 31
0.0000000000000000
  0
LINE
  5
1BC
100
AcDbEntity
  8
MAIN0
  6
PHANTOM
 62
3
100
AcDbLine
 10
184.8623063393125
 20
325.9429724097973
 30
0.0000000000000000
 11
193.9253842096437
 21
321.7167897923877
 31
0.0000000000000000
  0
LINE
  5
1BD
100
AcDbEntity
  8
MAIN0
  6
PHANTOM
 62
3
100
AcDbLine
 10
184.8622971441768
 20
325.9429766975715
 30
0.0000000000000000
 11
184.3786076188856
 21
327.2719027463520
 31
0.0000000000000000
  0
LINE
  5
1BE
100
AcDbEntity
  8
MAIN0
  6
CENTER
 62
3
100
AcDbLine
 10
212.4825189176064
 20
300.4823225176724
 30
0.0000000000000000
 11
224.3558936756903
 21
312.3556972757475
 31
0.0000000000000000
  0
LINE
  5
1BF
100
AcDbEntity
  8
MAIN0
  6
CENTER
 62
3
100
AcDbLine
 10
84.02749183455006
 20
312.9722963317911
 30
0.0000000000000000
 11
96.10813240411304
 21
300.8916557619990
 31
0.0000000000000000
  0
LINE
  5
1C0
100
AcDbEntity
  8
MAIN0
  6
CENTER
 62
12
100
AcDbLine
 10
215.9252530281338
 20
181.0745351377464
 30
0.0000000000000000
 11
198.5623170328942
 21
198.4374711329830
 31
0.0000000000000000
  0
LINE
  5
1C1
100
AcDbEntity
  8
MAIN0
  6
CENTER
 62
3
100
AcDbLine
 10
215.0609423281924
 20
258.7270535413865
 30
0.0000000000000000
 11
239.3765704794107
 21
265.2424064679674
 31
0.0000000000000000
  0
LINE
  5
1C2
100
AcDbEntity
  8
MAIN0
  6
HIDDEN
 62
3
100
AcDbLine
 10
161.0530372772129
 20
153.4143560646758
 30
0.0000000000000000
 11
160.7847422828744
 21
161.9997958835060
 31
0.0000000000000000
  0
LINE
  5
1C3
100
AcDbEntity
  8
MAIN0
  6
HIDDEN
 62
3
100
AcDbLine
 10
160.7847422828744
 20
161.9997958835060
 30
0.0000000000000000
 11
148.2152422828743
 21
161.9997958835060
 31
0.0000000000000000
  0
LINE
  5
1C4
100
AcDbEntity
  8
MAIN0
  6
HIDDEN
 62
3
100
AcDbLine
 10
148.2152422828744
 20
161.9997958835060
 30
0.0000000000000000
 11
147.9469472885359
 21
153.4143560646751
 31
0.0000000000000000
  0
LINE
  5
1C5
100
AcDbEntity
  8
MAIN0
  6
HIDDEN
 62
3
100
AcDbLine
 10
160.2001994454487
 20
153.3131666811318
 30
0.0000000000000000
 11
159.9287422828744
 21
161.9997958835060
 31
0.0000000000000000
  0
LINE
  5
1C6
100
AcDbEntity
  8
MAIN0
  6
HIDDEN
 62
3
100
AcDbLine
 10
148.7997851203002
 20
153.3131666811312
 30
0.0000000000000000
 11
149.0712422828744
 21
161.9997958835060
 31
0.0000000000000000
  0
LINE
  5
1C7
100
AcDbEntity
  8
MAIN0
  6
HIDDEN
 62
3
100
AcDbLine
 10
159.8999922828726
 20
161.9997958835060
 30
0.0000000000000000
 11
159.8999922828726
 21
213.4997958835060
 31
0.0000000000000000
  0
LINE
  5
1C8
100
AcDbEntity
  8
MAIN0
  6
HIDDEN
 62
3
100
AcDbLine
 10
159.8999922828722
 20
213.4997958835060
 30
0.0000000000000000
 11
149.0999922828722
 21
213.4997958835060
 31
0.0000000000000000
  0
LINE
  5
1C9
100
AcDbEntity
  8
MAIN0
  6
HIDDEN
 62
3
100
AcDbLine
 10
149.0999922828726
 20
213.4997958835060
 30
0.0000000000000000
 11
149.0999922828726
 21
161.9997958835060
 31
0.0000000000000000
  0
LINE
  5
1CA
100
AcDbEntity
  8
MAIN0
  6
CENTER
 62
3
100
AcDbLine
 10
170.2653674592434
 20
280.5607784499485
 30
0.0000000000000000
 11
163.0313786070632
 21
263.0963844529719
 31
0.0000000000000000
  0
LINE
  5
1CB
100
AcDbEntity
  8
MAIN0
  6
CENTER
 62
3
100
AcDbLine
 10
117.5672390457004
 20
257.7978431702270
 30
0.0000000000000000
 11
133.0942833305765
 21
251.3663308438590
 31
0.0000000000000000
  0
LINE
  5
1CC
100
AcDbEntity
  8
MAIN0
  6
CENTER
 62
3
100
AcDbLine
 10
139.3143941536641
 20
205.8385189274865
 30
0.0000000000000000
 11
145.9686059586770
 21
221.9032073140400
 31
0.0000000000000000
  0
LINE
  5
1CD
100
AcDbEntity
  8
MAIN0
  6
CENTER
 62
3
100
AcDbLine
 10
190.6582603567984
 20
227.5225508552564
 30
0.0000000000000000
 11
175.0965808523361
 21
233.9684095593129
 31
0.0000000000000000
  0
CIRCLE
  5
1CE
100
AcDbEntity
  8
MAIN0
  6
CONTINUOUS
 62
3
100
AcDbCircle
 10
166.5545204024593
 20
271.6020011575747
 30
0.0000000000000000
 40
5.000000000000000
  0
LINE
  5
1CF
100
AcDbEntity
  8
MAIN0
  6
CONTINUOUS
 62
3
100
AcDbLine
 10
166.5545204024594
 20
274.4887525035227
 30
0.0000000000000000
 11
164.0545204024594
 21
273.0453768305487
 31
0.0000000000000000
  0
LINE
  5
1D0
100
AcDbEntity
  8
MAIN0
  6
CONTINUOUS
 62
3
100
AcDbLine
 10
164.0545204024593
 20
273.0453768305487
 30
0.0000000000000000
 11
164.0545204024593
 21
270.1586254846006
 31
0.0000000000000000
  0
LINE
  5
1D1
100
AcDbEntity
  8
MAIN0
  6
CONTINUOUS
 62
3
100
AcDbLine
 10
164.0545204024594
 20
270.1586254846006
 30
0.0000000000000000
 11
166.5545204024594
 21
268.7152498116266
 31
0.0000000000000000
  0
LINE
  5
1D2
100
AcDbEntity
  8
MAIN0
  6
CONTINUOUS
 62
3
100
AcDbLine
 10
166.5545204024594
 20
268.7152498116265
 30
0.0000000000000000
 11
169.0545204024594
 21
270.1586254846006
 31
0.0000000000000000
  0
LINE
  5
1D3
100
AcDbEntity
  8
MAIN0
  6
CONTINUOUS
 62
3
100
AcDbLine
 10
169.0545204024593
 20
270.1586254846006
 30
0.0000000000000000
 11
169.0545204024593
 21
273.0453768305487
 31
0.0000000000000000
  0
LINE
  5
1D4
100
AcDbEntity
  8
MAIN0
  6
CONTINUOUS
 62
3
100
AcDbLine
 10
169.0545204024594
 20
273.0453768305487
 30
0.0000000000000000
 11
166.5545204024594
 21
274.4887525035228
 31
0.0000000000000000
  0
CIRCLE
  5
1D5
100
AcDbEntity
  8
MAIN0
  6
CONTINUOUS
 62
3
100
AcDbCircle
 10
125.3977870088014
 20
254.5543240030952
 30
0.0000000000000000
 40
5.000000000000000
  0
LINE
  5
1D6
100
AcDbEntity
  8
MAIN0
  6
CONTINUOUS
 62
3
100
AcDbLine
 10
125.3977870088014
 20
257.4410753490433
 30
0.0000000000000000
 11
122.8977870088015
 21
255.9976996760693
 31
0.0000000000000000
  0
LINE
  5
1D7
100
AcDbEntity
  8
MAIN0
  6
CONTINUOUS
 62
3
100
AcDbLine
 10
122.8977870088014
 20
255.9976996760693
 30
0.0000000000000000
 11
122.8977870088014
 21
253.1109483301212
 31
0.0000000000000000
  0
LINE
  5
1D8
100
AcDbEntity
  8
MAIN0
  6
CONTINUOUS
 62
3
100
AcDbLine
 10
122.8977870088014
 20
253.1109483301211
 30
0.0000000000000000
 11
125.3977870088014
 21
251.6675726571471
 31
0.0000000000000000
  0
LINE
  5
1D9
100
AcDbEntity
  8
MAIN0
  6
CONTINUOUS
 62
3
100
AcDbLine
 10
125.3977870088015
 20
251.6675726571471
 30
0.0000000000000000
 11
127.8977870088015
 21
253.1109483301211
 31
0.0000000000000000
  0
LINE
  5
1DA
100
AcDbEntity
  8
MAIN0
  6
CONTINUOUS
 62
3
100
AcDbLine
 10
127.8977870088014
 20
253.1109483301212
 30
0.0000000000000000
 11
127.8977870088014
 21
255.9976996760693
 31
0.0000000000000000
  0
LINE
  5
1DB
100
AcDbEntity
  8
MAIN0
  6
CONTINUOUS
 62
3
100
AcDbLine
 10
127.8977870088015
 20
255.9976996760693
 30
0.0000000000000000
 11
125.3977870088014
 21
257.4410753490433
 31
0.0000000000000000
  0
CIRCLE
  5
1DC
100
AcDbEntity
  8
MAIN0
  6
CONTINUOUS
 62
3
100
AcDbCircle
 10
183.6021975569387
 20
230.4452677639167
 30
0.0000000000000000
 40
5.000000000000000
  0
LINE
  5
1DD
100
AcDbEntity
  8
MAIN0
  6
CONTINUOUS
 62
3
100
AcDbLine
 10
183.6021975569388
 20
233.3320191098648
 30
0.0000000000000000
 11
181.1021975569388
 21
231.8886434368908
 31
0.0000000000000000
  0
LINE
  5
1DE
100
AcDbEntity
  8
MAIN0
  6
CONTINUOUS
 62
3
100
AcDbLine
 10
181.1021975569387
 20
231.8886434368907
 30
0.0000000000000000
 11
181.1021975569387
 21
229.0018920909426
 31
0.0000000000000000
  0
LINE
  5
1DF
100
AcDbEntity
  8
MAIN0
  6
CONTINUOUS
 62
3
100
AcDbLine
 10
181.1021975569387
 20
229.0018920909426
 30
0.0000000000000000
 11
183.6021975569387
 21
227.5585164179686
 31
0.0000000000000000
  0
LINE
  5
1E0
100
AcDbEntity
  8
MAIN0
  6
CONTINUOUS
 62
3
100
AcDbLine
 10
183.6021975569388
 20
227.5585164179686
 30
0.0000000000000000
 11
186.1021975569388
 21
229.0018920909427
 31
0.0000000000000000
  0
LINE
  5
1E1
100
AcDbEntity
  8
MAIN0
  6
CONTINUOUS
 62
3
100
AcDbLine
 10
186.1021975569387
 20
229.0018920909426
 30
0.0000000000000000
 11
186.1021975569387
 21
231.8886434368907
 31
0.0000000000000000
  0
LINE
  5
1E2
100
AcDbEntity
  8
MAIN0
  6
CONTINUOUS
 62
3
100
AcDbLine
 10
186.1021975569387
 20
231.8886434368907
 30
0.0000000000000000
 11
183.6021975569387
 21
233.3320191098648
 31
0.0000000000000000
  0
ARC
  5
1E3
100
AcDbEntity
  8
MAIN0
  6
CONTINUOUS
 62
3
100
AcDbCircle
 10
121.1675364720766
 20
156.6210447885958
 30
0.0000000000000000
 40
3.300000000000007
100
AcDbArc
 50
160.0000000000293
 51
250.0000000000291
  0
LINE
  5
1E4
100
AcDbEntity
  8
MAIN0
  6
CONTINUOUS
 62
3
100
AcDbLine
 10
120.0388699991035
 20
153.5200591400018
 30
0.0000000000000000
 11
123.7036712201692
 21
152.1861805810335
 31
0.0000000000000000
  0
ARC
  5
1E5
100
AcDbEntity
  8
MAIN0
  6
CONTINUOUS
 62
3
100
AcDbCircle
 10
124.8323376931423
 20
155.2871662296276
 30
0.0000000000000000
 40
3.300000000000004
100
AcDbArc
 50
250.0000000000291
 51
340.0000000000293
  0
ARC
  5
1E6
100
AcDbEntity
  8
MAIN0
  6
CONTINUOUS
 62
3
100
AcDbCircle
 10
90.75431595889188
 20
309.0031886540912
 30
0.0000000000000000
 40
3.299999999999994
100
AcDbArc
 50
45.00000000003026
 51
135.0000000000302
  0
LINE
  5
1E7
100
AcDbEntity
  8
MAIN0
  6
CONTINUOUS
 62
3
100
AcDbLine
 10
88.42086358097518
 20
311.3366410320056
 30
0.0000000000000000
 11
85.66314713434912
 21
308.5789245853766
 31
0.0000000000000000
  0
ARC
  5
1E8
100
AcDbEntity
  8
MAIN0
  6
CONTINUOUS
 62
3
100
AcDbCircle
 10
87.99659951226579
 20
306.2454722074622
 30
0.0000000000000000
 40
3.300000000000008
100
AcDbArc
 50
135.0000000000302
 51
225.0000000000303
  0
ARC
  5
1E9
100
AcDbEntity
  8
MAIN0
  6
CONTINUOUS
 62
3
100
AcDbCircle
 10
221.0033850537521
 20
306.2454722071874
 30
0.0000000000000000
 40
3.299999999999994
100
AcDbArc
 50
315.0000000000298
 51
405.0000000000298
  0
LINE
  5
1EA
100
AcDbEntity
  8
MAIN0
  6
CONTINUOUS
 62
3
100
AcDbLine
 10
223.3368374316665
 20
308.5789245851042
 30
0.0000000000000000
 11
220.5791209850374
 21
311.3366410317304
 31
0.0000000000000000
  0
ARC
  5
1EB
100
AcDbEntity
  8
MAIN0
  6
CONTINUOUS
 62
3
100
AcDbCircle
 10
218.2456686071231
 20
309.0031886538135
 30
0.0000000000000000
 40
3.300000000000003
100
AcDbArc
 50
45.00000000002975
 51
135.0000000000297
  0
LINE
  5
1EC
100
AcDbEntity
  8
MAIN0
  6
CONTINUOUS
 62
3
100
AcDbLine
 10
86.08741120306439
 20
302.0735421984606
 30
0.0000000000000000
 11
84.95604035316529
 21
303.2049130483586
 31
0.0000000000000000
  0
LINE
  5
1ED
100
AcDbEntity
  8
MAIN0
  6
CONTINUOUS
 62
3
100
AcDbLine
 10
84.95604035316521
 20
303.2049130483584
 30
0.0000000000000000
 11
93.79487511799249
 21
312.0437478131948
 31
0.0000000000000000
  0
LINE
  5
1EE
100
AcDbEntity
  8
MAIN0
  6
CONTINUOUS
 62
3
100
AcDbLine
 10
93.79487511799260
 20
312.0437478131949
 30
0.0000000000000000
 11
94.92624596789167
 21
310.9123769632970
 31
0.0000000000000000
  0
LINE
  5
1EF
100
AcDbEntity
  8
MAIN0
  6
CONTINUOUS
 62
3
100
AcDbLine
 10
129.4202481918428
 20
155.3199878065871
 30
0.0000000000000000
 11
128.8730159625225
 21
153.8164796133294
 31
0.0000000000000000
  0
LINE
  5
1F0
100
AcDbEntity
  8
MAIN0
  6
CONTINUOUS
 62
3
100
AcDbLine
 10
128.8730159625225
 20
153.8164796133294
 30
0.0000000000000000
 11
117.1268582026964
 21
158.0917314048942
 31
0.0000000000000000
  0
LINE
  5
1F1
100
AcDbEntity
  8
MAIN0
  6
CONTINUOUS
 62
3
100
AcDbLine
 10
117.1268582026965
 20
158.0917314048941
 30
0.0000000000000000
 11
117.6740904320168
 21
159.5952395981518
 31
0.0000000000000000
  0
LINE
  5
1F2
100
AcDbEntity
  8
MAIN0
  6
CONTINUOUS
 62
3
100
AcDbLine
 10
214.0737385981215
 20
310.9123769630149
 30
0.0000000000000000
 11
215.2051094480194
 21
312.0437478129140
 31
0.0000000000000000
  0
LINE
  5
1F3
100
AcDbEntity
  8
MAIN0
  6
CONTINUOUS
 62
3
100
AcDbLine
 10
215.2051094480193
 20
312.0437478129140
 30
0.0000000000000000
 11
224.0439442128559
 21
303.2049130480868
 31
0.0000000000000000
  0
LINE
  5
1F4
100
AcDbEntity
  8
MAIN0
  6
CONTINUOUS
 62
3
100
AcDbLine
 10
224.0439442128558
 20
303.2049130480870
 30
0.0000000000000000
 11
222.9125733629579
 21
302.0735421981879
 31
0.0000000000000000
  0
LINE
  5
1F5
100
AcDbEntity
  8
MAIN0
  6
PHANTOM
 62
12
100
AcDbLine
 10
235.9999922828703
 20
247.9722958835053
 30
0.0000000000000000
 11
235.9999922828703
 21
237.0272958835053
 31
0.0000000000000000
  0
LINE
  5
1F6
100
AcDbEntity
  8
MAIN0
  6
PHANTOM
 62
12
100
AcDbLine
 10
236.9999922828703
 20
237.9392471048736
 30
0.0000000000000000
 11
244.9999922828703
 21
237.4392471048736
 31
0.0000000000000000
  0
LINE
  5
1F7
100
AcDbEntity
  8
MAIN0
  6
PHANTOM
 62
12
100
AcDbLine
 10
243.9999922828703
 20
234.4997958835060
 30
0.0000000000000000
 11
244.9999922828703
 21
234.4997958835060
 31
0.0000000000000000
  0
LINE
  5
1F8
100
AcDbEntity
  8
MAIN0
  6
PHANTOM
 62
12
100
AcDbLine
 10
236.9999922828703
 20
247.0603446621385
 30
0.0000000000000000
 11
244.9999922828703
 21
247.5603446621385
 31
0.0000000000000000
  0
LINE
  5
1F9
100
AcDbEntity
  8
MAIN0
  6
PHANTOM
 62
12
100
AcDbLine
 10
243.9999922828703
 20
250.4997958835061
 30
0.0000000000000000
 11
244.9999922828703
 21
250.4997958835061
 31
0.0000000000000000
  0
LINE
  5
1FA
100
AcDbEntity
  8
MAIN0
  6
PHANTOM
 62
12
100
AcDbLine
 10
236.9999922828703
 20
247.0603446621385
 30
0.0000000000000000
 11
236.9999922828703
 21
237.9392471048736
 31
0.0000000000000000
  0
LINE
  5
1FB
100
AcDbEntity
  8
MAIN0
  6
PHANTOM
 62
12
100
AcDbLine
 10
244.9999922828703
 20
250.4997958835061
 30
0.0000000000000000
 11
244.9999922828703
 21
234.4997958835060
 31
0.0000000000000000
  0
LINE
  5
1FC
100
AcDbEntity
  8
MAIN0
  6
PHANTOM
 62
12
100
AcDbLine
 10
159.9599922828744
 20
160.9997958835058
 30
0.0000000000000000
 11
149.0399922828744
 21
160.9997958835058
 31
0.0000000000000000
  0
LINE
  5
1FD
100
AcDbEntity
  8
MAIN0
  6
PHANTOM
 62
12
100
AcDbLine
 10
149.9394435042415
 20
159.9997958835058
 30
0.0000000000000000
 11
149.4394435042415
 21
151.9997958835058
 31
0.0000000000000000
  0
LINE
  5
1FE
100
AcDbEntity
  8
MAIN0
  6
PHANTOM
 62
12
100
AcDbLine
 10
146.4999922828740
 20
152.9997958835058
 30
0.0000000000000000
 11
146.4999922828740
 21
151.9997958835058
 31
0.0000000000000000
  0
LINE
  5
1FF
100
AcDbEntity
  8
MAIN0
  6
PHANTOM
 62
12
100
AcDbLine
 10
159.0605410615065
 20
159.9997958835058
 30
0.0000000000000000
 11
159.5605410615065
 21
151.9997958835058
 31
0.0000000000000000
  0
LINE
  5
200
100
AcDbEntity
  8
MAIN0
  6
PHANTOM
 62
12
100
AcDbLine
 10
162.4999922828740
 20
152.9997958835058
 30
0.0000000000000000
 11
162.4999922828740
 21
151.9997958835058
 31
0.0000000000000000
  0
LINE
  5
201
100
AcDbEntity
  8
MAIN0
  6
PHANTOM
 62
12
100
AcDbLine
 10
159.0605410615065
 20
159.9997958835058
 30
0.0000000000000000
 11
149.9394435042416
 21
159.9997958835058
 31
0.0000000000000000
  0
LINE
  5
202
100
AcDbEntity
  8
MAIN0
  6
PHANTOM
 62
12
100
AcDbLine
 10
162.4999922828740
 20
151.9997958835058
 30
0.0000000000000000
 11
146.4999922828740
 21
151.9997958835058
 31
0.0000000000000000
  0
LINE
  5
203
100
AcDbEntity
  8
MAIN0
  6
PHANTOM
 62
12
100
AcDbLine
 10
72.99999228286993
 20
237.0272958835060
 30
0.0000000000000000
 11
72.99999228286993
 21
247.9722958835060
 31
0.0000000000000000
  0
LINE
  5
204
100
AcDbEntity
  8
MAIN0
  6
PHANTOM
 62
12
100
AcDbLine
 10
64.99999228286993
 20
249.4997958835060
 30
0.0000000000000000
 11
63.99999228286993
 21
249.4997958835060
 31
0.0000000000000000
  0
LINE
  5
205
100
AcDbEntity
  8
MAIN0
  6
PHANTOM
 62
12
100
AcDbLine
 10
64.99999228286993
 20
235.4997958835059
 30
0.0000000000000000
 11
63.99999228286993
 21
235.4997958835059
 31
0.0000000000000000
  0
LINE
  5
206
100
AcDbEntity
  8
MAIN0
  6
PHANTOM
 62
12
100
AcDbLine
 10
71.99999228286993
 20
237.9965340456049
 30
0.0000000000000000
 11
71.99999228286993
 21
247.0030577214071
 31
0.0000000000000000
  0
LINE
  5
207
100
AcDbEntity
  8
MAIN0
  6
PHANTOM
 62
12
100
AcDbLine
 10
63.99999228286993
 20
235.4997958835059
 30
0.0000000000000000
 11
63.99999228286993
 21
249.4997958835060
 31
0.0000000000000000
  0
LINE
  5
208
100
AcDbEntity
  8
MAIN0
  6
CONTINUOUS
 62
3
100
AcDbLine
 10
176.0095111894670
 20
342.4511156923541
 30
0.0000000000000000
 11
177.3618896270399
 21
345.3513006108702
 31
0.0000000000000000
  0
LINE
  5
209
100
AcDbEntity
  8
MAIN0
  6
CONTINUOUS
 62
3
100
AcDbLine
 10
213.6142011085179
 20
328.4465701411615
 30
0.0000000000000000
 11
177.3618896270423
 21
345.3513006108691
 31
0.0000000000000000
  0
LINE
  5
20A
100
AcDbEntity
  8
MAIN0
  6
CENTER
 62
3
100
AcDbLine
 10
205.2578928386384
 20
322.3574171422818
 30
0.0000000000000000
 11
212.4373009241299
 21
337.7537074667446
 31
0.0000000000000000
  0
LINE
  5
20B
100
AcDbEntity
  8
MAIN0
  6
CONTINUOUS
 62
3
100
AcDbLine
 10
186.8475857591029
 20
342.0314257805000
 30
0.0000000000000000
 11
186.4249674973601
 21
341.1251179934644
 31
0.0000000000000000
  0
LINE
  5
20C
100
AcDbEntity
  8
MAIN0
  6
CENTER
 62
3
100
AcDbLine
 10
178.3584471006423
 20
335.6574170941503
 30
0.0000000000000000
 11
185.5378551861338
 21
351.0537074186130
 31
0.0000000000000000
  0
LINE
  5
20D
100
AcDbEntity
  8
MAIN0
  6
CONTINUOUS
 62
3
100
AcDbLine
 10
186.4249674973526
 20
341.1251179934473
 30
0.0000000000000000
 11
186.8475857590941
 21
342.0314257804836
 31
0.0000000000000000
  0
LINE
  5
20E
100
AcDbEntity
  8
MAIN0
  6
CONTINUOUS
 62
3
100
AcDbLine
 10
186.8475857590942
 20
342.0314257804835
 30
0.0000000000000000
 11
177.7845078887314
 21
346.2576083978987
 31
0.0000000000000000
  0
LINE
  5
20F
100
AcDbEntity
  8
MAIN0
  6
CONTINUOUS
 62
3
100
AcDbLine
 10
177.7845078887314
 20
346.2576083978987
 30
0.0000000000000000
 11
177.3618896269899
 21
345.3513006108624
 31
0.0000000000000000
  0
LINE
  5
210
100
AcDbEntity
  8
MAIN0
  6
CONTINUOUS
 62
3
100
AcDbLine
 10
178.4642387290087
 20
345.9406447015925
 30
0.0000000000000000
 11
180.3660209068455
 21
350.0190297432557
 31
0.0000000000000000
  0
LINE
  5
211
100
AcDbEntity
  8
MAIN0
  6
CONTINUOUS
 62
3
100
AcDbLine
 10
180.3660209068454
 20
350.0190297432558
 30
0.0000000000000000
 11
181.3622156049372
 21
350.1061854860025
 31
0.0000000000000000
  0
LINE
  5
212
100
AcDbEntity
  8
MAIN0
  6
CONTINUOUS
 62
3
100
AcDbLine
 10
181.3622156049373
 20
350.1061854860025
 30
0.0000000000000000
 11
187.4960606603034
 21
347.2459265627424
 31
0.0000000000000000
  0
LINE
  5
213
100
AcDbEntity
  8
MAIN0
  6
CONTINUOUS
 62
3
100
AcDbLine
 10
187.4960606603034
 20
347.2459265627423
 30
0.0000000000000000
 11
188.0696370966537
 21
346.4267745184529
 31
0.0000000000000000
  0
LINE
  5
214
100
AcDbEntity
  8
MAIN0
  6
CONTINUOUS
 62
3
100
AcDbLine
 10
188.0696370966538
 20
346.4267745184529
 30
0.0000000000000000
 11
186.1678549188170
 21
342.3483894767896
 31
0.0000000000000000
  0
LINE
  5
215
100
AcDbEntity
  8
MAIN0
  6
CONTINUOUS
 62
3
100
AcDbLine
 10
180.3660209068455
 20
350.0190297432557
 30
0.0000000000000000
 11
188.0696370966538
 21
346.4267745184529
 31
0.0000000000000000
  0
LINE
  5
216
100
AcDbEntity
  8
MAIN0
  6
CONTINUOUS
 62
3
100
AcDbLine
 10
176.9229022194341
 20
338.4943851194748
 30
0.0000000000000000
 11
176.6693312623900
 21
337.9506004472547
 31
0.0000000000000000
  0
LINE
  5
217
100
AcDbEntity
  8
MAIN0
  6
CONTINUOUS
 62
3
100
AcDbLine
 10
176.6693312623901
 20
337.9506004472547
 30
0.0000000000000000
 11
181.2008701975714
 21
335.8375091385472
 31
0.0000000000000000
  0
LINE
  5
218
100
AcDbEntity
  8
MAIN0
  6
CONTINUOUS
 62
3
100
AcDbLine
 10
181.2008701975714
 20
335.8375091385472
 30
0.0000000000000000
 11
181.4544411546172
 21
336.3812938107709
 31
0.0000000000000000
  0
LINE
  5
219
100
AcDbEntity
  8
MAIN0
  6
CONTINUOUS
 62
3
100
AcDbLine
 10
177.3153450919606
 20
338.3113860026273
 30
0.0000000000000000
 11
177.0617741349163
 21
337.7676013304069
 31
0.0000000000000000
  0
LINE
  5
21A
100
AcDbEntity
  8
MAIN0
  6
CONTINUOUS
 62
3
100
AcDbLine
 10
181.0619982820906
 20
336.5642929276185
 30
0.0000000000000000
 11
180.8084273250449
 21
336.0205082553950
 31
0.0000000000000000
  0
LINE
  5
21B
100
AcDbEntity
  8
MAIN0
  6
CONTINUOUS
 62
3
100
AcDbLine
 10
174.5000024283904
 20
318.9997958835060
 30
0.0000000000000000
 11
174.5000024283892
 21
345.6997702262380
 31
0.0000000000000000
  0
LINE
  5
21C
100
AcDbEntity
  8
MAIN0
  6
CONTINUOUS
 62
3
100
AcDbLine
 10
164.5000024283878
 20
346.6997702262563
 30
0.0000000000000000
 11
164.5000024283893
 21
345.6997702262563
 31
0.0000000000000000
  0
LINE
  5
21D
100
AcDbEntity
  8
MAIN0
  6
CONTINUOUS
 62
3
100
AcDbLine
 10
144.5000024283876
 20
346.6997702262259
 30
0.0000000000000000
 11
144.5000024283891
 21
345.6997702262258
 31
0.0000000000000000
  0
LINE
  5
21E
100
AcDbEntity
  8
MAIN0
  6
CONTINUOUS
 62
3
100
AcDbLine
 10
134.5000024283479
 20
318.9997958835060
 30
0.0000000000000000
 11
134.5000024283469
 21
345.6997702262364
 31
0.0000000000000000
  0
LINE
  5
21F
100
AcDbEntity
  8
MAIN0
  6
CENTER
 62
3
100
AcDbLine
 10
169.5000024283893
 20
339.5877610773190
 30
0.0000000000000000
 11
169.5000024283887
 21
353.3515217492563
 31
0.0000000000000000
  0
LINE
  5
220
100
AcDbEntity
  8
MAIN0
  6
CONTINUOUS
 62
3
100
AcDbLine
 10
164.5000024283889
 20
345.6997702262376
 30
0.0000000000000000
 11
164.5000024283889
 21
346.6997702262376
 31
0.0000000000000000
  0
LINE
  5
221
100
AcDbEntity
  8
MAIN0
  6
CONTINUOUS
 62
3
100
AcDbLine
 10
164.5000024283889
 20
346.6997702262377
 30
0.0000000000000000
 11
174.5000024283889
 21
346.6997702262381
 31
0.0000000000000000
  0
LINE
  5
222
100
AcDbEntity
  8
MAIN0
  6
CONTINUOUS
 62
3
100
AcDbLine
 10
174.5000024283889
 20
346.6997702262381
 30
0.0000000000000000
 11
174.5000024283889
 21
345.6997702262381
 31
0.0000000000000000
  0
LINE
  5
223
100
AcDbEntity
  8
MAIN0
  6
CONTINUOUS
 62
3
100
AcDbLine
 10
173.7500024283889
 20
346.6997702262380
 30
0.0000000000000000
 11
173.7500024283888
 21
351.1997702262380
 31
0.0000000000000000
  0
LINE
  5
224
100
AcDbEntity
  8
MAIN0
  6
CONTINUOUS
 62
3
100
AcDbLine
 10
173.7500024283888
 20
351.1997702262380
 30
0.0000000000000000
 11
172.8839770246043
 21
351.6997702262379
 31
0.0000000000000000
  0
LINE
  5
225
100
AcDbEntity
  8
MAIN0
  6
CONTINUOUS
 62
3
100
AcDbLine
 10
172.8839770246042
 20
351.6997702262380
 30
0.0000000000000000
 11
166.1160278321732
 21
351.6997702262377
 31
0.0000000000000000
  0
LINE
  5
226
100
AcDbEntity
  8
MAIN0
  6
CONTINUOUS
 62
3
100
AcDbLine
 10
166.1160278321731
 20
351.6997702262378
 30
0.0000000000000000
 11
165.2500024283887
 21
351.1997702262377
 31
0.0000000000000000
  0
LINE
  5
227
100
AcDbEntity
  8
MAIN0
  6
CONTINUOUS
 62
3
100
AcDbLine
 10
165.2500024283888
 20
351.1997702262377
 30
0.0000000000000000
 11
165.2500024283889
 21
346.6997702262377
 31
0.0000000000000000
  0
LINE
  5
228
100
AcDbEntity
  8
MAIN0
  6
CONTINUOUS
 62
3
100
AcDbLine
 10
173.7500024283888
 20
351.1997702262380
 30
0.0000000000000000
 11
165.2500024283888
 21
351.1997702262377
 31
0.0000000000000000
  0
LINE
  5
229
100
AcDbEntity
  8
MAIN0
  6
CONTINUOUS
 62
3
100
AcDbLine
 10
144.5000024283057
 20
346.6997702262555
 30
0.0000000000000000
 11
144.5000024283043
 21
345.6997702262555
 31
0.0000000000000000
  0
LINE
  5
22A
100
AcDbEntity
  8
MAIN0
  6
CENTER
 62
3
100
AcDbLine
 10
139.5000024282628
 20
340.7415164529537
 30
0.0000000000000000
 11
139.5000024282623
 21
354.0372182736136
 31
0.0000000000000000
  0
LINE
  5
22B
100
AcDbEntity
  8
MAIN0
  6
CONTINUOUS
 62
3
100
AcDbLine
 10
144.5000024283046
 20
345.6997702262368
 30
0.0000000000000000
 11
144.5000024283046
 21
346.6997702262368
 31
0.0000000000000000
  0
LINE
  5
22C
100
AcDbEntity
  8
MAIN0
  6
CONTINUOUS
 62
3
100
AcDbLine
 10
144.5000024283045
 20
346.6997702262368
 30
0.0000000000000000
 11
134.5000024283045
 21
346.6997702262364
 31
0.0000000000000000
  0
LINE
  5
22D
100
AcDbEntity
  8
MAIN0
  6
CONTINUOUS
 62
3
100
AcDbLine
 10
134.5000024283046
 20
346.6997702262364
 30
0.0000000000000000
 11
134.5000024283046
 21
345.6997702262364
 31
0.0000000000000000
  0
LINE
  5
22E
100
AcDbEntity
  8
MAIN0
  6
CONTINUOUS
 62
3
100
AcDbLine
 10
135.2500024283046
 20
346.6997702262364
 30
0.0000000000000000
 11
135.2500024283044
 21
351.1997702262364
 31
0.0000000000000000
  0
LINE
  5
22F
100
AcDbEntity
  8
MAIN0
  6
CONTINUOUS
 62
3
100
AcDbLine
 10
135.2500024283042
 20
351.1997702262365
 30
0.0000000000000000
 11
136.1160278320887
 21
351.6997702262365
 31
0.0000000000000000
  0
LINE
  5
230
100
AcDbEntity
  8
MAIN0
  6
CONTINUOUS
 62
3
100
AcDbLine
 10
136.1160278320888
 20
351.6997702262364
 30
0.0000000000000000
 11
142.8839770245199
 21
351.6997702262367
 31
0.0000000000000000
  0
LINE
  5
231
100
AcDbEntity
  8
MAIN0
  6
CONTINUOUS
 62
3
100
AcDbLine
 10
142.8839770245198
 20
351.6997702262368
 30
0.0000000000000000
 11
143.7500024283043
 21
351.1997702262368
 31
0.0000000000000000
  0
LINE
  5
232
100
AcDbEntity
  8
MAIN0
  6
CONTINUOUS
 62
3
100
AcDbLine
 10
143.7500024283044
 20
351.1997702262368
 30
0.0000000000000000
 11
143.7500024283046
 21
346.6997702262368
 31
0.0000000000000000
  0
LINE
  5
233
100
AcDbEntity
  8
MAIN0
  6
CONTINUOUS
 62
3
100
AcDbLine
 10
135.2500024283044
 20
351.1997702262364
 30
0.0000000000000000
 11
143.7500024283044
 21
351.1997702262368
 31
0.0000000000000000
  0
LINE
  5
234
100
AcDbEntity
  8
MAIN0
  6
CONTINUOUS
 62
3
100
AcDbLine
 10
174.5000024283890
 20
345.6997702262381
 30
0.0000000000000000
 11
134.5000024283046
 21
345.6997702262364
 31
0.0000000000000000
  0
LINE
  5
235
100
AcDbEntity
  8
MAIN0
  6
CONTINUOUS
 62
3
100
AcDbLine
 10
175.9051712048391
 20
342.4997702262381
 30
0.0000000000000000
 11
134.5000024283047
 21
342.4997702262364
 31
0.0000000000000000
  0
LINE
  5
236
100
AcDbEntity
  8
MAIN0
  6
PHANTOM
 62
3
100
AcDbLine
 10
149.4999922828503
 20
367.9997958835060
 30
0.0000000000000000
 11
159.4999922828194
 21
367.9997958835060
 31
0.0000000000000000
  0
LINE
  5
237
100
AcDbEntity
  8
MAIN0
  6
PHANTOM
 62
3
100
AcDbLine
 10
144.4461922828660
 20
346.6997958834346
 30
0.0000000000000000
 11
164.4461922828661
 21
346.6997958834346
 31
0.0000000000000000
  0
LINE
  5
238
100
AcDbEntity
  8
MAIN0
  6
PHANTOM
 62
3
100
AcDbLine
 10
164.4461922828661
 20
346.6997958834346
 30
0.0000000000000000
 11
164.4461922828661
 21
345.6997958834346
 31
0.0000000000000000
  0
LINE
  5
239
100
AcDbEntity
  8
MAIN0
  6
PHANTOM
 62
3
100
AcDbLine
 10
144.4461922828661
 20
346.6997958834345
 30
0.0000000000000000
 11
144.4461922828661
 21
345.6997958834345
 31
0.0000000000000000
  0
LINE
  5
23A
100
AcDbEntity
  8
MAIN0
  6
PHANTOM
 62
3
100
AcDbLine
 10
148.4999922828656
 20
366.9997958835060
 30
0.0000000000000000
 11
160.4999922828656
 21
366.9997958835060
 31
0.0000000000000000
  0
LINE
  5
23B
100
AcDbEntity
  8
MAIN0
  6
PHANTOM
 62
3
100
AcDbLine
 10
148.4999922828525
 20
366.9997958835060
 30
0.0000000000000000
 11
149.4999922828503
 21
367.9997958835060
 31
0.0000000000000000
  0
LINE
  5
23C
100
AcDbEntity
  8
MAIN0
  6
PHANTOM
 62
3
100
AcDbLine
 10
159.4999922828194
 20
367.9997958835059
 30
0.0000000000000000
 11
160.4999922828655
 21
366.9997958834609
 31
0.0000000000000000
  0
LINE
  5
23D
100
AcDbEntity
  8
MAIN0
  6
PHANTOM
 62
3
100
AcDbLine
 10
149.4999922828503
 20
369.9997958835060
 30
0.0000000000000000
 11
159.4999922828194
 21
369.9997958835060
 31
0.0000000000000000
  0
LINE
  5
23E
100
AcDbEntity
  8
MAIN0
  6
PHANTOM
 62
3
100
AcDbLine
 10
159.4999922827945
 20
369.9997958835060
 30
0.0000000000000000
 11
159.4999922827932
 21
367.9997958835059
 31
0.0000000000000000
  0
LINE
  5
23F
100
AcDbEntity
  8
MAIN0
  6
PHANTOM
 62
3
100
AcDbLine
 10
149.4999922828280
 20
369.9997958835060
 30
0.0000000000000000
 11
149.4999922828268
 21
367.9997958835060
 31
0.0000000000000000
  0
LINE
  5
240
100
AcDbEntity
  8
MAIN0
  6
PHANTOM
 62
3
100
AcDbLine
 10
160.4999922828663
 20
366.9997958835060
 30
0.0000000000000000
 11
160.4999922828663
 21
350.5680549645043
 31
0.0000000000000000
  0
LINE
  5
241
100
AcDbEntity
  8
MAIN0
  6
PHANTOM
 62
3
100
AcDbLine
 10
159.9584922828663
 20
367.5412958834594
 30
0.0000000000000000
 11
159.9584922828663
 21
350.6997958834311
 31
0.0000000000000000
  0
LINE
  5
242
100
AcDbEntity
  8
MAIN0
  6
PHANTOM
 62
3
100
AcDbLine
 10
149.0414922828663
 20
367.5412958835210
 30
0.0000000000000000
 11
149.0414922828662
 21
350.6997958834378
 31
0.0000000000000000
  0
LINE
  5
243
100
AcDbEntity
  8
MAIN0
  6
PHANTOM
 62
3
100
AcDbLine
 10
148.4999922828663
 20
366.9997958835060
 30
0.0000000000000000
 11
148.4999922828663
 21
350.5680549645068
 31
0.0000000000000000
  0
LINE
  5
244
100
AcDbEntity
  8
MAIN0
  6
PHANTOM
 62
3
100
AcDbLine
 10
150.2499922828665
 20
350.6997958834378
 30
0.0000000000000000
 11
158.7499922828656
 21
350.6997958834311
 31
0.0000000000000000
  0
LINE
  5
245
100
AcDbEntity
  8
MAIN0
  6
PHANTOM
 62
3
100
AcDbLine
 10
162.9999922828563
 20
349.8997958832829
 30
0.0000000000000000
 11
162.9999922828564
 21
346.6997958834346
 31
0.0000000000000000
  0
ARC
  5
246
100
AcDbEntity
  8
MAIN0
  6
PHANTOM
 62
3
100
AcDbCircle
 10
158.7499922828563
 20
339.0107333854489
 30
0.0000000000000000
 40
11.68906249798220
100
AcDbArc
 50
68.67930340706903
 51
111.3206965929310
  0
LINE
  5
247
100
AcDbEntity
  8
MAIN0
  6
CONTINUOUS
 62
3
100
AcDbLine
 10
154.4999922828563
 20
349.8997958832829
 30
0.0000000000000000
 11
154.4999922828564
 21
346.6997958834346
 31
0.0000000000000000
  0
ARC
  5
248
100
AcDbEntity
  8
MAIN0
  6
PHANTOM
 62
3
100
AcDbCircle
 10
150.2499922828573
 20
339.0107333854486
 30
0.0000000000000000
 40
11.68906249798220
100
AcDbArc
 50
68.67930340707382
 51
111.3206965929358
  0
LINE
  5
249
100
AcDbEntity
  8
MAIN0
  6
PHANTOM
 62
3
100
AcDbLine
 10
145.9999922828564
 20
349.8997958832823
 30
0.0000000000000000
 11
145.9999922828565
 21
346.6997958834346
 31
0.0000000000000000
  0
LINE
  5
24A
100
AcDbEntity
  8
MAIN0
  6
CONTINUOUS
 62
3
100
AcDbLine
 10
212.2618226709426
 20
325.5463852226466
 30
0.0000000000000000
 11
175.9051712048391
 21
342.4997702262381
 31
0.0000000000000000
  0
LINE
  5
24B
100
AcDbEntity
  8
MAIN0
  6
CONTINUOUS
 62
3
100
AcDbLine
 10
210.9094442333699
 20
322.6462003041306
 30
0.0000000000000000
 11
213.6142011085155
 21
328.4465701411626
 31
0.0000000000000000
  0
LINE
  5
24C
100
AcDbEntity
  8
MAIN0
  6
CONTINUOUS
 62
3
100
AcDbLine
 10
210.9094442333699
 20
322.6462003041306
 30
0.0000000000000000
 11
174.6398284324230
 21
339.5589999105268
 31
0.0000000000000000
  0
LINE
  5
24D
100
AcDbEntity
  8
MAIN0
  6
PHANTOM
 62
3
100
AcDbLine
 10
193.9253934048465
 20
321.7167855046065
 30
0.0000000000000000
 11
195.2543194536249
 21
322.2004750299037
 31
0.0000000000000000
  0
LINE
  5
24E
100
AcDbEntity
  8
MAIN0
  6
PHANTOM
 62
3
100
AcDbLine
 10
198.2211444099948
 20
328.5628516807634
 30
0.0000000000000000
 11
195.2543194536275
 21
322.2004750299014
 31
0.0000000000000000
  0
LINE
  5
24F
100
AcDbEntity
  8
MAIN0
  6
PHANTOM
 62
3
100
AcDbLine
 10
197.7303787433152
 20
328.7916994694967
 30
0.0000000000000000
 11
194.5347059982163
 21
321.9385571519571
 31
0.0000000000000000
  0
LINE
  5
250
100
AcDbEntity
  8
MAIN0
  6
PHANTOM
 62
3
100
AcDbLine
 10
184.3786260091965
 20
327.2718941708092
 30
0.0000000000000000
 11
187.3454509655634
 21
333.6342708216704
 31
0.0000000000000000
  0
LINE
  5
251
100
AcDbEntity
  8
MAIN0
  6
PHANTOM
 62
3
100
AcDbLine
 10
184.6405353115999
 20
326.5522623250811
 30
0.0000000000000000
 11
187.8362166322439
 21
333.4054230329367
 31
0.0000000000000000
  0
LINE
  5
252
100
AcDbEntity
  8
MAIN0
  6
PHANTOM
 62
3
100
AcDbLine
 10
195.2543194536245
 20
322.2004750299029
 30
0.0000000000000000
 11
184.3786260091848
 21
327.2718941707842
 31
0.0000000000000000
  0
LINE
  5
253
100
AcDbEntity
  8
MAIN0
  6
HIDDEN
 62
3
100
AcDbLine
 10
228.1398632173465
 20
266.3726445531494
 30
0.0000000000000000
 11
223.6784429307448
 21
265.1772105902586
 31
0.0000000000000000
  0
LINE
  5
254
100
AcDbEntity
  8
MAIN0
  6
HIDDEN
 62
3
100
AcDbLine
 10
223.6784429307448
 20
265.1772105902586
 30
0.0000000000000000
 11
222.4830089678541
 21
260.7157903036570
 31
0.0000000000000000
  0
LINE
  5
255
100
AcDbEntity
  8
MAIN0
  6
HIDDEN
 62
3
100
AcDbLine
 10
222.4830089678541
 20
260.7157903036570
 30
0.0000000000000000
 11
225.7489952915650
 21
257.4498039799461
 31
0.0000000000000000
  0
LINE
  5
256
100
AcDbEntity
  8
MAIN0
  6
HIDDEN
 62
3
100
AcDbLine
 10
225.7489952915650
 20
257.4498039799461
 30
0.0000000000000000
 11
230.2104155781667
 21
258.6452379428368
 31
0.0000000000000000
  0
LINE
  5
257
100
AcDbEntity
  8
MAIN0
  6
HIDDEN
 62
3
100
AcDbLine
 10
230.2104155781667
 20
258.6452379428368
 30
0.0000000000000000
 11
231.4058495410574
 21
263.1066582294384
 31
0.0000000000000000
  0
LINE
  5
258
100
AcDbEntity
  8
MAIN0
  6
HIDDEN
 62
3
100
AcDbLine
 10
231.4058495410574
 20
263.1066582294384
 30
0.0000000000000000
 11
228.1398632173465
 21
266.3726445531494
 31
0.0000000000000000
  0
ARC
  5
259
100
AcDbEntity
  8
MAIN0
  6
CONTINUOUS
 62
3
100
AcDbCircle
 10
226.9444292544557
 20
261.9112242665477
 30
0.0000000000000000
 40
8.000000000000000
100
AcDbArc
 50
71.04538368558917
 51
148.9546163149686
  0
ARC
  5
25A
100
AcDbEntity
  8
MAIN0
  6
HIDDEN
 62
3
100
AcDbCircle
 10
226.9444292544557
 20
261.9112242665477
 30
0.0000000000000000
 40
8.000000000000000
100
AcDbArc
 50
148.9546163149686
 51
431.0453836855892
  0
LINE
  5
25B
100
AcDbEntity
  8
MAIN0
  6
HIDDEN
 62
3
100
AcDbLine
 10
182.0448998375296
 20
157.3438914035156
 30
0.0000000000000000
 11
182.4879474438957
 21
158.2940100614829
 31
0.0000000000000000
  0
LINE
  5
25C
100
AcDbEntity
  8
MAIN0
  6
HIDDEN
 62
3
100
AcDbLine
 10
182.4879474438957
 20
158.2940100614829
 30
0.0000000000000000
 11
187.1864105478252
 21
160.0041107781115
 31
0.0000000000000000
  0
LINE
  5
25D
100
AcDbEntity
  8
MAIN0
  6
HIDDEN
 62
3
100
AcDbLine
 10
187.1864105478251
 20
160.0041107781115
 30
0.0000000000000000
 11
188.1365292057925
 21
159.5610631717454
 31
0.0000000000000000
  0
LINE
  5
25E
100
AcDbEntity
  8
MAIN0
  6
HIDDEN
 62
3
100
AcDbLine
 10
182.1891112051656
 20
157.6531536794271
 30
0.0000000000000000
 11
178.1874755282548
 21
168.6475573426221
 31
0.0000000000000000
  0
LINE
  5
25F
100
AcDbEntity
  8
MAIN0
  6
HIDDEN
 62
3
100
AcDbLine
 10
178.1874755282548
 20
168.6475573426221
 30
0.0000000000000000
 11
183.8256312529702
 21
170.6996782025764
 31
0.0000000000000000
  0
LINE
  5
260
100
AcDbEntity
  8
MAIN0
  6
HIDDEN
 62
3
100
AcDbLine
 10
183.8256312529702
 20
170.6996782025764
 30
0.0000000000000000
 11
187.8272669298810
 21
159.7052745393814
 31
0.0000000000000000
  0
LINE
  5
261
100
AcDbEntity
  8
MAIN0
  6
HIDDEN
 62
3
100
AcDbLine
 10
182.4879474438957
 20
158.2940100614829
 30
0.0000000000000000
 11
177.2892412653449
 21
172.5773378974285
 31
0.0000000000000000
  0
LINE
  5
262
100
AcDbEntity
  8
MAIN0
  6
HIDDEN
 62
3
100
AcDbLine
 10
177.2892412653449
 20
172.5773378974285
 30
0.0000000000000000
 11
181.9877043692744
 21
174.2874386140571
 31
0.0000000000000000
  0
LINE
  5
263
100
AcDbEntity
  8
MAIN0
  6
HIDDEN
 62
3
100
AcDbLine
 10
181.9877043692744
 20
174.2874386140571
 30
0.0000000000000000
 11
187.1864105478252
 21
160.0041107781115
 31
0.0000000000000000
  0
LINE
  5
264
100
AcDbEntity
  8
MAIN0
  6
HIDDEN
 62
3
100
AcDbLine
 10
177.2892412653449
 20
172.5773378974286
 30
0.0000000000000000
 11
179.1448092627662
 21
174.7887177246584
 31
0.0000000000000000
  0
LINE
  5
265
100
AcDbEntity
  8
MAIN0
  6
HIDDEN
 62
3
100
AcDbLine
 10
179.1448092627662
 20
174.7887177246584
 30
0.0000000000000000
 11
181.9877043692744
 21
174.2874386140571
 31
0.0000000000000000
  0
DIMENSION
  5
26E
100
AcDbEntity
  8
MAIN0
  6
CONTINUOUS
 62
3
100
AcDbDimension
  2
*D5
 10
533.4999922828694
 20
255.4997958835060
 30
0.0000000000000000
 11
532.9999922828694
 21
242.4997958835060
 31
0.0000000000000000
 70
32
  1
\A1;\U+220526H8
  3
MAIN001
100
AcDbAlignedDimension
 13
517.6339668785315
 23
229.4997958835060
 33
0.0000000000000000
 14
517.6339668785315
 24
255.4997958835060
 34
0.0000000000000000
 50
90.00000000000000
100
AcDbRotatedDimension
1001
ACAD
1000
DSTYLE
1002
{
1070
   173
1070
     1
1070
     6
1000
_OPEN
1070
     7
1000
_OPEN
1070
    41
1040
2.000000
1002
}
  0
DIMENSION
  5
277
100
AcDbEntity
  8
MAIN0
  6
CONTINUOUS
 62
3
100
AcDbDimension
  2
*D6
 10
553.4999922828694
 20
216.9997958835060
 30
0.0000000000000000
 11
552.9999922828694
 21
242.4997958835060
 31
0.0000000000000000
 70
32
  1
\A1;\U+220551
  3
MAIN001
100
AcDbAlignedDimension
 13
473.4999922828694
 23
267.9997958835060
 33
0.0000000000000000
 14
473.4999922828694
 24
216.9997958835060
 34
0.0000000000000000
 50
90.00000000000000
100
AcDbRotatedDimension
1001
ACAD
1000
DSTYLE
1002
{
1070
   173
1070
     1
1070
     6
1000
_OPEN
1070
     7
1000
_OPEN
1070
    41
1040
2.000000
1002
}
  0
DIMENSION
  5
280
100
AcDbEntity
  8
MAIN0
  6
CONTINUOUS
 62
3
100
AcDbDimension
  2
*D7
 10
458.4999922828694
 20
129.6086453774641
 30
0.0000000000000000
 11
488.4999922828694
 21
130.1086453774641
 31
0.0000000000000000
 70
32
  1
\A1;MAX 60
  3
MAIN001
100
AcDbAlignedDimension
 13
518.4999922828694
 23
227.4997958835060
 33
0.0000000000000000
 14
458.4999922828694
 24
160.4997958835060
 34
0.0000000000000000
100
AcDbRotatedDimension
1001
ACAD
1000
DSTYLE
1002
{
1070
   173
1070
     1
1070
     6
1000
_OPEN
1070
     7
1000
_OPEN
1070
    41
1040
2.000000
1002
}
  0
DIMENSION
  5
28B
100
AcDbEntity
  8
MAIN0
  6
CONTINUOUS
 62
3
100
AcDbDimension
  2
*D8
 10
513.4999922828694
 20
209.9997958835060
 30
0.0000000000000000
 11
515.9999922828694
 21
210.4997958835060
 31
0.0000000000000000
 70
32
  3
MAIN001
100
AcDbAlignedDimension
 13
518.4999922828694
 23
226.4997958835061
 33
0.0000000000000000
 14
513.4999922828694
 24
229.4997958835060
 34
0.0000000000000000
100
AcDbRotatedDimension
1001
ACAD
1000
DSTYLE
1002
{
1070
   173
1070
     1
1070
     6
1000
_OPEN
1070
     7
1000
_OPEN
1070
    41
1040
2.000000
1070
   287
1070
     0
1002
}
  0
DIMENSION
  5
294
100
AcDbEntity
  8
MAIN0
  6
CONTINUOUS
 62
3
100
AcDbDimension
  2
*D9
 10
483.4999922828694
 20
202.4997958835060
 30
0.0000000000000000
 11
500.9999922828694
 21
202.9997958835060
 31
0.0000000000000000
 70
32
  3
MAIN001
100
AcDbAlignedDimension
 13
518.4999922828694
 23
226.4997958835061
 33
0.0000000000000000
 14
483.4999922828694
 24
230.4997958835060
 34
0.0000000000000000
100
AcDbRotatedDimension
1001
ACAD
1000
DSTYLE
1002
{
1070
   173
1070
     1
1070
     6
1000
_OPEN
1070
     7
1000
_OPEN
1070
    41
1040
2.000000
1002
}
  0
DIMENSION
  5
29D
100
AcDbEntity
  8
MAIN0
  6
CONTINUOUS
 62
3
100
AcDbDimension
  2
*D10
 10
573.4999922828695
 20
158.4997958835060
 30
0.0000000000000000
 11
572.9999922828695
 21
242.4997958835060
 31
0.0000000000000000
 70
32
  1
\A1;\U+2205168h7
  3
MAIN001
100
AcDbAlignedDimension
 13
457.4999922828694
 23
326.4997958835060
 33
0.0000000000000000
 14
456.4999922828694
 24
158.4997958835060
 34
0.0000000000000000
 50
90.00000000000000
100
AcDbRotatedDimension
1001
ACAD
1000
DSTYLE
1002
{
1070
   173
1070
     1
1070
     6
1000
_OPEN
1070
     7
1000
_OPEN
1070
    41
1040
2.000000
1002
}
  0
DIMENSION
  5
2A5
100
AcDbEntity
  8
MAIN0
  6
CONTINUOUS
 62
3
100
AcDbDimension
  2
*D11
 10
458.4999922828694
 20
202.4997958835060
 30
0.0000000000000000
 11
465.9999922828694
 21
202.9997958835060
 31
0.0000000000000000
 70
32
  3
MAIN001
100
AcDbAlignedDimension
 13
473.4999922828694
 23
217.4997958835060
 33
0.0000000000000000
 14
458.4999922828694
 24
193.4997958835060
 34
0.0000000000000000
100
AcDbRotatedDimension
1001
ACAD
1000
DSTYLE
1002
{
1070
   173
1070
     1
1070
     6
1000
_OPEN
1070
     7
1000
_OPEN
1070
    41
1040
2.000000
1002
}
  0
DIMENSION
  5
2AE
100
AcDbEntity
  8
MAIN0
  6
CONTINUOUS
 62
3
100
AcDbDimension
  2
*D12
 10
314.4999922828701
 20
129.6086453774641
 30
0.0000000000000000
 11
386.4999922828698
 21
130.1086453774641
 31
0.0000000000000000
 70
32
  3
MAIN001
100
AcDbAlignedDimension
 13
458.4999922828694
 23
157.9997958835060
 33
0.0000000000000000
 14
314.4999922828701
 24
151.6997958835059
 34
0.0000000000000000
100
AcDbRotatedDimension
1001
ACAD
1000
DSTYLE
1002
{
1070
   173
1070
     1
1070
     6
1000
_OPEN
1070
     7
1000
_OPEN
1070
    41
1040
2.000000
1002
}
  0
SPLINE
  5
2AF
100
AcDbEntity
  8
MAIN0
  6
CONTINUOUS
 62
3
100
AcDbSpline
210
0.0000000000000000
220
0.0000000000000000
230
1.000000000000000
 70
     8
 71
     3
 72
    12
 73
     8
 74
     0
 42
1.000000000000000e-007
 43
1.000000000000000e-007
 12
-0.9843910952784967
 22
0.2225774147535873
 32
0.0000000000000000
 13
-0.6718668810270145
 23
0.9454782855396431
 33
0.0000000000000000
 40
0.0000000000000000
 40
0.0000000000000000
 40
0.0000000000000000
 40
0.0000000000000000
 40
12.42700765638719
 40
26.88310440830115
 40
44.16230047928581
 40
81.71366846864689
 40
105.3004943214719
 40
105.3004943214719
 40
105.3004943214719
 40
105.3004943214719
 10
409.4999922828700
 20
265.9628881499716
 30
0.0000000000000000
 10
405.4223137235682
 20
266.8848785623989
 30
0.0000000000000000
 10
396.6011508592437
 20
268.8794025223157
 30
0.0000000000000000
 10
381.1414177533083
 20
260.8695742490794
 30
0.0000000000000000
 10
364.6168724160716
 20
286.2641667459984
 30
0.0000000000000000
 10
333.4746371920165
 20
255.8088129472503
 30
0.0000000000000000
 10
319.7823946558917
 20
275.0770911788837
 30
0.0000000000000000
 10
314.4999922828701
 20
282.5107017351008
 30
0.0000000000000000
  0
LINE
  5
2B0
100
AcDbEntity
  8
MAIN0
  6
CONTINUOUS
 62
3
100
AcDbLine
 10
473.4999922828694
 20
216.9997958835060
 30
0.0000000000000000
 11
473.4999922828694
 21
267.9997958835060
 31
0.0000000000000000
  0
LINE
  5
2B1
100
AcDbEntity
  8
MAIN0
  6
CONTINUOUS
 62
3
100
AcDbLine
 10
334.4999922828701
 20
266.5040464894423
 30
0.0000000000000000
 11
334.4999922828701
 21
331.5997958835062
 31
0.0000000000000000
  0
LINE
  5
2B2
100
AcDbEntity
  8
MAIN0
  6
CONTINUOUS
 62
3
100
AcDbLine
 10
374.4999922828702
 20
270.4812150132301
 30
0.0000000000000000
 11
374.4999922828702
 21
278.0997958835059
 31
0.0000000000000000
  0
LINE
  5
2B3
100
AcDbEntity
  8
MAIN0
  6
CONTINUOUS
 62
3
100
AcDbLine
 10
375.4999922828699
 20
269.5018279385872
 30
0.0000000000000000
 11
375.4999922828699
 21
277.4997958835058
 31
0.0000000000000000
  0
LINE
  5
2B4
100
AcDbEntity
  8
MAIN0
  6
CONTINUOUS
 62
3
100
AcDbLine
 10
409.4999922828700
 20
154.9997958835058
 30
0.0000000000000000
 11
409.4999922828700
 21
265.9628881499716
 31
0.0000000000000000
  0
LINE
  5
2B5
100
AcDbEntity
  8
MAIN0
  6
CONTINUOUS
 62
3
100
AcDbLine
 10
409.4999922828700
 20
326.4997958835060
 30
0.0000000000000000
 11
409.4999922828700
 21
329.4997958835062
 31
0.0000000000000000
  0
DIMENSION
  5
2BE
100
AcDbEntity
  8
MAIN0
  6
CONTINUOUS
 62
3
100
AcDbDimension
  2
*D13
 10
458.4999922828694
 20
140.4350817389502
 30
0.0000000000000000
 11
391.4999922828715
 21
140.9350817389502
 31
0.0000000000000000
 70
32
  3
MAIN001
100
AcDbAlignedDimension
 13
324.4999922828737
 23
150.2997422351079
 33
0.0000000000000000
 14
458.4999922828694
 24
160.4997958835060
 34
0.0000000000000000
100
AcDbRotatedDimension
1001
ACAD
1000
DSTYLE
1002
{
1070
   173
1070
     1
1070
     6
1000
_OPEN
1070
     7
1000
_OPEN
1070
    41
1040
2.000000
1002
}
  0
MTEXT
  5
2BF
100
AcDbEntity
  8
MAIN0
  6
CONTINUOUS
 62
3
100
AcDbMText
 10
427.7653975864832
 20
375.8279413412492
 30
0.0000000000000000
 40
3.099999904632568
 41
0.0000000000000000
 71
     1
 72
     1
  1
{\H0.70x;{MAX 79}}
 11
1.000000000000000
 21
0.0000000000000000
 31
0.0000000000000000
  7
STANDARD
  0
CIRCLE
  5
2C0
100
AcDbEntity
  8
MAIN0
  6
CONTINUOUS
 62
3
100
AcDbCircle
 10
553.4999922828232
 20
135.0218635582221
 30
0.0000000000000000
 40
13.00000000000000
  0
CIRCLE
  5
2C1
100
AcDbEntity
  8
MAIN0
  6
CONTINUOUS
 62
3
100
AcDbCircle
 10
553.4999922828232
 20
135.0218635582222
 30
0.0000000000000000
 40
12.00000000000000
  0
CIRCLE
  5
2C2
100
AcDbEntity
  8
MAIN0
  6
CONTINUOUS
 62
3
100
AcDbCircle
 10
553.4999922828232
 20
135.0218635582222
 30
0.0000000000000000
 40
10.75000000000000
  0
LINE
  5
2C3
100
AcDbEntity
  8
MAIN0
  6
CONTINUOUS
 62
3
100
AcDbLine
 10
458.4999922828694
 20
160.4997958835060
 30
0.0000000000000000
 11
458.4999922828694
 21
325.4997958835060
 31
0.0000000000000000
  0
LINE
  5
2C4
100
AcDbEntity
  8
MAIN0
  6
CONTINUOUS
 62
3
100
AcDbLine
 10
284.7632079285356
 20
337.7937246573194
 30
0.0000000000000000
 11
295.4656674772855
 21
360.7452232260872
 31
0.0000000000000000
  0
LINE
  5
2C5
100
AcDbEntity
  8
MAIN0
  6
CONTINUOUS
 62
3
100
AcDbLine
 10
279.7785150998341
 20
340.1181250968933
 30
0.0000000000000000
 11
290.4809746485839
 21
363.0696236656611
 31
0.0000000000000000
  0
LINE
  5
2C6
100
AcDbEntity
  8
MAIN0
  6
CONTINUOUS
 62
3
100
AcDbLine
 10
257.5739743174362
 20
350.4722725095404
 30
0.0000000000000000
 11
268.2764338661861
 21
373.4237710783082
 31
0.0000000000000000
  0
LINE
  5
2C7
100
AcDbEntity
  8
MAIN0
  6
CONTINUOUS
 62
3
100
AcDbLine
 10
252.5892814887346
 20
352.7966729491142
 30
0.0000000000000000
 11
263.2917410374845
 21
375.7481715178820
 31
0.0000000000000000
  0
INSERT
  5
2CE
100
AcDbEntity
  8
MAIN0
  6
CONTINUOUS
 62
2
100
AcDbBlockReference
  2
M1
 10
0.0000000000000000
 20
0.0000000000000000
 30
0.0000000000000000
 50
0.0000000000000000
  0
INSERT
  5
2D5
100
AcDbEntity
  8
MAIN0
  6
CONTINUOUS
 62
2
100
AcDbBlockReference
  2
M2
 10
0.0000000000000000
 20
0.0000000000000000
 30
0.0000000000000000
 50
0.0000000000000000
  0
MTEXT
  5
2D6
100
AcDbEntity
  8
MAIN0
  6
CONTINUOUS
 62
3
100
AcDbMText
 10
510.0544594700228
 20
310.1049646561692
 30
0.0000000000000000
 40
5.000000000000000
 41
0.0000000000000000
 71
     1
 72
     1
  1
{\H0.82x;{P}}
 11
1.000000000000000
 21
0.0000000000000000
 31
0.0000000000000000
  7
STANDARD
  0
LINE
  5
2D7
100
AcDbEntity
  8
MAIN0
  6
PHANTOM
 62
3
100
AcDbLine
 10
458.4999922828694
 20
289.9997958835060
 30
0.0000000000000000
 11
499.8815141712350
 21
289.9997958835060
 31
0.0000000000000000
  0
LINE
  5
2D8
100
AcDbEntity
  8
MAIN0
  6
PHANTOM
 62
3
100
AcDbLine
 10
458.4999922828694
 20
194.9997958835060
 30
0.0000000000000000
 11
498.2668154546291
 21
194.9997958835060
 31
0.0000000000000000
  0
DIMENSION
  5
2E1
100
AcDbEntity
  8
MAIN0
  6
CONTINUOUS
 62
3
100
AcDbDimension
  2
*D14
 10
458.4999922828694
 20
140.4350817389502
 30
0.0000000000000000
 11
467.4999922828696
 21
140.9350817389502
 31
0.0000000000000000
 70
32
  3
MAIN001
100
AcDbAlignedDimension
 13
476.4999922828699
 23
162.4997958835060
 33
0.0000000000000000
 14
458.4999922828694
 24
160.4997958835060
 34
0.0000000000000000
100
AcDbRotatedDimension
1001
ACAD
1000
DSTYLE
1002
{
1070
   173
1070
     1
1070
     6
1000
_OPEN
1070
     7
1000
_OPEN
1070
    41
1040
2.000000
1002
}
  0
DIMENSION
  5
2EA
100
AcDbEntity
  8
MAIN0
  6
CONTINUOUS
 62
3
100
AcDbDimension
  2
*D15
 10
372.4999922828700
 20
376.4997958835060
 30
0.0000000000000000
 11
390.9999922828700
 21
376.9997958835060
 31
0.0000000000000000
 70
32
  3
MAIN001
100
AcDbAlignedDimension
 13
409.4999922828700
 23
329.4997958835062
 33
0.0000000000000000
 14
372.4999922828700
 24
329.4997958835062
 34
0.0000000000000000
100
AcDbRotatedDimension
1001
ACAD
1000
DSTYLE
1002
{
1070
   173
1070
     1
1070
     6
1000
_OPEN
1070
     7
1000
_OPEN
1070
    41
1040
2.000000
1002
}
  0
DIMENSION
  5
2F3
100
AcDbEntity
  8
MAIN0
  6
CONTINUOUS
 62
3
100
AcDbDimension
  2
*D16
 10
409.4999922828700
 20
376.4997958835060
 30
0.0000000000000000
 11
433.9999922828697
 21
376.9997958835060
 31
0.0000000000000000
 70
32
  1
\A1;MIN 49
  3
MAIN001
100
AcDbAlignedDimension
 13
458.4999922828694
 23
325.4997958835060
 33
0.0000000000000000
 14
409.4999922828700
 24
329.4997958835062
 34
0.0000000000000000
100
AcDbRotatedDimension
1001
ACAD
1000
DSTYLE
1002
{
1070
   173
1070
     1
1070
     6
1000
_OPEN
1070
     7
1000
_OPEN
1070
    41
1040
2.000000
1002
}
  0
LINE
  5
2F4
100
AcDbEntity
  8
MAIN0
  6
CONTINUOUS
 62
3
100
AcDbLine
 10
537.4999922828247
 20
127.9331401188401
 30
0.0000000000000000
 11
537.4999922828220
 21
142.1105869975979
 31
0.0000000000000000
  0
LINE
  5
2F5
100
AcDbEntity
  8
MAIN0
  6
CONTINUOUS
 62
3
100
AcDbLine
 10
569.4999922828247
 20
127.9331401188463
 30
0.0000000000000000
 11
569.4999922828220
 21
142.1105869976041
 31
0.0000000000000000
  0
DIMENSION
  5
2FE
100
AcDbEntity
  8
MAIN0
  6
CONTINUOUS
 62
3
100
AcDbDimension
  2
*D17
 10
537.4999922828246
 20
105.0218635582154
 30
0.0000000000000000
 11
550.3249921963978
 21
105.5218635582154
 31
0.0000000000000000
 70
32
  3
MAIN001
100
AcDbAlignedDimension
 13
569.4999922828246
 23
127.9331401188463
 33
0.0000000000000000
 14
537.4999922828246
 24
127.9331401188401
 34
0.0000000000000000
100
AcDbRotatedDimension
1001
ACAD
1000
DSTYLE
1002
{
1070
   173
1070
     1
1070
     6
1000
_OPEN
1070
     7
1000
_OPEN
1070
    41
1040
2.000000
1070
   272
1070
     1
1070
    47
1040
0.000000
1070
    48
1040
0.400000
1070
    71
1070
     1
1002
}
  0
MTEXT
  5
2FF
100
AcDbEntity
  8
MAIN0
  6
CONTINUOUS
 62
3
100
AcDbMText
 10
510.0544594700228
 20
187.6049646561693
 30
0.0000000000000000
 40
5.000000000000000
 41
0.0000000000000000
 71
     1
 72
     1
  1
{\H0.82x;{P}}
 11
1.000000000000000
 21
0.0000000000000000
 31
0.0000000000000000
  7
STANDARD
  0
LINE
  5
300
100
AcDbEntity
  8
MAIN0
  6
CONTINUOUS
 62
3
100
AcDbLine
 10
473.4999922828694
 20
224.4997958835060
 30
0.0000000000000000
 11
502.4999922828694
 21
224.4997958835060
 31
0.0000000000000000
  0
LINE
  5
301
100
AcDbEntity
  8
MAIN0
  6
CONTINUOUS
 62
3
100
AcDbLine
 10
473.4999922828694
 20
260.4997958835060
 30
0.0000000000000000
 11
502.4999922828692
 21
260.4997958835060
 31
0.0000000000000000
  0
LINE
  5
302
100
AcDbEntity
  8
MAIN0
  6
CONTINUOUS
 62
3
100
AcDbLine
 10
502.4999922828694
 20
224.4997958835060
 30
0.0000000000000000
 11
503.3660176866566
 21
224.9997958835060
 31
0.0000000000000000
  0
LINE
  5
303
100
AcDbEntity
  8
MAIN0
  6
CONTINUOUS
 62
3
100
AcDbLine
 10
503.3660176866565
 20
224.9997958835060
 30
0.0000000000000000
 11
517.4999922828694
 21
224.9997958835060
 31
0.0000000000000000
  0
LINE
  5
304
100
AcDbEntity
  8
MAIN0
  6
CONTINUOUS
 62
3
100
AcDbLine
 10
517.4999922828694
 20
224.9997958835061
 30
0.0000000000000000
 11
518.4999922828692
 21
225.9997958835060
 31
0.0000000000000000
  0
LINE
  5
305
100
AcDbEntity
  8
MAIN0
  6
CONTINUOUS
 62
3
100
AcDbLine
 10
502.4999922828692
 20
260.4997958835061
 30
0.0000000000000000
 11
503.3660176866565
 21
259.9997958835060
 31
0.0000000000000000
  0
LINE
  5
306
100
AcDbEntity
  8
MAIN0
  6
CONTINUOUS
 62
3
100
AcDbLine
 10
503.3660176866566
 20
259.9997958835060
 30
0.0000000000000000
 11
517.4999922828694
 21
259.9997958835060
 31
0.0000000000000000
  0
LINE
  5
307
100
AcDbEntity
  8
MAIN0
  6
CONTINUOUS
 62
3
100
AcDbLine
 10
517.4999922828694
 20
259.9997958835060
 30
0.0000000000000000
 11
518.4999922828694
 21
258.9997958835060
 31
0.0000000000000000
  0
DIMENSION
  5
310
100
AcDbEntity
  8
MAIN0
  6
CONTINUOUS
 62
3
100
AcDbDimension
  2
*D18
 10
543.4999922828694
 20
260.4997958835060
 30
0.0000000000000000
 11
542.9999922828694
 21
242.4997958835060
 31
0.0000000000000000
 70
32
  1
\A1;\U+220536
  3
MAIN001
100
AcDbAlignedDimension
 13
502.4999922828694
 23
224.4997958835060
 33
0.0000000000000000
 14
502.4999922828692
 24
260.4997958835060
 34
0.0000000000000000
 50
90.00000000000000
100
AcDbRotatedDimension
1001
ACAD
1000
DSTYLE
1002
{
1070
   173
1070
     1
1070
     6
1000
_OPEN
1070
     7
1000
_OPEN
1070
    41
1040
2.000000
1002
}
  0
CIRCLE
  5
311
100
AcDbEntity
  8
MAIN0
  6
CONTINUOUS
 62
3
100
AcDbCircle
 10
54.60223366183948
 20
343.1229192484955
 30
0.0000000000000000
 40
4.250000000000000
  0
LINE
  5
312
100
AcDbEntity
  8
MAIN0
  6
CONTINUOUS
 62
3
100
AcDbLine
 10
54.60223366183936
 20
345.4323203252540
 30
0.0000000000000000
 11
52.60223366183942
 21
344.2776197868748
 31
0.0000000000000000
  0
LINE
  5
313
100
AcDbEntity
  8
MAIN0
  6
CONTINUOUS
 62
3
100
AcDbLine
 10
52.60223366183948
 20
344.2776197868748
 30
0.0000000000000000
 11
52.60223366183948
 21
341.9682187101163
 31
0.0000000000000000
  0
LINE
  5
314
100
AcDbEntity
  8
MAIN0
  6
CONTINUOUS
 62
3
100
AcDbLine
 10
52.60223366183948
 20
341.9682187101162
 30
0.0000000000000000
 11
54.60223366183948
 21
340.8135181717370
 31
0.0000000000000000
  0
LINE
  5
315
100
AcDbEntity
  8
MAIN0
  6
CONTINUOUS
 62
3
100
AcDbLine
 10
54.60223366183942
 20
340.8135181717370
 30
0.0000000000000000
 11
56.60223366183948
 21
341.9682187101163
 31
0.0000000000000000
  0
LINE
  5
316
100
AcDbEntity
  8
MAIN0
  6
CONTINUOUS
 62
3
100
AcDbLine
 10
56.60223366183953
 20
341.9682187101163
 30
0.0000000000000000
 11
56.60223366183953
 21
344.2776197868748
 31
0.0000000000000000
  0
LINE
  5
317
100
AcDbEntity
  8
MAIN0
  6
CONTINUOUS
 62
3
100
AcDbLine
 10
56.60223366183948
 20
344.2776197868747
 30
0.0000000000000000
 11
54.60223366183948
 21
345.4323203252540
 31
0.0000000000000000
  0
CIRCLE
  5
318
100
AcDbEntity
  8
MAIN0
  6
CONTINUOUS
 62
3
100
AcDbCircle
 10
84.60223366183939
 20
343.1229192484960
 30
0.0000000000000000
 40
4.250000000000000
  0
LINE
  5
319
100
AcDbEntity
  8
MAIN0
  6
CONTINUOUS
 62
3
100
AcDbLine
 10
84.60223366183942
 20
345.4323203252546
 30
0.0000000000000000
 11
82.60223366183942
 21
344.2776197868753
 31
0.0000000000000000
  0
LINE
  5
31A
100
AcDbEntity
  8
MAIN0
  6
CONTINUOUS
 62
3
100
AcDbLine
 10
82.60223366183939
 20
344.2776197868752
 30
0.0000000000000000
 11
82.60223366183939
 21
341.9682187101167
 31
0.0000000000000000
  0
LINE
  5
31B
100
AcDbEntity
  8
MAIN0
  6
CONTINUOUS
 62
3
100
AcDbLine
 10
82.60223366183953
 20
341.9682187101166
 30
0.0000000000000000
 11
84.60223366183945
 21
340.8135181717374
 31
0.0000000000000000
  0
LINE
  5
31C
100
AcDbEntity
  8
MAIN0
  6
CONTINUOUS
 62
3
100
AcDbLine
 10
84.60223366183942
 20
340.8135181717375
 30
0.0000000000000000
 11
86.60223366183942
 21
341.9682187101168
 31
0.0000000000000000
  0
LINE
  5
31D
100
AcDbEntity
  8
MAIN0
  6
CONTINUOUS
 62
3
100
AcDbLine
 10
86.60223366183939
 20
341.9682187101167
 30
0.0000000000000000
 11
86.60223366183939
 21
344.2776197868752
 31
0.0000000000000000
  0
LINE
  5
31E
100
AcDbEntity
  8
MAIN0
  6
CONTINUOUS
 62
3
100
AcDbLine
 10
86.60223366183931
 20
344.2776197868752
 30
0.0000000000000000
 11
84.60223366183942
 21
345.4323203252544
 31
0.0000000000000000
  0
ARC
  5
31F
100
AcDbEntity
  8
MAIN0
  6
CONTINUOUS
 62
3
100
AcDbCircle
 10
84.60223366183882
 20
372.6229192484960
 30
0.0000000000000000
 40
2.749999999999886
100
AcDbArc
 50
0.0000000000000000
 51
180.0000000000000
  0
ARC
  5
320
100
AcDbEntity
  8
MAIN0
  6
CONTINUOUS
 62
3
100
AcDbCircle
 10
54.60223366183891
 20
372.6229192484956
 30
0.0000000000000000
 40
2.749999999999716
100
AcDbArc
 50
0.0000000000000000
 51
180.0000000000000
  0
LINE
  5
321
100
AcDbEntity
  8
MAIN0
  6
CENTER
 62
3
100
AcDbLine
 10
50.22799594065975
 20
372.6229192484955
 30
0.0000000000000000
 11
58.64793088022660
 21
372.6229192484956
 31
0.0000000000000000
  0
LINE
  5
322
100
AcDbEntity
  8
MAIN0
  6
CENTER
 62
3
100
AcDbLine
 10
79.61680430951427
 20
372.6229192484959
 30
0.0000000000000000
 11
88.68442667090974
 21
372.6229192484960
 31
0.0000000000000000
  0
LINE
  5
323
100
AcDbEntity
  8
MAIN0
  6
CONTINUOUS
 62
3
100
AcDbLine
 10
49.60223366183931
 20
404.1229192484956
 30
0.0000000000000000
 11
89.60223366183894
 21
404.1229192484960
 31
0.0000000000000000
  0
LINE
  5
324
100
AcDbEntity
  8
MAIN0
  6
CENTER
 62
3
100
AcDbLine
 10
58.26248769856653
 20
321.1229192484981
 30
0.0000000000000000
 11
80.85935783935392
 21
321.1229192484984
 31
0.0000000000000000
  0
LINE
  5
325
100
AcDbEntity
  8
MAIN0
  6
CENTER
 62
3
100
AcDbLine
 10
58.26248769856591
 20
366.1229192484956
 30
0.0000000000000000
 11
80.85935783935327
 21
366.1229192484959
 31
0.0000000000000000
  0
ARC
  5
326
100
AcDbEntity
  8
MAIN0
  6
HIDDEN
 62
3
100
AcDbCircle
 10
69.60223366183905
 20
366.1229192484958
 30
0.0000000000000000
 40
6.500000000000000
100
AcDbArc
 50
0.0000000000000000
 51
180.0000000000000
  0
CIRCLE
  5
327
100
AcDbEntity
  8
MAIN0
  6
CONTINUOUS
 62
3
100
AcDbCircle
 10
84.60223366183928
 20
343.1229192484960
 30
0.0000000000000000
 40
5.000000000000000
  0
CIRCLE
  5
328
100
AcDbEntity
  8
MAIN0
  6
CONTINUOUS
 62
3
100
AcDbCircle
 10
54.60223366183936
 20
343.1229192484957
 30
0.0000000000000000
 40
5.000000000000000
  0
LINE
  5
329
100
AcDbEntity
  8
MAIN0
  6
CONTINUOUS
 62
3
100
AcDbLine
 10
89.60223366296282
 20
404.1229192484960
 30
0.0000000000000000
 11
89.60223366296350
 21
331.9508127394082
 31
0.0000000000000000
  0
LINE
  5
32A
100
AcDbEntity
  8
MAIN0
  6
PHANTOM
 62
3
100
AcDbLine
 10
46.76199797200326
 20
392.1229192484951
 30
0.0000000000000000
 11
95.09932360116599
 21
392.1229192484957
 31
0.0000000000000000
  0
LINE
  5
32B
100
AcDbEntity
  8
MAIN0
  6
PHANTOM
 62
3
100
AcDbLine
 10
46.23191952118793
 20
355.1229192484956
 30
0.0000000000000000
 11
94.56924515035050
 21
355.1229192484962
 31
0.0000000000000000
  0
LINE
  5
32C
100
AcDbEntity
  8
MAIN0
  6
CENTER
 62
3
100
AcDbLine
 10
92.10926484552368
 20
343.1229192484984
 30
0.0000000000000000
 11
77.25602286656687
 21
343.1229192484983
 31
0.0000000000000000
  0
LINE
  5
32D
100
AcDbEntity
  8
MAIN0
  6
CONTINUOUS
 62
3
100
AcDbLine
 10
49.60223366183925
 20
331.9508127394082
 30
0.0000000000000000
 11
49.60223366183925
 21
404.1229192484955
 31
0.0000000000000000
  0
MTEXT
  5
32E
100
AcDbEntity
  8
MAIN0
  6
CONTINUOUS
 62
3
100
AcDbMText
 10
63.40611859484361
 20
305.5944006432145
 30
0.0000000000000000
 40
4.000000000000000
 41
0.0000000000000000
 71
     1
 72
     1
  1
{\H0.91x;{矢視Ｑ}}
 11
1.000000000000000
 21
0.0000000000000000
 31
0.0000000000000000
  7
KNJYOKO
  0
LINE
  5
32F
100
AcDbEntity
  8
MAIN0
  6
CONTINUOUS
 62
3
100
AcDbLine
 10
61.88408589006062
 20
300.6229192484958
 30
0.0000000000000000
 11
77.30023406790392
 21
300.6229192484958
 31
0.0000000000000000
  0
LINE
  5
330
100
AcDbEntity
  8
MAIN0
  6
CONTINUOUS
 62
3
100
AcDbLine
 10
58.26248769856602
 20
380.1229192484957
 30
0.0000000000000000
 11
80.94197962511163
 21
380.1229192484959
 31
0.0000000000000000
  0
LINE
  5
331
100
AcDbEntity
  8
MAIN0
  6
CENTER
 62
3
100
AcDbLine
 10
46.90301233299311
 20
343.1229192484977
 30
0.0000000000000000
 11
62.12617832271641
 21
343.1229192484980
 31
0.0000000000000000
  0
LINE
  5
332
100
AcDbEntity
  8
MAIN0
  6
CENTER
 62
3
100
AcDbLine
 10
84.60223366183931
 20
336.7046714833065
 30
0.0000000000000000
 11
84.60223366183880
 21
378.7548181204110
 31
0.0000000000000000
  0
LINE
  5
333
100
AcDbEntity
  8
MAIN0
  6
CENTER
 62
3
100
AcDbLine
 10
54.60223366183948
 20
337.4295868928591
 30
0.0000000000000000
 11
54.60223366183897
 21
379.3604638387379
 31
0.0000000000000000
  0
LINE
  5
334
100
AcDbEntity
  8
MAIN0
  6
CENTER
 62
3
100
AcDbLine
 10
57.46365828913446
 20
362.1229192484956
 30
0.0000000000000000
 11
80.85935783935344
 21
362.1229192484959
 31
0.0000000000000000
  0
LINE
  5
335
100
AcDbEntity
  8
MAIN0
  6
PHANTOM
 62
3
100
AcDbLine
 10
78.10223366218150
 20
367.0303965360725
 30
0.0000000000000000
 11
69.60223366156006
 21
371.9378738245588
 31
0.0000000000000000
  0
LINE
  5
336
100
AcDbEntity
  8
MAIN0
  6
PHANTOM
 62
3
100
AcDbLine
 10
78.10223366183902
 20
357.2154419607060
 30
0.0000000000000000
 11
78.10223366183891
 21
367.0303965362703
 31
0.0000000000000000
  0
CIRCLE
  5
337
100
AcDbEntity
  8
MAIN0
  6
PHANTOM
 62
3
100
AcDbCircle
 10
69.60223366183882
 20
362.1229192484960
 30
0.0000000000000000
 40
8.499999999999972
  0
LINE
  5
338
100
AcDbEntity
  8
MAIN0
  6
PHANTOM
 62
3
100
AcDbLine
 10
69.60223366120408
 20
352.3079646722433
 30
0.0000000000000000
 11
78.10223366183914
 21
357.2154419607061
 31
0.0000000000000000
  0
LINE
  5
339
100
AcDbEntity
  8
MAIN0
  6
PHANTOM
 62
3
100
AcDbLine
 10
69.60223366154673
 20
352.3079646721034
 30
0.0000000000000000
 11
61.10223366198181
 21
357.2154419599797
 31
0.0000000000000000
  0
LINE
  5
33A
100
AcDbEntity
  8
MAIN0
  6
PHANTOM
 62
3
100
AcDbLine
 10
61.10223366183914
 20
357.2154419600620
 30
0.0000000000000000
 11
61.10223366183902
 21
367.0303965369454
 31
0.0000000000000000
  0
LINE
  5
33B
100
AcDbEntity
  8
MAIN0
  6
PHANTOM
 62
3
100
AcDbLine
 10
61.10223366183885
 20
367.0303965369454
 30
0.0000000000000000
 11
69.60223366141736
 21
371.9378738247983
 31
0.0000000000000000
  0
LINE
  5
33C
100
AcDbEntity
  8
MAIN0
  6
CONTINUOUS
 62
3
100
AcDbLine
 10
58.26248769856653
 20
335.6229192484958
 30
0.0000000000000000
 11
80.94197962511217
 21
335.6229192484960
 31
0.0000000000000000
  0
ARC
  5
33D
100
AcDbEntity
  8
MAIN0
  6
CONTINUOUS
 62
3
100
AcDbCircle
 10
69.60223366183973
 20
321.1229192485167
 30
0.0000000000000000
 40
6.500000000000085
100
AcDbArc
 50
180.0000000000000
 51
360.0000000000000
  0
LINE
  5
33E
100
AcDbEntity
  8
MAIN0
  6
CONTINUOUS
 62
3
100
AcDbLine
 10
87.35223366183874
 20
372.6229192484958
 30
0.0000000000000000
 11
87.35223366183917
 21
347.2987425206185
 31
0.0000000000000000
  0
LINE
  5
33F
100
AcDbEntity
  8
MAIN0
  6
CONTINUOUS
 62
3
100
AcDbLine
 10
81.85223366183885
 20
372.6229192484958
 30
0.0000000000000000
 11
81.85223366183928
 21
347.2987425206184
 31
0.0000000000000000
  0
LINE
  5
340
100
AcDbEntity
  8
MAIN0
  6
CONTINUOUS
 62
3
100
AcDbLine
 10
57.35223366183868
 20
372.6229192484956
 30
0.0000000000000000
 11
57.35223366183925
 21
347.2987425206183
 31
0.0000000000000000
  0
LINE
  5
341
100
AcDbEntity
  8
MAIN0
  6
CONTINUOUS
 62
3
100
AcDbLine
 10
51.85223366183868
 20
372.6229192484955
 30
0.0000000000000000
 11
51.85223366183925
 21
347.2987425206181
 31
0.0000000000000000
  0
LINE
  5
342
100
AcDbEntity
  8
MAIN0
  6
CONTINUOUS
 62
3
100
AcDbLine
 10
63.10223366183911
 20
321.1229192484981
 30
0.0000000000000000
 11
63.10223366183902
 21
335.6229192484959
 31
0.0000000000000000
  0
LINE
  5
343
100
AcDbEntity
  8
MAIN0
  6
HIDDEN
 62
3
100
AcDbLine
 10
76.10223366183936
 20
335.6229192484960
 30
0.0000000000000000
 11
76.10223366183880
 21
367.1229192484959
 31
0.0000000000000000
  0
LINE
  5
344
100
AcDbEntity
  8
MAIN0
  6
CONTINUOUS
 62
3
100
AcDbLine
 10
76.10223366183894
 20
321.1229192484983
 30
0.0000000000000000
 11
76.10223366183885
 21
335.6229192484960
 31
0.0000000000000000
  0
LINE
  5
345
100
AcDbEntity
  8
MAIN0
  6
HIDDEN
 62
3
100
AcDbLine
 10
63.10223366183936
 20
335.6229192484959
 30
0.0000000000000000
 11
63.10223366183874
 21
367.1229192484958
 31
0.0000000000000000
  0
LINE
  5
346
100
AcDbEntity
  8
MAIN0
  6
CONTINUOUS
 62
3
100
AcDbLine
 10
80.94197962511154
 20
380.1229192484962
 30
0.0000000000000000
 11
89.60223366296287
 21
375.1229192484964
 31
0.0000000000000000
  0
LINE
  5
347
100
AcDbEntity
  8
MAIN0
  6
CONTINUOUS
 62
3
100
AcDbLine
 10
49.60223366071449
 20
375.1229192484958
 30
0.0000000000000000
 11
58.26248769856585
 21
380.1229192484959
 31
0.0000000000000000
  0
LINE
  5
348
100
AcDbEntity
  8
MAIN0
  6
CENTER
 62
3
100
AcDbLine
 10
69.60223366183865
 20
396.3602817342758
 30
0.0000000000000000
 11
69.60223366183959
 21
309.1732963424543
 31
0.0000000000000000
  0
LINE
  5
349
100
AcDbEntity
  8
MAIN0
  6
CENTER
 62
3
100
AcDbLine
 10
69.60223366183854
 20
406.7100306395137
 30
0.0000000000000000
 11
69.60223366183863
 21
401.9786956929557
 31
0.0000000000000000
  0
LINE
  5
34A
100
AcDbEntity
  8
MAIN0
  6
CONTINUOUS
 62
3
100
AcDbLine
 10
49.60223366071512
 20
340.6229192484955
 30
0.0000000000000000
 11
50.71153412523637
 21
339.9824643266926
 31
0.0000000000000000
  0
LINE
  5
34B
100
AcDbEntity
  8
MAIN0
  6
CONTINUOUS
 62
3
100
AcDbLine
 10
53.82786968842322
 20
338.1832471504030
 30
0.0000000000000000
 11
58.26248769856642
 21
335.6229192484959
 31
0.0000000000000000
  0
LINE
  5
34C
100
AcDbEntity
  8
MAIN0
  6
CONTINUOUS
 62
3
100
AcDbLine
 10
80.94197962511188
 20
335.6229192484960
 30
0.0000000000000000
 11
85.37659763525477
 21
338.1832471504031
 31
0.0000000000000000
  0
LINE
  5
34D
100
AcDbEntity
  8
MAIN0
  6
CONTINUOUS
 62
3
100
AcDbLine
 10
88.49293319844298
 20
339.9824643266937
 30
0.0000000000000000
 11
89.60223366296347
 21
340.6229192484963
 31
0.0000000000000000
  0
DIMENSION
  5
356
100
AcDbEntity
  8
MAIN0
  6
CONTINUOUS
 62
3
100
AcDbDimension
  2
*D19
 10
102.1022336629634
 20
404.1229192484960
 30
0.0000000000000000
 11
101.6022336629634
 21
385.8705719740839
 31
0.0000000000000000
 70
160
  3
MAIN001
100
AcDbAlignedDimension
 13
92.10926484552368
 23
343.1229192484984
 33
0.0000000000000000
 14
89.60223366183894
 24
404.1229192484960
 34
0.0000000000000000
 50
90.00000000000000
100
AcDbRotatedDimension
1001
ACAD
1000
DSTYLE
1002
{
1070
   173
1070
     1
1070
     6
1000
_OPEN
1070
     7
1000
_OPEN
1070
    41
1040
2.000000
1002
}
  0
DIMENSION
  5
35F
100
AcDbEntity
  8
MAIN0
  6
CONTINUOUS
 62
3
100
AcDbDimension
  2
*D20
 10
33.60223366183925
 20
404.1229192484956
 30
0.0000000000000000
 11
33.10223366183925
 21
383.1229192484956
 31
0.0000000000000000
 70
32
  3
MAIN001
100
AcDbAlignedDimension
 13
57.46365828913446
 23
362.1229192484956
 33
0.0000000000000000
 14
49.60223366183931
 24
404.1229192484956
 34
0.0000000000000000
 50
90.00000000000000
100
AcDbRotatedDimension
1001
ACAD
1000
DSTYLE
1002
{
1070
   173
1070
     1
1070
     6
1000
_OPEN
1070
     7
1000
_OPEN
1070
    41
1040
2.000000
1002
}
  0
DIMENSION
  5
36A
100
AcDbEntity
  8
MAIN0
  6
CONTINUOUS
 62
3
100
AcDbDimension
  2
*D21
 10
41.60223366183925
 20
366.1229192484957
 30
0.0000000000000000
 11
41.10223366183925
 21
364.1229192484957
 31
0.0000000000000000
 70
32
  3
MAIN001
100
AcDbAlignedDimension
 13
57.46365828913446
 23
362.1229192484956
 33
0.0000000000000000
 14
58.26248769856591
 24
366.1229192484956
 34
0.0000000000000000
 50
90.00000000000000
100
AcDbRotatedDimension
1001
ACAD
1000
DSTYLE
1002
{
1070
   173
1070
     1
1070
     6
1000
_OPEN
1070
     7
1000
_OPEN
1070
    41
1040
2.000000
1070
   287
1070
     0
1002
}
  0
DIMENSION
  5
373
100
AcDbEntity
  8
MAIN0
  6
CONTINUOUS
 62
3
100
AcDbDimension
  2
*D22
 10
41.60223366183925
 20
362.1229192484957
 30
0.0000000000000000
 11
41.10223366183925
 21
341.6229192484968
 31
0.0000000000000000
 70
32
  3
MAIN001
100
AcDbAlignedDimension
 13
58.26248769856653
 23
321.1229192484981
 33
0.0000000000000000
 14
57.46365828913446
 24
362.1229192484956
 34
0.0000000000000000
 50
90.00000000000000
100
AcDbRotatedDimension
1001
ACAD
1000
DSTYLE
1002
{
1070
   173
1070
     1
1070
     6
1000
_OPEN
1070
     7
1000
_OPEN
1070
    41
1040
2.000000
1002
}
  0
DIMENSION
  5
37B
100
AcDbEntity
  8
MAIN0
  6
CONTINUOUS
 62
3
100
AcDbDimension
  2
*D23
 10
186.0403007314084
 20
155.8435106185245
 30
0.0000000000000000
 11
167.8931337853519
 21
143.9053043502844
 31
0.0000000000000000
 70
162
  3
MAIN001
100
AcDb2LineAngularDimension
 13
154.4999922828743
 23
142.4997958835060
 33
0.0000000000000000
 14
154.4999922828701
 24
242.4997958835060
 34
0.0000000000000000
 15
185.6982805880827
 25
156.7832032393104
 35
0.0000000000000000
 16
171.8648100495673
 26
144.0190205822859
 36
0.0000000000000000
1001
ACAD
1000
DSTYLE
1002
{
1070
   173
1070
     1
1070
     6
1000
_OPEN
1070
     7
1000
_OPEN
1070
    41
1040
2.000000
1002
}
  0
LINE
  5
37C
100
AcDbEntity
  8
MAIN0
  6
CONTINUOUS
 62
3
100
AcDbLine
 10
264.0738733425856
 20
382.7494132236790
 30
0.0000000000000000
 11
265.3499089375202
 21
382.8610518724909
 31
0.0000000000000000
  0
LINE
  5
37D
100
AcDbEntity
  8
MAIN0
  6
CONTINUOUS
 62
3
100
AcDbLine
 10
268.9346501609932
 20
383.1746760912175
 30
0.0000000000000000
 11
274.0358203235094
 21
383.6209706511526
 31
0.0000000000000000
  0
LINE
  5
37E
100
AcDbEntity
  8
MAIN0
  6
CONTINUOUS
 62
3
100
AcDbLine
 10
294.5904204625726
 20
374.0362031959937
 30
0.0000000000000000
 11
297.5275079703084
 21
369.8416075261968
 31
0.0000000000000000
  0
LINE
  5
37F
100
AcDbEntity
  8
MAIN0
  6
CONTINUOUS
 62
3
100
AcDbLine
 10
299.5914851227062
 20
366.8939426700408
 30
0.0000000000000000
 11
300.3261848260895
 21
365.8446827531006
 31
0.0000000000000000
  0
LINE
  5
380
100
AcDbEntity
  8
MAIN0
  6
CONTINUOUS
 62
3
100
AcDbLine
 10
314.4999922828701
 20
151.3997958835060
 30
0.0000000000000000
 11
409.4999922828700
 21
151.3997958835060
 31
0.0000000000000000
  0
INSERT
  5
388
100
AcDbEntity
  8
MAIN0
  6
CONTINUOUS
 62
3
100
AcDbBlockReference
  2
D24
 10
299.4169900243314
 20
242.4997958835060
 30
0.0000000000000000
 50
0.0000000000000000
  0
ARC
  5
389
100
AcDbEntity
  8
MAIN0
  6
CONTINUOUS
 62
3
100
AcDbCircle
 10
154.4999922828701
 20
242.4997958835060
 30
0.0000000000000000
 40
89.49999999999994
100
AcDbArc
 50
102.9125472135449
 51
437.0874394596342
  0
ARC
  5
38A
100
AcDbEntity
  8
MAIN0
  6
CONTINUOUS
 62
3
100
AcDbCircle
 10
154.4999922828701
 20
242.4997958835060
 30
0.0000000000000000
 40
90.49999999999994
100
AcDbArc
 50
105.0000000004209
 51
415.0000000002641
  0
LINE
  5
38B
100
AcDbEntity
  8
MAIN0
  6
CONTINUOUS
 62
3
100
AcDbLine
 10
205.8350833359485
 20
315.8139038476089
 30
0.0000000000000000
 11
206.4086597722980
 21
316.6330558918990
 31
0.0000000000000000
  0
LINE
  5
38C
100
AcDbEntity
  8
MAIN0
  6
CONTINUOUS
 62
3
100
AcDbLine
 10
131.3356877455539
 20
328.9501573362039
 30
0.0000000000000000
 11
131.0768687004498
 21
329.9160831624945
 31
0.0000000000000000
  0
LINE
  5
38D
100
AcDbEntity
  8
MAIN0
  6
CENTER
 62
12
100
AcDbLine
 10
49.91193453310387
 20
242.4997958835060
 30
0.0000000000000000
 11
64.66511205682633
 21
242.4997958835060
 31
0.0000000000000000
  0
MTEXT
  5
38E
100
AcDbEntity
  8
MAIN0
  6
CONTINUOUS
 62
3
100
AcDbMText
 10
543.0894261087801
 20
100.0218635582479
 30
0.0000000000000000
 40
4.000000000000000
 41
0.0000000000000000
 71
     1
 72
     1
  1
{\H0.93x;{断面Ｐ－Ｐ}}
 11
1.000000000000000
 21
0.0000000000000000
 31
0.0000000000000000
  7
KNJYOKO
  0
LINE
  5
38F
100
AcDbEntity
  8
MAIN0
  6
CONTINUOUS
 62
3
100
AcDbLine
 10
541.5412035287181
 20
95.02186355822022
 30
0.0000000000000000
 11
566.3127970243040
 21
95.02186355821536
 31
0.0000000000000000
  0
MTEXT
  5
390
100
AcDbEntity
  8
MAIN0
  6
CONTINUOUS
 62
3
100
AcDbMText
 10
544.0828438839088
 20
94.13917632046164
 30
0.0000000000000000
 40
3.000000000000000
 41
0.0000000000000000
 71
     1
 72
     1
  1
{\H0.63x;{Section P-P}}
 11
1.000000000000000
 21
0.0000000000000000
 31
0.0000000000000000
  7
STANDARD
  0
INSERT
  5
398
100
AcDbEntity
  8
MAIN0
  6
CONTINUOUS
 62
3
100
AcDbBlockReference
  2
D25
 10
524.8029645092740
 20
242.4997958835060
 30
0.0000000000000000
 50
0.0000000000000000
  0
MTEXT
  5
399
100
AcDbEntity
  8
MAIN0
  6
CONTINUOUS
 62
3
100
AcDbMText
 10
525.0881195844661
 20
202.8684652458342
 30
0.0000000000000000
 40
5.000000000000000
 41
0.0000000000000000
 71
     1
 72
     1
  1
{\H0.84x;{※}}
 11
6.123233995736766e-017
 21
1.000000000000000
 31
0.0000000000000000
  7
KNJYOKO
  0
INSERT
  5
3A1
100
AcDbEntity
  8
MAIN0
  6
CONTINUOUS
 62
3
100
AcDbBlockReference
  2
D26
 10
524.8029645092740
 20
242.4997958835060
 30
0.0000000000000000
 50
0.0000000000000000
  0
LINE
  5
3A2
100
AcDbEntity
  8
MAIN0
  6
CENTER
 62
3
100
AcDbLine
 10
308.9256040663664
 20
324.9997958835061
 30
0.0000000000000000
 11
338.4746247094078
 21
324.9997958835061
 31
0.0000000000000000
  0
LINE
  5
3A3
100
AcDbEntity
  8
MAIN0
  6
CONTINUOUS
 62
3
100
AcDbLine
 10
324.4999922828691
 20
318.9997958835062
 30
0.0000000000000000
 11
324.4999922828690
 21
321.9997958835061
 31
0.0000000000000000
  0
LINE
  5
3A4
100
AcDbEntity
  8
MAIN0
  6
CONTINUOUS
 62
3
100
AcDbLine
 10
49.60223366183936
 20
397.1229192484956
 30
0.0000000000000000
 11
89.60223366183902
 21
397.1229192484960
 31
0.0000000000000000
  0
DIMENSION
  5
3AB
100
AcDbEntity
  8
MAIN0
  6
CONTINUOUS
 62
3
100
AcDbDimension
  2
*D27
 10
49.60223366183925
 20
397.1229192484960
 30
0.0000000000000000
 11
69.60223366240103
 21
397.6229192484960
 31
0.0000000000000000
 70
32
  3
MAIN001
100
AcDbAlignedDimension
 13
89.60223366296282
 23
404.1229192484960
 33
0.0000000000000000
 14
49.60223366183925
 24
404.1229192484955
 34
0.0000000000000000
100
AcDbRotatedDimension
1001
ACAD
1000
DSTYLE
1002
{
1070
   173
1070
     1
1070
     6
1000
_OPEN
1070
     7
1000
_OPEN
1070
    41
1040
2.000000
1002
}
  0
MTEXT
  5
3AC
100
AcDbEntity
  8
MAIN0
  6
CONTINUOUS
 62
3
100
AcDbMText
 10
62.93001753036705
 20
299.6871379548368
 30
0.0000000000000000
 40
3.099999904632568
 41
0.0000000000000000
 71
     1
 72
     1
  1
{\H0.92x;{See Q}}
 11
1.000000000000000
 21
0.0000000000000000
 31
0.0000000000000000
  7
STANDARD
  0
LINE
  5
3AD
100
AcDbEntity
  8
MAIN0
  6
CENTER
 62
12
100
AcDbLine
 10
244.3750494914785
 20
242.4997958835060
 30
0.0000000000000000
 11
259.2231523522570
 21
242.4997958835060
 31
0.0000000000000000
  0
LINE
  5
3AE
100
AcDbEntity
  8
MAIN0
  6
CENTER
 62
3
100
AcDbLine
 10
154.4999922828746
 20
138.2673196725852
 30
0.0000000000000000
 11
154.4999922828740
 21
152.0175430714803
 31
0.0000000000000000
  0
LINE
  5
3AF
100
AcDbEntity
  8
MAIN0
  6
CENTER
 62
3
100
AcDbLine
 10
154.4999922828737
 20
160.0175430714803
 30
0.0000000000000000
 11
154.4999922828645
 21
374.6796170770547
 31
0.0000000000000000
  0
LINE
  5
3B0
100
AcDbEntity
  8
MAIN0
  6
CENTER
 62
12
100
AcDbLine
 10
49.91193453310382
 20
242.4997958835060
 30
0.0000000000000000
 11
64.66511205682627
 21
242.4997958835060
 31
0.0000000000000000
  0
LINE
  5
3B1
100
AcDbEntity
  8
MAIN0
  6
CENTER
 62
12
100
AcDbLine
 10
72.66511205682633
 20
242.4997958835060
 30
0.0000000000000000
 11
236.3750494914785
 21
242.4997958835060
 31
0.0000000000000000
  0
MTEXT
  5
3B2
100
AcDbEntity
  8
MAIN0
  6
CONTINUOUS
 62
3
100
AcDbMText
 10
206.6157043224829
 20
129.8005043385020
 30
0.0000000000000000
 40
3.000000000000000
 41
0.0000000000000000
 71
     1
 72
     1
  1
{\H0.63x;{Thread depth 12\PFor preventing the rotation}}
 11
1.000000000000000
 21
0.0000000000000000
 31
0.0000000000000000
  7
STANDARD
  0
LEADER
  5
3B3
100
AcDbEntity
  8
MAIN0
  6
CONTINUOUS
 62
3
100
AcDbLeader
  3
MAIN001
 73
     0
 74
     0
 75
     1
 40
3.099999904632568
 41
20.50100047683716
 76
     3
 10
185.1107951105210
 20
158.3973063231686
 30
0.0000000000000000
 10
204.5892606440483
 20
138.7802203860481
 30
0.0000000000000000
 10
206.5142605882584
 20
138.7802203860481
 30
0.0000000000000000
340
3B4
213
-0.001000000000004775
223
-0.5000000000000000
233
0.0000000000000000
1001
ACAD
1000
DSTYLE
1002
{
1070
   147
1040
0.0
1070
    77
1070
     1
1070
   173
1070
     1
1070
     6
1000
_OPEN
1070
     7
1000
_OPEN
1002
}
  0
MTEXT
  5
3B4
102
{ACAD_REACTORS
330
3B3
102
}
100
AcDbEntity
  8
MAIN0
  6
CONTINUOUS
 62
3
100
AcDbMText
 10
206.5152605882584
 20
142.3802202906807
 30
0.0000000000000000
 40
3.099999904632568
 41
0.0000000000000000
 71
     1
 72
     1
  1
{\H0.93x;{M6\Pネジ深12\Pマワリドメ用}}
 11
1.000000000000000
 21
0.0000000000000000
 31
0.0000000000000000
  7
KNJYOKO
  0
LEADER
  5
3B5
100
AcDbEntity
  8
MAIN0
  6
CONTINUOUS
 62
3
100
AcDbLeader
  3
MAIN001
 73
     0
 75
     1
 40
3.099999904632568
 41
19.14900057220459
 76
     3
 10
69.47368281917716
 20
236.0298487127656
 30
0.0000000000000000
 10
62.51534710322787
 20
208.7597915360186
 30
0.0000000000000000
 10
60.58834715901782
 20
208.7597915360186
 30
0.0000000000000000
340
3B6
213
0.0000000000000000
223
-0.5000000000000000
233
0.0000000000000000
1001
ACAD
1000
DSTYLE
1002
{
1070
   147
1040
0.0
1070
    77
1070
     1
1070
   173
1070
     1
1070
     6
1000
_OPEN
1070
     7
1000
_OPEN
1002
}
  0
MTEXT
  5
3B6
102
{ACAD_REACTORS
330
3B5
102
}
100
AcDbEntity
  8
MAIN0
  6
CONTINUOUS
 62
3
100
AcDbMText
 10
41.43934658681322
 20
212.3597914406511
 30
0.0000000000000000
 40
3.099999904632568
 41
0.0000000000000000
 71
     1
 72
     1
  1
{\H0.92x;{3-Rc1/4}}
 11
1.000000000000000
 21
0.0000000000000000
 31
0.0000000000000000
  7
STANDARD
  0
MTEXT
  5
3B7
100
AcDbEntity
  8
MAIN0
  6
CONTINUOUS
 62
3
100
AcDbMText
 10
38.27565481952121
 20
183.4914609216459
 30
0.0000000000000000
 40
3.000000000000000
 41
0.0000000000000000
 71
     1
 72
     1
  1
{\H0.63x;{For tightening the\P mounting bolts}}
 11
1.000000000000000
 21
0.0000000000000000
 31
0.0000000000000000
  7
STANDARD
  0
LEADER
  5
3B8
100
AcDbEntity
  8
MAIN0
  6
CONTINUOUS
 62
3
100
AcDbLeader
  3
MAIN001
 73
     0
 75
     1
 40
3.099999904632568
 41
34.41900079154969
 76
     3
 10
83.53810326225721
 20
202.8462254436881
 30
0.0000000000000000
 10
74.44734417358359
 20
170.7709594250564
 30
0.0000000000000000
 10
72.52034422937354
 20
170.7709594250564
 30
0.0000000000000000
340
3B9
213
0.0000000000000000
223
-0.5000000000000000
233
0.0000000000000000
1001
ACAD
1000
DSTYLE
1002
{
1070
   147
1040
0.0
1070
    77
1070
     1
1070
   173
1070
     1
1070
     6
1000
_OPEN
1070
     7
1000
_OPEN
1002
}
  0
MTEXT
  5
3B9
102
{ACAD_REACTORS
330
3B8
102
}
100
AcDbEntity
  8
MAIN0
  6
CONTINUOUS
 62
3
100
AcDbMText
 10
38.10134343782385
 20
174.3709593296890
 30
0.0000000000000000
 40
3.099999904632568
 41
0.0000000000000000
 71
     1
 72
     1
  1
{\H0.94x;{取付ボルト締めつけ用\P(2-\U+220517)}}
 11
1.000000000000000
 21
0.0000000000000000
 31
0.0000000000000000
  7
KNJYOKO
  0
MTEXT
  5
3BA
100
AcDbEntity
  8
MAIN0
  6
CONTINUOUS
 62
3
100
AcDbMText
 10
281.8477401784396
 20
43.03774790194504
 30
0.0000000000000000
 40
3.099999904632568
 41
0.0000000000000000
 71
     1
 72
     1
  1
{\H0.94x;{シリンダアダプタ内径寸法(※印)を MAX \U+220595 に設計して下さい}}
 11
1.000000000000000
 21
0.0000000000000000
 31
0.0000000000000000
  7
KNJYOKO
  0
INSERT
  5
3C4
100
AcDbEntity
  8
MAIN0
  6
CONTINUOUS
 62
3
100
AcDbBlockReference
  2
M3
 10
0.0000000000000000
 20
0.0000000000000000
 30
0.0000000000000000
 50
0.0000000000000000
  0
INSERT
  5
3CE
100
AcDbEntity
  8
MAIN0
  6
CONTINUOUS
 62
3
100
AcDbBlockReference
  2
M4
 10
0.0000000000000000
 20
0.0000000000000000
 30
0.0000000000000000
 50
0.0000000000000000
  0
MTEXT
  5
3CF
100
AcDbEntity
  8
MAIN0
  6
CONTINUOUS
 62
3
100
AcDbMText
 10
239.0076145113032
 20
99.60033811268994
 30
0.0000000000000000
 40
3.099999904632568
 41
0.0000000000000000
 71
     1
 72
     1
  1
{\H0.88x;{30}}
 11
1.000000000000000
 21
0.0000000000000000
 31
0.0000000000000000
  7
STANDARD
  0
MTEXT
  5
3D0
100
AcDbEntity
  8
MAIN0
  6
CONTINUOUS
 62
3
100
AcDbMText
 10
234.0076145113032
 20
62.60033811268980
 30
0.0000000000000000
 40
3.099999904632568
 41
0.0000000000000000
 71
     1
 72
     1
  1
{\H0.92x;{ 6000}}
 11
1.000000000000000
 21
0.0000000000000000
 31
0.0000000000000000
  7
STANDARD
  0
MTEXT
  5
3D1
100
AcDbEntity
  8
MAIN0
  6
CONTINUOUS
 62
3
100
AcDbMText
 10
239.0076145113032
 20
106.6003381126898
 30
0.0000000000000000
 40
3.099999904632568
 41
0.0000000000000000
 71
     1
 72
     1
  1
{\H0.90x;{130}}
 11
1.000000000000000
 21
0.0000000000000000
 31
0.0000000000000000
  7
STANDARD
  0
MTEXT
  5
3D2
100
AcDbEntity
  8
MAIN0
  6
CONTINUOUS
 62
3
100
AcDbMText
 10
196.9253074666719
 20
84.60033811269005
 30
0.0000000000000000
 40
3.099999904632568
 41
0.0000000000000000
 71
     1
 72
     1
  1
{\H0.90x;{4.0}}
 11
1.000000000000000
 21
0.0000000000000000
 31
0.0000000000000000
  7
STANDARD
  0
MTEXT
  5
3D3
100
AcDbEntity
  8
MAIN0
  6
CONTINUOUS
 62
3
100
AcDbMText
 10
239.0076145113032
 20
93.10033811268994
 30
0.0000000000000000
 40
3.099999904632568
 41
0.0000000000000000
 71
     1
 72
     1
  1
{\H0.88x;{47\P}
 11
1.000000000000000
 21
0.0000000000000000
 31
0.0000000000000000
  7
STANDARD
  0
MTEXT
  5
3D4
100
AcDbEntity
  8
MAIN0
  6
CONTINUOUS
 62
3
100
AcDbMText
 10
239.0076145113032
 20
83.10033811268983
 30
0.0000000000000000
 40
3.099999904632568
 41
0.0000000000000000
 71
     1
 72
     1
  1
{\H0.88x;{45}}
 11
1.000000000000000
 21
0.0000000000000000
 31
0.0000000000000000
  7
STANDARD
  0
MTEXT
  5
3D5
100
AcDbEntity
  8
MAIN0
  6
CONTINUOUS
 62
3
100
AcDbMText
 10
239.0076145113032
 20
73.10033811268983
 30
0.0000000000000000
 40
3.099999904632568
 41
0.0000000000000000
 71
     1
 72
     1
  1
{\H0.90x;{4.0}}
 11
1.000000000000000
 21
0.0000000000000000
 31
0.0000000000000000
  7
STANDARD
  0
MTEXT
  5
3D6
100
AcDbEntity
  8
MAIN0
  6
CONTINUOUS
 62
3
100
AcDbMText
 10
239.0076145113032
 20
55.60033811268980
 30
0.0000000000000000
 40
3.099999904632568
 41
0.0000000000000000
 71
     1
 72
     1
  1
{\H0.91x;{10.3}}
 11
1.000000000000000
 21
0.0000000000000000
 31
0.0000000000000000
  7
STANDARD
  0
MTEXT
  5
3D7
100
AcDbEntity
  8
MAIN0
  6
CONTINUOUS
 62
3
100
AcDbMText
 10
234.5800104440210
 20
47.00990129006519
 30
0.0000000000000000
 40
3.099999904632568
 41
0.0000000000000000
 71
     1
 72
     1
  1
{\H0.92x;{0.029}}
 11
1.000000000000000
 21
0.0000000000000000
 31
0.0000000000000000
  7
STANDARD
  0
MTEXT
  5
3D8
100
AcDbEntity
  8
MAIN0
  6
CONTINUOUS
 62
3
100
AcDbMText
 10
239.0076145113032
 20
28.10033811268980
 30
0.0000000000000000
 40
3.099999904632568
 41
0.0000000000000000
 71
     1
 72
     1
  1
{\H0.90x;{1.2}}
 11
1.000000000000000
 21
0.0000000000000000
 31
0.0000000000000000
  7
STANDARD
  0
SPLINE
  5
3D9
100
AcDbEntity
  8
MAIN0
  6
CONTINUOUS
 62
3
100
AcDbSpline
210
0.0000000000000000
220
0.0000000000000000
230
1.000000000000000
 70
     8
 71
     3
 72
    12
 73
     8
 74
     0
 42
1.000000000000000e-007
 43
1.000000000000000e-007
 12
1.088657757375188
 22
-0.2454003001440839
 32
0.0000000000000000
 13
1.019329887020376
 23
0.2080119081590937
 33
0.0000000000000000
 40
0.0000000000000000
 40
0.0000000000000000
 40
0.0000000000000000
 40
0.0000000000000000
 40
1.630542417238351
 40
4.194692270786582
 40
6.948947427696034
 40
7.467909438373205
 40
8.161628223834228
 40
8.161628223834228
 40
8.161628223834228
 40
8.161628223834228
 10
247.9093344097769
 20
24.46841269846274
 30
0.0000000000000000
 10
248.5010352935289
 20
24.33503416560009
 30
0.0000000000000000
 10
250.0232300536604
 20
23.99190791817901
 30
0.0000000000000000
 10
250.9285376634258
 20
28.87053753314538
 30
0.0000000000000000
 10
248.2791943833259
 20
24.98806309414798
 30
0.0000000000000000
 10
249.4855336804179
 20
24.14284106479337
 30
0.0000000000000000
 10
249.8975742733909
 20
24.22692508025742
 30
0.0000000000000000
 10
250.1332837037935
 20
24.27502566968727
 30
0.0000000000000000
  0
INSERT
  5
404
100
AcDbEntity
  8
MAIN0
  6
CONTINUOUS
 62
3
100
AcDbBlockReference
  2
M5
 10
0.0000000000000000
 20
0.0000000000000000
 30
0.0000000000000000
 50
0.0000000000000000
  0
CIRCLE
  5
405
100
AcDbEntity
  8
MAIN0
  6
CONTINUOUS
 62
3
100
AcDbCircle
 10
273.1137364569126
 20
354.8114305671019
 30
0.0000000000000000
 40
5.458500000002196
  0
CIRCLE
  5
406
100
AcDbEntity
  8
MAIN0
  6
CONTINUOUS
 62
3
100
AcDbCircle
 10
273.1137364569126
 20
354.8114305671019
 30
0.0000000000000000
 40
6.000000000002210
  0
CIRCLE
  5
407
100
AcDbEntity
  8
MAIN0
  6
CONTINUOUS
 62
3
100
AcDbCircle
 10
69.60223366183917
 20
362.1229192484960
 30
0.0000000000000000
 40
5.458500000002196
  0
CIRCLE
  5
408
100
AcDbEntity
  8
MAIN0
  6
CONTINUOUS
 62
3
100
AcDbCircle
 10
69.60223366183917
 20
362.1229192484960
 30
0.0000000000000000
 40
6.000000000002210
  0
MTEXT
  5
409
100
AcDbEntity
  8
MAIN0
  6
CONTINUOUS
 62
3
100
AcDbMText
 10
106.7919665306229
 20
338.4561953344553
 30
0.0000000000000000
 40
3.000000000000000
 41
0.0000000000000000
 71
     1
 72
     1
  1
{\H0.63x;{Bracket}}
 11
1.000000000000000
 21
0.0000000000000000
 31
0.0000000000000000
  7
STANDARD
  0
LEADER
  5
40A
100
AcDbEntity
  8
MAIN0
  6
CONTINUOUS
 62
3
100
AcDbLeader
  3
MAIN001
 73
     0
 75
     1
 40
3.099999904632568
 41
17.01900039815902
 76
     3
 10
141.5774361278041
 20
333.3171573208175
 30
0.0000000000000000
 10
125.6368212483306
 20
339.5162790734726
 30
0.0000000000000000
 10
123.7098213041206
 20
339.5162790734726
 30
0.0000000000000000
340
40B
213
0.0000000000000000
223
-0.5000000000000000
233
0.0000000000000000
1001
ACAD
1000
DSTYLE
1002
{
1070
   147
1040
0.0
1070
    77
1070
     1
1070
   173
1070
     1
1070
     6
1000
_DOT
1070
     7
1000
_DOT
1002
}
  0
MTEXT
  5
40B
102
{ACAD_REACTORS
330
40A
102
}
100
AcDbEntity
  8
MAIN0
  6
CONTINUOUS
 62
3
100
AcDbMText
 10
106.6908209059615
 20
343.1162789781051
 30
0.0000000000000000
 40
3.099999904632568
 41
0.0000000000000000
 71
     1
 72
     1
  1
{\H0.93x;{ブラケット}}
 11
1.000000000000000
 21
0.0000000000000000
 31
0.0000000000000000
  7
KNJYOKO
  0
LINE
  5
40C
100
AcDbEntity
  8
MAIN0
  6
PHANTOM
 62
3
100
AcDbLine
 10
199.0519676204398
 20
358.7390008103532
 30
0.0000000000000000
 11
209.9276610648796
 21
353.6675816694648
 31
0.0000000000000000
  0
LINE
  5
40D
100
AcDbEntity
  8
MAIN0
  6
PHANTOM
 62
3
100
AcDbLine
 10
200.3808936692033
 20
359.2226903356556
 30
0.0000000000000000
 11
209.4439715395417
 21
354.9965077182617
 31
0.0000000000000000
  0
LINE
  5
40E
100
AcDbEntity
  8
MAIN0
  6
PHANTOM
 62
3
100
AcDbLine
 10
210.2892080630006
 20
356.8091232923455
 30
0.0000000000000000
 11
209.4439715395180
 21
354.9965077182727
 31
0.0000000000000000
  0
LINE
  5
40F
100
AcDbEntity
  8
MAIN0
  6
PHANTOM
 62
3
100
AcDbLine
 10
209.4439715395417
 20
354.9965077182616
 30
0.0000000000000000
 11
209.9276610648604
 21
353.6675816694240
 31
0.0000000000000000
  0
LINE
  5
410
100
AcDbEntity
  8
MAIN0
  6
PHANTOM
 62
3
100
AcDbLine
 10
201.2261301926847
 20
361.0353059097289
 30
0.0000000000000000
 11
210.2892080630231
 21
356.8091232923350
 31
0.0000000000000000
  0
LINE
  5
411
100
AcDbEntity
  8
MAIN0
  6
PHANTOM
 62
3
100
AcDbLine
 10
201.2261301926644
 20
361.0353059097383
 30
0.0000000000000000
 11
200.3808936691819
 21
359.2226903356656
 31
0.0000000000000000
  0
LINE
  5
412
100
AcDbEntity
  8
MAIN0
  6
PHANTOM
 62
3
100
AcDbLine
 10
199.0519676204279
 20
358.7390008103587
 30
0.0000000000000000
 11
200.3808936692033
 21
359.2226903356556
 31
0.0000000000000000
  0
LINE
  5
413
100
AcDbEntity
  8
MAIN0
  6
PHANTOM
 62
3
100
AcDbLine
 10
367.4999922828546
 20
369.4997958835063
 30
0.0000000000000000
 11
370.9887767648913
 21
369.4997958835063
 31
0.0000000000000000
  0
LINE
  5
414
100
AcDbEntity
  8
MAIN0
  6
PHANTOM
 62
3
100
AcDbLine
 10
367.4999922828546
 20
367.4997958835063
 30
0.0000000000000000
 11
370.9887767648913
 21
367.4997958835063
 31
0.0000000000000000
  0
LINE
  5
415
100
AcDbEntity
  8
MAIN0
  6
PHANTOM
 62
3
100
AcDbLine
 10
366.4999922828699
 20
366.4997958835063
 30
0.0000000000000000
 11
370.9887767648913
 21
366.4997958835063
 31
0.0000000000000000
  0
LINE
  5
416
100
AcDbEntity
  8
MAIN0
  6
PHANTOM
 62
3
100
AcDbLine
 10
367.4999922828325
 20
369.4997958835064
 30
0.0000000000000000
 11
367.4999922828313
 21
367.4997958835065
 31
0.0000000000000000
  0
LINE
  5
417
100
AcDbEntity
  8
MAIN0
  6
PHANTOM
 62
3
100
AcDbLine
 10
366.4999922828568
 20
366.4997958835063
 30
0.0000000000000000
 11
367.4999922828546
 21
367.4997958835063
 31
0.0000000000000000
  0
LINE
  5
418
100
AcDbEntity
  8
MAIN0
  6
PHANTOM
 62
3
100
AcDbLine
 10
367.0414922828699
 20
367.0412958835206
 30
0.0000000000000000
 11
367.0414922828699
 21
350.6997958835062
 31
0.0000000000000000
  0
LINE
  5
419
100
AcDbEntity
  8
MAIN0
  6
PHANTOM
 62
3
100
AcDbLine
 10
366.4999922828699
 20
366.4997958835063
 30
0.0000000000000000
 11
366.4999922828699
 21
350.6997958835062
 31
0.0000000000000000
  0
LINE
  5
41A
100
AcDbEntity
  8
MAIN0
  6
PHANTOM
 62
3
100
AcDbLine
 10
363.9999922817114
 20
350.6997958835062
 30
0.0000000000000000
 11
362.6850377065889
 21
349.9406065055889
 31
0.0000000000000000
  0
LINE
  5
41B
100
AcDbEntity
  8
MAIN0
  6
PHANTOM
 62
3
100
AcDbLine
 10
362.6850377065887
 20
349.9406065055890
 30
0.0000000000000000
 11
362.6850377065883
 21
347.4589852614240
 31
0.0000000000000000
  0
LINE
  5
41C
100
AcDbEntity
  8
MAIN0
  6
PHANTOM
 62
3
100
AcDbLine
 10
362.4999922828699
 20
346.6997958835062
 30
0.0000000000000000
 11
368.8629985814330
 21
346.6997958835062
 31
0.0000000000000000
  0
LINE
  5
41D
100
AcDbEntity
  8
MAIN0
  6
PHANTOM
 62
3
100
AcDbLine
 10
362.4999922828699
 20
346.6997958835062
 30
0.0000000000000000
 11
362.4999922828699
 21
345.6997958835062
 31
0.0000000000000000
  0
LINE
  5
41E
100
AcDbEntity
  8
MAIN0
  6
PHANTOM
 62
3
100
AcDbLine
 10
363.9999922817113
 20
346.6997958835063
 30
0.0000000000000000
 11
362.6850377065888
 21
347.4589852614236
 31
0.0000000000000000
  0
ARC
  5
41F
100
AcDbEntity
  8
MAIN0
  6
PHANTOM
 62
3
100
AcDbCircle
 10
362.5604736392803
 20
335.7690294571605
 30
0.0000000000000000
 40
15.00000000000000
100
AcDbArc
 50
70.39891412180502
 51
84.49296850791762
  0
LINE
  5
420
100
AcDbEntity
  8
MAIN0
  6
PHANTOM
 62
3
100
AcDbLine
 10
363.9999922817115
 20
350.6997958835062
 30
0.0000000000000000
 11
368.8629985814330
 21
350.6997958835062
 31
0.0000000000000000
  0
LINE
  5
421
100
AcDbEntity
  8
MAIN0
  6
PHANTOM
 62
3
100
AcDbLine
 10
367.5925149948395
 20
349.8997958835063
 30
0.0000000000000000
 11
367.5925149948382
 21
347.4997958835069
 31
0.0000000000000000
  0
ARC
  5
422
100
AcDbEntity
  8
MAIN0
  6
PHANTOM
 62
3
100
AcDbCircle
 10
372.4999922828698
 20
335.2477125506730
 30
0.0000000000000000
 40
15.45208333283322
100
AcDbArc
 50
103.6135745821878
 51
108.5174368232250
  0
ARC
  5
423
100
AcDbEntity
  8
MAIN0
  6
PHANTOM
 62
3
100
AcDbCircle
 10
372.4999922828698
 20
362.1518792163395
 30
0.0000000000000000
 40
15.45208333283322
100
AcDbArc
 50
251.4825631767750
 51
256.3864254178122
  0
ARC
  5
424
100
AcDbEntity
  8
MAIN0
  6
PHANTOM
 62
3
100
AcDbCircle
 10
362.5604736392803
 20
361.6305623098521
 30
0.0000000000000000
 40
15.00000000000000
100
AcDbArc
 50
275.5070314920824
 51
289.6010858781950
  0
LEADER
  5
425
100
AcDbEntity
  8
MAIN0
  6
CONTINUOUS
 62
3
100
AcDbLeader
  3
MAIN001
 73
     0
 74
     0
 75
     1
 40
3.099999904632568
 41
14.26100040769575
 76
     3
 10
277.6184047533725
 20
358.7747578988892
 30
0.0000000000000000
 10
315.4033890926795
 20
394.4997958835061
 30
0.0000000000000000
 10
317.3283890368896
 20
394.4997958835062
 30
0.0000000000000000
340
426
213
0.0000000000000000
223
-0.5000000000000000
233
0.0000000000000000
1001
ACAD
1000
DSTYLE
1002
{
1070
   147
1040
0.0
1070
    77
1070
     1
1070
   173
1070
     1
1070
     6
1000
_OPEN
1070
     7
1000
_OPEN
1002
}
  0
MTEXT
  5
426
102
{ACAD_REACTORS
330
425
102
}
100
AcDbEntity
  8
MAIN0
  6
CONTINUOUS
 62
3
100
AcDbMText
 10
317.3293890368896
 20
398.0997957881388
 30
0.0000000000000000
 40
3.099999904632568
 41
0.0000000000000000
 71
     1
 72
     1
  1
{\H0.92x;{M12×1}}
 11
1.000000000000000
 21
0.0000000000000000
 31
0.0000000000000000
  7
KNJYOKO
  0
LEADER
  5
427
100
AcDbEntity
  8
MAIN0
  6
CONTINUOUS
 62
3
100
AcDbLeader
  3
MAIN001
 73
     0
 74
     0
 75
     1
 40
3.099999904632568
 41
14.26100040769576
 76
     3
 10
73.90863747117888
 20
366.3008237748023
 30
0.0000000000000000
 10
106.7094811252678
 20
398.1229192484960
 30
0.0000000000000000
 10
108.6344810694779
 20
398.1229192484960
 30
0.0000000000000000
340
428
213
0.0000000000000000
223
-0.5000000000000000
233
0.0000000000000000
1001
ACAD
1000
DSTYLE
1002
{
1070
   147
1040
0.0
1070
    77
1070
     1
1070
   173
1070
     1
1070
     6
1000
_OPEN
1070
     7
1000
_OPEN
1002
}
  0
MTEXT
  5
428
102
{ACAD_REACTORS
330
427
102
}
100
AcDbEntity
  8
MAIN0
  6
CONTINUOUS
 62
3
100
AcDbMText
 10
108.6354810694779
 20
401.7229191531285
 30
0.0000000000000000
 40
3.099999904632568
 41
0.0000000000000000
 71
     1
 72
     1
  1
{\H0.92x;{M12×1}}
 11
1.000000000000000
 21
0.0000000000000000
 31
0.0000000000000000
  7
KNJYOKO
  0
LEADER
  5
429
100
AcDbEntity
  8
MAIN0
  6
CONTINUOUS
 62
3
100
AcDbLeader
  3
MAIN001
 73
     0
 74
     0
 75
     1
 40
3.099999904632568
 41
20.96828528938238
 76
     3
 10
382.2109106489471
 20
354.0580594521933
 30
0.0000000000000000
 10
359.5940401368277
 20
394.4997958835062
 30
0.0000000000000000
 10
361.5190400810378
 20
394.4997958835062
 30
0.0000000000000000
340
42A
213
-0.4682848125452210
223
-0.5000000000000000
233
0.0000000000000000
1001
ACAD
1000
DSTYLE
1002
{
1070
   147
1040
0.0
1070
    77
1070
     1
1070
   173
1070
     1
1070
     6
1000
_DOT
1070
     7
1000
_DOT
1002
}
  0
MTEXT
  5
42A
102
{ACAD_REACTORS
330
429
102
}
100
AcDbEntity
  8
MAIN0
  6
CONTINUOUS
 62
3
100
AcDbMText
 10
361.9873248935830
 20
398.0997957881388
 30
0.0000000000000000
 40
3.099999904632568
 41
0.0000000000000000
 71
     1
 72
     1
  1
{\H0.93x;{近接スイッチ\P客先殿手配品}}
 11
1.000000000000000
 21
0.0000000000000000
 31
0.0000000000000000
  7
KNJYOKO
  0
LEADER
  5
42B
100
AcDbEntity
  8
MAIN0
  6
CONTINUOUS
 62
3
100
AcDbLeader
  3
MAIN001
 73
     3
 74
     0
 75
     0
 76
     2
 10
369.3031019395313
 20
354.0580594521933
 30
0.0000000000000000
 10
359.5940401368277
 20
394.4997958835062
 30
0.0000000000000000
1001
ACAD
1000
DSTYLE
1002
{
1070
   173
1070
     1
1070
     6
1000
_DOT
1070
     7
1000
_DOT
1002
}
  0
MTEXT
  5
42C
100
AcDbEntity
  8
MAIN2
  6
CONTINUOUS
 62
3
100
AcDbMText
 10
281.8477401784396
 20
20.93774799731219
 30
0.0000000000000000
 40
3.000000000000000
 41
0.0000000000000000
 71
     1
 72
     1
  1
{\H0.62x;{Design the inner dia.(mark ※) of cylinder adapter should be maximum \U+220595．}}
 11
1.000000000000000
 21
0.0000000000000000
 31
0.0000000000000000
  7
KNJYOKO
  0
LINE
  5
42D
100
AcDbEntity
  8
MAIN0
  6
CONTINUOUS
 62
3
100
AcDbLine
 10
314.4999922828702
 20
267.8997958835218
 30
0.0000000000000000
 11
315.1928126059254
 21
267.4997958835060
 31
0.0000000000000000
  0
LINE
  5
42E
100
AcDbEntity
  8
MAIN0
  6
CENTER
 62
3
100
AcDbLine
 10
316.0716587094765
 20
267.4997958835060
 30
0.0000000000000000
 11
313.6835056667131
 21
267.4997958835060
 31
0.0000000000000000
  0
LINE
  5
42F
100
AcDbEntity
  8
MAIN0
  6
CONTINUOUS
 62
3
100
AcDbLine
 10
314.4999922828702
 20
267.0997958834902
 30
0.0000000000000000
 11
315.1928126059254
 21
267.4997958835060
 31
0.0000000000000000
  0
LINE
  5
430
100
AcDbEntity
  8
MAIN0
  6
CONTINUOUS
 62
3
100
AcDbLine
 10
314.4999922828702
 20
265.0997958834902
 30
0.0000000000000000
 11
315.1928126059254
 21
265.4997958835060
 31
0.0000000000000000
  0
LINE
  5
431
100
AcDbEntity
  8
MAIN0
  6
CONTINUOUS
 62
3
100
AcDbLine
 10
314.4999922828702
 20
265.8997958835218
 30
0.0000000000000000
 11
315.1928126059254
 21
265.4997958835060
 31
0.0000000000000000
  0
LINE
  5
432
100
AcDbEntity
  8
MAIN0
  6
CENTER
 62
3
100
AcDbLine
 10
316.0716587094765
 20
265.4997958835060
 30
0.0000000000000000
 11
313.6835056667131
 21
265.4997958835060
 31
0.0000000000000000
  0
LINE
  5
433
100
AcDbEntity
  8
MAIN0
  6
CONTINUOUS
 62
3
100
AcDbLine
 10
314.4999922828702
 20
219.0997958834902
 30
0.0000000000000000
 11
315.1928126059254
 21
219.4997958835060
 31
0.0000000000000000
  0
LINE
  5
434
100
AcDbEntity
  8
MAIN0
  6
CONTINUOUS
 62
3
100
AcDbLine
 10
314.4999922828702
 20
219.8997958835218
 30
0.0000000000000000
 11
315.1928126059254
 21
219.4997958835059
 31
0.0000000000000000
  0
LINE
  5
435
100
AcDbEntity
  8
MAIN0
  6
CENTER
 62
3
100
AcDbLine
 10
316.0716587094765
 20
219.4997958835060
 30
0.0000000000000000
 11
313.6835056667131
 21
219.4997958835060
 31
0.0000000000000000
  0
LINE
  5
436
100
AcDbEntity
  8
MAIN0
  6
CONTINUOUS
 62
3
100
AcDbLine
 10
314.4999922828702
 20
217.0997958834902
 30
0.0000000000000000
 11
315.1928126059254
 21
217.4997958835060
 31
0.0000000000000000
  0
LINE
  5
437
100
AcDbEntity
  8
MAIN0
  6
CENTER
 62
3
100
AcDbLine
 10
316.0716587094765
 20
217.4997958835060
 30
0.0000000000000000
 11
313.6835056667131
 21
217.4997958835060
 31
0.0000000000000000
  0
LINE
  5
438
100
AcDbEntity
  8
MAIN0
  6
CONTINUOUS
 62
3
100
AcDbLine
 10
314.4999922828702
 20
217.8997958835218
 30
0.0000000000000000
 11
315.1928126059254
 21
217.4997958835059
 31
0.0000000000000000
  0
CIRCLE
  5
439
100
AcDbEntity
  8
MAIN0
  6
CONTINUOUS
 62
3
100
AcDbCircle
 10
154.4999922828700
 20
242.4997958835060
 30
0.0000000000000000
 40
25.40000000000000
  0
CIRCLE
  5
43A
100
AcDbEntity
  8
MAIN0
  6
CENTER
 62
3
100
AcDbCircle
 10
154.4999922828700
 20
242.4997958835060
 30
0.0000000000000000
 40
25.00000000000000
  0
CIRCLE
  5
43B
100
AcDbEntity
  8
MAIN0
  6
CONTINUOUS
 62
3
100
AcDbCircle
 10
154.4999922828700
 20
242.4997958835060
 30
0.0000000000000000
 40
24.60000000000000
  0
CIRCLE
  5
43C
100
AcDbEntity
  8
MAIN0
  6
CONTINUOUS
 62
3
100
AcDbCircle
 10
154.4999922828700
 20
242.4997958835061
 30
0.0000000000000000
 40
22.60000000000000
  0
CIRCLE
  5
43D
100
AcDbEntity
  8
MAIN0
  6
CONTINUOUS
 62
3
100
AcDbCircle
 10
154.4999922828700
 20
242.4997958835061
 30
0.0000000000000000
 40
23.40000000000000
  0
CIRCLE
  5
43E
100
AcDbEntity
  8
MAIN0
  6
CENTER
 62
3
100
AcDbCircle
 10
154.4999922828700
 20
242.4997958835061
 30
0.0000000000000000
 40
23.00000000000000
  0
LINE
  5
43F
100
AcDbEntity
  8
MAIN0
  6
CONTINUOUS
 62
3
100
AcDbLine
 10
314.4999922828701
 20
265.8997958835219
 30
0.0000000000000000
 11
314.4999922828701
 21
267.0997958834901
 31
0.0000000000000000
  0
LINE
  5
440
100
AcDbEntity
  8
MAIN0
  6
CONTINUOUS
 62
3
100
AcDbLine
 10
314.4999922828701
 20
219.8997958835218
 30
0.0000000000000000
 11
314.4999922828701
 21
265.0997958834901
 31
0.0000000000000000
  0
LINE
  5
441
100
AcDbEntity
  8
MAIN0
  6
CONTINUOUS
 62
3
100
AcDbLine
 10
314.4999922828701
 20
217.8997958835219
 30
0.0000000000000000
 11
314.4999922828701
 21
219.0997958834901
 31
0.0000000000000000
  0
MTEXT
  5
442
100
AcDbEntity
  8
MAIN4
  6
CONTINUOUS
 62
3
100
AcDbMText
 10
367.6239314856054
 20
389.9388937820067
 30
0.0000000000000000
 40
3.000000000000000
 41
0.0000000000000000
 71
     1
 72
     1
  1
{\H0.63x;{PROXIMITY　SWITCHES\PCustomer arrangements}}
 11
1.000000000000000
 21
0.0000000000000000
 31
0.0000000000000000
  7
KNJYOKO
  0
LINE
  5
443
100
AcDbEntity
  8
MAIN2
  6
PHANTOM
 62
3
100
AcDbLine
 10
336.6999922828700
 20
280.7497958835058
 30
0.0000000000000000
 11
341.1999922828700
 21
280.7497958835058
 31
0.0000000000000000
  0
LINE
  5
444
100
AcDbEntity
  8
MAIN2
  6
PHANTOM
 62
3
100
AcDbLine
 10
336.6999922828700
 20
280.7497958835058
 30
0.0000000000000000
 11
336.6999922828700
 21
289.2497958835058
 31
0.0000000000000000
  0
LINE
  5
445
100
AcDbEntity
  8
MAIN2
  6
PHANTOM
 62
3
100
AcDbLine
 10
336.1999922828700
 20
281.6158212872903
 30
0.0000000000000000
 11
336.6999922828700
 21
280.7497958835058
 31
0.0000000000000000
  0
LINE
  5
446
100
AcDbEntity
  8
MAIN2
  6
PHANTOM
 62
3
100
AcDbLine
 10
336.1999922828700
 20
281.6158212872903
 30
0.0000000000000000
 11
336.1999922828700
 21
288.3837704797214
 31
0.0000000000000000
  0
LINE
  5
447
100
AcDbEntity
  8
MAIN2
  6
PHANTOM
 62
3
100
AcDbLine
 10
336.1999922828700
 20
288.3837704797214
 30
0.0000000000000000
 11
336.6999922828700
 21
289.2497958835058
 31
0.0000000000000000
  0
LINE
  5
448
100
AcDbEntity
  8
MAIN2
  6
PHANTOM
 62
3
100
AcDbLine
 10
336.6999922828700
 20
289.2497958835058
 30
0.0000000000000000
 11
341.1999922828700
 21
289.2497958835058
 31
0.0000000000000000
  0
LINE
  5
449
100
AcDbEntity
  8
MAIN2
  6
PHANTOM
 62
3
100
AcDbLine
 10
341.1999922828700
 20
289.5997958835059
 30
0.0000000000000000
 11
342.4999922828700
 21
289.5997958835059
 31
0.0000000000000000
  0
LINE
  5
44A
100
AcDbEntity
  8
MAIN2
  6
PHANTOM
 62
3
100
AcDbLine
 10
341.1999922828700
 20
280.3997958835058
 30
0.0000000000000000
 11
341.1999922828700
 21
289.5997958835059
 31
0.0000000000000000
  0
LINE
  5
44B
100
AcDbEntity
  8
MAIN2
  6
PHANTOM
 62
3
100
AcDbLine
 10
341.1999922828700
 20
285.6497958835058
 30
0.0000000000000000
 11
342.4999922828700
 21
284.3497958835059
 31
0.0000000000000000
  0
LINE
  5
44C
100
AcDbEntity
  8
MAIN2
  6
PHANTOM
 62
3
100
AcDbLine
 10
342.4999922828700
 20
278.4997958835058
 30
0.0000000000000000
 11
342.4999922828700
 21
329.4997958835062
 31
0.0000000000000000
  0
LINE
  5
44D
100
AcDbEntity
  8
MAIN2
  6
PHANTOM
 62
3
100
AcDbLine
 10
341.1999922828700
 20
280.3997958835058
 30
0.0000000000000000
 11
342.4999922828700
 21
280.3997958835058
 31
0.0000000000000000
  0
LINE
  5
44E
100
AcDbEntity
  8
MAIN2
  6
PHANTOM
 62
3
100
AcDbLine
 10
342.4999922828700
 20
278.9997958835060
 30
0.0000000000000000
 11
345.4999922828700
 21
278.9997958835060
 31
0.0000000000000000
  0
LINE
  5
44F
100
AcDbEntity
  8
MAIN2
  6
PHANTOM
 62
3
100
AcDbLine
 10
345.4999922828700
 20
278.4997958835058
 30
0.0000000000000000
 11
345.4999922828700
 21
326.9997958835062
 31
0.0000000000000000
  0
LINE
  5
450
100
AcDbEntity
  8
MAIN2
  6
CONTINUOUS
 62
3
100
AcDbLine
 10
366.6999922828700
 20
289.2497958835058
 30
0.0000000000000000
 11
366.6999922828700
 21
280.7497958835058
 31
0.0000000000000000
  0
LINE
  5
451
100
AcDbEntity
  8
MAIN2
  6
CONTINUOUS
 62
3
100
AcDbLine
 10
366.1999922828700
 20
281.6158212872903
 30
0.0000000000000000
 11
366.6999922828700
 21
280.7497958835058
 31
0.0000000000000000
  0
LINE
  5
452
100
AcDbEntity
  8
MAIN2
  6
CONTINUOUS
 62
3
100
AcDbLine
 10
366.6999922828700
 20
280.7497958835058
 30
0.0000000000000000
 11
371.1999922828700
 21
280.7497958835058
 31
0.0000000000000000
  0
LINE
  5
453
100
AcDbEntity
  8
MAIN2
  6
CONTINUOUS
 62
3
100
AcDbLine
 10
366.1999922828700
 20
288.3837704797214
 30
0.0000000000000000
 11
366.1999922828700
 21
281.6158212872903
 31
0.0000000000000000
  0
LINE
  5
454
100
AcDbEntity
  8
MAIN2
  6
CONTINUOUS
 62
3
100
AcDbLine
 10
366.6999922828700
 20
289.2497958835058
 30
0.0000000000000000
 11
366.1999922828700
 21
288.3837704797214
 31
0.0000000000000000
  0
LINE
  5
455
100
AcDbEntity
  8
MAIN2
  6
CONTINUOUS
 62
3
100
AcDbLine
 10
371.1999922828700
 20
289.2497958835058
 30
0.0000000000000000
 11
366.6999922828700
 21
289.2497958835058
 31
0.0000000000000000
  0
LINE
  5
456
100
AcDbEntity
  8
MAIN2
  6
CONTINUOUS
 62
3
100
AcDbLine
 10
371.1999922828700
 20
289.5997958835059
 30
0.0000000000000000
 11
372.4999922828700
 21
289.5997958835059
 31
0.0000000000000000
  0
LINE
  5
457
100
AcDbEntity
  8
MAIN2
  6
CONTINUOUS
 62
3
100
AcDbLine
 10
371.1999922828700
 20
280.3997958835058
 30
0.0000000000000000
 11
371.1999922828700
 21
289.5997958835059
 31
0.0000000000000000
  0
LINE
  5
458
100
AcDbEntity
  8
MAIN2
  6
CONTINUOUS
 62
3
100
AcDbLine
 10
372.4999922828700
 20
284.3497958835059
 30
0.0000000000000000
 11
371.1999922828700
 21
285.6497958835058
 31
0.0000000000000000
  0
LINE
  5
459
100
AcDbEntity
  8
MAIN2
  6
CONTINUOUS
 62
3
100
AcDbLine
 10
372.4999922828700
 20
278.4997958835058
 30
0.0000000000000000
 11
372.4999922828700
 21
329.4997958835062
 31
0.0000000000000000
  0
LINE
  5
45A
100
AcDbEntity
  8
MAIN2
  6
CONTINUOUS
 62
3
100
AcDbLine
 10
372.4999922828700
 20
280.3997958835058
 30
0.0000000000000000
 11
371.1999922828700
 21
280.3997958835058
 31
0.0000000000000000
  0
LINE
  5
45B
100
AcDbEntity
  8
MAIN2
  6
CONTINUOUS
 62
3
100
AcDbLine
 10
375.4999922828700
 20
279.4997958835057
 30
0.0000000000000000
 11
376.4999922828699
 21
279.4997958835057
 31
0.0000000000000000
  0
LINE
  5
45C
100
AcDbEntity
  8
MAIN2
  6
CONTINUOUS
 62
3
100
AcDbLine
 10
375.4999922828700
 20
278.4997958835058
 30
0.0000000000000000
 11
375.4999922828700
 21
326.9997958835062
 31
0.0000000000000000
  0
LINE
  5
45D
100
AcDbEntity
  8
MAIN2
  6
CONTINUOUS
 62
3
100
AcDbLine
 10
372.4999922828700
 20
278.9997958835060
 30
0.0000000000000000
 11
375.4999922828700
 21
278.9997958835060
 31
0.0000000000000000
  0
LINE
  5
45E
100
AcDbEntity
  8
MAIN2
  6
CONTINUOUS
 62
3
100
AcDbLine
 10
375.4999922828700
 20
290.4997958835060
 30
0.0000000000000000
 11
376.4999922828699
 21
290.4997958835060
 31
0.0000000000000000
  0
LINE
  5
45F
100
AcDbEntity
  8
MAIN2
  6
CONTINUOUS
 62
3
100
AcDbLine
 10
376.4999922828699
 20
268.7375084142745
 30
0.0000000000000000
 11
376.4999922828699
 21
325.9997958835060
 31
0.0000000000000000
  0
LINE
  5
460
100
AcDbEntity
  8
MAIN0
  6
CONTINUOUS
 62
3
100
AcDbLine
 10
314.4999922828702
 20
269.8997958835218
 30
0.0000000000000000
 11
315.1928126059254
 21
269.4997958835060
 31
0.0000000000000000
  0
LINE
  5
461
100
AcDbEntity
  8
MAIN0
  6
CENTER
 62
3
100
AcDbLine
 10
316.0716587094765
 20
269.4997958835060
 30
0.0000000000000000
 11
313.6835056667131
 21
269.4997958835060
 31
0.0000000000000000
  0
LINE
  5
462
100
AcDbEntity
  8
MAIN0
  6
CONTINUOUS
 62
3
100
AcDbLine
 10
314.4999922828702
 20
269.0997958834902
 30
0.0000000000000000
 11
315.1928126059254
 21
269.4997958835060
 31
0.0000000000000000
  0
LINE
  5
463
100
AcDbEntity
  8
MAIN0
  6
CONTINUOUS
 62
3
100
AcDbLine
 10
314.4999922828701
 20
267.8997958835219
 30
0.0000000000000000
 11
314.4999922828701
 21
269.0997958834901
 31
0.0000000000000000
  0
LINE
  5
464
100
AcDbEntity
  8
MAIN0
  6
CONTINUOUS
 62
3
100
AcDbLine
 10
314.4999922828701
 20
269.8997958835219
 30
0.0000000000000000
 11
314.4999922828701
 21
318.5997958835062
 31
0.0000000000000000
  0
LINE
  5
465
100
AcDbEntity
  8
MAIN0
  6
CONTINUOUS
 62
3
100
AcDbLine
 10
314.4999922828702
 20
215.0997958834902
 30
0.0000000000000000
 11
315.1928126059254
 21
215.4997958835060
 31
0.0000000000000000
  0
LINE
  5
466
100
AcDbEntity
  8
MAIN0
  6
CENTER
 62
3
100
AcDbLine
 10
316.0716587094765
 20
215.4997958835060
 30
0.0000000000000000
 11
313.6835056667131
 21
215.4997958835060
 31
0.0000000000000000
  0
LINE
  5
467
100
AcDbEntity
  8
MAIN0
  6
CONTINUOUS
 62
3
100
AcDbLine
 10
314.4999922828702
 20
215.8997958835218
 30
0.0000000000000000
 11
315.1928126059254
 21
215.4997958835059
 31
0.0000000000000000
  0
LINE
  5
468
100
AcDbEntity
  8
MAIN0
  6
CONTINUOUS
 62
3
100
AcDbLine
 10
314.4999922828701
 20
151.3997958835060
 30
0.0000000000000000
 11
314.4999922828701
 21
215.0997958834901
 31
0.0000000000000000
  0
LINE
  5
469
100
AcDbEntity
  8
MAIN0
  6
CONTINUOUS
 62
3
100
AcDbLine
 10
314.4999922828701
 20
215.8997958835219
 30
0.0000000000000000
 11
314.4999922828701
 21
217.0997958834901
 31
0.0000000000000000
  0
ARC
  5
46A
100
AcDbEntity
  8
MAIN1
  6
CONTINUOUS
 62
3
100
AcDbCircle
 10
154.4999922828701
 20
242.4997958835060
 30
0.0000000000000000
 40
27.40000000000000
100
AcDbArc
 50
254.6544111110771
 51
330.3455888885728
  0
CIRCLE
  5
46B
100
AcDbEntity
  8
MAIN1
  6
CENTER
 62
3
100
AcDbCircle
 10
154.4999922828701
 20
242.4997958835060
 30
0.0000000000000000
 40
27.00000000000000
  0
ARC
  5
46C
100
AcDbEntity
  8
MAIN1
  6
CONTINUOUS
 62
3
100
AcDbCircle
 10
154.4999922828701
 20
242.4997958835060
 30
0.0000000000000000
 40
26.60000000000000
100
AcDbArc
 50
252.4459951424969
 51
332.5540048571530
  0
ARC
  5
46D
100
AcDbEntity
  8
MAIN1
  6
CONTINUOUS
 62
3
100
AcDbCircle
 10
154.4999922828701
 20
242.4997958835060
 30
0.0000000000000000
 40
27.40000000000000
100
AcDbArc
 50
74.65441111107718
 51
150.3455888885728
  0
ARC
  5
46E
100
AcDbEntity
  8
MAIN1
  6
CONTINUOUS
 62
3
100
AcDbCircle
 10
154.4999922828701
 20
242.4997958835060
 30
0.0000000000000000
 40
26.60000000000000
100
AcDbArc
 50
72.44599514249708
 51
152.5540048571529
  0
ARC
  5
46F
100
AcDbEntity
  8
MAIN1
  6
CONTINUOUS
 62
3
100
AcDbCircle
 10
154.4999922828701
 20
242.4997958835060
 30
0.0000000000000000
 40
27.40000000000000
100
AcDbArc
 50
164.6544111110772
 51
240.3455888885727
  0
ARC
  5
470
100
AcDbEntity
  8
MAIN1
  6
CONTINUOUS
 62
3
100
AcDbCircle
 10
154.4999922828701
 20
242.4997958835060
 30
0.0000000000000000
 40
26.60000000000000
100
AcDbArc
 50
162.4459951424970
 51
242.5540048571529
  0
CIRCLE
  5
471
100
AcDbEntity
  8
MAIN1
  6
CONTINUOUS
 62
3
100
AcDbCircle
 10
125.3977870088015
 20
254.5543240030952
 30
0.0000000000000000
 40
5.500000000000000
  0
CIRCLE
  5
472
100
AcDbEntity
  8
MAIN1
  6
CONTINUOUS
 62
3
100
AcDbCircle
 10
166.5545204024593
 20
271.6020011575747
 30
0.0000000000000000
 40
5.500000000000000
  0
ARC
  5
473
100
AcDbEntity
  8
MAIN1
  6
CONTINUOUS
 62
3
100
AcDbCircle
 10
154.4999922828701
 20
242.4997958835060
 30
0.0000000000000000
 40
27.40000000000000
100
AcDbArc
 50
344.6544111110771
 51
420.3455888885728
  0
ARC
  5
474
100
AcDbEntity
  8
MAIN1
  6
CONTINUOUS
 62
3
100
AcDbCircle
 10
154.4999922828701
 20
242.4997958835060
 30
0.0000000000000000
 40
26.60000000000000
100
AcDbArc
 50
342.4459951424969
 51
422.5540048571530
  0
CIRCLE
  5
475
100
AcDbEntity
  8
MAIN1
  6
CONTINUOUS
 62
3
100
AcDbCircle
 10
183.6021975569388
 20
230.4452677639168
 30
0.0000000000000000
 40
5.500000000000000
  0
CIRCLE
  5
476
100
AcDbEntity
  8
MAIN1
  6
CONTINUOUS
 62
3
100
AcDbCircle
 10
142.4454641632809
 20
213.3975906094373
 30
0.0000000000000000
 40
5.500000000000000
  0
SPLINE
  5
477
100
AcDbEntity
  8
MAIN0
  6
CONTINUOUS
 62
3
100
AcDbSpline
210
0.0000000000000000
220
0.0000000000000000
230
1.000000000000000
 70
     8
 71
     3
 72
    11
 73
     7
 74
     0
 42
1.000000000000000e-007
 43
1.000000000000000e-007
 12
-0.7409394742008715
 22
-0.8386547969873845
 32
0.0000000000000000
 13
0.5020736727349799
 23
-0.9512361890274974
 33
0.0000000000000000
 40
0.0000000000000000
 40
0.0000000000000000
 40
0.0000000000000000
 40
0.0000000000000000
 40
8.414110359635114
 40
19.63242585739298
 40
30.95844326149602
 40
38.59745501321311
 40
38.59745501321311
 40
38.59745501321311
 40
38.59745501321311
 10
480.5072766871063
 20
260.4997958835060
 30
0.0000000000000000
 10
478.4291611851942
 20
258.1476178783429
 30
0.0000000000000000
 10
473.5803480878392
 20
252.6593418377422
 30
0.0000000000000000
 10
482.7961482567225
 20
242.3439679162966
 30
0.0000000000000000
 10
473.8328543393645
 20
232.9353713787119
 30
0.0000000000000000
 10
477.0068016199606
 20
226.9219640257192
 30
0.0000000000000000
 10
478.2852505153773
 20
224.4997958835060
 30
0.0000000000000000
  0
ARC
  5
478
100
AcDbEntity
  8
MAIN0
  6
CONTINUOUS
 62
3
100
AcDbCircle
 10
553.4999922828232
 20
135.0218635582221
 30
0.0000000000000000
 40
17.50000000000000
100
AcDbArc
 50
23.89550818617227
 51
156.1044918138493
  0
ARC
  5
479
100
AcDbEntity
  8
MAIN0
  6
CONTINUOUS
 62
3
100
AcDbCircle
 10
553.4999922828232
 20
135.0218635582221
 30
0.0000000000000000
 40
17.50000000000000
100
AcDbArc
 50
203.8955081861727
 51
336.1044918138498
  0
INSERT
  5
491
100
AcDbEntity
  8
MAIN0
  6
CONTINUOUS
 62
3
100
AcDbBlockReference
  2
*X0
 10
0.0000000000000000
 20
0.0000000000000000
 30
0.0000000000000000
 50
0.0000000000000000
  0
INSERT
  5
4A9
100
AcDbEntity
  8
MAIN0
  6
CONTINUOUS
 62
3
100
AcDbBlockReference
  2
*X1
 10
0.0000000000000000
 20
0.0000000000000000
 30
0.0000000000000000
 50
0.0000000000000000
  0
INSERT
  5
4BE
100
AcDbEntity
  8
MAIN0
  6
CONTINUOUS
 62
3
100
AcDbBlockReference
  2
*X2
 10
0.0000000000000000
 20
0.0000000000000000
 30
0.0000000000000000
 50
0.0000000000000000
  0
INSERT
  5
4D3
100
AcDbEntity
  8
MAIN0
  6
CONTINUOUS
 62
3
100
AcDbBlockReference
  2
*X3
 10
0.0000000000000000
 20
0.0000000000000000
 30
0.0000000000000000
 50
0.0000000000000000
  0
CIRCLE
  5
4D4
100
AcDbEntity
  8
MAIN0
  6
CONTINUOUS
 62
3
100
AcDbCircle
 10
146.4999922828669
 20
324.9997958835059
 30
0.0000000000000000
 40
5.000000000000000
  0
LINE
  5
4D5
100
AcDbEntity
  8
MAIN0
  6
CONTINUOUS
 62
3
100
AcDbLine
 10
146.4999922828669
 20
327.8865472294540
 30
0.0000000000000000
 11
143.9999922828669
 21
326.4431715564799
 31
0.0000000000000000
  0
LINE
  5
4D6
100
AcDbEntity
  8
MAIN0
  6
CONTINUOUS
 62
3
100
AcDbLine
 10
143.9999922828669
 20
326.4431715564799
 30
0.0000000000000000
 11
143.9999922828669
 21
323.5564202105318
 31
0.0000000000000000
  0
LINE
  5
4D7
100
AcDbEntity
  8
MAIN0
  6
CONTINUOUS
 62
3
100
AcDbLine
 10
143.9999922828669
 20
323.5564202105318
 30
0.0000000000000000
 11
146.4999922828669
 21
322.1130445375578
 31
0.0000000000000000
  0
LINE
  5
4D8
100
AcDbEntity
  8
MAIN0
  6
CONTINUOUS
 62
3
100
AcDbLine
 10
146.4999922828669
 20
322.1130445375577
 30
0.0000000000000000
 11
148.9999922828669
 21
323.5564202105318
 31
0.0000000000000000
  0
LINE
  5
4D9
100
AcDbEntity
  8
MAIN0
  6
CONTINUOUS
 62
3
100
AcDbLine
 10
148.9999922828669
 20
323.5564202105318
 30
0.0000000000000000
 11
148.9999922828669
 21
326.4431715564799
 31
0.0000000000000000
  0
LINE
  5
4DA
100
AcDbEntity
  8
MAIN0
  6
CONTINUOUS
 62
3
100
AcDbLine
 10
148.9999922828669
 20
326.4431715564800
 30
0.0000000000000000
 11
146.4999922828669
 21
327.8865472294540
 31
0.0000000000000000
  0
CIRCLE
  5
4DB
100
AcDbEntity
  8
MAIN0
  6
CONTINUOUS
 62
3
100
AcDbCircle
 10
142.4454641632808
 20
213.3975906094373
 30
0.0000000000000000
 40
5.000000000000000
  0
LINE
  5
4DC
100
AcDbEntity
  8
MAIN0
  6
CONTINUOUS
 62
3
100
AcDbLine
 10
142.4454641632808
 20
216.2843419553854
 30
0.0000000000000000
 11
139.9454641632808
 21
214.8409662824114
 31
0.0000000000000000
  0
LINE
  5
4DD
100
AcDbEntity
  8
MAIN0
  6
CONTINUOUS
 62
3
100
AcDbLine
 10
139.9454641632808
 20
214.8409662824114
 30
0.0000000000000000
 11
139.9454641632808
 21
211.9542149364633
 31
0.0000000000000000
  0
LINE
  5
4DE
100
AcDbEntity
  8
MAIN0
  6
CONTINUOUS
 62
3
100
AcDbLine
 10
139.9454641632808
 20
211.9542149364633
 30
0.0000000000000000
 11
142.4454641632808
 21
210.5108392634892
 31
0.0000000000000000
  0
LINE
  5
4DF
100
AcDbEntity
  8
MAIN0
  6
CONTINUOUS
 62
3
100
AcDbLine
 10
142.4454641632808
 20
210.5108392634892
 30
0.0000000000000000
 11
144.9454641632808
 21
211.9542149364632
 31
0.0000000000000000
  0
LINE
  5
4E0
100
AcDbEntity
  8
MAIN0
  6
CONTINUOUS
 62
3
100
AcDbLine
 10
144.9454641632808
 20
211.9542149364633
 30
0.0000000000000000
 11
144.9454641632808
 21
214.8409662824114
 31
0.0000000000000000
  0
LINE
  5
4E1
100
AcDbEntity
  8
MAIN0
  6
CONTINUOUS
 62
3
100
AcDbLine
 10
144.9454641632808
 20
214.8409662824114
 30
0.0000000000000000
 11
142.4454641632808
 21
216.2843419553855
 31
0.0000000000000000
  0
CIRCLE
  5
4E2
100
AcDbEntity
  8
MAIN0
  6
CONTINUOUS
 62
3
100
AcDbCircle
 10
162.4999922828669
 20
324.9997958835059
 30
0.0000000000000000
 40
5.000000000000000
  0
LINE
  5
4E3
100
AcDbEntity
  8
MAIN0
  6
CONTINUOUS
 62
3
100
AcDbLine
 10
162.4999922828668
 20
327.8865472294540
 30
0.0000000000000000
 11
159.9999922828669
 21
326.4431715564799
 31
0.0000000000000000
  0
LINE
  5
4E4
100
AcDbEntity
  8
MAIN0
  6
CONTINUOUS
 62
3
100
AcDbLine
 10
159.9999922828669
 20
326.4431715564799
 30
0.0000000000000000
 11
159.9999922828669
 21
323.5564202105318
 31
0.0000000000000000
  0
LINE
  5
4E5
100
AcDbEntity
  8
MAIN0
  6
CONTINUOUS
 62
3
100
AcDbLine
 10
159.9999922828668
 20
323.5564202105318
 30
0.0000000000000000
 11
162.4999922828668
 21
322.1130445375578
 31
0.0000000000000000
  0
LINE
  5
4E6
100
AcDbEntity
  8
MAIN0
  6
CONTINUOUS
 62
3
100
AcDbLine
 10
162.4999922828669
 20
322.1130445375578
 30
0.0000000000000000
 11
164.9999922828669
 21
323.5564202105318
 31
0.0000000000000000
  0
LINE
  5
4E7
100
AcDbEntity
  8
MAIN0
  6
CONTINUOUS
 62
3
100
AcDbLine
 10
164.9999922828669
 20
323.5564202105318
 30
0.0000000000000000
 11
164.9999922828669
 21
326.4431715564799
 31
0.0000000000000000
  0
LINE
  5
4E8
100
AcDbEntity
  8
MAIN0
  6
CONTINUOUS
 62
3
100
AcDbLine
 10
164.9999922828668
 20
326.4431715564800
 30
0.0000000000000000
 11
162.4999922828668
 21
327.8865472294540
 31
0.0000000000000000
  0
LINE
  5
4E9
100
AcDbEntity
  8
MAIN0
  6
CONTINUOUS
 62
3
100
AcDbLine
 10
204.5511232381545
 20
332.6727527585814
 30
0.0000000000000000
 11
204.9737414998960
 21
333.5790605456176
 31
0.0000000000000000
  0
LINE
  5
4EA
100
AcDbEntity
  8
MAIN0
  6
CONTINUOUS
 62
3
100
AcDbLine
 10
204.9737414998960
 20
333.5790605456177
 30
0.0000000000000000
 11
214.0368193702587
 21
329.3528779282026
 31
0.0000000000000000
  0
LINE
  5
4EB
100
AcDbEntity
  8
MAIN0
  6
CONTINUOUS
 62
3
100
AcDbLine
 10
214.0368193702587
 20
329.3528779282026
 30
0.0000000000000000
 11
213.6142011085172
 21
328.4465701411663
 31
0.0000000000000000
  0
LINE
  5
4EC
100
AcDbEntity
  8
MAIN0
  6
CONTINUOUS
 62
3
100
AcDbLine
 10
213.3570885299815
 20
329.6698416245087
 30
0.0000000000000000
 11
215.2588707078183
 21
333.7482266661719
 31
0.0000000000000000
  0
LINE
  5
4ED
100
AcDbEntity
  8
MAIN0
  6
CONTINUOUS
 62
3
100
AcDbLine
 10
215.2588707078183
 20
333.7482266661718
 30
0.0000000000000000
 11
214.6852942714680
 21
334.5673787104613
 31
0.0000000000000000
  0
LINE
  5
4EE
100
AcDbEntity
  8
MAIN0
  6
CONTINUOUS
 62
3
100
AcDbLine
 10
214.6852942714679
 20
334.5673787104614
 30
0.0000000000000000
 11
208.5514492161018
 21
337.4276376337215
 31
0.0000000000000000
  0
LINE
  5
4EF
100
AcDbEntity
  8
MAIN0
  6
CONTINUOUS
 62
3
100
AcDbLine
 10
208.5514492161018
 20
337.4276376337215
 30
0.0000000000000000
 11
207.5552545180100
 21
337.3404818909747
 31
0.0000000000000000
  0
LINE
  5
4F0
100
AcDbEntity
  8
MAIN0
  6
CONTINUOUS
 62
3
100
AcDbLine
 10
207.5552545180100
 20
337.3404818909748
 30
0.0000000000000000
 11
205.6534723401732
 21
333.2620968493116
 31
0.0000000000000000
  0
LINE
  5
4F1
100
AcDbEntity
  8
MAIN0
  6
CONTINUOUS
 62
3
100
AcDbLine
 10
215.2588707078183
 20
333.7482266661719
 30
0.0000000000000000
 11
207.5552545180100
 21
337.3404818909747
 31
0.0000000000000000
  0
LINE
  5
4F2
100
AcDbEntity
  8
MAIN0
  6
CONTINUOUS
 62
3
100
AcDbLine
 10
208.6436747657801
 20
323.7027459584862
 30
0.0000000000000000
 11
208.3901038087359
 21
323.1589612862662
 31
0.0000000000000000
  0
LINE
  5
4F3
100
AcDbEntity
  8
MAIN0
  6
CONTINUOUS
 62
3
100
AcDbLine
 10
208.3901038087359
 20
323.1589612862662
 30
0.0000000000000000
 11
203.8585648735546
 21
325.2720525949737
 31
0.0000000000000000
  0
LINE
  5
4F4
100
AcDbEntity
  8
MAIN0
  6
CONTINUOUS
 62
3
100
AcDbLine
 10
203.8585648735545
 20
325.2720525949738
 30
0.0000000000000000
 11
204.1121358306003
 21
325.8158372671975
 31
0.0000000000000000
  0
LINE
  5
4F5
100
AcDbEntity
  8
MAIN0
  6
CONTINUOUS
 62
3
100
AcDbLine
 10
208.2512318932539
 20
323.8857450753343
 30
0.0000000000000000
 11
207.9976609362096
 21
323.3419604031139
 31
0.0000000000000000
  0
LINE
  5
4F6
100
AcDbEntity
  8
MAIN0
  6
CONTINUOUS
 62
3
100
AcDbLine
 10
204.5045787031266
 20
325.6328381503493
 30
0.0000000000000000
 11
204.2510077460809
 21
325.0890534781259
 31
0.0000000000000000
  0
LINE
  5
4F7
100
AcDbEntity
  8
MAIN0
  6
CONTINUOUS
 62
3
100
AcDbLine
 10
396.4999922828693
 20
267.1667303768093
 30
0.0000000000000000
 11
396.4999922828695
 21
326.9997958835060
 31
0.0000000000000000
  0
LINE
  5
4F8
100
AcDbEntity
  8
WAKU0
  6
CONTINUOUS
 62
3
100
AcDbLine
 10
412.0000000000000
 20
51.00000000000000
 30
0.0000000000000000
 11
582.0000000000000
 21
51.00000000000000
 31
0.0000000000000000
  0
LINE
  5
4F9
100
AcDbEntity
  8
WAKU0
  6
CONTINUOUS
 62
3
100
AcDbLine
 10
412.0000000000000
 20
51.00000000000000
 30
0.0000000000000000
 11
412.0000000000000
 21
12.00000000000000
 31
0.0000000000000000
  0
LINE
  5
4FA
100
AcDbEntity
  8
WAKU0
  6
CONTINUOUS
 62
3
100
AcDbLine
 10
484.0000000000000
 20
51.00000000000000
 30
0.0000000000000000
 11
484.0000000000000
 21
12.00000000000000
 31
0.0000000000000000
  0
LINE
  5
4FB
100
AcDbEntity
  8
WAKU0
  6
CONTINUOUS
 62
3
100
AcDbLine
 10
504.0000000000000
 20
51.00000000000000
 30
0.0000000000000000
 11
504.0000000000000
 21
12.00000000000000
 31
0.0000000000000000
  0
LINE
  5
4FC
100
AcDbEntity
  8
WAKU0
  6
CONTINUOUS
 62
3
100
AcDbLine
 10
516.0000000000000
 20
51.00000000000000
 30
0.0000000000000000
 11
516.0000000000000
 21
12.00000000000000
 31
0.0000000000000000
  0
LINE
  5
4FD
100
AcDbEntity
  8
WAKU0
  6
CONTINUOUS
 62
3
100
AcDbLine
 10
516.0000000000000
 20
37.00000000000000
 30
0.0000000000000000
 11
582.0000000000000
 21
37.00000000000000
 31
0.0000000000000000
  0
LINE
  5
4FE
100
AcDbEntity
  8
WAKU0
  6
CONTINUOUS
 62
3
100
AcDbLine
 10
504.0000000000000
 20
23.00000000000000
 30
0.0000000000000000
 11
582.0000000000000
 21
23.00000000000000
 31
0.0000000000000000
  0
LINE
  5
4FF
100
AcDbEntity
  8
WAKU0
  6
CONTINUOUS
 62
3
100
AcDbLine
 10
547.0000000000000
 20
51.00000000000000
 30
0.0000000000000000
 11
547.0000000000000
 21
44.00000000000000
 31
0.0000000000000000
  0
LINE
  5
500
100
AcDbEntity
  8
WAKU0
  6
CONTINUOUS
 62
3
100
AcDbLine
 10
559.0000000000000
 20
51.00000000000000
 30
0.0000000000000000
 11
559.0000000000000
 21
44.00000000000000
 31
0.0000000000000000
  0
LINE
  5
501
100
AcDbEntity
  8
WAKU0
  6
CONTINUOUS
 62
3
100
AcDbLine
 10
484.0000000000000
 20
31.50000000000000
 30
0.0000000000000000
 11
504.0000000000000
 21
31.50000000000000
 31
0.0000000000000000
  0
LINE
  5
502
100
AcDbEntity
  8
WAKU0
  6
CONTINUOUS
 62
3
100
AcDbLine
 10
504.0000000000000
 20
44.00000000000000
 30
0.0000000000000000
 11
582.0000000000000
 21
44.00000000000000
 31
0.0000000000000000
  0
LINE
  5
503
100
AcDbEntity
  8
WAKU0
  6
CONTINUOUS
 62
3
100
AcDbLine
 10
412.0000000000000
 20
37.00000000000000
 30
0.0000000000000000
 11
484.0000000000000
 21
37.00000000000000
 31
0.0000000000000000
  0
LINE
  5
504
100
AcDbEntity
  8
WAKU0
  6
CONTINUOUS
 62
3
100
AcDbLine
 10
412.0000000000000
 20
23.00000000000000
 30
0.0000000000000000
 11
484.0000000000000
 21
23.00000000000000
 31
0.0000000000000000
  0
LINE
  5
505
100
AcDbEntity
  8
WAKU0
  6
CONTINUOUS
 62
3
100
AcDbLine
 10
460.0000000000000
 20
37.00000000000000
 30
0.0000000000000000
 11
460.0000000000000
 21
12.00000000000000
 31
0.0000000000000000
  0
LINE
  5
506
100
AcDbEntity
  8
WAKU0
  6
CONTINUOUS
 62
3
100
AcDbLine
 10
436.0000000000000
 20
37.00000000000000
 30
0.0000000000000000
 11
436.0000000000000
 21
23.00000000000000
 31
0.0000000000000000
  0
LINE
  5
507
100
AcDbEntity
  8
WAKU0
  6
CONTINUOUS
 62
3
100
AcDbLine
 10
472.0000000000000
 20
26.00000000000000
 30
0.0000000000000000
 11
472.0000000000000
 21
23.00000000000000
 31
0.0000000000000000
  0
LINE
  5
508
100
AcDbEntity
  8
WAKU0
  6
CONTINUOUS
 62
3
100
AcDbLine
 10
448.0000000000000
 20
26.00000000000000
 30
0.0000000000000000
 11
448.0000000000000
 21
23.00000000000000
 31
0.0000000000000000
  0
LINE
  5
509
100
AcDbEntity
  8
WAKU0
  6
CONTINUOUS
 62
3
100
AcDbLine
 10
424.0000000000000
 20
26.00000000000000
 30
0.0000000000000000
 11
424.0000000000000
 21
23.00000000000000
 31
0.0000000000000000
  0
LINE
  5
50A
100
AcDbEntity
  8
WAKU0
  6
CONTINUOUS
 62
3
100
AcDbLine
 10
430.0000000000000
 20
51.00000000000000
 30
0.0000000000000000
 11
430.0000000000000
 21
37.00000000000000
 31
0.0000000000000000
  0
LINE
  5
50B
100
AcDbEntity
  8
WAKU0
  6
CONTINUOUS
 62
3
100
AcDbLine
 10
412.0000000000000
 20
45.00000000000000
 30
0.0000000000000000
 11
484.0000000000000
 21
45.00000000000000
 31
0.0000000000000000
  0
LINE
  5
50C
100
AcDbEntity
  8
WAKU0
  6
HIDDEN
 62
3
100
AcDbLine
 10
532.5000000000000
 20
23.00000000000000
 30
0.0000000000000000
 11
532.5000000000000
 21
12.00000000000000
 31
0.0000000000000000
  0
LINE
  5
50D
100
AcDbEntity
  8
WAKU0
  6
HIDDEN
 62
3
100
AcDbLine
 10
544.9000000000000
 20
23.00000000000000
 30
0.0000000000000000
 11
544.9000000000000
 21
12.00000000000000
 31
0.0000000000000000
  0
MTEXT
  5
50E
100
AcDbEntity
  8
WAKU0
  6
CONTINUOUS
 62
3
100
AcDbMText
 10
516.4820000243485
 20
49.04999995231628
 30
0.0000000000000000
 40
3.099999904632568
 41
0.0000000000000000
 71
     1
 72
     1
  1
{\H0.93x;{M1330HC21D}}
 11
1.000000000000000
 21
0.0000000000000000
 31
0.0000000000000000
  7
STANDARD
  0
MTEXT
  5
50F
100
AcDbEntity
  8
WAKU0
  6
CONTINUOUS
 62
3
100
AcDbMText
 10
522.7500004470348
 20
43.50000000000000
 30
0.0000000000000000
 40
3.000000000000000
 41
0.0000000000000000
 71
     1
 72
     1
  1
{\H0.59x;{回転油圧シリンダ\PＲＯＴＡＲＹ　ＨＹＤＲＡＵＬＩＣ　ＣＹＬＩＮＤＥＲ}}
 11
1.000000000000000
 21
0.0000000000000000
 31
0.0000000000000000
  7
KNJYOKO
  0
MTEXT
  5
510
100
AcDbEntity
  8
WAKU0
  6
CONTINUOUS
 62
3
100
AcDbMText
 10
519.1499999836087
 20
34.23333326975504
 30
0.0000000000000000
 40
3.099999904632568
 41
0.0000000000000000
 71
     1
 72
     1
  1
{\H0.71x;{Ｍ１３３０ＨＣ２１Ｄ　ガイケイ\PＭ１３３０ＨＣ２１Ｄ　ＯＵＴＳＩＤＥ　ＶＩＥＷ}}
 11
1.000000000000000
 21
0.0000000000000000
 31
0.0000000000000000
  7
KNJYOKO
  0
MTEXT
  5
511
100
AcDbEntity
  8
WAKU0
  6
CONTINUOUS
 62
3
100
AcDbMText
 10
490.0049998760223
 20
39.29999995231628
 30
0.0000000000000000
 40
3.099999904632568
 41
0.0000000000000000
 71
     1
 72
     1
  1
{\H0.90x;{1:1}}
 11
1.000000000000000
 21
0.0000000000000000
 31
0.0000000000000000
  7
STANDARD
  0
MTEXT
  5
512
100
AcDbEntity
  8
WAKU0
  6
CONTINUOUS
 62
3
100
AcDbMText
 10
546.4000001549721
 20
20.15000009536743
 30
0.0000000000000000
 40
5.300000190734863
 41
0.0000000000000000
 71
     1
 72
     1
  1
{\H0.90x;{5448}}
 11
1.000000000000000
 21
0.0000000000000000
 31
0.0000000000000000
  7
STANDARD
  0
MTEXT
  5
513
100
AcDbEntity
  8
WAKU0
  6
CONTINUOUS
 62
3
100
AcDbMText
 10
534.3000000834466
 20
20.15000009536743
 30
0.0000000000000000
 40
5.300000190734863
 41
0.0000000000000000
 71
     1
 72
     1
  1
{\H0.87x;{25}}
 11
1.000000000000000
 21
0.0000000000000000
 31
0.0000000000000000
  7
STANDARD
  0
MTEXT
  5
514
100
AcDbEntity
  8
WAKU0
  6
CONTINUOUS
 62
3
100
AcDbMText
 10
517.5000001192093
 20
20.15000009536743
 30
0.0000000000000000
 40
5.300000190734863
 41
0.0000000000000000
 71
     1
 72
     1
  1
{\H0.89x;{61R}}
 11
1.000000000000000
 21
0.0000000000000000
 31
0.0000000000000000
  7
STANDARD
  0
MTEXT
  5
515
100
AcDbEntity
  8
WAKU0
  6
CONTINUOUS
 62
3
100
AcDbMText
 10
572.0000000476837
 20
20.15000009536743
 30
0.0000000000000000
 40
5.300000190734863
 41
0.0000000000000000
 71
     1
 72
     1
  1
{\H0.81x;{2}}
 11
1.000000000000000
 21
0.0000000000000000
 31
0.0000000000000000
  7
STANDARD
  0
MTEXT
  5
516
100
AcDbEntity
  8
WAKU0
  6
CONTINUOUS
 62
3
100
AcDbMText
 10
572.0000000819564
 20
44.84999990463257
 30
0.0000000000000000
 40
5.300000190734863
 41
0.0000000000000000
 71
     7
 72
     1
  1
{\H0.81x;{ }}
 11
1.000000000000000
 21
0.0000000000000000
 31
0.0000000000000000
  7
STANDARD
  0
MTEXT
  5
517
100
AcDbEntity
  8
WAKU0
  6
CONTINUOUS
 62
3
100
AcDbMText
 10
461.3850002884865
 20
33.00000000000000
 30
0.0000000000000000
 40
3.000000000000000
 41
0.0000000000000000
 71
     7
 72
     1
  1
{\H0.93x;{DRAWN BY}}
 11
1.000000000000000
 21
0.0000000000000000
 31
0.0000000000000000
  7
STANDARD
  0
MTEXT
  5
518
100
AcDbEntity
  8
WAKU0
  6
CONTINUOUS
 62
3
100
AcDbMText
 10
441.2149997949600
 20
32.95000004768372
 30
0.0000000000000000
 40
3.099999904632568
 41
0.0000000000000000
 71
     7
 72
     1
  1
{\H0.92x;{CHIEF}}
 11
1.000000000000000
 21
0.0000000000000000
 31
0.0000000000000000
  7
STANDARD
  0
MTEXT
  5
519
100
AcDbEntity
  8
WAKU0
  6
CONTINUOUS
 62
3
100
AcDbMText
 10
414.4249997138977
 20
32.95000004768372
 30
0.0000000000000000
 40
3.099999904632568
 41
0.0000000000000000
 71
     7
 72
     1
  1
{\H0.92x;{MANAGER}}
 11
1.000000000000000
 21
0.0000000000000000
 31
0.0000000000000000
  7
STANDARD
  0
MTEXT
  5
51A
100
AcDbEntity
  8
WAKU0
  6
CONTINUOUS
 62
3
100
AcDbMText
 10
416.6599994301796
 20
18.13333336512248
 30
0.0000000000000000
 40
3.099999904632568
 41
0.0000000000000000
 71
     7
 72
     1
  1
{\H0.93x;{KITAGAWA IRON\PWORKS CO.,LTD.}}
 11
1.000000000000000
 21
0.0000000000000000
 31
0.0000000000000000
  7
STANDARD
  0
MTEXT
  5
51B
100
AcDbEntity
  8
WAKU0
  6
CONTINUOUS
 62
3
100
AcDbMText
 10
413.0850002169609
 20
46.50000000000000
 30
0.0000000000000000
 40
3.000000000000000
 41
0.0000000000000000
 71
     7
 72
     1
  1
{\H0.92x;{CAREER}}
 11
1.000000000000000
 21
0.0000000000000000
 31
0.0000000000000000
  7
STANDARD
  0
MTEXT
  5
51C
100
AcDbEntity
  8
WAKU0
  6
CONTINUOUS
 62
3
100
AcDbMText
 10
466.6099998354912
 20
18.95000004768372
 30
0.0000000000000000
 40
3.099999904632568
 41
0.0000000000000000
 71
     7
 72
     1
  1
{\H0.91x;{DATE}}
 11
1.000000000000000
 21
0.0000000000000000
 31
0.0000000000000000
  7
STANDARD
  0
MTEXT
  5
51D
100
AcDbEntity
  8
WAKU0
  6
CONTINUOUS
 62
3
100
AcDbMText
 10
485.9000002145767
 20
26.50000000000000
 30
0.0000000000000000
 40
3.000000000000000
 41
0.0000000000000000
 71
     7
 72
     1
  1
{\H0.63x;{3RD ANGLE}}
 11
1.000000000000000
 21
0.0000000000000000
 31
0.0000000000000000
  7
STANDARD
  0
MTEXT
  5
51E
100
AcDbEntity
  8
WAKU0
  6
CONTINUOUS
 62
3
100
AcDbMText
 10
487.2149997949600
 20
45.95000004768372
 30
0.0000000000000000
 40
3.099999904632568
 41
0.0000000000000000
 71
     7
 72
     1
  1
{\H0.92x;{SCALE}}
 11
1.000000000000000
 21
0.0000000000000000
 31
0.0000000000000000
  7
STANDARD
  0
MTEXT
  5
51F
100
AcDbEntity
  8
WAKU0
  6
CONTINUOUS
 62
3
100
AcDbMText
 10
577.7000000476837
 20
46.00000000000000
 30
0.0000000000000000
 40
3.000000000000000
 41
0.0000000000000000
 71
     7
 72
     1
  1
{\H0.63x;{kg}}
 11
1.000000000000000
 21
0.0000000000000000
 31
0.0000000000000000
  7
STANDARD
  0
MTEXT
  5
520
100
AcDbEntity
  8
WAKU0
  6
CONTINUOUS
 62
3
100
AcDbMText
 10
547.6000001430512
 20
46.00000000000000
 30
0.0000000000000000
 40
3.000000000000000
 41
0.0000000000000000
 71
     7
 72
     1
  1
{\H0.63x;{WEIGHT}}
 11
1.000000000000000
 21
0.0000000000000000
 31
0.0000000000000000
  7
STANDARD
  0
MTEXT
  5
521
100
AcDbEntity
  8
WAKU0
  6
CONTINUOUS
 62
3
100
AcDbMText
 10
506.0049998760223
 20
18.13333336512248
 30
0.0000000000000000
 40
3.099999904632568
 41
0.0000000000000000
 71
     7
 72
     1
  1
{\H0.90x;{DRW\PNO.}}
 11
1.000000000000000
 21
0.0000000000000000
 31
0.0000000000000000
  7
STANDARD
  0
MTEXT
  5
522
100
AcDbEntity
  8
WAKU0
  6
CONTINUOUS
 62
3
100
AcDbMText
 10
504.6099998354912
 20
31.95000004768372
 30
0.0000000000000000
 40
3.099999904632568
 41
0.0000000000000000
 71
     7
 72
     1
  1
{\H0.91x;{NAME}}
 11
1.000000000000000
 21
0.0000000000000000
 31
0.0000000000000000
  7
STANDARD
  0
MTEXT
  5
523
100
AcDbEntity
  8
WAKU0
  6
CONTINUOUS
 62
3
100
AcDbMText
 10
504.6099998354912
 20
45.95000004768372
 30
0.0000000000000000
 40
3.099999904632568
 41
0.0000000000000000
 71
     7
 72
     1
  1
{\H0.91x;{TYPE}}
 11
1.000000000000000
 21
0.0000000000000000
 31
0.0000000000000000
  7
STANDARD
  0
LINE
  5
524
100
AcDbEntity
  8
WAKU0
  6
HIDDEN
 62
3
100
AcDbLine
 10
579.1599564743885
 20
13.84999990463257
 30
0.0000000000000000
 11
568.9400436209789
 21
13.84999990463257
 31
0.0000000000000000
  0
LINE
  5
525
100
AcDbEntity
  8
WAKU0
  6
HIDDEN
 62
3
100
AcDbLine
 10
579.1599564743885
 20
13.84999990463250
 30
0.0000000000000000
 11
574.0500000476851
 21
22.70070406014901
 31
0.0000000000000000
  0
LINE
  5
526
100
AcDbEntity
  8
WAKU0
  6
HIDDEN
 62
3
100
AcDbLine
 10
574.0500000476851
 20
22.70070406014902
 30
0.0000000000000000
 11
568.9400436209789
 21
13.84999990463248
 31
0.0000000000000000
  0
LINE
  5
527
100
AcDbEntity
  8
WAKU0
  6
CONTINUOUS
 62
3
100
AcDbLine
 10
502.4713877753800
 20
15.78041421262812
 30
0.0000000000000000
 11
502.4713877753800
 21
21.78041421262815
 31
0.0000000000000000
  0
LINE
  5
528
100
AcDbEntity
  8
WAKU0
  6
CONTINUOUS
 62
3
100
AcDbLine
 10
495.9336941228225
 20
17.28041421262811
 30
0.0000000000000000
 11
495.9336941228225
 21
20.28041421262824
 31
0.0000000000000000
  0
LINE
  5
529
100
AcDbEntity
  8
WAKU0
  6
CENTER
 62
12
100
AcDbLine
 10
485.4321805514995
 20
18.78041421262813
 30
0.0000000000000000
 11
503.2765788964694
 21
18.78041421262813
 31
0.0000000000000000
  0
LINE
  5
52A
100
AcDbEntity
  8
WAKU0
  6
CENTER
 62
12
100
AcDbLine
 10
489.4474565857986
 20
14.55921662918448
 30
0.0000000000000000
 11
489.4474565857986
 21
22.89865102149943
 31
0.0000000000000000
  0
LINE
  5
52B
100
AcDbEntity
  8
WAKU0
  6
CONTINUOUS
 62
3
100
AcDbLine
 10
495.9336941228225
 20
20.28041421262797
 30
0.0000000000000000
 11
502.4713877753800
 21
21.78041421262795
 31
0.0000000000000000
  0
LINE
  5
52C
100
AcDbEntity
  8
WAKU0
  6
CONTINUOUS
 62
3
100
AcDbLine
 10
495.9336941228225
 20
17.28041421262811
 30
0.0000000000000000
 11
502.4713877753799
 21
15.78041421262812
 31
0.0000000000000000
  0
CIRCLE
  5
52D
100
AcDbEntity
  8
WAKU0
  6
CONTINUOUS
 62
3
100
AcDbCircle
 10
489.4474565857986
 20
18.78041421262813
 30
0.0000000000000000
 40
1.499999999999972
  0
CIRCLE
  5
52E
100
AcDbEntity
  8
WAKU0
  6
CONTINUOUS
 62
3
100
AcDbCircle
 10
489.4474565857986
 20
18.78041421262813
 30
0.0000000000000000
 40
2.999999999999979
  0
ENDSEC
  0
SECTION
  2
OBJECTS
  0
DICTIONARY
  5
57D
100
AcDbDictionary
  3
ACAD_GROUP
350
57E
  3
ACAD_MLINESTYLE
350
57F
  3
DWGPROPS
350
580
  0
DICTIONARY
  5
57E
102
{ACAD_REACTORS
330
57D
102
}
100
AcDbDictionary
  0
DICTIONARY
  5
57F
102
{ACAD_REACTORS
330
57D
102
}
100
AcDbDictionary
  3
STANDARD
350
581
  0
MLINESTYLE
  5
581
102
{ACAD_REACTORS
330
57F
102
}
100
AcDbMlineStyle
  2
STANDARD
 70
     0
  3

 62
   256
 51
90.00
 52
90.00
 71
     2
 49
0.50
 62
   256
  6
BYLAYER
 49
-0.50
 62
   256
  6
BYLAYER
  0
XRECORD
  5
580
102
{ACAD_REACTORS
330
57D
102
}
100
AcDbXrecord
280
     1
  1
DWGPROPS COOKIE
  2
Ｍ１３３０ＲＣ　ガイケイ
  3

  4

  6
回転油圧シリンダ
  7

  8

  9

300
=
301
=
302
=
303
=
304
=
305
=
306
=
307
=
308
=
309
=
 40
0.000000
 41
0.000000
 42
0.000000
  1

 90
        0
  0
ENDSEC
  0
EOF
