  0
SECTION
  2
HEADER
  9
$ACADVER
  1
AC1014
  9
$DWGCODEPAGE
  3
ANSI_932
  9
$LTSCALE
 40
20.0
  9
$FILLMODE
 70
     1
  9
$CLAYER
  8
0
  9
$PDMODE
 70
     0
  9
$SPLFRAME
 70
     0
  9
$SPLINETYPE
 70
     6
  9
$SPLINESEGS
 70
     8
  9
$DIMASZ
 40
2.000000
  9
$DIMEXE
 40
2.000000
  9
$DIMEXO
 40
0.800000
  9
$DIMTAD
 70
     1
  9
$DIMTIH
 70
     0
  9
$DIMTOH
 70
     0
  9
$DIMTVP
 40
0.500000
  9
$DIMTXT
 40
3.100000
  9
$EXTMIN
 10
0.000000
 20
0.000000
 30
0.000000
  9
$EXTMAX
 10
420.000000
 20
594.000000
 30
0.000000
  9
$MEASUREMENT
 70
  1
  9
$LIMMIN
 10
0.000000
 20
0.000000
  9
$LIMMAX
 10
420.000000
 20
594.000000
  9
$HANDLING
 70
     1
  9
$HANDSEED
  5
63A
  9
$DIMBLK
  1
_OPEN
  9
$DIMDEC
 70
     3
  9
$DIMAUNIT
 70
     1
  9
$DIMZIN
 70
     8
  9
$DIMTOFL
 70
     1
  0
ENDSEC
  0
SECTION
  2
CLASSES
  0
ENDSEC
  0
SECTION
  2
TABLES
  0
TABLE
  2
VPORT
  5
5E0
100
AcDbSymbolTable
 70
     1
  0
VPORT
  5
5E1
100
AcDbSymbolTableRecord
100
AcDbViewportTableRecord
  2
*ACTIVE
 70
     0
 12
297.000000
 22
210.000000
 40
420.000000
 41
1.414286
  0
ENDTAB
  0
TABLE
  2
LTYPE
  5
5E2
100
AcDbSymbolTable
 70
     4
  0
LTYPE
  5
5E3
100
AcDbSymbolTableRecord
100
AcDbLinetypeTableRecord
  2
BYBLOCK
 70
     0
  3

 72
    65
 73
     0
 40
0.0
  0
LTYPE
  5
5E4
100
AcDbSymbolTableRecord
100
AcDbLinetypeTableRecord
  2
BYLAYER
 70
     0
  3

 72
    65
 73
     0
 40
0.0
  0
LTYPE
  5
5E5
100
AcDbSymbolTableRecord
100
AcDbLinetypeTableRecord
  2
CONTINUOUS
 70
     0
  3
Solid line (NEC CAE2D for Win R14.2 : 2021.07.14)
 72
    65
 73
     0
 40
0.0
  0
LTYPE
  5
5E6
100
AcDbSymbolTableRecord
100
AcDbLinetypeTableRecord
  2
HIDDEN
 70
     0
  3
__ __ __ __ __ __ __ __ __ __ __ __ __ __
 72
    65
 73
     2
 40
0.375
 49
0.25
 74
     0
 49
-0.125
 74
     0
  0
LTYPE
  5
5E7
100
AcDbSymbolTableRecord
100
AcDbLinetypeTableRecord
  2
CENTER
 70
     0
  3
____ _ ____ _ ____ _ ____ _ ____ _ ____
 72
    65
 73
     4
 40
2.0
 49
1.25
 74
     0
 49
-0.25
 74
     0
 49
0.25
 74
     0
 49
-0.25
 74
     0
  0
LTYPE
  5
5E8
100
AcDbSymbolTableRecord
100
AcDbLinetypeTableRecord
  2
PHANTOM
 70
     0
  3
______  __  __  ______  __  __  ______ 
 72
    65
 73
     6
 40
2.5
 49
1.25
 74
     0
 49
-0.25
 74
     0
 49
0.25
 74
     0
 49
-0.25
 74
     0
 49
0.25
 74
     0
 49
-0.25
 74
     0
  0
ENDTAB
  0
TABLE
  2
LAYER
  5
5E9
100
AcDbSymbolTable
 70
    10
  0
LAYER
  5
5EA
100
AcDbSymbolTableRecord
100
AcDbLayerTableRecord
  2
0
 70
     0
 62
     7
  6
CONTINUOUS
  0
LAYER
  5
5EB
100
AcDbSymbolTableRecord
100
AcDbLayerTableRecord
  2
MAIN0
 70
     0
 62
     7
  6
CONTINUOUS
  0
LAYER
  5
5EC
100
AcDbSymbolTableRecord
100
AcDbLayerTableRecord
  2
MAIN1
 70
     0
 62
     7
  6
CONTINUOUS
  0
LAYER
  5
5ED
100
AcDbSymbolTableRecord
100
AcDbLayerTableRecord
  2
MAIN2
 70
     0
 62
     7
  6
CONTINUOUS
  0
LAYER
  5
5EE
100
AcDbSymbolTableRecord
100
AcDbLayerTableRecord
  2
MAIN4
 70
     0
 62
     7
  6
CONTINUOUS
  0
LAYER
  5
5EF
100
AcDbSymbolTableRecord
100
AcDbLayerTableRecord
  2
MAIN10
 70
     0
 62
     7
  6
CONTINUOUS
  0
LAYER
  5
5F0
100
AcDbSymbolTableRecord
100
AcDbLayerTableRecord
  2
MAIN11
 70
     0
 62
     7
  6
CONTINUOUS
  0
LAYER
  5
5F1
100
AcDbSymbolTableRecord
100
AcDbLayerTableRecord
  2
MAIN1023
 70
     0
 62
    16
  6
CONTINUOUS
  0
LAYER
  5
5F2
100
AcDbSymbolTableRecord
100
AcDbLayerTableRecord
  2
WAKU0
 70
     0
 62
     7
  6
CONTINUOUS
  0
LAYER
  5
5F3
100
AcDbSymbolTableRecord
100
AcDbLayerTableRecord
  2
WAKU1023
 70
     0
 62
    16
  6
CONTINUOUS
  0
ENDTAB
  0
TABLE
  2
STYLE
  5
5F4
100
AcDbSymbolTable
 70
     4
  0
STYLE
  5
5F5
100
AcDbSymbolTableRecord
100
AcDbTextStyleTableRecord
  2
STANDARD
 70
    64
 40
0.0
 41
1.0
 50
0.0
 71
     0
 42
3.140094041824341
  3
TXT
  4

  0
STYLE
  5
5F6
100
AcDbSymbolTableRecord
100
AcDbTextStyleTableRecord
  2
ANKTATE
 70
    68
 40
0.0
 41
1.0
 50
0.0
 71
     0
 42
3.140094041824341
  3
TXT
  4

  0
STYLE
  5
1C2
100
AcDbSymbolTableRecord
100
AcDbTextStyleTableRecord
  2
KNJYOKO
 70
    64
 40
0.0
 41
1.0
 50
0.0
 71
     0
 42
3.140094041824341
  3
TXT
  4
BIGFONT
  0
STYLE
  5
5F7
100
AcDbSymbolTableRecord
100
AcDbTextStyleTableRecord
  2
KNJTATE
 70
    68
 40
0.0
 41
1.0
 50
0.0
 71
     0
 42
3.140094041824341
  3
TXT
  4
BIGFONT
  0
ENDTAB
  0
TABLE
  2
VIEW
  5
5F8
100
AcDbSymbolTable
 70
     0
  0
ENDTAB
  0
TABLE
  2
UCS
  5
5F9
100
AcDbSymbolTable
 70
     0
  0
ENDTAB
  0
TABLE
  2
APPID
  5
5FA
100
AcDbSymbolTable
 70
     1
  0
APPID
  5
5FB
100
AcDbSymbolTableRecord
100
AcDbRegAppTableRecord
  2
ACAD
 70
     0
  0
ENDTAB
  0
TABLE
  2
DIMSTYLE
  5
5FC
100
AcDbSymbolTable
 70
     1
  0
DIMSTYLE
105
5FD
100
AcDbSymbolTableRecord
100
AcDbDimStyleTableRecord
  2
STANDARD
 70
     0
 41
2.000000
 44
2.000000
 42
0.800000
145
0.661290
140
3.100000
144
1.000000
146
0.903226
340
5F5
  0
DIMSTYLE
105
5FE
100
AcDbSymbolTableRecord
100
AcDbDimStyleTableRecord
  2
MAIN001
 70
     0
 41
2.000000
 44
2.000000
 42
0.800000
145
0.661290
140
3.100000
144
1.000000
146
0.903226
 77
     1
 73
     0
 74
     0
271
     3
275
     1
 78
     8
172
     1
340
5F5
  0
DIMSTYLE
105
5FF
100
AcDbSymbolTableRecord
100
AcDbDimStyleTableRecord
  2
WAKU002
 70
     0
 41
2.000000
 44
2.000000
 42
0.800000
145
0.661290
140
3.100000
144
1.000000
146
0.903226
 77
     1
 73
     0
 74
     0
271
     3
275
     1
 78
     8
172
     1
340
5F5
  0
ENDTAB
  0
TABLE
  2
BLOCK_RECORD
  5
600
100
AcDbSymbolTable
 70
    58
  0
BLOCK_RECORD
  5
601
100
AcDbSymbolTableRecord
100
AcDbBlockTableRecord
  2
*MODEL_SPACE
  0
BLOCK_RECORD
  5
602
100
AcDbSymbolTableRecord
100
AcDbBlockTableRecord
  2
*PAPER_SPACE
  0
BLOCK_RECORD
  5
1
100
AcDbSymbolTableRecord
100
AcDbBlockTableRecord
  2
_NONE
  0
BLOCK_RECORD
  5
4
100
AcDbSymbolTableRecord
100
AcDbBlockTableRecord
  2
_CLOSED
  0
BLOCK_RECORD
  5
B
100
AcDbSymbolTableRecord
100
AcDbBlockTableRecord
  2
_DOT
  0
BLOCK_RECORD
  5
13
100
AcDbSymbolTableRecord
100
AcDbBlockTableRecord
  2
_OPEN
  0
BLOCK_RECORD
  5
19
100
AcDbSymbolTableRecord
100
AcDbBlockTableRecord
  2
_ORIGIN
  0
BLOCK_RECORD
  5
1E
100
AcDbSymbolTableRecord
100
AcDbBlockTableRecord
  2
_OPEN30
  0
BLOCK_RECORD
  5
24
100
AcDbSymbolTableRecord
100
AcDbBlockTableRecord
  2
_BOXFILLED
  0
BLOCK_RECORD
  5
29
100
AcDbSymbolTableRecord
100
AcDbBlockTableRecord
  2
_BOXBLANK
  0
BLOCK_RECORD
  5
31
100
AcDbSymbolTableRecord
100
AcDbBlockTableRecord
  2
_OBLIQUE
  0
BLOCK_RECORD
  5
35
100
AcDbSymbolTableRecord
100
AcDbBlockTableRecord
  2
_OPEN90
  0
BLOCK_RECORD
  5
3B
100
AcDbSymbolTableRecord
100
AcDbBlockTableRecord
  2
_CLOSEDBLANK
  0
BLOCK_RECORD
  5
41
100
AcDbSymbolTableRecord
100
AcDbBlockTableRecord
  2
_DOTBLANK
  0
BLOCK_RECORD
  5
603
100
AcDbSymbolTableRecord
100
AcDbBlockTableRecord
  2
D0
  0
BLOCK_RECORD
  5
604
100
AcDbSymbolTableRecord
100
AcDbBlockTableRecord
  2
*D1
  0
BLOCK_RECORD
  5
605
100
AcDbSymbolTableRecord
100
AcDbBlockTableRecord
  2
*D2
  0
BLOCK_RECORD
  5
606
100
AcDbSymbolTableRecord
100
AcDbBlockTableRecord
  2
M0
  0
BLOCK_RECORD
  5
607
100
AcDbSymbolTableRecord
100
AcDbBlockTableRecord
  2
M1
  0
BLOCK_RECORD
  5
608
100
AcDbSymbolTableRecord
100
AcDbBlockTableRecord
  2
*D3
  0
BLOCK_RECORD
  5
609
100
AcDbSymbolTableRecord
100
AcDbBlockTableRecord
  2
*D4
  0
BLOCK_RECORD
  5
60A
100
AcDbSymbolTableRecord
100
AcDbBlockTableRecord
  2
*D5
  0
BLOCK_RECORD
  5
60B
100
AcDbSymbolTableRecord
100
AcDbBlockTableRecord
  2
*D6
  0
BLOCK_RECORD
  5
60C
100
AcDbSymbolTableRecord
100
AcDbBlockTableRecord
  2
*D7
  0
BLOCK_RECORD
  5
60D
100
AcDbSymbolTableRecord
100
AcDbBlockTableRecord
  2
*D8
  0
BLOCK_RECORD
  5
60E
100
AcDbSymbolTableRecord
100
AcDbBlockTableRecord
  2
*D9
  0
BLOCK_RECORD
  5
60F
100
AcDbSymbolTableRecord
100
AcDbBlockTableRecord
  2
*D10
  0
BLOCK_RECORD
  5
610
100
AcDbSymbolTableRecord
100
AcDbBlockTableRecord
  2
D11
  0
BLOCK_RECORD
  5
611
100
AcDbSymbolTableRecord
100
AcDbBlockTableRecord
  2
*D12
  0
BLOCK_RECORD
  5
612
100
AcDbSymbolTableRecord
100
AcDbBlockTableRecord
  2
*D13
  0
BLOCK_RECORD
  5
613
100
AcDbSymbolTableRecord
100
AcDbBlockTableRecord
  2
*D14
  0
BLOCK_RECORD
  5
614
100
AcDbSymbolTableRecord
100
AcDbBlockTableRecord
  2
*D15
  0
BLOCK_RECORD
  5
615
100
AcDbSymbolTableRecord
100
AcDbBlockTableRecord
  2
M2
  0
BLOCK_RECORD
  5
616
100
AcDbSymbolTableRecord
100
AcDbBlockTableRecord
  2
*D16
  0
BLOCK_RECORD
  5
617
100
AcDbSymbolTableRecord
100
AcDbBlockTableRecord
  2
*D17
  0
BLOCK_RECORD
  5
618
100
AcDbSymbolTableRecord
100
AcDbBlockTableRecord
  2
*D18
  0
BLOCK_RECORD
  5
619
100
AcDbSymbolTableRecord
100
AcDbBlockTableRecord
  2
*D19
  0
BLOCK_RECORD
  5
61A
100
AcDbSymbolTableRecord
100
AcDbBlockTableRecord
  2
*D20
  0
BLOCK_RECORD
  5
61B
100
AcDbSymbolTableRecord
100
AcDbBlockTableRecord
  2
*D21
  0
BLOCK_RECORD
  5
61C
100
AcDbSymbolTableRecord
100
AcDbBlockTableRecord
  2
*D22
  0
BLOCK_RECORD
  5
61D
100
AcDbSymbolTableRecord
100
AcDbBlockTableRecord
  2
*D23
  0
BLOCK_RECORD
  5
61E
100
AcDbSymbolTableRecord
100
AcDbBlockTableRecord
  2
*X0
  0
BLOCK_RECORD
  5
61F
100
AcDbSymbolTableRecord
100
AcDbBlockTableRecord
  2
*X1
  0
BLOCK_RECORD
  5
620
100
AcDbSymbolTableRecord
100
AcDbBlockTableRecord
  2
M3
  0
BLOCK_RECORD
  5
621
100
AcDbSymbolTableRecord
100
AcDbBlockTableRecord
  2
*D24
  0
BLOCK_RECORD
  5
622
100
AcDbSymbolTableRecord
100
AcDbBlockTableRecord
  2
*D25
  0
BLOCK_RECORD
  5
623
100
AcDbSymbolTableRecord
100
AcDbBlockTableRecord
  2
*X2
  0
BLOCK_RECORD
  5
624
100
AcDbSymbolTableRecord
100
AcDbBlockTableRecord
  2
*X3
  0
BLOCK_RECORD
  5
625
100
AcDbSymbolTableRecord
100
AcDbBlockTableRecord
  2
*D26
  0
BLOCK_RECORD
  5
626
100
AcDbSymbolTableRecord
100
AcDbBlockTableRecord
  2
*D27
  0
BLOCK_RECORD
  5
627
100
AcDbSymbolTableRecord
100
AcDbBlockTableRecord
  2
*D28
  0
BLOCK_RECORD
  5
628
100
AcDbSymbolTableRecord
100
AcDbBlockTableRecord
  2
*D29
  0
BLOCK_RECORD
  5
629
100
AcDbSymbolTableRecord
100
AcDbBlockTableRecord
  2
*D30
  0
BLOCK_RECORD
  5
62A
100
AcDbSymbolTableRecord
100
AcDbBlockTableRecord
  2
*D31
  0
BLOCK_RECORD
  5
62B
100
AcDbSymbolTableRecord
100
AcDbBlockTableRecord
  2
D32
  0
BLOCK_RECORD
  5
62C
100
AcDbSymbolTableRecord
100
AcDbBlockTableRecord
  2
*D33
  0
BLOCK_RECORD
  5
62D
100
AcDbSymbolTableRecord
100
AcDbBlockTableRecord
  2
M4
  0
BLOCK_RECORD
  5
62E
100
AcDbSymbolTableRecord
100
AcDbBlockTableRecord
  2
*D34
  0
BLOCK_RECORD
  5
62F
100
AcDbSymbolTableRecord
100
AcDbBlockTableRecord
  2
*D35
  0
BLOCK_RECORD
  5
630
100
AcDbSymbolTableRecord
100
AcDbBlockTableRecord
  2
M5
  0
ENDTAB
  0
ENDSEC
  0
SECTION
  2
BLOCKS
  0
BLOCK
  5
631
100
AcDbEntity
  8
0
100
AcDbBlockBegin
  2
*MODEL_SPACE
 70
     0
 10
0.0
 20
0.0
 30
0.0
  3
*MODEL_SPACE
  1

  0
ENDBLK
  5
632
100
AcDbEntity
  8
0
100
AcDbBlockEnd
  0
BLOCK
  5
633
100
AcDbEntity
  8
0
100
AcDbBlockBegin
  2
*PAPER_SPACE
 70
     0
 10
0.0
 20
0.0
 30
0.0
  3
*PAPER_SPACE
  1

  0
ENDBLK
  5
634
100
AcDbEntity
  8
0
100
AcDbBlockEnd
  0
BLOCK
  5
2
100
AcDbEntity
  8
0
100
AcDbBlockBegin
  2
_NONE
 70
     0
 10
0.0
 20
0.0
 30
0.0
  3
_NONE
  1

  0
ENDBLK
  5
3
100
AcDbEntity
  8
0
100
AcDbBlockEnd
  0
BLOCK
  5
5
100
AcDbEntity
  8
0
100
AcDbBlockBegin
  2
_CLOSED
 70
     0
 10
0.0
 20
0.0
 30
0.0
  3
_CLOSED
  1

  0
LINE
  5
6
100
AcDbEntity
  8
0
  6
BYBLOCK
 62
     0
100
AcDbLine
 10
-1.0
 20
0.166667
 30
0.0
 11
0.0
 21
0.0
 31
0.0
  0
LINE
  5
7
100
AcDbEntity
  8
0
  6
BYBLOCK
 62
     0
100
AcDbLine
 10
0.0
 20
0.0
 30
0.0
 11
-1.0
 21
-0.166667
 31
0.0
  0
LINE
  5
8
100
AcDbEntity
  8
0
  6
BYBLOCK
 62
     0
100
AcDbLine
 10
-1.0
 20
0.166667
 30
0.0
 11
-1.0
 21
-0.166667
 31
0.0
  0
LINE
  5
9
100
AcDbEntity
  8
0
  6
BYBLOCK
 62
     0
100
AcDbLine
 10
0.0
 20
0.0
 30
0.0
 11
-1.0
 21
0.0
 31
0.0
  0
ENDBLK
  5
A
100
AcDbEntity
  8
0
100
AcDbBlockEnd
  0
BLOCK
  5
C
100
AcDbEntity
  8
0
100
AcDbBlockBegin
  2
_DOT
 70
     0
 10
0.0
 20
0.0
 30
0.0
  3
_DOT
  1

  0
POLYLINE
  5
D
100
AcDbEntity
  8
0
  6
BYBLOCK
 62
     0
100
AcDb2dPolyline
 66
     1
 10
0.0
 20
0.0
 30
0.0
 70
     1
 40
0.5
 41
0.5
  0
VERTEX
  5
E
100
AcDbEntity
  8
0
  6
BYBLOCK
 62
     0
100
AcDbVertex
100
AcDb2dVertex
 10
-0.25
 20
0.0
 30
0.0
 42
1.0
  0
VERTEX
  5
F
100
AcDbEntity
  8
0
  6
BYBLOCK
 62
     0
100
AcDbVertex
100
AcDb2dVertex
 10
0.25
 20
0.0
 30
0.0
 42
1.0
  0
SEQEND
  5
10
100
AcDbEntity
  8
0
  6
BYBLOCK
 62
     0
  0
LINE
  5
11
100
AcDbEntity
  8
0
  6
BYBLOCK
 62
     0
100
AcDbLine
 10
-0.5
 20
0.0
 30
0.0
 11
-1.0
 21
0.0
 31
0.0
  0
ENDBLK
  5
12
100
AcDbEntity
  8
0
100
AcDbBlockEnd
  0
BLOCK
  5
14
100
AcDbEntity
  8
0
100
AcDbBlockBegin
  2
_OPEN
 70
     0
 10
0.0
 20
0.0
 30
0.0
  3
_OPEN
  1

  0
LINE
  5
15
100
AcDbEntity
  8
0
  6
BYBLOCK
 62
     0
100
AcDbLine
 10
-1.0
 20
0.166667
 30
0.0
 11
0.0
 21
0.0
 31
0.0
  0
LINE
  5
16
100
AcDbEntity
  8
0
  6
BYBLOCK
 62
     0
100
AcDbLine
 10
0.0
 20
0.0
 30
0.0
 11
-1.0
 21
-0.166667
 31
0.0
  0
LINE
  5
17
100
AcDbEntity
  8
0
  6
BYBLOCK
 62
     0
100
AcDbLine
 10
0.0
 20
0.0
 30
0.0
 11
-1.0
 21
0.0
 31
0.0
  0
ENDBLK
  5
18
100
AcDbEntity
  8
0
100
AcDbBlockEnd
  0
BLOCK
  5
1A
100
AcDbEntity
  8
0
100
AcDbBlockBegin
  2
_ORIGIN
 70
     0
 10
0.0
 20
0.0
 30
0.0
  3
_ORIGIN
  1

  0
CIRCLE
  5
1B
100
AcDbEntity
  8
0
  6
BYBLOCK
 62
     0
100
AcDbCircle
 10
0.0
 20
0.0
 30
0.0
 40
0.5
  0
LINE
  5
1C
100
AcDbEntity
  8
0
  6
BYBLOCK
 62
     0
100
AcDbLine
 10
0.0
 20
0.0
 30
0.0
 11
-1.0
 21
0.0
 31
0.0
  0
ENDBLK
  5
1D
100
AcDbEntity
  8
0
100
AcDbBlockEnd
  0
BLOCK
  5
1F
100
AcDbEntity
  8
0
100
AcDbBlockBegin
  2
_OPEN30
 70
     0
 10
0.0
 20
0.0
 30
0.0
  3
_OPEN30
  1

  0
LINE
  5
20
100
AcDbEntity
  8
0
  6
BYBLOCK
 62
     0
100
AcDbLine
 10
-1.0
 20
0.267949
 30
0.0
 11
0.0
 21
0.0
 31
0.0
  0
LINE
  5
21
100
AcDbEntity
  8
0
  6
BYBLOCK
 62
     0
100
AcDbLine
 10
0.0
 20
0.0
 30
0.0
 11
-1.0
 21
-0.267949
 31
0.0
  0
LINE
  5
22
100
AcDbEntity
  8
0
  6
BYBLOCK
 62
     0
100
AcDbLine
 10
0.0
 20
0.0
 30
0.0
 11
-1.0
 21
0.0
 31
0.0
  0
ENDBLK
  5
23
100
AcDbEntity
  8
0
100
AcDbBlockEnd
  0
BLOCK
  5
25
100
AcDbEntity
  8
0
100
AcDbBlockBegin
  2
_BOXFILLED
 70
     0
 10
0.0
 20
0.0
 30
0.0
  3
_BOXFILLED
  1

  0
SOLID
  5
26
100
AcDbEntity
  8
0
  6
BYBLOCK
 62
     0
100
AcDbTrace
 10
-0.5
 20
0.5
 30
0.0
 11
0.5
 21
0.5
 31
0.0
 12
-0.5
 22
-0.5
 32
0.0
 13
0.5
 23
-0.5
 33
0.0
  0
LINE
  5
27
100
AcDbEntity
  8
0
  6
BYBLOCK
 62
     0
100
AcDbLine
 10
-0.5
 20
0.0
 30
0.0
 11
-1.0
 21
0.0
 31
0.0
  0
ENDBLK
  5
28
100
AcDbEntity
  8
0
100
AcDbBlockEnd
  0
BLOCK
  5
2A
100
AcDbEntity
  8
0
100
AcDbBlockBegin
  2
_BOXBLANK
 70
     0
 10
0.0
 20
0.0
 30
0.0
  3
_BOXBLANK
  1

  0
LINE
  5
2B
100
AcDbEntity
  8
0
  6
BYBLOCK
 62
     0
100
AcDbLine
 10
-0.5
 20
-0.5
 30
0.0
 11
0.5
 21
-0.5
 31
0.0
  0
LINE
  5
2C
100
AcDbEntity
  8
0
  6
BYBLOCK
 62
     0
100
AcDbLine
 10
0.5
 20
-0.5
 30
0.0
 11
0.5
 21
0.5
 31
0.0
  0
LINE
  5
2D
100
AcDbEntity
  8
0
  6
BYBLOCK
 62
     0
100
AcDbLine
 10
0.5
 20
0.5
 30
0.0
 11
-0.5
 21
0.5
 31
0.0
  0
LINE
  5
2E
100
AcDbEntity
  8
0
  6
BYBLOCK
 62
     0
100
AcDbLine
 10
-0.5
 20
0.5
 30
0.0
 11
-0.5
 21
-0.5
 31
0.0
  0
LINE
  5
2F
100
AcDbEntity
  8
0
  6
BYBLOCK
 62
     0
100
AcDbLine
 10
-0.5
 20
0.0
 30
0.0
 11
-1.0
 21
0.0
 31
0.0
  0
ENDBLK
  5
30
100
AcDbEntity
  8
0
100
AcDbBlockEnd
  0
BLOCK
  5
32
100
AcDbEntity
  8
0
100
AcDbBlockBegin
  2
_OBLIQUE
 70
     0
 10
0.0
 20
0.0
 30
0.0
  3
_OBLIQUE
  1

  0
LINE
  5
33
100
AcDbEntity
  8
0
  6
BYBLOCK
 62
     0
100
AcDbLine
 10
-0.5
 20
-0.5
 30
0.0
 11
0.5
 21
0.5
 31
0.0
  0
ENDBLK
  5
34
100
AcDbEntity
  8
0
100
AcDbBlockEnd
  0
BLOCK
  5
36
100
AcDbEntity
  8
0
100
AcDbBlockBegin
  2
_OPEN90
 70
     0
 10
0.0
 20
0.0
 30
0.0
  3
_OPEN90
  1

  0
LINE
  5
37
100
AcDbEntity
  8
0
  6
BYBLOCK
 62
     0
100
AcDbLine
 10
-0.5
 20
0.5
 30
0.0
 11
0.0
 21
0.0
 31
0.0
  0
LINE
  5
38
100
AcDbEntity
  8
0
  6
BYBLOCK
 62
     0
100
AcDbLine
 10
0.0
 20
0.0
 30
0.0
 11
-0.5
 21
-0.5
 31
0.0
  0
LINE
  5
39
100
AcDbEntity
  8
0
  6
BYBLOCK
 62
     0
100
AcDbLine
 10
0.0
 20
0.0
 30
0.0
 11
-1.0
 21
0.0
 31
0.0
  0
ENDBLK
  5
3A
100
AcDbEntity
  8
0
100
AcDbBlockEnd
  0
BLOCK
  5
3C
100
AcDbEntity
  8
0
100
AcDbBlockBegin
  2
_CLOSEDBLANK
 70
     0
 10
0.0
 20
0.0
 30
0.0
  3
_CLOSEDBLANK
  1

  0
LINE
  5
3D
100
AcDbEntity
  8
0
  6
BYBLOCK
 62
     0
100
AcDbLine
 10
-1.0
 20
0.1666666666666666
 30
0.0
 11
0.0
 21
0.0
 31
0.0
  0
LINE
  5
3E
100
AcDbEntity
  8
0
  6
BYBLOCK
 62
     0
100
AcDbLine
 10
0.0
 20
0.0
 30
0.0
 11
-1.0
 21
-0.1666666666666666
 31
0.0
  0
LINE
  5
3F
100
AcDbEntity
  8
0
  6
BYBLOCK
 62
     0
100
AcDbLine
 10
-1.0
 20
0.1666666666666666
 30
0.0
 11
-1.0
 21
-0.1666666666666666
 31
0.0
  0
ENDBLK
  5
40
100
AcDbEntity
  8
0
100
AcDbBlockEnd
  0
BLOCK
  5
42
100
AcDbEntity
  8
0
100
AcDbBlockBegin
  2
_DOTBLANK
 70
     0
 10
0.0
 20
0.0
 30
0.0
  3
_DOTBLANK
  1

  0
CIRCLE
  5
43
100
AcDbEntity
  8
0
  6
BYBLOCK
 62
     0
100
AcDbCircle
 10
0.0
 20
0.0
 30
0.0
 40
0.5
  0
LINE
  5
44
100
AcDbEntity
  8
0
  6
BYBLOCK
 62
     0
100
AcDbLine
 10
-0.5
 20
0.0
 30
0.0
 11
-1.0
 21
0.0
 31
0.0
  0
ENDBLK
  5
45
100
AcDbEntity
  8
0
100
AcDbBlockEnd
  0
BLOCK
  5
80
100
AcDbEntity
  8
MAIN0
  6
CONTINUOUS
 62
3
100
AcDbBlockBegin
  2
D0
 70
    64
 10
0.0
 20
0.0
 30
0.0
  0
LINE
  5
81
100
AcDbEntity
  8
MAIN0
  6
BYBLOCK
 62
0
100
AcDbLine
 10
5.047530778386577
 20
-30.45578607191169
 30
0.0000000000000000
 11
5.047530778386577
 21
-79.59999999999985
 31
0.0000000000000000
  0
LINE
  5
82
100
AcDbEntity
  8
MAIN0
  6
BYBLOCK
 62
0
100
AcDbLine
 10
5.647530802228435
 20
-77.59999999999985
 30
0.0000000000000000
 11
5.047530778386577
 21
-79.59999999999985
 31
0.0000000000000000
  0
LINE
  5
83
100
AcDbEntity
  8
MAIN0
  6
BYBLOCK
 62
0
100
AcDbLine
 10
5.047530778386577
 20
-79.59999999999985
 30
0.0000000000000000
 11
4.447530754544719
 21
-77.59999999999985
 31
0.0000000000000000
  0
LINE
  5
84
100
AcDbEntity
  8
MAIN0
  6
BYBLOCK
 62
0
100
AcDbLine
 10
18.25078944363838
 20
-79.59999999999985
 30
0.0000000000000000
 11
3.047530778386577
 21
-79.59999999999985
 31
0.0000000000000000
  0
MTEXT
  5
85
100
AcDbEntity
  8
MAIN0
  6
BYBLOCK
 62
0
100
AcDbMText
 10
2.997530826070292
 20
-38.50578607638204
 30
0.0000000000000000
 40
3.099999904632568
 41
0.0000000000000000
 71
     5
 72
     1
  1
\A1;\U+2205159.2
 11
6.123233995736766e-017
 21
1.000000000000000
 31
0.0000000000000000
  7
STANDARD
  0
ENDBLK
  5
86
100
AcDbEntity
  8
MAIN0
  6
CONTINUOUS
 62
3
100
AcDbBlockEnd
  0
BLOCK
  5
8A
100
AcDbEntity
  8
MAIN0
  6
CONTINUOUS
 62
3
100
AcDbBlockBegin
  2
*D1
 70
    65
 10
0.0
 20
0.0
 30
0.0
  0
LINE
  5
8B
100
AcDbEntity
  8
MAIN0
  6
BYBLOCK
 62
0
100
AcDbLine
 10
450.4078363952615
 20
323.1050637729181
 30
0.0000000000000000
 11
450.4078363952615
 21
375.3450408338691
 31
0.0000000000000000
  0
LINE
  5
8C
100
AcDbEntity
  8
MAIN0
  6
BYBLOCK
 62
0
100
AcDbLine
 10
448.4078363952615
 20
373.3450408338691
 30
0.0000000000000000
 11
400.4078363952621
 21
373.3450408338691
 31
0.0000000000000000
  0
INSERT
  5
8D
100
AcDbEntity
  8
MAIN0
  6
BYBLOCK
 62
0
100
AcDbBlockReference
  2
_OPEN
 10
450.4078363952615
 20
373.3450408338691
 30
0.0000000000000000
 41
2.000000000000000
 42
2.000000000000000
 43
2.000000000000000
 50
360.0000000000000
  0
INSERT
  5
8E
100
AcDbEntity
  8
MAIN0
  6
BYBLOCK
 62
0
100
AcDbBlockReference
  2
_OPEN
 10
398.4078363952621
 20
373.3450408338691
 30
0.0000000000000000
 41
2.000000000000000
 42
2.000000000000000
 43
2.000000000000000
 50
180.0000000000000
  0
LINE
  5
8F
100
AcDbEntity
  8
MAIN0
  6
BYBLOCK
 62
0
100
AcDbLine
 10
398.4078363952621
 20
327.1050637729181
 30
0.0000000000000000
 11
398.4078363952621
 21
375.3450408338691
 31
0.0000000000000000
  0
MTEXT
  5
90
100
AcDbEntity
  8
MAIN0
  6
BYBLOCK
 62
0
100
AcDbMText
 10
424.4078363952618
 20
375.3950407861854
 30
0.0000000000000000
 40
3.099999904632568
 41
0.0000000000000000
 71
     5
 72
     1
  1
\A1;MIN 52
 11
1.000000000000000
 21
0.0000000000000000
 31
0.0000000000000000
  7
STANDARD
  0
ENDBLK
  5
91
100
AcDbEntity
  8
MAIN0
  6
CONTINUOUS
 62
3
100
AcDbBlockEnd
  0
BLOCK
  5
93
100
AcDbEntity
  8
MAIN0
  6
CONTINUOUS
 62
3
100
AcDbBlockBegin
  2
*D2
 70
    65
 10
0.0
 20
0.0
 30
0.0
  0
LINE
  5
94
100
AcDbEntity
  8
MAIN0
  6
BYBLOCK
 62
0
100
AcDbLine
 10
398.4078363952621
 20
327.1050637729181
 30
0.0000000000000000
 11
398.4078363952621
 21
375.3450408338691
 31
0.0000000000000000
  0
LINE
  5
95
100
AcDbEntity
  8
MAIN0
  6
BYBLOCK
 62
0
100
AcDbLine
 10
396.4078363952621
 20
373.3450408338691
 30
0.0000000000000000
 11
374.4078363952621
 21
373.3450408338691
 31
0.0000000000000000
  0
INSERT
  5
96
100
AcDbEntity
  8
MAIN0
  6
BYBLOCK
 62
0
100
AcDbBlockReference
  2
_OPEN
 10
398.4078363952621
 20
373.3450408338691
 30
0.0000000000000000
 41
2.000000000000000
 42
2.000000000000000
 43
2.000000000000000
 50
360.0000000000000
  0
INSERT
  5
97
100
AcDbEntity
  8
MAIN0
  6
BYBLOCK
 62
0
100
AcDbBlockReference
  2
_OPEN
 10
372.4078363952621
 20
373.3450408338691
 30
0.0000000000000000
 41
2.000000000000000
 42
2.000000000000000
 43
2.000000000000000
 50
180.0000000000000
  0
LINE
  5
98
100
AcDbEntity
  8
MAIN0
  6
BYBLOCK
 62
0
100
AcDbLine
 10
372.4078363952621
 20
327.1050637729181
 30
0.0000000000000000
 11
372.4078363952621
 21
375.3450408338691
 31
0.0000000000000000
  0
MTEXT
  5
99
100
AcDbEntity
  8
MAIN0
  6
BYBLOCK
 62
0
100
AcDbMText
 10
385.4078363952621
 20
375.3950407861854
 30
0.0000000000000000
 40
3.099999904632568
 41
0.0000000000000000
 71
     5
 72
     1
  1
\A1;26
 11
1.000000000000000
 21
0.0000000000000000
 31
0.0000000000000000
  7
STANDARD
  0
ENDBLK
  5
9A
100
AcDbEntity
  8
MAIN0
  6
CONTINUOUS
 62
3
100
AcDbBlockEnd
  0
BLOCK
  5
A6
100
AcDbEntity
  8
MAIN0
  6
BYBLOCK
 62
2
100
AcDbBlockBegin
  2
M0
 70
    64
 10
0.0
 20
0.0
 30
0.0
  0
LINE
  5
A7
100
AcDbEntity
  8
MAIN0
  6
BYBLOCK
 62
0
100
AcDbLine
 10
496.6359964864693
 20
285.1705404989630
 30
0.0000000000000000
 11
496.6359964864693
 21
279.1705404989630
 31
0.0000000000000000
  0
LINE
  5
A8
100
AcDbEntity
  8
MAIN0
  6
BYBLOCK
 62
0
100
AcDbLine
 10
496.6359964864693
 20
282.1705404989630
 30
0.0000000000000000
 11
508.6359964864692
 21
282.1705404989630
 31
0.0000000000000000
  0
LINE
  5
A9
100
AcDbEntity
  8
MAIN0
  6
BYBLOCK
 62
0
100
AcDbLine
 10
496.6359964864693
 20
282.1705404989630
 30
0.0000000000000000
 11
501.4656256179146
 21
283.4646357244756
 31
0.0000000000000000
  0
LINE
  5
AA
100
AcDbEntity
  8
MAIN0
  6
BYBLOCK
 62
0
100
AcDbLine
 10
496.6359964864693
 20
282.1705404989629
 30
0.0000000000000000
 11
501.4656256179146
 21
280.8764452734503
 31
0.0000000000000000
  0
ENDBLK
  5
AB
100
AcDbEntity
  8
MAIN0
  6
BYBLOCK
 62
2
100
AcDbBlockEnd
  0
BLOCK
  5
AD
100
AcDbEntity
  8
MAIN0
  6
BYBLOCK
 62
2
100
AcDbBlockBegin
  2
M1
 70
    64
 10
0.0
 20
0.0
 30
0.0
  0
LINE
  5
AE
100
AcDbEntity
  8
MAIN0
  6
BYBLOCK
 62
0
100
AcDbLine
 10
496.6359964864693
 20
191.4395870230313
 30
0.0000000000000000
 11
496.6359964864693
 21
197.4395870230313
 31
0.0000000000000000
  0
LINE
  5
AF
100
AcDbEntity
  8
MAIN0
  6
BYBLOCK
 62
0
100
AcDbLine
 10
496.6359964864693
 20
194.4395870230313
 30
0.0000000000000000
 11
508.6359964864692
 21
194.4395870230313
 31
0.0000000000000000
  0
LINE
  5
B0
100
AcDbEntity
  8
MAIN0
  6
BYBLOCK
 62
0
100
AcDbLine
 10
496.6359964864693
 20
194.4395870230312
 30
0.0000000000000000
 11
501.4656256179146
 21
193.1454917975187
 31
0.0000000000000000
  0
LINE
  5
B1
100
AcDbEntity
  8
MAIN0
  6
BYBLOCK
 62
0
100
AcDbLine
 10
496.6359964864693
 20
194.4395870230314
 30
0.0000000000000000
 11
501.4656256179146
 21
195.7336822485440
 31
0.0000000000000000
  0
ENDBLK
  5
B2
100
AcDbEntity
  8
MAIN0
  6
BYBLOCK
 62
2
100
AcDbBlockEnd
  0
BLOCK
  5
B8
100
AcDbEntity
  8
MAIN0
  6
CONTINUOUS
 62
3
100
AcDbBlockBegin
  2
*D3
 70
    65
 10
0.0
 20
0.0
 30
0.0
  0
LINE
  5
B9
100
AcDbEntity
  8
MAIN0
  6
BYBLOCK
 62
0
100
AcDbLine
 10
107.6653665706905
 20
193.0625939364205
 30
0.0000000000000000
 11
97.75794078160652
 21
183.1551681473357
 31
0.0000000000000000
  0
ARC
  5
BA
100
AcDbEntity
  8
MAIN0
  6
BYBLOCK
 62
0
100
AcDbCircle
 10
165.4078363952623
 20
250.8050637609972
 30
0.0000000000000000
 40
93.67139986996024
100
AcDbArc
 50
226.2233356092198
 51
268.7766643907851
  0
INSERT
  5
BB
100
AcDbEntity
  8
MAIN0
  6
BYBLOCK
 62
0
100
AcDbBlockReference
  2
_OPEN
 10
99.17215434397953
 20
184.5693817097089
 30
0.0000000000000000
 41
2.000000000000000
 42
2.000000000000000
 43
2.000000000000000
 50
135.0000000000024
  0
INSERT
  5
BC
100
AcDbEntity
  8
MAIN0
  6
BYBLOCK
 62
0
100
AcDbBlockReference
  2
_OPEN
 10
165.4078363952663
 20
157.1336638910370
 30
0.0000000000000000
 41
2.000000000000000
 42
2.000000000000000
 43
2.000000000000000
 50
2.501110429875553e-012
  0
MTEXT
  5
BD
100
AcDbEntity
  8
MAIN0
  6
BYBLOCK
 62
0
100
AcDbMText
 10
130.3458445966873
 20
166.1579276370532
 30
0.0000000000000000
 40
3.099999904632568
 41
0.0000000000000000
 71
     5
 72
     1
  1
\A1;45\U+00B0
 11
0.9238795325113028
 21
-0.3826834323650510
 31
0.0000000000000000
  7
STANDARD
  0
ENDBLK
  5
BE
100
AcDbEntity
  8
MAIN0
  6
CONTINUOUS
 62
3
100
AcDbBlockEnd
  0
BLOCK
  5
C0
100
AcDbEntity
  8
MAIN0
  6
CONTINUOUS
 62
3
100
AcDbBlockBegin
  2
*D4
 70
    65
 10
0.0
 20
0.0
 30
0.0
  0
LINE
  5
C1
100
AcDbEntity
  8
MAIN0
  6
BYBLOCK
 62
0
100
AcDbLine
 10
243.0830012866662
 20
222.5336157988107
 30
0.0000000000000000
 11
255.3095448733232
 21
218.0835178653097
 31
0.0000000000000000
  0
ARC
  5
C2
100
AcDbEntity
  8
MAIN0
  6
BYBLOCK
 62
0
100
AcDbCircle
 10
165.4078363952623
 20
250.8050637609972
 30
0.0000000000000000
 40
93.67139986996024
100
AcDbArc
 50
271.2233356092198
 51
338.7766643907850
  0
INSERT
  5
C3
100
AcDbEntity
  8
MAIN0
  6
BYBLOCK
 62
0
100
AcDbBlockReference
  2
_OPEN
 10
165.4078363952663
 20
157.1336638910370
 30
0.0000000000000000
 41
2.000000000000000
 42
2.000000000000000
 43
2.000000000000000
 50
180.0000000000025
  0
INSERT
  5
C4
100
AcDbEntity
  8
MAIN0
  6
BYBLOCK
 62
0
100
AcDbBlockReference
  2
_OPEN
 10
253.4301596317513
 20
218.7675581519610
 30
0.0000000000000000
 41
2.000000000000000
 42
2.000000000000000
 43
2.000000000000000
 50
70.00000000000239
  0
MTEXT
  5
C5
100
AcDbEntity
  8
MAIN0
  6
BYBLOCK
 62
0
100
AcDbMText
 10
217.9597124535217
 20
175.7532067178421
 30
0.0000000000000000
 40
3.099999904632568
 41
0.0000000000000000
 71
     5
 72
     1
  1
\A1;70\U+00B0
 11
0.8191520442889677
 21
0.5735764363510805
 31
0.0000000000000000
  7
STANDARD
  0
ENDBLK
  5
C6
100
AcDbEntity
  8
MAIN0
  6
CONTINUOUS
 62
3
100
AcDbBlockEnd
  0
BLOCK
  5
C8
100
AcDbEntity
  8
MAIN0
  6
CONTINUOUS
 62
3
100
AcDbBlockBegin
  2
*D5
 70
    65
 10
0.0
 20
0.0
 30
0.0
  0
LINE
  5
C9
100
AcDbEntity
  8
MAIN0
  6
BYBLOCK
 62
0
100
AcDbLine
 10
193.3372642141296
 20
174.0695914903816
 30
0.0000000000000000
 11
201.5495837242143
 21
151.5064290750801
 31
0.0000000000000000
  0
ARC
  5
CA
100
AcDbEntity
  8
MAIN0
  6
BYBLOCK
 62
0
100
AcDbCircle
 10
165.4078363952623
 20
250.8050637609971
 30
0.0000000000000000
 40
103.6713998699601
100
AcDbArc
 50
271.1053343465040
 51
288.8946656535009
  0
INSERT
  5
CB
100
AcDbEntity
  8
MAIN0
  6
BYBLOCK
 62
0
100
AcDbBlockReference
  2
_OPEN
 10
165.4078363952667
 20
147.1336638910370
 30
0.0000000000000000
 41
2.000000000000000
 42
2.000000000000000
 43
2.000000000000000
 50
180.0000000000025
  0
INSERT
  5
CC
100
AcDbEntity
  8
MAIN0
  6
BYBLOCK
 62
0
100
AcDbBlockReference
  2
_OPEN
 10
200.8655434375628
 20
153.3858143166519
 30
0.0000000000000000
 41
2.000000000000000
 42
2.000000000000000
 43
2.000000000000000
 50
20.00000000000239
  0
MTEXT
  5
CD
100
AcDbEntity
  8
MAIN0
  6
BYBLOCK
 62
0
100
AcDbMText
 10
183.0542073029277
 20
150.7275212501481
 30
0.0000000000000000
 40
3.099999904632568
 41
0.0000000000000000
 71
     5
 72
     1
  1
\A1;20\U+00B0
 11
0.9848077530122007
 21
0.1736481776669721
 31
0.0000000000000000
  7
STANDARD
  0
ENDBLK
  5
CE
100
AcDbEntity
  8
MAIN0
  6
CONTINUOUS
 62
3
100
AcDbBlockEnd
  0
BLOCK
  5
D0
100
AcDbEntity
  8
MAIN0
  6
CONTINUOUS
 62
3
100
AcDbBlockBegin
  2
*D6
 70
    65
 10
0.0
 20
0.0
 30
0.0
  0
LINE
  5
D1
100
AcDbEntity
  8
MAIN0
  6
BYBLOCK
 62
0
100
AcDbLine
 10
193.3372642141296
 20
174.0695914903816
 30
0.0000000000000000
 11
201.5495837242143
 21
151.5064290750801
 31
0.0000000000000000
  0
LINE
  5
D2
100
AcDbEntity
  8
MAIN0
  6
BYBLOCK
 62
0
100
AcDbLine
 10
231.1847640204997
 20
185.0281361357710
 30
0.0000000000000000
 11
240.1287998207928
 21
176.0841003354796
 31
0.0000000000000000
  0
ARC
  5
D3
100
AcDbEntity
  8
MAIN0
  6
BYBLOCK
 62
0
100
AcDbCircle
 10
165.4078363952623
 20
250.8050637609971
 30
0.0000000000000000
 40
103.6713998699601
100
AcDbArc
 50
291.1053343465040
 51
313.8946656535035
  0
INSERT
  5
D4
100
AcDbEntity
  8
MAIN0
  6
BYBLOCK
 62
0
100
AcDbBlockReference
  2
_OPEN
 10
200.8655434375629
 20
153.3858143166519
 30
0.0000000000000000
 41
2.000000000000000
 42
2.000000000000000
 43
2.000000000000000
 50
200.0000000000024
  0
INSERT
  5
D5
100
AcDbEntity
  8
MAIN0
  6
BYBLOCK
 62
0
100
AcDbBlockReference
  2
_OPEN
 10
238.7145862584196
 20
177.4983138978525
 30
0.0000000000000000
 41
2.000000000000000
 42
2.000000000000000
 43
2.000000000000000
 50
45.00000000000495
  0
MTEXT
  5
D6
100
AcDbEntity
  8
MAIN0
  6
BYBLOCK
 62
0
100
AcDbMText
 10
220.0089747706738
 20
165.0984443589295
 30
0.0000000000000000
 40
3.099999904632568
 41
0.0000000000000000
 71
     5
 72
     1
  1
\A1;25\U+00B0
 11
0.8433914458128512
 21
0.5372996083468780
 31
0.0000000000000000
  7
STANDARD
  0
ENDBLK
  5
D7
100
AcDbEntity
  8
MAIN0
  6
CONTINUOUS
 62
3
100
AcDbBlockEnd
  0
BLOCK
  5
D9
100
AcDbEntity
  8
MAIN0
  6
CONTINUOUS
 62
3
100
AcDbBlockBegin
  2
*D7
 70
    65
 10
0.0
 20
0.0
 30
0.0
  0
LINE
  5
DA
100
AcDbEntity
  8
MAIN0
  6
BYBLOCK
 62
0
100
AcDbLine
 10
231.1847640204997
 20
185.0281361357710
 30
0.0000000000000000
 11
240.1287998207928
 21
176.0841003354796
 31
0.0000000000000000
  0
LINE
  5
DB
100
AcDbEntity
  8
MAIN0
  6
BYBLOCK
 62
0
100
AcDbLine
 10
261.4230646096748
 20
250.8050637609971
 30
0.0000000000000000
 11
271.0792362652223
 21
250.8050637609971
 31
0.0000000000000000
  0
ARC
  5
DC
100
AcDbEntity
  8
MAIN0
  6
BYBLOCK
 62
0
100
AcDbCircle
 10
165.4078363952623
 20
250.8050637609971
 30
0.0000000000000000
 40
103.6713998699601
100
AcDbArc
 50
316.1053343465065
 51
358.8946656534985
  0
INSERT
  5
DD
100
AcDbEntity
  8
MAIN0
  6
BYBLOCK
 62
0
100
AcDbBlockReference
  2
_OPEN
 10
238.7145862584196
 20
177.4983138978525
 30
0.0000000000000000
 41
2.000000000000000
 42
2.000000000000000
 43
2.000000000000000
 50
225.0000000000050
  0
INSERT
  5
DE
100
AcDbEntity
  8
MAIN0
  6
BYBLOCK
 62
0
100
AcDbBlockReference
  2
_OPEN
 10
269.0792362652223
 20
250.8050637609971
 30
0.0000000000000000
 41
2.000000000000000
 42
2.000000000000000
 43
2.000000000000000
 50
90.00000000000000
  0
MTEXT
  5
DF
100
AcDbEntity
  8
MAIN0
  6
BYBLOCK
 62
0
100
AcDbMText
 10
259.2937678443192
 20
211.9162376387718
 30
0.0000000000000000
 40
3.099999904632568
 41
0.0000000000000000
 71
     5
 72
     1
  1
\A1;45\U+00B0
 11
0.3826834323650492
 21
0.9238795325113036
 31
0.0000000000000000
  7
STANDARD
  0
ENDBLK
  5
E0
100
AcDbEntity
  8
MAIN0
  6
CONTINUOUS
 62
3
100
AcDbBlockEnd
  0
BLOCK
  5
E2
100
AcDbEntity
  8
MAIN0
  6
CONTINUOUS
 62
3
100
AcDbBlockBegin
  2
*D8
 70
    65
 10
0.0
 20
0.0
 30
0.0
  0
LINE
  5
E3
100
AcDbEntity
  8
MAIN0
  6
BYBLOCK
 62
0
100
AcDbLine
 10
261.4230646096748
 20
250.8050637609971
 30
0.0000000000000000
 11
271.0792362652223
 21
250.8050637609971
 31
0.0000000000000000
  0
ARC
  5
E4
100
AcDbEntity
  8
MAIN0
  6
BYBLOCK
 62
0
100
AcDbCircle
 10
167.7393858801843
 20
250.8050637609971
 30
0.0000000000000000
 40
101.3398503850381
100
AcDbArc
 50
1.130765030644678
 51
63.86923496925806
  0
INSERT
  5
E5
100
AcDbEntity
  8
MAIN0
  6
BYBLOCK
 62
0
100
AcDbBlockReference
  2
_OPEN
 10
269.0792362652223
 20
250.8050637609971
 30
0.0000000000000000
 41
2.000000000000000
 42
2.000000000000000
 43
2.000000000000000
 50
270.0000000000000
  0
INSERT
  5
E6
100
AcDbEntity
  8
MAIN0
  6
BYBLOCK
 62
0
100
AcDbBlockReference
  2
_OPEN
 10
210.5674572951276
 20
342.6501593020135
 30
0.0000000000000000
 41
2.000000000000000
 42
2.000000000000000
 43
2.000000000000000
 50
154.9999999999027
  0
MTEXT
  5
E7
100
AcDbEntity
  8
MAIN0
  6
BYBLOCK
 62
0
100
AcDbMText
 10
254.9375012386306
 20
306.3563898542204
 30
0.0000000000000000
 40
3.099999904632568
 41
0.0000000000000000
 71
     5
 72
     1
  1
\A1;65\U+00B0
 11
0.5372996083461078
 21
-0.8433914458133419
 31
0.0000000000000000
  7
STANDARD
  0
ENDBLK
  5
E8
100
AcDbEntity
  8
MAIN0
  6
CONTINUOUS
 62
3
100
AcDbBlockEnd
  0
BLOCK
  5
EA
100
AcDbEntity
  8
MAIN0
  6
CONTINUOUS
 62
3
100
AcDbBlockBegin
  2
*D9
 70
    65
 10
0.0
 20
0.0
 30
0.0
  0
ARC
  5
EB
100
AcDbEntity
  8
MAIN0
  6
BYBLOCK
 62
0
100
AcDbCircle
 10
165.4078363952626
 20
245.8050397550942
 30
0.0000000000000000
 40
106.8567664674381
100
AcDbArc
 50
66.07238467720892
 51
88.92761532269633
  0
INSERT
  5
EC
100
AcDbEntity
  8
MAIN0
  6
BYBLOCK
 62
0
100
AcDbBlockReference
  2
_OPEN
 10
210.5674572951276
 20
342.6501593020135
 30
0.0000000000000000
 41
2.000000000000000
 42
2.000000000000000
 43
2.000000000000000
 50
334.9999999999027
  0
INSERT
  5
ED
100
AcDbEntity
  8
MAIN0
  6
BYBLOCK
 62
0
100
AcDbBlockReference
  2
_OPEN
 10
165.4078363952579
 20
352.6618062225323
 30
0.0000000000000000
 41
2.000000000000000
 42
2.000000000000000
 43
2.000000000000000
 50
180.0000000000025
  0
MTEXT
  5
EE
100
AcDbEntity
  8
MAIN0
  6
BYBLOCK
 62
0
100
AcDbMText
 10
188.9795748744893
 20
352.1302809590242
 30
0.0000000000000000
 40
3.099999904632568
 41
0.0000000000000000
 71
     5
 72
     1
  1
\A1;25\U+00B0
 11
0.9762960071197544
 21
-0.2164396139389102
 31
0.0000000000000000
  7
STANDARD
  0
ENDBLK
  5
EF
100
AcDbEntity
  8
MAIN0
  6
CONTINUOUS
 62
3
100
AcDbBlockEnd
  0
BLOCK
  5
F5
100
AcDbEntity
  8
MAIN0
  6
CONTINUOUS
 62
3
100
AcDbBlockBegin
  2
*D10
 70
    65
 10
0.0
 20
0.0
 30
0.0
  0
LINE
  5
F6
100
AcDbEntity
  8
MAIN0
  6
BYBLOCK
 62
0
100
AcDbLine
 10
325.4078363952652
 20
170.8269943600353
 30
0.0000000000000000
 11
325.4078363952652
 21
152.0683379740970
 31
0.0000000000000000
  0
LINE
  5
F7
100
AcDbEntity
  8
MAIN0
  6
BYBLOCK
 62
0
100
AcDbLine
 10
327.4078363952652
 20
154.0683379740970
 30
0.0000000000000000
 11
448.4078363952615
 21
154.0683379740970
 31
0.0000000000000000
  0
INSERT
  5
F8
100
AcDbEntity
  8
MAIN0
  6
BYBLOCK
 62
0
100
AcDbBlockReference
  2
_OPEN
 10
325.4078363952652
 20
154.0683379740970
 30
0.0000000000000000
 41
2.000000000000000
 42
2.000000000000000
 43
2.000000000000000
 50
180.0000000000000
  0
INSERT
  5
F9
100
AcDbEntity
  8
MAIN0
  6
BYBLOCK
 62
0
100
AcDbBlockReference
  2
_OPEN
 10
450.4078363952615
 20
154.0683379740970
 30
0.0000000000000000
 41
2.000000000000000
 42
2.000000000000000
 43
2.000000000000000
 50
0.0000000000000000
  0
LINE
  5
FA
100
AcDbEntity
  8
MAIN0
  6
BYBLOCK
 62
0
100
AcDbLine
 10
450.4078363952615
 20
178.5050637490762
 30
0.0000000000000000
 11
450.4078363952615
 21
152.0683379740970
 31
0.0000000000000000
  0
MTEXT
  5
FB
100
AcDbEntity
  8
MAIN0
  6
BYBLOCK
 62
0
100
AcDbMText
 10
387.9078363952634
 20
156.1183379264133
 30
0.0000000000000000
 40
3.099999904632568
 41
0.0000000000000000
 71
     5
 72
     1
  1
\A1;125
 11
1.000000000000000
 21
0.0000000000000000
 31
0.0000000000000000
  7
STANDARD
  0
ENDBLK
  5
FC
100
AcDbEntity
  8
MAIN0
  6
CONTINUOUS
 62
3
100
AcDbBlockEnd
  0
BLOCK
  5
100
100
AcDbEntity
  8
MAIN0
  6
CONTINUOUS
 62
3
100
AcDbBlockBegin
  2
D11
 70
    64
 10
0.0
 20
0.0
 30
0.0
  0
LINE
  5
101
100
AcDbEntity
  8
MAIN0
  6
BYBLOCK
 62
0
100
AcDbLine
 10
16.80200232327709
 20
-32.03172343813412
 30
0.0000000000000000
 11
16.80200232327709
 21
-47.50000000000000
 31
0.0000000000000000
  0
LINE
  5
102
100
AcDbEntity
  8
MAIN0
  6
BYBLOCK
 62
0
100
AcDbLine
 10
17.40200234711895
 20
-45.50000000000000
 30
0.0000000000000000
 11
16.80200232327709
 21
-47.50000000000000
 31
0.0000000000000000
  0
LINE
  5
103
100
AcDbEntity
  8
MAIN0
  6
BYBLOCK
 62
0
100
AcDbLine
 10
16.80200232327709
 20
-47.50000000000000
 30
0.0000000000000000
 11
16.20200229943524
 21
-45.50000000000000
 31
0.0000000000000000
  0
LINE
  5
104
100
AcDbEntity
  8
MAIN0
  6
BYBLOCK
 62
0
100
AcDbLine
 10
-4.367468857907767
 20
-47.50000000000000
 30
0.0000000000000000
 11
18.80200232327709
 21
-47.50000000000000
 31
0.0000000000000000
  0
MTEXT
  5
105
100
AcDbEntity
  8
MAIN0
  6
BYBLOCK
 62
0
100
AcDbMText
 10
14.75200237096081
 20
-37.43172344036930
 30
0.0000000000000000
 40
3.099999904632568
 41
0.0000000000000000
 71
     5
 72
     1
  1
\A1;\U+220595
 11
6.123233995736766e-017
 21
1.000000000000000
 31
0.0000000000000000
  7
STANDARD
  0
ENDBLK
  5
106
100
AcDbEntity
  8
MAIN0
  6
CONTINUOUS
 62
3
100
AcDbBlockEnd
  0
BLOCK
  5
112
100
AcDbEntity
  8
MAIN0
  6
CONTINUOUS
 62
3
100
AcDbBlockBegin
  2
*D12
 70
    65
 10
0.0
 20
0.0
 30
0.0
  0
LINE
  5
113
100
AcDbEntity
  8
MAIN0
  6
BYBLOCK
 62
0
100
AcDbLine
 10
510.4078363952615
 20
236.5050637490762
 30
0.0000000000000000
 11
510.4078363952615
 21
142.0683379740970
 31
0.0000000000000000
  0
LINE
  5
114
100
AcDbEntity
  8
MAIN0
  6
BYBLOCK
 62
0
100
AcDbLine
 10
508.4078363952615
 20
144.0683379740970
 30
0.0000000000000000
 11
452.4078363952615
 21
144.0683379740970
 31
0.0000000000000000
  0
INSERT
  5
115
100
AcDbEntity
  8
MAIN0
  6
BYBLOCK
 62
0
100
AcDbBlockReference
  2
_OPEN
 10
510.4078363952615
 20
144.0683379740970
 30
0.0000000000000000
 41
2.000000000000000
 42
2.000000000000000
 43
2.000000000000000
 50
360.0000000000000
  0
INSERT
  5
116
100
AcDbEntity
  8
MAIN0
  6
BYBLOCK
 62
0
100
AcDbBlockReference
  2
_OPEN
 10
450.4078363952615
 20
144.0683379740970
 30
0.0000000000000000
 41
2.000000000000000
 42
2.000000000000000
 43
2.000000000000000
 50
180.0000000000000
  0
LINE
  5
117
100
AcDbEntity
  8
MAIN0
  6
BYBLOCK
 62
0
100
AcDbLine
 10
450.4078363952615
 20
178.5050637490762
 30
0.0000000000000000
 11
450.4078363952615
 21
142.0683379740970
 31
0.0000000000000000
  0
MTEXT
  5
118
100
AcDbEntity
  8
MAIN0
  6
BYBLOCK
 62
0
100
AcDbMText
 10
480.4078363952615
 20
146.1183379264133
 30
0.0000000000000000
 40
3.099999904632568
 41
0.0000000000000000
 71
     5
 72
     1
  1
\A1;MAX 60
 11
1.000000000000000
 21
0.0000000000000000
 31
0.0000000000000000
  7
STANDARD
  0
ENDBLK
  5
119
100
AcDbEntity
  8
MAIN0
  6
CONTINUOUS
 62
3
100
AcDbBlockEnd
  0
BLOCK
  5
11B
100
AcDbEntity
  8
MAIN0
  6
CONTINUOUS
 62
3
100
AcDbBlockBegin
  2
*D13
 70
    65
 10
0.0
 20
0.0
 30
0.0
  0
LINE
  5
11C
100
AcDbEntity
  8
MAIN0
  6
BYBLOCK
 62
0
100
AcDbLine
 10
87.05774089027366
 20
263.8050637609937
 30
0.0000000000000000
 11
66.07297436689782
 21
263.8050637609937
 31
0.0000000000000000
  0
LINE
  5
11D
100
AcDbEntity
  8
MAIN0
  6
BYBLOCK
 62
0
100
AcDbLine
 10
68.07297436689782
 20
261.8050637609937
 30
0.0000000000000000
 11
68.07297436689782
 21
239.8050637609937
 31
0.0000000000000000
  0
INSERT
  5
11E
100
AcDbEntity
  8
MAIN0
  6
BYBLOCK
 62
0
100
AcDbBlockReference
  2
_OPEN
 10
68.07297436689782
 20
263.8050637609937
 30
0.0000000000000000
 41
2.000000000000000
 42
2.000000000000000
 43
2.000000000000000
 50
90.00000000000000
  0
INSERT
  5
11F
100
AcDbEntity
  8
MAIN0
  6
BYBLOCK
 62
0
100
AcDbBlockReference
  2
_OPEN
 10
68.07297436689782
 20
237.8050637609937
 30
0.0000000000000000
 41
2.000000000000000
 42
2.000000000000000
 43
2.000000000000000
 50
270.0000000000000
  0
LINE
  5
120
100
AcDbEntity
  8
MAIN0
  6
BYBLOCK
 62
0
100
AcDbLine
 10
86.88085943281314
 20
237.8050637609937
 30
0.0000000000000000
 11
66.07297436689782
 21
237.8050637609937
 31
0.0000000000000000
  0
MTEXT
  5
121
100
AcDbEntity
  8
MAIN0
  6
BYBLOCK
 62
0
100
AcDbMText
 10
66.02297441458154
 20
250.8050637423672
 30
0.0000000000000000
 40
3.099999904632568
 41
0.0000000000000000
 71
     5
 72
     1
  1
\A1;26\H0.903226x;\U+00B10.2
 11
6.123233995736766e-017
 21
1.000000000000000
 31
0.0000000000000000
  7
STANDARD
  0
ENDBLK
  5
122
100
AcDbEntity
  8
MAIN0
  6
CONTINUOUS
 62
3
100
AcDbBlockEnd
  0
BLOCK
  5
124
100
AcDbEntity
  8
MAIN0
  6
CONTINUOUS
 62
3
100
AcDbBlockBegin
  2
*D14
 70
    65
 10
0.0
 20
0.0
 30
0.0
  0
LINE
  5
125
100
AcDbEntity
  8
MAIN0
  6
BYBLOCK
 62
0
100
AcDbLine
 10
94.40783639526234
 20
230.2783969640891
 30
0.0000000000000000
 11
94.40783639526234
 21
223.6467676323897
 31
0.0000000000000000
  0
LINE
  5
126
100
AcDbEntity
  8
MAIN0
  6
BYBLOCK
 62
0
100
AcDbLine
 10
96.40783639526234
 20
225.6467676323897
 30
0.0000000000000000
 11
163.4078363952570
 21
225.6467676323897
 31
0.0000000000000000
  0
INSERT
  5
127
100
AcDbEntity
  8
MAIN0
  6
BYBLOCK
 62
0
100
AcDbBlockReference
  2
_OPEN
 10
94.40783639526234
 20
225.6467676323897
 30
0.0000000000000000
 41
2.000000000000000
 42
2.000000000000000
 43
2.000000000000000
 50
180.0000000000000
  0
INSERT
  5
128
100
AcDbEntity
  8
MAIN0
  6
BYBLOCK
 62
0
100
AcDbBlockReference
  2
_OPEN
 10
165.4078363952570
 20
225.6467676323897
 30
0.0000000000000000
 41
2.000000000000000
 42
2.000000000000000
 43
2.000000000000000
 50
0.0000000000000000
  0
MTEXT
  5
129
100
AcDbEntity
  8
MAIN0
  6
BYBLOCK
 62
0
100
AcDbMText
 10
129.9078363766332
 20
227.6967675847060
 30
0.0000000000000000
 40
3.099999904632568
 41
0.0000000000000000
 71
     5
 72
     1
  1
\A1;71\H0.903226x;\U+00B10.1
 11
1.000000000000000
 21
0.0000000000000000
 31
0.0000000000000000
  7
STANDARD
  0
ENDBLK
  5
12A
100
AcDbEntity
  8
MAIN0
  6
CONTINUOUS
 62
3
100
AcDbBlockEnd
  0
BLOCK
  5
1B9
100
AcDbEntity
  8
MAIN0
  6
CONTINUOUS
 62
3
100
AcDbBlockBegin
  2
*D15
 70
    65
 10
0.0
 20
0.0
 30
0.0
  0
LINE
  5
1BA
100
AcDbEntity
  8
MAIN0
  6
BYBLOCK
 62
0
100
AcDbLine
 10
529.9258008332029
 20
140.2109295337588
 30
0.0000000000000000
 11
529.9258008332029
 21
113.6960032676949
 31
0.0000000000000000
  0
LINE
  5
1BB
100
AcDbEntity
  8
MAIN0
  6
BYBLOCK
 62
0
100
AcDbLine
 10
531.9258008332029
 20
115.6960032676949
 30
0.0000000000000000
 11
554.9258008332027
 21
115.6960032676949
 31
0.0000000000000000
  0
INSERT
  5
1BC
100
AcDbEntity
  8
MAIN0
  6
BYBLOCK
 62
0
100
AcDbBlockReference
  2
_OPEN
 10
529.9258008332029
 20
115.6960032676949
 30
0.0000000000000000
 41
2.000000000000000
 42
2.000000000000000
 43
2.000000000000000
 50
180.0000000000000
  0
INSERT
  5
1BD
100
AcDbEntity
  8
MAIN0
  6
BYBLOCK
 62
0
100
AcDbBlockReference
  2
_OPEN
 10
556.9258008332027
 20
115.6960032676949
 30
0.0000000000000000
 41
2.000000000000000
 42
2.000000000000000
 43
2.000000000000000
 50
0.0000000000000000
  0
LINE
  5
1BE
100
AcDbEntity
  8
MAIN0
  6
BYBLOCK
 62
0
100
AcDbLine
 10
556.9258008332027
 20
140.2109295337634
 30
0.0000000000000000
 11
556.9258008332027
 21
113.6960032676949
 31
0.0000000000000000
  0
MTEXT
  5
1BF
100
AcDbEntity
  8
MAIN0
  6
BYBLOCK
 62
0
100
AcDbMText
 10
543.4258008499667
 20
117.7460032200112
 30
0.0000000000000000
 40
3.099999904632568
 41
0.0000000000000000
 71
     5
 72
     1
  1
\A1;27\H0.903226x;\S　0^ －0.35;
 11
1.000000000000000
 21
0.0000000000000000
 31
0.0000000000000000
  7
KNJYOKO
  0
ENDBLK
  5
1C0
100
AcDbEntity
  8
MAIN0
  6
CONTINUOUS
 62
3
100
AcDbBlockEnd
  0
BLOCK
  5
1C5
100
AcDbEntity
  8
MAIN0
  6
BYBLOCK
 62
3
100
AcDbBlockBegin
  2
M2
 70
    64
 10
0.0
 20
0.0
 30
0.0
  0
LINE
  5
1C6
100
AcDbEntity
  8
MAIN0
  6
BYBLOCK
 62
0
100
AcDbLine
 10
260.0797944141495
 20
91.53581791495327
 30
0.0000000000000000
 11
382.3727258296851
 21
91.53581791495327
 31
0.0000000000000000
  0
LINE
  5
1C7
100
AcDbEntity
  8
MAIN0
  6
BYBLOCK
 62
0
100
AcDbLine
 10
260.0797944141495
 20
86.53581791495333
 30
0.0000000000000000
 11
382.3727258296851
 21
86.53581791495333
 31
0.0000000000000000
  0
LINE
  5
1C8
100
AcDbEntity
  8
MAIN0
  6
BYBLOCK
 62
0
100
AcDbLine
 10
260.0797944141495
 20
81.53581791495338
 30
0.0000000000000000
 11
382.3727258296851
 21
81.53581791495338
 31
0.0000000000000000
  0
LINE
  5
1C9
100
AcDbEntity
  8
MAIN0
  6
BYBLOCK
 62
0
100
AcDbLine
 10
260.0797944141495
 20
76.53581791495338
 30
0.0000000000000000
 11
382.3727258296851
 21
76.53581791495338
 31
0.0000000000000000
  0
MTEXT
  5
1CA
100
AcDbEntity
  8
MAIN0
  6
BYBLOCK
 62
0
100
AcDbMText
 10
261.0797944141495
 20
95.13581781958590
 30
0.0000000000000000
 40
3.099999904632568
 41
0.0000000000000000
 71
     1
 72
     1
  1
{\H0.88x;1.}
 11
1.000000000000000
 21
0.0000000000000000
 31
0.0000000000000000
  7
STANDARD
  0
MTEXT
  5
1CB
100
AcDbEntity
  8
MAIN0
  6
BYBLOCK
 62
0
100
AcDbMText
 10
261.0797944141495
 20
90.13581781958590
 30
0.0000000000000000
 40
3.099999904632568
 41
0.0000000000000000
 71
     1
 72
     1
  1
{\H0.88x;2.}
 11
1.000000000000000
 21
0.0000000000000000
 31
0.0000000000000000
  7
STANDARD
  0
MTEXT
  5
1CC
100
AcDbEntity
  8
MAIN0
  6
BYBLOCK
 62
0
100
AcDbMText
 10
261.0797944141495
 20
85.13581781958595
 30
0.0000000000000000
 40
3.099999904632568
 41
0.0000000000000000
 71
     1
 72
     1
  1
{\H0.88x;3.}
 11
1.000000000000000
 21
0.0000000000000000
 31
0.0000000000000000
  7
STANDARD
  0
MTEXT
  5
1CD
100
AcDbEntity
  8
MAIN0
  6
BYBLOCK
 62
0
100
AcDbMText
 10
261.0797944141495
 20
80.13581781958595
 30
0.0000000000000000
 40
3.099999904632568
 41
0.0000000000000000
 71
     1
 72
     1
  1
{\H0.88x;4.}
 11
1.000000000000000
 21
0.0000000000000000
 31
0.0000000000000000
  7
STANDARD
  0
MTEXT
  5
1CE
100
AcDbEntity
  8
MAIN0
  6
BYBLOCK
 62
0
100
AcDbMText
 10
261.5797944141495
 20
105.5358179149536
 30
0.0000000000000000
 40
6.000000000000000
 41
0.0000000000000000
 71
     1
 72
     1
  1
{\H0.80x;要注意}
 11
1.000000000000000
 21
0.0000000000000000
 31
0.0000000000000000
  7
KNJYOKO
  0
LINE
  5
1CF
100
AcDbEntity
  8
MAIN0
  6
BYBLOCK
 62
0
100
AcDbLine
 10
280.0797944141495
 20
107.0358179149536
 30
0.0000000000000000
 11
280.0797944141495
 21
98.03581791495361
 31
0.0000000000000000
  0
LINE
  5
1D0
100
AcDbEntity
  8
MAIN0
  6
BYBLOCK
 62
0
100
AcDbLine
 10
260.0797944141495
 20
98.03581791495361
 30
0.0000000000000000
 11
280.0797944141495
 21
98.03581791495361
 31
0.0000000000000000
  0
LINE
  5
1D1
100
AcDbEntity
  8
MAIN0
  6
BYBLOCK
 62
0
100
AcDbLine
 10
260.0797944141495
 20
107.0358179149536
 30
0.0000000000000000
 11
260.0797944141495
 21
98.03581791495361
 31
0.0000000000000000
  0
LINE
  5
1D2
100
AcDbEntity
  8
MAIN0
  6
BYBLOCK
 62
0
100
AcDbLine
 10
260.0797944141495
 20
107.0358179149536
 30
0.0000000000000000
 11
280.0797944141495
 21
107.0358179149536
 31
0.0000000000000000
  0
ENDBLK
  5
1D3
100
AcDbEntity
  8
MAIN0
  6
BYBLOCK
 62
3
100
AcDbBlockEnd
  0
BLOCK
  5
1E8
100
AcDbEntity
  8
MAIN0
  6
CONTINUOUS
 62
3
100
AcDbBlockBegin
  2
*D16
 70
    65
 10
0.0
 20
0.0
 30
0.0
  0
LINE
  5
1E9
100
AcDbEntity
  8
MAIN0
  6
BYBLOCK
 62
0
100
AcDbLine
 10
59.11057148493700
 20
402.7118764503331
 30
0.0000000000000000
 11
35.24132516884498
 21
402.7118764503331
 31
0.0000000000000000
  0
LINE
  5
1EA
100
AcDbEntity
  8
MAIN0
  6
BYBLOCK
 62
0
100
AcDbLine
 10
37.24132516884498
 20
400.7118764503331
 30
0.0000000000000000
 11
37.24132516884498
 21
373.7118764503332
 31
0.0000000000000000
  0
INSERT
  5
1EB
100
AcDbEntity
  8
MAIN0
  6
BYBLOCK
 62
0
100
AcDbBlockReference
  2
_OPEN
 10
37.24132516884498
 20
402.7118764503331
 30
0.0000000000000000
 41
2.000000000000000
 42
2.000000000000000
 43
2.000000000000000
 50
90.00000000000000
  0
INSERT
  5
1EC
100
AcDbEntity
  8
MAIN0
  6
BYBLOCK
 62
0
100
AcDbBlockReference
  2
_OPEN
 10
37.24132516884498
 20
371.7118764503332
 30
0.0000000000000000
 41
2.000000000000000
 42
2.000000000000000
 43
2.000000000000000
 50
270.0000000000000
  0
LINE
  5
1ED
100
AcDbEntity
  8
MAIN0
  6
BYBLOCK
 62
0
100
AcDbLine
 10
66.97199611223206
 20
371.7118764503332
 30
0.0000000000000000
 11
35.24132516884498
 21
371.7118764503332
 31
0.0000000000000000
  0
MTEXT
  5
1EE
100
AcDbEntity
  8
MAIN0
  6
BYBLOCK
 62
0
100
AcDbMText
 10
35.19132521652870
 20
387.2118764503331
 30
0.0000000000000000
 40
3.099999904632568
 41
0.0000000000000000
 71
     5
 72
     1
  1
\A1;31
 11
6.123233995736766e-017
 21
1.000000000000000
 31
0.0000000000000000
  7
STANDARD
  0
ENDBLK
  5
1EF
100
AcDbEntity
  8
MAIN0
  6
CONTINUOUS
 62
3
100
AcDbBlockEnd
  0
BLOCK
  5
1F1
100
AcDbEntity
  8
MAIN0
  6
CONTINUOUS
 62
3
100
AcDbBlockBegin
  2
*D17
 70
    65
 10
0.0
 20
0.0
 30
0.0
  0
LINE
  5
1F2
100
AcDbEntity
  8
MAIN0
  6
BYBLOCK
 62
0
100
AcDbLine
 10
67.77082552166334
 20
392.7118764503332
 30
0.0000000000000000
 11
45.24132516884498
 21
392.7118764503332
 31
0.0000000000000000
  0
LINE
  5
1F3
100
AcDbEntity
  8
MAIN0
  6
BYBLOCK
 62
0
100
AcDbLine
 10
47.24132516884498
 20
390.7118764503332
 30
0.0000000000000000
 11
47.24132516884498
 21
373.7118764503332
 31
0.0000000000000000
  0
INSERT
  5
1F4
100
AcDbEntity
  8
MAIN0
  6
BYBLOCK
 62
0
100
AcDbBlockReference
  2
_OPEN
 10
47.24132516884498
 20
392.7118764503332
 30
0.0000000000000000
 41
2.000000000000000
 42
2.000000000000000
 43
2.000000000000000
 50
90.00000000000000
  0
INSERT
  5
1F5
100
AcDbEntity
  8
MAIN0
  6
BYBLOCK
 62
0
100
AcDbBlockReference
  2
_OPEN
 10
47.24132516884498
 20
371.7118764503332
 30
0.0000000000000000
 41
2.000000000000000
 42
2.000000000000000
 43
2.000000000000000
 50
270.0000000000000
  0
LINE
  5
1F6
100
AcDbEntity
  8
MAIN0
  6
BYBLOCK
 62
0
100
AcDbLine
 10
66.97199611223203
 20
371.7118764503332
 30
0.0000000000000000
 11
45.24132516884498
 21
371.7118764503332
 31
0.0000000000000000
  0
MTEXT
  5
1F7
100
AcDbEntity
  8
MAIN0
  6
BYBLOCK
 62
0
100
AcDbMText
 10
45.19132521652870
 20
382.2118764503332
 30
0.0000000000000000
 40
3.099999904632568
 41
0.0000000000000000
 71
     5
 72
     1
  1
\A1;21
 11
6.123233995736766e-017
 21
1.000000000000000
 31
0.0000000000000000
  7
STANDARD
  0
ENDBLK
  5
1F8
100
AcDbEntity
  8
MAIN0
  6
CONTINUOUS
 62
3
100
AcDbBlockEnd
  0
BLOCK
  5
1FA
100
AcDbEntity
  8
MAIN0
  6
CONTINUOUS
 62
3
100
AcDbBlockBegin
  2
*D18
 70
    65
 10
0.0
 20
0.0
 30
0.0
  0
LINE
  5
1FB
100
AcDbEntity
  8
MAIN0
  6
BYBLOCK
 62
0
100
AcDbLine
 10
66.97199611223203
 20
371.7118764503332
 30
0.0000000000000000
 11
45.24132516884498
 21
371.7118764503332
 31
0.0000000000000000
  0
LINE
  5
1FC
100
AcDbEntity
  8
MAIN0
  6
BYBLOCK
 62
0
100
AcDbLine
 10
47.24132516884498
 20
369.7118764503332
 30
0.0000000000000000
 11
47.24132516884498
 21
356.7118764503356
 31
0.0000000000000000
  0
INSERT
  5
1FD
100
AcDbEntity
  8
MAIN0
  6
BYBLOCK
 62
0
100
AcDbBlockReference
  2
_OPEN
 10
47.24132516884498
 20
371.7118764503332
 30
0.0000000000000000
 41
2.000000000000000
 42
2.000000000000000
 43
2.000000000000000
 50
90.00000000000000
  0
INSERT
  5
1FE
100
AcDbEntity
  8
MAIN0
  6
BYBLOCK
 62
0
100
AcDbBlockReference
  2
_OPEN
 10
47.24132516884498
 20
354.7118764503356
 30
0.0000000000000000
 41
2.000000000000000
 42
2.000000000000000
 43
2.000000000000000
 50
270.0000000000000
  0
LINE
  5
1FF
100
AcDbEntity
  8
MAIN0
  6
BYBLOCK
 62
0
100
AcDbLine
 10
67.77082552166382
 20
354.7118764503356
 30
0.0000000000000000
 11
45.24132516884498
 21
354.7118764503356
 31
0.0000000000000000
  0
MTEXT
  5
200
100
AcDbEntity
  8
MAIN0
  6
BYBLOCK
 62
0
100
AcDbMText
 10
45.19132521652870
 20
363.2118764503344
 30
0.0000000000000000
 40
3.099999904632568
 41
0.0000000000000000
 71
     5
 72
     1
  1
\A1;17
 11
6.123233995736766e-017
 21
1.000000000000000
 31
0.0000000000000000
  7
STANDARD
  0
ENDBLK
  5
201
100
AcDbEntity
  8
MAIN0
  6
CONTINUOUS
 62
3
100
AcDbBlockEnd
  0
BLOCK
  5
203
100
AcDbEntity
  8
MAIN0
  6
CONTINUOUS
 62
3
100
AcDbBlockBegin
  2
*D19
 70
    65
 10
0.0
 20
0.0
 30
0.0
  0
LINE
  5
204
100
AcDbEntity
  8
MAIN0
  6
BYBLOCK
 62
0
100
AcDbLine
 10
102.5811689684169
 20
373.7118764503360
 30
0.0000000000000000
 11
114.3974283890061
 21
373.7118764503360
 31
0.0000000000000000
  0
LINE
  5
205
100
AcDbEntity
  8
MAIN0
  6
BYBLOCK
 62
0
100
AcDbLine
 10
112.3974283890061
 20
375.7118764503360
 30
0.0000000000000000
 11
112.3974283890061
 21
400.7118764503336
 31
0.0000000000000000
  0
INSERT
  5
206
100
AcDbEntity
  8
MAIN0
  6
BYBLOCK
 62
0
100
AcDbBlockReference
  2
_OPEN
 10
112.3974283890061
 20
373.7118764503360
 30
0.0000000000000000
 41
2.000000000000000
 42
2.000000000000000
 43
2.000000000000000
 50
270.0000000000000
  0
INSERT
  5
207
100
AcDbEntity
  8
MAIN0
  6
BYBLOCK
 62
0
100
AcDbBlockReference
  2
_OPEN
 10
112.3974283890061
 20
402.7118764503336
 30
0.0000000000000000
 41
2.000000000000000
 42
2.000000000000000
 43
2.000000000000000
 50
90.00000000000000
  0
LINE
  5
208
100
AcDbEntity
  8
MAIN0
  6
BYBLOCK
 62
0
100
AcDbLine
 10
100.7105715087785
 20
402.7118764503336
 30
0.0000000000000000
 11
114.3974283890061
 21
402.7118764503336
 31
0.0000000000000000
  0
MTEXT
  5
209
100
AcDbEntity
  8
MAIN0
  6
BYBLOCK
 62
0
100
AcDbMText
 10
110.3474284366899
 20
388.2118764503348
 30
0.0000000000000000
 40
3.099999904632568
 41
0.0000000000000000
 71
     5
 72
     1
  1
\A1;29
 11
6.123233995736766e-017
 21
1.000000000000000
 31
0.0000000000000000
  7
STANDARD
  0
ENDBLK
  5
20A
100
AcDbEntity
  8
MAIN0
  6
CONTINUOUS
 62
3
100
AcDbBlockEnd
  0
BLOCK
  5
20C
100
AcDbEntity
  8
MAIN0
  6
CONTINUOUS
 62
3
100
AcDbBlockBegin
  2
*D20
 70
    65
 10
0.0
 20
0.0
 30
0.0
  0
LINE
  5
20D
100
AcDbEntity
  8
MAIN0
  6
BYBLOCK
 62
0
100
AcDbLine
 10
270.2312050773758
 20
363.6491467162570
 30
0.0000000000000000
 11
249.4469004837667
 21
373.3410271176830
 31
0.0000000000000000
  0
LINE
  5
20E
100
AcDbEntity
  8
MAIN0
  6
BYBLOCK
 62
0
100
AcDbLine
 10
252.1047525813214
 20
374.3084061682749
 30
0.0000000000000000
 11
266.8963917422459
 21
406.0291787145577
 31
0.0000000000000000
  0
INSERT
  5
20F
100
AcDbEntity
  8
MAIN0
  6
BYBLOCK
 62
0
100
AcDbBlockReference
  2
_OPEN
 10
251.2595160578400
 20
372.4957905942016
 30
0.0000000000000000
 41
2.000000000000000
 42
2.000000000000000
 43
2.000000000000000
 50
245.0000000000000
  0
INSERT
  5
210
100
AcDbEntity
  8
MAIN0
  6
BYBLOCK
 62
0
100
AcDbBlockReference
  2
_OPEN
 10
267.7416282657273
 20
407.8417942886310
 30
0.0000000000000000
 41
2.000000000000000
 42
2.000000000000000
 43
2.000000000000000
 50
65.00000000000000
  0
LINE
  5
211
100
AcDbEntity
  8
MAIN0
  6
BYBLOCK
 62
0
100
AcDbLine
 10
278.2756707648945
 20
402.9296895999391
 30
0.0000000000000000
 11
265.9290126916540
 21
408.6870308121124
 31
0.0000000000000000
  0
MTEXT
  5
212
100
AcDbEntity
  8
MAIN0
  6
BYBLOCK
 62
0
100
AcDbMText
 10
257.6426412415747
 20
391.0351598578327
 30
0.0000000000000000
 40
3.099999904632568
 41
0.0000000000000000
 71
     5
 72
     1
  1
\A1;39
 11
0.4226182617406998
 21
0.9063077870366498
 31
0.0000000000000000
  7
STANDARD
  0
ENDBLK
  5
213
100
AcDbEntity
  8
MAIN0
  6
CONTINUOUS
 62
3
100
AcDbBlockEnd
  0
BLOCK
  5
215
100
AcDbEntity
  8
MAIN0
  6
CONTINUOUS
 62
3
100
AcDbBlockBegin
  2
*D21
 70
    65
 10
0.0
 20
0.0
 30
0.0
  0
LINE
  5
216
100
AcDbEntity
  8
MAIN0
  6
BYBLOCK
 62
0
100
AcDbLine
 10
279.1810455230788
 20
378.2331921995228
 30
0.0000000000000000
 11
260.7102740915439
 21
386.8462543700779
 31
0.0000000000000000
  0
LINE
  5
217
100
AcDbEntity
  8
MAIN0
  6
BYBLOCK
 62
0
100
AcDbLine
 10
261.6776531421358
 20
384.1884022725232
 30
0.0000000000000000
 11
256.1836157395068
 21
372.4064010410465
 31
0.0000000000000000
  0
INSERT
  5
218
100
AcDbEntity
  8
MAIN0
  6
BYBLOCK
 62
0
100
AcDbBlockReference
  2
_OPEN
 10
262.5228896656172
 20
386.0010178465965
 30
0.0000000000000000
 41
2.000000000000000
 42
2.000000000000000
 43
2.000000000000000
 50
65.00000000000068
  0
INSERT
  5
219
100
AcDbEntity
  8
MAIN0
  6
BYBLOCK
 62
0
100
AcDbBlockReference
  2
_OPEN
 10
255.3383792160254
 20
370.5937854669732
 30
0.0000000000000000
 41
2.000000000000000
 42
2.000000000000000
 43
2.000000000000000
 50
245.0000000000007
  0
LINE
  5
21A
100
AcDbEntity
  8
MAIN0
  6
BYBLOCK
 62
0
100
AcDbLine
 10
270.2312050773758
 20
363.6491467162569
 30
0.0000000000000000
 11
253.5257636419521
 21
371.4390219904545
 31
0.0000000000000000
  0
MTEXT
  5
21B
100
AcDbEntity
  8
MAIN0
  6
BYBLOCK
 62
0
100
AcDbMText
 10
257.0727035206123
 20
379.1637690732013
 30
0.0000000000000000
 40
3.099999904632568
 41
0.0000000000000000
 71
     5
 72
     1
  1
\A1;17
 11
0.4226182617406894
 21
0.9063077870366547
 31
0.0000000000000000
  7
STANDARD
  0
ENDBLK
  5
21C
100
AcDbEntity
  8
MAIN0
  6
CONTINUOUS
 62
3
100
AcDbBlockEnd
  0
BLOCK
  5
21E
100
AcDbEntity
  8
MAIN0
  6
CONTINUOUS
 62
3
100
AcDbBlockBegin
  2
*D22
 70
    65
 10
0.0
 20
0.0
 30
0.0
  0
LINE
  5
21F
100
AcDbEntity
  8
MAIN0
  6
BYBLOCK
 62
0
100
AcDbLine
 10
270.2312050773758
 20
363.6491467162569
 30
0.0000000000000000
 11
253.5257636419521
 21
371.4390219904545
 31
0.0000000000000000
  0
LINE
  5
220
100
AcDbEntity
  8
MAIN0
  6
BYBLOCK
 62
0
100
AcDbLine
 10
254.4931426925440
 20
368.7811698928999
 30
0.0000000000000000
 11
247.3086322429523
 21
353.3739375132769
 31
0.0000000000000000
  0
INSERT
  5
221
100
AcDbEntity
  8
MAIN0
  6
BYBLOCK
 62
0
100
AcDbBlockReference
  2
_OPEN
 10
255.3383792160254
 20
370.5937854669732
 30
0.0000000000000000
 41
2.000000000000000
 42
2.000000000000000
 43
2.000000000000000
 50
65.00000000000068
  0
INSERT
  5
222
100
AcDbEntity
  8
MAIN0
  6
BYBLOCK
 62
0
100
AcDbBlockReference
  2
_OPEN
 10
246.4633957194710
 20
351.5613219392036
 30
0.0000000000000000
 41
2.000000000000000
 42
2.000000000000000
 43
2.000000000000000
 50
245.0000000000007
  0
LINE
  5
223
100
AcDbEntity
  8
MAIN0
  6
BYBLOCK
 62
0
100
AcDbLine
 10
263.1215515769321
 20
343.7934962921302
 30
0.0000000000000000
 11
244.6507801453977
 21
352.4065584626850
 31
0.0000000000000000
  0
MTEXT
  5
224
100
AcDbEntity
  8
MAIN0
  6
BYBLOCK
 62
0
100
AcDbMText
 10
249.0429565475391
 20
361.9439211195048
 30
0.0000000000000000
 40
3.099999904632568
 41
0.0000000000000000
 71
     5
 72
     1
  1
\A1;21
 11
0.4226182617406894
 21
0.9063077870366547
 31
0.0000000000000000
  7
STANDARD
  0
ENDBLK
  5
225
100
AcDbEntity
  8
MAIN0
  6
CONTINUOUS
 62
3
100
AcDbBlockEnd
  0
BLOCK
  5
227
100
AcDbEntity
  8
MAIN0
  6
CONTINUOUS
 62
3
100
AcDbBlockBegin
  2
*D23
 70
    65
 10
0.0
 20
0.0
 30
0.0
  0
LINE
  5
228
100
AcDbEntity
  8
MAIN0
  6
BYBLOCK
 62
0
100
AcDbLine
 10
300.3730574983705
 20
347.3870142634446
 30
0.0000000000000000
 11
314.1347364307502
 21
340.9698379882058
 31
0.0000000000000000
  0
LINE
  5
229
100
AcDbEntity
  8
MAIN0
  6
BYBLOCK
 62
0
100
AcDbLine
 10
313.1673573801583
 20
343.6276900857605
 30
0.0000000000000000
 11
328.8042330645638
 21
377.1610782061167
 31
0.0000000000000000
  0
INSERT
  5
22A
100
AcDbEntity
  8
MAIN0
  6
BYBLOCK
 62
0
100
AcDbBlockReference
  2
_OPEN
 10
312.3221208566769
 20
341.8150745116872
 30
0.0000000000000000
 41
2.000000000000000
 42
2.000000000000000
 43
2.000000000000000
 50
245.0000000000006
  0
INSERT
  5
22B
100
AcDbEntity
  8
MAIN0
  6
BYBLOCK
 62
0
100
AcDbBlockReference
  2
_OPEN
 10
329.6494695880451
 20
378.9736937801901
 30
0.0000000000000000
 41
2.000000000000000
 42
2.000000000000000
 43
2.000000000000000
 50
65.00000000000058
  0
LINE
  5
22C
100
AcDbEntity
  8
MAIN0
  6
BYBLOCK
 62
0
100
AcDbLine
 10
311.4465357920440
 20
387.4618612101535
 30
0.0000000000000000
 11
331.4620851621185
 21
378.1284572567087
 31
0.0000000000000000
  0
MTEXT
  5
22D
100
AcDbEntity
  8
MAIN0
  6
BYBLOCK
 62
0
100
AcDbMText
 10
319.1278643021520
 20
361.2607515623550
 30
0.0000000000000000
 40
3.099999904632568
 41
0.0000000000000000
 71
     5
 72
     1
  1
\A1;41
 11
0.4226182617406892
 21
0.9063077870366547
 31
0.0000000000000000
  7
STANDARD
  0
ENDBLK
  5
22E
100
AcDbEntity
  8
MAIN0
  6
CONTINUOUS
 62
3
100
AcDbBlockEnd
  0
BLOCK
  5
237
100
AcDbEntity
  8
MAIN0
  6
BYBLOCK
 62
3
100
AcDbBlockBegin
  2
*X0
 70
     1
 10
0.0
 20
0.0
 30
0.0
  0
LINE
  5
238
100
AcDbEntity
  8
MAIN0
  6
BYBLOCK
 62
0
100
AcDbLine
 10
290.2049833097871
 20
382.4713578977406
 30
0.0000000000000000
 11
291.7908160190272
 21
383.3869388393099
 31
0.0000000000000000
  0
LINE
  5
239
100
AcDbEntity
  8
MAIN0
  6
BYBLOCK
 62
0
100
AcDbLine
 10
287.9921882777625
 20
383.5032011670982
 30
0.0000000000000000
 11
289.5780209870062
 21
384.4187821086697
 31
0.0000000000000000
  0
LINE
  5
23A
100
AcDbEntity
  8
MAIN0
  6
BYBLOCK
 62
0
100
AcDbLine
 10
285.7793932457415
 20
384.5350444364584
 30
0.0000000000000000
 11
287.3652259549834
 21
385.4506253780290
 31
0.0000000000000000
  0
LINE
  5
23B
100
AcDbEntity
  8
MAIN0
  6
BYBLOCK
 62
0
100
AcDbLine
 10
283.5665982137197
 20
385.5668877058173
 30
0.0000000000000000
 11
285.1524309229652
 21
386.4824686473902
 31
0.0000000000000000
  0
LINE
  5
23C
100
AcDbEntity
  8
MAIN0
  6
BYBLOCK
 62
0
100
AcDbLine
 10
281.3538031816987
 20
386.5987309751771
 30
0.0000000000000000
 11
282.9396358909388
 21
387.5143119167468
 31
0.0000000000000000
  0
LINE
  5
23D
100
AcDbEntity
  8
MAIN0
  6
BYBLOCK
 62
0
100
AcDbLine
 10
279.1410081496741
 20
387.6305742445356
 30
0.0000000000000000
 11
280.7268408589179
 21
388.5461551861071
 31
0.0000000000000000
  0
LINE
  5
23E
100
AcDbEntity
  8
MAIN0
  6
BYBLOCK
 62
0
100
AcDbLine
 10
276.9282131176559
 20
388.6624175138962
 30
0.0000000000000000
 11
278.5140458268969
 21
389.5779984554673
 31
0.0000000000000000
  0
LINE
  5
23F
100
AcDbEntity
  8
MAIN0
  6
BYBLOCK
 62
0
100
AcDbLine
 10
274.7154180856304
 20
389.6942607832542
 30
0.0000000000000000
 11
276.3012507948741
 21
390.6098417248257
 31
0.0000000000000000
  0
LINE
  5
240
100
AcDbEntity
  8
MAIN0
  6
BYBLOCK
 62
0
100
AcDbLine
 10
272.5026230536076
 20
390.7261040526136
 30
0.0000000000000000
 11
274.0884557628505
 21
391.6416849941838
 31
0.0000000000000000
  0
LINE
  5
241
100
AcDbEntity
  8
MAIN0
  6
BYBLOCK
 62
0
100
AcDbLine
 10
270.2898280215858
 20
391.7579473219724
 30
0.0000000000000000
 11
271.8756607308313
 21
392.6735282635449
 31
0.0000000000000000
  0
LINE
  5
242
100
AcDbEntity
  8
MAIN0
  6
BYBLOCK
 62
0
100
AcDbLine
 10
268.0770329895667
 20
392.7897905913331
 30
0.0000000000000000
 11
269.6628656988086
 21
393.7053715329042
 31
0.0000000000000000
  0
LINE
  5
243
100
AcDbEntity
  8
MAIN0
  6
BYBLOCK
 62
0
100
AcDbLine
 10
292.4177783418071
 20
381.4395146283804
 30
0.0000000000000000
 11
294.0036110510517
 21
382.3550955699524
 31
0.0000000000000000
  0
LINE
  5
244
100
AcDbEntity
  8
MAIN0
  6
BYBLOCK
 62
0
100
AcDbLine
 10
294.6305733738299
 20
380.4076713590215
 30
0.0000000000000000
 11
296.2164060830727
 21
381.3232523005921
 31
0.0000000000000000
  0
LINE
  5
245
100
AcDbEntity
  8
MAIN0
  6
BYBLOCK
 62
0
100
AcDbLine
 10
296.8433684058526
 20
379.3758280896622
 30
0.0000000000000000
 11
298.4292011150955
 21
380.2914090312328
 31
0.0000000000000000
  0
LINE
  5
246
100
AcDbEntity
  8
MAIN0
  6
BYBLOCK
 62
0
100
AcDbLine
 10
299.0561634378745
 20
378.3439848203024
 30
0.0000000000000000
 11
300.6419961471155
 21
379.2595657618730
 31
0.0000000000000000
  0
LINE
  5
247
100
AcDbEntity
  8
MAIN0
  6
BYBLOCK
 62
0
100
AcDbLine
 10
301.2689584698964
 20
377.3121415509435
 30
0.0000000000000000
 11
302.8547911791383
 21
378.2277224925141
 31
0.0000000000000000
  0
LINE
  5
248
100
AcDbEntity
  8
MAIN0
  6
BYBLOCK
 62
0
100
AcDbLine
 10
303.4817535019191
 20
376.2802982815841
 30
0.0000000000000000
 11
305.0675862111610
 21
377.1958792231548
 31
0.0000000000000000
  0
LINE
  5
249
100
AcDbEntity
  8
MAIN0
  6
BYBLOCK
 62
0
100
AcDbLine
 10
305.6945485339392
 20
375.2484550122243
 30
0.0000000000000000
 11
307.2803812431838
 21
376.1640359537963
 31
0.0000000000000000
  0
LINE
  5
24A
100
AcDbEntity
  8
MAIN0
  6
BYBLOCK
 62
0
100
AcDbLine
 10
307.9073435659637
 20
374.2166117428659
 30
0.0000000000000000
 11
309.4931762752066
 21
375.1321926844370
 31
0.0000000000000000
  0
LINE
  5
24B
100
AcDbEntity
  8
MAIN0
  6
BYBLOCK
 62
0
100
AcDbLine
 10
310.1201385979838
 20
373.1847684735061
 30
0.0000000000000000
 11
311.7059713072284
 21
374.1003494150781
 31
0.0000000000000000
  0
LINE
  5
24C
100
AcDbEntity
  8
MAIN0
  6
BYBLOCK
 62
0
100
AcDbLine
 10
312.3329336300093
 20
372.1529252041486
 30
0.0000000000000000
 11
313.9187663392494
 21
373.0685061457184
 31
0.0000000000000000
  0
ENDBLK
  5
24D
100
AcDbEntity
  8
MAIN0
  6
BYBLOCK
 62
3
100
AcDbBlockEnd
  0
BLOCK
  5
24F
100
AcDbEntity
  8
MAIN0
  6
BYBLOCK
 62
3
100
AcDbBlockBegin
  2
*X1
 70
     1
 10
0.0
 20
0.0
 30
0.0
  0
LINE
  5
250
100
AcDbEntity
  8
MAIN0
  6
BYBLOCK
 62
0
100
AcDbLine
 10
279.8508358971384
 20
360.2668171153413
 30
0.0000000000000000
 11
281.4366686063803
 21
361.1823980569119
 31
0.0000000000000000
  0
LINE
  5
251
100
AcDbEntity
  8
MAIN0
  6
BYBLOCK
 62
0
100
AcDbLine
 10
277.6380408651156
 20
361.2986603847006
 30
0.0000000000000000
 11
279.2238735743575
 21
362.2142413262708
 31
0.0000000000000000
  0
LINE
  5
252
100
AcDbEntity
  8
MAIN0
  6
BYBLOCK
 62
0
100
AcDbLine
 10
275.4252458330946
 20
362.3305036540600
 30
0.0000000000000000
 11
277.0110785423375
 21
363.2460845956310
 31
0.0000000000000000
  0
LINE
  5
253
100
AcDbEntity
  8
MAIN0
  6
BYBLOCK
 62
0
100
AcDbLine
 10
273.2124508010728
 20
363.3623469234193
 30
0.0000000000000000
 11
274.7982835103138
 21
364.2779278649899
 31
0.0000000000000000
  0
LINE
  5
254
100
AcDbEntity
  8
MAIN0
  6
BYBLOCK
 62
0
100
AcDbLine
 10
270.9996557690491
 20
364.3941901927782
 30
0.0000000000000000
 11
272.5854884782920
 21
365.3097711343488
 31
0.0000000000000000
  0
LINE
  5
255
100
AcDbEntity
  8
MAIN0
  6
BYBLOCK
 62
0
100
AcDbLine
 10
268.7868607370273
 20
365.4260334621371
 30
0.0000000000000000
 11
270.3726934462692
 21
366.3416144037082
 31
0.0000000000000000
  0
LINE
  5
256
100
AcDbEntity
  8
MAIN0
  6
BYBLOCK
 62
0
100
AcDbLine
 10
266.5740657050081
 20
366.4578767314987
 30
0.0000000000000000
 11
268.1598984142482
 21
367.3734576730675
 31
0.0000000000000000
  0
LINE
  5
257
100
AcDbEntity
  8
MAIN0
  6
BYBLOCK
 62
0
100
AcDbLine
 10
264.3612706729836
 20
367.4897200008562
 30
0.0000000000000000
 11
265.9471033822255
 21
368.4053009424268
 31
0.0000000000000000
  0
LINE
  5
258
100
AcDbEntity
  8
MAIN0
  6
BYBLOCK
 62
0
100
AcDbLine
 10
262.1484756409608
 20
368.5215632702151
 30
0.0000000000000000
 11
263.7343083502036
 21
369.4371442117862
 31
0.0000000000000000
  0
LINE
  5
259
100
AcDbEntity
  8
MAIN0
  6
BYBLOCK
 62
0
100
AcDbLine
 10
259.9356806089389
 20
369.5534065395740
 30
0.0000000000000000
 11
261.5215133181808
 21
370.4689874811446
 31
0.0000000000000000
  0
LINE
  5
25A
100
AcDbEntity
  8
MAIN0
  6
BYBLOCK
 62
0
100
AcDbLine
 10
257.7228855769198
 20
370.5852498089356
 30
0.0000000000000000
 11
259.3087182861599
 21
371.5008307505053
 31
0.0000000000000000
  0
LINE
  5
25B
100
AcDbEntity
  8
MAIN0
  6
BYBLOCK
 62
0
100
AcDbLine
 10
282.0636309291602
 20
359.2349738459824
 30
0.0000000000000000
 11
283.6494636384031
 21
360.1505547875530
 31
0.0000000000000000
  0
LINE
  5
25C
100
AcDbEntity
  8
MAIN0
  6
BYBLOCK
 62
0
100
AcDbLine
 10
284.2764259611839
 20
358.2031305766235
 30
0.0000000000000000
 11
285.8622586704249
 21
359.1187115181941
 31
0.0000000000000000
  0
LINE
  5
25D
100
AcDbEntity
  8
MAIN0
  6
BYBLOCK
 62
0
100
AcDbLine
 10
286.4892209932021
 20
357.1712873072623
 30
0.0000000000000000
 11
288.0750537024459
 21
358.0868682488339
 31
0.0000000000000000
  0
LINE
  5
25E
100
AcDbEntity
  8
MAIN0
  6
BYBLOCK
 62
0
100
AcDbLine
 10
288.7020160252267
 20
356.1394440379039
 30
0.0000000000000000
 11
290.2878487344696
 21
357.0550249794750
 31
0.0000000000000000
  0
LINE
  5
25F
100
AcDbEntity
  8
MAIN0
  6
BYBLOCK
 62
0
100
AcDbLine
 10
290.9148110572495
 20
355.1076007685455
 30
0.0000000000000000
 11
292.5006437664914
 21
356.0231817101161
 31
0.0000000000000000
  0
LINE
  5
260
100
AcDbEntity
  8
MAIN0
  6
BYBLOCK
 62
0
100
AcDbLine
 10
293.1276060892723
 20
354.0757574991866
 30
0.0000000000000000
 11
294.7134387985142
 21
354.9913384407568
 31
0.0000000000000000
  0
LINE
  5
261
100
AcDbEntity
  8
MAIN0
  6
BYBLOCK
 62
0
100
AcDbLine
 10
295.3404011212923
 20
353.0439142298263
 30
0.0000000000000000
 11
296.9262338305351
 21
353.9594951713970
 31
0.0000000000000000
  0
LINE
  5
262
100
AcDbEntity
  8
MAIN0
  6
BYBLOCK
 62
0
100
AcDbLine
 10
297.5531961533133
 20
352.0120709604665
 30
0.0000000000000000
 11
299.1390288625570
 21
352.9276519020376
 31
0.0000000000000000
  0
LINE
  5
263
100
AcDbEntity
  8
MAIN0
  6
BYBLOCK
 62
0
100
AcDbLine
 10
299.7659911853378
 20
350.9802276911081
 30
0.0000000000000000
 11
301.3518238945816
 21
351.8958086326801
 31
0.0000000000000000
  0
LINE
  5
264
100
AcDbEntity
  8
MAIN0
  6
BYBLOCK
 62
0
100
AcDbLine
 10
301.9787862173624
 20
349.9483844217506
 30
0.0000000000000000
 11
303.5646189266043
 21
350.8639653633207
 31
0.0000000000000000
  0
ENDBLK
  5
265
100
AcDbEntity
  8
MAIN0
  6
BYBLOCK
 62
3
100
AcDbBlockEnd
  0
BLOCK
  5
27A
100
AcDbEntity
  8
MAIN0
  6
BYBLOCK
 62
4
100
AcDbBlockBegin
  2
M3
 70
    64
 10
0.0
 20
0.0
 30
0.0
  0
MTEXT
  5
27B
100
AcDbEntity
  8
MAIN0
  6
BYBLOCK
 62
0
100
AcDbMText
 10
141.5219096117826
 20
294.6056176361237
 30
0.0000000000000000
 40
2.000000000000000
 41
0.0000000000000000
 71
     1
 72
     1
  1
{\H0.63x;(10.2kgf/cm )}
 11
1.000000000000000
 21
0.0000000000000000
 31
0.0000000000000000
  7
STANDARD
  0
MTEXT
  5
27C
100
AcDbEntity
  8
MAIN0
  6
BYBLOCK
 62
0
100
AcDbMText
 10
154.4665889180732
 20
295.4813737057941
 30
0.0000000000000000
 40
1.399999976158142
 41
0.0000000000000000
 71
     1
 72
     1
  1
{\H0.82x;2}
 11
1.000000000000000
 21
0.0000000000000000
 31
0.0000000000000000
  7
STANDARD
  0
ENDBLK
  5
27D
100
AcDbEntity
  8
MAIN0
  6
BYBLOCK
 62
4
100
AcDbBlockEnd
  0
BLOCK
  5
280
100
AcDbEntity
  8
MAIN0
  6
CONTINUOUS
 62
3
100
AcDbBlockBegin
  2
*D24
 70
    65
 10
0.0
 20
0.0
 30
0.0
  0
LINE
  5
281
100
AcDbEntity
  8
MAIN0
  6
BYBLOCK
 62
0
100
AcDbLine
 10
450.4078363952615
 20
299.0050637490762
 30
0.0000000000000000
 11
450.4078363952615
 21
290.0146546797766
 31
0.0000000000000000
  0
LINE
  5
282
100
AcDbEntity
  8
MAIN0
  6
BYBLOCK
 62
0
100
AcDbLine
 10
452.4078363952615
 20
292.0146546797766
 30
0.0000000000000000
 11
463.4078363952615
 21
292.0146546797766
 31
0.0000000000000000
  0
INSERT
  5
283
100
AcDbEntity
  8
MAIN0
  6
BYBLOCK
 62
0
100
AcDbBlockReference
  2
_OPEN
 10
450.4078363952615
 20
292.0146546797766
 30
0.0000000000000000
 41
2.000000000000000
 42
2.000000000000000
 43
2.000000000000000
 50
180.0000000000000
  0
INSERT
  5
284
100
AcDbEntity
  8
MAIN0
  6
BYBLOCK
 62
0
100
AcDbBlockReference
  2
_OPEN
 10
465.4078363952615
 20
292.0146546797766
 30
0.0000000000000000
 41
2.000000000000000
 42
2.000000000000000
 43
2.000000000000000
 50
0.0000000000000000
  0
LINE
  5
285
100
AcDbEntity
  8
MAIN0
  6
BYBLOCK
 62
0
100
AcDbLine
 10
465.4078363952615
 20
274.1050637729181
 30
0.0000000000000000
 11
465.4078363952615
 21
294.0146546797766
 31
0.0000000000000000
  0
MTEXT
  5
286
100
AcDbEntity
  8
MAIN0
  6
BYBLOCK
 62
0
100
AcDbMText
 10
457.9078363952615
 20
294.0646546320929
 30
0.0000000000000000
 40
3.099999904632568
 41
0.0000000000000000
 71
     5
 72
     1
  1
\A1;15
 11
1.000000000000000
 21
0.0000000000000000
 31
0.0000000000000000
  7
STANDARD
  0
ENDBLK
  5
287
100
AcDbEntity
  8
MAIN0
  6
CONTINUOUS
 62
3
100
AcDbBlockEnd
  0
BLOCK
  5
289
100
AcDbEntity
  8
MAIN0
  6
CONTINUOUS
 62
3
100
AcDbBlockBegin
  2
*D25
 70
    65
 10
0.0
 20
0.0
 30
0.0
  0
LINE
  5
28A
100
AcDbEntity
  8
MAIN0
  6
BYBLOCK
 62
0
100
AcDbLine
 10
450.4078363952615
 20
178.5050637490762
 30
0.0000000000000000
 11
450.4078363952615
 21
142.0683379740970
 31
0.0000000000000000
  0
LINE
  5
28B
100
AcDbEntity
  8
MAIN0
  6
BYBLOCK
 62
0
100
AcDbLine
 10
448.4078363952615
 20
144.0683379740970
 30
0.0000000000000000
 11
317.4078363952622
 21
144.0683379740970
 31
0.0000000000000000
  0
INSERT
  5
28C
100
AcDbEntity
  8
MAIN0
  6
BYBLOCK
 62
0
100
AcDbBlockReference
  2
_OPEN
 10
450.4078363952615
 20
144.0683379740970
 30
0.0000000000000000
 41
2.000000000000000
 42
2.000000000000000
 43
2.000000000000000
 50
360.0000000000000
  0
INSERT
  5
28D
100
AcDbEntity
  8
MAIN0
  6
BYBLOCK
 62
0
100
AcDbBlockReference
  2
_OPEN
 10
315.4078363952622
 20
144.0683379740970
 30
0.0000000000000000
 41
2.000000000000000
 42
2.000000000000000
 43
2.000000000000000
 50
180.0000000000000
  0
LINE
  5
28E
100
AcDbEntity
  8
MAIN0
  6
BYBLOCK
 62
0
100
AcDbLine
 10
315.4078363952622
 20
171.4050637490764
 30
0.0000000000000000
 11
315.4078363952622
 21
142.0683379740970
 31
0.0000000000000000
  0
MTEXT
  5
28F
100
AcDbEntity
  8
MAIN0
  6
BYBLOCK
 62
0
100
AcDbMText
 10
382.9078363952618
 20
146.1183379264133
 30
0.0000000000000000
 40
3.099999904632568
 41
0.0000000000000000
 71
     5
 72
     1
  1
\A1;135
 11
1.000000000000000
 21
0.0000000000000000
 31
0.0000000000000000
  7
STANDARD
  0
ENDBLK
  5
290
100
AcDbEntity
  8
MAIN0
  6
CONTINUOUS
 62
3
100
AcDbBlockEnd
  0
BLOCK
  5
2F9
100
AcDbEntity
  8
MAIN0
  6
BYBLOCK
 62
3
100
AcDbBlockBegin
  2
*X2
 70
     1
 10
0.0
 20
0.0
 30
0.0
  0
LINE
  5
2FA
100
AcDbEntity
  8
MAIN0
  6
BYBLOCK
 62
0
100
AcDbLine
 10
80.70892017078811
 20
364.7118764503339
 30
0.0000000000000000
 11
82.20892017078802
 21
366.2118764503337
 31
0.0000000000000000
  0
LINE
  5
2FB
100
AcDbEntity
  8
MAIN0
  6
BYBLOCK
 62
0
100
AcDbLine
 10
77.88049304604220
 20
364.7118764503343
 30
0.0000000000000000
 11
79.38049304604172
 21
366.2118764503341
 31
0.0000000000000000
  0
LINE
  5
2FC
100
AcDbEntity
  8
MAIN0
  6
BYBLOCK
 62
0
100
AcDbLine
 10
75.05206592129451
 20
364.7118764503339
 30
0.0000000000000000
 11
76.55206592129542
 21
366.2118764503344
 31
0.0000000000000000
  0
LINE
  5
2FD
100
AcDbEntity
  8
MAIN0
  6
BYBLOCK
 62
0
100
AcDbLine
 10
72.22363879654830
 20
364.7118764503342
 30
0.0000000000000000
 11
73.72363879654824
 21
366.2118764503337
 31
0.0000000000000000
  0
LINE
  5
2FE
100
AcDbEntity
  8
MAIN0
  6
BYBLOCK
 62
0
100
AcDbLine
 10
69.39521167180197
 20
364.7118764503346
 30
0.0000000000000000
 11
70.89521167180192
 21
366.2118764503341
 31
0.0000000000000000
  0
LINE
  5
2FF
100
AcDbEntity
  8
MAIN0
  6
BYBLOCK
 62
0
100
AcDbLine
 10
66.56678454705477
 20
364.7118764503338
 30
0.0000000000000000
 11
68.06678454705570
 21
366.2118764503344
 31
0.0000000000000000
  0
LINE
  5
300
100
AcDbEntity
  8
MAIN0
  6
BYBLOCK
 62
0
100
AcDbLine
 10
63.73835742230847
 20
364.7118764503343
 30
0.0000000000000000
 11
65.23835742230796
 21
366.2118764503341
 31
0.0000000000000000
  0
LINE
  5
301
100
AcDbEntity
  8
MAIN0
  6
BYBLOCK
 62
0
100
AcDbLine
 10
60.90993029756220
 20
364.7118764503347
 30
0.0000000000000000
 11
62.40993029756169
 21
366.2118764503344
 31
0.0000000000000000
  0
LINE
  5
302
100
AcDbEntity
  8
MAIN0
  6
BYBLOCK
 62
0
100
AcDbLine
 10
58.08150317281451
 20
364.7118764503335
 30
0.0000000000000000
 11
59.58150317281545
 21
366.2118764503348
 31
0.0000000000000000
  0
LINE
  5
303
100
AcDbEntity
  8
MAIN0
  6
BYBLOCK
 62
0
100
AcDbLine
 10
56.54025735620775
 20
365.9990577584734
 30
0.0000000000000000
 11
56.75307604806818
 21
366.2118764503341
 31
0.0000000000000000
  0
LINE
  5
304
100
AcDbEntity
  8
MAIN0
  6
BYBLOCK
 62
0
100
AcDbLine
 10
83.53734729553568
 20
364.7118764503347
 30
0.0000000000000000
 11
85.03734729553560
 21
366.2118764503349
 31
0.0000000000000000
  0
LINE
  5
305
100
AcDbEntity
  8
MAIN0
  6
BYBLOCK
 62
0
100
AcDbLine
 10
86.36577442028198
 20
364.7118764503342
 30
0.0000000000000000
 11
87.86577442028192
 21
366.2118764503345
 31
0.0000000000000000
  0
LINE
  5
306
100
AcDbEntity
  8
MAIN0
  6
BYBLOCK
 62
0
100
AcDbLine
 10
89.19420154502825
 20
364.7118764503339
 30
0.0000000000000000
 11
90.69420154502816
 21
366.2118764503341
 31
0.0000000000000000
  0
LINE
  5
307
100
AcDbEntity
  8
MAIN0
  6
BYBLOCK
 62
0
100
AcDbLine
 10
92.02262866977586
 20
364.7118764503351
 30
0.0000000000000000
 11
93.52262866977577
 21
366.2118764503349
 31
0.0000000000000000
  0
LINE
  5
308
100
AcDbEntity
  8
MAIN0
  6
BYBLOCK
 62
0
100
AcDbLine
 10
94.85105579452210
 20
364.7118764503347
 30
0.0000000000000000
 11
96.35105579452201
 21
366.2118764503346
 31
0.0000000000000000
  0
LINE
  5
309
100
AcDbEntity
  8
MAIN0
  6
BYBLOCK
 62
0
100
AcDbLine
 10
97.67948291926842
 20
364.7118764503343
 30
0.0000000000000000
 11
99.17948291926896
 21
366.2118764503349
 31
0.0000000000000000
  0
LINE
  5
30A
100
AcDbEntity
  8
MAIN0
  6
BYBLOCK
 62
0
100
AcDbLine
 10
100.5079100440162
 20
364.7118764503354
 30
0.0000000000000000
 11
102.0079100440153
 21
366.2118764503344
 31
0.0000000000000000
  0
LINE
  5
30B
100
AcDbEntity
  8
MAIN0
  6
BYBLOCK
 62
0
100
AcDbLine
 10
103.3363371687624
 20
364.7118764503350
 30
0.0000000000000000
 11
104.8363371687616
 21
366.2118764503340
 31
0.0000000000000000
  0
ENDBLK
  5
30C
100
AcDbEntity
  8
MAIN0
  6
BYBLOCK
 62
3
100
AcDbBlockEnd
  0
BLOCK
  5
30E
100
AcDbEntity
  8
MAIN0
  6
BYBLOCK
 62
3
100
AcDbBlockBegin
  2
*X3
 70
     1
 10
0.0
 20
0.0
 30
0.0
  0
LINE
  5
30F
100
AcDbEntity
  8
MAIN0
  6
BYBLOCK
 62
0
100
AcDbLine
 10
81.23899862160437
 20
389.2118764503340
 30
0.0000000000000000
 11
82.73899862160351
 21
390.7118764503331
 31
0.0000000000000000
  0
LINE
  5
310
100
AcDbEntity
  8
MAIN0
  6
BYBLOCK
 62
0
100
AcDbLine
 10
78.41057149685781
 20
389.2118764503343
 30
0.0000000000000000
 11
79.91057149685730
 21
390.7118764503333
 31
0.0000000000000000
  0
LINE
  5
311
100
AcDbEntity
  8
MAIN0
  6
BYBLOCK
 62
0
100
AcDbLine
 10
75.58214437211157
 20
389.2118764503347
 30
0.0000000000000000
 11
77.08214437211106
 21
390.7118764503338
 31
0.0000000000000000
  0
LINE
  5
312
100
AcDbEntity
  8
MAIN0
  6
BYBLOCK
 62
0
100
AcDbLine
 10
72.75371724736388
 20
389.2118764503335
 30
0.0000000000000000
 11
74.25371724736377
 21
390.7118764503330
 31
0.0000000000000000
  0
LINE
  5
313
100
AcDbEntity
  8
MAIN0
  6
BYBLOCK
 62
0
100
AcDbLine
 10
69.92529012261801
 20
389.2118764503343
 30
0.0000000000000000
 11
71.42529012261755
 21
390.7118764503334
 31
0.0000000000000000
  0
LINE
  5
314
100
AcDbEntity
  8
MAIN0
  6
BYBLOCK
 62
0
100
AcDbLine
 10
67.09686299787032
 20
389.2118764503332
 30
0.0000000000000000
 11
68.59686299787126
 21
390.7118764503338
 31
0.0000000000000000
  0
LINE
  5
315
100
AcDbEntity
  8
MAIN0
  6
BYBLOCK
 62
0
100
AcDbLine
 10
64.26843587312405
 20
389.2118764503337
 30
0.0000000000000000
 11
65.76843587312354
 21
390.7118764503334
 31
0.0000000000000000
  0
LINE
  5
316
100
AcDbEntity
  8
MAIN0
  6
BYBLOCK
 62
0
100
AcDbLine
 10
61.44000874837775
 20
389.2118764503340
 30
0.0000000000000000
 11
62.94000874837724
 21
390.7118764503338
 31
0.0000000000000000
  0
LINE
  5
317
100
AcDbEntity
  8
MAIN0
  6
BYBLOCK
 62
0
100
AcDbLine
 10
58.61158162363017
 20
389.2118764503329
 30
0.0000000000000000
 11
60.11158162363100
 21
390.7118764503342
 31
0.0000000000000000
  0
LINE
  5
318
100
AcDbEntity
  8
MAIN0
  6
BYBLOCK
 62
0
100
AcDbLine
 10
57.07033580702392
 20
390.4990577584732
 30
0.0000000000000000
 11
57.28315449888368
 21
390.7118764503334
 31
0.0000000000000000
  0
LINE
  5
319
100
AcDbEntity
  8
MAIN0
  6
BYBLOCK
 62
0
100
AcDbLine
 10
84.06742574635143
 20
389.2118764503343
 30
0.0000000000000000
 11
85.56742574635132
 21
390.7118764503341
 31
0.0000000000000000
  0
LINE
  5
31A
100
AcDbEntity
  8
MAIN0
  6
BYBLOCK
 62
0
100
AcDbLine
 10
86.89585287109765
 20
389.2118764503339
 30
0.0000000000000000
 11
88.39585287109753
 21
390.7118764503338
 31
0.0000000000000000
  0
LINE
  5
31B
100
AcDbEntity
  8
MAIN0
  6
BYBLOCK
 62
0
100
AcDbLine
 10
89.72427999584394
 20
389.2118764503335
 30
0.0000000000000000
 11
91.22427999584383
 21
390.7118764503333
 31
0.0000000000000000
  0
LINE
  5
31C
100
AcDbEntity
  8
MAIN0
  6
BYBLOCK
 62
0
100
AcDbLine
 10
92.55270712059161
 20
389.2118764503343
 30
0.0000000000000000
 11
94.05270712059146
 21
390.7118764503342
 31
0.0000000000000000
  0
LINE
  5
31D
100
AcDbEntity
  8
MAIN0
  6
BYBLOCK
 62
0
100
AcDbLine
 10
95.38113424533782
 20
389.2118764503340
 30
0.0000000000000000
 11
96.88113424533771
 21
390.7118764503338
 31
0.0000000000000000
  0
LINE
  5
31E
100
AcDbEntity
  8
MAIN0
  6
BYBLOCK
 62
0
100
AcDbLine
 10
98.20956137008403
 20
389.2118764503335
 30
0.0000000000000000
 11
99.70956137008454
 21
390.7118764503342
 31
0.0000000000000000
  0
LINE
  5
31F
100
AcDbEntity
  8
MAIN0
  6
BYBLOCK
 62
0
100
AcDbLine
 10
101.0379884948317
 20
389.2118764503348
 30
0.0000000000000000
 11
102.5379884948308
 21
390.7118764503338
 31
0.0000000000000000
  0
LINE
  5
320
100
AcDbEntity
  8
MAIN0
  6
BYBLOCK
 62
0
100
AcDbLine
 10
103.8664156195779
 20
389.2118764503344
 30
0.0000000000000000
 11
105.3664156195771
 21
390.7118764503334
 31
0.0000000000000000
  0
ENDBLK
  5
321
100
AcDbEntity
  8
MAIN0
  6
BYBLOCK
 62
3
100
AcDbBlockEnd
  0
BLOCK
  5
35B
100
AcDbEntity
  8
MAIN0
  6
CONTINUOUS
 62
3
100
AcDbBlockBegin
  2
*D26
 70
    65
 10
0.0
 20
0.0
 30
0.0
  0
LINE
  5
35C
100
AcDbEntity
  8
MAIN0
  6
BYBLOCK
 62
0
100
AcDbLine
 10
510.3418110028446
 20
261.8050637609971
 30
0.0000000000000000
 11
527.4078363952615
 21
261.8050637609971
 31
0.0000000000000000
  0
LINE
  5
35D
100
AcDbEntity
  8
MAIN0
  6
BYBLOCK
 62
0
100
AcDbLine
 10
525.4078363952615
 20
259.8050637609971
 30
0.0000000000000000
 11
525.4078363952615
 21
241.8050637609971
 31
0.0000000000000000
  0
INSERT
  5
35E
100
AcDbEntity
  8
MAIN0
  6
BYBLOCK
 62
0
100
AcDbBlockReference
  2
_OPEN
 10
525.4078363952615
 20
261.8050637609971
 30
0.0000000000000000
 41
2.000000000000000
 42
2.000000000000000
 43
2.000000000000000
 50
90.00000000000000
  0
INSERT
  5
35F
100
AcDbEntity
  8
MAIN0
  6
BYBLOCK
 62
0
100
AcDbBlockReference
  2
_OPEN
 10
525.4078363952615
 20
239.8050637609971
 30
0.0000000000000000
 41
2.000000000000000
 42
2.000000000000000
 43
2.000000000000000
 50
270.0000000000000
  0
LINE
  5
360
100
AcDbEntity
  8
MAIN0
  6
BYBLOCK
 62
0
100
AcDbLine
 10
510.3418110028446
 20
239.8050637609971
 30
0.0000000000000000
 11
527.4078363952615
 21
239.8050637609971
 31
0.0000000000000000
  0
MTEXT
  5
361
100
AcDbEntity
  8
MAIN0
  6
BYBLOCK
 62
0
100
AcDbMText
 10
523.3578364429452
 20
250.8050637609971
 30
0.0000000000000000
 40
3.099999904632568
 41
0.0000000000000000
 71
     5
 72
     1
  1
\A1;\U+220522H8
 11
6.123233995736766e-017
 21
1.000000000000000
 31
0.0000000000000000
  7
STANDARD
  0
ENDBLK
  5
362
100
AcDbEntity
  8
MAIN0
  6
CONTINUOUS
 62
3
100
AcDbBlockEnd
  0
BLOCK
  5
364
100
AcDbEntity
  8
MAIN0
  6
CONTINUOUS
 62
3
100
AcDbBlockBegin
  2
*D27
 70
    65
 10
0.0
 20
0.0
 30
0.0
  0
LINE
  5
365
100
AcDbEntity
  8
MAIN0
  6
BYBLOCK
 62
0
100
AcDbLine
 10
494.3418110039602
 20
265.8050637609971
 30
0.0000000000000000
 11
537.4078363952615
 21
265.8050637609971
 31
0.0000000000000000
  0
LINE
  5
366
100
AcDbEntity
  8
MAIN0
  6
BYBLOCK
 62
0
100
AcDbLine
 10
535.4078363952615
 20
263.8050637609971
 30
0.0000000000000000
 11
535.4078363952615
 21
237.8050637609971
 31
0.0000000000000000
  0
INSERT
  5
367
100
AcDbEntity
  8
MAIN0
  6
BYBLOCK
 62
0
100
AcDbBlockReference
  2
_OPEN
 10
535.4078363952615
 20
265.8050637609971
 30
0.0000000000000000
 41
2.000000000000000
 42
2.000000000000000
 43
2.000000000000000
 50
90.00000000000000
  0
INSERT
  5
368
100
AcDbEntity
  8
MAIN0
  6
BYBLOCK
 62
0
100
AcDbBlockReference
  2
_OPEN
 10
535.4078363952615
 20
235.8050637609971
 30
0.0000000000000000
 41
2.000000000000000
 42
2.000000000000000
 43
2.000000000000000
 50
270.0000000000000
  0
LINE
  5
369
100
AcDbEntity
  8
MAIN0
  6
BYBLOCK
 62
0
100
AcDbLine
 10
494.3418110039603
 20
235.8050637609971
 30
0.0000000000000000
 11
537.4078363952615
 21
235.8050637609971
 31
0.0000000000000000
  0
MTEXT
  5
36A
100
AcDbEntity
  8
MAIN0
  6
BYBLOCK
 62
0
100
AcDbMText
 10
533.3578364429452
 20
250.8050637609971
 30
0.0000000000000000
 40
3.099999904632568
 41
0.0000000000000000
 71
     5
 72
     1
  1
\A1;\U+220530
 11
6.123233995736766e-017
 21
1.000000000000000
 31
0.0000000000000000
  7
STANDARD
  0
ENDBLK
  5
36B
100
AcDbEntity
  8
MAIN0
  6
CONTINUOUS
 62
3
100
AcDbBlockEnd
  0
BLOCK
  5
36D
100
AcDbEntity
  8
MAIN0
  6
CONTINUOUS
 62
3
100
AcDbBlockBegin
  2
*D28
 70
    65
 10
0.0
 20
0.0
 30
0.0
  0
LINE
  5
36E
100
AcDbEntity
  8
MAIN0
  6
BYBLOCK
 62
0
100
AcDbLine
 10
502.4078363952615
 20
239.0050637490762
 30
0.0000000000000000
 11
502.4078363952615
 21
216.7733403228630
 31
0.0000000000000000
  0
LINE
  5
36F
100
AcDbEntity
  8
MAIN0
  6
BYBLOCK
 62
0
100
AcDbLine
 10
504.4078363952615
 20
218.7733403228630
 30
0.0000000000000000
 11
508.4078363952615
 21
218.7733403228630
 31
0.0000000000000000
  0
INSERT
  5
370
100
AcDbEntity
  8
MAIN0
  6
BYBLOCK
 62
0
100
AcDbBlockReference
  2
_OPEN
 10
502.4078363952615
 20
218.7733403228630
 30
0.0000000000000000
 41
2.000000000000000
 42
2.000000000000000
 43
2.000000000000000
 50
180.0000000000000
  0
INSERT
  5
371
100
AcDbEntity
  8
MAIN0
  6
BYBLOCK
 62
0
100
AcDbBlockReference
  2
_OPEN
 10
510.4078363952615
 20
218.7733403228630
 30
0.0000000000000000
 41
2.000000000000000
 42
2.000000000000000
 43
2.000000000000000
 50
0.0000000000000000
  0
LINE
  5
372
100
AcDbEntity
  8
MAIN0
  6
BYBLOCK
 62
0
100
AcDbLine
 10
510.4078363952615
 20
236.5050637490762
 30
0.0000000000000000
 11
510.4078363952615
 21
216.7733403228630
 31
0.0000000000000000
  0
MTEXT
  5
373
100
AcDbEntity
  8
MAIN0
  6
BYBLOCK
 62
0
100
AcDbMText
 10
506.4078363952615
 20
220.8233402751793
 30
0.0000000000000000
 40
3.099999904632568
 41
0.0000000000000000
 71
     5
 72
     1
  1
\A1;8
 11
1.000000000000000
 21
0.0000000000000000
 31
0.0000000000000000
  7
STANDARD
  0
ENDBLK
  5
374
100
AcDbEntity
  8
MAIN0
  6
CONTINUOUS
 62
3
100
AcDbBlockEnd
  0
BLOCK
  5
376
100
AcDbEntity
  8
MAIN0
  6
CONTINUOUS
 62
3
100
AcDbBlockBegin
  2
*D29
 70
    65
 10
0.0
 20
0.0
 30
0.0
  0
LINE
  5
377
100
AcDbEntity
  8
MAIN0
  6
BYBLOCK
 62
0
100
AcDbLine
 10
480.4078363952615
 20
240.0050637490762
 30
0.0000000000000000
 11
480.4078363952615
 21
206.7733403228630
 31
0.0000000000000000
  0
LINE
  5
378
100
AcDbEntity
  8
MAIN0
  6
BYBLOCK
 62
0
100
AcDbLine
 10
482.4078363952615
 20
208.7733403228630
 30
0.0000000000000000
 11
508.4078363952615
 21
208.7733403228630
 31
0.0000000000000000
  0
INSERT
  5
379
100
AcDbEntity
  8
MAIN0
  6
BYBLOCK
 62
0
100
AcDbBlockReference
  2
_OPEN
 10
480.4078363952615
 20
208.7733403228630
 30
0.0000000000000000
 41
2.000000000000000
 42
2.000000000000000
 43
2.000000000000000
 50
180.0000000000000
  0
INSERT
  5
37A
100
AcDbEntity
  8
MAIN0
  6
BYBLOCK
 62
0
100
AcDbBlockReference
  2
_OPEN
 10
510.4078363952615
 20
208.7733403228630
 30
0.0000000000000000
 41
2.000000000000000
 42
2.000000000000000
 43
2.000000000000000
 50
0.0000000000000000
  0
LINE
  5
37B
100
AcDbEntity
  8
MAIN0
  6
BYBLOCK
 62
0
100
AcDbLine
 10
510.4078363952615
 20
236.5050637490762
 30
0.0000000000000000
 11
510.4078363952615
 21
206.7733403228630
 31
0.0000000000000000
  0
MTEXT
  5
37C
100
AcDbEntity
  8
MAIN0
  6
BYBLOCK
 62
0
100
AcDbMText
 10
495.4078363952615
 20
210.8233402751793
 30
0.0000000000000000
 40
3.099999904632568
 41
0.0000000000000000
 71
     5
 72
     1
  1
\A1;30
 11
1.000000000000000
 21
0.0000000000000000
 31
0.0000000000000000
  7
STANDARD
  0
ENDBLK
  5
37D
100
AcDbEntity
  8
MAIN0
  6
CONTINUOUS
 62
3
100
AcDbBlockEnd
  0
BLOCK
  5
37F
100
AcDbEntity
  8
MAIN0
  6
CONTINUOUS
 62
3
100
AcDbBlockBegin
  2
*D30
 70
    65
 10
0.0
 20
0.0
 30
0.0
  0
LINE
  5
380
100
AcDbEntity
  8
MAIN0
  6
BYBLOCK
 62
0
100
AcDbLine
 10
450.2078364071824
 20
178.3050637609971
 30
0.0000000000000000
 11
567.4078363952615
 21
178.3050637609971
 31
0.0000000000000000
  0
LINE
  5
381
100
AcDbEntity
  8
MAIN0
  6
BYBLOCK
 62
0
100
AcDbLine
 10
565.4078363952615
 20
180.3050637609971
 30
0.0000000000000000
 11
565.4078363952615
 21
321.3050637609971
 31
0.0000000000000000
  0
INSERT
  5
382
100
AcDbEntity
  8
MAIN0
  6
BYBLOCK
 62
0
100
AcDbBlockReference
  2
_OPEN
 10
565.4078363952615
 20
178.3050637609971
 30
0.0000000000000000
 41
2.000000000000000
 42
2.000000000000000
 43
2.000000000000000
 50
270.0000000000000
  0
INSERT
  5
383
100
AcDbEntity
  8
MAIN0
  6
BYBLOCK
 62
0
100
AcDbBlockReference
  2
_OPEN
 10
565.4078363952615
 20
323.3050637609971
 30
0.0000000000000000
 41
2.000000000000000
 42
2.000000000000000
 43
2.000000000000000
 50
90.00000000000000
  0
LINE
  5
384
100
AcDbEntity
  8
MAIN0
  6
BYBLOCK
 62
0
100
AcDbLine
 10
450.2078364071824
 20
323.3050637609971
 30
0.0000000000000000
 11
567.4078363952615
 21
323.3050637609971
 31
0.0000000000000000
  0
MTEXT
  5
385
100
AcDbEntity
  8
MAIN0
  6
BYBLOCK
 62
0
100
AcDbMText
 10
563.3578364429452
 20
250.8050637609971
 30
0.0000000000000000
 40
3.099999904632568
 41
0.0000000000000000
 71
     5
 72
     1
  1
\A1;\U+2205145h7
 11
6.123233995736766e-017
 21
1.000000000000000
 31
0.0000000000000000
  7
STANDARD
  0
ENDBLK
  5
386
100
AcDbEntity
  8
MAIN0
  6
CONTINUOUS
 62
3
100
AcDbBlockEnd
  0
BLOCK
  5
388
100
AcDbEntity
  8
MAIN0
  6
CONTINUOUS
 62
3
100
AcDbBlockBegin
  2
*D31
 70
    65
 10
0.0
 20
0.0
 30
0.0
  0
LINE
  5
389
100
AcDbEntity
  8
MAIN0
  6
BYBLOCK
 62
0
100
AcDbLine
 10
466.2078364071824
 20
271.8050637609971
 30
0.0000000000000000
 11
547.4078363952615
 21
271.8050637609971
 31
0.0000000000000000
  0
LINE
  5
38A
100
AcDbEntity
  8
MAIN0
  6
BYBLOCK
 62
0
100
AcDbLine
 10
545.4078363952615
 20
269.8050637609971
 30
0.0000000000000000
 11
545.4078363952615
 21
231.8050637609971
 31
0.0000000000000000
  0
INSERT
  5
38B
100
AcDbEntity
  8
MAIN0
  6
BYBLOCK
 62
0
100
AcDbBlockReference
  2
_OPEN
 10
545.4078363952615
 20
271.8050637609971
 30
0.0000000000000000
 41
2.000000000000000
 42
2.000000000000000
 43
2.000000000000000
 50
90.00000000000000
  0
INSERT
  5
38C
100
AcDbEntity
  8
MAIN0
  6
BYBLOCK
 62
0
100
AcDbBlockReference
  2
_OPEN
 10
545.4078363952615
 20
229.8050637609971
 30
0.0000000000000000
 41
2.000000000000000
 42
2.000000000000000
 43
2.000000000000000
 50
270.0000000000000
  0
LINE
  5
38D
100
AcDbEntity
  8
MAIN0
  6
BYBLOCK
 62
0
100
AcDbLine
 10
466.2078364071824
 20
229.8050637609971
 30
0.0000000000000000
 11
547.4078363952615
 21
229.8050637609971
 31
0.0000000000000000
  0
MTEXT
  5
38E
100
AcDbEntity
  8
MAIN0
  6
BYBLOCK
 62
0
100
AcDbMText
 10
543.3578364429452
 20
250.8050637609971
 30
0.0000000000000000
 40
3.099999904632568
 41
0.0000000000000000
 71
     5
 72
     1
  1
\A1;\U+220542
 11
6.123233995736766e-017
 21
1.000000000000000
 31
0.0000000000000000
  7
STANDARD
  0
ENDBLK
  5
38F
100
AcDbEntity
  8
MAIN0
  6
CONTINUOUS
 62
3
100
AcDbBlockEnd
  0
BLOCK
  5
391
100
AcDbEntity
  8
MAIN0
  6
CONTINUOUS
 62
3
100
AcDbBlockBegin
  2
D32
 70
    64
 10
0.0
 20
0.0
 30
0.0
  0
LINE
  5
392
100
AcDbEntity
  8
MAIN0
  6
BYBLOCK
 62
0
100
AcDbLine
 10
36.65890759746887
 20
9.640234867026436
 30
0.0000000000000000
 11
36.65890759746887
 21
-64.00000000000000
 31
0.0000000000000000
  0
LINE
  5
393
100
AcDbEntity
  8
MAIN0
  6
BYBLOCK
 62
0
100
AcDbLine
 10
37.25890762131073
 20
-62.00000000000000
 30
0.0000000000000000
 11
36.65890759746887
 21
-64.00000000000000
 31
0.0000000000000000
  0
LINE
  5
394
100
AcDbEntity
  8
MAIN0
  6
BYBLOCK
 62
0
100
AcDbLine
 10
36.65890759746887
 20
-64.00000000000000
 30
0.0000000000000000
 11
36.05890757362701
 21
-62.00000000000000
 31
0.0000000000000000
  0
LINE
  5
395
100
AcDbEntity
  8
MAIN0
  6
BYBLOCK
 62
0
100
AcDbLine
 10
-47.04976837034303
 20
-64.00000000000000
 30
0.0000000000000000
 11
38.65890759746887
 21
-64.00000000000000
 31
0.0000000000000000
  0
MTEXT
  5
396
100
AcDbEntity
  8
MAIN0
  6
BYBLOCK
 62
0
100
AcDbMText
 10
34.60890764515258
 20
0.01523471941982280
 30
0.0000000000000000
 40
3.099999904632568
 41
0.0000000000000000
 71
     5
 72
     1
  1
\A1;\U+2205128\H0.903226x;\U+00B10.2
 11
6.123233995736766e-017
 21
1.000000000000000
 31
0.0000000000000000
  7
STANDARD
  0
ENDBLK
  5
397
100
AcDbEntity
  8
MAIN0
  6
CONTINUOUS
 62
3
100
AcDbBlockEnd
  0
BLOCK
  5
399
100
AcDbEntity
  8
MAIN0
  6
CONTINUOUS
 62
3
100
AcDbBlockBegin
  2
*D33
 70
    65
 10
0.0
 20
0.0
 30
0.0
  0
LINE
  5
39A
100
AcDbEntity
  8
MAIN0
  6
BYBLOCK
 62
0
100
AcDbLine
 10
464.4078363952621
 20
182.0050637490762
 30
0.0000000000000000
 11
464.4078363952621
 21
152.0683379740970
 31
0.0000000000000000
  0
LINE
  5
39B
100
AcDbEntity
  8
MAIN0
  6
BYBLOCK
 62
0
100
AcDbLine
 10
462.4078363952621
 20
154.0683379740970
 30
0.0000000000000000
 11
452.4078363952615
 21
154.0683379740970
 31
0.0000000000000000
  0
INSERT
  5
39C
100
AcDbEntity
  8
MAIN0
  6
BYBLOCK
 62
0
100
AcDbBlockReference
  2
_OPEN
 10
464.4078363952621
 20
154.0683379740970
 30
0.0000000000000000
 41
2.000000000000000
 42
2.000000000000000
 43
2.000000000000000
 50
360.0000000000000
  0
INSERT
  5
39D
100
AcDbEntity
  8
MAIN0
  6
BYBLOCK
 62
0
100
AcDbBlockReference
  2
_OPEN
 10
450.4078363952615
 20
154.0683379740970
 30
0.0000000000000000
 41
2.000000000000000
 42
2.000000000000000
 43
2.000000000000000
 50
180.0000000000000
  0
LINE
  5
39E
100
AcDbEntity
  8
MAIN0
  6
BYBLOCK
 62
0
100
AcDbLine
 10
450.4078363952615
 20
178.5050637490762
 30
0.0000000000000000
 11
450.4078363952615
 21
152.0683379740970
 31
0.0000000000000000
  0
MTEXT
  5
39F
100
AcDbEntity
  8
MAIN0
  6
BYBLOCK
 62
0
100
AcDbMText
 10
457.4078363952618
 20
156.1183379264133
 30
0.0000000000000000
 40
3.099999904632568
 41
0.0000000000000000
 71
     5
 72
     1
  1
\A1;14
 11
1.000000000000000
 21
0.0000000000000000
 31
0.0000000000000000
  7
STANDARD
  0
ENDBLK
  5
3A0
100
AcDbEntity
  8
MAIN0
  6
CONTINUOUS
 62
3
100
AcDbBlockEnd
  0
BLOCK
  5
43C
100
AcDbEntity
  8
MAIN0
  6
BYBLOCK
 62
3
100
AcDbBlockBegin
  2
M4
 70
    64
 10
0.0
 20
0.0
 30
0.0
  0
LINE
  5
43D
100
AcDbEntity
  8
MAIN0
  6
BYBLOCK
 62
0
100
AcDbLine
 10
165.4078363952570
 20
378.9269499326944
 30
0.0000000000000000
 11
165.4078363952570
 21
390.9269499326944
 31
0.0000000000000000
  0
LINE
  5
43E
100
AcDbEntity
  8
MAIN0
  6
BYBLOCK
 62
0
100
AcDbLine
 10
165.4078363952569
 20
378.9269499326945
 30
0.0000000000000000
 11
164.1137411697443
 21
383.7565790641398
 31
0.0000000000000000
  0
LINE
  5
43F
100
AcDbEntity
  8
MAIN0
  6
BYBLOCK
 62
0
100
AcDbLine
 10
165.4078363952570
 20
378.9269499326945
 30
0.0000000000000000
 11
166.7019316207696
 21
383.7565790641397
 31
0.0000000000000000
  0
ENDBLK
  5
440
100
AcDbEntity
  8
MAIN0
  6
BYBLOCK
 62
3
100
AcDbBlockEnd
  0
BLOCK
  5
47A
100
AcDbEntity
  8
MAIN0
  6
CONTINUOUS
 62
3
100
AcDbBlockBegin
  2
*D34
 70
    65
 10
0.0
 20
0.0
 30
0.0
  0
LINE
  5
47B
100
AcDbEntity
  8
MAIN0
  6
BYBLOCK
 62
0
100
AcDbLine
 10
251.6150536394924
 20
343.8628503747296
 30
0.0000000000000000
 11
244.9009725695662
 21
329.4644570554106
 31
0.0000000000000000
  0
LINE
  5
47C
100
AcDbEntity
  8
MAIN0
  6
BYBLOCK
 62
0
100
AcDbLine
 10
247.5588246671210
 20
330.4318361060025
 30
0.0000000000000000
 11
280.1859050004403
 21
315.2175786833373
 31
0.0000000000000000
  0
INSERT
  5
47D
100
AcDbEntity
  8
MAIN0
  6
BYBLOCK
 62
0
100
AcDbBlockReference
  2
_OPEN
 10
245.7462090930476
 20
331.2770726294839
 30
0.0000000000000000
 41
2.000000000000000
 42
2.000000000000000
 43
2.000000000000000
 50
155.0000000000000
  0
INSERT
  5
47E
100
AcDbEntity
  8
MAIN0
  6
BYBLOCK
 62
0
100
AcDbBlockReference
  2
_OPEN
 10
281.9985205745136
 20
314.3723421598559
 30
0.0000000000000000
 41
2.000000000000000
 42
2.000000000000000
 43
2.000000000000000
 50
334.9999999999999
  0
LINE
  5
47F
100
AcDbEntity
  8
MAIN0
  6
BYBLOCK
 62
0
100
AcDbLine
 10
287.8673651209584
 20
326.9581199051016
 30
0.0000000000000000
 11
281.1532840510322
 21
312.5597265857826
 31
0.0000000000000000
  0
MTEXT
  5
480
100
AcDbEntity
  8
MAIN0
  6
BYBLOCK
 62
0
100
AcDbMText
 10
264.7387322501970
 20
324.6826383148789
 30
0.0000000000000000
 40
3.099999904632568
 41
0.0000000000000000
 71
     5
 72
     1
  1
\A1;40
 11
0.9063077870366501
 21
-0.4226182617406992
 31
0.0000000000000000
  7
STANDARD
  0
ENDBLK
  5
481
100
AcDbEntity
  8
MAIN0
  6
CONTINUOUS
 62
3
100
AcDbBlockEnd
  0
BLOCK
  5
483
100
AcDbEntity
  8
MAIN0
  6
CONTINUOUS
 62
3
100
AcDbBlockBegin
  2
*D35
 70
    65
 10
0.0
 20
0.0
 30
0.0
  0
LINE
  5
484
100
AcDbEntity
  8
MAIN0
  6
BYBLOCK
 62
0
100
AcDbLine
 10
59.91057149685784
 20
339.7397699293248
 30
0.0000000000000000
 11
59.91057149685770
 21
330.6620792735591
 31
0.0000000000000000
  0
LINE
  5
485
100
AcDbEntity
  8
MAIN0
  6
BYBLOCK
 62
0
100
AcDbLine
 10
61.91057149685770
 20
332.6620792735591
 30
0.0000000000000000
 11
97.91057149685761
 21
332.6620792735591
 31
0.0000000000000000
  0
INSERT
  5
486
100
AcDbEntity
  8
MAIN0
  6
BYBLOCK
 62
0
100
AcDbBlockReference
  2
_OPEN
 10
59.91057149685770
 20
332.6620792735591
 30
0.0000000000000000
 41
2.000000000000000
 42
2.000000000000000
 43
2.000000000000000
 50
180.0000000000000
  0
INSERT
  5
487
100
AcDbEntity
  8
MAIN0
  6
BYBLOCK
 62
0
100
AcDbBlockReference
  2
_OPEN
 10
99.91057149685761
 20
332.6620792735591
 30
0.0000000000000000
 41
2.000000000000000
 42
2.000000000000000
 43
2.000000000000000
 50
0.0000000000000000
  0
LINE
  5
488
100
AcDbEntity
  8
MAIN0
  6
BYBLOCK
 62
0
100
AcDbLine
 10
99.91057149685761
 20
339.7397699293248
 30
0.0000000000000000
 11
99.91057149685761
 21
330.6620792735591
 31
0.0000000000000000
  0
MTEXT
  5
489
100
AcDbEntity
  8
MAIN0
  6
BYBLOCK
 62
0
100
AcDbMText
 10
79.91057149685764
 20
334.7120792258754
 30
0.0000000000000000
 40
3.099999904632568
 41
0.0000000000000000
 71
     5
 72
     1
  1
\A1;40
 11
1.000000000000000
 21
0.0000000000000000
 31
0.0000000000000000
  7
STANDARD
  0
ENDBLK
  5
48A
100
AcDbEntity
  8
MAIN0
  6
CONTINUOUS
 62
3
100
AcDbBlockEnd
  0
BLOCK
  5
5A0
100
AcDbEntity
  8
MAIN0
  6
BYBLOCK
 62
3
100
AcDbBlockBegin
  2
M5
 70
    64
 10
0.0
 20
0.0
 30
0.0
  0
LINE
  5
5A1
100
AcDbEntity
  8
MAIN0
  6
BYBLOCK
 62
0
100
AcDbLine
 10
260.0797944141495
 20
49.53581791495338
 30
0.0000000000000000
 11
390.3218355844571
 21
49.53581791495338
 31
0.0000000000000000
  0
LINE
  5
5A2
100
AcDbEntity
  8
MAIN0
  6
BYBLOCK
 62
0
100
AcDbLine
 10
260.0797944141495
 20
44.53581791495338
 30
0.0000000000000000
 11
390.3218355844571
 21
44.53581791495338
 31
0.0000000000000000
  0
LINE
  5
5A3
100
AcDbEntity
  8
MAIN0
  6
BYBLOCK
 62
0
100
AcDbLine
 10
260.0797944141495
 20
39.53581791495338
 30
0.0000000000000000
 11
390.3218355844571
 21
39.53581791495338
 31
0.0000000000000000
  0
MTEXT
  5
5A4
100
AcDbEntity
  8
MAIN0
  6
BYBLOCK
 62
0
100
AcDbMText
 10
261.0797944141495
 20
53.13581781958595
 30
0.0000000000000000
 40
3.099999904632568
 41
0.0000000000000000
 71
     1
 72
     1
  1
{\H0.88x;1.}
 11
1.000000000000000
 21
0.0000000000000000
 31
0.0000000000000000
  7
STANDARD
  0
MTEXT
  5
5A5
100
AcDbEntity
  8
MAIN0
  6
BYBLOCK
 62
0
100
AcDbMText
 10
261.0797944141495
 20
48.13581781958595
 30
0.0000000000000000
 40
3.099999904632568
 41
0.0000000000000000
 71
     1
 72
     1
  1
{\H0.88x;2.}
 11
1.000000000000000
 21
0.0000000000000000
 31
0.0000000000000000
  7
STANDARD
  0
MTEXT
  5
5A6
100
AcDbEntity
  8
MAIN0
  6
BYBLOCK
 62
0
100
AcDbMText
 10
261.0797944141495
 20
38.13581781958601
 30
0.0000000000000000
 40
3.099999904632568
 41
0.0000000000000000
 71
     1
 72
     1
  1
{\H0.88x;3.}
 11
1.000000000000000
 21
0.0000000000000000
 31
0.0000000000000000
  7
STANDARD
  0
ENDBLK
  5
5A7
100
AcDbEntity
  8
MAIN0
  6
BYBLOCK
 62
3
100
AcDbBlockEnd
  0
ENDSEC
  0
SECTION
  2
ENTITIES
  0
ARC
  5
46
100
AcDbEntity
  8
MAIN0
  6
CENTER
 62
3
100
AcDbCircle
 10
165.4078363952622
 20
250.8050637609971
 30
0.0000000000000000
 40
31.50000000000000
100
AcDbArc
 50
234.2605980460354
 51
260.0366920758983
  0
LINE
  5
47
100
AcDbEntity
  8
MAIN0
  6
CENTER
 62
3
100
AcDbLine
 10
150.1097891085412
 20
213.8723105238275
 30
0.0000000000000000
 11
156.5413014349092
 21
229.3993548087035
 31
0.0000000000000000
  0
CIRCLE
  5
48
100
AcDbEntity
  8
MAIN0
  6
CONTINUOUS
 62
3
100
AcDbCircle
 10
153.3533082756730
 20
221.7028584869285
 30
0.0000000000000000
 40
5.000000000000000
  0
LINE
  5
49
100
AcDbEntity
  8
MAIN0
  6
CONTINUOUS
 62
3
100
AcDbLine
 10
150.4665569297249
 20
221.7028584869285
 30
0.0000000000000000
 11
151.9099326026989
 21
219.2028584869285
 31
0.0000000000000000
  0
LINE
  5
4A
100
AcDbEntity
  8
MAIN0
  6
CONTINUOUS
 62
3
100
AcDbLine
 10
151.9099326026989
 20
219.2028584869285
 30
0.0000000000000000
 11
154.7966839486471
 21
219.2028584869285
 31
0.0000000000000000
  0
LINE
  5
4B
100
AcDbEntity
  8
MAIN0
  6
CONTINUOUS
 62
3
100
AcDbLine
 10
154.7966839486471
 20
219.2028584869285
 30
0.0000000000000000
 11
156.2400596216211
 21
221.7028584869285
 31
0.0000000000000000
  0
LINE
  5
4C
100
AcDbEntity
  8
MAIN0
  6
CONTINUOUS
 62
3
100
AcDbLine
 10
156.2400596216212
 20
221.7028584869285
 30
0.0000000000000000
 11
154.7966839486471
 21
224.2028584869285
 31
0.0000000000000000
  0
LINE
  5
4D
100
AcDbEntity
  8
MAIN0
  6
CONTINUOUS
 62
3
100
AcDbLine
 10
154.7966839486471
 20
224.2028584869285
 30
0.0000000000000000
 11
151.9099326026989
 21
224.2028584869285
 31
0.0000000000000000
  0
LINE
  5
4E
100
AcDbEntity
  8
MAIN0
  6
CONTINUOUS
 62
3
100
AcDbLine
 10
151.9099326026989
 20
224.2028584869285
 30
0.0000000000000000
 11
150.4665569297249
 21
221.7028584869285
 31
0.0000000000000000
  0
ARC
  5
4F
100
AcDbEntity
  8
MAIN0
  6
CENTER
 62
3
100
AcDbCircle
 10
165.4078363952622
 20
250.8050637609971
 30
0.0000000000000000
 40
31.50000000000000
100
AcDbArc
 50
324.2605980460354
 51
350.6030095440383
  0
LINE
  5
50
100
AcDbEntity
  8
MAIN0
  6
CENTER
 62
3
100
AcDbLine
 10
202.3405896324319
 20
235.5070164742761
 30
0.0000000000000000
 11
186.8135453475558
 21
241.9385288006441
 31
0.0000000000000000
  0
CIRCLE
  5
51
100
AcDbEntity
  8
MAIN0
  6
CONTINUOUS
 62
3
100
AcDbCircle
 10
194.5100416693309
 20
238.7505356414079
 30
0.0000000000000000
 40
5.000000000000000
  0
LINE
  5
52
100
AcDbEntity
  8
MAIN0
  6
CONTINUOUS
 62
3
100
AcDbLine
 10
194.5100416693310
 20
235.8637842954598
 30
0.0000000000000000
 11
197.0100416693309
 21
237.3071599684339
 31
0.0000000000000000
  0
LINE
  5
53
100
AcDbEntity
  8
MAIN0
  6
CONTINUOUS
 62
3
100
AcDbLine
 10
197.0100416693309
 20
237.3071599684338
 30
0.0000000000000000
 11
197.0100416693309
 21
240.1939113143820
 31
0.0000000000000000
  0
LINE
  5
54
100
AcDbEntity
  8
MAIN0
  6
CONTINUOUS
 62
3
100
AcDbLine
 10
197.0100416693309
 20
240.1939113143820
 30
0.0000000000000000
 11
194.5100416693310
 21
241.6372869873560
 31
0.0000000000000000
  0
LINE
  5
55
100
AcDbEntity
  8
MAIN0
  6
CONTINUOUS
 62
3
100
AcDbLine
 10
194.5100416693309
 20
241.6372869873561
 30
0.0000000000000000
 11
192.0100416693309
 21
240.1939113143820
 31
0.0000000000000000
  0
LINE
  5
56
100
AcDbEntity
  8
MAIN0
  6
CONTINUOUS
 62
3
100
AcDbLine
 10
192.0100416693309
 20
240.1939113143820
 30
0.0000000000000000
 11
192.0100416693309
 21
237.3071599684338
 31
0.0000000000000000
  0
LINE
  5
57
100
AcDbEntity
  8
MAIN0
  6
CONTINUOUS
 62
3
100
AcDbLine
 10
192.0100416693309
 20
237.3071599684338
 30
0.0000000000000000
 11
194.5100416693309
 21
235.8637842954598
 31
0.0000000000000000
  0
ARC
  5
58
100
AcDbEntity
  8
MAIN0
  6
HIDDEN
 62
3
100
AcDbCircle
 10
165.4078363952622
 20
250.8050637609971
 30
0.0000000000000000
 40
10.50000000000000
100
AcDbArc
 50
244.1559923877810
 51
373.7876383131500
  0
MTEXT
  5
59
100
AcDbEntity
  8
MAIN0
  6
CONTINUOUS
 62
3
100
AcDbMText
 10
215.8363420519896
 20
199.6610455309936
 30
0.0000000000000000
 40
5.000000000000000
 41
0.0000000000000000
 71
     1
 72
     1
  1
{\H0.84x;{Ｒ}}
 11
0.7071067811865476
 21
0.7071067811865475
 31
0.0000000000000000
  7
KNJYOKO
  0
MTEXT
  5
5A
100
AcDbEntity
  8
MAIN0
  6
CONTINUOUS
 62
3
100
AcDbMText
 10
213.0079149272434
 20
196.8326184062474
 30
0.0000000000000000
 40
5.000000000000000
 41
0.0000000000000000
 71
     1
 72
     1
  1
{\H0.84x;{Ａ}}
 11
0.7071067811865476
 21
0.7071067811865475
 31
0.0000000000000000
  7
KNJYOKO
  0
LINE
  5
5B
100
AcDbEntity
  8
MAIN0
  6
CENTER
 62
3
100
AcDbLine
 10
125.3582971805983
 20
210.7555245463298
 30
0.0000000000000000
 11
108.2310520040690
 21
193.6282793697991
 31
0.0000000000000000
  0
LINE
  5
5C
100
AcDbEntity
  8
MAIN0
  6
CENTER
 62
3
100
AcDbLine
 10
184.7793790063277
 20
197.5821878570989
 30
0.0000000000000000
 11
193.0636480953918
 21
174.8213455982123
 31
0.0000000000000000
  0
LINE
  5
5D
100
AcDbEntity
  8
MAIN0
  6
HIDDEN
 62
3
100
AcDbLine
 10
188.9844219260741
 20
176.3803728667226
 30
0.0000000000000000
 11
189.4625599080422
 21
177.4057430780119
 31
0.0000000000000000
  0
LINE
  5
5E
100
AcDbEntity
  8
MAIN0
  6
HIDDEN
 62
3
100
AcDbLine
 10
189.4625599080422
 20
177.4057430780119
 30
0.0000000000000000
 11
194.1610230119717
 21
179.1158437946405
 31
0.0000000000000000
  0
LINE
  5
5F
100
AcDbEntity
  8
MAIN0
  6
HIDDEN
 62
3
100
AcDbLine
 10
194.1610230119717
 20
179.1158437946405
 30
0.0000000000000000
 11
195.1863932232610
 21
178.6377058126723
 31
0.0000000000000000
  0
LINE
  5
60
100
AcDbEntity
  8
MAIN0
  6
HIDDEN
 62
3
100
AcDbLine
 10
189.1637236693121
 20
176.7648866959561
 30
0.0000000000000000
 11
185.1620879924012
 21
187.7592903591510
 31
0.0000000000000000
  0
LINE
  5
61
100
AcDbEntity
  8
MAIN0
  6
HIDDEN
 62
3
100
AcDbLine
 10
185.1620879924013
 20
187.7592903591510
 30
0.0000000000000000
 11
190.8002437171166
 21
189.8114112191053
 31
0.0000000000000000
  0
LINE
  5
62
100
AcDbEntity
  8
MAIN0
  6
HIDDEN
 62
3
100
AcDbLine
 10
190.8002437171166
 20
189.8114112191053
 30
0.0000000000000000
 11
194.8018793940275
 21
178.8170075559103
 31
0.0000000000000000
  0
LINE
  5
63
100
AcDbEntity
  8
MAIN0
  6
HIDDEN
 62
3
100
AcDbLine
 10
189.4625599080422
 20
177.4057430780119
 30
0.0000000000000000
 11
184.2638537294913
 21
191.6890709139574
 31
0.0000000000000000
  0
LINE
  5
64
100
AcDbEntity
  8
MAIN0
  6
HIDDEN
 62
3
100
AcDbLine
 10
184.2638537294913
 20
191.6890709139574
 30
0.0000000000000000
 11
188.9623168334208
 21
193.3991716305860
 31
0.0000000000000000
  0
LINE
  5
65
100
AcDbEntity
  8
MAIN0
  6
HIDDEN
 62
3
100
AcDbLine
 10
188.9623168334208
 20
193.3991716305860
 30
0.0000000000000000
 11
194.1610230119717
 21
179.1158437946405
 31
0.0000000000000000
  0
LINE
  5
66
100
AcDbEntity
  8
MAIN0
  6
HIDDEN
 62
3
100
AcDbLine
 10
184.2638537294914
 20
191.6890709139574
 30
0.0000000000000000
 11
186.1194217269127
 21
193.9004507411873
 31
0.0000000000000000
  0
LINE
  5
67
100
AcDbEntity
  8
MAIN0
  6
HIDDEN
 62
3
100
AcDbLine
 10
186.1194217269127
 20
193.9004507411873
 30
0.0000000000000000
 11
188.9623168334209
 21
193.3991716305860
 31
0.0000000000000000
  0
LINE
  5
68
100
AcDbEntity
  8
MAIN0
  6
CENTER
 62
3
100
AcDbLine
 10
219.5704049199482
 20
231.0915010066106
 30
0.0000000000000000
 11
242.3312471788355
 21
222.8072319175485
 31
0.0000000000000000
  0
LINE
  5
69
100
AcDbEntity
  8
MAIN0
  6
HIDDEN
 62
3
100
AcDbLine
 10
237.5751943435897
 20
221.0265069330046
 30
0.0000000000000000
 11
237.0970563616214
 21
222.0518771442938
 31
0.0000000000000000
  0
LINE
  5
6A
100
AcDbEntity
  8
MAIN0
  6
HIDDEN
 62
3
100
AcDbLine
 10
237.0970563616215
 20
222.0518771442938
 30
0.0000000000000000
 11
238.8071570782496
 21
226.7503402482234
 31
0.0000000000000000
  0
LINE
  5
6B
100
AcDbEntity
  8
MAIN0
  6
HIDDEN
 62
3
100
AcDbLine
 10
238.8071570782495
 20
226.7503402482235
 30
0.0000000000000000
 11
239.8325272895388
 21
227.2284782301917
 31
0.0000000000000000
  0
LINE
  5
6C
100
AcDbEntity
  8
MAIN0
  6
HIDDEN
 62
3
100
AcDbLine
 10
237.3958926003516
 20
221.4110207622380
 30
0.0000000000000000
 11
226.4014889371563
 21
225.4126564391478
 31
0.0000000000000000
  0
LINE
  5
6D
100
AcDbEntity
  8
MAIN0
  6
HIDDEN
 62
3
100
AcDbLine
 10
226.4014889371563
 20
225.4126564391478
 30
0.0000000000000000
 11
228.4536097971100
 21
231.0508121638634
 31
0.0000000000000000
  0
LINE
  5
6E
100
AcDbEntity
  8
MAIN0
  6
HIDDEN
 62
3
100
AcDbLine
 10
228.4536097971100
 20
231.0508121638634
 30
0.0000000000000000
 11
239.4480134603053
 21
227.0491764869536
 31
0.0000000000000000
  0
LINE
  5
6F
100
AcDbEntity
  8
MAIN0
  6
HIDDEN
 62
3
100
AcDbLine
 10
237.0970563616214
 20
222.0518771442938
 30
0.0000000000000000
 11
222.8137285256754
 21
227.2505833228432
 31
0.0000000000000000
  0
LINE
  5
70
100
AcDbEntity
  8
MAIN0
  6
HIDDEN
 62
3
100
AcDbLine
 10
222.8137285256753
 20
227.2505833228432
 30
0.0000000000000000
 11
224.5238292423034
 21
231.9490464267729
 31
0.0000000000000000
  0
LINE
  5
71
100
AcDbEntity
  8
MAIN0
  6
HIDDEN
 62
3
100
AcDbLine
 10
224.5238292423035
 20
231.9490464267729
 30
0.0000000000000000
 11
238.8071570782496
 21
226.7503402482234
 31
0.0000000000000000
  0
LINE
  5
72
100
AcDbEntity
  8
MAIN0
  6
HIDDEN
 62
3
100
AcDbLine
 10
222.8137285256754
 20
227.2505833228432
 30
0.0000000000000000
 11
222.3124494150738
 21
230.0934784293514
 31
0.0000000000000000
  0
LINE
  5
73
100
AcDbEntity
  8
MAIN0
  6
HIDDEN
 62
3
100
AcDbLine
 10
222.3124494150738
 20
230.0934784293514
 30
0.0000000000000000
 11
224.5238292423035
 21
231.9490464267729
 31
0.0000000000000000
  0
LINE
  5
74
100
AcDbEntity
  8
MAIN0
  6
CENTER
 62
3
100
AcDbLine
 10
87.68085944473407
 20
237.8050637609937
 30
0.0000000000000000
 11
101.9639839983820
 21
237.8050637609942
 31
0.0000000000000000
  0
LINE
  5
75
100
AcDbEntity
  8
MAIN0
  6
CENTER
 62
3
100
AcDbLine
 10
87.85774090219459
 20
263.8050637609937
 30
0.0000000000000000
 11
100.9469198351498
 21
263.8050637609943
 31
0.0000000000000000
  0
LINE
  5
76
100
AcDbEntity
  8
MAIN0
  6
CENTER
 62
3
100
AcDbLine
 10
94.40783639526234
 20
231.0783969760100
 30
0.0000000000000000
 11
94.40783639526234
 21
270.5900086259617
 31
0.0000000000000000
  0
CIRCLE
  5
77
100
AcDbEntity
  8
MAIN0
  6
CONTINUOUS
 62
3
100
AcDbCircle
 10
94.40783639526211
 20
263.8050637609971
 30
0.0000000000000000
 40
3.000000000000000
  0
CIRCLE
  5
78
100
AcDbEntity
  8
MAIN0
  6
CONTINUOUS
 62
3
100
AcDbCircle
 10
94.40783639526211
 20
263.8050637609971
 30
0.0000000000000000
 40
2.500000000000000
  0
CIRCLE
  5
79
100
AcDbEntity
  8
MAIN0
  6
CONTINUOUS
 62
3
100
AcDbCircle
 10
94.40783639526222
 20
237.8050637609971
 30
0.0000000000000000
 40
3.000000000000000
  0
CIRCLE
  5
7A
100
AcDbEntity
  8
MAIN0
  6
CONTINUOUS
 62
3
100
AcDbCircle
 10
94.40783639526222
 20
237.8050637609971
 30
0.0000000000000000
 40
2.500000000000000
  0
LINE
  5
7B
100
AcDbEntity
  8
MAIN0
  6
CENTER
 62
3
100
AcDbLine
 10
78.66611582581456
 20
235.8050739063899
 30
0.0000000000000000
 11
73.55304285102750
 21
235.8050739063897
 31
0.0000000000000000
  0
LINE
  5
7C
100
AcDbEntity
  8
MAIN0
  6
CENTER
 62
3
100
AcDbLine
 10
79.81987120144925
 20
265.8050739065163
 30
0.0000000000000000
 11
73.55304285102633
 21
265.8050739065161
 31
0.0000000000000000
  0
LINE
  5
7D
100
AcDbEntity
  8
MAIN0
  6
CENTER
 62
3
100
AcDbLine
 10
83.75021518461793
 20
274.6635185787694
 30
0.0000000000000000
 11
75.73308240766193
 21
278.4019689891181
 31
0.0000000000000000
  0
LINE
  5
7E
100
AcDbEntity
  8
MAIN0
  6
CENTER
 62
3
100
AcDbLine
 10
97.05021513648643
 20
301.5629643167654
 30
0.0000000000000000
 11
88.41163025996076
 21
305.5912026003207
 31
0.0000000000000000
  0
LINE
  5
7F
100
AcDbEntity
  8
MAIN0
  6
CENTER
 62
3
100
AcDbLine
 10
93.44616007566413
 20
286.6928940075678
 30
0.0000000000000000
 11
78.37721638556235
 21
293.7196578505998
 31
0.0000000000000000
  0
INSERT
  5
87
100
AcDbEntity
  8
MAIN0
  6
CONTINUOUS
 62
3
100
AcDbBlockReference
  2
D0
 10
296.3570469397029
 20
250.8050637609971
 30
0.0000000000000000
 50
0.0000000000000000
  0
SPLINE
  5
88
100
AcDbEntity
  8
MAIN0
  6
CONTINUOUS
 62
3
100
AcDbSpline
210
0.0000000000000000
220
0.0000000000000000
230
1.000000000000000
 70
     8
 71
     3
 72
    17
 73
    13
 74
     0
 42
1.000000000000000e-007
 43
1.000000000000000e-007
 12
-0.8974027022924815
 22
-0.4547750465437446
 32
0.0000000000000000
 13
0.7912280731289911
 23
-0.5968029728139470
 33
0.0000000000000000
 40
0.0000000000000000
 40
0.0000000000000000
 40
0.0000000000000000
 40
0.0000000000000000
 40
3.451451550896865
 40
7.141411291084067
 40
13.22703623298530
 40
15.25558546685544
 40
18.67307565738418
 40
23.37284594706721
 40
27.55479959800078
 40
29.11061571413300
 40
32.74272636328107
 40
38.22952577331149
 40
38.22952577331149
 40
38.22952577331149
 40
38.22952577331149
 10
469.2158017778863
 20
265.8050637609971
 30
0.0000000000000000
 10
468.1833544616842
 20
265.2818524144296
 30
0.0000000000000000
 10
466.0471138647505
 20
264.1992738636658
 30
0.0000000000000000
 10
463.2432748533631
 20
260.4592688593532
 30
0.0000000000000000
 10
463.2730514216377
 20
256.5115517809506
 30
0.0000000000000000
 10
461.5098214364509
 20
252.6701790869049
 30
0.0000000000000000
 10
464.7884691372998
 20
250.0948606661698
 30
0.0000000000000000
 10
463.8886440412964
 20
245.4382363955760
 30
0.0000000000000000
 10
460.8633556756194
 20
242.8491268912678
 30
0.0000000000000000
 10
461.9647192938922
 20
239.5387109919742
 30
0.0000000000000000
 10
465.8556580502794
 20
238.7106407047573
 30
0.0000000000000000
 10
468.2607039286663
 20
236.8965764940438
 30
0.0000000000000000
 10
469.7078071702809
 20
235.8050637609971
 30
0.0000000000000000
  0
SPLINE
  5
89
100
AcDbEntity
  8
MAIN0
  6
CONTINUOUS
 62
3
100
AcDbSpline
210
0.0000000000000000
220
0.0000000000000000
230
1.000000000000000
 70
     8
 71
     3
 72
    18
 73
    14
 74
     0
 42
1.000000000000000e-007
 43
1.000000000000000e-007
 12
0.9248650494519808
 22
-0.4026988787621662
 32
0.0000000000000000
 13
0.9634970546063073
 23
-0.3889613391137345
 33
0.0000000000000000
 40
0.0000000000000000
 40
0.0000000000000000
 40
0.0000000000000000
 40
0.0000000000000000
 40
10.34397517273677
 40
16.14514455894456
 40
20.71542896138142
 40
28.02957272523506
 40
38.67095173348665
 40
44.99671676374255
 40
52.66783483196528
 40
64.50481486217470
 40
70.57546573847198
 40
81.66474885053253
 40
86.19390714961737
 40
86.19390714961737
 40
86.19390714961737
 40
86.19390714961737
 10
315.4078363952622
 20
280.3447778379049
 30
0.0000000000000000
 10
318.5967634318166
 20
278.9562754365700
 30
0.0000000000000000
 10
323.5741234054556
 20
276.7890648994567
 30
0.0000000000000000
 10
330.6662855241693
 20
276.6133920934732
 30
0.0000000000000000
 10
336.2518929588941
 20
278.6964988372418
 30
0.0000000000000000
 10
343.6549463646704
 20
279.4636305814733
 30
0.0000000000000000
 10
351.9811132390391
 20
281.7949315375619
 30
0.0000000000000000
 10
359.4566505970337
 20
278.0121132095579
 30
0.0000000000000000
 10
366.8439919601265
 20
272.2645397538777
 30
0.0000000000000000
 10
375.4802126990827
 20
277.5891561756544
 30
0.0000000000000000
 10
385.1990755014348
 20
276.4411519449084
 30
0.0000000000000000
 10
391.9371187358643
 20
281.8948945867734
 30
0.0000000000000000
 10
396.9532261682572
 20
279.8699046247238
 30
0.0000000000000000
 10
398.4078363952618
 20
279.2826821323671
 30
0.0000000000000000
  0
DIMENSION
  5
92
100
AcDbEntity
  8
MAIN0
  6
CONTINUOUS
 62
3
100
AcDbDimension
  2
*D1
 10
450.4078363952615
 20
373.3450408338691
 30
0.0000000000000000
 11
424.4078363952618
 21
373.8450408338691
 31
0.0000000000000000
 70
32
  1
\A1;MIN 52
  3
MAIN001
100
AcDbAlignedDimension
 13
398.4078363952621
 23
326.3050637609971
 33
0.0000000000000000
 14
450.4078363952615
 24
322.3050637609971
 34
0.0000000000000000
100
AcDbRotatedDimension
1001
ACAD
1000
DSTYLE
1002
{
1070
   173
1070
     1
1070
     6
1000
_OPEN
1070
     7
1000
_OPEN
1070
    41
1040
2.000000
1002
}
  0
DIMENSION
  5
9B
100
AcDbEntity
  8
MAIN0
  6
CONTINUOUS
 62
3
100
AcDbDimension
  2
*D2
 10
398.4078363952621
 20
373.3450408338691
 30
0.0000000000000000
 11
385.4078363952621
 21
373.8450408338691
 31
0.0000000000000000
 70
32
  3
MAIN001
100
AcDbAlignedDimension
 13
372.4078363952621
 23
326.3050637609971
 33
0.0000000000000000
 14
398.4078363952621
 24
326.3050637609971
 34
0.0000000000000000
100
AcDbRotatedDimension
1001
ACAD
1000
DSTYLE
1002
{
1070
   173
1070
     1
1070
     6
1000
_OPEN
1070
     7
1000
_OPEN
1070
    41
1040
2.000000
1002
}
  0
LEADER
  5
9C
100
AcDbEntity
  8
MAIN0
  6
CONTINUOUS
 62
3
100
AcDbLeader
  3
MAIN001
 73
     0
 75
     1
 40
3.099999904632568
 41
18.42900048398971
 76
     3
 10
92.97519061701053
 20
266.4408797777286
 30
0.0000000000000000
 10
68.00292831485973
 20
312.3854460824273
 30
0.0000000000000000
 10
66.07592837064968
 20
312.3854460824273
 30
0.0000000000000000
340
9D
213
0.0000000000000000
223
-0.5000000000000000
233
0.0000000000000000
1001
ACAD
1000
DSTYLE
1002
{
1070
   147
1040
0.0
1070
    77
1070
     1
1070
   173
1070
     1
1070
     6
1000
_OPEN
1070
     7
1000
_OPEN
1002
}
  0
MTEXT
  5
9D
102
{ACAD_REACTORS
330
9C
102
}
100
AcDbEntity
  8
MAIN0
  6
CONTINUOUS
 62
3
100
AcDbMText
 10
47.64692788665997
 20
315.9854459870599
 30
0.0000000000000000
 40
3.099999904632568
 41
0.0000000000000000
 71
     1
 72
     1
  1
{\H0.93x;{2-M6\P ネジ深12}}
 11
1.000000000000000
 21
0.0000000000000000
 31
0.0000000000000000
  7
KNJYOKO
  0
LEADER
  5
9E
100
AcDbEntity
  8
MAIN0
  6
CONTINUOUS
 62
3
100
AcDbLeader
  3
MAIN001
 73
     0
 75
     1
 40
3.099999904632568
 41
19.14900057220459
 76
     3
 10
90.96830115787128
 20
244.3065782848287
 30
0.0000000000000000
 10
74.73436290906668
 20
200.1587193479157
 30
0.0000000000000000
 10
72.80736296485662
 20
200.1587193479157
 30
0.0000000000000000
340
9F
213
0.0000000000000000
223
-0.5000000000000000
233
0.0000000000000000
1001
ACAD
1000
DSTYLE
1002
{
1070
   147
1040
0.0
1070
    77
1070
     1
1070
   173
1070
     1
1070
     6
1000
_OPEN
1070
     7
1000
_OPEN
1002
}
  0
MTEXT
  5
9F
102
{ACAD_REACTORS
330
9E
102
}
100
AcDbEntity
  8
MAIN0
  6
CONTINUOUS
 62
3
100
AcDbMText
 10
53.65836239265204
 20
203.7587192525483
 30
0.0000000000000000
 40
3.099999904632568
 41
0.0000000000000000
 71
     1
 72
     1
  1
{\H0.92x;{3-Rc1/4}}
 11
1.000000000000000
 21
0.0000000000000000
 31
0.0000000000000000
  7
STANDARD
  0
LEADER
  5
A0
100
AcDbEntity
  8
MAIN0
  6
CONTINUOUS
 62
3
100
AcDbLeader
  3
MAIN001
 73
     0
 75
     1
 40
3.099999904632568
 41
18.42900048398971
 76
     3
 10
115.7724816529252
 20
196.9270683315365
 30
0.0000000000000000
 10
102.8645821435937
 20
163.0700213518036
 30
0.0000000000000000
 10
100.9375821993837
 20
163.0700213518036
 30
0.0000000000000000
340
A1
213
0.0000000000000000
223
-0.5000000000000000
233
0.0000000000000000
1001
ACAD
1000
DSTYLE
1002
{
1070
   147
1040
0.0
1070
    77
1070
     1
1070
   173
1070
     1
1070
     6
1000
_OPEN
1070
     7
1000
_OPEN
1002
}
  0
MTEXT
  5
A1
102
{ACAD_REACTORS
330
A0
102
}
100
AcDbEntity
  8
MAIN0
  6
CONTINUOUS
 62
3
100
AcDbMText
 10
82.50858171539394
 20
166.6700212564361
 30
0.0000000000000000
 40
3.099999904632568
 41
0.0000000000000000
 71
     1
 72
     1
  1
{\H0.93x;{2-M6\P ネジ深12}}
 11
1.000000000000000
 21
0.0000000000000000
 31
0.0000000000000000
  7
KNJYOKO
  0
LEADER
  5
A2
100
AcDbEntity
  8
MAIN0
  6
CONTINUOUS
 62
3
100
AcDbLeader
  3
MAIN001
 73
     0
 74
     0
 75
     1
 40
3.099999904632568
 41
23.02314361243271
 76
     3
 10
187.3029835522382
 20
181.8772281510892
 30
0.0000000000000000
 10
172.0688661454867
 20
138.9690237789745
 30
0.0000000000000000
 10
173.9938660896968
 20
138.9690237789745
 30
0.0000000000000000
340
A3
213
0.2668569454667704
223
-0.5000000000000000
233
0.0000000000000000
1001
ACAD
1000
DSTYLE
1002
{
1070
   147
1040
0.0
1070
    77
1070
     1
1070
   173
1070
     1
1070
     6
1000
_OPEN
1070
     7
1000
_OPEN
1002
}
  0
MTEXT
  5
A3
102
{ACAD_REACTORS
330
A2
102
}
100
AcDbEntity
  8
MAIN0
  6
CONTINUOUS
 62
3
100
AcDbMText
 10
173.7270091442300
 20
142.5690236836071
 30
0.0000000000000000
 40
3.099999904632568
 41
0.0000000000000000
 71
     1
 72
     1
  1
{\H0.93x;{ M6\P ネジ深12\P マワリドメ用}}
 11
1.000000000000000
 21
0.0000000000000000
 31
0.0000000000000000
  7
KNJYOKO
  0
LEADER
  5
A4
100
AcDbEntity
  8
MAIN0
  6
CONTINUOUS
 62
3
100
AcDbLeader
  3
MAIN001
 73
     0
 74
     0
 75
     1
 40
3.099999904632568
 41
15.29524288542206
 76
     3
 10
214.9944138488212
 20
194.4314468506530
 30
0.0000000000000000
 10
207.5956903142885
 20
138.9690237789745
 30
0.0000000000000000
 10
209.5206902584985
 20
138.9690237789745
 30
0.0000000000000000
340
A5
213
1.064757605720217
223
-0.5000000000000000
233
0.0000000000000000
1001
ACAD
1000
DSTYLE
1002
{
1070
   147
1040
0.0
1070
    77
1070
     1
1070
   173
1070
     1
1070
     6
1000
_OPEN
1070
     7
1000
_OPEN
1002
}
  0
MTEXT
  5
A5
102
{ACAD_REACTORS
330
A4
102
}
100
AcDbEntity
  8
MAIN0
  6
CONTINUOUS
 62
3
100
AcDbMText
 10
208.4559326527783
 20
142.5690236836071
 30
0.0000000000000000
 40
3.099999904632568
 41
0.0000000000000000
 71
     1
 72
     1
  1
{\H0.92x;{ Rc1/8}}
 11
1.000000000000000
 21
0.0000000000000000
 31
0.0000000000000000
  7
STANDARD
  0
INSERT
  5
AC
100
AcDbEntity
  8
MAIN0
  6
CONTINUOUS
 62
2
100
AcDbBlockReference
  2
M0
 10
0.0000000000000000
 20
0.0000000000000000
 30
0.0000000000000000
 50
0.0000000000000000
  0
INSERT
  5
B3
100
AcDbEntity
  8
MAIN0
  6
CONTINUOUS
 62
2
100
AcDbBlockReference
  2
M1
 10
0.0000000000000000
 20
0.0000000000000000
 30
0.0000000000000000
 50
0.0000000000000000
  0
MTEXT
  5
B4
100
AcDbEntity
  8
MAIN0
  6
CONTINUOUS
 62
3
100
AcDbMText
 10
503.7116615748894
 20
288.3784115468822
 30
0.0000000000000000
 40
5.000000000000000
 41
0.0000000000000000
 71
     1
 72
     1
  1
{\H0.84x;{Ｐ}}
 11
1.000000000000000
 21
0.0000000000000000
 31
0.0000000000000000
  7
KNJYOKO
  0
MTEXT
  5
B5
100
AcDbEntity
  8
MAIN0
  6
CONTINUOUS
 62
3
100
AcDbMText
 10
503.7116615748894
 20
200.6474580709505
 30
0.0000000000000000
 40
5.000000000000000
 41
0.0000000000000000
 71
     1
 72
     1
  1
{\H0.84x;{Ｐ}}
 11
1.000000000000000
 21
0.0000000000000000
 31
0.0000000000000000
  7
KNJYOKO
  0
LINE
  5
B6
100
AcDbEntity
  8
MAIN0
  6
CENTER
 62
3
100
AcDbLine
 10
399.4078363952621
 20
347.9936321646852
 30
0.0000000000000000
 11
399.4078363952621
 21
325.1009047185154
 31
0.0000000000000000
  0
LINE
  5
B7
100
AcDbEntity
  8
MAIN0
  6
CENTER
 62
3
100
AcDbLine
 10
351.4078363952621
 20
347.9936321646852
 30
0.0000000000000000
 11
351.4078363952621
 21
325.1009047185152
 31
0.0000000000000000
  0
DIMENSION
  5
BF
100
AcDbEntity
  8
MAIN0
  6
CONTINUOUS
 62
3
100
AcDbDimension
  2
*D3
 10
165.4078363952663
 20
157.1336638910370
 30
0.0000000000000000
 11
129.7526852947692
 21
164.7259144057147
 31
0.0000000000000000
 70
162
  3
MAIN001
100
AcDb2LineAngularDimension
 13
108.2310520040691
 23
193.6282793697991
 33
0.0000000000000000
 14
108.9381587852556
 24
194.3353861509856
 34
0.0000000000000000
 15
165.4078363952623
 25
250.8050637609972
 35
0.0000000000000000
 16
129.5613435785867
 26
164.2639746394590
 36
0.0000000000000000
1001
ACAD
1000
DSTYLE
1002
{
1070
   173
1070
     1
1070
     6
1000
_OPEN
1070
     7
1000
_OPEN
1070
    41
1040
2.000000
1002
}
  0
DIMENSION
  5
C7
100
AcDbEntity
  8
MAIN0
  6
CONTINUOUS
 62
3
100
AcDbDimension
  2
*D4
 10
242.3312471788355
 20
222.8072319175484
 30
0.0000000000000000
 11
218.8487559025156
 21
174.4835210882544
 31
0.0000000000000000
 70
162
  3
MAIN001
100
AcDb2LineAngularDimension
 13
165.4078363952663
 23
157.1336638910370
 33
0.0000000000000000
 14
165.4078363952623
 24
250.8050637609972
 34
0.0000000000000000
 15
241.3915545580496
 25
223.1492520608741
 35
0.0000000000000000
 16
219.1355441206911
 26
174.0739450661100
 36
0.0000000000000000
1001
ACAD
1000
DSTYLE
1002
{
1070
   173
1070
     1
1070
     6
1000
_OPEN
1070
     7
1000
_OPEN
1070
    41
1040
2.000000
1002
}
  0
DIMENSION
  5
CF
100
AcDbEntity
  8
MAIN0
  6
CONTINUOUS
 62
3
100
AcDbDimension
  2
*D5
 10
193.0636480953918
 20
174.8213455982123
 30
0.0000000000000000
 11
183.3233619700313
 21
149.2010692799385
 31
0.0000000000000000
 70
162
  3
MAIN001
100
AcDb2LineAngularDimension
 13
165.4078363952667
 23
147.1336638910370
 33
0.0000000000000000
 14
165.4078363952623
 24
250.8050637609971
 34
0.0000000000000000
 15
192.7216279520661
 25
175.7610382189982
 35
0.0000000000000000
 16
183.4101860588648
 26
148.7086654034324
 36
0.0000000000000000
1001
ACAD
1000
DSTYLE
1002
{
1070
   173
1070
     1
1070
     6
1000
_OPEN
1070
     7
1000
_OPEN
1070
    41
1040
2.000000
1002
}
  0
DIMENSION
  5
D8
100
AcDbEntity
  8
MAIN0
  6
CONTINUOUS
 62
3
100
AcDbDimension
  2
*D6
 10
230.6190785871211
 20
185.5938215691496
 30
0.0000000000000000
 11
220.8417891379910
 21
163.7911876581356
 31
0.0000000000000000
 70
162
  3
MAIN001
100
AcDb2LineAngularDimension
 13
193.0636480953918
 23
174.8213455982123
 33
0.0000000000000000
 14
192.7216279520661
 24
175.7610382189982
 34
0.0000000000000000
 15
229.9119718059345
 25
186.3009283503361
 35
0.0000000000000000
 16
221.1104389421644
 26
163.3694919352292
 36
0.0000000000000000
1001
ACAD
1000
DSTYLE
1002
{
1070
   173
1070
     1
1070
     6
1000
_OPEN
1070
     7
1000
_OPEN
1070
    41
1040
2.000000
1002
}
  0
DIMENSION
  5
E1
100
AcDbEntity
  8
MAIN0
  6
CONTINUOUS
 62
3
100
AcDbDimension
  2
*D7
 10
260.6230645977539
 20
250.8050637609971
 30
0.0000000000000000
 11
260.7257810756578
 21
211.3230783368538
 31
0.0000000000000000
 70
162
  3
MAIN001
100
AcDb2LineAngularDimension
 13
230.6190785871211
 23
185.5938215691496
 33
0.0000000000000000
 14
229.9119718059345
 24
186.3009283503361
 34
0.0000000000000000
 15
259.6230645977539
 25
250.8050637609971
 35
0.0000000000000000
 16
261.1877208419134
 26
211.1317366206712
 36
0.0000000000000000
1001
ACAD
1000
DSTYLE
1002
{
1070
   173
1070
     1
1070
     6
1000
_OPEN
1070
     7
1000
_OPEN
1070
    41
1040
2.000000
1002
}
  0
DIMENSION
  5
E9
100
AcDbEntity
  8
MAIN0
  6
CONTINUOUS
 62
3
100
AcDbDimension
  2
*D8
 10
210.5674572951276
 20
342.6501593020135
 30
0.0000000000000000
 11
253.6302445378360
 21
305.5235754869043
 31
0.0000000000000000
 70
162
  3
MAIN001
100
AcDb2LineAngularDimension
 13
260.6230645977539
 23
250.8050637609971
 33
0.0000000000000000
 14
259.6230645977539
 24
250.8050637609971
 34
0.0000000000000000
 15
215.1817530767181
 25
352.5455485388686
 35
0.0000000000000000
 16
253.2085488149293
 26
305.2549256827313
 36
0.0000000000000000
1001
ACAD
1000
DSTYLE
1002
{
1070
   173
1070
     1
1070
     6
1000
_OPEN
1070
     7
1000
_OPEN
1070
    41
1040
2.000000
1002
}
  0
DIMENSION
  5
F0
100
AcDbEntity
  8
MAIN0
  6
CONTINUOUS
 62
3
100
AcDbDimension
  2
*D9
 10
165.4078363952579
 20
352.6618062225323
 30
0.0000000000000000
 11
188.6440934832046
 21
350.6170221945420
 31
0.0000000000000000
 70
162
  3
MAIN001
100
AcDb2LineAngularDimension
 13
210.5674572951276
 23
342.6501593020135
 33
0.0000000000000000
 14
198.4974135591397
 24
316.7658669794492
 34
0.0000000000000000
 15
165.4078363952626
 25
245.8050397550942
 35
0.0000000000000000
 16
188.5358736762352
 26
350.1288741909821
 36
0.0000000000000000
1001
ACAD
1000
DSTYLE
1002
{
1070
   173
1070
     1
1070
     6
1000
_OPEN
1070
     7
1000
_OPEN
1070
    41
1040
2.000000
1002
}
  0
LEADER
  5
F1
100
AcDbEntity
  8
MAIN0
  6
CONTINUOUS
 62
3
100
AcDbLeader
  3
MAIN001
 73
     0
 75
     1
 40
3.099999904632568
 41
17.01900039815902
 76
     3
 10
149.8253751822257
 20
330.1224251983087
 30
0.0000000000000000
 10
133.8847603027522
 20
336.3215469509638
 30
0.0000000000000000
 10
131.9577603585422
 20
336.3215469509638
 30
0.0000000000000000
340
F2
213
0.0000000000000000
223
-0.5000000000000000
233
0.0000000000000000
1001
ACAD
1000
DSTYLE
1002
{
1070
   147
1040
0.0
1070
    77
1070
     1
1070
   173
1070
     1
1070
     6
1000
_DOT
1070
     7
1000
_DOT
1002
}
  0
MTEXT
  5
F2
102
{ACAD_REACTORS
330
F1
102
}
100
AcDbEntity
  8
MAIN0
  6
CONTINUOUS
 62
3
100
AcDbMText
 10
114.9387599603832
 20
339.9215468555963
 30
0.0000000000000000
 40
3.099999904632568
 41
0.0000000000000000
 71
     1
 72
     1
  1
{\H0.93x;{ブラケット}}
 11
1.000000000000000
 21
0.0000000000000000
 31
0.0000000000000000
  7
KNJYOKO
  0
LEADER
  5
F3
100
AcDbEntity
  8
MAIN0
  6
CONTINUOUS
 62
3
100
AcDbLeader
  3
MAIN001
 73
     0
 75
     1
 40
3.099999904632568
 41
34.41900079154969
 76
     3
 10
103.4731860252951
 20
217.9654645902055
 30
0.0000000000000000
 10
76.15270917090523
 20
177.7103220664959
 30
0.0000000000000000
 10
74.22570922669517
 20
177.7103220664959
 30
0.0000000000000000
340
F4
213
0.0000000000000000
223
-0.5000000000000000
233
0.0000000000000000
1001
ACAD
1000
DSTYLE
1002
{
1070
   147
1040
0.0
1070
    77
1070
     1
1070
   173
1070
     1
1070
     6
1000
_OPEN
1070
     7
1000
_OPEN
1002
}
  0
MTEXT
  5
F4
102
{ACAD_REACTORS
330
F3
102
}
100
AcDbEntity
  8
MAIN0
  6
CONTINUOUS
 62
3
100
AcDbMText
 10
39.80670843514548
 20
181.3103219711285
 30
0.0000000000000000
 40
3.099999904632568
 41
0.0000000000000000
 71
     1
 72
     1
  1
{\H0.94x;{取付ボルト締めつけ用\P  (2-\U+220514)}}
 11
1.000000000000000
 21
0.0000000000000000
 31
0.0000000000000000
  7
KNJYOKO
  0
DIMENSION
  5
FD
100
AcDbEntity
  8
MAIN0
  6
CONTINUOUS
 62
3
100
AcDbDimension
  2
*D10
 10
325.4078363952652
 20
154.0683379740970
 30
0.0000000000000000
 11
387.9078363952634
 21
154.5683379740970
 31
0.0000000000000000
 70
32
  3
MAIN001
100
AcDbAlignedDimension
 13
450.4078363952615
 23
179.3050637609971
 33
0.0000000000000000
 14
325.4078363952652
 24
171.6269943719562
 34
0.0000000000000000
100
AcDbRotatedDimension
1001
ACAD
1000
DSTYLE
1002
{
1070
   173
1070
     1
1070
     6
1000
_OPEN
1070
     7
1000
_OPEN
1070
    41
1040
2.000000
1002
}
  0
LEADER
  5
FE
100
AcDbEntity
  8
MAIN0
  6
CONTINUOUS
 62
3
100
AcDbLeader
  3
MAIN001
 73
     0
 74
     0
 75
     1
 40
3.099999904632568
 41
27.46100063419340
 76
     3
 10
506.1578363952615
 20
262.3050637609971
 30
0.0000000000000000
 10
522.3274581457023
 20
292.0146546797766
 30
0.0000000000000000
 10
524.2524580899124
 20
292.0146546797766
 30
0.0000000000000000
340
FF
213
-0.001000000000090040
223
-0.5000000000000000
233
0.0000000000000000
1001
ACAD
1000
DSTYLE
1002
{
1070
   147
1040
0.0
1070
    77
1070
     1
1070
   173
1070
     1
1070
     6
1000
_DOT
1070
     7
1000
_DOT
1002
}
  0
MTEXT
  5
FF
102
{ACAD_REACTORS
330
FE
102
}
100
AcDbEntity
  8
MAIN0
  6
CONTINUOUS
 62
3
100
AcDbMText
 10
524.2534580899124
 20
295.6146545844092
 30
0.0000000000000000
 40
3.099999904632568
 41
0.0000000000000000
 71
     1
 72
     1
  1
{\H0.93x;{Ｏリング　Ｓ２２}}
 11
1.000000000000000
 21
0.0000000000000000
 31
0.0000000000000000
  7
KNJYOKO
  0
INSERT
  5
107
100
AcDbEntity
  8
MAIN0
  6
CONTINUOUS
 62
3
100
AcDbBlockReference
  2
D11
 10
518.6058340719844
 20
250.8050637609971
 30
0.0000000000000000
 50
0.0000000000000000
  0
MTEXT
  5
108
100
AcDbEntity
  8
MAIN0
  6
CONTINUOUS
 62
3
100
AcDbMText
 10
526.4070771569726
 20
211.8892133109365
 30
0.0000000000000000
 40
5.000000000000000
 41
0.0000000000000000
 71
     1
 72
     1
  1
{\H0.84x;{※}}
 11
1.000000000000000
 21
0.0000000000000000
 31
0.0000000000000000
  7
KNJYOKO
  0
LINE
  5
109
100
AcDbEntity
  8
MAIN0
  6
CONTINUOUS
 62
3
100
AcDbLine
 10
260.0797944141495
 20
66.53581791495338
 30
0.0000000000000000
 11
382.3727258296851
 21
66.53581791495338
 31
0.0000000000000000
  0
MTEXT
  5
10A
100
AcDbEntity
  8
MAIN0
  6
CONTINUOUS
 62
3
100
AcDbMText
 10
261.0797944141495
 20
70.13581781958595
 30
0.0000000000000000
 40
3.099999904632568
 41
0.0000000000000000
 71
     1
 72
     1
  1
{\H0.67x;{5.}}
 11
1.000000000000000
 21
0.0000000000000000
 31
0.0000000000000000
  7
STANDARD
  0
MTEXT
  5
10B
100
AcDbEntity
  8
MAIN0
  6
CONTINUOUS
 62
3
100
AcDbMText
 10
270.0797944141495
 20
70.13581781958595
 30
0.0000000000000000
 40
3.099999904632568
 41
0.0000000000000000
 71
     1
 72
     1
  1
{\H0.94x;{シリンダアダプタ内径寸法(※印)を MAX \U+220595 に設計して下さい}}
 11
1.000000000000000
 21
0.0000000000000000
 31
0.0000000000000000
  7
KNJYOKO
  0
CIRCLE
  5
10C
100
AcDbEntity
  8
MAIN0
  6
CONTINUOUS
 62
3
100
AcDbCircle
 10
165.4078363952622
 20
250.8050637609971
 30
0.0000000000000000
 40
19.50000000000000
  0
LINE
  5
10D
100
AcDbEntity
  8
MAIN0
  6
HIDDEN
 62
3
100
AcDbLine
 10
180.3277894782992
 20
241.6833862836921
 30
0.0000000000000000
 11
174.5295138725700
 21
235.8851106779619
 31
0.0000000000000000
  0
LINE
  5
10E
100
AcDbEntity
  8
MAIN0
  6
HIDDEN
 62
3
100
AcDbLine
 10
176.2619254864769
 20
237.6175222918691
 30
0.0000000000000000
 11
171.5734870378654
 21
242.3059607404798
 31
0.0000000000000000
  0
LINE
  5
10F
100
AcDbEntity
  8
MAIN0
  6
HIDDEN
 62
3
100
AcDbLine
 10
178.5953778643923
 20
239.9509746697849
 30
0.0000000000000000
 11
173.9069394157808
 21
244.6394131183957
 31
0.0000000000000000
  0
LEADER
  5
110
100
AcDbEntity
  8
MAIN0
  6
CONTINUOUS
 62
3
100
AcDbLeader
  3
MAIN001
 73
     0
 74
     0
 75
     1
 40
3.099999904632568
 41
13.54100031948087
 76
     3
 10
183.5350322561874
 20
257.9921890708591
 30
0.0000000000000000
 10
268.5808755165343
 20
291.7114216142979
 30
0.0000000000000000
 10
270.5058754607443
 20
291.7114216142979
 30
0.0000000000000000
340
111
213
0.0000000000000000
223
-0.5000000000000000
233
0.0000000000000000
1001
ACAD
1000
DSTYLE
1002
{
1070
   147
1040
0.0
1070
    77
1070
     1
1070
   173
1070
     1
1070
     6
1000
_OPEN
1070
     7
1000
_OPEN
1002
}
  0
MTEXT
  5
111
102
{ACAD_REACTORS
330
110
102
}
100
AcDbEntity
  8
MAIN0
  6
CONTINUOUS
 62
3
100
AcDbMText
 10
270.5068754607443
 20
295.3114215189305
 30
0.0000000000000000
 40
3.099999904632568
 41
0.0000000000000000
 71
     1
 72
     1
  1
{\H0.92x;{メイバン}}
 11
1.000000000000000
 21
0.0000000000000000
 31
0.0000000000000000
  7
KNJYOKO
  0
DIMENSION
  5
11A
100
AcDbEntity
  8
MAIN0
  6
CONTINUOUS
 62
3
100
AcDbDimension
  2
*D12
 10
510.4078363952615
 20
144.0683379740970
 30
0.0000000000000000
 11
480.4078363952615
 21
144.5683379740970
 31
0.0000000000000000
 70
32
  1
\A1;MAX 60
  3
MAIN001
100
AcDbAlignedDimension
 13
450.4078363952615
 23
179.3050637609971
 33
0.0000000000000000
 14
510.4078363952615
 24
237.3050637609971
 34
0.0000000000000000
100
AcDbRotatedDimension
1001
ACAD
1000
DSTYLE
1002
{
1070
   173
1070
     1
1070
     6
1000
_OPEN
1070
     7
1000
_OPEN
1070
    41
1040
2.000000
1002
}
  0
DIMENSION
  5
123
100
AcDbEntity
  8
MAIN0
  6
CONTINUOUS
 62
3
100
AcDbDimension
  2
*D13
 10
68.07297436689782
 20
263.8050637609937
 30
0.0000000000000000
 11
67.57297436689782
 21
247.6300636745669
 31
0.0000000000000000
 70
32
  3
MAIN001
100
AcDbAlignedDimension
 13
87.68085944473407
 23
237.8050637609937
 33
0.0000000000000000
 14
87.85774090219459
 24
263.8050637609937
 34
0.0000000000000000
 50
90.00000000000000
100
AcDbRotatedDimension
1001
ACAD
1000
DSTYLE
1002
{
1070
   173
1070
     1
1070
     6
1000
_OPEN
1070
     7
1000
_OPEN
1070
    41
1040
2.000000
1070
   272
1070
     1
1070
    47
1040
0.200000
1070
    48
1040
0.200000
1070
    71
1070
     1
1002
}
  0
DIMENSION
  5
12B
100
AcDbEntity
  8
MAIN0
  6
CONTINUOUS
 62
3
100
AcDbDimension
  2
*D14
 10
94.40783639526234
 20
225.6467676323897
 30
0.0000000000000000
 11
126.7328363088329
 21
226.1467676323897
 31
0.0000000000000000
 70
32
  3
MAIN001
100
AcDbAlignedDimension
 13
165.4078363952570
 23
373.9269499326944
 33
0.0000000000000000
 14
94.40783639526234
 24
231.0783969760100
 34
0.0000000000000000
100
AcDbRotatedDimension
1001
ACAD
1000
DSTYLE
1002
{
1070
   173
1070
     1
1070
     6
1000
_OPEN
1070
     7
1000
_OPEN
1070
    41
1040
2.000000
1070
   272
1070
     1
1070
    47
1040
0.100000
1070
    48
1040
0.100000
1070
    71
1070
     1
1002
}
  0
MTEXT
  5
12C
100
AcDbEntity
  8
MAIN0
  6
CONTINUOUS
 62
3
100
AcDbMText
 10
122.6795476442595
 20
384.7591960613659
 30
0.0000000000000000
 40
3.000000000000000
 41
0.0000000000000000
 71
     1
 72
     1
  1
{\H0.63x;{Detectable plate}}
 11
1.000000000000000
 21
0.0000000000000000
 31
0.0000000000000000
  7
STANDARD
  0
MTEXT
  5
12D
100
AcDbEntity
  8
MAIN0
  6
CONTINUOUS
 62
3
100
AcDbMText
 10
116.7239830146103
 20
360.2988297956211
 30
0.0000000000000000
 40
3.000000000000000
 41
0.0000000000000000
 71
     1
 72
     1
  1
{\H0.63x;{Confirmation chuck open}}
 11
1.000000000000000
 21
0.0000000000000000
 31
0.0000000000000000
  7
STANDARD
  0
MTEXT
  5
12E
100
AcDbEntity
  8
MAIN0
  6
CONTINUOUS
 62
3
100
AcDbMText
 10
193.2955317140056
 20
363.7020118913578
 30
0.0000000000000000
 40
3.000000000000000
 41
0.0000000000000000
 71
     1
 72
     1
  1
{\H0.63x;{Confirmation chuck close}}
 11
1.000000000000000
 21
0.0000000000000000
 31
0.0000000000000000
  7
STANDARD
  0
MTEXT
  5
12F
100
AcDbEntity
  8
MAIN0
  6
CONTINUOUS
 62
3
100
AcDbMText
 10
115.8731915285661
 20
335.4130799005241
 30
0.0000000000000000
 40
3.000000000000000
 41
0.0000000000000000
 71
     1
 72
     1
  1
{\H0.63x;{Bracket}}
 11
1.000000000000000
 21
0.0000000000000000
 31
0.0000000000000000
  7
STANDARD
  0
MTEXT
  5
130
100
AcDbEntity
  8
MAIN0
  6
CONTINUOUS
 62
3
100
AcDbMText
 10
72.90804381617545
 20
322.9638508744902
 30
0.0000000000000000
 40
3.099999904632568
 41
0.0000000000000000
 71
     1
 72
     1
  1
{\H0.92x;{See Q}}
 11
1.000000000000000
 21
0.0000000000000000
 31
0.0000000000000000
  7
STANDARD
  0
MTEXT
  5
131
100
AcDbEntity
  8
MAIN0
  6
CONTINUOUS
 62
3
100
AcDbMText
 10
42.06672550590741
 20
307.5495476906025
 30
0.0000000000000000
 40
3.000000000000000
 41
0.0000000000000000
 71
     1
 72
     1
  1
{\H0.63x;{Thread depth 12}}
 11
1.000000000000000
 21
0.0000000000000000
 31
0.0000000000000000
  7
STANDARD
  0
MTEXT
  5
132
100
AcDbEntity
  8
MAIN0
  6
CONTINUOUS
 62
3
100
AcDbMText
 10
269.6168166301420
 20
290.8360387559199
 30
0.0000000000000000
 40
3.000000000000000
 41
0.0000000000000000
 71
     1
 72
     1
  1
{\H0.63x;{Name plate}}
 11
1.000000000000000
 21
0.0000000000000000
 31
0.0000000000000000
  7
STANDARD
  0
MTEXT
  5
133
100
AcDbEntity
  8
MAIN0
  6
CONTINUOUS
 62
3
100
AcDbMText
 10
173.2416592699803
 20
129.8920437679003
 30
0.0000000000000000
 40
3.000000000000000
 41
0.0000000000000000
 71
     1
 72
     1
  1
{\H0.63x;{Thread depth 12\PFor preventing the rotation}}
 11
1.000000000000000
 21
0.0000000000000000
 31
0.0000000000000000
  7
STANDARD
  0
MTEXT
  5
134
100
AcDbEntity
  8
MAIN0
  6
CONTINUOUS
 62
3
100
AcDbMText
 10
84.00963522420744
 20
158.2207885645967
 30
0.0000000000000000
 40
3.000000000000000
 41
0.0000000000000000
 71
     1
 72
     1
  1
{\H0.63x;{Thread depth 12}}
 11
1.000000000000000
 21
0.0000000000000000
 31
0.0000000000000000
  7
STANDARD
  0
MTEXT
  5
135
100
AcDbEntity
  8
MAIN0
  6
CONTINUOUS
 62
3
100
AcDbMText
 10
40.89416290758373
 20
172.0101575747056
 30
0.0000000000000000
 40
3.000000000000000
 41
0.0000000000000000
 71
     1
 72
     1
  1
{\H0.63x;{For tightening the\Pmounting bolts}}
 11
1.000000000000000
 21
0.0000000000000000
 31
0.0000000000000000
  7
STANDARD
  0
MTEXT
  5
136
100
AcDbEntity
  8
MAIN0
  6
CONTINUOUS
 62
3
100
AcDbMText
 10
533.5592660905521
 20
103.4407180320239
 30
0.0000000000000000
 40
3.000000000000000
 41
0.0000000000000000
 71
     1
 72
     1
  1
{\H0.63x;{Section P-P}}
 11
1.000000000000000
 21
0.0000000000000000
 31
0.0000000000000000
  7
STANDARD
  0
MTEXT
  5
137
100
AcDbEntity
  8
MAIN0
  6
CONTINUOUS
 62
3
100
AcDbMText
 10
525.2184745740686
 20
290.8974457349634
 30
0.0000000000000000
 40
3.000000000000000
 41
0.0000000000000000
 71
     1
 72
     1
  1
{\H0.63x;{O-ring}}
 11
1.000000000000000
 21
0.0000000000000000
 31
0.0000000000000000
  7
STANDARD
  0
LINE
  5
138
100
AcDbEntity
  8
MAIN0
  6
CONTINUOUS
 62
3
100
AcDbLine
 10
260.0797944141495
 20
24.53581791495355
 30
0.0000000000000000
 11
390.3218355844571
 21
24.53581791495355
 31
0.0000000000000000
  0
LINE
  5
139
100
AcDbEntity
  8
MAIN0
  6
CONTINUOUS
 62
3
100
AcDbLine
 10
260.0797944141495
 20
29.53581791495355
 30
0.0000000000000000
 11
390.3218355844571
 21
29.53581791495355
 31
0.0000000000000000
  0
MTEXT
  5
13A
100
AcDbEntity
  8
MAIN0
  6
CONTINUOUS
 62
3
100
AcDbMText
 10
261.0797944141495
 20
33.13581781958612
 30
0.0000000000000000
 40
3.099999904632568
 41
0.0000000000000000
 71
     1
 72
     1
  1
{\H0.88x;{4.}}
 11
1.000000000000000
 21
0.0000000000000000
 31
0.0000000000000000
  7
STANDARD
  0
MTEXT
  5
13B
100
AcDbEntity
  8
MAIN0
  6
CONTINUOUS
 62
3
100
AcDbMText
 10
270.0797944141495
 20
33.03581791495355
 30
0.0000000000000000
 40
3.000000000000000
 41
0.0000000000000000
 71
     1
 72
     1
  1
{\H0.62x;{When changing of bracket set position, ring also should be set after}}
 11
1.000000000000000
 21
0.0000000000000000
 31
0.0000000000000000
  7
STANDARD
  0
MTEXT
  5
13C
100
AcDbEntity
  8
MAIN0
  6
CONTINUOUS
 62
3
100
AcDbMText
 10
270.0797944141495
 20
28.03581791495355
 30
0.0000000000000000
 40
3.000000000000000
 41
0.0000000000000000
 71
     1
 72
     1
  1
{\H0.62x;{rotating with 90 degree CCW.}}
 11
1.000000000000000
 21
0.0000000000000000
 31
0.0000000000000000
  7
STANDARD
  0
ARC
  5
13D
100
AcDbEntity
  8
MAIN0
  6
CONTINUOUS
 62
3
100
AcDbCircle
 10
165.4078363952622
 20
250.8050637609971
 30
0.0000000000000000
 40
78.00000000000000
100
AcDbArc
 50
104.8571578346805
 51
435.1428267448005
  0
ARC
  5
13E
100
AcDbEntity
  8
MAIN0
  6
CONTINUOUS
 62
3
100
AcDbCircle
 10
165.4078363952622
 20
250.8050637609971
 30
0.0000000000000000
 40
79.59999999999934
100
AcDbArc
 50
110.0000000002578
 51
414.9999999997052
  0
LINE
  5
13F
100
AcDbEntity
  8
MAIN0
  6
CONTINUOUS
 62
3
100
AcDbLine
 10
138.7302652155250
 20
324.1010881821750
 30
0.0000000000000000
 11
138.1830329862026
 21
325.6045963754323
 31
0.0000000000000000
  0
LINE
  5
140
100
AcDbEntity
  8
MAIN0
  6
CENTER
 62
3
100
AcDbLine
 10
450.4078363952615
 20
203.3050637609971
 30
0.0000000000000000
 11
513.4383652021558
 21
203.3050637609971
 31
0.0000000000000000
  0
LINE
  5
141
100
AcDbEntity
  8
MAIN0
  6
CENTER
 62
3
100
AcDbLine
 10
450.4078363952615
 20
298.3050637609971
 30
0.0000000000000000
 11
513.4383652021558
 21
298.3050637609971
 31
0.0000000000000000
  0
LINE
  5
142
100
AcDbEntity
  8
MAIN0
  6
PHANTOM
 62
3
100
AcDbLine
 10
76.90786205253011
 20
272.2102426829662
 30
0.0000000000000000
 11
93.86124705612161
 21
308.5668941490696
 31
0.0000000000000000
  0
LINE
  5
143
100
AcDbEntity
  8
MAIN0
  6
PHANTOM
 62
3
100
AcDbLine
 10
79.84863236824134
 20
270.9448999105501
 30
0.0000000000000000
 11
96.76143197463750
 21
307.2145157114970
 31
0.0000000000000000
  0
LINE
  5
144
100
AcDbEntity
  8
MAIN0
  6
PHANTOM
 62
3
100
AcDbLine
 10
93.86124705612164
 20
308.5668941490696
 30
0.0000000000000000
 11
96.76143197463756
 21
307.2145157114969
 31
0.0000000000000000
  0
LINE
  5
145
100
AcDbEntity
  8
MAIN0
  6
PHANTOM
 62
3
100
AcDbLine
 10
76.90786205253014
 20
270.8050637609968
 30
0.0000000000000000
 11
99.40783639526205
 21
270.8050637609977
 31
0.0000000000000000
  0
LINE
  5
146
100
AcDbEntity
  8
MAIN0
  6
PHANTOM
 62
3
100
AcDbLine
 10
100.4078363952621
 20
231.8050637609977
 30
0.0000000000000000
 11
100.4078363952621
 21
269.8050637609977
 31
0.0000000000000000
  0
LINE
  5
147
100
AcDbEntity
  8
MAIN0
  6
PHANTOM
 62
3
100
AcDbLine
 10
76.90786205253178
 20
230.8050637609967
 30
0.0000000000000000
 11
99.40783639526202
 21
230.8050637609977
 31
0.0000000000000000
  0
LINE
  5
148
100
AcDbEntity
  8
MAIN0
  6
PHANTOM
 62
3
100
AcDbLine
 10
76.90786205253178
 20
230.8050739064317
 30
0.0000000000000000
 11
76.90786205253008
 21
272.2102426829662
 31
0.0000000000000000
  0
CIRCLE
  5
149
100
AcDbEntity
  8
MAIN0
  6
PHANTOM
 62
3
100
AcDbCircle
 10
94.40783639526211
 20
237.8050637609971
 30
0.0000000000000000
 40
3.300000000000000
  0
CIRCLE
  5
14A
100
AcDbEntity
  8
MAIN0
  6
PHANTOM
 62
3
100
AcDbCircle
 10
94.40783639526211
 20
263.8050637609971
 30
0.0000000000000000
 40
3.300000000000000
  0
LINE
  5
14B
100
AcDbEntity
  8
MAIN0
  6
PHANTOM
 62
3
100
AcDbLine
 10
99.40783639526205
 20
270.8050637609977
 30
0.0000000000000000
 11
100.4078363952621
 21
269.8050637609977
 31
0.0000000000000000
  0
LINE
  5
14C
100
AcDbEntity
  8
MAIN0
  6
PHANTOM
 62
3
100
AcDbLine
 10
99.40783639526205
 20
230.8050637609977
 30
0.0000000000000000
 11
100.4078363952621
 21
231.8050637609977
 31
0.0000000000000000
  0
CIRCLE
  5
14D
100
AcDbEntity
  8
MAIN0
  6
CONTINUOUS
 62
3
100
AcDbCircle
 10
165.4078363952623
 20
250.8050637609972
 30
0.0000000000000000
 40
25.40000000000000
  0
CIRCLE
  5
14E
100
AcDbEntity
  8
MAIN0
  6
CONTINUOUS
 62
3
100
AcDbCircle
 10
165.4078363952623
 20
250.8050637609972
 30
0.0000000000000000
 40
24.60000000000000
  0
CIRCLE
  5
14F
100
AcDbEntity
  8
MAIN0
  6
CENTER
 62
3
100
AcDbCircle
 10
165.4078363952623
 20
250.8050637609972
 30
0.0000000000000000
 40
25.00000000000000
  0
CIRCLE
  5
150
100
AcDbEntity
  8
MAIN0
  6
CONTINUOUS
 62
3
100
AcDbCircle
 10
165.4078363952623
 20
250.8050637609972
 30
0.0000000000000000
 40
23.40000000000000
  0
CIRCLE
  5
151
100
AcDbEntity
  8
MAIN0
  6
CENTER
 62
3
100
AcDbCircle
 10
165.4078363952623
 20
250.8050637609972
 30
0.0000000000000000
 40
23.00000000000000
  0
CIRCLE
  5
152
100
AcDbEntity
  8
MAIN0
  6
CONTINUOUS
 62
3
100
AcDbCircle
 10
165.4078363952623
 20
250.8050637609972
 30
0.0000000000000000
 40
22.60000000000000
  0
LINE
  5
153
100
AcDbEntity
  8
MAIN0
  6
CONTINUOUS
 62
3
100
AcDbLine
 10
315.4078363952623
 20
225.4050637609814
 30
0.0000000000000000
 11
316.1006567183175
 21
225.8050637609972
 31
0.0000000000000000
  0
LINE
  5
154
100
AcDbEntity
  8
MAIN0
  6
CONTINUOUS
 62
3
100
AcDbLine
 10
315.4078363952623
 20
226.2050637610130
 30
0.0000000000000000
 11
316.1006567183175
 21
225.8050637609971
 31
0.0000000000000000
  0
LINE
  5
155
100
AcDbEntity
  8
MAIN0
  6
CENTER
 62
3
100
AcDbLine
 10
316.9795028218686
 20
225.8050637609971
 30
0.0000000000000000
 11
314.5913497791052
 21
225.8050637609971
 31
0.0000000000000000
  0
LINE
  5
156
100
AcDbEntity
  8
MAIN0
  6
CONTINUOUS
 62
3
100
AcDbLine
 10
315.4078363952623
 20
228.2050637610129
 30
0.0000000000000000
 11
316.1006567183175
 21
227.8050637609971
 31
0.0000000000000000
  0
LINE
  5
157
100
AcDbEntity
  8
MAIN0
  6
CONTINUOUS
 62
3
100
AcDbLine
 10
315.4078363952623
 20
228.2050637610129
 30
0.0000000000000000
 11
316.1006567183175
 21
227.8050637609971
 31
0.0000000000000000
  0
LINE
  5
158
100
AcDbEntity
  8
MAIN0
  6
CONTINUOUS
 62
3
100
AcDbLine
 10
315.4078363952623
 20
227.4050637609813
 30
0.0000000000000000
 11
316.1006567183175
 21
227.8050637609972
 31
0.0000000000000000
  0
LINE
  5
159
100
AcDbEntity
  8
MAIN0
  6
CONTINUOUS
 62
3
100
AcDbLine
 10
315.4078363952623
 20
227.4050637609814
 30
0.0000000000000000
 11
316.1006567183175
 21
227.8050637609972
 31
0.0000000000000000
  0
LINE
  5
15A
100
AcDbEntity
  8
MAIN0
  6
CENTER
 62
3
100
AcDbLine
 10
316.9795028218686
 20
227.8050637609971
 30
0.0000000000000000
 11
314.5913497791052
 21
227.8050637609971
 31
0.0000000000000000
  0
LINE
  5
15B
100
AcDbEntity
  8
MAIN0
  6
CONTINUOUS
 62
3
100
AcDbLine
 10
315.4078363952623
 20
273.4050637609814
 30
0.0000000000000000
 11
316.1006567183175
 21
273.8050637609972
 31
0.0000000000000000
  0
LINE
  5
15C
100
AcDbEntity
  8
MAIN0
  6
CONTINUOUS
 62
3
100
AcDbLine
 10
315.4078363952623
 20
273.4050637609814
 30
0.0000000000000000
 11
316.1006567183175
 21
273.8050637609972
 31
0.0000000000000000
  0
LINE
  5
15D
100
AcDbEntity
  8
MAIN0
  6
CONTINUOUS
 62
3
100
AcDbLine
 10
315.4078363952623
 20
274.2050637610129
 30
0.0000000000000000
 11
316.1006567183175
 21
273.8050637609971
 31
0.0000000000000000
  0
LINE
  5
15E
100
AcDbEntity
  8
MAIN0
  6
CENTER
 62
3
100
AcDbLine
 10
316.9795028218686
 20
273.8050637609971
 30
0.0000000000000000
 11
314.5913497791052
 21
273.8050637609971
 31
0.0000000000000000
  0
LINE
  5
15F
100
AcDbEntity
  8
MAIN0
  6
CONTINUOUS
 62
3
100
AcDbLine
 10
315.4078363952623
 20
276.2050637610129
 30
0.0000000000000000
 11
316.1006567183175
 21
275.8050637609971
 31
0.0000000000000000
  0
LINE
  5
160
100
AcDbEntity
  8
MAIN0
  6
CONTINUOUS
 62
3
100
AcDbLine
 10
315.4078363952623
 20
275.4050637609814
 30
0.0000000000000000
 11
316.1006567183175
 21
275.8050637609972
 31
0.0000000000000000
  0
LINE
  5
161
100
AcDbEntity
  8
MAIN0
  6
CENTER
 62
3
100
AcDbLine
 10
316.9795028218686
 20
275.8050637609971
 30
0.0000000000000000
 11
314.5913497791052
 21
275.8050637609971
 31
0.0000000000000000
  0
MTEXT
  5
162
100
AcDbEntity
  8
MAIN0
  6
CONTINUOUS
 62
3
100
AcDbMText
 10
261.0797944141495
 20
65.13581781958595
 30
0.0000000000000000
 40
3.099999904632568
 41
0.0000000000000000
 71
     1
 72
     1
  1
{\H0.67x;{6.}}
 11
1.000000000000000
 21
0.0000000000000000
 31
0.0000000000000000
  7
STANDARD
  0
LINE
  5
163
100
AcDbEntity
  8
MAIN0
  6
CONTINUOUS
 62
3
100
AcDbLine
 10
260.0797944141495
 20
61.53581791495338
 30
0.0000000000000000
 11
382.3727258296851
 21
61.53581791495338
 31
0.0000000000000000
  0
MTEXT
  5
164
100
AcDbEntity
  8
MAIN2
  6
CONTINUOUS
 62
3
100
AcDbMText
 10
270.0797944141495
 20
53.03581791495338
 30
0.0000000000000000
 40
3.000000000000000
 41
0.0000000000000000
 71
     1
 72
     1
  1
{\H0.62x;{Never use coolant liquid for operation.}}
 11
1.000000000000000
 21
0.0000000000000000
 31
0.0000000000000000
  7
STANDARD
  0
MTEXT
  5
165
100
AcDbEntity
  8
MAIN2
  6
CONTINUOUS
 62
3
100
AcDbMText
 10
270.0797944141495
 20
48.03581791495338
 30
0.0000000000000000
 40
3.000000000000000
 41
0.0000000000000000
 71
     1
 72
     1
  1
{\H0.63x;{Make sure to use an air control unit with lubricator for}}
 11
1.000000000000000
 21
0.0000000000000000
 31
0.0000000000000000
  7
STANDARD
  0
MTEXT
  5
166
100
AcDbEntity
  8
MAIN2
  6
CONTINUOUS
 62
3
100
AcDbMText
 10
270.0797944141495
 20
43.03581791495338
 30
0.0000000000000000
 40
3.000000000000000
 41
0.0000000000000000
 71
     1
 72
     1
  1
{\H0.62x;{air-piping for lubrication.}}
 11
1.000000000000000
 21
0.0000000000000000
 31
0.0000000000000000
  7
STANDARD
  0
MTEXT
  5
167
100
AcDbEntity
  8
MAIN2
  6
CONTINUOUS
 62
3
100
AcDbMText
 10
270.0797944141495
 20
38.03581791495344
 30
0.0000000000000000
 40
3.000000000000000
 41
0.0000000000000000
 71
     1
 72
     1
  1
{\H0.62x;{Do not operate a cylinder without supplying air.}}
 11
1.000000000000000
 21
0.0000000000000000
 31
0.0000000000000000
  7
STANDARD
  0
MTEXT
  5
168
100
AcDbEntity
  8
MAIN2
  6
CONTINUOUS
 62
3
100
AcDbMText
 10
270.0797944141495
 20
23.03581791495355
 30
0.0000000000000000
 40
3.000000000000000
 41
0.0000000000000000
 71
     1
 72
     1
  1
{\H0.62x;{Design the inner dia.(mark ※) of cylinder adapter should be max.\U+220595}}
 11
1.000000000000000
 21
0.0000000000000000
 31
0.0000000000000000
  7
KNJYOKO
  0
MTEXT
  5
169
100
AcDbEntity
  8
MAIN2
  6
CONTINUOUS
 62
3
100
AcDbMText
 10
261.5797944141495
 20
59.53581791495373
 30
0.0000000000000000
 40
5.000000000000000
 41
0.0000000000000000
 71
     1
 72
     1
  1
{\H0.63x;{NOTE}}
 11
1.000000000000000
 21
0.0000000000000000
 31
0.0000000000000000
  7
STANDARD
  0
MTEXT
  5
16A
100
AcDbEntity
  8
MAIN0
  6
CONTINUOUS
 62
3
100
AcDbMText
 10
261.0797944141495
 20
18.13581781958624
 30
0.0000000000000000
 40
3.099999904632568
 41
0.0000000000000000
 71
     1
 72
     1
  1
{\H0.67x;{6.}}
 11
1.000000000000000
 21
0.0000000000000000
 31
0.0000000000000000
  7
STANDARD
  0
LINE
  5
16B
100
AcDbEntity
  8
MAIN0
  6
CONTINUOUS
 62
3
100
AcDbLine
 10
260.0797944141495
 20
14.53581791495367
 30
0.0000000000000000
 11
390.3218355844571
 21
14.53581791495367
 31
0.0000000000000000
  0
MTEXT
  5
16C
100
AcDbEntity
  8
MAIN2
  6
CONTINUOUS
 62
3
100
AcDbMText
 10
270.5497374282381
 20
18.20367835008494
 30
0.0000000000000000
 40
3.000000000000000
 41
0.0000000000000000
 71
     1
 72
     1
  1
{\H0.61x;{Max. operating air pressure of C-port 1.0 MPa.}}
 11
1.000000000000000
 21
0.0000000000000000
 31
0.0000000000000000
  7
STANDARD
  0
LINE
  5
16D
100
AcDbEntity
  8
MAIN0
  6
CONTINUOUS
 62
3
100
AcDbLine
 10
315.4078363952623
 20
278.2050637610129
 30
0.0000000000000000
 11
316.1006567183175
 21
277.8050637609971
 31
0.0000000000000000
  0
LINE
  5
16E
100
AcDbEntity
  8
MAIN0
  6
CONTINUOUS
 62
3
100
AcDbLine
 10
315.4078363952623
 20
277.4050637609814
 30
0.0000000000000000
 11
316.1006567183175
 21
277.8050637609972
 31
0.0000000000000000
  0
LINE
  5
16F
100
AcDbEntity
  8
MAIN0
  6
CENTER
 62
3
100
AcDbLine
 10
316.9795028218686
 20
277.8050637609971
 30
0.0000000000000000
 11
314.5913497791052
 21
277.8050637609971
 31
0.0000000000000000
  0
LINE
  5
170
100
AcDbEntity
  8
MAIN0
  6
CONTINUOUS
 62
3
100
AcDbLine
 10
315.4078363952623
 20
223.4050637609814
 30
0.0000000000000000
 11
316.1006567183175
 21
223.8050637609972
 31
0.0000000000000000
  0
LINE
  5
171
100
AcDbEntity
  8
MAIN0
  6
CONTINUOUS
 62
3
100
AcDbLine
 10
315.4078363952623
 20
224.2050637610130
 30
0.0000000000000000
 11
316.1006567183175
 21
223.8050637609971
 31
0.0000000000000000
  0
LINE
  5
172
100
AcDbEntity
  8
MAIN0
  6
CENTER
 62
3
100
AcDbLine
 10
316.9795028218686
 20
223.8050637609971
 30
0.0000000000000000
 11
314.5913497791052
 21
223.8050637609971
 31
0.0000000000000000
  0
ARC
  5
173
100
AcDbEntity
  8
MAIN1
  6
CONTINUOUS
 62
3
100
AcDbCircle
 10
165.4078363952623
 20
250.8050637609971
 30
0.0000000000000000
 40
26.59999999997670
100
AcDbArc
 50
252.4459951424084
 51
332.5540048572414
  0
CIRCLE
  5
174
100
AcDbEntity
  8
MAIN1
  6
CENTER
 62
3
100
AcDbCircle
 10
165.4078363952623
 20
250.8050637609971
 30
0.0000000000000000
 40
26.99999999999998
  0
ARC
  5
175
100
AcDbEntity
  8
MAIN1
  6
CONTINUOUS
 62
3
100
AcDbCircle
 10
165.4078363952623
 20
250.8050637609971
 30
0.0000000000000000
 40
27.40000000002328
100
AcDbArc
 50
254.6544111111249
 51
330.3455888885248
  0
CIRCLE
  5
176
100
AcDbEntity
  8
MAIN1
  6
CONTINUOUS
 62
3
100
AcDbCircle
 10
177.4623645148515
 20
279.9072690350658
 30
0.0000000000000000
 40
5.500000000000000
  0
CIRCLE
  5
177
100
AcDbEntity
  8
MAIN1
  6
CONTINUOUS
 62
3
100
AcDbCircle
 10
136.3056311211936
 20
262.8595918805864
 30
0.0000000000000000
 40
5.500000000000000
  0
CIRCLE
  5
178
100
AcDbEntity
  8
MAIN1
  6
CONTINUOUS
 62
3
100
AcDbCircle
 10
153.3533082756730
 20
221.7028584869285
 30
0.0000000000000000
 40
5.500000000000000
  0
CIRCLE
  5
179
100
AcDbEntity
  8
MAIN1
  6
CONTINUOUS
 62
3
100
AcDbCircle
 10
194.5100416693310
 20
238.7505356414079
 30
0.0000000000000000
 40
5.500000000000000
  0
ARC
  5
17A
100
AcDbEntity
  8
MAIN1
  6
CONTINUOUS
 62
3
100
AcDbCircle
 10
165.4078363952623
 20
250.8050637609971
 30
0.0000000000000000
 40
26.59999999997670
100
AcDbArc
 50
342.4459951424084
 51
422.5540048572414
  0
ARC
  5
17B
100
AcDbEntity
  8
MAIN1
  6
CONTINUOUS
 62
3
100
AcDbCircle
 10
165.4078363952623
 20
250.8050637609971
 30
0.0000000000000000
 40
27.40000000002328
100
AcDbArc
 50
344.6544111111249
 51
420.3455888885249
  0
ARC
  5
17C
100
AcDbEntity
  8
MAIN1
  6
CONTINUOUS
 62
3
100
AcDbCircle
 10
165.4078363952623
 20
250.8050637609972
 30
0.0000000000000000
 40
26.59999999997670
100
AcDbArc
 50
162.4459951424084
 51
242.5540048572414
  0
ARC
  5
17D
100
AcDbEntity
  8
MAIN1
  6
CONTINUOUS
 62
3
100
AcDbCircle
 10
165.4078363952623
 20
250.8050637609972
 30
0.0000000000000000
 40
27.40000000002328
100
AcDbArc
 50
164.6544111111249
 51
240.3455888885248
  0
ARC
  5
17E
100
AcDbEntity
  8
MAIN1
  6
CONTINUOUS
 62
3
100
AcDbCircle
 10
165.4078363952623
 20
250.8050637609971
 30
0.0000000000000000
 40
27.40000000002328
100
AcDbArc
 50
74.65441111112486
 51
103.9909799810549
  0
ARC
  5
17F
100
AcDbEntity
  8
MAIN1
  6
CONTINUOUS
 62
3
100
AcDbCircle
 10
165.4078363952623
 20
250.8050637609971
 30
0.0000000000000000
 40
27.40000000002328
100
AcDbArc
 50
110.0324901106049
 51
150.3455888885249
  0
ARC
  5
180
100
AcDbEntity
  8
MAIN1
  6
CONTINUOUS
 62
3
100
AcDbCircle
 10
165.4078363952623
 20
250.8050637609971
 30
0.0000000000000000
 40
26.59999999997670
100
AcDbArc
 50
72.44599514240844
 51
104.4207348159984
  0
ARC
  5
181
100
AcDbEntity
  8
MAIN1
  6
CONTINUOUS
 62
3
100
AcDbCircle
 10
165.4078363952623
 20
250.8050637609971
 30
0.0000000000000000
 40
26.59999999997670
100
AcDbArc
 50
104.5897797004751
 51
152.5540048572413
  0
MTEXT
  5
182
100
AcDbEntity
  8
MAIN4
  6
CONTINUOUS
 62
3
100
AcDbMText
 10
365.9377277440374
 20
388.7441616594978
 30
0.0000000000000000
 40
3.000000000000000
 41
0.0000000000000000
 71
     1
 72
     1
  1
{\H0.63x;{PROXIMITY　SWITCHES\PCustomer arrangements}}
 11
1.000000000000000
 21
0.0000000000000000
 31
0.0000000000000000
  7
KNJYOKO
  0
LEADER
  5
183
100
AcDbEntity
  8
MAIN0
  6
CONTINUOUS
 62
3
100
AcDbLeader
  3
MAIN001
 73
     0
 74
     0
 75
     1
 40
3.099999904632568
 41
20.79712041344862
 76
     3
 10
376.5550722630063
 20
356.8633273296841
 30
0.0000000000000000
 10
357.9078363952597
 20
393.3050637609971
 30
0.0000000000000000
 10
359.8328363394698
 20
393.3050637609971
 30
0.0000000000000000
340
184
213
-0.2971199366114661
223
-0.5000000000000000
233
0.0000000000000000
1001
ACAD
1000
DSTYLE
1002
{
1070
   147
1040
0.0
1070
    77
1070
     1
1070
   173
1070
     1
1070
     6
1000
_DOT
1070
     7
1000
_DOT
1002
}
  0
MTEXT
  5
184
102
{ACAD_REACTORS
330
183
102
}
100
AcDbEntity
  8
MAIN0
  6
CONTINUOUS
 62
3
100
AcDbMText
 10
360.1299562760813
 20
396.9050636656297
 30
0.0000000000000000
 40
3.099999904632568
 41
0.0000000000000000
 71
     1
 72
     1
  1
{\H0.93x;{近接スイッチ\P客様殿手配品}}
 11
1.000000000000000
 21
0.0000000000000000
 31
0.0000000000000000
  7
KNJYOKO
  0
LEADER
  5
185
100
AcDbEntity
  8
MAIN0
  6
CONTINUOUS
 62
3
100
AcDbLeader
  3
MAIN001
 73
     0
 74
     0
 75
     1
 40
3.099999904632568
 41
14.26100040769575
 76
     3
 10
385.4078363952621
 20
340.7518779446088
 30
0.0000000000000000
 10
417.9078363952598
 20
393.3050637609971
 30
0.0000000000000000
 10
419.8328363394699
 20
393.3050637609971
 30
0.0000000000000000
340
186
213
0.0000000000000000
223
-0.5000000000000000
233
0.0000000000000000
1001
ACAD
1000
DSTYLE
1002
{
1070
   147
1040
0.0
1070
    77
1070
     1
1070
   173
1070
     1
1070
     6
1000
_OPEN
1070
     7
1000
_OPEN
1002
}
  0
MTEXT
  5
186
102
{ACAD_REACTORS
330
185
102
}
100
AcDbEntity
  8
MAIN0
  6
CONTINUOUS
 62
3
100
AcDbMText
 10
419.8338363394698
 20
396.9050636656297
 30
0.0000000000000000
 40
3.099999904632568
 41
0.0000000000000000
 71
     1
 72
     1
  1
{\H0.92x;{M12×1}}
 11
1.000000000000000
 21
0.0000000000000000
 31
0.0000000000000000
  7
KNJYOKO
  0
LINE
  5
187
100
AcDbEntity
  8
MAIN1
  6
CONTINUOUS
 62
3
100
AcDbLine
 10
371.1078363952620
 20
297.9050637609971
 30
0.0000000000000000
 11
372.4078363952621
 21
297.9050637609971
 31
0.0000000000000000
  0
LINE
  5
188
100
AcDbEntity
  8
MAIN1
  6
CONTINUOUS
 62
3
100
AcDbLine
 10
371.1078363952620
 20
288.7050637609970
 30
0.0000000000000000
 11
371.1078363952620
 21
297.9050637609971
 31
0.0000000000000000
  0
LINE
  5
189
100
AcDbEntity
  8
MAIN1
  6
CONTINUOUS
 62
3
100
AcDbLine
 10
371.1078363952620
 20
297.5550637609970
 30
0.0000000000000000
 11
366.6078363952620
 21
297.5550637609970
 31
0.0000000000000000
  0
LINE
  5
18A
100
AcDbEntity
  8
MAIN1
  6
CONTINUOUS
 62
3
100
AcDbLine
 10
366.1078363952620
 20
296.6890383572126
 30
0.0000000000000000
 11
366.1078363952620
 21
289.9210891647815
 31
0.0000000000000000
  0
LINE
  5
18B
100
AcDbEntity
  8
MAIN1
  6
CONTINUOUS
 62
3
100
AcDbLine
 10
366.6078363952620
 20
297.5550637609970
 30
0.0000000000000000
 11
366.1078363952620
 21
296.6890383572126
 31
0.0000000000000000
  0
LINE
  5
18C
100
AcDbEntity
  8
MAIN1
  6
CONTINUOUS
 62
3
100
AcDbLine
 10
366.6078363952620
 20
297.5550637609970
 30
0.0000000000000000
 11
366.6078363952620
 21
289.0550637609970
 31
0.0000000000000000
  0
LINE
  5
18D
100
AcDbEntity
  8
MAIN1
  6
CONTINUOUS
 62
3
100
AcDbLine
 10
366.1078363952620
 20
289.9210891647815
 30
0.0000000000000000
 11
366.6078363952620
 21
289.0550637609970
 31
0.0000000000000000
  0
LINE
  5
18E
100
AcDbEntity
  8
MAIN1
  6
CONTINUOUS
 62
3
100
AcDbLine
 10
366.6078363952620
 20
289.0550637609970
 30
0.0000000000000000
 11
371.1078363952620
 21
289.0550637609970
 31
0.0000000000000000
  0
LINE
  5
18F
100
AcDbEntity
  8
MAIN1
  6
CONTINUOUS
 62
3
100
AcDbLine
 10
372.4078363952621
 20
288.7050637609970
 30
0.0000000000000000
 11
371.1078363952620
 21
288.7050637609970
 31
0.0000000000000000
  0
LINE
  5
190
100
AcDbEntity
  8
MAIN1
  6
CONTINUOUS
 62
3
100
AcDbLine
 10
372.4078363952621
 20
287.8050637609970
 30
0.0000000000000000
 11
375.4078363952621
 21
287.8050637609970
 31
0.0000000000000000
  0
LINE
  5
191
100
AcDbEntity
  8
MAIN1
  6
PHANTOM
 62
3
100
AcDbLine
 10
351.1078363952620
 20
297.5550637609970
 30
0.0000000000000000
 11
346.6078363952620
 21
297.5550637609970
 31
0.0000000000000000
  0
LINE
  5
192
100
AcDbEntity
  8
MAIN1
  6
PHANTOM
 62
3
100
AcDbLine
 10
351.1078363952620
 20
297.9050637609971
 30
0.0000000000000000
 11
352.4078363952621
 21
297.9050637609971
 31
0.0000000000000000
  0
LINE
  5
193
100
AcDbEntity
  8
MAIN1
  6
PHANTOM
 62
3
100
AcDbLine
 10
351.1078363952620
 20
288.7050637609970
 30
0.0000000000000000
 11
351.1078363952620
 21
297.9050637609971
 31
0.0000000000000000
  0
LINE
  5
194
100
AcDbEntity
  8
MAIN1
  6
PHANTOM
 62
3
100
AcDbLine
 10
346.6078363952620
 20
297.5550637609970
 30
0.0000000000000000
 11
346.6078363952620
 21
289.0550637609970
 31
0.0000000000000000
  0
LINE
  5
195
100
AcDbEntity
  8
MAIN1
  6
PHANTOM
 62
3
100
AcDbLine
 10
346.6078363952620
 20
297.5550637609970
 30
0.0000000000000000
 11
346.1078363952620
 21
296.6890383572126
 31
0.0000000000000000
  0
LINE
  5
196
100
AcDbEntity
  8
MAIN1
  6
PHANTOM
 62
3
100
AcDbLine
 10
346.1078363952620
 20
296.6890383572126
 30
0.0000000000000000
 11
346.1078363952620
 21
289.9210891647815
 31
0.0000000000000000
  0
LINE
  5
197
100
AcDbEntity
  8
MAIN1
  6
PHANTOM
 62
3
100
AcDbLine
 10
346.6078363952620
 20
289.0550637609970
 30
0.0000000000000000
 11
351.1078363952620
 21
289.0550637609970
 31
0.0000000000000000
  0
LINE
  5
198
100
AcDbEntity
  8
MAIN1
  6
PHANTOM
 62
3
100
AcDbLine
 10
352.4078363952621
 20
288.7050637609970
 30
0.0000000000000000
 11
351.1078363952620
 21
288.7050637609970
 31
0.0000000000000000
  0
LINE
  5
199
100
AcDbEntity
  8
MAIN1
  6
PHANTOM
 62
3
100
AcDbLine
 10
346.1078363952620
 20
289.9210891647815
 30
0.0000000000000000
 11
346.6078363952620
 21
289.0550637609970
 31
0.0000000000000000
  0
LINE
  5
19A
100
AcDbEntity
  8
MAIN1
  6
PHANTOM
 62
3
100
AcDbLine
 10
352.4078363952621
 20
287.8050637609970
 30
0.0000000000000000
 11
355.4078363952621
 21
287.8050637609970
 31
0.0000000000000000
  0
LINE
  5
19B
100
AcDbEntity
  8
MAIN1
  6
PHANTOM
 62
3
100
AcDbLine
 10
352.4078363952621
 20
292.6550637609971
 30
0.0000000000000000
 11
351.1078363952620
 21
293.9550637609971
 31
0.0000000000000000
  0
LINE
  5
19C
100
AcDbEntity
  8
MAIN1
  6
CONTINUOUS
 62
3
100
AcDbLine
 10
372.4078363952621
 20
292.6550637609971
 30
0.0000000000000000
 11
371.1078363952620
 21
293.9550637609971
 31
0.0000000000000000
  0
LINE
  5
19D
100
AcDbEntity
  8
MAIN0
  6
HIDDEN
 62
3
100
AcDbLine
 10
217.0176648928337
 20
192.3232832735553
 30
0.0000000000000000
 11
212.8757378396246
 21
196.7324314269707
 31
0.0000000000000000
  0
LINE
  5
19E
100
AcDbEntity
  8
MAIN0
  6
HIDDEN
 62
3
100
AcDbLine
 10
212.8757378396246
 20
196.7324314269707
 30
0.0000000000000000
 11
219.4804687292969
 21
203.3371623166442
 31
0.0000000000000000
  0
LINE
  5
19F
100
AcDbEntity
  8
MAIN0
  6
HIDDEN
 62
3
100
AcDbLine
 10
219.4804687292969
 20
203.3371623166442
 30
0.0000000000000000
 11
223.8896168827131
 21
199.1952352634358
 31
0.0000000000000000
  0
LINE
  5
1A0
100
AcDbEntity
  8
MAIN0
  6
HIDDEN
 62
3
100
AcDbLine
 10
217.4521090113724
 20
192.7089736812928
 30
0.0000000000000000
 11
213.2865668794939
 21
197.1432604668401
 31
0.0000000000000000
  0
LINE
  5
1A1
100
AcDbEntity
  8
MAIN0
  6
HIDDEN
 62
3
100
AcDbLine
 10
223.5039264749756
 20
198.7607911448971
 30
0.0000000000000000
 11
219.0696396894276
 21
202.9263332767748
 31
0.0000000000000000
  0
LINE
  5
1A2
100
AcDbEntity
  8
MAIN0
  6
HIDDEN
 62
3
100
AcDbLine
 10
213.2789654815962
 20
197.1356590689423
 30
0.0000000000000000
 11
174.5295138725700
 21
235.8851106779619
 31
0.0000000000000000
  0
LINE
  5
1A3
100
AcDbEntity
  8
MAIN0
  6
HIDDEN
 62
3
100
AcDbLine
 10
180.3277894782991
 20
241.6833862836921
 30
0.0000000000000000
 11
219.0772410873254
 21
202.9339346746725
 31
0.0000000000000000
  0
LINE
  5
1A4
100
AcDbEntity
  8
MAIN0
  6
HIDDEN
 62
3
100
AcDbLine
 10
107.9200550847981
 20
197.9841872063596
 30
0.0000000000000000
 11
109.0514259346966
 21
197.9841872063597
 31
0.0000000000000000
  0
LINE
  5
1A5
100
AcDbEntity
  8
MAIN0
  6
HIDDEN
 62
3
100
AcDbLine
 10
109.0514259346966
 20
197.9841872063597
 30
0.0000000000000000
 11
112.5869598406295
 21
194.4486533004271
 31
0.0000000000000000
  0
LINE
  5
1A6
100
AcDbEntity
  8
MAIN0
  6
HIDDEN
 62
3
100
AcDbLine
 10
112.5869598406296
 20
194.4486533004271
 30
0.0000000000000000
 11
112.5869598406296
 21
193.3172824505286
 31
0.0000000000000000
  0
LINE
  5
1A7
100
AcDbEntity
  8
MAIN0
  6
HIDDEN
 62
3
100
AcDbLine
 10
108.3443191535100
 20
197.9841872063596
 30
0.0000000000000000
 11
116.6174684933922
 21
206.2573365462426
 31
0.0000000000000000
  0
LINE
  5
1A8
100
AcDbEntity
  8
MAIN0
  6
HIDDEN
 62
3
100
AcDbLine
 10
116.6174684933923
 20
206.2573365462426
 30
0.0000000000000000
 11
120.8601091805118
 21
202.0146958591236
 31
0.0000000000000000
  0
LINE
  5
1A9
100
AcDbEntity
  8
MAIN0
  6
HIDDEN
 62
3
100
AcDbLine
 10
120.8601091805117
 20
202.0146958591235
 30
0.0000000000000000
 11
112.5869598406295
 21
193.7415465192405
 31
0.0000000000000000
  0
LINE
  5
1AA
100
AcDbEntity
  8
MAIN0
  6
HIDDEN
 62
3
100
AcDbLine
 10
109.0514259346966
 20
197.9841872063597
 30
0.0000000000000000
 11
119.7994490087316
 21
208.7322102803957
 31
0.0000000000000000
  0
LINE
  5
1AB
100
AcDbEntity
  8
MAIN0
  6
HIDDEN
 62
3
100
AcDbLine
 10
119.7994490087316
 20
208.7322102803957
 30
0.0000000000000000
 11
123.3349829146645
 21
205.1966763744632
 31
0.0000000000000000
  0
LINE
  5
1AC
100
AcDbEntity
  8
MAIN0
  6
HIDDEN
 62
3
100
AcDbLine
 10
123.3349829146645
 20
205.1966763744631
 30
0.0000000000000000
 11
112.5869598406295
 21
194.4486533004271
 31
0.0000000000000000
  0
LINE
  5
1AD
100
AcDbEntity
  8
MAIN0
  6
HIDDEN
 62
3
100
AcDbLine
 10
119.7994490087316
 20
208.7322102803957
 30
0.0000000000000000
 11
122.5878366878577
 21
207.9850640535891
 31
0.0000000000000000
  0
LINE
  5
1AE
100
AcDbEntity
  8
MAIN0
  6
HIDDEN
 62
3
100
AcDbLine
 10
122.5878366878577
 20
207.9850640535891
 30
0.0000000000000000
 11
123.3349829146646
 21
205.1966763744632
 31
0.0000000000000000
  0
LINE
  5
1AF
100
AcDbEntity
  8
MAIN0
  6
CENTER
 62
3
100
AcDbLine
 10
521.5273248621863
 20
146.3024321680155
 30
0.0000000000000000
 11
565.3242768042175
 21
146.3024321679930
 31
0.0000000000000000
  0
LINE
  5
1B0
100
AcDbEntity
  8
MAIN0
  6
CENTER
 62
3
100
AcDbLine
 10
543.4258008332060
 20
124.4039561969889
 30
0.0000000000000000
 11
543.4258008331976
 21
168.2009081390195
 31
0.0000000000000000
  0
CIRCLE
  5
1B1
100
AcDbEntity
  8
MAIN0
  6
CONTINUOUS
 62
3
100
AcDbCircle
 10
543.4258008332018
 20
146.3024321680043
 30
0.0000000000000000
 40
8.750000000070429
  0
CIRCLE
  5
1B2
100
AcDbEntity
  8
MAIN0
  6
CONTINUOUS
 62
3
100
AcDbCircle
 10
543.4258008332018
 20
146.3024321680043
 30
0.0000000000000000
 40
10.00000000007040
  0
CIRCLE
  5
1B3
100
AcDbEntity
  8
MAIN0
  6
CONTINUOUS
 62
3
100
AcDbCircle
 10
543.4258008332018
 20
146.3024321680043
 30
0.0000000000000000
 40
3.500000000000000
  0
CIRCLE
  5
1B4
100
AcDbEntity
  8
MAIN0
  6
CONTINUOUS
 62
3
100
AcDbCircle
 10
543.4258008332018
 20
146.3024321680043
 30
0.0000000000000000
 40
6.000000000000000
  0
LINE
  5
1B5
100
AcDbEntity
  8
MAIN0
  6
CONTINUOUS
 62
3
100
AcDbLine
 10
529.9258008332029
 20
141.0109295456797
 30
0.0000000000000000
 11
529.9258008332008
 21
151.5939347903235
 31
0.0000000000000000
  0
LINE
  5
1B6
100
AcDbEntity
  8
MAIN0
  6
CONTINUOUS
 62
3
100
AcDbLine
 10
556.9258008332027
 20
141.0109295456843
 30
0.0000000000000000
 11
556.9258008332007
 21
151.5939347903295
 31
0.0000000000000000
  0
ARC
  5
1B7
100
AcDbEntity
  8
MAIN0
  6
CONTINUOUS
 62
3
100
AcDbCircle
 10
543.4258008332018
 20
146.3024321680043
 30
0.0000000000000000
 40
14.50000000007043
100
AcDbArc
 50
21.40334964012961
 51
158.5966503598955
  0
ARC
  5
1B8
100
AcDbEntity
  8
MAIN0
  6
CONTINUOUS
 62
3
100
AcDbCircle
 10
543.4258008332018
 20
146.3024321680043
 30
0.0000000000000000
 40
14.50000000007043
100
AcDbArc
 50
201.4033496401269
 51
338.5966503598927
  0
DIMENSION
  5
1C1
100
AcDbEntity
  8
MAIN0
  6
CONTINUOUS
 62
3
100
AcDbDimension
  2
*D15
 10
529.9258008332029
 20
115.6960032676949
 30
0.0000000000000000
 11
539.3508007221892
 21
116.1960032676949
 31
0.0000000000000000
 70
32
  3
MAIN001
100
AcDbAlignedDimension
 13
556.9258008332027
 23
141.0109295456843
 33
0.0000000000000000
 14
529.9258008332029
 24
141.0109295456797
 34
0.0000000000000000
100
AcDbRotatedDimension
1001
ACAD
1000
DSTYLE
1002
{
1070
   173
1070
     1
1070
     6
1000
_OPEN
1070
     7
1000
_OPEN
1070
    41
1040
2.000000
1070
   272
1070
     2
1070
    47
1040
0.000000
1070
    48
1040
0.350000
1070
    71
1070
     1
1070
   340
1005
1C2
1002
}
  0
MTEXT
  5
1C3
100
AcDbEntity
  8
MAIN0
  6
CONTINUOUS
 62
3
100
AcDbMText
 10
533.0152346591588
 20
109.7927409398303
 30
0.0000000000000000
 40
4.000000000000000
 41
0.0000000000000000
 71
     1
 72
     1
  1
{\H0.93x;{断面Ｐ－Ｐ}}
 11
1.000000000000000
 21
0.0000000000000000
 31
0.0000000000000000
  7
KNJYOKO
  0
LINE
  5
1C4
100
AcDbEntity
  8
MAIN0
  6
CONTINUOUS
 62
3
100
AcDbLine
 10
531.4670120790968
 20
104.7927409398026
 30
0.0000000000000000
 11
556.2386055746827
 21
104.7927409397978
 31
0.0000000000000000
  0
INSERT
  5
1D4
100
AcDbEntity
  8
MAIN0
  6
CONTINUOUS
 62
3
100
AcDbBlockReference
  2
M2
 10
0.0000000000000000
 20
0.0000000000000000
 30
0.0000000000000000
 50
0.0000000000000000
  0
MTEXT
  5
1D5
100
AcDbEntity
  8
MAIN0
  6
CONTINUOUS
 62
3
100
AcDbMText
 10
270.0797944141495
 20
95.13581781958584
 30
0.0000000000000000
 40
3.099999904632568
 41
0.0000000000000000
 71
     1
 72
     1
  1
{\H0.94x;{切削水の使用は絶対に避けて下さい}}
 11
1.000000000000000
 21
0.0000000000000000
 31
0.0000000000000000
  7
KNJYOKO
  0
MTEXT
  5
1D6
100
AcDbEntity
  8
MAIN0
  6
CONTINUOUS
 62
3
100
AcDbMText
 10
270.0797944141495
 20
90.13581781958584
 30
0.0000000000000000
 40
3.099999904632568
 41
0.0000000000000000
 71
     1
 72
     1
  1
{\H0.94x;{エア配管には３点ユニットを使用し、必ずオイルミストを行って下さい}}
 11
1.000000000000000
 21
0.0000000000000000
 31
0.0000000000000000
  7
KNJYOKO
  0
MTEXT
  5
1D7
100
AcDbEntity
  8
MAIN0
  6
CONTINUOUS
 62
3
100
AcDbMText
 10
270.0797944141495
 20
85.13581781958595
 30
0.0000000000000000
 40
3.099999904632568
 41
0.0000000000000000
 71
     1
 72
     1
  1
{\H0.94x;{エアを通さないで運転することは避けて下さい}}
 11
1.000000000000000
 21
0.0000000000000000
 31
0.0000000000000000
  7
KNJYOKO
  0
MTEXT
  5
1D8
100
AcDbEntity
  8
MAIN0
  6
CONTINUOUS
 62
3
100
AcDbMText
 10
270.0797944141495
 20
80.13581781958595
 30
0.0000000000000000
 40
3.099999904632568
 41
0.0000000000000000
 71
     1
 72
     1
  1
{\H0.94x;{ブラケット取り付け位置を変更する時は、リングも反時計回りに}}
 11
1.000000000000000
 21
0.0000000000000000
 31
0.0000000000000000
  7
KNJYOKO
  0
LINE
  5
1D9
100
AcDbEntity
  8
MAIN0
  6
CONTINUOUS
 62
3
100
AcDbLine
 10
260.0797944141495
 20
71.53581791495338
 30
0.0000000000000000
 11
382.3727258296851
 21
71.53581791495338
 31
0.0000000000000000
  0
MTEXT
  5
1DA
100
AcDbEntity
  8
MAIN0
  6
CONTINUOUS
 62
3
100
AcDbMText
 10
270.0797944141495
 20
75.13581781958595
 30
0.0000000000000000
 40
3.099999904632568
 41
0.0000000000000000
 71
     1
 72
     1
  1
{\H0.94x;{９０゜回転させて取り付けて下さい}}
 11
1.000000000000000
 21
0.0000000000000000
 31
0.0000000000000000
  7
KNJYOKO
  0
LINE
  5
1DB
100
AcDbEntity
  8
MAIN0
  6
CONTINUOUS
 62
3
100
AcDbLine
 10
59.91057149685787
 20
402.7118764503331
 30
0.0000000000000000
 11
99.91057149685761
 21
402.7118764503336
 31
0.0000000000000000
  0
LINE
  5
1DC
100
AcDbEntity
  8
MAIN0
  6
CENTER
 62
3
100
AcDbLine
 10
68.57082553358475
 20
354.7118764503356
 30
0.0000000000000000
 11
91.16769567437217
 21
354.7118764503359
 31
0.0000000000000000
  0
LINE
  5
1DD
100
AcDbEntity
  8
MAIN0
  6
CENTER
 62
3
100
AcDbLine
 10
68.57082553358427
 20
392.7118764503332
 30
0.0000000000000000
 11
91.16769567437166
 21
392.7118764503335
 31
0.0000000000000000
  0
ARC
  5
1DE
100
AcDbEntity
  8
MAIN0
  6
CONTINUOUS
 62
3
100
AcDbCircle
 10
79.91057149685733
 20
392.7118764503333
 30
0.0000000000000000
 40
6.500000000000000
100
AcDbArc
 50
0.0000000000000000
 51
180.0000000000000
  0
LINE
  5
1DF
100
AcDbEntity
  8
MAIN0
  6
CENTER
 62
3
100
AcDbLine
 10
280.1392466167296
 20
335.8580147709263
 30
0.0000000000000000
 11
263.8465978173655
 21
343.4554016776996
 31
0.0000000000000000
  0
ARC
  5
1E0
100
AcDbEntity
  8
MAIN0
  6
CONTINUOUS
 62
3
100
AcDbCircle
 10
271.7697770416188
 20
339.7607625284957
 30
0.0000000000000000
 40
6.500000000000000
100
AcDbArc
 50
155.0000000000000
 51
335.0000000000000
  0
LINE
  5
1E1
100
AcDbEntity
  8
MAIN0
  6
CENTER
 62
3
100
AcDbLine
 10
296.1987405628762
 20
370.2977106783189
 30
0.0000000000000000
 11
279.9060917635121
 21
377.8950975850923
 31
0.0000000000000000
  0
LINE
  5
1E2
100
AcDbEntity
  8
MAIN0
  6
CONTINUOUS
 62
3
100
AcDbLine
 10
265.8787764258806
 20
342.5077812298102
 30
0.0000000000000000
 11
267.1466312111027
 21
345.2267045909200
 31
0.0000000000000000
  0
LINE
  5
1E3
100
AcDbEntity
  8
MAIN0
  6
HIDDEN
 62
3
100
AcDbLine
 10
267.1466312111027
 20
345.2267045909200
 30
0.0000000000000000
 11
281.9382703720272
 21
376.9474771372029
 31
0.0000000000000000
  0
LINE
  5
1E4
100
AcDbEntity
  8
MAIN0
  6
CONTINUOUS
 62
3
100
AcDbLine
 10
277.6607776573571
 20
337.0137438271811
 30
0.0000000000000000
 11
278.9286324425791
 21
339.7326671882909
 31
0.0000000000000000
  0
LINE
  5
1E5
100
AcDbEntity
  8
MAIN0
  6
HIDDEN
 62
3
100
AcDbLine
 10
278.9286324425790
 20
339.7326671882909
 30
0.0000000000000000
 11
293.7202716035035
 21
371.4534397345739
 31
0.0000000000000000
  0
LINE
  5
1E6
100
AcDbEntity
  8
MAIN0
  6
PHANTOM
 62
3
100
AcDbLine
 10
315.1606026991719
 20
372.4894283409099
 30
0.0000000000000000
 11
268.4210293388836
 21
394.2844493377097
 31
0.0000000000000000
  0
LINE
  5
1E7
100
AcDbEntity
  8
MAIN0
  6
PHANTOM
 62
3
100
AcDbLine
 10
304.1725278939138
 20
348.9254258779570
 30
0.0000000000000000
 11
257.4329545336254
 21
370.7204468747568
 31
0.0000000000000000
  0
DIMENSION
  5
1F0
100
AcDbEntity
  8
MAIN0
  6
CONTINUOUS
 62
3
100
AcDbDimension
  2
*D16
 10
37.24132516884498
 20
402.7118764503331
 30
0.0000000000000000
 11
36.74132516884498
 21
387.2118764503331
 31
0.0000000000000000
 70
32
  3
MAIN001
100
AcDbAlignedDimension
 13
67.77199612415299
 23
371.7118764503332
 33
0.0000000000000000
 14
59.91057149685790
 24
402.7118764503331
 34
0.0000000000000000
 50
90.00000000000000
100
AcDbRotatedDimension
1001
ACAD
1000
DSTYLE
1002
{
1070
   173
1070
     1
1070
     6
1000
_OPEN
1070
     7
1000
_OPEN
1070
    41
1040
2.000000
1002
}
  0
DIMENSION
  5
1F9
100
AcDbEntity
  8
MAIN0
  6
CONTINUOUS
 62
3
100
AcDbDimension
  2
*D17
 10
47.24132516884498
 20
392.7118764503332
 30
0.0000000000000000
 11
46.74132516884498
 21
382.2118764503332
 31
0.0000000000000000
 70
32
  3
MAIN001
100
AcDbAlignedDimension
 13
67.77199612415296
 23
371.7118764503332
 33
0.0000000000000000
 14
68.57082553358427
 24
392.7118764503332
 34
0.0000000000000000
 50
90.00000000000000
100
AcDbRotatedDimension
1001
ACAD
1000
DSTYLE
1002
{
1070
   173
1070
     1
1070
     6
1000
_OPEN
1070
     7
1000
_OPEN
1070
    41
1040
2.000000
1002
}
  0
DIMENSION
  5
202
100
AcDbEntity
  8
MAIN0
  6
CONTINUOUS
 62
3
100
AcDbDimension
  2
*D18
 10
47.24132516884498
 20
371.7118764503332
 30
0.0000000000000000
 11
46.74132516884498
 21
363.2118764503344
 31
0.0000000000000000
 70
32
  3
MAIN001
100
AcDbAlignedDimension
 13
68.57082553358475
 23
354.7118764503356
 33
0.0000000000000000
 14
67.77199612415296
 24
371.7118764503332
 34
0.0000000000000000
 50
90.00000000000000
100
AcDbRotatedDimension
1001
ACAD
1000
DSTYLE
1002
{
1070
   173
1070
     1
1070
     6
1000
_OPEN
1070
     7
1000
_OPEN
1070
    41
1040
2.000000
1002
}
  0
DIMENSION
  5
20B
100
AcDbEntity
  8
MAIN0
  6
CONTINUOUS
 62
3
100
AcDbDimension
  2
*D19
 10
112.3974283890061
 20
373.7118764503360
 30
0.0000000000000000
 11
111.8974283890061
 21
388.2118764503348
 31
0.0000000000000000
 70
32
  3
MAIN001
100
AcDbAlignedDimension
 13
99.91057149685761
 23
402.7118764503336
 33
0.0000000000000000
 14
101.7811689564960
 24
373.7118764503360
 34
0.0000000000000000
 50
90.00000000000000
100
AcDbRotatedDimension
1001
ACAD
1000
DSTYLE
1002
{
1070
   173
1070
     1
1070
     6
1000
_OPEN
1070
     7
1000
_OPEN
1070
    41
1040
2.000000
1002
}
  0
DIMENSION
  5
214
100
AcDbEntity
  8
MAIN0
  6
CONTINUOUS
 62
3
100
AcDbDimension
  2
*D20
 10
251.2595160578400
 20
372.4957905942016
 30
0.0000000000000000
 11
259.0474182682654
 21
390.3801015722867
 31
0.0000000000000000
 70
32
  3
MAIN001
100
AcDbAlignedDimension
 13
279.0007170053278
 23
402.5915949855086
 33
0.0000000000000000
 14
270.9562513178091
 24
363.3110521018264
 34
0.0000000000000000
 50
65.00000000000000
100
AcDbRotatedDimension
1001
ACAD
1000
DSTYLE
1002
{
1070
   173
1070
     1
1070
     6
1000
_OPEN
1070
     7
1000
_OPEN
1070
    41
1040
2.000000
1002
}
  0
DIMENSION
  5
21D
100
AcDbEntity
  8
MAIN0
  6
CONTINUOUS
 62
3
100
AcDbDimension
  2
*D21
 10
262.5228896656172
 20
386.0010178465965
 30
0.0000000000000000
 11
258.4774805473030
 21
378.5087107876552
 31
0.0000000000000000
 70
32
  3
MAIN001
100
AcDbAlignedDimension
 13
270.9562513178091
 23
363.3110521018264
 33
0.0000000000000000
 14
279.9060917635121
 24
377.8950975850923
 34
0.0000000000000000
 50
65.00000000000074
100
AcDbRotatedDimension
1001
ACAD
1000
DSTYLE
1002
{
1070
   173
1070
     1
1070
     6
1000
_OPEN
1070
     7
1000
_OPEN
1070
    41
1040
2.000000
1002
}
  0
DIMENSION
  5
226
100
AcDbEntity
  8
MAIN0
  6
CONTINUOUS
 62
3
100
AcDbDimension
  2
*D22
 10
255.3383792160254
 20
370.5937854669732
 30
0.0000000000000000
 11
250.4477335742298
 21
361.2888628339588
 31
0.0000000000000000
 70
32
  3
MAIN001
100
AcDbAlignedDimension
 13
263.8465978173655
 23
343.4554016776996
 33
0.0000000000000000
 14
270.9562513178091
 24
363.3110521018264
 34
0.0000000000000000
 50
65.00000000000064
100
AcDbRotatedDimension
1001
ACAD
1000
DSTYLE
1002
{
1070
   173
1070
     1
1070
     6
1000
_OPEN
1070
     7
1000
_OPEN
1070
    41
1040
2.000000
1002
}
  0
DIMENSION
  5
22F
100
AcDbEntity
  8
MAIN0
  6
CONTINUOUS
 62
3
100
AcDbDimension
  2
*D23
 10
312.3221208566769
 20
341.8150745116872
 30
0.0000000000000000
 11
320.5326413288427
 21
360.6056932768090
 31
0.0000000000000000
 70
32
  3
MAIN001
100
AcDbAlignedDimension
 13
310.7214895516106
 23
387.7999558245841
 33
0.0000000000000000
 14
299.6480112579371
 24
347.7251088778751
 34
0.0000000000000000
 50
65.00000000000068
100
AcDbRotatedDimension
1001
ACAD
1000
DSTYLE
1002
{
1070
   173
1070
     1
1070
     6
1000
_OPEN
1070
     7
1000
_OPEN
1070
    41
1040
2.000000
1002
}
  0
CIRCLE
  5
230
100
AcDbEntity
  8
MAIN0
  6
CONTINUOUS
 62
3
100
AcDbCircle
 10
94.91057149685753
 20
373.7118764503360
 30
0.0000000000000000
 40
5.000000000000000
  0
CIRCLE
  5
231
100
AcDbEntity
  8
MAIN0
  6
CONTINUOUS
 62
3
100
AcDbCircle
 10
64.91057149685759
 20
373.7118764503356
 30
0.0000000000000000
 40
5.000000000000000
  0
LINE
  5
232
100
AcDbEntity
  8
MAIN0
  6
CONTINUOUS
 62
3
100
AcDbLine
 10
99.91057149798155
 20
384.7118764503338
 30
0.0000000000000000
 11
99.91057149798189
 21
350.2118764503339
 31
0.0000000000000000
  0
MTEXT
  5
233
100
AcDbEntity
  8
MAIN0
  6
CONTINUOUS
 62
3
100
AcDbMText
 10
135.4991400263158
 20
369.1805906576379
 30
0.0000000000000000
 40
3.099999904632568
 41
0.0000000000000000
 71
     1
 72
     1
  1
{\H0.92x;{(SQ60)}}
 11
1.000000000000000
 21
0.0000000000000000
 31
0.0000000000000000
  7
STANDARD
  0
MTEXT
  5
234
100
AcDbEntity
  8
MAIN0
  6
CONTINUOUS
 62
3
100
AcDbMText
 10
202.6704148578828
 20
372.6051630041386
 30
0.0000000000000000
 40
3.099999904632568
 41
0.0000000000000000
 71
     1
 72
     1
  1
{\H0.92x;{(SQ61)}}
 11
1.000000000000000
 21
0.0000000000000000
 31
0.0000000000000000
  7
STANDARD
  0
MTEXT
  5
235
100
AcDbEntity
  8
MAIN0
  6
CONTINUOUS
 62
3
100
AcDbMText
 10
130.2454100145893
 20
364.4798770853787
 30
0.0000000000000000
 40
3.099999904632568
 41
0.0000000000000000
 71
     1
 72
     1
  1
{\H0.93x;{チャック開確認}}
 11
1.000000000000000
 21
0.0000000000000000
 31
0.0000000000000000
  7
KNJYOKO
  0
MTEXT
  5
236
100
AcDbEntity
  8
MAIN0
  6
CONTINUOUS
 62
3
100
AcDbMText
 10
200.1817986878301
 20
368.1809576516130
 30
0.0000000000000000
 40
3.099999904632568
 41
0.0000000000000000
 71
     1
 72
     1
  1
{\H0.93x;{チャック閉確認}}
 11
1.000000000000000
 21
0.0000000000000000
 31
0.0000000000000000
  7
KNJYOKO
  0
INSERT
  5
24E
100
AcDbEntity
  8
MAIN0
  6
CONTINUOUS
 62
3
100
AcDbBlockReference
  2
*X0
 10
0.0000000000000000
 20
0.0000000000000000
 30
0.0000000000000000
 50
0.0000000000000000
  0
INSERT
  5
266
100
AcDbEntity
  8
MAIN0
  6
CONTINUOUS
 62
3
100
AcDbBlockReference
  2
*X1
 10
0.0000000000000000
 20
0.0000000000000000
 30
0.0000000000000000
 50
0.0000000000000000
  0
LINE
  5
267
100
AcDbEntity
  8
MAIN0
  6
HIDDEN
 62
3
100
AcDbLine
 10
385.4078363952621
 20
342.5050637609972
 30
0.0000000000000000
 11
385.4078363952621
 21
339.3050637609972
 31
0.0000000000000000
  0
LINE
  5
268
100
AcDbEntity
  8
MAIN0
  6
HIDDEN
 62
3
100
AcDbLine
 10
373.4078363952621
 20
339.3050637609972
 30
0.0000000000000000
 11
373.4078363952621
 21
342.5050637609972
 31
0.0000000000000000
  0
LINE
  5
269
100
AcDbEntity
  8
MAIN0
  6
HIDDEN
 62
3
100
AcDbLine
 10
384.5078363952620
 20
342.5050637609972
 30
0.0000000000000000
 11
384.5078363952620
 21
339.3050637609972
 31
0.0000000000000000
  0
LINE
  5
26A
100
AcDbEntity
  8
MAIN0
  6
HIDDEN
 62
3
100
AcDbLine
 10
374.3078363952620
 20
339.3050637609972
 30
0.0000000000000000
 11
374.3078363952620
 21
342.5050637609972
 31
0.0000000000000000
  0
LINE
  5
26B
100
AcDbEntity
  8
MAIN0
  6
CONTINUOUS
 62
3
100
AcDbLine
 10
113.7833619623249
 20
301.5473233179469
 30
0.0000000000000000
 11
158.7833619623249
 21
301.5473233179661
 31
0.0000000000000000
  0
LINE
  5
26C
100
AcDbEntity
  8
MAIN0
  6
CONTINUOUS
 62
3
100
AcDbLine
 10
114.7833619623251
 20
300.5473233179469
 30
0.0000000000000000
 11
157.7833619623251
 21
300.5473233179469
 31
0.0000000000000000
  0
LINE
  5
26D
100
AcDbEntity
  8
MAIN0
  6
CONTINUOUS
 62
3
100
AcDbLine
 10
113.7833619623251
 20
301.5473233179469
 30
0.0000000000000000
 11
113.7833619623251
 21
276.5473233179469
 31
0.0000000000000000
  0
LINE
  5
26E
100
AcDbEntity
  8
MAIN0
  6
CONTINUOUS
 62
3
100
AcDbLine
 10
114.7833619623251
 20
300.5473233179469
 30
0.0000000000000000
 11
114.7833619623251
 21
277.5473233179469
 31
0.0000000000000000
  0
MTEXT
  5
26F
100
AcDbEntity
  8
MAIN0
  6
CONTINUOUS
 62
3
100
AcDbMText
 10
116.0850925407714
 20
295.3067624645668
 30
0.0000000000000000
 40
3.000000000000000
 41
0.0000000000000000
 71
     1
 72
     1
  1
{\H0.61x;{エアブローは 1.0MPa}}
 11
1.000000000000000
 21
0.0000000000000000
 31
0.0000000000000000
  7
KNJYOKO
  0
MTEXT
  5
270
100
AcDbEntity
  8
MAIN0
  6
CONTINUOUS
 62
3
100
AcDbMText
 10
122.0850925407714
 20
299.5067623691994
 30
0.0000000000000000
 40
3.099999904632568
 41
0.0000000000000000
 71
     1
 72
     1
  1
{\H0.93x;{注意　CAUTION}}
 11
1.000000000000000
 21
0.0000000000000000
 31
0.0000000000000000
  7
KNJYOKO
  0
MTEXT
  5
271
100
AcDbEntity
  8
MAIN0
  6
CONTINUOUS
 62
3
100
AcDbMText
 10
116.0850925407714
 20
291.8067624645668
 30
0.0000000000000000
 40
3.000000000000000
 41
0.0000000000000000
 71
     1
 72
     1
  1
{\H0.59x;{以下で使用すること}}
 11
1.000000000000000
 21
0.0000000000000000
 31
0.0000000000000000
  7
KNJYOKO
  0
MTEXT
  5
272
100
AcDbEntity
  8
MAIN0
  6
CONTINUOUS
 62
3
100
AcDbMText
 10
116.0850925407714
 20
288.3067624645668
 30
0.0000000000000000
 40
3.000000000000000
 41
0.0000000000000000
 71
     1
 72
     1
  1
{\H0.63x;{Set up air pressure for}}
 11
1.000000000000000
 21
0.0000000000000000
 31
0.0000000000000000
  7
STANDARD
  0
MTEXT
  5
273
100
AcDbEntity
  8
MAIN0
  6
CONTINUOUS
 62
3
100
AcDbMText
 10
116.0850925407714
 20
284.8067624645668
 30
0.0000000000000000
 40
3.000000000000000
 41
0.0000000000000000
 71
     1
 72
     1
  1
{\H0.63x;{air blowing lower than}}
 11
1.000000000000000
 21
0.0000000000000000
 31
0.0000000000000000
  7
STANDARD
  0
MTEXT
  5
274
100
AcDbEntity
  8
MAIN0
  6
CONTINUOUS
 62
3
100
AcDbMText
 10
116.0850925407714
 20
281.3067624645668
 30
0.0000000000000000
 40
3.000000000000000
 41
0.0000000000000000
 71
     1
 72
     1
  1
{\H0.63x;{1.0MPa(10.2kgf/cm )}}
 11
1.000000000000000
 21
0.0000000000000000
 31
0.0000000000000000
  7
STANDARD
  0
MTEXT
  5
275
100
AcDbEntity
  8
MAIN0
  6
CONTINUOUS
 62
3
100
AcDbMText
 10
146.8284383757375
 20
281.6105421762495
 30
0.0000000000000000
 40
2.000000000000000
 41
0.0000000000000000
 71
     1
 72
     1
  1
{\H0.63x;{2}}
 11
1.000000000000000
 21
0.0000000000000000
 31
0.0000000000000000
  7
STANDARD
  0
LINE
  5
276
100
AcDbEntity
  8
MAIN0
  6
CONTINUOUS
 62
3
100
AcDbLine
 10
114.7833619623251
 20
277.5473233179469
 30
0.0000000000000000
 11
157.7833619623251
 21
277.5473233179469
 31
0.0000000000000000
  0
LINE
  5
277
100
AcDbEntity
  8
MAIN0
  6
CONTINUOUS
 62
3
100
AcDbLine
 10
113.7833619623251
 20
276.5473233179469
 30
0.0000000000000000
 11
158.7833619623251
 21
276.5473233179469
 31
0.0000000000000000
  0
LINE
  5
278
100
AcDbEntity
  8
MAIN0
  6
CONTINUOUS
 62
3
100
AcDbLine
 10
157.7833619623251
 20
300.5473233179469
 30
0.0000000000000000
 11
157.7833619623251
 21
277.5473233179469
 31
0.0000000000000000
  0
LINE
  5
279
100
AcDbEntity
  8
MAIN0
  6
CONTINUOUS
 62
3
100
AcDbLine
 10
158.7833619623251
 20
301.5473233179661
 30
0.0000000000000000
 11
158.7833619623197
 21
276.5473233179661
 31
0.0000000000000000
  0
INSERT
  5
27E
100
AcDbEntity
  8
MAIN0
  6
CONTINUOUS
 62
4
100
AcDbBlockReference
  2
M3
 10
0.0000000000000000
 20
0.0000000000000000
 30
0.0000000000000000
 50
0.0000000000000000
  0
MTEXT
  5
27F
100
AcDbEntity
  8
MAIN0
  6
CONTINUOUS
 62
3
100
AcDbMText
 10
418.1624517868526
 20
372.7897492278799
 30
0.0000000000000000
 40
3.099999904632568
 41
0.0000000000000000
 71
     1
 72
     1
  1
{\H0.70x;{MAX 72}}
 11
1.000000000000000
 21
0.0000000000000000
 31
0.0000000000000000
  7
STANDARD
  0
DIMENSION
  5
288
100
AcDbEntity
  8
MAIN0
  6
CONTINUOUS
 62
3
100
AcDbDimension
  2
*D24
 10
450.4078363952615
 20
292.0146546797766
 30
0.0000000000000000
 11
457.9078363952615
 21
292.5146546797766
 31
0.0000000000000000
 70
32
  3
MAIN001
100
AcDbAlignedDimension
 13
465.4078363952615
 23
273.3050637609971
 33
0.0000000000000000
 14
450.4078363952615
 24
299.8050637609971
 34
0.0000000000000000
100
AcDbRotatedDimension
1001
ACAD
1000
DSTYLE
1002
{
1070
   173
1070
     1
1070
     6
1000
_OPEN
1070
     7
1000
_OPEN
1070
    41
1040
2.000000
1002
}
  0
DIMENSION
  5
291
100
AcDbEntity
  8
MAIN0
  6
CONTINUOUS
 62
3
100
AcDbDimension
  2
*D25
 10
450.4078363952615
 20
144.0683379740970
 30
0.0000000000000000
 11
382.9078363952618
 21
144.5683379740970
 31
0.0000000000000000
 70
32
  3
MAIN001
100
AcDbAlignedDimension
 13
315.4078363952622
 23
172.2050637609973
 33
0.0000000000000000
 14
450.4078363952615
 24
179.3050637609971
 34
0.0000000000000000
100
AcDbRotatedDimension
1001
ACAD
1000
DSTYLE
1002
{
1070
   173
1070
     1
1070
     6
1000
_OPEN
1070
     7
1000
_OPEN
1070
    41
1040
2.000000
1002
}
  0
LINE
  5
292
100
AcDbEntity
  8
MAIN0
  6
CENTER
 62
3
100
AcDbLine
 10
116.5719868156736
 20
228.0325331091542
 30
0.0000000000000000
 11
97.96106526973404
 21
219.3541178669634
 31
0.0000000000000000
  0
CIRCLE
  5
293
100
AcDbEntity
  8
MAIN0
  6
CONTINUOUS
 62
3
100
AcDbCircle
 10
107.4041380250598
 20
223.7574950092853
 30
0.0000000000000000
 40
7.000000000000000
  0
LINE
  5
294
100
AcDbEntity
  8
MAIN0
  6
CENTER
 62
3
100
AcDbLine
 10
214.2436859748509
 20
273.5775944128401
 30
0.0000000000000000
 11
232.8546075207905
 21
282.2560096550309
 31
0.0000000000000000
  0
CIRCLE
  5
295
100
AcDbEntity
  8
MAIN0
  6
CONTINUOUS
 62
3
100
AcDbCircle
 10
223.4115347654646
 20
277.8526325127090
 30
0.0000000000000000
 40
7.000000000000000
  0
ARC
  5
296
100
AcDbEntity
  8
MAIN0
  6
CONTINUOUS
 62
3
100
AcDbCircle
 10
227.2270892776387
 20
267.3694826478990
 30
0.0000000000000000
 40
6.500000000000000
100
AcDbArc
 50
74.25312476246542
 51
145.7468752378381
  0
ARC
  5
297
100
AcDbEntity
  8
MAIN0
  6
HIDDEN
 62
3
100
AcDbCircle
 10
227.2270892776387
 20
267.3694826478990
 30
0.0000000000000000
 40
6.500000000000000
100
AcDbArc
 50
145.7468752378381
 51
434.2531247624654
  0
LINE
  5
298
100
AcDbEntity
  8
MAIN0
  6
CENTER
 62
3
100
AcDbLine
 10
165.4078363952570
 20
373.9269499326944
 30
0.0000000000000000
 11
165.4078363952668
 21
143.5453444283153
 31
0.0000000000000000
  0
LINE
  5
299
100
AcDbEntity
  8
MAIN0
  6
HIDDEN
 62
3
100
AcDbLine
 10
87.68861647453588
 20
244.2353381384745
 30
0.0000000000000000
 11
96.80783639526212
 21
244.5203137609972
 31
0.0000000000000000
  0
LINE
  5
29A
100
AcDbEntity
  8
MAIN0
  6
HIDDEN
 62
3
100
AcDbLine
 10
96.80783639526226
 20
244.5203137609971
 30
0.0000000000000000
 11
96.80783639526226
 21
257.0898137609972
 31
0.0000000000000000
  0
LINE
  5
29B
100
AcDbEntity
  8
MAIN0
  6
HIDDEN
 62
3
100
AcDbLine
 10
96.80783639526223
 20
257.0898137609971
 30
0.0000000000000000
 11
87.68861647453593
 21
257.3747893835198
 31
0.0000000000000000
  0
LINE
  5
29C
100
AcDbEntity
  8
MAIN0
  6
HIDDEN
 62
3
100
AcDbLine
 10
87.62027925744695
 20
245.0892026004404
 30
0.0000000000000000
 11
96.80783639526217
 21
245.3763137609972
 31
0.0000000000000000
  0
LINE
  5
29D
100
AcDbEntity
  8
MAIN0
  6
HIDDEN
 62
3
100
AcDbLine
 10
87.62027925744692
 20
256.5209249215538
 30
0.0000000000000000
 11
96.80783639526229
 21
256.2338137609971
 31
0.0000000000000000
  0
LINE
  5
29E
100
AcDbEntity
  8
MAIN0
  6
HIDDEN
 62
3
100
AcDbLine
 10
96.80783639526226
 20
245.4050637609972
 30
0.0000000000000000
 11
136.4078363952622
 21
245.4050637609972
 31
0.0000000000000000
  0
LINE
  5
29F
100
AcDbEntity
  8
MAIN0
  6
HIDDEN
 62
3
100
AcDbLine
 10
136.4078363952622
 20
245.4050637609972
 30
0.0000000000000000
 11
136.4078363952622
 21
256.2050637609972
 31
0.0000000000000000
  0
LINE
  5
2A0
100
AcDbEntity
  8
MAIN0
  6
HIDDEN
 62
3
100
AcDbLine
 10
136.4078363952618
 20
256.2050637609972
 30
0.0000000000000000
 11
96.80783639526226
 21
256.2050637609972
 31
0.0000000000000000
  0
LINE
  5
2A1
100
AcDbEntity
  8
MAIN0
  6
CENTER
 62
3
100
AcDbLine
 10
173.4078363952588
 20
328.3551592540648
 30
0.0000000000000000
 11
173.4078363952594
 21
315.2659803211095
 31
0.0000000000000000
  0
LINE
  5
2A2
100
AcDbEntity
  8
MAIN0
  6
CENTER
 62
3
100
AcDbLine
 10
157.4078363952587
 20
328.5320407115253
 30
0.0000000000000000
 11
157.4078363952593
 21
314.2489161578774
 31
0.0000000000000000
  0
MTEXT
  5
2A3
100
AcDbEntity
  8
MAIN0
  6
CONTINUOUS
 62
3
100
AcDbMText
 10
93.57295616921857
 20
253.0879137570295
 30
0.0000000000000000
 40
5.000000000000000
 41
0.0000000000000000
 71
     1
 72
     1
  1
{\H0.84x;{Ａ}}
 11
-1.836970198721030e-016
 21
-1.000000000000000
 31
0.0000000000000000
  7
KNJYOKO
  0
MTEXT
  5
2A4
100
AcDbEntity
  8
MAIN0
  6
CONTINUOUS
 62
3
100
AcDbMText
 10
161.5307357643958
 20
178.3228109489717
 30
0.0000000000000000
 40
5.000000000000000
 41
0.0000000000000000
 71
     1
 72
     1
  1
{\H0.84x;{Ｄ}}
 11
1.000000000000000
 21
0.0000000000000000
 31
0.0000000000000000
  7
KNJYOKO
  0
MTEXT
  5
2A5
100
AcDbEntity
  8
MAIN0
  6
CONTINUOUS
 62
3
100
AcDbMText
 10
165.5307357643958
 20
178.3228109489717
 30
0.0000000000000000
 40
5.000000000000000
 41
0.0000000000000000
 71
     1
 72
     1
  1
{\H0.84x;{ｒ}}
 11
1.000000000000000
 21
0.0000000000000000
 31
0.0000000000000000
  7
KNJYOKO
  0
LINE
  5
2A6
100
AcDbEntity
  8
MAIN0
  6
CENTER
 62
3
100
AcDbLine
 10
135.4723042213416
 20
168.5578650736958
 30
0.0000000000000000
 11
141.1844551311300
 21
184.2518707148818
 31
0.0000000000000000
  0
LINE
  5
2A7
100
AcDbEntity
  8
MAIN0
  6
CENTER
 62
12
100
AcDbLine
 10
71.73545339998123
 20
250.8050637609971
 30
0.0000000000000000
 11
260.6230645977539
 21
250.8050637609971
 31
0.0000000000000000
  0
LINE
  5
2A8
100
AcDbEntity
  8
MAIN0
  6
HIDDEN
 62
3
100
AcDbLine
 10
243.1270563159886
 20
244.2353381384745
 30
0.0000000000000000
 11
234.0078363952626
 21
244.5203137609964
 31
0.0000000000000000
  0
LINE
  5
2A9
100
AcDbEntity
  8
MAIN0
  6
HIDDEN
 62
3
100
AcDbLine
 10
234.0078363952627
 20
244.5203137609964
 30
0.0000000000000000
 11
234.0078363952616
 21
257.0898137609964
 31
0.0000000000000000
  0
LINE
  5
2AA
100
AcDbEntity
  8
MAIN0
  6
HIDDEN
 62
3
100
AcDbLine
 10
234.0078363952615
 20
257.0898137609963
 30
0.0000000000000000
 11
243.1270563159885
 21
257.3747893835198
 31
0.0000000000000000
  0
LINE
  5
2AB
100
AcDbEntity
  8
MAIN0
  6
HIDDEN
 62
3
100
AcDbLine
 10
243.1953935330774
 20
245.0892026004404
 30
0.0000000000000000
 11
234.0078363952625
 21
245.3763137609964
 31
0.0000000000000000
  0
LINE
  5
2AC
100
AcDbEntity
  8
MAIN0
  6
HIDDEN
 62
3
100
AcDbLine
 10
243.1953935330774
 20
256.5209249215538
 30
0.0000000000000000
 11
234.0078363952616
 21
256.2338137609963
 31
0.0000000000000000
  0
LINE
  5
2AD
100
AcDbEntity
  8
MAIN0
  6
HIDDEN
 62
3
100
AcDbLine
 10
234.0078363952626
 20
245.4050637609986
 30
0.0000000000000000
 11
194.4078363952627
 21
245.4050637609952
 31
0.0000000000000000
  0
LINE
  5
2AE
100
AcDbEntity
  8
MAIN0
  6
HIDDEN
 62
3
100
AcDbLine
 10
194.4078363952627
 20
245.4050637609960
 30
0.0000000000000000
 11
194.4078363952618
 21
256.2050637609960
 31
0.0000000000000000
  0
LINE
  5
2AF
100
AcDbEntity
  8
MAIN0
  6
HIDDEN
 62
3
100
AcDbLine
 10
194.4078363952618
 20
256.2050637609952
 30
0.0000000000000000
 11
234.0078363952617
 21
256.2050637609985
 31
0.0000000000000000
  0
LINE
  5
2B0
100
AcDbEntity
  8
MAIN0
  6
HIDDEN
 62
3
100
AcDbLine
 10
194.4078363952627
 20
245.4050637609960
 30
0.0000000000000000
 11
192.8311451156299
 21
248.1359731651703
 31
0.0000000000000000
  0
LINE
  5
2B1
100
AcDbEntity
  8
MAIN0
  6
HIDDEN
 62
3
100
AcDbLine
 10
192.8311451156314
 20
253.4741543568249
 30
0.0000000000000000
 11
194.4078363952618
 21
256.2050637609960
 31
0.0000000000000000
  0
MTEXT
  5
2B2
100
AcDbEntity
  8
MAIN0
  6
CONTINUOUS
 62
3
100
AcDbMText
 10
237.2828936038705
 20
248.5737351040443
 30
0.0000000000000000
 40
5.000000000000000
 41
0.0000000000000000
 71
     1
 72
     1
  1
{\H0.84x;{Ｂ}}
 11
6.123233995736766e-017
 21
1.000000000000000
 31
0.0000000000000000
  7
KNJYOKO
  0
MTEXT
  5
2B3
100
AcDbEntity
  8
MAIN0
  6
CONTINUOUS
 62
3
100
AcDbMText
 10
80.16288488995758
 20
256.5420674584193
 30
0.0000000000000000
 40
4.000000000000000
 41
0.0000000000000000
 71
     1
 72
     1
  1
{\H0.81x;{A}}
 11
1.000000000000000
 21
0.0000000000000000
 31
0.0000000000000000
  7
STANDARD
  0
MTEXT
  5
2B4
100
AcDbEntity
  8
MAIN0
  6
CONTINUOUS
 62
3
100
AcDbMText
 10
157.7880237054988
 20
166.2599170954222
 30
0.0000000000000000
 40
4.000000000000000
 41
0.0000000000000000
 71
     1
 72
     1
  1
{\H0.88x;{Dr}}
 11
1.000000000000000
 21
0.0000000000000000
 31
0.0000000000000000
  7
STANDARD
  0
MTEXT
  5
2B5
100
AcDbEntity
  8
MAIN0
  6
CONTINUOUS
 62
3
100
AcDbMText
 10
225.7942761685684
 20
195.9069223732918
 30
0.0000000000000000
 40
4.000000000000000
 41
0.0000000000000000
 71
     1
 72
     1
  1
{\H0.81x;{C}}
 11
1.000000000000000
 21
0.0000000000000000
 31
0.0000000000000000
  7
STANDARD
  0
MTEXT
  5
2B6
100
AcDbEntity
  8
MAIN0
  6
CONTINUOUS
 62
3
100
AcDbMText
 10
249.0470416618060
 20
256.5680088898197
 30
0.0000000000000000
 40
4.000000000000000
 41
0.0000000000000000
 71
     1
 72
     1
  1
{\H0.81x;{B}}
 11
1.000000000000000
 21
0.0000000000000000
 31
0.0000000000000000
  7
STANDARD
  0
LINE
  5
2B7
100
AcDbEntity
  8
MAIN0
  6
CENTER
 62
3
100
AcDbLine
 10
179.3541448519365
 20
302.8533955006469
 30
0.0000000000000000
 11
184.6689628551554
 21
322.6885663216322
 31
0.0000000000000000
  0
LINE
  5
2B8
100
AcDbEntity
  8
MAIN0
  6
CENTER
 62
3
100
AcDbLine
 10
152.3053711519404
 20
201.9059977671276
 30
0.0000000000000000
 11
145.8322285343178
 21
177.7479006334963
 31
0.0000000000000000
  0
LINE
  5
2B9
100
AcDbEntity
  8
MAIN0
  6
CENTER
 62
3
100
AcDbLine
 10
145.6811696102751
 20
321.8050637609970
 30
0.0000000000000000
 11
185.1927812602267
 21
321.8050637609970
 31
0.0000000000000000
  0
LINE
  5
2BA
100
AcDbEntity
  8
MAIN0
  6
CONTINUOUS
 62
3
100
AcDbLine
 10
104.7027192303860
 20
302.6713461610137
 30
0.0000000000000000
 11
113.5415539952133
 21
311.5101809258501
 31
0.0000000000000000
  0
LINE
  5
2BB
100
AcDbEntity
  8
MAIN0
  6
CONTINUOUS
 62
3
100
AcDbLine
 10
144.0561118664796
 20
173.8679052506471
 30
0.0000000000000000
 11
132.3099541066535
 21
178.1431570422120
 31
0.0000000000000000
  0
LINE
  5
2BC
100
AcDbEntity
  8
MAIN0
  6
CONTINUOUS
 62
3
100
AcDbLine
 10
217.2741187955768
 20
311.5101809255752
 30
0.0000000000000000
 11
226.1129535604133
 21
302.6713461607481
 31
0.0000000000000000
  0
CIRCLE
  5
2BD
100
AcDbEntity
  8
MAIN0
  6
CENTER
 62
3
100
AcDbCircle
 10
165.4078363952622
 20
250.8050637609971
 30
0.0000000000000000
 40
64.00000000000000
  0
ARC
  5
2BE
100
AcDbEntity
  8
MAIN0
  6
CENTER
 62
3
100
AcDbCircle
 10
165.4078363952622
 20
250.8050637609971
 30
0.0000000000000000
 40
31.50000000000000
100
AcDbArc
 50
52.96320190557778
 51
82.30346590367407
  0
ARC
  5
2BF
100
AcDbEntity
  8
MAIN0
  6
CENTER
 62
3
100
AcDbCircle
 10
165.4078363952622
 20
250.8050637609971
 30
0.0000000000000000
 40
31.50000000000000
100
AcDbArc
 50
142.6068867864282
 51
170.7301253805137
  0
CIRCLE
  5
2C0
100
AcDbEntity
  8
MAIN0
  6
HIDDEN
 62
3
100
AcDbCircle
 10
194.4078363952622
 20
250.8050637609971
 30
0.0000000000000000
 40
3.100000000000000
  0
CIRCLE
  5
2C1
100
AcDbEntity
  8
MAIN0
  6
HIDDEN
 62
3
100
AcDbCircle
 10
194.4078363952622
 20
250.8050637609971
 30
0.0000000000000000
 40
5.000000000000000
  0
CIRCLE
  5
2C2
100
AcDbEntity
  8
MAIN0
  6
HIDDEN
 62
3
100
AcDbCircle
 10
165.4078363952623
 20
221.8050637609971
 30
0.0000000000000000
 40
3.100000000000000
  0
CIRCLE
  5
2C3
100
AcDbEntity
  8
MAIN0
  6
HIDDEN
 62
3
100
AcDbCircle
 10
165.4078363952623
 20
221.8050637609971
 30
0.0000000000000000
 40
5.000000000000000
  0
LINE
  5
2C4
100
AcDbEntity
  8
MAIN0
  6
HIDDEN
 62
3
100
AcDbLine
 10
168.0769269910886
 20
223.3817550406304
 30
0.0000000000000000
 11
170.8078363952648
 21
221.8050637609971
 31
0.0000000000000000
  0
LINE
  5
2C5
100
AcDbEntity
  8
MAIN0
  6
HIDDEN
 62
3
100
AcDbLine
 10
160.0078363952647
 20
221.8050637609962
 30
0.0000000000000000
 11
162.7387457994333
 21
223.3817550406257
 31
0.0000000000000000
  0
CIRCLE
  5
2C6
100
AcDbEntity
  8
MAIN0
  6
HIDDEN
 62
3
100
AcDbCircle
 10
136.4078363952622
 20
250.8050637609971
 30
0.0000000000000000
 40
3.100000000000000
  0
CIRCLE
  5
2C7
100
AcDbEntity
  8
MAIN0
  6
HIDDEN
 62
3
100
AcDbCircle
 10
136.4078363952622
 20
250.8050637609971
 30
0.0000000000000000
 40
5.000000000000000
  0
LINE
  5
2C8
100
AcDbEntity
  8
MAIN0
  6
HIDDEN
 62
3
100
AcDbLine
 10
137.9845276748932
 20
248.1359731651695
 30
0.0000000000000000
 11
136.4078363952628
 21
245.4050637609983
 31
0.0000000000000000
  0
LINE
  5
2C9
100
AcDbEntity
  8
MAIN0
  6
HIDDEN
 62
3
100
AcDbLine
 10
136.4078363952618
 20
256.2050637609983
 30
0.0000000000000000
 11
137.9845276748946
 21
253.4741543568240
 31
0.0000000000000000
  0
ARC
  5
2CA
100
AcDbEntity
  8
MAIN0
  6
CENTER
 62
3
100
AcDbCircle
 10
165.4078363952622
 20
250.8050637609971
 30
0.0000000000000000
 40
29.00000000000000
100
AcDbArc
 50
346.6277526519326
 51
370.7857646382471
  0
ARC
  5
2CB
100
AcDbEntity
  8
MAIN0
  6
CENTER
 62
3
100
AcDbCircle
 10
165.4078363952622
 20
250.8050637609971
 30
0.0000000000000000
 40
29.00000000000000
100
AcDbArc
 50
256.1831449408456
 51
285.5779229292725
  0
ARC
  5
2CC
100
AcDbEntity
  8
MAIN0
  6
CENTER
 62
3
100
AcDbCircle
 10
165.4078363952622
 20
250.8050637609971
 30
0.0000000000000000
 40
29.00000000000000
100
AcDbArc
 50
166.6824044398644
 51
191.6828824953155
  0
LINE
  5
2CD
100
AcDbEntity
  8
MAIN0
  6
CONTINUOUS
 62
3
100
AcDbLine
 10
122.2917141206420
 20
315.8050637609971
 30
0.0000000000000000
 11
208.5239586698824
 21
315.8050637609971
 31
0.0000000000000000
  0
LINE
  5
2CE
100
AcDbEntity
  8
MAIN0
  6
CONTINUOUS
 62
3
100
AcDbLine
 10
210.1467984309726
 20
314.6989232153083
 30
0.0000000000000000
 11
211.0645207291344
 21
316.0095664861698
 31
0.0000000000000000
  0
LINE
  5
2CF
100
AcDbEntity
  8
MAIN0
  6
CENTER
 62
3
100
AcDbLine
 10
198.4974135591397
 20
316.7658669794492
 30
0.0000000000000000
 11
216.7216931980470
 21
355.8479607862140
 31
0.0000000000000000
  0
LINE
  5
2D0
100
AcDbEntity
  8
MAIN0
  6
CONTINUOUS
 62
3
100
AcDbLine
 10
215.8328262533009
 20
330.4070652855367
 30
0.0000000000000000
 11
215.4102079915586
 21
329.5007574985008
 31
0.0000000000000000
  0
LINE
  5
2D1
100
AcDbEntity
  8
MAIN0
  6
CONTINUOUS
 62
3
100
AcDbLine
 10
197.7554282232853
 20
338.8366661168898
 30
0.0000000000000000
 11
197.3328099615444
 21
337.9303583298532
 31
0.0000000000000000
  0
LINE
  5
2D2
100
AcDbEntity
  8
MAIN0
  6
CONTINUOUS
 62
3
100
AcDbLine
 10
197.7066705125825
 20
338.8594305203822
 30
0.0000000000000000
 11
215.8328262533009
 21
330.4070652855367
 31
0.0000000000000000
  0
LINE
  5
2D3
100
AcDbEntity
  8
MAIN0
  6
PHANTOM
 62
3
100
AcDbLine
 10
200.4672699895811
 20
341.1029511836680
 30
0.0000000000000000
 11
199.1148915520703
 21
338.2027662652911
 31
0.0000000000000000
  0
ARC
  5
2D4
100
AcDbEntity
  8
MAIN0
  6
PHANTOM
 62
3
100
AcDbCircle
 10
199.7171614196471
 20
329.4379814359556
 30
0.0000000000000000
 40
11.68906249798220
100
AcDbArc
 50
43.67930340697411
 51
86.32069659283603
  0
LINE
  5
2D5
100
AcDbEntity
  8
MAIN0
  6
PHANTOM
 62
3
100
AcDbLine
 10
208.1708861793866
 20
337.5106959588593
 30
0.0000000000000000
 11
206.8185077418755
 21
334.6105110404818
 31
0.0000000000000000
  0
LINE
  5
2D6
100
AcDbEntity
  8
MAIN0
  6
PHANTOM
 62
3
100
AcDbLine
 10
204.6571726939524
 20
340.0318698010288
 30
0.0000000000000000
 11
212.3607888837540
 21
336.4396145762138
 31
0.0000000000000000
  0
LINE
  5
2D7
100
AcDbEntity
  8
MAIN0
  6
PHANTOM
 62
3
100
AcDbLine
 10
215.8745023691918
 20
333.9184407340500
 30
0.0000000000000000
 11
214.5221239316807
 21
331.0182558156724
 31
0.0000000000000000
  0
ARC
  5
2D8
100
AcDbEntity
  8
MAIN0
  6
PHANTOM
 62
3
100
AcDbCircle
 10
207.4207776094516
 20
325.8457262111469
 30
0.0000000000000000
 40
11.68906249798220
100
AcDbArc
 50
43.67930340696933
 51
86.32069659283125
  0
LINE
  5
2D9
100
AcDbEntity
  8
MAIN0
  6
PHANTOM
 62
3
100
AcDbLine
 10
220.5042496354101
 20
349.7624697444561
 30
0.0000000000000000
 11
213.8911513929104
 21
335.5806347974699
 31
0.0000000000000000
  0
LINE
  5
2DA
100
AcDbEntity
  8
MAIN0
  6
PHANTOM
 62
3
100
AcDbLine
 10
220.2423317574440
 20
350.4820831998272
 30
0.0000000000000000
 11
213.4295892133162
 21
335.8721096663612
 31
0.0000000000000000
  0
LINE
  5
2DB
100
AcDbEntity
  8
MAIN0
  6
PHANTOM
 62
3
100
AcDbLine
 10
209.6285561909785
 20
354.8338888853637
 30
0.0000000000000000
 11
220.5042496354095
 21
349.7624697444563
 31
0.0000000000000000
  0
LINE
  5
2DC
100
AcDbEntity
  8
MAIN0
  6
PHANTOM
 62
3
100
AcDbLine
 10
210.3481696463989
 20
355.0958067633234
 30
0.0000000000000000
 11
203.5354271022458
 21
340.4858332298032
 31
0.0000000000000000
  0
LINE
  5
2DD
100
AcDbEntity
  8
MAIN0
  6
PHANTOM
 62
3
100
AcDbLine
 10
209.6285561909792
 20
354.8338888853634
 30
0.0000000000000000
 11
203.0154579484805
 21
340.6520539383794
 31
0.0000000000000000
  0
LINE
  5
2DE
100
AcDbEntity
  8
MAIN0
  6
PHANTOM
 62
3
100
AcDbLine
 10
209.6285561909667
 20
354.8338888853692
 30
0.0000000000000000
 11
210.9574822397429
 21
355.3175784106638
 31
0.0000000000000000
  0
LINE
  5
2DF
100
AcDbEntity
  8
MAIN0
  6
PHANTOM
 62
3
100
AcDbLine
 10
211.8027187632072
 20
357.1301939847451
 30
0.0000000000000000
 11
210.9574822397216
 21
355.3175784106737
 31
0.0000000000000000
  0
LINE
  5
2E0
100
AcDbEntity
  8
MAIN0
  6
PHANTOM
 62
3
100
AcDbLine
 10
210.9574822397429
 20
355.3175784106637
 30
0.0000000000000000
 11
220.0205601100740
 21
351.0913957932540
 31
0.0000000000000000
  0
LINE
  5
2E1
100
AcDbEntity
  8
MAIN0
  6
PHANTOM
 62
3
100
AcDbLine
 10
211.8027187632274
 20
357.1301939847356
 30
0.0000000000000000
 11
220.8657966335586
 21
352.9040113673259
 31
0.0000000000000000
  0
LINE
  5
2E2
100
AcDbEntity
  8
MAIN0
  6
PHANTOM
 62
3
100
AcDbLine
 10
220.8657966335360
 20
352.9040113673365
 30
0.0000000000000000
 11
220.0205601100502
 21
351.0913957932651
 31
0.0000000000000000
  0
LINE
  5
2E3
100
AcDbEntity
  8
MAIN0
  6
PHANTOM
 62
3
100
AcDbLine
 10
220.0205601100739
 20
351.0913957932540
 30
0.0000000000000000
 11
220.5042496353903
 21
349.7624697444156
 31
0.0000000000000000
  0
LINE
  5
2E4
100
AcDbEntity
  8
MAIN0
  6
PHANTOM
 62
3
100
AcDbLine
 10
195.3206065552789
 20
321.7841902903348
 30
0.0000000000000000
 11
204.3836844256100
 21
317.5580076729252
 31
0.0000000000000000
  0
LINE
  5
2E5
100
AcDbEntity
  8
MAIN0
  6
PHANTOM
 62
3
100
AcDbLine
 10
195.3205973601432
 20
321.7841945781090
 30
0.0000000000000000
 11
194.8369078348520
 21
323.1131206268895
 31
0.0000000000000000
  0
ARC
  5
2E6
100
AcDbEntity
  8
MAIN0
  6
HIDDEN
 62
3
100
AcDbCircle
 10
165.4078363952622
 20
250.8050637609971
 30
0.0000000000000000
 40
75.99999999999999
100
AcDbArc
 50
53.37743660808697
 51
73.88959212092311
  0
LINE
  5
2E7
100
AcDbEntity
  8
MAIN0
  6
CENTER
 62
3
100
AcDbLine
 10
215.9657418275364
 20
301.3629691927072
 30
0.0000000000000000
 11
227.8391165856203
 21
313.2363439507822
 31
0.0000000000000000
  0
CIRCLE
  5
2E8
100
AcDbEntity
  8
MAIN0
  6
HIDDEN
 62
3
100
AcDbCircle
 10
181.9722552814736
 20
312.6243166435914
 30
0.0000000000000000
 40
6.500000000000000
  0
LINE
  5
2E9
100
AcDbEntity
  8
MAIN0
  6
HIDDEN
 62
3
100
AcDbLine
 10
184.4217450242563
 20
315.0738063863726
 30
0.0000000000000000
 11
181.0756798093051
 21
315.9703818585406
 31
0.0000000000000000
  0
LINE
  5
2EA
100
AcDbEntity
  8
MAIN0
  6
HIDDEN
 62
3
100
AcDbLine
 10
181.0756798093050
 20
315.9703818585406
 30
0.0000000000000000
 11
178.6261900665218
 21
313.5208921157574
 31
0.0000000000000000
  0
LINE
  5
2EB
100
AcDbEntity
  8
MAIN0
  6
HIDDEN
 62
3
100
AcDbLine
 10
178.6261900665219
 20
313.5208921157574
 30
0.0000000000000000
 11
179.5227655386899
 21
310.1748269008062
 31
0.0000000000000000
  0
LINE
  5
2EC
100
AcDbEntity
  8
MAIN0
  6
HIDDEN
 62
3
100
AcDbLine
 10
179.5227655386899
 20
310.1748269008061
 30
0.0000000000000000
 11
182.8688307536411
 21
309.2782514286381
 31
0.0000000000000000
  0
LINE
  5
2ED
100
AcDbEntity
  8
MAIN0
  6
HIDDEN
 62
3
100
AcDbLine
 10
182.8688307536411
 20
309.2782514286381
 30
0.0000000000000000
 11
185.3183204964243
 21
311.7277411714213
 31
0.0000000000000000
  0
LINE
  5
2EE
100
AcDbEntity
  8
MAIN0
  6
HIDDEN
 62
3
100
AcDbLine
 10
185.3183204964243
 20
311.7277411714213
 30
0.0000000000000000
 11
184.4217450242563
 21
315.0738063863726
 31
0.0000000000000000
  0
LINE
  5
2EF
100
AcDbEntity
  8
MAIN0
  6
CENTER
 62
12
100
AcDbLine
 10
230.6190785871211
 20
185.5938215691496
 30
0.0000000000000000
 11
170.1898543887224
 21
246.0230457675380
 31
0.0000000000000000
  0
LINE
  5
2F0
100
AcDbEntity
  8
MAIN0
  6
CENTER
 62
3
100
AcDbLine
 10
113.3595046557885
 20
236.8587553036660
 30
0.0000000000000000
 11
93.52433383480189
 21
231.5439373004518
 31
0.0000000000000000
  0
LINE
  5
2F1
100
AcDbEntity
  8
MAIN0
  6
CENTER
 62
3
100
AcDbLine
 10
214.3069023889459
 20
263.9075290050125
 30
0.0000000000000000
 11
238.4649995225739
 21
270.3806716226473
 31
0.0000000000000000
  0
LINE
  5
2F2
100
AcDbEntity
  8
MAIN0
  6
CENTER
 62
3
100
AcDbLine
 10
103.0670639305797
 20
313.1458362256290
 30
0.0000000000000000
 11
127.3058131124628
 21
288.9070870433156
 31
0.0000000000000000
  0
LINE
  5
2F3
100
AcDbEntity
  8
MAIN0
  6
PHANTOM
 62
3
100
AcDbLine
 10
57.07033580702182
 20
390.7118764503325
 30
0.0000000000000000
 11
105.4076614361845
 21
390.7118764503331
 31
0.0000000000000000
  0
LINE
  5
2F4
100
AcDbEntity
  8
MAIN0
  6
PHANTOM
 62
3
100
AcDbLine
 10
56.54025735620633
 20
364.7118764503331
 30
0.0000000000000000
 11
104.8775829853690
 21
364.7118764503338
 31
0.0000000000000000
  0
LEADER
  5
2F5
100
AcDbEntity
  8
MAIN0
  6
CONTINUOUS
 62
3
100
AcDbLeader
  3
MAIN001
 73
     0
 74
     0
 75
     1
 40
3.099999904632568
 41
37.90100087022780
 76
     3
 10
102.1297421035154
 20
364.7118764503337
 30
0.0000000000000000
 10
118.4255740624786
 20
386.0131615673669
 30
0.0000000000000000
 10
120.3505740066887
 20
386.0131615673669
 30
0.0000000000000000
340
2F6
213
0.0000000000000000
223
-0.5000000000000000
233
0.0000000000000000
1001
ACAD
1000
DSTYLE
1002
{
1070
   147
1040
0.0
1070
    77
1070
     1
1070
   173
1070
     1
1070
     6
1000
_OPEN
1070
     7
1000
_OPEN
1002
}
  0
MTEXT
  5
2F6
102
{ACAD_REACTORS
330
2F5
102
}
100
AcDbEntity
  8
MAIN0
  6
CONTINUOUS
 62
3
100
AcDbMText
 10
120.3515740066887
 20
389.6131614719994
 30
0.0000000000000000
 40
3.099999904632568
 41
0.0000000000000000
 71
     1
 72
     1
  1
{\H0.94x;{ディテクタブルプレート}}
 11
1.000000000000000
 21
0.0000000000000000
 31
0.0000000000000000
  7
KNJYOKO
  0
LINE
  5
2F7
100
AcDbEntity
  8
MAIN0
  6
CENTER
 62
3
100
AcDbLine
 10
99.58417681235918
 20
352.7118764503360
 30
0.0000000000000000
 11
90.58783152079218
 21
352.7118764503359
 31
0.0000000000000000
  0
LINE
  5
2F8
100
AcDbEntity
  8
MAIN0
  6
CENTER
 62
3
100
AcDbLine
 10
59.04843070460129
 20
373.7118764503356
 30
0.0000000000000000
 11
70.63696985253145
 21
373.7118764503357
 31
0.0000000000000000
  0
INSERT
  5
30D
100
AcDbEntity
  8
MAIN0
  6
CONTINUOUS
 62
3
100
AcDbBlockReference
  2
*X2
 10
0.0000000000000000
 20
0.0000000000000000
 30
0.0000000000000000
 50
0.0000000000000000
  0
INSERT
  5
322
100
AcDbEntity
  8
MAIN0
  6
CONTINUOUS
 62
3
100
AcDbBlockReference
  2
*X3
 10
0.0000000000000000
 20
0.0000000000000000
 30
0.0000000000000000
 50
0.0000000000000000
  0
LINE
  5
323
100
AcDbEntity
  8
MAIN0
  6
CONTINUOUS
 62
3
100
AcDbLine
 10
335.4078363952622
 20
286.8050637609970
 30
0.0000000000000000
 11
375.0078363952623
 21
286.8050637609970
 31
0.0000000000000000
  0
MTEXT
  5
324
100
AcDbEntity
  8
MAIN0
  6
CONTINUOUS
 62
3
100
AcDbMText
 10
474.0493145464944
 20
143.8688031128230
 30
0.0000000000000000
 40
3.099999904632568
 41
0.0000000000000000
 71
     1
 72
     1
  1
{\H0.70x;{MIN 40}}
 11
1.000000000000000
 21
0.0000000000000000
 31
0.0000000000000000
  7
STANDARD
  0
LINE
  5
325
100
AcDbEntity
  8
MAIN0
  6
CONTINUOUS
 62
3
100
AcDbLine
 10
465.4078363952615
 20
265.8050637609971
 30
0.0000000000000000
 11
493.5418109920393
 21
265.8050637609971
 31
0.0000000000000000
  0
LINE
  5
326
100
AcDbEntity
  8
MAIN0
  6
CONTINUOUS
 62
3
100
AcDbLine
 10
465.4078363952615
 20
235.8050637609971
 30
0.0000000000000000
 11
493.5418109920394
 21
235.8050637609971
 31
0.0000000000000000
  0
LINE
  5
327
100
AcDbEntity
  8
MAIN0
  6
CONTINUOUS
 62
3
100
AcDbLine
 10
325.4078363952622
 20
328.8050637609970
 30
0.0000000000000000
 11
335.0078363952622
 21
328.8050637609970
 31
0.0000000000000000
  0
LINE
  5
328
100
AcDbEntity
  8
MAIN0
  6
CONTINUOUS
 62
3
100
AcDbLine
 10
325.7078363952658
 20
336.1050637609972
 30
0.0000000000000000
 11
410.4078363952621
 21
336.1050637609972
 31
0.0000000000000000
  0
LINE
  5
329
100
AcDbEntity
  8
MAIN0
  6
CENTER
 62
3
100
AcDbLine
 10
371.4078363952621
 20
347.9936321646852
 30
0.0000000000000000
 11
371.4078363952621
 21
325.1009047185152
 31
0.0000000000000000
  0
LINE
  5
32A
100
AcDbEntity
  8
MAIN0
  6
PHANTOM
 62
3
100
AcDbLine
 10
366.4078363952630
 20
327.8050637609971
 30
0.0000000000000000
 11
365.4078363952620
 21
328.8050637609980
 31
0.0000000000000000
  0
LINE
  5
32B
100
AcDbEntity
  8
MAIN0
  6
CONTINUOUS
 62
3
100
AcDbLine
 10
325.7078363952658
 20
339.3050637609972
 30
0.0000000000000000
 11
410.4078363952621
 21
339.3050637609972
 31
0.0000000000000000
  0
LINE
  5
32C
100
AcDbEntity
  8
MAIN0
  6
CENTER
 62
3
100
AcDbLine
 10
308.8981018216068
 20
321.8050637609970
 30
0.0000000000000000
 11
334.5871222058220
 21
321.8050637609970
 31
0.0000000000000000
  0
LINE
  5
32D
100
AcDbEntity
  8
MAIN0
  6
CONTINUOUS
 62
3
100
AcDbLine
 10
335.0078363952623
 20
328.8050637609970
 30
0.0000000000000000
 11
335.4078363952623
 21
328.4050637609970
 31
0.0000000000000000
  0
LINE
  5
32E
100
AcDbEntity
  8
MAIN0
  6
CONTINUOUS
 62
3
100
AcDbLine
 10
375.0078363952623
 20
286.8050637609970
 30
0.0000000000000000
 11
375.4078363952623
 21
286.4050637609970
 31
0.0000000000000000
  0
LINE
  5
32F
100
AcDbEntity
  8
MAIN0
  6
CONTINUOUS
 62
3
100
AcDbLine
 10
510.4078363952615
 20
264.3050637609971
 30
0.0000000000000000
 11
510.4078363952615
 21
237.3050637609971
 31
0.0000000000000000
  0
LINE
  5
330
100
AcDbEntity
  8
MAIN0
  6
CONTINUOUS
 62
3
100
AcDbLine
 10
502.4078363952615
 20
261.8050637609971
 30
0.0000000000000000
 11
502.4078363952615
 21
239.8050637609971
 31
0.0000000000000000
  0
LINE
  5
331
100
AcDbEntity
  8
MAIN0
  6
CONTINUOUS
 62
3
100
AcDbLine
 10
507.4078363952615
 20
262.8050637609971
 30
0.0000000000000000
 11
507.4078363952615
 21
238.8050637609971
 31
0.0000000000000000
  0
LINE
  5
332
100
AcDbEntity
  8
MAIN0
  6
CONTINUOUS
 62
3
100
AcDbLine
 10
504.9078363952615
 20
262.8050637609971
 30
0.0000000000000000
 11
504.9078363952615
 21
238.8050637609971
 31
0.0000000000000000
  0
LINE
  5
333
100
AcDbEntity
  8
MAIN0
  6
CONTINUOUS
 62
3
100
AcDbLine
 10
504.9078363952615
 20
238.8050637609971
 30
0.0000000000000000
 11
507.4078363952615
 21
238.8050637609971
 31
0.0000000000000000
  0
LINE
  5
334
100
AcDbEntity
  8
MAIN0
  6
CONTINUOUS
 62
3
100
AcDbLine
 10
509.5418109909236
 20
239.8050637609715
 30
0.0000000000000000
 11
510.4078363952613
 21
239.3050637606526
 31
0.0000000000000000
  0
LINE
  5
335
100
AcDbEntity
  8
MAIN0
  6
CONTINUOUS
 62
3
100
AcDbLine
 10
509.5418109908994
 20
261.8050637609972
 30
0.0000000000000000
 11
509.5418109909238
 21
239.8050637609972
 31
0.0000000000000000
  0
LINE
  5
336
100
AcDbEntity
  8
MAIN0
  6
CONTINUOUS
 62
3
100
AcDbLine
 10
502.4078363952615
 20
239.8050637609971
 30
0.0000000000000000
 11
504.9078363952615
 21
239.8050637609971
 31
0.0000000000000000
  0
LINE
  5
337
100
AcDbEntity
  8
MAIN0
  6
CONTINUOUS
 62
3
100
AcDbLine
 10
507.4078363952615
 20
239.8050637609971
 30
0.0000000000000000
 11
509.5418109909236
 21
239.8050637609971
 31
0.0000000000000000
  0
LINE
  5
338
100
AcDbEntity
  8
MAIN0
  6
CONTINUOUS
 62
3
100
AcDbLine
 10
501.1087982894630
 20
242.0550637609973
 30
0.0000000000000000
 11
502.4078363951358
 21
239.8050637609972
 31
0.0000000000000000
  0
LINE
  5
339
100
AcDbEntity
  8
MAIN0
  6
CONTINUOUS
 62
3
100
AcDbLine
 10
501.1087982896179
 20
259.5550637609971
 30
0.0000000000000000
 11
501.1087982896179
 21
242.0550637609971
 31
0.0000000000000000
  0
LINE
  5
33A
100
AcDbEntity
  8
MAIN0
  6
CONTINUOUS
 62
3
100
AcDbLine
 10
504.9078363952615
 20
262.8050637609971
 30
0.0000000000000000
 11
507.4078363952615
 21
262.8050637609971
 31
0.0000000000000000
  0
LINE
  5
33B
100
AcDbEntity
  8
MAIN0
  6
CONTINUOUS
 62
3
100
AcDbLine
 10
509.5418109909236
 20
261.8050637610229
 30
0.0000000000000000
 11
510.4078363952613
 21
262.3050637613418
 31
0.0000000000000000
  0
LINE
  5
33C
100
AcDbEntity
  8
MAIN0
  6
CONTINUOUS
 62
3
100
AcDbLine
 10
502.4078363952615
 20
261.8050637609971
 30
0.0000000000000000
 11
504.9078363952615
 21
261.8050637609971
 31
0.0000000000000000
  0
LINE
  5
33D
100
AcDbEntity
  8
MAIN0
  6
CONTINUOUS
 62
3
100
AcDbLine
 10
507.4078363952615
 20
261.8050637609971
 30
0.0000000000000000
 11
509.5418109909236
 21
261.8050637609971
 31
0.0000000000000000
  0
LINE
  5
33E
100
AcDbEntity
  8
MAIN0
  6
CONTINUOUS
 62
3
100
AcDbLine
 10
501.1087982894630
 20
259.5550637609970
 30
0.0000000000000000
 11
502.4078363951358
 21
261.8050637609970
 31
0.0000000000000000
  0
LINE
  5
33F
100
AcDbEntity
  8
MAIN0
  6
CONTINUOUS
 62
3
100
AcDbLine
 10
494.4078363958266
 20
236.3050637609971
 30
0.0000000000000000
 11
509.4078363952615
 21
236.3050637609971
 31
0.0000000000000000
  0
LINE
  5
340
100
AcDbEntity
  8
MAIN0
  6
CONTINUOUS
 62
3
100
AcDbLine
 10
493.5418109920394
 20
235.8050637609971
 30
0.0000000000000000
 11
494.4078363958267
 21
236.3050637609972
 31
0.0000000000000000
  0
LINE
  5
341
100
AcDbEntity
  8
MAIN0
  6
CONTINUOUS
 62
3
100
AcDbLine
 10
509.4078363952615
 20
236.3050637609971
 30
0.0000000000000000
 11
510.4078363952614
 21
237.3050637609971
 31
0.0000000000000000
  0
LINE
  5
342
100
AcDbEntity
  8
MAIN0
  6
CONTINUOUS
 62
3
100
AcDbLine
 10
494.4078363958266
 20
265.3050637609971
 30
0.0000000000000000
 11
509.4078363952615
 21
265.3050637609971
 31
0.0000000000000000
  0
LINE
  5
343
100
AcDbEntity
  8
MAIN0
  6
CONTINUOUS
 62
3
100
AcDbLine
 10
493.5418109920394
 20
265.8050637609971
 30
0.0000000000000000
 11
494.4078363958267
 21
265.3050637609970
 31
0.0000000000000000
  0
LINE
  5
344
100
AcDbEntity
  8
MAIN0
  6
CONTINUOUS
 62
3
100
AcDbLine
 10
509.4078363952616
 20
265.3050637609972
 30
0.0000000000000000
 11
510.4078363952615
 21
264.3050637609973
 31
0.0000000000000000
  0
LINE
  5
345
100
AcDbEntity
  8
MAIN0
  6
CONTINUOUS
 62
3
100
AcDbLine
 10
480.4078363952615
 20
260.8050637609971
 30
0.0000000000000000
 11
480.4078363952615
 21
240.8050637609971
 31
0.0000000000000000
  0
LINE
  5
346
100
AcDbEntity
  8
MAIN0
  6
CONTINUOUS
 62
3
100
AcDbLine
 10
398.4078363952618
 20
323.3050637609971
 30
0.0000000000000000
 11
449.4078363952615
 21
323.3050637609971
 31
0.0000000000000000
  0
LINE
  5
347
100
AcDbEntity
  8
MAIN0
  6
CONTINUOUS
 62
3
100
AcDbLine
 10
398.4078363952618
 20
178.3050637609971
 30
0.0000000000000000
 11
449.4078363952615
 21
178.3050637609971
 31
0.0000000000000000
  0
ARC
  5
348
100
AcDbEntity
  8
MAIN0
  6
CONTINUOUS
 62
3
100
AcDbCircle
 10
449.4078363952615
 20
179.3050637609971
 30
0.0000000000000000
 40
1.000000000000000
100
AcDbArc
 50
270.0000000000000
 51
360.0000000000000
  0
ARC
  5
349
100
AcDbEntity
  8
MAIN0
  6
CONTINUOUS
 62
3
100
AcDbCircle
 10
449.4078363952615
 20
322.3050637609971
 30
0.0000000000000000
 40
1.000000000000000
100
AcDbArc
 50
0.0000000000000000
 51
90.00000000000000
  0
ELLIPSE
  5
34A
100
AcDbEntity
  8
MAIN0
  6
CONTINUOUS
 62
3
100
AcDbEllipse
 10
506.1578363952615
 20
262.3050637609971
 30
0.0000000000000000
 11
-1.250000000000000
 21
0.0000000000000000
 31
0.0000000000000000
210
0.0000000000000000
220
0.0000000000000000
230
1.000000000000000
 40
0.4000000000000000
 41
0.0000000000000000
 42
6.283185307179586
  0
ELLIPSE
  5
34B
100
AcDbEntity
  8
MAIN0
  6
CONTINUOUS
 62
3
100
AcDbEllipse
 10
506.1578363952615
 20
239.3050637609971
 30
0.0000000000000000
 11
-1.250000000000000
 21
0.0000000000000000
 31
0.0000000000000000
210
0.0000000000000000
220
0.0000000000000000
230
1.000000000000000
 40
0.4000000000000000
 41
0.0000000000000000
 42
6.283185307179586
  0
LINE
  5
34C
100
AcDbEntity
  8
MAIN0
  6
CONTINUOUS
 62
3
100
AcDbLine
 10
325.4078363952611
 20
315.8050637609970
 30
0.0000000000000000
 11
325.4078363952610
 21
318.8050637609970
 31
0.0000000000000000
  0
LEADER
  5
34D
100
AcDbEntity
  8
MAIN0
  6
CONTINUOUS
 62
3
100
AcDbLeader
  3
MAIN001
 73
     0
 74
     0
 75
     1
 40
3.099999904632568
 41
8.301000004470325
 76
     3
 10
456.9869459724195
 20
182.8050637609971
 30
0.0000000000000000
 10
473.5328578037840
 20
154.0683379740970
 30
0.0000000000000000
 10
475.3178577511233
 20
154.0683379740970
 30
0.0000000000000000
340
34E
213
0.0000000000000000
223
-0.5000000000000000
233
0.0000000000000000
1001
ACAD
1000
DSTYLE
1002
{
1070
   147
1040
0.0
1070
    77
1070
     1
1070
   173
1070
     1
1070
     6
1000
_OPEN
1070
     7
1000
_OPEN
1002
}
  0
MTEXT
  5
34E
102
{ACAD_REACTORS
330
34D
102
}
100
AcDbEntity
  8
MAIN0
  6
CONTINUOUS
 62
3
100
AcDbMText
 10
475.3188577511233
 20
157.6683378787296
 30
0.0000000000000000
 40
3.099999904632568
 41
0.0000000000000000
 71
     1
 72
     1
  1
{\H0.70x;{6-M8}}
 11
1.000000000000000
 21
0.0000000000000000
 31
0.0000000000000000
  7
STANDARD
  0
LEADER
  5
34F
100
AcDbEntity
  8
MAIN0
  6
CONTINUOUS
 62
3
100
AcDbLeader
  3
MAIN001
 73
     0
 74
     0
 75
     1
 40
3.099999904632568
 41
7.991000247955299
 76
     3
 10
489.6110850975449
 20
260.8050637609971
 30
0.0000000000000000
 10
482.1217451015812
 20
292.0146546797766
 30
0.0000000000000000
 10
484.0467450457913
 20
292.0146546797766
 30
0.0000000000000000
340
350
213
0.0000000000000000
223
-0.5000000000000000
233
0.0000000000000000
1001
ACAD
1000
DSTYLE
1002
{
1070
   147
1040
0.0
1070
    77
1070
     1
1070
   173
1070
     1
1070
     6
1000
_OPEN
1070
     7
1000
_OPEN
1002
}
  0
MTEXT
  5
350
102
{ACAD_REACTORS
330
34F
102
}
100
AcDbEntity
  8
MAIN0
  6
CONTINUOUS
 62
3
100
AcDbMText
 10
484.0477450457913
 20
295.6146545844092
 30
0.0000000000000000
 40
3.099999904632568
 41
0.0000000000000000
 71
     1
 72
     1
  1
{\H0.90x;{M20}}
 11
1.000000000000000
 21
0.0000000000000000
 31
0.0000000000000000
  7
STANDARD
  0
LINE
  5
351
100
AcDbEntity
  8
MAIN0
  6
CENTER
 62
12
100
AcDbLine
 10
296.3570469397029
 20
250.8050637609971
 30
0.0000000000000000
 11
518.6058340719844
 21
250.8050637609971
 31
0.0000000000000000
  0
LINE
  5
352
100
AcDbEntity
  8
MAIN0
  6
CONTINUOUS
 62
3
100
AcDbLine
 10
410.4078363952621
 20
339.3050637609971
 30
0.0000000000000000
 11
410.4078363952621
 21
336.1050637609971
 31
0.0000000000000000
  0
ARC
  5
353
100
AcDbEntity
  8
MAIN0
  6
CONTINUOUS
 62
3
100
AcDbCircle
 10
377.4078363952621
 20
322.8050637609971
 30
0.0000000000000000
 40
1.000000000000000
100
AcDbArc
 50
90.00000000000000
 51
180.0000000000000
  0
LINE
  5
354
100
AcDbEntity
  8
MAIN0
  6
CONTINUOUS
 62
3
100
AcDbLine
 10
372.4078363952621
 20
326.3050637609971
 30
0.0000000000000000
 11
398.4078363952621
 21
326.3050637609971
 31
0.0000000000000000
  0
LINE
  5
355
100
AcDbEntity
  8
MAIN0
  6
CONTINUOUS
 62
3
100
AcDbLine
 10
398.4078363952621
 20
323.8050637609971
 30
0.0000000000000000
 11
398.4078363952621
 21
326.3050637609971
 31
0.0000000000000000
  0
LINE
  5
356
100
AcDbEntity
  8
MAIN0
  6
CONTINUOUS
 62
3
100
AcDbLine
 10
372.4078363952621
 20
286.8050637609970
 30
0.0000000000000000
 11
372.4078363952621
 21
326.3050637609971
 31
0.0000000000000000
  0
LINE
  5
357
100
AcDbEntity
  8
MAIN0
  6
CONTINUOUS
 62
3
100
AcDbLine
 10
375.4078363952621
 20
323.8050637609971
 30
0.0000000000000000
 11
398.4078363952618
 21
323.8050637609971
 31
0.0000000000000000
  0
ARC
  5
358
100
AcDbEntity
  8
MAIN0
  6
CONTINUOUS
 62
3
100
AcDbCircle
 10
325.7078363952657
 20
335.8050637609972
 30
0.0000000000000000
 40
3.500000000000000
100
AcDbArc
 50
90.00000000000000
 51
180.0000000000000
  0
ARC
  5
359
100
AcDbEntity
  8
MAIN0
  6
CONTINUOUS
 62
3
100
AcDbCircle
 10
325.7078363952658
 20
335.8050637609971
 30
0.0000000000000000
 40
0.3000000000000000
100
AcDbArc
 50
90.00000000000000
 51
180.0000000000000
  0
LINE
  5
35A
100
AcDbEntity
  8
MAIN0
  6
CONTINUOUS
 62
3
100
AcDbLine
 10
315.4078363952622
 20
171.2050637609973
 30
0.0000000000000000
 11
398.4078363952618
 21
171.2050637609973
 31
0.0000000000000000
  0
DIMENSION
  5
363
100
AcDbEntity
  8
MAIN0
  6
CONTINUOUS
 62
3
100
AcDbDimension
  2
*D26
 10
525.4078363952615
 20
261.8050637609971
 30
0.0000000000000000
 11
524.9078363952615
 21
250.8050637609971
 31
0.0000000000000000
 70
32
  1
\A1;\U+220522H8
  3
MAIN001
100
AcDbAlignedDimension
 13
509.5418109909236
 23
239.8050637609971
 33
0.0000000000000000
 14
509.5418109909236
 24
261.8050637609971
 34
0.0000000000000000
 50
90.00000000000000
100
AcDbRotatedDimension
1001
ACAD
1000
DSTYLE
1002
{
1070
   173
1070
     1
1070
     6
1000
_OPEN
1070
     7
1000
_OPEN
1070
    41
1040
2.000000
1002
}
  0
DIMENSION
  5
36C
100
AcDbEntity
  8
MAIN0
  6
CONTINUOUS
 62
3
100
AcDbDimension
  2
*D27
 10
535.4078363952615
 20
265.8050637609971
 30
0.0000000000000000
 11
534.9078363952615
 21
250.8050637609971
 31
0.0000000000000000
 70
32
  1
\A1;\U+220530
  3
MAIN001
100
AcDbAlignedDimension
 13
493.5418109920394
 23
235.8050637609971
 33
0.0000000000000000
 14
493.5418109920393
 24
265.8050637609971
 34
0.0000000000000000
 50
90.00000000000000
100
AcDbRotatedDimension
1001
ACAD
1000
DSTYLE
1002
{
1070
   173
1070
     1
1070
     6
1000
_OPEN
1070
     7
1000
_OPEN
1070
    41
1040
2.000000
1002
}
  0
DIMENSION
  5
375
100
AcDbEntity
  8
MAIN0
  6
CONTINUOUS
 62
3
100
AcDbDimension
  2
*D28
 10
502.4078363952615
 20
218.7733403228630
 30
0.0000000000000000
 11
506.4078363952615
 21
219.2733403228630
 31
0.0000000000000000
 70
32
  3
MAIN001
100
AcDbAlignedDimension
 13
510.4078363952615
 23
237.3050637609971
 33
0.0000000000000000
 14
502.4078363952615
 24
239.8050637609971
 34
0.0000000000000000
100
AcDbRotatedDimension
1001
ACAD
1000
DSTYLE
1002
{
1070
   173
1070
     1
1070
     6
1000
_OPEN
1070
     7
1000
_OPEN
1070
    41
1040
2.000000
1002
}
  0
DIMENSION
  5
37E
100
AcDbEntity
  8
MAIN0
  6
CONTINUOUS
 62
3
100
AcDbDimension
  2
*D29
 10
480.4078363952615
 20
208.7733403228630
 30
0.0000000000000000
 11
495.4078363952615
 21
209.2733403228630
 31
0.0000000000000000
 70
32
  3
MAIN001
100
AcDbAlignedDimension
 13
510.4078363952615
 23
237.3050637609971
 33
0.0000000000000000
 14
480.4078363952615
 24
240.8050637609971
 34
0.0000000000000000
100
AcDbRotatedDimension
1001
ACAD
1000
DSTYLE
1002
{
1070
   173
1070
     1
1070
     6
1000
_OPEN
1070
     7
1000
_OPEN
1070
    41
1040
2.000000
1002
}
  0
DIMENSION
  5
387
100
AcDbEntity
  8
MAIN0
  6
CONTINUOUS
 62
3
100
AcDbDimension
  2
*D30
 10
565.4078363952615
 20
178.3050637609971
 30
0.0000000000000000
 11
564.9078363952615
 21
250.8050637609971
 31
0.0000000000000000
 70
32
  1
\A1;\U+2205145h7
  3
MAIN001
100
AcDbAlignedDimension
 13
449.4078363952615
 23
323.3050637609971
 33
0.0000000000000000
 14
449.4078363952615
 24
178.3050637609971
 34
0.0000000000000000
 50
90.00000000000000
100
AcDbRotatedDimension
1001
ACAD
1000
DSTYLE
1002
{
1070
   173
1070
     1
1070
     6
1000
_OPEN
1070
     7
1000
_OPEN
1070
    41
1040
2.000000
1002
}
  0
DIMENSION
  5
390
100
AcDbEntity
  8
MAIN0
  6
CONTINUOUS
 62
3
100
AcDbDimension
  2
*D31
 10
545.4078363952615
 20
271.8050637609971
 30
0.0000000000000000
 11
544.9078363952615
 21
250.8050637609971
 31
0.0000000000000000
 70
32
  1
\A1;\U+220542
  3
MAIN001
100
AcDbAlignedDimension
 13
465.4078363952615
 23
229.8050637609971
 33
0.0000000000000000
 14
465.4078363952615
 24
271.8050637609971
 34
0.0000000000000000
 50
90.00000000000000
100
AcDbRotatedDimension
1001
ACAD
1000
DSTYLE
1002
{
1070
   173
1070
     1
1070
     6
1000
_OPEN
1070
     7
1000
_OPEN
1070
    41
1040
2.000000
1002
}
  0
INSERT
  5
398
100
AcDbEntity
  8
MAIN0
  6
CONTINUOUS
 62
3
100
AcDbBlockReference
  2
D32
 10
518.6058340719844
 20
250.8050637609971
 30
0.0000000000000000
 50
0.0000000000000000
  0
DIMENSION
  5
3A1
100
AcDbEntity
  8
MAIN0
  6
CONTINUOUS
 62
3
100
AcDbDimension
  2
*D33
 10
464.4078363952621
 20
154.0683379740970
 30
0.0000000000000000
 11
457.4078363952618
 21
154.5683379740970
 31
0.0000000000000000
 70
32
  3
MAIN001
100
AcDbAlignedDimension
 13
450.4078363952615
 23
179.3050637609971
 33
0.0000000000000000
 14
464.4078363952621
 24
182.8050637609971
 34
0.0000000000000000
100
AcDbRotatedDimension
1001
ACAD
1000
DSTYLE
1002
{
1070
   173
1070
     1
1070
     6
1000
_OPEN
1070
     7
1000
_OPEN
1070
    41
1040
2.000000
1002
}
  0
LINE
  5
3A2
100
AcDbEntity
  8
MAIN0
  6
CONTINUOUS
 62
3
100
AcDbLine
 10
450.4078363952615
 20
179.3050637609971
 30
0.0000000000000000
 11
450.4078363952615
 21
322.3050637609971
 31
0.0000000000000000
  0
LINE
  5
3A3
100
AcDbEntity
  8
MAIN0
  6
CONTINUOUS
 62
3
100
AcDbLine
 10
376.4078363952620
 20
276.6810104286946
 30
0.0000000000000000
 11
376.4078363952620
 21
322.8050637609971
 31
0.0000000000000000
  0
LINE
  5
3A4
100
AcDbEntity
  8
MAIN0
  6
CONTINUOUS
 62
3
100
AcDbLine
 10
375.4078363952623
 20
276.4469714271443
 30
0.0000000000000000
 11
375.4078363952623
 21
286.4050637609971
 31
0.0000000000000000
  0
LINE
  5
3A5
100
AcDbEntity
  8
MAIN0
  6
CONTINUOUS
 62
3
100
AcDbLine
 10
335.4078363952622
 20
278.2261525422509
 30
0.0000000000000000
 11
335.4078363952622
 21
328.4050637609970
 31
0.0000000000000000
  0
LINE
  5
3A6
100
AcDbEntity
  8
MAIN0
  6
CONTINUOUS
 62
3
100
AcDbLine
 10
398.4078363952621
 20
171.2050637609973
 30
0.0000000000000000
 11
398.4078363952618
 21
323.8050637609971
 31
0.0000000000000000
  0
LINE
  5
3A7
100
AcDbEntity
  8
MAIN0
  6
CENTER
 62
3
100
AcDbLine
 10
373.0609748647685
 20
186.8050637609971
 30
0.0000000000000000
 11
470.7560656897205
 21
186.8050637609971
 31
0.0000000000000000
  0
LINE
  5
3A8
100
AcDbEntity
  8
MAIN0
  6
PHANTOM
 62
3
100
AcDbLine
 10
352.4078363952621
 20
326.3050637609971
 30
0.0000000000000000
 11
378.4078363952621
 21
326.3050637609971
 31
0.0000000000000000
  0
LINE
  5
3A9
100
AcDbEntity
  8
MAIN0
  6
PHANTOM
 62
3
100
AcDbLine
 10
365.9493363952620
 20
328.2635637609978
 30
0.0000000000000000
 11
365.9493363952620
 21
341.6827548736537
 31
0.0000000000000000
  0
LINE
  5
3AA
100
AcDbEntity
  8
MAIN0
  6
PHANTOM
 62
3
100
AcDbLine
 10
366.4078363952630
 20
327.8050637609971
 30
0.0000000000000000
 11
369.3001431373269
 21
327.8050637609971
 31
0.0000000000000000
  0
LINE
  5
3AB
100
AcDbEntity
  8
MAIN0
  6
PHANTOM
 62
3
100
AcDbLine
 10
365.4078363952621
 20
328.8050637609981
 30
0.0000000000000000
 11
365.4078363952621
 21
341.6827548736537
 31
0.0000000000000000
  0
LINE
  5
3AC
100
AcDbEntity
  8
MAIN0
  6
PHANTOM
 62
3
100
AcDbLine
 10
355.4078363952621
 20
323.8050637609971
 30
0.0000000000000000
 11
378.4078363952621
 21
323.8050637609971
 31
0.0000000000000000
  0
LINE
  5
3AD
100
AcDbEntity
  8
MAIN0
  6
PHANTOM
 62
3
100
AcDbLine
 10
378.4078363952621
 20
323.8050637609971
 30
0.0000000000000000
 11
378.4078363952621
 21
326.3050637609971
 31
0.0000000000000000
  0
LINE
  5
3AE
100
AcDbEntity
  8
MAIN0
  6
PHANTOM
 62
3
100
AcDbLine
 10
352.4078363952621
 20
286.8050637609970
 30
0.0000000000000000
 11
352.4078363952621
 21
326.3050637609971
 31
0.0000000000000000
  0
LINE
  5
3AF
100
AcDbEntity
  8
MAIN0
  6
HIDDEN
 62
3
100
AcDbLine
 10
171.9650953472493
 20
173.0847772975292
 30
0.0000000000000000
 11
171.6925863952660
 21
181.8050637609973
 31
0.0000000000000000
  0
LINE
  5
3B0
100
AcDbEntity
  8
MAIN0
  6
HIDDEN
 62
3
100
AcDbLine
 10
171.6925863952660
 20
181.8050637609973
 30
0.0000000000000000
 11
159.1230863952659
 21
181.8050637609973
 31
0.0000000000000000
  0
LINE
  5
3B1
100
AcDbEntity
  8
MAIN0
  6
HIDDEN
 62
3
100
AcDbLine
 10
159.1230863952660
 20
181.8050637609974
 30
0.0000000000000000
 11
158.8505774432826
 21
173.0847772975286
 31
0.0000000000000000
  0
LINE
  5
3B2
100
AcDbEntity
  8
MAIN0
  6
HIDDEN
 62
3
100
AcDbLine
 10
171.1112265336776
 20
173.0165793318262
 30
0.0000000000000000
 11
170.8365863952660
 21
181.8050637609973
 31
0.0000000000000000
  0
LINE
  5
3B3
100
AcDbEntity
  8
MAIN0
  6
HIDDEN
 62
3
100
AcDbLine
 10
159.7044462568543
 20
173.0165793318257
 30
0.0000000000000000
 11
159.9790863952659
 21
181.8050637609973
 31
0.0000000000000000
  0
LINE
  5
3B4
100
AcDbEntity
  8
MAIN0
  6
HIDDEN
 62
3
100
AcDbLine
 10
170.8078363952647
 20
181.8050637609974
 30
0.0000000000000000
 11
170.8078363952647
 21
221.8050637609972
 31
0.0000000000000000
  0
LINE
  5
3B5
100
AcDbEntity
  8
MAIN0
  6
HIDDEN
 62
3
100
AcDbLine
 10
170.8078363952644
 20
221.8050637609972
 30
0.0000000000000000
 11
160.0078363952644
 21
221.8050637609972
 31
0.0000000000000000
  0
LINE
  5
3B6
100
AcDbEntity
  8
MAIN0
  6
HIDDEN
 62
3
100
AcDbLine
 10
160.0078363952648
 20
221.8050637609972
 30
0.0000000000000000
 11
160.0078363952648
 21
181.8050637609974
 31
0.0000000000000000
  0
CIRCLE
  5
3B7
100
AcDbEntity
  8
MAIN0
  6
CONTINUOUS
 62
3
100
AcDbCircle
 10
157.4078363952590
 20
321.8050637609970
 30
0.0000000000000000
 40
5.000000000000000
  0
LINE
  5
3B8
100
AcDbEntity
  8
MAIN0
  6
CONTINUOUS
 62
3
100
AcDbLine
 10
157.4078363952590
 20
324.6918151069452
 30
0.0000000000000000
 11
154.9078363952590
 21
323.2484394339711
 31
0.0000000000000000
  0
LINE
  5
3B9
100
AcDbEntity
  8
MAIN0
  6
CONTINUOUS
 62
3
100
AcDbLine
 10
154.9078363952590
 20
323.2484394339711
 30
0.0000000000000000
 11
154.9078363952590
 21
320.3616880880230
 31
0.0000000000000000
  0
LINE
  5
3BA
100
AcDbEntity
  8
MAIN0
  6
CONTINUOUS
 62
3
100
AcDbLine
 10
154.9078363952590
 20
320.3616880880230
 30
0.0000000000000000
 11
157.4078363952590
 21
318.9183124150489
 31
0.0000000000000000
  0
LINE
  5
3BB
100
AcDbEntity
  8
MAIN0
  6
CONTINUOUS
 62
3
100
AcDbLine
 10
157.4078363952590
 20
318.9183124150489
 30
0.0000000000000000
 11
159.9078363952590
 21
320.3616880880230
 31
0.0000000000000000
  0
LINE
  5
3BC
100
AcDbEntity
  8
MAIN0
  6
CONTINUOUS
 62
3
100
AcDbLine
 10
159.9078363952590
 20
320.3616880880230
 30
0.0000000000000000
 11
159.9078363952590
 21
323.2484394339711
 31
0.0000000000000000
  0
LINE
  5
3BD
100
AcDbEntity
  8
MAIN0
  6
CONTINUOUS
 62
3
100
AcDbLine
 10
159.9078363952590
 20
323.2484394339711
 30
0.0000000000000000
 11
157.4078363952590
 21
324.6918151069452
 31
0.0000000000000000
  0
LINE
  5
3BE
100
AcDbEntity
  8
MAIN0
  6
CENTER
 62
3
100
AcDbLine
 10
180.5408505407548
 20
287.3393917503723
 30
0.0000000000000000
 11
174.5411647331992
 21
272.8548689038048
 31
0.0000000000000000
  0
LINE
  5
3BF
100
AcDbEntity
  8
MAIN0
  6
CENTER
 62
3
100
AcDbLine
 10
128.4750831580926
 20
266.1031110477182
 30
0.0000000000000000
 11
144.0021274429686
 21
259.6715987213502
 31
0.0000000000000000
  0
CIRCLE
  5
3C0
100
AcDbEntity
  8
MAIN0
  6
CONTINUOUS
 62
3
100
AcDbCircle
 10
177.4623645148515
 20
279.9072690350658
 30
0.0000000000000000
 40
5.000000000000000
  0
LINE
  5
3C1
100
AcDbEntity
  8
MAIN0
  6
CONTINUOUS
 62
3
100
AcDbLine
 10
177.4623645148515
 20
282.7940203810139
 30
0.0000000000000000
 11
174.9623645148515
 21
281.3506447080399
 31
0.0000000000000000
  0
LINE
  5
3C2
100
AcDbEntity
  8
MAIN0
  6
CONTINUOUS
 62
3
100
AcDbLine
 10
174.9623645148515
 20
281.3506447080399
 30
0.0000000000000000
 11
174.9623645148515
 21
278.4638933620918
 31
0.0000000000000000
  0
LINE
  5
3C3
100
AcDbEntity
  8
MAIN0
  6
CONTINUOUS
 62
3
100
AcDbLine
 10
174.9623645148515
 20
278.4638933620918
 30
0.0000000000000000
 11
177.4623645148515
 21
277.0205176891177
 31
0.0000000000000000
  0
LINE
  5
3C4
100
AcDbEntity
  8
MAIN0
  6
CONTINUOUS
 62
3
100
AcDbLine
 10
177.4623645148515
 20
277.0205176891177
 30
0.0000000000000000
 11
179.9623645148515
 21
278.4638933620918
 31
0.0000000000000000
  0
LINE
  5
3C5
100
AcDbEntity
  8
MAIN0
  6
CONTINUOUS
 62
3
100
AcDbLine
 10
179.9623645148515
 20
278.4638933620918
 30
0.0000000000000000
 11
179.9623645148515
 21
281.3506447080399
 31
0.0000000000000000
  0
LINE
  5
3C6
100
AcDbEntity
  8
MAIN0
  6
CONTINUOUS
 62
3
100
AcDbLine
 10
179.9623645148515
 20
281.3506447080399
 30
0.0000000000000000
 11
177.4623645148515
 21
282.7940203810140
 31
0.0000000000000000
  0
CIRCLE
  5
3C7
100
AcDbEntity
  8
MAIN0
  6
CONTINUOUS
 62
3
100
AcDbCircle
 10
136.3056311211935
 20
262.8595918805864
 30
0.0000000000000000
 40
5.000000000000000
  0
LINE
  5
3C8
100
AcDbEntity
  8
MAIN0
  6
CONTINUOUS
 62
3
100
AcDbLine
 10
136.3056311211935
 20
265.7463432265345
 30
0.0000000000000000
 11
133.8056311211936
 21
264.3029675535605
 31
0.0000000000000000
  0
LINE
  5
3C9
100
AcDbEntity
  8
MAIN0
  6
CONTINUOUS
 62
3
100
AcDbLine
 10
133.8056311211935
 20
264.3029675535605
 30
0.0000000000000000
 11
133.8056311211935
 21
261.4162162076123
 31
0.0000000000000000
  0
LINE
  5
3CA
100
AcDbEntity
  8
MAIN0
  6
CONTINUOUS
 62
3
100
AcDbLine
 10
133.8056311211936
 20
261.4162162076123
 30
0.0000000000000000
 11
136.3056311211935
 21
259.9728405346383
 31
0.0000000000000000
  0
LINE
  5
3CB
100
AcDbEntity
  8
MAIN0
  6
CONTINUOUS
 62
3
100
AcDbLine
 10
136.3056311211936
 20
259.9728405346382
 30
0.0000000000000000
 11
138.8056311211936
 21
261.4162162076123
 31
0.0000000000000000
  0
LINE
  5
3CC
100
AcDbEntity
  8
MAIN0
  6
CONTINUOUS
 62
3
100
AcDbLine
 10
138.8056311211935
 20
261.4162162076123
 30
0.0000000000000000
 11
138.8056311211935
 21
264.3029675535605
 31
0.0000000000000000
  0
LINE
  5
3CD
100
AcDbEntity
  8
MAIN0
  6
CONTINUOUS
 62
3
100
AcDbLine
 10
138.8056311211936
 20
264.3029675535605
 30
0.0000000000000000
 11
136.3056311211936
 21
265.7463432265345
 31
0.0000000000000000
  0
ARC
  5
3CE
100
AcDbEntity
  8
MAIN0
  6
CONTINUOUS
 62
3
100
AcDbCircle
 10
135.8034001467135
 20
175.1689622326559
 30
0.0000000000000000
 40
3.300000000000007
100
AcDbArc
 50
160.0000000000293
 51
250.0000000000291
  0
LINE
  5
3CF
100
AcDbEntity
  8
MAIN0
  6
CONTINUOUS
 62
3
100
AcDbLine
 10
134.6747336737404
 20
172.0679765840618
 30
0.0000000000000000
 11
138.3395348948060
 21
170.7340980250936
 31
0.0000000000000000
  0
ARC
  5
3D0
100
AcDbEntity
  8
MAIN0
  6
CONTINUOUS
 62
3
100
AcDbCircle
 10
139.4682013677792
 20
173.8350836736877
 30
0.0000000000000000
 40
3.300000000000004
100
AcDbArc
 50
250.0000000000291
 51
340.0000000000293
  0
ARC
  5
3D1
100
AcDbEntity
  8
MAIN0
  6
CONTINUOUS
 62
3
100
AcDbCircle
 10
109.3696239862136
 20
309.6009926166443
 30
0.0000000000000000
 40
3.299999999999994
100
AcDbArc
 50
45.00000000003026
 51
135.0000000000302
  0
LINE
  5
3D2
100
AcDbEntity
  8
MAIN0
  6
CONTINUOUS
 62
3
100
AcDbLine
 10
107.0361716082967
 20
311.9344449945587
 30
0.0000000000000000
 11
104.2784551616707
 21
309.1767285479297
 31
0.0000000000000000
  0
ARC
  5
3D3
100
AcDbEntity
  8
MAIN0
  6
CONTINUOUS
 62
3
100
AcDbCircle
 10
106.6119075395875
 20
306.8432761700153
 30
0.0000000000000000
 40
3.300000000000008
100
AcDbArc
 50
135.0000000000302
 51
225.0000000000303
  0
ARC
  5
3D4
100
AcDbEntity
  8
MAIN0
  6
CONTINUOUS
 62
3
100
AcDbCircle
 10
224.2037652512074
 20
306.8432761697477
 30
0.0000000000000000
 40
3.299999999999994
100
AcDbArc
 50
315.0000000000298
 51
405.0000000000298
  0
LINE
  5
3D5
100
AcDbEntity
  8
MAIN0
  6
CONTINUOUS
 62
3
100
AcDbLine
 10
226.5372176291218
 20
309.1767285476645
 30
0.0000000000000000
 11
223.7795011824928
 21
311.9344449942907
 31
0.0000000000000000
  0
ARC
  5
3D6
100
AcDbEntity
  8
MAIN0
  6
CONTINUOUS
 62
3
100
AcDbCircle
 10
221.4460488045785
 20
309.6009926163738
 30
0.0000000000000000
 40
3.300000000000003
100
AcDbArc
 50
45.00000000002975
 51
135.0000000000297
  0
CIRCLE
  5
3D7
100
AcDbEntity
  8
MAIN0
  6
CONTINUOUS
 62
3
100
AcDbCircle
 10
173.4078363952590
 20
321.8050637609970
 30
0.0000000000000000
 40
5.000000000000000
  0
LINE
  5
3D8
100
AcDbEntity
  8
MAIN0
  6
CONTINUOUS
 62
3
100
AcDbLine
 10
173.4078363952590
 20
324.6918151069451
 30
0.0000000000000000
 11
170.9078363952590
 21
323.2484394339711
 31
0.0000000000000000
  0
LINE
  5
3D9
100
AcDbEntity
  8
MAIN0
  6
CONTINUOUS
 62
3
100
AcDbLine
 10
170.9078363952590
 20
323.2484394339711
 30
0.0000000000000000
 11
170.9078363952590
 21
320.3616880880230
 31
0.0000000000000000
  0
LINE
  5
3DA
100
AcDbEntity
  8
MAIN0
  6
CONTINUOUS
 62
3
100
AcDbLine
 10
170.9078363952590
 20
320.3616880880230
 30
0.0000000000000000
 11
173.4078363952589
 21
318.9183124150489
 31
0.0000000000000000
  0
LINE
  5
3DB
100
AcDbEntity
  8
MAIN0
  6
CONTINUOUS
 62
3
100
AcDbLine
 10
173.4078363952590
 20
318.9183124150489
 30
0.0000000000000000
 11
175.9078363952590
 21
320.3616880880230
 31
0.0000000000000000
  0
LINE
  5
3DC
100
AcDbEntity
  8
MAIN0
  6
CONTINUOUS
 62
3
100
AcDbLine
 10
175.9078363952590
 20
320.3616880880230
 30
0.0000000000000000
 11
175.9078363952590
 21
323.2484394339711
 31
0.0000000000000000
  0
LINE
  5
3DD
100
AcDbEntity
  8
MAIN0
  6
CONTINUOUS
 62
3
100
AcDbLine
 10
175.9078363952589
 20
323.2484394339712
 30
0.0000000000000000
 11
173.4078363952590
 21
324.6918151069452
 31
0.0000000000000000
  0
LINE
  5
3DE
100
AcDbEntity
  8
MAIN0
  6
CONTINUOUS
 62
3
100
AcDbLine
 10
104.7027192303860
 20
302.6713461610137
 30
0.0000000000000000
 11
103.5713483804869
 21
303.8027170109116
 31
0.0000000000000000
  0
LINE
  5
3DF
100
AcDbEntity
  8
MAIN0
  6
CONTINUOUS
 62
3
100
AcDbLine
 10
103.5713483804869
 20
303.8027170109116
 30
0.0000000000000000
 11
112.4101831453141
 21
312.6415517757479
 31
0.0000000000000000
  0
LINE
  5
3E0
100
AcDbEntity
  8
MAIN0
  6
CONTINUOUS
 62
3
100
AcDbLine
 10
112.4101831453142
 20
312.6415517757480
 30
0.0000000000000000
 11
113.5415539952133
 21
311.5101809258501
 31
0.0000000000000000
  0
LINE
  5
3E1
100
AcDbEntity
  8
MAIN0
  6
CONTINUOUS
 62
3
100
AcDbLine
 10
144.0561118664797
 20
173.8679052506471
 30
0.0000000000000000
 11
143.5088796371594
 21
172.3643970573894
 31
0.0000000000000000
  0
LINE
  5
3E2
100
AcDbEntity
  8
MAIN0
  6
CONTINUOUS
 62
3
100
AcDbLine
 10
143.5088796371594
 20
172.3643970573894
 30
0.0000000000000000
 11
131.7627218773333
 21
176.6396488489542
 31
0.0000000000000000
  0
LINE
  5
3E3
100
AcDbEntity
  8
MAIN0
  6
CONTINUOUS
 62
3
100
AcDbLine
 10
131.7627218773333
 20
176.6396488489542
 30
0.0000000000000000
 11
132.3099541066536
 21
178.1431570422119
 31
0.0000000000000000
  0
LINE
  5
3E4
100
AcDbEntity
  8
MAIN0
  6
CONTINUOUS
 62
3
100
AcDbLine
 10
217.2741187955768
 20
311.5101809255753
 30
0.0000000000000000
 11
218.4054896454747
 21
312.6415517754743
 31
0.0000000000000000
  0
LINE
  5
3E5
100
AcDbEntity
  8
MAIN0
  6
CONTINUOUS
 62
3
100
AcDbLine
 10
218.4054896454747
 20
312.6415517754743
 30
0.0000000000000000
 11
227.2443244103112
 21
303.8027170106471
 31
0.0000000000000000
  0
LINE
  5
3E6
100
AcDbEntity
  8
MAIN0
  6
CONTINUOUS
 62
3
100
AcDbLine
 10
227.2443244103112
 20
303.8027170106472
 30
0.0000000000000000
 11
226.1129535604133
 21
302.6713461607481
 31
0.0000000000000000
  0
CIRCLE
  5
3E7
100
AcDbEntity
  8
MAIN0
  6
HIDDEN
 62
3
100
AcDbCircle
 10
120.1530023990669
 20
296.0598977566800
 30
0.0000000000000000
 40
6.500000000000000
  0
LINE
  5
3E8
100
AcDbEntity
  8
MAIN0
  6
HIDDEN
 62
3
100
AcDbLine
 10
119.2564269269005
 20
299.4059629716298
 30
0.0000000000000000
 11
116.8069371841173
 21
296.9564732288466
 31
0.0000000000000000
  0
LINE
  5
3E9
100
AcDbEntity
  8
MAIN0
  6
HIDDEN
 62
3
100
AcDbLine
 10
116.8069371841172
 20
296.9564732288466
 30
0.0000000000000000
 11
117.7035126562852
 21
293.6104080138954
 31
0.0000000000000000
  0
LINE
  5
3EA
100
AcDbEntity
  8
MAIN0
  6
HIDDEN
 62
3
100
AcDbLine
 10
117.7035126562853
 20
293.6104080138954
 30
0.0000000000000000
 11
121.0495778712365
 21
292.7138325417274
 31
0.0000000000000000
  0
LINE
  5
3EB
100
AcDbEntity
  8
MAIN0
  6
HIDDEN
 62
3
100
AcDbLine
 10
121.0495778712365
 20
292.7138325417274
 30
0.0000000000000000
 11
123.4990676140197
 21
295.1633222845105
 31
0.0000000000000000
  0
LINE
  5
3EC
100
AcDbEntity
  8
MAIN0
  6
HIDDEN
 62
3
100
AcDbLine
 10
123.4990676140197
 20
295.1633222845105
 30
0.0000000000000000
 11
122.6024921418516
 21
298.5093874994618
 31
0.0000000000000000
  0
LINE
  5
3ED
100
AcDbEntity
  8
MAIN0
  6
HIDDEN
 62
3
100
AcDbLine
 10
122.6024921418516
 20
298.5093874994618
 30
0.0000000000000000
 11
119.2564269269004
 21
299.4059629716298
 31
0.0000000000000000
  0
LINE
  5
3EE
100
AcDbEntity
  8
MAIN0
  6
HIDDEN
 62
3
100
AcDbLine
 10
100.2425182979345
 20
235.1372203462634
 30
0.0000000000000000
 11
101.1390937701026
 21
231.7911551313121
 31
0.0000000000000000
  0
LINE
  5
3EF
100
AcDbEntity
  8
MAIN0
  6
HIDDEN
 62
3
100
AcDbLine
 10
101.1390937701026
 20
231.7911551313121
 30
0.0000000000000000
 11
104.4851589850537
 21
230.8945796591441
 31
0.0000000000000000
  0
LINE
  5
3F0
100
AcDbEntity
  8
MAIN0
  6
HIDDEN
 62
3
100
AcDbLine
 10
104.4851589850538
 20
230.8945796591441
 30
0.0000000000000000
 11
106.9346487278370
 21
233.3440694019273
 31
0.0000000000000000
  0
LINE
  5
3F1
100
AcDbEntity
  8
MAIN0
  6
HIDDEN
 62
3
100
AcDbLine
 10
106.9346487278370
 20
233.3440694019272
 30
0.0000000000000000
 11
106.0380732556689
 21
236.6901346168785
 31
0.0000000000000000
  0
LINE
  5
3F2
100
AcDbEntity
  8
MAIN0
  6
HIDDEN
 62
3
100
AcDbLine
 10
106.0380732556689
 20
236.6901346168785
 30
0.0000000000000000
 11
102.6920080407177
 21
237.5867100890465
 31
0.0000000000000000
  0
LINE
  5
3F3
100
AcDbEntity
  8
MAIN0
  6
HIDDEN
 62
3
100
AcDbLine
 10
102.6920080407177
 20
237.5867100890465
 30
0.0000000000000000
 11
100.2425182979345
 21
235.1372203462634
 31
0.0000000000000000
  0
ARC
  5
3F4
100
AcDbEntity
  8
MAIN0
  6
HIDDEN
 62
3
100
AcDbCircle
 10
103.5885835128858
 20
234.2406448740953
 30
0.0000000000000000
 40
6.500000000000000
100
AcDbArc
 50
325.7468752378381
 51
614.2531247624654
  0
ARC
  5
3F5
100
AcDbEntity
  8
MAIN0
  6
CONTINUOUS
 62
3
100
AcDbCircle
 10
103.5885835128858
 20
234.2406448740953
 30
0.0000000000000000
 40
6.500000000000000
100
AcDbArc
 50
254.2531247624654
 51
325.7468752378381
  0
LINE
  5
3F6
100
AcDbEntity
  8
MAIN0
  6
HIDDEN
 62
3
100
AcDbLine
 10
146.3939277662677
 20
186.5363211356198
 30
0.0000000000000000
 11
149.7399929812190
 21
185.6397456634518
 31
0.0000000000000000
  0
LINE
  5
3F7
100
AcDbEntity
  8
MAIN0
  6
HIDDEN
 62
3
100
AcDbLine
 10
149.7399929812190
 20
185.6397456634518
 30
0.0000000000000000
 11
152.1894827240022
 21
188.0892354062349
 31
0.0000000000000000
  0
LINE
  5
3F8
100
AcDbEntity
  8
MAIN0
  6
HIDDEN
 62
3
100
AcDbLine
 10
152.1894827240022
 20
188.0892354062349
 30
0.0000000000000000
 11
151.2929072518341
 21
191.4353006211861
 31
0.0000000000000000
  0
LINE
  5
3F9
100
AcDbEntity
  8
MAIN0
  6
HIDDEN
 62
3
100
AcDbLine
 10
151.2929072518341
 20
191.4353006211862
 30
0.0000000000000000
 11
147.9468420368828
 21
192.3318760933542
 31
0.0000000000000000
  0
LINE
  5
3FA
100
AcDbEntity
  8
MAIN0
  6
HIDDEN
 62
3
100
AcDbLine
 10
147.9468420368829
 20
192.3318760933542
 30
0.0000000000000000
 11
145.4973522940997
 21
189.8823863505710
 31
0.0000000000000000
  0
LINE
  5
3FB
100
AcDbEntity
  8
MAIN0
  6
HIDDEN
 62
3
100
AcDbLine
 10
145.4973522940997
 20
189.8823863505710
 30
0.0000000000000000
 11
146.3939277662678
 21
186.5363211356198
 31
0.0000000000000000
  0
CIRCLE
  5
3FC
100
AcDbEntity
  8
MAIN0
  6
HIDDEN
 62
3
100
AcDbCircle
 10
148.8434175090509
 20
188.9858108784030
 30
0.0000000000000000
 40
6.500000000000000
  0
CIRCLE
  5
3FD
100
AcDbEntity
  8
MAIN0
  6
HIDDEN
 62
3
100
AcDbCircle
 10
210.6626703914576
 20
205.5502297653144
 30
0.0000000000000000
 40
6.500000000000000
  0
LINE
  5
3FE
100
AcDbEntity
  8
MAIN0
  6
HIDDEN
 62
3
100
AcDbLine
 10
211.5592458636026
 20
202.2041645503841
 30
0.0000000000000000
 11
214.0087356063858
 21
204.6536542931673
 31
0.0000000000000000
  0
LINE
  5
3FF
100
AcDbEntity
  8
MAIN0
  6
HIDDEN
 62
3
100
AcDbLine
 10
214.0087356063858
 20
204.6536542931673
 30
0.0000000000000000
 11
213.1121601342178
 21
207.9997195081186
 31
0.0000000000000000
  0
LINE
  5
400
100
AcDbEntity
  8
MAIN0
  6
HIDDEN
 62
3
100
AcDbLine
 10
213.1121601342178
 20
207.9997195081185
 30
0.0000000000000000
 11
209.7660949192666
 21
208.8962949802866
 31
0.0000000000000000
  0
LINE
  5
401
100
AcDbEntity
  8
MAIN0
  6
HIDDEN
 62
3
100
AcDbLine
 10
209.7660949192665
 20
208.8962949802866
 30
0.0000000000000000
 11
207.3166051764833
 21
206.4468052375034
 31
0.0000000000000000
  0
LINE
  5
402
100
AcDbEntity
  8
MAIN0
  6
HIDDEN
 62
3
100
AcDbLine
 10
207.3166051764834
 20
206.4468052375034
 30
0.0000000000000000
 11
208.2131806486514
 21
203.1007400225522
 31
0.0000000000000000
  0
LINE
  5
403
100
AcDbEntity
  8
MAIN0
  6
HIDDEN
 62
3
100
AcDbLine
 10
208.2131806486514
 20
203.1007400225522
 30
0.0000000000000000
 11
211.5592458636027
 21
202.2041645503841
 31
0.0000000000000000
  0
LINE
  5
404
100
AcDbEntity
  8
MAIN0
  6
HIDDEN
 62
3
100
AcDbLine
 10
230.5731544925899
 20
266.4729071757309
 30
0.0000000000000000
 11
229.6765790204219
 21
269.8189723906822
 31
0.0000000000000000
  0
LINE
  5
405
100
AcDbEntity
  8
MAIN0
  6
HIDDEN
 62
3
100
AcDbLine
 10
229.6765790204219
 20
269.8189723906822
 30
0.0000000000000000
 11
226.3305138054706
 21
270.7155478628503
 31
0.0000000000000000
  0
LINE
  5
406
100
AcDbEntity
  8
MAIN0
  6
HIDDEN
 62
3
100
AcDbLine
 10
226.3305138054707
 20
270.7155478628502
 30
0.0000000000000000
 11
223.8810240626875
 21
268.2660581200670
 31
0.0000000000000000
  0
LINE
  5
407
100
AcDbEntity
  8
MAIN0
  6
HIDDEN
 62
3
100
AcDbLine
 10
223.8810240626875
 20
268.2660581200670
 30
0.0000000000000000
 11
224.7775995348555
 21
264.9199929051158
 31
0.0000000000000000
  0
LINE
  5
408
100
AcDbEntity
  8
MAIN0
  6
HIDDEN
 62
3
100
AcDbLine
 10
224.7775995348555
 20
264.9199929051159
 30
0.0000000000000000
 11
228.1236647498067
 21
264.0234174329478
 31
0.0000000000000000
  0
LINE
  5
409
100
AcDbEntity
  8
MAIN0
  6
HIDDEN
 62
3
100
AcDbLine
 10
228.1236647498068
 20
264.0234174329478
 30
0.0000000000000000
 11
230.5731544925899
 21
266.4729071757309
 31
0.0000000000000000
  0
LINE
  5
40A
100
AcDbEntity
  8
MAIN0
  6
CONTINUOUS
 62
3
100
AcDbLine
 10
288.2054597353890
 20
327.6831661455350
 30
0.0000000000000000
 11
313.1399371780904
 21
381.1553255806975
 31
0.0000000000000000
  0
LINE
  5
40B
100
AcDbEntity
  8
MAIN0
  6
CONTINUOUS
 62
3
100
AcDbLine
 10
251.9531482539231
 20
344.5878966151630
 30
0.0000000000000000
 11
279.0007170053278
 21
402.5915949855085
 31
0.0000000000000000
  0
LINE
  5
40C
100
AcDbEntity
  8
MAIN0
  6
CENTER
 62
3
100
AcDbLine
 10
268.0996026509890
 20
331.8900481483130
 30
0.0000000000000000
 11
297.5362123897986
 21
395.0170614495293
 31
0.0000000000000000
  0
LINE
  5
40D
100
AcDbEntity
  8
MAIN0
  6
CENTER
 62
3
100
AcDbLine
 10
270.9562513178091
 20
363.3110521018264
 30
0.0000000000000000
 11
290.4410013702210
 21
354.2251639351507
 31
0.0000000000000000
  0
CIRCLE
  5
40E
100
AcDbEntity
  8
MAIN0
  6
CONTINUOUS
 62
3
100
AcDbCircle
 10
280.6447605381735
 20
358.7932260562652
 30
0.0000000000000000
 40
6.000000000002210
  0
CIRCLE
  5
40F
100
AcDbEntity
  8
MAIN0
  6
CONTINUOUS
 62
3
100
AcDbCircle
 10
280.6447605381735
 20
358.7932260562652
 30
0.0000000000000000
 40
5.458500000002196
  0
LINE
  5
410
100
AcDbEntity
  8
MAIN0
  6
PHANTOM
 62
3
100
AcDbLine
 10
286.2743872070873
 20
350.7532859508398
 30
0.0000000000000000
 11
290.4223662488761
 21
359.6486557120845
 31
0.0000000000000000
  0
LINE
  5
411
100
AcDbEntity
  8
MAIN0
  6
PHANTOM
 62
3
100
AcDbLine
 10
270.8671548271922
 20
357.9377963998481
 30
0.0000000000000000
 11
275.0151338695385
 21
366.8331661622885
 31
0.0000000000000000
  0
LINE
  5
412
100
AcDbEntity
  8
MAIN0
  6
PHANTOM
 62
3
100
AcDbLine
 10
275.0151338695384
 20
366.8331661622885
 30
0.0000000000000000
 11
284.7927395798923
 21
367.6885958183571
 31
0.0000000000000000
  0
LINE
  5
413
100
AcDbEntity
  8
MAIN0
  6
PHANTOM
 62
3
100
AcDbLine
 10
276.4967814955182
 20
349.8978562946649
 30
0.0000000000000000
 11
286.2743872070873
 21
350.7532859508397
 31
0.0000000000000000
  0
LINE
  5
414
100
AcDbEntity
  8
MAIN0
  6
PHANTOM
 62
3
100
AcDbLine
 10
276.4967814957695
 20
349.8978562943933
 30
0.0000000000000000
 11
270.8671548272866
 21
357.9377963997133
 31
0.0000000000000000
  0
LINE
  5
415
100
AcDbEntity
  8
MAIN0
  6
PHANTOM
 62
3
100
AcDbLine
 10
290.4223662491031
 20
359.6486557117605
 30
0.0000000000000000
 11
284.7927395799205
 21
367.6885958180798
 31
0.0000000000000000
  0
CIRCLE
  5
416
100
AcDbEntity
  8
MAIN0
  6
PHANTOM
 62
3
100
AcDbCircle
 10
280.6447605381735
 20
358.7932260562653
 30
0.0000000000000000
 40
8.499999999999972
  0
LINE
  5
417
100
AcDbEntity
  8
MAIN0
  6
CENTER
 62
3
100
AcDbLine
 10
260.9307613526003
 20
352.0094421191709
 30
0.0000000000000000
 11
277.3098654411695
 21
387.1345441888540
 31
0.0000000000000000
  0
ARC
  5
418
100
AcDbEntity
  8
MAIN0
  6
CONTINUOUS
 62
3
100
AcDbCircle
 10
262.6126519843464
 20
355.6162682184909
 30
0.0000000000000000
 40
2.750000000000000
100
AcDbArc
 50
155.0000000000000
 51
335.0000000000001
  0
CIRCLE
  5
419
100
AcDbEntity
  8
MAIN0
  6
CONTINUOUS
 62
3
100
AcDbCircle
 10
266.2049072091425
 20
363.3198844083026
 30
0.0000000000000000
 40
5.000000000000000
  0
CIRCLE
  5
41A
100
AcDbEntity
  8
MAIN0
  6
CONTINUOUS
 62
3
100
AcDbCircle
 10
266.2049072091425
 20
363.3198844083026
 30
0.0000000000000000
 40
4.250000000000000
  0
LINE
  5
41B
100
AcDbEntity
  8
MAIN0
  6
CONTINUOUS
 62
3
100
AcDbLine
 10
264.1118790298854
 20
364.2958794770244
 30
0.0000000000000000
 11
266.0036296429954
 21
365.6204975167368
 31
0.0000000000000000
  0
LINE
  5
41C
100
AcDbEntity
  8
MAIN0
  6
CONTINUOUS
 62
3
100
AcDbLine
 10
266.0036296429952
 20
365.6204975167368
 30
0.0000000000000000
 11
268.0966578222523
 21
364.6445024480150
 31
0.0000000000000000
  0
LINE
  5
41D
100
AcDbEntity
  8
MAIN0
  6
CONTINUOUS
 62
3
100
AcDbLine
 10
268.0966578222523
 20
364.6445024480150
 30
0.0000000000000000
 11
268.2979353883994
 21
362.3438893395808
 31
0.0000000000000000
  0
LINE
  5
41E
100
AcDbEntity
  8
MAIN0
  6
CONTINUOUS
 62
3
100
AcDbLine
 10
268.2979353883995
 20
362.3438893395808
 30
0.0000000000000000
 11
266.4061847752896
 21
361.0192712998684
 31
0.0000000000000000
  0
LINE
  5
41F
100
AcDbEntity
  8
MAIN0
  6
CONTINUOUS
 62
3
100
AcDbLine
 10
266.4061847752895
 20
361.0192712998684
 30
0.0000000000000000
 11
264.3131565960325
 21
361.9952663685901
 31
0.0000000000000000
  0
LINE
  5
420
100
AcDbEntity
  8
MAIN0
  6
CONTINUOUS
 62
3
100
AcDbLine
 10
264.3131565960324
 20
361.9952663685901
 30
0.0000000000000000
 11
264.1118790298853
 21
364.2958794770244
 31
0.0000000000000000
  0
LINE
  5
421
100
AcDbEntity
  8
MAIN0
  6
CONTINUOUS
 62
3
100
AcDbLine
 10
262.7603317573093
 20
347.2720696171849
 30
0.0000000000000000
 11
283.3149318963725
 21
337.6873021620260
 31
0.0000000000000000
  0
LINE
  5
422
100
AcDbEntity
  8
MAIN0
  6
CONTINUOUS
 62
3
100
AcDbLine
 10
281.5668444047705
 20
387.6027661403161
 30
0.0000000000000000
 11
271.6048974238466
 21
386.7312087128424
 31
0.0000000000000000
  0
LINE
  5
423
100
AcDbEntity
  8
MAIN0
  6
CONTINUOUS
 62
3
100
AcDbLine
 10
281.5668444047704
 20
387.6027661403159
 30
0.0000000000000000
 11
302.1214445438336
 21
378.0179986851570
 31
0.0000000000000000
  0
ARC
  5
424
100
AcDbEntity
  8
MAIN0
  6
CONTINUOUS
 62
3
100
AcDbCircle
 10
275.0798907056970
 20
382.3523479360721
 30
0.0000000000000000
 40
2.750000000000000
100
AcDbArc
 50
335.0000000000001
 51
515.0000000000000
  0
LINE
  5
425
100
AcDbEntity
  8
MAIN0
  6
CENTER
 62
3
100
AcDbLine
 10
271.2070359993459
 20
384.1582897445653
 30
0.0000000000000000
 11
279.4632687360418
 21
380.3083451919339
 31
0.0000000000000000
  0
LINE
  5
426
100
AcDbEntity
  8
MAIN0
  6
CONTINUOUS
 62
3
100
AcDbLine
 10
302.1214445438336
 20
378.0179986851571
 30
0.0000000000000000
 11
307.8572089073505
 21
369.8264782422641
 31
0.0000000000000000
  0
LINE
  5
427
100
AcDbEntity
  8
MAIN0
  6
CENTER
 62
3
100
AcDbLine
 10
259.9510367714471
 20
366.2361120865090
 30
0.0000000000000000
 11
272.6443772288030
 21
360.3171102236753
 31
0.0000000000000000
  0
LINE
  5
428
100
AcDbEntity
  8
MAIN0
  6
CENTER
 62
3
100
AcDbLine
 10
287.9928056812374
 20
339.0581359704949
 30
0.0000000000000000
 11
304.4509824393142
 21
374.3528099271601
 31
0.0000000000000000
  0
ARC
  5
429
100
AcDbEntity
  8
MAIN0
  6
CONTINUOUS
 62
3
100
AcDbCircle
 10
289.8018855954459
 20
342.9377203662699
 30
0.0000000000000000
 40
2.750000000000000
100
AcDbArc
 50
155.0000000000000
 51
335.0000000000001
  0
CIRCLE
  5
42A
100
AcDbEntity
  8
MAIN0
  6
CONTINUOUS
 62
3
100
AcDbCircle
 10
293.3941408202419
 20
350.6413365560816
 30
0.0000000000000000
 40
5.000000000000000
  0
CIRCLE
  5
42B
100
AcDbEntity
  8
MAIN0
  6
CONTINUOUS
 62
3
100
AcDbCircle
 10
293.3941408202419
 20
350.6413365560816
 30
0.0000000000000000
 40
4.250000000000000
  0
LINE
  5
42C
100
AcDbEntity
  8
MAIN0
  6
CONTINUOUS
 62
3
100
AcDbLine
 10
295.4871689994989
 20
349.6653414873597
 30
0.0000000000000000
 11
295.2858914333518
 21
351.9659545957939
 31
0.0000000000000000
  0
LINE
  5
42D
100
AcDbEntity
  8
MAIN0
  6
CONTINUOUS
 62
3
100
AcDbLine
 10
295.2858914333518
 20
351.9659545957940
 30
0.0000000000000000
 11
293.1928632540947
 21
352.9419496645157
 31
0.0000000000000000
  0
LINE
  5
42E
100
AcDbEntity
  8
MAIN0
  6
CONTINUOUS
 62
3
100
AcDbLine
 10
293.1928632540947
 20
352.9419496645157
 30
0.0000000000000000
 11
291.3011126409847
 21
351.6173316248033
 31
0.0000000000000000
  0
LINE
  5
42F
100
AcDbEntity
  8
MAIN0
  6
CONTINUOUS
 62
3
100
AcDbLine
 10
291.3011126409848
 20
351.6173316248032
 30
0.0000000000000000
 11
291.5023902071319
 21
349.3167185163691
 31
0.0000000000000000
  0
LINE
  5
430
100
AcDbEntity
  8
MAIN0
  6
CONTINUOUS
 62
3
100
AcDbLine
 10
291.5023902071320
 20
349.3167185163691
 30
0.0000000000000000
 11
293.5954183863890
 21
348.3407234476474
 31
0.0000000000000000
  0
LINE
  5
431
100
AcDbEntity
  8
MAIN0
  6
CONTINUOUS
 62
3
100
AcDbLine
 10
293.5954183863890
 20
348.3407234476474
 30
0.0000000000000000
 11
295.4871689994989
 21
349.6653414873597
 31
0.0000000000000000
  0
ARC
  5
432
100
AcDbEntity
  8
MAIN0
  6
CONTINUOUS
 62
3
100
AcDbCircle
 10
302.2691243167965
 20
369.6738000838511
 30
0.0000000000000000
 40
2.750000000000000
100
AcDbArc
 50
335.0000000000001
 51
515.0000000000000
  0
LINE
  5
433
100
AcDbEntity
  8
MAIN0
  6
CENTER
 62
3
100
AcDbLine
 10
306.1419790231478
 20
367.8678582753579
 30
0.0000000000000000
 11
297.8857462864518
 21
371.7178028279892
 31
0.0000000000000000
  0
LINE
  5
434
100
AcDbEntity
  8
MAIN0
  6
CENTER
 62
3
100
AcDbLine
 10
299.6480112579371
 20
347.7251088778751
 30
0.0000000000000000
 11
286.9546708005812
 21
353.6441107407088
 31
0.0000000000000000
  0
ARC
  5
435
100
AcDbEntity
  8
MAIN0
  6
HIDDEN
 62
3
100
AcDbCircle
 10
287.8292709877654
 20
374.2004584358884
 30
0.0000000000000000
 40
6.499999999999972
100
AcDbArc
 50
334.9999999999996
 51
515.0000000000001
  0
LINE
  5
436
100
AcDbEntity
  8
MAIN0
  6
CONTINUOUS
 62
3
100
AcDbLine
 10
310.7214895516106
 20
387.7999558245840
 30
0.0000000000000000
 11
313.1399371780904
 21
381.1553255806974
 31
0.0000000000000000
  0
LINE
  5
437
100
AcDbEntity
  8
MAIN0
  6
CONTINUOUS
 62
3
100
AcDbLine
 10
310.7214895516106
 20
387.7999558245841
 30
0.0000000000000000
 11
279.0007170053278
 21
402.5915949855086
 31
0.0000000000000000
  0
LINE
  5
438
100
AcDbEntity
  8
MAIN0
  6
PHANTOM
 62
3
100
AcDbLine
 10
99.91057149685761
 20
340.5397699412457
 30
0.0000000000000000
 11
99.91057149685761
 21
390.7118764503337
 31
0.0000000000000000
  0
LINE
  5
439
100
AcDbEntity
  8
MAIN0
  6
CONTINUOUS
 62
3
100
AcDbLine
 10
59.91057149685784
 20
340.5397699412457
 30
0.0000000000000000
 11
59.91057149685790
 21
402.7118764503331
 31
0.0000000000000000
  0
LINE
  5
43A
100
AcDbEntity
  8
MAIN0
  6
CENTER
 62
3
100
AcDbLine
 10
79.91057149685719
 20
407.3636574805992
 30
0.0000000000000000
 11
79.91057149685793
 21
338.9251834153118
 31
0.0000000000000000
  0
LINE
  5
43B
100
AcDbEntity
  8
MAIN0
  6
CENTER
 62
3
100
AcDbLine
 10
216.7216931980413
 20
355.8479607862166
 30
0.0000000000000000
 11
268.0996026509890
 21
331.8900481483130
 31
0.0000000000000000
  0
INSERT
  5
441
100
AcDbEntity
  8
MAIN0
  6
CONTINUOUS
 62
3
100
AcDbBlockReference
  2
M4
 10
0.0000000000000000
 20
0.0000000000000000
 30
0.0000000000000000
 50
0.0000000000000000
  0
MTEXT
  5
442
100
AcDbEntity
  8
MAIN0
  6
CONTINUOUS
 62
3
100
AcDbMText
 10
163.6918345896181
 20
398.7722879646325
 30
0.0000000000000000
 40
5.000000000000000
 41
0.0000000000000000
 71
     1
 72
     1
  1
{\H0.82x;{Q}}
 11
1.000000000000000
 21
0.0000000000000000
 31
0.0000000000000000
  7
STANDARD
  0
MTEXT
  5
443
100
AcDbEntity
  8
MAIN0
  6
CONTINUOUS
 62
3
100
AcDbMText
 10
73.36138382102956
 20
328.9474643425536
 30
0.0000000000000000
 40
4.000000000000000
 41
0.0000000000000000
 71
     1
 72
     1
  1
{\H0.91x;{矢視Ｑ}}
 11
1.000000000000000
 21
0.0000000000000000
 31
0.0000000000000000
  7
KNJYOKO
  0
LINE
  5
444
100
AcDbEntity
  8
MAIN0
  6
CONTINUOUS
 62
3
100
AcDbLine
 10
71.83935111624658
 20
323.9759829478350
 30
0.0000000000000000
 11
87.25549929408987
 21
323.9759829478350
 31
0.0000000000000000
  0
LINE
  5
445
100
AcDbEntity
  8
MAIN0
  6
CONTINUOUS
 62
3
100
AcDbLine
 10
91.25031746013005
 20
389.7118764503337
 30
0.0000000000000000
 11
99.91057149798155
 21
384.7118764503338
 31
0.0000000000000000
  0
LINE
  5
446
100
AcDbEntity
  8
MAIN0
  6
CONTINUOUS
 62
3
100
AcDbLine
 10
68.57082553358450
 20
389.7118764503332
 30
0.0000000000000000
 11
91.25031746013016
 21
389.7118764503334
 31
0.0000000000000000
  0
LINE
  5
447
100
AcDbEntity
  8
MAIN0
  6
CONTINUOUS
 62
3
100
AcDbLine
 10
68.57082553358436
 20
389.7118764503335
 30
0.0000000000000000
 11
59.91057149573294
 21
384.7118764503334
 31
0.0000000000000000
  0
ARC
  5
448
100
AcDbEntity
  8
MAIN0
  6
CONTINUOUS
 62
3
100
AcDbCircle
 10
64.91057149685730
 20
382.2118764503333
 30
0.0000000000000000
 40
2.750000000000000
100
AcDbArc
 50
8.142219984546603e-013
 51
180.0000000000008
  0
LINE
  5
449
100
AcDbEntity
  8
MAIN0
  6
CENTER
 62
3
100
AcDbLine
 10
60.63734913051951
 20
382.2118764503332
 30
0.0000000000000000
 11
69.74709402600519
 21
382.2118764503333
 31
0.0000000000000000
  0
LINE
  5
44A
100
AcDbEntity
  8
MAIN0
  6
CONTINUOUS
 62
3
100
AcDbLine
 10
67.66057149685753
 20
377.8876997224582
 30
0.0000000000000000
 11
67.66057149685747
 21
382.2118764503332
 31
0.0000000000000000
  0
LINE
  5
44B
100
AcDbEntity
  8
MAIN0
  6
CONTINUOUS
 62
3
100
AcDbLine
 10
62.16057149685764
 20
377.8876997224582
 30
0.0000000000000000
 11
62.16057149685759
 21
382.2118764503331
 31
0.0000000000000000
  0
ARC
  5
44C
100
AcDbEntity
  8
MAIN0
  6
CONTINUOUS
 62
3
100
AcDbCircle
 10
94.91057149685739
 20
382.2118764503337
 30
0.0000000000000000
 40
2.750000000000000
100
AcDbArc
 50
8.142219984546603e-013
 51
180.0000000000008
  0
LINE
  5
44D
100
AcDbEntity
  8
MAIN0
  6
CENTER
 62
3
100
AcDbLine
 10
99.18379386319532
 20
382.2118764503337
 30
0.0000000000000000
 11
90.07404896770970
 21
382.2118764503335
 31
0.0000000000000000
  0
LINE
  5
44E
100
AcDbEntity
  8
MAIN0
  6
CONTINUOUS
 62
3
100
AcDbLine
 10
92.16057149685753
 20
377.8876997224585
 30
0.0000000000000000
 11
92.16057149685747
 21
382.2118764503335
 31
0.0000000000000000
  0
LINE
  5
44F
100
AcDbEntity
  8
MAIN0
  6
CONTINUOUS
 62
3
100
AcDbLine
 10
97.66057149685747
 20
377.8876997224585
 30
0.0000000000000000
 11
97.66057149685742
 21
382.2118764503336
 31
0.0000000000000000
  0
LINE
  5
450
100
AcDbEntity
  8
MAIN0
  6
CENTER
 62
3
100
AcDbLine
 10
101.7811689564960
 20
373.7118764503360
 30
0.0000000000000000
 11
88.86477595680915
 21
373.7118764503359
 31
0.0000000000000000
  0
LINE
  5
451
100
AcDbEntity
  8
MAIN0
  6
CENTER
 62
3
100
AcDbLine
 10
60.59758189070232
 20
352.7118764503354
 30
0.0000000000000000
 11
69.91208937696990
 21
352.7118764503355
 31
0.0000000000000000
  0
ARC
  5
452
100
AcDbEntity
  8
MAIN0
  6
CONTINUOUS
 62
3
100
AcDbCircle
 10
64.91057149685770
 20
352.7118764503332
 30
0.0000000000000000
 40
2.750000000000000
100
AcDbArc
 50
180.0000000000007
 51
360.0000000000007
  0
ARC
  5
453
100
AcDbEntity
  8
MAIN0
  6
CONTINUOUS
 62
3
100
AcDbCircle
 10
94.91057149685778
 20
352.7118764503337
 30
0.0000000000000000
 40
2.750000000000000
100
AcDbArc
 50
180.0000000000007
 51
360.0000000000007
  0
LINE
  5
454
100
AcDbEntity
  8
MAIN0
  6
CENTER
 62
3
100
AcDbLine
 10
94.91057149685781
 20
348.4295958214742
 30
0.0000000000000000
 11
94.91057149685736
 21
386.4649286733584
 31
0.0000000000000000
  0
LINE
  5
455
100
AcDbEntity
  8
MAIN0
  6
CENTER
 62
3
100
AcDbLine
 10
64.91057149685793
 20
348.4295958214738
 30
0.0000000000000000
 11
64.91057149685744
 21
386.4649286733580
 31
0.0000000000000000
  0
LINE
  5
456
100
AcDbEntity
  8
MAIN0
  6
CENTER
 62
3
100
AcDbLine
 10
67.77199612415296
 20
371.7118764503332
 30
0.0000000000000000
 11
91.16769567437194
 21
371.7118764503335
 31
0.0000000000000000
  0
LINE
  5
457
100
AcDbEntity
  8
MAIN0
  6
PHANTOM
 62
3
100
AcDbLine
 10
88.41057149720015
 20
376.6193537379101
 30
0.0000000000000000
 11
79.91057149657877
 21
381.5268310263963
 31
0.0000000000000000
  0
LINE
  5
458
100
AcDbEntity
  8
MAIN0
  6
PHANTOM
 62
3
100
AcDbLine
 10
88.41057149685759
 20
366.8043991625435
 30
0.0000000000000000
 11
88.41057149685747
 21
376.6193537381078
 31
0.0000000000000000
  0
CIRCLE
  5
459
100
AcDbEntity
  8
MAIN0
  6
PHANTOM
 62
3
100
AcDbCircle
 10
79.91057149685736
 20
371.7118764503335
 30
0.0000000000000000
 40
8.499999999999972
  0
CIRCLE
  5
45A
100
AcDbEntity
  8
MAIN0
  6
CONTINUOUS
 62
3
100
AcDbCircle
 10
79.91057149685747
 20
371.7118764503335
 30
0.0000000000000000
 40
6.000000000002210
  0
CIRCLE
  5
45B
100
AcDbEntity
  8
MAIN0
  6
CONTINUOUS
 62
3
100
AcDbCircle
 10
79.91057149685747
 20
371.7118764503335
 30
0.0000000000000000
 40
5.458500000002196
  0
LINE
  5
45C
100
AcDbEntity
  8
MAIN0
  6
PHANTOM
 62
3
100
AcDbLine
 10
79.91057149622270
 20
361.8969218740808
 30
0.0000000000000000
 11
88.41057149685770
 21
366.8043991625436
 31
0.0000000000000000
  0
LINE
  5
45D
100
AcDbEntity
  8
MAIN0
  6
PHANTOM
 62
3
100
AcDbLine
 10
79.91057149656518
 20
361.8969218739409
 30
0.0000000000000000
 11
71.41057149700026
 21
366.8043991618172
 31
0.0000000000000000
  0
LINE
  5
45E
100
AcDbEntity
  8
MAIN0
  6
PHANTOM
 62
3
100
AcDbLine
 10
71.41057149685764
 20
366.8043991618995
 30
0.0000000000000000
 11
71.41057149685753
 21
376.6193537387829
 31
0.0000000000000000
  0
LINE
  5
45F
100
AcDbEntity
  8
MAIN0
  6
PHANTOM
 62
3
100
AcDbLine
 10
71.41057149685736
 20
376.6193537387829
 30
0.0000000000000000
 11
79.91057149643592
 21
381.5268310266358
 31
0.0000000000000000
  0
LINE
  5
460
100
AcDbEntity
  8
MAIN0
  6
CONTINUOUS
 62
3
100
AcDbLine
 10
91.25031746013042
 20
345.2118764503337
 30
0.0000000000000000
 11
99.91057149798189
 21
350.2118764503339
 31
0.0000000000000000
  0
LINE
  5
461
100
AcDbEntity
  8
MAIN0
  6
CONTINUOUS
 62
3
100
AcDbLine
 10
68.57082553358504
 20
345.2118764503333
 30
0.0000000000000000
 11
91.25031746013070
 21
345.2118764503336
 31
0.0000000000000000
  0
LINE
  5
462
100
AcDbEntity
  8
MAIN0
  6
CONTINUOUS
 62
3
100
AcDbLine
 10
59.91057149573345
 20
350.2118764503331
 30
0.0000000000000000
 11
68.57082553358487
 21
345.2118764503334
 31
0.0000000000000000
  0
ARC
  5
463
100
AcDbEntity
  8
MAIN0
  6
HIDDEN
 62
3
100
AcDbCircle
 10
79.91057149685796
 20
354.2118764503542
 30
0.0000000000000000
 40
6.500000000000085
100
AcDbArc
 50
180.0000000000000
 51
360.0000000000000
  0
LINE
  5
464
100
AcDbEntity
  8
MAIN0
  6
HIDDEN
 62
3
100
AcDbLine
 10
97.66057149685756
 20
377.8876997224585
 30
0.0000000000000000
 11
97.66057149685770
 21
369.5360531782136
 31
0.0000000000000000
  0
LINE
  5
465
100
AcDbEntity
  8
MAIN0
  6
CONTINUOUS
 62
3
100
AcDbLine
 10
97.66057149685750
 20
369.5360531782134
 30
0.0000000000000000
 11
97.66057149685778
 21
352.7118764503338
 31
0.0000000000000000
  0
LINE
  5
466
100
AcDbEntity
  8
MAIN0
  6
HIDDEN
 62
3
100
AcDbLine
 10
92.16057149685761
 20
377.8876997224585
 30
0.0000000000000000
 11
92.16057149685776
 21
369.5360531782133
 31
0.0000000000000000
  0
LINE
  5
467
100
AcDbEntity
  8
MAIN0
  6
CONTINUOUS
 62
3
100
AcDbLine
 10
92.16057149685756
 20
369.5360531782135
 30
0.0000000000000000
 11
92.16057149685784
 21
352.7118764503335
 31
0.0000000000000000
  0
LINE
  5
468
100
AcDbEntity
  8
MAIN0
  6
HIDDEN
 62
3
100
AcDbLine
 10
67.66057149685753
 20
377.8876997224582
 30
0.0000000000000000
 11
67.66057149685767
 21
369.5360531782131
 31
0.0000000000000000
  0
LINE
  5
469
100
AcDbEntity
  8
MAIN0
  6
CONTINUOUS
 62
3
100
AcDbLine
 10
67.66057149685750
 20
369.5360531782131
 30
0.0000000000000000
 11
67.66057149685787
 21
352.7118764503331
 31
0.0000000000000000
  0
LINE
  5
46A
100
AcDbEntity
  8
MAIN0
  6
HIDDEN
 62
3
100
AcDbLine
 10
62.16057149685753
 20
377.8876997224581
 30
0.0000000000000000
 11
62.16057149685767
 21
369.5360531782131
 31
0.0000000000000000
  0
LINE
  5
46B
100
AcDbEntity
  8
MAIN0
  6
CONTINUOUS
 62
3
100
AcDbLine
 10
62.16057149685750
 20
369.5360531782132
 30
0.0000000000000000
 11
62.16057149685787
 21
352.7118764503331
 31
0.0000000000000000
  0
LINE
  5
46C
100
AcDbEntity
  8
MAIN0
  6
CONTINUOUS
 62
3
100
AcDbLine
 10
257.0245673937925
 20
355.4635900600779
 30
0.0000000000000000
 11
262.7603317573093
 21
347.2720696171849
 31
0.0000000000000000
  0
LINE
  5
46D
100
AcDbEntity
  8
MAIN0
  6
CONTINUOUS
 62
3
100
AcDbLine
 10
283.3149318963725
 20
337.6873021620261
 30
0.0000000000000000
 11
293.2768788772964
 21
338.5588595894996
 31
0.0000000000000000
  0
LINE
  5
46E
100
AcDbEntity
  8
MAIN0
  6
CONTINUOUS
 62
3
100
AcDbLine
 10
270.4620327960940
 20
365.9422653373291
 30
0.0000000000000000
 11
277.5722371200479
 21
381.1901477162852
 31
0.0000000000000000
  0
LINE
  5
46F
100
AcDbEntity
  8
MAIN0
  6
CONTINUOUS
 62
3
100
AcDbLine
 10
265.1049983986972
 20
354.4540679987039
 30
0.0000000000000000
 11
266.9324744508925
 21
358.3731030397022
 31
0.0000000000000000
  0
LINE
  5
470
100
AcDbEntity
  8
MAIN0
  6
HIDDEN
 62
3
100
AcDbLine
 10
266.9324744508925
 20
358.3731030397022
 30
0.0000000000000000
 11
270.4620327960940
 21
365.9422653373292
 31
0.0000000000000000
  0
LINE
  5
471
100
AcDbEntity
  8
MAIN0
  6
CONTINUOUS
 62
3
100
AcDbLine
 10
260.1203055699956
 20
356.7784684382777
 30
0.0000000000000000
 11
261.9477816221909
 21
360.6975034792760
 31
0.0000000000000000
  0
LINE
  5
472
100
AcDbEntity
  8
MAIN0
  6
HIDDEN
 62
3
100
AcDbLine
 10
261.9477816221909
 20
360.6975034792760
 30
0.0000000000000000
 11
265.4773399673925
 21
368.2666657769030
 31
0.0000000000000000
  0
LINE
  5
473
100
AcDbEntity
  8
MAIN0
  6
CONTINUOUS
 62
3
100
AcDbLine
 10
265.4773399673925
 20
368.2666657769030
 30
0.0000000000000000
 11
272.5875442913463
 21
383.5145481558590
 31
0.0000000000000000
  0
LINE
  5
474
100
AcDbEntity
  8
MAIN0
  6
CONTINUOUS
 62
3
100
AcDbLine
 10
292.2942320097967
 20
341.7755201464830
 30
0.0000000000000000
 11
294.1217080619919
 21
345.6945551874811
 31
0.0000000000000000
  0
LINE
  5
475
100
AcDbEntity
  8
MAIN0
  6
CONTINUOUS
 62
3
100
AcDbLine
 10
287.3095391810952
 20
344.0999205860568
 30
0.0000000000000000
 11
289.1370152332904
 21
348.0189556270549
 31
0.0000000000000000
  0
LINE
  5
476
100
AcDbEntity
  8
MAIN0
  6
HIDDEN
 62
3
100
AcDbLine
 10
289.1370152332904
 20
348.0189556270550
 30
0.0000000000000000
 11
292.6665735784919
 21
355.5881179246820
 31
0.0000000000000000
  0
LINE
  5
477
100
AcDbEntity
  8
MAIN0
  6
CONTINUOUS
 62
3
100
AcDbLine
 10
292.6665735784919
 20
355.5881179246820
 30
0.0000000000000000
 11
299.7767779024458
 21
370.8360003036380
 31
0.0000000000000000
  0
LINE
  5
478
100
AcDbEntity
  8
MAIN0
  6
HIDDEN
 62
3
100
AcDbLine
 10
294.1217080619919
 20
345.6945551874812
 30
0.0000000000000000
 11
297.6512664071934
 21
353.2637174851083
 31
0.0000000000000000
  0
LINE
  5
479
100
AcDbEntity
  8
MAIN0
  6
CONTINUOUS
 62
3
100
AcDbLine
 10
297.6512664071935
 20
353.2637174851082
 30
0.0000000000000000
 11
304.7614707311473
 21
368.5115998640642
 31
0.0000000000000000
  0
DIMENSION
  5
482
100
AcDbEntity
  8
MAIN0
  6
CONTINUOUS
 62
3
100
AcDbDimension
  2
*D34
 10
245.7462090930476
 20
331.2770726294839
 30
0.0000000000000000
 11
264.0836739646510
 21
323.2778612881882
 31
0.0000000000000000
 70
33
  3
MAIN001
100
AcDbAlignedDimension
 13
288.2054597353890
 23
327.6831661455350
 33
0.0000000000000000
 14
251.9531482539230
 24
344.5878966151630
 34
0.0000000000000000
 50
155.0000000000000
1001
ACAD
1000
DSTYLE
1002
{
1070
   173
1070
     1
1070
     6
1000
_OPEN
1070
     7
1000
_OPEN
1070
    41
1040
2.000000
1002
}
  0
DIMENSION
  5
48B
100
AcDbEntity
  8
MAIN0
  6
CONTINUOUS
 62
3
100
AcDbDimension
  2
*D35
 10
59.91057149685770
 20
332.6620792735591
 30
0.0000000000000000
 11
79.91057149685764
 21
333.1620792735591
 31
0.0000000000000000
 70
32
  3
MAIN001
100
AcDbAlignedDimension
 13
99.91057149685761
 23
340.5397699412457
 33
0.0000000000000000
 14
59.91057149685787
 24
340.5397699412457
 34
0.0000000000000000
100
AcDbRotatedDimension
1001
ACAD
1000
DSTYLE
1002
{
1070
   173
1070
     1
1070
     6
1000
_OPEN
1070
     7
1000
_OPEN
1070
    41
1040
2.000000
1002
}
  0
LINE
  5
48C
100
AcDbEntity
  8
MAIN0
  6
CONTINUOUS
 62
3
100
AcDbLine
 10
73.41057149685727
 20
390.7118764503333
 30
0.0000000000000000
 11
73.41057149685727
 21
392.7118764503333
 31
0.0000000000000000
  0
LINE
  5
48D
100
AcDbEntity
  8
MAIN0
  6
HIDDEN
 62
3
100
AcDbLine
 10
86.41057149685764
 20
354.7118764503543
 30
0.0000000000000000
 11
86.41057149685699
 21
389.7118764503334
 31
0.0000000000000000
  0
LINE
  5
48E
100
AcDbEntity
  8
MAIN0
  6
CONTINUOUS
 62
3
100
AcDbLine
 10
86.41057149685713
 20
389.7118764503334
 30
0.0000000000000000
 11
86.41057149685713
 21
392.7118764503334
 31
0.0000000000000000
  0
LINE
  5
48F
100
AcDbEntity
  8
MAIN0
  6
HIDDEN
 62
3
100
AcDbLine
 10
73.41057149685770
 20
354.7118764503541
 30
0.0000000000000000
 11
73.41057149685702
 21
389.7118764503333
 31
0.0000000000000000
  0
LINE
  5
490
100
AcDbEntity
  8
MAIN0
  6
CONTINUOUS
 62
3
100
AcDbLine
 10
73.41057149685702
 20
389.7118764503333
 30
0.0000000000000000
 11
73.41057149685702
 21
390.7118764503318
 31
0.0000000000000000
  0
LINE
  5
491
100
AcDbEntity
  8
MAIN0
  6
CONTINUOUS
 62
3
100
AcDbLine
 10
260.0797944141495
 20
34.53581791495344
 30
0.0000000000000000
 11
390.3218355844571
 21
34.53581791495344
 31
0.0000000000000000
  0
MTEXT
  5
492
100
AcDbEntity
  8
MAIN0
  6
CONTINUOUS
 62
3
100
AcDbMText
 10
261.0797944141495
 20
23.13581781958612
 30
0.0000000000000000
 40
3.099999904632568
 41
0.0000000000000000
 71
     1
 72
     1
  1
{\H0.88x;{5.}}
 11
1.000000000000000
 21
0.0000000000000000
 31
0.0000000000000000
  7
STANDARD
  0
LINE
  5
493
100
AcDbEntity
  8
MAIN0
  6
CONTINUOUS
 62
3
100
AcDbLine
 10
260.0797944141495
 20
19.53581791495355
 30
0.0000000000000000
 11
390.3218355844571
 21
19.53581791495355
 31
0.0000000000000000
  0
MTEXT
  5
494
100
AcDbEntity
  8
MAIN0
  6
CONTINUOUS
 62
3
100
AcDbMText
 10
270.0797944141495
 20
65.13581781958595
 30
0.0000000000000000
 40
3.099999904632568
 41
0.0000000000000000
 71
     1
 72
     1
  1
{\H0.92x;{Ｃポートの最高エア圧力　１．０　MPa}}
 11
1.000000000000000
 21
0.0000000000000000
 31
0.0000000000000000
  7
KNJYOKO
  0
LINE
  5
495
100
AcDbEntity
  8
MAIN0
  6
CONTINUOUS
 62
3
100
AcDbLine
 10
322.2078363952615
 20
326.8050637609970
 30
0.0000000000000000
 11
316.8078363952615
 21
326.8050637609970
 31
0.0000000000000000
  0
LINE
  5
496
100
AcDbEntity
  8
MAIN0
  6
CONTINUOUS
 62
3
100
AcDbLine
 10
316.8078363952615
 20
326.8050637609970
 30
0.0000000000000000
 11
316.2078363952615
 21
325.7658332764557
 31
0.0000000000000000
  0
LINE
  5
497
100
AcDbEntity
  8
MAIN0
  6
CONTINUOUS
 62
3
100
AcDbLine
 10
316.2078363952615
 20
325.7658332764557
 30
0.0000000000000000
 11
316.2078363952615
 21
317.8442942455383
 31
0.0000000000000000
  0
LINE
  5
498
100
AcDbEntity
  8
MAIN0
  6
CONTINUOUS
 62
3
100
AcDbLine
 10
316.2078363952616
 20
317.8442942455383
 30
0.0000000000000000
 11
316.8078363952616
 21
316.8050637609970
 31
0.0000000000000000
  0
LINE
  5
499
100
AcDbEntity
  8
MAIN0
  6
CONTINUOUS
 62
3
100
AcDbLine
 10
316.8078363952615
 20
316.8050637609970
 30
0.0000000000000000
 11
322.2078363952615
 21
316.8050637609970
 31
0.0000000000000000
  0
LINE
  5
49A
100
AcDbEntity
  8
MAIN0
  6
CONTINUOUS
 62
3
100
AcDbLine
 10
316.8078363952615
 20
326.8050637609970
 30
0.0000000000000000
 11
316.8078363952615
 21
316.8050637609970
 31
0.0000000000000000
  0
LINE
  5
49B
100
AcDbEntity
  8
MAIN0
  6
CONTINUOUS
 62
3
100
AcDbLine
 10
322.2078363952615
 20
324.8050637609970
 30
0.0000000000000000
 11
334.2078363952615
 21
324.8050637609970
 31
0.0000000000000000
  0
LINE
  5
49C
100
AcDbEntity
  8
MAIN0
  6
CONTINUOUS
 62
3
100
AcDbLine
 10
334.2078363952615
 20
324.8050637609970
 30
0.0000000000000000
 11
334.2078363952615
 21
318.8050637609970
 31
0.0000000000000000
  0
LINE
  5
49D
100
AcDbEntity
  8
MAIN0
  6
CONTINUOUS
 62
3
100
AcDbLine
 10
334.2078363952615
 20
318.8050637609970
 30
0.0000000000000000
 11
322.2078363952615
 21
318.8050637609970
 31
0.0000000000000000
  0
LINE
  5
49E
100
AcDbEntity
  8
MAIN0
  6
CONTINUOUS
 62
3
100
AcDbLine
 10
322.2078363952615
 20
324.2637977609970
 30
0.0000000000000000
 11
334.2078363952615
 21
324.2637977609970
 31
0.0000000000000000
  0
LINE
  5
49F
100
AcDbEntity
  8
MAIN0
  6
CONTINUOUS
 62
3
100
AcDbLine
 10
322.2078363952615
 20
319.3463297609970
 30
0.0000000000000000
 11
334.2078363952615
 21
319.3463297609970
 31
0.0000000000000000
  0
LINE
  5
4A0
100
AcDbEntity
  8
MAIN0
  6
CONTINUOUS
 62
3
100
AcDbLine
 10
501.8304861259479
 20
240.8050637609971
 30
0.0000000000000000
 11
480.4078363952615
 21
240.8050637609971
 31
0.0000000000000000
  0
LINE
  5
4A1
100
AcDbEntity
  8
MAIN0
  6
CONTINUOUS
 62
3
100
AcDbLine
 10
480.4078363952615
 20
260.8050637609971
 30
0.0000000000000000
 11
501.8304861259479
 21
260.8050637609971
 31
0.0000000000000000
  0
LINE
  5
4A2
100
AcDbEntity
  8
MAIN0
  6
CONTINUOUS
 62
3
100
AcDbLine
 10
501.1087982894630
 20
242.0550637609971
 30
0.0000000000000000
 11
461.3471061631718
 21
242.0550637609971
 31
0.0000000000000000
  0
LINE
  5
4A3
100
AcDbEntity
  8
MAIN0
  6
CONTINUOUS
 62
3
100
AcDbLine
 10
463.5565148493101
 20
259.5550637609971
 30
0.0000000000000000
 11
501.1087982896179
 21
259.5550637609971
 31
0.0000000000000000
  0
LINE
  5
4A4
100
AcDbEntity
  8
MAIN0
  6
CENTER
 62
3
100
AcDbLine
 10
379.4078363952621
 20
369.7667181136387
 30
0.0000000000000000
 11
379.4078363952621
 21
325.1009047185154
 31
0.0000000000000000
  0
LINE
  5
4A5
100
AcDbEntity
  8
MAIN0
  6
PHANTOM
 62
3
100
AcDbLine
 10
374.4078363952630
 20
327.8050637609971
 30
0.0000000000000000
 11
384.4078363952611
 21
327.8050637609971
 31
0.0000000000000000
  0
LINE
  5
4A6
100
AcDbEntity
  8
MAIN0
  6
PHANTOM
 62
3
100
AcDbLine
 10
373.4078363952621
 20
328.8050637609971
 30
0.0000000000000000
 11
385.4078363952619
 21
328.8050637609971
 31
0.0000000000000000
  0
LINE
  5
4A7
100
AcDbEntity
  8
MAIN0
  6
PHANTOM
 62
3
100
AcDbLine
 10
384.4078363952610
 20
327.8050637609972
 30
0.0000000000000000
 11
385.4078363952620
 21
328.8050637609981
 31
0.0000000000000000
  0
LINE
  5
4A8
100
AcDbEntity
  8
MAIN0
  6
PHANTOM
 62
3
100
AcDbLine
 10
374.4078363952630
 20
327.8050637609972
 30
0.0000000000000000
 11
373.4078363952621
 21
328.8050637609981
 31
0.0000000000000000
  0
LINE
  5
4A9
100
AcDbEntity
  8
MAIN0
  6
PHANTOM
 62
3
100
AcDbLine
 10
384.3153136832923
 20
346.7050637609971
 30
0.0000000000000000
 11
384.3153136832937
 21
344.3050637609976
 31
0.0000000000000000
  0
LINE
  5
4AA
100
AcDbEntity
  8
MAIN0
  6
PHANTOM
 62
3
100
AcDbLine
 10
389.2227909715433
 20
346.7458743830796
 30
0.0000000000000000
 11
389.2227909715436
 21
344.2642531389147
 31
0.0000000000000000
  0
LINE
  5
4AB
100
AcDbEntity
  8
MAIN0
  6
PHANTOM
 62
3
100
AcDbLine
 10
370.9078363941036
 20
347.5050637609971
 30
0.0000000000000000
 11
387.9078363964205
 21
347.5050637609971
 31
0.0000000000000000
  0
LINE
  5
4AC
100
AcDbEntity
  8
MAIN0
  6
PHANTOM
 62
3
100
AcDbLine
 10
387.9078363964206
 20
347.5050637609970
 30
0.0000000000000000
 11
389.2227909715431
 21
346.7458743830798
 31
0.0000000000000000
  0
LINE
  5
4AD
100
AcDbEntity
  8
MAIN0
  6
PHANTOM
 62
3
100
AcDbLine
 10
374.5003591072316
 20
346.7050637609972
 30
0.0000000000000000
 11
374.5003591072303
 21
344.3050637609977
 31
0.0000000000000000
  0
ARC
  5
4AE
100
AcDbEntity
  8
MAIN0
  6
PHANTOM
 62
3
100
AcDbCircle
 10
379.4078363952619
 20
332.0529804281639
 30
0.0000000000000000
 40
15.45208333283322
100
AcDbArc
 50
71.48256317677496
 51
108.5174368232250
  0
ARC
  5
4AF
100
AcDbEntity
  8
MAIN0
  6
PHANTOM
 62
3
100
AcDbCircle
 10
389.3473550388516
 20
332.5742973346514
 30
0.0000000000000000
 40
15.00000000000000
100
AcDbArc
 50
95.50703149208238
 51
109.6010858781950
  0
LINE
  5
4B0
100
AcDbEntity
  8
MAIN0
  6
PHANTOM
 62
3
100
AcDbLine
 10
370.9078363941035
 20
347.5050637609970
 30
0.0000000000000000
 11
369.5928818189810
 21
346.7458743830797
 31
0.0000000000000000
  0
ARC
  5
4B1
100
AcDbEntity
  8
MAIN0
  6
PHANTOM
 62
3
100
AcDbCircle
 10
369.4683177516724
 20
332.5742973346513
 30
0.0000000000000000
 40
15.00000000000000
100
AcDbArc
 50
70.39891412180502
 51
84.49296850791762
  0
LINE
  5
4B2
100
AcDbEntity
  8
MAIN0
  6
PHANTOM
 62
3
100
AcDbLine
 10
369.5928818189808
 20
346.7458743830798
 30
0.0000000000000000
 11
369.5928818189805
 21
344.2642531389148
 31
0.0000000000000000
  0
LINE
  5
4B3
100
AcDbEntity
  8
MAIN0
  6
PHANTOM
 62
3
100
AcDbLine
 10
370.9078363941034
 20
343.5050637609971
 30
0.0000000000000000
 11
369.5928818189809
 21
344.2642531389144
 31
0.0000000000000000
  0
ARC
  5
4B4
100
AcDbEntity
  8
MAIN0
  6
PHANTOM
 62
3
100
AcDbCircle
 10
369.4683177516724
 20
358.4358301873429
 30
0.0000000000000000
 40
15.00000000000000
100
AcDbArc
 50
275.5070314920824
 51
289.6010858781950
  0
ARC
  5
4B5
100
AcDbEntity
  8
MAIN0
  6
PHANTOM
 62
3
100
AcDbCircle
 10
379.4078363952619
 20
358.9571470938303
 30
0.0000000000000000
 40
15.45208333283322
100
AcDbArc
 50
251.4825631767750
 51
288.5174368232251
  0
ARC
  5
4B6
100
AcDbEntity
  8
MAIN0
  6
PHANTOM
 62
3
100
AcDbCircle
 10
389.3473550388516
 20
358.4358301873428
 30
0.0000000000000000
 40
15.00000000000000
100
AcDbArc
 50
250.3989141218050
 51
264.4929685079176
  0
LINE
  5
4B7
100
AcDbEntity
  8
MAIN0
  6
PHANTOM
 62
3
100
AcDbLine
 10
387.9078363964206
 20
343.5050637609973
 30
0.0000000000000000
 11
389.2227909715430
 21
344.2642531389145
 31
0.0000000000000000
  0
LINE
  5
4B8
100
AcDbEntity
  8
MAIN0
  6
PHANTOM
 62
3
100
AcDbLine
 10
374.4078363952467
 20
364.8050637609971
 30
0.0000000000000000
 11
384.4078363952158
 21
364.8050637609971
 31
0.0000000000000000
  0
LINE
  5
4B9
100
AcDbEntity
  8
MAIN0
  6
PHANTOM
 62
3
100
AcDbLine
 10
369.4078363952619
 20
343.5050637609971
 30
0.0000000000000000
 11
389.4078363952621
 21
343.5050637609971
 31
0.0000000000000000
  0
LINE
  5
4BA
100
AcDbEntity
  8
MAIN0
  6
PHANTOM
 62
3
100
AcDbLine
 10
389.4078363952621
 20
343.5050637609971
 30
0.0000000000000000
 11
389.4078363952621
 21
342.5050637609971
 31
0.0000000000000000
  0
LINE
  5
4BB
100
AcDbEntity
  8
MAIN0
  6
PHANTOM
 62
3
100
AcDbLine
 10
369.4078363952619
 20
343.5050637609971
 30
0.0000000000000000
 11
369.4078363952619
 21
342.5050637609971
 31
0.0000000000000000
  0
LINE
  5
4BC
100
AcDbEntity
  8
MAIN0
  6
PHANTOM
 62
3
100
AcDbLine
 10
373.4078363952621
 20
363.8050637609971
 30
0.0000000000000000
 11
385.4078363952621
 21
363.8050637609971
 31
0.0000000000000000
  0
LINE
  5
4BD
100
AcDbEntity
  8
MAIN0
  6
PHANTOM
 62
3
100
AcDbLine
 10
373.4078363952489
 20
363.8050637609971
 30
0.0000000000000000
 11
374.4078363952467
 21
364.8050637609971
 31
0.0000000000000000
  0
LINE
  5
4BE
100
AcDbEntity
  8
MAIN0
  6
PHANTOM
 62
3
100
AcDbLine
 10
384.4078363952159
 20
364.8050637609971
 30
0.0000000000000000
 11
385.4078363952620
 21
363.8050637609521
 31
0.0000000000000000
  0
LINE
  5
4BF
100
AcDbEntity
  8
MAIN0
  6
PHANTOM
 62
3
100
AcDbLine
 10
374.4078363952467
 20
366.8050637609971
 30
0.0000000000000000
 11
384.4078363952158
 21
366.8050637609971
 31
0.0000000000000000
  0
LINE
  5
4C0
100
AcDbEntity
  8
MAIN0
  6
PHANTOM
 62
3
100
AcDbLine
 10
384.4078363951910
 20
366.8050637609972
 30
0.0000000000000000
 11
384.4078363951897
 21
364.8050637609971
 31
0.0000000000000000
  0
LINE
  5
4C1
100
AcDbEntity
  8
MAIN0
  6
PHANTOM
 62
3
100
AcDbLine
 10
374.4078363952246
 20
366.8050637609973
 30
0.0000000000000000
 11
374.4078363952234
 21
364.8050637609973
 31
0.0000000000000000
  0
LINE
  5
4C2
100
AcDbEntity
  8
MAIN0
  6
PHANTOM
 62
3
100
AcDbLine
 10
385.4078363952621
 20
336.1050637609972
 30
0.0000000000000000
 11
385.4078363952621
 21
328.8050637609971
 31
0.0000000000000000
  0
LINE
  5
4C3
100
AcDbEntity
  8
MAIN0
  6
PHANTOM
 62
3
100
AcDbLine
 10
385.4078363952621
 20
363.8050637609971
 30
0.0000000000000000
 11
385.4078363952621
 21
347.5050637609971
 31
0.0000000000000000
  0
LINE
  5
4C4
100
AcDbEntity
  8
MAIN0
  6
PHANTOM
 62
3
100
AcDbLine
 10
384.8663363952620
 20
336.1050637609972
 30
0.0000000000000000
 11
384.8663363952620
 21
328.2635637609980
 31
0.0000000000000000
  0
LINE
  5
4C5
100
AcDbEntity
  8
MAIN0
  6
PHANTOM
 62
3
100
AcDbLine
 10
384.8663363952620
 20
364.3465637609514
 30
0.0000000000000000
 11
384.8663363952620
 21
347.5050637609971
 31
0.0000000000000000
  0
LINE
  5
4C6
100
AcDbEntity
  8
MAIN0
  6
PHANTOM
 62
3
100
AcDbLine
 10
373.9493363952620
 20
336.1050637609972
 30
0.0000000000000000
 11
373.9493363952620
 21
328.2635637609981
 31
0.0000000000000000
  0
LINE
  5
4C7
100
AcDbEntity
  8
MAIN0
  6
PHANTOM
 62
3
100
AcDbLine
 10
373.9493363952620
 20
364.3465637610114
 30
0.0000000000000000
 11
373.9493363952620
 21
347.5050637609971
 31
0.0000000000000000
  0
LINE
  5
4C8
100
AcDbEntity
  8
MAIN0
  6
PHANTOM
 62
3
100
AcDbLine
 10
373.4078363952621
 20
336.1050637609972
 30
0.0000000000000000
 11
373.4078363952621
 21
328.8050637609981
 31
0.0000000000000000
  0
LINE
  5
4C9
100
AcDbEntity
  8
MAIN0
  6
PHANTOM
 62
3
100
AcDbLine
 10
373.4078363952621
 20
363.8050637609971
 30
0.0000000000000000
 11
373.4078363952621
 21
347.5050637609971
 31
0.0000000000000000
  0
LINE
  5
4CA
100
AcDbEntity
  8
MAIN0
  6
CONTINUOUS
 62
3
100
AcDbLine
 10
450.4078363952615
 20
229.8050637609971
 30
0.0000000000000000
 11
465.4078363952615
 21
229.8050637609971
 31
0.0000000000000000
  0
LINE
  5
4CB
100
AcDbEntity
  8
MAIN0
  6
CONTINUOUS
 62
3
100
AcDbLine
 10
465.4078363952615
 20
238.5259592237890
 30
0.0000000000000000
 11
465.4078363952615
 21
229.8050637609971
 31
0.0000000000000000
  0
LINE
  5
4CC
100
AcDbEntity
  8
MAIN0
  6
CONTINUOUS
 62
3
100
AcDbLine
 10
465.4078363952615
 20
263.1830049922378
 30
0.0000000000000000
 11
465.4078363952615
 21
271.8050637609971
 31
0.0000000000000000
  0
LINE
  5
4CD
100
AcDbEntity
  8
MAIN0
  6
CONTINUOUS
 62
3
100
AcDbLine
 10
450.4078363952615
 20
271.8050637609971
 30
0.0000000000000000
 11
465.4078363952615
 21
271.8050637609971
 31
0.0000000000000000
  0
LINE
  5
4CE
100
AcDbEntity
  8
MAIN0
  6
PHANTOM
 62
3
100
AcDbLine
 10
436.4078363952619
 20
190.1284812609972
 30
0.0000000000000000
 11
464.4078363952621
 21
190.1284812609972
 31
0.0000000000000000
  0
LINE
  5
4CF
100
AcDbEntity
  8
MAIN0
  6
PHANTOM
 62
3
100
AcDbLine
 10
464.4078363952621
 20
182.8050637609971
 30
0.0000000000000000
 11
464.4078363952621
 21
190.8050637609971
 31
0.0000000000000000
  0
LINE
  5
4D0
100
AcDbEntity
  8
MAIN0
  6
PHANTOM
 62
3
100
AcDbLine
 10
436.4078363952619
 20
183.4816462609971
 30
0.0000000000000000
 11
464.4078363952621
 21
183.4816462609971
 31
0.0000000000000000
  0
LINE
  5
4D1
100
AcDbEntity
  8
MAIN0
  6
PHANTOM
 62
3
100
AcDbLine
 10
384.4078363952719
 20
182.8050637609971
 30
0.0000000000000000
 11
464.4078363952621
 21
182.8050637609971
 31
0.0000000000000000
  0
LINE
  5
4D2
100
AcDbEntity
  8
MAIN0
  6
PHANTOM
 62
3
100
AcDbLine
 10
384.4078363952721
 20
190.8050637609971
 30
0.0000000000000000
 11
464.4078363952621
 21
190.8050637609971
 31
0.0000000000000000
  0
LINE
  5
4D3
100
AcDbEntity
  8
MAIN0
  6
HIDDEN
 62
3
100
AcDbLine
 10
318.8293363952639
 20
172.8050637609973
 30
0.0000000000000000
 11
319.1230863952639
 21
182.2050637609973
 31
0.0000000000000000
  0
LINE
  5
4D4
100
AcDbEntity
  8
MAIN0
  6
HIDDEN
 62
3
100
AcDbLine
 10
319.1230863952638
 20
182.2050637609972
 30
0.0000000000000000
 11
331.6925863952638
 21
182.2050637609972
 31
0.0000000000000000
  0
LINE
  5
4D5
100
AcDbEntity
  8
MAIN0
  6
HIDDEN
 62
3
100
AcDbLine
 10
331.6925863952638
 20
182.2050637609973
 30
0.0000000000000000
 11
331.9863363952638
 21
172.8050637609973
 31
0.0000000000000000
  0
LINE
  5
4D6
100
AcDbEntity
  8
MAIN0
  6
HIDDEN
 62
3
100
AcDbLine
 10
319.6853363952640
 20
172.8050637609973
 30
0.0000000000000000
 11
319.9790863952640
 21
182.2050637609972
 31
0.0000000000000000
  0
LINE
  5
4D7
100
AcDbEntity
  8
MAIN0
  6
HIDDEN
 62
3
100
AcDbLine
 10
331.1303363952638
 20
172.8050637609973
 30
0.0000000000000000
 11
330.8365863952639
 21
182.2050637609973
 31
0.0000000000000000
  0
LINE
  5
4D8
100
AcDbEntity
  8
MAIN0
  6
HIDDEN
 62
3
100
AcDbLine
 10
320.0078363952638
 20
182.2050637609972
 30
0.0000000000000000
 11
320.0078363952638
 21
196.6324237417401
 31
0.0000000000000000
  0
LINE
  5
4D9
100
AcDbEntity
  8
MAIN0
  6
HIDDEN
 62
3
100
AcDbLine
 10
330.8078363952638
 20
196.6324237417401
 30
0.0000000000000000
 11
330.8078363952638
 21
182.2050637609972
 31
0.0000000000000000
  0
LINE
  5
4DA
100
AcDbEntity
  8
MAIN0
  6
CONTINUOUS
 62
3
100
AcDbLine
 10
186.9173553018592
 20
339.2563835698453
 30
0.0000000000000000
 11
188.2697337394320
 21
342.1565684883614
 31
0.0000000000000000
  0
LINE
  5
4DB
100
AcDbEntity
  8
MAIN0
  6
CONTINUOUS
 62
3
100
AcDbLine
 10
224.5220452209099
 20
325.2518380186527
 30
0.0000000000000000
 11
188.2697337394345
 21
342.1565684883602
 31
0.0000000000000000
  0
LINE
  5
4DC
100
AcDbEntity
  8
MAIN0
  6
CENTER
 62
3
100
AcDbLine
 10
216.1657369510306
 20
319.1626850197729
 30
0.0000000000000000
 11
223.3451450365220
 21
334.5589753442358
 31
0.0000000000000000
  0
LINE
  5
4DD
100
AcDbEntity
  8
MAIN0
  6
CONTINUOUS
 62
3
100
AcDbLine
 10
197.7554298714950
 20
338.8366936579912
 30
0.0000000000000000
 11
197.3328116097522
 21
337.9303858709556
 31
0.0000000000000000
  0
LINE
  5
4DE
100
AcDbEntity
  8
MAIN0
  6
CENTER
 62
3
100
AcDbLine
 10
189.2662912130344
 20
332.4626849716415
 30
0.0000000000000000
 11
196.4456992985260
 21
347.8589752961042
 31
0.0000000000000000
  0
LINE
  5
4DF
100
AcDbEntity
  8
MAIN0
  6
CONTINUOUS
 62
3
100
AcDbLine
 10
197.3328116097447
 20
337.9303858709385
 30
0.0000000000000000
 11
197.7554298714862
 21
338.8366936579748
 31
0.0000000000000000
  0
LINE
  5
4E0
100
AcDbEntity
  8
MAIN0
  6
CONTINUOUS
 62
3
100
AcDbLine
 10
197.7554298714863
 20
338.8366936579747
 30
0.0000000000000000
 11
188.6923520011236
 21
343.0628762753898
 31
0.0000000000000000
  0
LINE
  5
4E1
100
AcDbEntity
  8
MAIN0
  6
CONTINUOUS
 62
3
100
AcDbLine
 10
188.6923520011235
 20
343.0628762753899
 30
0.0000000000000000
 11
188.2697337393820
 21
342.1565684883536
 31
0.0000000000000000
  0
LINE
  5
4E2
100
AcDbEntity
  8
MAIN0
  6
CONTINUOUS
 62
3
100
AcDbLine
 10
189.3720828414008
 20
342.7459125790837
 30
0.0000000000000000
 11
191.2738650192376
 21
346.8242976207469
 31
0.0000000000000000
  0
LINE
  5
4E3
100
AcDbEntity
  8
MAIN0
  6
CONTINUOUS
 62
3
100
AcDbLine
 10
191.2738650192375
 20
346.8242976207470
 30
0.0000000000000000
 11
192.2700597173293
 21
346.9114533634937
 31
0.0000000000000000
  0
LINE
  5
4E4
100
AcDbEntity
  8
MAIN0
  6
CONTINUOUS
 62
3
100
AcDbLine
 10
192.2700597173294
 20
346.9114533634937
 30
0.0000000000000000
 11
198.4039047726955
 21
344.0511944402335
 31
0.0000000000000000
  0
LINE
  5
4E5
100
AcDbEntity
  8
MAIN0
  6
CONTINUOUS
 62
3
100
AcDbLine
 10
198.4039047726955
 20
344.0511944402335
 30
0.0000000000000000
 11
198.9774812090458
 21
343.2320423959441
 31
0.0000000000000000
  0
LINE
  5
4E6
100
AcDbEntity
  8
MAIN0
  6
CONTINUOUS
 62
3
100
AcDbLine
 10
198.9774812090459
 20
343.2320423959441
 30
0.0000000000000000
 11
197.0756990312091
 21
339.1536573542808
 31
0.0000000000000000
  0
LINE
  5
4E7
100
AcDbEntity
  8
MAIN0
  6
CONTINUOUS
 62
3
100
AcDbLine
 10
191.2738650192376
 20
346.8242976207469
 30
0.0000000000000000
 11
198.9774812090459
 21
343.2320423959441
 31
0.0000000000000000
  0
LINE
  5
4E8
100
AcDbEntity
  8
MAIN0
  6
CONTINUOUS
 62
3
100
AcDbLine
 10
187.8307463318262
 20
335.2996529969660
 30
0.0000000000000000
 11
187.5771753747821
 21
334.7558683247459
 31
0.0000000000000000
  0
LINE
  5
4E9
100
AcDbEntity
  8
MAIN0
  6
CONTINUOUS
 62
3
100
AcDbLine
 10
187.5771753747822
 20
334.7558683247459
 30
0.0000000000000000
 11
192.1087143099636
 21
332.6427770160383
 31
0.0000000000000000
  0
LINE
  5
4EA
100
AcDbEntity
  8
MAIN0
  6
CONTINUOUS
 62
3
100
AcDbLine
 10
192.1087143099635
 20
332.6427770160383
 30
0.0000000000000000
 11
192.3622852670093
 21
333.1865616882620
 31
0.0000000000000000
  0
LINE
  5
4EB
100
AcDbEntity
  8
MAIN0
  6
CONTINUOUS
 62
3
100
AcDbLine
 10
188.2231892043527
 20
335.1166538801185
 30
0.0000000000000000
 11
187.9696182473085
 21
334.5728692078981
 31
0.0000000000000000
  0
LINE
  5
4EC
100
AcDbEntity
  8
MAIN0
  6
CONTINUOUS
 62
3
100
AcDbLine
 10
191.9698423944828
 20
333.3695608051096
 30
0.0000000000000000
 11
191.7162714374371
 21
332.8257761328862
 31
0.0000000000000000
  0
LINE
  5
4ED
100
AcDbEntity
  8
MAIN0
  6
CONTINUOUS
 62
3
100
AcDbLine
 10
185.4078465407825
 20
315.8050637609971
 30
0.0000000000000000
 11
185.4078465407813
 21
342.5050381037293
 31
0.0000000000000000
  0
LINE
  5
4EE
100
AcDbEntity
  8
MAIN0
  6
CONTINUOUS
 62
3
100
AcDbLine
 10
175.4078465407799
 20
343.5050381037475
 30
0.0000000000000000
 11
175.4078465407814
 21
342.5050381037475
 31
0.0000000000000000
  0
LINE
  5
4EF
100
AcDbEntity
  8
MAIN0
  6
CONTINUOUS
 62
3
100
AcDbLine
 10
155.4078465407798
 20
343.5050381037171
 30
0.0000000000000000
 11
155.4078465407813
 21
342.5050381037170
 31
0.0000000000000000
  0
LINE
  5
4F0
100
AcDbEntity
  8
MAIN0
  6
CONTINUOUS
 62
3
100
AcDbLine
 10
145.4078465407400
 20
315.8050637609971
 30
0.0000000000000000
 11
145.4078465407391
 21
342.5050381037276
 31
0.0000000000000000
  0
LINE
  5
4F1
100
AcDbEntity
  8
MAIN0
  6
CENTER
 62
3
100
AcDbLine
 10
180.4078465407814
 20
336.3930289548101
 30
0.0000000000000000
 11
180.4078465407808
 21
350.1567896267475
 31
0.0000000000000000
  0
LINE
  5
4F2
100
AcDbEntity
  8
MAIN0
  6
CONTINUOUS
 62
3
100
AcDbLine
 10
175.4078465407811
 20
342.5050381037288
 30
0.0000000000000000
 11
175.4078465407810
 21
343.5050381037288
 31
0.0000000000000000
  0
LINE
  5
4F3
100
AcDbEntity
  8
MAIN0
  6
CONTINUOUS
 62
3
100
AcDbLine
 10
175.4078465407810
 20
343.5050381037289
 30
0.0000000000000000
 11
185.4078465407810
 21
343.5050381037293
 31
0.0000000000000000
  0
LINE
  5
4F4
100
AcDbEntity
  8
MAIN0
  6
CONTINUOUS
 62
3
100
AcDbLine
 10
185.4078465407810
 20
343.5050381037293
 30
0.0000000000000000
 11
185.4078465407811
 21
342.5050381037293
 31
0.0000000000000000
  0
LINE
  5
4F5
100
AcDbEntity
  8
MAIN0
  6
CONTINUOUS
 62
3
100
AcDbLine
 10
184.6578465407811
 20
343.5050381037293
 30
0.0000000000000000
 11
184.6578465407809
 21
348.0050381037293
 31
0.0000000000000000
  0
LINE
  5
4F6
100
AcDbEntity
  8
MAIN0
  6
CONTINUOUS
 62
3
100
AcDbLine
 10
184.6578465407809
 20
348.0050381037291
 30
0.0000000000000000
 11
183.7918211369965
 21
348.5050381037291
 31
0.0000000000000000
  0
LINE
  5
4F7
100
AcDbEntity
  8
MAIN0
  6
CONTINUOUS
 62
3
100
AcDbLine
 10
183.7918211369963
 20
348.5050381037291
 30
0.0000000000000000
 11
177.0238719445653
 21
348.5050381037289
 31
0.0000000000000000
  0
LINE
  5
4F8
100
AcDbEntity
  8
MAIN0
  6
CONTINUOUS
 62
3
100
AcDbLine
 10
177.0238719445652
 20
348.5050381037290
 30
0.0000000000000000
 11
176.1578465407808
 21
348.0050381037289
 31
0.0000000000000000
  0
LINE
  5
4F9
100
AcDbEntity
  8
MAIN0
  6
CONTINUOUS
 62
3
100
AcDbLine
 10
176.1578465407809
 20
348.0050381037289
 30
0.0000000000000000
 11
176.1578465407811
 21
343.5050381037289
 31
0.0000000000000000
  0
LINE
  5
4FA
100
AcDbEntity
  8
MAIN0
  6
CONTINUOUS
 62
3
100
AcDbLine
 10
184.6578465407809
 20
348.0050381037292
 30
0.0000000000000000
 11
176.1578465407809
 21
348.0050381037289
 31
0.0000000000000000
  0
LINE
  5
4FB
100
AcDbEntity
  8
MAIN0
  6
CONTINUOUS
 62
3
100
AcDbLine
 10
155.4078465406978
 20
343.5050381037466
 30
0.0000000000000000
 11
155.4078465406964
 21
342.5050381037466
 31
0.0000000000000000
  0
LINE
  5
4FC
100
AcDbEntity
  8
MAIN0
  6
CENTER
 62
3
100
AcDbLine
 10
150.4078465406549
 20
337.5467843304448
 30
0.0000000000000000
 11
150.4078465406544
 21
350.8424861511047
 31
0.0000000000000000
  0
LINE
  5
4FD
100
AcDbEntity
  8
MAIN0
  6
CONTINUOUS
 62
3
100
AcDbLine
 10
155.4078465406967
 20
342.5050381037280
 30
0.0000000000000000
 11
155.4078465406967
 21
343.5050381037280
 31
0.0000000000000000
  0
LINE
  5
4FE
100
AcDbEntity
  8
MAIN0
  6
CONTINUOUS
 62
3
100
AcDbLine
 10
155.4078465406967
 20
343.5050381037280
 30
0.0000000000000000
 11
145.4078465406967
 21
343.5050381037276
 31
0.0000000000000000
  0
LINE
  5
4FF
100
AcDbEntity
  8
MAIN0
  6
CONTINUOUS
 62
3
100
AcDbLine
 10
145.4078465406967
 20
343.5050381037276
 30
0.0000000000000000
 11
145.4078465406967
 21
342.5050381037276
 31
0.0000000000000000
  0
LINE
  5
500
100
AcDbEntity
  8
MAIN0
  6
CONTINUOUS
 62
3
100
AcDbLine
 10
146.1578465406968
 20
343.5050381037276
 30
0.0000000000000000
 11
146.1578465406966
 21
348.0050381037276
 31
0.0000000000000000
  0
LINE
  5
501
100
AcDbEntity
  8
MAIN0
  6
CONTINUOUS
 62
3
100
AcDbLine
 10
146.1578465406964
 20
348.0050381037277
 30
0.0000000000000000
 11
147.0238719444809
 21
348.5050381037277
 31
0.0000000000000000
  0
LINE
  5
502
100
AcDbEntity
  8
MAIN0
  6
CONTINUOUS
 62
3
100
AcDbLine
 10
147.0238719444810
 20
348.5050381037276
 30
0.0000000000000000
 11
153.7918211369121
 21
348.5050381037279
 31
0.0000000000000000
  0
LINE
  5
503
100
AcDbEntity
  8
MAIN0
  6
CONTINUOUS
 62
3
100
AcDbLine
 10
153.7918211369120
 20
348.5050381037279
 30
0.0000000000000000
 11
154.6578465406964
 21
348.0050381037280
 31
0.0000000000000000
  0
LINE
  5
504
100
AcDbEntity
  8
MAIN0
  6
CONTINUOUS
 62
3
100
AcDbLine
 10
154.6578465406966
 20
348.0050381037280
 30
0.0000000000000000
 11
154.6578465406968
 21
343.5050381037280
 31
0.0000000000000000
  0
LINE
  5
505
100
AcDbEntity
  8
MAIN0
  6
CONTINUOUS
 62
3
100
AcDbLine
 10
146.1578465406966
 20
348.0050381037276
 30
0.0000000000000000
 11
154.6578465406966
 21
348.0050381037280
 31
0.0000000000000000
  0
LINE
  5
506
100
AcDbEntity
  8
MAIN0
  6
CONTINUOUS
 62
3
100
AcDbLine
 10
185.4078465407811
 20
342.5050381037293
 30
0.0000000000000000
 11
145.4078465406967
 21
342.5050381037276
 31
0.0000000000000000
  0
LINE
  5
507
100
AcDbEntity
  8
MAIN0
  6
CONTINUOUS
 62
3
100
AcDbLine
 10
186.8130153172313
 20
339.3050381037293
 30
0.0000000000000000
 11
145.4078465406968
 21
339.3050381037276
 31
0.0000000000000000
  0
CIRCLE
  5
508
100
AcDbEntity
  8
MAIN0
  6
CONTINUOUS
 62
3
100
AcDbCircle
 10
64.91057149685776
 20
373.7118764503354
 30
0.0000000000000000
 40
4.250000000000000
  0
LINE
  5
509
100
AcDbEntity
  8
MAIN0
  6
CONTINUOUS
 62
3
100
AcDbLine
 10
64.91057149685770
 20
376.0212775270940
 30
0.0000000000000000
 11
62.91057149685770
 21
374.8665769887148
 31
0.0000000000000000
  0
LINE
  5
50A
100
AcDbEntity
  8
MAIN0
  6
CONTINUOUS
 62
3
100
AcDbLine
 10
62.91057149685776
 20
374.8665769887147
 30
0.0000000000000000
 11
62.91057149685776
 21
372.5571759119562
 31
0.0000000000000000
  0
LINE
  5
50B
100
AcDbEntity
  8
MAIN0
  6
CONTINUOUS
 62
3
100
AcDbLine
 10
62.91057149685776
 20
372.5571759119562
 30
0.0000000000000000
 11
64.91057149685776
 21
371.4024753735769
 31
0.0000000000000000
  0
LINE
  5
50C
100
AcDbEntity
  8
MAIN0
  6
CONTINUOUS
 62
3
100
AcDbLine
 10
64.91057149685770
 20
371.4024753735770
 30
0.0000000000000000
 11
66.91057149685770
 21
372.5571759119563
 31
0.0000000000000000
  0
LINE
  5
50D
100
AcDbEntity
  8
MAIN0
  6
CONTINUOUS
 62
3
100
AcDbLine
 10
66.91057149685776
 20
372.5571759119562
 30
0.0000000000000000
 11
66.91057149685776
 21
374.8665769887147
 31
0.0000000000000000
  0
LINE
  5
50E
100
AcDbEntity
  8
MAIN0
  6
CONTINUOUS
 62
3
100
AcDbLine
 10
66.91057149685776
 20
374.8665769887147
 30
0.0000000000000000
 11
64.91057149685776
 21
376.0212775270939
 31
0.0000000000000000
  0
CIRCLE
  5
50F
100
AcDbEntity
  8
MAIN0
  6
CONTINUOUS
 62
3
100
AcDbCircle
 10
94.91057149685764
 20
373.7118764503360
 30
0.0000000000000000
 40
4.250000000000000
  0
LINE
  5
510
100
AcDbEntity
  8
MAIN0
  6
CONTINUOUS
 62
3
100
AcDbLine
 10
94.91057149685764
 20
376.0212775270945
 30
0.0000000000000000
 11
92.91057149685764
 21
374.8665769887152
 31
0.0000000000000000
  0
LINE
  5
511
100
AcDbEntity
  8
MAIN0
  6
CONTINUOUS
 62
3
100
AcDbLine
 10
92.91057149685764
 20
374.8665769887152
 30
0.0000000000000000
 11
92.91057149685764
 21
372.5571759119567
 31
0.0000000000000000
  0
LINE
  5
512
100
AcDbEntity
  8
MAIN0
  6
CONTINUOUS
 62
3
100
AcDbLine
 10
92.91057149685761
 20
372.5571759119567
 30
0.0000000000000000
 11
94.91057149685767
 21
371.4024753735774
 31
0.0000000000000000
  0
LINE
  5
513
100
AcDbEntity
  8
MAIN0
  6
CONTINUOUS
 62
3
100
AcDbLine
 10
94.91057149685764
 20
371.4024753735774
 30
0.0000000000000000
 11
96.91057149685761
 21
372.5571759119567
 31
0.0000000000000000
  0
LINE
  5
514
100
AcDbEntity
  8
MAIN0
  6
CONTINUOUS
 62
3
100
AcDbLine
 10
96.91057149685764
 20
372.5571759119567
 30
0.0000000000000000
 11
96.91057149685764
 21
374.8665769887152
 31
0.0000000000000000
  0
LINE
  5
515
100
AcDbEntity
  8
MAIN0
  6
CONTINUOUS
 62
3
100
AcDbLine
 10
96.91057149685767
 20
374.8665769887152
 30
0.0000000000000000
 11
94.91057149685767
 21
376.0212775270944
 31
0.0000000000000000
  0
LINE
  5
516
100
AcDbEntity
  8
MAIN0
  6
CONTINUOUS
 62
3
100
AcDbLine
 10
335.4078363952622
 20
286.8050637609970
 30
0.0000000000000000
 11
375.0078363952623
 21
286.8050637609970
 31
0.0000000000000000
  0
LINE
  5
517
100
AcDbEntity
  8
MAIN0
  6
CONTINUOUS
 62
3
100
AcDbLine
 10
335.4078363952622
 20
286.8050637609970
 30
0.0000000000000000
 11
335.4078363952622
 21
302.4050637609971
 31
0.0000000000000000
  0
LINE
  5
518
100
AcDbEntity
  8
MAIN0
  6
CONTINUOUS
 62
3
100
AcDbLine
 10
315.8078363952621
 20
315.8050637609970
 30
0.0000000000000000
 11
325.4078363952608
 21
315.8050637609970
 31
0.0000000000000000
  0
LINE
  5
519
100
AcDbEntity
  8
MAIN0
  6
CONTINUOUS
 62
3
100
AcDbLine
 10
322.2078363952657
 20
335.8050637609978
 30
0.0000000000000000
 11
322.2078363952630
 21
315.8050637609971
 31
0.0000000000000000
  0
LINE
  5
51A
100
AcDbEntity
  8
MAIN0
  6
CENTER
 62
3
100
AcDbLine
 10
308.8981018216068
 20
321.8050637609970
 30
0.0000000000000000
 11
340.7357033874169
 21
321.8050637609970
 31
0.0000000000000000
  0
LINE
  5
51B
100
AcDbEntity
  8
MAIN0
  6
HIDDEN
 62
3
100
AcDbLine
 10
315.4078363952622
 20
172.8050637609973
 30
0.0000000000000000
 11
337.8533742864423
 21
172.8050637609973
 31
0.0000000000000000
  0
LINE
  5
51C
100
AcDbEntity
  8
MAIN0
  6
CONTINUOUS
 62
3
100
AcDbLine
 10
325.4078363952612
 20
315.8050637609970
 30
0.0000000000000000
 11
325.4078363952610
 21
318.8050637609970
 31
0.0000000000000000
  0
LINE
  5
51D
100
AcDbEntity
  8
MAIN0
  6
CONTINUOUS
 62
3
100
AcDbLine
 10
322.2078363952615
 20
326.8050637609970
 30
0.0000000000000000
 11
316.8078363952615
 21
326.8050637609970
 31
0.0000000000000000
  0
LINE
  5
51E
100
AcDbEntity
  8
MAIN0
  6
CONTINUOUS
 62
3
100
AcDbLine
 10
316.8078363952615
 20
326.8050637609970
 30
0.0000000000000000
 11
316.2078363952615
 21
325.7658332764557
 31
0.0000000000000000
  0
LINE
  5
51F
100
AcDbEntity
  8
MAIN0
  6
CONTINUOUS
 62
3
100
AcDbLine
 10
316.2078363952615
 20
325.7658332764557
 30
0.0000000000000000
 11
316.2078363952615
 21
317.8442942455383
 31
0.0000000000000000
  0
LINE
  5
520
100
AcDbEntity
  8
MAIN0
  6
CONTINUOUS
 62
3
100
AcDbLine
 10
316.2078363952616
 20
317.8442942455384
 30
0.0000000000000000
 11
316.8078363952616
 21
316.8050637609970
 31
0.0000000000000000
  0
LINE
  5
521
100
AcDbEntity
  8
MAIN0
  6
CONTINUOUS
 62
3
100
AcDbLine
 10
316.8078363952615
 20
316.8050637609970
 30
0.0000000000000000
 11
322.2078363952615
 21
316.8050637609970
 31
0.0000000000000000
  0
LINE
  5
522
100
AcDbEntity
  8
MAIN0
  6
CONTINUOUS
 62
3
100
AcDbLine
 10
316.8078363952615
 20
326.8050637609970
 30
0.0000000000000000
 11
316.8078363952615
 21
316.8050637609970
 31
0.0000000000000000
  0
LINE
  5
523
100
AcDbEntity
  8
MAIN0
  6
CONTINUOUS
 62
3
100
AcDbLine
 10
322.2078363952615
 20
324.8050637609970
 30
0.0000000000000000
 11
334.2078363952615
 21
324.8050637609970
 31
0.0000000000000000
  0
LINE
  5
524
100
AcDbEntity
  8
MAIN0
  6
CONTINUOUS
 62
3
100
AcDbLine
 10
334.2078363952615
 20
324.8050637609970
 30
0.0000000000000000
 11
334.2078363952615
 21
318.8050637609970
 31
0.0000000000000000
  0
LINE
  5
525
100
AcDbEntity
  8
MAIN0
  6
CONTINUOUS
 62
3
100
AcDbLine
 10
334.2078363952615
 20
318.8050637609970
 30
0.0000000000000000
 11
322.2078363952615
 21
318.8050637609970
 31
0.0000000000000000
  0
LINE
  5
526
100
AcDbEntity
  8
MAIN0
  6
CONTINUOUS
 62
3
100
AcDbLine
 10
322.2078363952615
 20
324.2637977609970
 30
0.0000000000000000
 11
334.2078363952615
 21
324.2637977609970
 31
0.0000000000000000
  0
LINE
  5
527
100
AcDbEntity
  8
MAIN0
  6
CONTINUOUS
 62
3
100
AcDbLine
 10
322.2078363952615
 20
319.3463297609970
 30
0.0000000000000000
 11
334.2078363952615
 21
319.3463297609970
 31
0.0000000000000000
  0
LINE
  5
528
100
AcDbEntity
  8
MAIN0
  6
CENTER
 62
3
100
AcDbLine
 10
325.4078363952652
 20
171.6269943719562
 30
0.0000000000000000
 11
325.4078363952635
 21
206.9572647407663
 31
0.0000000000000000
  0
LINE
  5
529
100
AcDbEntity
  8
MAIN0
  6
CONTINUOUS
 62
3
100
AcDbLine
 10
315.8078363952623
 20
315.8050637609970
 30
0.0000000000000000
 11
315.4078363952622
 21
315.4050637609970
 31
0.0000000000000000
  0
LINE
  5
52A
100
AcDbEntity
  8
MAIN0
  6
CONTINUOUS
 62
3
100
AcDbLine
 10
325.4078363952634
 20
318.8050637609970
 30
0.0000000000000000
 11
325.4078363952630
 21
315.8050637609970
 31
0.0000000000000000
  0
LINE
  5
52B
100
AcDbEntity
  8
MAIN0
  6
CONTINUOUS
 62
3
100
AcDbLine
 10
325.4078363952658
 20
335.8050637609973
 30
0.0000000000000000
 11
325.4078363952643
 21
324.8050637609970
 31
0.0000000000000000
  0
LINE
  5
52C
100
AcDbEntity
  8
MAIN0
  6
PHANTOM
 62
3
100
AcDbLine
 10
365.4078363952619
 20
328.8050637609969
 30
0.0000000000000000
 11
369.3001431373269
 21
328.8050637609969
 31
0.0000000000000000
  0
LINE
  5
52D
100
AcDbEntity
  8
MAIN0
  6
PHANTOM
 62
3
100
AcDbLine
 10
365.4078363952620
 20
328.8050637609978
 30
0.0000000000000000
 11
366.4078363952629
 21
327.8050637609969
 31
0.0000000000000000
  0
LINE
  5
52E
100
AcDbEntity
  8
MAIN0
  6
CENTER
 62
3
100
AcDbLine
 10
315.4078363952622
 20
315.8050637609970
 30
0.0000000000000000
 11
315.4078363952622
 21
328.4050637609971
 31
0.0000000000000000
  0
LINE
  5
52F
100
AcDbEntity
  8
MAIN0
  6
CENTER
 62
3
100
AcDbLine
 10
315.8078363952621
 20
328.8050637609970
 30
0.0000000000000000
 11
322.2078363952614
 21
328.8050637609970
 31
0.0000000000000000
  0
LINE
  5
530
100
AcDbEntity
  8
MAIN0
  6
CENTER
 62
3
100
AcDbLine
 10
315.4078363952622
 20
328.4050637609971
 30
0.0000000000000000
 11
315.8078363952622
 21
328.8050637609970
 31
0.0000000000000000
  0
LINE
  5
531
100
AcDbEntity
  8
MAIN0
  6
CONTINUOUS
 62
3
100
AcDbLine
 10
315.4078363952622
 20
274.2050637610130
 30
0.0000000000000000
 11
315.4078363952622
 21
275.4050637609813
 31
0.0000000000000000
  0
LINE
  5
532
100
AcDbEntity
  8
MAIN0
  6
CONTINUOUS
 62
3
100
AcDbLine
 10
315.4078363952622
 20
228.2050637610130
 30
0.0000000000000000
 11
315.4078363952622
 21
273.4050637609813
 31
0.0000000000000000
  0
LINE
  5
533
100
AcDbEntity
  8
MAIN0
  6
CONTINUOUS
 62
3
100
AcDbLine
 10
315.4078363952622
 20
226.2050637610130
 30
0.0000000000000000
 11
315.4078363952622
 21
227.4050637609813
 31
0.0000000000000000
  0
LINE
  5
534
100
AcDbEntity
  8
MAIN0
  6
CONTINUOUS
 62
3
100
AcDbLine
 10
315.4078363952622
 20
276.2050637610130
 30
0.0000000000000000
 11
315.4078363952622
 21
277.4050637609813
 31
0.0000000000000000
  0
LINE
  5
535
100
AcDbEntity
  8
MAIN0
  6
CONTINUOUS
 62
3
100
AcDbLine
 10
315.4078363952622
 20
278.2050637610130
 30
0.0000000000000000
 11
315.4078363952622
 21
315.4050637609970
 31
0.0000000000000000
  0
LINE
  5
536
100
AcDbEntity
  8
MAIN0
  6
CONTINUOUS
 62
3
100
AcDbLine
 10
315.4078363952622
 20
171.2050637609973
 30
0.0000000000000000
 11
315.4078363952622
 21
223.4050637609813
 31
0.0000000000000000
  0
LINE
  5
537
100
AcDbEntity
  8
MAIN0
  6
CONTINUOUS
 62
3
100
AcDbLine
 10
315.4078363952622
 20
224.2050637610130
 30
0.0000000000000000
 11
315.4078363952622
 21
225.4050637609813
 31
0.0000000000000000
  0
LINE
  5
538
100
AcDbEntity
  8
MAIN0
  6
CENTER
 62
3
100
AcDbLine
 10
343.9794926712099
 20
293.3050637609970
 30
0.0000000000000000
 11
383.6088341503287
 21
293.3050637609970
 31
0.0000000000000000
  0
LINE
  5
539
100
AcDbEntity
  8
MAIN0
  6
CONTINUOUS
 62
3
100
AcDbLine
 10
375.4078363952621
 20
286.8050637609970
 30
0.0000000000000000
 11
375.4078363952621
 21
323.8050637609971
 31
0.0000000000000000
  0
LINE
  5
53A
100
AcDbEntity
  8
MAIN0
  6
PHANTOM
 62
3
100
AcDbLine
 10
355.4078363952621
 20
286.8050637609970
 30
0.0000000000000000
 11
355.4078363952621
 21
323.8050637609971
 31
0.0000000000000000
  0
LINE
  5
53B
100
AcDbEntity
  8
MAIN0
  6
CONTINUOUS
 62
3
100
AcDbLine
 10
352.9078363952598
 20
342.5050637609972
 30
0.0000000000000000
 11
397.4078363952599
 21
342.5050637609972
 31
0.0000000000000000
  0
LINE
  5
53C
100
AcDbEntity
  8
MAIN0
  6
CONTINUOUS
 62
3
100
AcDbLine
 10
397.4078363952599
 20
342.5050637609972
 30
0.0000000000000000
 11
397.4078363952599
 21
339.3050637609971
 31
0.0000000000000000
  0
LINE
  5
53D
100
AcDbEntity
  8
MAIN0
  6
CONTINUOUS
 62
3
100
AcDbLine
 10
392.4078363952598
 20
342.5050637609971
 30
0.0000000000000000
 11
392.4078363952598
 21
339.3050637609972
 31
0.0000000000000000
  0
LINE
  5
53E
100
AcDbEntity
  8
MAIN0
  6
CONTINUOUS
 62
3
100
AcDbLine
 10
352.9078363952598
 20
342.5050637609972
 30
0.0000000000000000
 11
352.9078363952598
 21
339.3050637609972
 31
0.0000000000000000
  0
LINE
  5
53F
100
AcDbEntity
  8
MAIN0
  6
CONTINUOUS
 62
3
100
AcDbLine
 10
357.9078363952598
 20
342.5050637609971
 30
0.0000000000000000
 11
357.9078363952598
 21
339.3050637609970
 31
0.0000000000000000
  0
LINE
  5
540
100
AcDbEntity
  8
MAIN0
  6
PHANTOM
 62
3
100
AcDbLine
 10
160.4078363952424
 20
364.8050637609971
 30
0.0000000000000000
 11
170.4078363952115
 21
364.8050637609971
 31
0.0000000000000000
  0
LINE
  5
541
100
AcDbEntity
  8
MAIN0
  6
CONTINUOUS
 62
3
100
AcDbLine
 10
155.3540363952582
 20
343.5050637609257
 30
0.0000000000000000
 11
175.3540363952582
 21
343.5050637609257
 31
0.0000000000000000
  0
LINE
  5
542
100
AcDbEntity
  8
MAIN0
  6
CONTINUOUS
 62
3
100
AcDbLine
 10
175.3540363952582
 20
343.5050637609257
 30
0.0000000000000000
 11
175.3540363952582
 21
342.5050637609257
 31
0.0000000000000000
  0
LINE
  5
543
100
AcDbEntity
  8
MAIN0
  6
CONTINUOUS
 62
3
100
AcDbLine
 10
155.3540363952582
 20
343.5050637609257
 30
0.0000000000000000
 11
155.3540363952582
 21
342.5050637609257
 31
0.0000000000000000
  0
LINE
  5
544
100
AcDbEntity
  8
MAIN0
  6
PHANTOM
 62
3
100
AcDbLine
 10
159.4078363952577
 20
363.8050637609971
 30
0.0000000000000000
 11
171.4078363952578
 21
363.8050637609971
 31
0.0000000000000000
  0
LINE
  5
545
100
AcDbEntity
  8
MAIN0
  6
PHANTOM
 62
3
100
AcDbLine
 10
159.4078363952447
 20
363.8050637609971
 30
0.0000000000000000
 11
160.4078363952425
 21
364.8050637609971
 31
0.0000000000000000
  0
LINE
  5
546
100
AcDbEntity
  8
MAIN0
  6
PHANTOM
 62
3
100
AcDbLine
 10
170.4078363952115
 20
364.8050637609970
 30
0.0000000000000000
 11
171.4078363952576
 21
363.8050637609521
 31
0.0000000000000000
  0
LINE
  5
547
100
AcDbEntity
  8
MAIN0
  6
PHANTOM
 62
3
100
AcDbLine
 10
160.4078363952424
 20
366.8050637609971
 30
0.0000000000000000
 11
170.4078363952115
 21
366.8050637609971
 31
0.0000000000000000
  0
LINE
  5
548
100
AcDbEntity
  8
MAIN0
  6
PHANTOM
 62
3
100
AcDbLine
 10
170.4078363951867
 20
366.8050637609972
 30
0.0000000000000000
 11
170.4078363951853
 21
364.8050637609971
 31
0.0000000000000000
  0
LINE
  5
549
100
AcDbEntity
  8
MAIN0
  6
PHANTOM
 62
3
100
AcDbLine
 10
160.4078363952201
 20
366.8050637609972
 30
0.0000000000000000
 11
160.4078363952189
 21
364.8050637609972
 31
0.0000000000000000
  0
LINE
  5
54A
100
AcDbEntity
  8
MAIN0
  6
PHANTOM
 62
3
100
AcDbLine
 10
171.4078363952585
 20
363.8050637609971
 30
0.0000000000000000
 11
171.4078363952584
 21
347.3733228419955
 31
0.0000000000000000
  0
LINE
  5
54B
100
AcDbEntity
  8
MAIN0
  6
PHANTOM
 62
3
100
AcDbLine
 10
170.8663363952584
 20
364.3465637609506
 30
0.0000000000000000
 11
170.8663363952583
 21
347.5050637609223
 31
0.0000000000000000
  0
LINE
  5
54C
100
AcDbEntity
  8
MAIN0
  6
PHANTOM
 62
3
100
AcDbLine
 10
159.9493363952584
 20
364.3465637610120
 30
0.0000000000000000
 11
159.9493363952583
 21
347.5050637609290
 31
0.0000000000000000
  0
LINE
  5
54D
100
AcDbEntity
  8
MAIN0
  6
PHANTOM
 62
3
100
AcDbLine
 10
159.4078363952585
 20
363.8050637609971
 30
0.0000000000000000
 11
159.4078363952584
 21
347.3733228419980
 31
0.0000000000000000
  0
LINE
  5
54E
100
AcDbEntity
  8
MAIN0
  6
PHANTOM
 62
3
100
AcDbLine
 10
161.1578363952586
 20
347.5050637609290
 30
0.0000000000000000
 11
169.6578363952577
 21
347.5050637609223
 31
0.0000000000000000
  0
LINE
  5
54F
100
AcDbEntity
  8
MAIN0
  6
PHANTOM
 62
3
100
AcDbLine
 10
173.9078363952484
 20
346.7050637607741
 30
0.0000000000000000
 11
173.9078363952485
 21
343.5050637609257
 31
0.0000000000000000
  0
ARC
  5
550
100
AcDbEntity
  8
MAIN0
  6
PHANTOM
 62
3
100
AcDbCircle
 10
169.6578363952485
 20
335.8160012629401
 30
0.0000000000000000
 40
11.68906249798220
100
AcDbArc
 50
68.67930340706903
 51
111.3206965929310
  0
LINE
  5
551
100
AcDbEntity
  8
MAIN0
  6
PHANTOM
 62
3
100
AcDbLine
 10
165.4078363952484
 20
346.7050637607741
 30
0.0000000000000000
 11
165.4078363952486
 21
343.5050637609257
 31
0.0000000000000000
  0
ARC
  5
552
100
AcDbEntity
  8
MAIN0
  6
PHANTOM
 62
3
100
AcDbCircle
 10
161.1578363952494
 20
335.8160012629397
 30
0.0000000000000000
 40
11.68906249798220
100
AcDbArc
 50
68.67930340707382
 51
111.3206965929358
  0
LINE
  5
553
100
AcDbEntity
  8
MAIN0
  6
PHANTOM
 62
3
100
AcDbLine
 10
156.9078363952485
 20
346.7050637607734
 30
0.0000000000000000
 11
156.9078363952486
 21
343.5050637609257
 31
0.0000000000000000
  0
LINE
  5
554
100
AcDbEntity
  8
MAIN0
  6
CONTINUOUS
 62
3
100
AcDbLine
 10
215.4589673505466
 20
329.4780206360725
 30
0.0000000000000000
 11
215.8815856122881
 21
330.3843284231089
 31
0.0000000000000000
  0
LINE
  5
555
100
AcDbEntity
  8
MAIN0
  6
CONTINUOUS
 62
3
100
AcDbLine
 10
215.8815856122881
 20
330.3843284231089
 30
0.0000000000000000
 11
224.9446634826508
 21
326.1581458056937
 31
0.0000000000000000
  0
LINE
  5
556
100
AcDbEntity
  8
MAIN0
  6
CONTINUOUS
 62
3
100
AcDbLine
 10
224.9446634826509
 20
326.1581458056937
 30
0.0000000000000000
 11
224.5220452209093
 21
325.2518380186575
 31
0.0000000000000000
  0
LINE
  5
557
100
AcDbEntity
  8
MAIN0
  6
CONTINUOUS
 62
3
100
AcDbLine
 10
224.2649326423736
 20
326.4751095019999
 30
0.0000000000000000
 11
226.1667148202104
 21
330.5534945436631
 31
0.0000000000000000
  0
LINE
  5
558
100
AcDbEntity
  8
MAIN0
  6
CONTINUOUS
 62
3
100
AcDbLine
 10
226.1667148202104
 20
330.5534945436630
 30
0.0000000000000000
 11
225.5931383838601
 21
331.3726465879525
 31
0.0000000000000000
  0
LINE
  5
559
100
AcDbEntity
  8
MAIN0
  6
CONTINUOUS
 62
3
100
AcDbLine
 10
225.5931383838601
 20
331.3726465879526
 30
0.0000000000000000
 11
219.4592933284940
 21
334.2329055112127
 31
0.0000000000000000
  0
LINE
  5
55A
100
AcDbEntity
  8
MAIN0
  6
CONTINUOUS
 62
3
100
AcDbLine
 10
219.4592933284940
 20
334.2329055112127
 30
0.0000000000000000
 11
218.4630986304022
 21
334.1457497684660
 31
0.0000000000000000
  0
LINE
  5
55B
100
AcDbEntity
  8
MAIN0
  6
CONTINUOUS
 62
3
100
AcDbLine
 10
218.4630986304021
 20
334.1457497684660
 30
0.0000000000000000
 11
216.5613164525653
 21
330.0673647268027
 31
0.0000000000000000
  0
LINE
  5
55C
100
AcDbEntity
  8
MAIN0
  6
CONTINUOUS
 62
3
100
AcDbLine
 10
226.1667148202104
 20
330.5534945436631
 30
0.0000000000000000
 11
218.4630986304021
 21
334.1457497684660
 31
0.0000000000000000
  0
LINE
  5
55D
100
AcDbEntity
  8
MAIN0
  6
CONTINUOUS
 62
3
100
AcDbLine
 10
219.5515188781722
 20
320.5080138359774
 30
0.0000000000000000
 11
219.2979479211281
 21
319.9642291637573
 31
0.0000000000000000
  0
LINE
  5
55E
100
AcDbEntity
  8
MAIN0
  6
CONTINUOUS
 62
3
100
AcDbLine
 10
219.2979479211280
 20
319.9642291637574
 30
0.0000000000000000
 11
214.7664089859467
 21
322.0773204724649
 31
0.0000000000000000
  0
LINE
  5
55F
100
AcDbEntity
  8
MAIN0
  6
CONTINUOUS
 62
3
100
AcDbLine
 10
214.7664089859466
 20
322.0773204724650
 30
0.0000000000000000
 11
215.0199799429925
 21
322.6211051446887
 31
0.0000000000000000
  0
LINE
  5
560
100
AcDbEntity
  8
MAIN0
  6
CONTINUOUS
 62
3
100
AcDbLine
 10
219.1590760056460
 20
320.6910129528255
 30
0.0000000000000000
 11
218.9055050486018
 21
320.1472282806051
 31
0.0000000000000000
  0
LINE
  5
561
100
AcDbEntity
  8
MAIN0
  6
CONTINUOUS
 62
3
100
AcDbLine
 10
215.4124228155187
 20
322.4381060278405
 30
0.0000000000000000
 11
215.1588518584730
 21
321.8943213556171
 31
0.0000000000000000
  0
LINE
  5
562
100
AcDbEntity
  8
MAIN0
  6
CONTINUOUS
 62
3
100
AcDbLine
 10
33.14710711279855
 20
102.3219983007249
 30
0.0000000000000000
 11
110.1471071127984
 21
102.3219983007249
 31
0.0000000000000000
  0
LINE
  5
563
100
AcDbEntity
  8
MAIN0
  6
CONTINUOUS
 62
3
100
AcDbLine
 10
33.14710711279855
 20
95.32199830072491
 30
0.0000000000000000
 11
110.1471071127984
 21
95.32199830072491
 31
0.0000000000000000
  0
LINE
  5
564
100
AcDbEntity
  8
MAIN0
  6
CONTINUOUS
 62
3
100
AcDbLine
 10
33.14710711279855
 20
21.82199830072491
 30
0.0000000000000000
 11
33.14710711279855
 21
102.3219983007249
 31
0.0000000000000000
  0
LINE
  5
565
100
AcDbEntity
  8
MAIN0
  6
CONTINUOUS
 62
4
100
AcDbLine
 10
33.14710711279855
 20
88.32199830072491
 30
0.0000000000000000
 11
110.1471071127984
 21
88.32199830072491
 31
0.0000000000000000
  0
LINE
  5
566
100
AcDbEntity
  8
MAIN0
  6
CONTINUOUS
 62
4
100
AcDbLine
 10
33.14710711279855
 20
81.32199830072491
 30
0.0000000000000000
 11
110.1471071127984
 21
81.32199830072491
 31
0.0000000000000000
  0
LINE
  5
567
100
AcDbEntity
  8
MAIN0
  6
HIDDEN
 62
4
100
AcDbLine
 10
76.13029548107181
 20
74.32199830072491
 30
0.0000000000000000
 11
110.1471071127984
 21
74.32199830072491
 31
0.0000000000000000
  0
LINE
  5
568
100
AcDbEntity
  8
MAIN0
  6
CONTINUOUS
 62
4
100
AcDbLine
 10
33.14710711279855
 20
67.32199830072491
 30
0.0000000000000000
 11
110.1471071127983
 21
67.32199830072491
 31
0.0000000000000000
  0
LINE
  5
569
100
AcDbEntity
  8
MAIN0
  6
CONTINUOUS
 62
4
100
AcDbLine
 10
33.14710711279855
 20
60.32199830072489
 30
0.0000000000000000
 11
110.1471071127984
 21
60.32199830072489
 31
0.0000000000000000
  0
LINE
  5
56A
100
AcDbEntity
  8
MAIN0
  6
CONTINUOUS
 62
4
100
AcDbLine
 10
33.14710711279855
 20
53.32199830072489
 30
0.0000000000000000
 11
110.1471071127984
 21
53.32199830072489
 31
0.0000000000000000
  0
LINE
  5
56B
100
AcDbEntity
  8
MAIN0
  6
CONTINUOUS
 62
4
100
AcDbLine
 10
33.14710711279855
 20
46.32199830072489
 30
0.0000000000000000
 11
110.1471071127983
 21
46.32199830072489
 31
0.0000000000000000
  0
LINE
  5
56C
100
AcDbEntity
  8
MAIN0
  6
CONTINUOUS
 62
4
100
AcDbLine
 10
33.14710711279855
 20
39.32199830072489
 30
0.0000000000000000
 11
110.1471071127983
 21
39.32199830072489
 31
0.0000000000000000
  0
LINE
  5
56D
100
AcDbEntity
  8
MAIN0
  6
CONTINUOUS
 62
3
100
AcDbLine
 10
33.14710711279855
 20
21.82199830072494
 30
0.0000000000000000
 11
110.1471071127984
 21
21.82199830072469
 31
0.0000000000000000
  0
LINE
  5
56E
100
AcDbEntity
  8
MAIN0
  6
CONTINUOUS
 62
4
100
AcDbLine
 10
80.14710711279844
 20
21.82199830072477
 30
0.0000000000000000
 11
80.14710711279844
 21
95.32199830072491
 31
0.0000000000000000
  0
LINE
  5
56F
100
AcDbEntity
  8
MAIN0
  6
CONTINUOUS
 62
3
100
AcDbLine
 10
110.1471071127983
 20
21.82199830072466
 30
0.0000000000000000
 11
110.1471071127983
 21
102.3219983007249
 31
0.0000000000000000
  0
LINE
  5
570
100
AcDbEntity
  8
MAIN0
  6
CONTINUOUS
 62
4
100
AcDbLine
 10
33.14710711279855
 20
32.32199830072489
 30
0.0000000000000000
 11
110.1471071127983
 21
32.32199830072489
 31
0.0000000000000000
  0
MTEXT
  5
571
100
AcDbEntity
  8
MAIN0
  6
CONTINUOUS
 62
4
100
AcDbMText
 10
35.14710711279855
 20
58.42199868219464
 30
0.0000000000000000
 40
3.100000381469727
 41
0.0000000000000000
 71
     1
 72
     1
  1
{\H0.93x;{MAX. SPEED}}
 11
1.000000000000000
 21
0.0000000000000000
 31
0.0000000000000000
  7
STANDARD
  0
MTEXT
  5
572
100
AcDbEntity
  8
MAIN0
  6
CONTINUOUS
 62
4
100
AcDbMText
 10
35.14710711279855
 20
51.42199868219464
 30
0.0000000000000000
 40
3.100000381469727
 41
0.0000000000000000
 71
     1
 72
     1
  1
{\H0.91x;{MASS}}
 11
1.000000000000000
 21
0.0000000000000000
 31
0.0000000000000000
  7
STANDARD
  0
MTEXT
  5
573
100
AcDbEntity
  8
MAIN0
  6
CONTINUOUS
 62
4
100
AcDbMText
 10
35.14710711279855
 20
44.42199820535748
 30
0.0000000000000000
 40
3.099999904632568
 41
0.0000000000000000
 71
     1
 72
     1
  1
{\H0.67x;{MOMENT OF INERTIA}}
 11
1.000000000000000
 21
0.0000000000000000
 31
0.0000000000000000
  7
STANDARD
  0
MTEXT
  5
574
100
AcDbEntity
  8
MAIN0
  6
CONTINUOUS
 62
4
100
AcDbMText
 10
95.14710711279832
 20
92.12199753778529
 30
0.0000000000000000
 40
2.799999237060547
 41
0.0000000000000000
 71
     1
 72
     1
  1
{\H0.58x;{　　　　ｍｍ}}
 11
1.000000000000000
 21
0.0000000000000000
 31
0.0000000000000000
  7
KNJYOKO
  0
MTEXT
  5
575
100
AcDbEntity
  8
MAIN0
  6
CONTINUOUS
 62
4
100
AcDbMText
 10
95.14710711279832
 20
85.12199753778529
 30
0.0000000000000000
 40
2.799999237060547
 41
0.0000000000000000
 71
     1
 72
     1
  1
{\H0.58x;{　　　　ｍｍ}}
 11
1.000000000000000
 21
0.0000000000000000
 31
0.0000000000000000
  7
KNJYOKO
  0
MTEXT
  5
576
100
AcDbEntity
  8
MAIN0
  6
CONTINUOUS
 62
4
100
AcDbMText
 10
100.1471071127983
 20
43.12199753778529
 30
0.0000000000000000
 40
2.799999237060547
 41
0.0000000000000000
 71
     1
 72
     1
  1
{\H0.67x;{kg・m}}
 11
1.000000000000000
 21
0.0000000000000000
 31
0.0000000000000000
  7
KNJYOKO
  0
MTEXT
  5
577
100
AcDbEntity
  8
MAIN0
  6
CONTINUOUS
 62
4
100
AcDbMText
 10
95.14710711279832
 20
50.12199753778529
 30
0.0000000000000000
 40
2.799999237060547
 41
0.0000000000000000
 71
     1
 72
     1
  1
{\H0.58x;{　　　　ｋｇ}}
 11
1.000000000000000
 21
0.0000000000000000
 31
0.0000000000000000
  7
KNJYOKO
  0
MTEXT
  5
578
100
AcDbEntity
  8
MAIN0
  6
CONTINUOUS
 62
3
100
AcDbMText
 10
38.58548440981286
 20
101.6726168128031
 30
0.0000000000000000
 40
5.300000190734863
 41
0.0000000000000000
 71
     1
 72
     1
  1
{\H0.94x;{SPECIFICATIONS}}
 11
1.000000000000000
 21
0.0000000000000000
 31
0.0000000000000000
  7
STANDARD
  0
MTEXT
  5
579
100
AcDbEntity
  8
MAIN0
  6
CONTINUOUS
 62
4
100
AcDbMText
 10
35.14710711279855
 20
93.32199830072491
 30
0.0000000000000000
 40
3.000000000000000
 41
0.0000000000000000
 71
     1
 72
     1
  1
{\H0.93x;{PISTON DIA}}
 11
1.000000000000000
 21
0.0000000000000000
 31
0.0000000000000000
  7
STANDARD
  0
MTEXT
  5
57A
100
AcDbEntity
  8
MAIN0
  6
CONTINUOUS
 62
4
100
AcDbMText
 10
35.14710711279855
 20
86.32199830072491
 30
0.0000000000000000
 40
3.000000000000000
 41
0.0000000000000000
 71
     1
 72
     1
  1
{\H0.93x;{PISTON STROKE}}
 11
1.000000000000000
 21
0.0000000000000000
 31
0.0000000000000000
  7
STANDARD
  0
MTEXT
  5
57B
100
AcDbEntity
  8
MAIN0
  6
CONTINUOUS
 62
4
100
AcDbMText
 10
35.14710711279855
 20
77.92199820535748
 30
0.0000000000000000
 40
3.099999904632568
 41
0.0000000000000000
 71
     1
 72
     1
  1
{\H0.67x;{PISTON THRUST}}
 11
1.000000000000000
 21
0.0000000000000000
 31
0.0000000000000000
  7
STANDARD
  0
MTEXT
  5
57C
100
AcDbEntity
  8
MAIN0
  6
CONTINUOUS
 62
4
100
AcDbMText
 10
36.14710711279855
 20
72.92199868219464
 30
0.0000000000000000
 40
3.100000381469727
 41
0.0000000000000000
 71
     1
 72
     1
  1
{\H0.94x;{（AT　　　 　　）}}
 11
1.000000000000000
 21
0.0000000000000000
 31
0.0000000000000000
  7
KNJYOKO
  0
MTEXT
  5
57D
100
AcDbEntity
  8
MAIN0
  6
CONTINUOUS
 62
4
100
AcDbMText
 10
35.14710711279855
 20
30.42199868219464
 30
0.0000000000000000
 40
3.100000381469727
 41
0.0000000000000000
 71
     1
 72
     1
  1
{\H0.93x;{OIL LEAKAGE}}
 11
1.000000000000000
 21
0.0000000000000000
 31
0.0000000000000000
  7
STANDARD
  0
MTEXT
  5
57E
100
AcDbEntity
  8
MAIN0
  6
CONTINUOUS
 62
4
100
AcDbMText
 10
72.64710711279844
 20
78.32199830072474
 30
0.0000000000000000
 40
3.000000000000000
 41
0.0000000000000000
 71
     1
 72
     1
  1
{\H0.63x;{PUSH}}
 11
1.000000000000000
 21
0.0000000000000000
 31
0.0000000000000000
  7
STANDARD
  0
MTEXT
  5
57F
100
AcDbEntity
  8
MAIN0
  6
CONTINUOUS
 62
4
100
AcDbMText
 10
72.64710711279844
 20
71.32199830072474
 30
0.0000000000000000
 40
3.000000000000000
 41
0.0000000000000000
 71
     1
 72
     1
  1
{\H0.63x;{PULL}}
 11
1.000000000000000
 21
0.0000000000000000
 31
0.0000000000000000
  7
STANDARD
  0
MTEXT
  5
580
100
AcDbEntity
  8
MAIN0
  6
CONTINUOUS
 62
4
100
AcDbMText
 10
35.14710711279855
 20
25.82199830072491
 30
0.0000000000000000
 40
3.000000000000000
 41
0.0000000000000000
 71
     1
 72
     1
  1
{\H0.58x;{ISO VG 32, 50℃, 3.0MPa}}
 11
1.000000000000000
 21
0.0000000000000000
 31
0.0000000000000000
  7
KNJYOKO
  0
MTEXT
  5
581
100
AcDbEntity
  8
MAIN0
  6
CONTINUOUS
 62
4
100
AcDbMText
 10
96.14710711279832
 20
25.62199753778529
 30
0.0000000000000000
 40
2.799999237060547
 41
0.0000000000000000
 71
     1
 72
     1
  1
{\H0.58x;{　　／ｍｉｎ}}
 11
1.000000000000000
 21
0.0000000000000000
 31
0.0000000000000000
  7
KNJYOKO
  0
MTEXT
  5
582
100
AcDbEntity
  8
MAIN0
  6
CONTINUOUS
 62
4
100
AcDbMText
 10
35.14710711279855
 20
65.32199830072491
 30
0.0000000000000000
 40
3.000000000000000
 41
0.0000000000000000
 71
     1
 72
     1
  1
{\H0.63x;{MAX. OPERATING PRESSURE}}
 11
1.000000000000000
 21
0.0000000000000000
 31
0.0000000000000000
  7
STANDARD
  0
MTEXT
  5
583
100
AcDbEntity
  8
MAIN0
  6
CONTINUOUS
 62
4
100
AcDbMText
 10
107.8760863552596
 20
43.95173520053677
 30
0.0000000000000000
 40
1.399999976158142
 41
0.0000000000000000
 71
     1
 72
     1
  1
{\H0.82x;{2}}
 11
1.000000000000000
 21
0.0000000000000000
 31
0.0000000000000000
  7
STANDARD
  0
MTEXT
  5
584
100
AcDbEntity
  8
MAIN0
  6
CONTINUOUS
 62
4
100
AcDbMText
 10
96.14710711279832
 20
64.12199753778529
 30
0.0000000000000000
 40
2.799999237060547
 41
0.0000000000000000
 71
     1
 72
     1
  1
{\H0.58x;{　　　ＭＰａ}}
 11
1.000000000000000
 21
0.0000000000000000
 31
0.0000000000000000
  7
KNJYOKO
  0
MTEXT
  5
585
100
AcDbEntity
  8
MAIN0
  6
CONTINUOUS
 62
4
100
AcDbMText
 10
59.86602663575820
 20
72.62199753778552
 30
0.0000000000000000
 40
2.799999237060547
 41
0.0000000000000000
 71
     1
 72
     1
  1
{\H0.70x;{MPa}}
 11
1.000000000000000
 21
0.0000000000000000
 31
0.0000000000000000
  7
STANDARD
  0
MTEXT
  5
586
100
AcDbEntity
  8
MAIN0
  6
CONTINUOUS
 62
4
100
AcDbMText
 10
95.14710711279832
 20
78.12199753778529
 30
0.0000000000000000
 40
2.799999237060547
 41
0.0000000000000000
 71
     1
 72
     1
  1
{\H0.58x;{　　　　ｋＮ}}
 11
1.000000000000000
 21
0.0000000000000000
 31
0.0000000000000000
  7
KNJYOKO
  0
MTEXT
  5
587
100
AcDbEntity
  8
MAIN0
  6
CONTINUOUS
 62
4
100
AcDbMText
 10
95.14710711279832
 20
71.12199753778529
 30
0.0000000000000000
 40
2.799999237060547
 41
0.0000000000000000
 71
     1
 72
     1
  1
{\H0.58x;{　　　　ｋＮ}}
 11
1.000000000000000
 21
0.0000000000000000
 31
0.0000000000000000
  7
KNJYOKO
  0
MTEXT
  5
588
100
AcDbEntity
  8
MAIN0
  6
CONTINUOUS
 62
4
100
AcDbMText
 10
101.1471071127983
 20
57.12199753778529
 30
0.0000000000000000
 40
2.799999237060547
 41
0.0000000000000000
 71
     1
 72
     1
  1
{\H0.70x;{min}}
 11
1.000000000000000
 21
0.0000000000000000
 31
0.0000000000000000
  7
STANDARD
  0
MTEXT
  5
589
100
AcDbEntity
  8
MAIN0
  6
CONTINUOUS
 62
4
100
AcDbMText
 10
106.0213527201651
 20
58.15003882361378
 30
0.0000000000000000
 40
1.399999976158142
 41
0.0000000000000000
 71
     1
 72
     1
  1
{\H0.88x;{-1}}
 11
1.000000000000000
 21
0.0000000000000000
 31
0.0000000000000000
  7
STANDARD
  0
MTEXT
  5
58A
100
AcDbEntity
  8
MAIN0
  6
CONTINUOUS
 62
4
100
AcDbMText
 10
82.14710711279844
 20
93.42199868219447
 30
0.0000000000000000
 40
3.100000381469727
 41
0.0000000000000000
 71
     1
 72
     1
  1
{\H0.92x;{  110}}
 11
1.000000000000000
 21
0.0000000000000000
 31
0.0000000000000000
  7
STANDARD
  0
MTEXT
  5
58B
100
AcDbEntity
  8
MAIN0
  6
CONTINUOUS
 62
4
100
AcDbMText
 10
82.14710711279844
 20
86.42199868219447
 30
0.0000000000000000
 40
3.100000381469727
 41
0.0000000000000000
 71
     1
 72
     1
  1
{\H0.92x;{   20}}
 11
1.000000000000000
 21
0.0000000000000000
 31
0.0000000000000000
  7
STANDARD
  0
MTEXT
  5
58C
100
AcDbEntity
  8
MAIN0
  6
CONTINUOUS
 62
4
100
AcDbMText
 10
82.14710711279844
 20
79.42199868219447
 30
0.0000000000000000
 40
3.100000381469727
 41
0.0000000000000000
 71
     1
 72
     1
  1
{\H0.92x;{   28}}
 11
1.000000000000000
 21
0.0000000000000000
 31
0.0000000000000000
  7
STANDARD
  0
MTEXT
  5
58D
100
AcDbEntity
  8
MAIN0
  6
CONTINUOUS
 62
4
100
AcDbMText
 10
82.14710711279844
 20
72.42199868219447
 30
0.0000000000000000
 40
3.100000381469727
 41
0.0000000000000000
 71
     1
 72
     1
  1
{\H0.92x;{   27}}
 11
1.000000000000000
 21
0.0000000000000000
 31
0.0000000000000000
  7
STANDARD
  0
MTEXT
  5
58E
100
AcDbEntity
  8
MAIN0
  6
CONTINUOUS
 62
4
100
AcDbMText
 10
82.14710711279844
 20
65.42199868219447
 30
0.0000000000000000
 40
3.100000381469727
 41
0.0000000000000000
 71
     1
 72
     1
  1
{\H0.92x;{  3.5}}
 11
1.000000000000000
 21
0.0000000000000000
 31
0.0000000000000000
  7
STANDARD
  0
MTEXT
  5
58F
100
AcDbEntity
  8
MAIN0
  6
CONTINUOUS
 62
4
100
AcDbMText
 10
82.14710711279844
 20
58.42199868219447
 30
0.0000000000000000
 40
3.100000381469727
 41
0.0000000000000000
 71
     1
 72
     1
  1
{\H0.92x;{ 6000}}
 11
1.000000000000000
 21
0.0000000000000000
 31
0.0000000000000000
  7
STANDARD
  0
MTEXT
  5
590
100
AcDbEntity
  8
MAIN0
  6
CONTINUOUS
 62
4
100
AcDbMText
 10
82.14710711279844
 20
51.42199868219447
 30
0.0000000000000000
 40
3.100000381469727
 41
0.0000000000000000
 71
     1
 72
     1
  1
{\H0.92x;{  8.2}}
 11
1.000000000000000
 21
0.0000000000000000
 31
0.0000000000000000
  7
STANDARD
  0
MTEXT
  5
591
100
AcDbEntity
  8
MAIN0
  6
CONTINUOUS
 62
4
100
AcDbMText
 10
82.14710711279844
 20
26.92199868219447
 30
0.0000000000000000
 40
3.100000381469727
 41
0.0000000000000000
 71
     1
 72
     1
  1
{\H0.92x;{  1.2}}
 11
1.000000000000000
 21
0.0000000000000000
 31
0.0000000000000000
  7
STANDARD
  0
MTEXT
  5
592
100
AcDbEntity
  8
MAIN0
  6
CONTINUOUS
 62
4
100
AcDbMText
 10
48.86602663575837
 20
72.92199868219470
 30
0.0000000000000000
 40
3.100000381469727
 41
0.0000000000000000
 71
     1
 72
     1
  1
{\H0.90x;{3.5}}
 11
1.000000000000000
 21
0.0000000000000000
 31
0.0000000000000000
  7
STANDARD
  0
MTEXT
  5
593
100
AcDbEntity
  8
MAIN0
  6
CONTINUOUS
 62
4
100
AcDbMText
 10
82.14710711279844
 20
44.42199868219447
 30
0.0000000000000000
 40
3.100000381469727
 41
0.0000000000000000
 71
     1
 72
     1
  1
{\H0.92x;{0.016}}
 11
1.000000000000000
 21
0.0000000000000000
 31
0.0000000000000000
  7
STANDARD
  0
SPLINE
  5
594
100
AcDbEntity
  8
MAIN0
  6
CONTINUOUS
 62
3
100
AcDbSpline
210
0.0000000000000000
220
0.0000000000000000
230
1.000000000000000
 70
     8
 71
     3
 72
    17
 73
    13
 74
     0
 42
1.000000000000000e-007
 43
1.000000000000000e-007
 12
1.067003963716161
 22
-0.09185527723245457
 32
0.0000000000000000
 13
0.9475303974217013
 23
0.5875272106997329
 33
0.0000000000000000
 40
0.0000000000000000
 40
0.0000000000000000
 40
0.0000000000000000
 40
0.0000000000000000
 40
0.7645542196305213
 40
1.726990552184841
 40
3.184707036471443
 40
3.978453014104623
 40
4.589202724430014
 40
6.040860297447437
 40
6.923154384008753
 40
7.161611587393642
 40
7.525601789241029
 40
8.008441965031784
 40
8.008441965031784
 40
8.008441965031784
 40
8.008441965031784
 10
97.40540465156113
 20
23.08072969604530
 30
0.0000000000000000
 10
97.67733211250169
 20
23.05732024944416
 30
0.0000000000000000
 10
98.29156736732904
 20
23.00444251746123
 30
0.0000000000000000
 10
98.92825139269547
 20
24.01643987977957
 30
0.0000000000000000
 10
99.42860945202267
 20
24.90956654356100
 30
0.0000000000000000
 10
98.84875322889627
 20
26.17991834974632
 30
0.0000000000000000
 10
97.97045185837811
 20
25.26520297873501
 30
0.0000000000000000
 10
98.01994352052935
 20
24.36009621772291
 30
0.0000000000000000
 10
97.77969410415028
 20
23.41229992704297
 30
0.0000000000000000
 10
98.09089056610043
 20
23.02037951513231
 30
0.0000000000000000
 10
98.41618411207418
 20
22.77263303215364
 30
0.0000000000000000
 10
98.68364995349828
 20
22.93847832872348
 30
0.0000000000000000
 10
98.83615186805099
 20
23.03303890928885
 30
0.0000000000000000
  0
LINE
  5
595
100
AcDbEntity
  8
MAIN0
  6
CONTINUOUS
 62
3
100
AcDbLine
 10
375.4078363952621
 20
297.8050637609970
 30
0.0000000000000000
 11
376.4078363952620
 21
297.8050637609970
 31
0.0000000000000000
  0
LINE
  5
596
100
AcDbEntity
  8
MAIN0
  6
CONTINUOUS
 62
3
100
AcDbLine
 10
375.4078363952621
 20
288.8050637609970
 30
0.0000000000000000
 11
376.4078363952620
 21
288.8050637609970
 31
0.0000000000000000
  0
LINE
  5
597
100
AcDbEntity
  8
MAIN0
  6
CONTINUOUS
 62
3
100
AcDbLine
 10
223.1696667833348
 20
322.3516531001378
 30
0.0000000000000000
 11
186.8130153172313
 21
339.3050381037293
 31
0.0000000000000000
  0
LINE
  5
598
100
AcDbEntity
  8
MAIN0
  6
CONTINUOUS
 62
3
100
AcDbLine
 10
221.8172883457620
 20
319.4514681816218
 30
0.0000000000000000
 11
224.5220452209076
 21
325.2518380186538
 31
0.0000000000000000
  0
LINE
  5
599
100
AcDbEntity
  8
MAIN0
  6
CONTINUOUS
 62
3
100
AcDbLine
 10
221.8172883457620
 20
319.4514681816218
 30
0.0000000000000000
 11
185.5476725448151
 21
336.3642677880180
 31
0.0000000000000000
  0
LINE
  5
59A
100
AcDbEntity
  8
MAIN0
  6
PHANTOM
 62
3
100
AcDbLine
 10
204.3836936208128
 20
317.5580033851441
 30
0.0000000000000000
 11
205.7126196695912
 21
318.0416929104412
 31
0.0000000000000000
  0
LINE
  5
59B
100
AcDbEntity
  8
MAIN0
  6
PHANTOM
 62
3
100
AcDbLine
 10
209.1289885223858
 20
325.3681195582551
 30
0.0000000000000000
 11
205.7126196695939
 21
318.0416929104389
 31
0.0000000000000000
  0
LINE
  5
59C
100
AcDbEntity
  8
MAIN0
  6
PHANTOM
 62
3
100
AcDbLine
 10
208.6382228557061
 20
325.5969673469884
 30
0.0000000000000000
 11
204.9930062141827
 21
317.7797750324945
 31
0.0000000000000000
  0
LINE
  5
59D
100
AcDbEntity
  8
MAIN0
  6
PHANTOM
 62
3
100
AcDbLine
 10
194.8369262251629
 20
323.1131120513467
 30
0.0000000000000000
 11
198.2532950779544
 21
330.4395386991621
 31
0.0000000000000000
  0
LINE
  5
59E
100
AcDbEntity
  8
MAIN0
  6
PHANTOM
 62
3
100
AcDbLine
 10
195.0988355275662
 20
322.3934802056186
 30
0.0000000000000000
 11
198.7440607446348
 21
330.2106909104284
 31
0.0000000000000000
  0
LINE
  5
59F
100
AcDbEntity
  8
MAIN0
  6
PHANTOM
 62
3
100
AcDbLine
 10
205.7126196695908
 20
318.0416929104404
 30
0.0000000000000000
 11
194.8369262251511
 21
323.1131120513217
 31
0.0000000000000000
  0
INSERT
  5
5A8
100
AcDbEntity
  8
MAIN0
  6
CONTINUOUS
 62
3
100
AcDbBlockReference
  2
M5
 10
0.0000000000000000
 20
0.0000000000000000
 30
0.0000000000000000
 50
0.0000000000000000
  0
LINE
  5
5A9
100
AcDbEntity
  8
WAKU0
  6
CONTINUOUS
 62
3
100
AcDbLine
 10
412.0000000000000
 20
51.00000000000000
 30
0.0000000000000000
 11
582.0000000000000
 21
51.00000000000000
 31
0.0000000000000000
  0
LINE
  5
5AA
100
AcDbEntity
  8
WAKU0
  6
CONTINUOUS
 62
3
100
AcDbLine
 10
412.0000000000000
 20
51.00000000000000
 30
0.0000000000000000
 11
412.0000000000000
 21
12.00000000000000
 31
0.0000000000000000
  0
LINE
  5
5AB
100
AcDbEntity
  8
WAKU0
  6
CONTINUOUS
 62
3
100
AcDbLine
 10
484.0000000000000
 20
51.00000000000000
 30
0.0000000000000000
 11
484.0000000000000
 21
12.00000000000000
 31
0.0000000000000000
  0
LINE
  5
5AC
100
AcDbEntity
  8
WAKU0
  6
CONTINUOUS
 62
3
100
AcDbLine
 10
504.0000000000000
 20
51.00000000000000
 30
0.0000000000000000
 11
504.0000000000000
 21
12.00000000000000
 31
0.0000000000000000
  0
LINE
  5
5AD
100
AcDbEntity
  8
WAKU0
  6
CONTINUOUS
 62
3
100
AcDbLine
 10
516.0000000000000
 20
51.00000000000000
 30
0.0000000000000000
 11
516.0000000000000
 21
12.00000000000000
 31
0.0000000000000000
  0
LINE
  5
5AE
100
AcDbEntity
  8
WAKU0
  6
CONTINUOUS
 62
3
100
AcDbLine
 10
516.0000000000000
 20
37.00000000000000
 30
0.0000000000000000
 11
582.0000000000000
 21
37.00000000000000
 31
0.0000000000000000
  0
LINE
  5
5AF
100
AcDbEntity
  8
WAKU0
  6
CONTINUOUS
 62
3
100
AcDbLine
 10
504.0000000000000
 20
23.00000000000000
 30
0.0000000000000000
 11
582.0000000000000
 21
23.00000000000000
 31
0.0000000000000000
  0
LINE
  5
5B0
100
AcDbEntity
  8
WAKU0
  6
CONTINUOUS
 62
3
100
AcDbLine
 10
547.0000000000000
 20
51.00000000000000
 30
0.0000000000000000
 11
547.0000000000000
 21
44.00000000000000
 31
0.0000000000000000
  0
LINE
  5
5B1
100
AcDbEntity
  8
WAKU0
  6
CONTINUOUS
 62
3
100
AcDbLine
 10
559.0000000000000
 20
51.00000000000000
 30
0.0000000000000000
 11
559.0000000000000
 21
44.00000000000000
 31
0.0000000000000000
  0
LINE
  5
5B2
100
AcDbEntity
  8
WAKU0
  6
CONTINUOUS
 62
3
100
AcDbLine
 10
484.0000000000000
 20
31.50000000000000
 30
0.0000000000000000
 11
504.0000000000000
 21
31.50000000000000
 31
0.0000000000000000
  0
LINE
  5
5B3
100
AcDbEntity
  8
WAKU0
  6
CONTINUOUS
 62
3
100
AcDbLine
 10
504.0000000000000
 20
44.00000000000000
 30
0.0000000000000000
 11
582.0000000000000
 21
44.00000000000000
 31
0.0000000000000000
  0
LINE
  5
5B4
100
AcDbEntity
  8
WAKU0
  6
CONTINUOUS
 62
3
100
AcDbLine
 10
412.0000000000000
 20
37.00000000000000
 30
0.0000000000000000
 11
484.0000000000000
 21
37.00000000000000
 31
0.0000000000000000
  0
LINE
  5
5B5
100
AcDbEntity
  8
WAKU0
  6
CONTINUOUS
 62
3
100
AcDbLine
 10
412.0000000000000
 20
23.00000000000000
 30
0.0000000000000000
 11
484.0000000000000
 21
23.00000000000000
 31
0.0000000000000000
  0
LINE
  5
5B6
100
AcDbEntity
  8
WAKU0
  6
CONTINUOUS
 62
3
100
AcDbLine
 10
460.0000000000000
 20
37.00000000000000
 30
0.0000000000000000
 11
460.0000000000000
 21
12.00000000000000
 31
0.0000000000000000
  0
LINE
  5
5B7
100
AcDbEntity
  8
WAKU0
  6
CONTINUOUS
 62
3
100
AcDbLine
 10
436.0000000000000
 20
37.00000000000000
 30
0.0000000000000000
 11
436.0000000000000
 21
23.00000000000000
 31
0.0000000000000000
  0
LINE
  5
5B8
100
AcDbEntity
  8
WAKU0
  6
CONTINUOUS
 62
3
100
AcDbLine
 10
472.0000000000000
 20
26.00000000000000
 30
0.0000000000000000
 11
472.0000000000000
 21
23.00000000000000
 31
0.0000000000000000
  0
LINE
  5
5B9
100
AcDbEntity
  8
WAKU0
  6
CONTINUOUS
 62
3
100
AcDbLine
 10
448.0000000000000
 20
26.00000000000000
 30
0.0000000000000000
 11
448.0000000000000
 21
23.00000000000000
 31
0.0000000000000000
  0
LINE
  5
5BA
100
AcDbEntity
  8
WAKU0
  6
CONTINUOUS
 62
3
100
AcDbLine
 10
424.0000000000000
 20
26.00000000000000
 30
0.0000000000000000
 11
424.0000000000000
 21
23.00000000000000
 31
0.0000000000000000
  0
LINE
  5
5BB
100
AcDbEntity
  8
WAKU0
  6
CONTINUOUS
 62
3
100
AcDbLine
 10
430.0000000000000
 20
51.00000000000000
 30
0.0000000000000000
 11
430.0000000000000
 21
37.00000000000000
 31
0.0000000000000000
  0
LINE
  5
5BC
100
AcDbEntity
  8
WAKU0
  6
CONTINUOUS
 62
3
100
AcDbLine
 10
412.0000000000000
 20
45.00000000000000
 30
0.0000000000000000
 11
484.0000000000000
 21
45.00000000000000
 31
0.0000000000000000
  0
LINE
  5
5BD
100
AcDbEntity
  8
WAKU0
  6
HIDDEN
 62
3
100
AcDbLine
 10
532.5000000000000
 20
23.00000000000000
 30
0.0000000000000000
 11
532.5000000000000
 21
12.00000000000000
 31
0.0000000000000000
  0
LINE
  5
5BE
100
AcDbEntity
  8
WAKU0
  6
HIDDEN
 62
3
100
AcDbLine
 10
544.9000000000000
 20
23.00000000000000
 30
0.0000000000000000
 11
544.9000000000000
 21
12.00000000000000
 31
0.0000000000000000
  0
MTEXT
  5
5BF
100
AcDbEntity
  8
WAKU0
  6
CONTINUOUS
 62
3
100
AcDbMText
 10
516.4820000231266
 20
49.04999995231628
 30
0.0000000000000000
 40
3.099999904632568
 41
0.0000000000000000
 71
     1
 72
     1
  1
{\H0.93x;{M1120HA21D}}
 11
1.000000000000000
 21
0.0000000000000000
 31
0.0000000000000000
  7
STANDARD
  0
MTEXT
  5
5C0
100
AcDbEntity
  8
WAKU0
  6
CONTINUOUS
 62
3
100
AcDbMText
 10
522.7500004470348
 20
43.50000000000000
 30
0.0000000000000000
 40
3.000000000000000
 41
0.0000000000000000
 71
     1
 72
     1
  1
{\H0.59x;{回転油圧シリンダ\PＲＯＴＡＲＹ　ＨＹＤＲＡＵＬＩＣ　ＣＹＬＩＮＤＥＲ}}
 11
1.000000000000000
 21
0.0000000000000000
 31
0.0000000000000000
  7
KNJYOKO
  0
MTEXT
  5
5C1
100
AcDbEntity
  8
WAKU0
  6
CONTINUOUS
 62
3
100
AcDbMText
 10
519.1500010974705
 20
34.23333326975504
 30
0.0000000000000000
 40
3.099999904632568
 41
0.0000000000000000
 71
     1
 72
     1
  1
{\H0.71x;{Ｍ１１２０ＨＡ２１Ｄ　ガイケイ\PＭ１１２０ＨＡ２１Ｄ　ＯＵＴＳＩＤＥ　ＶＩＥＷ}}
 11
1.000000000000000
 21
0.0000000000000000
 31
0.0000000000000000
  7
KNJYOKO
  0
MTEXT
  5
5C2
100
AcDbEntity
  8
WAKU0
  6
CONTINUOUS
 62
3
100
AcDbMText
 10
490.0049998760223
 20
39.29999995231628
 30
0.0000000000000000
 40
3.099999904632568
 41
0.0000000000000000
 71
     1
 72
     1
  1
{\H0.90x;{1:1}}
 11
1.000000000000000
 21
0.0000000000000000
 31
0.0000000000000000
  7
STANDARD
  0
MTEXT
  5
5C3
100
AcDbEntity
  8
WAKU0
  6
CONTINUOUS
 62
3
100
AcDbMText
 10
546.4000001549721
 20
20.15000009536743
 30
0.0000000000000000
 40
5.300000190734863
 41
0.0000000000000000
 71
     1
 72
     1
  1
{\H0.90x;{8262}}
 11
1.000000000000000
 21
0.0000000000000000
 31
0.0000000000000000
  7
STANDARD
  0
MTEXT
  5
5C4
100
AcDbEntity
  8
WAKU0
  6
CONTINUOUS
 62
3
100
AcDbMText
 10
534.3000000834466
 20
20.15000009536743
 30
0.0000000000000000
 40
5.300000190734863
 41
0.0000000000000000
 71
     1
 72
     1
  1
{\H0.87x;{25}}
 11
1.000000000000000
 21
0.0000000000000000
 31
0.0000000000000000
  7
STANDARD
  0
MTEXT
  5
5C5
100
AcDbEntity
  8
WAKU0
  6
CONTINUOUS
 62
3
100
AcDbMText
 10
517.5000001192093
 20
20.15000009536743
 30
0.0000000000000000
 40
5.300000190734863
 41
0.0000000000000000
 71
     1
 72
     1
  1
{\H0.89x;{61R}}
 11
1.000000000000000
 21
0.0000000000000000
 31
0.0000000000000000
  7
STANDARD
  0
MTEXT
  5
5C6
100
AcDbEntity
  8
WAKU0
  6
CONTINUOUS
 62
3
100
AcDbMText
 10
572.0000000476837
 20
20.15000009536743
 30
0.0000000000000000
 40
5.300000190734863
 41
0.0000000000000000
 71
     1
 72
     1
  1
{\H0.81x;{2}}
 11
1.000000000000000
 21
0.0000000000000000
 31
0.0000000000000000
  7
STANDARD
  0
MTEXT
  5
5C7
100
AcDbEntity
  8
WAKU0
  6
CONTINUOUS
 62
3
100
AcDbMText
 10
572.0000000819564
 20
44.84999990463257
 30
0.0000000000000000
 40
5.300000190734863
 41
0.0000000000000000
 71
     7
 72
     1
  1
{\H0.81x;{ }}
 11
1.000000000000000
 21
0.0000000000000000
 31
0.0000000000000000
  7
STANDARD
  0
MTEXT
  5
5C8
100
AcDbEntity
  8
WAKU0
  6
CONTINUOUS
 62
3
100
AcDbMText
 10
461.3850002884865
 20
33.00000000000000
 30
0.0000000000000000
 40
3.000000000000000
 41
0.0000000000000000
 71
     7
 72
     1
  1
{\H0.93x;{DRAWN BY}}
 11
1.000000000000000
 21
0.0000000000000000
 31
0.0000000000000000
  7
STANDARD
  0
MTEXT
  5
5C9
100
AcDbEntity
  8
WAKU0
  6
CONTINUOUS
 62
3
100
AcDbMText
 10
441.2149997949600
 20
32.95000004768372
 30
0.0000000000000000
 40
3.099999904632568
 41
0.0000000000000000
 71
     7
 72
     1
  1
{\H0.92x;{CHIEF}}
 11
1.000000000000000
 21
0.0000000000000000
 31
0.0000000000000000
  7
STANDARD
  0
MTEXT
  5
5CA
100
AcDbEntity
  8
WAKU0
  6
CONTINUOUS
 62
3
100
AcDbMText
 10
414.4249997138977
 20
32.95000004768372
 30
0.0000000000000000
 40
3.099999904632568
 41
0.0000000000000000
 71
     7
 72
     1
  1
{\H0.92x;{MANAGER}}
 11
1.000000000000000
 21
0.0000000000000000
 31
0.0000000000000000
  7
STANDARD
  0
MTEXT
  5
5CB
100
AcDbEntity
  8
WAKU0
  6
CONTINUOUS
 62
3
100
AcDbMText
 10
413.0850002169609
 20
46.50000000000000
 30
0.0000000000000000
 40
3.000000000000000
 41
0.0000000000000000
 71
     7
 72
     1
  1
{\H0.92x;{CAREER}}
 11
1.000000000000000
 21
0.0000000000000000
 31
0.0000000000000000
  7
STANDARD
  0
MTEXT
  5
5CC
100
AcDbEntity
  8
WAKU0
  6
CONTINUOUS
 62
3
100
AcDbMText
 10
466.6099998354912
 20
18.95000004768372
 30
0.0000000000000000
 40
3.099999904632568
 41
0.0000000000000000
 71
     7
 72
     1
  1
{\H0.91x;{DATE}}
 11
1.000000000000000
 21
0.0000000000000000
 31
0.0000000000000000
  7
STANDARD
  0
MTEXT
  5
5CD
100
AcDbEntity
  8
WAKU0
  6
CONTINUOUS
 62
3
100
AcDbMText
 10
485.9000002145767
 20
26.50000000000000
 30
0.0000000000000000
 40
3.000000000000000
 41
0.0000000000000000
 71
     7
 72
     1
  1
{\H0.63x;{3RD ANGLE}}
 11
1.000000000000000
 21
0.0000000000000000
 31
0.0000000000000000
  7
STANDARD
  0
MTEXT
  5
5CE
100
AcDbEntity
  8
WAKU0
  6
CONTINUOUS
 62
3
100
AcDbMText
 10
487.2149997949600
 20
45.95000004768372
 30
0.0000000000000000
 40
3.099999904632568
 41
0.0000000000000000
 71
     7
 72
     1
  1
{\H0.92x;{SCALE}}
 11
1.000000000000000
 21
0.0000000000000000
 31
0.0000000000000000
  7
STANDARD
  0
MTEXT
  5
5CF
100
AcDbEntity
  8
WAKU0
  6
CONTINUOUS
 62
3
100
AcDbMText
 10
577.7000000476837
 20
46.00000000000000
 30
0.0000000000000000
 40
3.000000000000000
 41
0.0000000000000000
 71
     7
 72
     1
  1
{\H0.63x;{kg}}
 11
1.000000000000000
 21
0.0000000000000000
 31
0.0000000000000000
  7
STANDARD
  0
MTEXT
  5
5D0
100
AcDbEntity
  8
WAKU0
  6
CONTINUOUS
 62
3
100
AcDbMText
 10
547.6000001430512
 20
46.00000000000000
 30
0.0000000000000000
 40
3.000000000000000
 41
0.0000000000000000
 71
     7
 72
     1
  1
{\H0.63x;{WEIGHT}}
 11
1.000000000000000
 21
0.0000000000000000
 31
0.0000000000000000
  7
STANDARD
  0
MTEXT
  5
5D1
100
AcDbEntity
  8
WAKU0
  6
CONTINUOUS
 62
3
100
AcDbMText
 10
506.0049998760223
 20
18.13333336512248
 30
0.0000000000000000
 40
3.099999904632568
 41
0.0000000000000000
 71
     7
 72
     1
  1
{\H0.90x;{DRW\PNO.}}
 11
1.000000000000000
 21
0.0000000000000000
 31
0.0000000000000000
  7
STANDARD
  0
MTEXT
  5
5D2
100
AcDbEntity
  8
WAKU0
  6
CONTINUOUS
 62
3
100
AcDbMText
 10
504.6099998354912
 20
31.95000004768372
 30
0.0000000000000000
 40
3.099999904632568
 41
0.0000000000000000
 71
     7
 72
     1
  1
{\H0.91x;{NAME}}
 11
1.000000000000000
 21
0.0000000000000000
 31
0.0000000000000000
  7
STANDARD
  0
MTEXT
  5
5D3
100
AcDbEntity
  8
WAKU0
  6
CONTINUOUS
 62
3
100
AcDbMText
 10
504.6099998354912
 20
45.95000004768372
 30
0.0000000000000000
 40
3.099999904632568
 41
0.0000000000000000
 71
     7
 72
     1
  1
{\H0.91x;{TYPE}}
 11
1.000000000000000
 21
0.0000000000000000
 31
0.0000000000000000
  7
STANDARD
  0
LINE
  5
5D4
100
AcDbEntity
  8
WAKU0
  6
HIDDEN
 62
3
100
AcDbLine
 10
579.1599564743885
 20
13.84999990463257
 30
0.0000000000000000
 11
568.9400436209789
 21
13.84999990463257
 31
0.0000000000000000
  0
LINE
  5
5D5
100
AcDbEntity
  8
WAKU0
  6
HIDDEN
 62
3
100
AcDbLine
 10
579.1599564743885
 20
13.84999990463250
 30
0.0000000000000000
 11
574.0500000476851
 21
22.70070406014901
 31
0.0000000000000000
  0
LINE
  5
5D6
100
AcDbEntity
  8
WAKU0
  6
HIDDEN
 62
3
100
AcDbLine
 10
574.0500000476851
 20
22.70070406014902
 30
0.0000000000000000
 11
568.9400436209789
 21
13.84999990463248
 31
0.0000000000000000
  0
MTEXT
  5
5D7
100
AcDbEntity
  8
WAKU0
  6
CONTINUOUS
 62
3
100
AcDbMText
 10
419.0000009614873
 20
20.63471521698214
 30
0.0000000000000000
 40
3.140094041824341
 41
0.0000000000000000
 71
     1
 72
     1
  1
{\H0.83x;{Ｋｉｔａｇａｗａ\PＣｏｒｐｏｒａｔｉｏｎ}}
 11
1.000000000000000
 21
0.0000000000000000
 31
0.0000000000000000
  7
KNJYOKO
  0
LINE
  5
5D8
100
AcDbEntity
  8
WAKU0
  6
CONTINUOUS
 62
3
100
AcDbLine
 10
502.4713877753800
 20
15.78041421262812
 30
0.0000000000000000
 11
502.4713877753800
 21
21.78041421262815
 31
0.0000000000000000
  0
LINE
  5
5D9
100
AcDbEntity
  8
WAKU0
  6
CONTINUOUS
 62
3
100
AcDbLine
 10
495.9336941228225
 20
17.28041421262811
 30
0.0000000000000000
 11
495.9336941228225
 21
20.28041421262824
 31
0.0000000000000000
  0
LINE
  5
5DA
100
AcDbEntity
  8
WAKU0
  6
CENTER
 62
12
100
AcDbLine
 10
485.4321805514995
 20
18.78041421262813
 30
0.0000000000000000
 11
503.2765788964694
 21
18.78041421262813
 31
0.0000000000000000
  0
LINE
  5
5DB
100
AcDbEntity
  8
WAKU0
  6
CENTER
 62
12
100
AcDbLine
 10
489.4474565857986
 20
14.55921662918448
 30
0.0000000000000000
 11
489.4474565857986
 21
22.89865102149943
 31
0.0000000000000000
  0
LINE
  5
5DC
100
AcDbEntity
  8
WAKU0
  6
CONTINUOUS
 62
3
100
AcDbLine
 10
495.9336941228225
 20
20.28041421262797
 30
0.0000000000000000
 11
502.4713877753800
 21
21.78041421262795
 31
0.0000000000000000
  0
LINE
  5
5DD
100
AcDbEntity
  8
WAKU0
  6
CONTINUOUS
 62
3
100
AcDbLine
 10
495.9336941228225
 20
17.28041421262811
 30
0.0000000000000000
 11
502.4713877753799
 21
15.78041421262812
 31
0.0000000000000000
  0
CIRCLE
  5
5DE
100
AcDbEntity
  8
WAKU0
  6
CONTINUOUS
 62
3
100
AcDbCircle
 10
489.4474565857986
 20
18.78041421262813
 30
0.0000000000000000
 40
1.499999999999972
  0
CIRCLE
  5
5DF
100
AcDbEntity
  8
WAKU0
  6
CONTINUOUS
 62
3
100
AcDbCircle
 10
489.4474565857986
 20
18.78041421262813
 30
0.0000000000000000
 40
2.999999999999979
  0
ENDSEC
  0
SECTION
  2
OBJECTS
  0
DICTIONARY
  5
635
100
AcDbDictionary
  3
ACAD_GROUP
350
636
  3
ACAD_MLINESTYLE
350
637
  3
DWGPROPS
350
638
  0
DICTIONARY
  5
636
102
{ACAD_REACTORS
330
635
102
}
100
AcDbDictionary
  0
DICTIONARY
  5
637
102
{ACAD_REACTORS
330
635
102
}
100
AcDbDictionary
  3
STANDARD
350
639
  0
MLINESTYLE
  5
639
102
{ACAD_REACTORS
330
637
102
}
100
AcDbMlineStyle
  2
STANDARD
 70
     0
  3

 62
   256
 51
90.00
 52
90.00
 71
     2
 49
0.50
 62
   256
  6
BYLAYER
 49
-0.50
 62
   256
  6
BYLAYER
  0
XRECORD
  5
638
102
{ACAD_REACTORS
330
635
102
}
100
AcDbXrecord
280
     1
  1
DWGPROPS COOKIE
  2
Ｍ１１２０ＲＡ　ガイケイ
  3

  4

  6
回転油圧シリンダ
  7

  8

  9

300
=
301
=
302
=
303
=
304
=
305
=
306
=
307
=
308
=
309
=
 40
0.000000
 41
0.000000
 42
0.000000
  1

 90
        0
  0
ENDSEC
  0
EOF
