  0
SECTION
  2
HEADER
  9
$ACADVER
  1
AC1014
  9
$DWGCODEPAGE
  3
ANSI_932
  9
$LTSCALE
 40
20.0
  9
$FILLMODE
 70
     1
  9
$CLAYER
  8
0
  9
$PDMODE
 70
     0
  9
$SPLFRAME
 70
     0
  9
$SPLINETYPE
 70
     6
  9
$SPLINESEGS
 70
     8
  9
$DIMASZ
 40
2.000000
  9
$DIMEXE
 40
2.000000
  9
$DIMEXO
 40
0.800000
  9
$DIMTAD
 70
     1
  9
$DIMTIH
 70
     0
  9
$DIMTOH
 70
     0
  9
$DIMTVP
 40
0.500000
  9
$DIMTXT
 40
3.100000
  9
$EXTMIN
 10
0.000000
 20
0.000000
 30
0.000000
  9
$EXTMAX
 10
420.000000
 20
594.000000
 30
0.000000
  9
$MEASUREMENT
 70
  1
  9
$LIMMIN
 10
0.000000
 20
0.000000
  9
$LIMMAX
 10
420.000000
 20
594.000000
  9
$HANDLING
 70
     1
  9
$HANDSEED
  5
5B2
  9
$DIMBLK
  1
_OPEN
  9
$DIMDEC
 70
     3
  9
$DIMAUNIT
 70
     1
  9
$DIMZIN
 70
     8
  9
$DIMTOFL
 70
     1
  0
ENDSEC
  0
SECTION
  2
CLASSES
  0
ENDSEC
  0
SECTION
  2
TABLES
  0
TABLE
  2
VPORT
  5
55D
100
AcDbSymbolTable
 70
     1
  0
VPORT
  5
55E
100
AcDbSymbolTableRecord
100
AcDbViewportTableRecord
  2
*ACTIVE
 70
     0
 12
297.000000
 22
210.000000
 40
420.000000
 41
1.414286
  0
ENDTAB
  0
TABLE
  2
LTYPE
  5
55F
100
AcDbSymbolTable
 70
     4
  0
LTYPE
  5
560
100
AcDbSymbolTableRecord
100
AcDbLinetypeTableRecord
  2
BYBLOCK
 70
     0
  3

 72
    65
 73
     0
 40
0.0
  0
LTYPE
  5
561
100
AcDbSymbolTableRecord
100
AcDbLinetypeTableRecord
  2
BYLAYER
 70
     0
  3

 72
    65
 73
     0
 40
0.0
  0
LTYPE
  5
562
100
AcDbSymbolTableRecord
100
AcDbLinetypeTableRecord
  2
CONTINUOUS
 70
     0
  3
Solid line (NEC CAE2D for Win R14.2 : 2021.07.14)
 72
    65
 73
     0
 40
0.0
  0
LTYPE
  5
563
100
AcDbSymbolTableRecord
100
AcDbLinetypeTableRecord
  2
HIDDEN
 70
     0
  3
__ __ __ __ __ __ __ __ __ __ __ __ __ __
 72
    65
 73
     2
 40
0.375
 49
0.25
 74
     0
 49
-0.125
 74
     0
  0
LTYPE
  5
564
100
AcDbSymbolTableRecord
100
AcDbLinetypeTableRecord
  2
CENTER
 70
     0
  3
____ _ ____ _ ____ _ ____ _ ____ _ ____
 72
    65
 73
     4
 40
2.0
 49
1.25
 74
     0
 49
-0.25
 74
     0
 49
0.25
 74
     0
 49
-0.25
 74
     0
  0
LTYPE
  5
565
100
AcDbSymbolTableRecord
100
AcDbLinetypeTableRecord
  2
PHANTOM
 70
     0
  3
______  __  __  ______  __  __  ______ 
 72
    65
 73
     6
 40
2.5
 49
1.25
 74
     0
 49
-0.25
 74
     0
 49
0.25
 74
     0
 49
-0.25
 74
     0
 49
0.25
 74
     0
 49
-0.25
 74
     0
  0
ENDTAB
  0
TABLE
  2
LAYER
  5
566
100
AcDbSymbolTable
 70
     9
  0
LAYER
  5
567
100
AcDbSymbolTableRecord
100
AcDbLayerTableRecord
  2
0
 70
     0
 62
     7
  6
CONTINUOUS
  0
LAYER
  5
568
100
AcDbSymbolTableRecord
100
AcDbLayerTableRecord
  2
MAIN0
 70
     0
 62
     7
  6
CONTINUOUS
  0
LAYER
  5
569
100
AcDbSymbolTableRecord
100
AcDbLayerTableRecord
  2
MAIN1
 70
     0
 62
     7
  6
CONTINUOUS
  0
LAYER
  5
56A
100
AcDbSymbolTableRecord
100
AcDbLayerTableRecord
  2
MAIN2
 70
     0
 62
     5
  6
CONTINUOUS
  0
LAYER
  5
56B
100
AcDbSymbolTableRecord
100
AcDbLayerTableRecord
  2
MAIN4
 70
     0
 62
     7
  6
CONTINUOUS
  0
LAYER
  5
56C
100
AcDbSymbolTableRecord
100
AcDbLayerTableRecord
  2
MAIN10
 70
     0
 62
     7
  6
CONTINUOUS
  0
LAYER
  5
56D
100
AcDbSymbolTableRecord
100
AcDbLayerTableRecord
  2
MAIN1023
 70
     0
 62
    16
  6
CONTINUOUS
  0
LAYER
  5
56E
100
AcDbSymbolTableRecord
100
AcDbLayerTableRecord
  2
WAKU0
 70
     0
 62
     7
  6
CONTINUOUS
  0
LAYER
  5
56F
100
AcDbSymbolTableRecord
100
AcDbLayerTableRecord
  2
WAKU1023
 70
     0
 62
    16
  6
CONTINUOUS
  0
ENDTAB
  0
TABLE
  2
STYLE
  5
570
100
AcDbSymbolTable
 70
     4
  0
STYLE
  5
571
100
AcDbSymbolTableRecord
100
AcDbTextStyleTableRecord
  2
STANDARD
 70
    64
 40
0.0
 41
1.0
 50
0.0
 71
     0
 42
3.099999904632568
  3
TXT
  4

  0
STYLE
  5
572
100
AcDbSymbolTableRecord
100
AcDbTextStyleTableRecord
  2
ANKTATE
 70
    68
 40
0.0
 41
1.0
 50
0.0
 71
     0
 42
3.099999904632568
  3
TXT
  4

  0
STYLE
  5
573
100
AcDbSymbolTableRecord
100
AcDbTextStyleTableRecord
  2
KNJYOKO
 70
    64
 40
0.0
 41
1.0
 50
0.0
 71
     0
 42
3.099999904632568
  3
TXT
  4
BIGFONT
  0
STYLE
  5
574
100
AcDbSymbolTableRecord
100
AcDbTextStyleTableRecord
  2
KNJTATE
 70
    68
 40
0.0
 41
1.0
 50
0.0
 71
     0
 42
3.099999904632568
  3
TXT
  4
BIGFONT
  0
ENDTAB
  0
TABLE
  2
VIEW
  5
575
100
AcDbSymbolTable
 70
     0
  0
ENDTAB
  0
TABLE
  2
UCS
  5
576
100
AcDbSymbolTable
 70
     0
  0
ENDTAB
  0
TABLE
  2
APPID
  5
577
100
AcDbSymbolTable
 70
     1
  0
APPID
  5
578
100
AcDbSymbolTableRecord
100
AcDbRegAppTableRecord
  2
ACAD
 70
     0
  0
ENDTAB
  0
TABLE
  2
DIMSTYLE
  5
579
100
AcDbSymbolTable
 70
     1
  0
DIMSTYLE
105
57A
100
AcDbSymbolTableRecord
100
AcDbDimStyleTableRecord
  2
STANDARD
 70
     0
 41
2.000000
 44
2.000000
 42
0.800000
145
0.661290
140
3.100000
144
1.000000
146
0.903226
340
571
  0
DIMSTYLE
105
57B
100
AcDbSymbolTableRecord
100
AcDbDimStyleTableRecord
  2
MAIN001
 70
     0
 41
2.000000
 44
2.000000
 42
0.800000
145
0.661290
140
3.100000
144
1.000000
146
0.903226
 77
     1
 73
     0
 74
     0
271
     3
275
     1
 78
     8
172
     1
340
571
  0
DIMSTYLE
105
57C
100
AcDbSymbolTableRecord
100
AcDbDimStyleTableRecord
  2
WAKU002
 70
     0
 41
2.000000
 44
2.000000
 42
0.800000
145
0.661290
140
3.100000
144
1.000000
146
0.903226
 77
     1
 73
     0
 74
     0
271
     3
275
     1
 78
     8
172
     1
340
571
  0
ENDTAB
  0
TABLE
  2
BLOCK_RECORD
  5
57D
100
AcDbSymbolTable
 70
    53
  0
BLOCK_RECORD
  5
57E
100
AcDbSymbolTableRecord
100
AcDbBlockTableRecord
  2
*MODEL_SPACE
  0
BLOCK_RECORD
  5
57F
100
AcDbSymbolTableRecord
100
AcDbBlockTableRecord
  2
*PAPER_SPACE
  0
BLOCK_RECORD
  5
1
100
AcDbSymbolTableRecord
100
AcDbBlockTableRecord
  2
_NONE
  0
BLOCK_RECORD
  5
4
100
AcDbSymbolTableRecord
100
AcDbBlockTableRecord
  2
_CLOSED
  0
BLOCK_RECORD
  5
B
100
AcDbSymbolTableRecord
100
AcDbBlockTableRecord
  2
_DOT
  0
BLOCK_RECORD
  5
13
100
AcDbSymbolTableRecord
100
AcDbBlockTableRecord
  2
_OPEN
  0
BLOCK_RECORD
  5
19
100
AcDbSymbolTableRecord
100
AcDbBlockTableRecord
  2
_ORIGIN
  0
BLOCK_RECORD
  5
1E
100
AcDbSymbolTableRecord
100
AcDbBlockTableRecord
  2
_OPEN30
  0
BLOCK_RECORD
  5
24
100
AcDbSymbolTableRecord
100
AcDbBlockTableRecord
  2
_BOXFILLED
  0
BLOCK_RECORD
  5
29
100
AcDbSymbolTableRecord
100
AcDbBlockTableRecord
  2
_BOXBLANK
  0
BLOCK_RECORD
  5
31
100
AcDbSymbolTableRecord
100
AcDbBlockTableRecord
  2
_OBLIQUE
  0
BLOCK_RECORD
  5
35
100
AcDbSymbolTableRecord
100
AcDbBlockTableRecord
  2
_OPEN90
  0
BLOCK_RECORD
  5
3B
100
AcDbSymbolTableRecord
100
AcDbBlockTableRecord
  2
_CLOSEDBLANK
  0
BLOCK_RECORD
  5
41
100
AcDbSymbolTableRecord
100
AcDbBlockTableRecord
  2
_DOTBLANK
  0
BLOCK_RECORD
  5
580
100
AcDbSymbolTableRecord
100
AcDbBlockTableRecord
  2
M0
  0
BLOCK_RECORD
  5
581
100
AcDbSymbolTableRecord
100
AcDbBlockTableRecord
  2
M1
  0
BLOCK_RECORD
  5
582
100
AcDbSymbolTableRecord
100
AcDbBlockTableRecord
  2
M2
  0
BLOCK_RECORD
  5
583
100
AcDbSymbolTableRecord
100
AcDbBlockTableRecord
  2
*D0
  0
BLOCK_RECORD
  5
584
100
AcDbSymbolTableRecord
100
AcDbBlockTableRecord
  2
*D1
  0
BLOCK_RECORD
  5
585
100
AcDbSymbolTableRecord
100
AcDbBlockTableRecord
  2
*D2
  0
BLOCK_RECORD
  5
586
100
AcDbSymbolTableRecord
100
AcDbBlockTableRecord
  2
*D3
  0
BLOCK_RECORD
  5
587
100
AcDbSymbolTableRecord
100
AcDbBlockTableRecord
  2
*D4
  0
BLOCK_RECORD
  5
588
100
AcDbSymbolTableRecord
100
AcDbBlockTableRecord
  2
*D5
  0
BLOCK_RECORD
  5
589
100
AcDbSymbolTableRecord
100
AcDbBlockTableRecord
  2
*D6
  0
BLOCK_RECORD
  5
58A
100
AcDbSymbolTableRecord
100
AcDbBlockTableRecord
  2
D7
  0
BLOCK_RECORD
  5
58B
100
AcDbSymbolTableRecord
100
AcDbBlockTableRecord
  2
*D8
  0
BLOCK_RECORD
  5
58C
100
AcDbSymbolTableRecord
100
AcDbBlockTableRecord
  2
*D9
  0
BLOCK_RECORD
  5
58D
100
AcDbSymbolTableRecord
100
AcDbBlockTableRecord
  2
*D10
  0
BLOCK_RECORD
  5
58E
100
AcDbSymbolTableRecord
100
AcDbBlockTableRecord
  2
*D11
  0
BLOCK_RECORD
  5
58F
100
AcDbSymbolTableRecord
100
AcDbBlockTableRecord
  2
*D12
  0
BLOCK_RECORD
  5
590
100
AcDbSymbolTableRecord
100
AcDbBlockTableRecord
  2
*D13
  0
BLOCK_RECORD
  5
591
100
AcDbSymbolTableRecord
100
AcDbBlockTableRecord
  2
*D14
  0
BLOCK_RECORD
  5
592
100
AcDbSymbolTableRecord
100
AcDbBlockTableRecord
  2
*D15
  0
BLOCK_RECORD
  5
593
100
AcDbSymbolTableRecord
100
AcDbBlockTableRecord
  2
*D16
  0
BLOCK_RECORD
  5
594
100
AcDbSymbolTableRecord
100
AcDbBlockTableRecord
  2
D17
  0
BLOCK_RECORD
  5
595
100
AcDbSymbolTableRecord
100
AcDbBlockTableRecord
  2
*D18
  0
BLOCK_RECORD
  5
596
100
AcDbSymbolTableRecord
100
AcDbBlockTableRecord
  2
D19
  0
BLOCK_RECORD
  5
597
100
AcDbSymbolTableRecord
100
AcDbBlockTableRecord
  2
M3
  0
BLOCK_RECORD
  5
598
100
AcDbSymbolTableRecord
100
AcDbBlockTableRecord
  2
*D20
  0
BLOCK_RECORD
  5
599
100
AcDbSymbolTableRecord
100
AcDbBlockTableRecord
  2
M4
  0
BLOCK_RECORD
  5
59A
100
AcDbSymbolTableRecord
100
AcDbBlockTableRecord
  2
*D21
  0
BLOCK_RECORD
  5
59B
100
AcDbSymbolTableRecord
100
AcDbBlockTableRecord
  2
*D22
  0
BLOCK_RECORD
  5
59C
100
AcDbSymbolTableRecord
100
AcDbBlockTableRecord
  2
*D23
  0
BLOCK_RECORD
  5
59D
100
AcDbSymbolTableRecord
100
AcDbBlockTableRecord
  2
*D24
  0
BLOCK_RECORD
  5
59E
100
AcDbSymbolTableRecord
100
AcDbBlockTableRecord
  2
*D25
  0
BLOCK_RECORD
  5
59F
100
AcDbSymbolTableRecord
100
AcDbBlockTableRecord
  2
*D26
  0
BLOCK_RECORD
  5
5A0
100
AcDbSymbolTableRecord
100
AcDbBlockTableRecord
  2
*D27
  0
BLOCK_RECORD
  5
5A1
100
AcDbSymbolTableRecord
100
AcDbBlockTableRecord
  2
*X0
  0
BLOCK_RECORD
  5
5A2
100
AcDbSymbolTableRecord
100
AcDbBlockTableRecord
  2
*X1
  0
BLOCK_RECORD
  5
5A3
100
AcDbSymbolTableRecord
100
AcDbBlockTableRecord
  2
M5
  0
BLOCK_RECORD
  5
5A4
100
AcDbSymbolTableRecord
100
AcDbBlockTableRecord
  2
*X2
  0
BLOCK_RECORD
  5
5A5
100
AcDbSymbolTableRecord
100
AcDbBlockTableRecord
  2
*X3
  0
BLOCK_RECORD
  5
5A6
100
AcDbSymbolTableRecord
100
AcDbBlockTableRecord
  2
M6
  0
BLOCK_RECORD
  5
5A7
100
AcDbSymbolTableRecord
100
AcDbBlockTableRecord
  2
*D28
  0
BLOCK_RECORD
  5
5A8
100
AcDbSymbolTableRecord
100
AcDbBlockTableRecord
  2
*D29
  0
ENDTAB
  0
ENDSEC
  0
SECTION
  2
BLOCKS
  0
BLOCK
  5
5A9
100
AcDbEntity
  8
0
100
AcDbBlockBegin
  2
*MODEL_SPACE
 70
     0
 10
0.0
 20
0.0
 30
0.0
  3
*MODEL_SPACE
  1

  0
ENDBLK
  5
5AA
100
AcDbEntity
  8
0
100
AcDbBlockEnd
  0
BLOCK
  5
5AB
100
AcDbEntity
  8
0
100
AcDbBlockBegin
  2
*PAPER_SPACE
 70
     0
 10
0.0
 20
0.0
 30
0.0
  3
*PAPER_SPACE
  1

  0
ENDBLK
  5
5AC
100
AcDbEntity
  8
0
100
AcDbBlockEnd
  0
BLOCK
  5
2
100
AcDbEntity
  8
0
100
AcDbBlockBegin
  2
_NONE
 70
     0
 10
0.0
 20
0.0
 30
0.0
  3
_NONE
  1

  0
ENDBLK
  5
3
100
AcDbEntity
  8
0
100
AcDbBlockEnd
  0
BLOCK
  5
5
100
AcDbEntity
  8
0
100
AcDbBlockBegin
  2
_CLOSED
 70
     0
 10
0.0
 20
0.0
 30
0.0
  3
_CLOSED
  1

  0
LINE
  5
6
100
AcDbEntity
  8
0
  6
BYBLOCK
 62
     0
100
AcDbLine
 10
-1.0
 20
0.166667
 30
0.0
 11
0.0
 21
0.0
 31
0.0
  0
LINE
  5
7
100
AcDbEntity
  8
0
  6
BYBLOCK
 62
     0
100
AcDbLine
 10
0.0
 20
0.0
 30
0.0
 11
-1.0
 21
-0.166667
 31
0.0
  0
LINE
  5
8
100
AcDbEntity
  8
0
  6
BYBLOCK
 62
     0
100
AcDbLine
 10
-1.0
 20
0.166667
 30
0.0
 11
-1.0
 21
-0.166667
 31
0.0
  0
LINE
  5
9
100
AcDbEntity
  8
0
  6
BYBLOCK
 62
     0
100
AcDbLine
 10
0.0
 20
0.0
 30
0.0
 11
-1.0
 21
0.0
 31
0.0
  0
ENDBLK
  5
A
100
AcDbEntity
  8
0
100
AcDbBlockEnd
  0
BLOCK
  5
C
100
AcDbEntity
  8
0
100
AcDbBlockBegin
  2
_DOT
 70
     0
 10
0.0
 20
0.0
 30
0.0
  3
_DOT
  1

  0
POLYLINE
  5
D
100
AcDbEntity
  8
0
  6
BYBLOCK
 62
     0
100
AcDb2dPolyline
 66
     1
 10
0.0
 20
0.0
 30
0.0
 70
     1
 40
0.5
 41
0.5
  0
VERTEX
  5
E
100
AcDbEntity
  8
0
  6
BYBLOCK
 62
     0
100
AcDbVertex
100
AcDb2dVertex
 10
-0.25
 20
0.0
 30
0.0
 42
1.0
  0
VERTEX
  5
F
100
AcDbEntity
  8
0
  6
BYBLOCK
 62
     0
100
AcDbVertex
100
AcDb2dVertex
 10
0.25
 20
0.0
 30
0.0
 42
1.0
  0
SEQEND
  5
10
100
AcDbEntity
  8
0
  6
BYBLOCK
 62
     0
  0
LINE
  5
11
100
AcDbEntity
  8
0
  6
BYBLOCK
 62
     0
100
AcDbLine
 10
-0.5
 20
0.0
 30
0.0
 11
-1.0
 21
0.0
 31
0.0
  0
ENDBLK
  5
12
100
AcDbEntity
  8
0
100
AcDbBlockEnd
  0
BLOCK
  5
14
100
AcDbEntity
  8
0
100
AcDbBlockBegin
  2
_OPEN
 70
     0
 10
0.0
 20
0.0
 30
0.0
  3
_OPEN
  1

  0
LINE
  5
15
100
AcDbEntity
  8
0
  6
BYBLOCK
 62
     0
100
AcDbLine
 10
-1.0
 20
0.166667
 30
0.0
 11
0.0
 21
0.0
 31
0.0
  0
LINE
  5
16
100
AcDbEntity
  8
0
  6
BYBLOCK
 62
     0
100
AcDbLine
 10
0.0
 20
0.0
 30
0.0
 11
-1.0
 21
-0.166667
 31
0.0
  0
LINE
  5
17
100
AcDbEntity
  8
0
  6
BYBLOCK
 62
     0
100
AcDbLine
 10
0.0
 20
0.0
 30
0.0
 11
-1.0
 21
0.0
 31
0.0
  0
ENDBLK
  5
18
100
AcDbEntity
  8
0
100
AcDbBlockEnd
  0
BLOCK
  5
1A
100
AcDbEntity
  8
0
100
AcDbBlockBegin
  2
_ORIGIN
 70
     0
 10
0.0
 20
0.0
 30
0.0
  3
_ORIGIN
  1

  0
CIRCLE
  5
1B
100
AcDbEntity
  8
0
  6
BYBLOCK
 62
     0
100
AcDbCircle
 10
0.0
 20
0.0
 30
0.0
 40
0.5
  0
LINE
  5
1C
100
AcDbEntity
  8
0
  6
BYBLOCK
 62
     0
100
AcDbLine
 10
0.0
 20
0.0
 30
0.0
 11
-1.0
 21
0.0
 31
0.0
  0
ENDBLK
  5
1D
100
AcDbEntity
  8
0
100
AcDbBlockEnd
  0
BLOCK
  5
1F
100
AcDbEntity
  8
0
100
AcDbBlockBegin
  2
_OPEN30
 70
     0
 10
0.0
 20
0.0
 30
0.0
  3
_OPEN30
  1

  0
LINE
  5
20
100
AcDbEntity
  8
0
  6
BYBLOCK
 62
     0
100
AcDbLine
 10
-1.0
 20
0.267949
 30
0.0
 11
0.0
 21
0.0
 31
0.0
  0
LINE
  5
21
100
AcDbEntity
  8
0
  6
BYBLOCK
 62
     0
100
AcDbLine
 10
0.0
 20
0.0
 30
0.0
 11
-1.0
 21
-0.267949
 31
0.0
  0
LINE
  5
22
100
AcDbEntity
  8
0
  6
BYBLOCK
 62
     0
100
AcDbLine
 10
0.0
 20
0.0
 30
0.0
 11
-1.0
 21
0.0
 31
0.0
  0
ENDBLK
  5
23
100
AcDbEntity
  8
0
100
AcDbBlockEnd
  0
BLOCK
  5
25
100
AcDbEntity
  8
0
100
AcDbBlockBegin
  2
_BOXFILLED
 70
     0
 10
0.0
 20
0.0
 30
0.0
  3
_BOXFILLED
  1

  0
SOLID
  5
26
100
AcDbEntity
  8
0
  6
BYBLOCK
 62
     0
100
AcDbTrace
 10
-0.5
 20
0.5
 30
0.0
 11
0.5
 21
0.5
 31
0.0
 12
-0.5
 22
-0.5
 32
0.0
 13
0.5
 23
-0.5
 33
0.0
  0
LINE
  5
27
100
AcDbEntity
  8
0
  6
BYBLOCK
 62
     0
100
AcDbLine
 10
-0.5
 20
0.0
 30
0.0
 11
-1.0
 21
0.0
 31
0.0
  0
ENDBLK
  5
28
100
AcDbEntity
  8
0
100
AcDbBlockEnd
  0
BLOCK
  5
2A
100
AcDbEntity
  8
0
100
AcDbBlockBegin
  2
_BOXBLANK
 70
     0
 10
0.0
 20
0.0
 30
0.0
  3
_BOXBLANK
  1

  0
LINE
  5
2B
100
AcDbEntity
  8
0
  6
BYBLOCK
 62
     0
100
AcDbLine
 10
-0.5
 20
-0.5
 30
0.0
 11
0.5
 21
-0.5
 31
0.0
  0
LINE
  5
2C
100
AcDbEntity
  8
0
  6
BYBLOCK
 62
     0
100
AcDbLine
 10
0.5
 20
-0.5
 30
0.0
 11
0.5
 21
0.5
 31
0.0
  0
LINE
  5
2D
100
AcDbEntity
  8
0
  6
BYBLOCK
 62
     0
100
AcDbLine
 10
0.5
 20
0.5
 30
0.0
 11
-0.5
 21
0.5
 31
0.0
  0
LINE
  5
2E
100
AcDbEntity
  8
0
  6
BYBLOCK
 62
     0
100
AcDbLine
 10
-0.5
 20
0.5
 30
0.0
 11
-0.5
 21
-0.5
 31
0.0
  0
LINE
  5
2F
100
AcDbEntity
  8
0
  6
BYBLOCK
 62
     0
100
AcDbLine
 10
-0.5
 20
0.0
 30
0.0
 11
-1.0
 21
0.0
 31
0.0
  0
ENDBLK
  5
30
100
AcDbEntity
  8
0
100
AcDbBlockEnd
  0
BLOCK
  5
32
100
AcDbEntity
  8
0
100
AcDbBlockBegin
  2
_OBLIQUE
 70
     0
 10
0.0
 20
0.0
 30
0.0
  3
_OBLIQUE
  1

  0
LINE
  5
33
100
AcDbEntity
  8
0
  6
BYBLOCK
 62
     0
100
AcDbLine
 10
-0.5
 20
-0.5
 30
0.0
 11
0.5
 21
0.5
 31
0.0
  0
ENDBLK
  5
34
100
AcDbEntity
  8
0
100
AcDbBlockEnd
  0
BLOCK
  5
36
100
AcDbEntity
  8
0
100
AcDbBlockBegin
  2
_OPEN90
 70
     0
 10
0.0
 20
0.0
 30
0.0
  3
_OPEN90
  1

  0
LINE
  5
37
100
AcDbEntity
  8
0
  6
BYBLOCK
 62
     0
100
AcDbLine
 10
-0.5
 20
0.5
 30
0.0
 11
0.0
 21
0.0
 31
0.0
  0
LINE
  5
38
100
AcDbEntity
  8
0
  6
BYBLOCK
 62
     0
100
AcDbLine
 10
0.0
 20
0.0
 30
0.0
 11
-0.5
 21
-0.5
 31
0.0
  0
LINE
  5
39
100
AcDbEntity
  8
0
  6
BYBLOCK
 62
     0
100
AcDbLine
 10
0.0
 20
0.0
 30
0.0
 11
-1.0
 21
0.0
 31
0.0
  0
ENDBLK
  5
3A
100
AcDbEntity
  8
0
100
AcDbBlockEnd
  0
BLOCK
  5
3C
100
AcDbEntity
  8
0
100
AcDbBlockBegin
  2
_CLOSEDBLANK
 70
     0
 10
0.0
 20
0.0
 30
0.0
  3
_CLOSEDBLANK
  1

  0
LINE
  5
3D
100
AcDbEntity
  8
0
  6
BYBLOCK
 62
     0
100
AcDbLine
 10
-1.0
 20
0.1666666666666666
 30
0.0
 11
0.0
 21
0.0
 31
0.0
  0
LINE
  5
3E
100
AcDbEntity
  8
0
  6
BYBLOCK
 62
     0
100
AcDbLine
 10
0.0
 20
0.0
 30
0.0
 11
-1.0
 21
-0.1666666666666666
 31
0.0
  0
LINE
  5
3F
100
AcDbEntity
  8
0
  6
BYBLOCK
 62
     0
100
AcDbLine
 10
-1.0
 20
0.1666666666666666
 30
0.0
 11
-1.0
 21
-0.1666666666666666
 31
0.0
  0
ENDBLK
  5
40
100
AcDbEntity
  8
0
100
AcDbBlockEnd
  0
BLOCK
  5
42
100
AcDbEntity
  8
0
100
AcDbBlockBegin
  2
_DOTBLANK
 70
     0
 10
0.0
 20
0.0
 30
0.0
  3
_DOTBLANK
  1

  0
CIRCLE
  5
43
100
AcDbEntity
  8
0
  6
BYBLOCK
 62
     0
100
AcDbCircle
 10
0.0
 20
0.0
 30
0.0
 40
0.5
  0
LINE
  5
44
100
AcDbEntity
  8
0
  6
BYBLOCK
 62
     0
100
AcDbLine
 10
-0.5
 20
0.0
 30
0.0
 11
-1.0
 21
0.0
 31
0.0
  0
ENDBLK
  5
45
100
AcDbEntity
  8
0
100
AcDbBlockEnd
  0
BLOCK
  5
51
100
AcDbEntity
  8
MAIN0
  6
BYBLOCK
 62
2
100
AcDbBlockBegin
  2
M0
 70
    64
 10
0.0
 20
0.0
 30
0.0
  0
LINE
  5
52
100
AcDbEntity
  8
MAIN0
  6
BYBLOCK
 62
0
100
AcDbLine
 10
506.1717900000745
 20
296.6377843053833
 30
0.0000000000000000
 11
506.1717900000745
 21
290.6377843053833
 31
0.0000000000000000
  0
LINE
  5
53
100
AcDbEntity
  8
MAIN0
  6
BYBLOCK
 62
0
100
AcDbLine
 10
506.1717900000745
 20
293.6377843053833
 30
0.0000000000000000
 11
518.1717900000745
 21
293.6377843053833
 31
0.0000000000000000
  0
LINE
  5
54
100
AcDbEntity
  8
MAIN0
  6
BYBLOCK
 62
0
100
AcDbLine
 10
506.1717900000745
 20
293.6377843053834
 30
0.0000000000000000
 11
511.0014191315199
 21
294.9318795308960
 31
0.0000000000000000
  0
LINE
  5
55
100
AcDbEntity
  8
MAIN0
  6
BYBLOCK
 62
0
100
AcDbLine
 10
506.1717900000746
 20
293.6377843053833
 30
0.0000000000000000
 11
511.0014191315199
 21
292.3436890798707
 31
0.0000000000000000
  0
ENDBLK
  5
56
100
AcDbEntity
  8
MAIN0
  6
BYBLOCK
 62
2
100
AcDbBlockEnd
  0
BLOCK
  5
58
100
AcDbEntity
  8
MAIN0
  6
BYBLOCK
 62
2
100
AcDbBlockBegin
  2
M1
 70
    64
 10
0.0
 20
0.0
 30
0.0
  0
LINE
  5
59
100
AcDbEntity
  8
MAIN0
  6
BYBLOCK
 62
0
100
AcDbLine
 10
506.1717900000745
 20
170.6071699646169
 30
0.0000000000000000
 11
506.1717900000745
 21
164.6071699646168
 31
0.0000000000000000
  0
LINE
  5
5A
100
AcDbEntity
  8
MAIN0
  6
BYBLOCK
 62
0
100
AcDbLine
 10
506.1717900000745
 20
167.6071699646168
 30
0.0000000000000000
 11
518.1717900000745
 21
167.6071699646168
 31
0.0000000000000000
  0
LINE
  5
5B
100
AcDbEntity
  8
MAIN0
  6
BYBLOCK
 62
0
100
AcDbLine
 10
506.1717900000746
 20
167.6071699646169
 30
0.0000000000000000
 11
511.0014191315199
 21
168.9012651901295
 31
0.0000000000000000
  0
LINE
  5
5C
100
AcDbEntity
  8
MAIN0
  6
BYBLOCK
 62
0
100
AcDbLine
 10
506.1717900000746
 20
167.6071699646167
 30
0.0000000000000000
 11
511.0014191315199
 21
166.3130747391041
 31
0.0000000000000000
  0
ENDBLK
  5
5D
100
AcDbEntity
  8
MAIN0
  6
BYBLOCK
 62
2
100
AcDbBlockEnd
  0
BLOCK
  5
73
100
AcDbEntity
  8
MAIN0
  6
BYBLOCK
 62
4
100
AcDbBlockBegin
  2
M2
 70
    64
 10
0.0
 20
0.0
 30
0.0
  0
MTEXT
  5
74
100
AcDbEntity
  8
MAIN0
  6
BYBLOCK
 62
0
100
AcDbMText
 10
131.9357550881111
 20
291.4679280600864
 30
0.0000000000000000
 40
2.000000000000000
 41
0.0000000000000000
 71
     1
 72
     1
  1
{\H0.63x;(10.2kgf/cm )}
 11
1.000000000000000
 21
0.0000000000000000
 31
0.0000000000000000
  7
STANDARD
  0
MTEXT
  5
75
100
AcDbEntity
  8
MAIN0
  6
BYBLOCK
 62
0
100
AcDbMText
 10
144.8804343944017
 20
292.3436841297568
 30
0.0000000000000000
 40
1.399999976158142
 41
0.0000000000000000
 71
     1
 72
     1
  1
{\H0.82x;2}
 11
1.000000000000000
 21
0.0000000000000000
 31
0.0000000000000000
  7
STANDARD
  0
ENDBLK
  5
76
100
AcDbEntity
  8
MAIN0
  6
BYBLOCK
 62
4
100
AcDbBlockEnd
  0
BLOCK
  5
88
100
AcDbEntity
  8
MAIN0
  6
CONTINUOUS
 62
3
100
AcDbBlockBegin
  2
*D0
 70
    65
 10
0.0
 20
0.0
 30
0.0
  0
LINE
  5
89
100
AcDbEntity
  8
MAIN0
  6
BYBLOCK
 62
0
100
AcDbLine
 10
187.7600144003429
 20
149.9410169593785
 30
0.0000000000000000
 11
192.0397837950202
 21
138.1824471870311
 31
0.0000000000000000
  0
ARC
  5
8A
100
AcDbEntity
  8
MAIN0
  6
BYBLOCK
 62
0
100
AcDbCircle
 10
155.9460898330669
 20
237.3490563321905
 30
0.0000000000000000
 40
103.5309012240868
100
AcDbArc
 50
271.1068343622200
 51
288.8931656377849
  0
INSERT
  5
8B
100
AcDbEntity
  8
MAIN0
  6
BYBLOCK
 62
0
100
AcDbBlockReference
  2
_OPEN
 10
155.9460898330713
 20
133.8181551081037
 30
0.0000000000000000
 41
2.000000000000000
 42
2.000000000000000
 43
2.000000000000000
 50
180.0000000000025
  0
INSERT
  5
8C
100
AcDbEntity
  8
MAIN0
  6
BYBLOCK
 62
0
100
AcDbBlockReference
  2
_OPEN
 10
191.3557435083688
 20
140.0618324286028
 30
0.0000000000000000
 41
2.000000000000000
 42
2.000000000000000
 43
2.000000000000000
 50
20.00000000000239
  0
MTEXT
  5
8D
100
AcDbEntity
  8
MAIN0
  6
BYBLOCK
 62
0
100
AcDbMText
 10
176.7805789248839
 20
138.0298870484425
 30
0.0000000000000000
 40
3.099999904632568
 41
0.0000000000000000
 71
     5
 72
     1
  1
\A1;20\U+00B0
 11
0.9786981396407457
 21
0.2053045334709963
 31
0.0000000000000000
  7
STANDARD
  0
ENDBLK
  5
8E
100
AcDbEntity
  8
MAIN0
  6
CONTINUOUS
 62
3
100
AcDbBlockEnd
  0
BLOCK
  5
90
100
AcDbEntity
  8
MAIN0
  6
CONTINUOUS
 62
3
100
AcDbBlockBegin
  2
*D1
 70
    65
 10
0.0
 20
0.0
 30
0.0
  0
LINE
  5
91
100
AcDbEntity
  8
MAIN0
  6
BYBLOCK
 62
0
100
AcDbLine
 10
187.7600144003429
 20
149.9410169593785
 30
0.0000000000000000
 11
192.0397837950202
 21
138.1824471870311
 31
0.0000000000000000
  0
ARC
  5
92
100
AcDbEntity
  8
MAIN0
  6
BYBLOCK
 62
0
100
AcDbCircle
 10
155.9460898330669
 20
237.3490563321905
 30
0.0000000000000000
 40
103.5309012240868
100
AcDbArc
 50
291.1068343622199
 51
313.8931656377876
  0
INSERT
  5
93
100
AcDbEntity
  8
MAIN0
  6
BYBLOCK
 62
0
100
AcDbBlockReference
  2
_OPEN
 10
191.3557435083688
 20
140.0618324286028
 30
0.0000000000000000
 41
2.000000000000000
 42
2.000000000000000
 43
2.000000000000000
 50
200.0000000000024
  0
INSERT
  5
94
100
AcDbEntity
  8
MAIN0
  6
BYBLOCK
 62
0
100
AcDbBlockReference
  2
_OPEN
 10
229.1534921509797
 20
164.1416540142905
 30
0.0000000000000000
 41
2.000000000000000
 42
2.000000000000000
 43
2.000000000000000
 50
45.00000000000506
  0
MTEXT
  5
95
100
AcDbEntity
  8
MAIN0
  6
BYBLOCK
 62
0
100
AcDbMText
 10
214.2033162618141
 20
154.2559224897333
 30
0.0000000000000000
 40
3.099999904632568
 41
0.0000000000000000
 71
     5
 72
     1
  1
\A1;25\U+00B0
 11
0.8188056353572379
 21
0.5740708418890738
 31
0.0000000000000000
  7
STANDARD
  0
ENDBLK
  5
96
100
AcDbEntity
  8
MAIN0
  6
CONTINUOUS
 62
3
100
AcDbBlockEnd
  0
BLOCK
  5
98
100
AcDbEntity
  8
MAIN0
  6
CONTINUOUS
 62
3
100
AcDbBlockBegin
  2
*D2
 70
    65
 10
0.0
 20
0.0
 30
0.0
  0
ARC
  5
99
100
AcDbEntity
  8
MAIN0
  6
BYBLOCK
 62
0
100
AcDbCircle
 10
155.9460898330669
 20
237.3490563321905
 30
0.0000000000000000
 40
103.5309012240868
100
AcDbArc
 50
316.1068343622225
 51
358.8931656377825
  0
INSERT
  5
9A
100
AcDbEntity
  8
MAIN0
  6
BYBLOCK
 62
0
100
AcDbBlockReference
  2
_OPEN
 10
229.1534921509797
 20
164.1416540142905
 30
0.0000000000000000
 41
2.000000000000000
 42
2.000000000000000
 43
2.000000000000000
 50
225.0000000000050
  0
INSERT
  5
9B
100
AcDbEntity
  8
MAIN0
  6
BYBLOCK
 62
0
100
AcDbBlockReference
  2
_OPEN
 10
259.4769910571537
 20
237.3490563321904
 30
0.0000000000000000
 41
2.000000000000000
 42
2.000000000000000
 43
2.000000000000000
 50
90.00000000000000
  0
MTEXT
  5
9C
100
AcDbEntity
  8
MAIN0
  6
BYBLOCK
 62
0
100
AcDbMText
 10
249.7022174588560
 20
198.5139967140107
 30
0.0000000000000000
 40
3.099999904632568
 41
0.0000000000000000
 71
     5
 72
     1
  1
\A1;45\U+00B0
 11
0.3826834323650492
 21
0.9238795325113036
 31
0.0000000000000000
  7
STANDARD
  0
ENDBLK
  5
9D
100
AcDbEntity
  8
MAIN0
  6
CONTINUOUS
 62
3
100
AcDbBlockEnd
  0
BLOCK
  5
9F
100
AcDbEntity
  8
MAIN0
  6
CONTINUOUS
 62
3
100
AcDbBlockBegin
  2
*D3
 70
    65
 10
0.0
 20
0.0
 30
0.0
  0
LINE
  5
A0
100
AcDbEntity
  8
MAIN0
  6
BYBLOCK
 62
0
100
AcDbLine
 10
325.9460898330704
 20
144.3490026718717
 30
0.0000000000000000
 11
325.9460898330704
 21
133.2843421876349
 31
0.0000000000000000
  0
LINE
  5
A1
100
AcDbEntity
  8
MAIN0
  6
BYBLOCK
 62
0
100
AcDbLine
 10
327.9460898330704
 20
135.2843421876349
 30
0.0000000000000000
 11
457.9460898330661
 21
135.2843421876349
 31
0.0000000000000000
  0
INSERT
  5
A2
100
AcDbEntity
  8
MAIN0
  6
BYBLOCK
 62
0
100
AcDbBlockReference
  2
_OPEN
 10
325.9460898330704
 20
135.2843421876349
 30
0.0000000000000000
 41
2.000000000000000
 42
2.000000000000000
 43
2.000000000000000
 50
180.0000000000000
  0
INSERT
  5
A3
100
AcDbEntity
  8
MAIN0
  6
BYBLOCK
 62
0
100
AcDbBlockReference
  2
_OPEN
 10
459.9460898330661
 20
135.2843421876349
 30
0.0000000000000000
 41
2.000000000000000
 42
2.000000000000000
 43
2.000000000000000
 50
0.0000000000000000
  0
LINE
  5
A4
100
AcDbEntity
  8
MAIN0
  6
BYBLOCK
 62
0
100
AcDbLine
 10
459.9460898330661
 20
154.5490563202698
 30
0.0000000000000000
 11
459.9460898330661
 21
133.2843421876349
 31
0.0000000000000000
  0
MTEXT
  5
A5
100
AcDbEntity
  8
MAIN0
  6
BYBLOCK
 62
0
100
AcDbMText
 10
392.9460898330682
 20
137.3343421399511
 30
0.0000000000000000
 40
3.099999904632568
 41
0.0000000000000000
 71
     5
 72
     1
  1
\A1;134
 11
1.000000000000000
 21
0.0000000000000000
 31
0.0000000000000000
  7
STANDARD
  0
ENDBLK
  5
A6
100
AcDbEntity
  8
MAIN0
  6
CONTINUOUS
 62
3
100
AcDbBlockEnd
  0
BLOCK
  5
A8
100
AcDbEntity
  8
MAIN0
  6
CONTINUOUS
 62
3
100
AcDbBlockBegin
  2
*D4
 70
    65
 10
0.0
 20
0.0
 30
0.0
  0
LINE
  5
A9
100
AcDbEntity
  8
MAIN0
  6
BYBLOCK
 62
0
100
AcDbLine
 10
459.9460898330661
 20
154.5490563202698
 30
0.0000000000000000
 11
459.9460898330661
 21
133.2843421876349
 31
0.0000000000000000
  0
LINE
  5
AA
100
AcDbEntity
  8
MAIN0
  6
BYBLOCK
 62
0
100
AcDbLine
 10
461.9460898330661
 20
135.2843421876349
 30
0.0000000000000000
 11
475.9460898330667
 21
135.2843421876349
 31
0.0000000000000000
  0
INSERT
  5
AB
100
AcDbEntity
  8
MAIN0
  6
BYBLOCK
 62
0
100
AcDbBlockReference
  2
_OPEN
 10
459.9460898330661
 20
135.2843421876349
 30
0.0000000000000000
 41
2.000000000000000
 42
2.000000000000000
 43
2.000000000000000
 50
180.0000000000000
  0
INSERT
  5
AC
100
AcDbEntity
  8
MAIN0
  6
BYBLOCK
 62
0
100
AcDbBlockReference
  2
_OPEN
 10
477.9460898330667
 20
135.2843421876349
 30
0.0000000000000000
 41
2.000000000000000
 42
2.000000000000000
 43
2.000000000000000
 50
0.0000000000000000
  0
LINE
  5
AD
100
AcDbEntity
  8
MAIN0
  6
BYBLOCK
 62
0
100
AcDbLine
 10
477.9460898330667
 20
156.5490563202698
 30
0.0000000000000000
 11
477.9460898330667
 21
133.2843421876349
 31
0.0000000000000000
  0
MTEXT
  5
AE
100
AcDbEntity
  8
MAIN0
  6
BYBLOCK
 62
0
100
AcDbMText
 10
468.9460898330664
 20
137.3343421399511
 30
0.0000000000000000
 40
3.099999904632568
 41
0.0000000000000000
 71
     5
 72
     1
  1
\A1;18
 11
1.000000000000000
 21
0.0000000000000000
 31
0.0000000000000000
  7
STANDARD
  0
ENDBLK
  5
AF
100
AcDbEntity
  8
MAIN0
  6
CONTINUOUS
 62
3
100
AcDbBlockEnd
  0
BLOCK
  5
CA
100
AcDbEntity
  8
MAIN0
  6
CONTINUOUS
 62
3
100
AcDbBlockBegin
  2
*D5
 70
    65
 10
0.0
 20
0.0
 30
0.0
  0
LINE
  5
CB
100
AcDbEntity
  8
MAIN0
  6
BYBLOCK
 62
0
100
AcDbLine
 10
373.9460898330667
 20
325.9500504422983
 30
0.0000000000000000
 11
373.9460898330667
 21
374.7352381198757
 31
0.0000000000000000
  0
LINE
  5
CC
100
AcDbEntity
  8
MAIN0
  6
BYBLOCK
 62
0
100
AcDbLine
 10
375.9460898330667
 20
372.7352381198757
 30
0.0000000000000000
 11
408.9460898330667
 21
372.7352381198757
 31
0.0000000000000000
  0
INSERT
  5
CD
100
AcDbEntity
  8
MAIN0
  6
BYBLOCK
 62
0
100
AcDbBlockReference
  2
_OPEN
 10
373.9460898330667
 20
372.7352381198757
 30
0.0000000000000000
 41
2.000000000000000
 42
2.000000000000000
 43
2.000000000000000
 50
180.0000000000000
  0
INSERT
  5
CE
100
AcDbEntity
  8
MAIN0
  6
BYBLOCK
 62
0
100
AcDbBlockReference
  2
_OPEN
 10
410.9460898330667
 20
372.7352381198757
 30
0.0000000000000000
 41
2.000000000000000
 42
2.000000000000000
 43
2.000000000000000
 50
0.0000000000000000
  0
LINE
  5
CF
100
AcDbEntity
  8
MAIN0
  6
BYBLOCK
 62
0
100
AcDbLine
 10
410.9460898330667
 20
325.1490563441118
 30
0.0000000000000000
 11
410.9460898330667
 21
374.7352381198757
 31
0.0000000000000000
  0
MTEXT
  5
D0
100
AcDbEntity
  8
MAIN0
  6
BYBLOCK
 62
0
100
AcDbMText
 10
392.4460898330667
 20
374.7852380721920
 30
0.0000000000000000
 40
3.099999904632568
 41
0.0000000000000000
 71
     5
 72
     1
  1
\A1;37
 11
1.000000000000000
 21
0.0000000000000000
 31
0.0000000000000000
  7
STANDARD
  0
ENDBLK
  5
D1
100
AcDbEntity
  8
MAIN0
  6
CONTINUOUS
 62
3
100
AcDbBlockEnd
  0
BLOCK
  5
D3
100
AcDbEntity
  8
MAIN0
  6
CONTINUOUS
 62
3
100
AcDbBlockBegin
  2
*D6
 70
    65
 10
0.0
 20
0.0
 30
0.0
  0
LINE
  5
D4
100
AcDbEntity
  8
MAIN0
  6
BYBLOCK
 62
0
100
AcDbLine
 10
410.9460898330667
 20
325.1490563441118
 30
0.0000000000000000
 11
410.9460898330667
 21
374.7352381198757
 31
0.0000000000000000
  0
LINE
  5
D5
100
AcDbEntity
  8
MAIN0
  6
BYBLOCK
 62
0
100
AcDbLine
 10
412.9460898330667
 20
372.7352381198757
 30
0.0000000000000000
 11
457.9460898330661
 21
372.7352381198757
 31
0.0000000000000000
  0
INSERT
  5
D6
100
AcDbEntity
  8
MAIN0
  6
BYBLOCK
 62
0
100
AcDbBlockReference
  2
_OPEN
 10
410.9460898330667
 20
372.7352381198757
 30
0.0000000000000000
 41
2.000000000000000
 42
2.000000000000000
 43
2.000000000000000
 50
180.0000000000000
  0
INSERT
  5
D7
100
AcDbEntity
  8
MAIN0
  6
BYBLOCK
 62
0
100
AcDbBlockReference
  2
_OPEN
 10
459.9460898330661
 20
372.7352381198757
 30
0.0000000000000000
 41
2.000000000000000
 42
2.000000000000000
 43
2.000000000000000
 50
0.0000000000000000
  0
LINE
  5
D8
100
AcDbEntity
  8
MAIN0
  6
BYBLOCK
 62
0
100
AcDbLine
 10
459.9460898330661
 20
321.1490563441116
 30
0.0000000000000000
 11
459.9460898330661
 21
374.7352381198757
 31
0.0000000000000000
  0
MTEXT
  5
D9
100
AcDbEntity
  8
MAIN0
  6
BYBLOCK
 62
0
100
AcDbMText
 10
435.4460898330664
 20
374.7852380721920
 30
0.0000000000000000
 40
3.099999904632568
 41
0.0000000000000000
 71
     5
 72
     1
  1
\A1;MIN 49
 11
1.000000000000000
 21
0.0000000000000000
 31
0.0000000000000000
  7
STANDARD
  0
ENDBLK
  5
DA
100
AcDbEntity
  8
MAIN0
  6
CONTINUOUS
 62
3
100
AcDbBlockEnd
  0
BLOCK
  5
DC
100
AcDbEntity
  8
MAIN0
  6
CONTINUOUS
 62
3
100
AcDbBlockBegin
  2
D7
 70
    64
 10
0.0
 20
0.0
 30
0.0
  0
LINE
  5
DD
100
AcDbEntity
  8
MAIN0
  6
BYBLOCK
 62
0
100
AcDbLine
 10
8.828476600611452
 20
-31.02931955680496
 30
0.0000000000000000
 11
8.828476600611452
 21
-47.50000000000000
 31
0.0000000000000000
  0
LINE
  5
DE
100
AcDbEntity
  8
MAIN0
  6
BYBLOCK
 62
0
100
AcDbLine
 10
9.428476624453310
 20
-45.50000000000000
 30
0.0000000000000000
 11
8.828476600611452
 21
-47.50000000000000
 31
0.0000000000000000
  0
LINE
  5
DF
100
AcDbEntity
  8
MAIN0
  6
BYBLOCK
 62
0
100
AcDbLine
 10
8.828476600611452
 20
-47.50000000000000
 30
0.0000000000000000
 11
8.228476576769594
 21
-45.50000000000000
 31
0.0000000000000000
  0
LINE
  5
E0
100
AcDbEntity
  8
MAIN0
  6
BYBLOCK
 62
0
100
AcDbLine
 10
-24.12145032611801
 20
-47.50000000000000
 30
0.0000000000000000
 11
10.82847660061145
 21
-47.50000000000000
 31
0.0000000000000000
  0
MTEXT
  5
E1
100
AcDbEntity
  8
MAIN0
  6
BYBLOCK
 62
0
100
AcDbMText
 10
6.778476648295168
 20
-36.42931954655232
 30
0.0000000000000000
 40
3.099999904632568
 41
0.0000000000000000
 71
     5
 72
     1
  1
\A1;\U+220595
 11
6.123233995736766e-017
 21
1.000000000000000
 31
0.0000000000000000
  7
STANDARD
  0
ENDBLK
  5
E2
100
AcDbEntity
  8
MAIN0
  6
CONTINUOUS
 62
3
100
AcDbBlockEnd
  0
BLOCK
  5
13D
100
AcDbEntity
  8
MAIN0
  6
CONTINUOUS
 62
3
100
AcDbBlockBegin
  2
*D8
 70
    65
 10
0.0
 20
0.0
 30
0.0
  0
LINE
  5
13E
100
AcDbEntity
  8
MAIN0
  6
BYBLOCK
 62
0
100
AcDbLine
 10
540.8475980276205
 20
118.4228946660498
 30
0.0000000000000000
 11
540.8475980276207
 21
92.16654752583548
 31
0.0000000000000000
  0
LINE
  5
13F
100
AcDbEntity
  8
MAIN0
  6
BYBLOCK
 62
0
100
AcDbLine
 10
542.8475980276207
 20
94.16654752583548
 30
0.0000000000000000
 11
570.8475980276206
 21
94.16654752583548
 31
0.0000000000000000
  0
INSERT
  5
140
100
AcDbEntity
  8
MAIN0
  6
BYBLOCK
 62
0
100
AcDbBlockReference
  2
_OPEN
 10
540.8475980276207
 20
94.16654752583548
 30
0.0000000000000000
 41
2.000000000000000
 42
2.000000000000000
 43
2.000000000000000
 50
180.0000000000000
  0
INSERT
  5
141
100
AcDbEntity
  8
MAIN0
  6
BYBLOCK
 62
0
100
AcDbBlockReference
  2
_OPEN
 10
572.8475980276206
 20
94.16654752583548
 30
0.0000000000000000
 41
2.000000000000000
 42
2.000000000000000
 43
2.000000000000000
 50
0.0000000000000000
  0
LINE
  5
142
100
AcDbEntity
  8
MAIN0
  6
BYBLOCK
 62
0
100
AcDbLine
 10
572.8475980276205
 20
118.3039459680119
 30
0.0000000000000000
 11
572.8475980276207
 21
92.16654752583548
 31
0.0000000000000000
  0
MTEXT
  5
143
100
AcDbEntity
  8
MAIN0
  6
BYBLOCK
 62
0
100
AcDbMText
 10
556.8475980089943
 20
96.21654747815177
 30
0.0000000000000000
 40
3.099999904632568
 41
0.0000000000000000
 71
     5
 72
     1
  1
\A1;32\H0.903226x;\S 0^ -0.4;
 11
1.000000000000000
 21
0.0000000000000000
 31
0.0000000000000000
  7
STANDARD
  0
ENDBLK
  5
144
100
AcDbEntity
  8
MAIN0
  6
CONTINUOUS
 62
3
100
AcDbBlockEnd
  0
BLOCK
  5
1C6
100
AcDbEntity
  8
MAIN0
  6
CONTINUOUS
 62
3
100
AcDbBlockBegin
  2
*D9
 70
    65
 10
0.0
 20
0.0
 30
0.0
  0
LINE
  5
1C7
100
AcDbEntity
  8
MAIN0
  6
BYBLOCK
 62
0
100
AcDbLine
 10
519.8800644406492
 20
250.3490563321907
 30
0.0000000000000000
 11
536.9460898330661
 21
250.3490563321907
 31
0.0000000000000000
  0
LINE
  5
1C8
100
AcDbEntity
  8
MAIN0
  6
BYBLOCK
 62
0
100
AcDbLine
 10
534.9460898330661
 20
248.3490563321907
 30
0.0000000000000000
 11
534.9460898330661
 21
226.3490563321907
 31
0.0000000000000000
  0
INSERT
  5
1C9
100
AcDbEntity
  8
MAIN0
  6
BYBLOCK
 62
0
100
AcDbBlockReference
  2
_OPEN
 10
534.9460898330661
 20
250.3490563321907
 30
0.0000000000000000
 41
2.000000000000000
 42
2.000000000000000
 43
2.000000000000000
 50
90.00000000000000
  0
INSERT
  5
1CA
100
AcDbEntity
  8
MAIN0
  6
BYBLOCK
 62
0
100
AcDbBlockReference
  2
_OPEN
 10
534.9460898330661
 20
224.3490563321907
 30
0.0000000000000000
 41
2.000000000000000
 42
2.000000000000000
 43
2.000000000000000
 50
270.0000000000000
  0
LINE
  5
1CB
100
AcDbEntity
  8
MAIN0
  6
BYBLOCK
 62
0
100
AcDbLine
 10
519.8800644406492
 20
224.3490563321907
 30
0.0000000000000000
 11
536.9460898330661
 21
224.3490563321907
 31
0.0000000000000000
  0
MTEXT
  5
1CC
100
AcDbEntity
  8
MAIN0
  6
BYBLOCK
 62
0
100
AcDbMText
 10
532.8960898807499
 20
237.3490563321907
 30
0.0000000000000000
 40
3.099999904632568
 41
0.0000000000000000
 71
     5
 72
     1
  1
\A1;\U+220526H8
 11
6.123233995736766e-017
 21
1.000000000000000
 31
0.0000000000000000
  7
STANDARD
  0
ENDBLK
  5
1CD
100
AcDbEntity
  8
MAIN0
  6
CONTINUOUS
 62
3
100
AcDbBlockEnd
  0
BLOCK
  5
1CF
100
AcDbEntity
  8
MAIN0
  6
CONTINUOUS
 62
3
100
AcDbBlockBegin
  2
*D10
 70
    65
 10
0.0
 20
0.0
 30
0.0
  0
LINE
  5
1D0
100
AcDbEntity
  8
MAIN0
  6
BYBLOCK
 62
0
100
AcDbLine
 10
506.5441659381838
 20
255.3490563321907
 30
0.0000000000000000
 11
546.9460898330661
 21
255.3490563321907
 31
0.0000000000000000
  0
LINE
  5
1D1
100
AcDbEntity
  8
MAIN0
  6
BYBLOCK
 62
0
100
AcDbLine
 10
544.9460898330661
 20
253.3490563321907
 30
0.0000000000000000
 11
544.9460898330661
 21
221.3490563321907
 31
0.0000000000000000
  0
INSERT
  5
1D2
100
AcDbEntity
  8
MAIN0
  6
BYBLOCK
 62
0
100
AcDbBlockReference
  2
_OPEN
 10
544.9460898330661
 20
255.3490563321907
 30
0.0000000000000000
 41
2.000000000000000
 42
2.000000000000000
 43
2.000000000000000
 50
90.00000000000000
  0
INSERT
  5
1D3
100
AcDbEntity
  8
MAIN0
  6
BYBLOCK
 62
0
100
AcDbBlockReference
  2
_OPEN
 10
544.9460898330661
 20
219.3490563321907
 30
0.0000000000000000
 41
2.000000000000000
 42
2.000000000000000
 43
2.000000000000000
 50
270.0000000000000
  0
LINE
  5
1D4
100
AcDbEntity
  8
MAIN0
  6
BYBLOCK
 62
0
100
AcDbLine
 10
506.5129142692538
 20
219.3490563321907
 30
0.0000000000000000
 11
546.9460898330661
 21
219.3490563321907
 31
0.0000000000000000
  0
MTEXT
  5
1D5
100
AcDbEntity
  8
MAIN0
  6
BYBLOCK
 62
0
100
AcDbMText
 10
542.8960898807499
 20
237.3490563321907
 30
0.0000000000000000
 40
3.099999904632568
 41
0.0000000000000000
 71
     5
 72
     1
  1
\A1;\U+220536
 11
6.123233995736766e-017
 21
1.000000000000000
 31
0.0000000000000000
  7
STANDARD
  0
ENDBLK
  5
1D6
100
AcDbEntity
  8
MAIN0
  6
CONTINUOUS
 62
3
100
AcDbBlockEnd
  0
BLOCK
  5
1D8
100
AcDbEntity
  8
MAIN0
  6
CONTINUOUS
 62
3
100
AcDbBlockBegin
  2
*D11
 70
    65
 10
0.0
 20
0.0
 30
0.0
  0
LINE
  5
1D9
100
AcDbEntity
  8
MAIN0
  6
BYBLOCK
 62
0
100
AcDbLine
 10
475.7460898449871
 20
211.8490563321907
 30
0.0000000000000000
 11
556.9460898330661
 21
211.8490563321907
 31
0.0000000000000000
  0
LINE
  5
1DA
100
AcDbEntity
  8
MAIN0
  6
BYBLOCK
 62
0
100
AcDbLine
 10
554.9460898330661
 20
213.8490563321907
 30
0.0000000000000000
 11
554.9460898330661
 21
260.8490563321907
 31
0.0000000000000000
  0
INSERT
  5
1DB
100
AcDbEntity
  8
MAIN0
  6
BYBLOCK
 62
0
100
AcDbBlockReference
  2
_OPEN
 10
554.9460898330661
 20
211.8490563321907
 30
0.0000000000000000
 41
2.000000000000000
 42
2.000000000000000
 43
2.000000000000000
 50
270.0000000000000
  0
INSERT
  5
1DC
100
AcDbEntity
  8
MAIN0
  6
BYBLOCK
 62
0
100
AcDbBlockReference
  2
_OPEN
 10
554.9460898330661
 20
262.8490563321907
 30
0.0000000000000000
 41
2.000000000000000
 42
2.000000000000000
 43
2.000000000000000
 50
90.00000000000000
  0
LINE
  5
1DD
100
AcDbEntity
  8
MAIN0
  6
BYBLOCK
 62
0
100
AcDbLine
 10
475.7460898449870
 20
262.8490563321907
 30
0.0000000000000000
 11
556.9460898330661
 21
262.8490563321907
 31
0.0000000000000000
  0
MTEXT
  5
1DE
100
AcDbEntity
  8
MAIN0
  6
BYBLOCK
 62
0
100
AcDbMText
 10
552.8960898807499
 20
237.3490563321907
 30
0.0000000000000000
 40
3.099999904632568
 41
0.0000000000000000
 71
     5
 72
     1
  1
\A1;\U+220551
 11
6.123233995736766e-017
 21
1.000000000000000
 31
0.0000000000000000
  7
STANDARD
  0
ENDBLK
  5
1DF
100
AcDbEntity
  8
MAIN0
  6
CONTINUOUS
 62
3
100
AcDbBlockEnd
  0
BLOCK
  5
1E1
100
AcDbEntity
  8
MAIN0
  6
CONTINUOUS
 62
3
100
AcDbBlockBegin
  2
*D12
 70
    65
 10
0.0
 20
0.0
 30
0.0
  0
LINE
  5
1E2
100
AcDbEntity
  8
MAIN0
  6
BYBLOCK
 62
0
100
AcDbLine
 10
459.9460898330661
 20
154.5490563202698
 30
0.0000000000000000
 11
459.9460898330661
 21
122.4579058261489
 31
0.0000000000000000
  0
LINE
  5
1E3
100
AcDbEntity
  8
MAIN0
  6
BYBLOCK
 62
0
100
AcDbLine
 10
461.9460898330661
 20
124.4579058261489
 30
0.0000000000000000
 11
517.9460898330661
 21
124.4579058261489
 31
0.0000000000000000
  0
INSERT
  5
1E4
100
AcDbEntity
  8
MAIN0
  6
BYBLOCK
 62
0
100
AcDbBlockReference
  2
_OPEN
 10
459.9460898330661
 20
124.4579058261489
 30
0.0000000000000000
 41
2.000000000000000
 42
2.000000000000000
 43
2.000000000000000
 50
180.0000000000000
  0
INSERT
  5
1E5
100
AcDbEntity
  8
MAIN0
  6
BYBLOCK
 62
0
100
AcDbBlockReference
  2
_OPEN
 10
519.9460898330661
 20
124.4579058261489
 30
0.0000000000000000
 41
2.000000000000000
 42
2.000000000000000
 43
2.000000000000000
 50
0.0000000000000000
  0
LINE
  5
1E6
100
AcDbEntity
  8
MAIN0
  6
BYBLOCK
 62
0
100
AcDbLine
 10
519.9460898330661
 20
219.8490563321907
 30
0.0000000000000000
 11
519.9460898330661
 21
122.4579058261489
 31
0.0000000000000000
  0
MTEXT
  5
1E7
100
AcDbEntity
  8
MAIN0
  6
BYBLOCK
 62
0
100
AcDbMText
 10
489.9460898330661
 20
126.5079057784651
 30
0.0000000000000000
 40
3.099999904632568
 41
0.0000000000000000
 71
     5
 72
     1
  1
\A1;MAX 60
 11
1.000000000000000
 21
0.0000000000000000
 31
0.0000000000000000
  7
STANDARD
  0
ENDBLK
  5
1E8
100
AcDbEntity
  8
MAIN0
  6
CONTINUOUS
 62
3
100
AcDbBlockEnd
  0
BLOCK
  5
1EA
100
AcDbEntity
  8
MAIN0
  6
CONTINUOUS
 62
3
100
AcDbBlockBegin
  2
*D13
 70
    65
 10
0.0
 20
0.0
 30
0.0
  0
LINE
  5
1EB
100
AcDbEntity
  8
MAIN0
  6
BYBLOCK
 62
0
100
AcDbLine
 10
511.9460898330660
 20
223.5490563202698
 30
0.0000000000000000
 11
511.9460898330660
 21
199.6925530882084
 31
0.0000000000000000
  0
LINE
  5
1EC
100
AcDbEntity
  8
MAIN0
  6
BYBLOCK
 62
0
100
AcDbLine
 10
511.9460898330660
 20
201.6925530882084
 30
0.0000000000000000
 11
519.9460898330661
 21
201.6925530882084
 31
0.0000000000000000
  0
INSERT
  5
1ED
100
AcDbEntity
  8
MAIN0
  6
BYBLOCK
 62
0
100
AcDbBlockReference
  2
_OPEN
 10
511.9460898330660
 20
201.6925530882084
 30
0.0000000000000000
 41
2.000000000000000
 42
2.000000000000000
 43
2.000000000000000
 50
0.0000000000000000
  0
INSERT
  5
1EE
100
AcDbEntity
  8
MAIN0
  6
BYBLOCK
 62
0
100
AcDbBlockReference
  2
_OPEN
 10
519.9460898330661
 20
201.6925530882084
 30
0.0000000000000000
 41
2.000000000000000
 42
2.000000000000000
 43
2.000000000000000
 50
180.0000000000000
  0
LINE
  5
1EF
100
AcDbEntity
  8
MAIN0
  6
BYBLOCK
 62
0
100
AcDbLine
 10
509.9460898330660
 20
201.6925530882084
 30
0.0000000000000000
 11
508.9460898330660
 21
201.6925530882084
 31
0.0000000000000000
  0
LINE
  5
1F0
100
AcDbEntity
  8
MAIN0
  6
BYBLOCK
 62
0
100
AcDbLine
 10
521.9460898330661
 20
201.6925530882084
 30
0.0000000000000000
 11
522.9460898330661
 21
201.6925530882084
 31
0.0000000000000000
  0
LINE
  5
1F1
100
AcDbEntity
  8
MAIN0
  6
BYBLOCK
 62
0
100
AcDbLine
 10
519.9460898330661
 20
220.5490563202699
 30
0.0000000000000000
 11
519.9460898330661
 21
199.6925530882084
 31
0.0000000000000000
  0
MTEXT
  5
1F2
100
AcDbEntity
  8
MAIN0
  6
BYBLOCK
 62
0
100
AcDbMText
 10
515.9460898330660
 20
203.7425530405247
 30
0.0000000000000000
 40
3.099999904632568
 41
0.0000000000000000
 71
     5
 72
     1
  1
\A1;8
 11
1.000000000000000
 21
0.0000000000000000
 31
0.0000000000000000
  7
STANDARD
  0
ENDBLK
  5
1F3
100
AcDbEntity
  8
MAIN0
  6
CONTINUOUS
 62
3
100
AcDbBlockEnd
  0
BLOCK
  5
1F5
100
AcDbEntity
  8
MAIN0
  6
CONTINUOUS
 62
3
100
AcDbBlockBegin
  2
*D14
 70
    65
 10
0.0
 20
0.0
 30
0.0
  0
LINE
  5
1F6
100
AcDbEntity
  8
MAIN0
  6
BYBLOCK
 62
0
100
AcDbLine
 10
484.9460898330661
 20
224.5490563202698
 30
0.0000000000000000
 11
484.9460898330661
 21
175.1090339763402
 31
0.0000000000000000
  0
LINE
  5
1F7
100
AcDbEntity
  8
MAIN0
  6
BYBLOCK
 62
0
100
AcDbLine
 10
486.9460898330661
 20
177.1090339763402
 30
0.0000000000000000
 11
517.9460898330661
 21
177.1090339763402
 31
0.0000000000000000
  0
INSERT
  5
1F8
100
AcDbEntity
  8
MAIN0
  6
BYBLOCK
 62
0
100
AcDbBlockReference
  2
_OPEN
 10
484.9460898330661
 20
177.1090339763402
 30
0.0000000000000000
 41
2.000000000000000
 42
2.000000000000000
 43
2.000000000000000
 50
180.0000000000000
  0
INSERT
  5
1F9
100
AcDbEntity
  8
MAIN0
  6
BYBLOCK
 62
0
100
AcDbBlockReference
  2
_OPEN
 10
519.9460898330661
 20
177.1090339763402
 30
0.0000000000000000
 41
2.000000000000000
 42
2.000000000000000
 43
2.000000000000000
 50
0.0000000000000000
  0
LINE
  5
1FA
100
AcDbEntity
  8
MAIN0
  6
BYBLOCK
 62
0
100
AcDbLine
 10
519.9460898330661
 20
220.5490563202699
 30
0.0000000000000000
 11
519.9460898330661
 21
175.1090339763402
 31
0.0000000000000000
  0
MTEXT
  5
1FB
100
AcDbEntity
  8
MAIN0
  6
BYBLOCK
 62
0
100
AcDbMText
 10
502.4460898330661
 20
179.1590339286565
 30
0.0000000000000000
 40
3.099999904632568
 41
0.0000000000000000
 71
     5
 72
     1
  1
\A1;35
 11
1.000000000000000
 21
0.0000000000000000
 31
0.0000000000000000
  7
STANDARD
  0
ENDBLK
  5
1FC
100
AcDbEntity
  8
MAIN0
  6
CONTINUOUS
 62
3
100
AcDbBlockEnd
  0
BLOCK
  5
1FE
100
AcDbEntity
  8
MAIN0
  6
CONTINUOUS
 62
3
100
AcDbBlockBegin
  2
*D15
 70
    65
 10
0.0
 20
0.0
 30
0.0
  0
LINE
  5
1FF
100
AcDbEntity
  8
MAIN0
  6
BYBLOCK
 62
0
100
AcDbLine
 10
458.7460898449871
 20
153.3490563321907
 30
0.0000000000000000
 11
576.9460898330661
 21
153.3490563321907
 31
0.0000000000000000
  0
LINE
  5
200
100
AcDbEntity
  8
MAIN0
  6
BYBLOCK
 62
0
100
AcDbLine
 10
574.9460898330661
 20
155.3490563321907
 30
0.0000000000000000
 11
574.9460898330661
 21
319.3490563321907
 31
0.0000000000000000
  0
INSERT
  5
201
100
AcDbEntity
  8
MAIN0
  6
BYBLOCK
 62
0
100
AcDbBlockReference
  2
_OPEN
 10
574.9460898330661
 20
153.3490563321907
 30
0.0000000000000000
 41
2.000000000000000
 42
2.000000000000000
 43
2.000000000000000
 50
270.0000000000000
  0
INSERT
  5
202
100
AcDbEntity
  8
MAIN0
  6
BYBLOCK
 62
0
100
AcDbBlockReference
  2
_OPEN
 10
574.9460898330661
 20
321.3490563321907
 30
0.0000000000000000
 41
2.000000000000000
 42
2.000000000000000
 43
2.000000000000000
 50
90.00000000000000
  0
LINE
  5
203
100
AcDbEntity
  8
MAIN0
  6
BYBLOCK
 62
0
100
AcDbLine
 10
459.7460898449871
 20
321.3490563321907
 30
0.0000000000000000
 11
576.9460898330661
 21
321.3490563321907
 31
0.0000000000000000
  0
MTEXT
  5
204
100
AcDbEntity
  8
MAIN0
  6
BYBLOCK
 62
0
100
AcDbMText
 10
572.8960898807499
 20
237.3490563321907
 30
0.0000000000000000
 40
3.099999904632568
 41
0.0000000000000000
 71
     5
 72
     1
  1
\A1;\U+2205168h7
 11
6.123233995736766e-017
 21
1.000000000000000
 31
0.0000000000000000
  7
STANDARD
  0
ENDBLK
  5
205
100
AcDbEntity
  8
MAIN0
  6
CONTINUOUS
 62
3
100
AcDbBlockEnd
  0
BLOCK
  5
207
100
AcDbEntity
  8
MAIN0
  6
CONTINUOUS
 62
3
100
AcDbBlockBegin
  2
*D16
 70
    65
 10
0.0
 20
0.0
 30
0.0
  0
LINE
  5
208
100
AcDbEntity
  8
MAIN0
  6
BYBLOCK
 62
0
100
AcDbLine
 10
461.9460898330661
 20
177.1090339763402
 30
0.0000000000000000
 11
472.9460898330661
 21
177.1090339763402
 31
0.0000000000000000
  0
INSERT
  5
209
100
AcDbEntity
  8
MAIN0
  6
BYBLOCK
 62
0
100
AcDbBlockReference
  2
_OPEN
 10
459.9460898330661
 20
177.1090339763402
 30
0.0000000000000000
 41
2.000000000000000
 42
2.000000000000000
 43
2.000000000000000
 50
180.0000000000000
  0
INSERT
  5
20A
100
AcDbEntity
  8
MAIN0
  6
BYBLOCK
 62
0
100
AcDbBlockReference
  2
_OPEN
 10
474.9460898330661
 20
177.1090339763402
 30
0.0000000000000000
 41
2.000000000000000
 42
2.000000000000000
 43
2.000000000000000
 50
0.0000000000000000
  0
LINE
  5
20B
100
AcDbEntity
  8
MAIN0
  6
BYBLOCK
 62
0
100
AcDbLine
 10
474.9460898330661
 20
211.5490563202698
 30
0.0000000000000000
 11
474.9460898330661
 21
175.1090339763402
 31
0.0000000000000000
  0
MTEXT
  5
20C
100
AcDbEntity
  8
MAIN0
  6
BYBLOCK
 62
0
100
AcDbMText
 10
467.4460898330661
 20
179.1590339286565
 30
0.0000000000000000
 40
3.099999904632568
 41
0.0000000000000000
 71
     5
 72
     1
  1
\A1;15
 11
1.000000000000000
 21
0.0000000000000000
 31
0.0000000000000000
  7
STANDARD
  0
ENDBLK
  5
20D
100
AcDbEntity
  8
MAIN0
  6
CONTINUOUS
 62
3
100
AcDbBlockEnd
  0
BLOCK
  5
20F
100
AcDbEntity
  8
MAIN0
  6
CONTINUOUS
 62
3
100
AcDbBlockBegin
  2
D17
 70
    64
 10
0.0
 20
0.0
 30
0.0
  0
LINE
  5
210
100
AcDbEntity
  8
MAIN0
  6
BYBLOCK
 62
0
100
AcDbLine
 10
38.69702777359538
 20
10.40000152587891
 30
0.0000000000000000
 11
38.69702777359538
 21
-74.99999999999999
 31
0.0000000000000000
  0
LINE
  5
211
100
AcDbEntity
  8
MAIN0
  6
BYBLOCK
 62
0
100
AcDbLine
 10
39.29702779743724
 20
-72.99999999999999
 30
0.0000000000000000
 11
38.69702777359538
 21
-74.99999999999999
 31
0.0000000000000000
  0
LINE
  5
212
100
AcDbEntity
  8
MAIN0
  6
BYBLOCK
 62
0
100
AcDbLine
 10
38.69702777359538
 20
-74.99999999999999
 30
0.0000000000000000
 11
38.09702774975352
 21
-72.99999999999999
 31
0.0000000000000000
  0
LINE
  5
213
100
AcDbEntity
  8
MAIN0
  6
BYBLOCK
 62
0
100
AcDbLine
 10
-42.61984826834544
 20
-74.99999999999999
 30
0.0000000000000000
 11
40.69702777359538
 21
-74.99999999999999
 31
0.0000000000000000
  0
MTEXT
  5
214
100
AcDbEntity
  8
MAIN0
  6
BYBLOCK
 62
0
100
AcDbMText
 10
36.64702782127910
 20
0.0000000000000000
 30
0.0000000000000000
 40
3.099999904632568
 41
0.0000000000000000
 71
     5
 72
     1
  1
\A1;\U+2205150\U+00B10.2
 11
6.123233995736766e-017
 21
1.000000000000000
 31
0.0000000000000000
  7
STANDARD
  0
ENDBLK
  5
215
100
AcDbEntity
  8
MAIN0
  6
CONTINUOUS
 62
3
100
AcDbBlockEnd
  0
BLOCK
  5
217
100
AcDbEntity
  8
MAIN0
  6
CONTINUOUS
 62
3
100
AcDbBlockBegin
  2
*D18
 70
    65
 10
0.0
 20
0.0
 30
0.0
  0
LINE
  5
218
100
AcDbEntity
  8
MAIN0
  6
BYBLOCK
 62
0
100
AcDbLine
 10
315.9460898330668
 20
146.4490563202697
 30
0.0000000000000000
 11
315.9460898330668
 21
122.4579058261489
 31
0.0000000000000000
  0
LINE
  5
219
100
AcDbEntity
  8
MAIN0
  6
BYBLOCK
 62
0
100
AcDbLine
 10
317.9460898330668
 20
124.4579058261489
 30
0.0000000000000000
 11
457.9460898330661
 21
124.4579058261489
 31
0.0000000000000000
  0
INSERT
  5
21A
100
AcDbEntity
  8
MAIN0
  6
BYBLOCK
 62
0
100
AcDbBlockReference
  2
_OPEN
 10
315.9460898330668
 20
124.4579058261489
 30
0.0000000000000000
 41
2.000000000000000
 42
2.000000000000000
 43
2.000000000000000
 50
180.0000000000000
  0
INSERT
  5
21B
100
AcDbEntity
  8
MAIN0
  6
BYBLOCK
 62
0
100
AcDbBlockReference
  2
_OPEN
 10
459.9460898330661
 20
124.4579058261489
 30
0.0000000000000000
 41
2.000000000000000
 42
2.000000000000000
 43
2.000000000000000
 50
0.0000000000000000
  0
LINE
  5
21C
100
AcDbEntity
  8
MAIN0
  6
BYBLOCK
 62
0
100
AcDbLine
 10
459.9460898330661
 20
152.0490563202698
 30
0.0000000000000000
 11
459.9460898330661
 21
122.4579058261489
 31
0.0000000000000000
  0
MTEXT
  5
21D
100
AcDbEntity
  8
MAIN0
  6
BYBLOCK
 62
0
100
AcDbMText
 10
392.9460898330682
 20
126.5079057784651
 30
0.0000000000000000
 40
3.099999904632568
 41
0.0000000000000000
 71
     5
 72
     1
  1
\A1;144
 11
1.000000000000000
 21
0.0000000000000000
 31
0.0000000000000000
  7
STANDARD
  0
ENDBLK
  5
21E
100
AcDbEntity
  8
MAIN0
  6
CONTINUOUS
 62
3
100
AcDbBlockEnd
  0
BLOCK
  5
220
100
AcDbEntity
  8
MAIN0
  6
CONTINUOUS
 62
3
100
AcDbBlockBegin
  2
D19
 70
    64
 10
0.0
 20
0.0
 30
0.0
  0
LINE
  5
221
100
AcDbEntity
  8
MAIN0
  6
BYBLOCK
 62
0
100
AcDbLine
 10
-1.076486343339866
 20
-34.76822538905419
 30
0.0000000000000000
 11
-1.076486343339866
 21
-91.10000000000004
 31
0.0000000000000000
  0
LINE
  5
222
100
AcDbEntity
  8
MAIN0
  6
BYBLOCK
 62
0
100
AcDbLine
 10
-0.4764863194980081
 20
-89.10000000000004
 30
0.0000000000000000
 11
-1.076486343339866
 21
-91.10000000000004
 31
0.0000000000000000
  0
LINE
  5
223
100
AcDbEntity
  8
MAIN0
  6
BYBLOCK
 62
0
100
AcDbLine
 10
-1.076486343339866
 20
-91.10000000000004
 30
0.0000000000000000
 11
-1.676486367181724
 21
-89.10000000000004
 31
0.0000000000000000
  0
LINE
  5
224
100
AcDbEntity
  8
MAIN0
  6
BYBLOCK
 62
0
100
AcDbLine
 10
14.28300224661780
 20
-91.10000000000004
 30
0.0000000000000000
 11
-3.076486343339866
 21
-91.10000000000004
 31
0.0000000000000000
  0
MTEXT
  5
225
100
AcDbEntity
  8
MAIN0
  6
BYBLOCK
 62
0
100
AcDbMText
 10
-3.126486295656150
 20
-42.81822539352454
 30
0.0000000000000000
 40
3.099999904632568
 41
0.0000000000000000
 71
     5
 72
     1
  1
\A1;\U+2205182.2
 11
6.123233995736766e-017
 21
1.000000000000000
 31
0.0000000000000000
  7
STANDARD
  0
ENDBLK
  5
226
100
AcDbEntity
  8
MAIN0
  6
CONTINUOUS
 62
3
100
AcDbBlockEnd
  0
BLOCK
  5
257
100
AcDbEntity
  8
MAIN0
  6
BYBLOCK
 62
3
100
AcDbBlockBegin
  2
M3
 70
    64
 10
0.0
 20
0.0
 30
0.0
  0
LINE
  5
258
100
AcDbEntity
  8
MAIN0
  6
BYBLOCK
 62
0
100
AcDbLine
 10
33.73184807302351
 20
112.7409034196264
 30
0.0000000000000000
 11
110.7318480730235
 21
112.7409034196264
 31
0.0000000000000000
  0
LINE
  5
259
100
AcDbEntity
  8
MAIN0
  6
BYBLOCK
 62
0
100
AcDbLine
 10
33.73184807302351
 20
105.7409034196264
 30
0.0000000000000000
 11
110.7318480730235
 21
105.7409034196264
 31
0.0000000000000000
  0
LINE
  5
25A
100
AcDbEntity
  8
MAIN0
  6
BYBLOCK
 62
0
100
AcDbLine
 10
33.73184807302351
 20
20.24090341962642
 30
0.0000000000000000
 11
33.73184807302351
 21
112.7409034196264
 31
0.0000000000000000
  0
LINE
  5
25B
100
AcDbEntity
  8
MAIN0
  6
BYBLOCK
 62
0
100
AcDbLine
 10
33.73184807302357
 20
98.74090341962636
 30
0.0000000000000000
 11
110.7318480730235
 21
98.74090341962636
 31
0.0000000000000000
  0
LINE
  5
25C
100
AcDbEntity
  8
MAIN0
  6
BYBLOCK
 62
0
100
AcDbLine
 10
33.73184807302357
 20
91.74090341962636
 30
0.0000000000000000
 11
110.7318480730235
 21
91.74090341962636
 31
0.0000000000000000
  0
LINE
  5
25D
100
AcDbEntity
  8
MAIN0
  6
BYBLOCK
 62
0
100
AcDbLine
 10
76.71503644129683
 20
81.74090341962636
 30
0.0000000000000000
 11
110.7318480730235
 21
81.74090341962636
 31
0.0000000000000000
  0
LINE
  5
25E
100
AcDbEntity
  8
MAIN0
  6
BYBLOCK
 62
0
100
AcDbLine
 10
33.73184807302351
 20
71.74090341962642
 30
0.0000000000000000
 11
110.7318480730235
 21
71.74090341962642
 31
0.0000000000000000
  0
LINE
  5
25F
100
AcDbEntity
  8
MAIN0
  6
BYBLOCK
 62
0
100
AcDbLine
 10
33.73184807302351
 20
61.74090341962642
 30
0.0000000000000000
 11
110.7318480730235
 21
61.74090341962642
 31
0.0000000000000000
  0
LINE
  5
260
100
AcDbEntity
  8
MAIN0
  6
BYBLOCK
 62
0
100
AcDbLine
 10
33.73184807302351
 20
54.74090341962642
 30
0.0000000000000000
 11
110.7318480730235
 21
54.74090341962642
 31
0.0000000000000000
  0
LINE
  5
261
100
AcDbEntity
  8
MAIN0
  6
BYBLOCK
 62
0
100
AcDbLine
 10
33.73184807302351
 20
47.74090341962642
 30
0.0000000000000000
 11
110.7318480730235
 21
47.74090341962642
 31
0.0000000000000000
  0
LINE
  5
262
100
AcDbEntity
  8
MAIN0
  6
BYBLOCK
 62
0
100
AcDbLine
 10
33.73184807302351
 20
37.74090341962642
 30
0.0000000000000000
 11
110.7318480730235
 21
37.74090341962642
 31
0.0000000000000000
  0
LINE
  5
263
100
AcDbEntity
  8
MAIN0
  6
BYBLOCK
 62
0
100
AcDbLine
 10
33.73184807302351
 20
20.24090341962645
 30
0.0000000000000000
 11
110.7318480730235
 21
20.24090341962619
 31
0.0000000000000000
  0
LINE
  5
264
100
AcDbEntity
  8
MAIN0
  6
BYBLOCK
 62
0
100
AcDbLine
 10
80.73184807302340
 20
20.24090341962631
 30
0.0000000000000000
 11
80.73184807302340
 21
105.7409034196264
 31
0.0000000000000000
  0
LINE
  5
265
100
AcDbEntity
  8
MAIN0
  6
BYBLOCK
 62
0
100
AcDbLine
 10
110.7318480730235
 20
20.24090341962619
 30
0.0000000000000000
 11
110.7318480730235
 21
112.7409034196264
 31
0.0000000000000000
  0
LINE
  5
266
100
AcDbEntity
  8
MAIN0
  6
BYBLOCK
 62
0
100
AcDbLine
 10
33.73184807302351
 20
30.74090341962642
 30
0.0000000000000000
 11
110.7318480730235
 21
30.74090341962642
 31
0.0000000000000000
  0
MTEXT
  5
267
100
AcDbEntity
  8
MAIN0
  6
BYBLOCK
 62
0
100
AcDbMText
 10
35.73184807302357
 20
59.74090341962649
 30
0.0000000000000000
 40
3.000000000000000
 41
0.0000000000000000
 71
     1
 72
     1
  1
{\H0.93x;MAX. SPEED}
 11
1.000000000000000
 21
0.0000000000000000
 31
0.0000000000000000
  7
STANDARD
  0
MTEXT
  5
268
100
AcDbEntity
  8
MAIN0
  6
BYBLOCK
 62
0
100
AcDbMText
 10
35.73184807302357
 20
52.74090341962649
 30
0.0000000000000000
 40
3.000000000000000
 41
0.0000000000000000
 71
     1
 72
     1
  1
{\H0.91x;MASS}
 11
1.000000000000000
 21
0.0000000000000000
 31
0.0000000000000000
  7
STANDARD
  0
MTEXT
  5
269
100
AcDbEntity
  8
MAIN0
  6
BYBLOCK
 62
0
100
AcDbMText
 10
35.73184807302357
 20
44.24090341962643
 30
0.0000000000000000
 40
3.000000000000000
 41
0.0000000000000000
 71
     1
 72
     1
  1
{\H0.63x;MOMENT OF INERTIA}
 11
1.000000000000000
 21
0.0000000000000000
 31
0.0000000000000000
  7
STANDARD
  0
MTEXT
  5
26A
100
AcDbEntity
  8
MAIN0
  6
BYBLOCK
 62
0
100
AcDbMText
 10
95.73184807302346
 20
102.5409026566868
 30
0.0000000000000000
 40
2.799999237060547
 41
0.0000000000000000
 71
     1
 72
     1
  1
{\H0.62x;　　　　mm}
 11
1.000000000000000
 21
0.0000000000000000
 31
0.0000000000000000
  7
KNJYOKO
  0
MTEXT
  5
26B
100
AcDbEntity
  8
MAIN0
  6
BYBLOCK
 62
0
100
AcDbMText
 10
95.73184807302346
 20
51.54090265668681
 30
0.0000000000000000
 40
2.799999237060547
 41
0.0000000000000000
 71
     1
 72
     1
  1
{\H0.62x;　　　　kg}
 11
1.000000000000000
 21
0.0000000000000000
 31
0.0000000000000000
  7
KNJYOKO
  0
MTEXT
  5
26C
100
AcDbEntity
  8
MAIN0
  6
BYBLOCK
 62
0
100
AcDbMText
 10
107.3245901488152
 20
44.90149206934447
 30
0.0000000000000000
 40
2.000000000000000
 41
0.0000000000000000
 71
     1
 72
     1
  1
{\H0.81x;2}
 11
1.000000000000000
 21
0.0000000000000000
 31
0.0000000000000000
  7
STANDARD
  0
MTEXT
  5
26D
100
AcDbEntity
  8
MAIN0
  6
BYBLOCK
 62
0
100
AcDbMText
 10
46.28659771756998
 20
111.3560274043103
 30
0.0000000000000000
 40
4.000000000000000
 41
0.0000000000000000
 71
     1
 72
     1
  1
{\H0.93x;SPECIFICATIONS}
 11
1.000000000000000
 21
0.0000000000000000
 31
0.0000000000000000
  7
STANDARD
  0
MTEXT
  5
26E
100
AcDbEntity
  8
MAIN0
  6
BYBLOCK
 62
0
100
AcDbMText
 10
35.73184807302357
 20
103.7409034196264
 30
0.0000000000000000
 40
3.000000000000000
 41
0.0000000000000000
 71
     1
 72
     1
  1
{\H0.93x;PISTON DIA}
 11
1.000000000000000
 21
0.0000000000000000
 31
0.0000000000000000
  7
STANDARD
  0
MTEXT
  5
26F
100
AcDbEntity
  8
MAIN0
  6
BYBLOCK
 62
0
100
AcDbMText
 10
35.73184807302357
 20
96.74090341962661
 30
0.0000000000000000
 40
3.000000000000000
 41
0.0000000000000000
 71
     1
 72
     1
  1
{\H0.93x;PISTON STROKE}
 11
1.000000000000000
 21
0.0000000000000000
 31
0.0000000000000000
  7
STANDARD
  0
MTEXT
  5
270
100
AcDbEntity
  8
MAIN0
  6
BYBLOCK
 62
0
100
AcDbMText
 10
35.73184807302357
 20
87.74090341962661
 30
0.0000000000000000
 40
3.000000000000000
 41
0.0000000000000000
 71
     1
 72
     1
  1
{\H0.93x;PISTON THRUST}
 11
1.000000000000000
 21
0.0000000000000000
 31
0.0000000000000000
  7
STANDARD
  0
MTEXT
  5
271
100
AcDbEntity
  8
MAIN0
  6
BYBLOCK
 62
0
100
AcDbMText
 10
33.73184807302357
 20
81.74090341962649
 30
0.0000000000000000
 40
3.000000000000000
 41
0.0000000000000000
 71
     1
 72
     1
  1
{\H0.94x;(AT  　 　　　　　)}
 11
1.000000000000000
 21
0.0000000000000000
 31
0.0000000000000000
  7
KNJYOKO
  0
MTEXT
  5
272
100
AcDbEntity
  8
MAIN0
  6
BYBLOCK
 62
0
100
AcDbMText
 10
35.73184807302357
 20
28.74090341962643
 30
0.0000000000000000
 40
3.000000000000000
 41
0.0000000000000000
 71
     1
 72
     1
  1
{\H0.93x;OIL LEAKAGE}
 11
1.000000000000000
 21
0.0000000000000000
 31
0.0000000000000000
  7
STANDARD
  0
MTEXT
  5
273
100
AcDbEntity
  8
MAIN0
  6
BYBLOCK
 62
0
100
AcDbMText
 10
73.01495881483913
 20
87.97719360033666
 30
0.0000000000000000
 40
3.000000000000000
 41
0.0000000000000000
 71
     1
 72
     1
  1
{\H0.63x;PUSH}
 11
1.000000000000000
 21
0.0000000000000000
 31
0.0000000000000000
  7
STANDARD
  0
MTEXT
  5
274
100
AcDbEntity
  8
MAIN0
  6
BYBLOCK
 62
0
100
AcDbMText
 10
73.01495881483913
 20
77.97719360033655
 30
0.0000000000000000
 40
3.000000000000000
 41
0.0000000000000000
 71
     1
 72
     1
  1
{\H0.63x;PULL}
 11
1.000000000000000
 21
0.0000000000000000
 31
0.0000000000000000
  7
STANDARD
  0
MTEXT
  5
275
100
AcDbEntity
  8
MAIN0
  6
BYBLOCK
 62
0
100
AcDbMText
 10
35.73184807302357
 20
24.24090341962643
 30
0.0000000000000000
 40
2.000000000000000
 41
0.0000000000000000
 71
     1
 72
     1
  1
{\H0.88x;ISO VG 32, 50℃, 3.0MPa}
 11
1.000000000000000
 21
0.0000000000000000
 31
0.0000000000000000
  7
KNJYOKO
  0
MTEXT
  5
276
100
AcDbEntity
  8
MAIN0
  6
BYBLOCK
 62
0
100
AcDbMText
 10
95.73184807302346
 20
24.04090265668681
 30
0.0000000000000000
 40
2.799999237060547
 41
0.0000000000000000
 71
     1
 72
     1
  1
{\H0.67x;　　/min}
 11
1.000000000000000
 21
0.0000000000000000
 31
0.0000000000000000
  7
KNJYOKO
  0
MTEXT
  5
277
100
AcDbEntity
  8
MAIN0
  6
BYBLOCK
 62
0
100
AcDbMText
 10
35.73184807302357
 20
68.24090341962649
 30
0.0000000000000000
 40
3.000000000000000
 41
0.0000000000000000
 71
     1
 72
     1
  1
{\H0.63x;MAX. OPERATING PRESSURE}
 11
1.000000000000000
 21
0.0000000000000000
 31
0.0000000000000000
  7
STANDARD
  0
MTEXT
  5
278
100
AcDbEntity
  8
MAIN0
  6
BYBLOCK
 62
0
100
AcDbMText
 10
99.78280026139609
 20
43.46688650252261
 30
0.0000000000000000
 40
2.799999237060547
 41
0.0000000000000000
 71
     1
 72
     1
  1
{\H0.67x;kg・m}
 11
1.000000000000000
 21
0.0000000000000000
 31
0.0000000000000000
  7
KNJYOKO
  0
MTEXT
  5
279
100
AcDbEntity
  8
MAIN0
  6
BYBLOCK
 62
0
100
AcDbMText
 10
95.73184807302346
 20
69.04090265668681
 30
0.0000000000000000
 40
2.799999237060547
 41
0.0000000000000000
 71
     1
 72
     1
  1
{\H0.64x;　　　MPa}
 11
1.000000000000000
 21
0.0000000000000000
 31
0.0000000000000000
  7
KNJYOKO
  0
MTEXT
  5
27A
100
AcDbEntity
  8
MAIN0
  6
BYBLOCK
 62
0
100
AcDbMText
 10
56.64954102839207
 20
81.54090265668705
 30
0.0000000000000000
 40
2.799999237060547
 41
0.0000000000000000
 71
     1
 72
     1
  1
{\H0.64x;　　　MPa}
 11
1.000000000000000
 21
0.0000000000000000
 31
0.0000000000000000
  7
KNJYOKO
  0
MTEXT
  5
27B
100
AcDbEntity
  8
MAIN0
  6
BYBLOCK
 62
0
100
AcDbMText
 10
95.73184807302346
 20
89.04090265668692
 30
0.0000000000000000
 40
2.799999237060547
 41
0.0000000000000000
 71
     1
 72
     1
  1
{\H0.62x;　　　　kN}
 11
1.000000000000000
 21
0.0000000000000000
 31
0.0000000000000000
  7
KNJYOKO
  0
MTEXT
  5
27C
100
AcDbEntity
  8
MAIN0
  6
BYBLOCK
 62
0
100
AcDbMText
 10
95.73184807302346
 20
58.54090265668681
 30
0.0000000000000000
 40
2.799999237060547
 41
0.0000000000000000
 71
     1
 72
     1
  1
{\H0.65x;　　min}
 11
1.000000000000000
 21
0.0000000000000000
 31
0.0000000000000000
  7
KNJYOKO
  0
MTEXT
  5
27D
100
AcDbEntity
  8
MAIN0
  6
BYBLOCK
 62
0
100
AcDbMText
 10
105.8865163213434
 20
59.21044720958157
 30
0.0000000000000000
 40
2.000000000000000
 41
0.0000000000000000
 71
     1
 72
     1
  1
{\H0.88x;-1}
 11
1.000000000000000
 21
0.0000000000000000
 31
0.0000000000000000
  7
STANDARD
  0
MTEXT
  5
27E
100
AcDbEntity
  8
MAIN0
  6
BYBLOCK
 62
0
100
AcDbMText
 10
95.73184807302346
 20
95.54090265668692
 30
0.0000000000000000
 40
2.799999237060547
 41
0.0000000000000000
 71
     1
 72
     1
  1
{\H0.62x;　　　　mm}
 11
1.000000000000000
 21
0.0000000000000000
 31
0.0000000000000000
  7
KNJYOKO
  0
MTEXT
  5
27F
100
AcDbEntity
  8
MAIN0
  6
BYBLOCK
 62
0
100
AcDbMText
 10
95.73184807302346
 20
79.04090265668681
 30
0.0000000000000000
 40
2.799999237060547
 41
0.0000000000000000
 71
     1
 72
     1
  1
{\H0.62x;　　　　kN}
 11
1.000000000000000
 21
0.0000000000000000
 31
0.0000000000000000
  7
KNJYOKO
  0
ENDBLK
  5
280
100
AcDbEntity
  8
MAIN0
  6
BYBLOCK
 62
3
100
AcDbBlockEnd
  0
BLOCK
  5
2AF
100
AcDbEntity
  8
MAIN0
  6
CONTINUOUS
 62
3
100
AcDbBlockBegin
  2
*D20
 70
    65
 10
0.0
 20
0.0
 30
0.0
  0
LINE
  5
2B0
100
AcDbEntity
  8
MAIN0
  6
BYBLOCK
 62
0
100
AcDbLine
 10
93.96142253266899
 20
402.5037186323179
 30
0.0000000000000000
 11
107.6482794128966
 21
402.5037186323179
 31
0.0000000000000000
  0
LINE
  5
2B1
100
AcDbEntity
  8
MAIN0
  6
BYBLOCK
 62
0
100
AcDbLine
 10
105.6482794128966
 20
400.5037186323179
 30
0.0000000000000000
 11
105.6482794128966
 21
343.5037186323204
 31
0.0000000000000000
  0
INSERT
  5
2B2
100
AcDbEntity
  8
MAIN0
  6
BYBLOCK
 62
0
100
AcDbBlockReference
  2
_OPEN
 10
105.6482794128966
 20
402.5037186323179
 30
0.0000000000000000
 41
2.000000000000000
 42
2.000000000000000
 43
2.000000000000000
 50
90.00000000000000
  0
INSERT
  5
2B3
100
AcDbEntity
  8
MAIN0
  6
BYBLOCK
 62
0
100
AcDbBlockReference
  2
_OPEN
 10
105.6482794128966
 20
341.5037186323204
 30
0.0000000000000000
 41
2.000000000000000
 42
2.000000000000000
 43
2.000000000000000
 50
270.0000000000000
  0
LINE
  5
2B4
100
AcDbEntity
  8
MAIN0
  6
BYBLOCK
 62
0
100
AcDbLine
 10
96.46845371635359
 20
341.5037186323204
 30
0.0000000000000000
 11
107.6482794128966
 21
341.5037186323204
 31
0.0000000000000000
  0
MTEXT
  5
2B5
100
AcDbEntity
  8
MAIN0
  6
BYBLOCK
 62
0
100
AcDbMText
 10
103.5982794605804
 20
380.2874705180707
 30
0.0000000000000000
 40
3.099999904632568
 41
0.0000000000000000
 71
     5
 72
     1
  1
\A1;61
 11
6.123233995736766e-017
 21
1.000000000000000
 31
0.0000000000000000
  7
STANDARD
  0
ENDBLK
  5
2B6
100
AcDbEntity
  8
MAIN0
  6
CONTINUOUS
 62
3
100
AcDbBlockEnd
  0
BLOCK
  5
2EC
100
AcDbEntity
  8
MAIN0
  6
BYBLOCK
 62
3
100
AcDbBlockBegin
  2
M4
 70
    64
 10
0.0
 20
0.0
 30
0.0
  0
LINE
  5
2ED
100
AcDbEntity
  8
MAIN0
  6
BYBLOCK
 62
0
100
AcDbLine
 10
248.1410636203135
 20
70.84058647994098
 30
0.0000000000000000
 11
370.4339950358492
 21
70.84058647994098
 31
0.0000000000000000
  0
LINE
  5
2EE
100
AcDbEntity
  8
MAIN0
  6
BYBLOCK
 62
0
100
AcDbLine
 10
248.1410636203135
 20
65.84058647994098
 30
0.0000000000000000
 11
370.4339950358492
 21
65.84058647994098
 31
0.0000000000000000
  0
LINE
  5
2EF
100
AcDbEntity
  8
MAIN0
  6
BYBLOCK
 62
0
100
AcDbLine
 10
248.1410636203135
 20
60.84058647994098
 30
0.0000000000000000
 11
370.4339950358492
 21
60.84058647994098
 31
0.0000000000000000
  0
MTEXT
  5
2F0
100
AcDbEntity
  8
MAIN0
  6
BYBLOCK
 62
0
100
AcDbMText
 10
249.1410636203135
 20
74.44058638457361
 30
0.0000000000000000
 40
3.099999904632568
 41
0.0000000000000000
 71
     1
 72
     1
  1
{\H0.88x;1.}
 11
1.000000000000000
 21
0.0000000000000000
 31
0.0000000000000000
  7
STANDARD
  0
MTEXT
  5
2F1
100
AcDbEntity
  8
MAIN0
  6
BYBLOCK
 62
0
100
AcDbMText
 10
249.1410636203135
 20
69.44058638457361
 30
0.0000000000000000
 40
3.099999904632568
 41
0.0000000000000000
 71
     1
 72
     1
  1
{\H0.88x;2.}
 11
1.000000000000000
 21
0.0000000000000000
 31
0.0000000000000000
  7
STANDARD
  0
MTEXT
  5
2F2
100
AcDbEntity
  8
MAIN0
  6
BYBLOCK
 62
0
100
AcDbMText
 10
249.1410636203135
 20
64.44058638457366
 30
0.0000000000000000
 40
3.099999904632568
 41
0.0000000000000000
 71
     1
 72
     1
  1
{\H0.88x;3.}
 11
1.000000000000000
 21
0.0000000000000000
 31
0.0000000000000000
  7
STANDARD
  0
MTEXT
  5
2F3
100
AcDbEntity
  8
MAIN0
  6
BYBLOCK
 62
0
100
AcDbMText
 10
249.6410636203135
 20
84.84058647994132
 30
0.0000000000000000
 40
6.000000000000000
 41
0.0000000000000000
 71
     1
 72
     1
  1
{\H0.80x;要注意}
 11
1.000000000000000
 21
0.0000000000000000
 31
0.0000000000000000
  7
KNJYOKO
  0
LINE
  5
2F4
100
AcDbEntity
  8
MAIN0
  6
BYBLOCK
 62
0
100
AcDbLine
 10
268.1410636203135
 20
86.34058647994121
 30
0.0000000000000000
 11
268.1410636203135
 21
77.34058647994121
 31
0.0000000000000000
  0
LINE
  5
2F5
100
AcDbEntity
  8
MAIN0
  6
BYBLOCK
 62
0
100
AcDbLine
 10
248.1410636203135
 20
77.34058647994121
 30
0.0000000000000000
 11
268.1410636203135
 21
77.34058647994121
 31
0.0000000000000000
  0
LINE
  5
2F6
100
AcDbEntity
  8
MAIN0
  6
BYBLOCK
 62
0
100
AcDbLine
 10
248.1410636203135
 20
86.34058647994121
 30
0.0000000000000000
 11
248.1410636203135
 21
77.34058647994121
 31
0.0000000000000000
  0
LINE
  5
2F7
100
AcDbEntity
  8
MAIN0
  6
BYBLOCK
 62
0
100
AcDbLine
 10
248.1410636203135
 20
86.34058647994121
 30
0.0000000000000000
 11
268.1410636203135
 21
86.34058647994121
 31
0.0000000000000000
  0
ENDBLK
  5
2F8
100
AcDbEntity
  8
MAIN0
  6
BYBLOCK
 62
3
100
AcDbBlockEnd
  0
BLOCK
  5
31E
100
AcDbEntity
  8
MAIN0
  6
CONTINUOUS
 62
3
100
AcDbBlockBegin
  2
*D21
 70
    65
 10
0.0
 20
0.0
 30
0.0
  0
LINE
  5
31F
100
AcDbEntity
  8
MAIN0
  6
BYBLOCK
 62
0
100
AcDbLine
 10
52.36142250882733
 20
402.5037186323175
 30
0.0000000000000000
 11
34.68411984049055
 21
402.5037186323175
 31
0.0000000000000000
  0
LINE
  5
320
100
AcDbEntity
  8
MAIN0
  6
BYBLOCK
 62
0
100
AcDbLine
 10
36.68411984049055
 20
400.5037186323175
 30
0.0000000000000000
 11
36.68411984049055
 21
362.5037186323176
 31
0.0000000000000000
  0
INSERT
  5
321
100
AcDbEntity
  8
MAIN0
  6
BYBLOCK
 62
0
100
AcDbBlockReference
  2
_OPEN
 10
36.68411984049055
 20
402.5037186323175
 30
0.0000000000000000
 41
2.000000000000000
 42
2.000000000000000
 43
2.000000000000000
 50
90.00000000000000
  0
INSERT
  5
322
100
AcDbEntity
  8
MAIN0
  6
BYBLOCK
 62
0
100
AcDbBlockReference
  2
_OPEN
 10
36.68411984049055
 20
360.5037186323176
 30
0.0000000000000000
 41
2.000000000000000
 42
2.000000000000000
 43
2.000000000000000
 50
270.0000000000000
  0
LINE
  5
323
100
AcDbEntity
  8
MAIN0
  6
BYBLOCK
 62
0
100
AcDbLine
 10
60.22284713612251
 20
360.5037186323176
 30
0.0000000000000000
 11
34.68411984049055
 21
360.5037186323176
 31
0.0000000000000000
  0
MTEXT
  5
324
100
AcDbEntity
  8
MAIN0
  6
BYBLOCK
 62
0
100
AcDbMText
 10
34.63411988817427
 20
381.5037186323175
 30
0.0000000000000000
 40
3.099999904632568
 41
0.0000000000000000
 71
     5
 72
     1
  1
\A1;42
 11
6.123233995736766e-017
 21
1.000000000000000
 31
0.0000000000000000
  7
STANDARD
  0
ENDBLK
  5
325
100
AcDbEntity
  8
MAIN0
  6
CONTINUOUS
 62
3
100
AcDbBlockEnd
  0
BLOCK
  5
327
100
AcDbEntity
  8
MAIN0
  6
CONTINUOUS
 62
3
100
AcDbBlockBegin
  2
*D22
 70
    65
 10
0.0
 20
0.0
 30
0.0
  0
LINE
  5
328
100
AcDbEntity
  8
MAIN0
  6
BYBLOCK
 62
0
100
AcDbLine
 10
61.02167654555402
 20
364.5037186323176
 30
0.0000000000000000
 11
42.68411984049055
 21
364.5037186323176
 31
0.0000000000000000
  0
LINE
  5
329
100
AcDbEntity
  8
MAIN0
  6
BYBLOCK
 62
0
100
AcDbLine
 10
44.68411984049055
 20
364.5037186323176
 30
0.0000000000000000
 11
44.68411984049055
 21
360.5037186323176
 31
0.0000000000000000
  0
INSERT
  5
32A
100
AcDbEntity
  8
MAIN0
  6
BYBLOCK
 62
0
100
AcDbBlockReference
  2
_OPEN
 10
44.68411984049055
 20
364.5037186323176
 30
0.0000000000000000
 41
2.000000000000000
 42
2.000000000000000
 43
2.000000000000000
 50
270.0000000000000
  0
INSERT
  5
32B
100
AcDbEntity
  8
MAIN0
  6
BYBLOCK
 62
0
100
AcDbBlockReference
  2
_OPEN
 10
44.68411984049055
 20
360.5037186323176
 30
0.0000000000000000
 41
2.000000000000000
 42
2.000000000000000
 43
2.000000000000000
 50
90.00000000000000
  0
LINE
  5
32C
100
AcDbEntity
  8
MAIN0
  6
BYBLOCK
 62
0
100
AcDbLine
 10
44.68411984049055
 20
366.5037186323176
 30
0.0000000000000000
 11
44.68411984049055
 21
367.5037186323176
 31
0.0000000000000000
  0
LINE
  5
32D
100
AcDbEntity
  8
MAIN0
  6
BYBLOCK
 62
0
100
AcDbLine
 10
44.68411984049055
 20
358.5037186323176
 30
0.0000000000000000
 11
44.68411984049055
 21
357.5037186323176
 31
0.0000000000000000
  0
LINE
  5
32E
100
AcDbEntity
  8
MAIN0
  6
BYBLOCK
 62
0
100
AcDbLine
 10
60.22284713612251
 20
360.5037186323176
 30
0.0000000000000000
 11
42.68411984049055
 21
360.5037186323176
 31
0.0000000000000000
  0
MTEXT
  5
32F
100
AcDbEntity
  8
MAIN0
  6
BYBLOCK
 62
0
100
AcDbMText
 10
42.63411988817427
 20
362.5037186323176
 30
0.0000000000000000
 40
3.099999904632568
 41
0.0000000000000000
 71
     5
 72
     1
  1
\A1;4
 11
6.123233995736766e-017
 21
1.000000000000000
 31
0.0000000000000000
  7
STANDARD
  0
ENDBLK
  5
330
100
AcDbEntity
  8
MAIN0
  6
CONTINUOUS
 62
3
100
AcDbBlockEnd
  0
BLOCK
  5
332
100
AcDbEntity
  8
MAIN0
  6
CONTINUOUS
 62
3
100
AcDbBlockBegin
  2
*D23
 70
    65
 10
0.0
 20
0.0
 30
0.0
  0
LINE
  5
333
100
AcDbEntity
  8
MAIN0
  6
BYBLOCK
 62
0
100
AcDbLine
 10
60.22284713612251
 20
360.5037186323176
 30
0.0000000000000000
 11
42.68411984049055
 21
360.5037186323176
 31
0.0000000000000000
  0
LINE
  5
334
100
AcDbEntity
  8
MAIN0
  6
BYBLOCK
 62
0
100
AcDbLine
 10
44.68411984049055
 20
358.5037186323176
 30
0.0000000000000000
 11
44.68411984049055
 21
321.5037186323200
 31
0.0000000000000000
  0
INSERT
  5
335
100
AcDbEntity
  8
MAIN0
  6
BYBLOCK
 62
0
100
AcDbBlockReference
  2
_OPEN
 10
44.68411984049055
 20
360.5037186323176
 30
0.0000000000000000
 41
2.000000000000000
 42
2.000000000000000
 43
2.000000000000000
 50
90.00000000000000
  0
INSERT
  5
336
100
AcDbEntity
  8
MAIN0
  6
BYBLOCK
 62
0
100
AcDbBlockReference
  2
_OPEN
 10
44.68411984049055
 20
319.5037186323200
 30
0.0000000000000000
 41
2.000000000000000
 42
2.000000000000000
 43
2.000000000000000
 50
270.0000000000000
  0
LINE
  5
337
100
AcDbEntity
  8
MAIN0
  6
BYBLOCK
 62
0
100
AcDbLine
 10
61.02167654555458
 20
319.5037186323200
 30
0.0000000000000000
 11
42.68411984049055
 21
319.5037186323200
 31
0.0000000000000000
  0
MTEXT
  5
338
100
AcDbEntity
  8
MAIN0
  6
BYBLOCK
 62
0
100
AcDbMText
 10
42.63411988817427
 20
340.0037186323188
 30
0.0000000000000000
 40
3.099999904632568
 41
0.0000000000000000
 71
     5
 72
     1
  1
\A1;41
 11
6.123233995736766e-017
 21
1.000000000000000
 31
0.0000000000000000
  7
STANDARD
  0
ENDBLK
  5
339
100
AcDbEntity
  8
MAIN0
  6
CONTINUOUS
 62
3
100
AcDbBlockEnd
  0
BLOCK
  5
33B
100
AcDbEntity
  8
MAIN0
  6
CONTINUOUS
 62
3
100
AcDbBlockBegin
  2
*D24
 70
    65
 10
0.0
 20
0.0
 30
0.0
  0
LINE
  5
33C
100
AcDbEntity
  8
MAIN0
  6
BYBLOCK
 62
0
100
AcDbLine
 10
288.2636721359074
 20
351.5795370453689
 30
0.0000000000000000
 11
316.7541513618372
 21
338.2942083978119
 31
0.0000000000000000
  0
LINE
  5
33D
100
AcDbEntity
  8
MAIN0
  6
BYBLOCK
 62
0
100
AcDbLine
 10
315.7867723112452
 20
340.9520604953666
 30
0.0000000000000000
 11
334.8045940895767
 21
381.7359109120159
 31
0.0000000000000000
  0
INSERT
  5
33E
100
AcDbEntity
  8
MAIN0
  6
BYBLOCK
 62
0
100
AcDbBlockReference
  2
_OPEN
 10
314.9415357877638
 20
339.1394449212933
 30
0.0000000000000000
 41
2.000000000000000
 42
2.000000000000000
 43
2.000000000000000
 50
245.0000000000000
  0
INSERT
  5
33F
100
AcDbEntity
  8
MAIN0
  6
BYBLOCK
 62
0
100
AcDbBlockReference
  2
_OPEN
 10
335.6498306130581
 20
383.5485264860891
 30
0.0000000000000000
 41
2.000000000000000
 42
2.000000000000000
 43
2.000000000000000
 50
64.99999999999999
  0
LINE
  5
340
100
AcDbEntity
  8
MAIN0
  6
BYBLOCK
 62
0
100
AcDbLine
 10
312.7703429347040
 20
394.2174068051688
 30
0.0000000000000000
 11
337.4624461871314
 21
382.7032899626078
 31
0.0000000000000000
  0
MTEXT
  5
341
100
AcDbEntity
  8
MAIN0
  6
BYBLOCK
 62
0
100
AcDbMText
 10
323.4377522802020
 20
362.2103531201076
 30
0.0000000000000000
 40
3.099999904632568
 41
0.0000000000000000
 71
     5
 72
     1
  1
\A1;49
 11
0.4226182617406996
 21
0.9063077870366498
 31
0.0000000000000000
  7
STANDARD
  0
ENDBLK
  5
342
100
AcDbEntity
  8
MAIN0
  6
CONTINUOUS
 62
3
100
AcDbBlockEnd
  0
BLOCK
  5
344
100
AcDbEntity
  8
MAIN0
  6
CONTINUOUS
 62
3
100
AcDbBlockBegin
  2
*D25
 70
    65
 10
0.0
 20
0.0
 30
0.0
  0
LINE
  5
345
100
AcDbEntity
  8
MAIN0
  6
BYBLOCK
 62
0
100
AcDbLine
 10
286.4215083301085
 20
397.6770468130512
 30
0.0000000000000000
 11
268.1188155524681
 21
406.2117326201229
 31
0.0000000000000000
  0
LINE
  5
346
100
AcDbEntity
  8
MAIN0
  6
BYBLOCK
 62
0
100
AcDbLine
 10
269.0861946030600
 20
403.5538805225683
 30
0.0000000000000000
 11
253.4493189186543
 21
370.0204924022119
 31
0.0000000000000000
  0
INSERT
  5
347
100
AcDbEntity
  8
MAIN0
  6
BYBLOCK
 62
0
100
AcDbBlockReference
  2
_OPEN
 10
269.9314311265414
 20
405.3664960966415
 30
0.0000000000000000
 41
2.000000000000000
 42
2.000000000000000
 43
2.000000000000000
 50
65.00000000000051
  0
INSERT
  5
348
100
AcDbEntity
  8
MAIN0
  6
BYBLOCK
 62
0
100
AcDbBlockReference
  2
_OPEN
 10
252.6040823951730
 20
368.2078768281385
 30
0.0000000000000000
 41
2.000000000000000
 42
2.000000000000000
 43
2.000000000000000
 50
245.0000000000005
  0
LINE
  5
349
100
AcDbEntity
  8
MAIN0
  6
BYBLOCK
 62
0
100
AcDbLine
 10
267.3288296026287
 20
361.3416144409057
 30
0.0000000000000000
 11
250.7914668210997
 21
369.0531133516199
 31
0.0000000000000000
  0
MTEXT
  5
34A
100
AcDbEntity
  8
MAIN0
  6
BYBLOCK
 62
0
100
AcDbMText
 10
259.4098258406482
 20
387.6535538788064
 30
0.0000000000000000
 40
3.099999904632568
 41
0.0000000000000000
 71
     5
 72
     1
  1
\A1;41
 11
0.4226182617406902
 21
0.9063077870366543
 31
0.0000000000000000
  7
STANDARD
  0
ENDBLK
  5
34B
100
AcDbEntity
  8
MAIN0
  6
CONTINUOUS
 62
3
100
AcDbBlockEnd
  0
BLOCK
  5
34D
100
AcDbEntity
  8
MAIN0
  6
CONTINUOUS
 62
3
100
AcDbBlockBegin
  2
*D26
 70
    65
 10
0.0
 20
0.0
 30
0.0
  0
LINE
  5
34E
100
AcDbEntity
  8
MAIN0
  6
BYBLOCK
 62
0
100
AcDbLine
 10
267.3288296026287
 20
361.3416144409057
 30
0.0000000000000000
 11
250.7914668210997
 21
369.0531133516199
 31
0.0000000000000000
  0
LINE
  5
34F
100
AcDbEntity
  8
MAIN0
  6
BYBLOCK
 62
0
100
AcDbLine
 10
252.6040823951730
 20
368.2078768281385
 30
0.0000000000000000
 11
250.9136093482103
 21
364.5826456799921
 31
0.0000000000000000
  0
INSERT
  5
350
100
AcDbEntity
  8
MAIN0
  6
BYBLOCK
 62
0
100
AcDbBlockReference
  2
_OPEN
 10
252.6040823951730
 20
368.2078768281385
 30
0.0000000000000000
 41
2.000000000000000
 42
2.000000000000000
 43
2.000000000000000
 50
245.0000000000007
  0
INSERT
  5
351
100
AcDbEntity
  8
MAIN0
  6
BYBLOCK
 62
0
100
AcDbBlockReference
  2
_OPEN
 10
250.9136093482103
 20
364.5826456799921
 30
0.0000000000000000
 41
2.000000000000000
 42
2.000000000000000
 43
2.000000000000000
 50
65.00000000000074
  0
LINE
  5
352
100
AcDbEntity
  8
MAIN0
  6
BYBLOCK
 62
0
100
AcDbLine
 10
253.4493189186543
 20
370.0204924022119
 30
0.0000000000000000
 11
253.8719371803950
 21
370.9268001892485
 31
0.0000000000000000
  0
LINE
  5
353
100
AcDbEntity
  8
MAIN0
  6
BYBLOCK
 62
0
100
AcDbLine
 10
250.0683728247289
 20
362.7700301059188
 30
0.0000000000000000
 11
249.6457545629882
 21
361.8637223188821
 31
0.0000000000000000
  0
LINE
  5
354
100
AcDbEntity
  8
MAIN0
  6
BYBLOCK
 62
0
100
AcDbLine
 10
267.4036865517770
 20
356.8931963964020
 30
0.0000000000000000
 11
249.1009937741370
 21
365.4278822034734
 31
0.0000000000000000
  0
MTEXT
  5
355
100
AcDbEntity
  8
MAIN0
  6
BYBLOCK
 62
0
100
AcDbMText
 10
249.9009149514826
 20
367.2616286704817
 30
0.0000000000000000
 40
3.099999904632568
 41
0.0000000000000000
 71
     5
 72
     1
  1
\A1;4
 11
0.4226182617406902
 21
0.9063077870366543
 31
0.0000000000000000
  7
STANDARD
  0
ENDBLK
  5
356
100
AcDbEntity
  8
MAIN0
  6
CONTINUOUS
 62
3
100
AcDbBlockEnd
  0
BLOCK
  5
358
100
AcDbEntity
  8
MAIN0
  6
CONTINUOUS
 62
3
100
AcDbBlockBegin
  2
*D27
 70
    65
 10
0.0
 20
0.0
 30
0.0
  0
LINE
  5
359
100
AcDbEntity
  8
MAIN0
  6
BYBLOCK
 62
0
100
AcDbLine
 10
306.3456655201782
 20
364.1119455158628
 30
0.0000000000000000
 11
316.3742144414190
 21
359.4355563537064
 31
0.0000000000000000
  0
LINE
  5
35A
100
AcDbEntity
  8
MAIN0
  6
BYBLOCK
 62
0
100
AcDbLine
 10
315.4068353908271
 20
362.0934084512610
 30
0.0000000000000000
 11
326.3949101960851
 21
385.6574109142141
 31
0.0000000000000000
  0
INSERT
  5
35B
100
AcDbEntity
  8
MAIN0
  6
BYBLOCK
 62
0
100
AcDbBlockReference
  2
_OPEN
 10
314.5615988673457
 20
360.2807928771877
 30
0.0000000000000000
 41
2.000000000000000
 42
2.000000000000000
 43
2.000000000000000
 50
245.0000000000007
  0
INSERT
  5
35C
100
AcDbEntity
  8
MAIN0
  6
BYBLOCK
 62
0
100
AcDbBlockReference
  2
_OPEN
 10
327.2401467195664
 20
387.4700264882874
 30
0.0000000000000000
 41
2.000000000000000
 42
2.000000000000000
 43
2.000000000000000
 50
65.00000000000067
  0
LINE
  5
35D
100
AcDbEntity
  8
MAIN0
  6
BYBLOCK
 62
0
100
AcDbLine
 10
312.7703429347040
 20
394.2174068051688
 30
0.0000000000000000
 11
329.0527622936398
 21
386.6247899648061
 31
0.0000000000000000
  0
MTEXT
  5
35E
100
AcDbEntity
  8
MAIN0
  6
BYBLOCK
 62
0
100
AcDbMText
 10
319.0429418732471
 20
374.7417770991540
 30
0.0000000000000000
 40
3.099999904632568
 41
0.0000000000000000
 71
     5
 72
     1
  1
\A1;30
 11
0.4226182617406894
 21
0.9063077870366547
 31
0.0000000000000000
  7
STANDARD
  0
ENDBLK
  5
35F
100
AcDbEntity
  8
MAIN0
  6
CONTINUOUS
 62
3
100
AcDbBlockEnd
  0
BLOCK
  5
361
100
AcDbEntity
  8
MAIN0
  6
BYBLOCK
 62
3
100
AcDbBlockBegin
  2
*X0
 70
     1
 10
0.0
 20
0.0
 30
0.0
  0
LINE
  5
362
100
AcDbEntity
  8
MAIN0
  6
BYBLOCK
 62
0
100
AcDbLine
 10
291.5287904524471
 20
389.2269034927558
 30
0.0000000000000000
 11
293.1146231616872
 21
390.1424844343250
 31
0.0000000000000000
  0
LINE
  5
363
100
AcDbEntity
  8
MAIN0
  6
BYBLOCK
 62
0
100
AcDbLine
 10
289.3159954204224
 20
390.2587467621135
 30
0.0000000000000000
 11
290.9018281296662
 21
391.1743277036849
 31
0.0000000000000000
  0
LINE
  5
364
100
AcDbEntity
  8
MAIN0
  6
BYBLOCK
 62
0
100
AcDbLine
 10
287.1032003884014
 20
391.2905900314736
 30
0.0000000000000000
 11
288.6890330976434
 21
392.2061709730443
 31
0.0000000000000000
  0
LINE
  5
365
100
AcDbEntity
  8
MAIN0
  6
BYBLOCK
 62
0
100
AcDbLine
 10
284.8904053563797
 20
392.3224333008325
 30
0.0000000000000000
 11
286.4762380656253
 21
393.2380142424054
 31
0.0000000000000000
  0
LINE
  5
366
100
AcDbEntity
  8
MAIN0
  6
BYBLOCK
 62
0
100
AcDbLine
 10
282.6776103243587
 20
393.3542765701923
 30
0.0000000000000000
 11
284.2634430335988
 21
394.2698575117620
 31
0.0000000000000000
  0
LINE
  5
367
100
AcDbEntity
  8
MAIN0
  6
BYBLOCK
 62
0
100
AcDbLine
 10
280.4648152923341
 20
394.3861198395508
 30
0.0000000000000000
 11
282.0506480015778
 21
395.3017007811224
 31
0.0000000000000000
  0
LINE
  5
368
100
AcDbEntity
  8
MAIN0
  6
BYBLOCK
 62
0
100
AcDbLine
 10
278.2520202603160
 20
395.4179631089115
 30
0.0000000000000000
 11
279.8378529695570
 21
396.3335440504825
 31
0.0000000000000000
  0
LINE
  5
369
100
AcDbEntity
  8
MAIN0
  6
BYBLOCK
 62
0
100
AcDbLine
 10
276.0392252282904
 20
396.4498063782694
 30
0.0000000000000000
 11
277.6250579375342
 21
397.3653873198410
 31
0.0000000000000000
  0
LINE
  5
36A
100
AcDbEntity
  8
MAIN0
  6
BYBLOCK
 62
0
100
AcDbLine
 10
273.8264301962676
 20
397.4816496476288
 30
0.0000000000000000
 11
275.4122629055104
 21
398.3972305891990
 31
0.0000000000000000
  0
LINE
  5
36B
100
AcDbEntity
  8
MAIN0
  6
BYBLOCK
 62
0
100
AcDbLine
 10
271.6136351642458
 20
398.5134929169876
 30
0.0000000000000000
 11
273.1994678734914
 21
399.4290738585601
 31
0.0000000000000000
  0
LINE
  5
36C
100
AcDbEntity
  8
MAIN0
  6
BYBLOCK
 62
0
100
AcDbLine
 10
269.4008401322267
 20
399.5453361863484
 30
0.0000000000000000
 11
270.9866728414685
 21
400.4609171279194
 31
0.0000000000000000
  0
LINE
  5
36D
100
AcDbEntity
  8
MAIN0
  6
BYBLOCK
 62
0
100
AcDbLine
 10
293.7415854844671
 20
388.1950602233957
 30
0.0000000000000000
 11
295.3274181937117
 21
389.1106411649677
 31
0.0000000000000000
  0
LINE
  5
36E
100
AcDbEntity
  8
MAIN0
  6
BYBLOCK
 62
0
100
AcDbLine
 10
295.9543805164899
 20
387.1632169540367
 30
0.0000000000000000
 11
297.5402132257327
 21
388.0787978956073
 31
0.0000000000000000
  0
LINE
  5
36F
100
AcDbEntity
  8
MAIN0
  6
BYBLOCK
 62
0
100
AcDbLine
 10
298.1671755485126
 20
386.1313736846774
 30
0.0000000000000000
 11
299.7530082577555
 21
387.0469546262481
 31
0.0000000000000000
  0
LINE
  5
370
100
AcDbEntity
  8
MAIN0
  6
BYBLOCK
 62
0
100
AcDbLine
 10
300.3799705805345
 20
385.0995304153176
 30
0.0000000000000000
 11
301.9658032897755
 21
386.0151113568882
 31
0.0000000000000000
  0
LINE
  5
371
100
AcDbEntity
  8
MAIN0
  6
BYBLOCK
 62
0
100
AcDbLine
 10
302.5927656125563
 20
384.0676871459586
 30
0.0000000000000000
 11
304.1785983217983
 21
384.9832680875293
 31
0.0000000000000000
  0
LINE
  5
372
100
AcDbEntity
  8
MAIN0
  6
BYBLOCK
 62
0
100
AcDbLine
 10
304.8055606445791
 20
383.0358438765993
 30
0.0000000000000000
 11
306.3913933538211
 21
383.9514248181699
 31
0.0000000000000000
  0
LINE
  5
373
100
AcDbEntity
  8
MAIN0
  6
BYBLOCK
 62
0
100
AcDbLine
 10
307.0183556765992
 20
382.0040006072396
 30
0.0000000000000000
 11
308.6041883858438
 21
382.9195815488116
 31
0.0000000000000000
  0
LINE
  5
374
100
AcDbEntity
  8
MAIN0
  6
BYBLOCK
 62
0
100
AcDbLine
 10
309.2311507086238
 20
380.9721573378811
 30
0.0000000000000000
 11
310.8169834178665
 21
381.8877382794522
 31
0.0000000000000000
  0
LINE
  5
375
100
AcDbEntity
  8
MAIN0
  6
BYBLOCK
 62
0
100
AcDbLine
 10
311.4439457406438
 20
379.9403140685213
 30
0.0000000000000000
 11
313.0297784498885
 21
380.8558950100933
 31
0.0000000000000000
  0
LINE
  5
376
100
AcDbEntity
  8
MAIN0
  6
BYBLOCK
 62
0
100
AcDbLine
 10
313.6567407726693
 20
378.9084707991638
 30
0.0000000000000000
 11
315.2425734819094
 21
379.8240517407335
 31
0.0000000000000000
  0
ENDBLK
  5
377
100
AcDbEntity
  8
MAIN0
  6
BYBLOCK
 62
3
100
AcDbBlockEnd
  0
BLOCK
  5
379
100
AcDbEntity
  8
MAIN0
  6
BYBLOCK
 62
3
100
AcDbBlockBegin
  2
*X1
 70
     1
 10
0.0
 20
0.0
 30
0.0
  0
LINE
  5
37A
100
AcDbEntity
  8
MAIN0
  6
BYBLOCK
 62
0
100
AcDbLine
 10
276.5258421606507
 20
357.0529770529532
 30
0.0000000000000000
 11
278.1116748698926
 21
357.9685579945239
 31
0.0000000000000000
  0
LINE
  5
37B
100
AcDbEntity
  8
MAIN0
  6
BYBLOCK
 62
0
100
AcDbLine
 10
274.3130471286279
 20
358.0848203223127
 30
0.0000000000000000
 11
275.8988798378699
 21
359.0004012638829
 31
0.0000000000000000
  0
LINE
  5
37C
100
AcDbEntity
  8
MAIN0
  6
BYBLOCK
 62
0
100
AcDbLine
 10
272.1002520966070
 20
359.1166635916721
 30
0.0000000000000000
 11
273.6860848058498
 21
360.0322445332432
 31
0.0000000000000000
  0
LINE
  5
37D
100
AcDbEntity
  8
MAIN0
  6
BYBLOCK
 62
0
100
AcDbLine
 10
269.8874570645851
 20
360.1485068610314
 30
0.0000000000000000
 11
271.4732897738261
 21
361.0640878026020
 31
0.0000000000000000
  0
LINE
  5
37E
100
AcDbEntity
  8
MAIN0
  6
BYBLOCK
 62
0
100
AcDbLine
 10
267.6746620325615
 20
361.1803501303903
 30
0.0000000000000000
 11
269.2604947418043
 21
362.0959310719609
 31
0.0000000000000000
  0
LINE
  5
37F
100
AcDbEntity
  8
MAIN0
  6
BYBLOCK
 62
0
100
AcDbLine
 10
265.4618670005395
 20
362.2121933997491
 30
0.0000000000000000
 11
267.0476997097814
 21
363.1277743413202
 31
0.0000000000000000
  0
LINE
  5
380
100
AcDbEntity
  8
MAIN0
  6
BYBLOCK
 62
0
100
AcDbLine
 10
263.2490719685204
 20
363.2440366691107
 30
0.0000000000000000
 11
264.8349046777605
 21
364.1596176106795
 31
0.0000000000000000
  0
LINE
  5
381
100
AcDbEntity
  8
MAIN0
  6
BYBLOCK
 62
0
100
AcDbLine
 10
261.0362769364958
 20
364.2758799384683
 30
0.0000000000000000
 11
262.6221096457377
 21
365.1914608800389
 31
0.0000000000000000
  0
LINE
  5
382
100
AcDbEntity
  8
MAIN0
  6
BYBLOCK
 62
0
100
AcDbLine
 10
258.8234819044731
 20
365.3077232078273
 30
0.0000000000000000
 11
260.4093146137159
 21
366.2233041493984
 31
0.0000000000000000
  0
LINE
  5
383
100
AcDbEntity
  8
MAIN0
  6
BYBLOCK
 62
0
100
AcDbLine
 10
256.6106868724511
 20
366.3395664771859
 30
0.0000000000000000
 11
258.1965195816931
 21
367.2551474187566
 31
0.0000000000000000
  0
LINE
  5
384
100
AcDbEntity
  8
MAIN0
  6
BYBLOCK
 62
0
100
AcDbLine
 10
254.3978918404322
 20
367.3714097465477
 30
0.0000000000000000
 11
255.9837245496722
 21
368.2869906881174
 31
0.0000000000000000
  0
LINE
  5
385
100
AcDbEntity
  8
MAIN0
  6
BYBLOCK
 62
0
100
AcDbLine
 10
278.7386371926726
 20
356.0211337835945
 30
0.0000000000000000
 11
280.3244699019155
 21
356.9367147251651
 31
0.0000000000000000
  0
LINE
  5
386
100
AcDbEntity
  8
MAIN0
  6
BYBLOCK
 62
0
100
AcDbLine
 10
280.9514322246963
 20
354.9892905142356
 30
0.0000000000000000
 11
282.5372649339373
 21
355.9048714558062
 31
0.0000000000000000
  0
LINE
  5
387
100
AcDbEntity
  8
MAIN0
  6
BYBLOCK
 62
0
100
AcDbLine
 10
283.1642272567145
 20
353.9574472448744
 30
0.0000000000000000
 11
284.7500599659581
 21
354.8730281864459
 31
0.0000000000000000
  0
LINE
  5
388
100
AcDbEntity
  8
MAIN0
  6
BYBLOCK
 62
0
100
AcDbLine
 10
285.3770222887391
 20
352.9256039755161
 30
0.0000000000000000
 11
286.9628549979819
 21
353.8411849170871
 31
0.0000000000000000
  0
LINE
  5
389
100
AcDbEntity
  8
MAIN0
  6
BYBLOCK
 62
0
100
AcDbLine
 10
287.5898173207617
 20
351.8937607061575
 30
0.0000000000000000
 11
289.1756500300037
 21
352.8093416477281
 31
0.0000000000000000
  0
LINE
  5
38A
100
AcDbEntity
  8
MAIN0
  6
BYBLOCK
 62
0
100
AcDbLine
 10
289.8026123527847
 20
350.8619174367988
 30
0.0000000000000000
 11
291.3884450620265
 21
351.7774983783688
 31
0.0000000000000000
  0
LINE
  5
38B
100
AcDbEntity
  8
MAIN0
  6
BYBLOCK
 62
0
100
AcDbLine
 10
292.0154073848047
 20
349.8300741674384
 30
0.0000000000000000
 11
293.6012400940475
 21
350.7456551090090
 31
0.0000000000000000
  0
LINE
  5
38C
100
AcDbEntity
  8
MAIN0
  6
BYBLOCK
 62
0
100
AcDbLine
 10
294.2282024168256
 20
348.7982308980786
 30
0.0000000000000000
 11
295.8140351260693
 21
349.7138118396497
 31
0.0000000000000000
  0
LINE
  5
38D
100
AcDbEntity
  8
MAIN0
  6
BYBLOCK
 62
0
100
AcDbLine
 10
296.4409974488501
 20
347.7663876287202
 30
0.0000000000000000
 11
298.0268301580939
 21
348.6819685702922
 31
0.0000000000000000
  0
LINE
  5
38E
100
AcDbEntity
  8
MAIN0
  6
BYBLOCK
 62
0
100
AcDbLine
 10
298.6537924808748
 20
346.7345443593627
 30
0.0000000000000000
 11
300.2396251901167
 21
347.6501253009329
 31
0.0000000000000000
  0
ENDBLK
  5
38F
100
AcDbEntity
  8
MAIN0
  6
BYBLOCK
 62
3
100
AcDbBlockEnd
  0
BLOCK
  5
391
100
AcDbEntity
  8
MAIN0
  6
BYBLOCK
 62
3
100
AcDbBlockBegin
  2
M5
 70
    64
 10
0.0
 20
0.0
 30
0.0
  0
LINE
  5
392
100
AcDbEntity
  8
MAIN0
  6
BYBLOCK
 62
0
100
AcDbLine
 10
248.1410636203135
 20
40.84058647994098
 30
0.0000000000000000
 11
378.3831047906211
 21
40.84058647994098
 31
0.0000000000000000
  0
LINE
  5
393
100
AcDbEntity
  8
MAIN0
  6
BYBLOCK
 62
0
100
AcDbLine
 10
248.1410636203135
 20
35.84058647994098
 30
0.0000000000000000
 11
378.3831047906211
 21
35.84058647994098
 31
0.0000000000000000
  0
LINE
  5
394
100
AcDbEntity
  8
MAIN0
  6
BYBLOCK
 62
0
100
AcDbLine
 10
248.1410636203135
 20
30.84058647994098
 30
0.0000000000000000
 11
378.3831047906211
 21
30.84058647994098
 31
0.0000000000000000
  0
MTEXT
  5
395
100
AcDbEntity
  8
MAIN0
  6
BYBLOCK
 62
0
100
AcDbMText
 10
249.1410636203135
 20
44.44058638457361
 30
0.0000000000000000
 40
3.099999904632568
 41
0.0000000000000000
 71
     1
 72
     1
  1
{\H0.88x;1.}
 11
1.000000000000000
 21
0.0000000000000000
 31
0.0000000000000000
  7
STANDARD
  0
MTEXT
  5
396
100
AcDbEntity
  8
MAIN0
  6
BYBLOCK
 62
0
100
AcDbMText
 10
249.1410636203135
 20
39.44058638457361
 30
0.0000000000000000
 40
3.099999904632568
 41
0.0000000000000000
 71
     1
 72
     1
  1
{\H0.88x;2.}
 11
1.000000000000000
 21
0.0000000000000000
 31
0.0000000000000000
  7
STANDARD
  0
MTEXT
  5
397
100
AcDbEntity
  8
MAIN0
  6
BYBLOCK
 62
0
100
AcDbMText
 10
249.1410636203135
 20
29.44058638457366
 30
0.0000000000000000
 40
3.099999904632568
 41
0.0000000000000000
 71
     1
 72
     1
  1
{\H0.88x;3.}
 11
1.000000000000000
 21
0.0000000000000000
 31
0.0000000000000000
  7
STANDARD
  0
ENDBLK
  5
398
100
AcDbEntity
  8
MAIN0
  6
BYBLOCK
 62
3
100
AcDbBlockEnd
  0
BLOCK
  5
433
100
AcDbEntity
  8
MAIN0
  6
BYBLOCK
 62
3
100
AcDbBlockBegin
  2
*X2
 70
     1
 10
0.0
 20
0.0
 30
0.0
  0
LINE
  5
434
100
AcDbEntity
  8
MAIN0
  6
BYBLOCK
 62
0
100
AcDbLine
 10
73.95977119467858
 20
353.5037186323183
 30
0.0000000000000000
 11
75.45977119467847
 21
355.0037186323181
 31
0.0000000000000000
  0
LINE
  5
435
100
AcDbEntity
  8
MAIN0
  6
BYBLOCK
 62
0
100
AcDbLine
 10
71.13134406993260
 20
353.5037186323187
 30
0.0000000000000000
 11
72.63134406993208
 21
355.0037186323184
 31
0.0000000000000000
  0
LINE
  5
436
100
AcDbEntity
  8
MAIN0
  6
BYBLOCK
 62
0
100
AcDbLine
 10
68.30291694518508
 20
353.5037186323183
 30
0.0000000000000000
 11
69.80291694518596
 21
355.0037186323189
 31
0.0000000000000000
  0
LINE
  5
437
100
AcDbEntity
  8
MAIN0
  6
BYBLOCK
 62
0
100
AcDbLine
 10
65.47448982043886
 20
353.5037186323186
 30
0.0000000000000000
 11
66.97448982043881
 21
355.0037186323181
 31
0.0000000000000000
  0
LINE
  5
438
100
AcDbEntity
  8
MAIN0
  6
BYBLOCK
 62
0
100
AcDbLine
 10
62.64606269569242
 20
353.5037186323190
 30
0.0000000000000000
 11
64.14606269569242
 21
355.0037186323185
 31
0.0000000000000000
  0
LINE
  5
439
100
AcDbEntity
  8
MAIN0
  6
BYBLOCK
 62
0
100
AcDbLine
 10
59.81763557094524
 20
353.5037186323182
 30
0.0000000000000000
 11
61.31763557094612
 21
355.0037186323187
 31
0.0000000000000000
  0
LINE
  5
43A
100
AcDbEntity
  8
MAIN0
  6
BYBLOCK
 62
0
100
AcDbLine
 10
56.98920844619903
 20
353.5037186323186
 30
0.0000000000000000
 11
58.48920844619858
 21
355.0037186323184
 31
0.0000000000000000
  0
LINE
  5
43B
100
AcDbEntity
  8
MAIN0
  6
BYBLOCK
 62
0
100
AcDbLine
 10
54.16078132145276
 20
353.5037186323190
 30
0.0000000000000000
 11
55.66078132145219
 21
355.0037186323187
 31
0.0000000000000000
  0
LINE
  5
43C
100
AcDbEntity
  8
MAIN0
  6
BYBLOCK
 62
0
100
AcDbLine
 10
51.33235419670513
 20
353.5037186323178
 30
0.0000000000000000
 11
52.83235419670604
 21
355.0037186323192
 31
0.0000000000000000
  0
LINE
  5
43D
100
AcDbEntity
  8
MAIN0
  6
BYBLOCK
 62
0
100
AcDbLine
 10
49.79110838009825
 20
354.7908999404579
 30
0.0000000000000000
 11
50.00392707195863
 21
355.0037186323185
 31
0.0000000000000000
  0
LINE
  5
43E
100
AcDbEntity
  8
MAIN0
  6
BYBLOCK
 62
0
100
AcDbLine
 10
76.78819831942616
 20
353.5037186323191
 30
0.0000000000000000
 11
78.28819831942610
 21
355.0037186323193
 31
0.0000000000000000
  0
LINE
  5
43F
100
AcDbEntity
  8
MAIN0
  6
BYBLOCK
 62
0
100
AcDbLine
 10
79.61662544417243
 20
353.5037186323186
 30
0.0000000000000000
 11
81.11662544417237
 21
355.0037186323189
 31
0.0000000000000000
  0
LINE
  5
440
100
AcDbEntity
  8
MAIN0
  6
BYBLOCK
 62
0
100
AcDbLine
 10
82.44505256891867
 20
353.5037186323183
 30
0.0000000000000000
 11
83.94505256891853
 21
355.0037186323185
 31
0.0000000000000000
  0
LINE
  5
441
100
AcDbEntity
  8
MAIN0
  6
BYBLOCK
 62
0
100
AcDbLine
 10
85.27347969366633
 20
353.5037186323194
 30
0.0000000000000000
 11
86.77347969366633
 21
355.0037186323193
 31
0.0000000000000000
  0
LINE
  5
442
100
AcDbEntity
  8
MAIN0
  6
BYBLOCK
 62
0
100
AcDbLine
 10
88.10190681841263
 20
353.5037186323191
 30
0.0000000000000000
 11
89.60190681841252
 21
355.0037186323189
 31
0.0000000000000000
  0
LINE
  5
443
100
AcDbEntity
  8
MAIN0
  6
BYBLOCK
 62
0
100
AcDbLine
 10
90.93033394315896
 20
353.5037186323187
 30
0.0000000000000000
 11
92.43033394315944
 21
355.0037186323193
 31
0.0000000000000000
  0
LINE
  5
444
100
AcDbEntity
  8
MAIN0
  6
BYBLOCK
 62
0
100
AcDbLine
 10
93.75876106790662
 20
353.5037186323198
 30
0.0000000000000000
 11
95.25876106790582
 21
355.0037186323189
 31
0.0000000000000000
  0
LINE
  5
445
100
AcDbEntity
  8
MAIN0
  6
BYBLOCK
 62
0
100
AcDbLine
 10
96.58718819265289
 20
353.5037186323194
 30
0.0000000000000000
 11
98.08718819265209
 21
355.0037186323185
 31
0.0000000000000000
  0
ENDBLK
  5
446
100
AcDbEntity
  8
MAIN0
  6
BYBLOCK
 62
3
100
AcDbBlockEnd
  0
BLOCK
  5
448
100
AcDbEntity
  8
MAIN0
  6
BYBLOCK
 62
3
100
AcDbBlockBegin
  2
*X3
 70
     1
 10
0.0
 20
0.0
 30
0.0
  0
LINE
  5
449
100
AcDbEntity
  8
MAIN0
  6
BYBLOCK
 62
0
100
AcDbLine
 10
74.48984964549473
 20
389.0037186323185
 30
0.0000000000000000
 11
75.98984964549393
 21
390.5037186323175
 31
0.0000000000000000
  0
LINE
  5
44A
100
AcDbEntity
  8
MAIN0
  6
BYBLOCK
 62
0
100
AcDbLine
 10
71.66142252074820
 20
389.0037186323187
 30
0.0000000000000000
 11
73.16142252074772
 21
390.5037186323178
 31
0.0000000000000000
  0
LINE
  5
44B
100
AcDbEntity
  8
MAIN0
  6
BYBLOCK
 62
0
100
AcDbLine
 10
68.83299539600188
 20
389.0037186323192
 30
0.0000000000000000
 11
70.33299539600139
 21
390.5037186323183
 31
0.0000000000000000
  0
LINE
  5
44C
100
AcDbEntity
  8
MAIN0
  6
BYBLOCK
 62
0
100
AcDbLine
 10
66.00456827125424
 20
389.0037186323180
 30
0.0000000000000000
 11
67.50456827125416
 21
390.5037186323175
 31
0.0000000000000000
  0
LINE
  5
44D
100
AcDbEntity
  8
MAIN0
  6
BYBLOCK
 62
0
100
AcDbLine
 10
63.17614114650851
 20
389.0037186323187
 30
0.0000000000000000
 11
64.67614114650806
 21
390.5037186323177
 31
0.0000000000000000
  0
LINE
  5
44E
100
AcDbEntity
  8
MAIN0
  6
BYBLOCK
 62
0
100
AcDbLine
 10
60.34771402176068
 20
389.0037186323176
 30
0.0000000000000000
 11
61.84771402176165
 21
390.5037186323183
 31
0.0000000000000000
  0
LINE
  5
44F
100
AcDbEntity
  8
MAIN0
  6
BYBLOCK
 62
0
100
AcDbLine
 10
57.51928689701441
 20
389.0037186323180
 30
0.0000000000000000
 11
59.01928689701390
 21
390.5037186323178
 31
0.0000000000000000
  0
LINE
  5
450
100
AcDbEntity
  8
MAIN0
  6
BYBLOCK
 62
0
100
AcDbLine
 10
54.69085977226814
 20
389.0037186323185
 30
0.0000000000000000
 11
56.19085977226763
 21
390.5037186323182
 31
0.0000000000000000
  0
LINE
  5
451
100
AcDbEntity
  8
MAIN0
  6
BYBLOCK
 62
0
100
AcDbLine
 10
51.86243264752056
 20
389.0037186323172
 30
0.0000000000000000
 11
53.36243264752147
 21
390.5037186323186
 31
0.0000000000000000
  0
LINE
  5
452
100
AcDbEntity
  8
MAIN0
  6
BYBLOCK
 62
0
100
AcDbLine
 10
50.32118683091426
 20
390.2908999404576
 30
0.0000000000000000
 11
50.53400552277407
 21
390.5037186323179
 31
0.0000000000000000
  0
LINE
  5
453
100
AcDbEntity
  8
MAIN0
  6
BYBLOCK
 62
0
100
AcDbLine
 10
77.31827677024180
 20
389.0037186323186
 30
0.0000000000000000
 11
78.81827677024165
 21
390.5037186323185
 31
0.0000000000000000
  0
LINE
  5
454
100
AcDbEntity
  8
MAIN0
  6
BYBLOCK
 62
0
100
AcDbLine
 10
80.14670389498804
 20
389.0037186323183
 30
0.0000000000000000
 11
81.64670389498792
 21
390.5037186323182
 31
0.0000000000000000
  0
LINE
  5
455
100
AcDbEntity
  8
MAIN0
  6
BYBLOCK
 62
0
100
AcDbLine
 10
82.97513101973431
 20
389.0037186323179
 30
0.0000000000000000
 11
84.47513101973419
 21
390.5037186323177
 31
0.0000000000000000
  0
LINE
  5
456
100
AcDbEntity
  8
MAIN0
  6
BYBLOCK
 62
0
100
AcDbLine
 10
85.80355814448194
 20
389.0037186323188
 30
0.0000000000000000
 11
87.30355814448183
 21
390.5037186323186
 31
0.0000000000000000
  0
LINE
  5
457
100
AcDbEntity
  8
MAIN0
  6
BYBLOCK
 62
0
100
AcDbLine
 10
88.63198526922815
 20
389.0037186323185
 30
0.0000000000000000
 11
90.13198526922804
 21
390.5037186323183
 31
0.0000000000000000
  0
LINE
  5
458
100
AcDbEntity
  8
MAIN0
  6
BYBLOCK
 62
0
100
AcDbLine
 10
91.46041239397434
 20
389.0037186323181
 30
0.0000000000000000
 11
92.96041239397476
 21
390.5037186323186
 31
0.0000000000000000
  0
LINE
  5
459
100
AcDbEntity
  8
MAIN0
  6
BYBLOCK
 62
0
100
AcDbLine
 10
94.28883951872200
 20
389.0037186323192
 30
0.0000000000000000
 11
95.78883951872120
 21
390.5037186323183
 31
0.0000000000000000
  0
LINE
  5
45A
100
AcDbEntity
  8
MAIN0
  6
BYBLOCK
 62
0
100
AcDbLine
 10
97.11726664346830
 20
389.0037186323189
 30
0.0000000000000000
 11
98.61726664346747
 21
390.5037186323179
 31
0.0000000000000000
  0
ENDBLK
  5
45B
100
AcDbEntity
  8
MAIN0
  6
BYBLOCK
 62
3
100
AcDbBlockEnd
  0
BLOCK
  5
4B7
100
AcDbEntity
  8
MAIN0
  6
BYBLOCK
 62
3
100
AcDbBlockBegin
  2
M6
 70
    64
 10
0.0
 20
0.0
 30
0.0
  0
LINE
  5
4B8
100
AcDbEntity
  8
MAIN0
  6
BYBLOCK
 62
0
100
AcDbLine
 10
155.9460898330613
 20
370.9886507884432
 30
0.0000000000000000
 11
155.9460898330613
 21
382.9886507884432
 31
0.0000000000000000
  0
LINE
  5
4B9
100
AcDbEntity
  8
MAIN0
  6
BYBLOCK
 62
0
100
AcDbLine
 10
155.9460898330613
 20
370.9886507884432
 30
0.0000000000000000
 11
154.6519946075487
 21
375.8182799198884
 31
0.0000000000000000
  0
LINE
  5
4BA
100
AcDbEntity
  8
MAIN0
  6
BYBLOCK
 62
0
100
AcDbLine
 10
155.9460898330617
 20
370.9886507884431
 30
0.0000000000000000
 11
157.2401850585743
 21
375.8182799198884
 31
0.0000000000000000
  0
ENDBLK
  5
4BB
100
AcDbEntity
  8
MAIN0
  6
BYBLOCK
 62
3
100
AcDbBlockEnd
  0
BLOCK
  5
4E2
100
AcDbEntity
  8
MAIN0
  6
CONTINUOUS
 62
3
100
AcDbBlockBegin
  2
*D28
 70
    65
 10
0.0
 20
0.0
 30
0.0
  0
LINE
  5
4E3
100
AcDbEntity
  8
MAIN0
  6
BYBLOCK
 62
0
100
AcDbLine
 10
248.7126781647455
 20
341.5553180993783
 30
0.0000000000000000
 11
241.9985970948193
 21
327.1569247800592
 31
0.0000000000000000
  0
LINE
  5
4E4
100
AcDbEntity
  8
MAIN0
  6
BYBLOCK
 62
0
100
AcDbLine
 10
244.6564491923740
 20
328.1243038306511
 30
0.0000000000000000
 11
277.2835295256934
 21
312.9100464079859
 31
0.0000000000000000
  0
INSERT
  5
4E5
100
AcDbEntity
  8
MAIN0
  6
BYBLOCK
 62
0
100
AcDbBlockReference
  2
_OPEN
 10
242.8438336183007
 20
328.9695403541325
 30
0.0000000000000000
 41
2.000000000000000
 42
2.000000000000000
 43
2.000000000000000
 50
155.0000000000000
  0
INSERT
  5
4E6
100
AcDbEntity
  8
MAIN0
  6
BYBLOCK
 62
0
100
AcDbBlockReference
  2
_OPEN
 10
279.0961450997667
 20
312.0648098845045
 30
0.0000000000000000
 41
2.000000000000000
 42
2.000000000000000
 43
2.000000000000000
 50
335.0000000000000
  0
LINE
  5
4E7
100
AcDbEntity
  8
MAIN0
  6
BYBLOCK
 62
0
100
AcDbLine
 10
284.9649896462115
 20
324.6505876297504
 30
0.0000000000000000
 11
278.2509085762853
 21
310.2521943104313
 31
0.0000000000000000
  0
MTEXT
  5
4E8
100
AcDbEntity
  8
MAIN0
  6
BYBLOCK
 62
0
100
AcDbMText
 10
261.8363567754501
 20
322.3751060395275
 30
0.0000000000000000
 40
3.099999904632568
 41
0.0000000000000000
 71
     5
 72
     1
  1
\A1;40
 11
0.9063077870366501
 21
-0.4226182617406992
 31
0.0000000000000000
  7
STANDARD
  0
ENDBLK
  5
4E9
100
AcDbEntity
  8
MAIN0
  6
CONTINUOUS
 62
3
100
AcDbBlockEnd
  0
BLOCK
  5
4EB
100
AcDbEntity
  8
MAIN0
  6
CONTINUOUS
 62
3
100
AcDbBlockBegin
  2
*D29
 70
    65
 10
0.0
 20
0.0
 30
0.0
  0
LINE
  5
4EC
100
AcDbEntity
  8
MAIN0
  6
BYBLOCK
 62
0
100
AcDbLine
 10
55.16142252074815
 20
395.8175469291684
 30
0.0000000000000000
 11
91.16142252074806
 21
395.8175469291684
 31
0.0000000000000000
  0
INSERT
  5
4ED
100
AcDbEntity
  8
MAIN0
  6
BYBLOCK
 62
0
100
AcDbBlockReference
  2
_OPEN
 10
53.16142252074815
 20
395.8175469291684
 30
0.0000000000000000
 41
2.000000000000000
 42
2.000000000000000
 43
2.000000000000000
 50
180.0000000000000
  0
INSERT
  5
4EE
100
AcDbEntity
  8
MAIN0
  6
BYBLOCK
 62
0
100
AcDbBlockReference
  2
_OPEN
 10
93.16142252074806
 20
395.8175469291684
 30
0.0000000000000000
 41
2.000000000000000
 42
2.000000000000000
 43
2.000000000000000
 50
0.0000000000000000
  0
LINE
  5
4EF
100
AcDbEntity
  8
MAIN0
  6
BYBLOCK
 62
0
100
AcDbLine
 10
93.16142252074806
 20
331.1316121351510
 30
0.0000000000000000
 11
93.16142252074806
 21
397.8175469291684
 31
0.0000000000000000
  0
MTEXT
  5
4F0
100
AcDbEntity
  8
MAIN0
  6
BYBLOCK
 62
0
100
AcDbMText
 10
73.16142252074809
 20
397.8675468814847
 30
0.0000000000000000
 40
3.099999904632568
 41
0.0000000000000000
 71
     5
 72
     1
  1
\A1;40
 11
1.000000000000000
 21
0.0000000000000000
 31
0.0000000000000000
  7
STANDARD
  0
ENDBLK
  5
4F1
100
AcDbEntity
  8
MAIN0
  6
CONTINUOUS
 62
3
100
AcDbBlockEnd
  0
ENDSEC
  0
SECTION
  2
ENTITIES
  0
LEADER
  5
46
100
AcDbEntity
  8
MAIN0
  6
CONTINUOUS
 62
3
100
AcDbLeader
  3
MAIN001
 73
     0
 75
     1
 40
3.099999904632568
 41
19.14900057220459
 76
     3
 10
70.91978036937388
 20
230.8791091614503
 30
0.0000000000000000
 10
52.94955506948992
 20
201.5636246158941
 30
0.0000000000000000
 10
51.02255512527987
 20
201.5636246158941
 30
0.0000000000000000
340
47
213
0.0000000000000000
223
-0.5000000000000000
233
0.0000000000000000
1001
ACAD
1000
DSTYLE
1002
{
1070
   147
1040
0.0
1070
    77
1070
     1
1070
   173
1070
     1
1070
     6
1000
_OPEN
1070
     7
1000
_OPEN
1002
}
  0
MTEXT
  5
47
102
{ACAD_REACTORS
330
46
102
}
100
AcDbEntity
  8
MAIN0
  6
CONTINUOUS
 62
3
100
AcDbMText
 10
31.87355455307528
 20
205.1636245205267
 30
0.0000000000000000
 40
3.099999904632568
 41
0.0000000000000000
 71
     1
 72
     1
  1
{\H0.92x;{3-Rc1/4}}
 11
1.000000000000000
 21
0.0000000000000000
 31
0.0000000000000000
  7
STANDARD
  0
LEADER
  5
48
100
AcDbEntity
  8
MAIN0
  6
CONTINUOUS
 62
3
100
AcDbLeader
  3
MAIN001
 73
     0
 74
     0
 75
     1
 40
3.099999904632568
 41
23.41508862091703
 76
     3
 10
181.6370022463049
 20
157.9924413911537
 30
0.0000000000000000
 10
163.1759438956120
 20
118.1982462202758
 30
0.0000000000000000
 10
165.1009438398220
 20
118.1982462202758
 30
0.0000000000000000
340
49
213
-0.1250880630175573
223
-0.5000000000000000
233
0.0000000000000000
1001
ACAD
1000
DSTYLE
1002
{
1070
   147
1040
0.0
1070
    77
1070
     1
1070
   173
1070
     1
1070
     6
1000
_OPEN
1070
     7
1000
_OPEN
1002
}
  0
MTEXT
  5
49
102
{ACAD_REACTORS
330
48
102
}
100
AcDbEntity
  8
MAIN0
  6
CONTINUOUS
 62
3
100
AcDbMText
 10
165.2260319028396
 20
121.7982461249084
 30
0.0000000000000000
 40
3.099999904632568
 41
0.0000000000000000
 71
     1
 72
     1
  1
{\H0.93x;{ M6\P ネジ深12\P マワリドメ用}}
 11
1.000000000000000
 21
0.0000000000000000
 31
0.0000000000000000
  7
KNJYOKO
  0
LEADER
  5
4A
100
AcDbEntity
  8
MAIN0
  6
CONTINUOUS
 62
3
100
AcDbLeader
  3
MAIN001
 73
     0
 75
     1
 40
3.099999904632568
 41
34.41900079154968
 76
     3
 10
84.98420081245394
 20
197.6954858923728
 30
0.0000000000000000
 10
66.37875748117907
 20
165.7795333671325
 30
0.0000000000000000
 10
64.45175753696901
 20
165.7795333671325
 30
0.0000000000000000
340
4B
213
0.0000000000000000
223
-0.5000000000000000
233
0.0000000000000000
1001
ACAD
1000
DSTYLE
1002
{
1070
   147
1040
0.0
1070
    77
1070
     1
1070
   173
1070
     1
1070
     6
1000
_OPEN
1070
     7
1000
_OPEN
1002
}
  0
MTEXT
  5
4B
102
{ACAD_REACTORS
330
4A
102
}
100
AcDbEntity
  8
MAIN0
  6
CONTINUOUS
 62
3
100
AcDbMText
 10
30.03275674541933
 20
169.3795332717651
 30
0.0000000000000000
 40
3.099999904632568
 41
0.0000000000000000
 71
     1
 72
     1
  1
{\H0.94x;{取付ボルト締めつけ用\P  (2-\U+220517)}}
 11
1.000000000000000
 21
0.0000000000000000
 31
0.0000000000000000
  7
KNJYOKO
  0
LEADER
  5
4C
100
AcDbEntity
  8
MAIN0
  6
CONTINUOUS
 62
3
100
AcDbLeader
  3
MAIN001
 73
     0
 74
     0
 75
     1
 40
3.099999904632568
 41
13.54100031948087
 76
     3
 10
174.4771267871351
 20
243.4195315530406
 30
0.0000000000000000
 10
270.9604171342700
 20
275.0259346232026
 30
0.0000000000000000
 10
272.8854170784801
 20
275.0259346232026
 30
0.0000000000000000
340
4D
213
0.0000000000000000
223
-0.5000000000000000
233
0.0000000000000000
1001
ACAD
1000
DSTYLE
1002
{
1070
   147
1040
0.0
1070
    77
1070
     1
1070
   173
1070
     1
1070
     6
1000
_OPEN
1070
     7
1000
_OPEN
1002
}
  0
MTEXT
  5
4D
102
{ACAD_REACTORS
330
4C
102
}
100
AcDbEntity
  8
MAIN0
  6
CONTINUOUS
 62
3
100
AcDbMText
 10
272.8864170784801
 20
278.6259345278352
 30
0.0000000000000000
 40
3.099999904632568
 41
0.0000000000000000
 71
     1
 72
     1
  1
{\H0.92x;{メイバン}}
 11
1.000000000000000
 21
0.0000000000000000
 31
0.0000000000000000
  7
KNJYOKO
  0
SPLINE
  5
4E
100
AcDbEntity
  8
MAIN0
  6
CONTINUOUS
 62
3
100
AcDbSpline
210
0.0000000000000000
220
0.0000000000000000
230
1.000000000000000
 70
     8
 71
     3
 72
    12
 73
     8
 74
     0
 42
1.000000000000000e-007
 43
1.000000000000000e-007
 12
-0.9843910952784967
 22
0.2225774147535944
 32
0.0000000000000000
 13
-0.6718668810270145
 23
0.9454782855396502
 33
0.0000000000000000
 40
0.0000000000000000
 40
0.0000000000000000
 40
0.0000000000000000
 40
0.0000000000000000
 40
12.42700765638719
 40
26.88310440830115
 40
44.16230047928581
 40
81.71366846864689
 40
105.3004943214719
 40
105.3004943214719
 40
105.3004943214719
 40
105.3004943214719
 10
410.9460898330667
 20
260.8121485986563
 30
0.0000000000000000
 10
406.8684112737650
 20
261.7341390110836
 30
0.0000000000000000
 10
398.0472484094404
 20
263.7286629710004
 30
0.0000000000000000
 10
382.5875153035050
 20
255.7188346977641
 30
0.0000000000000000
 10
366.0629699662683
 20
281.1134271946830
 30
0.0000000000000000
 10
334.9207347422133
 20
250.6580733959350
 30
0.0000000000000000
 10
321.2284922060885
 20
269.9263516275685
 30
0.0000000000000000
 10
315.9460898330668
 20
277.3599621837855
 30
0.0000000000000000
  0
LINE
  5
4F
100
AcDbEntity
  8
MAIN0
  6
CONTINUOUS
 62
3
100
AcDbLine
 10
376.9460898330667
 20
274.3490563321904
 30
0.0000000000000000
 11
377.9460898330667
 21
274.3490563321904
 31
0.0000000000000000
  0
MTEXT
  5
50
100
AcDbEntity
  8
MAIN0
  6
CONTINUOUS
 62
3
100
AcDbMText
 10
429.2114951366799
 20
372.1274697843390
 30
0.0000000000000000
 40
3.099999904632568
 41
0.0000000000000000
 71
     1
 72
     1
  1
{\H0.70x;{MAX 79}}
 11
1.000000000000000
 21
0.0000000000000000
 31
0.0000000000000000
  7
STANDARD
  0
INSERT
  5
57
100
AcDbEntity
  8
MAIN0
  6
CONTINUOUS
 62
2
100
AcDbBlockReference
  2
M0
 10
0.0000000000000000
 20
0.0000000000000000
 30
0.0000000000000000
 50
0.0000000000000000
  0
INSERT
  5
5E
100
AcDbEntity
  8
MAIN0
  6
CONTINUOUS
 62
2
100
AcDbBlockReference
  2
M1
 10
0.0000000000000000
 20
0.0000000000000000
 30
0.0000000000000000
 50
0.0000000000000000
  0
MTEXT
  5
5F
100
AcDbEntity
  8
MAIN0
  6
CONTINUOUS
 62
3
100
AcDbMText
 10
515.3218725880429
 20
299.7907569920631
 30
0.0000000000000000
 40
5.000000000000000
 41
0.0000000000000000
 71
     1
 72
     1
  1
{\H0.82x;{P}}
 11
1.000000000000000
 21
0.0000000000000000
 31
0.0000000000000000
  7
STANDARD
  0
MTEXT
  5
60
100
AcDbEntity
  8
MAIN0
  6
CONTINUOUS
 62
3
100
AcDbMText
 10
515.3218725880429
 20
173.7601426512966
 30
0.0000000000000000
 40
5.000000000000000
 41
0.0000000000000000
 71
     1
 72
     1
  1
{\H0.82x;{P}}
 11
1.000000000000000
 21
0.0000000000000000
 31
0.0000000000000000
  7
STANDARD
  0
LINE
  5
61
100
AcDbEntity
  8
MAIN0
  6
CONTINUOUS
 62
3
100
AcDbLine
 10
119.5828504144912
 20
87.75795859793175
 30
0.0000000000000000
 11
183.7408582182796
 21
87.75795859799339
 31
0.0000000000000000
  0
MTEXT
  5
62
100
AcDbEntity
  8
MAIN0
  6
CONTINUOUS
 62
3
100
AcDbMText
 10
120.1907495816689
 20
91.66849587841460
 30
0.0000000000000000
 40
3.099999904632568
 41
0.0000000000000000
 71
     1
 72
     1
  1
{\H0.94x;{Ｃポートの最高エア圧力　１．０　MPa}}
 11
1.000000000000000
 21
0.0000000000000000
 31
0.0000000000000000
  7
KNJYOKO
  0
MTEXT
  5
63
100
AcDbEntity
  8
MAIN0
  6
CONTINUOUS
 62
3
100
AcDbMText
 10
118.1644138711705
 20
96.93696563376744
 30
0.0000000000000000
 40
3.099999904632568
 41
0.0000000000000000
 71
     1
 72
     1
  1
{\H0.89x;{注記}}
 11
1.000000000000000
 21
0.0000000000000000
 31
0.0000000000000000
  7
KNJYOKO
  0
LINE
  5
64
100
AcDbEntity
  8
MAIN0
  6
CONTINUOUS
 62
3
100
AcDbLine
 10
104.1972074386534
 20
273.4096337419095
 30
0.0000000000000000
 11
149.1972074386534
 21
273.4096337419095
 31
0.0000000000000000
  0
LINE
  5
65
100
AcDbEntity
  8
MAIN0
  6
CONTINUOUS
 62
3
100
AcDbLine
 10
105.1972074386534
 20
274.4096337419095
 30
0.0000000000000000
 11
148.1972074386534
 21
274.4096337419095
 31
0.0000000000000000
  0
LINE
  5
66
100
AcDbEntity
  8
MAIN0
  6
CONTINUOUS
 62
3
100
AcDbLine
 10
104.1972074386534
 20
298.4096337419095
 30
0.0000000000000000
 11
104.1972074386534
 21
273.4096337419095
 31
0.0000000000000000
  0
LINE
  5
67
100
AcDbEntity
  8
MAIN0
  6
CONTINUOUS
 62
3
100
AcDbLine
 10
105.1972074386534
 20
297.4096337419095
 30
0.0000000000000000
 11
105.1972074386534
 21
274.4096337419095
 31
0.0000000000000000
  0
LINE
  5
68
100
AcDbEntity
  8
MAIN0
  6
CONTINUOUS
 62
3
100
AcDbLine
 10
105.1972074386534
 20
297.4096337419095
 30
0.0000000000000000
 11
148.1972074386534
 21
297.4096337419095
 31
0.0000000000000000
  0
LINE
  5
69
100
AcDbEntity
  8
MAIN0
  6
CONTINUOUS
 62
3
100
AcDbLine
 10
104.1972074386534
 20
298.4096337419095
 30
0.0000000000000000
 11
149.1972074386534
 21
298.4096337419287
 31
0.0000000000000000
  0
LINE
  5
6A
100
AcDbEntity
  8
MAIN0
  6
CONTINUOUS
 62
3
100
AcDbLine
 10
149.1972074386534
 20
298.4096337419287
 30
0.0000000000000000
 11
149.1972074386480
 21
273.4096337419287
 31
0.0000000000000000
  0
LINE
  5
6B
100
AcDbEntity
  8
MAIN0
  6
CONTINUOUS
 62
3
100
AcDbLine
 10
148.1972074386534
 20
297.4096337419095
 30
0.0000000000000000
 11
148.1972074386534
 21
274.4096337419095
 31
0.0000000000000000
  0
MTEXT
  5
6C
100
AcDbEntity
  8
MAIN0
  6
CONTINUOUS
 62
3
100
AcDbMText
 10
112.4989380170998
 20
296.3690727931620
 30
0.0000000000000000
 40
3.099999904632568
 41
0.0000000000000000
 71
     1
 72
     1
  1
{\H0.93x;{注意　CAUTION}}
 11
1.000000000000000
 21
0.0000000000000000
 31
0.0000000000000000
  7
KNJYOKO
  0
MTEXT
  5
6D
100
AcDbEntity
  8
MAIN0
  6
CONTINUOUS
 62
3
100
AcDbMText
 10
106.4989380170998
 20
292.1690728885295
 30
0.0000000000000000
 40
3.000000000000000
 41
0.0000000000000000
 71
     1
 72
     1
  1
{\H0.61x;{エアブローは 1.0MPa}}
 11
1.000000000000000
 21
0.0000000000000000
 31
0.0000000000000000
  7
KNJYOKO
  0
MTEXT
  5
6E
100
AcDbEntity
  8
MAIN0
  6
CONTINUOUS
 62
3
100
AcDbMText
 10
106.4989380170998
 20
288.6690728885295
 30
0.0000000000000000
 40
3.000000000000000
 41
0.0000000000000000
 71
     1
 72
     1
  1
{\H0.59x;{以下で使用すること}}
 11
1.000000000000000
 21
0.0000000000000000
 31
0.0000000000000000
  7
KNJYOKO
  0
MTEXT
  5
6F
100
AcDbEntity
  8
MAIN0
  6
CONTINUOUS
 62
3
100
AcDbMText
 10
106.4989380170998
 20
285.1690728885295
 30
0.0000000000000000
 40
3.000000000000000
 41
0.0000000000000000
 71
     1
 72
     1
  1
{\H0.63x;{Set up air pressure for}}
 11
1.000000000000000
 21
0.0000000000000000
 31
0.0000000000000000
  7
STANDARD
  0
MTEXT
  5
70
100
AcDbEntity
  8
MAIN0
  6
CONTINUOUS
 62
3
100
AcDbMText
 10
106.4989380170998
 20
281.6690728885295
 30
0.0000000000000000
 40
3.000000000000000
 41
0.0000000000000000
 71
     1
 72
     1
  1
{\H0.63x;{air blowing lower than}}
 11
1.000000000000000
 21
0.0000000000000000
 31
0.0000000000000000
  7
STANDARD
  0
MTEXT
  5
71
100
AcDbEntity
  8
MAIN0
  6
CONTINUOUS
 62
3
100
AcDbMText
 10
106.4989380170998
 20
278.1690728885295
 30
0.0000000000000000
 40
3.000000000000000
 41
0.0000000000000000
 71
     1
 72
     1
  1
{\H0.63x;{1.0MPa(10.2kgf/cm )}}
 11
1.000000000000000
 21
0.0000000000000000
 31
0.0000000000000000
  7
STANDARD
  0
MTEXT
  5
72
100
AcDbEntity
  8
MAIN0
  6
CONTINUOUS
 62
3
100
AcDbMText
 10
137.2422838520658
 20
278.4728526002122
 30
0.0000000000000000
 40
2.000000000000000
 41
0.0000000000000000
 71
     1
 72
     1
  1
{\H0.63x;{2}}
 11
1.000000000000000
 21
0.0000000000000000
 31
0.0000000000000000
  7
STANDARD
  0
INSERT
  5
77
100
AcDbEntity
  8
MAIN0
  6
CONTINUOUS
 62
4
100
AcDbBlockReference
  2
M2
 10
0.0000000000000000
 20
0.0000000000000000
 30
0.0000000000000000
 50
0.0000000000000000
  0
LINE
  5
78
100
AcDbEntity
  8
MAIN0
  6
HIDDEN
 62
3
100
AcDbLine
 10
170.6892662208081
 20
220.2724275665369
 30
0.0000000000000000
 11
162.1117404756701
 21
228.8499533116734
 31
0.0000000000000000
  0
ARC
  5
79
100
AcDbEntity
  8
MAIN0
  6
HIDDEN
 62
3
100
AcDbCircle
 10
155.9460898330668
 20
237.3490563321907
 30
0.0000000000000000
 40
10.50000000000000
100
AcDbArc
 50
273.8531547620032
 51
356.1356878925197
  0
LINE
  5
7A
100
AcDbEntity
  8
MAIN0
  6
CENTER
 62
12
100
AcDbLine
 10
230.2538665428246
 20
163.0412796224458
 30
0.0000000000000000
 11
160.9409191750618
 21
232.3542269901968
 31
0.0000000000000000
  0
LINE
  5
7B
100
AcDbEntity
  8
MAIN0
  6
HIDDEN
 62
3
100
AcDbLine
 10
173.0227185987234
 20
222.6058799444527
 30
0.0000000000000000
 11
164.4451928535854
 21
231.1834056895893
 31
0.0000000000000000
  0
LINE
  5
7C
100
AcDbEntity
  8
MAIN0
  6
HIDDEN
 62
3
100
AcDbLine
 10
174.7551302126304
 20
224.3382915583600
 30
0.0000000000000000
 11
168.9568546069011
 21
218.5400159526296
 31
0.0000000000000000
  0
LINE
  5
7D
100
AcDbEntity
  8
MAIN0
  6
HIDDEN
 62
3
100
AcDbLine
 10
174.7551302126305
 20
224.3382915583600
 30
0.0000000000000000
 11
217.7560957241915
 21
181.3373260468062
 31
0.0000000000000000
  0
LINE
  5
7E
100
AcDbEntity
  8
MAIN0
  6
HIDDEN
 62
3
100
AcDbLine
 10
211.9578201184623
 20
175.5390504410759
 30
0.0000000000000000
 11
168.9568546069012
 21
218.5400159526297
 31
0.0000000000000000
  0
MTEXT
  5
7F
100
AcDbEntity
  8
MAIN0
  6
CONTINUOUS
 62
3
100
AcDbMText
 10
227.5125868046741
 20
173.2057122851105
 30
0.0000000000000000
 40
4.000000000000000
 41
0.0000000000000000
 71
     1
 72
     1
  1
{\H0.81x;{C}}
 11
1.000000000000000
 21
0.0000000000000000
 31
0.0000000000000000
  7
STANDARD
  0
LINE
  5
80
100
AcDbEntity
  8
MAIN0
  6
HIDDEN
 62
3
100
AcDbLine
 10
215.7101795972245
 20
170.7121332834850
 30
0.0000000000000000
 11
211.5545924764906
 21
175.1358227991042
 31
0.0000000000000000
  0
LINE
  5
81
100
AcDbEntity
  8
MAIN0
  6
HIDDEN
 62
3
100
AcDbLine
 10
216.1415536912743
 20
171.1010917818075
 30
0.0000000000000000
 11
211.9654215163600
 21
175.5466518389736
 31
0.0000000000000000
  0
LINE
  5
82
100
AcDbEntity
  8
MAIN0
  6
HIDDEN
 62
3
100
AcDbLine
 10
211.5545924764906
 20
175.1358227991042
 30
0.0000000000000000
 11
218.1593233661630
 21
181.7405536887777
 31
0.0000000000000000
  0
MTEXT
  5
83
100
AcDbEntity
  8
MAIN0
  6
CONTINUOUS
 62
3
100
AcDbMText
 10
210.5852243971055
 20
175.4900934571902
 30
0.0000000000000000
 40
5.000000000000000
 41
0.0000000000000000
 71
     1
 72
     1
  1
{\H0.89x;{ＡＲ}}
 11
0.7071067811868248
 21
0.7071067811862704
 31
0.0000000000000000
  7
KNJYOKO
  0
LINE
  5
84
100
AcDbEntity
  8
MAIN0
  6
HIDDEN
 62
3
100
AcDbLine
 10
222.1940543834604
 20
177.1535924739947
 30
0.0000000000000000
 11
217.7484943262936
 21
181.3297246489083
 31
0.0000000000000000
  0
LINE
  5
85
100
AcDbEntity
  8
MAIN0
  6
HIDDEN
 62
3
100
AcDbLine
 10
218.1593233661630
 20
181.7405536887777
 30
0.0000000000000000
 11
222.5830128817829
 21
177.5849665680446
 31
0.0000000000000000
  0
LEADER
  5
86
100
AcDbEntity
  8
MAIN0
  6
CONTINUOUS
 62
3
100
AcDbLeader
  3
MAIN001
 73
     0
 74
     0
 75
     1
 40
3.099999904632568
 41
15.82977699726939
 76
     3
 10
213.0031348733115
 20
173.5476337962563
 30
0.0000000000000000
 10
201.9941247372802
 20
134.4922977757823
 30
0.0000000000000000
 10
203.9191246814903
 20
134.4922977757823
 30
0.0000000000000000
340
87
213
0.5302234938728816
223
-0.5000000000000000
233
0.0000000000000000
1001
ACAD
1000
DSTYLE
1002
{
1070
   147
1040
0.0
1070
    77
1070
     1
1070
   173
1070
     1
1070
     6
1000
_OPEN
1070
     7
1000
_OPEN
1002
}
  0
MTEXT
  5
87
102
{ACAD_REACTORS
330
86
102
}
100
AcDbEntity
  8
MAIN0
  6
CONTINUOUS
 62
3
100
AcDbMText
 10
203.3889011876174
 20
138.0922976804148
 30
0.0000000000000000
 40
3.099999904632568
 41
0.0000000000000000
 71
     1
 72
     1
  1
{\H0.92x;{ Rc1/8}}
 11
1.000000000000000
 21
0.0000000000000000
 31
0.0000000000000000
  7
STANDARD
  0
DIMENSION
  5
8F
100
AcDbEntity
  8
MAIN0
  6
CONTINUOUS
 62
3
100
AcDbDimension
  2
*D0
 10
187.4863982816052
 20
150.6927710672092
 30
0.0000000000000000
 11
177.0988009419743
 21
136.5129049786673
 31
0.0000000000000000
 70
162
  3
MAIN001
100
AcDb2LineAngularDimension
 13
155.9460898330713
 23
133.8181551081037
 33
0.0000000000000000
 14
155.9460898330669
 24
237.3490563321905
 34
0.0000000000000000
 15
187.1443781382795
 25
151.6324636879951
 35
0.0000000000000000
 16
173.9240421628488
 26
135.3910221303695
 36
0.0000000000000000
1001
ACAD
1000
DSTYLE
1002
{
1070
   173
1070
     1
1070
     6
1000
_OPEN
1070
     7
1000
_OPEN
1070
    41
1040
2.000000
1002
}
  0
DIMENSION
  5
97
100
AcDbEntity
  8
MAIN0
  6
CONTINUOUS
 62
3
100
AcDbDimension
  2
*D1
 10
229.1534921509797
 20
164.1416540142905
 30
0.0000000000000000
 11
215.0931260393684
 21
152.9867737939733
 31
0.0000000000000000
 70
162
  3
MAIN001
100
AcDb2LineAngularDimension
 13
187.4863982816052
 23
150.6927710672092
 33
0.0000000000000000
 14
187.1443781382795
 24
151.6324636879951
 34
0.0000000000000000
 15
160.9409191750618
 25
232.3542269901968
 35
0.0000000000000000
 16
211.5732025125681
 26
150.0319798625005
 36
0.0000000000000000
1001
ACAD
1000
DSTYLE
1002
{
1070
   173
1070
     1
1070
     6
1000
_OPEN
1070
     7
1000
_OPEN
1070
    41
1040
2.000000
1002
}
  0
DIMENSION
  5
9E
100
AcDbEntity
  8
MAIN0
  6
CONTINUOUS
 62
3
100
AcDbDimension
  2
*D2
 10
259.4769910571537
 20
237.3490563321905
 30
0.0000000000000000
 11
251.1342306901945
 21
197.9208374120926
 31
0.0000000000000000
 70
162
  3
MAIN001
100
AcDb2LineAngularDimension
 13
229.1534921509797
 23
164.1416540142905
 33
0.0000000000000000
 14
160.9409191750618
 24
232.3542269901968
 34
0.0000000000000000
 15
155.9460898330669
 25
237.3490563321905
 35
0.0000000000000000
 16
251.5961704564501
 26
197.7294956959100
 36
0.0000000000000000
1001
ACAD
1000
DSTYLE
1002
{
1070
   173
1070
     1
1070
     6
1000
_OPEN
1070
     7
1000
_OPEN
1070
    41
1040
2.000000
1002
}
  0
DIMENSION
  5
A7
100
AcDbEntity
  8
MAIN0
  6
CONTINUOUS
 62
3
100
AcDbDimension
  2
*D3
 10
325.9460898330704
 20
135.2843421876349
 30
0.0000000000000000
 11
392.9460898330682
 21
135.7843421876349
 31
0.0000000000000000
 70
32
  3
MAIN001
100
AcDbAlignedDimension
 13
459.9460898330661
 23
155.3490563321907
 33
0.0000000000000000
 14
325.9460898330704
 24
145.1490026837927
 34
0.0000000000000000
100
AcDbRotatedDimension
1001
ACAD
1000
DSTYLE
1002
{
1070
   173
1070
     1
1070
     6
1000
_OPEN
1070
     7
1000
_OPEN
1070
    41
1040
2.000000
1002
}
  0
DIMENSION
  5
B0
100
AcDbEntity
  8
MAIN0
  6
CONTINUOUS
 62
3
100
AcDbDimension
  2
*D4
 10
459.9460898330661
 20
135.2843421876349
 30
0.0000000000000000
 11
468.9460898330664
 21
135.7843421876349
 31
0.0000000000000000
 70
32
  3
MAIN001
100
AcDbAlignedDimension
 13
477.9460898330667
 23
157.3490563321907
 33
0.0000000000000000
 14
459.9460898330661
 24
155.3490563321907
 34
0.0000000000000000
100
AcDbRotatedDimension
1001
ACAD
1000
DSTYLE
1002
{
1070
   173
1070
     1
1070
     6
1000
_OPEN
1070
     7
1000
_OPEN
1070
    41
1040
2.000000
1002
}
  0
LINE
  5
B1
100
AcDbEntity
  8
MAIN0
  6
CONTINUOUS
 62
3
100
AcDbLine
 10
514.2460898330662
 20
251.8490563321907
 30
0.0000000000000000
 11
514.2460898330662
 21
222.8490563321907
 31
0.0000000000000000
  0
ELLIPSE
  5
B2
100
AcDbEntity
  8
MAIN0
  6
CONTINUOUS
 62
3
100
AcDbEllipse
 10
515.5960898330661
 20
223.5990563321907
 30
0.0000000000000000
 11
1.350000000000000
 21
0.0000000000000000
 31
0.0000000000000000
210
0.0000000000000000
220
0.0000000000000000
230
1.000000000000000
 40
0.5555555555555555
 41
0.0000000000000000
 42
6.283185307179586
  0
LINE
  5
B3
100
AcDbEntity
  8
MAIN0
  6
CONTINUOUS
 62
3
100
AcDbLine
 10
514.2460898330661
 20
222.8490563321907
 30
0.0000000000000000
 11
516.9460898330661
 21
222.8490563321907
 31
0.0000000000000000
  0
LINE
  5
B4
100
AcDbEntity
  8
MAIN0
  6
CONTINUOUS
 62
3
100
AcDbLine
 10
516.9460898330661
 20
251.8490563321907
 30
0.0000000000000000
 11
516.9460898330661
 21
222.8490563321907
 31
0.0000000000000000
  0
ELLIPSE
  5
B5
100
AcDbEntity
  8
MAIN0
  6
CONTINUOUS
 62
3
100
AcDbEllipse
 10
515.5960898330661
 20
251.0990563321907
 30
0.0000000000000000
 11
-1.350000000000000
 21
0.0000000000000000
 31
0.0000000000000000
210
0.0000000000000000
220
0.0000000000000000
230
1.000000000000000
 40
0.5555555555555555
 41
0.0000000000000000
 42
6.283185307179586
  0
LINE
  5
B6
100
AcDbEntity
  8
MAIN0
  6
CONTINUOUS
 62
3
100
AcDbLine
 10
514.2460898330661
 20
251.8490563321907
 30
0.0000000000000000
 11
516.9460898330661
 21
251.8490563321907
 31
0.0000000000000000
  0
SPLINE
  5
B7
100
AcDbEntity
  8
MAIN0
  6
CONTINUOUS
 62
3
100
AcDbSpline
210
0.0000000000000000
220
0.0000000000000000
230
1.000000000000000
 70
     8
 71
     3
 72
    11
 73
     7
 74
     0
 42
1.000000000000000e-007
 43
1.000000000000000e-007
 12
-0.8852024846048039
 22
-0.7394298108505382
 32
0.0000000000000000
 13
0.5988868796907809
 23
-0.9501551941699091
 33
0.0000000000000000
 40
0.0000000000000000
 40
0.0000000000000000
 40
0.0000000000000000
 40
0.0000000000000000
 40
8.335545578326549
 40
19.75018593333429
 40
28.88593023232166
 40
38.52157869845425
 40
38.52157869845425
 40
38.52157869845425
 40
38.52157869845425
 10
482.5807641965603
 20
254.8490563321907
 30
0.0000000000000000
 10
480.1212156444032
 20
252.7945393687513
 30
0.0000000000000000
 10
474.2935777578716
 20
247.9265806191018
 30
0.0000000000000000
 10
483.8026993328837
 20
237.8091406027879
 30
0.0000000000000000
 10
474.6743146828421
 20
228.8460889244818
 30
0.0000000000000000
 10
478.4216282963598
 20
222.9008434786211
 30
0.0000000000000000
 10
480.3451827775862
 20
219.8490563321907
 30
0.0000000000000000
  0
LEADER
  5
B8
100
AcDbEntity
  8
MAIN0
  6
CONTINUOUS
 62
3
100
AcDbLeader
  3
MAIN001
 73
     0
 74
     0
 75
     1
 40
3.099999904632568
 41
27.46100063419328
 76
     3
 10
515.5988556080506
 20
251.0326950932581
 30
0.0000000000000000
 10
524.1191570646909
 20
284.4319780213496
 30
0.0000000000000000
 10
526.0441570089009
 20
284.4319780213496
 30
0.0000000000000000
340
B9
213
0.0000000000000000
223
-0.5000000000000000
233
0.0000000000000000
1001
ACAD
1000
DSTYLE
1002
{
1070
   147
1040
0.0
1070
    77
1070
     1
1070
   173
1070
     1
1070
     6
1000
_DOT
1070
     7
1000
_DOT
1002
}
  0
MTEXT
  5
B9
102
{ACAD_REACTORS
330
B8
102
}
100
AcDbEntity
  8
MAIN0
  6
CONTINUOUS
 62
3
100
AcDbMText
 10
526.0451570089009
 20
288.0319779259822
 30
0.0000000000000000
 40
3.099999904632568
 41
0.0000000000000000
 71
     1
 72
     1
  1
{\H0.93x;{Ｏリング　Ｓ２６}}
 11
1.000000000000000
 21
0.0000000000000000
 31
0.0000000000000000
  7
KNJYOKO
  0
CIRCLE
  5
BA
100
AcDbEntity
  8
MAIN0
  6
CONTINUOUS
 62
3
100
AcDbCircle
 10
556.8475980276191
 20
124.7729764261449
 30
0.0000000000000000
 40
10.75000000000000
  0
CIRCLE
  5
BB
100
AcDbEntity
  8
MAIN0
  6
CONTINUOUS
 62
3
100
AcDbCircle
 10
556.8475980276191
 20
124.7729764261449
 30
0.0000000000000000
 40
12.00000000000000
  0
CIRCLE
  5
BC
100
AcDbEntity
  8
MAIN0
  6
CONTINUOUS
 62
3
100
AcDbCircle
 10
556.8475980276191
 20
124.7729764261449
 30
0.0000000000000000
 40
6.500000000000000
  0
CIRCLE
  5
BD
100
AcDbEntity
  8
MAIN0
  6
CONTINUOUS
 62
3
100
AcDbCircle
 10
556.8475980276191
 20
124.7729764261449
 30
0.0000000000000000
 40
3.500000000000000
  0
LINE
  5
BE
100
AcDbEntity
  8
MAIN0
  6
CONTINUOUS
 62
3
100
AcDbLine
 10
376.9460898330666
 20
272.4490563321906
 30
0.0000000000000000
 11
377.9460898330666
 21
273.4490563321906
 31
0.0000000000000000
  0
LINE
  5
BF
100
AcDbEntity
  8
MAIN0
  6
CONTINUOUS
 62
3
100
AcDbLine
 10
368.1460898330667
 20
275.5990563321906
 30
0.0000000000000000
 11
372.6460898330667
 21
275.5990563321906
 31
0.0000000000000000
  0
LINE
  5
C0
100
AcDbEntity
  8
MAIN0
  6
CONTINUOUS
 62
3
100
AcDbLine
 10
368.1460898330667
 20
284.0990563321906
 30
0.0000000000000000
 11
368.1460898330667
 21
275.5990563321906
 31
0.0000000000000000
  0
LINE
  5
C1
100
AcDbEntity
  8
MAIN0
  6
CONTINUOUS
 62
3
100
AcDbLine
 10
367.6460898330667
 20
276.4650817359750
 30
0.0000000000000000
 11
368.1460898330667
 21
275.5990563321906
 31
0.0000000000000000
  0
LINE
  5
C2
100
AcDbEntity
  8
MAIN0
  6
CONTINUOUS
 62
3
100
AcDbLine
 10
367.6460898330667
 20
283.2330309284061
 30
0.0000000000000000
 11
367.6460898330667
 21
276.4650817359750
 31
0.0000000000000000
  0
LINE
  5
C3
100
AcDbEntity
  8
MAIN0
  6
CONTINUOUS
 62
3
100
AcDbLine
 10
368.1460898330667
 20
284.0990563321906
 30
0.0000000000000000
 11
367.6460898330667
 21
283.2330309284061
 31
0.0000000000000000
  0
LINE
  5
C4
100
AcDbEntity
  8
MAIN0
  6
CONTINUOUS
 62
3
100
AcDbLine
 10
372.6460898330667
 20
284.0990563321906
 30
0.0000000000000000
 11
368.1460898330667
 21
284.0990563321906
 31
0.0000000000000000
  0
LINE
  5
C5
100
AcDbEntity
  8
MAIN0
  6
CONTINUOUS
 62
3
100
AcDbLine
 10
372.6460898330667
 20
284.4490563321905
 30
0.0000000000000000
 11
373.9460898330667
 21
284.4490563321905
 31
0.0000000000000000
  0
LINE
  5
C6
100
AcDbEntity
  8
MAIN0
  6
CONTINUOUS
 62
3
100
AcDbLine
 10
372.6460898330667
 20
275.2490563321906
 30
0.0000000000000000
 11
372.6460898330667
 21
284.4490563321905
 31
0.0000000000000000
  0
LINE
  5
C7
100
AcDbEntity
  8
MAIN0
  6
CONTINUOUS
 62
3
100
AcDbLine
 10
373.9460898330667
 20
279.1990563321906
 30
0.0000000000000000
 11
372.6460898330667
 21
280.4990563321906
 31
0.0000000000000000
  0
LINE
  5
C8
100
AcDbEntity
  8
MAIN0
  6
CONTINUOUS
 62
3
100
AcDbLine
 10
373.9460898330667
 20
275.2490563321906
 30
0.0000000000000000
 11
372.6460898330667
 21
275.2490563321906
 31
0.0000000000000000
  0
LINE
  5
C9
100
AcDbEntity
  8
MAIN0
  6
PHANTOM
 62
3
100
AcDbLine
 10
342.6460898330667
 20
275.2490563321906
 30
0.0000000000000000
 11
342.6460898330667
 21
284.4490563321905
 31
0.0000000000000000
  0
DIMENSION
  5
D2
100
AcDbEntity
  8
MAIN0
  6
CONTINUOUS
 62
3
100
AcDbDimension
  2
*D5
 10
373.9460898330667
 20
372.7352381198757
 30
0.0000000000000000
 11
392.4460898330667
 21
373.2352381198757
 31
0.0000000000000000
 70
32
  3
MAIN001
100
AcDbAlignedDimension
 13
410.9460898330667
 23
324.3490563321909
 33
0.0000000000000000
 14
373.9460898330667
 24
324.3490563321909
 34
0.0000000000000000
100
AcDbRotatedDimension
1001
ACAD
1000
DSTYLE
1002
{
1070
   173
1070
     1
1070
     6
1000
_OPEN
1070
     7
1000
_OPEN
1070
    41
1040
2.000000
1002
}
  0
DIMENSION
  5
DB
100
AcDbEntity
  8
MAIN0
  6
CONTINUOUS
 62
3
100
AcDbDimension
  2
*D6
 10
410.9460898330667
 20
372.7352381198757
 30
0.0000000000000000
 11
435.4460898330664
 21
373.2352381198757
 31
0.0000000000000000
 70
32
  1
\A1;MIN 49
  3
MAIN001
100
AcDbAlignedDimension
 13
459.9460898330661
 23
320.3490563321907
 33
0.0000000000000000
 14
410.9460898330667
 24
324.3490563321909
 34
0.0000000000000000
100
AcDbRotatedDimension
1001
ACAD
1000
DSTYLE
1002
{
1070
   173
1070
     1
1070
     6
1000
_OPEN
1070
     7
1000
_OPEN
1070
    41
1040
2.000000
1002
}
  0
INSERT
  5
E3
100
AcDbEntity
  8
MAIN0
  6
CONTINUOUS
 62
3
100
AcDbBlockReference
  2
D7
 10
526.2490620594707
 20
237.3490563321907
 30
0.0000000000000000
 50
0.0000000000000000
  0
MTEXT
  5
E4
100
AcDbEntity
  8
MAIN2
  6
CONTINUOUS
 62
3
100
AcDbMText
 10
115.1350070804002
 20
394.8145752651096
 30
0.0000000000000000
 40
4.000000000000000
 41
0.0000000000000000
 71
     1
 72
     1
  1
{\H0.63x;{Detectable plate}}
 11
1.000000000000000
 21
0.0000000000000000
 31
0.0000000000000000
  7
STANDARD
  0
MTEXT
  5
E5
100
AcDbEntity
  8
MAIN2
  6
CONTINUOUS
 62
3
100
AcDbMText
 10
109.5638028735118
 20
369.6922986850236
 30
0.0000000000000000
 40
3.000000000000000
 41
0.0000000000000000
 71
     1
 72
     1
  1
{\H0.63x;{Confirmation chuck close}}
 11
1.000000000000000
 21
0.0000000000000000
 31
0.0000000000000000
  7
STANDARD
  0
MTEXT
  5
E6
100
AcDbEntity
  8
MAIN2
  6
CONTINUOUS
 62
3
100
AcDbMText
 10
184.6933037919967
 20
363.5597323611308
 30
0.0000000000000000
 40
3.000000000000000
 41
0.0000000000000000
 71
     1
 72
     1
  1
{\H0.63x;{Confirmation chuck open}}
 11
1.000000000000000
 21
0.0000000000000000
 31
0.0000000000000000
  7
STANDARD
  0
MTEXT
  5
E7
100
AcDbEntity
  8
MAIN2
  6
CONTINUOUS
 62
3
100
AcDbMText
 10
271.6188912404064
 20
273.6026675905337
 30
0.0000000000000000
 40
3.000000000000000
 41
0.0000000000000000
 71
     1
 72
     1
  1
{\H0.63x;{Name plate}}
 11
1.000000000000000
 21
0.0000000000000000
 31
0.0000000000000000
  7
STANDARD
  0
MTEXT
  5
E8
100
AcDbEntity
  8
MAIN2
  6
CONTINUOUS
 62
3
100
AcDbMText
 10
31.30232747308367
 20
178.9831954959784
 30
0.0000000000000000
 40
3.000000000000000
 41
0.0000000000000000
 71
     1
 72
     1
  1
{\H0.63x;{For tightening the\Pmounting bolts}}
 11
1.000000000000000
 21
0.0000000000000000
 31
0.0000000000000000
  7
STANDARD
  0
MTEXT
  5
E9
100
AcDbEntity
  8
MAIN2
  6
CONTINUOUS
 62
3
100
AcDbMText
 10
153.0288667058602
 20
108.8422477550441
 30
0.0000000000000000
 40
3.000000000000000
 41
0.0000000000000000
 71
     1
 72
     1
  1
{\H0.63x;{Thread depth 12}}
 11
1.000000000000000
 21
0.0000000000000000
 31
0.0000000000000000
  7
STANDARD
  0
MTEXT
  5
EA
100
AcDbEntity
  8
MAIN2
  6
CONTINUOUS
 62
3
100
AcDbMText
 10
153.0288667058602
 20
104.7687280213423
 30
0.0000000000000000
 40
3.000000000000000
 41
0.0000000000000000
 71
     1
 72
     1
  1
{\H0.63x;{For preventing the rotation}}
 11
1.000000000000000
 21
0.0000000000000000
 31
0.0000000000000000
  7
STANDARD
  0
MTEXT
  5
EB
100
AcDbEntity
  8
MAIN2
  6
CONTINUOUS
 62
3
100
AcDbMText
 10
526.1753574232671
 20
283.5716774285357
 30
0.0000000000000000
 40
4.000000000000000
 41
0.0000000000000000
 71
     1
 72
     1
  1
{\H0.63x;{O-ring}}
 11
1.000000000000000
 21
0.0000000000000000
 31
0.0000000000000000
  7
STANDARD
  0
MTEXT
  5
EC
100
AcDbEntity
  8
MAIN2
  6
CONTINUOUS
 62
3
100
AcDbMText
 10
544.4574679577595
 20
82.06221612282900
 30
0.0000000000000000
 40
4.000000000000000
 41
0.0000000000000000
 71
     1
 72
     1
  1
{\H0.63x;{Section P-P}}
 11
1.000000000000000
 21
0.0000000000000000
 31
0.0000000000000000
  7
STANDARD
  0
MTEXT
  5
ED
100
AcDbEntity
  8
MAIN2
  6
CONTINUOUS
 62
3
100
AcDbMText
 10
50.98756163459518
 20
300.7992934390345
 30
0.0000000000000000
 40
4.000000000000000
 41
0.0000000000000000
 71
     1
 72
     1
  1
{\H0.63x;{See Q}}
 11
1.000000000000000
 21
0.0000000000000000
 31
0.0000000000000000
  7
STANDARD
  0
MTEXT
  5
EE
100
AcDbEntity
  8
MAIN2
  6
CONTINUOUS
 62
3
100
AcDbMText
 10
118.3658400070968
 20
102.3257286417574
 30
0.0000000000000000
 40
4.000000000000000
 41
0.0000000000000000
 71
     1
 72
     1
  1
{\H0.63x;{Note}}
 11
1.000000000000000
 21
0.0000000000000000
 31
0.0000000000000000
  7
STANDARD
  0
MTEXT
  5
EF
100
AcDbEntity
  8
MAIN2
  6
CONTINUOUS
 62
3
100
AcDbMText
 10
120.0325896221568
 20
81.47168715101100
 30
0.0000000000000000
 40
3.000000000000000
 41
0.0000000000000000
 71
     1
 72
     1
  1
{\H0.62x;{Max.operating air pressure of C-port}}
 11
1.000000000000000
 21
0.0000000000000000
 31
0.0000000000000000
  7
STANDARD
  0
MTEXT
  5
F0
100
AcDbEntity
  8
MAIN2
  6
CONTINUOUS
 62
3
100
AcDbMText
 10
527.0540348021355
 20
194.7641048940660
 30
0.0000000000000000
 40
4.000000000000000
 41
0.0000000000000000
 71
     1
 72
     1
  1
{\H0.84x;{※}}
 11
1.393499969507555e-015
 21
1.000000000000000
 31
0.0000000000000000
  7
KNJYOKO
  0
ARC
  5
F1
100
AcDbEntity
  8
MAIN2
  6
CONTINUOUS
 62
3
100
AcDbCircle
 10
155.9460898330668
 20
237.3490563321907
 30
0.0000000000000000
 40
89.50000000000000
100
AcDbArc
 50
102.9125472135449
 51
437.0874394596342
  0
ARC
  5
F2
100
AcDbEntity
  8
MAIN2
  6
CONTINUOUS
 62
3
100
AcDbCircle
 10
155.9460898330668
 20
237.3490563321907
 30
0.0000000000000000
 40
91.09999999996155
100
AcDbArc
 50
104.9999999997372
 51
414.9999999997444
  0
LINE
  5
F3
100
AcDbEntity
  8
MAIN2
  6
CONTINUOUS
 62
3
100
AcDbLine
 10
132.7817852967957
 20
323.7994177851692
 30
0.0000000000000000
 11
132.3676748246407
 21
325.3448991071958
 31
0.0000000000000000
  0
MTEXT
  5
F4
100
AcDbEntity
  8
MAIN2
  6
CONTINUOUS
 62
3
100
AcDbMText
 10
83.61566304892401
 20
44.28266809630347
 30
0.0000000000000000
 40
3.099999904632568
 41
0.0000000000000000
 71
     1
 72
     1
  1
{\H0.84x;{0.029}}
 11
1.000000000000000
 21
0.0000000000000000
 31
0.0000000000000000
  7
STANDARD
  0
LINE
  5
F5
100
AcDbEntity
  8
MAIN0
  6
CENTER
 62
3
100
AcDbLine
 10
459.9460898330661
 20
189.8490563321907
 30
0.0000000000000000
 11
499.7129130048258
 21
189.8490563321907
 31
0.0000000000000000
  0
LINE
  5
F6
100
AcDbEntity
  8
MAIN0
  6
CENTER
 62
3
100
AcDbLine
 10
459.9460898330661
 20
284.8490563321907
 30
0.0000000000000000
 11
501.3276117214318
 21
284.8490563321907
 31
0.0000000000000000
  0
LINE
  5
F7
100
AcDbEntity
  8
MAIN0
  6
PHANTOM
 62
3
100
AcDbLine
 10
342.6460898330667
 20
275.2490563321906
 30
0.0000000000000000
 11
343.9460898330667
 21
275.2490563321906
 31
0.0000000000000000
  0
LINE
  5
F8
100
AcDbEntity
  8
MAIN0
  6
PHANTOM
 62
3
100
AcDbLine
 10
338.1460898330667
 20
275.5990563321906
 30
0.0000000000000000
 11
342.6460898330667
 21
275.5990563321906
 31
0.0000000000000000
  0
LINE
  5
F9
100
AcDbEntity
  8
MAIN0
  6
PHANTOM
 62
3
100
AcDbLine
 10
337.6460898330667
 20
276.4650817359750
 30
0.0000000000000000
 11
338.1460898330667
 21
275.5990563321906
 31
0.0000000000000000
  0
LINE
  5
FA
100
AcDbEntity
  8
MAIN0
  6
PHANTOM
 62
3
100
AcDbLine
 10
338.1460898330667
 20
275.5990563321906
 30
0.0000000000000000
 11
338.1460898330667
 21
284.0990563321906
 31
0.0000000000000000
  0
LINE
  5
FB
100
AcDbEntity
  8
MAIN0
  6
PHANTOM
 62
3
100
AcDbLine
 10
337.6460898330667
 20
276.4650817359750
 30
0.0000000000000000
 11
337.6460898330667
 21
283.2330309284061
 31
0.0000000000000000
  0
LINE
  5
FC
100
AcDbEntity
  8
MAIN0
  6
PHANTOM
 62
3
100
AcDbLine
 10
337.6460898330667
 20
283.2330309284062
 30
0.0000000000000000
 11
338.1460898330667
 21
284.0990563321906
 31
0.0000000000000000
  0
LINE
  5
FD
100
AcDbEntity
  8
MAIN0
  6
PHANTOM
 62
3
100
AcDbLine
 10
338.1460898330667
 20
284.0990563321906
 30
0.0000000000000000
 11
342.6460898330667
 21
284.0990563321906
 31
0.0000000000000000
  0
LINE
  5
FE
100
AcDbEntity
  8
MAIN0
  6
PHANTOM
 62
3
100
AcDbLine
 10
342.6460898330667
 20
284.4490563321905
 30
0.0000000000000000
 11
343.9460898330667
 21
284.4490563321905
 31
0.0000000000000000
  0
LINE
  5
FF
100
AcDbEntity
  8
MAIN0
  6
PHANTOM
 62
3
100
AcDbLine
 10
342.6460898330667
 20
280.4990563321906
 30
0.0000000000000000
 11
343.9460898330667
 21
279.1990563321906
 31
0.0000000000000000
  0
CIRCLE
  5
100
100
AcDbEntity
  8
MAIN0
  6
CONTINUOUS
 62
3
100
AcDbCircle
 10
155.9460898330668
 20
237.3490563321907
 30
0.0000000000000000
 40
25.40000000000000
  0
CIRCLE
  5
101
100
AcDbEntity
  8
MAIN0
  6
CENTER
 62
3
100
AcDbCircle
 10
155.9460898330668
 20
237.3490563321907
 30
0.0000000000000000
 40
25.00000000000000
  0
CIRCLE
  5
102
100
AcDbEntity
  8
MAIN0
  6
CONTINUOUS
 62
3
100
AcDbCircle
 10
155.9460898330668
 20
237.3490563321907
 30
0.0000000000000000
 40
24.60000000000000
  0
LINE
  5
103
100
AcDbEntity
  8
MAIN0
  6
CONTINUOUS
 62
3
100
AcDbLine
 10
315.9460898330669
 20
262.7490563322065
 30
0.0000000000000000
 11
316.6389101561222
 21
262.3490563321906
 31
0.0000000000000000
  0
LINE
  5
104
100
AcDbEntity
  8
MAIN0
  6
CENTER
 62
3
100
AcDbLine
 10
317.5177562596732
 20
262.3490563321907
 30
0.0000000000000000
 11
315.1296032169099
 21
262.3490563321907
 31
0.0000000000000000
  0
LINE
  5
105
100
AcDbEntity
  8
MAIN0
  6
CONTINUOUS
 62
3
100
AcDbLine
 10
315.9460898330669
 20
261.9490563321749
 30
0.0000000000000000
 11
316.6389101561222
 21
262.3490563321907
 31
0.0000000000000000
  0
LINE
  5
106
100
AcDbEntity
  8
MAIN0
  6
CONTINUOUS
 62
3
100
AcDbLine
 10
315.9460898330669
 20
260.7490563322065
 30
0.0000000000000000
 11
316.6389101561222
 21
260.3490563321906
 31
0.0000000000000000
  0
LINE
  5
107
100
AcDbEntity
  8
MAIN0
  6
CENTER
 62
3
100
AcDbLine
 10
317.5177562596732
 20
260.3490563321907
 30
0.0000000000000000
 11
315.1296032169099
 21
260.3490563321907
 31
0.0000000000000000
  0
LINE
  5
108
100
AcDbEntity
  8
MAIN0
  6
CONTINUOUS
 62
3
100
AcDbLine
 10
315.9460898330669
 20
259.9490563321749
 30
0.0000000000000000
 11
316.6389101561222
 21
260.3490563321907
 31
0.0000000000000000
  0
LINE
  5
109
100
AcDbEntity
  8
MAIN0
  6
CONTINUOUS
 62
3
100
AcDbLine
 10
315.9460898330669
 20
214.7490563322065
 30
0.0000000000000000
 11
316.6389101561222
 21
214.3490563321906
 31
0.0000000000000000
  0
LINE
  5
10A
100
AcDbEntity
  8
MAIN0
  6
CENTER
 62
3
100
AcDbLine
 10
317.5177562596732
 20
214.3490563321907
 30
0.0000000000000000
 11
315.1296032169099
 21
214.3490563321907
 31
0.0000000000000000
  0
LINE
  5
10B
100
AcDbEntity
  8
MAIN0
  6
CONTINUOUS
 62
3
100
AcDbLine
 10
315.9460898330669
 20
213.9490563321749
 30
0.0000000000000000
 11
316.6389101561222
 21
214.3490563321907
 31
0.0000000000000000
  0
LINE
  5
10C
100
AcDbEntity
  8
MAIN0
  6
CONTINUOUS
 62
3
100
AcDbLine
 10
315.9460898330669
 20
212.7490563322065
 30
0.0000000000000000
 11
316.6389101561222
 21
212.3490563321906
 31
0.0000000000000000
  0
LINE
  5
10D
100
AcDbEntity
  8
MAIN0
  6
CENTER
 62
3
100
AcDbLine
 10
317.5177562596732
 20
212.3490563321907
 30
0.0000000000000000
 11
315.1296032169099
 21
212.3490563321907
 31
0.0000000000000000
  0
LINE
  5
10E
100
AcDbEntity
  8
MAIN0
  6
CONTINUOUS
 62
3
100
AcDbLine
 10
315.9460898330669
 20
211.9490563321749
 30
0.0000000000000000
 11
316.6389101561222
 21
212.3490563321907
 31
0.0000000000000000
  0
CIRCLE
  5
10F
100
AcDbEntity
  8
MAIN0
  6
CENTER
 62
3
100
AcDbCircle
 10
155.9460898330669
 20
237.3490563321907
 30
0.0000000000000000
 40
23.00000000000000
  0
CIRCLE
  5
110
100
AcDbEntity
  8
MAIN0
  6
CONTINUOUS
 62
3
100
AcDbCircle
 10
155.9460898330669
 20
237.3490563321907
 30
0.0000000000000000
 40
23.40000000000000
  0
CIRCLE
  5
111
100
AcDbEntity
  8
MAIN0
  6
CONTINUOUS
 62
3
100
AcDbCircle
 10
155.9460898330669
 20
237.3490563321907
 30
0.0000000000000000
 40
22.60000000000000
  0
LINE
  5
112
100
AcDbEntity
  8
MAIN0
  6
CONTINUOUS
 62
3
100
AcDbLine
 10
315.9460898330669
 20
264.7490563322065
 30
0.0000000000000000
 11
316.6389101561222
 21
264.3490563321906
 31
0.0000000000000000
  0
LINE
  5
113
100
AcDbEntity
  8
MAIN0
  6
CENTER
 62
3
100
AcDbLine
 10
317.5177562596732
 20
264.3490563321907
 30
0.0000000000000000
 11
315.1296032169099
 21
264.3490563321907
 31
0.0000000000000000
  0
LINE
  5
114
100
AcDbEntity
  8
MAIN0
  6
CONTINUOUS
 62
3
100
AcDbLine
 10
315.9460898330669
 20
263.9490563321749
 30
0.0000000000000000
 11
316.6389101561222
 21
264.3490563321907
 31
0.0000000000000000
  0
LINE
  5
115
100
AcDbEntity
  8
MAIN0
  6
CONTINUOUS
 62
3
100
AcDbLine
 10
315.9460898330669
 20
210.7490563322065
 30
0.0000000000000000
 11
316.6389101561222
 21
210.3490563321906
 31
0.0000000000000000
  0
LINE
  5
116
100
AcDbEntity
  8
MAIN0
  6
CENTER
 62
3
100
AcDbLine
 10
317.5177562596732
 20
210.3490563321907
 30
0.0000000000000000
 11
315.1296032169099
 21
210.3490563321907
 31
0.0000000000000000
  0
LINE
  5
117
100
AcDbEntity
  8
MAIN0
  6
CONTINUOUS
 62
3
100
AcDbLine
 10
315.9460898330669
 20
209.9490563321749
 30
0.0000000000000000
 11
316.6389101561222
 21
210.3490563321907
 31
0.0000000000000000
  0
ARC
  5
118
100
AcDbEntity
  8
MAIN1
  6
CONTINUOUS
 62
3
100
AcDbCircle
 10
155.9460898330668
 20
237.3490563321907
 30
0.0000000000000000
 40
27.40000000002328
100
AcDbArc
 50
164.6544111111249
 51
240.3455888885248
  0
CIRCLE
  5
119
100
AcDbEntity
  8
MAIN1
  6
CENTER
 62
3
100
AcDbCircle
 10
155.9460898330668
 20
237.3490563321907
 30
0.0000000000000000
 40
26.99999999999998
  0
ARC
  5
11A
100
AcDbEntity
  8
MAIN1
  6
CONTINUOUS
 62
3
100
AcDbCircle
 10
155.9460898330668
 20
237.3490563321907
 30
0.0000000000000000
 40
26.59999999997670
100
AcDbArc
 50
162.4459951424084
 51
242.5540048572414
  0
CIRCLE
  5
11B
100
AcDbEntity
  8
MAIN1
  6
CONTINUOUS
 62
3
100
AcDbCircle
 10
143.8915617134776
 20
208.2468510581221
 30
0.0000000000000000
 40
5.500000000000000
  0
CIRCLE
  5
11C
100
AcDbEntity
  8
MAIN1
  6
CONTINUOUS
 62
3
100
AcDbCircle
 10
185.0482951071355
 20
225.2945282126015
 30
0.0000000000000000
 40
5.500000000000000
  0
CIRCLE
  5
11D
100
AcDbEntity
  8
MAIN1
  6
CONTINUOUS
 62
3
100
AcDbCircle
 10
168.0006179526560
 20
266.4512616062594
 30
0.0000000000000000
 40
5.500000000000000
  0
CIRCLE
  5
11E
100
AcDbEntity
  8
MAIN1
  6
CONTINUOUS
 62
3
100
AcDbCircle
 10
126.8438845589982
 20
249.4035844517799
 30
0.0000000000000000
 40
5.500000000000000
  0
ARC
  5
11F
100
AcDbEntity
  8
MAIN1
  6
CONTINUOUS
 62
3
100
AcDbCircle
 10
155.9460898330669
 20
237.3490563321907
 30
0.0000000000000000
 40
27.40000000002328
100
AcDbArc
 50
74.65441111112511
 51
150.3455888885249
  0
ARC
  5
120
100
AcDbEntity
  8
MAIN1
  6
CONTINUOUS
 62
3
100
AcDbCircle
 10
155.9460898330669
 20
237.3490563321907
 30
0.0000000000000000
 40
26.59999999997670
100
AcDbArc
 50
72.44599514240875
 51
152.5540048572413
  0
ARC
  5
121
100
AcDbEntity
  8
MAIN1
  6
CONTINUOUS
 62
3
100
AcDbCircle
 10
155.9460898330669
 20
237.3490563321907
 30
0.0000000000000000
 40
27.40000000002328
100
AcDbArc
 50
344.6544111111249
 51
420.3455888885249
  0
ARC
  5
122
100
AcDbEntity
  8
MAIN1
  6
CONTINUOUS
 62
3
100
AcDbCircle
 10
155.9460898330669
 20
237.3490563321907
 30
0.0000000000000000
 40
26.59999999997670
100
AcDbArc
 50
342.4459951424084
 51
422.5540048572414
  0
ARC
  5
123
100
AcDbEntity
  8
MAIN1
  6
CONTINUOUS
 62
3
100
AcDbCircle
 10
155.9460898330668
 20
237.3490563321907
 30
0.0000000000000000
 40
26.59999999997670
100
AcDbArc
 50
252.4459951424084
 51
332.5540048572414
  0
ARC
  5
124
100
AcDbEntity
  8
MAIN1
  6
CONTINUOUS
 62
3
100
AcDbCircle
 10
155.9460898330668
 20
237.3490563321907
 30
0.0000000000000000
 40
27.40000000002328
100
AcDbArc
 50
254.6544111111249
 51
330.3455888885248
  0
ARC
  5
125
100
AcDbEntity
  8
MAIN2
  6
CONTINUOUS
 62
3
100
AcDbCircle
 10
556.8475980276191
 20
124.7729764261449
 30
0.0000000000000000
 40
17.50000000000000
100
AcDbArc
 50
23.89550818617424
 51
156.1044918138496
  0
ARC
  5
126
100
AcDbEntity
  8
MAIN2
  6
CONTINUOUS
 62
3
100
AcDbCircle
 10
556.8475980276191
 20
124.7729764261449
 30
0.0000000000000000
 40
17.50000000000000
100
AcDbArc
 50
203.8955081861728
 51
336.1044918138485
  0
LINE
  5
127
100
AcDbEntity
  8
MAIN0
  6
HIDDEN
 62
3
100
AcDbLine
 10
386.0460898330666
 20
340.5490563321910
 30
0.0000000000000000
 11
386.0460898330666
 21
337.3490563321910
 31
0.0000000000000000
  0
LINE
  5
128
100
AcDbEntity
  8
MAIN0
  6
HIDDEN
 62
3
100
AcDbLine
 10
386.9460898330667
 20
340.5490563321910
 30
0.0000000000000000
 11
386.9460898330667
 21
337.3490563321910
 31
0.0000000000000000
  0
LINE
  5
129
100
AcDbEntity
  8
MAIN0
  6
HIDDEN
 62
3
100
AcDbLine
 10
375.8460898330667
 20
337.3490563321910
 30
0.0000000000000000
 11
375.8460898330667
 21
340.5490563321910
 31
0.0000000000000000
  0
LINE
  5
12A
100
AcDbEntity
  8
MAIN0
  6
HIDDEN
 62
3
100
AcDbLine
 10
374.9460898330667
 20
337.3490563321910
 30
0.0000000000000000
 11
374.9460898330667
 21
340.5490563321910
 31
0.0000000000000000
  0
LEADER
  5
12B
100
AcDbEntity
  8
MAIN0
  6
CONTINUOUS
 62
3
100
AcDbLeader
  3
MAIN001
 73
     0
 74
     0
 75
     1
 40
3.099999904632568
 41
14.26100040769580
 76
     3
 10
386.9460898330667
 20
338.7958705158026
 30
0.0000000000000000
 10
419.4460898330643
 20
391.3490563321910
 30
0.0000000000000000
 10
421.3710897772744
 20
391.3490563321910
 30
0.0000000000000000
340
12C
213
-0.001000000000033197
223
-0.5000000000000000
233
0.0000000000000000
1001
ACAD
1000
DSTYLE
1002
{
1070
   147
1040
0.0
1070
    77
1070
     1
1070
   173
1070
     1
1070
     6
1000
_OPEN
1070
     7
1000
_OPEN
1002
}
  0
MTEXT
  5
12C
102
{ACAD_REACTORS
330
12B
102
}
100
AcDbEntity
  8
MAIN0
  6
CONTINUOUS
 62
3
100
AcDbMText
 10
421.3720897772744
 20
394.9490562368235
 30
0.0000000000000000
 40
3.099999904632568
 41
0.0000000000000000
 71
     1
 72
     1
  1
{\H0.92x;{M12×1}}
 11
1.000000000000000
 21
0.0000000000000000
 31
0.0000000000000000
  7
KNJYOKO
  0
MTEXT
  5
12D
100
AcDbEntity
  8
MAIN4
  6
CONTINUOUS
 62
3
100
AcDbMText
 10
367.4759811818420
 20
386.7881542306916
 30
0.0000000000000000
 40
3.000000000000000
 41
0.0000000000000000
 71
     1
 72
     1
  1
{\H0.63x;{PROXIMITY　SWITCHES\PCustomer arrangements}}
 11
1.000000000000000
 21
0.0000000000000000
 31
0.0000000000000000
  7
KNJYOKO
  0
LEADER
  5
12E
100
AcDbEntity
  8
MAIN0
  6
CONTINUOUS
 62
3
100
AcDbLeader
  3
MAIN001
 73
     0
 74
     0
 75
     1
 40
3.099999904632568
 41
20.79712041344862
 76
     3
 10
378.0933257008109
 20
354.9073199008780
 30
0.0000000000000000
 10
359.4460898330643
 20
391.3490563321910
 30
0.0000000000000000
 10
361.3710897772744
 20
391.3490563321910
 30
0.0000000000000000
340
12F
213
-0.2971199366114661
223
-0.5000000000000000
233
0.0000000000000000
1001
ACAD
1000
DSTYLE
1002
{
1070
   147
1040
0.0
1070
    77
1070
     1
1070
   173
1070
     1
1070
     6
1000
_DOT
1070
     7
1000
_DOT
1002
}
  0
MTEXT
  5
12F
102
{ACAD_REACTORS
330
12E
102
}
100
AcDbEntity
  8
MAIN0
  6
CONTINUOUS
 62
3
100
AcDbMText
 10
361.6682097138859
 20
394.9490562368236
 30
0.0000000000000000
 40
3.099999904632568
 41
0.0000000000000000
 71
     1
 72
     1
  1
{\H0.93x;{近接スイッチ\P客様殿手配品}}
 11
1.000000000000000
 21
0.0000000000000000
 31
0.0000000000000000
  7
KNJYOKO
  0
CIRCLE
  5
130
100
AcDbEntity
  8
MAIN0
  6
CONTINUOUS
 62
3
100
AcDbCircle
 10
58.16142252074849
 20
341.5037186323174
 30
0.0000000000000000
 40
4.250000000000000
  0
LINE
  5
131
100
AcDbEntity
  8
MAIN0
  6
CONTINUOUS
 62
3
100
AcDbLine
 10
58.16142252074837
 20
343.8131197090760
 30
0.0000000000000000
 11
56.16142252074837
 21
342.6584191706968
 31
0.0000000000000000
  0
LINE
  5
132
100
AcDbEntity
  8
MAIN0
  6
CONTINUOUS
 62
3
100
AcDbLine
 10
56.16142252074849
 20
342.6584191706967
 30
0.0000000000000000
 11
56.16142252074849
 21
340.3490180939382
 31
0.0000000000000000
  0
LINE
  5
133
100
AcDbEntity
  8
MAIN0
  6
CONTINUOUS
 62
3
100
AcDbLine
 10
56.16142252074855
 20
340.3490180939381
 30
0.0000000000000000
 11
58.16142252074855
 21
339.1943175555589
 31
0.0000000000000000
  0
LINE
  5
134
100
AcDbEntity
  8
MAIN0
  6
CONTINUOUS
 62
3
100
AcDbLine
 10
58.16142252074837
 20
339.1943175555590
 30
0.0000000000000000
 11
60.16142252074849
 21
340.3490180939383
 31
0.0000000000000000
  0
LINE
  5
135
100
AcDbEntity
  8
MAIN0
  6
CONTINUOUS
 62
3
100
AcDbLine
 10
60.16142252074852
 20
340.3490180939382
 30
0.0000000000000000
 11
60.16142252074852
 21
342.6584191706967
 31
0.0000000000000000
  0
LINE
  5
136
100
AcDbEntity
  8
MAIN0
  6
CONTINUOUS
 62
3
100
AcDbLine
 10
60.16142252074852
 20
342.6584191706967
 30
0.0000000000000000
 11
58.16142252074849
 21
343.8131197090759
 31
0.0000000000000000
  0
LINE
  5
137
100
AcDbEntity
  8
MAIN0
  6
CENTER
 62
3
100
AcDbLine
 10
534.9491220566038
 20
124.7729764261561
 30
0.0000000000000000
 11
578.7460739986349
 21
124.7729764261336
 31
0.0000000000000000
  0
LINE
  5
138
100
AcDbEntity
  8
MAIN0
  6
CENTER
 62
3
100
AcDbLine
 10
556.8475980276235
 20
102.8745004551296
 30
0.0000000000000000
 11
556.8475980276149
 21
146.6714523971602
 31
0.0000000000000000
  0
LINE
  5
139
100
AcDbEntity
  8
MAIN0
  6
CONTINUOUS
 62
3
100
AcDbLine
 10
540.8475980276206
 20
117.6842529867628
 30
0.0000000000000000
 11
540.8475980276178
 21
131.8616998655207
 31
0.0000000000000000
  0
LINE
  5
13A
100
AcDbEntity
  8
MAIN0
  6
CONTINUOUS
 62
3
100
AcDbLine
 10
572.8475980276205
 20
117.6842529867687
 30
0.0000000000000000
 11
572.8475980276176
 21
131.8616998655273
 31
0.0000000000000000
  0
MTEXT
  5
13B
100
AcDbEntity
  8
MAIN0
  6
CONTINUOUS
 62
3
100
AcDbMText
 10
546.4370318535762
 20
88.26328519797096
 30
0.0000000000000000
 40
4.000000000000000
 41
0.0000000000000000
 71
     1
 72
     1
  1
{\H0.93x;{断面Ｐ－Ｐ}}
 11
1.000000000000000
 21
0.0000000000000000
 31
0.0000000000000000
  7
KNJYOKO
  0
LINE
  5
13C
100
AcDbEntity
  8
MAIN0
  6
CONTINUOUS
 62
3
100
AcDbLine
 10
544.8888092735142
 20
83.26328519794328
 30
0.0000000000000000
 11
569.6604027691000
 21
83.26328519793842
 31
0.0000000000000000
  0
DIMENSION
  5
145
100
AcDbEntity
  8
MAIN0
  6
CONTINUOUS
 62
3
100
AcDbDimension
  2
*D8
 10
540.8475980276207
 20
94.16654752583548
 30
0.0000000000000000
 11
553.6725979411940
 21
94.66654752583548
 31
0.0000000000000000
 70
32
  3
MAIN001
100
AcDbAlignedDimension
 13
572.8475980276205
 23
117.6842529867687
 33
0.0000000000000000
 14
540.8475980276206
 24
117.6842529867628
 34
0.0000000000000000
100
AcDbRotatedDimension
1001
ACAD
1000
DSTYLE
1002
{
1070
   173
1070
     1
1070
     6
1000
_OPEN
1070
     7
1000
_OPEN
1070
    41
1040
2.000000
1070
   272
1070
     1
1070
    47
1040
0.000000
1070
    48
1040
0.400000
1070
    71
1070
     1
1002
}
  0
LINE
  5
146
100
AcDbEntity
  8
MAIN0
  6
CONTINUOUS
 62
3
100
AcDbLine
 10
335.9460898330668
 20
261.3533069381270
 30
0.0000000000000000
 11
335.9460898330668
 21
273.3490563321906
 31
0.0000000000000000
  0
LINE
  5
147
100
AcDbEntity
  8
MAIN0
  6
CENTER
 62
3
100
AcDbLine
 10
334.5706115464874
 20
279.8490563321906
 30
0.0000000000000000
 11
388.9081435456330
 21
279.8490563321906
 31
0.0000000000000000
  0
MTEXT
  5
148
100
AcDbEntity
  8
MAIN0
  6
CONTINUOUS
 62
3
100
AcDbMText
 10
483.5343475890764
 20
123.7906397751334
 30
0.0000000000000000
 40
3.099999904632568
 41
0.0000000000000000
 71
     1
 72
     1
  1
{\H0.70x;{MIN 30}}
 11
1.000000000000000
 21
0.0000000000000000
 31
0.0000000000000000
  7
STANDARD
  0
LINE
  5
149
100
AcDbEntity
  8
MAIN0
  6
CONTINUOUS
 62
3
100
AcDbLine
 10
474.9460898330661
 20
255.3490563321907
 30
0.0000000000000000
 11
503.9460898330660
 21
255.3490563321907
 31
0.0000000000000000
  0
LINE
  5
14A
100
AcDbEntity
  8
MAIN0
  6
CONTINUOUS
 62
3
100
AcDbLine
 10
474.9460898330661
 20
219.3490563321907
 30
0.0000000000000000
 11
503.9460898330661
 21
219.3490563321907
 31
0.0000000000000000
  0
LINE
  5
14B
100
AcDbEntity
  8
MAIN0
  6
CONTINUOUS
 62
3
100
AcDbLine
 10
375.5460898330669
 20
273.3490563321906
 30
0.0000000000000000
 11
375.9460898330669
 21
272.9490563321906
 31
0.0000000000000000
  0
LINE
  5
14C
100
AcDbEntity
  8
MAIN0
  6
CONTINUOUS
 62
3
100
AcDbLine
 10
519.9460898330661
 20
253.8490563321906
 30
0.0000000000000000
 11
519.9460898330661
 21
220.8490563321908
 31
0.0000000000000000
  0
LINE
  5
14D
100
AcDbEntity
  8
MAIN0
  6
CONTINUOUS
 62
3
100
AcDbLine
 10
511.9460898330660
 20
250.3490563321907
 30
0.0000000000000000
 11
511.9460898330660
 21
224.3490563321907
 31
0.0000000000000000
  0
LINE
  5
14E
100
AcDbEntity
  8
MAIN0
  6
CONTINUOUS
 62
3
100
AcDbLine
 10
519.0800644287281
 20
224.3490563321650
 30
0.0000000000000000
 11
519.9460898330659
 21
223.8490563318461
 31
0.0000000000000000
  0
LINE
  5
14F
100
AcDbEntity
  8
MAIN0
  6
CONTINUOUS
 62
3
100
AcDbLine
 10
519.0800644287040
 20
250.3490563321907
 30
0.0000000000000000
 11
519.0800644287327
 21
224.3490563321925
 31
0.0000000000000000
  0
LINE
  5
150
100
AcDbEntity
  8
MAIN0
  6
CONTINUOUS
 62
3
100
AcDbLine
 10
510.6470517272677
 20
226.5990563321908
 30
0.0000000000000000
 11
511.9460898329404
 21
224.3490563321908
 31
0.0000000000000000
  0
LINE
  5
151
100
AcDbEntity
  8
MAIN0
  6
CONTINUOUS
 62
3
100
AcDbLine
 10
510.6470517274225
 20
248.0990563321907
 30
0.0000000000000000
 11
510.6470517274225
 21
226.5990563321907
 31
0.0000000000000000
  0
LINE
  5
152
100
AcDbEntity
  8
MAIN0
  6
CONTINUOUS
 62
3
100
AcDbLine
 10
519.0800644287281
 20
250.3490563322164
 30
0.0000000000000000
 11
519.9460898330659
 21
250.8490563325353
 31
0.0000000000000000
  0
LINE
  5
153
100
AcDbEntity
  8
MAIN0
  6
CONTINUOUS
 62
3
100
AcDbLine
 10
510.6470517272677
 20
248.0990563321906
 30
0.0000000000000000
 11
511.9460898329405
 21
250.3490563321906
 31
0.0000000000000000
  0
LINE
  5
154
100
AcDbEntity
  8
MAIN0
  6
CONTINUOUS
 62
3
100
AcDbLine
 10
504.8121152368533
 20
219.8490563321907
 30
0.0000000000000000
 11
518.9460898330661
 21
219.8490563321907
 31
0.0000000000000000
  0
LINE
  5
155
100
AcDbEntity
  8
MAIN0
  6
CONTINUOUS
 62
3
100
AcDbLine
 10
503.9460898330661
 20
219.3490563321907
 30
0.0000000000000000
 11
504.8121152368533
 21
219.8490563321907
 31
0.0000000000000000
  0
LINE
  5
156
100
AcDbEntity
  8
MAIN0
  6
CONTINUOUS
 62
3
100
AcDbLine
 10
518.9460898330660
 20
219.8490563321907
 30
0.0000000000000000
 11
519.9460898330660
 21
220.8490563321907
 31
0.0000000000000000
  0
LINE
  5
157
100
AcDbEntity
  8
MAIN0
  6
CONTINUOUS
 62
3
100
AcDbLine
 10
504.8121152368533
 20
254.8490563321907
 30
0.0000000000000000
 11
518.9460898330661
 21
254.8490563321907
 31
0.0000000000000000
  0
LINE
  5
158
100
AcDbEntity
  8
MAIN0
  6
CONTINUOUS
 62
3
100
AcDbLine
 10
503.9460898330660
 20
255.3490563321908
 30
0.0000000000000000
 11
504.8121152368532
 21
254.8490563321907
 31
0.0000000000000000
  0
LINE
  5
159
100
AcDbEntity
  8
MAIN0
  6
CONTINUOUS
 62
3
100
AcDbLine
 10
518.9460898330660
 20
254.8490563321907
 30
0.0000000000000000
 11
519.9460898330660
 21
253.8490563321907
 31
0.0000000000000000
  0
LINE
  5
15A
100
AcDbEntity
  8
MAIN0
  6
CONTINUOUS
 62
3
100
AcDbLine
 10
484.9460898330661
 20
249.3490563321907
 30
0.0000000000000000
 11
484.9460898330661
 21
225.3490563321907
 31
0.0000000000000000
  0
LINE
  5
15B
100
AcDbEntity
  8
MAIN0
  6
CONTINUOUS
 62
3
100
AcDbLine
 10
397.9460898330662
 20
321.3490563321907
 30
0.0000000000000000
 11
458.9460898330661
 21
321.3490563321907
 31
0.0000000000000000
  0
LINE
  5
15C
100
AcDbEntity
  8
MAIN0
  6
CONTINUOUS
 62
3
100
AcDbLine
 10
410.9460898330667
 20
153.3490563321907
 30
0.0000000000000000
 11
457.9460898330661
 21
153.3490563321907
 31
0.0000000000000000
  0
ARC
  5
15D
100
AcDbEntity
  8
MAIN0
  6
CONTINUOUS
 62
3
100
AcDbCircle
 10
457.9460898330661
 20
155.3490563321907
 30
0.0000000000000000
 40
2.000000000000000
100
AcDbArc
 50
270.0000000000000
 51
360.0000000000000
  0
LINE
  5
15E
100
AcDbEntity
  8
MAIN0
  6
CONTINUOUS
 62
3
100
AcDbLine
 10
459.9460898330661
 20
211.8490563321907
 30
0.0000000000000000
 11
474.9460898330661
 21
211.8490563321907
 31
0.0000000000000000
  0
ARC
  5
15F
100
AcDbEntity
  8
MAIN0
  6
CONTINUOUS
 62
3
100
AcDbCircle
 10
458.9460898330661
 20
320.3490563321907
 30
0.0000000000000000
 40
1.000000000000000
100
AcDbArc
 50
0.0000000000000000
 51
90.00000000000000
  0
LINE
  5
160
100
AcDbEntity
  8
MAIN0
  6
CONTINUOUS
 62
3
100
AcDbLine
 10
459.9460898330661
 20
262.8490563321907
 30
0.0000000000000000
 11
474.9460898330661
 21
262.8490563321907
 31
0.0000000000000000
  0
LINE
  5
161
100
AcDbEntity
  8
MAIN0
  6
CENTER
 62
3
100
AcDbLine
 10
375.6168099256967
 20
162.3490563321907
 30
0.0000000000000000
 11
482.8292137792043
 21
162.3490563321907
 31
0.0000000000000000
  0
LEADER
  5
162
100
AcDbEntity
  8
MAIN0
  6
CONTINUOUS
 62
3
100
AcDbLeader
  3
MAIN001
 73
     0
 74
     0
 75
     1
 40
3.099999904632568
 41
13.57100041007993
 76
     3
 10
470.0810460168863
 20
157.3490563321907
 30
0.0000000000000000
 10
485.4331352566355
 20
135.2843421876349
 30
0.0000000000000000
 10
487.3581352008456
 20
135.2843421876349
 30
0.0000000000000000
340
163
213
0.0000000000000000
223
-0.5000000000000000
233
0.0000000000000000
1001
ACAD
1000
DSTYLE
1002
{
1070
   147
1040
0.0
1070
    77
1070
     1
1070
   173
1070
     1
1070
     6
1000
_OPEN
1070
     7
1000
_OPEN
1002
}
  0
MTEXT
  5
163
102
{ACAD_REACTORS
330
162
102
}
100
AcDbEntity
  8
MAIN0
  6
CONTINUOUS
 62
3
100
AcDbMText
 10
487.3591352008456
 20
138.8843420922675
 30
0.0000000000000000
 40
3.099999904632568
 41
0.0000000000000000
 71
     1
 72
     1
  1
{\H0.92x;{6-M10}}
 11
1.000000000000000
 21
0.0000000000000000
 31
0.0000000000000000
  7
STANDARD
  0
LEADER
  5
164
100
AcDbEntity
  8
MAIN0
  6
CONTINUOUS
 62
3
100
AcDbLeader
  3
MAIN001
 73
     0
 74
     0
 75
     1
 40
3.099999904632568
 41
7.991000247955299
 76
     3
 10
491.0446856736472
 20
249.3490563321907
 30
0.0000000000000000
 10
496.3995186923430
 20
271.5452674760580
 30
0.0000000000000000
 10
498.3245186365531
 20
271.5452674760580
 30
0.0000000000000000
340
165
213
0.0000000000000000
223
-0.5000000000000000
233
0.0000000000000000
1001
ACAD
1000
DSTYLE
1002
{
1070
   147
1040
0.0
1070
    77
1070
     1
1070
   173
1070
     1
1070
     6
1000
_OPEN
1070
     7
1000
_OPEN
1002
}
  0
MTEXT
  5
165
102
{ACAD_REACTORS
330
164
102
}
100
AcDbEntity
  8
MAIN0
  6
CONTINUOUS
 62
3
100
AcDbMText
 10
498.3255186365531
 20
275.1452673806906
 30
0.0000000000000000
 40
3.099999904632568
 41
0.0000000000000000
 71
     1
 72
     1
  1
{\H0.90x;{M24}}
 11
1.000000000000000
 21
0.0000000000000000
 31
0.0000000000000000
  7
STANDARD
  0
LINE
  5
166
100
AcDbEntity
  8
MAIN0
  6
CENTER
 62
12
100
AcDbLine
 10
300.8630875745281
 20
237.3490563321907
 30
0.0000000000000000
 11
526.2490620594707
 21
237.3490563321907
 31
0.0000000000000000
  0
LINE
  5
167
100
AcDbEntity
  8
MAIN0
  6
CONTINUOUS
 62
3
100
AcDbLine
 10
377.9460898330667
 20
263.5867688629592
 30
0.0000000000000000
 11
377.9460898330667
 21
320.8490563321907
 31
0.0000000000000000
  0
LINE
  5
168
100
AcDbEntity
  8
MAIN0
  6
CONTINUOUS
 62
3
100
AcDbLine
 10
376.9460898330667
 20
321.8490563321907
 30
0.0000000000000000
 11
410.9460898330667
 21
321.8490563321907
 31
0.0000000000000000
  0
ARC
  5
169
100
AcDbEntity
  8
MAIN0
  6
CONTINUOUS
 62
3
100
AcDbCircle
 10
378.9460898330666
 20
320.8490563321907
 30
0.0000000000000000
 40
1.000000000000000
100
AcDbArc
 50
90.00000000000000
 51
180.0000000000000
  0
LINE
  5
16A
100
AcDbEntity
  8
MAIN0
  6
CONTINUOUS
 62
3
100
AcDbLine
 10
376.9460898330667
 20
285.3490563321907
 30
0.0000000000000000
 11
377.9460898330667
 21
285.3490563321907
 31
0.0000000000000000
  0
LINE
  5
16B
100
AcDbEntity
  8
MAIN0
  6
CONTINUOUS
 62
3
100
AcDbLine
 10
373.9460898330667
 20
273.8490563321907
 30
0.0000000000000000
 11
376.9460898330667
 21
273.8490563321907
 31
0.0000000000000000
  0
LINE
  5
16C
100
AcDbEntity
  8
MAIN0
  6
CONTINUOUS
 62
3
100
AcDbLine
 10
373.9460898330667
 20
273.8490563321907
 30
0.0000000000000000
 11
373.9460898330667
 21
324.3490563321909
 31
0.0000000000000000
  0
LINE
  5
16D
100
AcDbEntity
  8
MAIN0
  6
CONTINUOUS
 62
3
100
AcDbLine
 10
373.9460898330667
 20
324.3490563321909
 30
0.0000000000000000
 11
410.9460898330667
 21
324.3490563321909
 31
0.0000000000000000
  0
LINE
  5
16E
100
AcDbEntity
  8
MAIN0
  6
CONTINUOUS
 62
3
100
AcDbLine
 10
325.9460898330668
 20
326.8490563321909
 30
0.0000000000000000
 11
335.5460898330668
 21
326.8490563321909
 31
0.0000000000000000
  0
LINE
  5
16F
100
AcDbEntity
  8
MAIN0
  6
CONTINUOUS
 62
3
100
AcDbLine
 10
326.2460898330704
 20
334.1490563321910
 30
0.0000000000000000
 11
422.9460898330667
 21
334.1490563321910
 31
0.0000000000000000
  0
LINE
  5
170
100
AcDbEntity
  8
MAIN0
  6
CENTER
 62
3
100
AcDbLine
 10
373.9460898330667
 20
346.9140600157506
 30
0.0000000000000000
 11
373.9460898330667
 21
323.1448972897091
 31
0.0000000000000000
  0
LINE
  5
171
100
AcDbEntity
  8
MAIN0
  6
CONTINUOUS
 62
3
100
AcDbLine
 10
326.2460898330704
 20
337.3490563321910
 30
0.0000000000000000
 11
422.9460898330667
 21
337.3490563321910
 31
0.0000000000000000
  0
LINE
  5
172
100
AcDbEntity
  8
MAIN0
  6
CENTER
 62
3
100
AcDbLine
 10
309.4363552594114
 20
319.8490563321909
 30
0.0000000000000000
 11
335.1253756436267
 21
319.8490563321909
 31
0.0000000000000000
  0
LINE
  5
173
100
AcDbEntity
  8
MAIN0
  6
CONTINUOUS
 62
3
100
AcDbLine
 10
422.9460898330667
 20
337.3490563321910
 30
0.0000000000000000
 11
422.9460898330667
 21
334.1490563321910
 31
0.0000000000000000
  0
ARC
  5
174
100
AcDbEntity
  8
MAIN0
  6
CONTINUOUS
 62
3
100
AcDbCircle
 10
326.2460898330704
 20
333.8490563321910
 30
0.0000000000000000
 40
3.500000000000000
100
AcDbArc
 50
90.00000000000000
 51
180.0000000000000
  0
ARC
  5
175
100
AcDbEntity
  8
MAIN0
  6
CONTINUOUS
 62
3
100
AcDbCircle
 10
326.2460898330704
 20
333.8490563321910
 30
0.0000000000000000
 40
0.3000000000000000
100
AcDbArc
 50
90.00000000000000
 51
180.0000000000000
  0
LINE
  5
176
100
AcDbEntity
  8
MAIN0
  6
CONTINUOUS
 62
3
100
AcDbLine
 10
322.7460898330662
 20
324.8490563321909
 30
0.0000000000000000
 11
317.3460898330661
 21
324.8490563321909
 31
0.0000000000000000
  0
LINE
  5
177
100
AcDbEntity
  8
MAIN0
  6
CONTINUOUS
 62
3
100
AcDbLine
 10
317.3460898330661
 20
324.8490563321909
 30
0.0000000000000000
 11
316.7460898330661
 21
323.8098258476496
 31
0.0000000000000000
  0
LINE
  5
178
100
AcDbEntity
  8
MAIN0
  6
CONTINUOUS
 62
3
100
AcDbLine
 10
316.7460898330662
 20
323.8098258476495
 30
0.0000000000000000
 11
316.7460898330662
 21
315.8882868167322
 31
0.0000000000000000
  0
LINE
  5
179
100
AcDbEntity
  8
MAIN0
  6
CONTINUOUS
 62
3
100
AcDbLine
 10
316.7460898330662
 20
315.8882868167322
 30
0.0000000000000000
 11
317.3460898330662
 21
314.8490563321909
 31
0.0000000000000000
  0
LINE
  5
17A
100
AcDbEntity
  8
MAIN0
  6
CONTINUOUS
 62
3
100
AcDbLine
 10
317.3460898330661
 20
314.8490563321909
 30
0.0000000000000000
 11
322.7460898330662
 21
314.8490563321909
 31
0.0000000000000000
  0
LINE
  5
17B
100
AcDbEntity
  8
MAIN0
  6
CONTINUOUS
 62
3
100
AcDbLine
 10
317.3460898330661
 20
324.8490563321909
 30
0.0000000000000000
 11
317.3460898330661
 21
314.8490563321909
 31
0.0000000000000000
  0
LINE
  5
17C
100
AcDbEntity
  8
MAIN0
  6
CONTINUOUS
 62
3
100
AcDbLine
 10
322.7460898330662
 20
322.8490563321909
 30
0.0000000000000000
 11
334.7460898330662
 21
322.8490563321909
 31
0.0000000000000000
  0
LINE
  5
17D
100
AcDbEntity
  8
MAIN0
  6
CONTINUOUS
 62
3
100
AcDbLine
 10
334.7460898330662
 20
322.8490563321909
 30
0.0000000000000000
 11
334.7460898330662
 21
316.8490563321909
 31
0.0000000000000000
  0
LINE
  5
17E
100
AcDbEntity
  8
MAIN0
  6
CONTINUOUS
 62
3
100
AcDbLine
 10
334.7460898330662
 20
316.8490563321909
 30
0.0000000000000000
 11
322.7460898330662
 21
316.8490563321909
 31
0.0000000000000000
  0
LINE
  5
17F
100
AcDbEntity
  8
MAIN0
  6
CONTINUOUS
 62
3
100
AcDbLine
 10
322.7460898330662
 20
322.3077903321909
 30
0.0000000000000000
 11
334.7460898330662
 21
322.3077903321909
 31
0.0000000000000000
  0
LINE
  5
180
100
AcDbEntity
  8
MAIN0
  6
CONTINUOUS
 62
3
100
AcDbLine
 10
322.7460898330662
 20
317.3903223321909
 30
0.0000000000000000
 11
334.7460898330662
 21
317.3903223321909
 31
0.0000000000000000
  0
LINE
  5
181
100
AcDbEntity
  8
MAIN0
  6
CENTER
 62
3
100
AcDbLine
 10
380.9460898330667
 20
367.8107106848325
 30
0.0000000000000000
 11
380.9460898330667
 21
323.1448972897093
 31
0.0000000000000000
  0
LINE
  5
182
100
AcDbEntity
  8
MAIN0
  6
PHANTOM
 62
3
100
AcDbLine
 10
375.9460898330676
 20
325.8490563321910
 30
0.0000000000000000
 11
385.9460898330657
 21
325.8490563321910
 31
0.0000000000000000
  0
LINE
  5
183
100
AcDbEntity
  8
MAIN0
  6
PHANTOM
 62
3
100
AcDbLine
 10
374.9460898330667
 20
326.8490563321910
 30
0.0000000000000000
 11
386.9460898330666
 21
326.8490563321910
 31
0.0000000000000000
  0
LINE
  5
184
100
AcDbEntity
  8
MAIN0
  6
PHANTOM
 62
3
100
AcDbLine
 10
385.9460898330657
 20
325.8490563321911
 30
0.0000000000000000
 11
386.9460898330667
 21
326.8490563321920
 31
0.0000000000000000
  0
LINE
  5
185
100
AcDbEntity
  8
MAIN0
  6
PHANTOM
 62
3
100
AcDbLine
 10
375.9460898330676
 20
325.8490563321910
 30
0.0000000000000000
 11
374.9460898330668
 21
326.8490563321919
 31
0.0000000000000000
  0
LINE
  5
186
100
AcDbEntity
  8
MAIN0
  6
PHANTOM
 62
3
100
AcDbLine
 10
385.8535671210969
 20
344.7490563321909
 30
0.0000000000000000
 11
385.8535671210983
 21
342.3490563321914
 31
0.0000000000000000
  0
LINE
  5
187
100
AcDbEntity
  8
MAIN0
  6
PHANTOM
 62
3
100
AcDbLine
 10
390.7610444093479
 20
344.7898669542735
 30
0.0000000000000000
 11
390.7610444093482
 21
342.3082457101086
 31
0.0000000000000000
  0
LINE
  5
188
100
AcDbEntity
  8
MAIN0
  6
PHANTOM
 62
3
100
AcDbLine
 10
372.4460898319082
 20
345.5490563321910
 30
0.0000000000000000
 11
389.4460898342252
 21
345.5490563321910
 31
0.0000000000000000
  0
LINE
  5
189
100
AcDbEntity
  8
MAIN0
  6
PHANTOM
 62
3
100
AcDbLine
 10
389.4460898342252
 20
345.5490563321908
 30
0.0000000000000000
 11
390.7610444093477
 21
344.7898669542736
 31
0.0000000000000000
  0
LINE
  5
18A
100
AcDbEntity
  8
MAIN0
  6
PHANTOM
 62
3
100
AcDbLine
 10
376.0386125450362
 20
344.7490563321910
 30
0.0000000000000000
 11
376.0386125450349
 21
342.3490563321915
 31
0.0000000000000000
  0
ARC
  5
18B
100
AcDbEntity
  8
MAIN0
  6
PHANTOM
 62
3
100
AcDbCircle
 10
380.9460898330665
 20
330.0969729993578
 30
0.0000000000000000
 40
15.45208333283322
100
AcDbArc
 50
71.48256317677496
 51
108.5174368232250
  0
ARC
  5
18C
100
AcDbEntity
  8
MAIN0
  6
PHANTOM
 62
3
100
AcDbCircle
 10
390.8856084766562
 20
330.6182899058452
 30
0.0000000000000000
 40
15.00000000000000
100
AcDbArc
 50
95.50703149208238
 51
109.6010858781950
  0
LINE
  5
18D
100
AcDbEntity
  8
MAIN0
  6
PHANTOM
 62
3
100
AcDbLine
 10
372.4460898319081
 20
345.5490563321909
 30
0.0000000000000000
 11
371.1311352567856
 21
344.7898669542736
 31
0.0000000000000000
  0
ARC
  5
18E
100
AcDbEntity
  8
MAIN0
  6
PHANTOM
 62
3
100
AcDbCircle
 10
371.0065711894770
 20
330.6182899058452
 30
0.0000000000000000
 40
15.00000000000000
100
AcDbArc
 50
70.39891412180502
 51
84.49296850791762
  0
LINE
  5
18F
100
AcDbEntity
  8
MAIN0
  6
PHANTOM
 62
3
100
AcDbLine
 10
371.1311352567855
 20
344.7898669542736
 30
0.0000000000000000
 11
371.1311352567851
 21
342.3082457101087
 31
0.0000000000000000
  0
LINE
  5
190
100
AcDbEntity
  8
MAIN0
  6
PHANTOM
 62
3
100
AcDbLine
 10
372.4460898319080
 20
341.5490563321910
 30
0.0000000000000000
 11
371.1311352567856
 21
342.3082457101083
 31
0.0000000000000000
  0
ARC
  5
191
100
AcDbEntity
  8
MAIN0
  6
PHANTOM
 62
3
100
AcDbCircle
 10
371.0065711894770
 20
356.4798227585368
 30
0.0000000000000000
 40
15.00000000000000
100
AcDbArc
 50
275.5070314920824
 51
289.6010858781950
  0
ARC
  5
192
100
AcDbEntity
  8
MAIN0
  6
PHANTOM
 62
3
100
AcDbCircle
 10
380.9460898330665
 20
357.0011396650242
 30
0.0000000000000000
 40
15.45208333283322
100
AcDbArc
 50
251.4825631767750
 51
288.5174368232251
  0
ARC
  5
193
100
AcDbEntity
  8
MAIN0
  6
PHANTOM
 62
3
100
AcDbCircle
 10
390.8856084766562
 20
356.4798227585367
 30
0.0000000000000000
 40
15.00000000000000
100
AcDbArc
 50
250.3989141218050
 51
264.4929685079176
  0
LINE
  5
194
100
AcDbEntity
  8
MAIN0
  6
PHANTOM
 62
3
100
AcDbLine
 10
389.4460898342252
 20
341.5490563321911
 30
0.0000000000000000
 11
390.7610444093476
 21
342.3082457101084
 31
0.0000000000000000
  0
LINE
  5
195
100
AcDbEntity
  8
MAIN0
  6
PHANTOM
 62
3
100
AcDbLine
 10
375.9460898330514
 20
362.8490563321910
 30
0.0000000000000000
 11
385.9460898330204
 21
362.8490563321910
 31
0.0000000000000000
  0
LINE
  5
196
100
AcDbEntity
  8
MAIN0
  6
PHANTOM
 62
3
100
AcDbLine
 10
370.9460898330666
 20
341.5490563321910
 30
0.0000000000000000
 11
390.9460898330667
 21
341.5490563321910
 31
0.0000000000000000
  0
LINE
  5
197
100
AcDbEntity
  8
MAIN0
  6
PHANTOM
 62
3
100
AcDbLine
 10
390.9460898330667
 20
341.5490563321910
 30
0.0000000000000000
 11
390.9460898330667
 21
340.5490563321910
 31
0.0000000000000000
  0
LINE
  5
198
100
AcDbEntity
  8
MAIN0
  6
PHANTOM
 62
3
100
AcDbLine
 10
370.9460898330666
 20
341.5490563321910
 30
0.0000000000000000
 11
370.9460898330666
 21
340.5490563321910
 31
0.0000000000000000
  0
LINE
  5
199
100
AcDbEntity
  8
MAIN0
  6
PHANTOM
 62
3
100
AcDbLine
 10
374.9460898330667
 20
361.8490563321910
 30
0.0000000000000000
 11
386.9460898330667
 21
361.8490563321910
 31
0.0000000000000000
  0
LINE
  5
19A
100
AcDbEntity
  8
MAIN0
  6
PHANTOM
 62
3
100
AcDbLine
 10
374.9460898330535
 20
361.8490563321910
 30
0.0000000000000000
 11
375.9460898330513
 21
362.8490563321910
 31
0.0000000000000000
  0
LINE
  5
19B
100
AcDbEntity
  8
MAIN0
  6
PHANTOM
 62
3
100
AcDbLine
 10
385.9460898330204
 20
362.8490563321910
 30
0.0000000000000000
 11
386.9460898330666
 21
361.8490563321460
 31
0.0000000000000000
  0
LINE
  5
19C
100
AcDbEntity
  8
MAIN0
  6
PHANTOM
 62
3
100
AcDbLine
 10
375.9460898330514
 20
364.8490563321910
 30
0.0000000000000000
 11
385.9460898330204
 21
364.8490563321910
 31
0.0000000000000000
  0
LINE
  5
19D
100
AcDbEntity
  8
MAIN0
  6
PHANTOM
 62
3
100
AcDbLine
 10
385.9460898329956
 20
364.8490563321910
 30
0.0000000000000000
 11
385.9460898329943
 21
362.8490563321910
 31
0.0000000000000000
  0
LINE
  5
19E
100
AcDbEntity
  8
MAIN0
  6
PHANTOM
 62
3
100
AcDbLine
 10
375.9460898330293
 20
364.8490563321911
 30
0.0000000000000000
 11
375.9460898330281
 21
362.8490563321911
 31
0.0000000000000000
  0
LINE
  5
19F
100
AcDbEntity
  8
MAIN0
  6
PHANTOM
 62
3
100
AcDbLine
 10
386.9460898330667
 20
334.1490563321910
 30
0.0000000000000000
 11
386.9460898330667
 21
326.8490563321910
 31
0.0000000000000000
  0
LINE
  5
1A0
100
AcDbEntity
  8
MAIN0
  6
PHANTOM
 62
3
100
AcDbLine
 10
386.9460898330667
 20
361.8490563321910
 30
0.0000000000000000
 11
386.9460898330667
 21
345.5490563321910
 31
0.0000000000000000
  0
LINE
  5
1A1
100
AcDbEntity
  8
MAIN0
  6
PHANTOM
 62
3
100
AcDbLine
 10
386.4045898330666
 20
334.1490563321910
 30
0.0000000000000000
 11
386.4045898330666
 21
326.3075563321919
 31
0.0000000000000000
  0
LINE
  5
1A2
100
AcDbEntity
  8
MAIN0
  6
PHANTOM
 62
3
100
AcDbLine
 10
386.4045898330666
 20
362.3905563321453
 30
0.0000000000000000
 11
386.4045898330666
 21
345.5490563321910
 31
0.0000000000000000
  0
LINE
  5
1A3
100
AcDbEntity
  8
MAIN0
  6
PHANTOM
 62
3
100
AcDbLine
 10
375.4875898330666
 20
334.1490563321910
 30
0.0000000000000000
 11
375.4875898330666
 21
326.3075563321920
 31
0.0000000000000000
  0
LINE
  5
1A4
100
AcDbEntity
  8
MAIN0
  6
PHANTOM
 62
3
100
AcDbLine
 10
375.4875898330666
 20
362.3905563322053
 30
0.0000000000000000
 11
375.4875898330666
 21
345.5490563321910
 31
0.0000000000000000
  0
LINE
  5
1A5
100
AcDbEntity
  8
MAIN0
  6
PHANTOM
 62
3
100
AcDbLine
 10
374.9460898330667
 20
334.1490563321910
 30
0.0000000000000000
 11
374.9460898330667
 21
326.8490563321919
 31
0.0000000000000000
  0
LINE
  5
1A6
100
AcDbEntity
  8
MAIN0
  6
PHANTOM
 62
3
100
AcDbLine
 10
374.9460898330667
 20
361.8490563321910
 30
0.0000000000000000
 11
374.9460898330667
 21
345.5490563321910
 31
0.0000000000000000
  0
LINE
  5
1A7
100
AcDbEntity
  8
MAIN0
  6
CONTINUOUS
 62
3
100
AcDbLine
 10
316.3460898330668
 20
313.8490563321909
 30
0.0000000000000000
 11
325.9460898330655
 21
313.8490563321909
 31
0.0000000000000000
  0
LINE
  5
1A8
100
AcDbEntity
  8
MAIN0
  6
CONTINUOUS
 62
3
100
AcDbLine
 10
322.7460898330704
 20
333.8490563321915
 30
0.0000000000000000
 11
322.7460898330676
 21
313.8490563321909
 31
0.0000000000000000
  0
LINE
  5
1A9
100
AcDbEntity
  8
MAIN0
  6
CENTER
 62
3
100
AcDbLine
 10
309.4363552594114
 20
319.8490563321909
 30
0.0000000000000000
 11
341.4147786759023
 21
319.8490563321909
 31
0.0000000000000000
  0
LINE
  5
1AA
100
AcDbEntity
  8
MAIN0
  6
CONTINUOUS
 62
3
100
AcDbLine
 10
335.5460898330669
 20
326.8490563321909
 30
0.0000000000000000
 11
335.9460898330669
 21
326.4490563321909
 31
0.0000000000000000
  0
LINE
  5
1AB
100
AcDbEntity
  8
MAIN0
  6
CENTER
 62
3
100
AcDbLine
 10
315.9460898330668
 20
326.4490563321909
 30
0.0000000000000000
 11
315.9460898330668
 21
313.8490563321909
 31
0.0000000000000000
  0
LINE
  5
1AC
100
AcDbEntity
  8
MAIN0
  6
CENTER
 62
3
100
AcDbLine
 10
316.3460898330668
 20
326.8490563321909
 30
0.0000000000000000
 11
322.7460898330661
 21
326.8490563321909
 31
0.0000000000000000
  0
LINE
  5
1AD
100
AcDbEntity
  8
MAIN0
  6
CONTINUOUS
 62
3
100
AcDbLine
 10
322.7460898330662
 20
324.8490563321909
 30
0.0000000000000000
 11
317.3460898330662
 21
324.8490563321909
 31
0.0000000000000000
  0
LINE
  5
1AE
100
AcDbEntity
  8
MAIN0
  6
CONTINUOUS
 62
3
100
AcDbLine
 10
317.3460898330661
 20
324.8490563321909
 30
0.0000000000000000
 11
316.7460898330661
 21
323.8098258476496
 31
0.0000000000000000
  0
LINE
  5
1AF
100
AcDbEntity
  8
MAIN0
  6
CONTINUOUS
 62
3
100
AcDbLine
 10
316.7460898330662
 20
323.8098258476495
 30
0.0000000000000000
 11
316.7460898330662
 21
315.8882868167322
 31
0.0000000000000000
  0
LINE
  5
1B0
100
AcDbEntity
  8
MAIN0
  6
CONTINUOUS
 62
3
100
AcDbLine
 10
316.7460898330663
 20
315.8882868167323
 30
0.0000000000000000
 11
317.3460898330663
 21
314.8490563321909
 31
0.0000000000000000
  0
LINE
  5
1B1
100
AcDbEntity
  8
MAIN0
  6
CONTINUOUS
 62
3
100
AcDbLine
 10
317.3460898330662
 20
314.8490563321909
 30
0.0000000000000000
 11
322.7460898330662
 21
314.8490563321909
 31
0.0000000000000000
  0
LINE
  5
1B2
100
AcDbEntity
  8
MAIN0
  6
CONTINUOUS
 62
3
100
AcDbLine
 10
317.3460898330662
 20
324.8490563321909
 30
0.0000000000000000
 11
317.3460898330662
 21
314.8490563321909
 31
0.0000000000000000
  0
LINE
  5
1B3
100
AcDbEntity
  8
MAIN0
  6
CONTINUOUS
 62
3
100
AcDbLine
 10
322.7460898330662
 20
322.8490563321909
 30
0.0000000000000000
 11
334.7460898330662
 21
322.8490563321909
 31
0.0000000000000000
  0
LINE
  5
1B4
100
AcDbEntity
  8
MAIN0
  6
CONTINUOUS
 62
3
100
AcDbLine
 10
334.7460898330662
 20
322.8490563321909
 30
0.0000000000000000
 11
334.7460898330662
 21
316.8490563321909
 31
0.0000000000000000
  0
LINE
  5
1B5
100
AcDbEntity
  8
MAIN0
  6
CONTINUOUS
 62
3
100
AcDbLine
 10
334.7460898330662
 20
316.8490563321909
 30
0.0000000000000000
 11
322.7460898330662
 21
316.8490563321909
 31
0.0000000000000000
  0
LINE
  5
1B6
100
AcDbEntity
  8
MAIN0
  6
CONTINUOUS
 62
3
100
AcDbLine
 10
322.7460898330662
 20
322.3077903321909
 30
0.0000000000000000
 11
334.7460898330662
 21
322.3077903321909
 31
0.0000000000000000
  0
LINE
  5
1B7
100
AcDbEntity
  8
MAIN0
  6
CONTINUOUS
 62
3
100
AcDbLine
 10
322.7460898330662
 20
317.3903223321909
 30
0.0000000000000000
 11
334.7460898330662
 21
317.3903223321909
 31
0.0000000000000000
  0
LINE
  5
1B8
100
AcDbEntity
  8
MAIN0
  6
CONTINUOUS
 62
3
100
AcDbLine
 10
316.3460898330669
 20
313.8490563321909
 30
0.0000000000000000
 11
315.9460898330669
 21
313.4490563321909
 31
0.0000000000000000
  0
LINE
  5
1B9
100
AcDbEntity
  8
MAIN0
  6
CENTER
 62
3
100
AcDbLine
 10
316.3460898330668
 20
326.8490563321909
 30
0.0000000000000000
 11
315.9460898330668
 21
326.4490563321909
 31
0.0000000000000000
  0
LINE
  5
1BA
100
AcDbEntity
  8
MAIN0
  6
CONTINUOUS
 62
3
100
AcDbLine
 10
325.9460898330704
 20
333.8490563321911
 30
0.0000000000000000
 11
325.9460898330689
 21
322.8490563321909
 31
0.0000000000000000
  0
LINE
  5
1BB
100
AcDbEntity
  8
MAIN0
  6
CONTINUOUS
 62
3
100
AcDbLine
 10
354.4460898330644
 20
340.5490563321910
 30
0.0000000000000000
 11
398.9460898330645
 21
340.5490563321910
 31
0.0000000000000000
  0
LINE
  5
1BC
100
AcDbEntity
  8
MAIN0
  6
CONTINUOUS
 62
3
100
AcDbLine
 10
398.9460898330645
 20
340.5490563321910
 30
0.0000000000000000
 11
398.9460898330645
 21
337.3490563321910
 31
0.0000000000000000
  0
LINE
  5
1BD
100
AcDbEntity
  8
MAIN0
  6
CONTINUOUS
 62
3
100
AcDbLine
 10
393.9460898330644
 20
340.5490563321910
 30
0.0000000000000000
 11
393.9460898330644
 21
337.3490563321911
 31
0.0000000000000000
  0
LINE
  5
1BE
100
AcDbEntity
  8
MAIN0
  6
CONTINUOUS
 62
3
100
AcDbLine
 10
354.4460898330644
 20
340.5490563321911
 30
0.0000000000000000
 11
354.4460898330644
 21
337.3490563321910
 31
0.0000000000000000
  0
LINE
  5
1BF
100
AcDbEntity
  8
MAIN0
  6
CONTINUOUS
 62
3
100
AcDbLine
 10
359.4460898330644
 20
340.5490563321910
 30
0.0000000000000000
 11
359.4460898330644
 21
337.3490563321909
 31
0.0000000000000000
  0
LINE
  5
1C0
100
AcDbEntity
  8
MAIN0
  6
HIDDEN
 62
3
100
AcDbLine
 10
315.9460898330668
 20
147.8490563321906
 30
0.0000000000000000
 11
342.0082488752034
 21
147.8490563321906
 31
0.0000000000000000
  0
LINE
  5
1C1
100
AcDbEntity
  8
MAIN0
  6
CONTINUOUS
 62
3
100
AcDbLine
 10
315.9460898330668
 20
146.2490563321907
 30
0.0000000000000000
 11
410.9460898330668
 21
146.2490563321907
 31
0.0000000000000000
  0
LINE
  5
1C2
100
AcDbEntity
  8
MAIN0
  6
CENTER
 62
3
100
AcDbLine
 10
179.0236262215559
 20
173.9440462081829
 30
0.0000000000000000
 11
187.4863982816052
 21
150.6927710672092
 31
0.0000000000000000
  0
LINE
  5
1C3
100
AcDbEntity
  8
MAIN0
  6
CENTER
 62
3
100
AcDbLine
 10
411.9460898330667
 20
347.5490563321910
 30
0.0000000000000000
 11
411.9460898330667
 21
323.1448972897093
 31
0.0000000000000000
  0
LINE
  5
1C4
100
AcDbEntity
  8
MAIN0
  6
CENTER
 62
3
100
AcDbLine
 10
342.9460898330667
 20
347.5490563321910
 30
0.0000000000000000
 11
342.9460898330667
 21
323.1448972897091
 31
0.0000000000000000
  0
CIRCLE
  5
1C5
100
AcDbEntity
  8
MAIN0
  6
CONTINUOUS
 62
3
100
AcDbCircle
 10
155.9460898330668
 20
237.3490563321907
 30
0.0000000000000000
 40
19.50000000000000
  0
DIMENSION
  5
1CE
100
AcDbEntity
  8
MAIN0
  6
CONTINUOUS
 62
3
100
AcDbDimension
  2
*D9
 10
534.9460898330661
 20
250.3490563321907
 30
0.0000000000000000
 11
534.4460898330661
 21
237.3490563321907
 31
0.0000000000000000
 70
32
  1
\A1;\U+220526H8
  3
MAIN001
100
AcDbAlignedDimension
 13
519.0800644287283
 23
224.3490563321907
 33
0.0000000000000000
 14
519.0800644287283
 24
250.3490563321907
 34
0.0000000000000000
 50
90.00000000000000
100
AcDbRotatedDimension
1001
ACAD
1000
DSTYLE
1002
{
1070
   173
1070
     1
1070
     6
1000
_OPEN
1070
     7
1000
_OPEN
1070
    41
1040
2.000000
1002
}
  0
DIMENSION
  5
1D7
100
AcDbEntity
  8
MAIN0
  6
CONTINUOUS
 62
3
100
AcDbDimension
  2
*D10
 10
544.9460898330661
 20
255.3490563321907
 30
0.0000000000000000
 11
544.4460898330661
 21
237.3490563321907
 31
0.0000000000000000
 70
32
  1
\A1;\U+220536
  3
MAIN001
100
AcDbAlignedDimension
 13
503.9460898330661
 23
219.3490563321907
 33
0.0000000000000000
 14
503.9460898330660
 24
255.3490563321907
 34
0.0000000000000000
 50
90.00000000000000
100
AcDbRotatedDimension
1001
ACAD
1000
DSTYLE
1002
{
1070
   173
1070
     1
1070
     6
1000
_OPEN
1070
     7
1000
_OPEN
1070
    41
1040
2.000000
1002
}
  0
DIMENSION
  5
1E0
100
AcDbEntity
  8
MAIN0
  6
CONTINUOUS
 62
3
100
AcDbDimension
  2
*D11
 10
554.9460898330661
 20
211.8490563321907
 30
0.0000000000000000
 11
554.4460898330661
 21
237.3490563321907
 31
0.0000000000000000
 70
32
  1
\A1;\U+220551
  3
MAIN001
100
AcDbAlignedDimension
 13
474.9460898330661
 23
262.8490563321907
 33
0.0000000000000000
 14
474.9460898330661
 24
211.8490563321907
 34
0.0000000000000000
 50
90.00000000000000
100
AcDbRotatedDimension
1001
ACAD
1000
DSTYLE
1002
{
1070
   173
1070
     1
1070
     6
1000
_OPEN
1070
     7
1000
_OPEN
1070
    41
1040
2.000000
1002
}
  0
DIMENSION
  5
1E9
100
AcDbEntity
  8
MAIN0
  6
CONTINUOUS
 62
3
100
AcDbDimension
  2
*D12
 10
459.9460898330661
 20
124.4579058261489
 30
0.0000000000000000
 11
489.9460898330661
 21
124.9579058261489
 31
0.0000000000000000
 70
32
  1
\A1;MAX 60
  3
MAIN001
100
AcDbAlignedDimension
 13
519.9460898330661
 23
222.3490563321907
 33
0.0000000000000000
 14
459.9460898330661
 24
155.3490563321907
 34
0.0000000000000000
100
AcDbRotatedDimension
1001
ACAD
1000
DSTYLE
1002
{
1070
   173
1070
     1
1070
     6
1000
_OPEN
1070
     7
1000
_OPEN
1070
    41
1040
2.000000
1002
}
  0
DIMENSION
  5
1F4
100
AcDbEntity
  8
MAIN0
  6
CONTINUOUS
 62
3
100
AcDbDimension
  2
*D13
 10
511.9460898330660
 20
201.6925530882084
 30
0.0000000000000000
 11
515.9460898330660
 21
202.1925530882084
 31
0.0000000000000000
 70
32
  3
MAIN001
100
AcDbAlignedDimension
 13
519.9460898330661
 23
221.3490563321908
 33
0.0000000000000000
 14
511.9460898330660
 24
224.3490563321907
 34
0.0000000000000000
100
AcDbRotatedDimension
1001
ACAD
1000
DSTYLE
1002
{
1070
   173
1070
     1
1070
     6
1000
_OPEN
1070
     7
1000
_OPEN
1070
    41
1040
2.000000
1070
   287
1070
     0
1002
}
  0
DIMENSION
  5
1FD
100
AcDbEntity
  8
MAIN0
  6
CONTINUOUS
 62
3
100
AcDbDimension
  2
*D14
 10
484.9460898330661
 20
177.1090339763402
 30
0.0000000000000000
 11
502.4460898330661
 21
177.6090339763402
 31
0.0000000000000000
 70
32
  3
MAIN001
100
AcDbAlignedDimension
 13
519.9460898330661
 23
221.3490563321908
 33
0.0000000000000000
 14
484.9460898330661
 24
225.3490563321907
 34
0.0000000000000000
100
AcDbRotatedDimension
1001
ACAD
1000
DSTYLE
1002
{
1070
   173
1070
     1
1070
     6
1000
_OPEN
1070
     7
1000
_OPEN
1070
    41
1040
2.000000
1002
}
  0
DIMENSION
  5
206
100
AcDbEntity
  8
MAIN0
  6
CONTINUOUS
 62
3
100
AcDbDimension
  2
*D15
 10
574.9460898330661
 20
153.3490563321907
 30
0.0000000000000000
 11
574.4460898330661
 21
237.3490563321907
 31
0.0000000000000000
 70
32
  1
\A1;\U+2205168h7
  3
MAIN001
100
AcDbAlignedDimension
 13
458.9460898330661
 23
321.3490563321907
 33
0.0000000000000000
 14
457.9460898330661
 24
153.3490563321907
 34
0.0000000000000000
 50
90.00000000000000
100
AcDbRotatedDimension
1001
ACAD
1000
DSTYLE
1002
{
1070
   173
1070
     1
1070
     6
1000
_OPEN
1070
     7
1000
_OPEN
1070
    41
1040
2.000000
1002
}
  0
DIMENSION
  5
20E
100
AcDbEntity
  8
MAIN0
  6
CONTINUOUS
 62
3
100
AcDbDimension
  2
*D16
 10
459.9460898330661
 20
177.1090339763402
 30
0.0000000000000000
 11
467.4460898330661
 21
177.6090339763402
 31
0.0000000000000000
 70
32
  3
MAIN001
100
AcDbAlignedDimension
 13
474.9460898330661
 23
212.3490563321907
 33
0.0000000000000000
 14
459.9460898330661
 24
188.3490563321907
 34
0.0000000000000000
100
AcDbRotatedDimension
1001
ACAD
1000
DSTYLE
1002
{
1070
   173
1070
     1
1070
     6
1000
_OPEN
1070
     7
1000
_OPEN
1070
    41
1040
2.000000
1002
}
  0
INSERT
  5
216
100
AcDbEntity
  8
MAIN0
  6
CONTINUOUS
 62
3
100
AcDbBlockReference
  2
D17
 10
526.2490620594707
 20
237.3490563321907
 30
0.0000000000000000
 50
0.0000000000000000
  0
DIMENSION
  5
21F
100
AcDbEntity
  8
MAIN0
  6
CONTINUOUS
 62
3
100
AcDbDimension
  2
*D18
 10
315.9460898330668
 20
124.4579058261489
 30
0.0000000000000000
 11
392.9460898330682
 21
124.9579058261489
 31
0.0000000000000000
 70
160
  3
MAIN001
100
AcDbAlignedDimension
 13
459.9460898330661
 23
152.8490563321907
 33
0.0000000000000000
 14
315.9460898330668
 24
147.2490563321907
 34
0.0000000000000000
100
AcDbRotatedDimension
1001
ACAD
1000
DSTYLE
1002
{
1070
   173
1070
     1
1070
     6
1000
_OPEN
1070
     7
1000
_OPEN
1070
    41
1040
2.000000
1002
}
  0
INSERT
  5
227
100
AcDbEntity
  8
MAIN0
  6
CONTINUOUS
 62
3
100
AcDbBlockReference
  2
D19
 10
300.8630875745281
 20
237.3490563321907
 30
0.0000000000000000
 50
0.0000000000000000
  0
LINE
  5
228
100
AcDbEntity
  8
MAIN0
  6
CONTINUOUS
 62
3
100
AcDbLine
 10
474.9460898330661
 20
211.8490563321907
 30
0.0000000000000000
 11
474.9460898330661
 21
262.8490563321907
 31
0.0000000000000000
  0
LINE
  5
229
100
AcDbEntity
  8
MAIN0
  6
CONTINUOUS
 62
3
100
AcDbLine
 10
335.9460898330668
 20
261.3533069381270
 30
0.0000000000000000
 11
335.9460898330668
 21
326.4490563321909
 31
0.0000000000000000
  0
LINE
  5
22A
100
AcDbEntity
  8
MAIN0
  6
CONTINUOUS
 62
3
100
AcDbLine
 10
375.9460898330669
 20
265.3304754619148
 30
0.0000000000000000
 11
375.9460898330669
 21
272.9490563321906
 31
0.0000000000000000
  0
LINE
  5
22B
100
AcDbEntity
  8
MAIN0
  6
CONTINUOUS
 62
3
100
AcDbLine
 10
376.9460898330666
 20
264.4510883872719
 30
0.0000000000000000
 11
376.9460898330666
 21
272.4490563321906
 31
0.0000000000000000
  0
LINE
  5
22C
100
AcDbEntity
  8
MAIN0
  6
CONTINUOUS
 62
3
100
AcDbLine
 10
410.9460898330667
 20
321.3490563321907
 30
0.0000000000000000
 11
410.9460898330667
 21
324.3490563321909
 31
0.0000000000000000
  0
LINE
  5
22D
100
AcDbEntity
  8
MAIN0
  6
CONTINUOUS
 62
3
100
AcDbLine
 10
376.9460898330667
 20
273.8490563321907
 30
0.0000000000000000
 11
376.9460898330667
 21
321.8490563321909
 31
0.0000000000000000
  0
LINE
  5
22E
100
AcDbEntity
  8
MAIN0
  6
CONTINUOUS
 62
3
100
AcDbLine
 10
459.9460898330661
 20
155.3490563321907
 30
0.0000000000000000
 11
459.9460898330661
 21
320.3490563321907
 31
0.0000000000000000
  0
LINE
  5
22F
100
AcDbEntity
  8
MAIN0
  6
CONTINUOUS
 62
3
100
AcDbLine
 10
511.9460898330661
 20
250.3490563321907
 30
0.0000000000000000
 11
514.2460898330662
 21
250.3490563321907
 31
0.0000000000000000
  0
LINE
  5
230
100
AcDbEntity
  8
MAIN0
  6
CONTINUOUS
 62
3
100
AcDbLine
 10
516.9460898330661
 20
250.3490563321907
 30
0.0000000000000000
 11
519.0800644287040
 21
250.3490563321907
 31
0.0000000000000000
  0
LINE
  5
231
100
AcDbEntity
  8
MAIN0
  6
CONTINUOUS
 62
3
100
AcDbLine
 10
511.9460898330661
 20
224.3490563321907
 30
0.0000000000000000
 11
514.2460898330662
 21
224.3490563321907
 31
0.0000000000000000
  0
LINE
  5
232
100
AcDbEntity
  8
MAIN0
  6
CONTINUOUS
 62
3
100
AcDbLine
 10
516.9460898330661
 20
224.3490563321907
 30
0.0000000000000000
 11
519.0800644287327
 21
224.3490563321907
 31
0.0000000000000000
  0
LINE
  5
233
100
AcDbEntity
  8
MAIN0
  6
CONTINUOUS
 62
3
100
AcDbLine
 10
410.9460898330667
 20
146.2490563321907
 30
0.0000000000000000
 11
410.9460898330667
 21
260.8121485986563
 31
0.0000000000000000
  0
LINE
  5
234
100
AcDbEntity
  8
MAIN0
  6
PHANTOM
 62
3
100
AcDbLine
 10
343.9460898330667
 20
324.3490563321909
 30
0.0000000000000000
 11
380.9460898330667
 21
324.3490563321909
 31
0.0000000000000000
  0
LINE
  5
235
100
AcDbEntity
  8
MAIN0
  6
PHANTOM
 62
3
100
AcDbLine
 10
346.9460898330667
 20
321.8490563321909
 30
0.0000000000000000
 11
380.9460898330667
 21
321.8490563321909
 31
0.0000000000000000
  0
LINE
  5
236
100
AcDbEntity
  8
MAIN0
  6
PHANTOM
 62
3
100
AcDbLine
 10
380.9460898330667
 20
321.8490563321909
 30
0.0000000000000000
 11
380.9460898330667
 21
324.3490563321909
 31
0.0000000000000000
  0
LINE
  5
237
100
AcDbEntity
  8
MAIN0
  6
PHANTOM
 62
3
100
AcDbLine
 10
368.9460898330676
 20
325.8490563321910
 30
0.0000000000000000
 11
371.8383965751316
 21
325.8490563321910
 31
0.0000000000000000
  0
LINE
  5
238
100
AcDbEntity
  8
MAIN0
  6
PHANTOM
 62
3
100
AcDbLine
 10
368.4875898330666
 20
326.3075563321917
 30
0.0000000000000000
 11
368.4875898330666
 21
339.7267474448476
 31
0.0000000000000000
  0
LINE
  5
239
100
AcDbEntity
  8
MAIN0
  6
PHANTOM
 62
3
100
AcDbLine
 10
367.9460898330666
 20
326.8490563321917
 30
0.0000000000000000
 11
368.9460898330675
 21
325.8490563321908
 31
0.0000000000000000
  0
LINE
  5
23A
100
AcDbEntity
  8
MAIN0
  6
PHANTOM
 62
3
100
AcDbLine
 10
367.9460898330666
 20
326.8490563321908
 30
0.0000000000000000
 11
371.8383965751316
 21
326.8490563321908
 31
0.0000000000000000
  0
LINE
  5
23B
100
AcDbEntity
  8
MAIN0
  6
PHANTOM
 62
3
100
AcDbLine
 10
367.9460898330667
 20
326.8490563321919
 30
0.0000000000000000
 11
367.9460898330667
 21
339.7267474448476
 31
0.0000000000000000
  0
LINE
  5
23C
100
AcDbEntity
  8
MAIN0
  6
PHANTOM
 62
3
100
AcDbLine
 10
346.9460898330667
 20
273.3490563321906
 30
0.0000000000000000
 11
346.9460898330667
 21
321.8490563321909
 31
0.0000000000000000
  0
LINE
  5
23D
100
AcDbEntity
  8
MAIN0
  6
PHANTOM
 62
3
100
AcDbLine
 10
343.9460898330667
 20
273.8490563321907
 30
0.0000000000000000
 11
346.9460898330667
 21
273.8490563321907
 31
0.0000000000000000
  0
LINE
  5
23E
100
AcDbEntity
  8
MAIN0
  6
PHANTOM
 62
3
100
AcDbLine
 10
343.9460898330667
 20
273.3490563321906
 30
0.0000000000000000
 11
343.9460898330667
 21
324.3490563321909
 31
0.0000000000000000
  0
LINE
  5
23F
100
AcDbEntity
  8
MAIN0
  6
CONTINUOUS
 62
3
100
AcDbLine
 10
325.9460898330658
 20
313.8490563321909
 30
0.0000000000000000
 11
325.9460898330657
 21
316.8490563321909
 31
0.0000000000000000
  0
LINE
  5
240
100
AcDbEntity
  8
MAIN0
  6
CONTINUOUS
 62
3
100
AcDbLine
 10
315.9460898330668
 20
260.7490563322066
 30
0.0000000000000000
 11
315.9460898330668
 21
261.9490563321749
 31
0.0000000000000000
  0
LINE
  5
241
100
AcDbEntity
  8
MAIN0
  6
CONTINUOUS
 62
3
100
AcDbLine
 10
315.9460898330668
 20
214.7490563322066
 30
0.0000000000000000
 11
315.9460898330668
 21
259.9490563321748
 31
0.0000000000000000
  0
LINE
  5
242
100
AcDbEntity
  8
MAIN0
  6
CONTINUOUS
 62
3
100
AcDbLine
 10
315.9460898330668
 20
212.7490563322065
 30
0.0000000000000000
 11
315.9460898330668
 21
213.9490563321749
 31
0.0000000000000000
  0
LINE
  5
243
100
AcDbEntity
  8
MAIN0
  6
CONTINUOUS
 62
3
100
AcDbLine
 10
315.9460898330668
 20
146.2490563321907
 30
0.0000000000000000
 11
315.9460898330668
 21
209.9490563321748
 31
0.0000000000000000
  0
LINE
  5
244
100
AcDbEntity
  8
MAIN0
  6
CONTINUOUS
 62
3
100
AcDbLine
 10
315.9460898330668
 20
210.7490563322065
 30
0.0000000000000000
 11
315.9460898330668
 21
211.9490563321748
 31
0.0000000000000000
  0
LINE
  5
245
100
AcDbEntity
  8
MAIN0
  6
CONTINUOUS
 62
3
100
AcDbLine
 10
315.9460898330668
 20
262.7490563322065
 30
0.0000000000000000
 11
315.9460898330668
 21
263.9490563321749
 31
0.0000000000000000
  0
LINE
  5
246
100
AcDbEntity
  8
MAIN0
  6
CONTINUOUS
 62
3
100
AcDbLine
 10
315.9460898330668
 20
264.7490563322065
 30
0.0000000000000000
 11
315.9460898330668
 21
313.4490563321909
 31
0.0000000000000000
  0
CIRCLE
  5
247
100
AcDbEntity
  8
MAIN0
  6
CONTINUOUS
 62
3
100
AcDbCircle
 10
88.16142252074840
 20
341.5037186323179
 30
0.0000000000000000
 40
4.250000000000000
  0
LINE
  5
248
100
AcDbEntity
  8
MAIN0
  6
CONTINUOUS
 62
3
100
AcDbLine
 10
88.16142252074843
 20
343.8131197090766
 30
0.0000000000000000
 11
86.16142252074843
 21
342.6584191706973
 31
0.0000000000000000
  0
LINE
  5
249
100
AcDbEntity
  8
MAIN0
  6
CONTINUOUS
 62
3
100
AcDbLine
 10
86.16142252074840
 20
342.6584191706971
 30
0.0000000000000000
 11
86.16142252074840
 21
340.3490180939386
 31
0.0000000000000000
  0
LINE
  5
24A
100
AcDbEntity
  8
MAIN0
  6
CONTINUOUS
 62
3
100
AcDbLine
 10
86.16142252074852
 20
340.3490180939386
 30
0.0000000000000000
 11
88.16142252074840
 21
339.1943175555595
 31
0.0000000000000000
  0
LINE
  5
24B
100
AcDbEntity
  8
MAIN0
  6
CONTINUOUS
 62
3
100
AcDbLine
 10
88.16142252074843
 20
339.1943175555596
 30
0.0000000000000000
 11
90.16142252074843
 21
340.3490180939388
 31
0.0000000000000000
  0
LINE
  5
24C
100
AcDbEntity
  8
MAIN0
  6
CONTINUOUS
 62
3
100
AcDbLine
 10
90.16142252074840
 20
340.3490180939386
 30
0.0000000000000000
 11
90.16142252074840
 21
342.6584191706971
 31
0.0000000000000000
  0
LINE
  5
24D
100
AcDbEntity
  8
MAIN0
  6
CONTINUOUS
 62
3
100
AcDbLine
 10
90.16142252074837
 20
342.6584191706972
 30
0.0000000000000000
 11
88.16142252074849
 21
343.8131197090764
 31
0.0000000000000000
  0
MTEXT
  5
24E
100
AcDbEntity
  8
MAIN0
  6
CONTINUOUS
 62
3
100
AcDbMText
 10
82.73184807302343
 20
96.84090332425893
 30
0.0000000000000000
 40
3.099999904632568
 41
0.0000000000000000
 71
     1
 72
     1
  1
{\H0.92x;{   30}}
 11
1.000000000000000
 21
0.0000000000000000
 31
0.0000000000000000
  7
STANDARD
  0
MTEXT
  5
24F
100
AcDbEntity
  8
MAIN0
  6
CONTINUOUS
 62
3
100
AcDbMText
 10
82.73184807302343
 20
59.84090332425885
 30
0.0000000000000000
 40
3.099999904632568
 41
0.0000000000000000
 71
     1
 72
     1
  1
{\H0.92x;{ 6000}}
 11
1.000000000000000
 21
0.0000000000000000
 31
0.0000000000000000
  7
STANDARD
  0
MTEXT
  5
250
100
AcDbEntity
  8
MAIN0
  6
CONTINUOUS
 62
3
100
AcDbMText
 10
82.73184807302343
 20
103.8409033242588
 30
0.0000000000000000
 40
3.099999904632568
 41
0.0000000000000000
 71
     1
 72
     1
  1
{\H0.92x;{  130}}
 11
1.000000000000000
 21
0.0000000000000000
 31
0.0000000000000000
  7
STANDARD
  0
MTEXT
  5
251
100
AcDbEntity
  8
MAIN0
  6
CONTINUOUS
 62
3
100
AcDbMText
 10
45.64954102839204
 20
81.84090332425905
 30
0.0000000000000000
 40
3.099999904632568
 41
0.0000000000000000
 71
     1
 72
     1
  1
{\H0.92x;{  4.0}}
 11
1.000000000000000
 21
0.0000000000000000
 31
0.0000000000000000
  7
STANDARD
  0
MTEXT
  5
252
100
AcDbEntity
  8
MAIN0
  6
CONTINUOUS
 62
3
100
AcDbMText
 10
82.73184807302343
 20
90.34090332425893
 30
0.0000000000000000
 40
3.099999904632568
 41
0.0000000000000000
 71
     1
 72
     1
  1
{\H0.92x;{   47\P}
 11
1.000000000000000
 21
0.0000000000000000
 31
0.0000000000000000
  7
STANDARD
  0
MTEXT
  5
253
100
AcDbEntity
  8
MAIN0
  6
CONTINUOUS
 62
3
100
AcDbMText
 10
82.73184807302343
 20
80.34090332425882
 30
0.0000000000000000
 40
3.099999904632568
 41
0.0000000000000000
 71
     1
 72
     1
  1
{\H0.92x;{   45}}
 11
1.000000000000000
 21
0.0000000000000000
 31
0.0000000000000000
  7
STANDARD
  0
MTEXT
  5
254
100
AcDbEntity
  8
MAIN0
  6
CONTINUOUS
 62
3
100
AcDbMText
 10
82.73184807302343
 20
70.34090332425885
 30
0.0000000000000000
 40
3.099999904632568
 41
0.0000000000000000
 71
     1
 72
     1
  1
{\H0.92x;{  4.0}}
 11
1.000000000000000
 21
0.0000000000000000
 31
0.0000000000000000
  7
STANDARD
  0
MTEXT
  5
255
100
AcDbEntity
  8
MAIN0
  6
CONTINUOUS
 62
3
100
AcDbMText
 10
82.73184807302343
 20
52.84090332425885
 30
0.0000000000000000
 40
3.099999904632568
 41
0.0000000000000000
 71
     1
 72
     1
  1
{\H0.92x;{ 10.3}}
 11
1.000000000000000
 21
0.0000000000000000
 31
0.0000000000000000
  7
STANDARD
  0
MTEXT
  5
256
100
AcDbEntity
  8
MAIN0
  6
CONTINUOUS
 62
3
100
AcDbMText
 10
82.73184807302343
 20
25.34090332425885
 30
0.0000000000000000
 40
3.099999904632568
 41
0.0000000000000000
 71
     1
 72
     1
  1
{\H0.92x;{  1.2}}
 11
1.000000000000000
 21
0.0000000000000000
 31
0.0000000000000000
  7
STANDARD
  0
INSERT
  5
281
100
AcDbEntity
  8
MAIN0
  6
CONTINUOUS
 62
3
100
AcDbBlockReference
  2
M3
 10
0.0000000000000000
 20
0.0000000000000000
 30
0.0000000000000000
 50
0.0000000000000000
  0
SPLINE
  5
282
100
AcDbEntity
  8
MAIN0
  6
CONTINUOUS
 62
3
100
AcDbSpline
210
0.0000000000000000
220
0.0000000000000000
230
1.000000000000000
 70
     8
 71
     3
 72
    12
 73
     8
 74
     0
 42
1.000000000000000e-007
 43
1.000000000000000e-007
 12
1.088657757375245
 22
-0.2454003001440839
 32
0.0000000000000000
 13
1.019329887020263
 23
0.2080119081590794
 33
0.0000000000000000
 40
0.0000000000000000
 40
0.0000000000000000
 40
0.0000000000000000
 40
0.0000000000000000
 40
1.630542417238351
 40
4.194692270786582
 40
6.948947427696034
 40
7.467909438373205
 40
8.161628223834228
 40
8.161628223834228
 40
8.161628223834228
 40
8.161628223834228
 10
96.63356797149706
 20
21.70897791003173
 30
0.0000000000000000
 10
97.22526885524903
 20
21.57559937716908
 30
0.0000000000000000
 10
98.74746361538055
 20
21.23247312974800
 30
0.0000000000000000
 10
99.65277122514593
 20
26.11110274471437
 30
0.0000000000000000
 10
97.00342794504601
 20
22.22862830571702
 30
0.0000000000000000
 10
98.20976724213804
 20
21.38340627636237
 30
0.0000000000000000
 10
98.62180783511101
 20
21.46749029182647
 30
0.0000000000000000
 10
98.85751726551362
 20
21.51559088125632
 30
0.0000000000000000
  0
LINE
  5
283
100
AcDbEntity
  8
MAIN0
  6
CONTINUOUS
 62
3
100
AcDbLine
 10
248.1410636203135
 20
55.84058647994110
 30
0.0000000000000000
 11
370.4339950358492
 21
55.84058647994110
 31
0.0000000000000000
  0
MTEXT
  5
284
100
AcDbEntity
  8
MAIN0
  6
CONTINUOUS
 62
3
100
AcDbMText
 10
249.1410636203135
 20
59.44058638457366
 30
0.0000000000000000
 40
3.099999904632568
 41
0.0000000000000000
 71
     1
 72
     1
  1
{\H0.67x;{4.}}
 11
1.000000000000000
 21
0.0000000000000000
 31
0.0000000000000000
  7
STANDARD
  0
MTEXT
  5
285
100
AcDbEntity
  8
MAIN0
  6
CONTINUOUS
 62
3
100
AcDbMText
 10
258.1410636203135
 20
59.44058638457366
 30
0.0000000000000000
 40
3.099999904632568
 41
0.0000000000000000
 71
     1
 72
     1
  1
{\H0.94x;{シリンダアダプタ内径寸法(※印)を MAX \U+220595 に設計して下さい}}
 11
1.000000000000000
 21
0.0000000000000000
 31
0.0000000000000000
  7
KNJYOKO
  0
MTEXT
  5
286
100
AcDbEntity
  8
MAIN2
  6
CONTINUOUS
 62
3
100
AcDbMText
 10
249.6410636203135
 20
50.84058647994132
 30
0.0000000000000000
 40
5.000000000000000
 41
0.0000000000000000
 71
     1
 72
     1
  1
{\H0.63x;{NOTE}}
 11
1.000000000000000
 21
0.0000000000000000
 31
0.0000000000000000
  7
STANDARD
  0
LINE
  5
287
100
AcDbEntity
  8
MAIN0
  6
CONTINUOUS
 62
3
100
AcDbLine
 10
248.1410636203135
 20
25.84058647994110
 30
0.0000000000000000
 11
378.3831047906211
 21
25.84058647994110
 31
0.0000000000000000
  0
MTEXT
  5
288
100
AcDbEntity
  8
MAIN0
  6
CONTINUOUS
 62
3
100
AcDbMText
 10
249.1410636203135
 20
24.44058638457378
 30
0.0000000000000000
 40
3.099999904632568
 41
0.0000000000000000
 71
     1
 72
     1
  1
{\H0.67x;{4.}}
 11
1.000000000000000
 21
0.0000000000000000
 31
0.0000000000000000
  7
STANDARD
  0
LINE
  5
289
100
AcDbEntity
  8
MAIN0
  6
CONTINUOUS
 62
3
100
AcDbLine
 10
248.1410636203135
 20
20.84058647994121
 30
0.0000000000000000
 11
378.3831047906211
 21
20.84058647994121
 31
0.0000000000000000
  0
LINE
  5
28A
100
AcDbEntity
  8
MAIN0
  6
CONTINUOUS
 62
3
100
AcDbLine
 10
511.3687395637526
 20
225.3490563321907
 30
0.0000000000000000
 11
484.9460898330661
 21
225.3490563321907
 31
0.0000000000000000
  0
LINE
  5
28B
100
AcDbEntity
  8
MAIN0
  6
CONTINUOUS
 62
3
100
AcDbLine
 10
484.9460898330661
 20
249.3490563321907
 30
0.0000000000000000
 11
511.3687395637526
 21
249.3490563321907
 31
0.0000000000000000
  0
LINE
  5
28C
100
AcDbEntity
  8
MAIN0
  6
CONTINUOUS
 62
3
100
AcDbLine
 10
510.6470517272678
 20
226.5990563321907
 30
0.0000000000000000
 11
477.0783623532440
 21
226.5990563321907
 31
0.0000000000000000
  0
LINE
  5
28D
100
AcDbEntity
  8
MAIN0
  6
CONTINUOUS
 62
3
100
AcDbLine
 10
477.3802776414618
 20
248.0990563321907
 30
0.0000000000000000
 11
510.6470517274225
 21
248.0990563321907
 31
0.0000000000000000
  0
LINE
  5
28E
100
AcDbEntity
  8
MAIN0
  6
PHANTOM
 62
3
100
AcDbLine
 10
445.9460898330667
 20
157.3490563321907
 30
0.0000000000000000
 11
445.9460898330667
 21
167.3490563321907
 31
0.0000000000000000
  0
LINE
  5
28F
100
AcDbEntity
  8
MAIN0
  6
PHANTOM
 62
3
100
AcDbLine
 10
445.9460898330667
 20
166.5371573321907
 30
0.0000000000000000
 11
477.9460898330667
 21
166.5371573321907
 31
0.0000000000000000
  0
LINE
  5
290
100
AcDbEntity
  8
MAIN0
  6
PHANTOM
 62
3
100
AcDbLine
 10
387.9460898330667
 20
167.3490563321907
 30
0.0000000000000000
 11
477.9460898330667
 21
167.3490563321907
 31
0.0000000000000000
  0
LINE
  5
291
100
AcDbEntity
  8
MAIN0
  6
PHANTOM
 62
3
100
AcDbLine
 10
477.9460898330667
 20
157.3490563321907
 30
0.0000000000000000
 11
477.9460898330667
 21
167.3490563321907
 31
0.0000000000000000
  0
LINE
  5
292
100
AcDbEntity
  8
MAIN0
  6
PHANTOM
 62
3
100
AcDbLine
 10
445.9460898330667
 20
158.1609553321907
 30
0.0000000000000000
 11
477.9460898330667
 21
158.1609553321907
 31
0.0000000000000000
  0
LINE
  5
293
100
AcDbEntity
  8
MAIN0
  6
PHANTOM
 62
3
100
AcDbLine
 10
387.9460898330667
 20
157.3490563321907
 30
0.0000000000000000
 11
477.9460898330667
 21
157.3490563321907
 31
0.0000000000000000
  0
LINE
  5
294
100
AcDbEntity
  8
MAIN0
  6
HIDDEN
 62
3
100
AcDbLine
 10
319.3675898330703
 20
147.8490563321907
 30
0.0000000000000000
 11
319.6613398330703
 21
157.2490563321907
 31
0.0000000000000000
  0
LINE
  5
295
100
AcDbEntity
  8
MAIN0
  6
HIDDEN
 62
3
100
AcDbLine
 10
319.6613398330703
 20
157.2490563321907
 30
0.0000000000000000
 11
332.2308398330702
 21
157.2490563321907
 31
0.0000000000000000
  0
LINE
  5
296
100
AcDbEntity
  8
MAIN0
  6
HIDDEN
 62
3
100
AcDbLine
 10
332.2308398330702
 20
157.2490563321906
 30
0.0000000000000000
 11
332.5245898330702
 21
147.8490563321906
 31
0.0000000000000000
  0
LINE
  5
297
100
AcDbEntity
  8
MAIN0
  6
HIDDEN
 62
3
100
AcDbLine
 10
320.2235898330704
 20
147.8490563321907
 30
0.0000000000000000
 11
320.5173398330704
 21
157.2490563321907
 31
0.0000000000000000
  0
LINE
  5
298
100
AcDbEntity
  8
MAIN0
  6
HIDDEN
 62
3
100
AcDbLine
 10
331.6685898330703
 20
147.8490563321906
 30
0.0000000000000000
 11
331.3748398330703
 21
157.2490563321906
 31
0.0000000000000000
  0
LINE
  5
299
100
AcDbEntity
  8
MAIN0
  6
HIDDEN
 62
3
100
AcDbLine
 10
320.5460898330703
 20
157.2490563321907
 30
0.0000000000000000
 11
320.5460898330703
 21
171.1267194486001
 31
0.0000000000000000
  0
LINE
  5
29A
100
AcDbEntity
  8
MAIN0
  6
HIDDEN
 62
3
100
AcDbLine
 10
331.3460898330702
 20
172.1667578423377
 30
0.0000000000000000
 11
331.3460898330702
 21
157.2490563321907
 31
0.0000000000000000
  0
LINE
  5
29B
100
AcDbEntity
  8
MAIN0
  6
HIDDEN
 62
3
100
AcDbLine
 10
183.4913801280682
 20
152.1939726415121
 30
0.0000000000000000
 11
183.9340449940924
 21
153.1432705101676
 31
0.0000000000000000
  0
LINE
  5
29C
100
AcDbEntity
  8
MAIN0
  6
HIDDEN
 62
3
100
AcDbLine
 10
183.9340449940924
 20
153.1432705101676
 30
0.0000000000000000
 11
188.6325080980219
 21
154.8533712267962
 31
0.0000000000000000
  0
LINE
  5
29D
100
AcDbEntity
  8
MAIN0
  6
HIDDEN
 62
3
100
AcDbLine
 10
188.6325080980218
 20
154.8533712267961
 30
0.0000000000000000
 11
189.5818059666773
 21
154.4107063607719
 31
0.0000000000000000
  0
LINE
  5
29E
100
AcDbEntity
  8
MAIN0
  6
HIDDEN
 62
3
100
AcDbLine
 10
183.6352087553624
 20
152.5024141281118
 30
0.0000000000000000
 11
179.6335730784516
 21
163.4968177913067
 31
0.0000000000000000
  0
LINE
  5
29F
100
AcDbEntity
  8
MAIN0
  6
HIDDEN
 62
3
100
AcDbLine
 10
179.6335730784516
 20
163.4968177913068
 30
0.0000000000000000
 11
185.2717288031669
 21
165.5489386512610
 31
0.0000000000000000
  0
LINE
  5
2A0
100
AcDbEntity
  8
MAIN0
  6
HIDDEN
 62
3
100
AcDbLine
 10
185.2717288031669
 20
165.5489386512610
 30
0.0000000000000000
 11
189.2733644800777
 21
154.5545349880661
 31
0.0000000000000000
  0
LINE
  5
2A1
100
AcDbEntity
  8
MAIN0
  6
HIDDEN
 62
3
100
AcDbLine
 10
183.9340449940924
 20
153.1432705101676
 30
0.0000000000000000
 11
178.7353388155416
 21
167.4265983461132
 31
0.0000000000000000
  0
LINE
  5
2A2
100
AcDbEntity
  8
MAIN0
  6
HIDDEN
 62
3
100
AcDbLine
 10
178.7353388155416
 20
167.4265983461132
 30
0.0000000000000000
 11
183.4338019194711
 21
169.1366990627417
 31
0.0000000000000000
  0
LINE
  5
2A3
100
AcDbEntity
  8
MAIN0
  6
HIDDEN
 62
3
100
AcDbLine
 10
183.4338019194711
 20
169.1366990627417
 30
0.0000000000000000
 11
188.6325080980219
 21
154.8533712267962
 31
0.0000000000000000
  0
LINE
  5
2A4
100
AcDbEntity
  8
MAIN0
  6
HIDDEN
 62
3
100
AcDbLine
 10
178.7353388155417
 20
167.4265983461132
 30
0.0000000000000000
 11
180.5909068129630
 21
169.6379781733431
 31
0.0000000000000000
  0
LINE
  5
2A5
100
AcDbEntity
  8
MAIN0
  6
HIDDEN
 62
3
100
AcDbLine
 10
180.5909068129630
 20
169.6379781733431
 30
0.0000000000000000
 11
183.4338019194712
 21
169.1366990627417
 31
0.0000000000000000
  0
LINE
  5
2A6
100
AcDbEntity
  8
MAIN0
  6
CONTINUOUS
 62
3
100
AcDbLine
 10
397.9460898330660
 20
262.0159908254940
 30
0.0000000000000000
 11
397.9460898330662
 21
321.8490563321907
 31
0.0000000000000000
  0
LEADER
  5
2A7
100
AcDbEntity
  8
MAIN0
  6
CONTINUOUS
 62
3
100
AcDbLeader
  3
MAIN001
 73
     0
 74
     0
 75
     1
 40
3.099999904632568
 41
37.90100087022780
 76
     3
 10
95.55133780992210
 20
353.5037186323182
 30
0.0000000000000000
 10
114.0172516856103
 20
395.8928362795965
 30
0.0000000000000000
 10
115.9422516298204
 20
395.8928362795965
 30
0.0000000000000000
340
2A8
213
0.0000000000000000
223
-0.5000000000000000
233
0.0000000000000000
1001
ACAD
1000
DSTYLE
1002
{
1070
   147
1040
0.0
1070
    77
1070
     1
1070
   173
1070
     1
1070
     6
1000
_OPEN
1070
     7
1000
_OPEN
1002
}
  0
MTEXT
  5
2A8
102
{ACAD_REACTORS
330
2A7
102
}
100
AcDbEntity
  8
MAIN0
  6
CONTINUOUS
 62
3
100
AcDbMText
 10
115.9432516298204
 20
399.4928361842290
 30
0.0000000000000000
 40
3.099999904632568
 41
0.0000000000000000
 71
     1
 72
     1
  1
{\H0.94x;{ディテクタブルプレート}}
 11
1.000000000000000
 21
0.0000000000000000
 31
0.0000000000000000
  7
KNJYOKO
  0
ARC
  5
2A9
100
AcDbEntity
  8
MAIN0
  6
CONTINUOUS
 62
3
100
AcDbCircle
 10
88.16142252074783
 20
371.0037186323179
 30
0.0000000000000000
 40
2.749999999999886
100
AcDbArc
 50
0.0000000000000000
 51
180.0000000000000
  0
ARC
  5
2AA
100
AcDbEntity
  8
MAIN0
  6
CONTINUOUS
 62
3
100
AcDbCircle
 10
58.16142252074792
 20
371.0037186323175
 30
0.0000000000000000
 40
2.749999999999716
100
AcDbArc
 50
0.0000000000000000
 51
180.0000000000000
  0
LINE
  5
2AB
100
AcDbEntity
  8
MAIN0
  6
CENTER
 62
3
100
AcDbLine
 10
53.78718479956876
 20
371.0037186323174
 30
0.0000000000000000
 11
62.20711973913564
 21
371.0037186323175
 31
0.0000000000000000
  0
LINE
  5
2AC
100
AcDbEntity
  8
MAIN0
  6
CENTER
 62
3
100
AcDbLine
 10
83.17599316842328
 20
371.0037186323179
 30
0.0000000000000000
 11
92.24361552981875
 21
371.0037186323180
 31
0.0000000000000000
  0
LINE
  5
2AD
100
AcDbEntity
  8
MAIN0
  6
CENTER
 62
3
100
AcDbLine
 10
253.4564060719041
 20
356.2249636213461
 30
0.0000000000000000
 11
266.1497465292600
 21
350.3059617585124
 31
0.0000000000000000
  0
LINE
  5
2AE
100
AcDbEntity
  8
MAIN0
  6
CENTER
 62
3
100
AcDbLine
 10
293.1533805583941
 20
337.7139604127121
 30
0.0000000000000000
 11
280.4600401010382
 21
343.6329622755459
 31
0.0000000000000000
  0
DIMENSION
  5
2B7
100
AcDbEntity
  8
MAIN0
  6
CONTINUOUS
 62
3
100
AcDbDimension
  2
*D20
 10
105.6482794128966
 20
402.5037186323179
 30
0.0000000000000000
 11
105.1482794128966
 21
380.2874705180707
 31
0.0000000000000000
 70
160
  3
MAIN001
100
AcDbAlignedDimension
 13
95.66845370443267
 23
341.5037186323204
 33
0.0000000000000000
 14
93.16142252074806
 24
402.5037186323179
 34
0.0000000000000000
 50
90.00000000000000
100
AcDbRotatedDimension
1001
ACAD
1000
DSTYLE
1002
{
1070
   173
1070
     1
1070
     6
1000
_OPEN
1070
     7
1000
_OPEN
1070
    41
1040
2.000000
1002
}
  0
LINE
  5
2B8
100
AcDbEntity
  8
MAIN0
  6
CENTER
 62
3
100
AcDbLine
 10
155.9460898330612
 20
369.5393629768049
 30
0.0000000000000000
 11
155.9460898330713
 21
130.8359864843145
 31
0.0000000000000000
  0
LINE
  5
2B9
100
AcDbEntity
  8
MAIN0
  6
CENTER
 62
12
100
AcDbLine
 10
51.35803208330054
 20
237.3490563321907
 30
0.0000000000000000
 11
260.6692499024537
 21
237.3490563321907
 31
0.0000000000000000
  0
MTEXT
  5
2BA
100
AcDbEntity
  8
MAIN0
  6
CONTINUOUS
 62
3
100
AcDbMText
 10
51.44059581688816
 20
242.6880819821655
 30
0.0000000000000000
 40
4.000000000000000
 41
0.0000000000000000
 71
     1
 72
     1
  1
{\H0.81x;{A}}
 11
1.000000000000000
 21
0.0000000000000000
 31
0.0000000000000000
  7
STANDARD
  0
LINE
  5
2BB
100
AcDbEntity
  8
MAIN0
  6
CONTINUOUS
 62
3
100
AcDbLine
 10
335.9460898330668
 20
261.3533069381271
 30
0.0000000000000000
 11
335.9460898330668
 21
273.3490563321906
 31
0.0000000000000000
  0
LINE
  5
2BC
100
AcDbEntity
  8
MAIN0
  6
CONTINUOUS
 62
3
100
AcDbLine
 10
335.9460898330668
 20
273.3490563321906
 30
0.0000000000000000
 11
375.5460898330669
 21
273.3490563321906
 31
0.0000000000000000
  0
LINE
  5
2BD
100
AcDbEntity
  8
MAIN0
  6
CENTER
 62
3
100
AcDbLine
 10
325.9460898330704
 20
145.1490026837927
 30
0.0000000000000000
 11
325.9460898330685
 21
184.4392061275236
 31
0.0000000000000000
  0
ARC
  5
2BE
100
AcDbEntity
  8
MAIN0
  6
HIDDEN
 62
3
100
AcDbCircle
 10
155.9460898330668
 20
237.3490563321907
 30
0.0000000000000000
 40
87.50000000000017
100
AcDbArc
 50
55.94484441583074
 51
78.12645416477500
  0
CIRCLE
  5
2BF
100
AcDbEntity
  8
MAIN0
  6
CENTER
 62
3
100
AcDbCircle
 10
155.9460898330668
 20
237.3490563321907
 30
0.0000000000000000
 40
75.00000000000000
  0
LINE
  5
2C0
100
AcDbEntity
  8
MAIN0
  6
CENTER
 62
3
100
AcDbLine
 10
172.1733474902479
 20
297.9100063777004
 30
0.0000000000000000
 11
178.6887004168166
 21
322.2256345289219
 31
0.0000000000000000
  0
CIRCLE
  5
2C1
100
AcDbEntity
  8
MAIN0
  6
HIDDEN
 62
3
100
AcDbCircle
 10
175.3575182154032
 20
309.7934933039653
 30
0.0000000000000000
 40
8.000000000000000
  0
LINE
  5
2C2
100
AcDbEntity
  8
MAIN0
  6
HIDDEN
 62
3
100
AcDbLine
 10
172.0915318916923
 20
313.0594796276762
 30
0.0000000000000000
 11
170.8960979288015
 21
308.5980593410746
 31
0.0000000000000000
  0
LINE
  5
2C3
100
AcDbEntity
  8
MAIN0
  6
HIDDEN
 62
3
100
AcDbLine
 10
170.8960979288015
 20
308.5980593410747
 30
0.0000000000000000
 11
174.1620842525124
 21
305.3320730173637
 31
0.0000000000000000
  0
LINE
  5
2C4
100
AcDbEntity
  8
MAIN0
  6
HIDDEN
 62
3
100
AcDbLine
 10
174.1620842525125
 20
305.3320730173637
 30
0.0000000000000000
 11
178.6235045391141
 21
306.5275069802544
 31
0.0000000000000000
  0
LINE
  5
2C5
100
AcDbEntity
  8
MAIN0
  6
HIDDEN
 62
3
100
AcDbLine
 10
178.6235045391141
 20
306.5275069802544
 30
0.0000000000000000
 11
179.8189385020048
 21
310.9889272668561
 31
0.0000000000000000
  0
LINE
  5
2C6
100
AcDbEntity
  8
MAIN0
  6
HIDDEN
 62
3
100
AcDbLine
 10
179.8189385020048
 20
310.9889272668561
 30
0.0000000000000000
 11
176.5529521782939
 21
314.2549135905670
 31
0.0000000000000000
  0
LINE
  5
2C7
100
AcDbEntity
  8
MAIN0
  6
HIDDEN
 62
3
100
AcDbLine
 10
176.5529521782939
 20
314.2549135905670
 30
0.0000000000000000
 11
172.0915318916923
 21
313.0594796276762
 31
0.0000000000000000
  0
LINE
  5
2C8
100
AcDbEntity
  8
MAIN0
  6
CENTER
 62
3
100
AcDbLine
 10
111.6123974449256
 20
281.6827487198199
 30
0.0000000000000000
 11
93.81212222027608
 21
299.4830239444605
 31
0.0000000000000000
  0
CIRCLE
  5
2C9
100
AcDbEntity
  8
MAIN0
  6
HIDDEN
 62
3
100
AcDbCircle
 10
102.9130812438176
 20
290.3820649209235
 30
0.0000000000000000
 40
8.000000000000000
  0
LINE
  5
2CA
100
AcDbEntity
  8
MAIN0
  6
HIDDEN
 62
3
100
AcDbLine
 10
98.45166095721595
 20
289.1866309580329
 30
0.0000000000000000
 11
101.7176472809269
 21
285.9206446343220
 31
0.0000000000000000
  0
LINE
  5
2CB
100
AcDbEntity
  8
MAIN0
  6
HIDDEN
 62
3
100
AcDbLine
 10
101.7176472809268
 20
285.9206446343220
 30
0.0000000000000000
 11
106.1790675675285
 21
287.1160785972127
 31
0.0000000000000000
  0
LINE
  5
2CC
100
AcDbEntity
  8
MAIN0
  6
HIDDEN
 62
3
100
AcDbLine
 10
106.1790675675284
 20
287.1160785972127
 30
0.0000000000000000
 11
107.3745015304192
 21
291.5774988838143
 31
0.0000000000000000
  0
LINE
  5
2CD
100
AcDbEntity
  8
MAIN0
  6
HIDDEN
 62
3
100
AcDbLine
 10
107.3745015304193
 20
291.5774988838143
 30
0.0000000000000000
 11
104.1085152067083
 21
294.8434852075253
 31
0.0000000000000000
  0
LINE
  5
2CE
100
AcDbEntity
  8
MAIN0
  6
HIDDEN
 62
3
100
AcDbLine
 10
104.1085152067083
 20
294.8434852075253
 30
0.0000000000000000
 11
99.64709492010667
 21
293.6480512446345
 31
0.0000000000000000
  0
LINE
  5
2CF
100
AcDbEntity
  8
MAIN0
  6
HIDDEN
 62
3
100
AcDbLine
 10
99.64709492010661
 20
293.6480512446345
 30
0.0000000000000000
 11
98.45166095721586
 21
289.1866309580329
 31
0.0000000000000000
  0
LINE
  5
2D0
100
AcDbEntity
  8
MAIN0
  6
CENTER
 62
3
100
AcDbLine
 10
95.38513978774452
 20
221.1217986743102
 30
0.0000000000000000
 11
71.06951163652627
 21
214.6064457477293
 31
0.0000000000000000
  0
LINE
  5
2D1
100
AcDbEntity
  8
MAIN0
  6
HIDDEN
 62
3
100
AcDbLine
 10
82.30621889859049
 20
213.4762076625473
 30
0.0000000000000000
 11
86.76763918519214
 21
214.6716416254380
 31
0.0000000000000000
  0
LINE
  5
2D2
100
AcDbEntity
  8
MAIN0
  6
HIDDEN
 62
3
100
AcDbLine
 10
86.76763918519214
 20
214.6716416254380
 30
0.0000000000000000
 11
87.96307314808286
 21
219.1330619120397
 31
0.0000000000000000
  0
LINE
  5
2D3
100
AcDbEntity
  8
MAIN0
  6
HIDDEN
 62
3
100
AcDbLine
 10
87.96307314808283
 20
219.1330619120396
 30
0.0000000000000000
 11
84.69708682437189
 21
222.3990482357506
 31
0.0000000000000000
  0
LINE
  5
2D4
100
AcDbEntity
  8
MAIN0
  6
HIDDEN
 62
3
100
AcDbLine
 10
84.69708682437195
 20
222.3990482357506
 30
0.0000000000000000
 11
80.23566653777033
 21
221.2036142728599
 31
0.0000000000000000
  0
LINE
  5
2D5
100
AcDbEntity
  8
MAIN0
  6
HIDDEN
 62
3
100
AcDbLine
 10
80.23566653777030
 20
221.2036142728599
 30
0.0000000000000000
 11
79.04023257487955
 21
216.7421939862582
 31
0.0000000000000000
  0
LINE
  5
2D6
100
AcDbEntity
  8
MAIN0
  6
HIDDEN
 62
3
100
AcDbLine
 10
79.04023257487953
 20
216.7421939862582
 30
0.0000000000000000
 11
82.30621889859043
 21
213.4762076625473
 31
0.0000000000000000
  0
LINE
  5
2D7
100
AcDbEntity
  8
MAIN0
  6
CENTER
 62
3
100
AcDbLine
 10
139.7188321758858
 20
176.7881062866810
 30
0.0000000000000000
 11
133.2034792493170
 21
152.4724781354595
 31
0.0000000000000000
  0
CIRCLE
  5
2D8
100
AcDbEntity
  8
MAIN0
  6
HIDDEN
 62
3
100
AcDbCircle
 10
136.5346614507305
 20
164.9046193604161
 30
0.0000000000000000
 40
8.000000000000000
  0
LINE
  5
2D9
100
AcDbEntity
  8
MAIN0
  6
HIDDEN
 62
3
100
AcDbLine
 10
139.8006477744414
 20
161.6386330367052
 30
0.0000000000000000
 11
140.9960817373321
 21
166.1000533233068
 31
0.0000000000000000
  0
LINE
  5
2DA
100
AcDbEntity
  8
MAIN0
  6
HIDDEN
 62
3
100
AcDbLine
 10
140.9960817373321
 20
166.1000533233068
 30
0.0000000000000000
 11
137.7300954136212
 21
169.3660396470177
 31
0.0000000000000000
  0
LINE
  5
2DB
100
AcDbEntity
  8
MAIN0
  6
HIDDEN
 62
3
100
AcDbLine
 10
137.7300954136212
 20
169.3660396470177
 30
0.0000000000000000
 11
133.2686751270196
 21
168.1706056841270
 31
0.0000000000000000
  0
LINE
  5
2DC
100
AcDbEntity
  8
MAIN0
  6
HIDDEN
 62
3
100
AcDbLine
 10
133.2686751270196
 20
168.1706056841270
 30
0.0000000000000000
 11
132.0732411641288
 21
163.7091853975254
 31
0.0000000000000000
  0
LINE
  5
2DD
100
AcDbEntity
  8
MAIN0
  6
HIDDEN
 62
3
100
AcDbLine
 10
132.0732411641288
 20
163.7091853975254
 30
0.0000000000000000
 11
135.3392274878397
 21
160.4431990738144
 31
0.0000000000000000
  0
LINE
  5
2DE
100
AcDbEntity
  8
MAIN0
  6
HIDDEN
 62
3
100
AcDbLine
 10
135.3392274878397
 20
160.4431990738145
 30
0.0000000000000000
 11
139.8006477744414
 21
161.6386330367052
 31
0.0000000000000000
  0
CIRCLE
  5
2DF
100
AcDbEntity
  8
MAIN0
  6
HIDDEN
 62
3
100
AcDbCircle
 10
208.9790984220625
 20
184.3160477432043
 30
0.0000000000000000
 40
8.000000000000000
  0
LINE
  5
2E0
100
AcDbEntity
  8
MAIN0
  6
HIDDEN
 62
3
100
AcDbLine
 10
213.4405187086642
 20
185.5114817060950
 30
0.0000000000000000
 11
210.1745323849532
 21
188.7774680298059
 31
0.0000000000000000
  0
LINE
  5
2E1
100
AcDbEntity
  8
MAIN0
  6
HIDDEN
 62
3
100
AcDbLine
 10
210.1745323849532
 20
188.7774680298059
 30
0.0000000000000000
 11
205.7131120983516
 21
187.5820340669151
 31
0.0000000000000000
  0
LINE
  5
2E2
100
AcDbEntity
  8
MAIN0
  6
HIDDEN
 62
3
100
AcDbLine
 10
205.7131120983516
 20
187.5820340669152
 30
0.0000000000000000
 11
204.5176781354609
 21
183.1206137803135
 31
0.0000000000000000
  0
LINE
  5
2E3
100
AcDbEntity
  8
MAIN0
  6
HIDDEN
 62
3
100
AcDbLine
 10
204.5176781354609
 20
183.1206137803135
 30
0.0000000000000000
 11
207.7836644591718
 21
179.8546274566026
 31
0.0000000000000000
  0
LINE
  5
2E4
100
AcDbEntity
  8
MAIN0
  6
HIDDEN
 62
3
100
AcDbLine
 10
207.7836644591718
 20
179.8546274566026
 30
0.0000000000000000
 11
212.2450847457734
 21
181.0500614194933
 31
0.0000000000000000
  0
LINE
  5
2E5
100
AcDbEntity
  8
MAIN0
  6
HIDDEN
 62
3
100
AcDbLine
 10
212.2450847457734
 20
181.0500614194934
 30
0.0000000000000000
 11
213.4405187086641
 21
185.5114817060950
 31
0.0000000000000000
  0
LINE
  5
2E6
100
AcDbEntity
  8
MAIN0
  6
CENTER
 62
3
100
AcDbLine
 10
99.12303041947109
 20
210.8520285674350
 30
0.0000000000000000
 11
76.30819045934715
 21
200.2132939744416
 31
0.0000000000000000
  0
CIRCLE
  5
2E7
100
AcDbEntity
  8
MAIN0
  6
CONTINUOUS
 62
3
100
AcDbCircle
 10
87.97300580547241
 20
205.6526867013073
 30
0.0000000000000000
 40
8.500000000000000
  0
CIRCLE
  5
2E8
100
AcDbEntity
  8
MAIN0
  6
CONTINUOUS
 62
3
100
AcDbCircle
 10
223.9191738606613
 20
269.0454259630741
 30
0.0000000000000000
 40
8.500000000000000
  0
LINE
  5
2E9
100
AcDbEntity
  8
MAIN0
  6
CENTER
 62
3
100
AcDbLine
 10
212.7691492466627
 20
263.8460840969463
 30
0.0000000000000000
 11
235.5839892067866
 21
274.4848186899397
 31
0.0000000000000000
  0
ARC
  5
2EA
100
AcDbEntity
  8
MAIN0
  6
HIDDEN
 62
3
100
AcDbCircle
 10
83.50165286148121
 20
217.9376279491490
 30
0.0000000000000000
 40
8.000000000000000
100
AcDbArc
 50
328.9546163149685
 51
611.0453836855895
  0
ARC
  5
2EB
100
AcDbEntity
  8
MAIN0
  6
CONTINUOUS
 62
3
100
AcDbCircle
 10
83.50165286148121
 20
217.9376279491490
 30
0.0000000000000000
 40
8.000000000000000
100
AcDbArc
 50
251.0453836855896
 51
328.9546163149685
  0
INSERT
  5
2F9
100
AcDbEntity
  8
MAIN0
  6
CONTINUOUS
 62
3
100
AcDbBlockReference
  2
M4
 10
0.0000000000000000
 20
0.0000000000000000
 30
0.0000000000000000
 50
0.0000000000000000
  0
MTEXT
  5
2FA
100
AcDbEntity
  8
MAIN0
  6
CONTINUOUS
 62
3
100
AcDbMText
 10
258.1410636203135
 20
74.44058638457355
 30
0.0000000000000000
 40
3.099999904632568
 41
0.0000000000000000
 71
     1
 72
     1
  1
{\H0.94x;{切削水の使用は絶対に避けて下さい}}
 11
1.000000000000000
 21
0.0000000000000000
 31
0.0000000000000000
  7
KNJYOKO
  0
MTEXT
  5
2FB
100
AcDbEntity
  8
MAIN0
  6
CONTINUOUS
 62
3
100
AcDbMText
 10
258.1410636203135
 20
69.44058638457355
 30
0.0000000000000000
 40
3.099999904632568
 41
0.0000000000000000
 71
     1
 72
     1
  1
{\H0.94x;{エア配管には３点ユニットを使用し、必ずオイルミストを行って下さい}}
 11
1.000000000000000
 21
0.0000000000000000
 31
0.0000000000000000
  7
KNJYOKO
  0
MTEXT
  5
2FC
100
AcDbEntity
  8
MAIN0
  6
CONTINUOUS
 62
3
100
AcDbMText
 10
258.1410636203135
 20
64.44058638457366
 30
0.0000000000000000
 40
3.099999904632568
 41
0.0000000000000000
 71
     1
 72
     1
  1
{\H0.94x;{エアを通さないで運転することは避けて下さい}}
 11
1.000000000000000
 21
0.0000000000000000
 31
0.0000000000000000
  7
KNJYOKO
  0
MTEXT
  5
2FD
100
AcDbEntity
  8
MAIN2
  6
CONTINUOUS
 62
3
100
AcDbMText
 10
258.1410636203135
 20
44.34058647994098
 30
0.0000000000000000
 40
3.000000000000000
 41
0.0000000000000000
 71
     1
 72
     1
  1
{\H0.62x;{Never use coolant liquid for operation.}}
 11
1.000000000000000
 21
0.0000000000000000
 31
0.0000000000000000
  7
STANDARD
  0
MTEXT
  5
2FE
100
AcDbEntity
  8
MAIN2
  6
CONTINUOUS
 62
3
100
AcDbMText
 10
258.1410636203135
 20
39.34058647994098
 30
0.0000000000000000
 40
3.000000000000000
 41
0.0000000000000000
 71
     1
 72
     1
  1
{\H0.63x;{Make sure to use an air control unit with lubricator for}}
 11
1.000000000000000
 21
0.0000000000000000
 31
0.0000000000000000
  7
STANDARD
  0
MTEXT
  5
2FF
100
AcDbEntity
  8
MAIN2
  6
CONTINUOUS
 62
3
100
AcDbMText
 10
258.1410636203135
 20
34.34058647994098
 30
0.0000000000000000
 40
3.000000000000000
 41
0.0000000000000000
 71
     1
 72
     1
  1
{\H0.62x;{air-piping for lubrication.}}
 11
1.000000000000000
 21
0.0000000000000000
 31
0.0000000000000000
  7
STANDARD
  0
MTEXT
  5
300
100
AcDbEntity
  8
MAIN2
  6
CONTINUOUS
 62
3
100
AcDbMText
 10
258.1410636203135
 20
29.34058647994110
 30
0.0000000000000000
 40
3.000000000000000
 41
0.0000000000000000
 71
     1
 72
     1
  1
{\H0.62x;{Do not operate a cylinder without supplying air.}}
 11
1.000000000000000
 21
0.0000000000000000
 31
0.0000000000000000
  7
STANDARD
  0
MTEXT
  5
301
100
AcDbEntity
  8
MAIN2
  6
CONTINUOUS
 62
3
100
AcDbMText
 10
258.1410636203135
 20
24.34058647994121
 30
0.0000000000000000
 40
3.000000000000000
 41
0.0000000000000000
 71
     1
 72
     1
  1
{\H0.62x;{Design the inner dia.(mark ※) of cylinder adapter should be max.\U+220595}}
 11
1.000000000000000
 21
0.0000000000000000
 31
0.0000000000000000
  7
KNJYOKO
  0
LINE
  5
302
100
AcDbEntity
  8
MAIN0
  6
HIDDEN
 62
3
100
AcDbLine
 10
229.5859607675432
 20
261.2219050018341
 30
0.0000000000000000
 11
225.1245404809416
 21
260.0264710389433
 31
0.0000000000000000
  0
LINE
  5
303
100
AcDbEntity
  8
MAIN0
  6
HIDDEN
 62
3
100
AcDbLine
 10
225.1245404809416
 20
260.0264710389433
 30
0.0000000000000000
 11
223.9291065180508
 21
255.5650507523417
 31
0.0000000000000000
  0
LINE
  5
304
100
AcDbEntity
  8
MAIN0
  6
HIDDEN
 62
3
100
AcDbLine
 10
223.9291065180508
 20
255.5650507523417
 30
0.0000000000000000
 11
227.1950928417617
 21
252.2990644286308
 31
0.0000000000000000
  0
LINE
  5
305
100
AcDbEntity
  8
MAIN0
  6
HIDDEN
 62
3
100
AcDbLine
 10
227.1950928417617
 20
252.2990644286308
 30
0.0000000000000000
 11
231.6565131283633
 21
253.4944983915215
 31
0.0000000000000000
  0
LINE
  5
306
100
AcDbEntity
  8
MAIN0
  6
HIDDEN
 62
3
100
AcDbLine
 10
231.6565131283634
 20
253.4944983915215
 30
0.0000000000000000
 11
232.8519470912541
 21
257.9559186781232
 31
0.0000000000000000
  0
LINE
  5
307
100
AcDbEntity
  8
MAIN0
  6
HIDDEN
 62
3
100
AcDbLine
 10
232.8519470912541
 20
257.9559186781232
 30
0.0000000000000000
 11
229.5859607675432
 21
261.2219050018341
 31
0.0000000000000000
  0
ARC
  5
308
100
AcDbEntity
  8
MAIN0
  6
CONTINUOUS
 62
3
100
AcDbCircle
 10
228.3905268046524
 20
256.7604847152325
 30
0.0000000000000000
 40
8.000000000000000
100
AcDbArc
 50
71.04538368558917
 51
148.9546163149686
  0
ARC
  5
309
100
AcDbEntity
  8
MAIN0
  6
HIDDEN
 62
3
100
AcDbCircle
 10
228.3905268046524
 20
256.7604847152325
 30
0.0000000000000000
 40
8.000000000000000
100
AcDbArc
 50
148.9546163149686
 51
431.0453836855892
  0
LINE
  5
30A
100
AcDbEntity
  8
MAIN0
  6
CONTINUOUS
 62
3
100
AcDbLine
 10
53.16142252074832
 20
402.5037186323175
 30
0.0000000000000000
 11
93.16142252074798
 21
402.5037186323180
 31
0.0000000000000000
  0
LINE
  5
30B
100
AcDbEntity
  8
MAIN0
  6
CENTER
 62
3
100
AcDbLine
 10
61.82167655747551
 20
319.5037186323200
 30
0.0000000000000000
 11
84.41854669826296
 21
319.5037186323203
 31
0.0000000000000000
  0
LINE
  5
30C
100
AcDbEntity
  8
MAIN0
  6
CENTER
 62
3
100
AcDbLine
 10
61.82167655747492
 20
364.5037186323176
 30
0.0000000000000000
 11
84.41854669826228
 21
364.5037186323178
 31
0.0000000000000000
  0
ARC
  5
30D
100
AcDbEntity
  8
MAIN0
  6
HIDDEN
 62
3
100
AcDbCircle
 10
73.16142252074806
 20
364.5037186323177
 30
0.0000000000000000
 40
6.500000000000000
100
AcDbArc
 50
0.0000000000000000
 51
180.0000000000000
  0
LINE
  5
30E
100
AcDbEntity
  8
MAIN0
  6
CENTER
 62
3
100
AcDbLine
 10
284.4213815915745
 20
348.9577148751980
 30
0.0000000000000000
 11
268.1287327922104
 21
356.5551017819714
 31
0.0000000000000000
  0
ARC
  5
30F
100
AcDbEntity
  8
MAIN0
  6
HIDDEN
 62
3
100
AcDbCircle
 10
276.0519120164637
 20
352.8604626327674
 30
0.0000000000000000
 40
6.500000000000000
100
AcDbArc
 50
155.0000000000000
 51
335.0000000000000
  0
LINE
  5
310
100
AcDbEntity
  8
MAIN0
  6
CENTER
 62
3
100
AcDbLine
 10
303.4392033699060
 20
389.7415652918473
 30
0.0000000000000000
 11
287.1465545705419
 21
397.3389521986206
 31
0.0000000000000000
  0
LINE
  5
311
100
AcDbEntity
  8
MAIN0
  6
CONTINUOUS
 62
3
100
AcDbLine
 10
283.0507683838169
 20
383.2498688386997
 30
0.0000000000000000
 11
289.1787331790571
 21
396.3913317507311
 31
0.0000000000000000
  0
LINE
  5
312
100
AcDbEntity
  8
MAIN0
  6
HIDDEN
 62
3
100
AcDbLine
 10
270.1609114007256
 20
355.6074813340820
 30
0.0000000000000000
 11
283.0507683838168
 21
383.2498688386997
 31
0.0000000000000000
  0
LINE
  5
313
100
AcDbEntity
  8
MAIN0
  6
CONTINUOUS
 62
3
100
AcDbLine
 10
294.8327696152932
 20
377.7558314360707
 30
0.0000000000000000
 11
300.9607344105334
 21
390.8972943481022
 31
0.0000000000000000
  0
LINE
  5
314
100
AcDbEntity
  8
MAIN0
  6
HIDDEN
 62
3
100
AcDbLine
 10
281.9429126322020
 20
350.1134439314530
 30
0.0000000000000000
 11
294.8327696152932
 21
377.7558314360707
 31
0.0000000000000000
  0
LINE
  5
315
100
AcDbEntity
  8
MAIN0
  6
PHANTOM
 62
3
100
AcDbLine
 10
316.4844098418320
 20
379.2449739359250
 30
0.0000000000000000
 11
269.7448364815436
 21
401.0399949327249
 31
0.0000000000000000
  0
LINE
  5
316
100
AcDbEntity
  8
MAIN0
  6
PHANTOM
 62
3
100
AcDbLine
 10
300.8475341574261
 20
345.7115858155690
 30
0.0000000000000000
 11
254.1079607971377
 21
367.5066068123689
 31
0.0000000000000000
  0
CIRCLE
  5
317
100
AcDbEntity
  8
MAIN0
  6
CONTINUOUS
 62
3
100
AcDbCircle
 10
88.16142252074829
 20
341.5037186323179
 30
0.0000000000000000
 40
5.000000000000000
  0
CIRCLE
  5
318
100
AcDbEntity
  8
MAIN0
  6
CONTINUOUS
 62
3
100
AcDbCircle
 10
58.16142252074837
 20
341.5037186323176
 30
0.0000000000000000
 40
5.000000000000000
  0
LINE
  5
319
100
AcDbEntity
  8
MAIN0
  6
CONTINUOUS
 62
3
100
AcDbLine
 10
93.16142252187177
 20
402.5037186323180
 30
0.0000000000000000
 11
93.16142252187245
 21
330.3316121232302
 31
0.0000000000000000
  0
MTEXT
  5
31A
100
AcDbEntity
  8
MAIN0
  6
CONTINUOUS
 62
3
100
AcDbMText
 10
121.8393372618690
 20
378.0074646027267
 30
0.0000000000000000
 40
3.099999904632568
 41
0.0000000000000000
 71
     1
 72
     1
  1
{\H0.92x;{(SQ61)}}
 11
1.000000000000000
 21
0.0000000000000000
 31
0.0000000000000000
  7
STANDARD
  0
MTEXT
  5
31B
100
AcDbEntity
  8
MAIN0
  6
CONTINUOUS
 62
3
100
AcDbMText
 10
195.9292126920872
 20
372.3463171466659
 30
0.0000000000000000
 40
3.099999904632568
 41
0.0000000000000000
 71
     1
 72
     1
  1
{\H0.92x;{(SQ60)}}
 11
1.000000000000000
 21
0.0000000000000000
 31
0.0000000000000000
  7
STANDARD
  0
MTEXT
  5
31C
100
AcDbEntity
  8
MAIN0
  6
CONTINUOUS
 62
3
100
AcDbMText
 10
119.6675109787219
 20
373.4749607044050
 30
0.0000000000000000
 40
3.099999904632568
 41
0.0000000000000000
 71
     1
 72
     1
  1
{\H0.93x;{チャック閉確認}}
 11
1.000000000000000
 21
0.0000000000000000
 31
0.0000000000000000
  7
KNJYOKO
  0
MTEXT
  5
31D
100
AcDbEntity
  8
MAIN0
  6
CONTINUOUS
 62
3
100
AcDbMText
 10
193.0022117729834
 20
367.6253442101124
 30
0.0000000000000000
 40
3.099999904632568
 41
0.0000000000000000
 71
     1
 72
     1
  1
{\H0.93x;{チャック開確認}}
 11
1.000000000000000
 21
0.0000000000000000
 31
0.0000000000000000
  7
KNJYOKO
  0
DIMENSION
  5
326
100
AcDbEntity
  8
MAIN0
  6
CONTINUOUS
 62
3
100
AcDbDimension
  2
*D21
 10
36.68411984049055
 20
402.5037186323175
 30
0.0000000000000000
 11
36.18411984049055
 21
381.5037186323175
 31
0.0000000000000000
 70
32
  3
MAIN001
100
AcDbAlignedDimension
 13
61.02284714804344
 23
360.5037186323176
 33
0.0000000000000000
 14
53.16142252074826
 24
402.5037186323175
 34
0.0000000000000000
 50
90.00000000000000
100
AcDbRotatedDimension
1001
ACAD
1000
DSTYLE
1002
{
1070
   173
1070
     1
1070
     6
1000
_OPEN
1070
     7
1000
_OPEN
1070
    41
1040
2.000000
1002
}
  0
DIMENSION
  5
331
100
AcDbEntity
  8
MAIN0
  6
CONTINUOUS
 62
3
100
AcDbDimension
  2
*D22
 10
44.68411984049055
 20
364.5037186323176
 30
0.0000000000000000
 11
44.18411984049055
 21
362.5037186323176
 31
0.0000000000000000
 70
32
  3
MAIN001
100
AcDbAlignedDimension
 13
61.02284714804344
 23
360.5037186323176
 33
0.0000000000000000
 14
61.82167655747495
 24
364.5037186323176
 34
0.0000000000000000
 50
90.00000000000000
100
AcDbRotatedDimension
1001
ACAD
1000
DSTYLE
1002
{
1070
   173
1070
     1
1070
     6
1000
_OPEN
1070
     7
1000
_OPEN
1070
    41
1040
2.000000
1070
   287
1070
     0
1002
}
  0
DIMENSION
  5
33A
100
AcDbEntity
  8
MAIN0
  6
CONTINUOUS
 62
3
100
AcDbDimension
  2
*D23
 10
44.68411984049055
 20
360.5037186323176
 30
0.0000000000000000
 11
44.18411984049055
 21
340.0037186323188
 31
0.0000000000000000
 70
32
  3
MAIN001
100
AcDbAlignedDimension
 13
61.82167655747551
 23
319.5037186323200
 33
0.0000000000000000
 14
61.02284714804344
 24
360.5037186323176
 34
0.0000000000000000
 50
90.00000000000000
100
AcDbRotatedDimension
1001
ACAD
1000
DSTYLE
1002
{
1070
   173
1070
     1
1070
     6
1000
_OPEN
1070
     7
1000
_OPEN
1070
    41
1040
2.000000
1002
}
  0
DIMENSION
  5
343
100
AcDbEntity
  8
MAIN0
  6
CONTINUOUS
 62
3
100
AcDbDimension
  2
*D24
 10
314.9415357877638
 20
339.1394449212933
 30
0.0000000000000000
 11
324.8425293068926
 21
361.5552948345616
 31
0.0000000000000000
 70
32
  3
MAIN001
100
AcDbAlignedDimension
 13
312.0452966942706
 23
394.5555014195994
 33
0.0000000000000000
 14
287.5386258954741
 24
351.9176316597994
 34
0.0000000000000000
 50
65.00000000000001
100
AcDbRotatedDimension
1001
ACAD
1000
DSTYLE
1002
{
1070
   173
1070
     1
1070
     6
1000
_OPEN
1070
     7
1000
_OPEN
1070
    41
1040
2.000000
1002
}
  0
DIMENSION
  5
34C
100
AcDbEntity
  8
MAIN0
  6
CONTINUOUS
 62
3
100
AcDbDimension
  2
*D25
 10
269.9314311265414
 20
405.3664960966415
 30
0.0000000000000000
 11
260.8146028673389
 21
386.9984955932604
 31
0.0000000000000000
 70
32
  3
MAIN001
100
AcDbAlignedDimension
 13
268.0538758430621
 23
361.0035198264752
 33
0.0000000000000000
 14
287.1465545705419
 24
397.3389521986206
 34
0.0000000000000000
 50
65.00000000000054
100
AcDbRotatedDimension
1001
ACAD
1000
DSTYLE
1002
{
1070
   173
1070
     1
1070
     6
1000
_OPEN
1070
     7
1000
_OPEN
1070
    41
1040
2.000000
1002
}
  0
DIMENSION
  5
357
100
AcDbEntity
  8
MAIN0
  6
CONTINUOUS
 62
3
100
AcDbDimension
  2
*D26
 10
252.6040823951730
 20
368.2078768281385
 30
0.0000000000000000
 11
251.3056919781733
 21
366.6065703849357
 31
0.0000000000000000
 70
32
  3
MAIN001
100
AcDbAlignedDimension
 13
268.1287327922103
 23
356.5551017819714
 33
0.0000000000000000
 14
268.0538758430621
 24
361.0035198264752
 34
0.0000000000000000
 50
65.00000000000074
100
AcDbRotatedDimension
1001
ACAD
1000
DSTYLE
1002
{
1070
   173
1070
     1
1070
     6
1000
_OPEN
1070
     7
1000
_OPEN
1070
    41
1040
2.000000
1070
   287
1070
     0
1002
}
  0
DIMENSION
  5
360
100
AcDbEntity
  8
MAIN0
  6
CONTINUOUS
 62
3
100
AcDbDimension
  2
*D27
 10
314.5615988673457
 20
360.2807928771877
 30
0.0000000000000000
 11
320.4477188999377
 21
374.0867188136079
 31
0.0000000000000000
 70
32
  3
MAIN001
100
AcDbAlignedDimension
 13
312.0452966942706
 23
394.5555014195994
 33
0.0000000000000000
 14
305.6206192797448
 24
364.4500401302934
 34
0.0000000000000000
 50
65.00000000000061
100
AcDbRotatedDimension
1001
ACAD
1000
DSTYLE
1002
{
1070
   173
1070
     1
1070
     6
1000
_OPEN
1070
     7
1000
_OPEN
1070
    41
1040
2.000000
1002
}
  0
INSERT
  5
378
100
AcDbEntity
  8
MAIN0
  6
CONTINUOUS
 62
3
100
AcDbBlockReference
  2
*X0
 10
0.0000000000000000
 20
0.0000000000000000
 30
0.0000000000000000
 50
0.0000000000000000
  0
INSERT
  5
390
100
AcDbEntity
  8
MAIN0
  6
CONTINUOUS
 62
3
100
AcDbBlockReference
  2
*X1
 10
0.0000000000000000
 20
0.0000000000000000
 30
0.0000000000000000
 50
0.0000000000000000
  0
INSERT
  5
399
100
AcDbEntity
  8
MAIN0
  6
CONTINUOUS
 62
3
100
AcDbBlockReference
  2
M5
 10
0.0000000000000000
 20
0.0000000000000000
 30
0.0000000000000000
 50
0.0000000000000000
  0
LINE
  5
39A
100
AcDbEntity
  8
MAIN0
  6
HIDDEN
 62
3
100
AcDbLine
 10
66.86223316679914
 20
230.7835608113699
 30
0.0000000000000000
 11
75.84608983306680
 21
231.0643063321907
 31
0.0000000000000000
  0
LINE
  5
39B
100
AcDbEntity
  8
MAIN0
  6
HIDDEN
 62
3
100
AcDbLine
 10
75.84608983306686
 20
231.0643063321907
 30
0.0000000000000000
 11
75.84608983306686
 21
243.6338063321907
 31
0.0000000000000000
  0
LINE
  5
39C
100
AcDbEntity
  8
MAIN0
  6
HIDDEN
 62
3
100
AcDbLine
 10
75.84608983306686
 20
243.6338063321907
 30
0.0000000000000000
 11
66.86223316679846
 21
243.9145518530116
 31
0.0000000000000000
  0
LINE
  5
39D
100
AcDbEntity
  8
MAIN0
  6
HIDDEN
 62
3
100
AcDbLine
 10
66.76083595997312
 20
231.6363921486565
 30
0.0000000000000000
 11
75.84608983306674
 21
231.9203063321907
 31
0.0000000000000000
  0
LINE
  5
39E
100
AcDbEntity
  8
MAIN0
  6
HIDDEN
 62
3
100
AcDbLine
 10
66.76083595997255
 20
243.0617205157249
 30
0.0000000000000000
 11
75.84608983306688
 21
242.7778063321907
 31
0.0000000000000000
  0
LINE
  5
39F
100
AcDbEntity
  8
MAIN0
  6
HIDDEN
 62
3
100
AcDbLine
 10
75.84608983306686
 20
231.9490563321907
 30
0.0000000000000000
 11
126.9460898330668
 21
231.9490563321907
 31
0.0000000000000000
  0
LINE
  5
3A0
100
AcDbEntity
  8
MAIN0
  6
HIDDEN
 62
3
100
AcDbLine
 10
126.9460898330668
 20
231.9490563321907
 30
0.0000000000000000
 11
126.9460898330668
 21
242.7490563321907
 31
0.0000000000000000
  0
LINE
  5
3A1
100
AcDbEntity
  8
MAIN0
  6
HIDDEN
 62
3
100
AcDbLine
 10
126.9460898330664
 20
242.7490563321907
 30
0.0000000000000000
 11
75.84608983306686
 21
242.7490563321907
 31
0.0000000000000000
  0
LINE
  5
3A2
100
AcDbEntity
  8
MAIN0
  6
CENTER
 62
3
100
AcDbLine
 10
163.9460898330634
 20
326.3991518252583
 30
0.0000000000000000
 11
163.9460898330640
 21
313.3099728923031
 31
0.0000000000000000
  0
LINE
  5
3A3
100
AcDbEntity
  8
MAIN0
  6
CENTER
 62
3
100
AcDbLine
 10
147.9460898330633
 20
326.5760332827189
 30
0.0000000000000000
 11
147.9460898330639
 21
312.2929087290710
 31
0.0000000000000000
  0
MTEXT
  5
3A4
100
AcDbEntity
  8
MAIN0
  6
CONTINUOUS
 62
3
100
AcDbMText
 10
72.61120960702317
 20
239.6319063282230
 30
0.0000000000000000
 40
5.000000000000000
 41
0.0000000000000000
 71
     1
 72
     1
  1
{\H0.84x;{Ａ}}
 11
-1.836970198721030e-016
 21
-1.000000000000000
 31
0.0000000000000000
  7
KNJYOKO
  0
MTEXT
  5
3A5
100
AcDbEntity
  8
MAIN0
  6
CONTINUOUS
 62
3
100
AcDbMText
 10
152.0689892022008
 20
153.3668035201652
 30
0.0000000000000000
 40
5.000000000000000
 41
0.0000000000000000
 71
     1
 72
     1
  1
{\H0.84x;{Ｄ}}
 11
1.000000000000000
 21
0.0000000000000000
 31
0.0000000000000000
  7
KNJYOKO
  0
MTEXT
  5
3A6
100
AcDbEntity
  8
MAIN0
  6
CONTINUOUS
 62
3
100
AcDbMText
 10
156.0689892022008
 20
153.3668035201652
 30
0.0000000000000000
 40
5.000000000000000
 41
0.0000000000000000
 71
     1
 72
     1
  1
{\H0.84x;{ｒ}}
 11
1.000000000000000
 21
0.0000000000000000
 31
0.0000000000000000
  7
KNJYOKO
  0
LINE
  5
3A7
100
AcDbEntity
  8
MAIN0
  6
CENTER
 62
3
100
AcDbLine
 10
121.7353058675944
 20
143.3556998850991
 30
0.0000000000000000
 11
127.4474567773829
 21
159.0497055262852
 31
0.0000000000000000
  0
LINE
  5
3A8
100
AcDbEntity
  8
MAIN0
  6
CENTER
 62
12
100
AcDbLine
 10
51.35803208330060
 20
237.3490563321907
 30
0.0000000000000000
 11
260.6692499024538
 21
237.3490563321907
 31
0.0000000000000000
  0
LINE
  5
3A9
100
AcDbEntity
  8
MAIN0
  6
HIDDEN
 62
3
100
AcDbLine
 10
245.0299464993350
 20
230.7835608113698
 30
0.0000000000000000
 11
236.0460898330674
 21
231.0643063321899
 31
0.0000000000000000
  0
LINE
  5
3AA
100
AcDbEntity
  8
MAIN0
  6
HIDDEN
 62
3
100
AcDbLine
 10
236.0460898330675
 20
231.0643063321899
 30
0.0000000000000000
 11
236.0460898330664
 21
243.6338063321899
 31
0.0000000000000000
  0
LINE
  5
3AB
100
AcDbEntity
  8
MAIN0
  6
HIDDEN
 62
3
100
AcDbLine
 10
236.0460898330662
 20
243.6338063321899
 30
0.0000000000000000
 11
245.0299464993349
 21
243.9145518530116
 31
0.0000000000000000
  0
LINE
  5
3AC
100
AcDbEntity
  8
MAIN0
  6
HIDDEN
 62
3
100
AcDbLine
 10
245.1313437061609
 20
231.6363921486565
 30
0.0000000000000000
 11
236.0460898330673
 21
231.9203063321899
 31
0.0000000000000000
  0
LINE
  5
3AD
100
AcDbEntity
  8
MAIN0
  6
HIDDEN
 62
3
100
AcDbLine
 10
245.1313437061609
 20
243.0617205157249
 30
0.0000000000000000
 11
236.0460898330664
 21
242.7778063321899
 31
0.0000000000000000
  0
LINE
  5
3AE
100
AcDbEntity
  8
MAIN0
  6
HIDDEN
 62
3
100
AcDbLine
 10
236.0460898330674
 20
231.9490563321931
 30
0.0000000000000000
 11
184.9460898330673
 21
231.9490563321888
 31
0.0000000000000000
  0
LINE
  5
3AF
100
AcDbEntity
  8
MAIN0
  6
HIDDEN
 62
3
100
AcDbLine
 10
184.9460898330673
 20
231.9490563321895
 30
0.0000000000000000
 11
184.9460898330664
 21
242.7490563321895
 31
0.0000000000000000
  0
LINE
  5
3B0
100
AcDbEntity
  8
MAIN0
  6
HIDDEN
 62
3
100
AcDbLine
 10
184.9460898330664
 20
242.7490563321888
 30
0.0000000000000000
 11
236.0460898330665
 21
242.7490563321931
 31
0.0000000000000000
  0
LINE
  5
3B1
100
AcDbEntity
  8
MAIN0
  6
HIDDEN
 62
3
100
AcDbLine
 10
184.9460898330673
 20
231.9490563321895
 30
0.0000000000000000
 11
183.3693985534345
 21
234.6799657363638
 31
0.0000000000000000
  0
LINE
  5
3B2
100
AcDbEntity
  8
MAIN0
  6
HIDDEN
 62
3
100
AcDbLine
 10
183.3693985534360
 20
240.0181469280184
 30
0.0000000000000000
 11
184.9460898330664
 21
242.7490563321895
 31
0.0000000000000000
  0
MTEXT
  5
3B3
100
AcDbEntity
  8
MAIN0
  6
CONTINUOUS
 62
3
100
AcDbMText
 10
238.3211470416752
 20
235.1177276752378
 30
0.0000000000000000
 40
5.000000000000000
 41
0.0000000000000000
 71
     1
 72
     1
  1
{\H0.84x;{Ｂ}}
 11
6.123233995736766e-017
 21
1.000000000000000
 31
0.0000000000000000
  7
KNJYOKO
  0
MTEXT
  5
3B4
100
AcDbEntity
  8
MAIN0
  6
CONTINUOUS
 62
3
100
AcDbMText
 10
51.44059581688822
 20
242.6880819821655
 30
0.0000000000000000
 40
4.000000000000000
 41
0.0000000000000000
 71
     1
 72
     1
  1
{\H0.81x;{A}}
 11
1.000000000000000
 21
0.0000000000000000
 31
0.0000000000000000
  7
STANDARD
  0
MTEXT
  5
3B5
100
AcDbEntity
  8
MAIN0
  6
CONTINUOUS
 62
3
100
AcDbMText
 10
148.2062348943506
 20
139.0801164897184
 30
0.0000000000000000
 40
4.000000000000000
 41
0.0000000000000000
 71
     1
 72
     1
  1
{\H0.88x;{Dr}}
 11
1.000000000000000
 21
0.0000000000000000
 31
0.0000000000000000
  7
STANDARD
  0
MTEXT
  5
3B6
100
AcDbEntity
  8
MAIN0
  6
CONTINUOUS
 62
3
100
AcDbMText
 10
255.6620312590555
 20
243.1120014610133
 30
0.0000000000000000
 40
4.000000000000000
 41
0.0000000000000000
 71
     1
 72
     1
  1
{\H0.81x;{B}}
 11
1.000000000000000
 21
0.0000000000000000
 31
0.0000000000000000
  7
STANDARD
  0
LINE
  5
3B7
100
AcDbEntity
  8
MAIN0
  6
CENTER
 62
3
100
AcDbLine
 10
136.2194230480797
 20
319.8490563321906
 30
0.0000000000000000
 11
175.7310346980313
 21
319.8490563321906
 31
0.0000000000000000
  0
LINE
  5
3B8
100
AcDbEntity
  8
MAIN0
  6
CONTINUOUS
 62
3
100
AcDbLine
 10
87.10924468458032
 20
297.3470667158342
 30
0.0000000000000000
 11
95.94807944940760
 21
306.1859014806706
 31
0.0000000000000000
  0
LINE
  5
3B9
100
AcDbEntity
  8
MAIN0
  6
CONTINUOUS
 62
3
100
AcDbLine
 10
130.6611336560575
 20
149.6054326828362
 30
0.0000000000000000
 11
118.9149758962314
 21
153.8806844744009
 31
0.0000000000000000
  0
LINE
  5
3BA
100
AcDbEntity
  8
MAIN0
  6
CONTINUOUS
 62
3
100
AcDbLine
 10
215.9441002168793
 20
306.1859014805092
 30
0.0000000000000000
 11
224.7829349817158
 21
297.3470667156821
 31
0.0000000000000000
  0
ARC
  5
3BB
100
AcDbEntity
  8
MAIN0
  6
CENTER
 62
3
100
AcDbCircle
 10
155.9460898330668
 20
237.3490563321907
 30
0.0000000000000000
 40
31.50000000000000
100
AcDbArc
 50
323.5580371514689
 51
349.7128422633253
  0
ARC
  5
3BC
100
AcDbEntity
  8
MAIN0
  6
CENTER
 62
3
100
AcDbCircle
 10
155.9460898330668
 20
237.3490563321907
 30
0.0000000000000000
 40
31.50000000000000
100
AcDbArc
 50
233.3979261393764
 51
262.9024233382525
  0
ARC
  5
3BD
100
AcDbEntity
  8
MAIN0
  6
CENTER
 62
3
100
AcDbCircle
 10
155.9460898330668
 20
237.3490563321907
 30
0.0000000000000000
 40
31.50000000000000
100
AcDbArc
 50
52.83055480326748
 51
81.83476640732306
  0
ARC
  5
3BE
100
AcDbEntity
  8
MAIN0
  6
CENTER
 62
3
100
AcDbCircle
 10
155.9460898330668
 20
237.3490563321907
 30
0.0000000000000000
 40
31.50000000000000
100
AcDbArc
 50
141.8765199234130
 51
171.2831241414582
  0
CIRCLE
  5
3BF
100
AcDbEntity
  8
MAIN0
  6
HIDDEN
 62
3
100
AcDbCircle
 10
184.9460898330668
 20
237.3490563321907
 30
0.0000000000000000
 40
3.100000000000000
  0
CIRCLE
  5
3C0
100
AcDbEntity
  8
MAIN0
  6
HIDDEN
 62
3
100
AcDbCircle
 10
184.9460898330668
 20
237.3490563321907
 30
0.0000000000000000
 40
5.000000000000000
  0
CIRCLE
  5
3C1
100
AcDbEntity
  8
MAIN0
  6
HIDDEN
 62
3
100
AcDbCircle
 10
155.9460898330669
 20
208.3490563321907
 30
0.0000000000000000
 40
3.100000000000000
  0
CIRCLE
  5
3C2
100
AcDbEntity
  8
MAIN0
  6
HIDDEN
 62
3
100
AcDbCircle
 10
155.9460898330669
 20
208.3490563321907
 30
0.0000000000000000
 40
5.000000000000000
  0
LINE
  5
3C3
100
AcDbEntity
  8
MAIN0
  6
HIDDEN
 62
3
100
AcDbLine
 10
158.6151804288932
 20
209.9257476118240
 30
0.0000000000000000
 11
161.3460898330694
 21
208.3490563321907
 31
0.0000000000000000
  0
LINE
  5
3C4
100
AcDbEntity
  8
MAIN0
  6
HIDDEN
 62
3
100
AcDbLine
 10
150.5460898330693
 20
208.3490563321898
 30
0.0000000000000000
 11
153.2769992372379
 21
209.9257476118193
 31
0.0000000000000000
  0
CIRCLE
  5
3C5
100
AcDbEntity
  8
MAIN0
  6
HIDDEN
 62
3
100
AcDbCircle
 10
126.9460898330668
 20
237.3490563321907
 30
0.0000000000000000
 40
3.100000000000000
  0
CIRCLE
  5
3C6
100
AcDbEntity
  8
MAIN0
  6
HIDDEN
 62
3
100
AcDbCircle
 10
126.9460898330668
 20
237.3490563321907
 30
0.0000000000000000
 40
5.000000000000000
  0
LINE
  5
3C7
100
AcDbEntity
  8
MAIN0
  6
HIDDEN
 62
3
100
AcDbLine
 10
128.5227811126979
 20
234.6799657363630
 30
0.0000000000000000
 11
126.9460898330674
 21
231.9490563321918
 31
0.0000000000000000
  0
LINE
  5
3C8
100
AcDbEntity
  8
MAIN0
  6
HIDDEN
 62
3
100
AcDbLine
 10
126.9460898330663
 20
242.7490563321918
 30
0.0000000000000000
 11
128.5227811126991
 21
240.0181469280175
 31
0.0000000000000000
  0
ARC
  5
3C9
100
AcDbEntity
  8
MAIN0
  6
CENTER
 62
3
100
AcDbCircle
 10
155.9460898330668
 20
237.3490563321907
 30
0.0000000000000000
 40
29.00000000000000
100
AcDbArc
 50
346.6277526519326
 51
370.7857646382471
  0
ARC
  5
3CA
100
AcDbEntity
  8
MAIN0
  6
CENTER
 62
3
100
AcDbCircle
 10
155.9460898330668
 20
237.3490563321907
 30
0.0000000000000000
 40
29.00000000000000
100
AcDbArc
 50
256.1831449408456
 51
285.5779229292725
  0
ARC
  5
3CB
100
AcDbEntity
  8
MAIN0
  6
CENTER
 62
3
100
AcDbCircle
 10
155.9460898330668
 20
237.3490563321907
 30
0.0000000000000000
 40
29.00000000000000
100
AcDbArc
 50
166.6824044398644
 51
191.6828824953155
  0
LINE
  5
3CC
100
AcDbEntity
  8
MAIN0
  6
CONTINUOUS
 62
3
100
AcDbLine
 10
109.4918112357191
 20
313.8490563321907
 30
0.0000000000000000
 11
202.4003684304146
 21
313.8490563321907
 31
0.0000000000000000
  0
LINE
  5
3CD
100
AcDbEntity
  8
MAIN0
  6
CONTINUOUS
 62
3
100
AcDbLine
 10
207.2811808868178
 20
310.6631642958228
 30
0.0000000000000000
 11
208.1989031849579
 21
311.9738075666533
 31
0.0000000000000000
  0
LINE
  5
3CE
100
AcDbEntity
  8
MAIN0
  6
CENTER
 62
3
100
AcDbLine
 10
186.7721765450724
 20
309.9557886121178
 30
0.0000000000000000
 11
208.2968491207485
 21
356.1155979121530
 31
0.0000000000000000
  0
LINE
  5
3CF
100
AcDbEntity
  8
MAIN0
  6
PHANTOM
 62
3
100
AcDbLine
 10
206.3710796911054
 20
328.4510578567302
 30
0.0000000000000000
 11
205.9484614293631
 21
327.5447500696943
 31
0.0000000000000000
  0
LINE
  5
3D0
100
AcDbEntity
  8
MAIN0
  6
CONTINUOUS
 62
3
100
AcDbLine
 10
188.2936816610899
 20
336.8806586880834
 30
0.0000000000000000
 11
187.8710633993490
 21
335.9743509010468
 31
0.0000000000000000
  0
LINE
  5
3D1
100
AcDbEntity
  8
MAIN0
  6
PHANTOM
 62
3
100
AcDbLine
 10
188.2449239503871
 20
336.9034230915758
 30
0.0000000000000000
 11
206.3710796911054
 21
328.4510578567302
 31
0.0000000000000000
  0
LINE
  5
3D2
100
AcDbEntity
  8
MAIN0
  6
PHANTOM
 62
3
100
AcDbLine
 10
191.0055234273856
 20
339.1469437548616
 30
0.0000000000000000
 11
189.6531449898748
 21
336.2467588364846
 31
0.0000000000000000
  0
ARC
  5
3D3
100
AcDbEntity
  8
MAIN0
  6
PHANTOM
 62
3
100
AcDbCircle
 10
190.2554148574517
 20
327.4819740071491
 30
0.0000000000000000
 40
11.68906249798220
100
AcDbArc
 50
43.67930340697411
 51
86.32069659283603
  0
LINE
  5
3D4
100
AcDbEntity
  8
MAIN0
  6
PHANTOM
 62
3
100
AcDbLine
 10
198.7091396171911
 20
335.5546885300529
 30
0.0000000000000000
 11
197.3567611796801
 21
332.6545036116753
 31
0.0000000000000000
  0
LINE
  5
3D5
100
AcDbEntity
  8
MAIN0
  6
PHANTOM
 62
3
100
AcDbLine
 10
195.1954261317570
 20
338.0758623722223
 30
0.0000000000000000
 11
202.8990423215586
 21
334.4836071474073
 31
0.0000000000000000
  0
LINE
  5
3D6
100
AcDbEntity
  8
MAIN0
  6
PHANTOM
 62
3
100
AcDbLine
 10
206.4127558069964
 20
331.9624333052436
 30
0.0000000000000000
 11
205.0603773694853
 21
329.0622483868660
 31
0.0000000000000000
  0
ARC
  5
3D7
100
AcDbEntity
  8
MAIN0
  6
PHANTOM
 62
3
100
AcDbCircle
 10
197.9590310472562
 20
323.8897187823405
 30
0.0000000000000000
 40
11.68906249798220
100
AcDbArc
 50
43.67930340696933
 51
86.32069659283125
  0
LINE
  5
3D8
100
AcDbEntity
  8
MAIN0
  6
PHANTOM
 62
3
100
AcDbLine
 10
211.4920469696213
 20
348.7705123125612
 30
0.0000000000000000
 11
204.4294048307150
 21
333.6246273686634
 31
0.0000000000000000
  0
LINE
  5
3D9
100
AcDbEntity
  8
MAIN0
  6
PHANTOM
 62
3
100
AcDbLine
 10
211.2301290916746
 20
349.4901257679740
 30
0.0000000000000000
 11
203.9678426511209
 21
333.9161022375548
 31
0.0000000000000000
  0
LINE
  5
3DA
100
AcDbEntity
  8
MAIN0
  6
PHANTOM
 62
3
100
AcDbLine
 10
200.6163535252089
 20
353.8419314535109
 30
0.0000000000000000
 11
211.4920469696399
 21
348.7705123126036
 31
0.0000000000000000
  0
LINE
  5
3DB
100
AcDbEntity
  8
MAIN0
  6
PHANTOM
 62
3
100
AcDbLine
 10
201.3359669806297
 20
354.1038493314708
 30
0.0000000000000000
 11
194.0736805400503
 21
338.5298258009968
 31
0.0000000000000000
  0
LINE
  5
3DC
100
AcDbEntity
  8
MAIN0
  6
PHANTOM
 62
3
100
AcDbLine
 10
200.6163535252095
 20
353.8419314535107
 30
0.0000000000000000
 11
193.5537113862847
 21
338.6960465095731
 31
0.0000000000000000
  0
LINE
  5
3DD
100
AcDbEntity
  8
MAIN0
  6
PHANTOM
 62
3
100
AcDbLine
 10
200.6163535252153
 20
353.8419314535229
 30
0.0000000000000000
 11
201.9452795739734
 21
354.3256209788109
 31
0.0000000000000000
  0
LINE
  5
3DE
100
AcDbEntity
  8
MAIN0
  6
PHANTOM
 62
3
100
AcDbLine
 10
202.7905160974376
 20
356.1382365528923
 30
0.0000000000000000
 11
201.9452795739520
 21
354.3256209788210
 31
0.0000000000000000
  0
LINE
  5
3DF
100
AcDbEntity
  8
MAIN0
  6
PHANTOM
 62
3
100
AcDbLine
 10
201.9452795739732
 20
354.3256209788110
 30
0.0000000000000000
 11
211.0083574443044
 21
350.0994383614013
 31
0.0000000000000000
  0
LINE
  5
3E0
100
AcDbEntity
  8
MAIN0
  6
PHANTOM
 62
3
100
AcDbLine
 10
202.7905160974578
 20
356.1382365528829
 30
0.0000000000000000
 11
211.8535939677889
 21
351.9120539354731
 31
0.0000000000000000
  0
LINE
  5
3E1
100
AcDbEntity
  8
MAIN0
  6
PHANTOM
 62
3
100
AcDbLine
 10
211.8535939677664
 20
351.9120539354837
 30
0.0000000000000000
 11
211.0083574442806
 21
350.0994383614123
 31
0.0000000000000000
  0
LINE
  5
3E2
100
AcDbEntity
  8
MAIN0
  6
PHANTOM
 62
3
100
AcDbLine
 10
211.0083574443043
 20
350.0994383614013
 30
0.0000000000000000
 11
211.4920469696213
 21
348.7705123125612
 31
0.0000000000000000
  0
LINE
  5
3E3
100
AcDbEntity
  8
MAIN0
  6
PHANTOM
 62
3
100
AcDbLine
 10
186.3084038895093
 20
320.7922328584821
 30
0.0000000000000000
 11
195.3714817598404
 21
316.5660502410724
 31
0.0000000000000000
  0
LINE
  5
3E4
100
AcDbEntity
  8
MAIN0
  6
PHANTOM
 62
3
100
AcDbLine
 10
186.3083946943736
 20
320.7922371462561
 30
0.0000000000000000
 11
185.8247051690824
 21
322.1211631950367
 31
0.0000000000000000
  0
LINE
  5
3E5
100
AcDbEntity
  8
MAIN0
  6
CENTER
 62
3
100
AcDbLine
 10
214.6357232488389
 20
296.0386897476412
 30
0.0000000000000000
 11
226.5090980069228
 21
307.9120645057162
 31
0.0000000000000000
  0
LINE
  5
3E6
100
AcDbEntity
  8
MAIN0
  6
CENTER
 62
3
100
AcDbLine
 10
84.76648260359409
 20
308.5286635616419
 30
0.0000000000000000
 11
96.84712317315706
 21
296.4480229918498
 31
0.0000000000000000
  0
LINE
  5
3E7
100
AcDbEntity
  8
MAIN0
  6
CENTER
 62
3
100
AcDbLine
 10
216.5070398783891
 20
253.5763139900712
 30
0.0000000000000000
 11
240.8226680296074
 21
260.0916669166521
 31
0.0000000000000000
  0
LINE
  5
3E8
100
AcDbEntity
  8
MAIN0
  6
HIDDEN
 62
3
100
AcDbLine
 10
162.4991348274095
 20
148.2636165133606
 30
0.0000000000000000
 11
162.2308398330711
 21
156.8490563321909
 31
0.0000000000000000
  0
LINE
  5
3E9
100
AcDbEntity
  8
MAIN0
  6
HIDDEN
 62
3
100
AcDbLine
 10
162.2308398330711
 20
156.8490563321908
 30
0.0000000000000000
 11
149.6613398330710
 21
156.8490563321908
 31
0.0000000000000000
  0
LINE
  5
3EA
100
AcDbEntity
  8
MAIN0
  6
HIDDEN
 62
3
100
AcDbLine
 10
149.6613398330711
 20
156.8490563321908
 30
0.0000000000000000
 11
149.3930448387326
 21
148.2636165133599
 31
0.0000000000000000
  0
LINE
  5
3EB
100
AcDbEntity
  8
MAIN0
  6
HIDDEN
 62
3
100
AcDbLine
 10
161.6462969956453
 20
148.1624271298167
 30
0.0000000000000000
 11
161.3748398330711
 21
156.8490563321909
 31
0.0000000000000000
  0
LINE
  5
3EC
100
AcDbEntity
  8
MAIN0
  6
HIDDEN
 62
3
100
AcDbLine
 10
150.2458826704969
 20
148.1624271298161
 30
0.0000000000000000
 11
150.5173398330711
 21
156.8490563321909
 31
0.0000000000000000
  0
LINE
  5
3ED
100
AcDbEntity
  8
MAIN0
  6
HIDDEN
 62
3
100
AcDbLine
 10
161.3460898330693
 20
156.8490563321908
 30
0.0000000000000000
 11
161.3460898330693
 21
208.3490563321907
 31
0.0000000000000000
  0
LINE
  5
3EE
100
AcDbEntity
  8
MAIN0
  6
HIDDEN
 62
3
100
AcDbLine
 10
161.3460898330690
 20
208.3490563321907
 30
0.0000000000000000
 11
150.5460898330690
 21
208.3490563321907
 31
0.0000000000000000
  0
LINE
  5
3EF
100
AcDbEntity
  8
MAIN0
  6
HIDDEN
 62
3
100
AcDbLine
 10
150.5460898330694
 20
208.3490563321907
 30
0.0000000000000000
 11
150.5460898330694
 21
156.8490563321908
 31
0.0000000000000000
  0
CIRCLE
  5
3F0
100
AcDbEntity
  8
MAIN0
  6
CONTINUOUS
 62
3
100
AcDbCircle
 10
147.9460898330636
 20
319.8490563321906
 30
0.0000000000000000
 40
5.000000000000000
  0
LINE
  5
3F1
100
AcDbEntity
  8
MAIN0
  6
CONTINUOUS
 62
3
100
AcDbLine
 10
147.9460898330636
 20
322.7358076781387
 30
0.0000000000000000
 11
145.4460898330636
 21
321.2924320051646
 31
0.0000000000000000
  0
LINE
  5
3F2
100
AcDbEntity
  8
MAIN0
  6
CONTINUOUS
 62
3
100
AcDbLine
 10
145.4460898330636
 20
321.2924320051646
 30
0.0000000000000000
 11
145.4460898330636
 21
318.4056806592165
 31
0.0000000000000000
  0
LINE
  5
3F3
100
AcDbEntity
  8
MAIN0
  6
CONTINUOUS
 62
3
100
AcDbLine
 10
145.4460898330636
 20
318.4056806592166
 30
0.0000000000000000
 11
147.9460898330636
 21
316.9623049862425
 31
0.0000000000000000
  0
LINE
  5
3F4
100
AcDbEntity
  8
MAIN0
  6
CONTINUOUS
 62
3
100
AcDbLine
 10
147.9460898330636
 20
316.9623049862424
 30
0.0000000000000000
 11
150.4460898330636
 21
318.4056806592165
 31
0.0000000000000000
  0
LINE
  5
3F5
100
AcDbEntity
  8
MAIN0
  6
CONTINUOUS
 62
3
100
AcDbLine
 10
150.4460898330636
 20
318.4056806592165
 30
0.0000000000000000
 11
150.4460898330636
 21
321.2924320051646
 31
0.0000000000000000
  0
LINE
  5
3F6
100
AcDbEntity
  8
MAIN0
  6
CONTINUOUS
 62
3
100
AcDbLine
 10
150.4460898330636
 20
321.2924320051646
 30
0.0000000000000000
 11
147.9460898330636
 21
322.7358076781387
 31
0.0000000000000000
  0
LINE
  5
3F7
100
AcDbEntity
  8
MAIN0
  6
CENTER
 62
3
100
AcDbLine
 10
171.7114650094401
 20
275.4100388986332
 30
0.0000000000000000
 11
164.4774761572599
 21
257.9456449016566
 31
0.0000000000000000
  0
LINE
  5
3F8
100
AcDbEntity
  8
MAIN0
  6
CENTER
 62
3
100
AcDbLine
 10
119.0133365958972
 20
252.6471036189117
 30
0.0000000000000000
 11
134.5403808807732
 21
246.2155912925437
 31
0.0000000000000000
  0
LINE
  5
3F9
100
AcDbEntity
  8
MAIN0
  6
CENTER
 62
3
100
AcDbLine
 10
140.7604917038608
 20
200.6877793761712
 30
0.0000000000000000
 11
147.4147035088737
 21
216.7524677627247
 31
0.0000000000000000
  0
LINE
  5
3FA
100
AcDbEntity
  8
MAIN0
  6
CENTER
 62
3
100
AcDbLine
 10
192.1043579069951
 20
222.3718113039411
 30
0.0000000000000000
 11
176.5426784025328
 21
228.8176700079976
 31
0.0000000000000000
  0
CIRCLE
  5
3FB
100
AcDbEntity
  8
MAIN0
  6
CONTINUOUS
 62
3
100
AcDbCircle
 10
168.0006179526561
 20
266.4512616062594
 30
0.0000000000000000
 40
5.000000000000000
  0
LINE
  5
3FC
100
AcDbEntity
  8
MAIN0
  6
CONTINUOUS
 62
3
100
AcDbLine
 10
168.0006179526561
 20
269.3380129522075
 30
0.0000000000000000
 11
165.5006179526561
 21
267.8946372792335
 31
0.0000000000000000
  0
LINE
  5
3FD
100
AcDbEntity
  8
MAIN0
  6
CONTINUOUS
 62
3
100
AcDbLine
 10
165.5006179526561
 20
267.8946372792335
 30
0.0000000000000000
 11
165.5006179526561
 21
265.0078859332853
 31
0.0000000000000000
  0
LINE
  5
3FE
100
AcDbEntity
  8
MAIN0
  6
CONTINUOUS
 62
3
100
AcDbLine
 10
165.5006179526561
 20
265.0078859332853
 30
0.0000000000000000
 11
168.0006179526561
 21
263.5645102603112
 31
0.0000000000000000
  0
LINE
  5
3FF
100
AcDbEntity
  8
MAIN0
  6
CONTINUOUS
 62
3
100
AcDbLine
 10
168.0006179526561
 20
263.5645102603112
 30
0.0000000000000000
 11
170.5006179526561
 21
265.0078859332853
 31
0.0000000000000000
  0
LINE
  5
400
100
AcDbEntity
  8
MAIN0
  6
CONTINUOUS
 62
3
100
AcDbLine
 10
170.5006179526561
 20
265.0078859332853
 30
0.0000000000000000
 11
170.5006179526561
 21
267.8946372792335
 31
0.0000000000000000
  0
LINE
  5
401
100
AcDbEntity
  8
MAIN0
  6
CONTINUOUS
 62
3
100
AcDbLine
 10
170.5006179526561
 20
267.8946372792335
 30
0.0000000000000000
 11
168.0006179526561
 21
269.3380129522075
 31
0.0000000000000000
  0
CIRCLE
  5
402
100
AcDbEntity
  8
MAIN0
  6
CONTINUOUS
 62
3
100
AcDbCircle
 10
126.8438845589981
 20
249.4035844517799
 30
0.0000000000000000
 40
5.000000000000000
  0
LINE
  5
403
100
AcDbEntity
  8
MAIN0
  6
CONTINUOUS
 62
3
100
AcDbLine
 10
126.8438845589981
 20
252.2903357977280
 30
0.0000000000000000
 11
124.3438845589982
 21
250.8469601247540
 31
0.0000000000000000
  0
LINE
  5
404
100
AcDbEntity
  8
MAIN0
  6
CONTINUOUS
 62
3
100
AcDbLine
 10
124.3438845589981
 20
250.8469601247540
 30
0.0000000000000000
 11
124.3438845589981
 21
247.9602087788059
 31
0.0000000000000000
  0
LINE
  5
405
100
AcDbEntity
  8
MAIN0
  6
CONTINUOUS
 62
3
100
AcDbLine
 10
124.3438845589982
 20
247.9602087788059
 30
0.0000000000000000
 11
126.8438845589981
 21
246.5168331058318
 31
0.0000000000000000
  0
LINE
  5
406
100
AcDbEntity
  8
MAIN0
  6
CONTINUOUS
 62
3
100
AcDbLine
 10
126.8438845589982
 20
246.5168331058318
 30
0.0000000000000000
 11
129.3438845589982
 21
247.9602087788059
 31
0.0000000000000000
  0
LINE
  5
407
100
AcDbEntity
  8
MAIN0
  6
CONTINUOUS
 62
3
100
AcDbLine
 10
129.3438845589981
 20
247.9602087788059
 30
0.0000000000000000
 11
129.3438845589981
 21
250.8469601247540
 31
0.0000000000000000
  0
LINE
  5
408
100
AcDbEntity
  8
MAIN0
  6
CONTINUOUS
 62
3
100
AcDbLine
 10
129.3438845589982
 20
250.8469601247540
 30
0.0000000000000000
 11
126.8438845589982
 21
252.2903357977280
 31
0.0000000000000000
  0
CIRCLE
  5
409
100
AcDbEntity
  8
MAIN0
  6
CONTINUOUS
 62
3
100
AcDbCircle
 10
143.8915617134775
 20
208.2468510581220
 30
0.0000000000000000
 40
5.000000000000000
  0
LINE
  5
40A
100
AcDbEntity
  8
MAIN0
  6
CONTINUOUS
 62
3
100
AcDbLine
 10
143.8915617134775
 20
211.1336024040701
 30
0.0000000000000000
 11
141.3915617134775
 21
209.6902267310961
 31
0.0000000000000000
  0
LINE
  5
40B
100
AcDbEntity
  8
MAIN0
  6
CONTINUOUS
 62
3
100
AcDbLine
 10
141.3915617134775
 20
209.6902267310961
 30
0.0000000000000000
 11
141.3915617134775
 21
206.8034753851480
 31
0.0000000000000000
  0
LINE
  5
40C
100
AcDbEntity
  8
MAIN0
  6
CONTINUOUS
 62
3
100
AcDbLine
 10
141.3915617134775
 20
206.8034753851480
 30
0.0000000000000000
 11
143.8915617134775
 21
205.3600997121739
 31
0.0000000000000000
  0
LINE
  5
40D
100
AcDbEntity
  8
MAIN0
  6
CONTINUOUS
 62
3
100
AcDbLine
 10
143.8915617134775
 20
205.3600997121739
 30
0.0000000000000000
 11
146.3915617134775
 21
206.8034753851479
 31
0.0000000000000000
  0
LINE
  5
40E
100
AcDbEntity
  8
MAIN0
  6
CONTINUOUS
 62
3
100
AcDbLine
 10
146.3915617134775
 20
206.8034753851480
 30
0.0000000000000000
 11
146.3915617134775
 21
209.6902267310961
 31
0.0000000000000000
  0
LINE
  5
40F
100
AcDbEntity
  8
MAIN0
  6
CONTINUOUS
 62
3
100
AcDbLine
 10
146.3915617134775
 20
209.6902267310961
 30
0.0000000000000000
 11
143.8915617134775
 21
211.1336024040702
 31
0.0000000000000000
  0
CIRCLE
  5
410
100
AcDbEntity
  8
MAIN0
  6
CONTINUOUS
 62
3
100
AcDbCircle
 10
185.0482951071355
 20
225.2945282126014
 30
0.0000000000000000
 40
5.000000000000000
  0
LINE
  5
411
100
AcDbEntity
  8
MAIN0
  6
CONTINUOUS
 62
3
100
AcDbLine
 10
185.0482951071355
 20
228.1812795585495
 30
0.0000000000000000
 11
182.5482951071355
 21
226.7379038855755
 31
0.0000000000000000
  0
LINE
  5
412
100
AcDbEntity
  8
MAIN0
  6
CONTINUOUS
 62
3
100
AcDbLine
 10
182.5482951071355
 20
226.7379038855755
 30
0.0000000000000000
 11
182.5482951071355
 21
223.8511525396273
 31
0.0000000000000000
  0
LINE
  5
413
100
AcDbEntity
  8
MAIN0
  6
CONTINUOUS
 62
3
100
AcDbLine
 10
182.5482951071355
 20
223.8511525396273
 30
0.0000000000000000
 11
185.0482951071355
 21
222.4077768666533
 31
0.0000000000000000
  0
LINE
  5
414
100
AcDbEntity
  8
MAIN0
  6
CONTINUOUS
 62
3
100
AcDbLine
 10
185.0482951071355
 20
222.4077768666533
 30
0.0000000000000000
 11
187.5482951071355
 21
223.8511525396274
 31
0.0000000000000000
  0
LINE
  5
415
100
AcDbEntity
  8
MAIN0
  6
CONTINUOUS
 62
3
100
AcDbLine
 10
187.5482951071355
 20
223.8511525396273
 30
0.0000000000000000
 11
187.5482951071355
 21
226.7379038855755
 31
0.0000000000000000
  0
LINE
  5
416
100
AcDbEntity
  8
MAIN0
  6
CONTINUOUS
 62
3
100
AcDbLine
 10
187.5482951071355
 20
226.7379038855755
 30
0.0000000000000000
 11
185.0482951071355
 21
228.1812795585495
 31
0.0000000000000000
  0
ARC
  5
417
100
AcDbEntity
  8
MAIN0
  6
CONTINUOUS
 62
3
100
AcDbCircle
 10
122.4084219362914
 20
150.9064896648449
 30
0.0000000000000000
 40
3.300000000000007
100
AcDbArc
 50
160.0000000000293
 51
250.0000000000291
  0
LINE
  5
418
100
AcDbEntity
  8
MAIN0
  6
CONTINUOUS
 62
3
100
AcDbLine
 10
121.2797554633182
 20
147.8055040162508
 30
0.0000000000000000
 11
124.9445566843839
 21
146.4716254572826
 31
0.0000000000000000
  0
ARC
  5
419
100
AcDbEntity
  8
MAIN0
  6
CONTINUOUS
 62
3
100
AcDbCircle
 10
126.0732231573571
 20
149.5726111058767
 30
0.0000000000000000
 40
3.300000000000004
100
AcDbArc
 50
250.0000000000291
 51
340.0000000000293
  0
ARC
  5
41A
100
AcDbEntity
  8
MAIN0
  6
CONTINUOUS
 62
3
100
AcDbCircle
 10
91.77614944040784
 20
304.2767131714647
 30
0.0000000000000000
 40
3.299999999999994
100
AcDbArc
 50
45.00000000003026
 51
135.0000000000302
  0
LINE
  5
41B
100
AcDbEntity
  8
MAIN0
  6
CONTINUOUS
 62
3
100
AcDbLine
 10
89.44269706249114
 20
306.6101655493791
 30
0.0000000000000000
 11
86.68498061586507
 21
303.8524491027501
 31
0.0000000000000000
  0
ARC
  5
41C
100
AcDbEntity
  8
MAIN0
  6
CONTINUOUS
 62
3
100
AcDbCircle
 10
89.01843299378174
 20
301.5189967248358
 30
0.0000000000000000
 40
3.300000000000008
100
AcDbArc
 50
135.0000000000302
 51
225.0000000000303
  0
ARC
  5
41D
100
AcDbEntity
  8
MAIN0
  6
CONTINUOUS
 62
3
100
AcDbCircle
 10
222.8737466725099
 20
301.5189967246817
 30
0.0000000000000000
 40
3.299999999999994
100
AcDbArc
 50
315.0000000000298
 51
405.0000000000298
  0
LINE
  5
41E
100
AcDbEntity
  8
MAIN0
  6
CONTINUOUS
 62
3
100
AcDbLine
 10
225.2071990504243
 20
303.8524491025985
 30
0.0000000000000000
 11
222.4494826037953
 21
306.6101655492247
 31
0.0000000000000000
  0
ARC
  5
41F
100
AcDbEntity
  8
MAIN0
  6
CONTINUOUS
 62
3
100
AcDbCircle
 10
220.1160302258809
 20
304.2767131713078
 30
0.0000000000000000
 40
3.300000000000003
100
AcDbArc
 50
45.00000000002975
 51
135.0000000000297
  0
CIRCLE
  5
420
100
AcDbEntity
  8
MAIN0
  6
CONTINUOUS
 62
3
100
AcDbCircle
 10
163.9460898330636
 20
319.8490563321906
 30
0.0000000000000000
 40
5.000000000000000
  0
LINE
  5
421
100
AcDbEntity
  8
MAIN0
  6
CONTINUOUS
 62
3
100
AcDbLine
 10
163.9460898330635
 20
322.7358076781387
 30
0.0000000000000000
 11
161.4460898330636
 21
321.2924320051646
 31
0.0000000000000000
  0
LINE
  5
422
100
AcDbEntity
  8
MAIN0
  6
CONTINUOUS
 62
3
100
AcDbLine
 10
161.4460898330636
 20
321.2924320051646
 30
0.0000000000000000
 11
161.4460898330636
 21
318.4056806592165
 31
0.0000000000000000
  0
LINE
  5
423
100
AcDbEntity
  8
MAIN0
  6
CONTINUOUS
 62
3
100
AcDbLine
 10
161.4460898330636
 20
318.4056806592165
 30
0.0000000000000000
 11
163.9460898330635
 21
316.9623049862425
 31
0.0000000000000000
  0
LINE
  5
424
100
AcDbEntity
  8
MAIN0
  6
CONTINUOUS
 62
3
100
AcDbLine
 10
163.9460898330636
 20
316.9623049862425
 30
0.0000000000000000
 11
166.4460898330636
 21
318.4056806592166
 31
0.0000000000000000
  0
LINE
  5
425
100
AcDbEntity
  8
MAIN0
  6
CONTINUOUS
 62
3
100
AcDbLine
 10
166.4460898330636
 20
318.4056806592165
 30
0.0000000000000000
 11
166.4460898330636
 21
321.2924320051646
 31
0.0000000000000000
  0
LINE
  5
426
100
AcDbEntity
  8
MAIN0
  6
CONTINUOUS
 62
3
100
AcDbLine
 10
166.4460898330635
 20
321.2924320051647
 30
0.0000000000000000
 11
163.9460898330636
 21
322.7358076781387
 31
0.0000000000000000
  0
LINE
  5
427
100
AcDbEntity
  8
MAIN0
  6
CONTINUOUS
 62
3
100
AcDbLine
 10
87.10924468458035
 20
297.3470667158342
 30
0.0000000000000000
 11
85.97787383468128
 21
298.4784375657321
 31
0.0000000000000000
  0
LINE
  5
428
100
AcDbEntity
  8
MAIN0
  6
CONTINUOUS
 62
3
100
AcDbLine
 10
85.97787383468119
 20
298.4784375657320
 30
0.0000000000000000
 11
94.81670859950847
 21
307.3172723305684
 31
0.0000000000000000
  0
LINE
  5
429
100
AcDbEntity
  8
MAIN0
  6
CONTINUOUS
 62
3
100
AcDbLine
 10
94.81670859950856
 20
307.3172723305684
 30
0.0000000000000000
 11
95.94807944940766
 21
306.1859014806705
 31
0.0000000000000000
  0
LINE
  5
42A
100
AcDbEntity
  8
MAIN0
  6
CONTINUOUS
 62
3
100
AcDbLine
 10
130.6611336560576
 20
149.6054326828361
 30
0.0000000000000000
 11
130.1139014267373
 21
148.1019244895784
 31
0.0000000000000000
  0
LINE
  5
42B
100
AcDbEntity
  8
MAIN0
  6
CONTINUOUS
 62
3
100
AcDbLine
 10
130.1139014267373
 20
148.1019244895784
 30
0.0000000000000000
 11
118.3677436669112
 21
152.3771762811432
 31
0.0000000000000000
  0
LINE
  5
42C
100
AcDbEntity
  8
MAIN0
  6
CONTINUOUS
 62
3
100
AcDbLine
 10
118.3677436669112
 20
152.3771762811432
 30
0.0000000000000000
 11
118.9149758962315
 21
153.8806844744009
 31
0.0000000000000000
  0
LINE
  5
42D
100
AcDbEntity
  8
MAIN0
  6
CONTINUOUS
 62
3
100
AcDbLine
 10
215.9441002168793
 20
306.1859014805092
 30
0.0000000000000000
 11
217.0754710667772
 21
307.3172723304083
 31
0.0000000000000000
  0
LINE
  5
42E
100
AcDbEntity
  8
MAIN0
  6
CONTINUOUS
 62
3
100
AcDbLine
 10
217.0754710667772
 20
307.3172723304083
 30
0.0000000000000000
 11
225.9143058316137
 21
298.4784375655812
 31
0.0000000000000000
  0
LINE
  5
42F
100
AcDbEntity
  8
MAIN0
  6
CONTINUOUS
 62
3
100
AcDbLine
 10
225.9143058316137
 20
298.4784375655812
 30
0.0000000000000000
 11
224.7829349817158
 21
297.3470667156821
 31
0.0000000000000000
  0
LINE
  5
430
100
AcDbEntity
  8
MAIN0
  6
PHANTOM
 62
3
100
AcDbLine
 10
50.32118683091227
 20
390.5037186323170
 30
0.0000000000000000
 11
98.65851246007495
 21
390.5037186323176
 31
0.0000000000000000
  0
LINE
  5
431
100
AcDbEntity
  8
MAIN0
  6
PHANTOM
 62
3
100
AcDbLine
 10
49.79110838009689
 20
353.5037186323175
 30
0.0000000000000000
 11
98.12843400925948
 21
353.5037186323181
 31
0.0000000000000000
  0
LINE
  5
432
100
AcDbEntity
  8
MAIN0
  6
CENTER
 62
3
100
AcDbLine
 10
95.66845370443272
 20
341.5037186323204
 30
0.0000000000000000
 11
80.81521172547591
 21
341.5037186323203
 31
0.0000000000000000
  0
INSERT
  5
447
100
AcDbEntity
  8
MAIN0
  6
CONTINUOUS
 62
3
100
AcDbBlockReference
  2
*X2
 10
0.0000000000000000
 20
0.0000000000000000
 30
0.0000000000000000
 50
0.0000000000000000
  0
INSERT
  5
45C
100
AcDbEntity
  8
MAIN0
  6
CONTINUOUS
 62
3
100
AcDbBlockReference
  2
*X3
 10
0.0000000000000000
 20
0.0000000000000000
 30
0.0000000000000000
 50
0.0000000000000000
  0
LINE
  5
45D
100
AcDbEntity
  8
MAIN0
  6
CONTINUOUS
 62
3
100
AcDbLine
 10
177.4556087396638
 20
337.3003761410388
 30
0.0000000000000000
 11
178.8079871772366
 21
340.2005610595549
 31
0.0000000000000000
  0
LINE
  5
45E
100
AcDbEntity
  8
MAIN0
  6
CONTINUOUS
 62
3
100
AcDbLine
 10
215.0602986587146
 20
323.2958305898463
 30
0.0000000000000000
 11
178.8079871772391
 21
340.2005610595538
 31
0.0000000000000000
  0
LINE
  5
45F
100
AcDbEntity
  8
MAIN0
  6
CENTER
 62
3
100
AcDbLine
 10
206.7039903888352
 20
317.2066775909665
 30
0.0000000000000000
 11
213.8833984743266
 21
332.6029679154293
 31
0.0000000000000000
  0
LINE
  5
460
100
AcDbEntity
  8
MAIN0
  6
CONTINUOUS
 62
3
100
AcDbLine
 10
188.2936833092996
 20
336.8806862291847
 30
0.0000000000000000
 11
187.8710650475568
 21
335.9743784421491
 31
0.0000000000000000
  0
LINE
  5
461
100
AcDbEntity
  8
MAIN0
  6
CENTER
 62
3
100
AcDbLine
 10
179.8045446508390
 20
330.5066775428350
 30
0.0000000000000000
 11
186.9839527363306
 21
345.9029678672978
 31
0.0000000000000000
  0
LINE
  5
462
100
AcDbEntity
  8
MAIN0
  6
CONTINUOUS
 62
3
100
AcDbLine
 10
187.8710650475493
 20
335.9743784421320
 30
0.0000000000000000
 11
188.2936833092908
 21
336.8806862291683
 31
0.0000000000000000
  0
LINE
  5
463
100
AcDbEntity
  8
MAIN0
  6
CONTINUOUS
 62
3
100
AcDbLine
 10
188.2936833092909
 20
336.8806862291683
 30
0.0000000000000000
 11
179.2306054389282
 21
341.1068688465834
 31
0.0000000000000000
  0
LINE
  5
464
100
AcDbEntity
  8
MAIN0
  6
CONTINUOUS
 62
3
100
AcDbLine
 10
179.2306054389281
 20
341.1068688465834
 30
0.0000000000000000
 11
178.8079871771866
 21
340.2005610595472
 31
0.0000000000000000
  0
LINE
  5
465
100
AcDbEntity
  8
MAIN0
  6
CONTINUOUS
 62
3
100
AcDbLine
 10
179.9103362792054
 20
340.7899051502773
 30
0.0000000000000000
 11
181.8121184570422
 21
344.8682901919405
 31
0.0000000000000000
  0
LINE
  5
466
100
AcDbEntity
  8
MAIN0
  6
CONTINUOUS
 62
3
100
AcDbLine
 10
181.8121184570421
 20
344.8682901919405
 30
0.0000000000000000
 11
182.8083131551339
 21
344.9554459346873
 31
0.0000000000000000
  0
LINE
  5
467
100
AcDbEntity
  8
MAIN0
  6
CONTINUOUS
 62
3
100
AcDbLine
 10
182.8083131551340
 20
344.9554459346872
 30
0.0000000000000000
 11
188.9421582105002
 21
342.0951870114271
 31
0.0000000000000000
  0
LINE
  5
468
100
AcDbEntity
  8
MAIN0
  6
CONTINUOUS
 62
3
100
AcDbLine
 10
188.9421582105001
 20
342.0951870114271
 30
0.0000000000000000
 11
189.5157346468504
 21
341.2760349671376
 31
0.0000000000000000
  0
LINE
  5
469
100
AcDbEntity
  8
MAIN0
  6
CONTINUOUS
 62
3
100
AcDbLine
 10
189.5157346468505
 20
341.2760349671376
 30
0.0000000000000000
 11
187.6139524690137
 21
337.1976499254744
 31
0.0000000000000000
  0
LINE
  5
46A
100
AcDbEntity
  8
MAIN0
  6
CONTINUOUS
 62
3
100
AcDbLine
 10
181.8121184570422
 20
344.8682901919405
 30
0.0000000000000000
 11
189.5157346468505
 21
341.2760349671376
 31
0.0000000000000000
  0
LINE
  5
46B
100
AcDbEntity
  8
MAIN0
  6
CONTINUOUS
 62
3
100
AcDbLine
 10
178.3689997696309
 20
333.3436455681596
 30
0.0000000000000000
 11
178.1154288125867
 21
332.7998608959395
 31
0.0000000000000000
  0
LINE
  5
46C
100
AcDbEntity
  8
MAIN0
  6
CONTINUOUS
 62
3
100
AcDbLine
 10
178.1154288125868
 20
332.7998608959394
 30
0.0000000000000000
 11
182.6469677477681
 21
330.6867695872319
 31
0.0000000000000000
  0
LINE
  5
46D
100
AcDbEntity
  8
MAIN0
  6
CONTINUOUS
 62
3
100
AcDbLine
 10
182.6469677477681
 20
330.6867695872319
 30
0.0000000000000000
 11
182.9005387048139
 21
331.2305542594556
 31
0.0000000000000000
  0
LINE
  5
46E
100
AcDbEntity
  8
MAIN0
  6
CONTINUOUS
 62
3
100
AcDbLine
 10
178.7614426421573
 20
333.1606464513120
 30
0.0000000000000000
 11
178.5078716851131
 21
332.6168617790916
 31
0.0000000000000000
  0
LINE
  5
46F
100
AcDbEntity
  8
MAIN0
  6
CONTINUOUS
 62
3
100
AcDbLine
 10
182.5080958322874
 20
331.4135533763032
 30
0.0000000000000000
 11
182.2545248752417
 21
330.8697687040797
 31
0.0000000000000000
  0
LINE
  5
470
100
AcDbEntity
  8
MAIN0
  6
CONTINUOUS
 62
3
100
AcDbLine
 10
175.9460999785871
 20
313.8490563321907
 30
0.0000000000000000
 11
175.9460999785859
 21
340.5490306749227
 31
0.0000000000000000
  0
LINE
  5
471
100
AcDbEntity
  8
MAIN0
  6
CONTINUOUS
 62
3
100
AcDbLine
 10
165.9460999785845
 20
341.5490306749410
 30
0.0000000000000000
 11
165.9460999785860
 21
340.5490306749410
 31
0.0000000000000000
  0
LINE
  5
472
100
AcDbEntity
  8
MAIN0
  6
CONTINUOUS
 62
3
100
AcDbLine
 10
145.9460999785843
 20
341.5490306749106
 30
0.0000000000000000
 11
145.9460999785859
 21
340.5490306749106
 31
0.0000000000000000
  0
LINE
  5
473
100
AcDbEntity
  8
MAIN0
  6
CONTINUOUS
 62
3
100
AcDbLine
 10
135.9460999785446
 20
313.8490563321907
 30
0.0000000000000000
 11
135.9460999785437
 21
340.5490306749211
 31
0.0000000000000000
  0
LINE
  5
474
100
AcDbEntity
  8
MAIN0
  6
CENTER
 62
3
100
AcDbLine
 10
170.9460999785860
 20
334.4370215260037
 30
0.0000000000000000
 11
170.9460999785854
 21
348.2007821979411
 31
0.0000000000000000
  0
LINE
  5
475
100
AcDbEntity
  8
MAIN0
  6
CONTINUOUS
 62
3
100
AcDbLine
 10
165.9460999785857
 20
340.5490306749223
 30
0.0000000000000000
 11
165.9460999785856
 21
341.5490306749223
 31
0.0000000000000000
  0
LINE
  5
476
100
AcDbEntity
  8
MAIN0
  6
CONTINUOUS
 62
3
100
AcDbLine
 10
165.9460999785856
 20
341.5490306749224
 30
0.0000000000000000
 11
175.9460999785856
 21
341.5490306749229
 31
0.0000000000000000
  0
LINE
  5
477
100
AcDbEntity
  8
MAIN0
  6
CONTINUOUS
 62
3
100
AcDbLine
 10
175.9460999785856
 20
341.5490306749227
 30
0.0000000000000000
 11
175.9460999785857
 21
340.5490306749227
 31
0.0000000000000000
  0
LINE
  5
478
100
AcDbEntity
  8
MAIN0
  6
CONTINUOUS
 62
3
100
AcDbLine
 10
175.1960999785857
 20
341.5490306749227
 30
0.0000000000000000
 11
175.1960999785855
 21
346.0490306749227
 31
0.0000000000000000
  0
LINE
  5
479
100
AcDbEntity
  8
MAIN0
  6
CONTINUOUS
 62
3
100
AcDbLine
 10
175.1960999785856
 20
346.0490306749227
 30
0.0000000000000000
 11
174.3300745748011
 21
346.5490306749226
 31
0.0000000000000000
  0
LINE
  5
47A
100
AcDbEntity
  8
MAIN0
  6
CONTINUOUS
 62
3
100
AcDbLine
 10
174.3300745748009
 20
346.5490306749227
 30
0.0000000000000000
 11
167.5621253823699
 21
346.5490306749224
 31
0.0000000000000000
  0
LINE
  5
47B
100
AcDbEntity
  8
MAIN0
  6
CONTINUOUS
 62
3
100
AcDbLine
 10
167.5621253823699
 20
346.5490306749225
 30
0.0000000000000000
 11
166.6960999785854
 21
346.0490306749225
 31
0.0000000000000000
  0
LINE
  5
47C
100
AcDbEntity
  8
MAIN0
  6
CONTINUOUS
 62
3
100
AcDbLine
 10
166.6960999785855
 20
346.0490306749224
 30
0.0000000000000000
 11
166.6960999785857
 21
341.5490306749224
 31
0.0000000000000000
  0
LINE
  5
47D
100
AcDbEntity
  8
MAIN0
  6
CONTINUOUS
 62
3
100
AcDbLine
 10
175.1960999785855
 20
346.0490306749227
 30
0.0000000000000000
 11
166.6960999785855
 21
346.0490306749224
 31
0.0000000000000000
  0
LINE
  5
47E
100
AcDbEntity
  8
MAIN0
  6
CONTINUOUS
 62
3
100
AcDbLine
 10
145.9460999785025
 20
341.5490306749402
 30
0.0000000000000000
 11
145.9460999785010
 21
340.5490306749402
 31
0.0000000000000000
  0
LINE
  5
47F
100
AcDbEntity
  8
MAIN0
  6
CENTER
 62
3
100
AcDbLine
 10
140.9460999784595
 20
335.5907769016384
 30
0.0000000000000000
 11
140.9460999784590
 21
348.8864787222983
 31
0.0000000000000000
  0
LINE
  5
480
100
AcDbEntity
  8
MAIN0
  6
CONTINUOUS
 62
3
100
AcDbLine
 10
145.9460999785013
 20
340.5490306749215
 30
0.0000000000000000
 11
145.9460999785013
 21
341.5490306749215
 31
0.0000000000000000
  0
LINE
  5
481
100
AcDbEntity
  8
MAIN0
  6
CONTINUOUS
 62
3
100
AcDbLine
 10
145.9460999785013
 20
341.5490306749215
 30
0.0000000000000000
 11
135.9460999785013
 21
341.5490306749211
 31
0.0000000000000000
  0
LINE
  5
482
100
AcDbEntity
  8
MAIN0
  6
CONTINUOUS
 62
3
100
AcDbLine
 10
135.9460999785013
 20
341.5490306749211
 30
0.0000000000000000
 11
135.9460999785013
 21
340.5490306749211
 31
0.0000000000000000
  0
LINE
  5
483
100
AcDbEntity
  8
MAIN0
  6
CONTINUOUS
 62
3
100
AcDbLine
 10
136.6960999785013
 20
341.5490306749211
 30
0.0000000000000000
 11
136.6960999785012
 21
346.0490306749211
 31
0.0000000000000000
  0
LINE
  5
484
100
AcDbEntity
  8
MAIN0
  6
CONTINUOUS
 62
3
100
AcDbLine
 10
136.6960999785010
 20
346.0490306749212
 30
0.0000000000000000
 11
137.5621253822854
 21
346.5490306749213
 31
0.0000000000000000
  0
LINE
  5
485
100
AcDbEntity
  8
MAIN0
  6
CONTINUOUS
 62
3
100
AcDbLine
 10
137.5621253822856
 20
346.5490306749211
 30
0.0000000000000000
 11
144.3300745747167
 21
346.5490306749214
 31
0.0000000000000000
  0
LINE
  5
486
100
AcDbEntity
  8
MAIN0
  6
CONTINUOUS
 62
3
100
AcDbLine
 10
144.3300745747166
 20
346.5490306749215
 30
0.0000000000000000
 11
145.1960999785010
 21
346.0490306749215
 31
0.0000000000000000
  0
LINE
  5
487
100
AcDbEntity
  8
MAIN0
  6
CONTINUOUS
 62
3
100
AcDbLine
 10
145.1960999785012
 20
346.0490306749215
 30
0.0000000000000000
 11
145.1960999785013
 21
341.5490306749215
 31
0.0000000000000000
  0
LINE
  5
488
100
AcDbEntity
  8
MAIN0
  6
CONTINUOUS
 62
3
100
AcDbLine
 10
136.6960999785012
 20
346.0490306749211
 30
0.0000000000000000
 11
145.1960999785012
 21
346.0490306749215
 31
0.0000000000000000
  0
LINE
  5
489
100
AcDbEntity
  8
MAIN0
  6
CONTINUOUS
 62
3
100
AcDbLine
 10
175.9460999785857
 20
340.5490306749228
 30
0.0000000000000000
 11
135.9460999785013
 21
340.5490306749211
 31
0.0000000000000000
  0
LINE
  5
48A
100
AcDbEntity
  8
MAIN0
  6
CONTINUOUS
 62
3
100
AcDbLine
 10
177.3512687550359
 20
337.3490306749229
 30
0.0000000000000000
 11
135.9460999785014
 21
337.3490306749212
 31
0.0000000000000000
  0
LINE
  5
48B
100
AcDbEntity
  8
MAIN0
  6
CONTINUOUS
 62
3
100
AcDbLine
 10
285.3030842606420
 20
325.3756338701837
 30
0.0000000000000000
 11
314.4637443207504
 21
387.9108711757129
 31
0.0000000000000000
  0
LINE
  5
48C
100
AcDbEntity
  8
MAIN0
  6
CONTINUOUS
 62
3
100
AcDbLine
 10
249.0507727791762
 20
342.2803643398116
 30
0.0000000000000000
 11
280.3245241479879
 21
409.3471405805236
 31
0.0000000000000000
  0
LINE
  5
48D
100
AcDbEntity
  8
MAIN0
  6
CENTER
 62
3
100
AcDbLine
 10
265.1972271762421
 20
329.5825158729617
 30
0.0000000000000000
 11
298.8600195324586
 21
401.7726070445445
 31
0.0000000000000000
  0
LINE
  5
48E
100
AcDbEntity
  8
MAIN0
  6
CENTER
 62
3
100
AcDbLine
 10
268.0538758430621
 20
361.0035198264750
 30
0.0000000000000000
 11
287.5386258954740
 21
351.9176316597993
 31
0.0000000000000000
  0
CIRCLE
  5
48F
100
AcDbEntity
  8
MAIN0
  6
CONTINUOUS
 62
3
100
AcDbCircle
 10
277.7423850634266
 20
356.4856937809140
 30
0.0000000000000000
 40
6.000000000002210
  0
CIRCLE
  5
490
100
AcDbEntity
  8
MAIN0
  6
CONTINUOUS
 62
3
100
AcDbCircle
 10
277.7423850634266
 20
356.4856937809140
 30
0.0000000000000000
 40
5.458500000002196
  0
LINE
  5
491
100
AcDbEntity
  8
MAIN0
  6
PHANTOM
 62
3
100
AcDbLine
 10
283.3720117323403
 20
348.4457536754885
 30
0.0000000000000000
 11
287.5199907741292
 21
357.3411234367333
 31
0.0000000000000000
  0
LINE
  5
492
100
AcDbEntity
  8
MAIN0
  6
PHANTOM
 62
3
100
AcDbLine
 10
267.9647793524453
 20
355.6302641244969
 30
0.0000000000000000
 11
272.1127583947916
 21
364.5256338869372
 31
0.0000000000000000
  0
LINE
  5
493
100
AcDbEntity
  8
MAIN0
  6
PHANTOM
 62
3
100
AcDbLine
 10
272.1127583947914
 20
364.5256338869373
 30
0.0000000000000000
 11
281.8903641051453
 21
365.3810635430058
 31
0.0000000000000000
  0
LINE
  5
494
100
AcDbEntity
  8
MAIN0
  6
PHANTOM
 62
3
100
AcDbLine
 10
273.5944060207713
 20
347.5903240193135
 30
0.0000000000000000
 11
283.3720117323404
 21
348.4457536754884
 31
0.0000000000000000
  0
LINE
  5
495
100
AcDbEntity
  8
MAIN0
  6
PHANTOM
 62
3
100
AcDbLine
 10
273.5944060210226
 20
347.5903240190420
 30
0.0000000000000000
 11
267.9647793525397
 21
355.6302641243619
 31
0.0000000000000000
  0
LINE
  5
496
100
AcDbEntity
  8
MAIN0
  6
PHANTOM
 62
3
100
AcDbLine
 10
287.5199907743561
 20
357.3411234364093
 30
0.0000000000000000
 11
281.8903641051735
 21
365.3810635427284
 31
0.0000000000000000
  0
CIRCLE
  5
497
100
AcDbEntity
  8
MAIN0
  6
PHANTOM
 62
3
100
AcDbCircle
 10
277.7423850634266
 20
356.4856937809140
 30
0.0000000000000000
 40
8.499999999999972
  0
LINE
  5
498
100
AcDbEntity
  8
MAIN0
  6
CENTER
 62
3
100
AcDbLine
 10
258.0283858778533
 20
349.7019098438196
 30
0.0000000000000000
 11
274.4074899664225
 21
384.8270119135027
 31
0.0000000000000000
  0
ARC
  5
499
100
AcDbEntity
  8
MAIN0
  6
CONTINUOUS
 62
3
100
AcDbCircle
 10
259.7102765095995
 20
353.3087359431396
 30
0.0000000000000000
 40
2.750000000000000
100
AcDbArc
 50
155.0000000000000
 51
335.0000000000001
  0
CIRCLE
  5
49A
100
AcDbEntity
  8
MAIN0
  6
CONTINUOUS
 62
3
100
AcDbCircle
 10
272.1775152309501
 20
380.0448156607208
 30
0.0000000000000000
 40
5.000000000000000
  0
CIRCLE
  5
49B
100
AcDbEntity
  8
MAIN0
  6
CONTINUOUS
 62
3
100
AcDbCircle
 10
272.1775152309501
 20
380.0448156607208
 30
0.0000000000000000
 40
4.250000000000000
  0
LINE
  5
49C
100
AcDbEntity
  8
MAIN0
  6
CONTINUOUS
 62
3
100
AcDbLine
 10
270.0844870516932
 20
381.0208107294426
 30
0.0000000000000000
 11
271.9762376648030
 21
382.3454287691550
 31
0.0000000000000000
  0
LINE
  5
49D
100
AcDbEntity
  8
MAIN0
  6
CONTINUOUS
 62
3
100
AcDbLine
 10
271.9762376648029
 20
382.3454287691550
 30
0.0000000000000000
 11
274.0692658440599
 21
381.3694337004333
 31
0.0000000000000000
  0
LINE
  5
49E
100
AcDbEntity
  8
MAIN0
  6
CONTINUOUS
 62
3
100
AcDbLine
 10
274.0692658440599
 20
381.3694337004334
 30
0.0000000000000000
 11
274.2705434102070
 21
379.0688205919990
 31
0.0000000000000000
  0
LINE
  5
49F
100
AcDbEntity
  8
MAIN0
  6
CONTINUOUS
 62
3
100
AcDbLine
 10
274.2705434102071
 20
379.0688205919990
 30
0.0000000000000000
 11
272.3787927970972
 21
377.7442025522867
 31
0.0000000000000000
  0
LINE
  5
4A0
100
AcDbEntity
  8
MAIN0
  6
CONTINUOUS
 62
3
100
AcDbLine
 10
272.3787927970971
 20
377.7442025522867
 30
0.0000000000000000
 11
270.2857646178401
 21
378.7201976210084
 31
0.0000000000000000
  0
LINE
  5
4A1
100
AcDbEntity
  8
MAIN0
  6
CONTINUOUS
 62
3
100
AcDbLine
 10
270.2857646178400
 20
378.7201976210084
 30
0.0000000000000000
 11
270.0844870516929
 21
381.0208107294427
 31
0.0000000000000000
  0
LINE
  5
4A2
100
AcDbEntity
  8
MAIN0
  6
CONTINUOUS
 62
3
100
AcDbLine
 10
259.8579562825623
 20
344.9645373418336
 30
0.0000000000000000
 11
280.4125564216255
 21
335.3797698866746
 31
0.0000000000000000
  0
LINE
  5
4A3
100
AcDbEntity
  8
MAIN0
  6
CONTINUOUS
 62
3
100
AcDbLine
 10
278.6644689300235
 20
385.2952338649646
 30
0.0000000000000000
 11
299.2190690690867
 21
375.7104664098057
 31
0.0000000000000000
  0
LINE
  5
4A4
100
AcDbEntity
  8
MAIN0
  6
CENTER
 62
3
100
AcDbLine
 10
268.3046605245989
 20
381.8507574692139
 30
0.0000000000000000
 11
276.5608932612949
 21
378.0008129165826
 31
0.0000000000000000
  0
LINE
  5
4A5
100
AcDbEntity
  8
MAIN0
  6
CENTER
 62
3
100
AcDbLine
 10
265.9236447932547
 20
382.9610433389273
 30
0.0000000000000000
 11
278.6169852506106
 21
377.0420414760936
 31
0.0000000000000000
  0
LINE
  5
4A6
100
AcDbEntity
  8
MAIN0
  6
CENTER
 62
3
100
AcDbLine
 10
285.0904302064903
 20
336.7506036951435
 30
0.0000000000000000
 11
301.5486069645671
 21
372.0452776518089
 31
0.0000000000000000
  0
ARC
  5
4A7
100
AcDbEntity
  8
MAIN0
  6
CONTINUOUS
 62
3
100
AcDbCircle
 10
286.8995101206990
 20
340.6301880909186
 30
0.0000000000000000
 40
2.750000000000000
100
AcDbArc
 50
155.0000000000000
 51
335.0000000000001
  0
CIRCLE
  5
4A8
100
AcDbEntity
  8
MAIN0
  6
CONTINUOUS
 62
3
100
AcDbCircle
 10
299.3667488420496
 20
367.3662678084997
 30
0.0000000000000000
 40
5.000000000000000
  0
CIRCLE
  5
4A9
100
AcDbEntity
  8
MAIN0
  6
CONTINUOUS
 62
3
100
AcDbCircle
 10
299.3667488420496
 20
367.3662678084997
 30
0.0000000000000000
 40
4.250000000000000
  0
LINE
  5
4AA
100
AcDbEntity
  8
MAIN0
  6
CONTINUOUS
 62
3
100
AcDbLine
 10
301.4597770213065
 20
366.3902727397781
 30
0.0000000000000000
 11
301.2584994551594
 21
368.6908858482123
 31
0.0000000000000000
  0
LINE
  5
4AB
100
AcDbEntity
  8
MAIN0
  6
CONTINUOUS
 62
3
100
AcDbLine
 10
301.2584994551594
 20
368.6908858482123
 30
0.0000000000000000
 11
299.1654712759024
 21
369.6668809169340
 31
0.0000000000000000
  0
LINE
  5
4AC
100
AcDbEntity
  8
MAIN0
  6
CONTINUOUS
 62
3
100
AcDbLine
 10
299.1654712759024
 20
369.6668809169340
 30
0.0000000000000000
 11
297.2737206627925
 21
368.3422628772215
 31
0.0000000000000000
  0
LINE
  5
4AD
100
AcDbEntity
  8
MAIN0
  6
CONTINUOUS
 62
3
100
AcDbLine
 10
297.2737206627924
 20
368.3422628772216
 30
0.0000000000000000
 11
297.4749982289396
 21
366.0416497687875
 31
0.0000000000000000
  0
LINE
  5
4AE
100
AcDbEntity
  8
MAIN0
  6
CONTINUOUS
 62
3
100
AcDbLine
 10
297.4749982289395
 20
366.0416497687875
 30
0.0000000000000000
 11
299.5680264081965
 21
365.0656547000657
 31
0.0000000000000000
  0
LINE
  5
4AF
100
AcDbEntity
  8
MAIN0
  6
CONTINUOUS
 62
3
100
AcDbLine
 10
299.5680264081967
 20
365.0656547000656
 30
0.0000000000000000
 11
301.4597770213065
 21
366.3902727397780
 31
0.0000000000000000
  0
LINE
  5
4B0
100
AcDbEntity
  8
MAIN0
  6
CENTER
 62
3
100
AcDbLine
 10
303.2396035484008
 20
365.5603260000066
 30
0.0000000000000000
 11
294.9833708117048
 21
369.4102705526379
 31
0.0000000000000000
  0
LINE
  5
4B1
100
AcDbEntity
  8
MAIN0
  6
CENTER
 62
3
100
AcDbLine
 10
305.6206192797447
 20
364.4500401302934
 30
0.0000000000000000
 11
292.9272788223888
 21
370.3690419931272
 31
0.0000000000000000
  0
ARC
  5
4B2
100
AcDbEntity
  8
MAIN0
  6
CONTINUOUS
 62
3
100
AcDbCircle
 10
295.0697337947952
 20
393.6443130494167
 30
0.0000000000000000
 40
6.499999999999972
100
AcDbArc
 50
334.9999999999996
 51
515.0000000000001
  0
LINE
  5
4B3
100
AcDbEntity
  8
MAIN0
  6
CONTINUOUS
 62
3
100
AcDbLine
 10
312.0452966942706
 20
394.5555014195992
 30
0.0000000000000000
 11
314.4637443207503
 21
387.9108711757127
 31
0.0000000000000000
  0
LINE
  5
4B4
100
AcDbEntity
  8
MAIN0
  6
CONTINUOUS
 62
3
100
AcDbLine
 10
312.0452966942706
 20
394.5555014195992
 30
0.0000000000000000
 11
280.3245241479879
 21
409.3471405805237
 31
0.0000000000000000
  0
LINE
  5
4B5
100
AcDbEntity
  8
MAIN0
  6
CONTINUOUS
 62
3
100
AcDbLine
 10
53.16142252074820
 20
330.3316121232301
 30
0.0000000000000000
 11
53.16142252074820
 21
402.5037186323175
 31
0.0000000000000000
  0
LINE
  5
4B6
100
AcDbEntity
  8
MAIN0
  6
CENTER
 62
3
100
AcDbLine
 10
208.2968491207485
 20
356.1155979121530
 30
0.0000000000000000
 11
265.1972271762420
 21
329.5825158729617
 31
0.0000000000000000
  0
INSERT
  5
4BC
100
AcDbEntity
  8
MAIN0
  6
CONTINUOUS
 62
3
100
AcDbBlockReference
  2
M6
 10
0.0000000000000000
 20
0.0000000000000000
 30
0.0000000000000000
 50
0.0000000000000000
  0
MTEXT
  5
4BD
100
AcDbEntity
  8
MAIN0
  6
CONTINUOUS
 62
3
100
AcDbMText
 10
154.2300880274224
 20
390.8339888203814
 30
0.0000000000000000
 40
5.000000000000000
 41
0.0000000000000000
 71
     1
 72
     1
  1
{\H0.82x;{Q}}
 11
1.000000000000000
 21
0.0000000000000000
 31
0.0000000000000000
  7
STANDARD
  0
MTEXT
  5
4BE
100
AcDbEntity
  8
MAIN0
  6
CONTINUOUS
 62
3
100
AcDbMText
 10
50.55970103270130
 20
307.1047570000532
 30
0.0000000000000000
 40
4.000000000000000
 41
0.0000000000000000
 71
     1
 72
     1
  1
{\H0.91x;{矢視Ｑ}}
 11
1.000000000000000
 21
0.0000000000000000
 31
0.0000000000000000
  7
KNJYOKO
  0
LINE
  5
4BF
100
AcDbEntity
  8
MAIN0
  6
CONTINUOUS
 62
3
100
AcDbLine
 10
49.03766832791831
 20
302.1332756053345
 30
0.0000000000000000
 11
64.45381650576161
 21
302.1332756053345
 31
0.0000000000000000
  0
LINE
  5
4C0
100
AcDbEntity
  8
MAIN0
  6
CONTINUOUS
 62
3
100
AcDbLine
 10
61.82167655747497
 20
378.5037186323176
 30
0.0000000000000000
 11
84.50116848402067
 21
378.5037186323178
 31
0.0000000000000000
  0
LINE
  5
4C1
100
AcDbEntity
  8
MAIN0
  6
CENTER
 62
3
100
AcDbLine
 10
50.46220119190207
 20
341.5037186323198
 30
0.0000000000000000
 11
65.68536718162548
 21
341.5037186323199
 31
0.0000000000000000
  0
LINE
  5
4C2
100
AcDbEntity
  8
MAIN0
  6
CENTER
 62
3
100
AcDbLine
 10
88.16142252074832
 20
335.0854708671285
 30
0.0000000000000000
 11
88.16142252074781
 21
377.1356175042330
 31
0.0000000000000000
  0
LINE
  5
4C3
100
AcDbEntity
  8
MAIN0
  6
CENTER
 62
3
100
AcDbLine
 10
58.16142252074849
 20
335.8103862766810
 30
0.0000000000000000
 11
58.16142252074792
 21
377.7412632225600
 31
0.0000000000000000
  0
LINE
  5
4C4
100
AcDbEntity
  8
MAIN0
  6
CENTER
 62
3
100
AcDbLine
 10
61.02284714804344
 20
360.5037186323176
 30
0.0000000000000000
 11
84.41854669826245
 21
360.5037186323179
 31
0.0000000000000000
  0
LINE
  5
4C5
100
AcDbEntity
  8
MAIN0
  6
PHANTOM
 62
3
100
AcDbLine
 10
81.66142252109060
 20
365.4111959198945
 30
0.0000000000000000
 11
73.16142252046916
 21
370.3186732083807
 31
0.0000000000000000
  0
LINE
  5
4C6
100
AcDbEntity
  8
MAIN0
  6
PHANTOM
 62
3
100
AcDbLine
 10
81.66142252074806
 20
355.5962413445279
 30
0.0000000000000000
 11
81.66142252074792
 21
365.4111959200923
 31
0.0000000000000000
  0
CIRCLE
  5
4C7
100
AcDbEntity
  8
MAIN0
  6
PHANTOM
 62
3
100
AcDbCircle
 10
73.16142252074783
 20
360.5037186323179
 30
0.0000000000000000
 40
8.499999999999972
  0
CIRCLE
  5
4C8
100
AcDbEntity
  8
MAIN0
  6
CONTINUOUS
 62
3
100
AcDbCircle
 10
73.16142252074795
 20
360.5037186323179
 30
0.0000000000000000
 40
6.000000000002210
  0
CIRCLE
  5
4C9
100
AcDbEntity
  8
MAIN0
  6
CONTINUOUS
 62
3
100
AcDbCircle
 10
73.16142252074795
 20
360.5037186323179
 30
0.0000000000000000
 40
5.458500000002196
  0
LINE
  5
4CA
100
AcDbEntity
  8
MAIN0
  6
PHANTOM
 62
3
100
AcDbLine
 10
73.16142252011312
 20
350.6887640560653
 30
0.0000000000000000
 11
81.66142252074812
 21
355.5962413445281
 31
0.0000000000000000
  0
LINE
  5
4CB
100
AcDbEntity
  8
MAIN0
  6
PHANTOM
 62
3
100
AcDbLine
 10
73.16142252045572
 20
350.6887640559253
 30
0.0000000000000000
 11
64.66142252089082
 21
355.5962413438016
 31
0.0000000000000000
  0
LINE
  5
4CC
100
AcDbEntity
  8
MAIN0
  6
PHANTOM
 62
3
100
AcDbLine
 10
64.66142252074815
 20
355.5962413438839
 30
0.0000000000000000
 11
64.66142252074801
 21
365.4111959207673
 31
0.0000000000000000
  0
LINE
  5
4CD
100
AcDbEntity
  8
MAIN0
  6
PHANTOM
 62
3
100
AcDbLine
 10
64.66142252074781
 20
365.4111959207673
 30
0.0000000000000000
 11
73.16142252032640
 21
370.3186732086202
 31
0.0000000000000000
  0
LINE
  5
4CE
100
AcDbEntity
  8
MAIN0
  6
CONTINUOUS
 62
3
100
AcDbLine
 10
61.82167655747551
 20
334.0037186323177
 30
0.0000000000000000
 11
84.50116848402121
 21
334.0037186323180
 31
0.0000000000000000
  0
ARC
  5
4CF
100
AcDbEntity
  8
MAIN0
  6
CONTINUOUS
 62
3
100
AcDbCircle
 10
73.16142252074874
 20
319.5037186323386
 30
0.0000000000000000
 40
6.500000000000085
100
AcDbArc
 50
180.0000000000000
 51
360.0000000000000
  0
LINE
  5
4D0
100
AcDbEntity
  8
MAIN0
  6
CONTINUOUS
 62
3
100
AcDbLine
 10
90.91142252074772
 20
371.0037186323178
 30
0.0000000000000000
 11
90.91142252074815
 21
345.6795419044404
 31
0.0000000000000000
  0
LINE
  5
4D1
100
AcDbEntity
  8
MAIN0
  6
CONTINUOUS
 62
3
100
AcDbLine
 10
85.41142252074783
 20
371.0037186323178
 30
0.0000000000000000
 11
85.41142252074826
 21
345.6795419044403
 31
0.0000000000000000
  0
LINE
  5
4D2
100
AcDbEntity
  8
MAIN0
  6
CONTINUOUS
 62
3
100
AcDbLine
 10
60.91142252074766
 20
371.0037186323176
 30
0.0000000000000000
 11
60.91142252074823
 21
345.6795419044403
 31
0.0000000000000000
  0
LINE
  5
4D3
100
AcDbEntity
  8
MAIN0
  6
CONTINUOUS
 62
3
100
AcDbLine
 10
55.41142252074764
 20
371.0037186323175
 30
0.0000000000000000
 11
55.41142252074820
 21
345.6795419044402
 31
0.0000000000000000
  0
LINE
  5
4D4
100
AcDbEntity
  8
MAIN0
  6
CONTINUOUS
 62
3
100
AcDbLine
 10
254.1221919190455
 20
353.1560577847266
 30
0.0000000000000000
 11
259.8579562825623
 21
344.9645373418338
 31
0.0000000000000000
  0
LINE
  5
4D5
100
AcDbEntity
  8
MAIN0
  6
CONTINUOUS
 62
3
100
AcDbLine
 10
280.4125564216255
 20
335.3797698866749
 30
0.0000000000000000
 11
290.3745034025494
 21
336.2513273141485
 31
0.0000000000000000
  0
LINE
  5
4D6
100
AcDbEntity
  8
MAIN0
  6
CONTINUOUS
 62
3
100
AcDbLine
 10
66.66142252074809
 20
319.5037186323201
 30
0.0000000000000000
 11
66.66142252074801
 21
334.0037186323178
 31
0.0000000000000000
  0
LINE
  5
4D7
100
AcDbEntity
  8
MAIN0
  6
HIDDEN
 62
3
100
AcDbLine
 10
79.66142252074837
 20
334.0037186323180
 30
0.0000000000000000
 11
79.66142252074781
 21
365.5037186323179
 31
0.0000000000000000
  0
LINE
  5
4D8
100
AcDbEntity
  8
MAIN0
  6
CONTINUOUS
 62
3
100
AcDbLine
 10
79.66142252074795
 20
319.5037186323203
 30
0.0000000000000000
 11
79.66142252074786
 21
334.0037186323180
 31
0.0000000000000000
  0
LINE
  5
4D9
100
AcDbEntity
  8
MAIN0
  6
HIDDEN
 62
3
100
AcDbLine
 10
66.66142252074835
 20
334.0037186323178
 30
0.0000000000000000
 11
66.66142252074772
 21
365.5037186323178
 31
0.0000000000000000
  0
LINE
  5
4DA
100
AcDbEntity
  8
MAIN0
  6
CONTINUOUS
 62
3
100
AcDbLine
 10
84.50116848402053
 20
378.5037186323181
 30
0.0000000000000000
 11
93.16142252187188
 21
373.5037186323183
 31
0.0000000000000000
  0
LINE
  5
4DB
100
AcDbEntity
  8
MAIN0
  6
CONTINUOUS
 62
3
100
AcDbLine
 10
53.16142251962350
 20
373.5037186323178
 30
0.0000000000000000
 11
61.82167655747480
 21
378.5037186323179
 31
0.0000000000000000
  0
LINE
  5
4DC
100
AcDbEntity
  8
MAIN0
  6
CONTINUOUS
 62
3
100
AcDbLine
 10
289.3918565350497
 20
339.4679878711316
 30
0.0000000000000000
 11
300.0943160837996
 21
362.4194864398993
 31
0.0000000000000000
  0
LINE
  5
4DD
100
AcDbEntity
  8
MAIN0
  6
CONTINUOUS
 62
3
100
AcDbLine
 10
284.4071637063482
 20
341.7923883107055
 30
0.0000000000000000
 11
295.1096232550980
 21
364.7438868794733
 31
0.0000000000000000
  0
LINE
  5
4DE
100
AcDbEntity
  8
MAIN0
  6
CONTINUOUS
 62
3
100
AcDbLine
 10
262.2026229239501
 20
352.1465357233527
 30
0.0000000000000000
 11
272.9050824727001
 21
375.0980342921205
 31
0.0000000000000000
  0
LINE
  5
4DF
100
AcDbEntity
  8
MAIN0
  6
CONTINUOUS
 62
3
100
AcDbLine
 10
257.2179300952487
 20
354.4709361629265
 30
0.0000000000000000
 11
267.9203896439986
 21
377.4224347316942
 31
0.0000000000000000
  0
LINE
  5
4E0
100
AcDbEntity
  8
MAIN0
  6
CENTER
 62
3
100
AcDbLine
 10
73.16142252074766
 20
394.7410811180977
 30
0.0000000000000000
 11
73.16142252074860
 21
307.5540957262763
 31
0.0000000000000000
  0
LINE
  5
4E1
100
AcDbEntity
  8
MAIN0
  6
CENTER
 62
3
100
AcDbLine
 10
73.16142252074755
 20
405.0908300233357
 30
0.0000000000000000
 11
73.16142252074764
 21
400.3594950767777
 31
0.0000000000000000
  0
DIMENSION
  5
4EA
100
AcDbEntity
  8
MAIN0
  6
CONTINUOUS
 62
3
100
AcDbDimension
  2
*D28
 10
242.8438336183007
 20
328.9695403541325
 30
0.0000000000000000
 11
261.1812984899040
 21
320.9703290128368
 31
0.0000000000000000
 70
33
  3
MAIN001
100
AcDbAlignedDimension
 13
285.3030842606421
 23
325.3756338701837
 33
0.0000000000000000
 14
249.0507727791761
 24
342.2803643398116
 34
0.0000000000000000
 50
155.0000000000000
1001
ACAD
1000
DSTYLE
1002
{
1070
   173
1070
     1
1070
     6
1000
_OPEN
1070
     7
1000
_OPEN
1070
    41
1040
2.000000
1002
}
  0
DIMENSION
  5
4F2
100
AcDbEntity
  8
MAIN0
  6
CONTINUOUS
 62
3
100
AcDbDimension
  2
*D29
 10
53.16142252074815
 20
395.8175469291684
 30
0.0000000000000000
 11
73.16142252074809
 21
396.3175469291684
 31
0.0000000000000000
 70
32
  3
MAIN001
100
AcDbAlignedDimension
 13
93.16142252074806
 23
330.3316121232301
 33
0.0000000000000000
 14
53.16142252074843
 24
330.3316121232301
 34
0.0000000000000000
100
AcDbRotatedDimension
1001
ACAD
1000
DSTYLE
1002
{
1070
   173
1070
     1
1070
     6
1000
_OPEN
1070
     7
1000
_OPEN
1070
    41
1040
2.000000
1002
}
  0
LINE
  5
4F3
100
AcDbEntity
  8
MAIN0
  6
CONTINUOUS
 62
3
100
AcDbLine
 10
53.16142251962407
 20
339.0037186323175
 30
0.0000000000000000
 11
54.27072298414538
 21
338.3632637105145
 31
0.0000000000000000
  0
LINE
  5
4F4
100
AcDbEntity
  8
MAIN0
  6
CONTINUOUS
 62
3
100
AcDbLine
 10
57.38705854733223
 20
336.5640465342250
 30
0.0000000000000000
 11
61.82167655747543
 21
334.0037186323178
 31
0.0000000000000000
  0
LINE
  5
4F5
100
AcDbEntity
  8
MAIN0
  6
CONTINUOUS
 62
3
100
AcDbLine
 10
84.50116848402092
 20
334.0037186323181
 30
0.0000000000000000
 11
88.93578649416375
 21
336.5640465342252
 31
0.0000000000000000
  0
LINE
  5
4F6
100
AcDbEntity
  8
MAIN0
  6
CONTINUOUS
 62
3
100
AcDbLine
 10
92.05212205735197
 20
338.3632637105157
 30
0.0000000000000000
 11
93.16142252187245
 21
339.0037186323183
 31
0.0000000000000000
  0
LINE
  5
4F7
100
AcDbEntity
  8
MAIN0
  6
CONTINUOUS
 62
3
100
AcDbLine
 10
268.7025219490996
 20
384.4236764374912
 30
0.0000000000000000
 11
269.9785575440345
 21
384.5353150863031
 31
0.0000000000000000
  0
LINE
  5
4F8
100
AcDbEntity
  8
MAIN0
  6
CONTINUOUS
 62
3
100
AcDbLine
 10
273.5632987675070
 20
384.8489393050297
 30
0.0000000000000000
 11
278.6644689300235
 21
385.2952338649648
 31
0.0000000000000000
  0
LINE
  5
4F9
100
AcDbEntity
  8
MAIN0
  6
CONTINUOUS
 62
3
100
AcDbLine
 10
299.2190690690866
 20
375.7104664098059
 30
0.0000000000000000
 11
302.1561565768225
 21
371.5158707400089
 31
0.0000000000000000
  0
LINE
  5
4FA
100
AcDbEntity
  8
MAIN0
  6
CONTINUOUS
 62
3
100
AcDbLine
 10
304.2201337292202
 20
368.5682058838530
 30
0.0000000000000000
 11
304.9548334326036
 21
367.5189459669128
 31
0.0000000000000000
  0
LINE
  5
4FB
100
AcDbEntity
  8
MAIN0
  6
PHANTOM
 62
3
100
AcDbLine
 10
150.9460898330470
 20
362.8490563321907
 30
0.0000000000000000
 11
160.9460898330161
 21
362.8490563321907
 31
0.0000000000000000
  0
LINE
  5
4FC
100
AcDbEntity
  8
MAIN0
  6
PHANTOM
 62
3
100
AcDbLine
 10
145.8922898330628
 20
341.5490563321193
 30
0.0000000000000000
 11
165.8922898330628
 21
341.5490563321193
 31
0.0000000000000000
  0
LINE
  5
4FD
100
AcDbEntity
  8
MAIN0
  6
PHANTOM
 62
3
100
AcDbLine
 10
165.8922898330628
 20
341.5490563321193
 30
0.0000000000000000
 11
165.8922898330628
 21
340.5490563321193
 31
0.0000000000000000
  0
LINE
  5
4FE
100
AcDbEntity
  8
MAIN0
  6
PHANTOM
 62
3
100
AcDbLine
 10
145.8922898330628
 20
341.5490563321192
 30
0.0000000000000000
 11
145.8922898330628
 21
340.5490563321192
 31
0.0000000000000000
  0
LINE
  5
4FF
100
AcDbEntity
  8
MAIN0
  6
PHANTOM
 62
3
100
AcDbLine
 10
149.9460898330623
 20
361.8490563321907
 30
0.0000000000000000
 11
161.9460898330624
 21
361.8490563321907
 31
0.0000000000000000
  0
LINE
  5
500
100
AcDbEntity
  8
MAIN0
  6
PHANTOM
 62
3
100
AcDbLine
 10
149.9460898330493
 20
361.8490563321907
 30
0.0000000000000000
 11
150.9460898330470
 21
362.8490563321907
 31
0.0000000000000000
  0
LINE
  5
501
100
AcDbEntity
  8
MAIN0
  6
PHANTOM
 62
3
100
AcDbLine
 10
160.9460898330162
 20
362.8490563321906
 30
0.0000000000000000
 11
161.9460898330622
 21
361.8490563321456
 31
0.0000000000000000
  0
LINE
  5
502
100
AcDbEntity
  8
MAIN0
  6
PHANTOM
 62
3
100
AcDbLine
 10
150.9460898330470
 20
364.8490563321907
 30
0.0000000000000000
 11
160.9460898330161
 21
364.8490563321907
 31
0.0000000000000000
  0
LINE
  5
503
100
AcDbEntity
  8
MAIN0
  6
PHANTOM
 62
3
100
AcDbLine
 10
160.9460898329913
 20
364.8490563321907
 30
0.0000000000000000
 11
160.9460898329899
 21
362.8490563321906
 31
0.0000000000000000
  0
LINE
  5
504
100
AcDbEntity
  8
MAIN0
  6
PHANTOM
 62
3
100
AcDbLine
 10
150.9460898330247
 20
364.8490563321907
 30
0.0000000000000000
 11
150.9460898330235
 21
362.8490563321907
 31
0.0000000000000000
  0
LINE
  5
505
100
AcDbEntity
  8
MAIN0
  6
PHANTOM
 62
3
100
AcDbLine
 10
161.9460898330631
 20
361.8490563321907
 30
0.0000000000000000
 11
161.9460898330630
 21
345.4173154131890
 31
0.0000000000000000
  0
LINE
  5
506
100
AcDbEntity
  8
MAIN0
  6
PHANTOM
 62
3
100
AcDbLine
 10
161.4045898330631
 20
362.3905563321441
 30
0.0000000000000000
 11
161.4045898330630
 21
345.5490563321158
 31
0.0000000000000000
  0
LINE
  5
507
100
AcDbEntity
  8
MAIN0
  6
PHANTOM
 62
3
100
AcDbLine
 10
150.4875898330630
 20
362.3905563322056
 30
0.0000000000000000
 11
150.4875898330629
 21
345.5490563321225
 31
0.0000000000000000
  0
LINE
  5
508
100
AcDbEntity
  8
MAIN0
  6
PHANTOM
 62
3
100
AcDbLine
 10
149.9460898330631
 20
361.8490563321907
 30
0.0000000000000000
 11
149.9460898330630
 21
345.4173154131915
 31
0.0000000000000000
  0
LINE
  5
509
100
AcDbEntity
  8
MAIN0
  6
PHANTOM
 62
3
100
AcDbLine
 10
151.6960898330632
 20
345.5490563321225
 30
0.0000000000000000
 11
160.1960898330623
 21
345.5490563321159
 31
0.0000000000000000
  0
LINE
  5
50A
100
AcDbEntity
  8
MAIN0
  6
PHANTOM
 62
3
100
AcDbLine
 10
164.4460898330530
 20
344.7490563319677
 30
0.0000000000000000
 11
164.4460898330531
 21
341.5490563321193
 31
0.0000000000000000
  0
ARC
  5
50B
100
AcDbEntity
  8
MAIN0
  6
PHANTOM
 62
3
100
AcDbCircle
 10
160.1960898330531
 20
333.8599938341337
 30
0.0000000000000000
 40
11.68906249798220
100
AcDbArc
 50
68.67930340706903
 51
111.3206965929310
  0
LINE
  5
50C
100
AcDbEntity
  8
MAIN0
  6
PHANTOM
 62
3
100
AcDbLine
 10
155.9460898330530
 20
344.7490563319677
 30
0.0000000000000000
 11
155.9460898330532
 21
341.5490563321193
 31
0.0000000000000000
  0
ARC
  5
50D
100
AcDbEntity
  8
MAIN0
  6
PHANTOM
 62
3
100
AcDbCircle
 10
151.6960898330540
 20
333.8599938341333
 30
0.0000000000000000
 40
11.68906249798220
100
AcDbArc
 50
68.67930340707382
 51
111.3206965929358
  0
LINE
  5
50E
100
AcDbEntity
  8
MAIN0
  6
PHANTOM
 62
3
100
AcDbLine
 10
147.4460898330531
 20
344.7490563319669
 30
0.0000000000000000
 11
147.4460898330532
 21
341.5490563321192
 31
0.0000000000000000
  0
LINE
  5
50F
100
AcDbEntity
  8
MAIN0
  6
CONTINUOUS
 62
3
100
AcDbLine
 10
205.9972207883512
 20
327.5220132072661
 30
0.0000000000000000
 11
206.4198390500927
 21
328.4283209943023
 31
0.0000000000000000
  0
LINE
  5
510
100
AcDbEntity
  8
MAIN0
  6
CONTINUOUS
 62
3
100
AcDbLine
 10
206.4198390500927
 20
328.4283209943024
 30
0.0000000000000000
 11
215.4829169204554
 21
324.2021383768873
 31
0.0000000000000000
  0
LINE
  5
511
100
AcDbEntity
  8
MAIN0
  6
CONTINUOUS
 62
3
100
AcDbLine
 10
215.4829169204555
 20
324.2021383768873
 30
0.0000000000000000
 11
215.0602986587139
 21
323.2958305898510
 31
0.0000000000000000
  0
LINE
  5
512
100
AcDbEntity
  8
MAIN0
  6
CONTINUOUS
 62
3
100
AcDbLine
 10
214.8031860801782
 20
324.5191020731934
 30
0.0000000000000000
 11
216.7049682580150
 21
328.5974871148567
 31
0.0000000000000000
  0
LINE
  5
513
100
AcDbEntity
  8
MAIN0
  6
CONTINUOUS
 62
3
100
AcDbLine
 10
216.7049682580150
 20
328.5974871148566
 30
0.0000000000000000
 11
216.1313918216647
 21
329.4166391591460
 31
0.0000000000000000
  0
LINE
  5
514
100
AcDbEntity
  8
MAIN0
  6
CONTINUOUS
 62
3
100
AcDbLine
 10
216.1313918216646
 20
329.4166391591461
 30
0.0000000000000000
 11
209.9975467662986
 21
332.2768980824062
 31
0.0000000000000000
  0
LINE
  5
515
100
AcDbEntity
  8
MAIN0
  6
CONTINUOUS
 62
3
100
AcDbLine
 10
209.9975467662985
 20
332.2768980824062
 30
0.0000000000000000
 11
209.0013520682067
 21
332.1897423396595
 31
0.0000000000000000
  0
LINE
  5
516
100
AcDbEntity
  8
MAIN0
  6
CONTINUOUS
 62
3
100
AcDbLine
 10
209.0013520682067
 20
332.1897423396595
 30
0.0000000000000000
 11
207.0995698903699
 21
328.1113572979963
 31
0.0000000000000000
  0
LINE
  5
517
100
AcDbEntity
  8
MAIN0
  6
CONTINUOUS
 62
3
100
AcDbLine
 10
216.7049682580150
 20
328.5974871148566
 30
0.0000000000000000
 11
209.0013520682068
 21
332.1897423396595
 31
0.0000000000000000
  0
LINE
  5
518
100
AcDbEntity
  8
MAIN0
  6
CONTINUOUS
 62
3
100
AcDbLine
 10
210.0897723159768
 20
318.5520064071710
 30
0.0000000000000000
 11
209.8362013589327
 21
318.0082217349509
 31
0.0000000000000000
  0
LINE
  5
519
100
AcDbEntity
  8
MAIN0
  6
CONTINUOUS
 62
3
100
AcDbLine
 10
209.8362013589326
 20
318.0082217349509
 30
0.0000000000000000
 11
205.3046624237513
 21
320.1213130436585
 31
0.0000000000000000
  0
LINE
  5
51A
100
AcDbEntity
  8
MAIN0
  6
CONTINUOUS
 62
3
100
AcDbLine
 10
205.3046624237512
 20
320.1213130436585
 30
0.0000000000000000
 11
205.5582333807971
 21
320.6650977158822
 31
0.0000000000000000
  0
LINE
  5
51B
100
AcDbEntity
  8
MAIN0
  6
CONTINUOUS
 62
3
100
AcDbLine
 10
209.6973294434506
 20
318.7350055240190
 30
0.0000000000000000
 11
209.4437584864064
 21
318.1912208517987
 31
0.0000000000000000
  0
LINE
  5
51C
100
AcDbEntity
  8
MAIN0
  6
CONTINUOUS
 62
3
100
AcDbLine
 10
205.9506762533233
 20
320.4820985990340
 30
0.0000000000000000
 11
205.6971052962776
 21
319.9383139268106
 31
0.0000000000000000
  0
LINE
  5
51D
100
AcDbEntity
  8
MAIN0
  6
CONTINUOUS
 62
3
100
AcDbLine
 10
213.7079202211394
 20
320.3956456713313
 30
0.0000000000000000
 11
177.3512687550359
 21
337.3490306749228
 31
0.0000000000000000
  0
LINE
  5
51E
100
AcDbEntity
  8
MAIN0
  6
CONTINUOUS
 62
3
100
AcDbLine
 10
212.3555417835666
 20
317.4954607528154
 30
0.0000000000000000
 11
215.0602986587122
 21
323.2958305898474
 31
0.0000000000000000
  0
LINE
  5
51F
100
AcDbEntity
  8
MAIN0
  6
CONTINUOUS
 62
3
100
AcDbLine
 10
212.3555417835666
 20
317.4954607528154
 30
0.0000000000000000
 11
176.0859259826197
 21
334.4082603592115
 31
0.0000000000000000
  0
LINE
  5
520
100
AcDbEntity
  8
MAIN0
  6
PHANTOM
 62
3
100
AcDbLine
 10
195.3714909550432
 20
316.5660459532912
 30
0.0000000000000000
 11
196.7004170038216
 21
317.0497354785883
 31
0.0000000000000000
  0
LINE
  5
521
100
AcDbEntity
  8
MAIN0
  6
PHANTOM
 62
3
100
AcDbLine
 10
199.6672419601916
 20
323.4121121294481
 30
0.0000000000000000
 11
196.7004170038242
 21
317.0497354785862
 31
0.0000000000000000
  0
LINE
  5
522
100
AcDbEntity
  8
MAIN0
  6
PHANTOM
 62
3
100
AcDbLine
 10
199.1764762935119
 20
323.6409599181814
 30
0.0000000000000000
 11
195.9808035484130
 21
316.7878176006417
 31
0.0000000000000000
  0
LINE
  5
523
100
AcDbEntity
  8
MAIN0
  6
PHANTOM
 62
3
100
AcDbLine
 10
185.8247235593932
 20
322.1211546194940
 30
0.0000000000000000
 11
188.7915485157602
 21
328.4835312703551
 31
0.0000000000000000
  0
LINE
  5
524
100
AcDbEntity
  8
MAIN0
  6
PHANTOM
 62
3
100
AcDbLine
 10
186.0866328617966
 20
321.4015227737658
 30
0.0000000000000000
 11
189.2823141824406
 21
328.2546834816214
 31
0.0000000000000000
  0
LINE
  5
525
100
AcDbEntity
  8
MAIN0
  6
PHANTOM
 62
3
100
AcDbLine
 10
196.7004170038212
 20
317.0497354785877
 30
0.0000000000000000
 11
185.8247235593815
 21
322.1211546194689
 31
0.0000000000000000
  0
LINE
  5
526
100
AcDbEntity
  8
WAKU0
  6
CONTINUOUS
 62
3
100
AcDbLine
 10
412.0000000000000
 20
51.00000000000000
 30
0.0000000000000000
 11
582.0000000000000
 21
51.00000000000000
 31
0.0000000000000000
  0
LINE
  5
527
100
AcDbEntity
  8
WAKU0
  6
CONTINUOUS
 62
3
100
AcDbLine
 10
412.0000000000000
 20
51.00000000000000
 30
0.0000000000000000
 11
412.0000000000000
 21
12.00000000000000
 31
0.0000000000000000
  0
LINE
  5
528
100
AcDbEntity
  8
WAKU0
  6
CONTINUOUS
 62
3
100
AcDbLine
 10
484.0000000000000
 20
51.00000000000000
 30
0.0000000000000000
 11
484.0000000000000
 21
12.00000000000000
 31
0.0000000000000000
  0
LINE
  5
529
100
AcDbEntity
  8
WAKU0
  6
CONTINUOUS
 62
3
100
AcDbLine
 10
504.0000000000000
 20
51.00000000000000
 30
0.0000000000000000
 11
504.0000000000000
 21
12.00000000000000
 31
0.0000000000000000
  0
LINE
  5
52A
100
AcDbEntity
  8
WAKU0
  6
CONTINUOUS
 62
3
100
AcDbLine
 10
516.0000000000000
 20
51.00000000000000
 30
0.0000000000000000
 11
516.0000000000000
 21
12.00000000000000
 31
0.0000000000000000
  0
LINE
  5
52B
100
AcDbEntity
  8
WAKU0
  6
CONTINUOUS
 62
3
100
AcDbLine
 10
516.0000000000000
 20
37.00000000000000
 30
0.0000000000000000
 11
582.0000000000000
 21
37.00000000000000
 31
0.0000000000000000
  0
LINE
  5
52C
100
AcDbEntity
  8
WAKU0
  6
CONTINUOUS
 62
3
100
AcDbLine
 10
504.0000000000000
 20
23.00000000000000
 30
0.0000000000000000
 11
582.0000000000000
 21
23.00000000000000
 31
0.0000000000000000
  0
LINE
  5
52D
100
AcDbEntity
  8
WAKU0
  6
CONTINUOUS
 62
3
100
AcDbLine
 10
547.0000000000000
 20
51.00000000000000
 30
0.0000000000000000
 11
547.0000000000000
 21
44.00000000000000
 31
0.0000000000000000
  0
LINE
  5
52E
100
AcDbEntity
  8
WAKU0
  6
CONTINUOUS
 62
3
100
AcDbLine
 10
559.0000000000000
 20
51.00000000000000
 30
0.0000000000000000
 11
559.0000000000000
 21
44.00000000000000
 31
0.0000000000000000
  0
LINE
  5
52F
100
AcDbEntity
  8
WAKU0
  6
CONTINUOUS
 62
3
100
AcDbLine
 10
484.0000000000000
 20
31.50000000000000
 30
0.0000000000000000
 11
504.0000000000000
 21
31.50000000000000
 31
0.0000000000000000
  0
LINE
  5
530
100
AcDbEntity
  8
WAKU0
  6
CONTINUOUS
 62
3
100
AcDbLine
 10
504.0000000000000
 20
44.00000000000000
 30
0.0000000000000000
 11
582.0000000000000
 21
44.00000000000000
 31
0.0000000000000000
  0
LINE
  5
531
100
AcDbEntity
  8
WAKU0
  6
CONTINUOUS
 62
3
100
AcDbLine
 10
412.0000000000000
 20
37.00000000000000
 30
0.0000000000000000
 11
484.0000000000000
 21
37.00000000000000
 31
0.0000000000000000
  0
LINE
  5
532
100
AcDbEntity
  8
WAKU0
  6
CONTINUOUS
 62
3
100
AcDbLine
 10
412.0000000000000
 20
23.00000000000000
 30
0.0000000000000000
 11
484.0000000000000
 21
23.00000000000000
 31
0.0000000000000000
  0
LINE
  5
533
100
AcDbEntity
  8
WAKU0
  6
CONTINUOUS
 62
3
100
AcDbLine
 10
460.0000000000000
 20
37.00000000000000
 30
0.0000000000000000
 11
460.0000000000000
 21
12.00000000000000
 31
0.0000000000000000
  0
LINE
  5
534
100
AcDbEntity
  8
WAKU0
  6
CONTINUOUS
 62
3
100
AcDbLine
 10
436.0000000000000
 20
37.00000000000000
 30
0.0000000000000000
 11
436.0000000000000
 21
23.00000000000000
 31
0.0000000000000000
  0
LINE
  5
535
100
AcDbEntity
  8
WAKU0
  6
CONTINUOUS
 62
3
100
AcDbLine
 10
472.0000000000000
 20
26.00000000000000
 30
0.0000000000000000
 11
472.0000000000000
 21
23.00000000000000
 31
0.0000000000000000
  0
LINE
  5
536
100
AcDbEntity
  8
WAKU0
  6
CONTINUOUS
 62
3
100
AcDbLine
 10
448.0000000000000
 20
26.00000000000000
 30
0.0000000000000000
 11
448.0000000000000
 21
23.00000000000000
 31
0.0000000000000000
  0
LINE
  5
537
100
AcDbEntity
  8
WAKU0
  6
CONTINUOUS
 62
3
100
AcDbLine
 10
424.0000000000000
 20
26.00000000000000
 30
0.0000000000000000
 11
424.0000000000000
 21
23.00000000000000
 31
0.0000000000000000
  0
LINE
  5
538
100
AcDbEntity
  8
WAKU0
  6
CONTINUOUS
 62
3
100
AcDbLine
 10
430.0000000000000
 20
51.00000000000000
 30
0.0000000000000000
 11
430.0000000000000
 21
37.00000000000000
 31
0.0000000000000000
  0
LINE
  5
539
100
AcDbEntity
  8
WAKU0
  6
CONTINUOUS
 62
3
100
AcDbLine
 10
412.0000000000000
 20
45.00000000000000
 30
0.0000000000000000
 11
484.0000000000000
 21
45.00000000000000
 31
0.0000000000000000
  0
LINE
  5
53A
100
AcDbEntity
  8
WAKU0
  6
HIDDEN
 62
3
100
AcDbLine
 10
532.5000000000000
 20
23.00000000000000
 30
0.0000000000000000
 11
532.5000000000000
 21
12.00000000000000
 31
0.0000000000000000
  0
LINE
  5
53B
100
AcDbEntity
  8
WAKU0
  6
HIDDEN
 62
3
100
AcDbLine
 10
544.9000000000000
 20
23.00000000000000
 30
0.0000000000000000
 11
544.9000000000000
 21
12.00000000000000
 31
0.0000000000000000
  0
MTEXT
  5
53C
100
AcDbEntity
  8
WAKU0
  6
CONTINUOUS
 62
3
100
AcDbMText
 10
516.4820000243485
 20
49.04999995231628
 30
0.0000000000000000
 40
3.099999904632568
 41
0.0000000000000000
 71
     1
 72
     1
  1
{\H0.93x;{M1330HA21D}}
 11
1.000000000000000
 21
0.0000000000000000
 31
0.0000000000000000
  7
STANDARD
  0
MTEXT
  5
53D
100
AcDbEntity
  8
WAKU0
  6
CONTINUOUS
 62
3
100
AcDbMText
 10
522.7500004470348
 20
43.50000000000000
 30
0.0000000000000000
 40
3.000000000000000
 41
0.0000000000000000
 71
     1
 72
     1
  1
{\H0.59x;{回転油圧シリンダ\PＲＯＴＡＲＹ　ＨＹＤＲＡＵＬＩＣ　ＣＹＬＩＮＤＥＲ}}
 11
1.000000000000000
 21
0.0000000000000000
 31
0.0000000000000000
  7
KNJYOKO
  0
MTEXT
  5
53E
100
AcDbEntity
  8
WAKU0
  6
CONTINUOUS
 62
3
100
AcDbMText
 10
519.1500010974705
 20
34.23333326975504
 30
0.0000000000000000
 40
3.099999904632568
 41
0.0000000000000000
 71
     1
 72
     1
  1
{\H0.71x;{Ｍ１３３０ＨＡ２１Ｄ　ガイケイ\PＭ１３３０ＨＡ２１Ｄ　ＯＵＴＳＩＤＥ　ＶＩＥＷ}}
 11
1.000000000000000
 21
0.0000000000000000
 31
0.0000000000000000
  7
KNJYOKO
  0
MTEXT
  5
53F
100
AcDbEntity
  8
WAKU0
  6
CONTINUOUS
 62
3
100
AcDbMText
 10
490.0049998760223
 20
39.29999995231628
 30
0.0000000000000000
 40
3.099999904632568
 41
0.0000000000000000
 71
     1
 72
     1
  1
{\H0.90x;{1:1}}
 11
1.000000000000000
 21
0.0000000000000000
 31
0.0000000000000000
  7
STANDARD
  0
MTEXT
  5
540
100
AcDbEntity
  8
WAKU0
  6
CONTINUOUS
 62
3
100
AcDbMText
 10
546.4000001549721
 20
20.15000009536743
 30
0.0000000000000000
 40
5.300000190734863
 41
0.0000000000000000
 71
     1
 72
     1
  1
{\H0.90x;{8266}}
 11
1.000000000000000
 21
0.0000000000000000
 31
0.0000000000000000
  7
STANDARD
  0
MTEXT
  5
541
100
AcDbEntity
  8
WAKU0
  6
CONTINUOUS
 62
3
100
AcDbMText
 10
534.3000000834466
 20
20.15000009536743
 30
0.0000000000000000
 40
5.300000190734863
 41
0.0000000000000000
 71
     1
 72
     1
  1
{\H0.87x;{25}}
 11
1.000000000000000
 21
0.0000000000000000
 31
0.0000000000000000
  7
STANDARD
  0
MTEXT
  5
542
100
AcDbEntity
  8
WAKU0
  6
CONTINUOUS
 62
3
100
AcDbMText
 10
517.5000001192093
 20
20.15000009536743
 30
0.0000000000000000
 40
5.300000190734863
 41
0.0000000000000000
 71
     1
 72
     1
  1
{\H0.89x;{61R}}
 11
1.000000000000000
 21
0.0000000000000000
 31
0.0000000000000000
  7
STANDARD
  0
MTEXT
  5
543
100
AcDbEntity
  8
WAKU0
  6
CONTINUOUS
 62
3
100
AcDbMText
 10
572.0000000476837
 20
20.15000009536743
 30
0.0000000000000000
 40
5.300000190734863
 41
0.0000000000000000
 71
     1
 72
     1
  1
{\H0.81x;{2}}
 11
1.000000000000000
 21
0.0000000000000000
 31
0.0000000000000000
  7
STANDARD
  0
MTEXT
  5
544
100
AcDbEntity
  8
WAKU0
  6
CONTINUOUS
 62
3
100
AcDbMText
 10
572.0000000819564
 20
44.84999990463257
 30
0.0000000000000000
 40
5.300000190734863
 41
0.0000000000000000
 71
     7
 72
     1
  1
{\H0.81x;{ }}
 11
1.000000000000000
 21
0.0000000000000000
 31
0.0000000000000000
  7
STANDARD
  0
MTEXT
  5
545
100
AcDbEntity
  8
WAKU0
  6
CONTINUOUS
 62
3
100
AcDbMText
 10
461.3850002884865
 20
33.00000000000000
 30
0.0000000000000000
 40
3.000000000000000
 41
0.0000000000000000
 71
     7
 72
     1
  1
{\H0.93x;{DRAWN BY}}
 11
1.000000000000000
 21
0.0000000000000000
 31
0.0000000000000000
  7
STANDARD
  0
MTEXT
  5
546
100
AcDbEntity
  8
WAKU0
  6
CONTINUOUS
 62
3
100
AcDbMText
 10
441.2149997949600
 20
32.95000004768372
 30
0.0000000000000000
 40
3.099999904632568
 41
0.0000000000000000
 71
     7
 72
     1
  1
{\H0.92x;{CHIEF}}
 11
1.000000000000000
 21
0.0000000000000000
 31
0.0000000000000000
  7
STANDARD
  0
MTEXT
  5
547
100
AcDbEntity
  8
WAKU0
  6
CONTINUOUS
 62
3
100
AcDbMText
 10
414.4249997138977
 20
32.95000004768372
 30
0.0000000000000000
 40
3.099999904632568
 41
0.0000000000000000
 71
     7
 72
     1
  1
{\H0.92x;{MANAGER}}
 11
1.000000000000000
 21
0.0000000000000000
 31
0.0000000000000000
  7
STANDARD
  0
MTEXT
  5
548
100
AcDbEntity
  8
WAKU0
  6
CONTINUOUS
 62
3
100
AcDbMText
 10
416.6599994301796
 20
18.13333336512248
 30
0.0000000000000000
 40
3.099999904632568
 41
0.0000000000000000
 71
     7
 72
     1
  1
{\H0.93x;{KITAGAWA IRON\PWORKS CO.,LTD.}}
 11
1.000000000000000
 21
0.0000000000000000
 31
0.0000000000000000
  7
STANDARD
  0
MTEXT
  5
549
100
AcDbEntity
  8
WAKU0
  6
CONTINUOUS
 62
3
100
AcDbMText
 10
413.0850002169609
 20
46.50000000000000
 30
0.0000000000000000
 40
3.000000000000000
 41
0.0000000000000000
 71
     7
 72
     1
  1
{\H0.92x;{CAREER}}
 11
1.000000000000000
 21
0.0000000000000000
 31
0.0000000000000000
  7
STANDARD
  0
MTEXT
  5
54A
100
AcDbEntity
  8
WAKU0
  6
CONTINUOUS
 62
3
100
AcDbMText
 10
466.6099998354912
 20
18.95000004768372
 30
0.0000000000000000
 40
3.099999904632568
 41
0.0000000000000000
 71
     7
 72
     1
  1
{\H0.91x;{DATE}}
 11
1.000000000000000
 21
0.0000000000000000
 31
0.0000000000000000
  7
STANDARD
  0
MTEXT
  5
54B
100
AcDbEntity
  8
WAKU0
  6
CONTINUOUS
 62
3
100
AcDbMText
 10
485.9000002145767
 20
26.50000000000000
 30
0.0000000000000000
 40
3.000000000000000
 41
0.0000000000000000
 71
     7
 72
     1
  1
{\H0.63x;{3RD ANGLE}}
 11
1.000000000000000
 21
0.0000000000000000
 31
0.0000000000000000
  7
STANDARD
  0
MTEXT
  5
54C
100
AcDbEntity
  8
WAKU0
  6
CONTINUOUS
 62
3
100
AcDbMText
 10
487.2149997949600
 20
45.95000004768372
 30
0.0000000000000000
 40
3.099999904632568
 41
0.0000000000000000
 71
     7
 72
     1
  1
{\H0.92x;{SCALE}}
 11
1.000000000000000
 21
0.0000000000000000
 31
0.0000000000000000
  7
STANDARD
  0
MTEXT
  5
54D
100
AcDbEntity
  8
WAKU0
  6
CONTINUOUS
 62
3
100
AcDbMText
 10
577.7000000476837
 20
46.00000000000000
 30
0.0000000000000000
 40
3.000000000000000
 41
0.0000000000000000
 71
     7
 72
     1
  1
{\H0.63x;{kg}}
 11
1.000000000000000
 21
0.0000000000000000
 31
0.0000000000000000
  7
STANDARD
  0
MTEXT
  5
54E
100
AcDbEntity
  8
WAKU0
  6
CONTINUOUS
 62
3
100
AcDbMText
 10
547.6000001430512
 20
46.00000000000000
 30
0.0000000000000000
 40
3.000000000000000
 41
0.0000000000000000
 71
     7
 72
     1
  1
{\H0.63x;{WEIGHT}}
 11
1.000000000000000
 21
0.0000000000000000
 31
0.0000000000000000
  7
STANDARD
  0
MTEXT
  5
54F
100
AcDbEntity
  8
WAKU0
  6
CONTINUOUS
 62
3
100
AcDbMText
 10
506.0049998760223
 20
18.13333336512248
 30
0.0000000000000000
 40
3.099999904632568
 41
0.0000000000000000
 71
     7
 72
     1
  1
{\H0.90x;{DRW\PNO.}}
 11
1.000000000000000
 21
0.0000000000000000
 31
0.0000000000000000
  7
STANDARD
  0
MTEXT
  5
550
100
AcDbEntity
  8
WAKU0
  6
CONTINUOUS
 62
3
100
AcDbMText
 10
504.6099998354912
 20
31.95000004768372
 30
0.0000000000000000
 40
3.099999904632568
 41
0.0000000000000000
 71
     7
 72
     1
  1
{\H0.91x;{NAME}}
 11
1.000000000000000
 21
0.0000000000000000
 31
0.0000000000000000
  7
STANDARD
  0
MTEXT
  5
551
100
AcDbEntity
  8
WAKU0
  6
CONTINUOUS
 62
3
100
AcDbMText
 10
504.6099998354912
 20
45.95000004768372
 30
0.0000000000000000
 40
3.099999904632568
 41
0.0000000000000000
 71
     7
 72
     1
  1
{\H0.91x;{TYPE}}
 11
1.000000000000000
 21
0.0000000000000000
 31
0.0000000000000000
  7
STANDARD
  0
LINE
  5
552
100
AcDbEntity
  8
WAKU0
  6
HIDDEN
 62
3
100
AcDbLine
 10
579.1599564743885
 20
13.84999990463257
 30
0.0000000000000000
 11
568.9400436209789
 21
13.84999990463257
 31
0.0000000000000000
  0
LINE
  5
553
100
AcDbEntity
  8
WAKU0
  6
HIDDEN
 62
3
100
AcDbLine
 10
579.1599564743885
 20
13.84999990463250
 30
0.0000000000000000
 11
574.0500000476851
 21
22.70070406014901
 31
0.0000000000000000
  0
LINE
  5
554
100
AcDbEntity
  8
WAKU0
  6
HIDDEN
 62
3
100
AcDbLine
 10
574.0500000476851
 20
22.70070406014902
 30
0.0000000000000000
 11
568.9400436209789
 21
13.84999990463248
 31
0.0000000000000000
  0
LINE
  5
555
100
AcDbEntity
  8
WAKU0
  6
CONTINUOUS
 62
3
100
AcDbLine
 10
502.4713877753800
 20
15.78041421262812
 30
0.0000000000000000
 11
502.4713877753800
 21
21.78041421262815
 31
0.0000000000000000
  0
LINE
  5
556
100
AcDbEntity
  8
WAKU0
  6
CONTINUOUS
 62
3
100
AcDbLine
 10
495.9336941228225
 20
17.28041421262811
 30
0.0000000000000000
 11
495.9336941228225
 21
20.28041421262824
 31
0.0000000000000000
  0
LINE
  5
557
100
AcDbEntity
  8
WAKU0
  6
CENTER
 62
12
100
AcDbLine
 10
485.4321805514995
 20
18.78041421262813
 30
0.0000000000000000
 11
503.2765788964694
 21
18.78041421262813
 31
0.0000000000000000
  0
LINE
  5
558
100
AcDbEntity
  8
WAKU0
  6
CENTER
 62
12
100
AcDbLine
 10
489.4474565857986
 20
14.55921662918448
 30
0.0000000000000000
 11
489.4474565857986
 21
22.89865102149943
 31
0.0000000000000000
  0
LINE
  5
559
100
AcDbEntity
  8
WAKU0
  6
CONTINUOUS
 62
3
100
AcDbLine
 10
495.9336941228225
 20
20.28041421262797
 30
0.0000000000000000
 11
502.4713877753800
 21
21.78041421262795
 31
0.0000000000000000
  0
LINE
  5
55A
100
AcDbEntity
  8
WAKU0
  6
CONTINUOUS
 62
3
100
AcDbLine
 10
495.9336941228225
 20
17.28041421262811
 30
0.0000000000000000
 11
502.4713877753799
 21
15.78041421262812
 31
0.0000000000000000
  0
CIRCLE
  5
55B
100
AcDbEntity
  8
WAKU0
  6
CONTINUOUS
 62
3
100
AcDbCircle
 10
489.4474565857986
 20
18.78041421262813
 30
0.0000000000000000
 40
1.499999999999972
  0
CIRCLE
  5
55C
100
AcDbEntity
  8
WAKU0
  6
CONTINUOUS
 62
3
100
AcDbCircle
 10
489.4474565857986
 20
18.78041421262813
 30
0.0000000000000000
 40
2.999999999999979
  0
ENDSEC
  0
SECTION
  2
OBJECTS
  0
DICTIONARY
  5
5AD
100
AcDbDictionary
  3
ACAD_GROUP
350
5AE
  3
ACAD_MLINESTYLE
350
5AF
  3
DWGPROPS
350
5B0
  0
DICTIONARY
  5
5AE
102
{ACAD_REACTORS
330
5AD
102
}
100
AcDbDictionary
  0
DICTIONARY
  5
5AF
102
{ACAD_REACTORS
330
5AD
102
}
100
AcDbDictionary
  3
STANDARD
350
5B1
  0
MLINESTYLE
  5
5B1
102
{ACAD_REACTORS
330
5AF
102
}
100
AcDbMlineStyle
  2
STANDARD
 70
     0
  3

 62
   256
 51
90.00
 52
90.00
 71
     2
 49
0.50
 62
   256
  6
BYLAYER
 49
-0.50
 62
   256
  6
BYLAYER
  0
XRECORD
  5
5B0
102
{ACAD_REACTORS
330
5AD
102
}
100
AcDbXrecord
280
     1
  1
DWGPROPS COOKIE
  2
Ｍ１３３０ＲＡ　ガイケイ
  3

  4

  6
回転油圧シリンダ
  7

  8

  9

300
=
301
=
302
=
303
=
304
=
305
=
306
=
307
=
308
=
309
=
 40
0.000000
 41
0.000000
 42
0.000000
  1

 90
        0
  0
ENDSEC
  0
EOF
