  0
SECTION
  2
HEADER
  9
$ACADVER
  1
AC1014
  9
$DWGCODEPAGE
  3
ANSI_932
  9
$LTSCALE
 40
20.0
  9
$FILLMODE
 70
     1
  9
$CLAYER
  8
0
  9
$PDMODE
 70
     0
  9
$SPLFRAME
 70
     0
  9
$SPLINETYPE
 70
     6
  9
$SPLINESEGS
 70
     8
  9
$DIMASZ
 40
2.000000
  9
$DIMEXE
 40
2.000000
  9
$DIMEXO
 40
0.800000
  9
$DIMTAD
 70
     1
  9
$DIMTIH
 70
     0
  9
$DIMTOH
 70
     0
  9
$DIMTVP
 40
0.500000
  9
$DIMTXT
 40
3.100000
  9
$EXTMIN
 10
0.000000
 20
0.000000
 30
0.000000
  9
$EXTMAX
 10
420.000000
 20
594.000000
 30
0.000000
  9
$MEASUREMENT
 70
  1
  9
$LIMMIN
 10
0.000000
 20
0.000000
  9
$LIMMAX
 10
420.000000
 20
594.000000
  9
$HANDLING
 70
     1
  9
$HANDSEED
  5
5DB
  9
$DIMBLK
  1
_OPEN
  9
$DIMDEC
 70
     3
  9
$DIMAUNIT
 70
     1
  9
$DIMZIN
 70
     8
  9
$DIMTOFL
 70
     1
  0
ENDSEC
  0
SECTION
  2
CLASSES
  0
ENDSEC
  0
SECTION
  2
TABLES
  0
TABLE
  2
VPORT
  5
583
100
AcDbSymbolTable
 70
     1
  0
VPORT
  5
584
100
AcDbSymbolTableRecord
100
AcDbViewportTableRecord
  2
*ACTIVE
 70
     0
 12
297.000000
 22
210.000000
 40
420.000000
 41
1.414286
  0
ENDTAB
  0
TABLE
  2
LTYPE
  5
585
100
AcDbSymbolTable
 70
     4
  0
LTYPE
  5
586
100
AcDbSymbolTableRecord
100
AcDbLinetypeTableRecord
  2
BYBLOCK
 70
     0
  3

 72
    65
 73
     0
 40
0.0
  0
LTYPE
  5
587
100
AcDbSymbolTableRecord
100
AcDbLinetypeTableRecord
  2
BYLAYER
 70
     0
  3

 72
    65
 73
     0
 40
0.0
  0
LTYPE
  5
588
100
AcDbSymbolTableRecord
100
AcDbLinetypeTableRecord
  2
CONTINUOUS
 70
     0
  3
Solid line (NEC CAE2D for Win R14.2 : 2021.07.14)
 72
    65
 73
     0
 40
0.0
  0
LTYPE
  5
589
100
AcDbSymbolTableRecord
100
AcDbLinetypeTableRecord
  2
HIDDEN
 70
     0
  3
__ __ __ __ __ __ __ __ __ __ __ __ __ __
 72
    65
 73
     2
 40
0.375
 49
0.25
 74
     0
 49
-0.125
 74
     0
  0
LTYPE
  5
58A
100
AcDbSymbolTableRecord
100
AcDbLinetypeTableRecord
  2
CENTER
 70
     0
  3
____ _ ____ _ ____ _ ____ _ ____ _ ____
 72
    65
 73
     4
 40
2.0
 49
1.25
 74
     0
 49
-0.25
 74
     0
 49
0.25
 74
     0
 49
-0.25
 74
     0
  0
LTYPE
  5
58B
100
AcDbSymbolTableRecord
100
AcDbLinetypeTableRecord
  2
PHANTOM
 70
     0
  3
______  __  __  ______  __  __  ______ 
 72
    65
 73
     6
 40
2.5
 49
1.25
 74
     0
 49
-0.25
 74
     0
 49
0.25
 74
     0
 49
-0.25
 74
     0
 49
0.25
 74
     0
 49
-0.25
 74
     0
  0
ENDTAB
  0
TABLE
  2
LAYER
  5
58C
100
AcDbSymbolTable
 70
     9
  0
LAYER
  5
58D
100
AcDbSymbolTableRecord
100
AcDbLayerTableRecord
  2
0
 70
     0
 62
     7
  6
CONTINUOUS
  0
LAYER
  5
58E
100
AcDbSymbolTableRecord
100
AcDbLayerTableRecord
  2
MAIN0
 70
     0
 62
     7
  6
CONTINUOUS
  0
LAYER
  5
58F
100
AcDbSymbolTableRecord
100
AcDbLayerTableRecord
  2
MAIN1
 70
     0
 62
     7
  6
CONTINUOUS
  0
LAYER
  5
590
100
AcDbSymbolTableRecord
100
AcDbLayerTableRecord
  2
MAIN2
 70
     0
 62
     7
  6
CONTINUOUS
  0
LAYER
  5
591
100
AcDbSymbolTableRecord
100
AcDbLayerTableRecord
  2
MAIN4
 70
     0
 62
     7
  6
CONTINUOUS
  0
LAYER
  5
592
100
AcDbSymbolTableRecord
100
AcDbLayerTableRecord
  2
MAIN10
 70
     0
 62
     7
  6
CONTINUOUS
  0
LAYER
  5
593
100
AcDbSymbolTableRecord
100
AcDbLayerTableRecord
  2
MAIN1023
 70
     0
 62
    16
  6
CONTINUOUS
  0
LAYER
  5
594
100
AcDbSymbolTableRecord
100
AcDbLayerTableRecord
  2
WAKU0
 70
     0
 62
     7
  6
CONTINUOUS
  0
LAYER
  5
595
100
AcDbSymbolTableRecord
100
AcDbLayerTableRecord
  2
WAKU1023
 70
     0
 62
    16
  6
CONTINUOUS
  0
ENDTAB
  0
TABLE
  2
STYLE
  5
596
100
AcDbSymbolTable
 70
     4
  0
STYLE
  5
597
100
AcDbSymbolTableRecord
100
AcDbTextStyleTableRecord
  2
STANDARD
 70
    64
 40
0.0
 41
1.0
 50
0.0
 71
     0
 42
3.140094041824341
  3
TXT
  4

  0
STYLE
  5
598
100
AcDbSymbolTableRecord
100
AcDbTextStyleTableRecord
  2
ANKTATE
 70
    68
 40
0.0
 41
1.0
 50
0.0
 71
     0
 42
3.140094041824341
  3
TXT
  4

  0
STYLE
  5
241
100
AcDbSymbolTableRecord
100
AcDbTextStyleTableRecord
  2
KNJYOKO
 70
    64
 40
0.0
 41
1.0
 50
0.0
 71
     0
 42
3.140094041824341
  3
TXT
  4
BIGFONT
  0
STYLE
  5
599
100
AcDbSymbolTableRecord
100
AcDbTextStyleTableRecord
  2
KNJTATE
 70
    68
 40
0.0
 41
1.0
 50
0.0
 71
     0
 42
3.140094041824341
  3
TXT
  4
BIGFONT
  0
ENDTAB
  0
TABLE
  2
VIEW
  5
59A
100
AcDbSymbolTable
 70
     0
  0
ENDTAB
  0
TABLE
  2
UCS
  5
59B
100
AcDbSymbolTable
 70
     0
  0
ENDTAB
  0
TABLE
  2
APPID
  5
59C
100
AcDbSymbolTable
 70
     1
  0
APPID
  5
59D
100
AcDbSymbolTableRecord
100
AcDbRegAppTableRecord
  2
ACAD
 70
     0
  0
ENDTAB
  0
TABLE
  2
DIMSTYLE
  5
59E
100
AcDbSymbolTable
 70
     1
  0
DIMSTYLE
105
59F
100
AcDbSymbolTableRecord
100
AcDbDimStyleTableRecord
  2
STANDARD
 70
     0
 41
2.000000
 44
2.000000
 42
0.800000
145
0.661290
140
3.100000
144
1.000000
146
0.903226
340
597
  0
DIMSTYLE
105
5A0
100
AcDbSymbolTableRecord
100
AcDbDimStyleTableRecord
  2
MAIN001
 70
     0
 41
2.000000
 44
2.000000
 42
0.800000
145
0.661290
140
3.100000
144
1.000000
146
0.903226
 77
     1
 73
     0
 74
     0
271
     3
275
     1
 78
     8
172
     1
340
597
  0
DIMSTYLE
105
5A1
100
AcDbSymbolTableRecord
100
AcDbDimStyleTableRecord
  2
WAKU002
 70
     0
 41
2.000000
 44
2.000000
 42
0.800000
145
0.661290
140
3.100000
144
1.000000
146
0.903226
 77
     1
 73
     0
 74
     0
271
     3
275
     1
 78
     8
172
     1
340
597
  0
ENDTAB
  0
TABLE
  2
BLOCK_RECORD
  5
5A2
100
AcDbSymbolTable
 70
    57
  0
BLOCK_RECORD
  5
5A3
100
AcDbSymbolTableRecord
100
AcDbBlockTableRecord
  2
*MODEL_SPACE
  0
BLOCK_RECORD
  5
5A4
100
AcDbSymbolTableRecord
100
AcDbBlockTableRecord
  2
*PAPER_SPACE
  0
BLOCK_RECORD
  5
1
100
AcDbSymbolTableRecord
100
AcDbBlockTableRecord
  2
_NONE
  0
BLOCK_RECORD
  5
4
100
AcDbSymbolTableRecord
100
AcDbBlockTableRecord
  2
_CLOSED
  0
BLOCK_RECORD
  5
B
100
AcDbSymbolTableRecord
100
AcDbBlockTableRecord
  2
_DOT
  0
BLOCK_RECORD
  5
13
100
AcDbSymbolTableRecord
100
AcDbBlockTableRecord
  2
_OPEN
  0
BLOCK_RECORD
  5
19
100
AcDbSymbolTableRecord
100
AcDbBlockTableRecord
  2
_ORIGIN
  0
BLOCK_RECORD
  5
1E
100
AcDbSymbolTableRecord
100
AcDbBlockTableRecord
  2
_OPEN30
  0
BLOCK_RECORD
  5
24
100
AcDbSymbolTableRecord
100
AcDbBlockTableRecord
  2
_BOXFILLED
  0
BLOCK_RECORD
  5
29
100
AcDbSymbolTableRecord
100
AcDbBlockTableRecord
  2
_BOXBLANK
  0
BLOCK_RECORD
  5
31
100
AcDbSymbolTableRecord
100
AcDbBlockTableRecord
  2
_OBLIQUE
  0
BLOCK_RECORD
  5
35
100
AcDbSymbolTableRecord
100
AcDbBlockTableRecord
  2
_OPEN90
  0
BLOCK_RECORD
  5
3B
100
AcDbSymbolTableRecord
100
AcDbBlockTableRecord
  2
_CLOSEDBLANK
  0
BLOCK_RECORD
  5
41
100
AcDbSymbolTableRecord
100
AcDbBlockTableRecord
  2
_DOTBLANK
  0
BLOCK_RECORD
  5
5A5
100
AcDbSymbolTableRecord
100
AcDbBlockTableRecord
  2
*D0
  0
BLOCK_RECORD
  5
5A6
100
AcDbSymbolTableRecord
100
AcDbBlockTableRecord
  2
*D1
  0
BLOCK_RECORD
  5
5A7
100
AcDbSymbolTableRecord
100
AcDbBlockTableRecord
  2
*D2
  0
BLOCK_RECORD
  5
5A8
100
AcDbSymbolTableRecord
100
AcDbBlockTableRecord
  2
*D3
  0
BLOCK_RECORD
  5
5A9
100
AcDbSymbolTableRecord
100
AcDbBlockTableRecord
  2
*D4
  0
BLOCK_RECORD
  5
5AA
100
AcDbSymbolTableRecord
100
AcDbBlockTableRecord
  2
*D5
  0
BLOCK_RECORD
  5
5AB
100
AcDbSymbolTableRecord
100
AcDbBlockTableRecord
  2
*D6
  0
BLOCK_RECORD
  5
5AC
100
AcDbSymbolTableRecord
100
AcDbBlockTableRecord
  2
M0
  0
BLOCK_RECORD
  5
5AD
100
AcDbSymbolTableRecord
100
AcDbBlockTableRecord
  2
M1
  0
BLOCK_RECORD
  5
5AE
100
AcDbSymbolTableRecord
100
AcDbBlockTableRecord
  2
*D7
  0
BLOCK_RECORD
  5
5AF
100
AcDbSymbolTableRecord
100
AcDbBlockTableRecord
  2
M2
  0
BLOCK_RECORD
  5
5B0
100
AcDbSymbolTableRecord
100
AcDbBlockTableRecord
  2
*D8
  0
BLOCK_RECORD
  5
5B1
100
AcDbSymbolTableRecord
100
AcDbBlockTableRecord
  2
*D9
  0
BLOCK_RECORD
  5
5B2
100
AcDbSymbolTableRecord
100
AcDbBlockTableRecord
  2
*D10
  0
BLOCK_RECORD
  5
5B3
100
AcDbSymbolTableRecord
100
AcDbBlockTableRecord
  2
*D11
  0
BLOCK_RECORD
  5
5B4
100
AcDbSymbolTableRecord
100
AcDbBlockTableRecord
  2
*D12
  0
BLOCK_RECORD
  5
5B5
100
AcDbSymbolTableRecord
100
AcDbBlockTableRecord
  2
*D13
  0
BLOCK_RECORD
  5
5B6
100
AcDbSymbolTableRecord
100
AcDbBlockTableRecord
  2
*D14
  0
BLOCK_RECORD
  5
5B7
100
AcDbSymbolTableRecord
100
AcDbBlockTableRecord
  2
*D15
  0
BLOCK_RECORD
  5
5B8
100
AcDbSymbolTableRecord
100
AcDbBlockTableRecord
  2
*D16
  0
BLOCK_RECORD
  5
5B9
100
AcDbSymbolTableRecord
100
AcDbBlockTableRecord
  2
*D17
  0
BLOCK_RECORD
  5
5BA
100
AcDbSymbolTableRecord
100
AcDbBlockTableRecord
  2
D18
  0
BLOCK_RECORD
  5
5BB
100
AcDbSymbolTableRecord
100
AcDbBlockTableRecord
  2
*D19
  0
BLOCK_RECORD
  5
5BC
100
AcDbSymbolTableRecord
100
AcDbBlockTableRecord
  2
*D20
  0
BLOCK_RECORD
  5
5BD
100
AcDbSymbolTableRecord
100
AcDbBlockTableRecord
  2
*D21
  0
BLOCK_RECORD
  5
5BE
100
AcDbSymbolTableRecord
100
AcDbBlockTableRecord
  2
*D22
  0
BLOCK_RECORD
  5
5BF
100
AcDbSymbolTableRecord
100
AcDbBlockTableRecord
  2
*D23
  0
BLOCK_RECORD
  5
5C0
100
AcDbSymbolTableRecord
100
AcDbBlockTableRecord
  2
M3
  0
BLOCK_RECORD
  5
5C1
100
AcDbSymbolTableRecord
100
AcDbBlockTableRecord
  2
*D24
  0
BLOCK_RECORD
  5
5C2
100
AcDbSymbolTableRecord
100
AcDbBlockTableRecord
  2
*D25
  0
BLOCK_RECORD
  5
5C3
100
AcDbSymbolTableRecord
100
AcDbBlockTableRecord
  2
*D26
  0
BLOCK_RECORD
  5
5C4
100
AcDbSymbolTableRecord
100
AcDbBlockTableRecord
  2
*D27
  0
BLOCK_RECORD
  5
5C5
100
AcDbSymbolTableRecord
100
AcDbBlockTableRecord
  2
D28
  0
BLOCK_RECORD
  5
5C6
100
AcDbSymbolTableRecord
100
AcDbBlockTableRecord
  2
D29
  0
BLOCK_RECORD
  5
5C7
100
AcDbSymbolTableRecord
100
AcDbBlockTableRecord
  2
*D30
  0
BLOCK_RECORD
  5
5C8
100
AcDbSymbolTableRecord
100
AcDbBlockTableRecord
  2
*D31
  0
BLOCK_RECORD
  5
5C9
100
AcDbSymbolTableRecord
100
AcDbBlockTableRecord
  2
*D32
  0
BLOCK_RECORD
  5
5CA
100
AcDbSymbolTableRecord
100
AcDbBlockTableRecord
  2
*D33
  0
BLOCK_RECORD
  5
5CB
100
AcDbSymbolTableRecord
100
AcDbBlockTableRecord
  2
*D34
  0
BLOCK_RECORD
  5
5CC
100
AcDbSymbolTableRecord
100
AcDbBlockTableRecord
  2
M4
  0
BLOCK_RECORD
  5
5CD
100
AcDbSymbolTableRecord
100
AcDbBlockTableRecord
  2
M5
  0
BLOCK_RECORD
  5
5CE
100
AcDbSymbolTableRecord
100
AcDbBlockTableRecord
  2
*X0
  0
BLOCK_RECORD
  5
5CF
100
AcDbSymbolTableRecord
100
AcDbBlockTableRecord
  2
*X1
  0
BLOCK_RECORD
  5
5D0
100
AcDbSymbolTableRecord
100
AcDbBlockTableRecord
  2
*X2
  0
BLOCK_RECORD
  5
5D1
100
AcDbSymbolTableRecord
100
AcDbBlockTableRecord
  2
*X3
  0
ENDTAB
  0
ENDSEC
  0
SECTION
  2
BLOCKS
  0
BLOCK
  5
5D2
100
AcDbEntity
  8
0
100
AcDbBlockBegin
  2
*MODEL_SPACE
 70
     0
 10
0.0
 20
0.0
 30
0.0
  3
*MODEL_SPACE
  1

  0
ENDBLK
  5
5D3
100
AcDbEntity
  8
0
100
AcDbBlockEnd
  0
BLOCK
  5
5D4
100
AcDbEntity
  8
0
100
AcDbBlockBegin
  2
*PAPER_SPACE
 70
     0
 10
0.0
 20
0.0
 30
0.0
  3
*PAPER_SPACE
  1

  0
ENDBLK
  5
5D5
100
AcDbEntity
  8
0
100
AcDbBlockEnd
  0
BLOCK
  5
2
100
AcDbEntity
  8
0
100
AcDbBlockBegin
  2
_NONE
 70
     0
 10
0.0
 20
0.0
 30
0.0
  3
_NONE
  1

  0
ENDBLK
  5
3
100
AcDbEntity
  8
0
100
AcDbBlockEnd
  0
BLOCK
  5
5
100
AcDbEntity
  8
0
100
AcDbBlockBegin
  2
_CLOSED
 70
     0
 10
0.0
 20
0.0
 30
0.0
  3
_CLOSED
  1

  0
LINE
  5
6
100
AcDbEntity
  8
0
  6
BYBLOCK
 62
     0
100
AcDbLine
 10
-1.0
 20
0.166667
 30
0.0
 11
0.0
 21
0.0
 31
0.0
  0
LINE
  5
7
100
AcDbEntity
  8
0
  6
BYBLOCK
 62
     0
100
AcDbLine
 10
0.0
 20
0.0
 30
0.0
 11
-1.0
 21
-0.166667
 31
0.0
  0
LINE
  5
8
100
AcDbEntity
  8
0
  6
BYBLOCK
 62
     0
100
AcDbLine
 10
-1.0
 20
0.166667
 30
0.0
 11
-1.0
 21
-0.166667
 31
0.0
  0
LINE
  5
9
100
AcDbEntity
  8
0
  6
BYBLOCK
 62
     0
100
AcDbLine
 10
0.0
 20
0.0
 30
0.0
 11
-1.0
 21
0.0
 31
0.0
  0
ENDBLK
  5
A
100
AcDbEntity
  8
0
100
AcDbBlockEnd
  0
BLOCK
  5
C
100
AcDbEntity
  8
0
100
AcDbBlockBegin
  2
_DOT
 70
     0
 10
0.0
 20
0.0
 30
0.0
  3
_DOT
  1

  0
POLYLINE
  5
D
100
AcDbEntity
  8
0
  6
BYBLOCK
 62
     0
100
AcDb2dPolyline
 66
     1
 10
0.0
 20
0.0
 30
0.0
 70
     1
 40
0.5
 41
0.5
  0
VERTEX
  5
E
100
AcDbEntity
  8
0
  6
BYBLOCK
 62
     0
100
AcDbVertex
100
AcDb2dVertex
 10
-0.25
 20
0.0
 30
0.0
 42
1.0
  0
VERTEX
  5
F
100
AcDbEntity
  8
0
  6
BYBLOCK
 62
     0
100
AcDbVertex
100
AcDb2dVertex
 10
0.25
 20
0.0
 30
0.0
 42
1.0
  0
SEQEND
  5
10
100
AcDbEntity
  8
0
  6
BYBLOCK
 62
     0
  0
LINE
  5
11
100
AcDbEntity
  8
0
  6
BYBLOCK
 62
     0
100
AcDbLine
 10
-0.5
 20
0.0
 30
0.0
 11
-1.0
 21
0.0
 31
0.0
  0
ENDBLK
  5
12
100
AcDbEntity
  8
0
100
AcDbBlockEnd
  0
BLOCK
  5
14
100
AcDbEntity
  8
0
100
AcDbBlockBegin
  2
_OPEN
 70
     0
 10
0.0
 20
0.0
 30
0.0
  3
_OPEN
  1

  0
LINE
  5
15
100
AcDbEntity
  8
0
  6
BYBLOCK
 62
     0
100
AcDbLine
 10
-1.0
 20
0.166667
 30
0.0
 11
0.0
 21
0.0
 31
0.0
  0
LINE
  5
16
100
AcDbEntity
  8
0
  6
BYBLOCK
 62
     0
100
AcDbLine
 10
0.0
 20
0.0
 30
0.0
 11
-1.0
 21
-0.166667
 31
0.0
  0
LINE
  5
17
100
AcDbEntity
  8
0
  6
BYBLOCK
 62
     0
100
AcDbLine
 10
0.0
 20
0.0
 30
0.0
 11
-1.0
 21
0.0
 31
0.0
  0
ENDBLK
  5
18
100
AcDbEntity
  8
0
100
AcDbBlockEnd
  0
BLOCK
  5
1A
100
AcDbEntity
  8
0
100
AcDbBlockBegin
  2
_ORIGIN
 70
     0
 10
0.0
 20
0.0
 30
0.0
  3
_ORIGIN
  1

  0
CIRCLE
  5
1B
100
AcDbEntity
  8
0
  6
BYBLOCK
 62
     0
100
AcDbCircle
 10
0.0
 20
0.0
 30
0.0
 40
0.5
  0
LINE
  5
1C
100
AcDbEntity
  8
0
  6
BYBLOCK
 62
     0
100
AcDbLine
 10
0.0
 20
0.0
 30
0.0
 11
-1.0
 21
0.0
 31
0.0
  0
ENDBLK
  5
1D
100
AcDbEntity
  8
0
100
AcDbBlockEnd
  0
BLOCK
  5
1F
100
AcDbEntity
  8
0
100
AcDbBlockBegin
  2
_OPEN30
 70
     0
 10
0.0
 20
0.0
 30
0.0
  3
_OPEN30
  1

  0
LINE
  5
20
100
AcDbEntity
  8
0
  6
BYBLOCK
 62
     0
100
AcDbLine
 10
-1.0
 20
0.267949
 30
0.0
 11
0.0
 21
0.0
 31
0.0
  0
LINE
  5
21
100
AcDbEntity
  8
0
  6
BYBLOCK
 62
     0
100
AcDbLine
 10
0.0
 20
0.0
 30
0.0
 11
-1.0
 21
-0.267949
 31
0.0
  0
LINE
  5
22
100
AcDbEntity
  8
0
  6
BYBLOCK
 62
     0
100
AcDbLine
 10
0.0
 20
0.0
 30
0.0
 11
-1.0
 21
0.0
 31
0.0
  0
ENDBLK
  5
23
100
AcDbEntity
  8
0
100
AcDbBlockEnd
  0
BLOCK
  5
25
100
AcDbEntity
  8
0
100
AcDbBlockBegin
  2
_BOXFILLED
 70
     0
 10
0.0
 20
0.0
 30
0.0
  3
_BOXFILLED
  1

  0
SOLID
  5
26
100
AcDbEntity
  8
0
  6
BYBLOCK
 62
     0
100
AcDbTrace
 10
-0.5
 20
0.5
 30
0.0
 11
0.5
 21
0.5
 31
0.0
 12
-0.5
 22
-0.5
 32
0.0
 13
0.5
 23
-0.5
 33
0.0
  0
LINE
  5
27
100
AcDbEntity
  8
0
  6
BYBLOCK
 62
     0
100
AcDbLine
 10
-0.5
 20
0.0
 30
0.0
 11
-1.0
 21
0.0
 31
0.0
  0
ENDBLK
  5
28
100
AcDbEntity
  8
0
100
AcDbBlockEnd
  0
BLOCK
  5
2A
100
AcDbEntity
  8
0
100
AcDbBlockBegin
  2
_BOXBLANK
 70
     0
 10
0.0
 20
0.0
 30
0.0
  3
_BOXBLANK
  1

  0
LINE
  5
2B
100
AcDbEntity
  8
0
  6
BYBLOCK
 62
     0
100
AcDbLine
 10
-0.5
 20
-0.5
 30
0.0
 11
0.5
 21
-0.5
 31
0.0
  0
LINE
  5
2C
100
AcDbEntity
  8
0
  6
BYBLOCK
 62
     0
100
AcDbLine
 10
0.5
 20
-0.5
 30
0.0
 11
0.5
 21
0.5
 31
0.0
  0
LINE
  5
2D
100
AcDbEntity
  8
0
  6
BYBLOCK
 62
     0
100
AcDbLine
 10
0.5
 20
0.5
 30
0.0
 11
-0.5
 21
0.5
 31
0.0
  0
LINE
  5
2E
100
AcDbEntity
  8
0
  6
BYBLOCK
 62
     0
100
AcDbLine
 10
-0.5
 20
0.5
 30
0.0
 11
-0.5
 21
-0.5
 31
0.0
  0
LINE
  5
2F
100
AcDbEntity
  8
0
  6
BYBLOCK
 62
     0
100
AcDbLine
 10
-0.5
 20
0.0
 30
0.0
 11
-1.0
 21
0.0
 31
0.0
  0
ENDBLK
  5
30
100
AcDbEntity
  8
0
100
AcDbBlockEnd
  0
BLOCK
  5
32
100
AcDbEntity
  8
0
100
AcDbBlockBegin
  2
_OBLIQUE
 70
     0
 10
0.0
 20
0.0
 30
0.0
  3
_OBLIQUE
  1

  0
LINE
  5
33
100
AcDbEntity
  8
0
  6
BYBLOCK
 62
     0
100
AcDbLine
 10
-0.5
 20
-0.5
 30
0.0
 11
0.5
 21
0.5
 31
0.0
  0
ENDBLK
  5
34
100
AcDbEntity
  8
0
100
AcDbBlockEnd
  0
BLOCK
  5
36
100
AcDbEntity
  8
0
100
AcDbBlockBegin
  2
_OPEN90
 70
     0
 10
0.0
 20
0.0
 30
0.0
  3
_OPEN90
  1

  0
LINE
  5
37
100
AcDbEntity
  8
0
  6
BYBLOCK
 62
     0
100
AcDbLine
 10
-0.5
 20
0.5
 30
0.0
 11
0.0
 21
0.0
 31
0.0
  0
LINE
  5
38
100
AcDbEntity
  8
0
  6
BYBLOCK
 62
     0
100
AcDbLine
 10
0.0
 20
0.0
 30
0.0
 11
-0.5
 21
-0.5
 31
0.0
  0
LINE
  5
39
100
AcDbEntity
  8
0
  6
BYBLOCK
 62
     0
100
AcDbLine
 10
0.0
 20
0.0
 30
0.0
 11
-1.0
 21
0.0
 31
0.0
  0
ENDBLK
  5
3A
100
AcDbEntity
  8
0
100
AcDbBlockEnd
  0
BLOCK
  5
3C
100
AcDbEntity
  8
0
100
AcDbBlockBegin
  2
_CLOSEDBLANK
 70
     0
 10
0.0
 20
0.0
 30
0.0
  3
_CLOSEDBLANK
  1

  0
LINE
  5
3D
100
AcDbEntity
  8
0
  6
BYBLOCK
 62
     0
100
AcDbLine
 10
-1.0
 20
0.1666666666666666
 30
0.0
 11
0.0
 21
0.0
 31
0.0
  0
LINE
  5
3E
100
AcDbEntity
  8
0
  6
BYBLOCK
 62
     0
100
AcDbLine
 10
0.0
 20
0.0
 30
0.0
 11
-1.0
 21
-0.1666666666666666
 31
0.0
  0
LINE
  5
3F
100
AcDbEntity
  8
0
  6
BYBLOCK
 62
     0
100
AcDbLine
 10
-1.0
 20
0.1666666666666666
 30
0.0
 11
-1.0
 21
-0.1666666666666666
 31
0.0
  0
ENDBLK
  5
40
100
AcDbEntity
  8
0
100
AcDbBlockEnd
  0
BLOCK
  5
42
100
AcDbEntity
  8
0
100
AcDbBlockBegin
  2
_DOTBLANK
 70
     0
 10
0.0
 20
0.0
 30
0.0
  3
_DOTBLANK
  1

  0
CIRCLE
  5
43
100
AcDbEntity
  8
0
  6
BYBLOCK
 62
     0
100
AcDbCircle
 10
0.0
 20
0.0
 30
0.0
 40
0.5
  0
LINE
  5
44
100
AcDbEntity
  8
0
  6
BYBLOCK
 62
     0
100
AcDbLine
 10
-0.5
 20
0.0
 30
0.0
 11
-1.0
 21
0.0
 31
0.0
  0
ENDBLK
  5
45
100
AcDbEntity
  8
0
100
AcDbBlockEnd
  0
BLOCK
  5
E5
100
AcDbEntity
  8
MAIN0
  6
CONTINUOUS
 62
3
100
AcDbBlockBegin
  2
*D0
 70
    65
 10
0.0
 20
0.0
 30
0.0
  0
LINE
  5
E6
100
AcDbEntity
  8
MAIN0
  6
BYBLOCK
 62
0
100
AcDbLine
 10
509.4335522606414
 20
253.5008699639281
 30
0.0000000000000000
 11
526.4995776530583
 21
253.5008699639281
 31
0.0000000000000000
  0
LINE
  5
E7
100
AcDbEntity
  8
MAIN0
  6
BYBLOCK
 62
0
100
AcDbLine
 10
524.4995776530583
 20
251.5008699639281
 30
0.0000000000000000
 11
524.4995776530583
 21
233.5008699639281
 31
0.0000000000000000
  0
INSERT
  5
E8
100
AcDbEntity
  8
MAIN0
  6
BYBLOCK
 62
0
100
AcDbBlockReference
  2
_OPEN
 10
524.4995776530583
 20
253.5008699639281
 30
0.0000000000000000
 41
2.000000000000000
 42
2.000000000000000
 43
2.000000000000000
 50
90.00000000000000
  0
INSERT
  5
E9
100
AcDbEntity
  8
MAIN0
  6
BYBLOCK
 62
0
100
AcDbBlockReference
  2
_OPEN
 10
524.4995776530583
 20
231.5008699639281
 30
0.0000000000000000
 41
2.000000000000000
 42
2.000000000000000
 43
2.000000000000000
 50
270.0000000000000
  0
LINE
  5
EA
100
AcDbEntity
  8
MAIN0
  6
BYBLOCK
 62
0
100
AcDbLine
 10
509.4335522606414
 20
231.5008699639281
 30
0.0000000000000000
 11
526.4995776530583
 21
231.5008699639281
 31
0.0000000000000000
  0
MTEXT
  5
EB
100
AcDbEntity
  8
MAIN0
  6
BYBLOCK
 62
0
100
AcDbMText
 10
522.4495777007420
 20
242.5008699639281
 30
0.0000000000000000
 40
3.099999904632568
 41
0.0000000000000000
 71
     5
 72
     1
  1
\A1;\U+220522H8
 11
6.123233995736766e-017
 21
1.000000000000000
 31
0.0000000000000000
  7
STANDARD
  0
ENDBLK
  5
EC
100
AcDbEntity
  8
MAIN0
  6
CONTINUOUS
 62
3
100
AcDbBlockEnd
  0
BLOCK
  5
EE
100
AcDbEntity
  8
MAIN0
  6
CONTINUOUS
 62
3
100
AcDbBlockBegin
  2
*D1
 70
    65
 10
0.0
 20
0.0
 30
0.0
  0
LINE
  5
EF
100
AcDbEntity
  8
MAIN0
  6
BYBLOCK
 62
0
100
AcDbLine
 10
493.4335522617570
 20
257.5008699639280
 30
0.0000000000000000
 11
536.4995776530583
 21
257.5008699639280
 31
0.0000000000000000
  0
LINE
  5
F0
100
AcDbEntity
  8
MAIN0
  6
BYBLOCK
 62
0
100
AcDbLine
 10
534.4995776530583
 20
255.5008699639281
 30
0.0000000000000000
 11
534.4995776530583
 21
229.5008699639281
 31
0.0000000000000000
  0
INSERT
  5
F1
100
AcDbEntity
  8
MAIN0
  6
BYBLOCK
 62
0
100
AcDbBlockReference
  2
_OPEN
 10
534.4995776530583
 20
257.5008699639280
 30
0.0000000000000000
 41
2.000000000000000
 42
2.000000000000000
 43
2.000000000000000
 50
90.00000000000000
  0
INSERT
  5
F2
100
AcDbEntity
  8
MAIN0
  6
BYBLOCK
 62
0
100
AcDbBlockReference
  2
_OPEN
 10
534.4995776530583
 20
227.5008699639281
 30
0.0000000000000000
 41
2.000000000000000
 42
2.000000000000000
 43
2.000000000000000
 50
270.0000000000000
  0
LINE
  5
F3
100
AcDbEntity
  8
MAIN0
  6
BYBLOCK
 62
0
100
AcDbLine
 10
493.4335522617571
 20
227.5008699639281
 30
0.0000000000000000
 11
536.4995776530583
 21
227.5008699639281
 31
0.0000000000000000
  0
MTEXT
  5
F4
100
AcDbEntity
  8
MAIN0
  6
BYBLOCK
 62
0
100
AcDbMText
 10
532.4495777007420
 20
242.5008699639281
 30
0.0000000000000000
 40
3.099999904632568
 41
0.0000000000000000
 71
     5
 72
     1
  1
\A1;\U+220530
 11
6.123233995736766e-017
 21
1.000000000000000
 31
0.0000000000000000
  7
STANDARD
  0
ENDBLK
  5
F5
100
AcDbEntity
  8
MAIN0
  6
CONTINUOUS
 62
3
100
AcDbBlockEnd
  0
BLOCK
  5
F7
100
AcDbEntity
  8
MAIN0
  6
CONTINUOUS
 62
3
100
AcDbBlockBegin
  2
*D2
 70
    65
 10
0.0
 20
0.0
 30
0.0
  0
LINE
  5
F8
100
AcDbEntity
  8
MAIN0
  6
BYBLOCK
 62
0
100
AcDbLine
 10
479.4995776530583
 20
231.7008699520071
 30
0.0000000000000000
 11
479.4995776530583
 21
204.5008699639281
 31
0.0000000000000000
  0
LINE
  5
F9
100
AcDbEntity
  8
MAIN0
  6
BYBLOCK
 62
0
100
AcDbLine
 10
481.4995776530583
 20
206.5008699639281
 30
0.0000000000000000
 11
507.4995776530583
 21
206.5008699639281
 31
0.0000000000000000
  0
INSERT
  5
FA
100
AcDbEntity
  8
MAIN0
  6
BYBLOCK
 62
0
100
AcDbBlockReference
  2
_OPEN
 10
479.4995776530583
 20
206.5008699639281
 30
0.0000000000000000
 41
2.000000000000000
 42
2.000000000000000
 43
2.000000000000000
 50
180.0000000000000
  0
INSERT
  5
FB
100
AcDbEntity
  8
MAIN0
  6
BYBLOCK
 62
0
100
AcDbBlockReference
  2
_OPEN
 10
509.4995776530583
 20
206.5008699639281
 30
0.0000000000000000
 41
2.000000000000000
 42
2.000000000000000
 43
2.000000000000000
 50
0.0000000000000000
  0
LINE
  5
FC
100
AcDbEntity
  8
MAIN0
  6
BYBLOCK
 62
0
100
AcDbLine
 10
509.4995776530583
 20
228.2008699520071
 30
0.0000000000000000
 11
509.4995776530583
 21
204.5008699639281
 31
0.0000000000000000
  0
MTEXT
  5
FD
100
AcDbEntity
  8
MAIN0
  6
BYBLOCK
 62
0
100
AcDbMText
 10
494.4995776530583
 20
208.5508699162444
 30
0.0000000000000000
 40
3.099999904632568
 41
0.0000000000000000
 71
     5
 72
     1
  1
\A1;30
 11
1.000000000000000
 21
0.0000000000000000
 31
0.0000000000000000
  7
STANDARD
  0
ENDBLK
  5
FE
100
AcDbEntity
  8
MAIN0
  6
CONTINUOUS
 62
3
100
AcDbBlockEnd
  0
BLOCK
  5
100
100
AcDbEntity
  8
MAIN0
  6
CONTINUOUS
 62
3
100
AcDbBlockBegin
  2
*D3
 70
    65
 10
0.0
 20
0.0
 30
0.0
  0
LINE
  5
101
100
AcDbEntity
  8
MAIN0
  6
BYBLOCK
 62
0
100
AcDbLine
 10
449.2995776649792
 20
170.0008699639281
 30
0.0000000000000000
 11
566.4995776530583
 21
170.0008699639281
 31
0.0000000000000000
  0
LINE
  5
102
100
AcDbEntity
  8
MAIN0
  6
BYBLOCK
 62
0
100
AcDbLine
 10
564.4995776530583
 20
172.0008699639281
 30
0.0000000000000000
 11
564.4995776530583
 21
313.0008699639280
 31
0.0000000000000000
  0
INSERT
  5
103
100
AcDbEntity
  8
MAIN0
  6
BYBLOCK
 62
0
100
AcDbBlockReference
  2
_OPEN
 10
564.4995776530583
 20
170.0008699639281
 30
0.0000000000000000
 41
2.000000000000000
 42
2.000000000000000
 43
2.000000000000000
 50
270.0000000000000
  0
INSERT
  5
104
100
AcDbEntity
  8
MAIN0
  6
BYBLOCK
 62
0
100
AcDbBlockReference
  2
_OPEN
 10
564.4995776530583
 20
315.0008699639280
 30
0.0000000000000000
 41
2.000000000000000
 42
2.000000000000000
 43
2.000000000000000
 50
90.00000000000000
  0
LINE
  5
105
100
AcDbEntity
  8
MAIN0
  6
BYBLOCK
 62
0
100
AcDbLine
 10
449.2995776649792
 20
315.0008699639280
 30
0.0000000000000000
 11
566.4995776530583
 21
315.0008699639280
 31
0.0000000000000000
  0
MTEXT
  5
106
100
AcDbEntity
  8
MAIN0
  6
BYBLOCK
 62
0
100
AcDbMText
 10
562.4495777007420
 20
242.5008699639281
 30
0.0000000000000000
 40
3.099999904632568
 41
0.0000000000000000
 71
     5
 72
     1
  1
\A1;\U+2205145h7
 11
6.123233995736766e-017
 21
1.000000000000000
 31
0.0000000000000000
  7
STANDARD
  0
ENDBLK
  5
107
100
AcDbEntity
  8
MAIN0
  6
CONTINUOUS
 62
3
100
AcDbBlockEnd
  0
BLOCK
  5
109
100
AcDbEntity
  8
MAIN0
  6
CONTINUOUS
 62
3
100
AcDbBlockBegin
  2
*D4
 70
    65
 10
0.0
 20
0.0
 30
0.0
  0
LINE
  5
10A
100
AcDbEntity
  8
MAIN0
  6
BYBLOCK
 62
0
100
AcDbLine
 10
465.2995776649792
 20
263.5008699639280
 30
0.0000000000000000
 11
546.4995776530583
 21
263.5008699639280
 31
0.0000000000000000
  0
LINE
  5
10B
100
AcDbEntity
  8
MAIN0
  6
BYBLOCK
 62
0
100
AcDbLine
 10
544.4995776530583
 20
261.5008699639280
 30
0.0000000000000000
 11
544.4995776530583
 21
223.5008699639281
 31
0.0000000000000000
  0
INSERT
  5
10C
100
AcDbEntity
  8
MAIN0
  6
BYBLOCK
 62
0
100
AcDbBlockReference
  2
_OPEN
 10
544.4995776530583
 20
263.5008699639280
 30
0.0000000000000000
 41
2.000000000000000
 42
2.000000000000000
 43
2.000000000000000
 50
90.00000000000000
  0
INSERT
  5
10D
100
AcDbEntity
  8
MAIN0
  6
BYBLOCK
 62
0
100
AcDbBlockReference
  2
_OPEN
 10
544.4995776530583
 20
221.5008699639281
 30
0.0000000000000000
 41
2.000000000000000
 42
2.000000000000000
 43
2.000000000000000
 50
270.0000000000000
  0
LINE
  5
10E
100
AcDbEntity
  8
MAIN0
  6
BYBLOCK
 62
0
100
AcDbLine
 10
465.2995776649792
 20
221.5008699639281
 30
0.0000000000000000
 11
546.4995776530583
 21
221.5008699639281
 31
0.0000000000000000
  0
MTEXT
  5
10F
100
AcDbEntity
  8
MAIN0
  6
BYBLOCK
 62
0
100
AcDbMText
 10
542.4495777007420
 20
242.5008699639281
 30
0.0000000000000000
 40
3.099999904632568
 41
0.0000000000000000
 71
     5
 72
     1
  1
\A1;\U+220542
 11
6.123233995736766e-017
 21
1.000000000000000
 31
0.0000000000000000
  7
STANDARD
  0
ENDBLK
  5
110
100
AcDbEntity
  8
MAIN0
  6
CONTINUOUS
 62
3
100
AcDbBlockEnd
  0
BLOCK
  5
20D
100
AcDbEntity
  8
MAIN0
  6
CONTINUOUS
 62
3
100
AcDbBlockBegin
  2
*D5
 70
    65
 10
0.0
 20
0.0
 30
0.0
  0
LINE
  5
20E
100
AcDbEntity
  8
MAIN0
  6
BYBLOCK
 62
0
100
AcDbLine
 10
449.4995776530583
 20
314.8008699758490
 30
0.0000000000000000
 11
449.4995776530583
 21
367.0008699639280
 31
0.0000000000000000
  0
LINE
  5
20F
100
AcDbEntity
  8
MAIN0
  6
BYBLOCK
 62
0
100
AcDbLine
 10
447.4995776530583
 20
365.0008699639280
 30
0.0000000000000000
 11
399.4995776530587
 21
365.0008699639280
 31
0.0000000000000000
  0
INSERT
  5
210
100
AcDbEntity
  8
MAIN0
  6
BYBLOCK
 62
0
100
AcDbBlockReference
  2
_OPEN
 10
449.4995776530583
 20
365.0008699639280
 30
0.0000000000000000
 41
2.000000000000000
 42
2.000000000000000
 43
2.000000000000000
 50
360.0000000000000
  0
INSERT
  5
211
100
AcDbEntity
  8
MAIN0
  6
BYBLOCK
 62
0
100
AcDbBlockReference
  2
_OPEN
 10
397.4995776530587
 20
365.0008699639280
 30
0.0000000000000000
 41
2.000000000000000
 42
2.000000000000000
 43
2.000000000000000
 50
180.0000000000000
  0
LINE
  5
212
100
AcDbEntity
  8
MAIN0
  6
BYBLOCK
 62
0
100
AcDbLine
 10
397.4995776530587
 20
318.8008699758490
 30
0.0000000000000000
 11
397.4995776530587
 21
367.0008699639280
 31
0.0000000000000000
  0
MTEXT
  5
213
100
AcDbEntity
  8
MAIN0
  6
BYBLOCK
 62
0
100
AcDbMText
 10
423.4995776530585
 20
367.0508699162443
 30
0.0000000000000000
 40
3.099999904632568
 41
0.0000000000000000
 71
     5
 72
     1
  1
\A1;MIN 52
 11
1.000000000000000
 21
0.0000000000000000
 31
0.0000000000000000
  7
STANDARD
  0
ENDBLK
  5
214
100
AcDbEntity
  8
MAIN0
  6
CONTINUOUS
 62
3
100
AcDbBlockEnd
  0
BLOCK
  5
216
100
AcDbEntity
  8
MAIN0
  6
CONTINUOUS
 62
3
100
AcDbBlockBegin
  2
*D6
 70
    65
 10
0.0
 20
0.0
 30
0.0
  0
LINE
  5
217
100
AcDbEntity
  8
MAIN0
  6
BYBLOCK
 62
0
100
AcDbLine
 10
397.4995776530587
 20
318.8008699758490
 30
0.0000000000000000
 11
397.4995776530587
 21
367.0008699639280
 31
0.0000000000000000
  0
LINE
  5
218
100
AcDbEntity
  8
MAIN0
  6
BYBLOCK
 62
0
100
AcDbLine
 10
395.4995776530587
 20
365.0008699639280
 30
0.0000000000000000
 11
373.4995776530587
 21
365.0008699639280
 31
0.0000000000000000
  0
INSERT
  5
219
100
AcDbEntity
  8
MAIN0
  6
BYBLOCK
 62
0
100
AcDbBlockReference
  2
_OPEN
 10
397.4995776530587
 20
365.0008699639280
 30
0.0000000000000000
 41
2.000000000000000
 42
2.000000000000000
 43
2.000000000000000
 50
360.0000000000000
  0
INSERT
  5
21A
100
AcDbEntity
  8
MAIN0
  6
BYBLOCK
 62
0
100
AcDbBlockReference
  2
_OPEN
 10
371.4995776530587
 20
365.0008699639280
 30
0.0000000000000000
 41
2.000000000000000
 42
2.000000000000000
 43
2.000000000000000
 50
180.0000000000000
  0
LINE
  5
21B
100
AcDbEntity
  8
MAIN0
  6
BYBLOCK
 62
0
100
AcDbLine
 10
371.4995776530587
 20
318.8008699758490
 30
0.0000000000000000
 11
371.4995776530587
 21
367.0008699639280
 31
0.0000000000000000
  0
MTEXT
  5
21C
100
AcDbEntity
  8
MAIN0
  6
BYBLOCK
 62
0
100
AcDbMText
 10
384.4995776530590
 20
367.0508699162443
 30
0.0000000000000000
 40
3.099999904632568
 41
0.0000000000000000
 71
     5
 72
     1
  1
\A1;26
 11
1.000000000000000
 21
0.0000000000000000
 31
0.0000000000000000
  7
STANDARD
  0
ENDBLK
  5
21D
100
AcDbEntity
  8
MAIN0
  6
CONTINUOUS
 62
3
100
AcDbBlockEnd
  0
BLOCK
  5
228
100
AcDbEntity
  8
MAIN0
  6
BYBLOCK
 62
2
100
AcDbBlockBegin
  2
M0
 70
    64
 10
0.0
 20
0.0
 30
0.0
  0
LINE
  5
229
100
AcDbEntity
  8
MAIN0
  6
BYBLOCK
 62
0
100
AcDbLine
 10
494.4995776530589
 20
301.2508699639280
 30
0.0000000000000000
 11
494.4995776530589
 21
295.2508699639280
 31
0.0000000000000000
  0
LINE
  5
22A
100
AcDbEntity
  8
MAIN0
  6
BYBLOCK
 62
0
100
AcDbLine
 10
494.4995776530589
 20
298.2508699639280
 30
0.0000000000000000
 11
506.4995776530589
 21
298.2508699639280
 31
0.0000000000000000
  0
LINE
  5
22B
100
AcDbEntity
  8
MAIN0
  6
BYBLOCK
 62
0
100
AcDbLine
 10
494.4995776530589
 20
298.2508699639281
 30
0.0000000000000000
 11
499.3292067845043
 21
299.5449651894407
 31
0.0000000000000000
  0
LINE
  5
22C
100
AcDbEntity
  8
MAIN0
  6
BYBLOCK
 62
0
100
AcDbLine
 10
494.4995776530590
 20
298.2508699639279
 30
0.0000000000000000
 11
499.3292067845042
 21
296.9567747384154
 31
0.0000000000000000
  0
ENDBLK
  5
22D
100
AcDbEntity
  8
MAIN0
  6
BYBLOCK
 62
2
100
AcDbBlockEnd
  0
BLOCK
  5
22F
100
AcDbEntity
  8
MAIN0
  6
BYBLOCK
 62
2
100
AcDbBlockBegin
  2
M1
 70
    64
 10
0.0
 20
0.0
 30
0.0
  0
LINE
  5
230
100
AcDbEntity
  8
MAIN0
  6
BYBLOCK
 62
0
100
AcDbLine
 10
494.4995776530589
 20
183.7508699639280
 30
0.0000000000000000
 11
494.4995776530589
 21
189.7508699639281
 31
0.0000000000000000
  0
LINE
  5
231
100
AcDbEntity
  8
MAIN0
  6
BYBLOCK
 62
0
100
AcDbLine
 10
494.4995776530589
 20
186.7508699639281
 30
0.0000000000000000
 11
506.4995776530588
 21
186.7508699639281
 31
0.0000000000000000
  0
LINE
  5
232
100
AcDbEntity
  8
MAIN0
  6
BYBLOCK
 62
0
100
AcDbLine
 10
494.4995776530589
 20
186.7508699639280
 30
0.0000000000000000
 11
499.3292067845041
 21
185.4567747384154
 31
0.0000000000000000
  0
LINE
  5
233
100
AcDbEntity
  8
MAIN0
  6
BYBLOCK
 62
0
100
AcDbLine
 10
494.4995776530590
 20
186.7508699639282
 30
0.0000000000000000
 11
499.3292067845042
 21
188.0449651894408
 31
0.0000000000000000
  0
ENDBLK
  5
234
100
AcDbEntity
  8
MAIN0
  6
BYBLOCK
 62
2
100
AcDbBlockEnd
  0
BLOCK
  5
238
100
AcDbEntity
  8
MAIN0
  6
CONTINUOUS
 62
3
100
AcDbBlockBegin
  2
*D7
 70
    65
 10
0.0
 20
0.0
 30
0.0
  0
LINE
  5
239
100
AcDbEntity
  8
MAIN0
  6
BYBLOCK
 62
0
100
AcDbLine
 10
530.9995776530154
 20
136.8093673296800
 30
0.0000000000000000
 11
530.9995776530154
 21
110.9008699639142
 31
0.0000000000000000
  0
LINE
  5
23A
100
AcDbEntity
  8
MAIN0
  6
BYBLOCK
 62
0
100
AcDbLine
 10
532.9995776530154
 20
112.9008699639142
 30
0.0000000000000000
 11
555.9995776530153
 21
112.9008699639142
 31
0.0000000000000000
  0
INSERT
  5
23B
100
AcDbEntity
  8
MAIN0
  6
BYBLOCK
 62
0
100
AcDbBlockReference
  2
_OPEN
 10
530.9995776530154
 20
112.9008699639142
 30
0.0000000000000000
 41
2.000000000000000
 42
2.000000000000000
 43
2.000000000000000
 50
180.0000000000000
  0
INSERT
  5
23C
100
AcDbEntity
  8
MAIN0
  6
BYBLOCK
 62
0
100
AcDbBlockReference
  2
_OPEN
 10
557.9995776530153
 20
112.9008699639142
 30
0.0000000000000000
 41
2.000000000000000
 42
2.000000000000000
 43
2.000000000000000
 50
0.0000000000000000
  0
LINE
  5
23D
100
AcDbEntity
  8
MAIN0
  6
BYBLOCK
 62
0
100
AcDbLine
 10
557.9995776530153
 20
136.8093673296846
 30
0.0000000000000000
 11
557.9995776530153
 21
110.9008699639142
 31
0.0000000000000000
  0
MTEXT
  5
23E
100
AcDbEntity
  8
MAIN0
  6
BYBLOCK
 62
0
100
AcDbMText
 10
544.4995776697792
 20
114.9508699162305
 30
0.0000000000000000
 40
3.099999904632568
 41
0.0000000000000000
 71
     5
 72
     1
  1
\A1;27\H0.903226x;\S　0^ －0.35;
 11
1.000000000000000
 21
0.0000000000000000
 31
0.0000000000000000
  7
KNJYOKO
  0
ENDBLK
  5
23F
100
AcDbEntity
  8
MAIN0
  6
CONTINUOUS
 62
3
100
AcDbBlockEnd
  0
BLOCK
  5
278
100
AcDbEntity
  8
MAIN0
  6
BYBLOCK
 62
3
100
AcDbBlockBegin
  2
M2
 70
    64
 10
0.0
 20
0.0
 30
0.0
  0
LINE
  5
279
100
AcDbEntity
  8
MAIN0
  6
BYBLOCK
 62
0
100
AcDbLine
 10
164.4995776530538
 20
370.6227561356253
 30
0.0000000000000000
 11
164.4995776530538
 21
382.6227561356253
 31
0.0000000000000000
  0
LINE
  5
27A
100
AcDbEntity
  8
MAIN0
  6
BYBLOCK
 62
0
100
AcDbLine
 10
164.4995776530537
 20
370.6227561356254
 30
0.0000000000000000
 11
163.2054824275411
 21
375.4523852670707
 31
0.0000000000000000
  0
LINE
  5
27B
100
AcDbEntity
  8
MAIN0
  6
BYBLOCK
 62
0
100
AcDbLine
 10
164.4995776530538
 20
370.6227561356254
 30
0.0000000000000000
 11
165.7936728785664
 21
375.4523852670706
 31
0.0000000000000000
  0
ENDBLK
  5
27C
100
AcDbEntity
  8
MAIN0
  6
BYBLOCK
 62
3
100
AcDbBlockEnd
  0
BLOCK
  5
2C3
100
AcDbEntity
  8
MAIN0
  6
CONTINUOUS
 62
3
100
AcDbBlockBegin
  2
*D8
 70
    65
 10
0.0
 20
0.0
 30
0.0
  0
LINE
  5
2C4
100
AcDbEntity
  8
MAIN0
  6
BYBLOCK
 62
0
100
AcDbLine
 10
253.1802181186235
 20
340.8629297931609
 30
0.0000000000000000
 11
247.1790388069435
 21
327.9933592280444
 31
0.0000000000000000
  0
LINE
  5
2C5
100
AcDbEntity
  8
MAIN0
  6
BYBLOCK
 62
0
100
AcDbLine
 10
249.8368909044982
 20
328.9607382786363
 30
0.0000000000000000
 11
282.4639712378175
 21
313.7464808559711
 31
0.0000000000000000
  0
INSERT
  5
2C6
100
AcDbEntity
  8
MAIN0
  6
BYBLOCK
 62
0
100
AcDbBlockReference
  2
_OPEN
 10
248.0242753304249
 20
329.8059748021177
 30
0.0000000000000000
 41
2.000000000000000
 42
2.000000000000000
 43
2.000000000000000
 50
155.0000000000000
  0
INSERT
  5
2C7
100
AcDbEntity
  8
MAIN0
  6
BYBLOCK
 62
0
100
AcDbBlockReference
  2
_OPEN
 10
284.2765868118909
 20
312.9012443324897
 30
0.0000000000000000
 41
2.000000000000000
 42
2.000000000000000
 43
2.000000000000000
 50
334.9999999999999
  0
LINE
  5
2C8
100
AcDbEntity
  8
MAIN0
  6
BYBLOCK
 62
0
100
AcDbLine
 10
289.4325296000894
 20
323.9581993235329
 30
0.0000000000000000
 11
283.4313502884095
 21
311.0886287584165
 31
0.0000000000000000
  0
MTEXT
  5
2C9
100
AcDbEntity
  8
MAIN0
  6
BYBLOCK
 62
0
100
AcDbMText
 10
267.0167984875743
 20
323.2115404875127
 30
0.0000000000000000
 40
3.099999904632568
 41
0.0000000000000000
 71
     5
 72
     1
  1
\A1;40
 11
0.9063077870366501
 21
-0.4226182617406992
 31
0.0000000000000000
  7
STANDARD
  0
ENDBLK
  5
2CA
100
AcDbEntity
  8
MAIN0
  6
CONTINUOUS
 62
3
100
AcDbBlockEnd
  0
BLOCK
  5
2CC
100
AcDbEntity
  8
MAIN0
  6
CONTINUOUS
 62
3
100
AcDbBlockBegin
  2
*D9
 70
    65
 10
0.0
 20
0.0
 30
0.0
  0
LINE
  5
2CD
100
AcDbEntity
  8
MAIN0
  6
BYBLOCK
 62
0
100
AcDbLine
 10
59.00231275465458
 20
331.4355761322557
 30
0.0000000000000000
 11
59.00231275465441
 21
322.4076826532645
 31
0.0000000000000000
  0
LINE
  5
2CE
100
AcDbEntity
  8
MAIN0
  6
BYBLOCK
 62
0
100
AcDbLine
 10
61.00231275465444
 20
324.4076826532645
 30
0.0000000000000000
 11
97.00231275465436
 21
324.4076826532645
 31
0.0000000000000000
  0
INSERT
  5
2CF
100
AcDbEntity
  8
MAIN0
  6
BYBLOCK
 62
0
100
AcDbBlockReference
  2
_OPEN
 10
59.00231275465444
 20
324.4076826532645
 30
0.0000000000000000
 41
2.000000000000000
 42
2.000000000000000
 43
2.000000000000000
 50
180.0000000000000
  0
INSERT
  5
2D0
100
AcDbEntity
  8
MAIN0
  6
BYBLOCK
 62
0
100
AcDbBlockReference
  2
_OPEN
 10
99.00231275465436
 20
324.4076826532645
 30
0.0000000000000000
 41
2.000000000000000
 42
2.000000000000000
 43
2.000000000000000
 50
0.0000000000000000
  0
LINE
  5
2D1
100
AcDbEntity
  8
MAIN0
  6
BYBLOCK
 62
0
100
AcDbLine
 10
99.00231275465436
 20
331.4355761322557
 30
0.0000000000000000
 11
99.00231275465436
 21
322.4076826532645
 31
0.0000000000000000
  0
MTEXT
  5
2D2
100
AcDbEntity
  8
MAIN0
  6
BYBLOCK
 62
0
100
AcDbMText
 10
79.00231275465438
 20
326.4576826055808
 30
0.0000000000000000
 40
3.099999904632568
 41
0.0000000000000000
 71
     5
 72
     1
  1
\A1;40
 11
1.000000000000000
 21
0.0000000000000000
 31
0.0000000000000000
  7
STANDARD
  0
ENDBLK
  5
2D3
100
AcDbEntity
  8
MAIN0
  6
CONTINUOUS
 62
3
100
AcDbBlockEnd
  0
BLOCK
  5
2E9
100
AcDbEntity
  8
MAIN0
  6
CONTINUOUS
 62
3
100
AcDbBlockBegin
  2
*D10
 70
    65
 10
0.0
 20
0.0
 30
0.0
  0
LINE
  5
2EA
100
AcDbEntity
  8
MAIN0
  6
BYBLOCK
 62
0
100
AcDbLine
 10
58.20231274273368
 20
394.4076826532640
 30
0.0000000000000000
 11
32.00231275465461
 21
394.4076826532640
 31
0.0000000000000000
  0
LINE
  5
2EB
100
AcDbEntity
  8
MAIN0
  6
BYBLOCK
 62
0
100
AcDbLine
 10
34.00231275465461
 20
392.4076826532640
 30
0.0000000000000000
 11
34.00231275465461
 21
365.4076826532642
 31
0.0000000000000000
  0
INSERT
  5
2EC
100
AcDbEntity
  8
MAIN0
  6
BYBLOCK
 62
0
100
AcDbBlockReference
  2
_OPEN
 10
34.00231275465461
 20
394.4076826532640
 30
0.0000000000000000
 41
2.000000000000000
 42
2.000000000000000
 43
2.000000000000000
 50
90.00000000000000
  0
INSERT
  5
2ED
100
AcDbEntity
  8
MAIN0
  6
BYBLOCK
 62
0
100
AcDbBlockReference
  2
_OPEN
 10
34.00231275465461
 20
363.4076826532642
 30
0.0000000000000000
 41
2.000000000000000
 42
2.000000000000000
 43
2.000000000000000
 50
270.0000000000000
  0
LINE
  5
2EE
100
AcDbEntity
  8
MAIN0
  6
BYBLOCK
 62
0
100
AcDbLine
 10
66.06373737002878
 20
363.4076826532642
 30
0.0000000000000000
 11
32.00231275465461
 21
363.4076826532642
 31
0.0000000000000000
  0
MTEXT
  5
2EF
100
AcDbEntity
  8
MAIN0
  6
BYBLOCK
 62
0
100
AcDbMText
 10
31.95231280233833
 20
378.9076826532640
 30
0.0000000000000000
 40
3.099999904632568
 41
0.0000000000000000
 71
     5
 72
     1
  1
\A1;31
 11
6.123233995736766e-017
 21
1.000000000000000
 31
0.0000000000000000
  7
STANDARD
  0
ENDBLK
  5
2F0
100
AcDbEntity
  8
MAIN0
  6
CONTINUOUS
 62
3
100
AcDbBlockEnd
  0
BLOCK
  5
2F2
100
AcDbEntity
  8
MAIN0
  6
CONTINUOUS
 62
3
100
AcDbBlockBegin
  2
*D11
 70
    65
 10
0.0
 20
0.0
 30
0.0
  0
LINE
  5
2F3
100
AcDbEntity
  8
MAIN0
  6
BYBLOCK
 62
0
100
AcDbLine
 10
66.86256677946008
 20
384.4076826532642
 30
0.0000000000000000
 11
44.50231275465455
 21
384.4076826532642
 31
0.0000000000000000
  0
LINE
  5
2F4
100
AcDbEntity
  8
MAIN0
  6
BYBLOCK
 62
0
100
AcDbLine
 10
46.50231275465455
 20
382.4076826532642
 30
0.0000000000000000
 11
46.50231275465455
 21
365.4076826532642
 31
0.0000000000000000
  0
INSERT
  5
2F5
100
AcDbEntity
  8
MAIN0
  6
BYBLOCK
 62
0
100
AcDbBlockReference
  2
_OPEN
 10
46.50231275465455
 20
384.4076826532642
 30
0.0000000000000000
 41
2.000000000000000
 42
2.000000000000000
 43
2.000000000000000
 50
90.00000000000000
  0
INSERT
  5
2F6
100
AcDbEntity
  8
MAIN0
  6
BYBLOCK
 62
0
100
AcDbBlockReference
  2
_OPEN
 10
46.50231275465455
 20
363.4076826532642
 30
0.0000000000000000
 41
2.000000000000000
 42
2.000000000000000
 43
2.000000000000000
 50
270.0000000000000
  0
LINE
  5
2F7
100
AcDbEntity
  8
MAIN0
  6
BYBLOCK
 62
0
100
AcDbLine
 10
66.06373737002878
 20
363.4076826532642
 30
0.0000000000000000
 11
44.50231275465455
 21
363.4076826532642
 31
0.0000000000000000
  0
MTEXT
  5
2F8
100
AcDbEntity
  8
MAIN0
  6
BYBLOCK
 62
0
100
AcDbMText
 10
44.45231280233827
 20
373.9076826532642
 30
0.0000000000000000
 40
3.099999904632568
 41
0.0000000000000000
 71
     5
 72
     1
  1
\A1;21
 11
6.123233995736766e-017
 21
1.000000000000000
 31
0.0000000000000000
  7
STANDARD
  0
ENDBLK
  5
2F9
100
AcDbEntity
  8
MAIN0
  6
CONTINUOUS
 62
3
100
AcDbBlockEnd
  0
BLOCK
  5
2FB
100
AcDbEntity
  8
MAIN0
  6
CONTINUOUS
 62
3
100
AcDbBlockBegin
  2
*D12
 70
    65
 10
0.0
 20
0.0
 30
0.0
  0
LINE
  5
2FC
100
AcDbEntity
  8
MAIN0
  6
BYBLOCK
 62
0
100
AcDbLine
 10
66.06373737002878
 20
363.4076826532642
 30
0.0000000000000000
 11
44.50231275465455
 21
363.4076826532642
 31
0.0000000000000000
  0
LINE
  5
2FD
100
AcDbEntity
  8
MAIN0
  6
BYBLOCK
 62
0
100
AcDbLine
 10
46.50231275465455
 20
361.4076826532642
 30
0.0000000000000000
 11
46.50231275465455
 21
348.4076826532665
 31
0.0000000000000000
  0
INSERT
  5
2FE
100
AcDbEntity
  8
MAIN0
  6
BYBLOCK
 62
0
100
AcDbBlockReference
  2
_OPEN
 10
46.50231275465455
 20
363.4076826532642
 30
0.0000000000000000
 41
2.000000000000000
 42
2.000000000000000
 43
2.000000000000000
 50
90.00000000000000
  0
INSERT
  5
2FF
100
AcDbEntity
  8
MAIN0
  6
BYBLOCK
 62
0
100
AcDbBlockReference
  2
_OPEN
 10
46.50231275465455
 20
346.4076826532665
 30
0.0000000000000000
 41
2.000000000000000
 42
2.000000000000000
 43
2.000000000000000
 50
270.0000000000000
  0
LINE
  5
300
100
AcDbEntity
  8
MAIN0
  6
BYBLOCK
 62
0
100
AcDbLine
 10
66.86256677946057
 20
346.4076826532665
 30
0.0000000000000000
 11
44.50231275465455
 21
346.4076826532665
 31
0.0000000000000000
  0
MTEXT
  5
301
100
AcDbEntity
  8
MAIN0
  6
BYBLOCK
 62
0
100
AcDbMText
 10
44.45231280233827
 20
354.9076826532653
 30
0.0000000000000000
 40
3.099999904632568
 41
0.0000000000000000
 71
     5
 72
     1
  1
\A1;17
 11
6.123233995736766e-017
 21
1.000000000000000
 31
0.0000000000000000
  7
STANDARD
  0
ENDBLK
  5
302
100
AcDbEntity
  8
MAIN0
  6
CONTINUOUS
 62
3
100
AcDbBlockEnd
  0
BLOCK
  5
304
100
AcDbEntity
  8
MAIN0
  6
CONTINUOUS
 62
3
100
AcDbBlockBegin
  2
*D13
 70
    65
 10
0.0
 20
0.0
 30
0.0
  0
LINE
  5
305
100
AcDbEntity
  8
MAIN0
  6
BYBLOCK
 62
0
100
AcDbLine
 10
101.6729102262136
 20
365.4076826532670
 30
0.0000000000000000
 11
113.5023127557784
 21
365.4076826532670
 31
0.0000000000000000
  0
LINE
  5
306
100
AcDbEntity
  8
MAIN0
  6
BYBLOCK
 62
0
100
AcDbLine
 10
111.5023127557784
 20
367.4076826532670
 30
0.0000000000000000
 11
111.5023127557784
 21
392.4076826532645
 31
0.0000000000000000
  0
INSERT
  5
307
100
AcDbEntity
  8
MAIN0
  6
BYBLOCK
 62
0
100
AcDbBlockReference
  2
_OPEN
 10
111.5023127557784
 20
365.4076826532670
 30
0.0000000000000000
 41
2.000000000000000
 42
2.000000000000000
 43
2.000000000000000
 50
270.0000000000000
  0
INSERT
  5
308
100
AcDbEntity
  8
MAIN0
  6
BYBLOCK
 62
0
100
AcDbBlockReference
  2
_OPEN
 10
111.5023127557784
 20
394.4076826532645
 30
0.0000000000000000
 41
2.000000000000000
 42
2.000000000000000
 43
2.000000000000000
 50
90.00000000000000
  0
LINE
  5
309
100
AcDbEntity
  8
MAIN0
  6
BYBLOCK
 62
0
100
AcDbLine
 10
99.80231276657528
 20
394.4076826532645
 30
0.0000000000000000
 11
113.5023127557784
 21
394.4076826532645
 31
0.0000000000000000
  0
MTEXT
  5
30A
100
AcDbEntity
  8
MAIN0
  6
BYBLOCK
 62
0
100
AcDbMText
 10
109.4523128034622
 20
379.9076826532657
 30
0.0000000000000000
 40
3.099999904632568
 41
0.0000000000000000
 71
     5
 72
     1
  1
\A1;29
 11
6.123233995736766e-017
 21
1.000000000000000
 31
0.0000000000000000
  7
STANDARD
  0
ENDBLK
  5
30B
100
AcDbEntity
  8
MAIN0
  6
CONTINUOUS
 62
3
100
AcDbBlockEnd
  0
BLOCK
  5
30D
100
AcDbEntity
  8
MAIN0
  6
CONTINUOUS
 62
3
100
AcDbBlockBegin
  2
*D14
 70
    65
 10
0.0
 20
0.0
 30
0.0
  0
LINE
  5
30E
100
AcDbEntity
  8
MAIN0
  6
BYBLOCK
 62
0
100
AcDbLine
 10
271.7963695565068
 20
360.6492261346882
 30
0.0000000000000000
 11
244.1449979617653
 21
373.5432724678058
 31
0.0000000000000000
  0
LINE
  5
30F
100
AcDbEntity
  8
MAIN0
  6
BYBLOCK
 62
0
100
AcDbLine
 10
246.8028500593200
 20
374.5106515183977
 30
0.0000000000000000
 11
261.5944892202444
 21
406.2314240646805
 31
0.0000000000000000
  0
INSERT
  5
310
100
AcDbEntity
  8
MAIN0
  6
BYBLOCK
 62
0
100
AcDbBlockReference
  2
_OPEN
 10
245.9576135358386
 20
372.6980359443244
 30
0.0000000000000000
 41
2.000000000000000
 42
2.000000000000000
 43
2.000000000000000
 50
245.0000000000000
  0
INSERT
  5
311
100
AcDbEntity
  8
MAIN0
  6
BYBLOCK
 62
0
100
AcDbBlockReference
  2
_OPEN
 10
262.4397257437259
 20
408.0440396387538
 30
0.0000000000000000
 41
2.000000000000000
 42
2.000000000000000
 43
2.000000000000000
 50
65.00000000000000
  0
LINE
  5
312
100
AcDbEntity
  8
MAIN0
  6
BYBLOCK
 62
0
100
AcDbLine
 10
279.8408352440255
 20
399.9297690183704
 30
0.0000000000000000
 11
260.6271101696526
 21
408.8892761622352
 31
0.0000000000000000
  0
MTEXT
  5
313
100
AcDbEntity
  8
MAIN0
  6
BYBLOCK
 62
0
100
AcDbMText
 10
252.3407387195732
 20
391.2374052079555
 30
0.0000000000000000
 40
3.099999904632568
 41
0.0000000000000000
 71
     5
 72
     1
  1
\A1;39
 11
0.4226182617406994
 21
0.9063077870366499
 31
0.0000000000000000
  7
STANDARD
  0
ENDBLK
  5
314
100
AcDbEntity
  8
MAIN0
  6
CONTINUOUS
 62
3
100
AcDbBlockEnd
  0
BLOCK
  5
316
100
AcDbEntity
  8
MAIN0
  6
CONTINUOUS
 62
3
100
AcDbBlockBegin
  2
*D15
 70
    65
 10
0.0
 20
0.0
 30
0.0
  0
LINE
  5
317
100
AcDbEntity
  8
MAIN0
  6
BYBLOCK
 62
0
100
AcDbLine
 10
280.7462100022097
 20
375.2332716179542
 30
0.0000000000000000
 11
260.3925862817234
 21
384.7243222300219
 31
0.0000000000000000
  0
LINE
  5
318
100
AcDbEntity
  8
MAIN0
  6
BYBLOCK
 62
0
100
AcDbLine
 10
261.3599653323153
 20
382.0664701324672
 30
0.0000000000000000
 11
255.8659279296863
 21
370.2844689009905
 31
0.0000000000000000
  0
INSERT
  5
319
100
AcDbEntity
  8
MAIN0
  6
BYBLOCK
 62
0
100
AcDbBlockReference
  2
_OPEN
 10
262.2052018557967
 20
383.8790857065405
 30
0.0000000000000000
 41
2.000000000000000
 42
2.000000000000000
 43
2.000000000000000
 50
65.00000000000068
  0
INSERT
  5
31A
100
AcDbEntity
  8
MAIN0
  6
BYBLOCK
 62
0
100
AcDbBlockReference
  2
_OPEN
 10
255.0206914062049
 20
368.4718533269173
 30
0.0000000000000000
 41
2.000000000000000
 42
2.000000000000000
 43
2.000000000000000
 50
245.0000000000007
  0
LINE
  5
31B
100
AcDbEntity
  8
MAIN0
  6
BYBLOCK
 62
0
100
AcDbLine
 10
271.7963695565068
 20
360.6492261346882
 30
0.0000000000000000
 11
253.2080758321316
 21
369.3170898503987
 31
0.0000000000000000
  0
MTEXT
  5
31C
100
AcDbEntity
  8
MAIN0
  6
BYBLOCK
 62
0
100
AcDbMText
 10
256.7550157107918
 20
377.0418369331453
 30
0.0000000000000000
 40
3.099999904632568
 41
0.0000000000000000
 71
     5
 72
     1
  1
\A1;17
 11
0.4226182617406902
 21
0.9063077870366543
 31
0.0000000000000000
  7
STANDARD
  0
ENDBLK
  5
31D
100
AcDbEntity
  8
MAIN0
  6
CONTINUOUS
 62
3
100
AcDbBlockEnd
  0
BLOCK
  5
31F
100
AcDbEntity
  8
MAIN0
  6
CONTINUOUS
 62
3
100
AcDbBlockBegin
  2
*D16
 70
    65
 10
0.0
 20
0.0
 30
0.0
  0
LINE
  5
320
100
AcDbEntity
  8
MAIN0
  6
BYBLOCK
 62
0
100
AcDbLine
 10
271.7963695565068
 20
360.6492261346882
 30
0.0000000000000000
 11
253.2080758321316
 21
369.3170898503987
 31
0.0000000000000000
  0
LINE
  5
321
100
AcDbEntity
  8
MAIN0
  6
BYBLOCK
 62
0
100
AcDbLine
 10
254.1754548827235
 20
366.6592377528439
 30
0.0000000000000000
 11
246.9909444331319
 21
351.2520053732209
 31
0.0000000000000000
  0
INSERT
  5
322
100
AcDbEntity
  8
MAIN0
  6
BYBLOCK
 62
0
100
AcDbBlockReference
  2
_OPEN
 10
255.0206914062049
 20
368.4718533269172
 30
0.0000000000000000
 41
2.000000000000000
 42
2.000000000000000
 43
2.000000000000000
 50
65.00000000000057
  0
INSERT
  5
323
100
AcDbEntity
  8
MAIN0
  6
BYBLOCK
 62
0
100
AcDbBlockReference
  2
_OPEN
 10
246.1457079096505
 20
349.4393897991476
 30
0.0000000000000000
 41
2.000000000000000
 42
2.000000000000000
 43
2.000000000000000
 50
245.0000000000006
  0
LINE
  5
324
100
AcDbEntity
  8
MAIN0
  6
BYBLOCK
 62
0
100
AcDbLine
 10
264.6867160560631
 20
340.7935757105614
 30
0.0000000000000000
 11
244.3330923355772
 21
350.2846263226290
 31
0.0000000000000000
  0
MTEXT
  5
325
100
AcDbEntity
  8
MAIN0
  6
BYBLOCK
 62
0
100
AcDbMText
 10
248.7252687377187
 20
359.8219889794488
 30
0.0000000000000000
 40
3.099999904632568
 41
0.0000000000000000
 71
     5
 72
     1
  1
\A1;21
 11
0.4226182617406902
 21
0.9063077870366543
 31
0.0000000000000000
  7
STANDARD
  0
ENDBLK
  5
326
100
AcDbEntity
  8
MAIN0
  6
CONTINUOUS
 62
3
100
AcDbBlockEnd
  0
BLOCK
  5
328
100
AcDbEntity
  8
MAIN0
  6
CONTINUOUS
 62
3
100
AcDbBlockBegin
  2
*D17
 70
    65
 10
0.0
 20
0.0
 30
0.0
  0
LINE
  5
329
100
AcDbEntity
  8
MAIN0
  6
BYBLOCK
 62
0
100
AcDbLine
 10
301.9382219775015
 20
344.3870936818759
 30
0.0000000000000000
 11
314.8980766141792
 21
338.3438142162175
 31
0.0000000000000000
  0
LINE
  5
32A
100
AcDbEntity
  8
MAIN0
  6
BYBLOCK
 62
0
100
AcDbLine
 10
313.9306975635873
 20
341.0016663137723
 30
0.0000000000000000
 11
329.5675732479928
 21
374.5350544341285
 31
0.0000000000000000
  0
INSERT
  5
32B
100
AcDbEntity
  8
MAIN0
  6
BYBLOCK
 62
0
100
AcDbBlockReference
  2
_OPEN
 10
313.0854610401059
 20
339.1890507396989
 30
0.0000000000000000
 41
2.000000000000000
 42
2.000000000000000
 43
2.000000000000000
 50
245.0000000000007
  0
INSERT
  5
32C
100
AcDbEntity
  8
MAIN0
  6
BYBLOCK
 62
0
100
AcDbBlockReference
  2
_OPEN
 10
330.4128097714742
 20
376.3476700082018
 30
0.0000000000000000
 41
2.000000000000000
 42
2.000000000000000
 43
2.000000000000000
 50
65.00000000000068
  0
LINE
  5
32D
100
AcDbEntity
  8
MAIN0
  6
BYBLOCK
 62
0
100
AcDbLine
 10
313.0117002711750
 20
384.4619406285848
 30
0.0000000000000000
 11
332.2254253455475
 21
375.5024334847204
 31
0.0000000000000000
  0
MTEXT
  5
32E
100
AcDbEntity
  8
MAIN0
  6
BYBLOCK
 62
0
100
AcDbMText
 10
319.8912044855811
 20
358.6347277903668
 30
0.0000000000000000
 40
3.099999904632568
 41
0.0000000000000000
 71
     5
 72
     1
  1
\A1;41
 11
0.4226182617406892
 21
0.9063077870366547
 31
0.0000000000000000
  7
STANDARD
  0
ENDBLK
  5
32F
100
AcDbEntity
  8
MAIN0
  6
CONTINUOUS
 62
3
100
AcDbBlockEnd
  0
BLOCK
  5
33A
100
AcDbEntity
  8
MAIN0
  6
CONTINUOUS
 62
3
100
AcDbBlockBegin
  2
D18
 70
    64
 10
0.0
 20
0.0
 30
0.0
  0
LINE
  5
33B
100
AcDbEntity
  8
MAIN0
  6
BYBLOCK
 62
0
100
AcDbLine
 10
6.802002323277065
 20
-25.09999984346860
 30
0.0000000000000000
 11
6.802002323277065
 21
-47.50000000000000
 31
0.0000000000000000
  0
LINE
  5
33C
100
AcDbEntity
  8
MAIN0
  6
BYBLOCK
 62
0
100
AcDbLine
 10
7.402002347118923
 20
-45.50000000000000
 30
0.0000000000000000
 11
6.802002323277065
 21
-47.50000000000000
 31
0.0000000000000000
  0
LINE
  5
33D
100
AcDbEntity
  8
MAIN0
  6
BYBLOCK
 62
0
100
AcDbLine
 10
6.802002323277065
 20
-47.50000000000000
 30
0.0000000000000000
 11
6.202002299435208
 21
-45.50000000000000
 31
0.0000000000000000
  0
LINE
  5
33E
100
AcDbEntity
  8
MAIN0
  6
BYBLOCK
 62
0
100
AcDbLine
 10
-4.367468857907767
 20
-47.50000000000000
 30
0.0000000000000000
 11
8.802002323277065
 21
-47.50000000000000
 31
0.0000000000000000
  0
MTEXT
  5
33F
100
AcDbEntity
  8
MAIN0
  6
BYBLOCK
 62
0
100
AcDbMText
 10
4.752002370960781
 20
-28.50000000000000
 30
0.0000000000000000
 40
3.099999904632568
 41
0.0000000000000000
 71
     5
 72
     1
  1
\A1;\U+220595
 11
6.123233995736766e-017
 21
1.000000000000000
 31
0.0000000000000000
  7
STANDARD
  0
ENDBLK
  5
340
100
AcDbEntity
  8
MAIN0
  6
CONTINUOUS
 62
3
100
AcDbBlockEnd
  0
BLOCK
  5
347
100
AcDbEntity
  8
MAIN0
  6
CONTINUOUS
 62
3
100
AcDbBlockBegin
  2
*D19
 70
    65
 10
0.0
 20
0.0
 30
0.0
  0
LINE
  5
348
100
AcDbEntity
  8
MAIN0
  6
BYBLOCK
 62
0
100
AcDbLine
 10
504.4995776530583
 20
230.7008699520071
 30
0.0000000000000000
 11
504.4995776530583
 21
212.0008699639281
 31
0.0000000000000000
  0
LINE
  5
349
100
AcDbEntity
  8
MAIN0
  6
BYBLOCK
 62
0
100
AcDbLine
 10
504.4995776530583
 20
214.0008699639281
 30
0.0000000000000000
 11
509.4995776530583
 21
214.0008699639281
 31
0.0000000000000000
  0
INSERT
  5
34A
100
AcDbEntity
  8
MAIN0
  6
BYBLOCK
 62
0
100
AcDbBlockReference
  2
_OPEN
 10
504.4995776530583
 20
214.0008699639281
 30
0.0000000000000000
 41
2.000000000000000
 42
2.000000000000000
 43
2.000000000000000
 50
0.0000000000000000
  0
INSERT
  5
34B
100
AcDbEntity
  8
MAIN0
  6
BYBLOCK
 62
0
100
AcDbBlockReference
  2
_OPEN
 10
509.4995776530583
 20
214.0008699639281
 30
0.0000000000000000
 41
2.000000000000000
 42
2.000000000000000
 43
2.000000000000000
 50
180.0000000000000
  0
LINE
  5
34C
100
AcDbEntity
  8
MAIN0
  6
BYBLOCK
 62
0
100
AcDbLine
 10
502.4995776530583
 20
214.0008699639281
 30
0.0000000000000000
 11
501.4995776530583
 21
214.0008699639281
 31
0.0000000000000000
  0
LINE
  5
34D
100
AcDbEntity
  8
MAIN0
  6
BYBLOCK
 62
0
100
AcDbLine
 10
511.4995776530583
 20
214.0008699639281
 30
0.0000000000000000
 11
512.4995776530583
 21
214.0008699639281
 31
0.0000000000000000
  0
LINE
  5
34E
100
AcDbEntity
  8
MAIN0
  6
BYBLOCK
 62
0
100
AcDbLine
 10
509.4995776530583
 20
228.2008699520071
 30
0.0000000000000000
 11
509.4995776530583
 21
212.0008699639281
 31
0.0000000000000000
  0
MTEXT
  5
34F
100
AcDbEntity
  8
MAIN0
  6
BYBLOCK
 62
0
100
AcDbMText
 10
506.9995776530583
 20
216.0508699162444
 30
0.0000000000000000
 40
3.099999904632568
 41
0.0000000000000000
 71
     5
 72
     1
  1
\A1;5
 11
1.000000000000000
 21
0.0000000000000000
 31
0.0000000000000000
  7
STANDARD
  0
ENDBLK
  5
350
100
AcDbEntity
  8
MAIN0
  6
CONTINUOUS
 62
3
100
AcDbBlockEnd
  0
BLOCK
  5
373
100
AcDbEntity
  8
MAIN0
  6
CONTINUOUS
 62
3
100
AcDbBlockBegin
  2
*D20
 70
    65
 10
0.0
 20
0.0
 30
0.0
  0
LINE
  5
374
100
AcDbEntity
  8
MAIN0
  6
BYBLOCK
 62
0
100
AcDbLine
 10
106.1587400025927
 20
184.1600323134569
 30
0.0000000000000000
 11
95.91021987796671
 21
173.9115121888301
 31
0.0000000000000000
  0
ARC
  5
375
100
AcDbEntity
  8
MAIN0
  6
BYBLOCK
 62
0
100
AcDbCircle
 10
164.4995776530590
 20
242.5008699639281
 30
0.0000000000000000
 40
95.00000000000004
100
AcDbArc
 50
226.2062269371200
 51
268.7937730628850
  0
INSERT
  5
376
100
AcDbEntity
  8
MAIN0
  6
BYBLOCK
 62
0
100
AcDbBlockReference
  2
_OPEN
 10
97.32443344033977
 20
175.3257257512032
 30
0.0000000000000000
 41
2.000000000000000
 42
2.000000000000000
 43
2.000000000000000
 50
135.0000000000024
  0
INSERT
  5
377
100
AcDbEntity
  8
MAIN0
  6
BYBLOCK
 62
0
100
AcDbBlockReference
  2
_OPEN
 10
164.4995776530630
 20
147.5008699639280
 30
0.0000000000000000
 41
2.000000000000000
 42
2.000000000000000
 43
2.000000000000000
 50
2.501110429875553e-012
  0
MTEXT
  5
378
100
AcDbEntity
  8
MAIN0
  6
BYBLOCK
 62
0
100
AcDbMText
 10
128.9291525964797
 20
156.6262673729484
 30
0.0000000000000000
 40
3.099999904632568
 41
0.0000000000000000
 71
     5
 72
     1
  1
\A1;45\U+00B0
 11
0.9238795325113028
 21
-0.3826834323650510
 31
0.0000000000000000
  7
STANDARD
  0
ENDBLK
  5
379
100
AcDbEntity
  8
MAIN0
  6
CONTINUOUS
 62
3
100
AcDbBlockEnd
  0
BLOCK
  5
37B
100
AcDbEntity
  8
MAIN0
  6
CONTINUOUS
 62
3
100
AcDbBlockBegin
  2
*D21
 70
    65
 10
0.0
 20
0.0
 30
0.0
  0
LINE
  5
37C
100
AcDbEntity
  8
MAIN0
  6
BYBLOCK
 62
0
100
AcDbLine
 10
241.2350499236770
 20
214.5714421450673
 30
0.0000000000000000
 11
255.6497618692935
 21
209.3249160613421
 31
0.0000000000000000
  0
ARC
  5
37D
100
AcDbEntity
  8
MAIN0
  6
BYBLOCK
 62
0
100
AcDbCircle
 10
164.4995776530590
 20
242.5008699639281
 30
0.0000000000000000
 40
95.00000000000004
100
AcDbArc
 50
271.2062269371200
 51
338.7937730628849
  0
INSERT
  5
37E
100
AcDbEntity
  8
MAIN0
  6
BYBLOCK
 62
0
100
AcDbBlockReference
  2
_OPEN
 10
164.4995776530630
 20
147.5008699639280
 30
0.0000000000000000
 41
2.000000000000000
 42
2.000000000000000
 43
2.000000000000000
 50
180.0000000000025
  0
INSERT
  5
37F
100
AcDbEntity
  8
MAIN0
  6
BYBLOCK
 62
0
100
AcDbBlockReference
  2
_OPEN
 10
253.7703766277217
 20
210.0089563479934
 30
0.0000000000000000
 41
2.000000000000000
 42
2.000000000000000
 43
2.000000000000000
 50
70.00000000000244
  0
MTEXT
  5
380
100
AcDbEntity
  8
MAIN0
  6
BYBLOCK
 62
0
100
AcDbMText
 10
217.8135074392422
 20
166.3606874082083
 30
0.0000000000000000
 40
3.099999904632568
 41
0.0000000000000000
 71
     5
 72
     1
  1
\A1;70\U+00B0
 11
0.8191520442889673
 21
0.5735764363510811
 31
0.0000000000000000
  7
STANDARD
  0
ENDBLK
  5
381
100
AcDbEntity
  8
MAIN0
  6
CONTINUOUS
 62
3
100
AcDbBlockEnd
  0
BLOCK
  5
383
100
AcDbEntity
  8
MAIN0
  6
CONTINUOUS
 62
3
100
AcDbBlockBegin
  2
*D22
 70
    65
 10
0.0
 20
0.0
 30
0.0
  0
LINE
  5
384
100
AcDbEntity
  8
MAIN0
  6
BYBLOCK
 62
0
100
AcDbLine
 10
86.14948214807041
 20
255.5008699639246
 30
0.0000000000000000
 11
61.52413100752540
 21
255.5008699639246
 31
0.0000000000000000
  0
LINE
  5
385
100
AcDbEntity
  8
MAIN0
  6
BYBLOCK
 62
0
100
AcDbLine
 10
63.52413100752540
 20
253.5008699639246
 30
0.0000000000000000
 11
63.52413100752540
 21
231.5008699639246
 31
0.0000000000000000
  0
INSERT
  5
386
100
AcDbEntity
  8
MAIN0
  6
BYBLOCK
 62
0
100
AcDbBlockReference
  2
_OPEN
 10
63.52413100752540
 20
255.5008699639246
 30
0.0000000000000000
 41
2.000000000000000
 42
2.000000000000000
 43
2.000000000000000
 50
90.00000000000000
  0
INSERT
  5
387
100
AcDbEntity
  8
MAIN0
  6
BYBLOCK
 62
0
100
AcDbBlockReference
  2
_OPEN
 10
63.52413100752540
 20
229.5008699639246
 30
0.0000000000000000
 41
2.000000000000000
 42
2.000000000000000
 43
2.000000000000000
 50
270.0000000000000
  0
LINE
  5
388
100
AcDbEntity
  8
MAIN0
  6
BYBLOCK
 62
0
100
AcDbLine
 10
85.97260069060988
 20
229.5008699639246
 30
0.0000000000000000
 11
61.52413100752540
 21
229.5008699639246
 31
0.0000000000000000
  0
MTEXT
  5
389
100
AcDbEntity
  8
MAIN0
  6
BYBLOCK
 62
0
100
AcDbMText
 10
61.47413105520911
 20
242.5008699452982
 30
0.0000000000000000
 40
3.099999904632568
 41
0.0000000000000000
 71
     5
 72
     1
  1
\A1;26\H0.903226x;\U+00B10.2
 11
6.123233995736766e-017
 21
1.000000000000000
 31
0.0000000000000000
  7
STANDARD
  0
ENDBLK
  5
38A
100
AcDbEntity
  8
MAIN0
  6
CONTINUOUS
 62
3
100
AcDbBlockEnd
  0
BLOCK
  5
38C
100
AcDbEntity
  8
MAIN0
  6
CONTINUOUS
 62
3
100
AcDbBlockBegin
  2
*D23
 70
    65
 10
0.0
 20
0.0
 30
0.0
  0
LINE
  5
38D
100
AcDbEntity
  8
MAIN0
  6
BYBLOCK
 62
0
100
AcDbLine
 10
93.49957765305908
 20
263.0858148408135
 30
0.0000000000000000
 11
93.49957765305908
 21
273.6696900213394
 31
0.0000000000000000
  0
LINE
  5
38E
100
AcDbEntity
  8
MAIN0
  6
BYBLOCK
 62
0
100
AcDbLine
 10
95.49957765305908
 20
271.6696900213394
 30
0.0000000000000000
 11
162.4995776530538
 21
271.6696900213394
 31
0.0000000000000000
  0
INSERT
  5
38F
100
AcDbEntity
  8
MAIN0
  6
BYBLOCK
 62
0
100
AcDbBlockReference
  2
_OPEN
 10
93.49957765305908
 20
271.6696900213394
 30
0.0000000000000000
 41
2.000000000000000
 42
2.000000000000000
 43
2.000000000000000
 50
180.0000000000000
  0
INSERT
  5
390
100
AcDbEntity
  8
MAIN0
  6
BYBLOCK
 62
0
100
AcDbBlockReference
  2
_OPEN
 10
164.4995776530538
 20
271.6696900213394
 30
0.0000000000000000
 41
2.000000000000000
 42
2.000000000000000
 43
2.000000000000000
 50
0.0000000000000000
  0
MTEXT
  5
391
100
AcDbEntity
  8
MAIN0
  6
BYBLOCK
 62
0
100
AcDbMText
 10
128.9995776344300
 20
273.7196899736557
 30
0.0000000000000000
 40
3.099999904632568
 41
0.0000000000000000
 71
     5
 72
     1
  1
\A1;71\H0.903226x;\U+00B10.1
 11
1.000000000000000
 21
0.0000000000000000
 31
0.0000000000000000
  7
STANDARD
  0
ENDBLK
  5
392
100
AcDbEntity
  8
MAIN0
  6
CONTINUOUS
 62
3
100
AcDbBlockEnd
  0
BLOCK
  5
3A8
100
AcDbEntity
  8
MAIN0
  6
BYBLOCK
 62
3
100
AcDbBlockBegin
  2
M3
 70
    64
 10
0.0
 20
0.0
 30
0.0
  0
LINE
  5
3A9
100
AcDbEntity
  8
MAIN0
  6
BYBLOCK
 62
0
100
AcDbLine
 10
182.8784515117425
 20
110.1919282370942
 30
0.0000000000000000
 11
259.8784515117425
 21
110.1919282370942
 31
0.0000000000000000
  0
LINE
  5
3AA
100
AcDbEntity
  8
MAIN0
  6
BYBLOCK
 62
0
100
AcDbLine
 10
182.8784515117425
 20
103.1919282370942
 30
0.0000000000000000
 11
259.8784515117425
 21
103.1919282370942
 31
0.0000000000000000
  0
LINE
  5
3AB
100
AcDbEntity
  8
MAIN0
  6
BYBLOCK
 62
0
100
AcDbLine
 10
182.8784515117425
 20
17.69192823709420
 30
0.0000000000000000
 11
182.8784515117425
 21
110.1919282370942
 31
0.0000000000000000
  0
LINE
  5
3AC
100
AcDbEntity
  8
MAIN0
  6
BYBLOCK
 62
0
100
AcDbLine
 10
182.8784515117426
 20
96.19192823709420
 30
0.0000000000000000
 11
259.8784515117425
 21
96.19192823709420
 31
0.0000000000000000
  0
LINE
  5
3AD
100
AcDbEntity
  8
MAIN0
  6
BYBLOCK
 62
0
100
AcDbLine
 10
182.8784515117426
 20
89.19192823709420
 30
0.0000000000000000
 11
259.8784515117425
 21
89.19192823709420
 31
0.0000000000000000
  0
LINE
  5
3AE
100
AcDbEntity
  8
MAIN0
  6
BYBLOCK
 62
0
100
AcDbLine
 10
225.8616398800158
 20
79.19192823709420
 30
0.0000000000000000
 11
259.8784515117425
 21
79.19192823709420
 31
0.0000000000000000
  0
LINE
  5
3AF
100
AcDbEntity
  8
MAIN0
  6
BYBLOCK
 62
0
100
AcDbLine
 10
182.8784515117425
 20
69.19192823709420
 30
0.0000000000000000
 11
259.8784515117425
 21
69.19192823709420
 31
0.0000000000000000
  0
LINE
  5
3B0
100
AcDbEntity
  8
MAIN0
  6
BYBLOCK
 62
0
100
AcDbLine
 10
182.8784515117425
 20
59.19192823709420
 30
0.0000000000000000
 11
259.8784515117425
 21
59.19192823709420
 31
0.0000000000000000
  0
LINE
  5
3B1
100
AcDbEntity
  8
MAIN0
  6
BYBLOCK
 62
0
100
AcDbLine
 10
182.8784515117425
 20
52.19192823709420
 30
0.0000000000000000
 11
259.8784515117425
 21
52.19192823709420
 31
0.0000000000000000
  0
LINE
  5
3B2
100
AcDbEntity
  8
MAIN0
  6
BYBLOCK
 62
0
100
AcDbLine
 10
182.8784515117425
 20
45.19192823709420
 30
0.0000000000000000
 11
259.8784515117425
 21
45.19192823709420
 31
0.0000000000000000
  0
LINE
  5
3B3
100
AcDbEntity
  8
MAIN0
  6
BYBLOCK
 62
0
100
AcDbLine
 10
182.8784515117425
 20
35.19192823709420
 30
0.0000000000000000
 11
259.8784515117425
 21
35.19192823709420
 31
0.0000000000000000
  0
LINE
  5
3B4
100
AcDbEntity
  8
MAIN0
  6
BYBLOCK
 62
0
100
AcDbLine
 10
182.8784515117425
 20
17.69192823709417
 30
0.0000000000000000
 11
259.8784515117425
 21
17.69192823709395
 31
0.0000000000000000
  0
LINE
  5
3B5
100
AcDbEntity
  8
MAIN0
  6
BYBLOCK
 62
0
100
AcDbLine
 10
229.8784515117424
 20
17.69192823709409
 30
0.0000000000000000
 11
229.8784515117424
 21
103.1919282370942
 31
0.0000000000000000
  0
LINE
  5
3B6
100
AcDbEntity
  8
MAIN0
  6
BYBLOCK
 62
0
100
AcDbLine
 10
259.8784515117425
 20
17.69192823709398
 30
0.0000000000000000
 11
259.8784515117425
 21
110.1919282370942
 31
0.0000000000000000
  0
LINE
  5
3B7
100
AcDbEntity
  8
MAIN0
  6
BYBLOCK
 62
0
100
AcDbLine
 10
182.8784515117425
 20
28.19192823709420
 30
0.0000000000000000
 11
259.8784515117425
 21
28.19192823709420
 31
0.0000000000000000
  0
MTEXT
  5
3B8
100
AcDbEntity
  8
MAIN0
  6
BYBLOCK
 62
0
100
AcDbMText
 10
184.8784515117425
 20
57.19192823709432
 30
0.0000000000000000
 40
3.000000000000000
 41
0.0000000000000000
 71
     1
 72
     1
  1
{\H0.93x;MAX. SPEED}
 11
1.000000000000000
 21
0.0000000000000000
 31
0.0000000000000000
  7
STANDARD
  0
MTEXT
  5
3B9
100
AcDbEntity
  8
MAIN0
  6
BYBLOCK
 62
0
100
AcDbMText
 10
184.8784515117425
 20
50.19192823709432
 30
0.0000000000000000
 40
3.000000000000000
 41
0.0000000000000000
 71
     1
 72
     1
  1
{\H0.91x;MASS}
 11
1.000000000000000
 21
0.0000000000000000
 31
0.0000000000000000
  7
STANDARD
  0
MTEXT
  5
3BA
100
AcDbEntity
  8
MAIN0
  6
BYBLOCK
 62
0
100
AcDbMText
 10
184.8784515117425
 20
41.69192823709426
 30
0.0000000000000000
 40
3.000000000000000
 41
0.0000000000000000
 71
     1
 72
     1
  1
{\H0.63x;MOMENT OF INERTIA}
 11
1.000000000000000
 21
0.0000000000000000
 31
0.0000000000000000
  7
STANDARD
  0
MTEXT
  5
3BB
100
AcDbEntity
  8
MAIN0
  6
BYBLOCK
 62
0
100
AcDbMText
 10
244.8784515117424
 20
99.99192747415461
 30
0.0000000000000000
 40
2.799999237060547
 41
0.0000000000000000
 71
     1
 72
     1
  1
{\H0.62x;　　　　mm}
 11
1.000000000000000
 21
0.0000000000000000
 31
0.0000000000000000
  7
KNJYOKO
  0
MTEXT
  5
3BC
100
AcDbEntity
  8
MAIN0
  6
BYBLOCK
 62
0
100
AcDbMText
 10
244.8784515117424
 20
48.99192747415464
 30
0.0000000000000000
 40
2.799999237060547
 41
0.0000000000000000
 71
     1
 72
     1
  1
{\H0.62x;　　　　kg}
 11
1.000000000000000
 21
0.0000000000000000
 31
0.0000000000000000
  7
KNJYOKO
  0
MTEXT
  5
3BD
100
AcDbEntity
  8
MAIN0
  6
BYBLOCK
 62
0
100
AcDbMText
 10
256.3386407849417
 20
42.31084063926346
 30
0.0000000000000000
 40
2.000000000000000
 41
0.0000000000000000
 71
     1
 72
     1
  1
{\H0.81x;2}
 11
1.000000000000000
 21
0.0000000000000000
 31
0.0000000000000000
  7
STANDARD
  0
MTEXT
  5
3BE
100
AcDbEntity
  8
MAIN0
  6
BYBLOCK
 62
0
100
AcDbMText
 10
188.1284515117425
 20
109.3419283324616
 30
0.0000000000000000
 40
5.300000190734863
 41
0.0000000000000000
 71
     1
 72
     1
  1
{\H0.94x;SPECIFICATIONS}
 11
1.000000000000000
 21
0.0000000000000000
 31
0.0000000000000000
  7
STANDARD
  0
MTEXT
  5
3BF
100
AcDbEntity
  8
MAIN0
  6
BYBLOCK
 62
0
100
AcDbMText
 10
184.8784515117425
 20
101.1919282370942
 30
0.0000000000000000
 40
3.000000000000000
 41
0.0000000000000000
 71
     1
 72
     1
  1
{\H0.93x;PISTON DIA}
 11
1.000000000000000
 21
0.0000000000000000
 31
0.0000000000000000
  7
STANDARD
  0
MTEXT
  5
3C0
100
AcDbEntity
  8
MAIN0
  6
BYBLOCK
 62
0
100
AcDbMText
 10
184.8784515117425
 20
94.19192823709443
 30
0.0000000000000000
 40
3.000000000000000
 41
0.0000000000000000
 71
     1
 72
     1
  1
{\H0.93x;PISTON STROKE}
 11
1.000000000000000
 21
0.0000000000000000
 31
0.0000000000000000
  7
STANDARD
  0
MTEXT
  5
3C1
100
AcDbEntity
  8
MAIN0
  6
BYBLOCK
 62
0
100
AcDbMText
 10
184.8784515117425
 20
85.19192823709443
 30
0.0000000000000000
 40
3.000000000000000
 41
0.0000000000000000
 71
     1
 72
     1
  1
{\H0.93x;PISTON THRUST}
 11
1.000000000000000
 21
0.0000000000000000
 31
0.0000000000000000
  7
STANDARD
  0
MTEXT
  5
3C2
100
AcDbEntity
  8
MAIN0
  6
BYBLOCK
 62
0
100
AcDbMText
 10
182.8784515117425
 20
79.19192823709432
 30
0.0000000000000000
 40
3.000000000000000
 41
0.0000000000000000
 71
     1
 72
     1
  1
{\H0.94x;(AT  　 　　　　　)}
 11
1.000000000000000
 21
0.0000000000000000
 31
0.0000000000000000
  7
KNJYOKO
  0
MTEXT
  5
3C3
100
AcDbEntity
  8
MAIN0
  6
BYBLOCK
 62
0
100
AcDbMText
 10
184.8784515117425
 20
26.19192823709426
 30
0.0000000000000000
 40
3.000000000000000
 41
0.0000000000000000
 71
     1
 72
     1
  1
{\H0.93x;OIL LEAKAGE}
 11
1.000000000000000
 21
0.0000000000000000
 31
0.0000000000000000
  7
STANDARD
  0
MTEXT
  5
3C4
100
AcDbEntity
  8
MAIN0
  6
BYBLOCK
 62
0
100
AcDbMText
 10
222.1615622535581
 20
85.42821841780449
 30
0.0000000000000000
 40
3.000000000000000
 41
0.0000000000000000
 71
     1
 72
     1
  1
{\H0.63x;PUSH}
 11
1.000000000000000
 21
0.0000000000000000
 31
0.0000000000000000
  7
STANDARD
  0
MTEXT
  5
3C5
100
AcDbEntity
  8
MAIN0
  6
BYBLOCK
 62
0
100
AcDbMText
 10
222.1615622535581
 20
75.42821841780437
 30
0.0000000000000000
 40
3.000000000000000
 41
0.0000000000000000
 71
     1
 72
     1
  1
{\H0.63x;PULL}
 11
1.000000000000000
 21
0.0000000000000000
 31
0.0000000000000000
  7
STANDARD
  0
MTEXT
  5
3C6
100
AcDbEntity
  8
MAIN0
  6
BYBLOCK
 62
0
100
AcDbMText
 10
184.8784515117425
 20
21.69192823709426
 30
0.0000000000000000
 40
2.000000000000000
 41
0.0000000000000000
 71
     1
 72
     1
  1
{\H0.94x;ISO,VG 32,50℃,3.0MPa}
 11
1.000000000000000
 21
0.0000000000000000
 31
0.0000000000000000
  7
KNJYOKO
  0
MTEXT
  5
3C7
100
AcDbEntity
  8
MAIN0
  6
BYBLOCK
 62
0
100
AcDbMText
 10
244.8784515117424
 20
21.49192747415464
 30
0.0000000000000000
 40
2.799999237060547
 41
0.0000000000000000
 71
     1
 72
     1
  1
{\H0.67x;　　/min}
 11
1.000000000000000
 21
0.0000000000000000
 31
0.0000000000000000
  7
KNJYOKO
  0
MTEXT
  5
3C8
100
AcDbEntity
  8
MAIN0
  6
BYBLOCK
 62
0
100
AcDbMText
 10
184.8784515117425
 20
65.69192823709432
 30
0.0000000000000000
 40
3.000000000000000
 41
0.0000000000000000
 71
     1
 72
     1
  1
{\H0.63x;MAX. OPERATING PRESSURE}
 11
1.000000000000000
 21
0.0000000000000000
 31
0.0000000000000000
  7
STANDARD
  0
MTEXT
  5
3C9
100
AcDbEntity
  8
MAIN0
  6
BYBLOCK
 62
0
100
AcDbMText
 10
248.9226171074967
 20
40.84750849716460
 30
0.0000000000000000
 40
2.799999237060547
 41
0.0000000000000000
 71
     1
 72
     1
  1
{\H0.67x;kg・m}
 11
1.000000000000000
 21
0.0000000000000000
 31
0.0000000000000000
  7
KNJYOKO
  0
MTEXT
  5
3CA
100
AcDbEntity
  8
MAIN0
  6
BYBLOCK
 62
0
100
AcDbMText
 10
244.8784515117424
 20
66.49192747415464
 30
0.0000000000000000
 40
2.799999237060547
 41
0.0000000000000000
 71
     1
 72
     1
  1
{\H0.64x;　　　MPa}
 11
1.000000000000000
 21
0.0000000000000000
 31
0.0000000000000000
  7
KNJYOKO
  0
MTEXT
  5
3CB
100
AcDbEntity
  8
MAIN0
  6
BYBLOCK
 62
0
100
AcDbMText
 10
205.7961444671110
 20
78.99192747415488
 30
0.0000000000000000
 40
2.799999237060547
 41
0.0000000000000000
 71
     1
 72
     1
  1
{\H0.64x;　　　MPa}
 11
1.000000000000000
 21
0.0000000000000000
 31
0.0000000000000000
  7
KNJYOKO
  0
MTEXT
  5
3CC
100
AcDbEntity
  8
MAIN0
  6
BYBLOCK
 62
0
100
AcDbMText
 10
244.8784515117424
 20
86.49192747415475
 30
0.0000000000000000
 40
2.799999237060547
 41
0.0000000000000000
 71
     1
 72
     1
  1
{\H0.62x;　　　　kN}
 11
1.000000000000000
 21
0.0000000000000000
 31
0.0000000000000000
  7
KNJYOKO
  0
MTEXT
  5
3CD
100
AcDbEntity
  8
MAIN0
  6
BYBLOCK
 62
0
100
AcDbMText
 10
244.8784515117424
 20
55.99192747415464
 30
0.0000000000000000
 40
2.799999237060547
 41
0.0000000000000000
 71
     1
 72
     1
  1
{\H0.65x;　　min}
 11
1.000000000000000
 21
0.0000000000000000
 31
0.0000000000000000
  7
KNJYOKO
  0
MTEXT
  5
3CE
100
AcDbEntity
  8
MAIN0
  6
BYBLOCK
 62
0
100
AcDbMText
 10
255.0331197600623
 20
56.66147202704940
 30
0.0000000000000000
 40
2.000000000000000
 41
0.0000000000000000
 71
     1
 72
     1
  1
{\H0.88x;-1}
 11
1.000000000000000
 21
0.0000000000000000
 31
0.0000000000000000
  7
STANDARD
  0
MTEXT
  5
3CF
100
AcDbEntity
  8
MAIN0
  6
BYBLOCK
 62
0
100
AcDbMText
 10
244.8784515117424
 20
92.99192747415475
 30
0.0000000000000000
 40
2.799999237060547
 41
0.0000000000000000
 71
     1
 72
     1
  1
{\H0.62x;　　　　mm}
 11
1.000000000000000
 21
0.0000000000000000
 31
0.0000000000000000
  7
KNJYOKO
  0
MTEXT
  5
3D0
100
AcDbEntity
  8
MAIN0
  6
BYBLOCK
 62
0
100
AcDbMText
 10
244.8784515117424
 20
76.49192747415464
 30
0.0000000000000000
 40
2.799999237060547
 41
0.0000000000000000
 71
     1
 72
     1
  1
{\H0.62x;　　　　kN}
 11
1.000000000000000
 21
0.0000000000000000
 31
0.0000000000000000
  7
KNJYOKO
  0
ENDBLK
  5
3D1
100
AcDbEntity
  8
MAIN0
  6
BYBLOCK
 62
3
100
AcDbBlockEnd
  0
BLOCK
  5
3D3
100
AcDbEntity
  8
MAIN0
  6
CONTINUOUS
 62
3
100
AcDbBlockBegin
  2
*D24
 70
    65
 10
0.0
 20
0.0
 30
0.0
  0
LINE
  5
3D4
100
AcDbEntity
  8
MAIN0
  6
BYBLOCK
 62
0
100
AcDbLine
 10
463.4995776530589
 20
173.7008699520071
 30
0.0000000000000000
 11
463.4995776530589
 21
150.9008699639282
 31
0.0000000000000000
  0
LINE
  5
3D5
100
AcDbEntity
  8
MAIN0
  6
BYBLOCK
 62
0
100
AcDbLine
 10
461.4995776530589
 20
152.9008699639282
 30
0.0000000000000000
 11
451.4995776530583
 21
152.9008699639282
 31
0.0000000000000000
  0
INSERT
  5
3D6
100
AcDbEntity
  8
MAIN0
  6
BYBLOCK
 62
0
100
AcDbBlockReference
  2
_OPEN
 10
463.4995776530589
 20
152.9008699639282
 30
0.0000000000000000
 41
2.000000000000000
 42
2.000000000000000
 43
2.000000000000000
 50
360.0000000000000
  0
INSERT
  5
3D7
100
AcDbEntity
  8
MAIN0
  6
BYBLOCK
 62
0
100
AcDbBlockReference
  2
_OPEN
 10
449.4995776530583
 20
152.9008699639282
 30
0.0000000000000000
 41
2.000000000000000
 42
2.000000000000000
 43
2.000000000000000
 50
180.0000000000000
  0
LINE
  5
3D8
100
AcDbEntity
  8
MAIN0
  6
BYBLOCK
 62
0
100
AcDbLine
 10
449.4995776530583
 20
170.2008699520071
 30
0.0000000000000000
 11
449.4995776530583
 21
150.9008699639282
 31
0.0000000000000000
  0
MTEXT
  5
3D9
100
AcDbEntity
  8
MAIN0
  6
BYBLOCK
 62
0
100
AcDbMText
 10
456.4995776530585
 20
154.9508699162445
 30
0.0000000000000000
 40
3.099999904632568
 41
0.0000000000000000
 71
     5
 72
     1
  1
\A1;14
 11
1.000000000000000
 21
0.0000000000000000
 31
0.0000000000000000
  7
STANDARD
  0
ENDBLK
  5
3DA
100
AcDbEntity
  8
MAIN0
  6
CONTINUOUS
 62
3
100
AcDbBlockEnd
  0
BLOCK
  5
3DC
100
AcDbEntity
  8
MAIN0
  6
CONTINUOUS
 62
3
100
AcDbBlockBegin
  2
*D25
 70
    65
 10
0.0
 20
0.0
 30
0.0
  0
LINE
  5
3DD
100
AcDbEntity
  8
MAIN0
  6
BYBLOCK
 62
0
100
AcDbLine
 10
449.4995776530583
 20
170.2008699520071
 30
0.0000000000000000
 11
449.4995776530583
 21
150.9008699639282
 31
0.0000000000000000
  0
LINE
  5
3DE
100
AcDbEntity
  8
MAIN0
  6
BYBLOCK
 62
0
100
AcDbLine
 10
447.4995776530583
 20
152.9008699639282
 30
0.0000000000000000
 11
326.4995776530619
 21
152.9008699639282
 31
0.0000000000000000
  0
INSERT
  5
3DF
100
AcDbEntity
  8
MAIN0
  6
BYBLOCK
 62
0
100
AcDbBlockReference
  2
_OPEN
 10
449.4995776530583
 20
152.9008699639282
 30
0.0000000000000000
 41
2.000000000000000
 42
2.000000000000000
 43
2.000000000000000
 50
360.0000000000000
  0
INSERT
  5
3E0
100
AcDbEntity
  8
MAIN0
  6
BYBLOCK
 62
0
100
AcDbBlockReference
  2
_OPEN
 10
324.4995776530619
 20
152.9008699639282
 30
0.0000000000000000
 41
2.000000000000000
 42
2.000000000000000
 43
2.000000000000000
 50
180.0000000000000
  0
LINE
  5
3E1
100
AcDbEntity
  8
MAIN0
  6
BYBLOCK
 62
0
100
AcDbLine
 10
324.4995776530619
 20
162.5228005629662
 30
0.0000000000000000
 11
324.4995776530619
 21
150.9008699639282
 31
0.0000000000000000
  0
MTEXT
  5
3E2
100
AcDbEntity
  8
MAIN0
  6
BYBLOCK
 62
0
100
AcDbMText
 10
386.9995776530601
 20
154.9508699162445
 30
0.0000000000000000
 40
3.099999904632568
 41
0.0000000000000000
 71
     5
 72
     1
  1
\A1;125
 11
1.000000000000000
 21
0.0000000000000000
 31
0.0000000000000000
  7
STANDARD
  0
ENDBLK
  5
3E3
100
AcDbEntity
  8
MAIN0
  6
CONTINUOUS
 62
3
100
AcDbBlockEnd
  0
BLOCK
  5
3E5
100
AcDbEntity
  8
MAIN0
  6
CONTINUOUS
 62
3
100
AcDbBlockBegin
  2
*D26
 70
    65
 10
0.0
 20
0.0
 30
0.0
  0
LINE
  5
3E6
100
AcDbEntity
  8
MAIN0
  6
BYBLOCK
 62
0
100
AcDbLine
 10
509.4995776530583
 20
228.2008699520071
 30
0.0000000000000000
 11
509.4995776530583
 21
140.9008699639282
 31
0.0000000000000000
  0
LINE
  5
3E7
100
AcDbEntity
  8
MAIN0
  6
BYBLOCK
 62
0
100
AcDbLine
 10
507.4995776530583
 20
142.9008699639282
 30
0.0000000000000000
 11
451.4995776530583
 21
142.9008699639282
 31
0.0000000000000000
  0
INSERT
  5
3E8
100
AcDbEntity
  8
MAIN0
  6
BYBLOCK
 62
0
100
AcDbBlockReference
  2
_OPEN
 10
509.4995776530583
 20
142.9008699639282
 30
0.0000000000000000
 41
2.000000000000000
 42
2.000000000000000
 43
2.000000000000000
 50
360.0000000000000
  0
INSERT
  5
3E9
100
AcDbEntity
  8
MAIN0
  6
BYBLOCK
 62
0
100
AcDbBlockReference
  2
_OPEN
 10
449.4995776530583
 20
142.9008699639282
 30
0.0000000000000000
 41
2.000000000000000
 42
2.000000000000000
 43
2.000000000000000
 50
180.0000000000000
  0
LINE
  5
3EA
100
AcDbEntity
  8
MAIN0
  6
BYBLOCK
 62
0
100
AcDbLine
 10
449.4995776530583
 20
170.2008699520071
 30
0.0000000000000000
 11
449.4995776530583
 21
140.9008699639282
 31
0.0000000000000000
  0
MTEXT
  5
3EB
100
AcDbEntity
  8
MAIN0
  6
BYBLOCK
 62
0
100
AcDbMText
 10
479.4995776530583
 20
144.9508699162445
 30
0.0000000000000000
 40
3.099999904632568
 41
0.0000000000000000
 71
     5
 72
     1
  1
\A1;MAX 60
 11
1.000000000000000
 21
0.0000000000000000
 31
0.0000000000000000
  7
STANDARD
  0
ENDBLK
  5
3EC
100
AcDbEntity
  8
MAIN0
  6
CONTINUOUS
 62
3
100
AcDbBlockEnd
  0
BLOCK
  5
3EE
100
AcDbEntity
  8
MAIN0
  6
CONTINUOUS
 62
3
100
AcDbBlockBegin
  2
*D27
 70
    65
 10
0.0
 20
0.0
 30
0.0
  0
LINE
  5
3EF
100
AcDbEntity
  8
MAIN0
  6
BYBLOCK
 62
0
100
AcDbLine
 10
449.4995776530583
 20
170.2008699520071
 30
0.0000000000000000
 11
449.4995776530583
 21
140.9008699639282
 31
0.0000000000000000
  0
LINE
  5
3F0
100
AcDbEntity
  8
MAIN0
  6
BYBLOCK
 62
0
100
AcDbLine
 10
447.4995776530583
 20
142.9008699639282
 30
0.0000000000000000
 11
316.4995776530589
 21
142.9008699639282
 31
0.0000000000000000
  0
INSERT
  5
3F1
100
AcDbEntity
  8
MAIN0
  6
BYBLOCK
 62
0
100
AcDbBlockReference
  2
_OPEN
 10
449.4995776530583
 20
142.9008699639282
 30
0.0000000000000000
 41
2.000000000000000
 42
2.000000000000000
 43
2.000000000000000
 50
360.0000000000000
  0
INSERT
  5
3F2
100
AcDbEntity
  8
MAIN0
  6
BYBLOCK
 62
0
100
AcDbBlockReference
  2
_OPEN
 10
314.4995776530589
 20
142.9008699639282
 30
0.0000000000000000
 41
2.000000000000000
 42
2.000000000000000
 43
2.000000000000000
 50
180.0000000000000
  0
LINE
  5
3F3
100
AcDbEntity
  8
MAIN0
  6
BYBLOCK
 62
0
100
AcDbLine
 10
314.4995776530589
 20
162.1008699520073
 30
0.0000000000000000
 11
314.4995776530589
 21
140.9008699639282
 31
0.0000000000000000
  0
MTEXT
  5
3F4
100
AcDbEntity
  8
MAIN0
  6
BYBLOCK
 62
0
100
AcDbMText
 10
381.9995776530586
 20
144.9508699162445
 30
0.0000000000000000
 40
3.099999904632568
 41
0.0000000000000000
 71
     5
 72
     1
  1
\A1;135
 11
1.000000000000000
 21
0.0000000000000000
 31
0.0000000000000000
  7
STANDARD
  0
ENDBLK
  5
3F5
100
AcDbEntity
  8
MAIN0
  6
CONTINUOUS
 62
3
100
AcDbBlockEnd
  0
BLOCK
  5
3F7
100
AcDbEntity
  8
MAIN0
  6
CONTINUOUS
 62
3
100
AcDbBlockBegin
  2
D28
 70
    64
 10
0.0
 20
0.0
 30
0.0
  0
LINE
  5
3F8
100
AcDbEntity
  8
MAIN0
  6
BYBLOCK
 62
0
100
AcDbLine
 10
0.0000000000000000
 20
-41.45000050346573
 30
0.0000000000000000
 11
0.0000000000000000
 21
-79.59999999999985
 31
0.0000000000000000
  0
LINE
  5
3F9
100
AcDbEntity
  8
MAIN0
  6
BYBLOCK
 62
0
100
AcDbLine
 10
0.6000000238418578
 20
-77.59999999999985
 30
0.0000000000000000
 11
0.0000000000000000
 21
-79.59999999999985
 31
0.0000000000000000
  0
LINE
  5
3FA
100
AcDbEntity
  8
MAIN0
  6
BYBLOCK
 62
0
100
AcDbLine
 10
0.0000000000000000
 20
-79.59999999999985
 30
0.0000000000000000
 11
-0.6000000238418580
 21
-77.59999999999985
 31
0.0000000000000000
  0
LINE
  5
3FB
100
AcDbEntity
  8
MAIN0
  6
BYBLOCK
 62
0
100
AcDbLine
 10
9.199999988079071
 20
-79.59999999999985
 30
0.0000000000000000
 11
-2.000000000000000
 21
-79.59999999999985
 31
0.0000000000000000
  0
MTEXT
  5
3FC
100
AcDbEntity
  8
MAIN0
  6
BYBLOCK
 62
0
100
AcDbMText
 10
-2.049999952316284
 20
-47.50000000000000
 30
0.0000000000000000
 40
3.099999904632568
 41
0.0000000000000000
 71
     5
 72
     1
  1
\A1;\U+2205159.2
 11
6.123233995736766e-017
 21
1.000000000000000
 31
0.0000000000000000
  7
STANDARD
  0
ENDBLK
  5
3FD
100
AcDbEntity
  8
MAIN0
  6
CONTINUOUS
 62
3
100
AcDbBlockEnd
  0
BLOCK
  5
3FF
100
AcDbEntity
  8
MAIN0
  6
CONTINUOUS
 62
3
100
AcDbBlockBegin
  2
D29
 70
    64
 10
0.0
 20
0.0
 30
0.0
  0
LINE
  5
400
100
AcDbEntity
  8
MAIN0
  6
BYBLOCK
 62
0
100
AcDbLine
 10
36.80200232327707
 20
7.625001279289108
 30
0.0000000000000000
 11
36.80200232327707
 21
-64.00000000000000
 31
0.0000000000000000
  0
LINE
  5
401
100
AcDbEntity
  8
MAIN0
  6
BYBLOCK
 62
0
100
AcDbLine
 10
37.40200234711892
 20
-62.00000000000000
 30
0.0000000000000000
 11
36.80200232327707
 21
-64.00000000000000
 31
0.0000000000000000
  0
LINE
  5
402
100
AcDbEntity
  8
MAIN0
  6
BYBLOCK
 62
0
100
AcDbLine
 10
36.80200232327707
 20
-64.00000000000000
 30
0.0000000000000000
 11
36.20200229943521
 21
-62.00000000000000
 31
0.0000000000000000
  0
LINE
  5
403
100
AcDbEntity
  8
MAIN0
  6
BYBLOCK
 62
0
100
AcDbLine
 10
-47.04976837034303
 20
-64.00000000000000
 30
0.0000000000000000
 11
38.80200232327707
 21
-64.00000000000000
 31
0.0000000000000000
  0
MTEXT
  5
404
100
AcDbEntity
  8
MAIN0
  6
BYBLOCK
 62
0
100
AcDbMText
 10
34.75200237096078
 20
-8.940696716308594e-008
 30
0.0000000000000000
 40
3.099999904632568
 41
0.0000000000000000
 71
     5
 72
     1
  1
\A1;\U+2205128\H0.903226x;\U+00B10.2
 11
6.123233995736766e-017
 21
1.000000000000000
 31
0.0000000000000000
  7
STANDARD
  0
ENDBLK
  5
405
100
AcDbEntity
  8
MAIN0
  6
CONTINUOUS
 62
3
100
AcDbBlockEnd
  0
BLOCK
  5
407
100
AcDbEntity
  8
MAIN0
  6
CONTINUOUS
 62
3
100
AcDbBlockBegin
  2
*D30
 70
    65
 10
0.0
 20
0.0
 30
0.0
  0
LINE
  5
408
100
AcDbEntity
  8
MAIN0
  6
BYBLOCK
 62
0
100
AcDbLine
 10
451.4995776530583
 20
206.5008699639281
 30
0.0000000000000000
 11
462.4995776530583
 21
206.5008699639281
 31
0.0000000000000000
  0
INSERT
  5
409
100
AcDbEntity
  8
MAIN0
  6
BYBLOCK
 62
0
100
AcDbBlockReference
  2
_OPEN
 10
449.4995776530583
 20
206.5008699639281
 30
0.0000000000000000
 41
2.000000000000000
 42
2.000000000000000
 43
2.000000000000000
 50
180.0000000000000
  0
INSERT
  5
40A
100
AcDbEntity
  8
MAIN0
  6
BYBLOCK
 62
0
100
AcDbBlockReference
  2
_OPEN
 10
464.4995776530583
 20
206.5008699639281
 30
0.0000000000000000
 41
2.000000000000000
 42
2.000000000000000
 43
2.000000000000000
 50
0.0000000000000000
  0
LINE
  5
40B
100
AcDbEntity
  8
MAIN0
  6
BYBLOCK
 62
0
100
AcDbLine
 10
464.4995776530583
 20
220.7008699520071
 30
0.0000000000000000
 11
464.4995776530583
 21
204.5008699639281
 31
0.0000000000000000
  0
MTEXT
  5
40C
100
AcDbEntity
  8
MAIN0
  6
BYBLOCK
 62
0
100
AcDbMText
 10
456.9995776530583
 20
208.5508699162444
 30
0.0000000000000000
 40
3.099999904632568
 41
0.0000000000000000
 71
     5
 72
     1
  1
\A1;15
 11
1.000000000000000
 21
0.0000000000000000
 31
0.0000000000000000
  7
STANDARD
  0
ENDBLK
  5
40D
100
AcDbEntity
  8
MAIN0
  6
CONTINUOUS
 62
3
100
AcDbBlockEnd
  0
BLOCK
  5
427
100
AcDbEntity
  8
MAIN0
  6
CONTINUOUS
 62
3
100
AcDbBlockBegin
  2
*D31
 70
    65
 10
0.0
 20
0.0
 30
0.0
  0
LINE
  5
428
100
AcDbEntity
  8
MAIN0
  6
BYBLOCK
 62
0
100
AcDbLine
 10
192.4290054719264
 20
165.7653976933125
 30
0.0000000000000000
 11
201.0957329889098
 21
141.9537595398375
 31
0.0000000000000000
  0
ARC
  5
429
100
AcDbEntity
  8
MAIN0
  6
BYBLOCK
 62
0
100
AcDbCircle
 10
164.4995776530590
 20
242.5008699639277
 30
0.0000000000000000
 40
104.9999999999996
100
AcDbArc
 50
271.0913481812040
 51
288.9086518188009
  0
INSERT
  5
42A
100
AcDbEntity
  8
MAIN0
  6
BYBLOCK
 62
0
100
AcDbBlockReference
  2
_OPEN
 10
164.4995776530634
 20
137.5008699639281
 30
0.0000000000000000
 41
2.000000000000000
 42
2.000000000000000
 43
2.000000000000000
 50
180.0000000000025
  0
INSERT
  5
42B
100
AcDbEntity
  8
MAIN0
  6
BYBLOCK
 62
0
100
AcDbBlockReference
  2
_OPEN
 10
200.4116927022584
 20
143.8331447814093
 30
0.0000000000000000
 41
2.000000000000000
 42
2.000000000000000
 43
2.000000000000000
 50
20.00000000000250
  0
MTEXT
  5
42C
100
AcDbEntity
  8
MAIN0
  6
BYBLOCK
 62
0
100
AcDbMText
 10
182.3766575521539
 20
141.1149117443628
 30
0.0000000000000000
 40
3.099999904632568
 41
0.0000000000000000
 71
     5
 72
     1
  1
\A1;20\U+00B0
 11
0.9848077530122006
 21
0.1736481776669730
 31
0.0000000000000000
  7
STANDARD
  0
ENDBLK
  5
42D
100
AcDbEntity
  8
MAIN0
  6
CONTINUOUS
 62
3
100
AcDbBlockEnd
  0
BLOCK
  5
42F
100
AcDbEntity
  8
MAIN0
  6
CONTINUOUS
 62
3
100
AcDbBlockBegin
  2
*D32
 70
    65
 10
0.0
 20
0.0
 30
0.0
  0
LINE
  5
430
100
AcDbEntity
  8
MAIN0
  6
BYBLOCK
 62
0
100
AcDbLine
 10
192.4290054719264
 20
165.7653976933125
 30
0.0000000000000000
 11
201.0957329889098
 21
141.9537595398375
 31
0.0000000000000000
  0
LINE
  5
431
100
AcDbEntity
  8
MAIN0
  6
BYBLOCK
 62
0
100
AcDbLine
 10
260.5148058674716
 20
242.5008699639280
 30
0.0000000000000000
 11
271.4995776530586
 21
242.5008699639276
 31
0.0000000000000000
  0
ARC
  5
432
100
AcDbEntity
  8
MAIN0
  6
BYBLOCK
 62
0
100
AcDbCircle
 10
164.4995776530590
 20
242.5008699639277
 30
0.0000000000000000
 40
104.9999999999996
100
AcDbArc
 50
291.0913481812041
 51
358.9086518187985
  0
INSERT
  5
433
100
AcDbEntity
  8
MAIN0
  6
BYBLOCK
 62
0
100
AcDbBlockReference
  2
_OPEN
 10
200.4116927022584
 20
143.8331447814093
 30
0.0000000000000000
 41
2.000000000000000
 42
2.000000000000000
 43
2.000000000000000
 50
200.0000000000025
  0
INSERT
  5
434
100
AcDbEntity
  8
MAIN0
  6
BYBLOCK
 62
0
100
AcDbBlockReference
  2
_OPEN
 10
269.4995776530586
 20
242.5008699639277
 30
0.0000000000000000
 41
2.000000000000000
 42
2.000000000000000
 43
2.000000000000000
 50
90.00000000000000
  0
MTEXT
  5
435
100
AcDbEntity
  8
MAIN0
  6
BYBLOCK
 62
0
100
AcDbMText
 10
248.8312806516719
 20
183.4511758142393
 30
0.0000000000000000
 40
3.099999904632568
 41
0.0000000000000000
 71
     5
 72
     1
  1
\A1;70\U+00B0
 11
0.5735764363510281
 21
0.8191520442890043
 31
0.0000000000000000
  7
STANDARD
  0
ENDBLK
  5
436
100
AcDbEntity
  8
MAIN0
  6
CONTINUOUS
 62
3
100
AcDbBlockEnd
  0
BLOCK
  5
43A
100
AcDbEntity
  8
MAIN0
  6
CONTINUOUS
 62
3
100
AcDbBlockBegin
  2
*D33
 70
    65
 10
0.0
 20
0.0
 30
0.0
  0
LINE
  5
43B
100
AcDbEntity
  8
MAIN0
  6
BYBLOCK
 62
0
100
AcDbLine
 10
260.5148058674716
 20
242.5008699639281
 30
0.0000000000000000
 11
271.4995776530586
 21
242.5008699639281
 31
0.0000000000000000
  0
ARC
  5
43C
100
AcDbEntity
  8
MAIN0
  6
BYBLOCK
 62
0
100
AcDbCircle
 10
166.8311271379810
 20
242.5008699639281
 30
0.0000000000000000
 40
102.6684505150776
100
AcDbArc
 50
1.116132155996024
 51
63.88386784390671
  0
INSERT
  5
43D
100
AcDbEntity
  8
MAIN0
  6
BYBLOCK
 62
0
100
AcDbBlockReference
  2
_OPEN
 10
269.4995776530586
 20
242.5008699639281
 30
0.0000000000000000
 41
2.000000000000000
 42
2.000000000000000
 43
2.000000000000000
 50
270.0000000000000
  0
INSERT
  5
43E
100
AcDbEntity
  8
MAIN0
  6
BYBLOCK
 62
0
100
AcDbBlockReference
  2
_OPEN
 10
210.2206892304321
 20
335.5500861486562
 30
0.0000000000000000
 41
2.000000000000000
 42
2.000000000000000
 43
2.000000000000000
 50
154.9999999999027
  0
MTEXT
  5
43F
100
AcDbEntity
  8
MAIN0
  6
BYBLOCK
 62
0
100
AcDbMText
 10
255.1497724810091
 20
298.7660523866701
 30
0.0000000000000000
 40
3.099999904632568
 41
0.0000000000000000
 71
     5
 72
     1
  1
\A1;65\U+00B0
 11
0.5372996083461078
 21
-0.8433914458133419
 31
0.0000000000000000
  7
STANDARD
  0
ENDBLK
  5
440
100
AcDbEntity
  8
MAIN0
  6
CONTINUOUS
 62
3
100
AcDbBlockEnd
  0
BLOCK
  5
442
100
AcDbEntity
  8
MAIN0
  6
CONTINUOUS
 62
3
100
AcDbBlockBegin
  2
*D34
 70
    65
 10
0.0
 20
0.0
 30
0.0
  0
ARC
  5
443
100
AcDbEntity
  8
MAIN0
  6
BYBLOCK
 62
0
100
AcDbCircle
 10
164.4995776530592
 20
237.5008459580250
 30
0.0000000000000000
 40
108.1853665974778
100
AcDbArc
 50
66.05921496242647
 51
88.94078503747871
  0
INSERT
  5
444
100
AcDbEntity
  8
MAIN0
  6
BYBLOCK
 62
0
100
AcDbBlockReference
  2
_OPEN
 10
210.2206892304321
 20
335.5500861486562
 30
0.0000000000000000
 41
2.000000000000000
 42
2.000000000000000
 43
2.000000000000000
 50
334.9999999999027
  0
INSERT
  5
445
100
AcDbEntity
  8
MAIN0
  6
BYBLOCK
 62
0
100
AcDbBlockReference
  2
_OPEN
 10
164.4995776530546
 20
345.6862125555028
 30
0.0000000000000000
 41
2.000000000000000
 42
2.000000000000000
 43
2.000000000000000
 50
180.0000000000024
  0
MTEXT
  5
446
100
AcDbEntity
  8
MAIN0
  6
BYBLOCK
 62
0
100
AcDbMText
 10
188.3588778315110
 20
345.1231941639715
 30
0.0000000000000000
 40
3.099999904632568
 41
0.0000000000000000
 71
     5
 72
     1
  1
\A1;25\U+00B0
 11
0.9762960071197542
 21
-0.2164396139389110
 31
0.0000000000000000
  7
STANDARD
  0
ENDBLK
  5
447
100
AcDbEntity
  8
MAIN0
  6
CONTINUOUS
 62
3
100
AcDbBlockEnd
  0
BLOCK
  5
44D
100
AcDbEntity
  8
MAIN0
  6
BYBLOCK
 62
3
100
AcDbBlockBegin
  2
M4
 70
    64
 10
0.0
 20
0.0
 30
0.0
  0
LINE
  5
44E
100
AcDbEntity
  8
MAIN0
  6
BYBLOCK
 62
0
100
AcDbLine
 10
268.1672320843387
 20
39.93809321257339
 30
0.0000000000000000
 11
392.3562691629622
 21
39.93809321257339
 31
0.0000000000000000
  0
MTEXT
  5
44F
100
AcDbEntity
  8
MAIN0
  6
BYBLOCK
 62
0
100
AcDbMText
 10
269.1672320843387
 20
43.53809311720596
 30
0.0000000000000000
 40
3.099999904632568
 41
0.0000000000000000
 71
     1
 72
     1
  1
{\H0.88x;1.}
 11
1.000000000000000
 21
0.0000000000000000
 31
0.0000000000000000
  7
STANDARD
  0
MTEXT
  5
450
100
AcDbEntity
  8
MAIN0
  6
BYBLOCK
 62
0
100
AcDbMText
 10
269.6672320843387
 20
53.93809321257368
 30
0.0000000000000000
 40
6.000000000000000
 41
0.0000000000000000
 71
     1
 72
     1
  1
{\H0.80x;要注意}
 11
1.000000000000000
 21
0.0000000000000000
 31
0.0000000000000000
  7
KNJYOKO
  0
LINE
  5
451
100
AcDbEntity
  8
MAIN0
  6
BYBLOCK
 62
0
100
AcDbLine
 10
288.1672320843387
 20
55.43809321257368
 30
0.0000000000000000
 11
288.1672320843387
 21
46.43809321257368
 31
0.0000000000000000
  0
LINE
  5
452
100
AcDbEntity
  8
MAIN0
  6
BYBLOCK
 62
0
100
AcDbLine
 10
268.1672320843387
 20
46.43809321257368
 30
0.0000000000000000
 11
288.1672320843387
 21
46.43809321257368
 31
0.0000000000000000
  0
LINE
  5
453
100
AcDbEntity
  8
MAIN0
  6
BYBLOCK
 62
0
100
AcDbLine
 10
268.1672320843387
 20
55.43809321257368
 30
0.0000000000000000
 11
268.1672320843387
 21
46.43809321257368
 31
0.0000000000000000
  0
LINE
  5
454
100
AcDbEntity
  8
MAIN0
  6
BYBLOCK
 62
0
100
AcDbLine
 10
268.1672320843387
 20
55.43809321257368
 30
0.0000000000000000
 11
288.1672320843387
 21
55.43809321257368
 31
0.0000000000000000
  0
ENDBLK
  5
455
100
AcDbEntity
  8
MAIN0
  6
BYBLOCK
 62
3
100
AcDbBlockEnd
  0
BLOCK
  5
457
100
AcDbEntity
  8
MAIN0
  6
BYBLOCK
 62
3
100
AcDbBlockBegin
  2
M5
 70
    64
 10
0.0
 20
0.0
 30
0.0
  0
LINE
  5
458
100
AcDbEntity
  8
MAIN0
  6
BYBLOCK
 62
0
100
AcDbLine
 10
268.1672320843387
 20
17.93809321257317
 30
0.0000000000000000
 11
399.4844204490623
 21
17.93809321257317
 31
0.0000000000000000
  0
MTEXT
  5
459
100
AcDbEntity
  8
MAIN0
  6
BYBLOCK
 62
0
100
AcDbMText
 10
269.1672320843387
 20
21.53809311720573
 30
0.0000000000000000
 40
3.099999904632568
 41
0.0000000000000000
 71
     1
 72
     1
  1
{\H0.88x;1.}
 11
1.000000000000000
 21
0.0000000000000000
 31
0.0000000000000000
  7
STANDARD
  0
MTEXT
  5
45A
100
AcDbEntity
  8
MAIN0
  6
BYBLOCK
 62
0
100
AcDbMText
 10
269.9949083245475
 20
31.28796274021593
 30
0.0000000000000000
 40
4.699738979339600
 41
0.0000000000000000
 71
     1
 72
     1
  1
{\H0.91x;NOTE}
 11
1.000000000000000
 21
0.0000000000000000
 31
0.0000000000000000
  7
STANDARD
  0
LINE
  5
45B
100
AcDbEntity
  8
MAIN0
  6
BYBLOCK
 62
0
100
AcDbLine
 10
288.1672320843387
 20
33.43809321257345
 30
0.0000000000000000
 11
288.1672320843387
 21
24.43809321257345
 31
0.0000000000000000
  0
LINE
  5
45C
100
AcDbEntity
  8
MAIN0
  6
BYBLOCK
 62
0
100
AcDbLine
 10
268.1672320843387
 20
24.43809321257345
 30
0.0000000000000000
 11
288.1672320843387
 21
24.43809321257345
 31
0.0000000000000000
  0
LINE
  5
45D
100
AcDbEntity
  8
MAIN0
  6
BYBLOCK
 62
0
100
AcDbLine
 10
268.1672320843387
 20
33.43809321257345
 30
0.0000000000000000
 11
268.1672320843387
 21
24.43809321257345
 31
0.0000000000000000
  0
LINE
  5
45E
100
AcDbEntity
  8
MAIN0
  6
BYBLOCK
 62
0
100
AcDbLine
 10
268.1672320843387
 20
33.43809321257345
 30
0.0000000000000000
 11
288.1672320843387
 21
33.43809321257345
 31
0.0000000000000000
  0
ENDBLK
  5
45F
100
AcDbEntity
  8
MAIN0
  6
BYBLOCK
 62
3
100
AcDbBlockEnd
  0
BLOCK
  5
4AF
100
AcDbEntity
  8
MAIN0
  6
BYBLOCK
 62
3
100
AcDbBlockBegin
  2
*X0
 70
     1
 10
0.0
 20
0.0
 30
0.0
  0
LINE
  5
4B0
100
AcDbEntity
  8
MAIN0
  6
BYBLOCK
 62
0
100
AcDbLine
 10
79.80066142858485
 20
356.4076826532648
 30
0.0000000000000000
 11
81.30066142858476
 21
357.9076826532646
 31
0.0000000000000000
  0
LINE
  5
4B1
100
AcDbEntity
  8
MAIN0
  6
BYBLOCK
 62
0
100
AcDbLine
 10
76.97223430383895
 20
356.4076826532652
 30
0.0000000000000000
 11
78.47223430383846
 21
357.9076826532650
 31
0.0000000000000000
  0
LINE
  5
4B2
100
AcDbEntity
  8
MAIN0
  6
BYBLOCK
 62
0
100
AcDbLine
 10
74.14380717909126
 20
356.4076826532648
 30
0.0000000000000000
 11
75.64380717909216
 21
357.9076826532654
 31
0.0000000000000000
  0
LINE
  5
4B3
100
AcDbEntity
  8
MAIN0
  6
BYBLOCK
 62
0
100
AcDbLine
 10
71.31538005434504
 20
356.4076826532652
 30
0.0000000000000000
 11
72.81538005434499
 21
357.9076826532646
 31
0.0000000000000000
  0
LINE
  5
4B4
100
AcDbEntity
  8
MAIN0
  6
BYBLOCK
 62
0
100
AcDbLine
 10
68.48695292959872
 20
356.4076826532655
 30
0.0000000000000000
 11
69.98695292959866
 21
357.9076826532650
 31
0.0000000000000000
  0
LINE
  5
4B5
100
AcDbEntity
  8
MAIN0
  6
BYBLOCK
 62
0
100
AcDbLine
 10
65.65852580485151
 20
356.4076826532647
 30
0.0000000000000000
 11
67.15852580485245
 21
357.9076826532654
 31
0.0000000000000000
  0
LINE
  5
4B6
100
AcDbEntity
  8
MAIN0
  6
BYBLOCK
 62
0
100
AcDbLine
 10
62.83009868010521
 20
356.4076826532652
 30
0.0000000000000000
 11
64.33009868010470
 21
357.9076826532650
 31
0.0000000000000000
  0
LINE
  5
4B7
100
AcDbEntity
  8
MAIN0
  6
BYBLOCK
 62
0
100
AcDbLine
 10
60.00167155535894
 20
356.4076826532656
 30
0.0000000000000000
 11
61.50167155535843
 21
357.9076826532654
 31
0.0000000000000000
  0
LINE
  5
4B8
100
AcDbEntity
  8
MAIN0
  6
BYBLOCK
 62
0
100
AcDbLine
 10
57.17324443061125
 20
356.4076826532644
 30
0.0000000000000000
 11
58.67324443061219
 21
357.9076826532657
 31
0.0000000000000000
  0
LINE
  5
4B9
100
AcDbEntity
  8
MAIN0
  6
BYBLOCK
 62
0
100
AcDbLine
 10
55.63199861400449
 20
357.6948639614044
 30
0.0000000000000000
 11
55.84481730586492
 21
357.9076826532651
 31
0.0000000000000000
  0
LINE
  5
4BA
100
AcDbEntity
  8
MAIN0
  6
BYBLOCK
 62
0
100
AcDbLine
 10
82.62908855333242
 20
356.4076826532656
 30
0.0000000000000000
 11
84.12908855333234
 21
357.9076826532658
 31
0.0000000000000000
  0
LINE
  5
4BB
100
AcDbEntity
  8
MAIN0
  6
BYBLOCK
 62
0
100
AcDbLine
 10
85.45751567807872
 20
356.4076826532652
 30
0.0000000000000000
 11
86.95751567807866
 21
357.9076826532654
 31
0.0000000000000000
  0
LINE
  5
4BC
100
AcDbEntity
  8
MAIN0
  6
BYBLOCK
 62
0
100
AcDbLine
 10
88.28594280282499
 20
356.4076826532648
 30
0.0000000000000000
 11
89.78594280282491
 21
357.9076826532650
 31
0.0000000000000000
  0
LINE
  5
4BD
100
AcDbEntity
  8
MAIN0
  6
BYBLOCK
 62
0
100
AcDbLine
 10
91.11436992757260
 20
356.4076826532660
 30
0.0000000000000000
 11
92.61436992757251
 21
357.9076826532658
 31
0.0000000000000000
  0
LINE
  5
4BE
100
AcDbEntity
  8
MAIN0
  6
BYBLOCK
 62
0
100
AcDbLine
 10
93.94279705231884
 20
356.4076826532656
 30
0.0000000000000000
 11
95.44279705231875
 21
357.9076826532655
 31
0.0000000000000000
  0
LINE
  5
4BF
100
AcDbEntity
  8
MAIN0
  6
BYBLOCK
 62
0
100
AcDbLine
 10
96.77122417706516
 20
356.4076826532652
 30
0.0000000000000000
 11
98.27122417706570
 21
357.9076826532658
 31
0.0000000000000000
  0
LINE
  5
4C0
100
AcDbEntity
  8
MAIN0
  6
BYBLOCK
 62
0
100
AcDbLine
 10
99.59965130181291
 20
356.4076826532663
 30
0.0000000000000000
 11
101.0996513018121
 21
357.9076826532653
 31
0.0000000000000000
  0
LINE
  5
4C1
100
AcDbEntity
  8
MAIN0
  6
BYBLOCK
 62
0
100
AcDbLine
 10
102.4280784265592
 20
356.4076826532660
 30
0.0000000000000000
 11
103.9280784265583
 21
357.9076826532649
 31
0.0000000000000000
  0
ENDBLK
  5
4C2
100
AcDbEntity
  8
MAIN0
  6
BYBLOCK
 62
3
100
AcDbBlockEnd
  0
BLOCK
  5
4C4
100
AcDbEntity
  8
MAIN0
  6
BYBLOCK
 62
3
100
AcDbBlockBegin
  2
*X1
 70
     1
 10
0.0
 20
0.0
 30
0.0
  0
LINE
  5
4C5
100
AcDbEntity
  8
MAIN0
  6
BYBLOCK
 62
0
100
AcDbLine
 10
80.33073987940111
 20
380.9076826532649
 30
0.0000000000000000
 11
81.83073987940026
 21
382.4076826532640
 31
0.0000000000000000
  0
LINE
  5
4C6
100
AcDbEntity
  8
MAIN0
  6
BYBLOCK
 62
0
100
AcDbLine
 10
77.50231275465455
 20
380.9076826532652
 30
0.0000000000000000
 11
79.00231275465404
 21
382.4076826532643
 31
0.0000000000000000
  0
LINE
  5
4C7
100
AcDbEntity
  8
MAIN0
  6
BYBLOCK
 62
0
100
AcDbLine
 10
74.67388562990831
 20
380.9076826532656
 30
0.0000000000000000
 11
76.17388562990780
 21
382.4076826532647
 31
0.0000000000000000
  0
LINE
  5
4C8
100
AcDbEntity
  8
MAIN0
  6
BYBLOCK
 62
0
100
AcDbLine
 10
71.84545850516062
 20
380.9076826532645
 30
0.0000000000000000
 11
73.34545850516051
 21
382.4076826532639
 31
0.0000000000000000
  0
LINE
  5
4C9
100
AcDbEntity
  8
MAIN0
  6
BYBLOCK
 62
0
100
AcDbLine
 10
69.01703138041475
 20
380.9076826532653
 30
0.0000000000000000
 11
70.51703138041430
 21
382.4076826532643
 31
0.0000000000000000
  0
LINE
  5
4CA
100
AcDbEntity
  8
MAIN0
  6
BYBLOCK
 62
0
100
AcDbLine
 10
66.18860425566706
 20
380.9076826532642
 30
0.0000000000000000
 11
67.68860425566800
 21
382.4076826532647
 31
0.0000000000000000
  0
LINE
  5
4CB
100
AcDbEntity
  8
MAIN0
  6
BYBLOCK
 62
0
100
AcDbLine
 10
63.36017713092079
 20
380.9076826532645
 30
0.0000000000000000
 11
64.86017713092028
 21
382.4076826532644
 31
0.0000000000000000
  0
LINE
  5
4CC
100
AcDbEntity
  8
MAIN0
  6
BYBLOCK
 62
0
100
AcDbLine
 10
60.53175000617449
 20
380.9076826532649
 30
0.0000000000000000
 11
62.03175000617398
 21
382.4076826532647
 31
0.0000000000000000
  0
LINE
  5
4CD
100
AcDbEntity
  8
MAIN0
  6
BYBLOCK
 62
0
100
AcDbLine
 10
57.70332288142691
 20
380.9076826532638
 30
0.0000000000000000
 11
59.20332288142774
 21
382.4076826532651
 31
0.0000000000000000
  0
LINE
  5
4CE
100
AcDbEntity
  8
MAIN0
  6
BYBLOCK
 62
0
100
AcDbLine
 10
56.16207706482066
 20
382.1948639614041
 30
0.0000000000000000
 11
56.37489575668042
 21
382.4076826532644
 31
0.0000000000000000
  0
LINE
  5
4CF
100
AcDbEntity
  8
MAIN0
  6
BYBLOCK
 62
0
100
AcDbLine
 10
83.15916700414817
 20
380.9076826532652
 30
0.0000000000000000
 11
84.65916700414806
 21
382.4076826532651
 31
0.0000000000000000
  0
LINE
  5
4D0
100
AcDbEntity
  8
MAIN0
  6
BYBLOCK
 62
0
100
AcDbLine
 10
85.98759412889439
 20
380.9076826532648
 30
0.0000000000000000
 11
87.48759412889427
 21
382.4076826532647
 31
0.0000000000000000
  0
LINE
  5
4D1
100
AcDbEntity
  8
MAIN0
  6
BYBLOCK
 62
0
100
AcDbLine
 10
88.81602125364069
 20
380.9076826532644
 30
0.0000000000000000
 11
90.31602125364057
 21
382.4076826532643
 31
0.0000000000000000
  0
LINE
  5
4D2
100
AcDbEntity
  8
MAIN0
  6
BYBLOCK
 62
0
100
AcDbLine
 10
91.64444837838835
 20
380.9076826532653
 30
0.0000000000000000
 11
93.14444837838821
 21
382.4076826532651
 31
0.0000000000000000
  0
LINE
  5
4D3
100
AcDbEntity
  8
MAIN0
  6
BYBLOCK
 62
0
100
AcDbLine
 10
94.47287550313456
 20
380.9076826532649
 30
0.0000000000000000
 11
95.97287550313445
 21
382.4076826532647
 31
0.0000000000000000
  0
LINE
  5
4D4
100
AcDbEntity
  8
MAIN0
  6
BYBLOCK
 62
0
100
AcDbLine
 10
97.30130262788077
 20
380.9076826532645
 30
0.0000000000000000
 11
98.80130262788128
 21
382.4076826532651
 31
0.0000000000000000
  0
LINE
  5
4D5
100
AcDbEntity
  8
MAIN0
  6
BYBLOCK
 62
0
100
AcDbLine
 10
100.1297297526284
 20
380.9076826532657
 30
0.0000000000000000
 11
101.6297297526276
 21
382.4076826532647
 31
0.0000000000000000
  0
LINE
  5
4D6
100
AcDbEntity
  8
MAIN0
  6
BYBLOCK
 62
0
100
AcDbLine
 10
102.9581568773747
 20
380.9076826532653
 30
0.0000000000000000
 11
104.4581568773738
 21
382.4076826532644
 31
0.0000000000000000
  0
ENDBLK
  5
4D7
100
AcDbEntity
  8
MAIN0
  6
BYBLOCK
 62
3
100
AcDbBlockEnd
  0
BLOCK
  5
4D9
100
AcDbEntity
  8
MAIN0
  6
BYBLOCK
 62
3
100
AcDbBlockBegin
  2
*X2
 70
     1
 10
0.0
 20
0.0
 30
0.0
  0
LINE
  5
4DA
100
AcDbEntity
  8
MAIN0
  6
BYBLOCK
 62
0
100
AcDbLine
 10
291.7701477889181
 20
379.4714373161719
 30
0.0000000000000000
 11
293.3559804981582
 21
380.3870182577412
 31
0.0000000000000000
  0
LINE
  5
4DB
100
AcDbEntity
  8
MAIN0
  6
BYBLOCK
 62
0
100
AcDbLine
 10
289.5573527568935
 20
380.5032805855294
 30
0.0000000000000000
 11
291.1431854661372
 21
381.4188615271009
 31
0.0000000000000000
  0
LINE
  5
4DC
100
AcDbEntity
  8
MAIN0
  6
BYBLOCK
 62
0
100
AcDbLine
 10
287.3445577248725
 20
381.5351238548897
 30
0.0000000000000000
 11
288.9303904341144
 21
382.4507047964603
 31
0.0000000000000000
  0
LINE
  5
4DD
100
AcDbEntity
  8
MAIN0
  6
BYBLOCK
 62
0
100
AcDbLine
 10
285.1317626928507
 20
382.5669671242486
 30
0.0000000000000000
 11
286.7175954020962
 21
383.4825480658215
 31
0.0000000000000000
  0
LINE
  5
4DE
100
AcDbEntity
  8
MAIN0
  6
BYBLOCK
 62
0
100
AcDbLine
 10
282.9189676608297
 20
383.5988103936084
 30
0.0000000000000000
 11
284.5048003700698
 21
384.5143913351781
 31
0.0000000000000000
  0
LINE
  5
4DF
100
AcDbEntity
  8
MAIN0
  6
BYBLOCK
 62
0
100
AcDbLine
 10
280.7061726288051
 20
384.6306536629668
 30
0.0000000000000000
 11
282.2920053380489
 21
385.5462346045384
 31
0.0000000000000000
  0
LINE
  5
4E0
100
AcDbEntity
  8
MAIN0
  6
BYBLOCK
 62
0
100
AcDbLine
 10
278.4933775967869
 20
385.6624969323275
 30
0.0000000000000000
 11
280.0792103060279
 21
386.5780778738986
 31
0.0000000000000000
  0
LINE
  5
4E1
100
AcDbEntity
  8
MAIN0
  6
BYBLOCK
 62
0
100
AcDbLine
 10
276.2805825647614
 20
386.6943402016855
 30
0.0000000000000000
 11
277.8664152740051
 21
387.6099211432570
 31
0.0000000000000000
  0
LINE
  5
4E2
100
AcDbEntity
  8
MAIN0
  6
BYBLOCK
 62
0
100
AcDbLine
 10
274.0677875327386
 20
387.7261834710449
 30
0.0000000000000000
 11
275.6536202419815
 21
388.6417644126151
 31
0.0000000000000000
  0
LINE
  5
4E3
100
AcDbEntity
  8
MAIN0
  6
BYBLOCK
 62
0
100
AcDbLine
 10
271.8549925007168
 20
388.7580267404037
 30
0.0000000000000000
 11
273.4408252099623
 21
389.6736076819761
 31
0.0000000000000000
  0
LINE
  5
4E4
100
AcDbEntity
  8
MAIN0
  6
BYBLOCK
 62
0
100
AcDbLine
 10
269.6421974686977
 20
389.7898700097644
 30
0.0000000000000000
 11
271.2280301779396
 21
390.7054509513355
 31
0.0000000000000000
  0
LINE
  5
4E5
100
AcDbEntity
  8
MAIN0
  6
BYBLOCK
 62
0
100
AcDbLine
 10
293.9829428209381
 20
378.4395940468117
 30
0.0000000000000000
 11
295.5687755301827
 21
379.3551749883837
 31
0.0000000000000000
  0
LINE
  5
4E6
100
AcDbEntity
  8
MAIN0
  6
BYBLOCK
 62
0
100
AcDbLine
 10
296.1957378529609
 20
377.4077507774528
 30
0.0000000000000000
 11
297.7815705622037
 21
378.3233317190234
 31
0.0000000000000000
  0
LINE
  5
4E7
100
AcDbEntity
  8
MAIN0
  6
BYBLOCK
 62
0
100
AcDbLine
 10
298.4085328849836
 20
376.3759075080935
 30
0.0000000000000000
 11
299.9943655942265
 21
377.2914884496641
 31
0.0000000000000000
  0
LINE
  5
4E8
100
AcDbEntity
  8
MAIN0
  6
BYBLOCK
 62
0
100
AcDbLine
 10
300.6213279170055
 20
375.3440642387336
 30
0.0000000000000000
 11
302.2071606262465
 21
376.2596451803042
 31
0.0000000000000000
  0
LINE
  5
4E9
100
AcDbEntity
  8
MAIN0
  6
BYBLOCK
 62
0
100
AcDbLine
 10
302.8341229490274
 20
374.3122209693747
 30
0.0000000000000000
 11
304.4199556582693
 21
375.2278019109454
 31
0.0000000000000000
  0
LINE
  5
4EA
100
AcDbEntity
  8
MAIN0
  6
BYBLOCK
 62
0
100
AcDbLine
 10
305.0469179810501
 20
373.2803777000154
 30
0.0000000000000000
 11
306.6327506902920
 21
374.1959586415860
 31
0.0000000000000000
  0
LINE
  5
4EB
100
AcDbEntity
  8
MAIN0
  6
BYBLOCK
 62
0
100
AcDbLine
 10
307.2597130130702
 20
372.2485344306556
 30
0.0000000000000000
 11
308.8455457223148
 21
373.1641153722276
 31
0.0000000000000000
  0
LINE
  5
4EC
100
AcDbEntity
  8
MAIN0
  6
BYBLOCK
 62
0
100
AcDbLine
 10
309.4725080450947
 20
371.2166911612972
 30
0.0000000000000000
 11
311.0583407543376
 21
372.1322721028682
 31
0.0000000000000000
  0
LINE
  5
4ED
100
AcDbEntity
  8
MAIN0
  6
BYBLOCK
 62
0
100
AcDbLine
 10
311.6853030771148
 20
370.1848478919374
 30
0.0000000000000000
 11
313.2711357863594
 21
371.1004288335094
 31
0.0000000000000000
  0
LINE
  5
4EE
100
AcDbEntity
  8
MAIN0
  6
BYBLOCK
 62
0
100
AcDbLine
 10
313.8980981091403
 20
369.1530046225799
 30
0.0000000000000000
 11
315.4839308183804
 21
370.0685855641497
 31
0.0000000000000000
  0
ENDBLK
  5
4EF
100
AcDbEntity
  8
MAIN0
  6
BYBLOCK
 62
3
100
AcDbBlockEnd
  0
BLOCK
  5
4F1
100
AcDbEntity
  8
MAIN0
  6
BYBLOCK
 62
3
100
AcDbBlockBegin
  2
*X3
 70
     1
 10
0.0
 20
0.0
 30
0.0
  0
LINE
  5
4F2
100
AcDbEntity
  8
MAIN0
  6
BYBLOCK
 62
0
100
AcDbLine
 10
281.4160003762694
 20
357.2668965337725
 30
0.0000000000000000
 11
283.0018330855113
 21
358.1824774753432
 31
0.0000000000000000
  0
LINE
  5
4F3
100
AcDbEntity
  8
MAIN0
  6
BYBLOCK
 62
0
100
AcDbLine
 10
279.2032053442466
 20
358.2987398031319
 30
0.0000000000000000
 11
280.7890380534885
 21
359.2143207447021
 31
0.0000000000000000
  0
LINE
  5
4F4
100
AcDbEntity
  8
MAIN0
  6
BYBLOCK
 62
0
100
AcDbLine
 10
276.9904103122257
 20
359.3305830724913
 30
0.0000000000000000
 11
278.5762430214685
 21
360.2461640140623
 31
0.0000000000000000
  0
LINE
  5
4F5
100
AcDbEntity
  8
MAIN0
  6
BYBLOCK
 62
0
100
AcDbLine
 10
274.7776152802038
 20
360.3624263418506
 30
0.0000000000000000
 11
276.3634479894448
 21
361.2780072834212
 31
0.0000000000000000
  0
LINE
  5
4F6
100
AcDbEntity
  8
MAIN0
  6
BYBLOCK
 62
0
100
AcDbLine
 10
272.5648202481801
 20
361.3942696112095
 30
0.0000000000000000
 11
274.1506529574230
 21
362.3098505527801
 31
0.0000000000000000
  0
LINE
  5
4F7
100
AcDbEntity
  8
MAIN0
  6
BYBLOCK
 62
0
100
AcDbLine
 10
270.3520252161583
 20
362.4261128805683
 30
0.0000000000000000
 11
271.9378579254002
 21
363.3416938221395
 31
0.0000000000000000
  0
LINE
  5
4F8
100
AcDbEntity
  8
MAIN0
  6
BYBLOCK
 62
0
100
AcDbLine
 10
268.1392301841391
 20
363.4579561499299
 30
0.0000000000000000
 11
269.7250628933792
 21
364.3735370914988
 31
0.0000000000000000
  0
LINE
  5
4F9
100
AcDbEntity
  8
MAIN0
  6
BYBLOCK
 62
0
100
AcDbLine
 10
265.9264351521146
 20
364.4897994192875
 30
0.0000000000000000
 11
267.5122678613565
 21
365.4053803608582
 31
0.0000000000000000
  0
LINE
  5
4FA
100
AcDbEntity
  8
MAIN0
  6
BYBLOCK
 62
0
100
AcDbLine
 10
263.7136401200918
 20
365.5216426886464
 30
0.0000000000000000
 11
265.2994728293346
 21
366.4372236302175
 31
0.0000000000000000
  0
LINE
  5
4FB
100
AcDbEntity
  8
MAIN0
  6
BYBLOCK
 62
0
100
AcDbLine
 10
261.5008450880699
 20
366.5534859580052
 30
0.0000000000000000
 11
263.0866777973118
 21
367.4690668995759
 31
0.0000000000000000
  0
LINE
  5
4FC
100
AcDbEntity
  8
MAIN0
  6
BYBLOCK
 62
0
100
AcDbLine
 10
259.2880500560508
 20
367.5853292273669
 30
0.0000000000000000
 11
260.8738827652909
 21
368.5009101689366
 31
0.0000000000000000
  0
LINE
  5
4FD
100
AcDbEntity
  8
MAIN0
  6
BYBLOCK
 62
0
100
AcDbLine
 10
283.6287954082912
 20
356.2350532644136
 30
0.0000000000000000
 11
285.2146281175341
 21
357.1506342059843
 31
0.0000000000000000
  0
LINE
  5
4FE
100
AcDbEntity
  8
MAIN0
  6
BYBLOCK
 62
0
100
AcDbLine
 10
285.8415904403149
 20
355.2032099950548
 30
0.0000000000000000
 11
287.4274231495559
 21
356.1187909366254
 31
0.0000000000000000
  0
LINE
  5
4FF
100
AcDbEntity
  8
MAIN0
  6
BYBLOCK
 62
0
100
AcDbLine
 10
288.0543854723331
 20
354.1713667256936
 30
0.0000000000000000
 11
289.6402181815769
 21
355.0869476672652
 31
0.0000000000000000
  0
LINE
  5
500
100
AcDbEntity
  8
MAIN0
  6
BYBLOCK
 62
0
100
AcDbLine
 10
290.2671805043577
 20
353.1395234563352
 30
0.0000000000000000
 11
291.8530132136006
 21
354.0551043979062
 31
0.0000000000000000
  0
LINE
  5
501
100
AcDbEntity
  8
MAIN0
  6
BYBLOCK
 62
0
100
AcDbLine
 10
292.4799755363805
 20
352.1076801869767
 30
0.0000000000000000
 11
294.0658082456224
 21
353.0232611285474
 31
0.0000000000000000
  0
LINE
  5
502
100
AcDbEntity
  8
MAIN0
  6
BYBLOCK
 62
0
100
AcDbLine
 10
294.6927705684033
 20
351.0758369176178
 30
0.0000000000000000
 11
296.2786032776452
 21
351.9914178591880
 31
0.0000000000000000
  0
LINE
  5
503
100
AcDbEntity
  8
MAIN0
  6
BYBLOCK
 62
0
100
AcDbLine
 10
296.9055656004233
 20
350.0439936482576
 30
0.0000000000000000
 11
298.4913983096661
 21
350.9595745898283
 31
0.0000000000000000
  0
LINE
  5
504
100
AcDbEntity
  8
MAIN0
  6
BYBLOCK
 62
0
100
AcDbLine
 10
299.1183606324443
 20
349.0121503788978
 30
0.0000000000000000
 11
300.7041933416880
 21
349.9277313204689
 31
0.0000000000000000
  0
LINE
  5
505
100
AcDbEntity
  8
MAIN0
  6
BYBLOCK
 62
0
100
AcDbLine
 10
301.3311556644688
 20
347.9803071095394
 30
0.0000000000000000
 11
302.9169883737126
 21
348.8958880511114
 31
0.0000000000000000
  0
LINE
  5
506
100
AcDbEntity
  8
MAIN0
  6
BYBLOCK
 62
0
100
AcDbLine
 10
303.5439506964934
 20
346.9484638401819
 30
0.0000000000000000
 11
305.1297834057353
 21
347.8640447817521
 31
0.0000000000000000
  0
ENDBLK
  5
507
100
AcDbEntity
  8
MAIN0
  6
BYBLOCK
 62
3
100
AcDbBlockEnd
  0
ENDSEC
  0
SECTION
  2
ENTITIES
  0
LINE
  5
46
100
AcDbEntity
  8
MAIN0
  6
CONTINUOUS
 62
3
100
AcDbLine
 10
334.4995776530589
 20
278.5008699639279
 30
0.0000000000000000
 11
374.0995776530590
 21
278.5008699639279
 31
0.0000000000000000
  0
MTEXT
  5
47
100
AcDbEntity
  8
MAIN0
  6
CONTINUOUS
 62
3
100
AcDbMText
 10
473.2783276523933
 20
142.4307254228195
 30
0.0000000000000000
 40
3.099999904632568
 41
0.0000000000000000
 71
     1
 72
     1
  1
{\H0.70x;{MIN 40}}
 11
1.000000000000000
 21
0.0000000000000000
 31
0.0000000000000000
  7
STANDARD
  0
LINE
  5
48
100
AcDbEntity
  8
MAIN0
  6
CONTINUOUS
 62
3
100
AcDbLine
 10
464.4995776530583
 20
257.5008699639280
 30
0.0000000000000000
 11
492.6335522498360
 21
257.5008699639280
 31
0.0000000000000000
  0
LINE
  5
49
100
AcDbEntity
  8
MAIN0
  6
CONTINUOUS
 62
3
100
AcDbLine
 10
464.4995776530583
 20
227.5008699639281
 30
0.0000000000000000
 11
492.6335522498362
 21
227.5008699639281
 31
0.0000000000000000
  0
LINE
  5
4A
100
AcDbEntity
  8
MAIN0
  6
CONTINUOUS
 62
3
100
AcDbLine
 10
324.4995776530589
 20
320.5008699639279
 30
0.0000000000000000
 11
334.0995776530589
 21
320.5008699639279
 31
0.0000000000000000
  0
LINE
  5
4B
100
AcDbEntity
  8
MAIN0
  6
CONTINUOUS
 62
3
100
AcDbLine
 10
324.7995776530625
 20
327.8008699639281
 30
0.0000000000000000
 11
409.4995776530587
 21
327.8008699639281
 31
0.0000000000000000
  0
LINE
  5
4C
100
AcDbEntity
  8
MAIN0
  6
CENTER
 62
3
100
AcDbLine
 10
370.4995776530587
 20
361.4625243165696
 30
0.0000000000000000
 11
370.4995776530587
 21
316.7967109214461
 31
0.0000000000000000
  0
LINE
  5
4D
100
AcDbEntity
  8
MAIN0
  6
PHANTOM
 62
3
100
AcDbLine
 10
365.4995776530597
 20
319.5008699639280
 30
0.0000000000000000
 11
368.9883621350801
 21
319.5008699639280
 31
0.0000000000000000
  0
LINE
  5
4E
100
AcDbEntity
  8
MAIN0
  6
PHANTOM
 62
3
100
AcDbLine
 10
365.4995776530597
 20
319.5008699639280
 30
0.0000000000000000
 11
364.4995776530587
 21
320.5008699639290
 31
0.0000000000000000
  0
LINE
  5
4F
100
AcDbEntity
  8
MAIN0
  6
PHANTOM
 62
3
100
AcDbLine
 10
365.0410776530588
 20
327.8008699639281
 30
0.0000000000000000
 11
365.0410776530588
 21
319.9593699639287
 31
0.0000000000000000
  0
LINE
  5
50
100
AcDbEntity
  8
MAIN0
  6
PHANTOM
 62
3
100
AcDbLine
 10
364.4995776530587
 20
327.8008699639281
 30
0.0000000000000000
 11
364.4995776530587
 21
320.5008699639290
 31
0.0000000000000000
  0
LINE
  5
51
100
AcDbEntity
  8
MAIN0
  6
CONTINUOUS
 62
3
100
AcDbLine
 10
324.7995776530625
 20
331.0008699639282
 30
0.0000000000000000
 11
409.4995776530587
 21
331.0008699639282
 31
0.0000000000000000
  0
LINE
  5
52
100
AcDbEntity
  8
MAIN0
  6
CONTINUOUS
 62
3
100
AcDbLine
 10
374.0995776530591
 20
278.5008699639279
 30
0.0000000000000000
 11
374.4995776530591
 21
278.1008699639280
 31
0.0000000000000000
  0
LINE
  5
53
100
AcDbEntity
  8
MAIN0
  6
CONTINUOUS
 62
3
100
AcDbLine
 10
509.4995776530583
 20
256.0008699639280
 30
0.0000000000000000
 11
509.4995776530583
 21
229.0008699639281
 31
0.0000000000000000
  0
LINE
  5
54
100
AcDbEntity
  8
MAIN0
  6
CONTINUOUS
 62
3
100
AcDbLine
 10
504.4995776530583
 20
253.5008699639281
 30
0.0000000000000000
 11
504.4995776530583
 21
231.5008699639281
 31
0.0000000000000000
  0
LINE
  5
55
100
AcDbEntity
  8
MAIN0
  6
CONTINUOUS
 62
3
100
AcDbLine
 10
508.6335522487203
 20
231.5008699639024
 30
0.0000000000000000
 11
509.4995776530581
 21
231.0008699635835
 31
0.0000000000000000
  0
LINE
  5
56
100
AcDbEntity
  8
MAIN0
  6
CONTINUOUS
 62
3
100
AcDbLine
 10
508.6335522486961
 20
253.5008699639281
 30
0.0000000000000000
 11
508.6335522487205
 21
231.5008699639281
 31
0.0000000000000000
  0
LINE
  5
57
100
AcDbEntity
  8
MAIN0
  6
CONTINUOUS
 62
3
100
AcDbLine
 10
503.2005395472597
 20
233.7508699639282
 30
0.0000000000000000
 11
504.4995776529325
 21
231.5008699639282
 31
0.0000000000000000
  0
LINE
  5
58
100
AcDbEntity
  8
MAIN0
  6
CONTINUOUS
 62
3
100
AcDbLine
 10
503.2005395474147
 20
251.2508699639281
 30
0.0000000000000000
 11
503.2005395474147
 21
233.7508699639281
 31
0.0000000000000000
  0
LINE
  5
59
100
AcDbEntity
  8
MAIN0
  6
CONTINUOUS
 62
3
100
AcDbLine
 10
508.6335522487203
 20
253.5008699639539
 30
0.0000000000000000
 11
509.4995776530581
 21
254.0008699642727
 31
0.0000000000000000
  0
LINE
  5
5A
100
AcDbEntity
  8
MAIN0
  6
CONTINUOUS
 62
3
100
AcDbLine
 10
503.2005395472597
 20
251.2508699639279
 30
0.0000000000000000
 11
504.4995776529325
 21
253.5008699639279
 31
0.0000000000000000
  0
LINE
  5
5B
100
AcDbEntity
  8
MAIN0
  6
CONTINUOUS
 62
3
100
AcDbLine
 10
493.4995776536234
 20
228.0008699639281
 30
0.0000000000000000
 11
508.4995776530583
 21
228.0008699639281
 31
0.0000000000000000
  0
LINE
  5
5C
100
AcDbEntity
  8
MAIN0
  6
CONTINUOUS
 62
3
100
AcDbLine
 10
492.6335522498361
 20
227.5008699639281
 30
0.0000000000000000
 11
493.4995776536234
 21
228.0008699639282
 31
0.0000000000000000
  0
LINE
  5
5D
100
AcDbEntity
  8
MAIN0
  6
CONTINUOUS
 62
3
100
AcDbLine
 10
508.4995776530582
 20
228.0008699639280
 30
0.0000000000000000
 11
509.4995776530582
 21
229.0008699639280
 31
0.0000000000000000
  0
LINE
  5
5E
100
AcDbEntity
  8
MAIN0
  6
CONTINUOUS
 62
3
100
AcDbLine
 10
493.4995776536234
 20
257.0008699639280
 30
0.0000000000000000
 11
508.4995776530583
 21
257.0008699639280
 31
0.0000000000000000
  0
LINE
  5
5F
100
AcDbEntity
  8
MAIN0
  6
CONTINUOUS
 62
3
100
AcDbLine
 10
492.6335522498360
 20
257.5008699639280
 30
0.0000000000000000
 11
493.4995776536234
 21
257.0008699639279
 31
0.0000000000000000
  0
LINE
  5
60
100
AcDbEntity
  8
MAIN0
  6
CONTINUOUS
 62
3
100
AcDbLine
 10
508.4995776530583
 20
257.0008699639282
 30
0.0000000000000000
 11
509.4995776530583
 21
256.0008699639282
 31
0.0000000000000000
  0
LINE
  5
61
100
AcDbEntity
  8
MAIN0
  6
CONTINUOUS
 62
3
100
AcDbLine
 10
479.4995776530583
 20
252.5008699639281
 30
0.0000000000000000
 11
479.4995776530583
 21
232.5008699639281
 31
0.0000000000000000
  0
LINE
  5
62
100
AcDbEntity
  8
MAIN0
  6
CONTINUOUS
 62
3
100
AcDbLine
 10
397.4995776530585
 20
315.0008699639280
 30
0.0000000000000000
 11
448.4995776530583
 21
315.0008699639280
 31
0.0000000000000000
  0
LINE
  5
63
100
AcDbEntity
  8
MAIN0
  6
CONTINUOUS
 62
3
100
AcDbLine
 10
397.4995776530585
 20
170.0008699639281
 30
0.0000000000000000
 11
448.4995776530583
 21
170.0008699639281
 31
0.0000000000000000
  0
ARC
  5
64
100
AcDbEntity
  8
MAIN0
  6
CONTINUOUS
 62
3
100
AcDbCircle
 10
448.4995776530583
 20
171.0008699639281
 30
0.0000000000000000
 40
1.000000000000000
100
AcDbArc
 50
270.0000000000000
 51
360.0000000000000
  0
ARC
  5
65
100
AcDbEntity
  8
MAIN0
  6
CONTINUOUS
 62
3
100
AcDbCircle
 10
448.4995776530583
 20
314.0008699639280
 30
0.0000000000000000
 40
1.000000000000000
100
AcDbArc
 50
0.0000000000000000
 51
90.00000000000000
  0
LEADER
  5
66
100
AcDbEntity
  8
MAIN0
  6
CONTINUOUS
 62
3
100
AcDbLeader
  3
MAIN001
 73
     0
 74
     0
 75
     1
 40
3.099999904632568
 41
8.301000004470325
 76
     3
 10
456.0786872302163
 20
174.5008699639281
 30
0.0000000000000000
 10
472.1762716524710
 20
152.9008699639282
 30
0.0000000000000000
 10
473.9612715998103
 20
152.9008699639282
 30
0.0000000000000000
340
67
213
0.0000000000000000
223
-0.5000000000000000
233
0.0000000000000000
1001
ACAD
1000
DSTYLE
1002
{
1070
   147
1040
0.0
1070
    77
1070
     1
1070
   173
1070
     1
1070
     6
1000
_OPEN
1070
     7
1000
_OPEN
1002
}
  0
MTEXT
  5
67
102
{ACAD_REACTORS
330
66
102
}
100
AcDbEntity
  8
MAIN0
  6
CONTINUOUS
 62
3
100
AcDbMText
 10
473.9622715998103
 20
156.5008698685608
 30
0.0000000000000000
 40
3.099999904632568
 41
0.0000000000000000
 71
     1
 72
     1
  1
{\H0.70x;{6-M8}}
 11
1.000000000000000
 21
0.0000000000000000
 31
0.0000000000000000
  7
STANDARD
  0
LEADER
  5
68
100
AcDbEntity
  8
MAIN0
  6
CONTINUOUS
 62
3
100
AcDbLeader
  3
MAIN001
 73
     0
 74
     0
 75
     1
 40
3.099999904632568
 41
7.991000247955299
 76
     3
 10
491.9995776530590
 20
252.5008699639281
 30
0.0000000000000000
 10
498.2495776530590
 20
276.7508699639281
 30
0.0000000000000000
 10
500.1745775972690
 20
276.7508699639280
 30
0.0000000000000000
340
69
213
0.0000000000000000
223
-0.5000000000000000
233
0.0000000000000000
1001
ACAD
1000
DSTYLE
1002
{
1070
   147
1040
0.0
1070
    77
1070
     1
1070
   173
1070
     1
1070
     6
1000
_OPEN
1070
     7
1000
_OPEN
1002
}
  0
MTEXT
  5
69
102
{ACAD_REACTORS
330
68
102
}
100
AcDbEntity
  8
MAIN0
  6
CONTINUOUS
 62
3
100
AcDbMText
 10
500.1755775972690
 20
280.3508698685606
 30
0.0000000000000000
 40
3.099999904632568
 41
0.0000000000000000
 71
     1
 72
     1
  1
{\H0.90x;{M20}}
 11
1.000000000000000
 21
0.0000000000000000
 31
0.0000000000000000
  7
STANDARD
  0
LINE
  5
6A
100
AcDbEntity
  8
MAIN0
  6
CENTER
 62
12
100
AcDbLine
 10
304.4995776530589
 20
242.5008699639281
 30
0.0000000000000000
 11
517.6975753297812
 21
242.5008699639281
 31
0.0000000000000000
  0
LINE
  5
6B
100
AcDbEntity
  8
MAIN0
  6
CENTER
 62
3
100
AcDbLine
 10
372.1527161225653
 20
178.5008699639281
 30
0.0000000000000000
 11
469.8478069475173
 21
178.5008699639281
 31
0.0000000000000000
  0
LINE
  5
6C
100
AcDbEntity
  8
MAIN0
  6
CONTINUOUS
 62
3
100
AcDbLine
 10
409.4995776530587
 20
331.0008699639280
 30
0.0000000000000000
 11
409.4995776530587
 21
327.8008699639280
 31
0.0000000000000000
  0
ARC
  5
6D
100
AcDbEntity
  8
MAIN0
  6
CONTINUOUS
 62
3
100
AcDbCircle
 10
376.4995776530587
 20
314.5008699639280
 30
0.0000000000000000
 40
1.000000000000000
100
AcDbArc
 50
90.00000000000000
 51
180.0000000000000
  0
LINE
  5
6E
100
AcDbEntity
  8
MAIN0
  6
CONTINUOUS
 62
3
100
AcDbLine
 10
397.4995776530587
 20
315.5008699639280
 30
0.0000000000000000
 11
397.4995776530587
 21
318.0008699639280
 31
0.0000000000000000
  0
LINE
  5
6F
100
AcDbEntity
  8
MAIN0
  6
CONTINUOUS
 62
3
100
AcDbLine
 10
371.4995776530587
 20
278.5008699639279
 30
0.0000000000000000
 11
371.4995776530587
 21
318.0008699639280
 31
0.0000000000000000
  0
LINE
  5
70
100
AcDbEntity
  8
MAIN0
  6
CONTINUOUS
 62
3
100
AcDbLine
 10
374.4995776530587
 20
315.5008699639280
 30
0.0000000000000000
 11
397.4995776530585
 21
315.5008699639280
 31
0.0000000000000000
  0
LINE
  5
71
100
AcDbEntity
  8
MAIN0
  6
PHANTOM
 62
3
100
AcDbLine
 10
377.4995776530587
 20
315.5008699639280
 30
0.0000000000000000
 11
377.4995776530587
 21
318.0008699639280
 31
0.0000000000000000
  0
LINE
  5
72
100
AcDbEntity
  8
MAIN0
  6
PHANTOM
 62
3
100
AcDbLine
 10
351.4995776530587
 20
278.5008699639279
 30
0.0000000000000000
 11
351.4995776530587
 21
318.0008699639280
 31
0.0000000000000000
  0
LINE
  5
73
100
AcDbEntity
  8
MAIN0
  6
PHANTOM
 62
3
100
AcDbLine
 10
351.4995776530587
 20
318.0008699639280
 30
0.0000000000000000
 11
376.4995776530587
 21
318.0008699639280
 31
0.0000000000000000
  0
LINE
  5
74
100
AcDbEntity
  8
MAIN0
  6
PHANTOM
 62
3
100
AcDbLine
 10
354.4995776530587
 20
315.5008699639280
 30
0.0000000000000000
 11
376.4995776530587
 21
315.5008699639280
 31
0.0000000000000000
  0
ARC
  5
75
100
AcDbEntity
  8
MAIN0
  6
CONTINUOUS
 62
3
100
AcDbCircle
 10
324.7995776530624
 20
327.5008699639282
 30
0.0000000000000000
 40
3.500000000000000
100
AcDbArc
 50
90.00000000000000
 51
180.0000000000000
  0
ARC
  5
76
100
AcDbEntity
  8
MAIN0
  6
CONTINUOUS
 62
3
100
AcDbCircle
 10
324.7995776530625
 20
327.5008699639280
 30
0.0000000000000000
 40
0.3000000000000000
100
AcDbArc
 50
90.00000000000000
 51
180.0000000000000
  0
LINE
  5
77
100
AcDbEntity
  8
MAIN0
  6
CONTINUOUS
 62
3
100
AcDbLine
 10
314.4995776530589
 20
162.9008699639282
 30
0.0000000000000000
 11
397.4995776530585
 21
162.9008699639282
 31
0.0000000000000000
  0
LINE
  5
78
100
AcDbEntity
  8
MAIN0
  6
CONTINUOUS
 62
3
100
AcDbLine
 10
397.4995776530587
 20
169.5008699639281
 30
0.0000000000000000
 11
397.4995776530587
 21
162.9008699639282
 31
0.0000000000000000
  0
LINE
  5
79
100
AcDbEntity
  8
MAIN0
  6
CONTINUOUS
 62
3
100
AcDbLine
 10
321.2995776530582
 20
318.5008699639279
 30
0.0000000000000000
 11
315.8995776530582
 21
318.5008699639279
 31
0.0000000000000000
  0
LINE
  5
7A
100
AcDbEntity
  8
MAIN0
  6
CONTINUOUS
 62
3
100
AcDbLine
 10
315.8995776530582
 20
318.5008699639279
 30
0.0000000000000000
 11
315.2995776530582
 21
317.4616394793866
 31
0.0000000000000000
  0
LINE
  5
7B
100
AcDbEntity
  8
MAIN0
  6
CONTINUOUS
 62
3
100
AcDbLine
 10
315.2995776530582
 20
317.4616394793866
 30
0.0000000000000000
 11
315.2995776530582
 21
309.5401004484692
 31
0.0000000000000000
  0
LINE
  5
7C
100
AcDbEntity
  8
MAIN0
  6
CONTINUOUS
 62
3
100
AcDbLine
 10
315.2995776530584
 20
309.5401004484693
 30
0.0000000000000000
 11
315.8995776530583
 21
308.5008699639279
 31
0.0000000000000000
  0
LINE
  5
7D
100
AcDbEntity
  8
MAIN0
  6
CONTINUOUS
 62
3
100
AcDbLine
 10
315.8995776530582
 20
308.5008699639279
 30
0.0000000000000000
 11
321.2995776530582
 21
308.5008699639279
 31
0.0000000000000000
  0
LINE
  5
7E
100
AcDbEntity
  8
MAIN0
  6
CONTINUOUS
 62
3
100
AcDbLine
 10
315.8995776530582
 20
318.5008699639279
 30
0.0000000000000000
 11
315.8995776530582
 21
308.5008699639279
 31
0.0000000000000000
  0
LINE
  5
7F
100
AcDbEntity
  8
MAIN0
  6
CONTINUOUS
 62
3
100
AcDbLine
 10
321.2995776530582
 20
316.5008699639279
 30
0.0000000000000000
 11
333.2995776530582
 21
316.5008699639279
 31
0.0000000000000000
  0
LINE
  5
80
100
AcDbEntity
  8
MAIN0
  6
CONTINUOUS
 62
3
100
AcDbLine
 10
333.2995776530582
 20
316.5008699639279
 30
0.0000000000000000
 11
333.2995776530582
 21
310.5008699639279
 31
0.0000000000000000
  0
LINE
  5
81
100
AcDbEntity
  8
MAIN0
  6
CONTINUOUS
 62
3
100
AcDbLine
 10
333.2995776530582
 20
310.5008699639279
 30
0.0000000000000000
 11
321.2995776530582
 21
310.5008699639279
 31
0.0000000000000000
  0
LINE
  5
82
100
AcDbEntity
  8
MAIN0
  6
CONTINUOUS
 62
3
100
AcDbLine
 10
321.2995776530582
 20
315.9596039639279
 30
0.0000000000000000
 11
333.2995776530582
 21
315.9596039639279
 31
0.0000000000000000
  0
LINE
  5
83
100
AcDbEntity
  8
MAIN0
  6
CONTINUOUS
 62
3
100
AcDbLine
 10
321.2995776530582
 20
311.0421359639279
 30
0.0000000000000000
 11
333.2995776530582
 21
311.0421359639279
 31
0.0000000000000000
  0
LINE
  5
84
100
AcDbEntity
  8
MAIN0
  6
CONTINUOUS
 62
3
100
AcDbLine
 10
503.9222273837447
 20
232.5008699639280
 30
0.0000000000000000
 11
479.4995776530583
 21
232.5008699639280
 31
0.0000000000000000
  0
LINE
  5
85
100
AcDbEntity
  8
MAIN0
  6
CONTINUOUS
 62
3
100
AcDbLine
 10
479.4995776530583
 20
252.5008699639280
 30
0.0000000000000000
 11
503.9222273837447
 21
252.5008699639280
 31
0.0000000000000000
  0
LINE
  5
86
100
AcDbEntity
  8
MAIN0
  6
CONTINUOUS
 62
3
100
AcDbLine
 10
503.2005395472598
 20
233.7508699639280
 30
0.0000000000000000
 11
460.4388474209685
 21
233.7508699639281
 31
0.0000000000000000
  0
LINE
  5
87
100
AcDbEntity
  8
MAIN0
  6
CONTINUOUS
 62
3
100
AcDbLine
 10
462.6482561071068
 20
251.2508699639281
 30
0.0000000000000000
 11
503.2005395474147
 21
251.2508699639280
 31
0.0000000000000000
  0
LINE
  5
88
100
AcDbEntity
  8
MAIN0
  6
CENTER
 62
3
100
AcDbLine
 10
378.4995776530587
 20
361.4625243165696
 30
0.0000000000000000
 11
378.4995776530587
 21
316.7967109214463
 31
0.0000000000000000
  0
LINE
  5
89
100
AcDbEntity
  8
MAIN0
  6
PHANTOM
 62
3
100
AcDbLine
 10
373.4995776530597
 20
319.5008699639280
 30
0.0000000000000000
 11
383.4995776530578
 21
319.5008699639280
 31
0.0000000000000000
  0
LINE
  5
8A
100
AcDbEntity
  8
MAIN0
  6
PHANTOM
 62
3
100
AcDbLine
 10
372.4995776530587
 20
320.5008699639280
 30
0.0000000000000000
 11
384.4995776530587
 21
320.5008699639280
 31
0.0000000000000000
  0
LINE
  5
8B
100
AcDbEntity
  8
MAIN0
  6
PHANTOM
 62
3
100
AcDbLine
 10
383.4995776530578
 20
319.5008699639282
 30
0.0000000000000000
 11
384.4995776530587
 21
320.5008699639291
 31
0.0000000000000000
  0
LINE
  5
8C
100
AcDbEntity
  8
MAIN0
  6
PHANTOM
 62
3
100
AcDbLine
 10
373.4995776530598
 20
319.5008699639282
 30
0.0000000000000000
 11
372.4995776530589
 21
320.5008699639290
 31
0.0000000000000000
  0
LINE
  5
8D
100
AcDbEntity
  8
MAIN0
  6
PHANTOM
 62
3
100
AcDbLine
 10
383.4070549410891
 20
338.4008699639280
 30
0.0000000000000000
 11
383.4070549410904
 21
336.0008699639285
 31
0.0000000000000000
  0
LINE
  5
8E
100
AcDbEntity
  8
MAIN0
  6
PHANTOM
 62
3
100
AcDbLine
 10
388.3145322293400
 20
338.4416805860106
 30
0.0000000000000000
 11
388.3145322293403
 21
335.9600593418457
 31
0.0000000000000000
  0
LINE
  5
8F
100
AcDbEntity
  8
MAIN0
  6
PHANTOM
 62
3
100
AcDbLine
 10
369.9995776519004
 20
339.2008699639280
 30
0.0000000000000000
 11
386.9995776542173
 21
339.2008699639280
 31
0.0000000000000000
  0
LINE
  5
90
100
AcDbEntity
  8
MAIN0
  6
PHANTOM
 62
3
100
AcDbLine
 10
386.9995776542174
 20
339.2008699639280
 30
0.0000000000000000
 11
388.3145322293398
 21
338.4416805860107
 31
0.0000000000000000
  0
LINE
  5
91
100
AcDbEntity
  8
MAIN0
  6
PHANTOM
 62
3
100
AcDbLine
 10
373.5921003650284
 20
338.4008699639281
 30
0.0000000000000000
 11
373.5921003650270
 21
336.0008699639286
 31
0.0000000000000000
  0
ARC
  5
92
100
AcDbEntity
  8
MAIN0
  6
PHANTOM
 62
3
100
AcDbCircle
 10
378.4995776530586
 20
323.7487866310948
 30
0.0000000000000000
 40
15.45208333283322
100
AcDbArc
 50
71.48256317677496
 51
108.5174368232250
  0
ARC
  5
93
100
AcDbEntity
  8
MAIN0
  6
PHANTOM
 62
3
100
AcDbCircle
 10
388.4390962966484
 20
324.2701035375823
 30
0.0000000000000000
 40
15.00000000000000
100
AcDbArc
 50
95.50703149208238
 51
109.6010858781950
  0
LINE
  5
94
100
AcDbEntity
  8
MAIN0
  6
PHANTOM
 62
3
100
AcDbLine
 10
369.9995776519003
 20
339.2008699639280
 30
0.0000000000000000
 11
368.6846230767777
 21
338.4416805860107
 31
0.0000000000000000
  0
ARC
  5
95
100
AcDbEntity
  8
MAIN0
  6
PHANTOM
 62
3
100
AcDbCircle
 10
368.5600590094691
 20
324.2701035375823
 30
0.0000000000000000
 40
15.00000000000000
100
AcDbArc
 50
70.39891412180502
 51
84.49296850791762
  0
LINE
  5
96
100
AcDbEntity
  8
MAIN0
  6
PHANTOM
 62
3
100
AcDbLine
 10
368.6846230767775
 20
338.4416805860108
 30
0.0000000000000000
 11
368.6846230767772
 21
335.9600593418458
 31
0.0000000000000000
  0
LINE
  5
97
100
AcDbEntity
  8
MAIN0
  6
PHANTOM
 62
3
100
AcDbLine
 10
369.9995776519002
 20
335.2008699639281
 30
0.0000000000000000
 11
368.6846230767777
 21
335.9600593418454
 31
0.0000000000000000
  0
ARC
  5
98
100
AcDbEntity
  8
MAIN0
  6
PHANTOM
 62
3
100
AcDbCircle
 10
368.5600590094691
 20
350.1316363902738
 30
0.0000000000000000
 40
15.00000000000000
100
AcDbArc
 50
275.5070314920824
 51
289.6010858781950
  0
ARC
  5
99
100
AcDbEntity
  8
MAIN0
  6
PHANTOM
 62
3
100
AcDbCircle
 10
378.4995776530586
 20
350.6529532967612
 30
0.0000000000000000
 40
15.45208333283322
100
AcDbArc
 50
251.4825631767750
 51
288.5174368232251
  0
ARC
  5
9A
100
AcDbEntity
  8
MAIN0
  6
PHANTOM
 62
3
100
AcDbCircle
 10
388.4390962966484
 20
350.1316363902738
 30
0.0000000000000000
 40
15.00000000000000
100
AcDbArc
 50
250.3989141218050
 51
264.4929685079176
  0
LINE
  5
9B
100
AcDbEntity
  8
MAIN0
  6
PHANTOM
 62
3
100
AcDbLine
 10
386.9995776542173
 20
335.2008699639282
 30
0.0000000000000000
 11
388.3145322293397
 21
335.9600593418454
 31
0.0000000000000000
  0
LINE
  5
9C
100
AcDbEntity
  8
MAIN0
  6
PHANTOM
 62
3
100
AcDbLine
 10
373.4995776530435
 20
356.5008699639280
 30
0.0000000000000000
 11
383.4995776530126
 21
356.5008699639280
 31
0.0000000000000000
  0
LINE
  5
9D
100
AcDbEntity
  8
MAIN0
  6
PHANTOM
 62
3
100
AcDbLine
 10
368.4995776530587
 20
335.2008699639280
 30
0.0000000000000000
 11
388.4995776530587
 21
335.2008699639280
 31
0.0000000000000000
  0
LINE
  5
9E
100
AcDbEntity
  8
MAIN0
  6
PHANTOM
 62
3
100
AcDbLine
 10
388.4995776530587
 20
335.2008699639280
 30
0.0000000000000000
 11
388.4995776530587
 21
334.2008699639280
 31
0.0000000000000000
  0
LINE
  5
9F
100
AcDbEntity
  8
MAIN0
  6
PHANTOM
 62
3
100
AcDbLine
 10
368.4995776530587
 20
335.2008699639280
 30
0.0000000000000000
 11
368.4995776530587
 21
334.2008699639280
 31
0.0000000000000000
  0
LINE
  5
A0
100
AcDbEntity
  8
MAIN0
  6
PHANTOM
 62
3
100
AcDbLine
 10
372.4995776530587
 20
355.5008699639280
 30
0.0000000000000000
 11
384.4995776530589
 21
355.5008699639280
 31
0.0000000000000000
  0
LINE
  5
A1
100
AcDbEntity
  8
MAIN0
  6
PHANTOM
 62
3
100
AcDbLine
 10
372.4995776530457
 20
355.5008699639280
 30
0.0000000000000000
 11
373.4995776530435
 21
356.5008699639280
 31
0.0000000000000000
  0
LINE
  5
A2
100
AcDbEntity
  8
MAIN0
  6
PHANTOM
 62
3
100
AcDbLine
 10
383.4995776530126
 20
356.5008699639280
 30
0.0000000000000000
 11
384.4995776530587
 21
355.5008699638830
 31
0.0000000000000000
  0
LINE
  5
A3
100
AcDbEntity
  8
MAIN0
  6
PHANTOM
 62
3
100
AcDbLine
 10
373.4995776530435
 20
358.5008699639280
 30
0.0000000000000000
 11
383.4995776530126
 21
358.5008699639280
 31
0.0000000000000000
  0
LINE
  5
A4
100
AcDbEntity
  8
MAIN0
  6
PHANTOM
 62
3
100
AcDbLine
 10
383.4995776529877
 20
358.5008699639281
 30
0.0000000000000000
 11
383.4995776529864
 21
356.5008699639280
 31
0.0000000000000000
  0
LINE
  5
A5
100
AcDbEntity
  8
MAIN0
  6
PHANTOM
 62
3
100
AcDbLine
 10
373.4995776530213
 20
358.5008699639282
 30
0.0000000000000000
 11
373.4995776530201
 21
356.5008699639283
 31
0.0000000000000000
  0
LINE
  5
A6
100
AcDbEntity
  8
MAIN0
  6
PHANTOM
 62
3
100
AcDbLine
 10
384.4995776530587
 20
327.8008699639281
 30
0.0000000000000000
 11
384.4995776530587
 21
320.5008699639280
 31
0.0000000000000000
  0
LINE
  5
A7
100
AcDbEntity
  8
MAIN0
  6
PHANTOM
 62
3
100
AcDbLine
 10
384.4995776530587
 20
355.5008699639280
 30
0.0000000000000000
 11
384.4995776530587
 21
339.2008699639280
 31
0.0000000000000000
  0
LINE
  5
A8
100
AcDbEntity
  8
MAIN0
  6
PHANTOM
 62
3
100
AcDbLine
 10
383.9580776530587
 20
327.8008699639281
 30
0.0000000000000000
 11
383.9580776530587
 21
319.9593699639289
 31
0.0000000000000000
  0
LINE
  5
A9
100
AcDbEntity
  8
MAIN0
  6
PHANTOM
 62
3
100
AcDbLine
 10
383.9580776530587
 20
356.0423699638823
 30
0.0000000000000000
 11
383.9580776530587
 21
339.2008699639280
 31
0.0000000000000000
  0
LINE
  5
AA
100
AcDbEntity
  8
MAIN0
  6
PHANTOM
 62
3
100
AcDbLine
 10
373.0410776530588
 20
327.8008699639281
 30
0.0000000000000000
 11
373.0410776530588
 21
319.9593699639290
 31
0.0000000000000000
  0
LINE
  5
AB
100
AcDbEntity
  8
MAIN0
  6
PHANTOM
 62
3
100
AcDbLine
 10
373.0410776530588
 20
356.0423699639423
 30
0.0000000000000000
 11
373.0410776530588
 21
339.2008699639280
 31
0.0000000000000000
  0
LINE
  5
AC
100
AcDbEntity
  8
MAIN0
  6
PHANTOM
 62
3
100
AcDbLine
 10
372.4995776530587
 20
327.8008699639281
 30
0.0000000000000000
 11
372.4995776530587
 21
320.5008699639291
 31
0.0000000000000000
  0
LINE
  5
AD
100
AcDbEntity
  8
MAIN0
  6
PHANTOM
 62
3
100
AcDbLine
 10
372.4995776530587
 20
355.5008699639280
 30
0.0000000000000000
 11
372.4995776530587
 21
339.2008699639280
 31
0.0000000000000000
  0
LINE
  5
AE
100
AcDbEntity
  8
MAIN0
  6
CONTINUOUS
 62
3
100
AcDbLine
 10
449.4995776530583
 20
221.5008699639281
 30
0.0000000000000000
 11
464.4995776530583
 21
221.5008699639281
 31
0.0000000000000000
  0
LINE
  5
AF
100
AcDbEntity
  8
MAIN0
  6
CONTINUOUS
 62
3
100
AcDbLine
 10
464.4995776530583
 20
230.2217654267199
 30
0.0000000000000000
 11
464.4995776530583
 21
221.5008699639281
 31
0.0000000000000000
  0
LINE
  5
B0
100
AcDbEntity
  8
MAIN0
  6
CONTINUOUS
 62
3
100
AcDbLine
 10
464.4995776530583
 20
254.8788111951688
 30
0.0000000000000000
 11
464.4995776530583
 21
263.5008699639281
 31
0.0000000000000000
  0
LINE
  5
B1
100
AcDbEntity
  8
MAIN0
  6
CONTINUOUS
 62
3
100
AcDbLine
 10
449.4995776530583
 20
263.5008699639280
 30
0.0000000000000000
 11
464.4995776530583
 21
263.5008699639280
 31
0.0000000000000000
  0
LINE
  5
B2
100
AcDbEntity
  8
MAIN0
  6
CONTINUOUS
 62
3
100
AcDbLine
 10
334.4995776530589
 20
278.5008699639279
 30
0.0000000000000000
 11
374.0995776530590
 21
278.5008699639279
 31
0.0000000000000000
  0
LINE
  5
B3
100
AcDbEntity
  8
MAIN0
  6
CONTINUOUS
 62
3
100
AcDbLine
 10
334.4995776530589
 20
278.5008699639279
 30
0.0000000000000000
 11
334.4995776530589
 21
294.1008699639280
 31
0.0000000000000000
  0
LINE
  5
B4
100
AcDbEntity
  8
MAIN0
  6
CONTINUOUS
 62
3
100
AcDbLine
 10
314.8995776530589
 20
307.5008699639279
 30
0.0000000000000000
 11
324.4995776530575
 21
307.5008699639279
 31
0.0000000000000000
  0
LINE
  5
B5
100
AcDbEntity
  8
MAIN0
  6
CONTINUOUS
 62
3
100
AcDbLine
 10
321.2995776530624
 20
327.5008699639287
 30
0.0000000000000000
 11
321.2995776530597
 21
307.5008699639280
 31
0.0000000000000000
  0
LINE
  5
B6
100
AcDbEntity
  8
MAIN0
  6
PHANTOM
 62
3
100
AcDbLine
 10
364.4995776530587
 20
320.5008699639278
 30
0.0000000000000000
 11
368.9883621350801
 21
320.5008699639278
 31
0.0000000000000000
  0
LINE
  5
B7
100
AcDbEntity
  8
MAIN0
  6
PHANTOM
 62
3
100
AcDbLine
 10
365.4995776530597
 20
319.5008699639278
 30
0.0000000000000000
 11
364.4995776530587
 21
320.5008699639287
 31
0.0000000000000000
  0
LINE
  5
B8
100
AcDbEntity
  8
MAIN0
  6
CONTINUOUS
 62
3
100
AcDbLine
 10
334.0995776530590
 20
320.5008699639280
 30
0.0000000000000000
 11
334.4995776530591
 21
320.1008699639280
 31
0.0000000000000000
  0
LINE
  5
B9
100
AcDbEntity
  8
MAIN0
  6
HIDDEN
 62
3
100
AcDbLine
 10
314.4995776530589
 20
164.5008699639282
 30
0.0000000000000000
 11
336.9451155442391
 21
164.5008699639282
 31
0.0000000000000000
  0
LINE
  5
BA
100
AcDbEntity
  8
MAIN0
  6
CONTINUOUS
 62
3
100
AcDbLine
 10
321.2995776530582
 20
318.5008699639279
 30
0.0000000000000000
 11
315.8995776530583
 21
318.5008699639279
 31
0.0000000000000000
  0
LINE
  5
BB
100
AcDbEntity
  8
MAIN0
  6
CONTINUOUS
 62
3
100
AcDbLine
 10
315.8995776530582
 20
318.5008699639279
 30
0.0000000000000000
 11
315.2995776530582
 21
317.4616394793866
 31
0.0000000000000000
  0
LINE
  5
BC
100
AcDbEntity
  8
MAIN0
  6
CONTINUOUS
 62
3
100
AcDbLine
 10
315.2995776530582
 20
317.4616394793866
 30
0.0000000000000000
 11
315.2995776530582
 21
309.5401004484692
 31
0.0000000000000000
  0
LINE
  5
BD
100
AcDbEntity
  8
MAIN0
  6
CONTINUOUS
 62
3
100
AcDbLine
 10
315.2995776530584
 20
309.5401004484693
 30
0.0000000000000000
 11
315.8995776530584
 21
308.5008699639279
 31
0.0000000000000000
  0
LINE
  5
BE
100
AcDbEntity
  8
MAIN0
  6
CONTINUOUS
 62
3
100
AcDbLine
 10
315.8995776530583
 20
308.5008699639279
 30
0.0000000000000000
 11
321.2995776530582
 21
308.5008699639279
 31
0.0000000000000000
  0
LINE
  5
BF
100
AcDbEntity
  8
MAIN0
  6
CONTINUOUS
 62
3
100
AcDbLine
 10
315.8995776530583
 20
318.5008699639279
 30
0.0000000000000000
 11
315.8995776530583
 21
308.5008699639279
 31
0.0000000000000000
  0
LINE
  5
C0
100
AcDbEntity
  8
MAIN0
  6
CONTINUOUS
 62
3
100
AcDbLine
 10
321.2995776530582
 20
316.5008699639279
 30
0.0000000000000000
 11
333.2995776530582
 21
316.5008699639279
 31
0.0000000000000000
  0
LINE
  5
C1
100
AcDbEntity
  8
MAIN0
  6
CONTINUOUS
 62
3
100
AcDbLine
 10
333.2995776530582
 20
316.5008699639279
 30
0.0000000000000000
 11
333.2995776530582
 21
310.5008699639279
 31
0.0000000000000000
  0
LINE
  5
C2
100
AcDbEntity
  8
MAIN0
  6
CONTINUOUS
 62
3
100
AcDbLine
 10
333.2995776530582
 20
310.5008699639279
 30
0.0000000000000000
 11
321.2995776530582
 21
310.5008699639279
 31
0.0000000000000000
  0
LINE
  5
C3
100
AcDbEntity
  8
MAIN0
  6
CONTINUOUS
 62
3
100
AcDbLine
 10
321.2995776530582
 20
315.9596039639279
 30
0.0000000000000000
 11
333.2995776530582
 21
315.9596039639279
 31
0.0000000000000000
  0
LINE
  5
C4
100
AcDbEntity
  8
MAIN0
  6
CONTINUOUS
 62
3
100
AcDbLine
 10
321.2995776530582
 20
311.0421359639279
 30
0.0000000000000000
 11
333.2995776530582
 21
311.0421359639279
 31
0.0000000000000000
  0
LINE
  5
C5
100
AcDbEntity
  8
MAIN0
  6
CENTER
 62
3
100
AcDbLine
 10
324.4995776530619
 20
163.3228005748871
 30
0.0000000000000000
 11
324.4995776530602
 21
198.6530709436972
 31
0.0000000000000000
  0
LINE
  5
C6
100
AcDbEntity
  8
MAIN0
  6
CONTINUOUS
 62
3
100
AcDbLine
 10
314.8995776530590
 20
307.5008699639279
 30
0.0000000000000000
 11
314.4995776530590
 21
307.1008699639279
 31
0.0000000000000000
  0
LINE
  5
C7
100
AcDbEntity
  8
MAIN0
  6
CONTINUOUS
 62
3
100
AcDbLine
 10
324.4995776530625
 20
327.5008699639282
 30
0.0000000000000000
 11
324.4995776530610
 21
316.5008699639279
 31
0.0000000000000000
  0
LINE
  5
C8
100
AcDbEntity
  8
MAIN0
  6
CENTER
 62
3
100
AcDbLine
 10
343.0712339290066
 20
285.0008699639279
 30
0.0000000000000000
 11
382.7005754081254
 21
285.0008699639279
 31
0.0000000000000000
  0
LINE
  5
C9
100
AcDbEntity
  8
MAIN0
  6
PHANTOM
 62
3
100
AcDbLine
 10
354.4995776530587
 20
278.5008699639279
 30
0.0000000000000000
 11
354.4995776530587
 21
315.5008699639280
 31
0.0000000000000000
  0
LINE
  5
CA
100
AcDbEntity
  8
MAIN0
  6
CONTINUOUS
 62
3
100
AcDbLine
 10
374.4995776530587
 20
290.5008699639279
 30
0.0000000000000000
 11
375.4995776530587
 21
290.5008699639279
 31
0.0000000000000000
  0
LINE
  5
CB
100
AcDbEntity
  8
MAIN0
  6
CONTINUOUS
 62
3
100
AcDbLine
 10
374.4995776530587
 20
279.5008699639279
 30
0.0000000000000000
 11
375.4995776530587
 21
279.5008699639279
 31
0.0000000000000000
  0
LINE
  5
CC
100
AcDbEntity
  8
MAIN0
  6
CONTINUOUS
 62
3
100
AcDbLine
 10
371.4995776530587
 20
279.0008699639279
 30
0.0000000000000000
 11
374.4995776530587
 21
279.0008699639279
 31
0.0000000000000000
  0
LINE
  5
CD
100
AcDbEntity
  8
MAIN0
  6
PHANTOM
 62
3
100
AcDbLine
 10
351.4995776530587
 20
279.0008699639279
 30
0.0000000000000000
 11
354.4995776530587
 21
279.0008699639279
 31
0.0000000000000000
  0
LINE
  5
CE
100
AcDbEntity
  8
MAIN0
  6
CONTINUOUS
 62
3
100
AcDbLine
 10
369.8995776530588
 20
290.0008699639279
 30
0.0000000000000000
 11
364.4995776530587
 21
290.0008699639279
 31
0.0000000000000000
  0
LINE
  5
CF
100
AcDbEntity
  8
MAIN0
  6
CONTINUOUS
 62
3
100
AcDbLine
 10
364.4995776530587
 20
290.0008699639279
 30
0.0000000000000000
 11
363.8995776530587
 21
288.9616394793866
 31
0.0000000000000000
  0
LINE
  5
D0
100
AcDbEntity
  8
MAIN0
  6
CONTINUOUS
 62
3
100
AcDbLine
 10
363.8995776530588
 20
288.9616394793866
 30
0.0000000000000000
 11
363.8995776530588
 21
281.0401004484693
 31
0.0000000000000000
  0
LINE
  5
D1
100
AcDbEntity
  8
MAIN0
  6
CONTINUOUS
 62
3
100
AcDbLine
 10
363.8995776530588
 20
281.0401004484693
 30
0.0000000000000000
 11
364.4995776530587
 21
280.0008699639279
 31
0.0000000000000000
  0
LINE
  5
D2
100
AcDbEntity
  8
MAIN0
  6
CONTINUOUS
 62
3
100
AcDbLine
 10
364.4995776530587
 20
280.0008699639279
 30
0.0000000000000000
 11
369.8995776530588
 21
280.0008699639279
 31
0.0000000000000000
  0
LINE
  5
D3
100
AcDbEntity
  8
MAIN0
  6
CONTINUOUS
 62
3
100
AcDbLine
 10
364.4995776530587
 20
290.0008699639279
 30
0.0000000000000000
 11
364.4995776530587
 21
280.0008699639279
 31
0.0000000000000000
  0
LINE
  5
D4
100
AcDbEntity
  8
MAIN0
  6
PHANTOM
 62
3
100
AcDbLine
 10
383.4995776530687
 20
182.5008699639281
 30
0.0000000000000000
 11
463.4995776530589
 21
182.5008699639281
 31
0.0000000000000000
  0
LINE
  5
D5
100
AcDbEntity
  8
MAIN0
  6
PHANTOM
 62
3
100
AcDbLine
 10
463.4995776530589
 20
182.5008699639281
 30
0.0000000000000000
 11
463.4995776530589
 21
174.5008699639281
 31
0.0000000000000000
  0
LINE
  5
D6
100
AcDbEntity
  8
MAIN0
  6
PHANTOM
 62
3
100
AcDbLine
 10
463.4995776530589
 20
174.5008699639281
 30
0.0000000000000000
 11
383.4995776530687
 21
174.5008699639281
 31
0.0000000000000000
  0
LINE
  5
D7
100
AcDbEntity
  8
MAIN0
  6
PHANTOM
 62
3
100
AcDbLine
 10
435.4995776530587
 20
181.8242874639281
 30
0.0000000000000000
 11
463.4995776530589
 21
181.8242874639281
 31
0.0000000000000000
  0
LINE
  5
D8
100
AcDbEntity
  8
MAIN0
  6
PHANTOM
 62
3
100
AcDbLine
 10
435.4995776530587
 20
175.1774524639281
 30
0.0000000000000000
 11
463.4995776530589
 21
175.1774524639281
 31
0.0000000000000000
  0
LINE
  5
D9
100
AcDbEntity
  8
MAIN0
  6
CONTINUOUS
 62
3
100
AcDbLine
 10
351.9995776530565
 20
334.2008699639281
 30
0.0000000000000000
 11
396.4995776530566
 21
334.2008699639281
 31
0.0000000000000000
  0
LINE
  5
DA
100
AcDbEntity
  8
MAIN0
  6
CONTINUOUS
 62
3
100
AcDbLine
 10
396.4995776530566
 20
334.2008699639281
 30
0.0000000000000000
 11
396.4995776530566
 21
331.0008699639280
 31
0.0000000000000000
  0
LINE
  5
DB
100
AcDbEntity
  8
MAIN0
  6
CONTINUOUS
 62
3
100
AcDbLine
 10
391.4995776530566
 20
334.2008699639281
 30
0.0000000000000000
 11
391.4995776530566
 21
331.0008699639282
 31
0.0000000000000000
  0
LINE
  5
DC
100
AcDbEntity
  8
MAIN0
  6
CONTINUOUS
 62
3
100
AcDbLine
 10
351.9995776530565
 20
334.2008699639281
 30
0.0000000000000000
 11
351.9995776530565
 21
331.0008699639282
 31
0.0000000000000000
  0
LINE
  5
DD
100
AcDbEntity
  8
MAIN0
  6
CONTINUOUS
 62
3
100
AcDbLine
 10
356.9995776530566
 20
334.2008699639280
 30
0.0000000000000000
 11
356.9995776530566
 21
331.0008699639279
 31
0.0000000000000000
  0
LINE
  5
DE
100
AcDbEntity
  8
MAIN0
  6
HIDDEN
 62
3
100
AcDbLine
 10
317.9210776530607
 20
164.5008699639282
 30
0.0000000000000000
 11
318.2148276530606
 21
173.9008699639282
 31
0.0000000000000000
  0
LINE
  5
DF
100
AcDbEntity
  8
MAIN0
  6
HIDDEN
 62
3
100
AcDbLine
 10
318.2148276530606
 20
173.9008699639282
 30
0.0000000000000000
 11
330.7843276530605
 21
173.9008699639282
 31
0.0000000000000000
  0
LINE
  5
E0
100
AcDbEntity
  8
MAIN0
  6
HIDDEN
 62
3
100
AcDbLine
 10
330.7843276530606
 20
173.9008699639282
 30
0.0000000000000000
 11
331.0780776530606
 21
164.5008699639282
 31
0.0000000000000000
  0
LINE
  5
E1
100
AcDbEntity
  8
MAIN0
  6
HIDDEN
 62
3
100
AcDbLine
 10
318.7770776530607
 20
164.5008699639282
 30
0.0000000000000000
 11
319.0708276530607
 21
173.9008699639282
 31
0.0000000000000000
  0
LINE
  5
E2
100
AcDbEntity
  8
MAIN0
  6
HIDDEN
 62
3
100
AcDbLine
 10
330.2220776530606
 20
164.5008699639282
 30
0.0000000000000000
 11
329.9283276530606
 21
173.9008699639282
 31
0.0000000000000000
  0
LINE
  5
E3
100
AcDbEntity
  8
MAIN0
  6
HIDDEN
 62
3
100
AcDbLine
 10
319.0995776530606
 20
173.9008699639282
 30
0.0000000000000000
 11
319.0995776530606
 21
188.3282299446711
 31
0.0000000000000000
  0
LINE
  5
E4
100
AcDbEntity
  8
MAIN0
  6
HIDDEN
 62
3
100
AcDbLine
 10
329.8995776530605
 20
188.3282299446711
 30
0.0000000000000000
 11
329.8995776530605
 21
173.9008699639282
 31
0.0000000000000000
  0
DIMENSION
  5
ED
100
AcDbEntity
  8
MAIN0
  6
CONTINUOUS
 62
3
100
AcDbDimension
  2
*D0
 10
524.4995776530583
 20
253.5008699639281
 30
0.0000000000000000
 11
523.9995776530583
 21
242.5008699639281
 31
0.0000000000000000
 70
32
  1
\A1;\U+220522H8
  3
MAIN001
100
AcDbAlignedDimension
 13
508.6335522487204
 23
231.5008699639281
 33
0.0000000000000000
 14
508.6335522487204
 24
253.5008699639281
 34
0.0000000000000000
 50
90.00000000000000
100
AcDbRotatedDimension
1001
ACAD
1000
DSTYLE
1002
{
1070
   173
1070
     1
1070
     6
1000
_OPEN
1070
     7
1000
_OPEN
1070
    41
1040
2.000000
1002
}
  0
DIMENSION
  5
F6
100
AcDbEntity
  8
MAIN0
  6
CONTINUOUS
 62
3
100
AcDbDimension
  2
*D1
 10
534.4995776530583
 20
257.5008699639280
 30
0.0000000000000000
 11
533.9995776530583
 21
242.5008699639281
 31
0.0000000000000000
 70
32
  1
\A1;\U+220530
  3
MAIN001
100
AcDbAlignedDimension
 13
492.6335522498362
 23
227.5008699639281
 33
0.0000000000000000
 14
492.6335522498360
 24
257.5008699639280
 34
0.0000000000000000
 50
90.00000000000000
100
AcDbRotatedDimension
1001
ACAD
1000
DSTYLE
1002
{
1070
   173
1070
     1
1070
     6
1000
_OPEN
1070
     7
1000
_OPEN
1070
    41
1040
2.000000
1002
}
  0
DIMENSION
  5
FF
100
AcDbEntity
  8
MAIN0
  6
CONTINUOUS
 62
3
100
AcDbDimension
  2
*D2
 10
479.4995776530583
 20
206.5008699639281
 30
0.0000000000000000
 11
494.4995776530583
 21
207.0008699639281
 31
0.0000000000000000
 70
32
  3
MAIN001
100
AcDbAlignedDimension
 13
509.4995776530583
 23
229.0008699639281
 33
0.0000000000000000
 14
479.4995776530583
 24
232.5008699639281
 34
0.0000000000000000
100
AcDbRotatedDimension
1001
ACAD
1000
DSTYLE
1002
{
1070
   173
1070
     1
1070
     6
1000
_OPEN
1070
     7
1000
_OPEN
1070
    41
1040
2.000000
1002
}
  0
DIMENSION
  5
108
100
AcDbEntity
  8
MAIN0
  6
CONTINUOUS
 62
3
100
AcDbDimension
  2
*D3
 10
564.4995776530583
 20
170.0008699639281
 30
0.0000000000000000
 11
563.9995776530583
 21
242.5008699639281
 31
0.0000000000000000
 70
32
  1
\A1;\U+2205145h7
  3
MAIN001
100
AcDbAlignedDimension
 13
448.4995776530583
 23
315.0008699639280
 33
0.0000000000000000
 14
448.4995776530583
 24
170.0008699639281
 34
0.0000000000000000
 50
90.00000000000000
100
AcDbRotatedDimension
1001
ACAD
1000
DSTYLE
1002
{
1070
   173
1070
     1
1070
     6
1000
_OPEN
1070
     7
1000
_OPEN
1070
    41
1040
2.000000
1002
}
  0
DIMENSION
  5
111
100
AcDbEntity
  8
MAIN0
  6
CONTINUOUS
 62
3
100
AcDbDimension
  2
*D4
 10
544.4995776530583
 20
263.5008699639280
 30
0.0000000000000000
 11
543.9995776530583
 21
242.5008699639281
 31
0.0000000000000000
 70
32
  1
\A1;\U+220542
  3
MAIN001
100
AcDbAlignedDimension
 13
464.4995776530583
 23
221.5008699639281
 33
0.0000000000000000
 14
464.4995776530583
 24
263.5008699639280
 34
0.0000000000000000
 50
90.00000000000000
100
AcDbRotatedDimension
1001
ACAD
1000
DSTYLE
1002
{
1070
   173
1070
     1
1070
     6
1000
_OPEN
1070
     7
1000
_OPEN
1070
    41
1040
2.000000
1002
}
  0
LINE
  5
112
100
AcDbEntity
  8
MAIN0
  6
HIDDEN
 62
3
100
AcDbLine
 10
86.78035773233262
 20
235.9311443414054
 30
0.0000000000000000
 11
95.89957765305886
 21
236.2161199639281
 31
0.0000000000000000
  0
LINE
  5
113
100
AcDbEntity
  8
MAIN0
  6
HIDDEN
 62
3
100
AcDbLine
 10
95.89957765305900
 20
236.2161199639281
 30
0.0000000000000000
 11
95.89957765305900
 21
248.7856199639281
 31
0.0000000000000000
  0
LINE
  5
114
100
AcDbEntity
  8
MAIN0
  6
HIDDEN
 62
3
100
AcDbLine
 10
95.89957765305897
 20
248.7856199639281
 30
0.0000000000000000
 11
86.78035773233268
 21
249.0705955864508
 31
0.0000000000000000
  0
LINE
  5
115
100
AcDbEntity
  8
MAIN0
  6
HIDDEN
 62
3
100
AcDbLine
 10
86.71202051524369
 20
236.7850088033713
 30
0.0000000000000000
 11
95.89957765305891
 21
237.0721199639281
 31
0.0000000000000000
  0
LINE
  5
116
100
AcDbEntity
  8
MAIN0
  6
HIDDEN
 62
3
100
AcDbLine
 10
86.71202051524367
 20
248.2167311244848
 30
0.0000000000000000
 11
95.89957765305903
 21
247.9296199639281
 31
0.0000000000000000
  0
LINE
  5
117
100
AcDbEntity
  8
MAIN0
  6
HIDDEN
 62
3
100
AcDbLine
 10
95.89957765305900
 20
237.1008699639281
 30
0.0000000000000000
 11
135.4995776530590
 21
237.1008699639281
 31
0.0000000000000000
  0
LINE
  5
118
100
AcDbEntity
  8
MAIN0
  6
HIDDEN
 62
3
100
AcDbLine
 10
135.4995776530590
 20
237.1008699639281
 30
0.0000000000000000
 11
135.4995776530590
 21
247.9008699639281
 31
0.0000000000000000
  0
LINE
  5
119
100
AcDbEntity
  8
MAIN0
  6
HIDDEN
 62
3
100
AcDbLine
 10
135.4995776530585
 20
247.9008699639281
 30
0.0000000000000000
 11
95.89957765305900
 21
247.9008699639281
 31
0.0000000000000000
  0
LINE
  5
11A
100
AcDbEntity
  8
MAIN0
  6
CENTER
 62
3
100
AcDbLine
 10
172.4995776530556
 20
320.0509654569957
 30
0.0000000000000000
 11
172.4995776530561
 21
306.9617865240405
 31
0.0000000000000000
  0
LINE
  5
11B
100
AcDbEntity
  8
MAIN0
  6
CENTER
 62
3
100
AcDbLine
 10
156.4995776530555
 20
320.2278469144562
 30
0.0000000000000000
 11
156.4995776530561
 21
305.9447223608083
 31
0.0000000000000000
  0
MTEXT
  5
11C
100
AcDbEntity
  8
MAIN0
  6
CONTINUOUS
 62
3
100
AcDbMText
 10
92.66469742701531
 20
244.7837199599604
 30
0.0000000000000000
 40
5.000000000000000
 41
0.0000000000000000
 71
     1
 72
     1
  1
{\H0.84x;{Ａ}}
 11
-1.836970198721030e-016
 21
-1.000000000000000
 31
0.0000000000000000
  7
KNJYOKO
  0
MTEXT
  5
11D
100
AcDbEntity
  8
MAIN0
  6
CONTINUOUS
 62
3
100
AcDbMText
 10
160.6224770221925
 20
170.0186171519026
 30
0.0000000000000000
 40
5.000000000000000
 41
0.0000000000000000
 71
     1
 72
     1
  1
{\H0.84x;{Ｄ}}
 11
1.000000000000000
 21
0.0000000000000000
 31
0.0000000000000000
  7
KNJYOKO
  0
MTEXT
  5
11E
100
AcDbEntity
  8
MAIN0
  6
CONTINUOUS
 62
3
100
AcDbMText
 10
164.6224770221925
 20
170.0186171519026
 30
0.0000000000000000
 40
5.000000000000000
 41
0.0000000000000000
 71
     1
 72
     1
  1
{\H0.84x;{ｒ}}
 11
1.000000000000000
 21
0.0000000000000000
 31
0.0000000000000000
  7
KNJYOKO
  0
LINE
  5
11F
100
AcDbEntity
  8
MAIN0
  6
CENTER
 62
3
100
AcDbLine
 10
134.5640454791383
 20
160.2536712766267
 30
0.0000000000000000
 11
140.2761963889267
 21
175.9476769178127
 31
0.0000000000000000
  0
LINE
  5
120
100
AcDbEntity
  8
MAIN0
  6
HIDDEN
 62
3
100
AcDbLine
 10
242.2187975737853
 20
235.9311443414054
 30
0.0000000000000000
 11
233.0995776530593
 21
236.2161199639273
 31
0.0000000000000000
  0
LINE
  5
121
100
AcDbEntity
  8
MAIN0
  6
HIDDEN
 62
3
100
AcDbLine
 10
233.0995776530594
 20
236.2161199639273
 30
0.0000000000000000
 11
233.0995776530584
 21
248.7856199639273
 31
0.0000000000000000
  0
LINE
  5
122
100
AcDbEntity
  8
MAIN0
  6
HIDDEN
 62
3
100
AcDbLine
 10
233.0995776530582
 20
248.7856199639273
 30
0.0000000000000000
 11
242.2187975737853
 21
249.0705955864508
 31
0.0000000000000000
  0
LINE
  5
123
100
AcDbEntity
  8
MAIN0
  6
HIDDEN
 62
3
100
AcDbLine
 10
242.2871347908742
 20
236.7850088033713
 30
0.0000000000000000
 11
233.0995776530593
 21
237.0721199639273
 31
0.0000000000000000
  0
LINE
  5
124
100
AcDbEntity
  8
MAIN0
  6
HIDDEN
 62
3
100
AcDbLine
 10
242.2871347908742
 20
248.2167311244848
 30
0.0000000000000000
 11
233.0995776530584
 21
247.9296199639273
 31
0.0000000000000000
  0
LINE
  5
125
100
AcDbEntity
  8
MAIN0
  6
HIDDEN
 62
3
100
AcDbLine
 10
233.0995776530594
 20
237.1008699639295
 30
0.0000000000000000
 11
193.4995776530594
 21
237.1008699639262
 31
0.0000000000000000
  0
LINE
  5
126
100
AcDbEntity
  8
MAIN0
  6
HIDDEN
 62
3
100
AcDbLine
 10
193.4995776530594
 20
237.1008699639269
 30
0.0000000000000000
 11
193.4995776530585
 21
247.9008699639269
 31
0.0000000000000000
  0
LINE
  5
127
100
AcDbEntity
  8
MAIN0
  6
HIDDEN
 62
3
100
AcDbLine
 10
193.4995776530585
 20
247.9008699639262
 30
0.0000000000000000
 11
233.0995776530585
 21
247.9008699639295
 31
0.0000000000000000
  0
LINE
  5
128
100
AcDbEntity
  8
MAIN0
  6
HIDDEN
 62
3
100
AcDbLine
 10
193.4995776530594
 20
237.1008699639269
 30
0.0000000000000000
 11
191.9228863734266
 21
239.8317793681012
 31
0.0000000000000000
  0
LINE
  5
129
100
AcDbEntity
  8
MAIN0
  6
HIDDEN
 62
3
100
AcDbLine
 10
191.9228863734281
 20
245.1699605597558
 30
0.0000000000000000
 11
193.4995776530585
 21
247.9008699639269
 31
0.0000000000000000
  0
MTEXT
  5
12A
100
AcDbEntity
  8
MAIN0
  6
CONTINUOUS
 62
3
100
AcDbMText
 10
236.3746348616672
 20
240.2695413069752
 30
0.0000000000000000
 40
5.000000000000000
 41
0.0000000000000000
 71
     1
 72
     1
  1
{\H0.84x;{Ｂ}}
 11
6.123233995736766e-017
 21
1.000000000000000
 31
0.0000000000000000
  7
KNJYOKO
  0
MTEXT
  5
12B
100
AcDbEntity
  8
MAIN0
  6
CONTINUOUS
 62
3
100
AcDbMText
 10
79.25462614775432
 20
248.2378736613503
 30
0.0000000000000000
 40
4.000000000000000
 41
0.0000000000000000
 71
     1
 72
     1
  1
{\H0.81x;{A}}
 11
1.000000000000000
 21
0.0000000000000000
 31
0.0000000000000000
  7
STANDARD
  0
MTEXT
  5
12C
100
AcDbEntity
  8
MAIN0
  6
CONTINUOUS
 62
3
100
AcDbMText
 10
156.8797649632955
 20
157.9557232983531
 30
0.0000000000000000
 40
4.000000000000000
 41
0.0000000000000000
 71
     1
 72
     1
  1
{\H0.88x;{Dr}}
 11
1.000000000000000
 21
0.0000000000000000
 31
0.0000000000000000
  7
STANDARD
  0
MTEXT
  5
12D
100
AcDbEntity
  8
MAIN0
  6
CONTINUOUS
 62
3
100
AcDbMText
 10
248.1387829196027
 20
248.2638150927507
 30
0.0000000000000000
 40
4.000000000000000
 41
0.0000000000000000
 71
     1
 72
     1
  1
{\H0.81x;{B}}
 11
1.000000000000000
 21
0.0000000000000000
 31
0.0000000000000000
  7
STANDARD
  0
LINE
  5
12E
100
AcDbEntity
  8
MAIN0
  6
CENTER
 62
3
100
AcDbLine
 10
178.4458861097332
 20
294.5492017035778
 30
0.0000000000000000
 11
183.7607041129521
 21
314.3843725245631
 31
0.0000000000000000
  0
LINE
  5
12F
100
AcDbEntity
  8
MAIN0
  6
CENTER
 62
3
100
AcDbLine
 10
151.3971124097371
 20
193.6018039700585
 30
0.0000000000000000
 11
144.9239697921145
 21
169.4437068364273
 31
0.0000000000000000
  0
LINE
  5
130
100
AcDbEntity
  8
MAIN0
  6
CENTER
 62
3
100
AcDbLine
 10
144.7729108680718
 20
313.5008699639280
 30
0.0000000000000000
 11
184.2845225180235
 21
313.5008699639280
 31
0.0000000000000000
  0
LINE
  5
131
100
AcDbEntity
  8
MAIN0
  6
CONTINUOUS
 62
3
100
AcDbLine
 10
103.7944604881827
 20
294.3671523639447
 30
0.0000000000000000
 11
112.6332952530100
 21
303.2059871287811
 31
0.0000000000000000
  0
LINE
  5
132
100
AcDbEntity
  8
MAIN0
  6
CONTINUOUS
 62
3
100
AcDbLine
 10
143.1478531242763
 20
165.5637114535781
 30
0.0000000000000000
 11
131.4016953644502
 21
169.8389632451429
 31
0.0000000000000000
  0
LINE
  5
133
100
AcDbEntity
  8
MAIN0
  6
CONTINUOUS
 62
3
100
AcDbLine
 10
216.3658600533736
 20
303.2059871285062
 30
0.0000000000000000
 11
225.2046948182101
 21
294.3671523636791
 31
0.0000000000000000
  0
CIRCLE
  5
134
100
AcDbEntity
  8
MAIN0
  6
CENTER
 62
3
100
AcDbCircle
 10
164.4995776530590
 20
242.5008699639281
 30
0.0000000000000000
 40
64.00000000000000
  0
ARC
  5
135
100
AcDbEntity
  8
MAIN0
  6
CENTER
 62
3
100
AcDbCircle
 10
164.4995776530590
 20
242.5008699639281
 30
0.0000000000000000
 40
31.50000000000000
100
AcDbArc
 50
52.96320190557778
 51
82.30346590367407
  0
ARC
  5
136
100
AcDbEntity
  8
MAIN0
  6
CENTER
 62
3
100
AcDbCircle
 10
164.4995776530590
 20
242.5008699639281
 30
0.0000000000000000
 40
31.50000000000000
100
AcDbArc
 50
142.6068867864282
 51
170.7301253805137
  0
CIRCLE
  5
137
100
AcDbEntity
  8
MAIN0
  6
HIDDEN
 62
3
100
AcDbCircle
 10
193.4995776530590
 20
242.5008699639281
 30
0.0000000000000000
 40
3.100000000000000
  0
CIRCLE
  5
138
100
AcDbEntity
  8
MAIN0
  6
HIDDEN
 62
3
100
AcDbCircle
 10
193.4995776530590
 20
242.5008699639281
 30
0.0000000000000000
 40
5.000000000000000
  0
CIRCLE
  5
139
100
AcDbEntity
  8
MAIN0
  6
HIDDEN
 62
3
100
AcDbCircle
 10
164.4995776530590
 20
213.5008699639280
 30
0.0000000000000000
 40
3.100000000000000
  0
CIRCLE
  5
13A
100
AcDbEntity
  8
MAIN0
  6
HIDDEN
 62
3
100
AcDbCircle
 10
164.4995776530590
 20
213.5008699639280
 30
0.0000000000000000
 40
5.000000000000000
  0
LINE
  5
13B
100
AcDbEntity
  8
MAIN0
  6
HIDDEN
 62
3
100
AcDbLine
 10
167.1686682488854
 20
215.0775612435614
 30
0.0000000000000000
 11
169.8995776530615
 21
213.5008699639281
 31
0.0000000000000000
  0
LINE
  5
13C
100
AcDbEntity
  8
MAIN0
  6
HIDDEN
 62
3
100
AcDbLine
 10
159.0995776530614
 20
213.5008699639271
 30
0.0000000000000000
 11
161.8304870572300
 21
215.0775612435567
 31
0.0000000000000000
  0
CIRCLE
  5
13D
100
AcDbEntity
  8
MAIN0
  6
HIDDEN
 62
3
100
AcDbCircle
 10
135.4995776530590
 20
242.5008699639281
 30
0.0000000000000000
 40
3.100000000000000
  0
CIRCLE
  5
13E
100
AcDbEntity
  8
MAIN0
  6
HIDDEN
 62
3
100
AcDbCircle
 10
135.4995776530590
 20
242.5008699639281
 30
0.0000000000000000
 40
5.000000000000000
  0
LINE
  5
13F
100
AcDbEntity
  8
MAIN0
  6
HIDDEN
 62
3
100
AcDbLine
 10
137.0762689326900
 20
239.8317793681004
 30
0.0000000000000000
 11
135.4995776530595
 21
237.1008699639291
 31
0.0000000000000000
  0
LINE
  5
140
100
AcDbEntity
  8
MAIN0
  6
HIDDEN
 62
3
100
AcDbLine
 10
135.4995776530585
 20
247.9008699639292
 30
0.0000000000000000
 11
137.0762689326913
 21
245.1699605597549
 31
0.0000000000000000
  0
ARC
  5
141
100
AcDbEntity
  8
MAIN0
  6
CENTER
 62
3
100
AcDbCircle
 10
164.4995776530590
 20
242.5008699639281
 30
0.0000000000000000
 40
29.00000000000000
100
AcDbArc
 50
346.6277526519326
 51
370.7857646382471
  0
ARC
  5
142
100
AcDbEntity
  8
MAIN0
  6
CENTER
 62
3
100
AcDbCircle
 10
164.4995776530590
 20
242.5008699639281
 30
0.0000000000000000
 40
29.00000000000000
100
AcDbArc
 50
256.1831449408456
 51
285.5779229292725
  0
ARC
  5
143
100
AcDbEntity
  8
MAIN0
  6
CENTER
 62
3
100
AcDbCircle
 10
164.4995776530590
 20
242.5008699639281
 30
0.0000000000000000
 40
29.00000000000000
100
AcDbArc
 50
166.6824044398644
 51
191.6828824953155
  0
LINE
  5
144
100
AcDbEntity
  8
MAIN0
  6
CONTINUOUS
 62
3
100
AcDbLine
 10
121.3834553784388
 20
307.5008699639280
 30
0.0000000000000000
 11
207.6156999276792
 21
307.5008699639280
 31
0.0000000000000000
  0
LINE
  5
145
100
AcDbEntity
  8
MAIN0
  6
CONTINUOUS
 62
3
100
AcDbLine
 10
209.2385396887693
 20
306.3947294182393
 30
0.0000000000000000
 11
210.1562619869311
 21
307.7053726891007
 31
0.0000000000000000
  0
LINE
  5
146
100
AcDbEntity
  8
MAIN0
  6
CENTER
 62
3
100
AcDbLine
 10
197.5891548169365
 20
308.4616731823801
 30
0.0000000000000000
 11
217.2816001544177
 21
350.6922584901778
 31
0.0000000000000000
  0
LINE
  5
147
100
AcDbEntity
  8
MAIN0
  6
PHANTOM
 62
3
100
AcDbLine
 10
214.9245675110976
 20
322.1028714884676
 30
0.0000000000000000
 11
214.5019492493553
 21
321.1965637014317
 31
0.0000000000000000
  0
LINE
  5
148
100
AcDbEntity
  8
MAIN0
  6
CONTINUOUS
 62
3
100
AcDbLine
 10
196.8471694810821
 20
330.5324723198207
 30
0.0000000000000000
 11
196.4245512193411
 21
329.6261645327842
 31
0.0000000000000000
  0
LINE
  5
149
100
AcDbEntity
  8
MAIN0
  6
PHANTOM
 62
3
100
AcDbLine
 10
196.7984117703792
 20
330.5552367233132
 30
0.0000000000000000
 11
214.9245675110976
 21
322.1028714884676
 31
0.0000000000000000
  0
LINE
  5
14A
100
AcDbEntity
  8
MAIN0
  6
PHANTOM
 62
3
100
AcDbLine
 10
199.5590112473778
 20
332.7987573865989
 30
0.0000000000000000
 11
198.2066328098670
 21
329.8985724682220
 31
0.0000000000000000
  0
ARC
  5
14B
100
AcDbEntity
  8
MAIN0
  6
PHANTOM
 62
3
100
AcDbCircle
 10
198.8089026774438
 20
321.1337876388865
 30
0.0000000000000000
 40
11.68906249798220
100
AcDbArc
 50
43.67930340697411
 51
86.32069659283603
  0
LINE
  5
14C
100
AcDbEntity
  8
MAIN0
  6
PHANTOM
 62
3
100
AcDbLine
 10
207.2626274371833
 20
329.2065021617902
 30
0.0000000000000000
 11
205.9102489996722
 21
326.3063172434127
 31
0.0000000000000000
  0
LINE
  5
14D
100
AcDbEntity
  8
MAIN0
  6
PHANTOM
 62
3
100
AcDbLine
 10
203.7489139517491
 20
331.7276760039597
 30
0.0000000000000000
 11
211.4525301415507
 21
328.1354207791447
 31
0.0000000000000000
  0
LINE
  5
14E
100
AcDbEntity
  8
MAIN0
  6
PHANTOM
 62
3
100
AcDbLine
 10
214.9662436269886
 20
325.6142469369809
 30
0.0000000000000000
 11
213.6138651894775
 21
322.7140620186034
 31
0.0000000000000000
  0
ARC
  5
14F
100
AcDbEntity
  8
MAIN0
  6
PHANTOM
 62
3
100
AcDbCircle
 10
206.5125188672483
 20
317.5415324140778
 30
0.0000000000000000
 40
11.68906249798220
100
AcDbArc
 50
43.67930340696933
 51
86.32069659283125
  0
LINE
  5
150
100
AcDbEntity
  8
MAIN0
  6
PHANTOM
 62
3
100
AcDbLine
 10
219.9272464352694
 20
342.1686557497932
 30
0.0000000000000000
 11
212.9828926507071
 21
327.2764410004008
 31
0.0000000000000000
  0
LINE
  5
151
100
AcDbEntity
  8
MAIN0
  6
PHANTOM
 62
3
100
AcDbLine
 10
219.6653285571011
 20
342.8882692047308
 30
0.0000000000000000
 11
212.5213304711130
 21
327.5679158692922
 31
0.0000000000000000
  0
LINE
  5
152
100
AcDbEntity
  8
MAIN0
  6
PHANTOM
 62
3
100
AcDbLine
 10
209.7711664464515
 20
347.5019927690753
 30
0.0000000000000000
 11
202.6271683600425
 21
332.1816394327341
 31
0.0000000000000000
  0
LINE
  5
153
100
AcDbEntity
  8
MAIN0
  6
PHANTOM
 62
3
100
AcDbLine
 10
209.0515529908296
 20
347.2400748906816
 30
0.0000000000000000
 11
202.1071992062773
 21
332.3478601413104
 31
0.0000000000000000
  0
LINE
  5
154
100
AcDbEntity
  8
MAIN0
  6
PHANTOM
 62
3
100
AcDbLine
 10
194.4123478130756
 20
313.4799964932658
 30
0.0000000000000000
 11
203.4754256834067
 21
309.2538138758561
 31
0.0000000000000000
  0
LINE
  5
155
100
AcDbEntity
  8
MAIN0
  6
PHANTOM
 62
3
100
AcDbLine
 10
194.4123386179399
 20
313.4800007810399
 30
0.0000000000000000
 11
193.9286490926487
 21
314.8089268298204
 31
0.0000000000000000
  0
ARC
  5
156
100
AcDbEntity
  8
MAIN0
  6
HIDDEN
 62
3
100
AcDbCircle
 10
164.4995776530590
 20
242.5008699639281
 30
0.0000000000000000
 40
75.99999999999999
100
AcDbArc
 50
53.37743660808697
 51
73.88959212092311
  0
LINE
  5
157
100
AcDbEntity
  8
MAIN0
  6
CENTER
 62
3
100
AcDbLine
 10
214.3503763041467
 20
292.3516686144523
 30
0.0000000000000000
 11
226.2237510622306
 21
304.2250433725272
 31
0.0000000000000000
  0
CIRCLE
  5
158
100
AcDbEntity
  8
MAIN0
  6
HIDDEN
 62
3
100
AcDbCircle
 10
181.0639965392703
 20
304.3201228465223
 30
0.0000000000000000
 40
6.500000000000000
  0
LINE
  5
159
100
AcDbEntity
  8
MAIN0
  6
HIDDEN
 62
3
100
AcDbLine
 10
183.5134862820530
 20
306.7696125893035
 30
0.0000000000000000
 11
180.1674210671018
 21
307.6661880614715
 31
0.0000000000000000
  0
LINE
  5
15A
100
AcDbEntity
  8
MAIN0
  6
HIDDEN
 62
3
100
AcDbLine
 10
180.1674210671017
 20
307.6661880614715
 30
0.0000000000000000
 11
177.7179313243186
 21
305.2166983186883
 31
0.0000000000000000
  0
LINE
  5
15B
100
AcDbEntity
  8
MAIN0
  6
HIDDEN
 62
3
100
AcDbLine
 10
177.7179313243186
 20
305.2166983186884
 30
0.0000000000000000
 11
178.6145067964867
 21
301.8706331037371
 31
0.0000000000000000
  0
LINE
  5
15C
100
AcDbEntity
  8
MAIN0
  6
HIDDEN
 62
3
100
AcDbLine
 10
178.6145067964867
 20
301.8706331037371
 30
0.0000000000000000
 11
181.9605720114379
 21
300.9740576315691
 31
0.0000000000000000
  0
LINE
  5
15D
100
AcDbEntity
  8
MAIN0
  6
HIDDEN
 62
3
100
AcDbLine
 10
181.9605720114379
 20
300.9740576315691
 30
0.0000000000000000
 11
184.4100617542210
 21
303.4235473743522
 31
0.0000000000000000
  0
LINE
  5
15E
100
AcDbEntity
  8
MAIN0
  6
HIDDEN
 62
3
100
AcDbLine
 10
184.4100617542211
 20
303.4235473743523
 30
0.0000000000000000
 11
183.5134862820530
 21
306.7696125893035
 31
0.0000000000000000
  0
LINE
  5
15F
100
AcDbEntity
  8
MAIN0
  6
CENTER
 62
3
100
AcDbLine
 10
112.4512459135852
 20
228.5545615065969
 30
0.0000000000000000
 11
92.61607509259864
 21
223.2397435033827
 31
0.0000000000000000
  0
LINE
  5
160
100
AcDbEntity
  8
MAIN0
  6
CENTER
 62
3
100
AcDbLine
 10
213.3986436467426
 20
255.6033352079435
 30
0.0000000000000000
 11
237.5567407803706
 21
262.0764778255782
 31
0.0000000000000000
  0
LINE
  5
161
100
AcDbEntity
  8
MAIN0
  6
HIDDEN
 62
3
100
AcDbLine
 10
171.0568366050461
 20
164.7805835004601
 30
0.0000000000000000
 11
170.7843276530627
 21
173.5008699639283
 31
0.0000000000000000
  0
LINE
  5
162
100
AcDbEntity
  8
MAIN0
  6
HIDDEN
 62
3
100
AcDbLine
 10
170.7843276530628
 20
173.5008699639283
 30
0.0000000000000000
 11
158.2148276530627
 21
173.5008699639283
 31
0.0000000000000000
  0
LINE
  5
163
100
AcDbEntity
  8
MAIN0
  6
HIDDEN
 62
3
100
AcDbLine
 10
158.2148276530627
 20
173.5008699639283
 30
0.0000000000000000
 11
157.9423187010794
 21
164.7805835004595
 31
0.0000000000000000
  0
LINE
  5
164
100
AcDbEntity
  8
MAIN0
  6
HIDDEN
 62
3
100
AcDbLine
 10
170.2029677914744
 20
164.7123855347572
 30
0.0000000000000000
 11
169.9283276530627
 21
173.5008699639283
 31
0.0000000000000000
  0
LINE
  5
165
100
AcDbEntity
  8
MAIN0
  6
HIDDEN
 62
3
100
AcDbLine
 10
158.7961875146511
 20
164.7123855347566
 30
0.0000000000000000
 11
159.0708276530627
 21
173.5008699639282
 31
0.0000000000000000
  0
LINE
  5
166
100
AcDbEntity
  8
MAIN0
  6
HIDDEN
 62
3
100
AcDbLine
 10
169.8995776530614
 20
173.5008699639283
 30
0.0000000000000000
 11
169.8995776530614
 21
213.5008699639281
 31
0.0000000000000000
  0
LINE
  5
167
100
AcDbEntity
  8
MAIN0
  6
HIDDEN
 62
3
100
AcDbLine
 10
169.8995776530611
 20
213.5008699639281
 30
0.0000000000000000
 11
159.0995776530611
 21
213.5008699639281
 31
0.0000000000000000
  0
LINE
  5
168
100
AcDbEntity
  8
MAIN0
  6
HIDDEN
 62
3
100
AcDbLine
 10
159.0995776530615
 20
213.5008699639281
 30
0.0000000000000000
 11
159.0995776530615
 21
173.5008699639283
 31
0.0000000000000000
  0
ARC
  5
169
100
AcDbEntity
  8
MAIN0
  6
CONTINUOUS
 62
3
100
AcDbCircle
 10
108.4613652440103
 20
301.2967988195752
 30
0.0000000000000000
 40
3.299999999999994
100
AcDbArc
 50
45.00000000003026
 51
135.0000000000302
  0
LINE
  5
16A
100
AcDbEntity
  8
MAIN0
  6
CONTINUOUS
 62
3
100
AcDbLine
 10
106.1279128660935
 20
303.6302511974895
 30
0.0000000000000000
 11
103.3701964194675
 21
300.8725347508606
 31
0.0000000000000000
  0
ARC
  5
16B
100
AcDbEntity
  8
MAIN0
  6
CONTINUOUS
 62
3
100
AcDbCircle
 10
105.7036487973842
 20
298.5390823729462
 30
0.0000000000000000
 40
3.300000000000008
100
AcDbArc
 50
135.0000000000302
 51
225.0000000000303
  0
LINE
  5
16C
100
AcDbEntity
  8
MAIN0
  6
CONTINUOUS
 62
3
100
AcDbLine
 10
103.7944604881827
 20
294.3671523639446
 30
0.0000000000000000
 11
102.6630896382837
 21
295.4985232138425
 31
0.0000000000000000
  0
LINE
  5
16D
100
AcDbEntity
  8
MAIN0
  6
CONTINUOUS
 62
3
100
AcDbLine
 10
102.6630896382836
 20
295.4985232138424
 30
0.0000000000000000
 11
111.5019244031109
 21
304.3373579786788
 31
0.0000000000000000
  0
LINE
  5
16E
100
AcDbEntity
  8
MAIN0
  6
CONTINUOUS
 62
3
100
AcDbLine
 10
111.5019244031109
 20
304.3373579786789
 30
0.0000000000000000
 11
112.6332952530100
 21
303.2059871287810
 31
0.0000000000000000
  0
LINE
  5
16F
100
AcDbEntity
  8
MAIN0
  6
CONTINUOUS
 62
3
100
AcDbLine
 10
143.1478531242764
 20
165.5637114535780
 30
0.0000000000000000
 11
142.6006208949561
 21
164.0602032603203
 31
0.0000000000000000
  0
LINE
  5
170
100
AcDbEntity
  8
MAIN0
  6
CONTINUOUS
 62
3
100
AcDbLine
 10
142.6006208949561
 20
164.0602032603204
 30
0.0000000000000000
 11
130.8544631351300
 21
168.3354550518851
 31
0.0000000000000000
  0
LINE
  5
171
100
AcDbEntity
  8
MAIN0
  6
CONTINUOUS
 62
3
100
AcDbLine
 10
130.8544631351300
 20
168.3354550518851
 30
0.0000000000000000
 11
131.4016953644503
 21
169.8389632451428
 31
0.0000000000000000
  0
LINE
  5
172
100
AcDbEntity
  8
MAIN0
  6
HIDDEN
 62
3
100
AcDbLine
 10
99.33425955573125
 20
226.8330265491943
 30
0.0000000000000000
 11
100.2308350278993
 21
223.4869613342430
 31
0.0000000000000000
  0
LINE
  5
173
100
AcDbEntity
  8
MAIN0
  6
HIDDEN
 62
3
100
AcDbLine
 10
100.2308350278993
 20
223.4869613342430
 30
0.0000000000000000
 11
103.5769002428505
 21
222.5903858620750
 31
0.0000000000000000
  0
LINE
  5
174
100
AcDbEntity
  8
MAIN0
  6
HIDDEN
 62
3
100
AcDbLine
 10
103.5769002428505
 20
222.5903858620750
 30
0.0000000000000000
 11
106.0263899856337
 21
225.0398756048582
 31
0.0000000000000000
  0
LINE
  5
175
100
AcDbEntity
  8
MAIN0
  6
HIDDEN
 62
3
100
AcDbLine
 10
106.0263899856338
 20
225.0398756048582
 30
0.0000000000000000
 11
105.1298145134657
 21
228.3859408198094
 31
0.0000000000000000
  0
LINE
  5
176
100
AcDbEntity
  8
MAIN0
  6
HIDDEN
 62
3
100
AcDbLine
 10
105.1298145134656
 20
228.3859408198094
 30
0.0000000000000000
 11
101.7837492985145
 21
229.2825162919775
 31
0.0000000000000000
  0
LINE
  5
177
100
AcDbEntity
  8
MAIN0
  6
HIDDEN
 62
3
100
AcDbLine
 10
101.7837492985145
 20
229.2825162919775
 30
0.0000000000000000
 11
99.33425955573125
 21
226.8330265491942
 31
0.0000000000000000
  0
ARC
  5
178
100
AcDbEntity
  8
MAIN0
  6
HIDDEN
 62
3
100
AcDbCircle
 10
102.6803247706825
 20
225.9364510770262
 30
0.0000000000000000
 40
6.500000000000000
100
AcDbArc
 50
325.7468752378381
 51
614.2531247624654
  0
ARC
  5
179
100
AcDbEntity
  8
MAIN0
  6
CONTINUOUS
 62
3
100
AcDbCircle
 10
102.6803247706825
 20
225.9364510770262
 30
0.0000000000000000
 40
6.500000000000000
100
AcDbArc
 50
254.2531247624654
 51
325.7468752378381
  0
LINE
  5
17A
100
AcDbEntity
  8
MAIN0
  6
HIDDEN
 62
3
100
AcDbLine
 10
145.4856690240644
 20
178.2321273385507
 30
0.0000000000000000
 11
148.8317342390157
 21
177.3355518663827
 31
0.0000000000000000
  0
LINE
  5
17B
100
AcDbEntity
  8
MAIN0
  6
HIDDEN
 62
3
100
AcDbLine
 10
148.8317342390157
 20
177.3355518663827
 30
0.0000000000000000
 11
151.2812239817989
 21
179.7850416091659
 31
0.0000000000000000
  0
LINE
  5
17C
100
AcDbEntity
  8
MAIN0
  6
HIDDEN
 62
3
100
AcDbLine
 10
151.2812239817989
 20
179.7850416091658
 30
0.0000000000000000
 11
150.3846485096309
 21
183.1311068241171
 31
0.0000000000000000
  0
LINE
  5
17D
100
AcDbEntity
  8
MAIN0
  6
HIDDEN
 62
3
100
AcDbLine
 10
150.3846485096308
 20
183.1311068241171
 30
0.0000000000000000
 11
147.0385832946796
 21
184.0276822962852
 31
0.0000000000000000
  0
LINE
  5
17E
100
AcDbEntity
  8
MAIN0
  6
HIDDEN
 62
3
100
AcDbLine
 10
147.0385832946796
 20
184.0276822962852
 30
0.0000000000000000
 11
144.5890935518964
 21
181.5781925535020
 31
0.0000000000000000
  0
LINE
  5
17F
100
AcDbEntity
  8
MAIN0
  6
HIDDEN
 62
3
100
AcDbLine
 10
144.5890935518964
 20
181.5781925535020
 30
0.0000000000000000
 11
145.4856690240645
 21
178.2321273385507
 31
0.0000000000000000
  0
CIRCLE
  5
180
100
AcDbEntity
  8
MAIN0
  6
HIDDEN
 62
3
100
AcDbCircle
 10
147.9351587668477
 20
180.6816170813339
 30
0.0000000000000000
 40
6.500000000000000
  0
CIRCLE
  5
181
100
AcDbEntity
  8
MAIN0
  6
HIDDEN
 62
3
100
AcDbCircle
 10
209.7544116492543
 20
197.2460359682453
 30
0.0000000000000000
 40
6.500000000000000
  0
LINE
  5
182
100
AcDbEntity
  8
MAIN0
  6
HIDDEN
 62
3
100
AcDbLine
 10
210.6509871213993
 20
193.8999707533150
 30
0.0000000000000000
 11
213.1004768641825
 21
196.3494604960982
 31
0.0000000000000000
  0
LINE
  5
183
100
AcDbEntity
  8
MAIN0
  6
HIDDEN
 62
3
100
AcDbLine
 10
213.1004768641826
 20
196.3494604960983
 30
0.0000000000000000
 11
212.2039013920145
 21
199.6955257110495
 31
0.0000000000000000
  0
LINE
  5
184
100
AcDbEntity
  8
MAIN0
  6
HIDDEN
 62
3
100
AcDbLine
 10
212.2039013920145
 20
199.6955257110494
 30
0.0000000000000000
 11
208.8578361770633
 21
200.5921011832175
 31
0.0000000000000000
  0
LINE
  5
185
100
AcDbEntity
  8
MAIN0
  6
HIDDEN
 62
3
100
AcDbLine
 10
208.8578361770632
 20
200.5921011832175
 30
0.0000000000000000
 11
206.4083464342800
 21
198.1426114404343
 31
0.0000000000000000
  0
LINE
  5
186
100
AcDbEntity
  8
MAIN0
  6
HIDDEN
 62
3
100
AcDbLine
 10
206.4083464342801
 20
198.1426114404343
 30
0.0000000000000000
 11
207.3049219064482
 21
194.7965462254831
 31
0.0000000000000000
  0
LINE
  5
187
100
AcDbEntity
  8
MAIN0
  6
HIDDEN
 62
3
100
AcDbLine
 10
207.3049219064482
 20
194.7965462254831
 30
0.0000000000000000
 11
210.6509871213994
 21
193.8999707533151
 31
0.0000000000000000
  0
LINE
  5
188
100
AcDbEntity
  8
MAIN0
  6
HIDDEN
 62
3
100
AcDbLine
 10
229.6648957503867
 20
258.1687133786618
 30
0.0000000000000000
 11
228.7683202782186
 21
261.5147785936131
 31
0.0000000000000000
  0
LINE
  5
189
100
AcDbEntity
  8
MAIN0
  6
HIDDEN
 62
3
100
AcDbLine
 10
228.7683202782186
 20
261.5147785936131
 30
0.0000000000000000
 11
225.4222550632674
 21
262.4113540657812
 31
0.0000000000000000
  0
LINE
  5
18A
100
AcDbEntity
  8
MAIN0
  6
HIDDEN
 62
3
100
AcDbLine
 10
225.4222550632674
 20
262.4113540657811
 30
0.0000000000000000
 11
222.9727653204843
 21
259.9618643229979
 31
0.0000000000000000
  0
LINE
  5
18B
100
AcDbEntity
  8
MAIN0
  6
HIDDEN
 62
3
100
AcDbLine
 10
222.9727653204842
 20
259.9618643229979
 30
0.0000000000000000
 11
223.8693407926523
 21
256.6157991080467
 31
0.0000000000000000
  0
LINE
  5
18C
100
AcDbEntity
  8
MAIN0
  6
HIDDEN
 62
3
100
AcDbLine
 10
223.8693407926523
 20
256.6157991080468
 30
0.0000000000000000
 11
227.2154060076035
 21
255.7192236358787
 31
0.0000000000000000
  0
LINE
  5
18D
100
AcDbEntity
  8
MAIN0
  6
HIDDEN
 62
3
100
AcDbLine
 10
227.2154060076035
 20
255.7192236358787
 30
0.0000000000000000
 11
229.6648957503867
 21
258.1687133786618
 31
0.0000000000000000
  0
LINE
  5
18E
100
AcDbEntity
  8
MAIN0
  6
CONTINUOUS
 62
3
100
AcDbLine
 10
186.0090965596559
 20
330.9521897727762
 30
0.0000000000000000
 11
187.3614749972288
 21
333.8523746912923
 31
0.0000000000000000
  0
LINE
  5
18F
100
AcDbEntity
  8
MAIN0
  6
CONTINUOUS
 62
3
100
AcDbLine
 10
223.6137864787067
 20
316.9476442215836
 30
0.0000000000000000
 11
187.3614749972312
 21
333.8523746912912
 31
0.0000000000000000
  0
LINE
  5
190
100
AcDbEntity
  8
MAIN0
  6
CENTER
 62
3
100
AcDbLine
 10
215.2574782088273
 20
310.8584912227038
 30
0.0000000000000000
 11
222.4368862943188
 21
326.2547815471667
 31
0.0000000000000000
  0
LINE
  5
191
100
AcDbEntity
  8
MAIN0
  6
CONTINUOUS
 62
3
100
AcDbLine
 10
196.8471711292918
 20
330.5324998609221
 30
0.0000000000000000
 11
196.4245528675489
 21
329.6261920738864
 31
0.0000000000000000
  0
LINE
  5
192
100
AcDbEntity
  8
MAIN0
  6
CENTER
 62
3
100
AcDbLine
 10
188.3580324708312
 20
324.1584911745724
 30
0.0000000000000000
 11
195.5374405563227
 21
339.5547814990351
 31
0.0000000000000000
  0
LINE
  5
193
100
AcDbEntity
  8
MAIN0
  6
CONTINUOUS
 62
3
100
AcDbLine
 10
196.4245528675415
 20
329.6261920738694
 30
0.0000000000000000
 11
196.8471711292830
 21
330.5324998609057
 31
0.0000000000000000
  0
LINE
  5
194
100
AcDbEntity
  8
MAIN0
  6
CONTINUOUS
 62
3
100
AcDbLine
 10
196.8471711292830
 20
330.5324998609056
 30
0.0000000000000000
 11
187.7840932589203
 21
334.7586824783208
 31
0.0000000000000000
  0
LINE
  5
195
100
AcDbEntity
  8
MAIN0
  6
CONTINUOUS
 62
3
100
AcDbLine
 10
187.7840932589203
 20
334.7586824783208
 30
0.0000000000000000
 11
187.3614749971787
 21
333.8523746912845
 31
0.0000000000000000
  0
LINE
  5
196
100
AcDbEntity
  8
MAIN0
  6
CONTINUOUS
 62
3
100
AcDbLine
 10
188.4638240991975
 20
334.4417187820146
 30
0.0000000000000000
 11
190.3656062770343
 21
338.5201038236778
 31
0.0000000000000000
  0
LINE
  5
197
100
AcDbEntity
  8
MAIN0
  6
CONTINUOUS
 62
3
100
AcDbLine
 10
190.3656062770342
 20
338.5201038236779
 30
0.0000000000000000
 11
191.3618009751261
 21
338.6072595664247
 31
0.0000000000000000
  0
LINE
  5
198
100
AcDbEntity
  8
MAIN0
  6
CONTINUOUS
 62
3
100
AcDbLine
 10
191.3618009751261
 20
338.6072595664246
 30
0.0000000000000000
 11
197.4956460304923
 21
335.7470006431645
 31
0.0000000000000000
  0
LINE
  5
199
100
AcDbEntity
  8
MAIN0
  6
CONTINUOUS
 62
3
100
AcDbLine
 10
197.4956460304922
 20
335.7470006431645
 30
0.0000000000000000
 11
198.0692224668426
 21
334.9278485988750
 31
0.0000000000000000
  0
LINE
  5
19A
100
AcDbEntity
  8
MAIN0
  6
CONTINUOUS
 62
3
100
AcDbLine
 10
198.0692224668426
 20
334.9278485988750
 30
0.0000000000000000
 11
196.1674402890058
 21
330.8494635572117
 31
0.0000000000000000
  0
LINE
  5
19B
100
AcDbEntity
  8
MAIN0
  6
CONTINUOUS
 62
3
100
AcDbLine
 10
190.3656062770343
 20
338.5201038236778
 30
0.0000000000000000
 11
198.0692224668426
 21
334.9278485988750
 31
0.0000000000000000
  0
LINE
  5
19C
100
AcDbEntity
  8
MAIN0
  6
CONTINUOUS
 62
3
100
AcDbLine
 10
186.9224875896230
 20
326.9954591998969
 30
0.0000000000000000
 11
186.6689166325788
 21
326.4516745276768
 31
0.0000000000000000
  0
LINE
  5
19D
100
AcDbEntity
  8
MAIN0
  6
CONTINUOUS
 62
3
100
AcDbLine
 10
186.6689166325789
 20
326.4516745276768
 30
0.0000000000000000
 11
191.2004555677603
 21
324.3385832189692
 31
0.0000000000000000
  0
LINE
  5
19E
100
AcDbEntity
  8
MAIN0
  6
CONTINUOUS
 62
3
100
AcDbLine
 10
191.2004555677602
 20
324.3385832189692
 30
0.0000000000000000
 11
191.4540265248061
 21
324.8823678911930
 31
0.0000000000000000
  0
LINE
  5
19F
100
AcDbEntity
  8
MAIN0
  6
CONTINUOUS
 62
3
100
AcDbLine
 10
187.3149304621495
 20
326.8124600830494
 30
0.0000000000000000
 11
187.0613595051052
 21
326.2686754108290
 31
0.0000000000000000
  0
LINE
  5
1A0
100
AcDbEntity
  8
MAIN0
  6
CONTINUOUS
 62
3
100
AcDbLine
 10
191.0615836522795
 20
325.0653670080405
 30
0.0000000000000000
 11
190.8080126952338
 21
324.5215823358171
 31
0.0000000000000000
  0
LINE
  5
1A1
100
AcDbEntity
  8
MAIN0
  6
CONTINUOUS
 62
3
100
AcDbLine
 10
184.4995877985792
 20
307.5008699639280
 30
0.0000000000000000
 11
184.4995877985780
 21
334.2008443066601
 31
0.0000000000000000
  0
LINE
  5
1A2
100
AcDbEntity
  8
MAIN0
  6
CONTINUOUS
 62
3
100
AcDbLine
 10
174.4995877985766
 20
335.2008443066784
 30
0.0000000000000000
 11
174.4995877985781
 21
334.2008443066784
 31
0.0000000000000000
  0
LINE
  5
1A3
100
AcDbEntity
  8
MAIN0
  6
CONTINUOUS
 62
3
100
AcDbLine
 10
154.4995877985765
 20
335.2008443066480
 30
0.0000000000000000
 11
154.4995877985780
 21
334.2008443066479
 31
0.0000000000000000
  0
LINE
  5
1A4
100
AcDbEntity
  8
MAIN0
  6
CONTINUOUS
 62
3
100
AcDbLine
 10
144.4995877985368
 20
307.5008699639280
 30
0.0000000000000000
 11
144.4995877985358
 21
334.2008443066585
 31
0.0000000000000000
  0
LINE
  5
1A5
100
AcDbEntity
  8
MAIN0
  6
CENTER
 62
3
100
AcDbLine
 10
179.4995877985782
 20
328.0888351577410
 30
0.0000000000000000
 11
179.4995877985776
 21
341.8525958296784
 31
0.0000000000000000
  0
LINE
  5
1A6
100
AcDbEntity
  8
MAIN0
  6
CONTINUOUS
 62
3
100
AcDbLine
 10
174.4995877985778
 20
334.2008443066598
 30
0.0000000000000000
 11
174.4995877985778
 21
335.2008443066598
 31
0.0000000000000000
  0
LINE
  5
1A7
100
AcDbEntity
  8
MAIN0
  6
CONTINUOUS
 62
3
100
AcDbLine
 10
174.4995877985778
 20
335.2008443066598
 30
0.0000000000000000
 11
184.4995877985778
 21
335.2008443066602
 31
0.0000000000000000
  0
LINE
  5
1A8
100
AcDbEntity
  8
MAIN0
  6
CONTINUOUS
 62
3
100
AcDbLine
 10
184.4995877985778
 20
335.2008443066602
 30
0.0000000000000000
 11
184.4995877985778
 21
334.2008443066601
 31
0.0000000000000000
  0
LINE
  5
1A9
100
AcDbEntity
  8
MAIN0
  6
CONTINUOUS
 62
3
100
AcDbLine
 10
183.7495877985778
 20
335.2008443066601
 30
0.0000000000000000
 11
183.7495877985776
 21
339.7008443066601
 31
0.0000000000000000
  0
LINE
  5
1AA
100
AcDbEntity
  8
MAIN0
  6
CONTINUOUS
 62
3
100
AcDbLine
 10
183.7495877985776
 20
339.7008443066601
 30
0.0000000000000000
 11
182.8835623947932
 21
340.2008443066600
 31
0.0000000000000000
  0
LINE
  5
1AB
100
AcDbEntity
  8
MAIN0
  6
CONTINUOUS
 62
3
100
AcDbLine
 10
182.8835623947931
 20
340.2008443066601
 30
0.0000000000000000
 11
176.1156132023620
 21
340.2008443066598
 31
0.0000000000000000
  0
LINE
  5
1AC
100
AcDbEntity
  8
MAIN0
  6
CONTINUOUS
 62
3
100
AcDbLine
 10
176.1156132023620
 20
340.2008443066599
 30
0.0000000000000000
 11
175.2495877985776
 21
339.7008443066599
 31
0.0000000000000000
  0
LINE
  5
1AD
100
AcDbEntity
  8
MAIN0
  6
CONTINUOUS
 62
3
100
AcDbLine
 10
175.2495877985776
 20
339.7008443066598
 30
0.0000000000000000
 11
175.2495877985778
 21
335.2008443066598
 31
0.0000000000000000
  0
LINE
  5
1AE
100
AcDbEntity
  8
MAIN0
  6
CONTINUOUS
 62
3
100
AcDbLine
 10
183.7495877985776
 20
339.7008443066601
 30
0.0000000000000000
 11
175.2495877985776
 21
339.7008443066598
 31
0.0000000000000000
  0
LINE
  5
1AF
100
AcDbEntity
  8
MAIN0
  6
CONTINUOUS
 62
3
100
AcDbLine
 10
154.4995877984946
 20
335.2008443066776
 30
0.0000000000000000
 11
154.4995877984931
 21
334.2008443066776
 31
0.0000000000000000
  0
LINE
  5
1B0
100
AcDbEntity
  8
MAIN0
  6
CENTER
 62
3
100
AcDbLine
 10
149.4995877984517
 20
329.2425905333757
 30
0.0000000000000000
 11
149.4995877984512
 21
342.5382923540357
 31
0.0000000000000000
  0
LINE
  5
1B1
100
AcDbEntity
  8
MAIN0
  6
CONTINUOUS
 62
3
100
AcDbLine
 10
154.4995877984935
 20
334.2008443066590
 30
0.0000000000000000
 11
154.4995877984935
 21
335.2008443066590
 31
0.0000000000000000
  0
LINE
  5
1B2
100
AcDbEntity
  8
MAIN0
  6
CONTINUOUS
 62
3
100
AcDbLine
 10
154.4995877984934
 20
335.2008443066589
 30
0.0000000000000000
 11
144.4995877984934
 21
335.2008443066585
 31
0.0000000000000000
  0
LINE
  5
1B3
100
AcDbEntity
  8
MAIN0
  6
CONTINUOUS
 62
3
100
AcDbLine
 10
144.4995877984935
 20
335.2008443066586
 30
0.0000000000000000
 11
144.4995877984935
 21
334.2008443066585
 31
0.0000000000000000
  0
LINE
  5
1B4
100
AcDbEntity
  8
MAIN0
  6
CONTINUOUS
 62
3
100
AcDbLine
 10
145.2495877984935
 20
335.2008443066585
 30
0.0000000000000000
 11
145.2495877984933
 21
339.7008443066585
 31
0.0000000000000000
  0
LINE
  5
1B5
100
AcDbEntity
  8
MAIN0
  6
CONTINUOUS
 62
3
100
AcDbLine
 10
145.2495877984932
 20
339.7008443066586
 30
0.0000000000000000
 11
146.1156132022776
 21
340.2008443066586
 31
0.0000000000000000
  0
LINE
  5
1B6
100
AcDbEntity
  8
MAIN0
  6
CONTINUOUS
 62
3
100
AcDbLine
 10
146.1156132022777
 20
340.2008443066586
 30
0.0000000000000000
 11
152.8835623947088
 21
340.2008443066588
 31
0.0000000000000000
  0
LINE
  5
1B7
100
AcDbEntity
  8
MAIN0
  6
CONTINUOUS
 62
3
100
AcDbLine
 10
152.8835623947087
 20
340.2008443066588
 30
0.0000000000000000
 11
153.7495877984932
 21
339.7008443066589
 31
0.0000000000000000
  0
LINE
  5
1B8
100
AcDbEntity
  8
MAIN0
  6
CONTINUOUS
 62
3
100
AcDbLine
 10
153.7495877984933
 20
339.7008443066589
 30
0.0000000000000000
 11
153.7495877984935
 21
335.2008443066589
 31
0.0000000000000000
  0
LINE
  5
1B9
100
AcDbEntity
  8
MAIN0
  6
CONTINUOUS
 62
3
100
AcDbLine
 10
145.2495877984933
 20
339.7008443066586
 30
0.0000000000000000
 11
153.7495877984933
 21
339.7008443066589
 31
0.0000000000000000
  0
LINE
  5
1BA
100
AcDbEntity
  8
MAIN0
  6
CONTINUOUS
 62
3
100
AcDbLine
 10
184.4995877985778
 20
334.2008443066601
 30
0.0000000000000000
 11
144.4995877984934
 21
334.2008443066585
 31
0.0000000000000000
  0
LINE
  5
1BB
100
AcDbEntity
  8
MAIN0
  6
CONTINUOUS
 62
3
100
AcDbLine
 10
185.9047565750280
 20
331.0008443066602
 30
0.0000000000000000
 11
144.4995877984936
 21
331.0008443066585
 31
0.0000000000000000
  0
LINE
  5
1BC
100
AcDbEntity
  8
MAIN0
  6
PHANTOM
 62
3
100
AcDbLine
 10
159.4995776530392
 20
356.5008699639280
 30
0.0000000000000000
 11
169.4995776530082
 21
356.5008699639280
 31
0.0000000000000000
  0
LINE
  5
1BD
100
AcDbEntity
  8
MAIN0
  6
PHANTOM
 62
3
100
AcDbLine
 10
154.4457776530549
 20
335.2008699638566
 30
0.0000000000000000
 11
174.4457776530550
 21
335.2008699638566
 31
0.0000000000000000
  0
LINE
  5
1BE
100
AcDbEntity
  8
MAIN0
  6
PHANTOM
 62
3
100
AcDbLine
 10
174.4457776530550
 20
335.2008699638566
 30
0.0000000000000000
 11
174.4457776530550
 21
334.2008699638566
 31
0.0000000000000000
  0
LINE
  5
1BF
100
AcDbEntity
  8
MAIN0
  6
PHANTOM
 62
3
100
AcDbLine
 10
154.4457776530549
 20
335.2008699638566
 30
0.0000000000000000
 11
154.4457776530549
 21
334.2008699638566
 31
0.0000000000000000
  0
LINE
  5
1C0
100
AcDbEntity
  8
MAIN0
  6
PHANTOM
 62
3
100
AcDbLine
 10
158.4995776530544
 20
355.5008699639280
 30
0.0000000000000000
 11
170.4995776530545
 21
355.5008699639280
 31
0.0000000000000000
  0
LINE
  5
1C1
100
AcDbEntity
  8
MAIN0
  6
PHANTOM
 62
3
100
AcDbLine
 10
158.4995776530414
 20
355.5008699639280
 30
0.0000000000000000
 11
159.4995776530392
 21
356.5008699639280
 31
0.0000000000000000
  0
LINE
  5
1C2
100
AcDbEntity
  8
MAIN0
  6
PHANTOM
 62
3
100
AcDbLine
 10
169.4995776530082
 20
356.5008699639280
 30
0.0000000000000000
 11
170.4995776530543
 21
355.5008699638830
 31
0.0000000000000000
  0
LINE
  5
1C3
100
AcDbEntity
  8
MAIN0
  6
PHANTOM
 62
3
100
AcDbLine
 10
159.4995776530392
 20
358.5008699639280
 30
0.0000000000000000
 11
169.4995776530082
 21
358.5008699639280
 31
0.0000000000000000
  0
LINE
  5
1C4
100
AcDbEntity
  8
MAIN0
  6
PHANTOM
 62
3
100
AcDbLine
 10
169.4995776529834
 20
358.5008699639281
 30
0.0000000000000000
 11
169.4995776529821
 21
356.5008699639280
 31
0.0000000000000000
  0
LINE
  5
1C5
100
AcDbEntity
  8
MAIN0
  6
PHANTOM
 62
3
100
AcDbLine
 10
159.4995776530169
 20
358.5008699639281
 30
0.0000000000000000
 11
159.4995776530157
 21
356.5008699639281
 31
0.0000000000000000
  0
LINE
  5
1C6
100
AcDbEntity
  8
MAIN0
  6
PHANTOM
 62
3
100
AcDbLine
 10
170.4995776530552
 20
355.5008699639280
 30
0.0000000000000000
 11
170.4995776530551
 21
339.0691290449264
 31
0.0000000000000000
  0
LINE
  5
1C7
100
AcDbEntity
  8
MAIN0
  6
PHANTOM
 62
3
100
AcDbLine
 10
169.9580776530552
 20
356.0423699638815
 30
0.0000000000000000
 11
169.9580776530551
 21
339.2008699638532
 31
0.0000000000000000
  0
LINE
  5
1C8
100
AcDbEntity
  8
MAIN0
  6
PHANTOM
 62
3
100
AcDbLine
 10
159.0410776530551
 20
356.0423699639430
 30
0.0000000000000000
 11
159.0410776530551
 21
339.2008699638599
 31
0.0000000000000000
  0
LINE
  5
1C9
100
AcDbEntity
  8
MAIN0
  6
PHANTOM
 62
3
100
AcDbLine
 10
158.4995776530552
 20
355.5008699639280
 30
0.0000000000000000
 11
158.4995776530551
 21
339.0691290449289
 31
0.0000000000000000
  0
LINE
  5
1CA
100
AcDbEntity
  8
MAIN0
  6
PHANTOM
 62
3
100
AcDbLine
 10
160.2495776530553
 20
339.2008699638599
 30
0.0000000000000000
 11
168.7495776530544
 21
339.2008699638533
 31
0.0000000000000000
  0
LINE
  5
1CB
100
AcDbEntity
  8
MAIN0
  6
PHANTOM
 62
3
100
AcDbLine
 10
172.9995776530451
 20
338.4008699637050
 30
0.0000000000000000
 11
172.9995776530452
 21
335.2008699638566
 31
0.0000000000000000
  0
ARC
  5
1CC
100
AcDbEntity
  8
MAIN0
  6
PHANTOM
 62
3
100
AcDbCircle
 10
168.7495776530452
 20
327.5118074658710
 30
0.0000000000000000
 40
11.68906249798220
100
AcDbArc
 50
68.67930340706903
 51
111.3206965929310
  0
LINE
  5
1CD
100
AcDbEntity
  8
MAIN0
  6
PHANTOM
 62
3
100
AcDbLine
 10
164.4995776530452
 20
338.4008699637050
 30
0.0000000000000000
 11
164.4995776530453
 21
335.2008699638566
 31
0.0000000000000000
  0
ARC
  5
1CE
100
AcDbEntity
  8
MAIN0
  6
PHANTOM
 62
3
100
AcDbCircle
 10
160.2495776530462
 20
327.5118074658707
 30
0.0000000000000000
 40
11.68906249798220
100
AcDbArc
 50
68.67930340707382
 51
111.3206965929358
  0
LINE
  5
1CF
100
AcDbEntity
  8
MAIN0
  6
PHANTOM
 62
3
100
AcDbLine
 10
155.9995776530452
 20
338.4008699637043
 30
0.0000000000000000
 11
155.9995776530454
 21
335.2008699638566
 31
0.0000000000000000
  0
LINE
  5
1D0
100
AcDbEntity
  8
MAIN0
  6
CONTINUOUS
 62
3
100
AcDbLine
 10
222.2614080411315
 20
314.0474593030687
 30
0.0000000000000000
 11
185.9047565750281
 21
331.0008443066602
 31
0.0000000000000000
  0
LINE
  5
1D1
100
AcDbEntity
  8
MAIN0
  6
CONTINUOUS
 62
3
100
AcDbLine
 10
220.9090296035587
 20
311.1472743845527
 30
0.0000000000000000
 11
223.6137864787043
 21
316.9476442215848
 31
0.0000000000000000
  0
LINE
  5
1D2
100
AcDbEntity
  8
MAIN0
  6
CONTINUOUS
 62
3
100
AcDbLine
 10
220.9090296035587
 20
311.1472743845527
 30
0.0000000000000000
 11
184.6394138026119
 21
328.0600739909489
 31
0.0000000000000000
  0
LINE
  5
1D3
100
AcDbEntity
  8
MAIN0
  6
PHANTOM
 62
3
100
AcDbLine
 10
203.4754348786096
 20
309.2538095880749
 30
0.0000000000000000
 11
204.8043609273880
 21
309.7374991133721
 31
0.0000000000000000
  0
LINE
  5
1D4
100
AcDbEntity
  8
MAIN0
  6
PHANTOM
 62
3
100
AcDbLine
 10
208.2207297801826
 20
317.0639257611860
 30
0.0000000000000000
 11
204.8043609273906
 21
309.7374991133698
 31
0.0000000000000000
  0
LINE
  5
1D5
100
AcDbEntity
  8
MAIN0
  6
PHANTOM
 62
3
100
AcDbLine
 10
207.7299641135029
 20
317.2927735499193
 30
0.0000000000000000
 11
204.0847474719794
 21
309.4755812354255
 31
0.0000000000000000
  0
LINE
  5
1D6
100
AcDbEntity
  8
MAIN0
  6
PHANTOM
 62
3
100
AcDbLine
 10
193.9286674829596
 20
314.8089182542776
 30
0.0000000000000000
 11
197.3450363357512
 21
322.1353449020930
 31
0.0000000000000000
  0
LINE
  5
1D7
100
AcDbEntity
  8
MAIN0
  6
PHANTOM
 62
3
100
AcDbLine
 10
194.1905767853629
 20
314.0892864085495
 30
0.0000000000000000
 11
197.8358020024316
 21
321.9064971133594
 31
0.0000000000000000
  0
LINE
  5
1D8
100
AcDbEntity
  8
MAIN0
  6
PHANTOM
 62
3
100
AcDbLine
 10
204.8043609273876
 20
309.7374991133713
 30
0.0000000000000000
 11
193.9286674829478
 21
314.8089182542526
 31
0.0000000000000000
  0
LINE
  5
1D9
100
AcDbEntity
  8
MAIN0
  6
CONTINUOUS
 62
3
100
AcDbLine
 10
214.5507086083434
 20
321.1738268390035
 30
0.0000000000000000
 11
214.9733268700849
 21
322.0801346260398
 31
0.0000000000000000
  0
LINE
  5
1DA
100
AcDbEntity
  8
MAIN0
  6
CONTINUOUS
 62
3
100
AcDbLine
 10
214.9733268700849
 20
322.0801346260398
 30
0.0000000000000000
 11
224.0364047404476
 21
317.8539520086247
 31
0.0000000000000000
  0
LINE
  5
1DB
100
AcDbEntity
  8
MAIN0
  6
CONTINUOUS
 62
3
100
AcDbLine
 10
224.0364047404476
 20
317.8539520086247
 30
0.0000000000000000
 11
223.6137864787061
 21
316.9476442215884
 31
0.0000000000000000
  0
LINE
  5
1DC
100
AcDbEntity
  8
MAIN0
  6
CONTINUOUS
 62
3
100
AcDbLine
 10
223.3566739001703
 20
318.1709157049308
 30
0.0000000000000000
 11
225.2584560780071
 21
322.2493007465940
 31
0.0000000000000000
  0
LINE
  5
1DD
100
AcDbEntity
  8
MAIN0
  6
CONTINUOUS
 62
3
100
AcDbLine
 10
225.2584560780072
 20
322.2493007465939
 30
0.0000000000000000
 11
224.6848796416568
 21
323.0684527908834
 31
0.0000000000000000
  0
LINE
  5
1DE
100
AcDbEntity
  8
MAIN0
  6
CONTINUOUS
 62
3
100
AcDbLine
 10
224.6848796416568
 20
323.0684527908835
 30
0.0000000000000000
 11
218.5510345862907
 21
325.9287117141436
 31
0.0000000000000000
  0
LINE
  5
1DF
100
AcDbEntity
  8
MAIN0
  6
CONTINUOUS
 62
3
100
AcDbLine
 10
218.5510345862907
 20
325.9287117141436
 30
0.0000000000000000
 11
217.5548398881989
 21
325.8415559713969
 31
0.0000000000000000
  0
LINE
  5
1E0
100
AcDbEntity
  8
MAIN0
  6
CONTINUOUS
 62
3
100
AcDbLine
 10
217.5548398881988
 20
325.8415559713969
 30
0.0000000000000000
 11
215.6530577103620
 21
321.7631709297336
 31
0.0000000000000000
  0
LINE
  5
1E1
100
AcDbEntity
  8
MAIN0
  6
CONTINUOUS
 62
3
100
AcDbLine
 10
225.2584560780072
 20
322.2493007465940
 30
0.0000000000000000
 11
217.5548398881989
 21
325.8415559713969
 31
0.0000000000000000
  0
LINE
  5
1E2
100
AcDbEntity
  8
MAIN0
  6
CONTINUOUS
 62
3
100
AcDbLine
 10
218.6432601359689
 20
312.2038200389084
 30
0.0000000000000000
 11
218.3896891789248
 21
311.6600353666883
 31
0.0000000000000000
  0
LINE
  5
1E3
100
AcDbEntity
  8
MAIN0
  6
CONTINUOUS
 62
3
100
AcDbLine
 10
218.3896891789248
 20
311.6600353666883
 30
0.0000000000000000
 11
213.8581502437435
 21
313.7731266753958
 31
0.0000000000000000
  0
LINE
  5
1E4
100
AcDbEntity
  8
MAIN0
  6
CONTINUOUS
 62
3
100
AcDbLine
 10
213.8581502437434
 20
313.7731266753959
 30
0.0000000000000000
 11
214.1117212007892
 21
314.3169113476196
 31
0.0000000000000000
  0
LINE
  5
1E5
100
AcDbEntity
  8
MAIN0
  6
CONTINUOUS
 62
3
100
AcDbLine
 10
218.2508172634427
 20
312.3868191557564
 30
0.0000000000000000
 11
217.9972463063985
 21
311.8430344835360
 31
0.0000000000000000
  0
LINE
  5
1E6
100
AcDbEntity
  8
MAIN0
  6
CONTINUOUS
 62
3
100
AcDbLine
 10
214.5041640733155
 20
314.1339122307714
 30
0.0000000000000000
 11
214.2505931162698
 21
313.5901275585480
 31
0.0000000000000000
  0
ARC
  5
1E7
100
AcDbEntity
  8
MAIN0
  6
CENTER
 62
3
100
AcDbCircle
 10
164.4995776530590
 20
242.5008699639281
 30
0.0000000000000000
 40
31.50000000000000
100
AcDbArc
 50
234.2605980460354
 51
260.0366920758983
  0
LINE
  5
1E8
100
AcDbEntity
  8
MAIN0
  6
CENTER
 62
3
100
AcDbLine
 10
149.2015303663379
 20
205.5681167267584
 30
0.0000000000000000
 11
155.6330426927059
 21
221.0951610116345
 31
0.0000000000000000
  0
CIRCLE
  5
1E9
100
AcDbEntity
  8
MAIN0
  6
CONTINUOUS
 62
3
100
AcDbCircle
 10
152.4450495334697
 20
213.3986646898594
 30
0.0000000000000000
 40
5.000000000000000
  0
LINE
  5
1EA
100
AcDbEntity
  8
MAIN0
  6
CONTINUOUS
 62
3
100
AcDbLine
 10
149.5582981875216
 20
213.3986646898594
 30
0.0000000000000000
 11
151.0016738604957
 21
210.8986646898594
 31
0.0000000000000000
  0
LINE
  5
1EB
100
AcDbEntity
  8
MAIN0
  6
CONTINUOUS
 62
3
100
AcDbLine
 10
151.0016738604957
 20
210.8986646898594
 30
0.0000000000000000
 11
153.8884252064438
 21
210.8986646898594
 31
0.0000000000000000
  0
LINE
  5
1EC
100
AcDbEntity
  8
MAIN0
  6
CONTINUOUS
 62
3
100
AcDbLine
 10
153.8884252064438
 20
210.8986646898594
 30
0.0000000000000000
 11
155.3318008794178
 21
213.3986646898593
 31
0.0000000000000000
  0
LINE
  5
1ED
100
AcDbEntity
  8
MAIN0
  6
CONTINUOUS
 62
3
100
AcDbLine
 10
155.3318008794179
 20
213.3986646898594
 30
0.0000000000000000
 11
153.8884252064438
 21
215.8986646898594
 31
0.0000000000000000
  0
LINE
  5
1EE
100
AcDbEntity
  8
MAIN0
  6
CONTINUOUS
 62
3
100
AcDbLine
 10
153.8884252064438
 20
215.8986646898594
 30
0.0000000000000000
 11
151.0016738604957
 21
215.8986646898594
 31
0.0000000000000000
  0
LINE
  5
1EF
100
AcDbEntity
  8
MAIN0
  6
CONTINUOUS
 62
3
100
AcDbLine
 10
151.0016738604957
 20
215.8986646898594
 30
0.0000000000000000
 11
149.5582981875216
 21
213.3986646898594
 31
0.0000000000000000
  0
ARC
  5
1F0
100
AcDbEntity
  8
MAIN0
  6
CENTER
 62
3
100
AcDbCircle
 10
164.4995776530590
 20
242.5008699639281
 30
0.0000000000000000
 40
31.50000000000000
100
AcDbArc
 50
324.2605980460354
 51
350.6030095440383
  0
LINE
  5
1F1
100
AcDbEntity
  8
MAIN0
  6
CENTER
 62
3
100
AcDbLine
 10
201.4323308902286
 20
227.2028226772070
 30
0.0000000000000000
 11
185.9052866053526
 21
233.6343350035750
 31
0.0000000000000000
  0
CIRCLE
  5
1F2
100
AcDbEntity
  8
MAIN0
  6
CONTINUOUS
 62
3
100
AcDbCircle
 10
193.6017829271277
 20
230.4463418443388
 30
0.0000000000000000
 40
5.000000000000000
  0
LINE
  5
1F3
100
AcDbEntity
  8
MAIN0
  6
CONTINUOUS
 62
3
100
AcDbLine
 10
193.6017829271277
 20
227.5595904983908
 30
0.0000000000000000
 11
196.1017829271277
 21
229.0029661713648
 31
0.0000000000000000
  0
LINE
  5
1F4
100
AcDbEntity
  8
MAIN0
  6
CONTINUOUS
 62
3
100
AcDbLine
 10
196.1017829271277
 20
229.0029661713648
 30
0.0000000000000000
 11
196.1017829271277
 21
231.8897175173129
 31
0.0000000000000000
  0
LINE
  5
1F5
100
AcDbEntity
  8
MAIN0
  6
CONTINUOUS
 62
3
100
AcDbLine
 10
196.1017829271277
 20
231.8897175173129
 30
0.0000000000000000
 11
193.6017829271277
 21
233.3330931902869
 31
0.0000000000000000
  0
LINE
  5
1F6
100
AcDbEntity
  8
MAIN0
  6
CONTINUOUS
 62
3
100
AcDbLine
 10
193.6017829271277
 20
233.3330931902870
 30
0.0000000000000000
 11
191.1017829271277
 21
231.8897175173129
 31
0.0000000000000000
  0
LINE
  5
1F7
100
AcDbEntity
  8
MAIN0
  6
CONTINUOUS
 62
3
100
AcDbLine
 10
191.1017829271277
 20
231.8897175173129
 30
0.0000000000000000
 11
191.1017829271277
 21
229.0029661713648
 31
0.0000000000000000
  0
LINE
  5
1F8
100
AcDbEntity
  8
MAIN0
  6
CONTINUOUS
 62
3
100
AcDbLine
 10
191.1017829271277
 20
229.0029661713648
 30
0.0000000000000000
 11
193.6017829271277
 21
227.5595904983907
 31
0.0000000000000000
  0
LINE
  5
1F9
100
AcDbEntity
  8
MAIN0
  6
CENTER
 62
3
100
AcDbLine
 10
183.8711202641244
 20
189.2779940600298
 30
0.0000000000000000
 11
192.1553893531886
 21
166.5171518011432
 31
0.0000000000000000
  0
LINE
  5
1FA
100
AcDbEntity
  8
MAIN0
  6
HIDDEN
 62
3
100
AcDbLine
 10
188.1162248314639
 20
168.1620915501639
 30
0.0000000000000000
 11
188.5543011658390
 21
169.1015492809428
 31
0.0000000000000000
  0
LINE
  5
1FB
100
AcDbEntity
  8
MAIN0
  6
HIDDEN
 62
3
100
AcDbLine
 10
188.5543011658390
 20
169.1015492809428
 30
0.0000000000000000
 11
193.2527642697684
 21
170.8116499975714
 31
0.0000000000000000
  0
LINE
  5
1FC
100
AcDbEntity
  8
MAIN0
  6
HIDDEN
 62
3
100
AcDbLine
 10
193.2527642697684
 20
170.8116499975714
 30
0.0000000000000000
 11
194.1922220005475
 21
170.3735736631963
 31
0.0000000000000000
  0
LINE
  5
1FD
100
AcDbEntity
  8
MAIN0
  6
HIDDEN
 62
3
100
AcDbLine
 10
188.2554649271089
 20
168.4606928988870
 30
0.0000000000000000
 11
184.2538292501980
 21
179.4550965620819
 31
0.0000000000000000
  0
LINE
  5
1FE
100
AcDbEntity
  8
MAIN0
  6
HIDDEN
 62
3
100
AcDbLine
 10
184.2538292501980
 20
179.4550965620820
 30
0.0000000000000000
 11
189.8919849749134
 21
181.5072174220362
 31
0.0000000000000000
  0
LINE
  5
1FF
100
AcDbEntity
  8
MAIN0
  6
HIDDEN
 62
3
100
AcDbLine
 10
189.8919849749134
 20
181.5072174220362
 30
0.0000000000000000
 11
193.8936206518242
 21
170.5128137588413
 31
0.0000000000000000
  0
LINE
  5
200
100
AcDbEntity
  8
MAIN0
  6
HIDDEN
 62
3
100
AcDbLine
 10
188.5543011658389
 20
169.1015492809428
 30
0.0000000000000000
 11
183.3555949872881
 21
183.3848771168883
 31
0.0000000000000000
  0
LINE
  5
201
100
AcDbEntity
  8
MAIN0
  6
HIDDEN
 62
3
100
AcDbLine
 10
183.3555949872880
 20
183.3848771168883
 30
0.0000000000000000
 11
188.0540580912175
 21
185.0949778335169
 31
0.0000000000000000
  0
LINE
  5
202
100
AcDbEntity
  8
MAIN0
  6
HIDDEN
 62
3
100
AcDbLine
 10
188.0540580912176
 20
185.0949778335169
 30
0.0000000000000000
 11
193.2527642697685
 21
170.8116499975714
 31
0.0000000000000000
  0
LINE
  5
203
100
AcDbEntity
  8
MAIN0
  6
HIDDEN
 62
3
100
AcDbLine
 10
183.3555949872881
 20
183.3848771168883
 30
0.0000000000000000
 11
185.2111629847094
 21
185.5962569441182
 31
0.0000000000000000
  0
LINE
  5
204
100
AcDbEntity
  8
MAIN0
  6
HIDDEN
 62
3
100
AcDbLine
 10
185.2111629847094
 20
185.5962569441182
 30
0.0000000000000000
 11
188.0540580912176
 21
185.0949778335169
 31
0.0000000000000000
  0
LINE
  5
205
100
AcDbEntity
  8
MAIN0
  6
CONTINUOUS
 62
3
100
AcDbLine
 10
449.4995776530583
 20
171.0008699639281
 30
0.0000000000000000
 11
449.4995776530583
 21
314.0008699639280
 31
0.0000000000000000
  0
LINE
  5
206
100
AcDbEntity
  8
MAIN0
  6
CONTINUOUS
 62
3
100
AcDbLine
 10
397.4995776530585
 20
163.9008699639282
 30
0.0000000000000000
 11
397.4995776530585
 21
315.5008699639280
 31
0.0000000000000000
  0
LINE
  5
207
100
AcDbEntity
  8
MAIN0
  6
CONTINUOUS
 62
3
100
AcDbLine
 10
375.4995776530587
 20
268.3768166316255
 30
0.0000000000000000
 11
375.4995776530587
 21
314.5008699639280
 31
0.0000000000000000
  0
LINE
  5
208
100
AcDbEntity
  8
MAIN0
  6
CONTINUOUS
 62
3
100
AcDbLine
 10
374.4995776530591
 20
268.1427776300753
 30
0.0000000000000000
 11
374.4995776530591
 21
278.1008699639280
 31
0.0000000000000000
  0
LINE
  5
209
100
AcDbEntity
  8
MAIN0
  6
CONTINUOUS
 62
3
100
AcDbLine
 10
334.4995776530589
 20
269.9219587451818
 30
0.0000000000000000
 11
334.4995776530589
 21
320.1008699639280
 31
0.0000000000000000
  0
LINE
  5
20A
100
AcDbEntity
  8
MAIN0
  6
CONTINUOUS
 62
3
100
AcDbLine
 10
374.4995776530587
 20
278.5008699639279
 30
0.0000000000000000
 11
374.4995776530587
 21
315.5008699639280
 31
0.0000000000000000
  0
SPLINE
  5
20B
100
AcDbEntity
  8
MAIN0
  6
CONTINUOUS
 62
3
100
AcDbSpline
210
0.0000000000000000
220
0.0000000000000000
230
1.000000000000000
 70
     8
 71
     3
 72
    17
 73
    13
 74
     0
 42
1.000000000000000e-007
 43
1.000000000000000e-007
 12
-0.8974027022925384
 22
-0.4547750465437730
 32
0.0000000000000000
 13
0.7912280731290196
 23
-0.5968029728139328
 33
0.0000000000000000
 40
0.0000000000000000
 40
0.0000000000000000
 40
0.0000000000000000
 40
0.0000000000000000
 40
3.451451550896865
 40
7.141411291084067
 40
13.22703623298530
 40
15.25558546685544
 40
18.67307565738418
 40
23.37284594706721
 40
27.55479959800078
 40
29.11061571413300
 40
32.74272636328107
 40
38.22952577331149
 40
38.22952577331149
 40
38.22952577331149
 40
38.22952577331149
 10
468.3075430356831
 20
257.5008699639280
 30
0.0000000000000000
 10
467.2750957194809
 20
256.9776586173605
 30
0.0000000000000000
 10
465.1388551225473
 20
255.8950800665968
 30
0.0000000000000000
 10
462.3350161111598
 20
252.1550750622842
 30
0.0000000000000000
 10
462.3647926794345
 20
248.2073579838815
 30
0.0000000000000000
 10
460.6015626942477
 20
244.3659852898359
 30
0.0000000000000000
 10
463.8802103950966
 20
241.7906668691008
 30
0.0000000000000000
 10
462.9803852990931
 20
237.1340425985070
 30
0.0000000000000000
 10
459.9550969334161
 20
234.5449330941987
 30
0.0000000000000000
 10
461.0564605516889
 20
231.2345171949051
 30
0.0000000000000000
 10
464.9473993080762
 20
230.4064469076883
 30
0.0000000000000000
 10
467.3524451864630
 20
228.5923826969747
 30
0.0000000000000000
 10
468.7995484280776
 20
227.5008699639281
 30
0.0000000000000000
  0
SPLINE
  5
20C
100
AcDbEntity
  8
MAIN0
  6
CONTINUOUS
 62
3
100
AcDbSpline
210
0.0000000000000000
220
0.0000000000000000
230
1.000000000000000
 70
     8
 71
     3
 72
    18
 73
    14
 74
     0
 42
1.000000000000000e-007
 43
1.000000000000000e-007
 12
0.9248650494519666
 22
-0.4026988787621662
 32
0.0000000000000000
 13
0.9634970546061936
 23
-0.3889613391137061
 33
0.0000000000000000
 40
0.0000000000000000
 40
0.0000000000000000
 40
0.0000000000000000
 40
0.0000000000000000
 40
10.34397517273677
 40
16.14514455894456
 40
20.71542896138142
 40
28.02957272523506
 40
38.67095173348665
 40
44.99671676374255
 40
52.66783483196528
 40
64.50481486217470
 40
70.57546573847198
 40
81.66474885053253
 40
86.19390714961737
 40
86.19390714961737
 40
86.19390714961737
 40
86.19390714961737
 10
314.4995776530589
 20
272.0405840408358
 30
0.0000000000000000
 10
317.6885046896133
 20
270.6520816395009
 30
0.0000000000000000
 10
322.6658646632524
 20
268.4848711023876
 30
0.0000000000000000
 10
329.7580267819661
 20
268.3091982964041
 30
0.0000000000000000
 10
335.3436342166908
 20
270.3923050401727
 30
0.0000000000000000
 10
342.7466876224672
 20
271.1594367844043
 30
0.0000000000000000
 10
351.0728544968358
 20
273.4907377404928
 30
0.0000000000000000
 10
358.5483918548305
 20
269.7079194124888
 30
0.0000000000000000
 10
365.9357332179233
 20
263.9603459568087
 30
0.0000000000000000
 10
374.5719539568794
 20
269.2849623785853
 30
0.0000000000000000
 10
384.2908167592315
 20
268.1369581478393
 30
0.0000000000000000
 10
391.0288599936611
 20
273.5907007897044
 30
0.0000000000000000
 10
396.0449674260540
 20
271.5657108276548
 30
0.0000000000000000
 10
397.4995776530585
 20
270.9784883352980
 30
0.0000000000000000
  0
DIMENSION
  5
215
100
AcDbEntity
  8
MAIN0
  6
CONTINUOUS
 62
3
100
AcDbDimension
  2
*D5
 10
449.4995776530583
 20
365.0008699639280
 30
0.0000000000000000
 11
423.4995776530585
 21
365.5008699639280
 31
0.0000000000000000
 70
32
  1
\A1;MIN 52
  3
MAIN001
100
AcDbAlignedDimension
 13
397.4995776530587
 23
318.0008699639280
 33
0.0000000000000000
 14
449.4995776530583
 24
314.0008699639280
 34
0.0000000000000000
100
AcDbRotatedDimension
1001
ACAD
1000
DSTYLE
1002
{
1070
   173
1070
     1
1070
     6
1000
_OPEN
1070
     7
1000
_OPEN
1070
    41
1040
2.000000
1002
}
  0
DIMENSION
  5
21E
100
AcDbEntity
  8
MAIN0
  6
CONTINUOUS
 62
3
100
AcDbDimension
  2
*D6
 10
397.4995776530587
 20
365.0008699639280
 30
0.0000000000000000
 11
384.4995776530590
 21
365.5008699639280
 31
0.0000000000000000
 70
160
  3
MAIN001
100
AcDbAlignedDimension
 13
371.4995776530587
 23
318.0008699639280
 33
0.0000000000000000
 14
397.4995776530587
 24
318.0008699639280
 34
0.0000000000000000
100
AcDbRotatedDimension
1001
ACAD
1000
DSTYLE
1002
{
1070
   173
1070
     1
1070
     6
1000
_OPEN
1070
     7
1000
_OPEN
1070
    41
1040
2.000000
1002
}
  0
LINE
  5
21F
100
AcDbEntity
  8
MAIN0
  6
CENTER
 62
3
100
AcDbLine
 10
102.1588051883765
 20
304.8416424285600
 30
0.0000000000000000
 11
126.3975543702596
 21
280.6028932462466
 31
0.0000000000000000
  0
LINE
  5
220
100
AcDbEntity
  8
MAIN0
  6
CENTER
 62
3
100
AcDbLine
 10
525.8962041564852
 20
142.9008699639350
 30
0.0000000000000000
 11
563.1029511495437
 21
142.9008699639159
 31
0.0000000000000000
  0
LINE
  5
221
100
AcDbEntity
  8
MAIN0
  6
CENTER
 62
3
100
AcDbLine
 10
544.4995776530180
 20
124.2974964673961
 30
0.0000000000000000
 11
544.4995776530109
 21
161.5042434604547
 31
0.0000000000000000
  0
CIRCLE
  5
222
100
AcDbEntity
  8
MAIN0
  6
CONTINUOUS
 62
3
100
AcDbCircle
 10
544.4995776530144
 20
142.9008699639255
 30
0.0000000000000000
 40
8.750000000070429
  0
CIRCLE
  5
223
100
AcDbEntity
  8
MAIN0
  6
CONTINUOUS
 62
3
100
AcDbCircle
 10
544.4995776530144
 20
142.9008699639255
 30
0.0000000000000000
 40
10.00000000007040
  0
LINE
  5
224
100
AcDbEntity
  8
MAIN0
  6
CONTINUOUS
 62
3
100
AcDbLine
 10
530.9995776530154
 20
137.6093673416009
 30
0.0000000000000000
 11
530.9995776530134
 21
148.1923725862447
 31
0.0000000000000000
  0
LINE
  5
225
100
AcDbEntity
  8
MAIN0
  6
CONTINUOUS
 62
3
100
AcDbLine
 10
557.9995776530153
 20
137.6093673416055
 30
0.0000000000000000
 11
557.9995776530133
 21
148.1923725862507
 31
0.0000000000000000
  0
ARC
  5
226
100
AcDbEntity
  8
MAIN0
  6
CONTINUOUS
 62
3
100
AcDbCircle
 10
544.4995776530144
 20
142.9008699639255
 30
0.0000000000000000
 40
14.50000000007043
100
AcDbArc
 50
21.40334964012961
 51
158.5966503598955
  0
ARC
  5
227
100
AcDbEntity
  8
MAIN0
  6
CONTINUOUS
 62
3
100
AcDbCircle
 10
544.4995776530144
 20
142.9008699639255
 30
0.0000000000000000
 40
14.50000000007043
100
AcDbArc
 50
201.4033496401269
 51
338.5966503598927
  0
INSERT
  5
22E
100
AcDbEntity
  8
MAIN0
  6
CONTINUOUS
 62
2
100
AcDbBlockReference
  2
M0
 10
0.0000000000000000
 20
0.0000000000000000
 30
0.0000000000000000
 50
0.0000000000000000
  0
INSERT
  5
235
100
AcDbEntity
  8
MAIN0
  6
CONTINUOUS
 62
2
100
AcDbBlockReference
  2
M1
 10
0.0000000000000000
 20
0.0000000000000000
 30
0.0000000000000000
 50
0.0000000000000000
  0
MTEXT
  5
236
100
AcDbEntity
  8
MAIN0
  6
CONTINUOUS
 62
3
100
AcDbMText
 10
501.5752427414791
 20
304.4587410118472
 30
0.0000000000000000
 40
5.000000000000000
 41
0.0000000000000000
 71
     1
 72
     1
  1
{\H0.84x;{Ｐ}}
 11
1.000000000000000
 21
0.0000000000000000
 31
0.0000000000000000
  7
KNJYOKO
  0
MTEXT
  5
237
100
AcDbEntity
  8
MAIN0
  6
CONTINUOUS
 62
3
100
AcDbMText
 10
501.5752427414791
 20
192.9587410118473
 30
0.0000000000000000
 40
5.000000000000000
 41
0.0000000000000000
 71
     1
 72
     1
  1
{\H0.84x;{Ｐ}}
 11
1.000000000000000
 21
0.0000000000000000
 31
0.0000000000000000
  7
KNJYOKO
  0
DIMENSION
  5
240
100
AcDbEntity
  8
MAIN0
  6
CONTINUOUS
 62
3
100
AcDbDimension
  2
*D7
 10
530.9995776530154
 20
112.9008699639142
 30
0.0000000000000000
 11
540.4245775420018
 21
113.4008699639142
 31
0.0000000000000000
 70
32
  3
MAIN001
100
AcDbAlignedDimension
 13
557.9995776530153
 23
137.6093673416055
 33
0.0000000000000000
 14
530.9995776530154
 24
137.6093673416009
 34
0.0000000000000000
100
AcDbRotatedDimension
1001
ACAD
1000
DSTYLE
1002
{
1070
   173
1070
     1
1070
     6
1000
_OPEN
1070
     7
1000
_OPEN
1070
    41
1040
2.000000
1070
   272
1070
     2
1070
    47
1040
0.000000
1070
    48
1040
0.350000
1070
    71
1070
     1
1070
   340
1005
241
1002
}
  0
LINE
  5
242
100
AcDbEntity
  8
MAIN0
  6
PHANTOM
 62
3
100
AcDbLine
 10
56.16207706481856
 20
382.4076826532634
 30
0.0000000000000000
 11
104.4994026939813
 21
382.4076826532640
 31
0.0000000000000000
  0
LINE
  5
243
100
AcDbEntity
  8
MAIN0
  6
PHANTOM
 62
3
100
AcDbLine
 10
55.63199861400307
 20
356.4076826532641
 30
0.0000000000000000
 11
103.9693242431658
 21
356.4076826532647
 31
0.0000000000000000
  0
LEADER
  5
244
100
AcDbEntity
  8
MAIN0
  6
CONTINUOUS
 62
3
100
AcDbLeader
  3
MAIN001
 73
     0
 74
     0
 75
     1
 40
3.099999904632568
 41
37.90100087022780
 76
     3
 10
101.0737424301599
 20
356.4076826532646
 30
0.0000000000000000
 10
116.5416687915512
 20
375.9463810470956
 30
0.0000000000000000
 10
118.4666687357613
 20
375.9463810470956
 30
0.0000000000000000
340
245
213
0.0000000000000000
223
-0.5000000000000000
233
0.0000000000000000
1001
ACAD
1000
DSTYLE
1002
{
1070
   147
1040
0.0
1070
    77
1070
     1
1070
   173
1070
     1
1070
     6
1000
_OPEN
1070
     7
1000
_OPEN
1002
}
  0
MTEXT
  5
245
102
{ACAD_REACTORS
330
244
102
}
100
AcDbEntity
  8
MAIN0
  6
CONTINUOUS
 62
3
100
AcDbMText
 10
118.4676687357612
 20
379.5463809517282
 30
0.0000000000000000
 40
3.099999904632568
 41
0.0000000000000000
 71
     1
 72
     1
  1
{\H0.94x;{ディテクタブルプレート}}
 11
1.000000000000000
 21
0.0000000000000000
 31
0.0000000000000000
  7
KNJYOKO
  0
LINE
  5
246
100
AcDbEntity
  8
MAIN0
  6
CENTER
 62
3
100
AcDbLine
 10
98.67591807015592
 20
344.4076826532669
 30
0.0000000000000000
 11
89.67957277858892
 21
344.4076826532668
 31
0.0000000000000000
  0
LINE
  5
247
100
AcDbEntity
  8
MAIN0
  6
CENTER
 62
3
100
AcDbLine
 10
58.14017196239803
 20
365.4076826532665
 30
0.0000000000000000
 11
69.72871111032819
 21
365.4076826532666
 31
0.0000000000000000
  0
LINE
  5
248
100
AcDbEntity
  8
MAIN0
  6
CONTINUOUS
 62
3
100
AcDbLine
 10
289.7706242145200
 20
324.6832455639662
 30
0.0000000000000000
 11
314.7051016572214
 21
378.1554049991289
 31
0.0000000000000000
  0
LINE
  5
249
100
AcDbEntity
  8
MAIN0
  6
CONTINUOUS
 62
3
100
AcDbLine
 10
253.5183127330541
 20
341.5879760335943
 30
0.0000000000000000
 11
280.5658814844588
 21
399.5916744039398
 31
0.0000000000000000
  0
LINE
  5
24A
100
AcDbEntity
  8
MAIN0
  6
CENTER
 62
3
100
AcDbLine
 10
268.6595096073544
 20
326.7343458522793
 30
0.0000000000000000
 11
299.1013768689296
 21
392.0171408679605
 31
0.0000000000000000
  0
LINE
  5
24B
100
AcDbEntity
  8
MAIN0
  6
CENTER
 62
3
100
AcDbLine
 10
272.5214157969401
 20
360.3111315202576
 30
0.0000000000000000
 11
292.0061658493520
 21
351.2252433535820
 31
0.0000000000000000
  0
LINE
  5
24C
100
AcDbEntity
  8
MAIN0
  6
PHANTOM
 62
3
100
AcDbLine
 10
287.8395516862183
 20
347.7533653692710
 30
0.0000000000000000
 11
291.9875307280071
 21
356.6487351305159
 31
0.0000000000000000
  0
LINE
  5
24D
100
AcDbEntity
  8
MAIN0
  6
PHANTOM
 62
3
100
AcDbLine
 10
272.4323193063232
 20
354.9378758182795
 30
0.0000000000000000
 11
276.5802983486695
 21
363.8332455807198
 31
0.0000000000000000
  0
LINE
  5
24E
100
AcDbEntity
  8
MAIN0
  6
PHANTOM
 62
3
100
AcDbLine
 10
276.5802983486694
 20
363.8332455807198
 30
0.0000000000000000
 11
286.3579040590233
 21
364.6886752367884
 31
0.0000000000000000
  0
LINE
  5
24F
100
AcDbEntity
  8
MAIN0
  6
PHANTOM
 62
3
100
AcDbLine
 10
278.0619459746492
 20
346.8979357130961
 30
0.0000000000000000
 11
287.8395516862183
 21
347.7533653692710
 31
0.0000000000000000
  0
LINE
  5
250
100
AcDbEntity
  8
MAIN0
  6
PHANTOM
 62
3
100
AcDbLine
 10
278.0619459749005
 20
346.8979357128246
 30
0.0000000000000000
 11
272.4323193064177
 21
354.9378758181445
 31
0.0000000000000000
  0
LINE
  5
251
100
AcDbEntity
  8
MAIN0
  6
PHANTOM
 62
3
100
AcDbLine
 10
291.9875307282341
 20
356.6487351301918
 30
0.0000000000000000
 11
286.3579040590515
 21
364.6886752365110
 31
0.0000000000000000
  0
CIRCLE
  5
252
100
AcDbEntity
  8
MAIN0
  6
PHANTOM
 62
3
100
AcDbCircle
 10
282.2099250173045
 20
355.7933054746965
 30
0.0000000000000000
 40
8.499999999999972
  0
LINE
  5
253
100
AcDbEntity
  8
MAIN0
  6
CENTER
 62
3
100
AcDbLine
 10
262.4959258317313
 20
349.0095215376022
 30
0.0000000000000000
 11
278.8750299203005
 21
384.1346236072853
 31
0.0000000000000000
  0
ARC
  5
254
100
AcDbEntity
  8
MAIN0
  6
CONTINUOUS
 62
3
100
AcDbCircle
 10
264.1778164634774
 20
352.6163476369222
 30
0.0000000000000000
 40
2.750000000000000
100
AcDbArc
 50
155.0000000000000
 51
335.0000000000001
  0
CIRCLE
  5
255
100
AcDbEntity
  8
MAIN0
  6
CONTINUOUS
 62
3
100
AcDbCircle
 10
267.7700716882734
 20
360.3199638267339
 30
0.0000000000000000
 40
5.000000000000000
  0
CIRCLE
  5
256
100
AcDbEntity
  8
MAIN0
  6
CONTINUOUS
 62
3
100
AcDbCircle
 10
267.7700716882734
 20
360.3199638267339
 30
0.0000000000000000
 40
4.250000000000000
  0
LINE
  5
257
100
AcDbEntity
  8
MAIN0
  6
CONTINUOUS
 62
3
100
AcDbLine
 10
265.6770435090164
 20
361.2959588954556
 30
0.0000000000000000
 11
267.5687941221264
 21
362.6205769351680
 31
0.0000000000000000
  0
LINE
  5
258
100
AcDbEntity
  8
MAIN0
  6
CONTINUOUS
 62
3
100
AcDbLine
 10
267.5687941221262
 20
362.6205769351681
 30
0.0000000000000000
 11
269.6618223013833
 21
361.6445818664463
 31
0.0000000000000000
  0
LINE
  5
259
100
AcDbEntity
  8
MAIN0
  6
CONTINUOUS
 62
3
100
AcDbLine
 10
269.6618223013833
 20
361.6445818664463
 30
0.0000000000000000
 11
269.8630998675304
 21
359.3439687580120
 31
0.0000000000000000
  0
LINE
  5
25A
100
AcDbEntity
  8
MAIN0
  6
CONTINUOUS
 62
3
100
AcDbLine
 10
269.8630998675305
 20
359.3439687580121
 30
0.0000000000000000
 11
267.9713492544206
 21
358.0193507182996
 31
0.0000000000000000
  0
LINE
  5
25B
100
AcDbEntity
  8
MAIN0
  6
CONTINUOUS
 62
3
100
AcDbLine
 10
267.9713492544205
 20
358.0193507182997
 30
0.0000000000000000
 11
265.8783210751635
 21
358.9953457870215
 31
0.0000000000000000
  0
LINE
  5
25C
100
AcDbEntity
  8
MAIN0
  6
CONTINUOUS
 62
3
100
AcDbLine
 10
265.8783210751634
 20
358.9953457870213
 30
0.0000000000000000
 11
265.6770435090163
 21
361.2959588954557
 31
0.0000000000000000
  0
LINE
  5
25D
100
AcDbEntity
  8
MAIN0
  6
CONTINUOUS
 62
3
100
AcDbLine
 10
264.3254962364402
 20
344.2721490356162
 30
0.0000000000000000
 11
284.8800963755035
 21
334.6873815804572
 31
0.0000000000000000
  0
LINE
  5
25E
100
AcDbEntity
  8
MAIN0
  6
CONTINUOUS
 62
3
100
AcDbLine
 10
283.1320088839015
 20
384.6028455587474
 30
0.0000000000000000
 11
273.1700619029775
 21
383.7312881312737
 31
0.0000000000000000
  0
LINE
  5
25F
100
AcDbEntity
  8
MAIN0
  6
CONTINUOUS
 62
3
100
AcDbLine
 10
283.1320088839014
 20
384.6028455587472
 30
0.0000000000000000
 11
303.6866090229646
 21
375.0180781035882
 31
0.0000000000000000
  0
ARC
  5
260
100
AcDbEntity
  8
MAIN0
  6
CONTINUOUS
 62
3
100
AcDbCircle
 10
276.6450551848280
 20
379.3524273545033
 30
0.0000000000000000
 40
2.750000000000000
100
AcDbArc
 50
335.0000000000001
 51
515.0000000000000
  0
LINE
  5
261
100
AcDbEntity
  8
MAIN0
  6
CENTER
 62
3
100
AcDbLine
 10
272.7722004784769
 20
381.1583691629966
 30
0.0000000000000000
 11
281.0284332151728
 21
377.3084246103653
 31
0.0000000000000000
  0
LINE
  5
262
100
AcDbEntity
  8
MAIN0
  6
CONTINUOUS
 62
3
100
AcDbLine
 10
303.6866090229646
 20
375.0180781035883
 30
0.0000000000000000
 11
309.4223733864815
 21
366.8265576606954
 31
0.0000000000000000
  0
LINE
  5
263
100
AcDbEntity
  8
MAIN0
  6
CENTER
 62
3
100
AcDbLine
 10
261.5162012505781
 20
363.2361915049403
 30
0.0000000000000000
 11
274.2095417079340
 21
357.3171896421065
 31
0.0000000000000000
  0
LINE
  5
264
100
AcDbEntity
  8
MAIN0
  6
CENTER
 62
3
100
AcDbLine
 10
289.5579701603684
 20
336.0582153889261
 30
0.0000000000000000
 11
306.0161469184451
 21
371.3528893455914
 31
0.0000000000000000
  0
ARC
  5
265
100
AcDbEntity
  8
MAIN0
  6
CONTINUOUS
 62
3
100
AcDbCircle
 10
291.3670500745769
 20
339.9377997847012
 30
0.0000000000000000
 40
2.750000000000000
100
AcDbArc
 50
155.0000000000000
 51
335.0000000000001
  0
CIRCLE
  5
266
100
AcDbEntity
  8
MAIN0
  6
CONTINUOUS
 62
3
100
AcDbCircle
 10
294.9593052993729
 20
347.6414159745128
 30
0.0000000000000000
 40
5.000000000000000
  0
CIRCLE
  5
267
100
AcDbEntity
  8
MAIN0
  6
CONTINUOUS
 62
3
100
AcDbCircle
 10
294.9593052993729
 20
347.6414159745128
 30
0.0000000000000000
 40
4.250000000000000
  0
LINE
  5
268
100
AcDbEntity
  8
MAIN0
  6
CONTINUOUS
 62
3
100
AcDbLine
 10
297.0523334786299
 20
346.6654209057910
 30
0.0000000000000000
 11
296.8510559124828
 21
348.9660340142252
 31
0.0000000000000000
  0
LINE
  5
269
100
AcDbEntity
  8
MAIN0
  6
CONTINUOUS
 62
3
100
AcDbLine
 10
296.8510559124828
 20
348.9660340142252
 30
0.0000000000000000
 11
294.7580277332257
 21
349.9420290829470
 31
0.0000000000000000
  0
LINE
  5
26A
100
AcDbEntity
  8
MAIN0
  6
CONTINUOUS
 62
3
100
AcDbLine
 10
294.7580277332257
 20
349.9420290829470
 30
0.0000000000000000
 11
292.8662771201158
 21
348.6174110432346
 31
0.0000000000000000
  0
LINE
  5
26B
100
AcDbEntity
  8
MAIN0
  6
CONTINUOUS
 62
3
100
AcDbLine
 10
292.8662771201158
 20
348.6174110432345
 30
0.0000000000000000
 11
293.0675546862629
 21
346.3167979348004
 31
0.0000000000000000
  0
LINE
  5
26C
100
AcDbEntity
  8
MAIN0
  6
CONTINUOUS
 62
3
100
AcDbLine
 10
293.0675546862630
 20
346.3167979348004
 30
0.0000000000000000
 11
295.1605828655200
 21
345.3408028660787
 31
0.0000000000000000
  0
LINE
  5
26D
100
AcDbEntity
  8
MAIN0
  6
CONTINUOUS
 62
3
100
AcDbLine
 10
295.1605828655200
 20
345.3408028660786
 30
0.0000000000000000
 11
297.0523334786299
 21
346.6654209057911
 31
0.0000000000000000
  0
ARC
  5
26E
100
AcDbEntity
  8
MAIN0
  6
CONTINUOUS
 62
3
100
AcDbCircle
 10
303.8342887959275
 20
366.6738795022824
 30
0.0000000000000000
 40
2.750000000000000
100
AcDbArc
 50
335.0000000000001
 51
515.0000000000000
  0
LINE
  5
26F
100
AcDbEntity
  8
MAIN0
  6
CENTER
 62
3
100
AcDbLine
 10
307.7071435022788
 20
364.8679376937892
 30
0.0000000000000000
 11
299.4509107655828
 21
368.7178822464205
 31
0.0000000000000000
  0
LINE
  5
270
100
AcDbEntity
  8
MAIN0
  6
CENTER
 62
3
100
AcDbLine
 10
301.2131757370681
 20
344.7251882963064
 30
0.0000000000000000
 11
288.5198352797122
 21
350.6441901591401
 31
0.0000000000000000
  0
ARC
  5
271
100
AcDbEntity
  8
MAIN0
  6
HIDDEN
 62
3
100
AcDbCircle
 10
289.3944354668964
 20
371.2005378543197
 30
0.0000000000000000
 40
6.499999999999972
100
AcDbArc
 50
334.9999999999996
 51
515.0000000000001
  0
LINE
  5
272
100
AcDbEntity
  8
MAIN0
  6
CONTINUOUS
 62
3
100
AcDbLine
 10
312.2866540307416
 20
384.8000352430153
 30
0.0000000000000000
 11
314.7051016572214
 21
378.1554049991287
 31
0.0000000000000000
  0
LINE
  5
273
100
AcDbEntity
  8
MAIN0
  6
CONTINUOUS
 62
3
100
AcDbLine
 10
312.2866540307416
 20
384.8000352430154
 30
0.0000000000000000
 11
280.5658814844588
 21
399.5916744039399
 31
0.0000000000000000
  0
LINE
  5
274
100
AcDbEntity
  8
MAIN0
  6
PHANTOM
 62
3
100
AcDbLine
 10
99.00231275465436
 20
332.2355761441766
 30
0.0000000000000000
 11
99.00231275465436
 21
382.4076826532646
 31
0.0000000000000000
  0
LINE
  5
275
100
AcDbEntity
  8
MAIN0
  6
CONTINUOUS
 62
3
100
AcDbLine
 10
59.00231275465458
 20
332.2355761441767
 30
0.0000000000000000
 11
59.00231275465464
 21
394.4076826532640
 31
0.0000000000000000
  0
LINE
  5
276
100
AcDbEntity
  8
MAIN0
  6
CENTER
 62
3
100
AcDbLine
 10
79.00231275465393
 20
399.0594636835301
 30
0.0000000000000000
 11
79.00231275465467
 21
330.6209896182427
 31
0.0000000000000000
  0
LINE
  5
277
100
AcDbEntity
  8
MAIN0
  6
CENTER
 62
3
100
AcDbLine
 10
217.2816001544068
 20
350.6922584901829
 30
0.0000000000000000
 11
268.6595096073544
 21
326.7343458522793
 31
0.0000000000000000
  0
INSERT
  5
27D
100
AcDbEntity
  8
MAIN0
  6
CONTINUOUS
 62
3
100
AcDbBlockReference
  2
M2
 10
0.0000000000000000
 20
0.0000000000000000
 30
0.0000000000000000
 50
0.0000000000000000
  0
MTEXT
  5
27E
100
AcDbEntity
  8
MAIN0
  6
CONTINUOUS
 62
3
100
AcDbMText
 10
162.7835758474148
 20
390.4680941675634
 30
0.0000000000000000
 40
5.000000000000000
 41
0.0000000000000000
 71
     1
 72
     1
  1
{\H0.82x;{Q}}
 11
1.000000000000000
 21
0.0000000000000000
 31
0.0000000000000000
  7
STANDARD
  0
MTEXT
  5
27F
100
AcDbEntity
  8
MAIN0
  6
CONTINUOUS
 62
3
100
AcDbMText
 10
72.45312507882630
 20
320.8791640479832
 30
0.0000000000000000
 40
4.000000000000000
 41
0.0000000000000000
 71
     1
 72
     1
  1
{\H0.91x;{矢視Ｑ}}
 11
1.000000000000000
 21
0.0000000000000000
 31
0.0000000000000000
  7
KNJYOKO
  0
LINE
  5
280
100
AcDbEntity
  8
MAIN0
  6
CONTINUOUS
 62
3
100
AcDbLine
 10
70.93109237404332
 20
315.9076826532645
 30
0.0000000000000000
 11
86.34724055188661
 21
315.9076826532645
 31
0.0000000000000000
  0
LINE
  5
281
100
AcDbEntity
  8
MAIN0
  6
CONTINUOUS
 62
3
100
AcDbLine
 10
90.34205871792679
 20
381.4076826532646
 30
0.0000000000000000
 11
99.00231275577829
 21
376.4076826532647
 31
0.0000000000000000
  0
LINE
  5
282
100
AcDbEntity
  8
MAIN0
  6
CONTINUOUS
 62
3
100
AcDbLine
 10
67.66256679138124
 20
381.4076826532642
 30
0.0000000000000000
 11
90.34205871792690
 21
381.4076826532644
 31
0.0000000000000000
  0
LINE
  5
283
100
AcDbEntity
  8
MAIN0
  6
CONTINUOUS
 62
3
100
AcDbLine
 10
67.66256679138110
 20
381.4076826532645
 30
0.0000000000000000
 11
59.00231275352968
 21
376.4076826532644
 31
0.0000000000000000
  0
ARC
  5
284
100
AcDbEntity
  8
MAIN0
  6
CONTINUOUS
 62
3
100
AcDbCircle
 10
64.00231275465404
 20
373.9076826532642
 30
0.0000000000000000
 40
2.750000000000000
100
AcDbArc
 50
8.142219984546603e-013
 51
180.0000000000008
  0
LINE
  5
285
100
AcDbEntity
  8
MAIN0
  6
CENTER
 62
3
100
AcDbLine
 10
59.72909038831625
 20
373.9076826532642
 30
0.0000000000000000
 11
68.83883528380193
 21
373.9076826532643
 31
0.0000000000000000
  0
LINE
  5
286
100
AcDbEntity
  8
MAIN0
  6
CONTINUOUS
 62
3
100
AcDbLine
 10
66.75231275465427
 20
369.5835059253891
 30
0.0000000000000000
 11
66.75231275465421
 21
373.9076826532642
 31
0.0000000000000000
  0
LINE
  5
287
100
AcDbEntity
  8
MAIN0
  6
CONTINUOUS
 62
3
100
AcDbLine
 10
61.25231275465438
 20
369.5835059253891
 30
0.0000000000000000
 11
61.25231275465433
 21
373.9076826532640
 31
0.0000000000000000
  0
ARC
  5
288
100
AcDbEntity
  8
MAIN0
  6
CONTINUOUS
 62
3
100
AcDbCircle
 10
94.00231275465413
 20
373.9076826532646
 30
0.0000000000000000
 40
2.750000000000000
100
AcDbArc
 50
8.142219984546603e-013
 51
180.0000000000008
  0
LINE
  5
289
100
AcDbEntity
  8
MAIN0
  6
CENTER
 62
3
100
AcDbLine
 10
98.27553512099206
 20
373.9076826532646
 30
0.0000000000000000
 11
89.16579022550644
 21
373.9076826532645
 31
0.0000000000000000
  0
LINE
  5
28A
100
AcDbEntity
  8
MAIN0
  6
CONTINUOUS
 62
3
100
AcDbLine
 10
91.25231275465427
 20
369.5835059253894
 30
0.0000000000000000
 11
91.25231275465421
 21
373.9076826532645
 31
0.0000000000000000
  0
LINE
  5
28B
100
AcDbEntity
  8
MAIN0
  6
CONTINUOUS
 62
3
100
AcDbLine
 10
96.75231275465421
 20
369.5835059253894
 30
0.0000000000000000
 11
96.75231275465416
 21
373.9076826532645
 31
0.0000000000000000
  0
LINE
  5
28C
100
AcDbEntity
  8
MAIN0
  6
CENTER
 62
3
100
AcDbLine
 10
100.8729102142927
 20
365.4076826532670
 30
0.0000000000000000
 11
87.95651721460590
 21
365.4076826532668
 31
0.0000000000000000
  0
LINE
  5
28D
100
AcDbEntity
  8
MAIN0
  6
CENTER
 62
3
100
AcDbLine
 10
59.68932314849906
 20
344.4076826532663
 30
0.0000000000000000
 11
69.00383063476664
 21
344.4076826532665
 31
0.0000000000000000
  0
ARC
  5
28E
100
AcDbEntity
  8
MAIN0
  6
CONTINUOUS
 62
3
100
AcDbCircle
 10
64.00231275465444
 20
344.4076826532642
 30
0.0000000000000000
 40
2.750000000000000
100
AcDbArc
 50
180.0000000000007
 51
360.0000000000007
  0
ARC
  5
28F
100
AcDbEntity
  8
MAIN0
  6
CONTINUOUS
 62
3
100
AcDbCircle
 10
94.00231275465453
 20
344.4076826532645
 30
0.0000000000000000
 40
2.750000000000000
100
AcDbArc
 50
180.0000000000007
 51
360.0000000000007
  0
LINE
  5
290
100
AcDbEntity
  8
MAIN0
  6
CENTER
 62
3
100
AcDbLine
 10
94.00231275465455
 20
340.1254020244051
 30
0.0000000000000000
 11
94.00231275465410
 21
378.1607348762893
 31
0.0000000000000000
  0
LINE
  5
291
100
AcDbEntity
  8
MAIN0
  6
CENTER
 62
3
100
AcDbLine
 10
64.00231275465467
 20
340.1254020244047
 30
0.0000000000000000
 11
64.00231275465418
 21
378.1607348762890
 31
0.0000000000000000
  0
LINE
  5
292
100
AcDbEntity
  8
MAIN0
  6
CENTER
 62
3
100
AcDbLine
 10
66.86373738194970
 20
363.4076826532642
 30
0.0000000000000000
 11
90.25943693216868
 21
363.4076826532644
 31
0.0000000000000000
  0
LINE
  5
293
100
AcDbEntity
  8
MAIN0
  6
PHANTOM
 62
3
100
AcDbLine
 10
87.50231275499689
 20
368.3151599408410
 30
0.0000000000000000
 11
79.00231275437551
 21
373.2226372293272
 31
0.0000000000000000
  0
LINE
  5
294
100
AcDbEntity
  8
MAIN0
  6
PHANTOM
 62
3
100
AcDbLine
 10
87.50231275465433
 20
358.5002053654745
 30
0.0000000000000000
 11
87.50231275465421
 21
368.3151599410387
 31
0.0000000000000000
  0
CIRCLE
  5
295
100
AcDbEntity
  8
MAIN0
  6
PHANTOM
 62
3
100
AcDbCircle
 10
79.00231275465410
 20
363.4076826532645
 30
0.0000000000000000
 40
8.499999999999972
  0
LINE
  5
296
100
AcDbEntity
  8
MAIN0
  6
PHANTOM
 62
3
100
AcDbLine
 10
79.00231275401944
 20
353.5927280770118
 30
0.0000000000000000
 11
87.50231275465444
 21
358.5002053654745
 31
0.0000000000000000
  0
LINE
  5
297
100
AcDbEntity
  8
MAIN0
  6
PHANTOM
 62
3
100
AcDbLine
 10
79.00231275436192
 20
353.5927280768719
 30
0.0000000000000000
 11
70.50231275479700
 21
358.5002053647482
 31
0.0000000000000000
  0
LINE
  5
298
100
AcDbEntity
  8
MAIN0
  6
PHANTOM
 62
3
100
AcDbLine
 10
70.50231275465438
 20
358.5002053648304
 30
0.0000000000000000
 11
70.50231275465427
 21
368.3151599417138
 31
0.0000000000000000
  0
LINE
  5
299
100
AcDbEntity
  8
MAIN0
  6
PHANTOM
 62
3
100
AcDbLine
 10
70.50231275465410
 20
368.3151599417138
 30
0.0000000000000000
 11
79.00231275423266
 21
373.2226372295667
 31
0.0000000000000000
  0
LINE
  5
29A
100
AcDbEntity
  8
MAIN0
  6
CONTINUOUS
 62
3
100
AcDbLine
 10
90.34205871792716
 20
336.9076826532645
 30
0.0000000000000000
 11
99.00231275577863
 21
341.9076826532648
 31
0.0000000000000000
  0
LINE
  5
29B
100
AcDbEntity
  8
MAIN0
  6
CONTINUOUS
 62
3
100
AcDbLine
 10
67.66256679138178
 20
336.9076826532643
 30
0.0000000000000000
 11
90.34205871792744
 21
336.9076826532645
 31
0.0000000000000000
  0
LINE
  5
29C
100
AcDbEntity
  8
MAIN0
  6
CONTINUOUS
 62
3
100
AcDbLine
 10
59.00231275353019
 20
341.9076826532640
 30
0.0000000000000000
 11
67.66256679138161
 21
336.9076826532643
 31
0.0000000000000000
  0
ARC
  5
29D
100
AcDbEntity
  8
MAIN0
  6
HIDDEN
 62
3
100
AcDbCircle
 10
79.00231275465470
 20
345.9076826532851
 30
0.0000000000000000
 40
6.500000000000085
100
AcDbArc
 50
180.0000000000000
 51
360.0000000000000
  0
LINE
  5
29E
100
AcDbEntity
  8
MAIN0
  6
HIDDEN
 62
3
100
AcDbLine
 10
96.75231275465430
 20
369.5835059253894
 30
0.0000000000000000
 11
96.75231275465444
 21
361.2318593811445
 31
0.0000000000000000
  0
LINE
  5
29F
100
AcDbEntity
  8
MAIN0
  6
CONTINUOUS
 62
3
100
AcDbLine
 10
96.75231275465424
 20
361.2318593811444
 30
0.0000000000000000
 11
96.75231275465453
 21
344.4076826532647
 31
0.0000000000000000
  0
LINE
  5
2A0
100
AcDbEntity
  8
MAIN0
  6
HIDDEN
 62
3
100
AcDbLine
 10
91.25231275465436
 20
369.5835059253895
 30
0.0000000000000000
 11
91.25231275465450
 21
361.2318593811442
 31
0.0000000000000000
  0
LINE
  5
2A1
100
AcDbEntity
  8
MAIN0
  6
CONTINUOUS
 62
3
100
AcDbLine
 10
91.25231275465430
 20
361.2318593811444
 30
0.0000000000000000
 11
91.25231275465458
 21
344.4076826532645
 31
0.0000000000000000
  0
LINE
  5
2A2
100
AcDbEntity
  8
MAIN0
  6
HIDDEN
 62
3
100
AcDbLine
 10
66.75231275465427
 20
369.5835059253891
 30
0.0000000000000000
 11
66.75231275465441
 21
361.2318593811441
 31
0.0000000000000000
  0
LINE
  5
2A3
100
AcDbEntity
  8
MAIN0
  6
CONTINUOUS
 62
3
100
AcDbLine
 10
66.75231275465424
 20
361.2318593811440
 30
0.0000000000000000
 11
66.75231275465461
 21
344.4076826532640
 31
0.0000000000000000
  0
LINE
  5
2A4
100
AcDbEntity
  8
MAIN0
  6
HIDDEN
 62
3
100
AcDbLine
 10
61.25231275465427
 20
369.5835059253890
 30
0.0000000000000000
 11
61.25231275465441
 21
361.2318593811440
 31
0.0000000000000000
  0
LINE
  5
2A5
100
AcDbEntity
  8
MAIN0
  6
CONTINUOUS
 62
3
100
AcDbLine
 10
61.25231275465424
 20
361.2318593811441
 30
0.0000000000000000
 11
61.25231275465461
 21
344.4076826532640
 31
0.0000000000000000
  0
LINE
  5
2A6
100
AcDbEntity
  8
MAIN0
  6
CONTINUOUS
 62
3
100
AcDbLine
 10
59.00231275465424
 20
377.4076826532643
 30
0.0000000000000000
 11
64.00231275465430
 21
382.4076826532643
 31
0.0000000000000000
  0
LINE
  5
2A7
100
AcDbEntity
  8
MAIN0
  6
CONTINUOUS
 62
3
100
AcDbLine
 10
258.5897318729235
 20
352.4636694785091
 30
0.0000000000000000
 11
264.3254962364402
 21
344.2721490356162
 31
0.0000000000000000
  0
LINE
  5
2A8
100
AcDbEntity
  8
MAIN0
  6
CONTINUOUS
 62
3
100
AcDbLine
 10
284.8800963755035
 20
334.6873815804573
 30
0.0000000000000000
 11
294.8420433564273
 21
335.5589390079309
 31
0.0000000000000000
  0
LINE
  5
2A9
100
AcDbEntity
  8
MAIN0
  6
CONTINUOUS
 62
3
100
AcDbLine
 10
272.0271972752250
 20
362.9423447557604
 30
0.0000000000000000
 11
279.1374015991789
 21
378.1902271347165
 31
0.0000000000000000
  0
LINE
  5
2AA
100
AcDbEntity
  8
MAIN0
  6
CONTINUOUS
 62
3
100
AcDbLine
 10
266.6701628778282
 20
351.4541474171352
 30
0.0000000000000000
 11
268.4976389300235
 21
355.3731824581335
 31
0.0000000000000000
  0
LINE
  5
2AB
100
AcDbEntity
  8
MAIN0
  6
HIDDEN
 62
3
100
AcDbLine
 10
268.4976389300235
 20
355.3731824581334
 30
0.0000000000000000
 11
272.0271972752250
 21
362.9423447557605
 31
0.0000000000000000
  0
LINE
  5
2AC
100
AcDbEntity
  8
MAIN0
  6
CONTINUOUS
 62
3
100
AcDbLine
 10
261.6854700491266
 20
353.7785478567090
 30
0.0000000000000000
 11
263.5129461013219
 21
357.6975828977073
 31
0.0000000000000000
  0
LINE
  5
2AD
100
AcDbEntity
  8
MAIN0
  6
HIDDEN
 62
3
100
AcDbLine
 10
263.5129461013219
 20
357.6975828977073
 30
0.0000000000000000
 11
267.0425044465235
 21
365.2667451953344
 31
0.0000000000000000
  0
LINE
  5
2AE
100
AcDbEntity
  8
MAIN0
  6
CONTINUOUS
 62
3
100
AcDbLine
 10
267.0425044465235
 20
365.2667451953344
 30
0.0000000000000000
 11
274.1527087704773
 21
380.5146275742902
 31
0.0000000000000000
  0
LINE
  5
2AF
100
AcDbEntity
  8
MAIN0
  6
CONTINUOUS
 62
3
100
AcDbLine
 10
293.8593964889277
 20
338.7755995649142
 30
0.0000000000000000
 11
295.6868725411229
 21
342.6946346059124
 31
0.0000000000000000
  0
LINE
  5
2B0
100
AcDbEntity
  8
MAIN0
  6
CONTINUOUS
 62
3
100
AcDbLine
 10
288.8747036602262
 20
341.1000000044881
 30
0.0000000000000000
 11
290.7021797124214
 21
345.0190350454863
 31
0.0000000000000000
  0
LINE
  5
2B1
100
AcDbEntity
  8
MAIN0
  6
HIDDEN
 62
3
100
AcDbLine
 10
290.7021797124214
 20
345.0190350454863
 30
0.0000000000000000
 11
294.2317380576229
 21
352.5881973431133
 31
0.0000000000000000
  0
LINE
  5
2B2
100
AcDbEntity
  8
MAIN0
  6
CONTINUOUS
 62
3
100
AcDbLine
 10
294.2317380576229
 20
352.5881973431133
 30
0.0000000000000000
 11
301.3419423815768
 21
367.8360797220693
 31
0.0000000000000000
  0
LINE
  5
2B3
100
AcDbEntity
  8
MAIN0
  6
HIDDEN
 62
3
100
AcDbLine
 10
295.6868725411229
 20
342.6946346059125
 30
0.0000000000000000
 11
299.2164308863244
 21
350.2637969035395
 31
0.0000000000000000
  0
LINE
  5
2B4
100
AcDbEntity
  8
MAIN0
  6
CONTINUOUS
 62
3
100
AcDbLine
 10
299.2164308863245
 20
350.2637969035394
 30
0.0000000000000000
 11
306.3266352102783
 21
365.5116792824955
 31
0.0000000000000000
  0
CIRCLE
  5
2B5
100
AcDbEntity
  8
MAIN0
  6
CONTINUOUS
 62
3
100
AcDbCircle
 10
64.00231275465450
 20
365.4076826532663
 30
0.0000000000000000
 40
4.250000000000000
  0
LINE
  5
2B6
100
AcDbEntity
  8
MAIN0
  6
CONTINUOUS
 62
3
100
AcDbLine
 10
64.00231275465444
 20
367.7170837300249
 30
0.0000000000000000
 11
62.00231275465444
 21
366.5623831916457
 31
0.0000000000000000
  0
LINE
  5
2B7
100
AcDbEntity
  8
MAIN0
  6
CONTINUOUS
 62
3
100
AcDbLine
 10
62.00231275465450
 20
366.5623831916456
 30
0.0000000000000000
 11
62.00231275465450
 21
364.2529821148871
 31
0.0000000000000000
  0
LINE
  5
2B8
100
AcDbEntity
  8
MAIN0
  6
CONTINUOUS
 62
3
100
AcDbLine
 10
62.00231275465450
 20
364.2529821148871
 30
0.0000000000000000
 11
64.00231275465450
 21
363.0982815765078
 31
0.0000000000000000
  0
LINE
  5
2B9
100
AcDbEntity
  8
MAIN0
  6
CONTINUOUS
 62
3
100
AcDbLine
 10
64.00231275465444
 20
363.0982815765079
 30
0.0000000000000000
 11
66.00231275465444
 21
364.2529821148872
 31
0.0000000000000000
  0
LINE
  5
2BA
100
AcDbEntity
  8
MAIN0
  6
CONTINUOUS
 62
3
100
AcDbLine
 10
66.00231275465450
 20
364.2529821148871
 30
0.0000000000000000
 11
66.00231275465450
 21
366.5623831916456
 31
0.0000000000000000
  0
LINE
  5
2BB
100
AcDbEntity
  8
MAIN0
  6
CONTINUOUS
 62
3
100
AcDbLine
 10
66.00231275465450
 20
366.5623831916456
 30
0.0000000000000000
 11
64.00231275465450
 21
367.7170837300248
 31
0.0000000000000000
  0
CIRCLE
  5
2BC
100
AcDbEntity
  8
MAIN0
  6
CONTINUOUS
 62
3
100
AcDbCircle
 10
94.00231275465438
 20
365.4076826532669
 30
0.0000000000000000
 40
4.250000000000000
  0
LINE
  5
2BD
100
AcDbEntity
  8
MAIN0
  6
CONTINUOUS
 62
3
100
AcDbLine
 10
94.00231275465438
 20
367.7170837300254
 30
0.0000000000000000
 11
92.00231275465438
 21
366.5623831916462
 31
0.0000000000000000
  0
LINE
  5
2BE
100
AcDbEntity
  8
MAIN0
  6
CONTINUOUS
 62
3
100
AcDbLine
 10
92.00231275465438
 20
366.5623831916461
 30
0.0000000000000000
 11
92.00231275465438
 21
364.2529821148876
 31
0.0000000000000000
  0
LINE
  5
2BF
100
AcDbEntity
  8
MAIN0
  6
CONTINUOUS
 62
3
100
AcDbLine
 10
92.00231275465436
 20
364.2529821148876
 30
0.0000000000000000
 11
94.00231275465441
 21
363.0982815765083
 31
0.0000000000000000
  0
LINE
  5
2C0
100
AcDbEntity
  8
MAIN0
  6
CONTINUOUS
 62
3
100
AcDbLine
 10
94.00231275465438
 20
363.0982815765084
 30
0.0000000000000000
 11
96.00231275465436
 21
364.2529821148876
 31
0.0000000000000000
  0
LINE
  5
2C1
100
AcDbEntity
  8
MAIN0
  6
CONTINUOUS
 62
3
100
AcDbLine
 10
96.00231275465438
 20
364.2529821148876
 30
0.0000000000000000
 11
96.00231275465438
 21
366.5623831916461
 31
0.0000000000000000
  0
LINE
  5
2C2
100
AcDbEntity
  8
MAIN0
  6
CONTINUOUS
 62
3
100
AcDbLine
 10
96.00231275465441
 20
366.5623831916461
 30
0.0000000000000000
 11
94.00231275465441
 21
367.7170837300253
 31
0.0000000000000000
  0
DIMENSION
  5
2CB
100
AcDbEntity
  8
MAIN0
  6
CONTINUOUS
 62
3
100
AcDbDimension
  2
*D8
 10
248.0242753304249
 20
329.8059748021177
 30
0.0000000000000000
 11
266.3617402020282
 21
321.8067634608220
 31
0.0000000000000000
 70
33
  3
MAIN001
100
AcDbAlignedDimension
 13
289.7706242145200
 23
324.6832455639662
 33
0.0000000000000000
 14
253.5183127330541
 24
341.5879760335943
 34
0.0000000000000000
 50
155.0000000000000
1001
ACAD
1000
DSTYLE
1002
{
1070
   173
1070
     1
1070
     6
1000
_OPEN
1070
     7
1000
_OPEN
1070
    41
1040
2.000000
1002
}
  0
DIMENSION
  5
2D4
100
AcDbEntity
  8
MAIN0
  6
CONTINUOUS
 62
3
100
AcDbDimension
  2
*D9
 10
59.00231275465444
 20
324.4076826532645
 30
0.0000000000000000
 11
79.00231275465438
 21
324.9076826532645
 31
0.0000000000000000
 70
32
  3
MAIN001
100
AcDbAlignedDimension
 13
99.00231275465436
 23
332.2355761441766
 33
0.0000000000000000
 14
59.00231275465458
 24
332.2355761441767
 34
0.0000000000000000
100
AcDbRotatedDimension
1001
ACAD
1000
DSTYLE
1002
{
1070
   173
1070
     1
1070
     6
1000
_OPEN
1070
     7
1000
_OPEN
1070
    41
1040
2.000000
1002
}
  0
LINE
  5
2D5
100
AcDbEntity
  8
MAIN0
  6
CENTER
 62
3
100
AcDbLine
 10
398.4995776530587
 20
339.6894383676161
 30
0.0000000000000000
 11
398.4995776530587
 21
316.7967109214463
 31
0.0000000000000000
  0
LINE
  5
2D6
100
AcDbEntity
  8
MAIN0
  6
CENTER
 62
3
100
AcDbLine
 10
350.4995776530587
 20
339.6894383676161
 30
0.0000000000000000
 11
350.4995776530587
 21
316.7967109214461
 31
0.0000000000000000
  0
LINE
  5
2D7
100
AcDbEntity
  8
MAIN0
  6
CONTINUOUS
 62
3
100
AcDbLine
 10
59.00231275465461
 20
394.4076826532640
 30
0.0000000000000000
 11
99.00231275465436
 21
394.4076826532645
 31
0.0000000000000000
  0
LINE
  5
2D8
100
AcDbEntity
  8
MAIN0
  6
CENTER
 62
3
100
AcDbLine
 10
67.66256679138149
 20
346.4076826532665
 30
0.0000000000000000
 11
90.25943693216891
 21
346.4076826532668
 31
0.0000000000000000
  0
LINE
  5
2D9
100
AcDbEntity
  8
MAIN0
  6
CENTER
 62
3
100
AcDbLine
 10
67.66256679138101
 20
384.4076826532642
 30
0.0000000000000000
 11
90.25943693216840
 21
384.4076826532644
 31
0.0000000000000000
  0
ARC
  5
2DA
100
AcDbEntity
  8
MAIN0
  6
CONTINUOUS
 62
3
100
AcDbCircle
 10
79.00231275465407
 20
384.4076826532643
 30
0.0000000000000000
 40
6.500000000000000
100
AcDbArc
 50
0.0000000000000000
 51
180.0000000000000
  0
LINE
  5
2DB
100
AcDbEntity
  8
MAIN0
  6
CONTINUOUS
 62
3
100
AcDbLine
 10
72.50231275465401
 20
382.4076826532642
 30
0.0000000000000000
 11
72.50231275465401
 21
384.4076826532642
 31
0.0000000000000000
  0
LINE
  5
2DC
100
AcDbEntity
  8
MAIN0
  6
HIDDEN
 62
3
100
AcDbLine
 10
85.50231275465438
 20
346.4076826532852
 30
0.0000000000000000
 11
85.50231275465373
 21
381.4076826532643
 31
0.0000000000000000
  0
LINE
  5
2DD
100
AcDbEntity
  8
MAIN0
  6
CONTINUOUS
 62
3
100
AcDbLine
 10
85.50231275465387
 20
381.4076826532643
 30
0.0000000000000000
 11
85.50231275465387
 21
384.4076826532644
 31
0.0000000000000000
  0
LINE
  5
2DE
100
AcDbEntity
  8
MAIN0
  6
HIDDEN
 62
3
100
AcDbLine
 10
72.50231275465444
 20
346.4076826532850
 30
0.0000000000000000
 11
72.50231275465376
 21
381.4076826532642
 31
0.0000000000000000
  0
LINE
  5
2DF
100
AcDbEntity
  8
MAIN0
  6
CONTINUOUS
 62
3
100
AcDbLine
 10
72.50231275465376
 20
381.4076826532642
 30
0.0000000000000000
 11
72.50231275465376
 21
382.4076826532628
 31
0.0000000000000000
  0
LINE
  5
2E0
100
AcDbEntity
  8
MAIN0
  6
CENTER
 62
3
100
AcDbLine
 10
281.7044110958606
 20
332.8580941893575
 30
0.0000000000000000
 11
265.4117622964965
 21
340.4554810961309
 31
0.0000000000000000
  0
ARC
  5
2E1
100
AcDbEntity
  8
MAIN0
  6
CONTINUOUS
 62
3
100
AcDbCircle
 10
273.3349415207498
 20
336.7608419469269
 30
0.0000000000000000
 40
6.500000000000000
100
AcDbArc
 50
155.0000000000000
 51
335.0000000000000
  0
LINE
  5
2E2
100
AcDbEntity
  8
MAIN0
  6
CENTER
 62
3
100
AcDbLine
 10
297.7639050420072
 20
367.2977900967503
 30
0.0000000000000000
 11
281.4712562426431
 21
374.8951770035236
 31
0.0000000000000000
  0
LINE
  5
2E3
100
AcDbEntity
  8
MAIN0
  6
CONTINUOUS
 62
3
100
AcDbLine
 10
267.4439409050116
 20
339.5078606482415
 30
0.0000000000000000
 11
268.7117956902337
 21
342.2267840093513
 31
0.0000000000000000
  0
LINE
  5
2E4
100
AcDbEntity
  8
MAIN0
  6
HIDDEN
 62
3
100
AcDbLine
 10
268.7117956902337
 20
342.2267840093513
 30
0.0000000000000000
 11
283.5034348511582
 21
373.9475565556342
 31
0.0000000000000000
  0
LINE
  5
2E5
100
AcDbEntity
  8
MAIN0
  6
CONTINUOUS
 62
3
100
AcDbLine
 10
279.2259421364880
 20
334.0138232456124
 30
0.0000000000000000
 11
280.4937969217100
 21
336.7327466067222
 31
0.0000000000000000
  0
LINE
  5
2E6
100
AcDbEntity
  8
MAIN0
  6
HIDDEN
 62
3
100
AcDbLine
 10
280.4937969217100
 20
336.7327466067222
 30
0.0000000000000000
 11
295.2854360826345
 21
368.4535191530051
 31
0.0000000000000000
  0
LINE
  5
2E7
100
AcDbEntity
  8
MAIN0
  6
PHANTOM
 62
3
100
AcDbLine
 10
316.7257671783029
 20
369.4895077593411
 30
0.0000000000000000
 11
269.9861938180146
 21
391.2845287561410
 31
0.0000000000000000
  0
LINE
  5
2E8
100
AcDbEntity
  8
MAIN0
  6
PHANTOM
 62
3
100
AcDbLine
 10
305.7376923730448
 20
345.9255052963883
 30
0.0000000000000000
 11
258.9981190127564
 21
367.7205262931881
 31
0.0000000000000000
  0
DIMENSION
  5
2F1
100
AcDbEntity
  8
MAIN0
  6
CONTINUOUS
 62
3
100
AcDbDimension
  2
*D10
 10
34.00231275465461
 20
394.4076826532640
 30
0.0000000000000000
 11
33.50231275465461
 21
378.9076826532640
 31
0.0000000000000000
 70
32
  3
MAIN001
100
AcDbAlignedDimension
 13
66.86373738194970
 23
363.4076826532642
 33
0.0000000000000000
 14
59.00231275465461
 24
394.4076826532640
 34
0.0000000000000000
 50
90.00000000000000
100
AcDbRotatedDimension
1001
ACAD
1000
DSTYLE
1002
{
1070
   173
1070
     1
1070
     6
1000
_OPEN
1070
     7
1000
_OPEN
1070
    41
1040
2.000000
1002
}
  0
DIMENSION
  5
2FA
100
AcDbEntity
  8
MAIN0
  6
CONTINUOUS
 62
3
100
AcDbDimension
  2
*D11
 10
46.50231275465455
 20
384.4076826532642
 30
0.0000000000000000
 11
46.00231275465455
 21
373.9076826532642
 31
0.0000000000000000
 70
32
  3
MAIN001
100
AcDbAlignedDimension
 13
66.86373738194970
 23
363.4076826532642
 33
0.0000000000000000
 14
67.66256679138101
 24
384.4076826532642
 34
0.0000000000000000
 50
90.00000000000000
100
AcDbRotatedDimension
1001
ACAD
1000
DSTYLE
1002
{
1070
   173
1070
     1
1070
     6
1000
_OPEN
1070
     7
1000
_OPEN
1070
    41
1040
2.000000
1002
}
  0
DIMENSION
  5
303
100
AcDbEntity
  8
MAIN0
  6
CONTINUOUS
 62
3
100
AcDbDimension
  2
*D12
 10
46.50231275465455
 20
363.4076826532642
 30
0.0000000000000000
 11
46.00231275465455
 21
354.9076826532653
 31
0.0000000000000000
 70
32
  3
MAIN001
100
AcDbAlignedDimension
 13
67.66256679138149
 23
346.4076826532665
 33
0.0000000000000000
 14
66.86373738194970
 24
363.4076826532642
 34
0.0000000000000000
 50
90.00000000000000
100
AcDbRotatedDimension
1001
ACAD
1000
DSTYLE
1002
{
1070
   173
1070
     1
1070
     6
1000
_OPEN
1070
     7
1000
_OPEN
1070
    41
1040
2.000000
1002
}
  0
DIMENSION
  5
30C
100
AcDbEntity
  8
MAIN0
  6
CONTINUOUS
 62
3
100
AcDbDimension
  2
*D13
 10
111.5023127557784
 20
365.4076826532670
 30
0.0000000000000000
 11
111.0023127557784
 21
379.9076826532657
 31
0.0000000000000000
 70
32
  3
MAIN001
100
AcDbAlignedDimension
 13
99.00231275465436
 23
394.4076826532645
 33
0.0000000000000000
 14
100.8729102142927
 24
365.4076826532670
 34
0.0000000000000000
 50
90.00000000000000
100
AcDbRotatedDimension
1001
ACAD
1000
DSTYLE
1002
{
1070
   173
1070
     1
1070
     6
1000
_OPEN
1070
     7
1000
_OPEN
1070
    41
1040
2.000000
1002
}
  0
DIMENSION
  5
315
100
AcDbEntity
  8
MAIN0
  6
CONTINUOUS
 62
3
100
AcDbDimension
  2
*D14
 10
245.9576135358386
 20
372.6980359443244
 30
0.0000000000000000
 11
253.7455157462639
 21
390.5823469224094
 31
0.0000000000000000
 70
32
  3
MAIN001
100
AcDbAlignedDimension
 13
280.5658814844588
 23
399.5916744039399
 33
0.0000000000000000
 14
272.5214157969401
 24
360.3111315202576
 34
0.0000000000000000
 50
65.00000000000000
100
AcDbRotatedDimension
1001
ACAD
1000
DSTYLE
1002
{
1070
   173
1070
     1
1070
     6
1000
_OPEN
1070
     7
1000
_OPEN
1070
    41
1040
2.000000
1002
}
  0
DIMENSION
  5
31E
100
AcDbEntity
  8
MAIN0
  6
CONTINUOUS
 62
3
100
AcDbDimension
  2
*D15
 10
262.2052018557967
 20
383.8790857065405
 30
0.0000000000000000
 11
258.1597927374825
 21
376.3867786475993
 31
0.0000000000000000
 70
32
  3
MAIN001
100
AcDbAlignedDimension
 13
272.5214157969401
 23
360.3111315202576
 33
0.0000000000000000
 14
281.4712562426431
 24
374.8951770035236
 34
0.0000000000000000
 50
65.00000000000054
100
AcDbRotatedDimension
1001
ACAD
1000
DSTYLE
1002
{
1070
   173
1070
     1
1070
     6
1000
_OPEN
1070
     7
1000
_OPEN
1070
    41
1040
2.000000
1002
}
  0
DIMENSION
  5
327
100
AcDbEntity
  8
MAIN0
  6
CONTINUOUS
 62
3
100
AcDbDimension
  2
*D16
 10
255.0206914062049
 20
368.4718533269172
 30
0.0000000000000000
 11
250.1300457644094
 21
359.1669306939027
 31
0.0000000000000000
 70
32
  3
MAIN001
100
AcDbAlignedDimension
 13
265.4117622964965
 23
340.4554810961309
 33
0.0000000000000000
 14
272.5214157969401
 24
360.3111315202576
 34
0.0000000000000000
 50
65.00000000000064
100
AcDbRotatedDimension
1001
ACAD
1000
DSTYLE
1002
{
1070
   173
1070
     1
1070
     6
1000
_OPEN
1070
     7
1000
_OPEN
1070
    41
1040
2.000000
1002
}
  0
DIMENSION
  5
330
100
AcDbEntity
  8
MAIN0
  6
CONTINUOUS
 62
3
100
AcDbDimension
  2
*D17
 10
313.0854610401059
 20
339.1890507396989
 30
0.0000000000000000
 11
321.2959815122717
 21
357.9796695048207
 31
0.0000000000000000
 70
32
  3
MAIN001
100
AcDbAlignedDimension
 13
312.2866540307416
 23
384.8000352430154
 33
0.0000000000000000
 14
301.2131757370681
 24
344.7251882963064
 34
0.0000000000000000
 50
65.00000000000068
100
AcDbRotatedDimension
1001
ACAD
1000
DSTYLE
1002
{
1070
   173
1070
     1
1070
     6
1000
_OPEN
1070
     7
1000
_OPEN
1070
    41
1040
2.000000
1002
}
  0
MTEXT
  5
331
100
AcDbEntity
  8
MAIN0
  6
CONTINUOUS
 62
3
100
AcDbMText
 10
534.0890114789713
 20
107.9008699639512
 30
0.0000000000000000
 40
4.000000000000000
 41
0.0000000000000000
 71
     1
 72
     1
  1
{\H0.93x;{断面Ｐ－Ｐ}}
 11
1.000000000000000
 21
0.0000000000000000
 31
0.0000000000000000
  7
KNJYOKO
  0
LINE
  5
332
100
AcDbEntity
  8
MAIN0
  6
CONTINUOUS
 62
3
100
AcDbLine
 10
532.5407888989095
 20
102.9008699639235
 30
0.0000000000000000
 11
557.3123823944952
 21
102.9008699639187
 31
0.0000000000000000
  0
CIRCLE
  5
333
100
AcDbEntity
  8
MAIN0
  6
CONTINUOUS
 62
3
100
AcDbCircle
 10
94.00231275465427
 20
365.4076826532669
 30
0.0000000000000000
 40
5.000000000000000
  0
CIRCLE
  5
334
100
AcDbEntity
  8
MAIN0
  6
CONTINUOUS
 62
3
100
AcDbCircle
 10
64.00231275465433
 20
365.4076826532665
 30
0.0000000000000000
 40
5.000000000000000
  0
LINE
  5
335
100
AcDbEntity
  8
MAIN0
  6
CONTINUOUS
 62
3
100
AcDbLine
 10
99.00231275577829
 20
376.4076826532647
 30
0.0000000000000000
 11
99.00231275577863
 21
341.9076826532648
 31
0.0000000000000000
  0
LEADER
  5
336
100
AcDbEntity
  8
MAIN0
  6
CONTINUOUS
 62
3
100
AcDbLeader
  3
MAIN001
 73
     0
 75
     1
 40
3.099999904632568
 41
17.01900039815902
 76
     3
 10
148.9171164400224
 20
321.8182314012396
 30
0.0000000000000000
 10
132.9765015605490
 20
328.0173531538947
 30
0.0000000000000000
 10
131.0495016163389
 20
328.0173531538947
 30
0.0000000000000000
340
337
213
0.0000000000000000
223
-0.5000000000000000
233
0.0000000000000000
1001
ACAD
1000
DSTYLE
1002
{
1070
   147
1040
0.0
1070
    77
1070
     1
1070
   173
1070
     1
1070
     6
1000
_DOT
1070
     7
1000
_DOT
1002
}
  0
MTEXT
  5
337
102
{ACAD_REACTORS
330
336
102
}
100
AcDbEntity
  8
MAIN0
  6
CONTINUOUS
 62
3
100
AcDbMText
 10
114.0305012181799
 20
331.6173530585272
 30
0.0000000000000000
 40
3.099999904632568
 41
0.0000000000000000
 71
     1
 72
     1
  1
{\H0.93x;{ブラケット}}
 11
1.000000000000000
 21
0.0000000000000000
 31
0.0000000000000000
  7
KNJYOKO
  0
LINE
  5
338
100
AcDbEntity
  8
MAIN0
  6
CENTER
 62
3
100
AcDbLine
 10
449.4995776530583
 20
290.0008699639280
 30
0.0000000000000000
 11
510.1911882782654
 21
290.0008699639280
 31
0.0000000000000000
  0
LINE
  5
339
100
AcDbEntity
  8
MAIN0
  6
CENTER
 62
3
100
AcDbLine
 10
449.4995776530583
 20
195.0008699639281
 30
0.0000000000000000
 11
512.5301064599526
 21
195.0008699639281
 31
0.0000000000000000
  0
INSERT
  5
341
100
AcDbEntity
  8
MAIN0
  6
CONTINUOUS
 62
3
100
AcDbBlockReference
  2
D18
 10
517.6975753297812
 20
242.5008699639281
 30
0.0000000000000000
 50
0.0000000000000000
  0
MTEXT
  5
342
100
AcDbEntity
  8
MAIN0
  6
CONTINUOUS
 62
3
100
AcDbMText
 10
517.1216575368699
 20
210.4542845635386
 30
0.0000000000000000
 40
5.000000000000000
 41
0.0000000000000000
 71
     1
 72
     1
  1
{\H0.84x;{※}}
 11
1.000000000000000
 21
0.0000000000000000
 31
0.0000000000000000
  7
KNJYOKO
  0
CIRCLE
  5
343
100
AcDbEntity
  8
MAIN0
  6
CONTINUOUS
 62
3
100
AcDbCircle
 10
164.4995776530590
 20
242.5008699639281
 30
0.0000000000000000
 40
19.50000000000000
  0
LEADER
  5
344
100
AcDbEntity
  8
MAIN0
  6
CONTINUOUS
 62
3
100
AcDbLeader
  3
MAIN001
 73
     0
 74
     0
 75
     1
 40
3.099999904632568
 41
13.54100031948087
 76
     3
 10
182.6267735139841
 20
249.6879952737901
 30
0.0000000000000000
 10
267.6726167743310
 20
283.4072278172288
 30
0.0000000000000000
 10
269.5976167185411
 20
283.4072278172288
 30
0.0000000000000000
340
345
213
0.0000000000000000
223
-0.5000000000000000
233
0.0000000000000000
1001
ACAD
1000
DSTYLE
1002
{
1070
   147
1040
0.0
1070
    77
1070
     1
1070
   173
1070
     1
1070
     6
1000
_OPEN
1070
     7
1000
_OPEN
1002
}
  0
MTEXT
  5
345
102
{ACAD_REACTORS
330
344
102
}
100
AcDbEntity
  8
MAIN0
  6
CONTINUOUS
 62
3
100
AcDbMText
 10
269.5986167185411
 20
287.0072277218614
 30
0.0000000000000000
 40
3.099999904632568
 41
0.0000000000000000
 71
     1
 72
     1
  1
{\H0.92x;{メイバン}}
 11
1.000000000000000
 21
0.0000000000000000
 31
0.0000000000000000
  7
KNJYOKO
  0
LINE
  5
346
100
AcDbEntity
  8
MAIN0
  6
CENTER
 62
3
100
AcDbLine
 10
200.2961784031701
 20
206.7042692138232
 30
0.0000000000000000
 11
217.9811329190516
 21
189.0193146977028
 31
0.0000000000000000
  0
DIMENSION
  5
351
100
AcDbEntity
  8
MAIN0
  6
CONTINUOUS
 62
3
100
AcDbDimension
  2
*D19
 10
504.4995776530583
 20
214.0008699639281
 30
0.0000000000000000
 11
506.9995776530583
 21
214.5008699639281
 31
0.0000000000000000
 70
32
  3
MAIN001
100
AcDbAlignedDimension
 13
509.4995776530583
 23
229.0008699639281
 33
0.0000000000000000
 14
504.4995776530583
 24
231.5008699639281
 34
0.0000000000000000
100
AcDbRotatedDimension
1001
ACAD
1000
DSTYLE
1002
{
1070
   173
1070
     1
1070
     6
1000
_OPEN
1070
     7
1000
_OPEN
1070
    41
1040
2.000000
1070
   287
1070
     0
1002
}
  0
LINE
  5
352
100
AcDbEntity
  8
MAIN0
  6
CENTER
 62
3
100
AcDbLine
 10
86.77260070253081
 20
229.5008699639246
 30
0.0000000000000000
 11
101.0557252561787
 21
229.5008699639252
 31
0.0000000000000000
  0
LINE
  5
353
100
AcDbEntity
  8
MAIN0
  6
CENTER
 62
3
100
AcDbLine
 10
93.49957765305908
 20
222.7742031789409
 30
0.0000000000000000
 11
93.49957765305908
 21
262.2858148288926
 31
0.0000000000000000
  0
CIRCLE
  5
354
100
AcDbEntity
  8
MAIN0
  6
CONTINUOUS
 62
3
100
AcDbCircle
 10
93.49957765305896
 20
229.5008699639280
 30
0.0000000000000000
 40
3.000000000000000
  0
CIRCLE
  5
355
100
AcDbEntity
  8
MAIN0
  6
CONTINUOUS
 62
3
100
AcDbCircle
 10
93.49957765305896
 20
229.5008699639280
 30
0.0000000000000000
 40
2.500000000000000
  0
CIRCLE
  5
356
100
AcDbEntity
  8
MAIN0
  6
CONTINUOUS
 62
3
100
AcDbCircle
 10
93.49957765305885
 20
255.5008699639281
 30
0.0000000000000000
 40
2.500000000000000
  0
CIRCLE
  5
357
100
AcDbEntity
  8
MAIN0
  6
CONTINUOUS
 62
3
100
AcDbCircle
 10
93.49957765305885
 20
255.5008699639281
 30
0.0000000000000000
 40
3.000000000000000
  0
LINE
  5
358
100
AcDbEntity
  8
MAIN0
  6
CENTER
 62
3
100
AcDbLine
 10
86.94948215999133
 20
255.5008699639246
 30
0.0000000000000000
 11
100.0386610929466
 21
255.5008699639252
 31
0.0000000000000000
  0
LINE
  5
359
100
AcDbEntity
  8
MAIN0
  6
HIDDEN
 62
3
100
AcDbLine
 10
120.0605893936007
 20
193.8192410173467
 30
0.0000000000000000
 11
111.7874400537185
 21
185.5460916774636
 31
0.0000000000000000
  0
LINE
  5
35A
100
AcDbEntity
  8
MAIN0
  6
HIDDEN
 62
3
100
AcDbLine
 10
122.5354631277535
 20
197.0012215326862
 30
0.0000000000000000
 11
111.7874400537185
 21
186.2531984586502
 31
0.0000000000000000
  0
LINE
  5
35B
100
AcDbEntity
  8
MAIN0
  6
HIDDEN
 62
3
100
AcDbLine
 10
115.8179487064812
 20
198.0618817044658
 30
0.0000000000000000
 11
120.0605893936007
 21
193.8192410173467
 31
0.0000000000000000
  0
LINE
  5
35C
100
AcDbEntity
  8
MAIN0
  6
HIDDEN
 62
3
100
AcDbLine
 10
108.2519061477856
 20
189.7887323645828
 30
0.0000000000000000
 11
118.9999292218206
 21
200.5367554386188
 31
0.0000000000000000
  0
LINE
  5
35D
100
AcDbEntity
  8
MAIN0
  6
HIDDEN
 62
3
100
AcDbLine
 10
107.5447993665990
 20
189.7887323645827
 30
0.0000000000000000
 11
115.8179487064812
 21
198.0618817044658
 31
0.0000000000000000
  0
LINE
  5
35E
100
AcDbEntity
  8
MAIN0
  6
HIDDEN
 62
3
100
AcDbLine
 10
121.7883169009466
 20
199.7896092118123
 30
0.0000000000000000
 11
122.5354631277535
 21
197.0012215326863
 31
0.0000000000000000
  0
LINE
  5
35F
100
AcDbEntity
  8
MAIN0
  6
HIDDEN
 62
3
100
AcDbLine
 10
118.9999292218205
 20
200.5367554386188
 30
0.0000000000000000
 11
121.7883169009467
 21
199.7896092118122
 31
0.0000000000000000
  0
LINE
  5
360
100
AcDbEntity
  8
MAIN0
  6
HIDDEN
 62
3
100
AcDbLine
 10
118.9999292218205
 20
200.5367554386188
 30
0.0000000000000000
 11
122.5354631277534
 21
197.0012215326863
 31
0.0000000000000000
  0
LINE
  5
361
100
AcDbEntity
  8
MAIN0
  6
CENTER
 62
3
100
AcDbLine
 10
123.8516706125006
 20
201.8529629233663
 30
0.0000000000000000
 11
106.7244254359713
 21
184.7257177468355
 31
0.0000000000000000
  0
LINE
  5
362
100
AcDbEntity
  8
MAIN0
  6
HIDDEN
 62
3
100
AcDbLine
 10
108.2519061477856
 20
189.7887323645828
 30
0.0000000000000000
 11
111.7874400537185
 21
186.2531984586502
 31
0.0000000000000000
  0
LINE
  5
363
100
AcDbEntity
  8
MAIN0
  6
HIDDEN
 62
3
100
AcDbLine
 10
107.0067037493509
 20
189.7887323645827
 30
0.0000000000000000
 11
108.2519061477856
 21
189.7887323645828
 31
0.0000000000000000
  0
LINE
  5
364
100
AcDbEntity
  8
MAIN0
  6
HIDDEN
 62
3
100
AcDbLine
 10
111.7874400537185
 20
186.2531984586502
 30
0.0000000000000000
 11
111.7874400537185
 21
185.0079960602154
 31
0.0000000000000000
  0
LINE
  5
365
100
AcDbEntity
  8
MAIN0
  6
HIDDEN
 62
3
100
AcDbLine
 10
236.4144643481541
 20
213.1334584888627
 30
0.0000000000000000
 11
225.4200606849588
 21
217.1350941657725
 31
0.0000000000000000
  0
LINE
  5
366
100
AcDbEntity
  8
MAIN0
  6
HIDDEN
 62
3
100
AcDbLine
 10
236.1156281094239
 20
213.7743148709184
 30
0.0000000000000000
 11
221.8323002734779
 21
218.9730210494679
 31
0.0000000000000000
  0
LINE
  5
367
100
AcDbEntity
  8
MAIN0
  6
HIDDEN
 62
3
100
AcDbLine
 10
225.4200606849587
 20
217.1350941657725
 30
0.0000000000000000
 11
227.4721815449125
 21
222.7732498904880
 31
0.0000000000000000
  0
LINE
  5
368
100
AcDbEntity
  8
MAIN0
  6
HIDDEN
 62
3
100
AcDbLine
 10
221.8323002734778
 20
218.9730210494679
 30
0.0000000000000000
 11
223.5424009901059
 21
223.6714841533975
 31
0.0000000000000000
  0
LINE
  5
369
100
AcDbEntity
  8
MAIN0
  6
HIDDEN
 62
3
100
AcDbLine
 10
221.8323002734779
 20
218.9730210494679
 30
0.0000000000000000
 11
221.3310211628763
 21
221.8159161559760
 31
0.0000000000000000
  0
LINE
  5
36A
100
AcDbEntity
  8
MAIN0
  6
HIDDEN
 62
3
100
AcDbLine
 10
221.3310211628763
 20
221.8159161559760
 30
0.0000000000000000
 11
223.5424009901060
 21
223.6714841533975
 31
0.0000000000000000
  0
LINE
  5
36B
100
AcDbEntity
  8
MAIN0
  6
CENTER
 62
3
100
AcDbLine
 10
217.7224535569589
 20
223.1293273528672
 30
0.0000000000000000
 11
240.4832958158462
 21
214.8450582638050
 31
0.0000000000000000
  0
LINE
  5
36C
100
AcDbEntity
  8
MAIN0
  6
HIDDEN
 62
3
100
AcDbLine
 10
223.5424009901060
 20
223.6714841533975
 30
0.0000000000000000
 11
237.8257288260521
 21
218.4727779748481
 31
0.0000000000000000
  0
LINE
  5
36D
100
AcDbEntity
  8
MAIN0
  6
HIDDEN
 62
3
100
AcDbLine
 10
227.4721815449125
 20
222.7732498904881
 30
0.0000000000000000
 11
238.4665852081079
 21
218.7716142135783
 31
0.0000000000000000
  0
LINE
  5
36E
100
AcDbEntity
  8
MAIN0
  6
HIDDEN
 62
3
100
AcDbLine
 10
236.1156281094240
 20
213.7743148709184
 30
0.0000000000000000
 11
237.8257288260521
 21
218.4727779748481
 31
0.0000000000000000
  0
LINE
  5
36F
100
AcDbEntity
  8
MAIN0
  6
HIDDEN
 62
3
100
AcDbLine
 10
237.8257288260521
 20
218.4727779748481
 30
0.0000000000000000
 11
238.8510990373413
 21
218.9509159568164
 31
0.0000000000000000
  0
LINE
  5
370
100
AcDbEntity
  8
MAIN0
  6
HIDDEN
 62
3
100
AcDbLine
 10
236.5937660913922
 20
212.7489446596292
 30
0.0000000000000000
 11
236.1156281094239
 21
213.7743148709185
 31
0.0000000000000000
  0
LEADER
  5
371
100
AcDbEntity
  8
MAIN0
  6
CONTINUOUS
 62
3
100
AcDbLeader
  3
MAIN001
 73
     0
 75
     1
 40
3.099999904632568
 41
25.38900064134597
 76
     3
 10
91.50868806042487
 20
257.7450532518842
 30
0.0000000000000000
 10
67.49938429381234
 20
284.8089740578984
 30
0.0000000000000000
 10
65.57238434960229
 20
284.8089740578984
 30
0.0000000000000000
340
372
213
0.0000000000000000
223
-0.5000000000000000
233
0.0000000000000000
1001
ACAD
1000
DSTYLE
1002
{
1070
   147
1040
0.0
1070
    77
1070
     1
1070
   173
1070
     1
1070
     6
1000
_OPEN
1070
     7
1000
_OPEN
1002
}
  0
MTEXT
  5
372
102
{ACAD_REACTORS
330
371
102
}
100
AcDbEntity
  8
MAIN0
  6
CONTINUOUS
 62
3
100
AcDbMText
 10
40.18338370825632
 20
288.4089739625310
 30
0.0000000000000000
 40
3.099999904632568
 41
0.0000000000000000
 71
     1
 72
     1
  1
{\H0.93x;{2-M6\P ネジ深12　　}}
 11
1.000000000000000
 21
0.0000000000000000
 31
0.0000000000000000
  7
KNJYOKO
  0
DIMENSION
  5
37A
100
AcDbEntity
  8
MAIN0
  6
CONTINUOUS
 62
3
100
AcDbDimension
  2
*D20
 10
164.4995776530630
 20
147.5008699639280
 30
0.0000000000000000
 11
128.3359932945616
 21
155.1942541416099
 31
0.0000000000000000
 70
162
  3
MAIN001
100
AcDb2LineAngularDimension
 13
106.7244254359713
 23
184.7257177468355
 33
0.0000000000000000
 14
107.4315322171578
 24
185.4328245280221
 34
0.0000000000000000
 15
164.4995776530590
 25
242.5008699639281
 35
0.0000000000000000
 16
128.1446515783791
 26
154.7323143753543
 36
0.0000000000000000
1001
ACAD
1000
DSTYLE
1002
{
1070
   173
1070
     1
1070
     6
1000
_OPEN
1070
     7
1000
_OPEN
1070
    41
1040
2.000000
1002
}
  0
DIMENSION
  5
382
100
AcDbEntity
  8
MAIN0
  6
CONTINUOUS
 62
3
100
AcDbDimension
  2
*D21
 10
240.4832958158462
 20
214.8450582638050
 30
0.0000000000000000
 11
218.7025508882362
 21
165.0910017786206
 31
0.0000000000000000
 70
162
  3
MAIN001
100
AcDb2LineAngularDimension
 13
164.4995776530630
 23
147.5008699639280
 33
0.0000000000000000
 14
164.4995776530590
 24
242.5008699639281
 34
0.0000000000000000
 15
239.5436031950603
 25
215.1870784071306
 35
0.0000000000000000
 16
218.9893391064117
 26
164.6814257564762
 36
0.0000000000000000
1001
ACAD
1000
DSTYLE
1002
{
1070
   173
1070
     1
1070
     6
1000
_OPEN
1070
     7
1000
_OPEN
1070
    41
1040
2.000000
1002
}
  0
DIMENSION
  5
38B
100
AcDbEntity
  8
MAIN0
  6
CONTINUOUS
 62
3
100
AcDbDimension
  2
*D22
 10
63.52413100752540
 20
255.5008699639246
 30
0.0000000000000000
 11
63.02413100752540
 21
239.3258698774979
 31
0.0000000000000000
 70
32
  3
MAIN001
100
AcDbAlignedDimension
 13
86.77260070253081
 23
229.5008699639246
 33
0.0000000000000000
 14
86.94948215999133
 24
255.5008699639246
 34
0.0000000000000000
 50
90.00000000000000
100
AcDbRotatedDimension
1001
ACAD
1000
DSTYLE
1002
{
1070
   173
1070
     1
1070
     6
1000
_OPEN
1070
     7
1000
_OPEN
1070
    41
1040
2.000000
1070
   272
1070
     1
1070
    47
1040
0.200000
1070
    48
1040
0.200000
1070
    71
1070
     1
1002
}
  0
DIMENSION
  5
393
100
AcDbEntity
  8
MAIN0
  6
CONTINUOUS
 62
3
100
AcDbDimension
  2
*D23
 10
93.49957765305908
 20
271.6696900213394
 30
0.0000000000000000
 11
125.8245775666297
 21
272.1696900213394
 31
0.0000000000000000
 70
32
  3
MAIN001
100
AcDbAlignedDimension
 13
164.4995776530538
 23
365.6227561356254
 33
0.0000000000000000
 14
93.49957765305908
 24
262.2858148288926
 34
0.0000000000000000
100
AcDbRotatedDimension
1001
ACAD
1000
DSTYLE
1002
{
1070
   173
1070
     1
1070
     6
1000
_OPEN
1070
     7
1000
_OPEN
1070
    41
1040
2.000000
1070
   272
1070
     1
1070
    47
1040
0.100000
1070
    48
1040
0.100000
1070
    71
1070
     1
1002
}
  0
MTEXT
  5
394
100
AcDbEntity
  8
MAIN0
  6
CONTINUOUS
 62
3
100
AcDbMText
 10
119.4987707730308
 20
375.3068712482207
 30
0.0000000000000000
 40
3.000000000000000
 41
0.0000000000000000
 71
     1
 72
     1
  1
{\H0.63x;{Detectable plate}}
 11
1.000000000000000
 21
0.0000000000000000
 31
0.0000000000000000
  7
STANDARD
  0
MTEXT
  5
395
100
AcDbEntity
  8
MAIN0
  6
CONTINUOUS
 62
3
100
AcDbMText
 10
114.1316468428412
 20
326.9572694148774
 30
0.0000000000000000
 40
3.000000000000000
 41
0.0000000000000000
 71
     1
 72
     1
  1
{\H0.63x;{Bracket}}
 11
1.000000000000000
 21
0.0000000000000000
 31
0.0000000000000000
  7
STANDARD
  0
MTEXT
  5
396
100
AcDbEntity
  8
MAIN0
  6
CONTINUOUS
 62
3
100
AcDbMText
 10
40.41736502148183
 20
280.6189148422427
 30
0.0000000000000000
 40
3.000000000000000
 41
0.0000000000000000
 71
     1
 72
     1
  1
{\H0.63x;{Thread depth 12}}
 11
1.000000000000000
 21
0.0000000000000000
 31
0.0000000000000000
  7
STANDARD
  0
MTEXT
  5
397
100
AcDbEntity
  8
MAIN0
  6
CONTINUOUS
 62
3
100
AcDbMText
 10
71.97702401434975
 20
314.9719013596055
 30
0.0000000000000000
 40
3.099999904632568
 41
0.0000000000000000
 71
     1
 72
     1
  1
{\H0.92x;{See Q}}
 11
1.000000000000000
 21
0.0000000000000000
 31
0.0000000000000000
  7
STANDARD
  0
MTEXT
  5
398
100
AcDbEntity
  8
MAIN0
  6
CONTINUOUS
 62
3
100
AcDbMText
 10
269.7285987987873
 20
282.3053779302787
 30
0.0000000000000000
 40
3.000000000000000
 41
0.0000000000000000
 71
     1
 72
     1
  1
{\H0.63x;{Name plate}}
 11
1.000000000000000
 21
0.0000000000000000
 31
0.0000000000000000
  7
STANDARD
  0
MTEXT
  5
399
100
AcDbEntity
  8
MAIN0
  6
CONTINUOUS
 62
3
100
AcDbMText
 10
535.0824292541000
 20
102.0181827261650
 30
0.0000000000000000
 40
3.000000000000000
 41
0.0000000000000000
 71
     1
 72
     1
  1
{\H0.63x;{Section P-P}}
 11
1.000000000000000
 21
0.0000000000000000
 31
0.0000000000000000
  7
STANDARD
  0
ARC
  5
39A
100
AcDbEntity
  8
MAIN0
  6
CONTINUOUS
 62
3
100
AcDbCircle
 10
164.4995776530590
 20
242.5008699639281
 30
0.0000000000000000
 40
78.00000000000000
100
AcDbArc
 50
104.8571578346805
 51
435.1428267448005
  0
ARC
  5
39B
100
AcDbEntity
  8
MAIN0
  6
CONTINUOUS
 62
3
100
AcDbCircle
 10
164.4995776530590
 20
242.5008699639281
 30
0.0000000000000000
 40
79.59999999999934
100
AcDbArc
 50
110.0000000002578
 51
414.9999999997107
  0
LINE
  5
39C
100
AcDbEntity
  8
MAIN0
  6
CONTINUOUS
 62
3
100
AcDbLine
 10
137.8220064733218
 20
315.7968943851059
 30
0.0000000000000000
 11
137.2747742439994
 21
317.3004025783633
 31
0.0000000000000000
  0
MTEXT
  5
39D
100
AcDbEntity
  8
MAIN0
  6
CONTINUOUS
 62
3
100
AcDbMText
 10
236.8784515117423
 20
94.29192814172677
 30
0.0000000000000000
 40
3.099999904632568
 41
0.0000000000000000
 71
     1
 72
     1
  1
{\H0.88x;{20}}
 11
1.000000000000000
 21
0.0000000000000000
 31
0.0000000000000000
  7
STANDARD
  0
MTEXT
  5
39E
100
AcDbEntity
  8
MAIN0
  6
CONTINUOUS
 62
3
100
AcDbMText
 10
231.8784515117423
 20
57.29192814172666
 30
0.0000000000000000
 40
3.099999904632568
 41
0.0000000000000000
 71
     1
 72
     1
  1
{\H0.92x;{ 6000}}
 11
1.000000000000000
 21
0.0000000000000000
 31
0.0000000000000000
  7
STANDARD
  0
MTEXT
  5
39F
100
AcDbEntity
  8
MAIN0
  6
CONTINUOUS
 62
3
100
AcDbMText
 10
236.8784515117423
 20
101.2919281417267
 30
0.0000000000000000
 40
3.099999904632568
 41
0.0000000000000000
 71
     1
 72
     1
  1
{\H0.90x;{110}}
 11
1.000000000000000
 21
0.0000000000000000
 31
0.0000000000000000
  7
STANDARD
  0
MTEXT
  5
3A0
100
AcDbEntity
  8
MAIN0
  6
CONTINUOUS
 62
3
100
AcDbMText
 10
194.7961444671110
 20
79.29192814172689
 30
0.0000000000000000
 40
3.099999904632568
 41
0.0000000000000000
 71
     1
 72
     1
  1
{\H0.90x;{3.5}}
 11
1.000000000000000
 21
0.0000000000000000
 31
0.0000000000000000
  7
STANDARD
  0
MTEXT
  5
3A1
100
AcDbEntity
  8
MAIN0
  6
CONTINUOUS
 62
3
100
AcDbMText
 10
236.8784515117423
 20
87.79192814172677
 30
0.0000000000000000
 40
3.099999904632568
 41
0.0000000000000000
 71
     1
 72
     1
  1
{\H0.88x;{28\P}
 11
1.000000000000000
 21
0.0000000000000000
 31
0.0000000000000000
  7
STANDARD
  0
MTEXT
  5
3A2
100
AcDbEntity
  8
MAIN0
  6
CONTINUOUS
 62
3
100
AcDbMText
 10
236.8784515117423
 20
77.79192814172666
 30
0.0000000000000000
 40
3.099999904632568
 41
0.0000000000000000
 71
     1
 72
     1
  1
{\H0.88x;{27}}
 11
1.000000000000000
 21
0.0000000000000000
 31
0.0000000000000000
  7
STANDARD
  0
MTEXT
  5
3A3
100
AcDbEntity
  8
MAIN0
  6
CONTINUOUS
 62
3
100
AcDbMText
 10
236.8784515117423
 20
67.79192814172666
 30
0.0000000000000000
 40
3.099999904632568
 41
0.0000000000000000
 71
     1
 72
     1
  1
{\H0.90x;{3.5}}
 11
1.000000000000000
 21
0.0000000000000000
 31
0.0000000000000000
  7
STANDARD
  0
MTEXT
  5
3A4
100
AcDbEntity
  8
MAIN0
  6
CONTINUOUS
 62
3
100
AcDbMText
 10
236.8784515117423
 20
50.29192814172666
 30
0.0000000000000000
 40
3.099999904632568
 41
0.0000000000000000
 71
     1
 72
     1
  1
{\H0.90x;{8.2}}
 11
1.000000000000000
 21
0.0000000000000000
 31
0.0000000000000000
  7
STANDARD
  0
MTEXT
  5
3A5
100
AcDbEntity
  8
MAIN0
  6
CONTINUOUS
 62
3
100
AcDbMText
 10
232.0070173427032
 20
41.53567007230254
 30
0.0000000000000000
 40
3.099999904632568
 41
0.0000000000000000
 71
     1
 72
     1
  1
{\H0.92x;{0.016}}
 11
1.000000000000000
 21
0.0000000000000000
 31
0.0000000000000000
  7
STANDARD
  0
MTEXT
  5
3A6
100
AcDbEntity
  8
MAIN0
  6
CONTINUOUS
 62
3
100
AcDbMText
 10
236.8784515117423
 20
22.79192814172666
 30
0.0000000000000000
 40
3.099999904632568
 41
0.0000000000000000
 71
     1
 72
     1
  1
{\H0.90x;{1.2}}
 11
1.000000000000000
 21
0.0000000000000000
 31
0.0000000000000000
  7
STANDARD
  0
SPLINE
  5
3A7
100
AcDbEntity
  8
MAIN0
  6
CONTINUOUS
 62
3
100
AcDbSpline
210
0.0000000000000000
220
0.0000000000000000
230
1.000000000000000
 70
     8
 71
     3
 72
    12
 73
     8
 74
     0
 42
1.000000000000000e-007
 43
1.000000000000000e-007
 12
1.088657757375245
 22
-0.2454003001439773
 32
0.0000000000000000
 13
1.019329887020149
 23
0.2080119081590794
 33
0.0000000000000000
 40
0.0000000000000000
 40
0.0000000000000000
 40
0.0000000000000000
 40
0.0000000000000000
 40
1.630542417238351
 40
4.194692270786582
 40
6.948947427696034
 40
7.467909438373205
 40
8.161628223834228
 40
8.161628223834228
 40
8.161628223834228
 40
8.161628223834228
 10
245.7801714102160
 20
19.16000272749955
 30
0.0000000000000000
 10
246.3718722939680
 20
19.02662419463695
 30
0.0000000000000000
 10
247.8940670540995
 20
18.68349794721587
 30
0.0000000000000000
 10
248.7993746638649
 20
23.56212756218224
 30
0.0000000000000000
 10
246.1500313837650
 20
19.67965312318484
 30
0.0000000000000000
 10
247.3563706808570
 20
18.83443109383018
 30
0.0000000000000000
 10
247.7684112738300
 20
18.91851510929428
 30
0.0000000000000000
 10
248.0041207042326
 20
18.96661569872413
 30
0.0000000000000000
  0
INSERT
  5
3D2
100
AcDbEntity
  8
MAIN0
  6
CONTINUOUS
 62
3
100
AcDbBlockReference
  2
M3
 10
0.0000000000000000
 20
0.0000000000000000
 30
0.0000000000000000
 50
0.0000000000000000
  0
DIMENSION
  5
3DB
100
AcDbEntity
  8
MAIN0
  6
CONTINUOUS
 62
3
100
AcDbDimension
  2
*D24
 10
463.4995776530589
 20
152.9008699639282
 30
0.0000000000000000
 11
456.4995776530585
 21
153.4008699639282
 31
0.0000000000000000
 70
32
  3
MAIN001
100
AcDbAlignedDimension
 13
449.4995776530583
 23
171.0008699639281
 33
0.0000000000000000
 14
463.4995776530589
 24
174.5008699639281
 34
0.0000000000000000
100
AcDbRotatedDimension
1001
ACAD
1000
DSTYLE
1002
{
1070
   173
1070
     1
1070
     6
1000
_OPEN
1070
     7
1000
_OPEN
1070
    41
1040
2.000000
1002
}
  0
DIMENSION
  5
3E4
100
AcDbEntity
  8
MAIN0
  6
CONTINUOUS
 62
3
100
AcDbDimension
  2
*D25
 10
449.4995776530583
 20
152.9008699639282
 30
0.0000000000000000
 11
386.9995776530601
 21
153.4008699639282
 31
0.0000000000000000
 70
32
  3
MAIN001
100
AcDbAlignedDimension
 13
324.4995776530619
 23
163.3228005748871
 33
0.0000000000000000
 14
449.4995776530583
 24
171.0008699639281
 34
0.0000000000000000
100
AcDbRotatedDimension
1001
ACAD
1000
DSTYLE
1002
{
1070
   173
1070
     1
1070
     6
1000
_OPEN
1070
     7
1000
_OPEN
1070
    41
1040
2.000000
1002
}
  0
DIMENSION
  5
3ED
100
AcDbEntity
  8
MAIN0
  6
CONTINUOUS
 62
3
100
AcDbDimension
  2
*D26
 10
509.4995776530583
 20
142.9008699639282
 30
0.0000000000000000
 11
479.4995776530583
 21
143.4008699639282
 31
0.0000000000000000
 70
32
  1
\A1;MAX 60
  3
MAIN001
100
AcDbAlignedDimension
 13
449.4995776530583
 23
171.0008699639281
 33
0.0000000000000000
 14
509.4995776530583
 24
229.0008699639281
 34
0.0000000000000000
100
AcDbRotatedDimension
1001
ACAD
1000
DSTYLE
1002
{
1070
   173
1070
     1
1070
     6
1000
_OPEN
1070
     7
1000
_OPEN
1070
    41
1040
2.000000
1002
}
  0
DIMENSION
  5
3F6
100
AcDbEntity
  8
MAIN0
  6
CONTINUOUS
 62
3
100
AcDbDimension
  2
*D27
 10
449.4995776530583
 20
142.9008699639282
 30
0.0000000000000000
 11
381.9995776530586
 21
143.4008699639282
 31
0.0000000000000000
 70
32
  3
MAIN001
100
AcDbAlignedDimension
 13
314.4995776530589
 23
162.9008699639282
 33
0.0000000000000000
 14
449.4995776530583
 24
171.0008699639281
 34
0.0000000000000000
100
AcDbRotatedDimension
1001
ACAD
1000
DSTYLE
1002
{
1070
   173
1070
     1
1070
     6
1000
_OPEN
1070
     7
1000
_OPEN
1070
    41
1040
2.000000
1002
}
  0
INSERT
  5
3FE
100
AcDbEntity
  8
MAIN0
  6
CONTINUOUS
 62
3
100
AcDbBlockReference
  2
D28
 10
304.4995776530589
 20
242.5008699639281
 30
0.0000000000000000
 50
0.0000000000000000
  0
INSERT
  5
406
100
AcDbEntity
  8
MAIN0
  6
CONTINUOUS
 62
3
100
AcDbBlockReference
  2
D29
 10
517.6975753297812
 20
242.5008699639281
 30
0.0000000000000000
 50
0.0000000000000000
  0
DIMENSION
  5
40E
100
AcDbEntity
  8
MAIN0
  6
CONTINUOUS
 62
3
100
AcDbDimension
  2
*D30
 10
449.4995776530583
 20
206.5008699639281
 30
0.0000000000000000
 11
456.9995776530583
 21
207.0008699639281
 31
0.0000000000000000
 70
32
  3
MAIN001
100
AcDbAlignedDimension
 13
464.4995776530583
 23
221.5008699639281
 33
0.0000000000000000
 14
449.4995776530583
 24
171.0008699639281
 34
0.0000000000000000
100
AcDbRotatedDimension
1001
ACAD
1000
DSTYLE
1002
{
1070
   173
1070
     1
1070
     6
1000
_OPEN
1070
     7
1000
_OPEN
1070
    41
1040
2.000000
1002
}
  0
LINE
  5
40F
100
AcDbEntity
  8
MAIN0
  6
CONTINUOUS
 62
3
100
AcDbLine
 10
324.4995776530598
 20
307.5008699639279
 30
0.0000000000000000
 11
324.4995776530602
 21
310.5008699639279
 31
0.0000000000000000
  0
LINE
  5
410
100
AcDbEntity
  8
MAIN0
  6
CENTER
 62
3
100
AcDbLine
 10
307.9898430794035
 20
313.5008699639279
 30
0.0000000000000000
 11
338.8273149232709
 21
313.5008699639279
 31
0.0000000000000000
  0
LINE
  5
411
100
AcDbEntity
  8
MAIN0
  6
PHANTOM
 62
3
100
AcDbLine
 10
314.4995776530590
 20
320.1008699639280
 30
0.0000000000000000
 11
314.8995776530589
 21
320.5008699639279
 31
0.0000000000000000
  0
LINE
  5
412
100
AcDbEntity
  8
MAIN0
  6
PHANTOM
 62
3
100
AcDbLine
 10
314.8995776530589
 20
320.5008699639279
 30
0.0000000000000000
 11
321.2995776530582
 21
320.5008699639279
 31
0.0000000000000000
  0
LINE
  5
413
100
AcDbEntity
  8
MAIN0
  6
PHANTOM
 62
3
100
AcDbLine
 10
314.4995776530589
 20
307.5008699639279
 30
0.0000000000000000
 11
314.4995776530589
 21
320.1008699639280
 31
0.0000000000000000
  0
CIRCLE
  5
414
100
AcDbEntity
  8
MAIN0
  6
CONTINUOUS
 62
3
100
AcDbCircle
 10
282.2099250173046
 20
355.7933054746965
 30
0.0000000000000000
 40
5.458500000002196
  0
CIRCLE
  5
415
100
AcDbEntity
  8
MAIN0
  6
CONTINUOUS
 62
3
100
AcDbCircle
 10
282.2099250173046
 20
355.7933054746965
 30
0.0000000000000000
 40
6.000000000002210
  0
CIRCLE
  5
416
100
AcDbEntity
  8
MAIN0
  6
CONTINUOUS
 62
3
100
AcDbCircle
 10
79.00231275465438
 20
363.4076826532643
 30
0.0000000000000000
 40
5.458500000002196
  0
CIRCLE
  5
417
100
AcDbEntity
  8
MAIN0
  6
CONTINUOUS
 62
3
100
AcDbCircle
 10
79.00231275465438
 20
363.4076826532643
 30
0.0000000000000000
 40
6.000000000002210
  0
LINE
  5
418
100
AcDbEntity
  8
MAIN0
  6
CENTER
 62
3
100
AcDbLine
 10
164.4995776530636
 20
135.2411506312462
 30
0.0000000000000000
 11
164.4995776530624
 21
163.5186171519026
 31
0.0000000000000000
  0
LINE
  5
419
100
AcDbEntity
  8
MAIN0
  6
CENTER
 62
12
100
AcDbLine
 10
70.82719465777797
 20
242.5008699639281
 30
0.0000000000000000
 11
86.16469742701537
 21
242.5008699639281
 31
0.0000000000000000
  0
LINE
  5
41A
100
AcDbEntity
  8
MAIN0
  6
CENTER
 62
12
100
AcDbLine
 10
242.8746348616672
 20
242.5008699639281
 30
0.0000000000000000
 11
259.7148058555507
 21
242.5008699639281
 31
0.0000000000000000
  0
MTEXT
  5
41B
100
AcDbEntity
  8
MAIN0
  6
CONTINUOUS
 62
3
100
AcDbMText
 10
221.7513044657528
 20
138.6855145778710
 30
0.0000000000000000
 40
3.000000000000000
 41
0.0000000000000000
 71
     1
 72
     1
  1
{\H0.63x;{Thread depth 12\PFor preventing the rotation}}
 11
1.000000000000000
 21
0.0000000000000000
 31
0.0000000000000000
  7
STANDARD
  0
LEADER
  5
41C
100
AcDbEntity
  8
MAIN0
  6
CONTINUOUS
 62
3
100
AcDbLeader
  3
MAIN001
 73
     0
 74
     0
 75
     1
 40
3.099999904632568
 41
20.50100047683716
 76
     3
 10
191.1771488324643
 20
169.2048455426284
 30
0.0000000000000000
 10
219.8930489670824
 20
147.0396003164313
 30
0.0000000000000000
 10
221.8180489112925
 20
147.0396003164313
 30
0.0000000000000000
340
41D
213
-0.001000000000004775
223
-0.5000000000000000
233
0.0000000000000000
1001
ACAD
1000
DSTYLE
1002
{
1070
   147
1040
0.0
1070
    77
1070
     1
1070
   173
1070
     1
1070
     6
1000
_OPEN
1070
     7
1000
_OPEN
1002
}
  0
MTEXT
  5
41D
102
{ACAD_REACTORS
330
41C
102
}
100
AcDbEntity
  8
MAIN0
  6
CONTINUOUS
 62
3
100
AcDbMText
 10
221.8190489112925
 20
150.6396002210638
 30
0.0000000000000000
 40
3.099999904632568
 41
0.0000000000000000
 71
     1
 72
     1
  1
{\H0.93x;{M6\Pネジ深12\Pマワリドメ用}}
 11
1.000000000000000
 21
0.0000000000000000
 31
0.0000000000000000
  7
KNJYOKO
  0
MTEXT
  5
41E
100
AcDbEntity
  8
MAIN0
  6
CONTINUOUS
 62
3
100
AcDbMText
 10
116.6120681836825
 20
141.3785422297916
 30
0.0000000000000000
 40
3.000000000000000
 41
0.0000000000000000
 71
     1
 72
     1
  1
{\H0.63x;{Thread depth 12}}
 11
1.000000000000000
 21
0.0000000000000000
 31
0.0000000000000000
  7
STANDARD
  0
LEADER
  5
41F
100
AcDbEntity
  8
MAIN0
  6
CONTINUOUS
 62
3
100
AcDbLeader
  3
MAIN001
 73
     0
 74
     0
 75
     1
 40
3.099999904632568
 41
18.43100048398971
 76
     3
 10
109.3452487205106
 20
187.3465410313750
 30
0.0000000000000000
 10
114.4571110660527
 20
145.7189032616323
 30
0.0000000000000000
 10
116.3821110102627
 20
145.7189032616323
 30
0.0000000000000000
340
420
213
0.0000000000000000
223
-0.5000000000000000
233
0.0000000000000000
1001
ACAD
1000
DSTYLE
1002
{
1070
   147
1040
0.0
1070
    77
1070
     1
1070
   173
1070
     1
1070
     6
1000
_OPEN
1070
     7
1000
_OPEN
1002
}
  0
MTEXT
  5
420
102
{ACAD_REACTORS
330
41F
102
}
100
AcDbEntity
  8
MAIN0
  6
CONTINUOUS
 62
3
100
AcDbMText
 10
116.3831110102627
 20
149.3189031662649
 30
0.0000000000000000
 40
3.099999904632568
 41
0.0000000000000000
 71
     1
 72
     1
  1
{\H0.93x;{2-M6\P ネジ深12}}
 11
1.000000000000000
 21
0.0000000000000000
 31
0.0000000000000000
  7
KNJYOKO
  0
MTEXT
  5
421
100
AcDbEntity
  8
MAIN0
  6
CONTINUOUS
 62
3
100
AcDbMText
 10
48.65108712562932
 20
190.1935400529914
 30
0.0000000000000000
 40
3.000000000000000
 41
0.0000000000000000
 71
     1
 72
     1
  1
{\H0.63x;{For tightening the\P mounting bolts}}
 11
1.000000000000000
 21
0.0000000000000000
 31
0.0000000000000000
  7
STANDARD
  0
LEADER
  5
422
100
AcDbEntity
  8
MAIN0
  6
CONTINUOUS
 62
3
100
AcDbLeader
  3
MAIN001
 73
     0
 75
     1
 40
3.099999904632568
 41
34.41900079154968
 76
     3
 10
102.2242567183956
 20
209.9077407656258
 30
0.0000000000000000
 10
85.27923255594976
 20
195.1018226336893
 30
0.0000000000000000
 10
83.35223261173971
 20
195.1018226336893
 30
0.0000000000000000
340
423
213
0.0000000000000000
223
-0.5000000000000000
233
0.0000000000000000
1001
ACAD
1000
DSTYLE
1002
{
1070
   147
1040
0.0
1070
    77
1070
     1
1070
   173
1070
     1
1070
     6
1000
_OPEN
1070
     7
1000
_OPEN
1002
}
  0
MTEXT
  5
423
102
{ACAD_REACTORS
330
422
102
}
100
AcDbEntity
  8
MAIN0
  6
CONTINUOUS
 62
3
100
AcDbMText
 10
48.93323182019003
 20
198.7018225383218
 30
0.0000000000000000
 40
3.099999904632568
 41
0.0000000000000000
 71
     1
 72
     1
  1
{\H0.94x;{取付ボルト締めつけ用\P(2-\U+220514)}}
 11
1.000000000000000
 21
0.0000000000000000
 31
0.0000000000000000
  7
KNJYOKO
  0
LEADER
  5
424
100
AcDbEntity
  8
MAIN0
  6
CONTINUOUS
 62
3
100
AcDbLeader
  3
MAIN001
 73
     0
 75
     1
 40
3.099999904632568
 41
19.14900057220459
 76
     3
 10
90.97326818936600
 20
236.0309227931876
 30
0.0000000000000000
 10
84.01493247341671
 20
208.7608656164405
 30
0.0000000000000000
 10
82.08793252920665
 20
208.7608656164405
 30
0.0000000000000000
340
425
213
0.0000000000000000
223
-0.5000000000000000
233
0.0000000000000000
1001
ACAD
1000
DSTYLE
1002
{
1070
   147
1040
0.0
1070
    77
1070
     1
1070
   173
1070
     1
1070
     6
1000
_OPEN
1070
     7
1000
_OPEN
1002
}
  0
MTEXT
  5
425
102
{ACAD_REACTORS
330
424
102
}
100
AcDbEntity
  8
MAIN0
  6
CONTINUOUS
 62
3
100
AcDbMText
 10
62.93893195700206
 20
212.3608655210731
 30
0.0000000000000000
 40
3.099999904632568
 41
0.0000000000000000
 71
     1
 72
     1
  1
{\H0.92x;{3-Rc1/4}}
 11
1.000000000000000
 21
0.0000000000000000
 31
0.0000000000000000
  7
STANDARD
  0
MTEXT
  5
426
100
AcDbEntity
  8
MAIN0
  6
CONTINUOUS
 62
3
100
AcDbMText
 10
278.1672320843387
 20
43.53809311720596
 30
0.0000000000000000
 40
3.099999904632568
 41
0.0000000000000000
 71
     1
 72
     1
  1
{\H0.94x;{シリンダアダプタ内径寸法(※印)を MAX \U+220595 に設計して下さい。}}
 11
1.000000000000000
 21
0.0000000000000000
 31
0.0000000000000000
  7
KNJYOKO
  0
DIMENSION
  5
42E
100
AcDbEntity
  8
MAIN0
  6
CONTINUOUS
 62
3
100
AcDbDimension
  2
*D31
 10
192.1553893531886
 20
166.5171518011432
 30
0.0000000000000000
 11
182.6458122192576
 21
139.5884597741531
 31
0.0000000000000000
 70
162
  3
MAIN001
100
AcDb2LineAngularDimension
 13
164.4995776530634
 23
137.5008699639281
 33
0.0000000000000000
 14
164.4995776530624
 24
163.5186171519026
 34
0.0000000000000000
 15
191.8133692098629
 25
167.4568444219291
 35
0.0000000000000000
 16
182.7326363080911
 26
139.0960558976470
 36
0.0000000000000000
1001
ACAD
1000
DSTYLE
1002
{
1070
   173
1070
     1
1070
     6
1000
_OPEN
1070
     7
1000
_OPEN
1070
    41
1040
2.000000
1002
}
  0
DIMENSION
  5
437
100
AcDbEntity
  8
MAIN0
  6
CONTINUOUS
 62
3
100
AcDbDimension
  2
*D32
 10
259.7148058555507
 20
242.5008699639281
 30
0.0000000000000000
 11
250.1009662812596
 21
182.5621323652455
 31
0.0000000000000000
 70
162
  3
MAIN001
100
AcDb2LineAngularDimension
 13
192.1553893531886
 23
166.5171518011432
 33
0.0000000000000000
 14
191.8133692098629
 24
167.4568444219291
 34
0.0000000000000000
 15
258.7148058555507
 25
242.5008699639281
 35
0.0000000000000000
 16
250.5105423034041
 26
182.2753441470700
 36
0.0000000000000000
1001
ACAD
1000
DSTYLE
1002
{
1070
   173
1070
     1
1070
     6
1000
_OPEN
1070
     7
1000
_OPEN
1070
    41
1040
2.000000
1002
}
  0
LINE
  5
438
100
AcDbEntity
  8
MAIN0
  6
CENTER
 62
3
100
AcDbLine
 10
164.4995776530620
 20
171.5186171519026
 30
0.0000000000000000
 11
164.4995776530538
 21
365.6227561356254
 31
0.0000000000000000
  0
LINE
  5
439
100
AcDbEntity
  8
MAIN0
  6
CENTER
 62
12
100
AcDbLine
 10
94.16469742701534
 20
242.5008699639281
 30
0.0000000000000000
 11
234.8746348616672
 21
242.5008699639281
 31
0.0000000000000000
  0
DIMENSION
  5
441
100
AcDbEntity
  8
MAIN0
  6
CONTINUOUS
 62
3
100
AcDbDimension
  2
*D33
 10
210.2206892304321
 20
335.5500861486562
 30
0.0000000000000000
 11
253.8425157802145
 21
297.9332380193541
 31
0.0000000000000000
 70
162
  3
MAIN001
100
AcDb2LineAngularDimension
 13
259.7148058555507
 23
242.5008699639281
 33
0.0000000000000000
 14
258.7148058555507
 24
242.5008699639281
 34
0.0000000000000000
 15
214.2734943345149
 25
344.2413547417995
 35
0.0000000000000000
 16
253.4208200573079
 26
297.6645882151810
 36
0.0000000000000000
1001
ACAD
1000
DSTYLE
1002
{
1070
   173
1070
     1
1070
     6
1000
_OPEN
1070
     7
1000
_OPEN
1070
    41
1040
2.000000
1002
}
  0
DIMENSION
  5
448
100
AcDbEntity
  8
MAIN0
  6
CONTINUOUS
 62
3
100
AcDbDimension
  2
*D34
 10
164.4995776530546
 20
345.6862125555028
 30
0.0000000000000000
 11
188.0233964402263
 21
343.6099353994893
 31
0.0000000000000000
 70
162
  3
MAIN001
100
AcDb2LineAngularDimension
 13
210.2206892304321
 23
335.5500861486562
 33
0.0000000000000000
 14
214.2734943345148
 24
344.2413547417996
 34
0.0000000000000000
 15
164.4995776530592
 25
237.5008459580250
 35
0.0000000000000000
 16
187.9151766332569
 26
343.1217873959294
 36
0.0000000000000000
1001
ACAD
1000
DSTYLE
1002
{
1070
   173
1070
     1
1070
     6
1000
_OPEN
1070
     7
1000
_OPEN
1070
    41
1040
2.000000
1002
}
  0
CIRCLE
  5
449
100
AcDbEntity
  8
MAIN0
  6
CONTINUOUS
 62
3
100
AcDbCircle
 10
544.4995776530145
 20
142.9008699639254
 30
0.0000000000000000
 40
11.00000000000000
  0
LINE
  5
44A
100
AcDbEntity
  8
MAIN0
  6
CONTINUOUS
 62
3
100
AcDbLine
 10
504.4995776530583
 20
253.5008699639281
 30
0.0000000000000000
 11
508.6335522487204
 21
253.5008699639281
 31
0.0000000000000000
  0
LINE
  5
44B
100
AcDbEntity
  8
MAIN0
  6
CONTINUOUS
 62
3
100
AcDbLine
 10
504.4995776530583
 20
231.5008699639281
 30
0.0000000000000000
 11
508.6335522487204
 21
231.5008699639281
 31
0.0000000000000000
  0
LINE
  5
44C
100
AcDbEntity
  8
MAIN0
  6
CONTINUOUS
 62
3
100
AcDbLine
 10
371.4995776530587
 20
318.0008699639280
 30
0.0000000000000000
 11
397.4995776530587
 21
318.0008699639280
 31
0.0000000000000000
  0
INSERT
  5
456
100
AcDbEntity
  8
MAIN0
  6
CONTINUOUS
 62
3
100
AcDbBlockReference
  2
M4
 10
0.0000000000000000
 20
0.0000000000000000
 30
0.0000000000000000
 50
0.0000000000000000
  0
INSERT
  5
460
100
AcDbEntity
  8
MAIN0
  6
CONTINUOUS
 62
3
100
AcDbBlockReference
  2
M5
 10
0.0000000000000000
 20
0.0000000000000000
 30
0.0000000000000000
 50
0.0000000000000000
  0
LINE
  5
461
100
AcDbEntity
  8
MAIN0
  6
PHANTOM
 62
3
100
AcDbLine
 10
209.0515529903971
 20
347.2400748908833
 30
0.0000000000000000
 11
219.9272464348369
 21
342.1686557499949
 31
0.0000000000000000
  0
LINE
  5
462
100
AcDbEntity
  8
MAIN0
  6
PHANTOM
 62
3
100
AcDbLine
 10
210.3804790391606
 20
347.7237644161857
 30
0.0000000000000000
 11
219.4435569094990
 21
343.4975817987918
 31
0.0000000000000000
  0
LINE
  5
463
100
AcDbEntity
  8
MAIN0
  6
PHANTOM
 62
3
100
AcDbLine
 10
211.2257155626419
 20
349.5363799902590
 30
0.0000000000000000
 11
220.2887934329804
 21
345.3101973728651
 31
0.0000000000000000
  0
LINE
  5
464
100
AcDbEntity
  8
MAIN0
  6
PHANTOM
 62
3
100
AcDbLine
 10
220.2887934329579
 20
345.3101973728756
 30
0.0000000000000000
 11
219.4435569094752
 21
343.4975817988028
 31
0.0000000000000000
  0
LINE
  5
465
100
AcDbEntity
  8
MAIN0
  6
PHANTOM
 62
3
100
AcDbLine
 10
211.2257155626218
 20
349.5363799902685
 30
0.0000000000000000
 11
210.3804790391393
 21
347.7237644161957
 31
0.0000000000000000
  0
LINE
  5
466
100
AcDbEntity
  8
MAIN0
  6
PHANTOM
 62
3
100
AcDbLine
 10
209.0515529903852
 20
347.2400748908888
 30
0.0000000000000000
 11
210.3804790391606
 21
347.7237644161857
 31
0.0000000000000000
  0
LINE
  5
467
100
AcDbEntity
  8
MAIN0
  6
PHANTOM
 62
3
100
AcDbLine
 10
219.4435569094990
 20
343.4975817987918
 30
0.0000000000000000
 11
219.9272464348177
 21
342.1686557499542
 31
0.0000000000000000
  0
LEADER
  5
468
100
AcDbEntity
  8
MAIN0
  6
CONTINUOUS
 62
3
100
AcDbLeader
  3
MAIN001
 73
     0
 74
     0
 75
     1
 40
3.099999904632568
 41
14.26100040769575
 76
     3
 10
286.7145933137646
 20
359.7566328064840
 30
0.0000000000000000
 10
324.4995776530716
 20
385.0008699639281
 30
0.0000000000000000
 10
326.4245775972817
 20
385.0008699639281
 30
0.0000000000000000
340
469
213
0.0000000000000000
223
-0.5000000000000000
233
0.0000000000000000
1001
ACAD
1000
DSTYLE
1002
{
1070
   147
1040
0.0
1070
    77
1070
     1
1070
   173
1070
     1
1070
     6
1000
_OPEN
1070
     7
1000
_OPEN
1002
}
  0
MTEXT
  5
469
102
{ACAD_REACTORS
330
468
102
}
100
AcDbEntity
  8
MAIN0
  6
CONTINUOUS
 62
3
100
AcDbMText
 10
326.4255775972816
 20
388.6008698685607
 30
0.0000000000000000
 40
3.099999904632568
 41
0.0000000000000000
 71
     1
 72
     1
  1
{\H0.92x;{M12×1}}
 11
1.000000000000000
 21
0.0000000000000000
 31
0.0000000000000000
  7
KNJYOKO
  0
LINE
  5
46A
100
AcDbEntity
  8
MAIN0
  6
PHANTOM
 62
3
100
AcDbLine
 10
365.4995776530435
 20
358.5008699639280
 30
0.0000000000000000
 11
368.9883621350801
 21
358.5008699639280
 31
0.0000000000000000
  0
LINE
  5
46B
100
AcDbEntity
  8
MAIN0
  6
PHANTOM
 62
3
100
AcDbLine
 10
365.4995776530435
 20
356.5008699639280
 30
0.0000000000000000
 11
368.9883621350801
 21
356.5008699639280
 31
0.0000000000000000
  0
LINE
  5
46C
100
AcDbEntity
  8
MAIN0
  6
PHANTOM
 62
3
100
AcDbLine
 10
364.4995776530587
 20
355.5008699639280
 30
0.0000000000000000
 11
368.9883621350801
 21
355.5008699639280
 31
0.0000000000000000
  0
LINE
  5
46D
100
AcDbEntity
  8
MAIN0
  6
PHANTOM
 62
3
100
AcDbLine
 10
365.4995776530213
 20
358.5008699639282
 30
0.0000000000000000
 11
365.4995776530201
 21
356.5008699639283
 31
0.0000000000000000
  0
LINE
  5
46E
100
AcDbEntity
  8
MAIN0
  6
PHANTOM
 62
3
100
AcDbLine
 10
364.4995776530457
 20
355.5008699639280
 30
0.0000000000000000
 11
365.4995776530435
 21
356.5008699639280
 31
0.0000000000000000
  0
LINE
  5
46F
100
AcDbEntity
  8
MAIN0
  6
PHANTOM
 62
3
100
AcDbLine
 10
365.0410776530588
 20
356.0423699639423
 30
0.0000000000000000
 11
365.0410776530588
 21
339.2008699639280
 31
0.0000000000000000
  0
LINE
  5
470
100
AcDbEntity
  8
MAIN0
  6
PHANTOM
 62
3
100
AcDbLine
 10
364.4995776530587
 20
355.5008699639280
 30
0.0000000000000000
 11
364.4995776530587
 21
339.2008699639280
 31
0.0000000000000000
  0
LINE
  5
471
100
AcDbEntity
  8
MAIN0
  6
PHANTOM
 62
3
100
AcDbLine
 10
361.9995776519003
 20
339.2008699639280
 30
0.0000000000000000
 11
360.6846230767777
 21
338.4416805860107
 31
0.0000000000000000
  0
LINE
  5
472
100
AcDbEntity
  8
MAIN0
  6
PHANTOM
 62
3
100
AcDbLine
 10
360.6846230767775
 20
338.4416805860108
 30
0.0000000000000000
 11
360.6846230767772
 21
335.9600593418458
 31
0.0000000000000000
  0
LINE
  5
473
100
AcDbEntity
  8
MAIN0
  6
PHANTOM
 62
3
100
AcDbLine
 10
360.4995776530587
 20
335.2008699639280
 30
0.0000000000000000
 11
366.8625839516218
 21
335.2008699639280
 31
0.0000000000000000
  0
LINE
  5
474
100
AcDbEntity
  8
MAIN0
  6
PHANTOM
 62
3
100
AcDbLine
 10
360.4995776530587
 20
335.2008699639280
 30
0.0000000000000000
 11
360.4995776530587
 21
334.2008699639280
 31
0.0000000000000000
  0
LINE
  5
475
100
AcDbEntity
  8
MAIN0
  6
PHANTOM
 62
3
100
AcDbLine
 10
361.9995776519002
 20
335.2008699639281
 30
0.0000000000000000
 11
360.6846230767777
 21
335.9600593418454
 31
0.0000000000000000
  0
ARC
  5
476
100
AcDbEntity
  8
MAIN0
  6
PHANTOM
 62
3
100
AcDbCircle
 10
360.5600590094691
 20
324.2701035375823
 30
0.0000000000000000
 40
15.00000000000000
100
AcDbArc
 50
70.39891412180502
 51
84.49296850791762
  0
LINE
  5
477
100
AcDbEntity
  8
MAIN0
  6
PHANTOM
 62
3
100
AcDbLine
 10
361.9995776519004
 20
339.2008699639280
 30
0.0000000000000000
 11
366.8625839516218
 21
339.2008699639280
 31
0.0000000000000000
  0
LINE
  5
478
100
AcDbEntity
  8
MAIN0
  6
PHANTOM
 62
3
100
AcDbLine
 10
365.5921003650284
 20
338.4008699639281
 30
0.0000000000000000
 11
365.5921003650270
 21
336.0008699639286
 31
0.0000000000000000
  0
ARC
  5
479
100
AcDbEntity
  8
MAIN0
  6
PHANTOM
 62
3
100
AcDbCircle
 10
370.4995776530586
 20
323.7487866310948
 30
0.0000000000000000
 40
15.45208333283322
100
AcDbArc
 50
103.6135745821878
 51
108.5174368232250
  0
ARC
  5
47A
100
AcDbEntity
  8
MAIN0
  6
PHANTOM
 62
3
100
AcDbCircle
 10
370.4995776530586
 20
350.6529532967612
 30
0.0000000000000000
 40
15.45208333283322
100
AcDbArc
 50
251.4825631767750
 51
256.3864254178122
  0
ARC
  5
47B
100
AcDbEntity
  8
MAIN0
  6
PHANTOM
 62
3
100
AcDbCircle
 10
360.5600590094691
 20
350.1316363902738
 30
0.0000000000000000
 40
15.00000000000000
100
AcDbArc
 50
275.5070314920824
 51
289.6010858781950
  0
LEADER
  5
47C
100
AcDbEntity
  8
MAIN0
  6
CONTINUOUS
 62
3
100
AcDbLeader
  3
MAIN001
 73
     0
 74
     0
 75
     1
 40
3.099999904632568
 41
14.26100040769576
 76
     3
 10
80.86403501197961
 20
369.1115401406676
 30
0.0000000000000000
 10
90.75260655349604
 20
399.4076826532645
 30
0.0000000000000000
 10
92.67760649770609
 20
399.4076826532645
 30
0.0000000000000000
340
47D
213
0.0000000000000000
223
-0.5000000000000000
233
0.0000000000000000
1001
ACAD
1000
DSTYLE
1002
{
1070
   147
1040
0.0
1070
    77
1070
     1
1070
   173
1070
     1
1070
     6
1000
_OPEN
1070
     7
1000
_OPEN
1002
}
  0
MTEXT
  5
47D
102
{ACAD_REACTORS
330
47C
102
}
100
AcDbEntity
  8
MAIN0
  6
CONTINUOUS
 62
3
100
AcDbMText
 10
92.67860649770609
 20
403.0076825578971
 30
0.0000000000000000
 40
3.099999904632568
 41
0.0000000000000000
 71
     1
 72
     1
  1
{\H0.92x;{M12×1}}
 11
1.000000000000000
 21
0.0000000000000000
 31
0.0000000000000000
  7
KNJYOKO
  0
LEADER
  5
47E
100
AcDbEntity
  8
MAIN0
  6
CONTINUOUS
 62
3
100
AcDbLeader
  3
MAIN001
 73
     0
 74
     0
 75
     1
 40
3.099999904632568
 41
21.34674451001592
 76
     3
 10
381.2104960191359
 20
348.5591335326151
 30
0.0000000000000000
 10
356.9995776530565
 20
385.0008699639280
 30
0.0000000000000000
 10
358.9245775972665
 20
385.0008699639280
 30
0.0000000000000000
340
47F
213
-0.8467440331787657
223
-0.5000000000000000
233
0.0000000000000000
1001
ACAD
1000
DSTYLE
1002
{
1070
   147
1040
0.0
1070
    77
1070
     1
1070
   173
1070
     1
1070
     6
1000
_DOT
1070
     7
1000
_DOT
1002
}
  0
MTEXT
  5
47F
102
{ACAD_REACTORS
330
47E
102
}
100
AcDbEntity
  8
MAIN0
  6
CONTINUOUS
 62
3
100
AcDbMText
 10
359.7713216304453
 20
388.6008698685606
 30
0.0000000000000000
 40
3.099999904632568
 41
0.0000000000000000
 71
     1
 72
     1
  1
{\H0.93x;{近接スイッチ\P客様殿手配品}}
 11
1.000000000000000
 21
0.0000000000000000
 31
0.0000000000000000
  7
KNJYOKO
  0
LEADER
  5
480
100
AcDbEntity
  8
MAIN0
  6
CONTINUOUS
 62
3
100
AcDbLeader
  3
MAIN001
 73
     3
 74
     0
 75
     0
 76
     2
 10
367.4435013940218
 20
348.5591335326151
 30
0.0000000000000000
 10
356.9995776530565
 20
385.0008699639280
 30
0.0000000000000000
1001
ACAD
1000
DSTYLE
1002
{
1070
   173
1070
     1
1070
     6
1000
_DOT
1070
     7
1000
_DOT
1002
}
  0
LINE
  5
481
100
AcDbEntity
  8
MAIN0
  6
CONTINUOUS
 62
3
100
AcDbLine
 10
314.4995776530590
 20
267.9008699639439
 30
0.0000000000000000
 11
315.1923979761143
 21
267.5008699639280
 31
0.0000000000000000
  0
LINE
  5
482
100
AcDbEntity
  8
MAIN0
  6
CENTER
 62
3
100
AcDbLine
 10
316.0712440796653
 20
267.5008699639280
 30
0.0000000000000000
 11
313.6830910369019
 21
267.5008699639280
 31
0.0000000000000000
  0
LINE
  5
483
100
AcDbEntity
  8
MAIN0
  6
CONTINUOUS
 62
3
100
AcDbLine
 10
314.4995776530590
 20
267.1008699639123
 30
0.0000000000000000
 11
315.1923979761143
 21
267.5008699639281
 31
0.0000000000000000
  0
LINE
  5
484
100
AcDbEntity
  8
MAIN0
  6
CONTINUOUS
 62
3
100
AcDbLine
 10
314.4995776530590
 20
265.9008699639439
 30
0.0000000000000000
 11
315.1923979761143
 21
265.5008699639280
 31
0.0000000000000000
  0
LINE
  5
485
100
AcDbEntity
  8
MAIN0
  6
CENTER
 62
3
100
AcDbLine
 10
316.0712440796653
 20
265.5008699639280
 30
0.0000000000000000
 11
313.6830910369019
 21
265.5008699639280
 31
0.0000000000000000
  0
LINE
  5
486
100
AcDbEntity
  8
MAIN0
  6
CONTINUOUS
 62
3
100
AcDbLine
 10
314.4995776530590
 20
265.1008699639123
 30
0.0000000000000000
 11
315.1923979761143
 21
265.5008699639281
 31
0.0000000000000000
  0
LINE
  5
487
100
AcDbEntity
  8
MAIN0
  6
CONTINUOUS
 62
3
100
AcDbLine
 10
314.4995776530590
 20
219.1008699639123
 30
0.0000000000000000
 11
315.1923979761143
 21
219.5008699639281
 31
0.0000000000000000
  0
LINE
  5
488
100
AcDbEntity
  8
MAIN0
  6
CONTINUOUS
 62
3
100
AcDbLine
 10
314.4995776530590
 20
219.9008699639439
 30
0.0000000000000000
 11
315.1923979761143
 21
219.5008699639280
 31
0.0000000000000000
  0
LINE
  5
489
100
AcDbEntity
  8
MAIN0
  6
CENTER
 62
3
100
AcDbLine
 10
316.0712440796653
 20
219.5008699639281
 30
0.0000000000000000
 11
313.6830910369019
 21
219.5008699639281
 31
0.0000000000000000
  0
LINE
  5
48A
100
AcDbEntity
  8
MAIN0
  6
CONTINUOUS
 62
3
100
AcDbLine
 10
314.4995776530590
 20
217.1008699639123
 30
0.0000000000000000
 11
315.1923979761143
 21
217.5008699639281
 31
0.0000000000000000
  0
LINE
  5
48B
100
AcDbEntity
  8
MAIN0
  6
CONTINUOUS
 62
3
100
AcDbLine
 10
314.4995776530590
 20
217.9008699639439
 30
0.0000000000000000
 11
315.1923979761143
 21
217.5008699639280
 31
0.0000000000000000
  0
LINE
  5
48C
100
AcDbEntity
  8
MAIN0
  6
CENTER
 62
3
100
AcDbLine
 10
316.0712440796653
 20
217.5008699639281
 30
0.0000000000000000
 11
313.6830910369019
 21
217.5008699639281
 31
0.0000000000000000
  0
CIRCLE
  5
48D
100
AcDbEntity
  8
MAIN0
  6
CONTINUOUS
 62
3
100
AcDbCircle
 10
164.4995776530591
 20
242.5008699639281
 30
0.0000000000000000
 40
24.60000000000000
  0
CIRCLE
  5
48E
100
AcDbEntity
  8
MAIN0
  6
CENTER
 62
3
100
AcDbCircle
 10
164.4995776530591
 20
242.5008699639281
 30
0.0000000000000000
 40
25.00000000000000
  0
CIRCLE
  5
48F
100
AcDbEntity
  8
MAIN0
  6
CONTINUOUS
 62
3
100
AcDbCircle
 10
164.4995776530591
 20
242.5008699639281
 30
0.0000000000000000
 40
25.40000000000000
  0
CIRCLE
  5
490
100
AcDbEntity
  8
MAIN0
  6
CONTINUOUS
 62
3
100
AcDbCircle
 10
164.4995776530590
 20
242.5008699639281
 30
0.0000000000000000
 40
22.60000000000000
  0
CIRCLE
  5
491
100
AcDbEntity
  8
MAIN0
  6
CENTER
 62
3
100
AcDbCircle
 10
164.4995776530590
 20
242.5008699639281
 30
0.0000000000000000
 40
23.00000000000000
  0
CIRCLE
  5
492
100
AcDbEntity
  8
MAIN0
  6
CONTINUOUS
 62
3
100
AcDbCircle
 10
164.4995776530590
 20
242.5008699639281
 30
0.0000000000000000
 40
23.40000000000000
  0
LINE
  5
493
100
AcDbEntity
  8
MAIN0
  6
CONTINUOUS
 62
3
100
AcDbLine
 10
314.4995776530589
 20
265.9008699639439
 30
0.0000000000000000
 11
314.4995776530589
 21
267.1008699639122
 31
0.0000000000000000
  0
LINE
  5
494
100
AcDbEntity
  8
MAIN0
  6
CONTINUOUS
 62
3
100
AcDbLine
 10
314.4995776530589
 20
219.9008699639439
 30
0.0000000000000000
 11
314.4995776530589
 21
265.1008699639122
 31
0.0000000000000000
  0
LINE
  5
495
100
AcDbEntity
  8
MAIN0
  6
CONTINUOUS
 62
3
100
AcDbLine
 10
314.4995776530589
 20
217.9008699639439
 30
0.0000000000000000
 11
314.4995776530589
 21
219.1008699639122
 31
0.0000000000000000
  0
MTEXT
  5
496
100
AcDbEntity
  8
MAIN2
  6
CONTINUOUS
 62
3
100
AcDbMText
 10
278.1672320843387
 20
21.43809321257317
 30
0.0000000000000000
 40
3.000000000000000
 41
0.0000000000000000
 71
     1
 72
     1
  1
{\H0.62x;{Design the inner dia.(mark ※) of cylinder adapter should be max.\U+220595}}
 11
1.000000000000000
 21
0.0000000000000000
 31
0.0000000000000000
  7
KNJYOKO
  0
MTEXT
  5
497
100
AcDbEntity
  8
MAIN4
  6
CONTINUOUS
 62
3
100
AcDbMText
 10
365.0294690018342
 20
380.4399678624287
 30
0.0000000000000000
 40
3.000000000000000
 41
0.0000000000000000
 71
     1
 72
     1
  1
{\H0.63x;{PROXIMITY　SWITCHES\PCustomer arrangements}}
 11
1.000000000000000
 21
0.0000000000000000
 31
0.0000000000000000
  7
KNJYOKO
  0
LINE
  5
498
100
AcDbEntity
  8
MAIN0
  6
CONTINUOUS
 62
3
100
AcDbLine
 10
314.4995776530590
 20
269.9008699639439
 30
0.0000000000000000
 11
315.1923979761143
 21
269.5008699639280
 31
0.0000000000000000
  0
LINE
  5
499
100
AcDbEntity
  8
MAIN0
  6
CENTER
 62
3
100
AcDbLine
 10
316.0712440796653
 20
269.5008699639280
 30
0.0000000000000000
 11
313.6830910369019
 21
269.5008699639280
 31
0.0000000000000000
  0
LINE
  5
49A
100
AcDbEntity
  8
MAIN0
  6
CONTINUOUS
 62
3
100
AcDbLine
 10
314.4995776530590
 20
269.1008699639123
 30
0.0000000000000000
 11
315.1923979761143
 21
269.5008699639281
 31
0.0000000000000000
  0
LINE
  5
49B
100
AcDbEntity
  8
MAIN0
  6
CONTINUOUS
 62
3
100
AcDbLine
 10
314.4995776530590
 20
215.1008699639123
 30
0.0000000000000000
 11
315.1923979761143
 21
215.5008699639281
 31
0.0000000000000000
  0
LINE
  5
49C
100
AcDbEntity
  8
MAIN0
  6
CONTINUOUS
 62
3
100
AcDbLine
 10
314.4995776530590
 20
215.9008699639439
 30
0.0000000000000000
 11
315.1923979761143
 21
215.5008699639280
 31
0.0000000000000000
  0
LINE
  5
49D
100
AcDbEntity
  8
MAIN0
  6
CENTER
 62
3
100
AcDbLine
 10
316.0712440796653
 20
215.5008699639281
 30
0.0000000000000000
 11
313.6830910369019
 21
215.5008699639281
 31
0.0000000000000000
  0
LINE
  5
49E
100
AcDbEntity
  8
MAIN0
  6
CONTINUOUS
 62
3
100
AcDbLine
 10
314.4995776530589
 20
162.9008699639282
 30
0.0000000000000000
 11
314.4995776530589
 21
215.1008699639122
 31
0.0000000000000000
  0
LINE
  5
49F
100
AcDbEntity
  8
MAIN0
  6
CONTINUOUS
 62
3
100
AcDbLine
 10
314.4995776530589
 20
215.9008699639439
 30
0.0000000000000000
 11
314.4995776530589
 21
217.1008699639122
 31
0.0000000000000000
  0
LINE
  5
4A0
100
AcDbEntity
  8
MAIN0
  6
CONTINUOUS
 62
3
100
AcDbLine
 10
314.4995776530589
 20
267.9008699639439
 30
0.0000000000000000
 11
314.4995776530589
 21
269.1008699639122
 31
0.0000000000000000
  0
LINE
  5
4A1
100
AcDbEntity
  8
MAIN0
  6
CONTINUOUS
 62
3
100
AcDbLine
 10
314.4995776530589
 20
269.9008699639439
 30
0.0000000000000000
 11
314.4995776530589
 21
307.1008699639280
 31
0.0000000000000000
  0
ARC
  5
4A2
100
AcDbEntity
  8
MAIN1
  6
CONTINUOUS
 62
3
100
AcDbCircle
 10
164.4995776530590
 20
242.5008699639281
 30
0.0000000000000000
 40
27.40000000000000
100
AcDbArc
 50
164.6544111110772
 51
240.3455888885727
  0
ARC
  5
4A3
100
AcDbEntity
  8
MAIN1
  6
CONTINUOUS
 62
3
100
AcDbCircle
 10
164.4995776530590
 20
242.5008699639281
 30
0.0000000000000000
 40
26.60000000000000
100
AcDbArc
 50
162.4459951424970
 51
242.5540048571529
  0
CIRCLE
  5
4A4
100
AcDbEntity
  8
MAIN1
  6
CENTER
 62
3
100
AcDbCircle
 10
164.4995776530590
 20
242.5008699639281
 30
0.0000000000000000
 40
27.00000000000000
  0
CIRCLE
  5
4A5
100
AcDbEntity
  8
MAIN1
  6
CONTINUOUS
 62
3
100
AcDbCircle
 10
152.4450495334698
 20
213.3986646898594
 30
0.0000000000000000
 40
5.500000000000000
  0
CIRCLE
  5
4A6
100
AcDbEntity
  8
MAIN1
  6
CONTINUOUS
 62
3
100
AcDbCircle
 10
193.6017829271277
 20
230.4463418443388
 30
0.0000000000000000
 40
5.500000000000000
  0
ARC
  5
4A7
100
AcDbEntity
  8
MAIN1
  6
CONTINUOUS
 62
3
100
AcDbCircle
 10
164.4995776530590
 20
242.5008699639281
 30
0.0000000000000000
 40
27.40000000000000
100
AcDbArc
 50
254.6544111110771
 51
330.3455888885728
  0
ARC
  5
4A8
100
AcDbEntity
  8
MAIN1
  6
CONTINUOUS
 62
3
100
AcDbCircle
 10
164.4995776530590
 20
242.5008699639281
 30
0.0000000000000000
 40
26.60000000000000
100
AcDbArc
 50
252.4459951424969
 51
332.5540048571530
  0
ARC
  5
4A9
100
AcDbEntity
  8
MAIN1
  6
CONTINUOUS
 62
3
100
AcDbCircle
 10
164.4995776530590
 20
242.5008699639281
 30
0.0000000000000000
 40
26.60000000000000
100
AcDbArc
 50
342.4459951424969
 51
422.5540048571530
  0
ARC
  5
4AA
100
AcDbEntity
  8
MAIN1
  6
CONTINUOUS
 62
3
100
AcDbCircle
 10
164.4995776530590
 20
242.5008699639281
 30
0.0000000000000000
 40
27.40000000000000
100
AcDbArc
 50
344.6544111110771
 51
420.3455888885728
  0
CIRCLE
  5
4AB
100
AcDbEntity
  8
MAIN1
  6
CONTINUOUS
 62
3
100
AcDbCircle
 10
176.5541057726482
 20
271.6030752379967
 30
0.0000000000000000
 40
5.500000000000000
  0
ARC
  5
4AC
100
AcDbEntity
  8
MAIN1
  6
CONTINUOUS
 62
3
100
AcDbCircle
 10
164.4995776530590
 20
242.5008699639281
 30
0.0000000000000000
 40
27.40000000000000
100
AcDbArc
 50
74.65441111107718
 51
150.3455888885728
  0
ARC
  5
4AD
100
AcDbEntity
  8
MAIN1
  6
CONTINUOUS
 62
3
100
AcDbCircle
 10
164.4995776530590
 20
242.5008699639281
 30
0.0000000000000000
 40
26.60000000000000
100
AcDbArc
 50
72.44599514249708
 51
152.5540048571529
  0
CIRCLE
  5
4AE
100
AcDbEntity
  8
MAIN1
  6
CONTINUOUS
 62
3
100
AcDbCircle
 10
135.3973723789904
 20
254.5553980835173
 30
0.0000000000000000
 40
5.500000000000000
  0
INSERT
  5
4C3
100
AcDbEntity
  8
MAIN0
  6
CONTINUOUS
 62
3
100
AcDbBlockReference
  2
*X0
 10
0.0000000000000000
 20
0.0000000000000000
 30
0.0000000000000000
 50
0.0000000000000000
  0
INSERT
  5
4D8
100
AcDbEntity
  8
MAIN0
  6
CONTINUOUS
 62
3
100
AcDbBlockReference
  2
*X1
 10
0.0000000000000000
 20
0.0000000000000000
 30
0.0000000000000000
 50
0.0000000000000000
  0
INSERT
  5
4F0
100
AcDbEntity
  8
MAIN0
  6
CONTINUOUS
 62
3
100
AcDbBlockReference
  2
*X2
 10
0.0000000000000000
 20
0.0000000000000000
 30
0.0000000000000000
 50
0.0000000000000000
  0
INSERT
  5
508
100
AcDbEntity
  8
MAIN0
  6
CONTINUOUS
 62
3
100
AcDbBlockReference
  2
*X3
 10
0.0000000000000000
 20
0.0000000000000000
 30
0.0000000000000000
 50
0.0000000000000000
  0
LINE
  5
509
100
AcDbEntity
  8
MAIN0
  6
PHANTOM
 62
3
100
AcDbLine
 10
349.8995776530588
 20
290.0008699639279
 30
0.0000000000000000
 11
344.4995776530587
 21
290.0008699639279
 31
0.0000000000000000
  0
LINE
  5
50A
100
AcDbEntity
  8
MAIN0
  6
PHANTOM
 62
3
100
AcDbLine
 10
344.4995776530587
 20
290.0008699639279
 30
0.0000000000000000
 11
343.8995776530587
 21
288.9616394793866
 31
0.0000000000000000
  0
LINE
  5
50B
100
AcDbEntity
  8
MAIN0
  6
PHANTOM
 62
3
100
AcDbLine
 10
343.8995776530588
 20
288.9616394793866
 30
0.0000000000000000
 11
343.8995776530588
 21
281.0401004484693
 31
0.0000000000000000
  0
LINE
  5
50C
100
AcDbEntity
  8
MAIN0
  6
PHANTOM
 62
3
100
AcDbLine
 10
343.8995776530588
 20
281.0401004484693
 30
0.0000000000000000
 11
344.4995776530589
 21
280.0008699639279
 31
0.0000000000000000
  0
LINE
  5
50D
100
AcDbEntity
  8
MAIN0
  6
PHANTOM
 62
3
100
AcDbLine
 10
344.4995776530587
 20
280.0008699639279
 30
0.0000000000000000
 11
349.8995776530588
 21
280.0008699639279
 31
0.0000000000000000
  0
LINE
  5
50E
100
AcDbEntity
  8
MAIN0
  6
PHANTOM
 62
3
100
AcDbLine
 10
344.4995776530587
 20
290.0008699639279
 30
0.0000000000000000
 11
344.4995776530587
 21
280.0008699639279
 31
0.0000000000000000
  0
LINE
  5
50F
100
AcDbEntity
  8
MAIN0
  6
PHANTOM
 62
3
100
AcDbLine
 10
351.4995776530587
 20
280.0508699639279
 30
0.0000000000000000
 11
349.8995776530588
 21
280.0508699639279
 31
0.0000000000000000
  0
LINE
  5
510
100
AcDbEntity
  8
MAIN0
  6
PHANTOM
 62
3
100
AcDbLine
 10
349.8995776530588
 20
280.0008699639279
 30
0.0000000000000000
 11
349.8995776530588
 21
290.0008699639280
 31
0.0000000000000000
  0
LINE
  5
511
100
AcDbEntity
  8
MAIN0
  6
PHANTOM
 62
3
100
AcDbLine
 10
349.8995776530588
 20
289.9508699639279
 30
0.0000000000000000
 11
351.4995776530587
 21
289.9508699639279
 31
0.0000000000000000
  0
LINE
  5
512
100
AcDbEntity
  8
MAIN0
  6
PHANTOM
 62
3
100
AcDbLine
 10
351.4995776530587
 20
284.2508699639279
 30
0.0000000000000000
 11
349.8995776530588
 21
285.8508699639278
 31
0.0000000000000000
  0
LINE
  5
513
100
AcDbEntity
  8
MAIN0
  6
CONTINUOUS
 62
3
100
AcDbLine
 10
371.4995776530587
 20
280.0508699639279
 30
0.0000000000000000
 11
369.8995776530588
 21
280.0508699639279
 31
0.0000000000000000
  0
LINE
  5
514
100
AcDbEntity
  8
MAIN0
  6
CONTINUOUS
 62
3
100
AcDbLine
 10
369.8995776530588
 20
280.0008699639279
 30
0.0000000000000000
 11
369.8995776530588
 21
290.0008699639279
 31
0.0000000000000000
  0
LINE
  5
515
100
AcDbEntity
  8
MAIN0
  6
CONTINUOUS
 62
3
100
AcDbLine
 10
369.8995776530588
 20
289.9508699639279
 30
0.0000000000000000
 11
371.4995776530587
 21
289.9508699639279
 31
0.0000000000000000
  0
LINE
  5
516
100
AcDbEntity
  8
MAIN0
  6
CONTINUOUS
 62
3
100
AcDbLine
 10
371.4995776530587
 20
284.2508699639279
 30
0.0000000000000000
 11
369.8995776530588
 21
285.8508699639280
 31
0.0000000000000000
  0
CIRCLE
  5
517
100
AcDbEntity
  8
MAIN0
  6
CONTINUOUS
 62
3
100
AcDbCircle
 10
156.4995776530558
 20
313.5008699639280
 30
0.0000000000000000
 40
5.000000000000000
  0
LINE
  5
518
100
AcDbEntity
  8
MAIN0
  6
CONTINUOUS
 62
3
100
AcDbLine
 10
156.4995776530558
 20
316.3876213098761
 30
0.0000000000000000
 11
153.9995776530558
 21
314.9442456369020
 31
0.0000000000000000
  0
LINE
  5
519
100
AcDbEntity
  8
MAIN0
  6
CONTINUOUS
 62
3
100
AcDbLine
 10
153.9995776530558
 20
314.9442456369020
 30
0.0000000000000000
 11
153.9995776530558
 21
312.0574942909539
 31
0.0000000000000000
  0
LINE
  5
51A
100
AcDbEntity
  8
MAIN0
  6
CONTINUOUS
 62
3
100
AcDbLine
 10
153.9995776530558
 20
312.0574942909539
 30
0.0000000000000000
 11
156.4995776530558
 21
310.6141186179798
 31
0.0000000000000000
  0
LINE
  5
51B
100
AcDbEntity
  8
MAIN0
  6
CONTINUOUS
 62
3
100
AcDbLine
 10
156.4995776530557
 20
310.6141186179798
 30
0.0000000000000000
 11
158.9995776530558
 21
312.0574942909539
 31
0.0000000000000000
  0
LINE
  5
51C
100
AcDbEntity
  8
MAIN0
  6
CONTINUOUS
 62
3
100
AcDbLine
 10
158.9995776530558
 20
312.0574942909539
 30
0.0000000000000000
 11
158.9995776530558
 21
314.9442456369020
 31
0.0000000000000000
  0
LINE
  5
51D
100
AcDbEntity
  8
MAIN0
  6
CONTINUOUS
 62
3
100
AcDbLine
 10
158.9995776530558
 20
314.9442456369021
 30
0.0000000000000000
 11
156.4995776530558
 21
316.3876213098761
 31
0.0000000000000000
  0
LINE
  5
51E
100
AcDbEntity
  8
MAIN0
  6
CENTER
 62
3
100
AcDbLine
 10
179.6325917985516
 20
279.0351979533033
 30
0.0000000000000000
 11
173.6329059909960
 21
264.5506751067358
 31
0.0000000000000000
  0
LINE
  5
51F
100
AcDbEntity
  8
MAIN0
  6
CENTER
 62
3
100
AcDbLine
 10
127.5668244158893
 20
257.7989172506491
 30
0.0000000000000000
 11
143.0938687007653
 21
251.3674049242811
 31
0.0000000000000000
  0
CIRCLE
  5
520
100
AcDbEntity
  8
MAIN0
  6
CONTINUOUS
 62
3
100
AcDbCircle
 10
176.5541057726482
 20
271.6030752379968
 30
0.0000000000000000
 40
5.000000000000000
  0
LINE
  5
521
100
AcDbEntity
  8
MAIN0
  6
CONTINUOUS
 62
3
100
AcDbLine
 10
176.5541057726482
 20
274.4898265839448
 30
0.0000000000000000
 11
174.0541057726483
 21
273.0464509109708
 31
0.0000000000000000
  0
LINE
  5
522
100
AcDbEntity
  8
MAIN0
  6
CONTINUOUS
 62
3
100
AcDbLine
 10
174.0541057726482
 20
273.0464509109708
 30
0.0000000000000000
 11
174.0541057726482
 21
270.1596995650227
 31
0.0000000000000000
  0
LINE
  5
523
100
AcDbEntity
  8
MAIN0
  6
CONTINUOUS
 62
3
100
AcDbLine
 10
174.0541057726483
 20
270.1596995650227
 30
0.0000000000000000
 11
176.5541057726483
 21
268.7163238920487
 31
0.0000000000000000
  0
LINE
  5
524
100
AcDbEntity
  8
MAIN0
  6
CONTINUOUS
 62
3
100
AcDbLine
 10
176.5541057726483
 20
268.7163238920486
 30
0.0000000000000000
 11
179.0541057726483
 21
270.1596995650227
 31
0.0000000000000000
  0
LINE
  5
525
100
AcDbEntity
  8
MAIN0
  6
CONTINUOUS
 62
3
100
AcDbLine
 10
179.0541057726482
 20
270.1596995650227
 30
0.0000000000000000
 11
179.0541057726482
 21
273.0464509109708
 31
0.0000000000000000
  0
LINE
  5
526
100
AcDbEntity
  8
MAIN0
  6
CONTINUOUS
 62
3
100
AcDbLine
 10
179.0541057726483
 20
273.0464509109708
 30
0.0000000000000000
 11
176.5541057726483
 21
274.4898265839449
 31
0.0000000000000000
  0
CIRCLE
  5
527
100
AcDbEntity
  8
MAIN0
  6
CONTINUOUS
 62
3
100
AcDbCircle
 10
135.3973723789903
 20
254.5553980835173
 30
0.0000000000000000
 40
5.000000000000000
  0
LINE
  5
528
100
AcDbEntity
  8
MAIN0
  6
CONTINUOUS
 62
3
100
AcDbLine
 10
135.3973723789903
 20
257.4421494294654
 30
0.0000000000000000
 11
132.8973723789903
 21
255.9987737564914
 31
0.0000000000000000
  0
LINE
  5
529
100
AcDbEntity
  8
MAIN0
  6
CONTINUOUS
 62
3
100
AcDbLine
 10
132.8973723789903
 20
255.9987737564914
 30
0.0000000000000000
 11
132.8973723789903
 21
253.1120224105433
 31
0.0000000000000000
  0
LINE
  5
52A
100
AcDbEntity
  8
MAIN0
  6
CONTINUOUS
 62
3
100
AcDbLine
 10
132.8973723789903
 20
253.1120224105432
 30
0.0000000000000000
 11
135.3973723789903
 21
251.6686467375692
 31
0.0000000000000000
  0
LINE
  5
52B
100
AcDbEntity
  8
MAIN0
  6
CONTINUOUS
 62
3
100
AcDbLine
 10
135.3973723789903
 20
251.6686467375692
 30
0.0000000000000000
 11
137.8973723789903
 21
253.1120224105432
 31
0.0000000000000000
  0
LINE
  5
52C
100
AcDbEntity
  8
MAIN0
  6
CONTINUOUS
 62
3
100
AcDbLine
 10
137.8973723789903
 20
253.1120224105433
 30
0.0000000000000000
 11
137.8973723789903
 21
255.9987737564914
 31
0.0000000000000000
  0
LINE
  5
52D
100
AcDbEntity
  8
MAIN0
  6
CONTINUOUS
 62
3
100
AcDbLine
 10
137.8973723789903
 20
255.9987737564914
 30
0.0000000000000000
 11
135.3973723789903
 21
257.4421494294654
 31
0.0000000000000000
  0
ARC
  5
52E
100
AcDbEntity
  8
MAIN0
  6
CONTINUOUS
 62
3
100
AcDbCircle
 10
134.8951414045102
 20
166.8647684355868
 30
0.0000000000000000
 40
3.300000000000007
100
AcDbArc
 50
160.0000000000293
 51
250.0000000000291
  0
LINE
  5
52F
100
AcDbEntity
  8
MAIN0
  6
CONTINUOUS
 62
3
100
AcDbLine
 10
133.7664749315371
 20
163.7637827869927
 30
0.0000000000000000
 11
137.4312761526028
 21
162.4299042280245
 31
0.0000000000000000
  0
ARC
  5
530
100
AcDbEntity
  8
MAIN0
  6
CONTINUOUS
 62
3
100
AcDbCircle
 10
138.5599426255759
 20
165.5308898766186
 30
0.0000000000000000
 40
3.300000000000004
100
AcDbArc
 50
250.0000000000291
 51
340.0000000000293
  0
ARC
  5
531
100
AcDbEntity
  8
MAIN0
  6
CONTINUOUS
 62
3
100
AcDbCircle
 10
223.2955065090042
 20
298.5390823726786
 30
0.0000000000000000
 40
3.299999999999994
100
AcDbArc
 50
315.0000000000298
 51
405.0000000000298
  0
LINE
  5
532
100
AcDbEntity
  8
MAIN0
  6
CONTINUOUS
 62
3
100
AcDbLine
 10
225.6289588869186
 20
300.8725347505955
 30
0.0000000000000000
 11
222.8712424402896
 21
303.6302511972216
 31
0.0000000000000000
  0
ARC
  5
533
100
AcDbEntity
  8
MAIN0
  6
CONTINUOUS
 62
3
100
AcDbCircle
 10
220.5377900623752
 20
301.2967988193047
 30
0.0000000000000000
 40
3.300000000000003
100
AcDbArc
 50
45.00000000002975
 51
135.0000000000297
  0
CIRCLE
  5
534
100
AcDbEntity
  8
MAIN0
  6
CONTINUOUS
 62
3
100
AcDbCircle
 10
172.4995776530558
 20
313.5008699639280
 30
0.0000000000000000
 40
5.000000000000000
  0
LINE
  5
535
100
AcDbEntity
  8
MAIN0
  6
CONTINUOUS
 62
3
100
AcDbLine
 10
172.4995776530557
 20
316.3876213098761
 30
0.0000000000000000
 11
169.9995776530557
 21
314.9442456369020
 31
0.0000000000000000
  0
LINE
  5
536
100
AcDbEntity
  8
MAIN0
  6
CONTINUOUS
 62
3
100
AcDbLine
 10
169.9995776530558
 20
314.9442456369020
 30
0.0000000000000000
 11
169.9995776530558
 21
312.0574942909539
 31
0.0000000000000000
  0
LINE
  5
537
100
AcDbEntity
  8
MAIN0
  6
CONTINUOUS
 62
3
100
AcDbLine
 10
169.9995776530557
 20
312.0574942909539
 30
0.0000000000000000
 11
172.4995776530557
 21
310.6141186179798
 31
0.0000000000000000
  0
LINE
  5
538
100
AcDbEntity
  8
MAIN0
  6
CONTINUOUS
 62
3
100
AcDbLine
 10
172.4995776530557
 20
310.6141186179799
 30
0.0000000000000000
 11
174.9995776530557
 21
312.0574942909540
 31
0.0000000000000000
  0
LINE
  5
539
100
AcDbEntity
  8
MAIN0
  6
CONTINUOUS
 62
3
100
AcDbLine
 10
174.9995776530558
 20
312.0574942909539
 30
0.0000000000000000
 11
174.9995776530558
 21
314.9442456369020
 31
0.0000000000000000
  0
LINE
  5
53A
100
AcDbEntity
  8
MAIN0
  6
CONTINUOUS
 62
3
100
AcDbLine
 10
174.9995776530557
 20
314.9442456369021
 30
0.0000000000000000
 11
172.4995776530557
 21
316.3876213098761
 31
0.0000000000000000
  0
LINE
  5
53B
100
AcDbEntity
  8
MAIN0
  6
CONTINUOUS
 62
3
100
AcDbLine
 10
216.3658600533735
 20
303.2059871285062
 30
0.0000000000000000
 11
217.4972309032714
 21
304.3373579784053
 31
0.0000000000000000
  0
LINE
  5
53C
100
AcDbEntity
  8
MAIN0
  6
CONTINUOUS
 62
3
100
AcDbLine
 10
217.4972309032714
 20
304.3373579784052
 30
0.0000000000000000
 11
226.3360656681080
 21
295.4985232135780
 31
0.0000000000000000
  0
LINE
  5
53D
100
AcDbEntity
  8
MAIN0
  6
CONTINUOUS
 62
3
100
AcDbLine
 10
226.3360656681080
 20
295.4985232135781
 30
0.0000000000000000
 11
225.2046948182101
 21
294.3671523636791
 31
0.0000000000000000
  0
CIRCLE
  5
53E
100
AcDbEntity
  8
MAIN0
  6
HIDDEN
 62
3
100
AcDbCircle
 10
119.2447436568636
 20
287.7557039596109
 30
0.0000000000000000
 40
6.500000000000000
  0
LINE
  5
53F
100
AcDbEntity
  8
MAIN0
  6
HIDDEN
 62
3
100
AcDbLine
 10
118.3481681846972
 20
291.1017691745607
 30
0.0000000000000000
 11
115.8986784419140
 21
288.6522794317775
 31
0.0000000000000000
  0
LINE
  5
540
100
AcDbEntity
  8
MAIN0
  6
HIDDEN
 62
3
100
AcDbLine
 10
115.8986784419139
 20
288.6522794317775
 30
0.0000000000000000
 11
116.7952539140820
 21
285.3062142168263
 31
0.0000000000000000
  0
LINE
  5
541
100
AcDbEntity
  8
MAIN0
  6
HIDDEN
 62
3
100
AcDbLine
 10
116.7952539140820
 20
285.3062142168263
 30
0.0000000000000000
 11
120.1413191290332
 21
284.4096387446583
 31
0.0000000000000000
  0
LINE
  5
542
100
AcDbEntity
  8
MAIN0
  6
HIDDEN
 62
3
100
AcDbLine
 10
120.1413191290333
 20
284.4096387446583
 30
0.0000000000000000
 11
122.5908088718165
 21
286.8591284874415
 31
0.0000000000000000
  0
LINE
  5
543
100
AcDbEntity
  8
MAIN0
  6
HIDDEN
 62
3
100
AcDbLine
 10
122.5908088718164
 20
286.8591284874414
 30
0.0000000000000000
 11
121.6942333996483
 21
290.2051937023927
 31
0.0000000000000000
  0
LINE
  5
544
100
AcDbEntity
  8
MAIN0
  6
HIDDEN
 62
3
100
AcDbLine
 10
121.6942333996484
 20
290.2051937023927
 30
0.0000000000000000
 11
118.3481681846972
 21
291.1017691745607
 31
0.0000000000000000
  0
MTEXT
  5
545
100
AcDbEntity
  8
MAIN0
  6
CONTINUOUS
 62
3
100
AcDbMText
 10
417.2541930446493
 20
364.1782479859871
 30
0.0000000000000000
 40
3.099999904632568
 41
0.0000000000000000
 71
     1
 72
     1
  1
{\H0.70x;{MAX 72}}
 11
1.000000000000000
 21
0.0000000000000000
 31
0.0000000000000000
  7
STANDARD
  0
LINE
  5
546
100
AcDbEntity
  8
MAIN0
  6
CENTER
 62
3
100
AcDbLine
 10
115.6637280734703
 20
219.7283393120852
 30
0.0000000000000000
 11
97.05280652753078
 21
211.0499240698943
 31
0.0000000000000000
  0
CIRCLE
  5
547
100
AcDbEntity
  8
MAIN0
  6
CONTINUOUS
 62
3
100
AcDbCircle
 10
106.4958792828566
 20
215.4533012122162
 30
0.0000000000000000
 40
7.000000000000000
  0
LINE
  5
548
100
AcDbEntity
  8
MAIN0
  6
CENTER
 62
3
100
AcDbLine
 10
213.3354272326477
 20
265.2734006157710
 30
0.0000000000000000
 11
231.9463487785872
 21
273.9518158579618
 31
0.0000000000000000
  0
CIRCLE
  5
549
100
AcDbEntity
  8
MAIN0
  6
CONTINUOUS
 62
3
100
AcDbCircle
 10
222.5032760232614
 20
269.5484387156399
 30
0.0000000000000000
 40
7.000000000000000
  0
ARC
  5
54A
100
AcDbEntity
  8
MAIN0
  6
CONTINUOUS
 62
3
100
AcDbCircle
 10
226.3188305354354
 20
259.0652888508299
 30
0.0000000000000000
 40
6.500000000000000
100
AcDbArc
 50
74.25312476246542
 51
145.7468752378381
  0
ARC
  5
54B
100
AcDbEntity
  8
MAIN0
  6
HIDDEN
 62
3
100
AcDbCircle
 10
226.3188305354354
 20
259.0652888508299
 30
0.0000000000000000
 40
6.500000000000000
100
AcDbArc
 50
145.7468752378381
 51
434.2531247624654
  0
LINE
  5
54C
100
AcDbEntity
  8
WAKU0
  6
CONTINUOUS
 62
3
100
AcDbLine
 10
412.0000000000000
 20
51.00000000000000
 30
0.0000000000000000
 11
582.0000000000000
 21
51.00000000000000
 31
0.0000000000000000
  0
LINE
  5
54D
100
AcDbEntity
  8
WAKU0
  6
CONTINUOUS
 62
3
100
AcDbLine
 10
412.0000000000000
 20
51.00000000000000
 30
0.0000000000000000
 11
412.0000000000000
 21
12.00000000000000
 31
0.0000000000000000
  0
LINE
  5
54E
100
AcDbEntity
  8
WAKU0
  6
CONTINUOUS
 62
3
100
AcDbLine
 10
484.0000000000000
 20
51.00000000000000
 30
0.0000000000000000
 11
484.0000000000000
 21
12.00000000000000
 31
0.0000000000000000
  0
LINE
  5
54F
100
AcDbEntity
  8
WAKU0
  6
CONTINUOUS
 62
3
100
AcDbLine
 10
504.0000000000000
 20
51.00000000000000
 30
0.0000000000000000
 11
504.0000000000000
 21
12.00000000000000
 31
0.0000000000000000
  0
LINE
  5
550
100
AcDbEntity
  8
WAKU0
  6
CONTINUOUS
 62
3
100
AcDbLine
 10
516.0000000000000
 20
51.00000000000000
 30
0.0000000000000000
 11
516.0000000000000
 21
12.00000000000000
 31
0.0000000000000000
  0
LINE
  5
551
100
AcDbEntity
  8
WAKU0
  6
CONTINUOUS
 62
3
100
AcDbLine
 10
516.0000000000000
 20
37.00000000000000
 30
0.0000000000000000
 11
582.0000000000000
 21
37.00000000000000
 31
0.0000000000000000
  0
LINE
  5
552
100
AcDbEntity
  8
WAKU0
  6
CONTINUOUS
 62
3
100
AcDbLine
 10
504.0000000000000
 20
23.00000000000000
 30
0.0000000000000000
 11
582.0000000000000
 21
23.00000000000000
 31
0.0000000000000000
  0
LINE
  5
553
100
AcDbEntity
  8
WAKU0
  6
CONTINUOUS
 62
3
100
AcDbLine
 10
547.0000000000000
 20
51.00000000000000
 30
0.0000000000000000
 11
547.0000000000000
 21
44.00000000000000
 31
0.0000000000000000
  0
LINE
  5
554
100
AcDbEntity
  8
WAKU0
  6
CONTINUOUS
 62
3
100
AcDbLine
 10
559.0000000000000
 20
51.00000000000000
 30
0.0000000000000000
 11
559.0000000000000
 21
44.00000000000000
 31
0.0000000000000000
  0
LINE
  5
555
100
AcDbEntity
  8
WAKU0
  6
CONTINUOUS
 62
3
100
AcDbLine
 10
484.0000000000000
 20
31.50000000000000
 30
0.0000000000000000
 11
504.0000000000000
 21
31.50000000000000
 31
0.0000000000000000
  0
LINE
  5
556
100
AcDbEntity
  8
WAKU0
  6
CONTINUOUS
 62
3
100
AcDbLine
 10
504.0000000000000
 20
44.00000000000000
 30
0.0000000000000000
 11
582.0000000000000
 21
44.00000000000000
 31
0.0000000000000000
  0
LINE
  5
557
100
AcDbEntity
  8
WAKU0
  6
CONTINUOUS
 62
3
100
AcDbLine
 10
412.0000000000000
 20
37.00000000000000
 30
0.0000000000000000
 11
484.0000000000000
 21
37.00000000000000
 31
0.0000000000000000
  0
LINE
  5
558
100
AcDbEntity
  8
WAKU0
  6
CONTINUOUS
 62
3
100
AcDbLine
 10
412.0000000000000
 20
23.00000000000000
 30
0.0000000000000000
 11
484.0000000000000
 21
23.00000000000000
 31
0.0000000000000000
  0
LINE
  5
559
100
AcDbEntity
  8
WAKU0
  6
CONTINUOUS
 62
3
100
AcDbLine
 10
460.0000000000000
 20
37.00000000000000
 30
0.0000000000000000
 11
460.0000000000000
 21
12.00000000000000
 31
0.0000000000000000
  0
LINE
  5
55A
100
AcDbEntity
  8
WAKU0
  6
CONTINUOUS
 62
3
100
AcDbLine
 10
436.0000000000000
 20
37.00000000000000
 30
0.0000000000000000
 11
436.0000000000000
 21
23.00000000000000
 31
0.0000000000000000
  0
LINE
  5
55B
100
AcDbEntity
  8
WAKU0
  6
CONTINUOUS
 62
3
100
AcDbLine
 10
472.0000000000000
 20
26.00000000000000
 30
0.0000000000000000
 11
472.0000000000000
 21
23.00000000000000
 31
0.0000000000000000
  0
LINE
  5
55C
100
AcDbEntity
  8
WAKU0
  6
CONTINUOUS
 62
3
100
AcDbLine
 10
448.0000000000000
 20
26.00000000000000
 30
0.0000000000000000
 11
448.0000000000000
 21
23.00000000000000
 31
0.0000000000000000
  0
LINE
  5
55D
100
AcDbEntity
  8
WAKU0
  6
CONTINUOUS
 62
3
100
AcDbLine
 10
424.0000000000000
 20
26.00000000000000
 30
0.0000000000000000
 11
424.0000000000000
 21
23.00000000000000
 31
0.0000000000000000
  0
LINE
  5
55E
100
AcDbEntity
  8
WAKU0
  6
CONTINUOUS
 62
3
100
AcDbLine
 10
430.0000000000000
 20
51.00000000000000
 30
0.0000000000000000
 11
430.0000000000000
 21
37.00000000000000
 31
0.0000000000000000
  0
LINE
  5
55F
100
AcDbEntity
  8
WAKU0
  6
CONTINUOUS
 62
3
100
AcDbLine
 10
412.0000000000000
 20
45.00000000000000
 30
0.0000000000000000
 11
484.0000000000000
 21
45.00000000000000
 31
0.0000000000000000
  0
LINE
  5
560
100
AcDbEntity
  8
WAKU0
  6
HIDDEN
 62
3
100
AcDbLine
 10
532.5000000000000
 20
23.00000000000000
 30
0.0000000000000000
 11
532.5000000000000
 21
12.00000000000000
 31
0.0000000000000000
  0
LINE
  5
561
100
AcDbEntity
  8
WAKU0
  6
HIDDEN
 62
3
100
AcDbLine
 10
544.9000000000000
 20
23.00000000000000
 30
0.0000000000000000
 11
544.9000000000000
 21
12.00000000000000
 31
0.0000000000000000
  0
MTEXT
  5
562
100
AcDbEntity
  8
WAKU0
  6
CONTINUOUS
 62
3
100
AcDbMText
 10
516.4820000231266
 20
49.04999995231628
 30
0.0000000000000000
 40
3.099999904632568
 41
0.0000000000000000
 71
     1
 72
     1
  1
{\H0.93x;{M1120HC21D}}
 11
1.000000000000000
 21
0.0000000000000000
 31
0.0000000000000000
  7
STANDARD
  0
MTEXT
  5
563
100
AcDbEntity
  8
WAKU0
  6
CONTINUOUS
 62
3
100
AcDbMText
 10
522.7500004470348
 20
43.50000000000000
 30
0.0000000000000000
 40
3.000000000000000
 41
0.0000000000000000
 71
     1
 72
     1
  1
{\H0.59x;{回転油圧シリンダ\PＲＯＴＡＲＹ　ＨＹＤＲＡＵＬＩＣ　ＣＹＬＩＮＤＥＲ}}
 11
1.000000000000000
 21
0.0000000000000000
 31
0.0000000000000000
  7
KNJYOKO
  0
MTEXT
  5
564
100
AcDbEntity
  8
WAKU0
  6
CONTINUOUS
 62
3
100
AcDbMText
 10
519.1500010974705
 20
34.23333326975504
 30
0.0000000000000000
 40
3.099999904632568
 41
0.0000000000000000
 71
     1
 72
     1
  1
{\H0.71x;{Ｍ１１２０ＨＣ２１Ｄ　ガイケイ\PＭ１１２０ＨＣ２１Ｄ　ＯＵＴＳＩＤＥ　ＶＩＥＷ}}
 11
1.000000000000000
 21
0.0000000000000000
 31
0.0000000000000000
  7
KNJYOKO
  0
MTEXT
  5
565
100
AcDbEntity
  8
WAKU0
  6
CONTINUOUS
 62
3
100
AcDbMText
 10
490.0049998760223
 20
39.29999995231628
 30
0.0000000000000000
 40
3.099999904632568
 41
0.0000000000000000
 71
     1
 72
     1
  1
{\H0.90x;{1:1}}
 11
1.000000000000000
 21
0.0000000000000000
 31
0.0000000000000000
  7
STANDARD
  0
MTEXT
  5
566
100
AcDbEntity
  8
WAKU0
  6
CONTINUOUS
 62
3
100
AcDbMText
 10
546.4000001549721
 20
20.15000009536743
 30
0.0000000000000000
 40
5.300000190734863
 41
0.0000000000000000
 71
     1
 72
     1
  1
{\H0.90x;{9593}}
 11
1.000000000000000
 21
0.0000000000000000
 31
0.0000000000000000
  7
STANDARD
  0
MTEXT
  5
567
100
AcDbEntity
  8
WAKU0
  6
CONTINUOUS
 62
3
100
AcDbMText
 10
534.3000000834466
 20
20.15000009536743
 30
0.0000000000000000
 40
5.300000190734863
 41
0.0000000000000000
 71
     1
 72
     1
  1
{\H0.87x;{26}}
 11
1.000000000000000
 21
0.0000000000000000
 31
0.0000000000000000
  7
STANDARD
  0
MTEXT
  5
568
100
AcDbEntity
  8
WAKU0
  6
CONTINUOUS
 62
3
100
AcDbMText
 10
517.5000001192093
 20
20.15000009536743
 30
0.0000000000000000
 40
5.300000190734863
 41
0.0000000000000000
 71
     1
 72
     1
  1
{\H0.89x;{61R}}
 11
1.000000000000000
 21
0.0000000000000000
 31
0.0000000000000000
  7
STANDARD
  0
MTEXT
  5
569
100
AcDbEntity
  8
WAKU0
  6
CONTINUOUS
 62
3
100
AcDbMText
 10
572.0000000476837
 20
20.15000009536743
 30
0.0000000000000000
 40
5.300000190734863
 41
0.0000000000000000
 71
     1
 72
     1
  1
{\H0.81x;{0}}
 11
1.000000000000000
 21
0.0000000000000000
 31
0.0000000000000000
  7
STANDARD
  0
MTEXT
  5
56A
100
AcDbEntity
  8
WAKU0
  6
CONTINUOUS
 62
3
100
AcDbMText
 10
572.0000000819564
 20
44.84999990463257
 30
0.0000000000000000
 40
5.300000190734863
 41
0.0000000000000000
 71
     7
 72
     1
  1
{\H0.81x;{ }}
 11
1.000000000000000
 21
0.0000000000000000
 31
0.0000000000000000
  7
STANDARD
  0
MTEXT
  5
56B
100
AcDbEntity
  8
WAKU0
  6
CONTINUOUS
 62
3
100
AcDbMText
 10
461.3850002884865
 20
33.00000000000000
 30
0.0000000000000000
 40
3.000000000000000
 41
0.0000000000000000
 71
     7
 72
     1
  1
{\H0.93x;{DRAWN BY}}
 11
1.000000000000000
 21
0.0000000000000000
 31
0.0000000000000000
  7
STANDARD
  0
MTEXT
  5
56C
100
AcDbEntity
  8
WAKU0
  6
CONTINUOUS
 62
3
100
AcDbMText
 10
441.2149997949600
 20
32.95000004768372
 30
0.0000000000000000
 40
3.099999904632568
 41
0.0000000000000000
 71
     7
 72
     1
  1
{\H0.92x;{CHIEF}}
 11
1.000000000000000
 21
0.0000000000000000
 31
0.0000000000000000
  7
STANDARD
  0
MTEXT
  5
56D
100
AcDbEntity
  8
WAKU0
  6
CONTINUOUS
 62
3
100
AcDbMText
 10
414.4249997138977
 20
32.95000004768372
 30
0.0000000000000000
 40
3.099999904632568
 41
0.0000000000000000
 71
     7
 72
     1
  1
{\H0.92x;{MANAGER}}
 11
1.000000000000000
 21
0.0000000000000000
 31
0.0000000000000000
  7
STANDARD
  0
MTEXT
  5
56E
100
AcDbEntity
  8
WAKU0
  6
CONTINUOUS
 62
3
100
AcDbMText
 10
413.0850002169609
 20
46.50000000000000
 30
0.0000000000000000
 40
3.000000000000000
 41
0.0000000000000000
 71
     7
 72
     1
  1
{\H0.92x;{CAREER}}
 11
1.000000000000000
 21
0.0000000000000000
 31
0.0000000000000000
  7
STANDARD
  0
MTEXT
  5
56F
100
AcDbEntity
  8
WAKU0
  6
CONTINUOUS
 62
3
100
AcDbMText
 10
466.6099998354912
 20
18.95000004768372
 30
0.0000000000000000
 40
3.099999904632568
 41
0.0000000000000000
 71
     7
 72
     1
  1
{\H0.91x;{DATE}}
 11
1.000000000000000
 21
0.0000000000000000
 31
0.0000000000000000
  7
STANDARD
  0
MTEXT
  5
570
100
AcDbEntity
  8
WAKU0
  6
CONTINUOUS
 62
3
100
AcDbMText
 10
485.9000002145767
 20
26.50000000000000
 30
0.0000000000000000
 40
3.000000000000000
 41
0.0000000000000000
 71
     7
 72
     1
  1
{\H0.63x;{3RD ANGLE}}
 11
1.000000000000000
 21
0.0000000000000000
 31
0.0000000000000000
  7
STANDARD
  0
MTEXT
  5
571
100
AcDbEntity
  8
WAKU0
  6
CONTINUOUS
 62
3
100
AcDbMText
 10
487.2149997949600
 20
45.95000004768372
 30
0.0000000000000000
 40
3.099999904632568
 41
0.0000000000000000
 71
     7
 72
     1
  1
{\H0.92x;{SCALE}}
 11
1.000000000000000
 21
0.0000000000000000
 31
0.0000000000000000
  7
STANDARD
  0
MTEXT
  5
572
100
AcDbEntity
  8
WAKU0
  6
CONTINUOUS
 62
3
100
AcDbMText
 10
577.7000000476837
 20
46.00000000000000
 30
0.0000000000000000
 40
3.000000000000000
 41
0.0000000000000000
 71
     7
 72
     1
  1
{\H0.63x;{kg}}
 11
1.000000000000000
 21
0.0000000000000000
 31
0.0000000000000000
  7
STANDARD
  0
MTEXT
  5
573
100
AcDbEntity
  8
WAKU0
  6
CONTINUOUS
 62
3
100
AcDbMText
 10
547.6000001430512
 20
46.00000000000000
 30
0.0000000000000000
 40
3.000000000000000
 41
0.0000000000000000
 71
     7
 72
     1
  1
{\H0.63x;{WEIGHT}}
 11
1.000000000000000
 21
0.0000000000000000
 31
0.0000000000000000
  7
STANDARD
  0
MTEXT
  5
574
100
AcDbEntity
  8
WAKU0
  6
CONTINUOUS
 62
3
100
AcDbMText
 10
506.0049998760223
 20
18.13333336512248
 30
0.0000000000000000
 40
3.099999904632568
 41
0.0000000000000000
 71
     7
 72
     1
  1
{\H0.90x;{DRW\PNO.}}
 11
1.000000000000000
 21
0.0000000000000000
 31
0.0000000000000000
  7
STANDARD
  0
MTEXT
  5
575
100
AcDbEntity
  8
WAKU0
  6
CONTINUOUS
 62
3
100
AcDbMText
 10
504.6099998354912
 20
31.95000004768372
 30
0.0000000000000000
 40
3.099999904632568
 41
0.0000000000000000
 71
     7
 72
     1
  1
{\H0.91x;{NAME}}
 11
1.000000000000000
 21
0.0000000000000000
 31
0.0000000000000000
  7
STANDARD
  0
MTEXT
  5
576
100
AcDbEntity
  8
WAKU0
  6
CONTINUOUS
 62
3
100
AcDbMText
 10
504.6099998354912
 20
45.95000004768372
 30
0.0000000000000000
 40
3.099999904632568
 41
0.0000000000000000
 71
     7
 72
     1
  1
{\H0.91x;{TYPE}}
 11
1.000000000000000
 21
0.0000000000000000
 31
0.0000000000000000
  7
STANDARD
  0
LINE
  5
577
100
AcDbEntity
  8
WAKU0
  6
HIDDEN
 62
3
100
AcDbLine
 10
579.1599564743885
 20
13.84999990463257
 30
0.0000000000000000
 11
568.9400436209789
 21
13.84999990463257
 31
0.0000000000000000
  0
LINE
  5
578
100
AcDbEntity
  8
WAKU0
  6
HIDDEN
 62
3
100
AcDbLine
 10
579.1599564743885
 20
13.84999990463250
 30
0.0000000000000000
 11
574.0500000476851
 21
22.70070406014901
 31
0.0000000000000000
  0
LINE
  5
579
100
AcDbEntity
  8
WAKU0
  6
HIDDEN
 62
3
100
AcDbLine
 10
574.0500000476851
 20
22.70070406014902
 30
0.0000000000000000
 11
568.9400436209789
 21
13.84999990463248
 31
0.0000000000000000
  0
MTEXT
  5
57A
100
AcDbEntity
  8
WAKU0
  6
CONTINUOUS
 62
3
100
AcDbMText
 10
419.0000009614873
 20
20.63471521698214
 30
0.0000000000000000
 40
3.140094041824341
 41
0.0000000000000000
 71
     1
 72
     1
  1
{\H0.83x;{Ｋｉｔａｇａｗａ\PＣｏｒｐｏｒａｔｉｏｎ}}
 11
1.000000000000000
 21
0.0000000000000000
 31
0.0000000000000000
  7
KNJYOKO
  0
LINE
  5
57B
100
AcDbEntity
  8
WAKU0
  6
CONTINUOUS
 62
3
100
AcDbLine
 10
502.4713877753800
 20
15.78041421262812
 30
0.0000000000000000
 11
502.4713877753800
 21
21.78041421262815
 31
0.0000000000000000
  0
LINE
  5
57C
100
AcDbEntity
  8
WAKU0
  6
CONTINUOUS
 62
3
100
AcDbLine
 10
495.9336941228225
 20
17.28041421262811
 30
0.0000000000000000
 11
495.9336941228225
 21
20.28041421262824
 31
0.0000000000000000
  0
LINE
  5
57D
100
AcDbEntity
  8
WAKU0
  6
CENTER
 62
12
100
AcDbLine
 10
485.4321805514995
 20
18.78041421262813
 30
0.0000000000000000
 11
503.2765788964694
 21
18.78041421262813
 31
0.0000000000000000
  0
LINE
  5
57E
100
AcDbEntity
  8
WAKU0
  6
CENTER
 62
12
100
AcDbLine
 10
489.4474565857986
 20
14.55921662918448
 30
0.0000000000000000
 11
489.4474565857986
 21
22.89865102149943
 31
0.0000000000000000
  0
LINE
  5
57F
100
AcDbEntity
  8
WAKU0
  6
CONTINUOUS
 62
3
100
AcDbLine
 10
495.9336941228225
 20
20.28041421262797
 30
0.0000000000000000
 11
502.4713877753800
 21
21.78041421262795
 31
0.0000000000000000
  0
LINE
  5
580
100
AcDbEntity
  8
WAKU0
  6
CONTINUOUS
 62
3
100
AcDbLine
 10
495.9336941228225
 20
17.28041421262811
 30
0.0000000000000000
 11
502.4713877753799
 21
15.78041421262812
 31
0.0000000000000000
  0
CIRCLE
  5
581
100
AcDbEntity
  8
WAKU0
  6
CONTINUOUS
 62
3
100
AcDbCircle
 10
489.4474565857986
 20
18.78041421262813
 30
0.0000000000000000
 40
1.499999999999972
  0
CIRCLE
  5
582
100
AcDbEntity
  8
WAKU0
  6
CONTINUOUS
 62
3
100
AcDbCircle
 10
489.4474565857986
 20
18.78041421262813
 30
0.0000000000000000
 40
2.999999999999979
  0
ENDSEC
  0
SECTION
  2
OBJECTS
  0
DICTIONARY
  5
5D6
100
AcDbDictionary
  3
ACAD_GROUP
350
5D7
  3
ACAD_MLINESTYLE
350
5D8
  3
DWGPROPS
350
5D9
  0
DICTIONARY
  5
5D7
102
{ACAD_REACTORS
330
5D6
102
}
100
AcDbDictionary
  0
DICTIONARY
  5
5D8
102
{ACAD_REACTORS
330
5D6
102
}
100
AcDbDictionary
  3
STANDARD
350
5DA
  0
MLINESTYLE
  5
5DA
102
{ACAD_REACTORS
330
5D8
102
}
100
AcDbMlineStyle
  2
STANDARD
 70
     0
  3

 62
   256
 51
90.00
 52
90.00
 71
     2
 49
0.50
 62
   256
  6
BYLAYER
 49
-0.50
 62
   256
  6
BYLAYER
  0
XRECORD
  5
5D9
102
{ACAD_REACTORS
330
5D6
102
}
100
AcDbXrecord
280
     1
  1
DWGPROPS COOKIE
  2
Ｍ１１２０ＲＣ　ガイケイ
  3

  4

  6
回転油圧シリンダ
  7

  8

  9

300
=
301
=
302
=
303
=
304
=
305
=
306
=
307
=
308
=
309
=
 40
0.000000
 41
0.000000
 42
0.000000
  1

 90
        0
  0
ENDSEC
  0
EOF
