  0
SECTION
  2
HEADER
  9
$ACADVER
  1
AC1014
  9
$DWGCODEPAGE
  3
ANSI_932
  9
$LTSCALE
 40
20.0
  9
$FILLMODE
 70
     1
  9
$CLAYER
  8
0
  9
$PDMODE
 70
     0
  9
$SPLFRAME
 70
     0
  9
$SPLINETYPE
 70
     6
  9
$SPLINESEGS
 70
     8
  9
$DIMASZ
 40
2.000000
  9
$DIMEXE
 40
2.000000
  9
$DIMEXO
 40
0.800000
  9
$DIMTAD
 70
     1
  9
$DIMTIH
 70
     0
  9
$DIMTOH
 70
     0
  9
$DIMTVP
 40
0.500000
  9
$DIMTXT
 40
3.100000
  9
$EXTMIN
 10
0.000000
 20
0.000000
 30
0.000000
  9
$EXTMAX
 10
420.000000
 20
594.000000
 30
0.000000
  9
$MEASUREMENT
 70
  1
  9
$LIMMIN
 10
0.000000
 20
0.000000
  9
$LIMMAX
 10
420.000000
 20
594.000000
  9
$HANDLING
 70
     1
  9
$HANDSEED
  5
3AB
  9
$DIMBLK
  1
_OPEN
  9
$DIMDEC
 70
     3
  9
$DIMAUNIT
 70
     1
  9
$DIMZIN
 70
     8
  9
$DIMTOFL
 70
     1
  0
ENDSEC
  0
SECTION
  2
CLASSES
  0
ENDSEC
  0
SECTION
  2
TABLES
  0
TABLE
  2
VPORT
  5
352
100
AcDbSymbolTable
 70
     1
  0
VPORT
  5
353
100
AcDbSymbolTableRecord
100
AcDbViewportTableRecord
  2
*ACTIVE
 70
     0
 12
434.013372
 22
299.511038
 40
599.022077
 41
1.449073
  0
ENDTAB
  0
TABLE
  2
LTYPE
  5
354
100
AcDbSymbolTable
 70
     4
  0
LTYPE
  5
355
100
AcDbSymbolTableRecord
100
AcDbLinetypeTableRecord
  2
BYBLOCK
 70
     0
  3

 72
    65
 73
     0
 40
0.0
  0
LTYPE
  5
356
100
AcDbSymbolTableRecord
100
AcDbLinetypeTableRecord
  2
BYLAYER
 70
     0
  3

 72
    65
 73
     0
 40
0.0
  0
LTYPE
  5
357
100
AcDbSymbolTableRecord
100
AcDbLinetypeTableRecord
  2
CONTINUOUS
 70
     0
  3
Solid line (NEC CAE2D for Win R12.1 : 2019.02.25)
 72
    65
 73
     0
 40
0.0
  0
LTYPE
  5
358
100
AcDbSymbolTableRecord
100
AcDbLinetypeTableRecord
  2
HIDDEN
 70
     0
  3
__ __ __ __ __ __ __ __ __ __ __ __ __ __
 72
    65
 73
     2
 40
0.375
 49
0.25
 74
     0
 49
-0.125
 74
     0
  0
LTYPE
  5
359
100
AcDbSymbolTableRecord
100
AcDbLinetypeTableRecord
  2
CENTER
 70
     0
  3
____ _ ____ _ ____ _ ____ _ ____ _ ____
 72
    65
 73
     4
 40
2.0
 49
1.25
 74
     0
 49
-0.25
 74
     0
 49
0.25
 74
     0
 49
-0.25
 74
     0
  0
LTYPE
  5
35A
100
AcDbSymbolTableRecord
100
AcDbLinetypeTableRecord
  2
PHANTOM
 70
     0
  3
______  __  __  ______  __  __  ______ 
 72
    65
 73
     6
 40
2.5
 49
1.25
 74
     0
 49
-0.25
 74
     0
 49
0.25
 74
     0
 49
-0.25
 74
     0
 49
0.25
 74
     0
 49
-0.25
 74
     0
  0
ENDTAB
  0
TABLE
  2
LAYER
  5
35B
100
AcDbSymbolTable
 70
    25
  0
LAYER
  5
35C
100
AcDbSymbolTableRecord
100
AcDbLayerTableRecord
  2
0
 70
     0
 62
     7
  6
CONTINUOUS
  0
LAYER
  5
35D
100
AcDbSymbolTableRecord
100
AcDbLayerTableRecord
  2
MAIN0
 70
     0
 62
     7
  6
CONTINUOUS
  0
LAYER
  5
35E
100
AcDbSymbolTableRecord
100
AcDbLayerTableRecord
  2
MAIN1
 70
     0
 62
     7
  6
CONTINUOUS
  0
LAYER
  5
35F
100
AcDbSymbolTableRecord
100
AcDbLayerTableRecord
  2
MAIN2
 70
     0
 62
     5
  6
CONTINUOUS
  0
LAYER
  5
360
100
AcDbSymbolTableRecord
100
AcDbLayerTableRecord
  2
MAIN3
 70
     0
 62
    14
  6
CONTINUOUS
  0
LAYER
  5
361
100
AcDbSymbolTableRecord
100
AcDbLayerTableRecord
  2
MAIN4
 70
     0
 62
     9
  6
CONTINUOUS
  0
LAYER
  5
362
100
AcDbSymbolTableRecord
100
AcDbLayerTableRecord
  2
MAIN5
 70
     0
 62
     9
  6
CONTINUOUS
  0
LAYER
  5
363
100
AcDbSymbolTableRecord
100
AcDbLayerTableRecord
  2
MAIN6
 70
     0
 62
    10
  6
CONTINUOUS
  0
LAYER
  5
364
100
AcDbSymbolTableRecord
100
AcDbLayerTableRecord
  2
MAIN7
 70
     0
 62
     7
  6
CONTINUOUS
  0
LAYER
  5
365
100
AcDbSymbolTableRecord
100
AcDbLayerTableRecord
  2
MAIN8
 70
     0
 62
    12
  6
CONTINUOUS
  0
LAYER
  5
366
100
AcDbSymbolTableRecord
100
AcDbLayerTableRecord
  2
MAIN9
 70
     0
 62
     8
  6
CONTINUOUS
  0
LAYER
  5
367
100
AcDbSymbolTableRecord
100
AcDbLayerTableRecord
  2
MAIN1023
 70
     0
 62
    16
  6
CONTINUOUS
  0
LAYER
  5
368
100
AcDbSymbolTableRecord
100
AcDbLayerTableRecord
  2
E0
 70
     0
 62
     7
  6
CONTINUOUS
  0
LAYER
  5
369
100
AcDbSymbolTableRecord
100
AcDbLayerTableRecord
  2
E1
 70
     0
 62
     7
  6
CONTINUOUS
  0
LAYER
  5
36A
100
AcDbSymbolTableRecord
100
AcDbLayerTableRecord
  2
E2
 70
     0
 62
     5
  6
CONTINUOUS
  0
LAYER
  5
36B
100
AcDbSymbolTableRecord
100
AcDbLayerTableRecord
  2
E3
 70
     0
 62
    14
  6
CONTINUOUS
  0
LAYER
  5
36C
100
AcDbSymbolTableRecord
100
AcDbLayerTableRecord
  2
E4
 70
     0
 62
     9
  6
CONTINUOUS
  0
LAYER
  5
36D
100
AcDbSymbolTableRecord
100
AcDbLayerTableRecord
  2
E5
 70
     0
 62
     9
  6
CONTINUOUS
  0
LAYER
  5
36E
100
AcDbSymbolTableRecord
100
AcDbLayerTableRecord
  2
E6
 70
     0
 62
    10
  6
CONTINUOUS
  0
LAYER
  5
36F
100
AcDbSymbolTableRecord
100
AcDbLayerTableRecord
  2
E7
 70
     0
 62
     7
  6
CONTINUOUS
  0
LAYER
  5
370
100
AcDbSymbolTableRecord
100
AcDbLayerTableRecord
  2
E8
 70
     0
 62
    12
  6
CONTINUOUS
  0
LAYER
  5
371
100
AcDbSymbolTableRecord
100
AcDbLayerTableRecord
  2
E9
 70
     0
 62
     8
  6
CONTINUOUS
  0
LAYER
  5
372
100
AcDbSymbolTableRecord
100
AcDbLayerTableRecord
  2
E1023
 70
     0
 62
    16
  6
CONTINUOUS
  0
LAYER
  5
373
100
AcDbSymbolTableRecord
100
AcDbLayerTableRecord
  2
WAKU0
 70
     0
 62
     7
  6
CONTINUOUS
  0
LAYER
  5
374
100
AcDbSymbolTableRecord
100
AcDbLayerTableRecord
  2
WAKU1023
 70
     0
 62
    16
  6
CONTINUOUS
  0
ENDTAB
  0
TABLE
  2
STYLE
  5
375
100
AcDbSymbolTable
 70
     4
  0
STYLE
  5
376
100
AcDbSymbolTableRecord
100
AcDbTextStyleTableRecord
  2
STANDARD
 70
    64
 40
0.0
 41
1.0
 50
0.0
 71
     0
 42
3.140094041824341
  3
TXT
  4

  0
STYLE
  5
377
100
AcDbSymbolTableRecord
100
AcDbTextStyleTableRecord
  2
ANKTATE
 70
    68
 40
0.0
 41
1.0
 50
0.0
 71
     0
 42
3.140094041824341
  3
TXT
  4

  0
STYLE
  5
201
100
AcDbSymbolTableRecord
100
AcDbTextStyleTableRecord
  2
KNJYOKO
 70
    64
 40
0.0
 41
1.0
 50
0.0
 71
     0
 42
3.140094041824341
  3
TXT
  4
BIGFONT
  0
STYLE
  5
378
100
AcDbSymbolTableRecord
100
AcDbTextStyleTableRecord
  2
KNJTATE
 70
    68
 40
0.0
 41
1.0
 50
0.0
 71
     0
 42
3.140094041824341
  3
TXT
  4
BIGFONT
  0
ENDTAB
  0
TABLE
  2
VIEW
  5
379
100
AcDbSymbolTable
 70
     0
  0
ENDTAB
  0
TABLE
  2
UCS
  5
37A
100
AcDbSymbolTable
 70
     0
  0
ENDTAB
  0
TABLE
  2
APPID
  5
37B
100
AcDbSymbolTable
 70
     1
  0
APPID
  5
37C
100
AcDbSymbolTableRecord
100
AcDbRegAppTableRecord
  2
ACAD
 70
     0
  0
ENDTAB
  0
TABLE
  2
DIMSTYLE
  5
37D
100
AcDbSymbolTable
 70
     1
  0
DIMSTYLE
105
37E
100
AcDbSymbolTableRecord
100
AcDbDimStyleTableRecord
  2
STANDARD
 70
     0
 41
2.000000
 44
2.000000
 42
0.800000
145
0.661290
140
3.100000
144
1.000000
146
0.903226
340
376
  0
DIMSTYLE
105
37F
100
AcDbSymbolTableRecord
100
AcDbDimStyleTableRecord
  2
MAIN001
 70
     0
 41
3.000000
 44
3.000000
 42
1.200000
145
0.607527
140
4.650000
144
1.000000
146
0.903226
 77
     1
 73
     0
 74
     0
271
     3
275
     1
 78
     8
172
     1
340
376
  0
DIMSTYLE
105
380
100
AcDbSymbolTableRecord
100
AcDbDimStyleTableRecord
  2
E002
 70
     0
 41
3.000000
 44
3.000000
 42
1.200000
145
0.607527
140
4.650000
144
1.000000
146
0.903226
 77
     1
 73
     0
 74
     0
271
     3
275
     1
 78
     8
172
     1
340
376
  0
DIMSTYLE
105
381
100
AcDbSymbolTableRecord
100
AcDbDimStyleTableRecord
  2
WAKU003
 70
     0
 41
2.000000
 44
2.000000
 42
0.800000
145
0.661290
140
3.100000
144
1.000000
146
0.903226
 77
     1
 73
     0
 74
     0
271
     3
275
     1
 78
     8
172
     1
340
376
  0
ENDTAB
  0
TABLE
  2
BLOCK_RECORD
  5
382
100
AcDbSymbolTable
 70
    42
  0
BLOCK_RECORD
  5
383
100
AcDbSymbolTableRecord
100
AcDbBlockTableRecord
  2
*MODEL_SPACE
  0
BLOCK_RECORD
  5
384
100
AcDbSymbolTableRecord
100
AcDbBlockTableRecord
  2
*PAPER_SPACE
  0
BLOCK_RECORD
  5
1
100
AcDbSymbolTableRecord
100
AcDbBlockTableRecord
  2
_NONE
  0
BLOCK_RECORD
  5
4
100
AcDbSymbolTableRecord
100
AcDbBlockTableRecord
  2
_CLOSED
  0
BLOCK_RECORD
  5
B
100
AcDbSymbolTableRecord
100
AcDbBlockTableRecord
  2
_DOT
  0
BLOCK_RECORD
  5
13
100
AcDbSymbolTableRecord
100
AcDbBlockTableRecord
  2
_OPEN
  0
BLOCK_RECORD
  5
19
100
AcDbSymbolTableRecord
100
AcDbBlockTableRecord
  2
_ORIGIN
  0
BLOCK_RECORD
  5
1E
100
AcDbSymbolTableRecord
100
AcDbBlockTableRecord
  2
_OPEN30
  0
BLOCK_RECORD
  5
24
100
AcDbSymbolTableRecord
100
AcDbBlockTableRecord
  2
_BOXFILLED
  0
BLOCK_RECORD
  5
29
100
AcDbSymbolTableRecord
100
AcDbBlockTableRecord
  2
_BOXBLANK
  0
BLOCK_RECORD
  5
31
100
AcDbSymbolTableRecord
100
AcDbBlockTableRecord
  2
_OBLIQUE
  0
BLOCK_RECORD
  5
35
100
AcDbSymbolTableRecord
100
AcDbBlockTableRecord
  2
_OPEN90
  0
BLOCK_RECORD
  5
3B
100
AcDbSymbolTableRecord
100
AcDbBlockTableRecord
  2
_CLOSEDBLANK
  0
BLOCK_RECORD
  5
41
100
AcDbSymbolTableRecord
100
AcDbBlockTableRecord
  2
_DOTBLANK
  0
BLOCK_RECORD
  5
385
100
AcDbSymbolTableRecord
100
AcDbBlockTableRecord
  2
*D0
  0
BLOCK_RECORD
  5
386
100
AcDbSymbolTableRecord
100
AcDbBlockTableRecord
  2
*D1
  0
BLOCK_RECORD
  5
387
100
AcDbSymbolTableRecord
100
AcDbBlockTableRecord
  2
*D2
  0
BLOCK_RECORD
  5
388
100
AcDbSymbolTableRecord
100
AcDbBlockTableRecord
  2
*D3
  0
BLOCK_RECORD
  5
389
100
AcDbSymbolTableRecord
100
AcDbBlockTableRecord
  2
*D4
  0
BLOCK_RECORD
  5
38A
100
AcDbSymbolTableRecord
100
AcDbBlockTableRecord
  2
*D5
  0
BLOCK_RECORD
  5
38B
100
AcDbSymbolTableRecord
100
AcDbBlockTableRecord
  2
*D6
  0
BLOCK_RECORD
  5
38C
100
AcDbSymbolTableRecord
100
AcDbBlockTableRecord
  2
*D7
  0
BLOCK_RECORD
  5
38D
100
AcDbSymbolTableRecord
100
AcDbBlockTableRecord
  2
*D8
  0
BLOCK_RECORD
  5
38E
100
AcDbSymbolTableRecord
100
AcDbBlockTableRecord
  2
*D9
  0
BLOCK_RECORD
  5
38F
100
AcDbSymbolTableRecord
100
AcDbBlockTableRecord
  2
*D10
  0
BLOCK_RECORD
  5
390
100
AcDbSymbolTableRecord
100
AcDbBlockTableRecord
  2
*D11
  0
BLOCK_RECORD
  5
391
100
AcDbSymbolTableRecord
100
AcDbBlockTableRecord
  2
*D12
  0
BLOCK_RECORD
  5
392
100
AcDbSymbolTableRecord
100
AcDbBlockTableRecord
  2
*D13
  0
BLOCK_RECORD
  5
393
100
AcDbSymbolTableRecord
100
AcDbBlockTableRecord
  2
*D14
  0
BLOCK_RECORD
  5
394
100
AcDbSymbolTableRecord
100
AcDbBlockTableRecord
  2
*D15
  0
BLOCK_RECORD
  5
395
100
AcDbSymbolTableRecord
100
AcDbBlockTableRecord
  2
*D16
  0
BLOCK_RECORD
  5
396
100
AcDbSymbolTableRecord
100
AcDbBlockTableRecord
  2
*D17
  0
BLOCK_RECORD
  5
397
100
AcDbSymbolTableRecord
100
AcDbBlockTableRecord
  2
*D18
  0
BLOCK_RECORD
  5
398
100
AcDbSymbolTableRecord
100
AcDbBlockTableRecord
  2
*D19
  0
BLOCK_RECORD
  5
399
100
AcDbSymbolTableRecord
100
AcDbBlockTableRecord
  2
*D20
  0
BLOCK_RECORD
  5
39A
100
AcDbSymbolTableRecord
100
AcDbBlockTableRecord
  2
*D21
  0
BLOCK_RECORD
  5
39B
100
AcDbSymbolTableRecord
100
AcDbBlockTableRecord
  2
*D22
  0
BLOCK_RECORD
  5
39C
100
AcDbSymbolTableRecord
100
AcDbBlockTableRecord
  2
*D23
  0
BLOCK_RECORD
  5
39D
100
AcDbSymbolTableRecord
100
AcDbBlockTableRecord
  2
*D24
  0
BLOCK_RECORD
  5
39E
100
AcDbSymbolTableRecord
100
AcDbBlockTableRecord
  2
*D25
  0
BLOCK_RECORD
  5
39F
100
AcDbSymbolTableRecord
100
AcDbBlockTableRecord
  2
*D26
  0
BLOCK_RECORD
  5
3A0
100
AcDbSymbolTableRecord
100
AcDbBlockTableRecord
  2
*D27
  0
BLOCK_RECORD
  5
3A1
100
AcDbSymbolTableRecord
100
AcDbBlockTableRecord
  2
*D28
  0
BLOCK_RECORD
  5
3A2
100
AcDbSymbolTableRecord
100
AcDbBlockTableRecord
  2
*D29
  0
ENDTAB
  0
ENDSEC
  0
SECTION
  2
BLOCKS
  0
BLOCK
  5
3A3
100
AcDbEntity
  8
0
100
AcDbBlockBegin
  2
*MODEL_SPACE
 70
     0
 10
0.0
 20
0.0
 30
0.0
  3
*MODEL_SPACE
  1

  0
ENDBLK
  5
3A4
100
AcDbEntity
  8
0
100
AcDbBlockEnd
  0
BLOCK
  5
3A5
100
AcDbEntity
  8
0
100
AcDbBlockBegin
  2
*PAPER_SPACE
 70
     0
 10
0.0
 20
0.0
 30
0.0
  3
*PAPER_SPACE
  1

  0
ENDBLK
  5
3A6
100
AcDbEntity
  8
0
100
AcDbBlockEnd
  0
BLOCK
  5
2
100
AcDbEntity
  8
0
100
AcDbBlockBegin
  2
_NONE
 70
     0
 10
0.0
 20
0.0
 30
0.0
  3
_NONE
  1

  0
ENDBLK
  5
3
100
AcDbEntity
  8
0
100
AcDbBlockEnd
  0
BLOCK
  5
5
100
AcDbEntity
  8
0
100
AcDbBlockBegin
  2
_CLOSED
 70
     0
 10
0.0
 20
0.0
 30
0.0
  3
_CLOSED
  1

  0
LINE
  5
6
100
AcDbEntity
  8
0
  6
BYBLOCK
 62
     0
100
AcDbLine
 10
-1.0
 20
0.166667
 30
0.0
 11
0.0
 21
0.0
 31
0.0
  0
LINE
  5
7
100
AcDbEntity
  8
0
  6
BYBLOCK
 62
     0
100
AcDbLine
 10
0.0
 20
0.0
 30
0.0
 11
-1.0
 21
-0.166667
 31
0.0
  0
LINE
  5
8
100
AcDbEntity
  8
0
  6
BYBLOCK
 62
     0
100
AcDbLine
 10
-1.0
 20
0.166667
 30
0.0
 11
-1.0
 21
-0.166667
 31
0.0
  0
LINE
  5
9
100
AcDbEntity
  8
0
  6
BYBLOCK
 62
     0
100
AcDbLine
 10
0.0
 20
0.0
 30
0.0
 11
-1.0
 21
0.0
 31
0.0
  0
ENDBLK
  5
A
100
AcDbEntity
  8
0
100
AcDbBlockEnd
  0
BLOCK
  5
C
100
AcDbEntity
  8
0
100
AcDbBlockBegin
  2
_DOT
 70
     0
 10
0.0
 20
0.0
 30
0.0
  3
_DOT
  1

  0
POLYLINE
  5
D
100
AcDbEntity
  8
0
  6
BYBLOCK
 62
     0
100
AcDb2dPolyline
 66
     1
 10
0.0
 20
0.0
 30
0.0
 70
     1
 40
0.5
 41
0.5
  0
VERTEX
  5
E
100
AcDbEntity
  8
0
  6
BYBLOCK
 62
     0
100
AcDbVertex
100
AcDb2dVertex
 10
-0.25
 20
0.0
 30
0.0
 42
1.0
  0
VERTEX
  5
F
100
AcDbEntity
  8
0
  6
BYBLOCK
 62
     0
100
AcDbVertex
100
AcDb2dVertex
 10
0.25
 20
0.0
 30
0.0
 42
1.0
  0
SEQEND
  5
10
100
AcDbEntity
  8
0
  6
BYBLOCK
 62
     0
  0
LINE
  5
11
100
AcDbEntity
  8
0
  6
BYBLOCK
 62
     0
100
AcDbLine
 10
-0.5
 20
0.0
 30
0.0
 11
-1.0
 21
0.0
 31
0.0
  0
ENDBLK
  5
12
100
AcDbEntity
  8
0
100
AcDbBlockEnd
  0
BLOCK
  5
14
100
AcDbEntity
  8
0
100
AcDbBlockBegin
  2
_OPEN
 70
     0
 10
0.0
 20
0.0
 30
0.0
  3
_OPEN
  1

  0
LINE
  5
15
100
AcDbEntity
  8
0
  6
BYBLOCK
 62
     0
100
AcDbLine
 10
-1.0
 20
0.166667
 30
0.0
 11
0.0
 21
0.0
 31
0.0
  0
LINE
  5
16
100
AcDbEntity
  8
0
  6
BYBLOCK
 62
     0
100
AcDbLine
 10
0.0
 20
0.0
 30
0.0
 11
-1.0
 21
-0.166667
 31
0.0
  0
LINE
  5
17
100
AcDbEntity
  8
0
  6
BYBLOCK
 62
     0
100
AcDbLine
 10
0.0
 20
0.0
 30
0.0
 11
-1.0
 21
0.0
 31
0.0
  0
ENDBLK
  5
18
100
AcDbEntity
  8
0
100
AcDbBlockEnd
  0
BLOCK
  5
1A
100
AcDbEntity
  8
0
100
AcDbBlockBegin
  2
_ORIGIN
 70
     0
 10
0.0
 20
0.0
 30
0.0
  3
_ORIGIN
  1

  0
CIRCLE
  5
1B
100
AcDbEntity
  8
0
  6
BYBLOCK
 62
     0
100
AcDbCircle
 10
0.0
 20
0.0
 30
0.0
 40
0.5
  0
LINE
  5
1C
100
AcDbEntity
  8
0
  6
BYBLOCK
 62
     0
100
AcDbLine
 10
0.0
 20
0.0
 30
0.0
 11
-1.0
 21
0.0
 31
0.0
  0
ENDBLK
  5
1D
100
AcDbEntity
  8
0
100
AcDbBlockEnd
  0
BLOCK
  5
1F
100
AcDbEntity
  8
0
100
AcDbBlockBegin
  2
_OPEN30
 70
     0
 10
0.0
 20
0.0
 30
0.0
  3
_OPEN30
  1

  0
LINE
  5
20
100
AcDbEntity
  8
0
  6
BYBLOCK
 62
     0
100
AcDbLine
 10
-1.0
 20
0.267949
 30
0.0
 11
0.0
 21
0.0
 31
0.0
  0
LINE
  5
21
100
AcDbEntity
  8
0
  6
BYBLOCK
 62
     0
100
AcDbLine
 10
0.0
 20
0.0
 30
0.0
 11
-1.0
 21
-0.267949
 31
0.0
  0
LINE
  5
22
100
AcDbEntity
  8
0
  6
BYBLOCK
 62
     0
100
AcDbLine
 10
0.0
 20
0.0
 30
0.0
 11
-1.0
 21
0.0
 31
0.0
  0
ENDBLK
  5
23
100
AcDbEntity
  8
0
100
AcDbBlockEnd
  0
BLOCK
  5
25
100
AcDbEntity
  8
0
100
AcDbBlockBegin
  2
_BOXFILLED
 70
     0
 10
0.0
 20
0.0
 30
0.0
  3
_BOXFILLED
  1

  0
SOLID
  5
26
100
AcDbEntity
  8
0
  6
BYBLOCK
 62
     0
100
AcDbTrace
 10
-0.5
 20
0.5
 30
0.0
 11
0.5
 21
0.5
 31
0.0
 12
-0.5
 22
-0.5
 32
0.0
 13
0.5
 23
-0.5
 33
0.0
  0
LINE
  5
27
100
AcDbEntity
  8
0
  6
BYBLOCK
 62
     0
100
AcDbLine
 10
-0.5
 20
0.0
 30
0.0
 11
-1.0
 21
0.0
 31
0.0
  0
ENDBLK
  5
28
100
AcDbEntity
  8
0
100
AcDbBlockEnd
  0
BLOCK
  5
2A
100
AcDbEntity
  8
0
100
AcDbBlockBegin
  2
_BOXBLANK
 70
     0
 10
0.0
 20
0.0
 30
0.0
  3
_BOXBLANK
  1

  0
LINE
  5
2B
100
AcDbEntity
  8
0
  6
BYBLOCK
 62
     0
100
AcDbLine
 10
-0.5
 20
-0.5
 30
0.0
 11
0.5
 21
-0.5
 31
0.0
  0
LINE
  5
2C
100
AcDbEntity
  8
0
  6
BYBLOCK
 62
     0
100
AcDbLine
 10
0.5
 20
-0.5
 30
0.0
 11
0.5
 21
0.5
 31
0.0
  0
LINE
  5
2D
100
AcDbEntity
  8
0
  6
BYBLOCK
 62
     0
100
AcDbLine
 10
0.5
 20
0.5
 30
0.0
 11
-0.5
 21
0.5
 31
0.0
  0
LINE
  5
2E
100
AcDbEntity
  8
0
  6
BYBLOCK
 62
     0
100
AcDbLine
 10
-0.5
 20
0.5
 30
0.0
 11
-0.5
 21
-0.5
 31
0.0
  0
LINE
  5
2F
100
AcDbEntity
  8
0
  6
BYBLOCK
 62
     0
100
AcDbLine
 10
-0.5
 20
0.0
 30
0.0
 11
-1.0
 21
0.0
 31
0.0
  0
ENDBLK
  5
30
100
AcDbEntity
  8
0
100
AcDbBlockEnd
  0
BLOCK
  5
32
100
AcDbEntity
  8
0
100
AcDbBlockBegin
  2
_OBLIQUE
 70
     0
 10
0.0
 20
0.0
 30
0.0
  3
_OBLIQUE
  1

  0
LINE
  5
33
100
AcDbEntity
  8
0
  6
BYBLOCK
 62
     0
100
AcDbLine
 10
-0.5
 20
-0.5
 30
0.0
 11
0.5
 21
0.5
 31
0.0
  0
ENDBLK
  5
34
100
AcDbEntity
  8
0
100
AcDbBlockEnd
  0
BLOCK
  5
36
100
AcDbEntity
  8
0
100
AcDbBlockBegin
  2
_OPEN90
 70
     0
 10
0.0
 20
0.0
 30
0.0
  3
_OPEN90
  1

  0
LINE
  5
37
100
AcDbEntity
  8
0
  6
BYBLOCK
 62
     0
100
AcDbLine
 10
-0.5
 20
0.5
 30
0.0
 11
0.0
 21
0.0
 31
0.0
  0
LINE
  5
38
100
AcDbEntity
  8
0
  6
BYBLOCK
 62
     0
100
AcDbLine
 10
0.0
 20
0.0
 30
0.0
 11
-0.5
 21
-0.5
 31
0.0
  0
LINE
  5
39
100
AcDbEntity
  8
0
  6
BYBLOCK
 62
     0
100
AcDbLine
 10
0.0
 20
0.0
 30
0.0
 11
-1.0
 21
0.0
 31
0.0
  0
ENDBLK
  5
3A
100
AcDbEntity
  8
0
100
AcDbBlockEnd
  0
BLOCK
  5
3C
100
AcDbEntity
  8
0
100
AcDbBlockBegin
  2
_CLOSEDBLANK
 70
     0
 10
0.0
 20
0.0
 30
0.0
  3
_CLOSEDBLANK
  1

  0
LINE
  5
3D
100
AcDbEntity
  8
0
  6
BYBLOCK
 62
     0
100
AcDbLine
 10
-1.0
 20
0.1666666666666666
 30
0.0
 11
0.0
 21
0.0
 31
0.0
  0
LINE
  5
3E
100
AcDbEntity
  8
0
  6
BYBLOCK
 62
     0
100
AcDbLine
 10
0.0
 20
0.0
 30
0.0
 11
-1.0
 21
-0.1666666666666666
 31
0.0
  0
LINE
  5
3F
100
AcDbEntity
  8
0
  6
BYBLOCK
 62
     0
100
AcDbLine
 10
-1.0
 20
0.1666666666666666
 30
0.0
 11
-1.0
 21
-0.1666666666666666
 31
0.0
  0
ENDBLK
  5
40
100
AcDbEntity
  8
0
100
AcDbBlockEnd
  0
BLOCK
  5
42
100
AcDbEntity
  8
0
100
AcDbBlockBegin
  2
_DOTBLANK
 70
     0
 10
0.0
 20
0.0
 30
0.0
  3
_DOTBLANK
  1

  0
CIRCLE
  5
43
100
AcDbEntity
  8
0
  6
BYBLOCK
 62
     0
100
AcDbCircle
 10
0.0
 20
0.0
 30
0.0
 40
0.5
  0
LINE
  5
44
100
AcDbEntity
  8
0
  6
BYBLOCK
 62
     0
100
AcDbLine
 10
-0.5
 20
0.0
 30
0.0
 11
-1.0
 21
0.0
 31
0.0
  0
ENDBLK
  5
45
100
AcDbEntity
  8
0
100
AcDbBlockEnd
  0
BLOCK
  5
1A1
100
AcDbEntity
  8
MAIN0
  6
CONTINUOUS
 62
1
100
AcDbBlockBegin
  2
*D0
 70
    65
 10
0.0
 20
0.0
 30
0.0
  0
LINE
  5
1A2
100
AcDbEntity
  8
MAIN0
  6
BYBLOCK
 62
0
100
AcDbLine
 10
860.4707952634137
 20
485.5383542799987
 30
0.0000000000000000
 11
860.4707952634137
 21
534.7760214769595
 31
0.0000000000000000
  0
LINE
  5
1A3
100
AcDbEntity
  8
MAIN0
  6
BYBLOCK
 62
0
100
AcDbLine
 10
857.4707952634137
 20
531.7760214769595
 30
0.0000000000000000
 11
673.4707952634142
 21
531.7760214769595
 31
0.0000000000000000
  0
INSERT
  5
1A4
100
AcDbEntity
  8
MAIN0
  6
BYBLOCK
 62
0
100
AcDbBlockReference
  2
_OPEN
 10
860.4707952634137
 20
531.7760214769595
 30
0.0000000000000000
 41
3.000000000000000
 42
3.000000000000000
 43
3.000000000000000
 50
360.0000000000000
  0
INSERT
  5
1A5
100
AcDbEntity
  8
MAIN0
  6
BYBLOCK
 62
0
100
AcDbBlockReference
  2
_OPEN
 10
670.4707952634142
 20
531.7760214769595
 30
0.0000000000000000
 41
3.000000000000000
 42
3.000000000000000
 43
3.000000000000000
 50
180.0000000000000
  0
LINE
  5
1A6
100
AcDbEntity
  8
MAIN0
  6
BYBLOCK
 62
0
100
AcDbLine
 10
670.4707952634142
 20
485.5383542799987
 30
0.0000000000000000
 11
670.4707952634142
 21
534.7760214769595
 31
0.0000000000000000
  0
MTEXT
  5
1A7
100
AcDbEntity
  8
MAIN0
  6
BYBLOCK
 62
0
100
AcDbMText
 10
765.4707952634140
 20
534.6010214054339
 30
0.0000000000000000
 40
4.649999856948853
 41
0.0000000000000000
 71
     5
 72
     1
  1
\A1;390
 11
1.000000000000000
 21
0.0000000000000000
 31
0.0000000000000000
  7
STANDARD
  0
ENDBLK
  5
1A8
100
AcDbEntity
  8
MAIN0
  6
CONTINUOUS
 62
1
100
AcDbBlockEnd
  0
BLOCK
  5
1AA
100
AcDbEntity
  8
MAIN0
  6
CONTINUOUS
 62
3
100
AcDbBlockBegin
  2
*D1
 70
    65
 10
0.0
 20
0.0
 30
0.0
  0
LINE
  5
1AB
100
AcDbEntity
  8
MAIN0
  6
BYBLOCK
 62
0
100
AcDbLine
 10
750.4707952633681
 20
501.5383542799987
 30
0.0000000000000000
 11
750.4707952633943
 21
519.9808172011412
 31
0.0000000000000000
  0
LINE
  5
1AC
100
AcDbEntity
  8
MAIN0
  6
BYBLOCK
 62
0
100
AcDbLine
 10
753.4707952633901
 20
516.9808172011412
 30
0.0000000000000000
 11
777.4707952633664
 21
516.9808172011412
 31
0.0000000000000000
  0
INSERT
  5
1AD
100
AcDbEntity
  8
MAIN0
  6
BYBLOCK
 62
0
100
AcDbBlockReference
  2
_OPEN
 10
750.4707952633901
 20
516.9808172011412
 30
0.0000000000000000
 41
3.000000000000000
 42
3.000000000000000
 43
3.000000000000000
 50
180.0000000000000
  0
INSERT
  5
1AE
100
AcDbEntity
  8
MAIN0
  6
BYBLOCK
 62
0
100
AcDbBlockReference
  2
_OPEN
 10
780.4707952633664
 20
516.9808172011412
 30
0.0000000000000000
 41
3.000000000000000
 42
3.000000000000000
 43
3.000000000000000
 50
0.0000000000000000
  0
LINE
  5
1AF
100
AcDbEntity
  8
MAIN0
  6
BYBLOCK
 62
0
100
AcDbLine
 10
780.4707952633664
 20
501.5383542799987
 30
0.0000000000000000
 11
780.4707952633664
 21
519.9808172011412
 31
0.0000000000000000
  0
MTEXT
  5
1B0
100
AcDbEntity
  8
MAIN0
  6
BYBLOCK
 62
0
100
AcDbMText
 10
765.4707952633783
 20
519.8058171296157
 30
0.0000000000000000
 40
4.649999856948853
 41
0.0000000000000000
 71
     5
 72
     1
  1
\A1;\U+220530
 11
1.000000000000000
 21
0.0000000000000000
 31
0.0000000000000000
  7
STANDARD
  0
ENDBLK
  5
1B1
100
AcDbEntity
  8
MAIN0
  6
CONTINUOUS
 62
3
100
AcDbBlockEnd
  0
BLOCK
  5
1B3
100
AcDbEntity
  8
MAIN0
  6
CONTINUOUS
 62
3
100
AcDbBlockBegin
  2
*D2
 70
    65
 10
0.0
 20
0.0
 30
0.0
  0
LINE
  5
1B4
100
AcDbEntity
  8
MAIN0
  6
BYBLOCK
 62
0
100
AcDbLine
 10
755.4707952634730
 20
421.9808172011412
 30
0.0000000000000000
 11
775.4707952634730
 21
421.9808172011412
 31
0.0000000000000000
  0
INSERT
  5
1B5
100
AcDbEntity
  8
MAIN0
  6
BYBLOCK
 62
0
100
AcDbBlockReference
  2
_OPEN
 10
752.4707952634730
 20
421.9808172011412
 30
0.0000000000000000
 41
3.000000000000000
 42
3.000000000000000
 43
3.000000000000000
 50
180.0000000000000
  0
INSERT
  5
1B6
100
AcDbEntity
  8
MAIN0
  6
BYBLOCK
 62
0
100
AcDbBlockReference
  2
_OPEN
 10
778.4707952634730
 20
421.9808172011412
 30
0.0000000000000000
 41
3.000000000000000
 42
3.000000000000000
 43
3.000000000000000
 50
0.0000000000000000
  0
MTEXT
  5
1B7
100
AcDbEntity
  8
MAIN0
  6
BYBLOCK
 62
0
100
AcDbMText
 10
765.4707952634730
 20
424.8058171296157
 30
0.0000000000000000
 40
4.649999856948853
 41
0.0000000000000000
 71
     5
 72
     1
  1
\A1;\U+220526
 11
1.000000000000000
 21
0.0000000000000000
 31
0.0000000000000000
  7
STANDARD
  0
ENDBLK
  5
1B8
100
AcDbEntity
  8
MAIN0
  6
CONTINUOUS
 62
3
100
AcDbBlockEnd
  0
BLOCK
  5
1BA
100
AcDbEntity
  8
MAIN0
  6
CONTINUOUS
 62
3
100
AcDbBlockBegin
  2
*D3
 70
    65
 10
0.0
 20
0.0
 30
0.0
  0
LINE
  5
1BB
100
AcDbEntity
  8
MAIN0
  6
BYBLOCK
 62
0
100
AcDbLine
 10
774.8207952812861
 20
302.3383542621173
 30
0.0000000000000000
 11
796.6971655399095
 21
302.3383542621173
 31
0.0000000000000000
  0
LINE
  5
1BC
100
AcDbEntity
  8
MAIN0
  6
BYBLOCK
 62
0
100
AcDbLine
 10
793.6971655399095
 20
305.3383542621173
 30
0.0000000000000000
 11
793.6971655399095
 21
317.3383542621173
 31
0.0000000000000000
  0
INSERT
  5
1BD
100
AcDbEntity
  8
MAIN0
  6
BYBLOCK
 62
0
100
AcDbBlockReference
  2
_OPEN
 10
793.6971655399095
 20
302.3383542621173
 30
0.0000000000000000
 41
3.000000000000000
 42
3.000000000000000
 43
3.000000000000000
 50
270.0000000000000
  0
INSERT
  5
1BE
100
AcDbEntity
  8
MAIN0
  6
BYBLOCK
 62
0
100
AcDbBlockReference
  2
_OPEN
 10
793.6971655399095
 20
320.3383542621173
 30
0.0000000000000000
 41
3.000000000000000
 42
3.000000000000000
 43
3.000000000000000
 50
90.00000000000000
  0
LINE
  5
1BF
100
AcDbEntity
  8
MAIN0
  6
BYBLOCK
 62
0
100
AcDbLine
 10
775.8207952812861
 20
320.3383542621173
 30
0.0000000000000000
 11
796.6971655399095
 21
320.3383542621173
 31
0.0000000000000000
  0
MTEXT
  5
1C0
100
AcDbEntity
  8
MAIN0
  6
BYBLOCK
 62
0
100
AcDbMText
 10
790.8721656114351
 20
311.3383542621173
 30
0.0000000000000000
 40
4.649999856948853
 41
0.0000000000000000
 71
     5
 72
     1
  1
\A1;18
 11
6.123233995736766e-017
 21
1.000000000000000
 31
0.0000000000000000
  7
STANDARD
  0
ENDBLK
  5
1C1
100
AcDbEntity
  8
MAIN0
  6
CONTINUOUS
 62
3
100
AcDbBlockEnd
  0
BLOCK
  5
1C3
100
AcDbEntity
  8
MAIN0
  6
CONTINUOUS
 62
3
100
AcDbBlockBegin
  2
*D4
 70
    65
 10
0.0
 20
0.0
 30
0.0
  0
LINE
  5
1C4
100
AcDbEntity
  8
MAIN0
  6
BYBLOCK
 62
0
100
AcDbLine
 10
779.6707952812420
 20
502.3383542621173
 30
0.0000000000000000
 11
816.6971655399095
 21
502.3383542621173
 31
0.0000000000000000
  0
LINE
  5
1C5
100
AcDbEntity
  8
MAIN0
  6
BYBLOCK
 62
0
100
AcDbLine
 10
813.6971655399095
 20
499.3383542621173
 30
0.0000000000000000
 11
813.6971655399095
 21
305.3383542621173
 31
0.0000000000000000
  0
INSERT
  5
1C6
100
AcDbEntity
  8
MAIN0
  6
BYBLOCK
 62
0
100
AcDbBlockReference
  2
_OPEN
 10
813.6971655399095
 20
502.3383542621173
 30
0.0000000000000000
 41
3.000000000000000
 42
3.000000000000000
 43
3.000000000000000
 50
90.00000000000000
  0
INSERT
  5
1C7
100
AcDbEntity
  8
MAIN0
  6
BYBLOCK
 62
0
100
AcDbBlockReference
  2
_OPEN
 10
813.6971655399095
 20
302.3383542621173
 30
0.0000000000000000
 41
3.000000000000000
 42
3.000000000000000
 43
3.000000000000000
 50
270.0000000000000
  0
LINE
  5
1C8
100
AcDbEntity
  8
MAIN0
  6
BYBLOCK
 62
0
100
AcDbLine
 10
774.8207952812861
 20
302.3383542621173
 30
0.0000000000000000
 11
816.6971655399095
 21
302.3383542621173
 31
0.0000000000000000
  0
MTEXT
  5
1C9
100
AcDbEntity
  8
MAIN0
  6
BYBLOCK
 62
0
100
AcDbMText
 10
810.8721656114351
 20
402.3383542621173
 30
0.0000000000000000
 40
4.649999856948853
 41
0.0000000000000000
 71
     5
 72
     1
  1
\A1;200
 11
6.123233995736766e-017
 21
1.000000000000000
 31
0.0000000000000000
  7
STANDARD
  0
ENDBLK
  5
1CA
100
AcDbEntity
  8
MAIN0
  6
CONTINUOUS
 62
3
100
AcDbBlockEnd
  0
BLOCK
  5
1CC
100
AcDbEntity
  8
MAIN0
  6
CONTINUOUS
 62
3
100
AcDbBlockBegin
  2
*D5
 70
    65
 10
0.0
 20
0.0
 30
0.0
  0
LINE
  5
1CD
100
AcDbEntity
  8
MAIN0
  6
BYBLOCK
 62
0
100
AcDbLine
 10
775.4357542155328
 20
251.4844267710400
 30
0.0000000000000000
 11
792.7972746015470
 21
234.1229063850259
 31
0.0000000000000000
  0
LINE
  5
1CE
100
AcDbEntity
  8
MAIN0
  6
BYBLOCK
 62
0
100
AcDbLine
 10
788.5546339144277
 20
234.1229063850259
 30
0.0000000000000000
 11
782.8977796649352
 21
228.4660521355335
 31
0.0000000000000000
  0
INSERT
  5
1CF
100
AcDbEntity
  8
MAIN0
  6
BYBLOCK
 62
0
100
AcDbBlockReference
  2
_OPEN
 10
790.6759542579873
 20
236.2442267285856
 30
0.0000000000000000
 41
3.000000000000000
 42
3.000000000000000
 43
3.000000000000000
 50
45.00000000000000
  0
INSERT
  5
1D0
100
AcDbEntity
  8
MAIN0
  6
BYBLOCK
 62
0
100
AcDbBlockReference
  2
_OPEN
 10
780.7764593213757
 20
226.3447317919739
 30
0.0000000000000000
 41
3.000000000000000
 42
3.000000000000000
 43
3.000000000000000
 50
225.0000000000000
  0
LINE
  5
1D1
100
AcDbEntity
  8
MAIN0
  6
BYBLOCK
 62
0
100
AcDbLine
 10
790.6759542579873
 20
236.2442267285856
 30
0.0000000000000000
 11
806.4560171757626
 21
252.0242896463608
 31
0.0000000000000000
  0
LINE
  5
1D2
100
AcDbEntity
  8
MAIN0
  6
BYBLOCK
 62
0
100
AcDbLine
 10
765.5362592789201
 20
241.5849318344294
 30
0.0000000000000000
 11
782.8977796649350
 21
224.2234114484144
 31
0.0000000000000000
  0
MTEXT
  5
1D3
100
AcDbEntity
  8
MAIN0
  6
BYBLOCK
 62
0
100
AcDbMText
 10
797.7851202370865
 20
247.7020993108296
 30
0.0000000000000000
 40
4.649999856948853
 41
0.0000000000000000
 71
     5
 72
     1
  1
\A1;14\H0.903226x;\S 0^ -0.15;
 11
0.7071067811865476
 21
0.7071067811865475
 31
0.0000000000000000
  7
STANDARD
  0
ENDBLK
  5
1D4
100
AcDbEntity
  8
MAIN0
  6
CONTINUOUS
 62
3
100
AcDbBlockEnd
  0
BLOCK
  5
1D6
100
AcDbEntity
  8
MAIN0
  6
CONTINUOUS
 62
3
100
AcDbBlockBegin
  2
*D6
 70
    65
 10
0.0
 20
0.0
 30
0.0
  0
LINE
  5
1D7
100
AcDbEntity
  8
MAIN0
  6
BYBLOCK
 62
0
100
AcDbLine
 10
254.6971655399098
 20
512.3808172190229
 30
0.0000000000000000
 11
254.6971655399098
 21
558.3966828036382
 31
0.0000000000000000
  0
LINE
  5
1D8
100
AcDbEntity
  8
MAIN0
  6
BYBLOCK
 62
0
100
AcDbLine
 10
251.6971655399098
 20
555.3966828036382
 30
0.0000000000000000
 11
161.6971655399098
 21
555.3966828036382
 31
0.0000000000000000
  0
INSERT
  5
1D9
100
AcDbEntity
  8
MAIN0
  6
BYBLOCK
 62
0
100
AcDbBlockReference
  2
_OPEN
 10
254.6971655399098
 20
555.3966828036382
 30
0.0000000000000000
 41
3.000000000000000
 42
3.000000000000000
 43
3.000000000000000
 50
360.0000000000000
  0
INSERT
  5
1DA
100
AcDbEntity
  8
MAIN0
  6
BYBLOCK
 62
0
100
AcDbBlockReference
  2
_OPEN
 10
158.6971655399098
 20
555.3966828036382
 30
0.0000000000000000
 41
3.000000000000000
 42
3.000000000000000
 43
3.000000000000000
 50
180.0000000000000
  0
LINE
  5
1DB
100
AcDbEntity
  8
MAIN0
  6
BYBLOCK
 62
0
100
AcDbLine
 10
158.6971655399098
 20
511.1808172190226
 30
0.0000000000000000
 11
158.6971655399098
 21
558.3966828036382
 31
0.0000000000000000
  0
MTEXT
  5
1DC
100
AcDbEntity
  8
MAIN0
  6
BYBLOCK
 62
0
100
AcDbMText
 10
206.6971655399098
 20
558.2216827321126
 30
0.0000000000000000
 40
4.649999856948853
 41
0.0000000000000000
 71
     5
 72
     1
  1
\A1;96
 11
1.000000000000000
 21
0.0000000000000000
 31
0.0000000000000000
  7
STANDARD
  0
ENDBLK
  5
1DD
100
AcDbEntity
  8
MAIN0
  6
CONTINUOUS
 62
3
100
AcDbBlockEnd
  0
BLOCK
  5
1DF
100
AcDbEntity
  8
MAIN0
  6
CONTINUOUS
 62
3
100
AcDbBlockBegin
  2
*D7
 70
    65
 10
0.0
 20
0.0
 30
0.0
  0
LINE
  5
1E0
100
AcDbEntity
  8
MAIN0
  6
BYBLOCK
 62
0
100
AcDbLine
 10
254.6971655399098
 20
512.3808172190229
 30
0.0000000000000000
 11
254.6971655399098
 21
544.5047950697184
 31
0.0000000000000000
  0
LINE
  5
1E1
100
AcDbEntity
  8
MAIN0
  6
BYBLOCK
 62
0
100
AcDbLine
 10
251.6971655399098
 20
541.5047950697184
 30
0.0000000000000000
 11
193.1971655399098
 21
541.5047950697184
 31
0.0000000000000000
  0
INSERT
  5
1E2
100
AcDbEntity
  8
MAIN0
  6
BYBLOCK
 62
0
100
AcDbBlockReference
  2
_OPEN
 10
254.6971655399098
 20
541.5047950697184
 30
0.0000000000000000
 41
3.000000000000000
 42
3.000000000000000
 43
3.000000000000000
 50
360.0000000000000
  0
INSERT
  5
1E3
100
AcDbEntity
  8
MAIN0
  6
BYBLOCK
 62
0
100
AcDbBlockReference
  2
_OPEN
 10
190.1971655399098
 20
541.5047950697184
 30
0.0000000000000000
 41
3.000000000000000
 42
3.000000000000000
 43
3.000000000000000
 50
180.0000000000000
  0
MTEXT
  5
1E4
100
AcDbEntity
  8
MAIN0
  6
BYBLOCK
 62
0
100
AcDbMText
 10
222.4471655399098
 20
544.3297949981928
 30
0.0000000000000000
 40
4.649999856948853
 41
0.0000000000000000
 71
     5
 72
     1
  1
\A1;64.5
 11
1.000000000000000
 21
0.0000000000000000
 31
0.0000000000000000
  7
STANDARD
  0
ENDBLK
  5
1E5
100
AcDbEntity
  8
MAIN0
  6
CONTINUOUS
 62
3
100
AcDbBlockEnd
  0
BLOCK
  5
1E7
100
AcDbEntity
  8
MAIN0
  6
CONTINUOUS
 62
3
100
AcDbBlockBegin
  2
*D8
 70
    65
 10
0.0
 20
0.0
 30
0.0
  0
LINE
  5
1E8
100
AcDbEntity
  8
MAIN0
  6
BYBLOCK
 62
0
100
AcDbLine
 10
187.1971655399098
 20
541.5047950697184
 30
0.0000000000000000
 11
161.6971655399098
 21
541.5047950697184
 31
0.0000000000000000
  0
INSERT
  5
1E9
100
AcDbEntity
  8
MAIN0
  6
BYBLOCK
 62
0
100
AcDbBlockReference
  2
_OPEN
 10
190.1971655399098
 20
541.5047950697184
 30
0.0000000000000000
 41
3.000000000000000
 42
3.000000000000000
 43
3.000000000000000
 50
360.0000000000000
  0
INSERT
  5
1EA
100
AcDbEntity
  8
MAIN0
  6
BYBLOCK
 62
0
100
AcDbBlockReference
  2
_OPEN
 10
158.6971655399098
 20
541.5047950697184
 30
0.0000000000000000
 41
3.000000000000000
 42
3.000000000000000
 43
3.000000000000000
 50
180.0000000000000
  0
LINE
  5
1EB
100
AcDbEntity
  8
MAIN0
  6
BYBLOCK
 62
0
100
AcDbLine
 10
158.6971655399098
 20
511.1808172190226
 30
0.0000000000000000
 11
158.6971655399098
 21
544.5047950697184
 31
0.0000000000000000
  0
MTEXT
  5
1EC
100
AcDbEntity
  8
MAIN0
  6
BYBLOCK
 62
0
100
AcDbMText
 10
174.4471655399098
 20
544.3297949981928
 30
0.0000000000000000
 40
4.649999856948853
 41
0.0000000000000000
 71
     5
 72
     1
  1
\A1;31.5
 11
1.000000000000000
 21
0.0000000000000000
 31
0.0000000000000000
  7
STANDARD
  0
ENDBLK
  5
1ED
100
AcDbEntity
  8
MAIN0
  6
CONTINUOUS
 62
3
100
AcDbBlockEnd
  0
BLOCK
  5
1EF
100
AcDbEntity
  8
MAIN0
  6
CONTINUOUS
 62
3
100
AcDbBlockBegin
  2
*D9
 70
    65
 10
0.0
 20
0.0
 30
0.0
  0
LINE
  5
1F0
100
AcDbEntity
  8
MAIN0
  6
BYBLOCK
 62
0
100
AcDbLine
 10
159.4971655220284
 20
511.9808172011412
 30
0.0000000000000000
 11
95.72389234672721
 21
511.9808172011412
 31
0.0000000000000000
  0
LINE
  5
1F1
100
AcDbEntity
  8
MAIN0
  6
BYBLOCK
 62
0
100
AcDbLine
 10
98.72389234672721
 20
508.9808172011412
 30
0.0000000000000000
 11
98.72389234672721
 21
204.9808172011412
 31
0.0000000000000000
  0
INSERT
  5
1F2
100
AcDbEntity
  8
MAIN0
  6
BYBLOCK
 62
0
100
AcDbBlockReference
  2
_OPEN
 10
98.72389234672721
 20
511.9808172011412
 30
0.0000000000000000
 41
3.000000000000000
 42
3.000000000000000
 43
3.000000000000000
 50
90.00000000000000
  0
INSERT
  5
1F3
100
AcDbEntity
  8
MAIN0
  6
BYBLOCK
 62
0
100
AcDbBlockReference
  2
_OPEN
 10
98.72389234672721
 20
201.9808172011412
 30
0.0000000000000000
 41
3.000000000000000
 42
3.000000000000000
 43
3.000000000000000
 50
270.0000000000000
  0
LINE
  5
1F4
100
AcDbEntity
  8
MAIN0
  6
BYBLOCK
 62
0
100
AcDbLine
 10
159.4971655220279
 20
201.9808172011412
 30
0.0000000000000000
 11
95.72389234672721
 21
201.9808172011412
 31
0.0000000000000000
  0
MTEXT
  5
1F5
100
AcDbEntity
  8
MAIN0
  6
BYBLOCK
 62
0
100
AcDbMText
 10
95.89889241825279
 20
356.9808172011412
 30
0.0000000000000000
 40
4.649999856948853
 41
0.0000000000000000
 71
     5
 72
     1
  1
\A1;\U+2205310
 11
6.123233995736766e-017
 21
1.000000000000000
 31
0.0000000000000000
  7
STANDARD
  0
ENDBLK
  5
1F6
100
AcDbEntity
  8
MAIN0
  6
CONTINUOUS
 62
3
100
AcDbBlockEnd
  0
BLOCK
  5
1F8
100
AcDbEntity
  8
MAIN0
  6
CONTINUOUS
 62
3
100
AcDbBlockBegin
  2
*D10
 70
    65
 10
0.0
 20
0.0
 30
0.0
  0
LINE
  5
1F9
100
AcDbEntity
  8
MAIN0
  6
BYBLOCK
 62
0
100
AcDbLine
 10
157.4971655220284
 20
486.9808172011412
 30
0.0000000000000000
 11
113.2238923467272
 21
486.9808172011412
 31
0.0000000000000000
  0
LINE
  5
1FA
100
AcDbEntity
  8
MAIN0
  6
BYBLOCK
 62
0
100
AcDbLine
 10
116.2238923467272
 20
483.9808172011412
 30
0.0000000000000000
 11
116.2238923467272
 21
229.9808172011412
 31
0.0000000000000000
  0
INSERT
  5
1FB
100
AcDbEntity
  8
MAIN0
  6
BYBLOCK
 62
0
100
AcDbBlockReference
  2
_OPEN
 10
116.2238923467272
 20
486.9808172011412
 30
0.0000000000000000
 41
3.000000000000000
 42
3.000000000000000
 43
3.000000000000000
 50
90.00000000000000
  0
INSERT
  5
1FC
100
AcDbEntity
  8
MAIN0
  6
BYBLOCK
 62
0
100
AcDbBlockReference
  2
_OPEN
 10
116.2238923467272
 20
226.9808172011412
 30
0.0000000000000000
 41
3.000000000000000
 42
3.000000000000000
 43
3.000000000000000
 50
270.0000000000000
  0
LINE
  5
1FD
100
AcDbEntity
  8
MAIN0
  6
BYBLOCK
 62
0
100
AcDbLine
 10
157.4971655220280
 20
226.9808172011412
 30
0.0000000000000000
 11
113.2238923467272
 21
226.9808172011412
 31
0.0000000000000000
  0
MTEXT
  5
1FE
100
AcDbEntity
  8
MAIN0
  6
BYBLOCK
 62
0
100
AcDbMText
 10
113.3988924182528
 20
356.9808171825148
 30
0.0000000000000000
 40
4.649999856948853
 41
0.0000000000000000
 71
     5
 72
     1
  1
\A1;\U+2205260H6\H0.903226x;\S＋0.032^ 　0;
 11
6.123233995736766e-017
 21
1.000000000000000
 31
0.0000000000000000
  7
KNJYOKO
  0
ENDBLK
  5
1FF
100
AcDbEntity
  8
MAIN0
  6
CONTINUOUS
 62
3
100
AcDbBlockEnd
  0
BLOCK
  5
202
100
AcDbEntity
  8
MAIN0
  6
CONTINUOUS
 62
3
100
AcDbBlockBegin
  2
*D11
 70
    65
 10
0.0
 20
0.0
 30
0.0
  0
LINE
  5
203
100
AcDbEntity
  8
MAIN0
  6
BYBLOCK
 62
0
100
AcDbLine
 10
158.6971655399093
 20
326.6294883702011
 30
0.0000000000000000
 11
165.6971655399094
 21
326.6294883702011
 31
0.0000000000000000
  0
INSERT
  5
204
100
AcDbEntity
  8
MAIN0
  6
BYBLOCK
 62
0
100
AcDbBlockReference
  2
_OPEN
 10
158.6971655399093
 20
326.6294883702011
 30
0.0000000000000000
 41
3.000000000000000
 42
3.000000000000000
 43
3.000000000000000
 50
0.0000000000000000
  0
INSERT
  5
205
100
AcDbEntity
  8
MAIN0
  6
BYBLOCK
 62
0
100
AcDbBlockReference
  2
_OPEN
 10
165.6971655399094
 20
326.6294883702011
 30
0.0000000000000000
 41
3.000000000000000
 42
3.000000000000000
 43
3.000000000000000
 50
180.0000000000000
  0
LINE
  5
206
100
AcDbEntity
  8
MAIN0
  6
BYBLOCK
 62
0
100
AcDbLine
 10
155.6971655399093
 20
326.6294883702011
 30
0.0000000000000000
 11
152.2238923467272
 21
326.6294883702011
 31
0.0000000000000000
  0
LINE
  5
207
100
AcDbEntity
  8
MAIN0
  6
BYBLOCK
 62
0
100
AcDbLine
 10
168.6971655399094
 20
326.6294883702011
 30
0.0000000000000000
 11
170.1971655399094
 21
326.6294883702011
 31
0.0000000000000000
  0
MTEXT
  5
208
100
AcDbEntity
  8
MAIN0
  6
BYBLOCK
 62
0
100
AcDbMText
 10
153.7238923467272
 20
329.7044882986755
 30
0.0000000000000000
 40
4.649999856948853
 41
0.0000000000000000
 71
     5
 72
     1
  1
\A1;7
 11
1.000000000000000
 21
0.0000000000000000
 31
0.0000000000000000
  7
STANDARD
  0
ENDBLK
  5
209
100
AcDbEntity
  8
MAIN0
  6
CONTINUOUS
 62
3
100
AcDbBlockEnd
  0
BLOCK
  5
20B
100
AcDbEntity
  8
MAIN0
  6
CONTINUOUS
 62
3
100
AcDbBlockBegin
  2
*D12
 70
    65
 10
0.0
 20
0.0
 30
0.0
  0
LINE
  5
20C
100
AcDbEntity
  8
MAIN0
  6
BYBLOCK
 62
0
100
AcDbLine
 10
200.1621244915841
 20
585.2371334070707
 30
0.0000000000000000
 11
211.2858469901362
 21
574.1134109085008
 31
0.0000000000000000
  0
LINE
  5
20D
100
AcDbEntity
  8
MAIN0
  6
BYBLOCK
 62
0
100
AcDbLine
 10
207.0432063030170
 20
574.1134109085041
 30
0.0000000000000000
 11
201.3863520535201
 21
568.4565566590162
 31
0.0000000000000000
  0
INSERT
  5
20E
100
AcDbEntity
  8
MAIN0
  6
BYBLOCK
 62
0
100
AcDbBlockReference
  2
_OPEN
 10
209.1645266465783
 20
576.2347312520620
 30
0.0000000000000000
 41
3.000000000000000
 42
3.000000000000000
 43
3.000000000000000
 50
44.99999999995441
  0
INSERT
  5
20F
100
AcDbEntity
  8
MAIN0
  6
BYBLOCK
 62
0
100
AcDbBlockReference
  2
_OPEN
 10
199.2650317099588
 20
566.3352363154583
 30
0.0000000000000000
 41
3.000000000000000
 42
3.000000000000000
 43
3.000000000000000
 50
224.9999999999544
  0
LINE
  5
210
100
AcDbEntity
  8
MAIN0
  6
BYBLOCK
 62
0
100
AcDbLine
 10
209.1645266465783
 20
576.2347312520620
 30
0.0000000000000000
 11
225.5113234788979
 21
592.5815280843557
 31
0.0000000000000000
  0
LINE
  5
211
100
AcDbEntity
  8
MAIN0
  6
BYBLOCK
 62
0
100
AcDbLine
 10
190.2626295549658
 20
575.3376384704657
 30
0.0000000000000000
 11
201.3863520535167
 21
564.2139159718969
 31
0.0000000000000000
  0
MTEXT
  5
212
100
AcDbEntity
  8
MAIN0
  6
BYBLOCK
 62
0
100
AcDbMText
 10
216.8404265402185
 20
588.2593377488313
 30
0.0000000000000000
 40
4.649999856948853
 41
0.0000000000000000
 71
     5
 72
     1
  1
\A1;14\H0.903226x;\S+0.15^ +0.05;
 11
0.7071067811871090
 21
0.7071067811859860
 31
0.0000000000000000
  7
STANDARD
  0
ENDBLK
  5
213
100
AcDbEntity
  8
MAIN0
  6
CONTINUOUS
 62
3
100
AcDbBlockEnd
  0
BLOCK
  5
215
100
AcDbEntity
  8
MAIN0
  6
CONTINUOUS
 62
3
100
AcDbBlockBegin
  2
*D13
 70
    65
 10
0.0
 20
0.0
 30
0.0
  0
LINE
  5
216
100
AcDbEntity
  8
MAIN0
  6
BYBLOCK
 62
0
100
AcDbLine
 10
177.9971655220282
 20
404.9808172011412
 30
0.0000000000000000
 11
130.7238923467272
 21
404.9808172011412
 31
0.0000000000000000
  0
LINE
  5
217
100
AcDbEntity
  8
MAIN0
  6
BYBLOCK
 62
0
100
AcDbLine
 10
133.7238923467272
 20
401.9808172011412
 30
0.0000000000000000
 11
133.7238923467272
 21
311.9808172011412
 31
0.0000000000000000
  0
INSERT
  5
218
100
AcDbEntity
  8
MAIN0
  6
BYBLOCK
 62
0
100
AcDbBlockReference
  2
_OPEN
 10
133.7238923467272
 20
404.9808172011412
 30
0.0000000000000000
 41
3.000000000000000
 42
3.000000000000000
 43
3.000000000000000
 50
90.00000000000000
  0
INSERT
  5
219
100
AcDbEntity
  8
MAIN0
  6
BYBLOCK
 62
0
100
AcDbBlockReference
  2
_OPEN
 10
133.7238923467272
 20
308.9808172011412
 30
0.0000000000000000
 41
3.000000000000000
 42
3.000000000000000
 43
3.000000000000000
 50
270.0000000000000
  0
LINE
  5
21A
100
AcDbEntity
  8
MAIN0
  6
BYBLOCK
 62
0
100
AcDbLine
 10
177.9971655220281
 20
308.9808172011412
 30
0.0000000000000000
 11
130.7238923467272
 21
308.9808172011412
 31
0.0000000000000000
  0
MTEXT
  5
21B
100
AcDbEntity
  8
MAIN0
  6
BYBLOCK
 62
0
100
AcDbMText
 10
130.8988924182528
 20
356.9808172011412
 30
0.0000000000000000
 40
4.649999856948853
 41
0.0000000000000000
 71
     5
 72
     1
  1
\A1;\U+220596
 11
6.123233995736766e-017
 21
1.000000000000000
 31
0.0000000000000000
  7
STANDARD
  0
ENDBLK
  5
21C
100
AcDbEntity
  8
MAIN0
  6
CONTINUOUS
 62
3
100
AcDbBlockEnd
  0
BLOCK
  5
21E
100
AcDbEntity
  8
MAIN0
  6
CONTINUOUS
 62
3
100
AcDbBlockBegin
  2
*D14
 70
    65
 10
0.0
 20
0.0
 30
0.0
  0
LINE
  5
21F
100
AcDbEntity
  8
MAIN0
  6
BYBLOCK
 62
0
100
AcDbLine
 10
299.8971655577910
 20
372.2308172011411
 30
0.0000000000000000
 11
321.7238923467272
 21
372.2308172011410
 31
0.0000000000000000
  0
LINE
  5
220
100
AcDbEntity
  8
MAIN0
  6
BYBLOCK
 62
0
100
AcDbLine
 10
318.7238923467272
 20
369.2308172011410
 30
0.0000000000000000
 11
318.7238923467272
 21
344.7308172011410
 31
0.0000000000000000
  0
INSERT
  5
221
100
AcDbEntity
  8
MAIN0
  6
BYBLOCK
 62
0
100
AcDbBlockReference
  2
_OPEN
 10
318.7238923467272
 20
372.2308172011410
 30
0.0000000000000000
 41
3.000000000000000
 42
3.000000000000000
 43
3.000000000000000
 50
90.00000000000000
  0
INSERT
  5
222
100
AcDbEntity
  8
MAIN0
  6
BYBLOCK
 62
0
100
AcDbBlockReference
  2
_OPEN
 10
318.7238923467272
 20
341.7308172011410
 30
0.0000000000000000
 41
3.000000000000000
 42
3.000000000000000
 43
3.000000000000000
 50
270.0000000000000
  0
LINE
  5
223
100
AcDbEntity
  8
MAIN0
  6
BYBLOCK
 62
0
100
AcDbLine
 10
299.8971655577909
 20
341.7308172011410
 30
0.0000000000000000
 11
321.7238923467272
 21
341.7308172011410
 31
0.0000000000000000
  0
MTEXT
  5
224
100
AcDbEntity
  8
MAIN0
  6
BYBLOCK
 62
0
100
AcDbMText
 10
315.8988924182528
 20
356.9808172011410
 30
0.0000000000000000
 40
4.649999856948853
 41
0.0000000000000000
 71
     5
 72
     1
  1
\A1;30.5
 11
6.123233995736766e-017
 21
1.000000000000000
 31
0.0000000000000000
  7
STANDARD
  0
ENDBLK
  5
225
100
AcDbEntity
  8
MAIN0
  6
CONTINUOUS
 62
3
100
AcDbBlockEnd
  0
BLOCK
  5
236
100
AcDbEntity
  8
MAIN0
  6
CONTINUOUS
 62
3
100
AcDbBlockBegin
  2
*D15
 70
    65
 10
0.0
 20
0.0
 30
0.0
  0
LINE
  5
237
100
AcDbEntity
  8
MAIN0
  6
BYBLOCK
 62
0
100
AcDbLine
 10
255.8971655577911
 20
507.9808172012345
 30
0.0000000000000000
 11
279.2238923467272
 21
507.9808172012426
 31
0.0000000000000000
  0
LINE
  5
238
100
AcDbEntity
  8
MAIN0
  6
BYBLOCK
 62
0
100
AcDbLine
 10
276.2238923467272
 20
504.9808172012416
 30
0.0000000000000000
 11
276.2238923467272
 21
490.9808172012340
 31
0.0000000000000000
  0
INSERT
  5
239
100
AcDbEntity
  8
MAIN0
  6
BYBLOCK
 62
0
100
AcDbBlockReference
  2
_OPEN
 10
276.2238923467272
 20
507.9808172012416
 30
0.0000000000000000
 41
3.000000000000000
 42
3.000000000000000
 43
3.000000000000000
 50
90.00000000000000
  0
INSERT
  5
23A
100
AcDbEntity
  8
MAIN0
  6
BYBLOCK
 62
0
100
AcDbBlockReference
  2
_OPEN
 10
276.2238923467272
 20
487.9808172012340
 30
0.0000000000000000
 41
3.000000000000000
 42
3.000000000000000
 43
3.000000000000000
 50
270.0000000000000
  0
LINE
  5
23B
100
AcDbEntity
  8
MAIN0
  6
BYBLOCK
 62
0
100
AcDbLine
 10
255.8971655577807
 20
487.9808172012340
 30
0.0000000000000000
 11
279.2238923467272
 21
487.9808172012340
 31
0.0000000000000000
  0
MTEXT
  5
23C
100
AcDbEntity
  8
MAIN0
  6
BYBLOCK
 62
0
100
AcDbMText
 10
273.3988924182528
 20
497.9808172012378
 30
0.0000000000000000
 40
4.649999856948853
 41
0.0000000000000000
 71
     5
 72
     1
  1
\A1;\U+220520
 11
6.123233995736766e-017
 21
1.000000000000000
 31
0.0000000000000000
  7
STANDARD
  0
ENDBLK
  5
23D
100
AcDbEntity
  8
MAIN0
  6
CONTINUOUS
 62
3
100
AcDbBlockEnd
  0
BLOCK
  5
23F
100
AcDbEntity
  8
MAIN0
  6
CONTINUOUS
 62
3
100
AcDbBlockBegin
  2
*D16
 70
    65
 10
0.0
 20
0.0
 30
0.0
  0
LINE
  5
240
100
AcDbEntity
  8
MAIN0
  6
BYBLOCK
 62
0
100
AcDbLine
 10
157.4971655220284
 20
504.7308172012842
 30
0.0000000000000000
 11
130.7238923467272
 21
504.7308172012842
 31
0.0000000000000000
  0
LINE
  5
241
100
AcDbEntity
  8
MAIN0
  6
BYBLOCK
 62
0
100
AcDbLine
 10
133.7238923467272
 20
501.7308172012842
 30
0.0000000000000000
 11
133.7238923467272
 21
494.2308172012842
 31
0.0000000000000000
  0
INSERT
  5
242
100
AcDbEntity
  8
MAIN0
  6
BYBLOCK
 62
0
100
AcDbBlockReference
  2
_OPEN
 10
133.7238923467272
 20
504.7308172012842
 30
0.0000000000000000
 41
3.000000000000000
 42
3.000000000000000
 43
3.000000000000000
 50
90.00000000000000
  0
INSERT
  5
243
100
AcDbEntity
  8
MAIN0
  6
BYBLOCK
 62
0
100
AcDbBlockReference
  2
_OPEN
 10
133.7238923467272
 20
491.2308172012842
 30
0.0000000000000000
 41
3.000000000000000
 42
3.000000000000000
 43
3.000000000000000
 50
270.0000000000000
  0
LINE
  5
244
100
AcDbEntity
  8
MAIN0
  6
BYBLOCK
 62
0
100
AcDbLine
 10
157.4971655220213
 20
491.2308172012842
 30
0.0000000000000000
 11
130.7238923467272
 21
491.2308172012842
 31
0.0000000000000000
  0
MTEXT
  5
245
100
AcDbEntity
  8
MAIN0
  6
BYBLOCK
 62
0
100
AcDbMText
 10
130.8988924182528
 20
497.9808172012842
 30
0.0000000000000000
 40
4.649999856948853
 41
0.0000000000000000
 71
     5
 72
     1
  1
\A1;\U+220513.5
 11
6.123233995736766e-017
 21
1.000000000000000
 31
0.0000000000000000
  7
STANDARD
  0
ENDBLK
  5
246
100
AcDbEntity
  8
MAIN0
  6
CONTINUOUS
 62
3
100
AcDbBlockEnd
  0
BLOCK
  5
248
100
AcDbEntity
  8
MAIN0
  6
CONTINUOUS
 62
3
100
AcDbBlockBegin
  2
*D17
 70
    65
 10
0.0
 20
0.0
 30
0.0
  0
LINE
  5
249
100
AcDbEntity
  8
MAIN0
  6
BYBLOCK
 62
0
100
AcDbLine
 10
240.1971655399004
 20
486.7808171833602
 30
0.0000000000000000
 11
240.1971655399125
 21
473.6294883702011
 31
0.0000000000000000
  0
LINE
  5
24A
100
AcDbEntity
  8
MAIN0
  6
BYBLOCK
 62
0
100
AcDbLine
 10
240.1971655399098
 20
476.6294883702011
 30
0.0000000000000000
 11
254.6971655399098
 21
476.6294883702011
 31
0.0000000000000000
  0
INSERT
  5
24B
100
AcDbEntity
  8
MAIN0
  6
BYBLOCK
 62
0
100
AcDbBlockReference
  2
_OPEN
 10
240.1971655399098
 20
476.6294883702011
 30
0.0000000000000000
 41
3.000000000000000
 42
3.000000000000000
 43
3.000000000000000
 50
0.0000000000000000
  0
INSERT
  5
24C
100
AcDbEntity
  8
MAIN0
  6
BYBLOCK
 62
0
100
AcDbBlockReference
  2
_OPEN
 10
254.6971655399098
 20
476.6294883702011
 30
0.0000000000000000
 41
3.000000000000000
 42
3.000000000000000
 43
3.000000000000000
 50
180.0000000000000
  0
LINE
  5
24D
100
AcDbEntity
  8
MAIN0
  6
BYBLOCK
 62
0
100
AcDbLine
 10
237.1971655399098
 20
476.6294883702011
 30
0.0000000000000000
 11
235.6971655399098
 21
476.6294883702011
 31
0.0000000000000000
  0
LINE
  5
24E
100
AcDbEntity
  8
MAIN0
  6
BYBLOCK
 62
0
100
AcDbLine
 10
257.6971655399098
 20
476.6294883702011
 30
0.0000000000000000
 11
259.1971655399098
 21
476.6294883702011
 31
0.0000000000000000
  0
MTEXT
  5
24F
100
AcDbEntity
  8
MAIN0
  6
BYBLOCK
 62
0
100
AcDbMText
 10
247.4471655399098
 20
479.4544882986755
 30
0.0000000000000000
 40
4.649999856948853
 41
0.0000000000000000
 71
     5
 72
     1
  1
\A1;14.5
 11
1.000000000000000
 21
0.0000000000000000
 31
0.0000000000000000
  7
STANDARD
  0
ENDBLK
  5
250
100
AcDbEntity
  8
MAIN0
  6
CONTINUOUS
 62
3
100
AcDbBlockEnd
  0
BLOCK
  5
25E
100
AcDbEntity
  8
MAIN0
  6
CONTINUOUS
 62
3
100
AcDbBlockBegin
  2
*D18
 70
    65
 10
0.0
 20
0.0
 30
0.0
  0
LINE
  5
25F
100
AcDbEntity
  8
MAIN0
  6
BYBLOCK
 62
0
100
AcDbLine
 10
254.6971655399098
 20
512.3808172190225
 30
0.0000000000000000
 11
254.6971655399098
 21
532.1294883702011
 31
0.0000000000000000
  0
LINE
  5
260
100
AcDbEntity
  8
MAIN0
  6
BYBLOCK
 62
0
100
AcDbLine
 10
251.6971655399098
 20
529.1294883702011
 30
0.0000000000000000
 11
234.1971655399098
 21
529.1294883702011
 31
0.0000000000000000
  0
INSERT
  5
261
100
AcDbEntity
  8
MAIN0
  6
BYBLOCK
 62
0
100
AcDbBlockReference
  2
_OPEN
 10
254.6971655399098
 20
529.1294883702011
 30
0.0000000000000000
 41
3.000000000000000
 42
3.000000000000000
 43
3.000000000000000
 50
360.0000000000000
  0
INSERT
  5
262
100
AcDbEntity
  8
MAIN0
  6
BYBLOCK
 62
0
100
AcDbBlockReference
  2
_OPEN
 10
231.1971655399098
 20
529.1294883702011
 30
0.0000000000000000
 41
3.000000000000000
 42
3.000000000000000
 43
3.000000000000000
 50
180.0000000000000
  0
LINE
  5
263
100
AcDbEntity
  8
MAIN0
  6
BYBLOCK
 62
0
100
AcDbLine
 10
231.1971655399098
 20
517.8294883880825
 30
0.0000000000000000
 11
231.1971655399098
 21
532.1294883702011
 31
0.0000000000000000
  0
MTEXT
  5
264
100
AcDbEntity
  8
MAIN0
  6
BYBLOCK
 62
0
100
AcDbMText
 10
246.3813711978072
 20
532.2044882986755
 30
0.0000000000000000
 40
4.649999856948853
 41
0.0000000000000000
 71
     5
 72
     1
  1
\A1;23.5
 11
1.000000000000000
 21
0.0000000000000000
 31
0.0000000000000000
  7
STANDARD
  0
ENDBLK
  5
265
100
AcDbEntity
  8
MAIN0
  6
CONTINUOUS
 62
3
100
AcDbBlockEnd
  0
BLOCK
  5
269
100
AcDbEntity
  8
MAIN0
  6
CONTINUOUS
 62
3
100
AcDbBlockBegin
  2
*D19
 70
    65
 10
0.0
 20
0.0
 30
0.0
  0
LINE
  5
26A
100
AcDbEntity
  8
MAIN0
  6
BYBLOCK
 62
0
100
AcDbLine
 10
676.5538339689101
 20
271.2638821330743
 30
0.0000000000000000
 11
679.2898331190983
 21
269.6842522872154
 31
0.0000000000000000
  0
ARC
  5
26B
100
AcDbEntity
  8
MAIN0
  6
BYBLOCK
 62
0
100
AcDbCircle
 10
528.0877473614698
 20
356.9808172011416
 30
0.0000000000000000
 40
171.5931298282626
100
AcDbArc
 50
271.0017145716222
 51
328.9982854284554
  0
INSERT
  5
26C
100
AcDbEntity
  8
MAIN0
  6
BYBLOCK
 62
0
100
AcDbBlockReference
  2
_OPEN
 10
528.0877473614695
 20
185.3876873728791
 30
0.0000000000000000
 41
3.000000000000000
 42
3.000000000000000
 43
3.000000000000000
 50
179.9999999999999
  0
INSERT
  5
26D
100
AcDbEntity
  8
MAIN0
  6
BYBLOCK
 62
0
100
AcDbBlockReference
  2
_OPEN
 10
676.6917569077430
 20
271.1842522872120
 30
0.0000000000000000
 41
3.000000000000000
 42
3.000000000000000
 43
3.000000000000000
 50
60.00000000007771
  0
MTEXT
  5
26E
100
AcDbEntity
  8
MAIN0
  6
BYBLOCK
 62
0
100
AcDbMText
 10
612.4718123114629
 20
210.8233293587903
 30
0.0000000000000000
 40
4.649999856948853
 41
0.0000000000000000
 71
     5
 72
     1
  1
\A1;60\U+00B0
 11
0.8660254037840997
 21
0.5000000000005871
 31
0.0000000000000000
  7
STANDARD
  0
ENDBLK
  5
26F
100
AcDbEntity
  8
MAIN0
  6
CONTINUOUS
 62
3
100
AcDbBlockEnd
  0
BLOCK
  5
271
100
AcDbEntity
  8
MAIN0
  6
CONTINUOUS
 62
3
100
AcDbBlockBegin
  2
*D20
 70
    65
 10
0.0
 20
0.0
 30
0.0
  0
LINE
  5
272
100
AcDbEntity
  8
MAIN0
  6
BYBLOCK
 62
0
100
AcDbLine
 10
676.5538339689101
 20
271.2638821330743
 30
0.0000000000000000
 11
679.2898331190983
 21
269.6842522872154
 31
0.0000000000000000
  0
ARC
  5
273
100
AcDbEntity
  8
MAIN0
  6
BYBLOCK
 62
0
100
AcDbCircle
 10
528.0877473614698
 20
356.9808172011416
 30
0.0000000000000000
 40
171.5931298282626
100
AcDbArc
 50
331.0017145717001
 51
358.9982854283777
  0
INSERT
  5
274
100
AcDbEntity
  8
MAIN0
  6
BYBLOCK
 62
0
100
AcDbBlockReference
  2
_OPEN
 10
676.6917569077430
 20
271.1842522872120
 30
0.0000000000000000
 41
3.000000000000000
 42
3.000000000000000
 43
3.000000000000000
 50
240.0000000000778
  0
INSERT
  5
275
100
AcDbEntity
  8
MAIN0
  6
BYBLOCK
 62
0
100
AcDbBlockReference
  2
_OPEN
 10
699.6808771897324
 20
356.9808172011416
 30
0.0000000000000000
 41
3.000000000000000
 42
3.000000000000000
 43
3.000000000000000
 50
90.00000000000000
  0
MTEXT
  5
276
100
AcDbEntity
  8
MAIN0
  6
BYBLOCK
 62
0
100
AcDbMText
 10
691.1052426862133
 20
313.3004109768509
 30
0.0000000000000000
 40
4.649999856948853
 41
0.0000000000000000
 71
     5
 72
     1
  1
\A1;30\U+00B0
 11
0.2588190451018651
 21
0.9659258262892440
 31
0.0000000000000000
  7
STANDARD
  0
ENDBLK
  5
277
100
AcDbEntity
  8
MAIN0
  6
CONTINUOUS
 62
3
100
AcDbBlockEnd
  0
BLOCK
  5
279
100
AcDbEntity
  8
MAIN0
  6
CONTINUOUS
 62
3
100
AcDbBlockBegin
  2
*D21
 70
    65
 10
0.0
 20
0.0
 30
0.0
  0
LINE
  5
27A
100
AcDbEntity
  8
MAIN0
  6
BYBLOCK
 62
0
100
AcDbLine
 10
671.0541580551294
 20
439.5225128999408
 30
0.0000000000000000
 11
679.2898331190988
 21
444.2773821150668
 31
0.0000000000000000
  0
ARC
  5
27B
100
AcDbEntity
  8
MAIN0
  6
BYBLOCK
 62
0
100
AcDbCircle
 10
528.0877473614698
 20
356.9808172011416
 30
0.0000000000000000
 40
171.5931298282626
100
AcDbArc
 50
1.001714571622295
 51
28.99828542829960
  0
INSERT
  5
27C
100
AcDbEntity
  8
MAIN0
  6
BYBLOCK
 62
0
100
AcDbBlockReference
  2
_OPEN
 10
699.6808771897324
 20
356.9808172011416
 30
0.0000000000000000
 41
3.000000000000000
 42
3.000000000000000
 43
3.000000000000000
 50
270.0000000000000
  0
INSERT
  5
27D
100
AcDbEntity
  8
MAIN0
  6
BYBLOCK
 62
0
100
AcDbBlockReference
  2
_OPEN
 10
676.6917569077435
 20
442.7773821150703
 30
0.0000000000000000
 41
3.000000000000000
 42
3.000000000000000
 43
3.000000000000000
 50
119.9999999999219
  0
MTEXT
  5
27E
100
AcDbEntity
  8
MAIN0
  6
BYBLOCK
 62
0
100
AcDbMText
 10
691.1052426862134
 20
400.6612234254320
 30
0.0000000000000000
 40
4.649999856948853
 41
0.0000000000000000
 71
     5
 72
     1
  1
\A1;30\U+00B0
 11
-0.2588190451018624
 21
0.9659258262892447
 31
0.0000000000000000
  7
STANDARD
  0
ENDBLK
  5
27F
100
AcDbEntity
  8
MAIN0
  6
CONTINUOUS
 62
3
100
AcDbBlockEnd
  0
BLOCK
  5
281
100
AcDbEntity
  8
MAIN0
  6
CONTINUOUS
 62
3
100
AcDbBlockBegin
  2
*D22
 70
    65
 10
0.0
 20
0.0
 30
0.0
  0
LINE
  5
282
100
AcDbEntity
  8
MAIN0
  6
BYBLOCK
 62
0
100
AcDbLine
 10
671.0541580551294
 20
439.5225128999408
 30
0.0000000000000000
 11
679.2898331190988
 21
444.2773821150668
 31
0.0000000000000000
  0
LINE
  5
283
100
AcDbEntity
  8
MAIN0
  6
BYBLOCK
 62
0
100
AcDbLine
 10
569.3715043883110
 20
511.0538959526404
 30
0.0000000000000000
 11
573.2757745050815
 21
525.6248303949008
 31
0.0000000000000000
  0
ARC
  5
284
100
AcDbEntity
  8
MAIN0
  6
BYBLOCK
 62
0
100
AcDbCircle
 10
528.0877473614698
 20
356.9808172011416
 30
0.0000000000000000
 40
171.5931298282626
100
AcDbArc
 50
31.00171457154419
 51
73.99828542837763
  0
INSERT
  5
285
100
AcDbEntity
  8
MAIN0
  6
BYBLOCK
 62
0
100
AcDbBlockReference
  2
_OPEN
 10
676.6917569077435
 20
442.7773821150703
 30
0.0000000000000000
 41
3.000000000000000
 42
3.000000000000000
 43
3.000000000000000
 50
299.9999999999219
  0
INSERT
  5
286
100
AcDbEntity
  8
MAIN0
  6
BYBLOCK
 62
0
100
AcDbBlockReference
  2
_OPEN
 10
572.4993173697739
 20
522.7270529160335
 30
0.0000000000000000
 41
3.000000000000000
 42
3.000000000000000
 43
3.000000000000000
 50
164.9999999999999
  0
MTEXT
  5
287
100
AcDbEntity
  8
MAIN0
  6
BYBLOCK
 62
0
100
AcDbMText
 10
634.2667772773039
 20
495.3560230509266
 30
0.0000000000000000
 40
4.649999856948853
 41
0.0000000000000000
 71
     5
 72
     1
  1
\A1;45\U+00B0
 11
0.7933533402908197
 21
-0.6087614290092621
 31
0.0000000000000000
  7
STANDARD
  0
ENDBLK
  5
288
100
AcDbEntity
  8
MAIN0
  6
CONTINUOUS
 62
3
100
AcDbBlockEnd
  0
BLOCK
  5
28A
100
AcDbEntity
  8
MAIN0
  6
CONTINUOUS
 62
3
100
AcDbBlockBegin
  2
*D23
 70
    65
 10
0.0
 20
0.0
 30
0.0
  0
LINE
  5
28B
100
AcDbEntity
  8
MAIN0
  6
BYBLOCK
 62
0
100
AcDbLine
 10
569.3715043883110
 20
511.0538959526404
 30
0.0000000000000000
 11
573.2757745050815
 21
525.6248303949008
 31
0.0000000000000000
  0
ARC
  5
28C
100
AcDbEntity
  8
MAIN0
  6
BYBLOCK
 62
0
100
AcDbCircle
 10
528.0877473614698
 20
356.9808172011416
 30
0.0000000000000000
 40
171.5931298282626
100
AcDbArc
 50
76.00171457162223
 51
88.99828542837761
  0
INSERT
  5
28D
100
AcDbEntity
  8
MAIN0
  6
BYBLOCK
 62
0
100
AcDbBlockReference
  2
_OPEN
 10
572.4993173697739
 20
522.7270529160335
 30
0.0000000000000000
 41
3.000000000000000
 42
3.000000000000000
 43
3.000000000000000
 50
344.9999999999999
  0
INSERT
  5
28E
100
AcDbEntity
  8
MAIN0
  6
BYBLOCK
 62
0
100
AcDbBlockReference
  2
_OPEN
 10
528.0877473614701
 20
528.5739470294043
 30
0.0000000000000000
 41
3.000000000000000
 42
3.000000000000000
 43
3.000000000000000
 50
179.9999999999999
  0
MTEXT
  5
28F
100
AcDbEntity
  8
MAIN0
  6
BYBLOCK
 62
0
100
AcDbMText
 10
550.8538816927600
 20
529.9067756788890
 30
0.0000000000000000
 40
4.649999856948853
 41
0.0000000000000000
 71
     5
 72
     1
  1
\A1;15\U+00B0
 11
0.9914448613738102
 21
-0.1305261922200534
 31
0.0000000000000000
  7
STANDARD
  0
ENDBLK
  5
290
100
AcDbEntity
  8
MAIN0
  6
CONTINUOUS
 62
3
100
AcDbBlockEnd
  0
BLOCK
  5
292
100
AcDbEntity
  8
MAIN0
  6
CONTINUOUS
 62
3
100
AcDbBlockBegin
  2
*D24
 70
    65
 10
0.0
 20
0.0
 30
0.0
  0
LINE
  5
293
100
AcDbEntity
  8
MAIN0
  6
BYBLOCK
 62
0
100
AcDbLine
 10
498.5800004604826
 20
438.0526855095935
 30
0.0000000000000000
 11
468.3733800732848
 21
521.0446929404411
 31
0.0000000000000000
  0
ARC
  5
294
100
AcDbEntity
  8
MAIN0
  6
BYBLOCK
 62
0
100
AcDbCircle
 10
528.0877473614698
 20
356.9808172011416
 30
0.0000000000000000
 40
171.5931298282626
100
AcDbArc
 50
91.00171457162222
 51
108.9982854286031
  0
INSERT
  5
295
100
AcDbEntity
  8
MAIN0
  6
BYBLOCK
 62
0
100
AcDbBlockReference
  2
_OPEN
 10
528.0877473614701
 20
528.5739470294043
 30
0.0000000000000000
 41
3.000000000000000
 42
3.000000000000000
 43
3.000000000000000
 50
359.9999999999999
  0
INSERT
  5
296
100
AcDbEntity
  8
MAIN0
  6
BYBLOCK
 62
0
100
AcDbBlockReference
  2
_OPEN
 10
469.3994405032730
 20
518.2256150780875
 30
0.0000000000000000
 41
3.000000000000000
 42
3.000000000000000
 43
3.000000000000000
 50
200.0000000002254
  0
MTEXT
  5
297
100
AcDbEntity
  8
MAIN0
  6
BYBLOCK
 62
0
100
AcDbMText
 10
497.8003569768005
 20
528.7491436514060
 30
0.0000000000000000
 40
4.649999856948853
 41
0.0000000000000000
 71
     5
 72
     1
  1
\A1;20\U+00B0
 11
0.9848077530118665
 21
0.1736481776688671
 31
0.0000000000000000
  7
STANDARD
  0
ENDBLK
  5
298
100
AcDbEntity
  8
MAIN0
  6
CONTINUOUS
 62
3
100
AcDbBlockEnd
  0
BLOCK
  5
29A
100
AcDbEntity
  8
MAIN0
  6
CONTINUOUS
 62
3
100
AcDbBlockBegin
  2
*D25
 70
    65
 10
0.0
 20
0.0
 30
0.0
  0
LINE
  5
29B
100
AcDbEntity
  8
MAIN0
  6
BYBLOCK
 62
0
100
AcDbLine
 10
298.6971655399095
 20
373.4308172190224
 30
0.0000000000000000
 11
298.6971655399092
 21
387.1294883702011
 31
0.0000000000000000
  0
LINE
  5
29C
100
AcDbEntity
  8
MAIN0
  6
BYBLOCK
 62
0
100
AcDbLine
 10
295.6971655399093
 20
384.1294883702011
 30
0.0000000000000000
 11
257.6971655399093
 21
384.1294883702011
 31
0.0000000000000000
  0
INSERT
  5
29D
100
AcDbEntity
  8
MAIN0
  6
BYBLOCK
 62
0
100
AcDbBlockReference
  2
_OPEN
 10
298.6971655399093
 20
384.1294883702011
 30
0.0000000000000000
 41
3.000000000000000
 42
3.000000000000000
 43
3.000000000000000
 50
360.0000000000000
  0
INSERT
  5
29E
100
AcDbEntity
  8
MAIN0
  6
BYBLOCK
 62
0
100
AcDbBlockReference
  2
_OPEN
 10
254.6971655399093
 20
384.1294883702011
 30
0.0000000000000000
 41
3.000000000000000
 42
3.000000000000000
 43
3.000000000000000
 50
180.0000000000000
  0
MTEXT
  5
29F
100
AcDbEntity
  8
MAIN0
  6
BYBLOCK
 62
0
100
AcDbMText
 10
276.6971655399093
 20
386.9544882986755
 30
0.0000000000000000
 40
4.649999856948853
 41
0.0000000000000000
 71
     5
 72
     1
  1
\A1;44
 11
1.000000000000000
 21
0.0000000000000000
 31
0.0000000000000000
  7
STANDARD
  0
ENDBLK
  5
2A0
100
AcDbEntity
  8
MAIN0
  6
CONTINUOUS
 62
3
100
AcDbBlockEnd
  0
BLOCK
  5
2A3
100
AcDbEntity
  8
MAIN0
  6
CONTINUOUS
 62
3
100
AcDbBlockBegin
  2
*D26
 70
    65
 10
0.0
 20
0.0
 30
0.0
  0
LINE
  5
2A4
100
AcDbEntity
  8
MAIN0
  6
BYBLOCK
 62
0
100
AcDbLine
 10
268.3971655577907
 20
201.9808172011408
 30
0.0000000000000000
 11
321.7238923467272
 21
201.9808172011409
 31
0.0000000000000000
  0
LINE
  5
2A5
100
AcDbEntity
  8
MAIN0
  6
BYBLOCK
 62
0
100
AcDbLine
 10
318.7238923467272
 20
204.9808172011409
 30
0.0000000000000000
 11
318.7238923467272
 21
311.9808172011411
 31
0.0000000000000000
  0
INSERT
  5
2A6
100
AcDbEntity
  8
MAIN0
  6
BYBLOCK
 62
0
100
AcDbBlockReference
  2
_OPEN
 10
318.7238923467272
 20
201.9808172011409
 30
0.0000000000000000
 41
3.000000000000000
 42
3.000000000000000
 43
3.000000000000000
 50
270.0000000000000
  0
INSERT
  5
2A7
100
AcDbEntity
  8
MAIN0
  6
BYBLOCK
 62
0
100
AcDbBlockReference
  2
_OPEN
 10
318.7238923467272
 20
314.9808172011411
 30
0.0000000000000000
 41
3.000000000000000
 42
3.000000000000000
 43
3.000000000000000
 50
90.00000000000000
  0
LINE
  5
2A8
100
AcDbEntity
  8
MAIN0
  6
BYBLOCK
 62
0
100
AcDbLine
 10
298.8971655577908
 20
314.9808172011411
 30
0.0000000000000000
 11
321.7238923467272
 21
314.9808172011411
 31
0.0000000000000000
  0
MTEXT
  5
2A9
100
AcDbEntity
  8
MAIN0
  6
BYBLOCK
 62
0
100
AcDbMText
 10
315.8988924182528
 20
258.4808172011410
 30
0.0000000000000000
 40
4.649999856948853
 41
0.0000000000000000
 71
     5
 72
     1
  1
\A1;113
 11
6.123233995736766e-017
 21
1.000000000000000
 31
0.0000000000000000
  7
STANDARD
  0
ENDBLK
  5
2AA
100
AcDbEntity
  8
MAIN0
  6
CONTINUOUS
 62
3
100
AcDbBlockEnd
  0
BLOCK
  5
2AC
100
AcDbEntity
  8
MAIN0
  6
CONTINUOUS
 62
3
100
AcDbBlockBegin
  2
*D27
 70
    65
 10
0.0
 20
0.0
 30
0.0
  0
LINE
  5
2AD
100
AcDbEntity
  8
MAIN0
  6
BYBLOCK
 62
0
100
AcDbLine
 10
435.1101486949306
 20
255.0045153158306
 30
0.0000000000000000
 11
621.0653460280087
 21
458.9571190864517
 31
0.0000000000000000
  0
INSERT
  5
2AE
100
AcDbEntity
  8
MAIN0
  6
BYBLOCK
 62
0
100
AcDbBlockReference
  2
_OPEN
 10
433.0888965500058
 20
252.7876391878891
 30
0.0000000000000000
 41
3.000000000000000
 42
3.000000000000000
 43
3.000000000000000
 50
227.6427889672358
  0
INSERT
  5
2AF
100
AcDbEntity
  8
MAIN0
  6
BYBLOCK
 62
0
100
AcDbBlockReference
  2
_OPEN
 10
623.0865981729335
 20
461.1739952143932
 30
0.0000000000000000
 41
3.000000000000000
 42
3.000000000000000
 43
3.000000000000000
 50
47.64278896723580
  0
MTEXT
  5
2B0
100
AcDbEntity
  8
MAIN0
  6
BYBLOCK
 62
0
100
AcDbMText
 10
454.8264524023359
 20
281.1930356043698
 30
0.0000000000000000
 40
4.649999856948853
 41
0.0000000000000000
 71
     5
 72
     1
  1
\A1;\U+2205282\H0.903226x;\U+00B10.2
 11
0.6737507149749208
 21
0.7389587093138446
 31
0.0000000000000000
  7
STANDARD
  0
ENDBLK
  5
2B1
100
AcDbEntity
  8
MAIN0
  6
CONTINUOUS
 62
3
100
AcDbBlockEnd
  0
BLOCK
  5
2B3
100
AcDbEntity
  8
MAIN0
  6
CONTINUOUS
 62
3
100
AcDbBlockBegin
  2
*D28
 70
    65
 10
0.0
 20
0.0
 30
0.0
  0
LINE
  5
2B4
100
AcDbEntity
  8
MAIN0
  6
BYBLOCK
 62
0
100
AcDbLine
 10
798.6971655399095
 20
487.3383542621173
 30
0.0000000000000000
 11
798.6971655399095
 21
499.3383542621173
 31
0.0000000000000000
  0
INSERT
  5
2B5
100
AcDbEntity
  8
MAIN0
  6
BYBLOCK
 62
0
100
AcDbBlockReference
  2
_OPEN
 10
798.6971655399095
 20
484.3383542621173
 30
0.0000000000000000
 41
3.000000000000000
 42
3.000000000000000
 43
3.000000000000000
 50
270.0000000000000
  0
INSERT
  5
2B6
100
AcDbEntity
  8
MAIN0
  6
BYBLOCK
 62
0
100
AcDbBlockReference
  2
_OPEN
 10
798.6971655399095
 20
502.3383542621173
 30
0.0000000000000000
 41
3.000000000000000
 42
3.000000000000000
 43
3.000000000000000
 50
90.00000000000000
  0
LINE
  5
2B7
100
AcDbEntity
  8
MAIN0
  6
BYBLOCK
 62
0
100
AcDbLine
 10
779.6707952812420
 20
502.3383542621173
 30
0.0000000000000000
 11
801.6971655399095
 21
502.3383542621173
 31
0.0000000000000000
  0
MTEXT
  5
2B8
100
AcDbEntity
  8
MAIN0
  6
BYBLOCK
 62
0
100
AcDbMText
 10
795.6221656114351
 20
497.1598727051547
 30
0.0000000000000000
 40
4.649999856948853
 41
0.0000000000000000
 71
     5
 72
     1
  1
\A1;18
 11
6.123233995736766e-017
 21
1.000000000000000
 31
0.0000000000000000
  7
STANDARD
  0
ENDBLK
  5
2B9
100
AcDbEntity
  8
MAIN0
  6
CONTINUOUS
 62
3
100
AcDbBlockEnd
  0
BLOCK
  5
2BB
100
AcDbEntity
  8
MAIN0
  6
CONTINUOUS
 62
3
100
AcDbBlockBegin
  2
*D29
 70
    65
 10
0.0
 20
0.0
 30
0.0
  0
LINE
  5
2BC
100
AcDbEntity
  8
MAIN0
  6
BYBLOCK
 62
0
100
AcDbLine
 10
728.6971655399095
 20
489.3383542621173
 30
0.0000000000000000
 11
728.6971655399095
 21
479.3383542621173
 31
0.0000000000000000
  0
INSERT
  5
2BD
100
AcDbEntity
  8
MAIN0
  6
BYBLOCK
 62
0
100
AcDbBlockReference
  2
_OPEN
 10
728.6971655399095
 20
492.3383542621173
 30
0.0000000000000000
 41
3.000000000000000
 42
3.000000000000000
 43
3.000000000000000
 50
90.00000000000000
  0
INSERT
  5
2BE
100
AcDbEntity
  8
MAIN0
  6
BYBLOCK
 62
0
100
AcDbBlockReference
  2
_OPEN
 10
728.6971655399095
 20
476.3383542621173
 30
0.0000000000000000
 41
3.000000000000000
 42
3.000000000000000
 43
3.000000000000000
 50
270.0000000000000
  0
MTEXT
  5
2BF
100
AcDbEntity
  8
MAIN0
  6
BYBLOCK
 62
0
100
AcDbMText
 10
725.8721656114351
 20
484.3383542621173
 30
0.0000000000000000
 40
4.649999856948853
 41
0.0000000000000000
 71
     5
 72
     1
  1
\A1;\U+220516
 11
6.123233995736766e-017
 21
1.000000000000000
 31
0.0000000000000000
  7
STANDARD
  0
ENDBLK
  5
2C0
100
AcDbEntity
  8
MAIN0
  6
CONTINUOUS
 62
3
100
AcDbBlockEnd
  0
ENDSEC
  0
SECTION
  2
ENTITIES
  0
LINE
  5
46
100
AcDbEntity
  8
MAIN0
  6
CONTINUOUS
 62
3
100
AcDbLine
 10
252.6971655399092
 20
201.9808172011411
 30
0.0000000000000000
 11
254.6971655399092
 21
203.9808172011411
 31
0.0000000000000000
  0
LINE
  5
47
100
AcDbEntity
  8
MAIN0
  6
CENTER
 62
3
100
AcDbLine
 10
528.0877473614696
 20
183.0635449563772
 30
0.0000000000000000
 11
528.0877473614701
 21
534.3108399429761
 31
0.0000000000000000
  0
LINE
  5
48
100
AcDbEntity
  8
MAIN0
  6
CENTER
 62
3
100
AcDbLine
 10
352.8696839761926
 20
356.9808172011414
 30
0.0000000000000000
 11
704.1169481632238
 21
356.9808172011408
 31
0.0000000000000000
  0
LINE
  5
49
100
AcDbEntity
  8
MAIN0
  6
CONTINUOUS
 62
3
100
AcDbLine
 10
158.6971655399097
 20
509.9808172011412
 30
0.0000000000000000
 11
160.6971655399097
 21
511.9808172011412
 31
0.0000000000000000
  0
LINE
  5
4A
100
AcDbEntity
  8
MAIN0
  6
CONTINUOUS
 62
3
100
AcDbLine
 10
160.6971655399092
 20
201.9808172011414
 30
0.0000000000000000
 11
158.6971655399093
 21
203.9808172011412
 31
0.0000000000000000
  0
ARC
  5
4B
100
AcDbEntity
  8
MAIN0
  6
PHANTOM
 62
3
100
AcDbCircle
 10
528.0877473614698
 20
356.9808172011411
 30
0.0000000000000000
 40
74.00000000000000
100
AcDbArc
 50
99.46251140634411
 51
120.9321777243968
  0
LINE
  5
4C
100
AcDbEntity
  8
MAIN0
  6
PHANTOM
 62
3
100
AcDbLine
 10
507.4680382264965
 20
413.6330024445109
 30
0.0000000000000000
 11
498.9904246385937
 21
436.9250543478490
 31
0.0000000000000000
  0
CIRCLE
  5
4D
100
AcDbEntity
  8
MAIN0
  6
CONTINUOUS
 62
3
100
AcDbCircle
 10
502.7782567550974
 20
426.5180711391990
 30
0.0000000000000000
 40
7.500000000000000
  0
LINE
  5
4E
100
AcDbEntity
  8
MAIN0
  6
CONTINUOUS
 62
3
100
AcDbLine
 10
500.7575308129332
 20
423.0180711391989
 30
0.0000000000000000
 11
504.7989826972605
 21
423.0180711391989
 31
0.0000000000000000
  0
LINE
  5
4F
100
AcDbEntity
  8
MAIN0
  6
CONTINUOUS
 62
3
100
AcDbLine
 10
504.7989826972608
 20
430.0180711391989
 30
0.0000000000000000
 11
500.7575308129333
 21
430.0180711391989
 31
0.0000000000000000
  0
LINE
  5
50
100
AcDbEntity
  8
MAIN0
  6
CONTINUOUS
 62
3
100
AcDbLine
 10
498.7368048707695
 20
426.5180711391989
 30
0.0000000000000000
 11
500.7575308129331
 21
423.0180711391990
 31
0.0000000000000000
  0
LINE
  5
51
100
AcDbEntity
  8
MAIN0
  6
CONTINUOUS
 62
3
100
AcDbLine
 10
504.7989826972610
 20
423.0180711391986
 30
0.0000000000000000
 11
506.8197086394248
 21
426.5180711391989
 31
0.0000000000000000
  0
LINE
  5
52
100
AcDbEntity
  8
MAIN0
  6
CONTINUOUS
 62
3
100
AcDbLine
 10
506.8197086394245
 20
426.5180711391990
 30
0.0000000000000000
 11
504.7989826972608
 21
430.0180711391990
 31
0.0000000000000000
  0
LINE
  5
53
100
AcDbEntity
  8
MAIN0
  6
CONTINUOUS
 62
3
100
AcDbLine
 10
500.7575308129336
 20
430.0180711391988
 30
0.0000000000000000
 11
498.7368048707699
 21
426.5180711391989
 31
0.0000000000000000
  0
CIRCLE
  5
54
100
AcDbEntity
  8
MAIN0
  6
CONTINUOUS
 62
3
100
AcDbCircle
 10
502.7782567550974
 20
426.5180711391990
 30
0.0000000000000000
 40
2.154065922853398
  0
CIRCLE
  5
55
100
AcDbEntity
  8
MAIN0
  6
CONTINUOUS
 62
3
100
AcDbCircle
 10
502.7782567550974
 20
426.5180711391990
 30
0.0000000000000000
 40
3.299999999999997
  0
CIRCLE
  5
56
100
AcDbEntity
  8
MAIN0
  6
CONTINUOUS
 62
3
100
AcDbCircle
 10
502.7782567550974
 20
426.5180711391990
 30
0.0000000000000000
 40
0.9914283891267653
  0
LINE
  5
57
100
AcDbEntity
  8
MAIN0
  6
CONTINUOUS
 62
3
100
AcDbLine
 10
158.6971655399098
 20
486.9808172011412
 30
0.0000000000000000
 11
163.6971655399097
 21
486.9808172011412
 31
0.0000000000000000
  0
LINE
  5
58
100
AcDbEntity
  8
MAIN0
  6
CONTINUOUS
 62
3
100
AcDbLine
 10
163.6971655399097
 20
486.9808172011412
 30
0.0000000000000000
 11
165.6971655399096
 21
486.9808172011412
 31
0.0000000000000000
  0
LINE
  5
59
100
AcDbEntity
  8
MAIN0
  6
CONTINUOUS
 62
3
100
AcDbLine
 10
158.6971655399094
 20
226.9808172011412
 30
0.0000000000000000
 11
164.0971655399094
 21
226.9808172011412
 31
0.0000000000000000
  0
LINE
  5
5A
100
AcDbEntity
  8
MAIN0
  6
CONTINUOUS
 62
3
100
AcDbLine
 10
164.0971655399094
 20
226.9808172011412
 30
0.0000000000000000
 11
170.6971655399094
 21
226.9808172011412
 31
0.0000000000000000
  0
LINE
  5
5B
100
AcDbEntity
  8
MAIN0
  6
HIDDEN
 62
3
100
AcDbLine
 10
547.0877473614700
 20
488.0073866989231
 30
0.0000000000000000
 11
547.0877473614701
 21
510.8118933853763
 31
0.0000000000000000
  0
LINE
  5
5C
100
AcDbEntity
  8
MAIN0
  6
CONTINUOUS
 62
3
100
AcDbLine
 10
170.6971655399094
 20
226.4808172011412
 30
0.0000000000000000
 11
170.6971655399094
 21
227.3122866665428
 31
0.0000000000000000
  0
LINE
  5
5D
100
AcDbEntity
  8
MAIN0
  6
CENTER
 62
3
100
AcDbLine
 10
173.7238923467272
 20
291.9808172011412
 30
0.0000000000000000
 11
201.2238923467272
 21
291.9808172011412
 31
0.0000000000000000
  0
LINE
  5
5E
100
AcDbEntity
  8
MAIN0
  6
CONTINUOUS
 62
3
100
AcDbLine
 10
178.1971655399094
 20
281.9808172011412
 30
0.0000000000000000
 11
178.1971655399096
 21
431.9808172011412
 31
0.0000000000000000
  0
LINE
  5
5F
100
AcDbEntity
  8
MAIN0
  6
CONTINUOUS
 62
3
100
AcDbLine
 10
170.6971655399717
 20
226.9808172011341
 30
0.0000000000000000
 11
174.6231963185021
 21
258.9557719483820
 31
0.0000000000000000
  0
LINE
  5
60
100
AcDbEntity
  8
MAIN0
  6
CONTINUOUS
 62
3
100
AcDbLine
 10
166.6971655399094
 20
281.9808172011412
 30
0.0000000000000000
 11
178.1971655399094
 21
281.9808172011412
 31
0.0000000000000000
  0
ARC
  5
61
100
AcDbEntity
  8
MAIN0
  6
CONTINUOUS
 62
3
100
AcDbCircle
 10
182.5635655316328
 20
257.9808172011412
 30
0.0000000000000000
 40
8.000000000000000
100
AcDbArc
 50
89.99999999999994
 51
173.0000000000022
  0
LINE
  5
62
100
AcDbEntity
  8
MAIN0
  6
CONTINUOUS
 62
3
100
AcDbLine
 10
166.6971655399094
 20
281.9808172011413
 30
0.0000000000000000
 11
165.6971655399094
 21
280.9808172011413
 31
0.0000000000000000
  0
LINE
  5
63
100
AcDbEntity
  8
MAIN0
  6
HIDDEN
 62
3
100
AcDbLine
 10
178.1971655399094
 20
282.8808172011412
 30
0.0000000000000000
 11
178.7971655399094
 21
283.4808172011412
 31
0.0000000000000000
  0
LINE
  5
64
100
AcDbEntity
  8
MAIN0
  6
HIDDEN
 62
3
100
AcDbLine
 10
178.7971655399094
 20
283.4808172011412
 30
0.0000000000000000
 11
190.1971655399094
 21
283.4808172011412
 31
0.0000000000000000
  0
LINE
  5
65
100
AcDbEntity
  8
MAIN0
  6
HIDDEN
 62
3
100
AcDbLine
 10
190.1971655399094
 20
283.4808172011412
 30
0.0000000000000000
 11
190.1971655399095
 21
300.4808172011412
 31
0.0000000000000000
  0
LINE
  5
66
100
AcDbEntity
  8
MAIN0
  6
HIDDEN
 62
3
100
AcDbLine
 10
190.1971655399095
 20
300.4808172011412
 30
0.0000000000000000
 11
178.7971655399095
 21
300.4808172011412
 31
0.0000000000000000
  0
LINE
  5
67
100
AcDbEntity
  8
MAIN0
  6
HIDDEN
 62
3
100
AcDbLine
 10
178.7971655399094
 20
300.4808172011412
 30
0.0000000000000000
 11
178.1971655399095
 21
301.0808172011411
 31
0.0000000000000000
  0
LINE
  5
68
100
AcDbEntity
  8
MAIN0
  6
HIDDEN
 62
3
100
AcDbLine
 10
190.1971655399094
 20
286.4808172011412
 30
0.0000000000000000
 11
194.3013047944387
 21
286.4808172011412
 31
0.0000000000000000
  0
LINE
  5
69
100
AcDbEntity
  8
MAIN0
  6
HIDDEN
 62
3
100
AcDbLine
 10
190.1971655399094
 20
297.4808172011412
 30
0.0000000000000000
 11
195.4971655400894
 21
297.4808172011411
 31
0.0000000000000000
  0
LINE
  5
6A
100
AcDbEntity
  8
MAIN0
  6
HIDDEN
 62
3
100
AcDbLine
 10
190.1971655399094
 20
283.9808172011412
 30
0.0000000000000000
 11
181.1971655399094
 21
283.9808172011412
 31
0.0000000000000000
  0
LINE
  5
6B
100
AcDbEntity
  8
MAIN0
  6
HIDDEN
 62
3
100
AcDbLine
 10
181.1971655399095
 20
283.9808172011411
 30
0.0000000000000000
 11
180.1971655399095
 21
285.7128680087100
 31
0.0000000000000000
  0
LINE
  5
6C
100
AcDbEntity
  8
MAIN0
  6
HIDDEN
 62
3
100
AcDbLine
 10
180.1971655399094
 20
285.7128680087101
 30
0.0000000000000000
 11
180.1971655399095
 21
298.2487663935723
 31
0.0000000000000000
  0
LINE
  5
6D
100
AcDbEntity
  8
MAIN0
  6
HIDDEN
 62
3
100
AcDbLine
 10
180.1971655399094
 20
298.2487663935723
 30
0.0000000000000000
 11
181.1971655399094
 21
299.9808172011412
 31
0.0000000000000000
  0
LINE
  5
6E
100
AcDbEntity
  8
MAIN0
  6
HIDDEN
 62
3
100
AcDbLine
 10
181.1971655399095
 20
299.9808172011412
 30
0.0000000000000000
 11
190.1971655399095
 21
299.9808172011412
 31
0.0000000000000000
  0
LINE
  5
6F
100
AcDbEntity
  8
MAIN0
  6
HIDDEN
 62
3
100
AcDbLine
 10
181.1971655399094
 20
283.9808172011412
 30
0.0000000000000000
 11
181.1971655399095
 21
299.9808172011412
 31
0.0000000000000000
  0
LINE
  5
70
100
AcDbEntity
  8
MAIN0
  6
HIDDEN
 62
3
100
AcDbLine
 10
190.1971655399094
 20
286.9808172011412
 30
0.0000000000000000
 11
194.3637284220522
 21
286.9808172011412
 31
0.0000000000000000
  0
LINE
  5
71
100
AcDbEntity
  8
MAIN0
  6
HIDDEN
 62
3
100
AcDbLine
 10
195.4520039997074
 20
296.9808172011412
 30
0.0000000000000000
 11
190.1971655399094
 21
296.9808172011412
 31
0.0000000000000000
  0
LINE
  5
72
100
AcDbEntity
  8
MAIN0
  6
HIDDEN
 62
3
100
AcDbLine
 10
190.1971655399094
 20
287.7927162011412
 30
0.0000000000000000
 11
194.4636802751908
 21
287.7927162011412
 31
0.0000000000000000
  0
LINE
  5
73
100
AcDbEntity
  8
MAIN0
  6
HIDDEN
 62
3
100
AcDbLine
 10
190.1971655399094
 20
296.1689182011412
 30
0.0000000000000000
 11
195.3765865208066
 21
296.1689182011412
 31
0.0000000000000000
  0
LINE
  5
74
100
AcDbEntity
  8
MAIN0
  6
CONTINUOUS
 62
3
100
AcDbLine
 10
165.6971655399094
 20
226.9808172011412
 30
0.0000000000000000
 11
165.6971655399097
 21
486.9808172011412
 31
0.0000000000000000
  0
LINE
  5
75
100
AcDbEntity
  8
MAIN0
  6
CONTINUOUS
 62
3
100
AcDbLine
 10
160.6971655399097
 20
511.9808172011412
 30
0.0000000000000000
 11
158.6971655399097
 21
509.9808172011412
 31
0.0000000000000000
  0
LINE
  5
76
100
AcDbEntity
  8
MAIN0
  6
CONTINUOUS
 62
3
100
AcDbLine
 10
158.6971655399098
 20
486.9808172011412
 30
0.0000000000000000
 11
164.0971655399097
 21
486.9808172011412
 31
0.0000000000000000
  0
LINE
  5
77
100
AcDbEntity
  8
MAIN0
  6
CONTINUOUS
 62
3
100
AcDbLine
 10
164.0971655399097
 20
486.9808172011412
 30
0.0000000000000000
 11
168.6838154202272
 21
486.9808172011412
 31
0.0000000000000000
  0
LINE
  5
78
100
AcDbEntity
  8
MAIN0
  6
CONTINUOUS
 62
3
100
AcDbLine
 10
174.2559192352995
 20
457.9970942545608
 30
0.0000000000000000
 11
174.6231963185024
 21
455.0058624539004
 31
0.0000000000000000
  0
LINE
  5
79
100
AcDbEntity
  8
MAIN0
  6
CONTINUOUS
 62
3
100
AcDbLine
 10
166.6971655399096
 20
431.9808172011412
 30
0.0000000000000000
 11
178.1971655399096
 21
431.9808172011412
 31
0.0000000000000000
  0
ARC
  5
7A
100
AcDbEntity
  8
MAIN0
  6
CONTINUOUS
 62
3
100
AcDbCircle
 10
182.5635655316330
 20
455.9808172011412
 30
0.0000000000000000
 40
8.000000000000000
100
AcDbArc
 50
186.9999999999976
 51
239.4954130981196
  0
LINE
  5
7B
100
AcDbEntity
  8
MAIN0
  6
CONTINUOUS
 62
3
100
AcDbLine
 10
166.6971655399096
 20
431.9808172011412
 30
0.0000000000000000
 11
165.6971655399096
 21
432.9808172011412
 31
0.0000000000000000
  0
LINE
  5
7C
100
AcDbEntity
  8
MAIN0
  6
CONTINUOUS
 62
3
100
AcDbLine
 10
298.6971655399094
 20
281.9808172011410
 30
0.0000000000000000
 11
298.6971655399095
 21
313.9808172011411
 31
0.0000000000000000
  0
LINE
  5
7D
100
AcDbEntity
  8
MAIN0
  6
CONTINUOUS
 62
3
100
AcDbLine
 10
283.6971655399094
 20
253.4808172011411
 30
0.0000000000000000
 11
283.6971655399094
 21
277.4808172011410
 31
0.0000000000000000
  0
LINE
  5
7E
100
AcDbEntity
  8
MAIN0
  6
CONTINUOUS
 62
3
100
AcDbLine
 10
268.6971655399094
 20
218.4808172011411
 30
0.0000000000000000
 11
268.6971655399094
 21
242.4808172011411
 31
0.0000000000000000
  0
LINE
  5
7F
100
AcDbEntity
  8
MAIN0
  6
CONTINUOUS
 62
3
100
AcDbLine
 10
298.6971655399095
 20
313.9808172011411
 30
0.0000000000000000
 11
297.6971655399095
 21
314.9808172011411
 31
0.0000000000000000
  0
LINE
  5
80
100
AcDbEntity
  8
MAIN0
  6
CONTINUOUS
 62
3
100
AcDbLine
 10
297.6971655399094
 20
280.9808172011410
 30
0.0000000000000000
 11
298.6971655399094
 21
281.9808172011410
 31
0.0000000000000000
  0
LINE
  5
81
100
AcDbEntity
  8
MAIN0
  6
CONTINUOUS
 62
3
100
AcDbLine
 10
283.1971655399094
 20
246.9808172011411
 30
0.0000000000000000
 11
283.1971655399094
 21
252.9808172011410
 31
0.0000000000000000
  0
LINE
  5
82
100
AcDbEntity
  8
MAIN0
  6
CONTINUOUS
 62
3
100
AcDbLine
 10
268.1971655399093
 20
202.9808172011409
 30
0.0000000000000000
 11
268.1971655399093
 21
217.9808172011412
 31
0.0000000000000000
  0
LINE
  5
83
100
AcDbEntity
  8
MAIN0
  6
CONTINUOUS
 62
3
100
AcDbLine
 10
283.1971655399094
 20
246.9808172011410
 30
0.0000000000000000
 11
282.1971655399094
 21
245.9808172011410
 31
0.0000000000000000
  0
LINE
  5
84
100
AcDbEntity
  8
MAIN0
  6
CONTINUOUS
 62
3
100
AcDbLine
 10
283.6971655399094
 20
253.4808172011411
 30
0.0000000000000000
 11
283.1971655399094
 21
252.9808172011411
 31
0.0000000000000000
  0
LINE
  5
85
100
AcDbEntity
  8
MAIN0
  6
CONTINUOUS
 62
3
100
AcDbLine
 10
268.6971655399093
 20
218.4808172011411
 30
0.0000000000000000
 11
268.1971655399093
 21
217.9808172011411
 31
0.0000000000000000
  0
LINE
  5
86
100
AcDbEntity
  8
MAIN0
  6
CENTER
 62
3
100
AcDbLine
 10
291.6971655399094
 20
278.3929944781151
 30
0.0000000000000000
 11
291.6971655399094
 21
284.9975368136268
 31
0.0000000000000000
  0
LINE
  5
87
100
AcDbEntity
  8
MAIN0
  6
PHANTOM
 62
3
100
AcDbLine
 10
288.6971655399095
 20
310.9004557607886
 30
0.0000000000000000
 11
288.6971655399095
 21
317.5765186057026
 31
0.0000000000000000
  0
LINE
  5
88
100
AcDbEntity
  8
MAIN0
  6
HIDDEN
 62
3
100
AcDbLine
 10
206.6971655399097
 20
502.9808172011411
 30
0.0000000000000000
 11
209.1971655399098
 21
502.9808172011411
 31
0.0000000000000000
  0
LINE
  5
89
100
AcDbEntity
  8
MAIN0
  6
HIDDEN
 62
3
100
AcDbLine
 10
209.1971655399098
 20
511.5478044994250
 30
0.0000000000000000
 11
209.1971655399097
 21
502.7689369859235
 31
0.0000000000000000
  0
ARC
  5
8A
100
AcDbEntity
  8
MAIN0
  6
HIDDEN
 62
3
100
AcDbCircle
 10
206.6971655399097
 20
499.4808172011412
 30
0.0000000000000000
 40
3.500000000000000
100
AcDbArc
 50
89.99999999999994
 51
110.0384652143937
  0
LINE
  5
8B
100
AcDbEntity
  8
MAIN0
  6
HIDDEN
 62
3
100
AcDbLine
 10
208.8971655399098
 20
511.7308172011412
 30
0.0000000000000000
 11
209.1971655399098
 21
511.4308172011412
 31
0.0000000000000000
  0
ARC
  5
8C
100
AcDbEntity
  8
MAIN0
  6
HIDDEN
 62
3
100
AcDbCircle
 10
215.0215688871539
 20
499.1020826348873
 30
0.0000000000000000
 40
10.00000000000000
100
AcDbArc
 50
125.6223664678507
 51
157.9860847045921
  0
ARC
  5
8D
100
AcDbEntity
  8
MAIN0
  6
HIDDEN
 62
3
100
AcDbCircle
 10
215.0215688871539
 20
499.1020826348873
 30
0.0000000000000000
 40
10.00000000000000
100
AcDbArc
 50
157.9860847045921
 51
158.4886558737624
  0
ARC
  5
8E
100
AcDbEntity
  8
MAIN0
  6
HIDDEN
 62
3
100
AcDbCircle
 10
165.3727621926655
 20
499.1020826348874
 30
0.0000000000000000
 40
10.00000000000000
100
AcDbArc
 50
22.01391529540775
 51
54.37763353214925
  0
ARC
  5
8F
100
AcDbEntity
  8
MAIN0
  6
HIDDEN
 62
3
100
AcDbCircle
 10
173.6971655399098
 20
499.4808172011412
 30
0.0000000000000000
 40
3.500000000000000
100
AcDbArc
 50
69.96153478557052
 51
89.99999999999990
  0
LINE
  5
90
100
AcDbEntity
  8
MAIN0
  6
HIDDEN
 62
3
100
AcDbLine
 10
173.6971655399098
 20
502.9808172011412
 30
0.0000000000000000
 11
171.1971655399098
 21
502.9808172011412
 31
0.0000000000000000
  0
LINE
  5
91
100
AcDbEntity
  8
MAIN0
  6
HIDDEN
 62
3
100
AcDbLine
 10
171.1971655399098
 20
511.5478044990525
 30
0.0000000000000000
 11
171.1971655399097
 21
502.7689369859235
 31
0.0000000000000000
  0
LINE
  5
92
100
AcDbEntity
  8
MAIN0
  6
CONTINUOUS
 62
3
100
AcDbLine
 10
286.2971655399094
 20
280.9808172011411
 30
0.0000000000000000
 11
290.6971655399533
 21
280.9808172011410
 31
0.0000000000000000
  0
LINE
  5
93
100
AcDbEntity
  8
MAIN0
  6
CONTINUOUS
 62
3
100
AcDbLine
 10
292.6971655396909
 20
280.9808172011410
 30
0.0000000000000000
 11
297.6971655399094
 21
280.9808172011410
 31
0.0000000000000000
  0
LINE
  5
94
100
AcDbEntity
  8
MAIN0
  6
CENTER
 62
3
100
AcDbLine
 10
276.4971655399094
 20
243.3929944781152
 30
0.0000000000000000
 11
276.4971655399094
 21
250.2682746839790
 31
0.0000000000000000
  0
LINE
  5
95
100
AcDbEntity
  8
MAIN0
  6
CONTINUOUS
 62
3
100
AcDbLine
 10
271.2971655399094
 20
245.9808172011411
 30
0.0000000000000000
 11
275.4971655395844
 21
245.9808172011411
 31
0.0000000000000000
  0
LINE
  5
96
100
AcDbEntity
  8
MAIN0
  6
CONTINUOUS
 62
3
100
AcDbLine
 10
277.4971655410861
 20
245.9808172011411
 30
0.0000000000000000
 11
282.1971655399094
 21
245.9808172011411
 31
0.0000000000000000
  0
LINE
  5
97
100
AcDbEntity
  8
MAIN0
  6
PHANTOM
 62
3
100
AcDbLine
 10
281.1971655399095
 20
310.9004557607886
 30
0.0000000000000000
 11
281.1971655399095
 21
317.5765186057026
 31
0.0000000000000000
  0
LINE
  5
98
100
AcDbEntity
  8
MAIN0
  6
PHANTOM
 62
3
100
AcDbLine
 10
273.6971655399095
 20
310.9004557607887
 30
0.0000000000000000
 11
273.6971655399095
 21
317.5765186057026
 31
0.0000000000000000
  0
LINE
  5
99
100
AcDbEntity
  8
MAIN0
  6
PHANTOM
 62
3
100
AcDbLine
 10
266.1971655399095
 20
310.9004557607887
 30
0.0000000000000000
 11
266.1971655399095
 21
317.5765186057026
 31
0.0000000000000000
  0
LINE
  5
9A
100
AcDbEntity
  8
MAIN0
  6
CONTINUOUS
 62
3
100
AcDbLine
 10
274.9471655397502
 20
314.9808172011411
 30
0.0000000000000000
 11
279.9471655391275
 21
314.9808172011411
 31
0.0000000000000000
  0
LINE
  5
9B
100
AcDbEntity
  8
MAIN0
  6
CONTINUOUS
 62
3
100
AcDbLine
 10
267.4471655397503
 20
314.9808172011411
 30
0.0000000000000000
 11
272.4471655391275
 21
314.9808172011411
 31
0.0000000000000000
  0
LINE
  5
9C
100
AcDbEntity
  8
MAIN0
  6
CONTINUOUS
 62
3
100
AcDbLine
 10
259.9471655397502
 20
314.9808172011411
 30
0.0000000000000000
 11
264.9471655391275
 21
314.9808172011411
 31
0.0000000000000000
  0
LINE
  5
9D
100
AcDbEntity
  8
MAIN0
  6
CONTINUOUS
 62
3
100
AcDbLine
 10
182.5635655316328
 20
265.9808172011412
 30
0.0000000000000000
 11
191.3808911699230
 21
265.9808172011411
 31
0.0000000000000000
  0
LINE
  5
9E
100
AcDbEntity
  8
MAIN0
  6
CONTINUOUS
 62
3
100
AcDbLine
 10
170.6971655399094
 20
226.4808172011412
 30
0.0000000000000000
 11
184.3086693740296
 21
226.4808172011412
 31
0.0000000000000000
  0
LINE
  5
9F
100
AcDbEntity
  8
MAIN0
  6
HIDDEN
 62
3
100
AcDbLine
 10
208.8971655399098
 20
511.7308172011411
 30
0.0000000000000000
 11
171.4971655399097
 21
511.7308172011412
 31
0.0000000000000000
  0
LINE
  5
A0
100
AcDbEntity
  8
MAIN0
  6
HIDDEN
 62
3
100
AcDbLine
 10
171.4971655399098
 20
511.7308172011412
 30
0.0000000000000000
 11
171.1971655399098
 21
511.4308172011412
 31
0.0000000000000000
  0
LINE
  5
A1
100
AcDbEntity
  8
MAIN0
  6
HIDDEN
 62
3
100
AcDbLine
 10
190.8712551642324
 20
502.7689369859235
 30
0.0000000000000000
 11
190.8712551642293
 21
510.8070567704359
 31
0.0000000000000000
  0
LINE
  5
A2
100
AcDbEntity
  8
MAIN0
  6
HIDDEN
 62
3
100
AcDbLine
 10
189.5230759155871
 20
502.7689369859235
 30
0.0000000000000000
 11
189.5230759155902
 21
510.8070567704363
 31
0.0000000000000000
  0
ARC
  5
A3
100
AcDbEntity
  8
MAIN0
  6
CONTINUOUS
 62
3
100
AcDbCircle
 10
528.0877473614697
 20
356.9808172011412
 30
0.0000000000000000
 40
155.0000000000000
100
AcDbArc
 50
155.6462998963342
 51
264.3537001037433
  0
ARC
  5
A4
100
AcDbEntity
  8
MAIN0
  6
CONTINUOUS
 62
3
100
AcDbCircle
 10
528.0877473614697
 20
356.9808172011412
 30
0.0000000000000000
 40
155.0000000000000
100
AcDbArc
 50
35.64629989617860
 51
144.3537001038210
  0
ARC
  5
A5
100
AcDbEntity
  8
MAIN0
  6
CONTINUOUS
 62
3
100
AcDbCircle
 10
528.0877473614697
 20
356.9808172011412
 30
0.0000000000000000
 40
155.0000000000000
100
AcDbArc
 50
275.6462998962566
 51
384.3537001036654
  0
LINE
  5
A6
100
AcDbEntity
  8
MAIN0
  6
HIDDEN
 62
3
100
AcDbLine
 10
509.0877473614700
 20
488.0073866989231
 30
0.0000000000000000
 11
509.0877473614700
 21
510.8118933853764
 31
0.0000000000000000
  0
LINE
  5
A7
100
AcDbEntity
  8
MAIN0
  6
CENTER
 62
3
100
AcDbLine
 10
511.0877473614700
 20
488.0873546946718
 30
0.0000000000000000
 11
511.0877473614700
 21
507.2689067936188
 31
0.0000000000000000
  0
ARC
  5
A8
100
AcDbEntity
  8
MAIN0
  6
CENTER
 62
3
100
AcDbCircle
 10
528.0877473614698
 20
356.9808172011411
 30
0.0000000000000000
 40
142.5000000000000
100
AcDbArc
 50
93.29498585594212
 51
100.8598387497879
  0
CIRCLE
  5
A9
100
AcDbEntity
  8
MAIN0
  6
PHANTOM
 62
3
100
AcDbCircle
 10
511.0877473614700
 20
498.4631482534672
 30
0.0000000000000000
 40
5.000000000000000
  0
CIRCLE
  5
AA
100
AcDbEntity
  8
MAIN0
  6
PHANTOM
 62
3
100
AcDbCircle
 10
511.0877473614700
 20
498.4631482534672
 30
0.0000000000000000
 40
4.250000000000000
  0
LINE
  5
AB
100
AcDbEntity
  8
MAIN0
  6
CENTER
 62
3
100
AcDbLine
 10
390.7326904302978
 20
277.6788381076220
 30
0.0000000000000000
 11
670.0149275551015
 21
438.9225128910015
 31
0.0000000000000000
  0
LINE
  5
AC
100
AcDbEntity
  8
MAIN0
  6
CENTER
 62
3
100
AcDbLine
 10
383.3527403590537
 20
440.5436124548871
 30
0.0000000000000000
 11
675.5146034688822
 21
271.8638821420136
 31
0.0000000000000000
  0
LINE
  5
AD
100
AcDbEntity
  8
MAIN0
  6
CENTER
 62
3
100
AcDbLine
 10
650.1293394332225
 20
306.1499803190436
 30
0.0000000000000000
 11
666.7410508349515
 21
296.5592042696152
 31
0.0000000000000000
  0
ARC
  5
AE
100
AcDbEntity
  8
MAIN0
  6
CENTER
 62
3
100
AcDbCircle
 10
528.0877473614700
 20
356.9808172011419
 30
0.0000000000000000
 40
142.5000000000000
100
AcDbArc
 50
332.6818949214687
 51
340.8598387499437
  0
CIRCLE
  5
AF
100
AcDbEntity
  8
MAIN0
  6
PHANTOM
 62
3
100
AcDbCircle
 10
659.1150402395765
 20
300.9620835396702
 30
0.0000000000000000
 40
5.000000000000000
  0
CIRCLE
  5
B0
100
AcDbEntity
  8
MAIN0
  6
PHANTOM
 62
3
100
AcDbCircle
 10
659.1150402395765
 20
300.9620835396702
 30
0.0000000000000000
 40
4.250000000000000
  0
LINE
  5
B1
100
AcDbEntity
  8
MAIN0
  6
CENTER
 62
3
100
AcDbLine
 10
423.0461552896368
 20
276.7051165903263
 30
0.0000000000000000
 11
406.4344438879079
 21
267.1143405408980
 31
0.0000000000000000
  0
CIRCLE
  5
B2
100
AcDbEntity
  8
MAIN0
  6
PHANTOM
 62
3
100
AcDbCircle
 10
414.0604544832829
 20
271.5172198109532
 30
0.0000000000000000
 40
5.000000000000000
  0
CIRCLE
  5
B3
100
AcDbEntity
  8
MAIN0
  6
PHANTOM
 62
3
100
AcDbCircle
 10
414.0604544832829
 20
271.5172198109532
 30
0.0000000000000000
 40
4.250000000000000
  0
MTEXT
  5
B4
100
AcDbEntity
  8
MAIN0
  6
CONTINUOUS
 62
3
100
AcDbMText
 10
552.9637925632194
 20
211.5971066378286
 30
0.0000000000000000
 40
4.649999856948853
 41
0.0000000000000000
 71
     1
 72
     1
  1
{\H0.81x;{1}}
 11
1.000000000000000
 21
-1.133107779529596e-015
 31
0.0000000000000000
  7
STANDARD
  0
MTEXT
  5
B5
100
AcDbEntity
  8
MAIN0
  6
CONTINUOUS
 62
3
100
AcDbMText
 10
391.6608114673563
 20
406.6921048712353
 30
0.0000000000000000
 40
4.649999856948853
 41
0.0000000000000000
 71
     1
 72
     1
  1
{\H0.81x;{3}}
 11
-0.5000000000000012
 21
-0.8660254037844379
 31
0.0000000000000000
  7
STANDARD
  0
MTEXT
  5
B6
100
AcDbEntity
  8
MAIN0
  6
CONTINUOUS
 62
3
100
AcDbMText
 10
640.3692735811904
 20
450.5295863790063
 30
0.0000000000000000
 40
4.649999856948853
 41
0.0000000000000000
 71
     1
 72
     1
  1
{\H0.81x;{2}}
 11
-0.4999999999999987
 21
0.8660254037844394
 31
0.0000000000000000
  7
STANDARD
  0
ARC
  5
B7
100
AcDbEntity
  8
MAIN0
  6
CENTER
 62
3
100
AcDbCircle
 10
528.0877473614697
 20
356.9808172011414
 30
0.0000000000000000
 40
142.5000000000000
100
AcDbArc
 50
212.4796946149216
 51
221.0378481943656
  0
LINE
  5
B8
100
AcDbEntity
  8
MAIN0
  6
PHANTOM
 62
3
100
AcDbLine
 10
254.6971655399096
 20
372.4808172011411
 30
0.0000000000000000
 11
255.6971655399095
 21
372.4808172011411
 31
0.0000000000000000
  0
LINE
  5
B9
100
AcDbEntity
  8
MAIN0
  6
PHANTOM
 62
3
100
AcDbLine
 10
254.6971655399095
 20
341.4808172011411
 30
0.0000000000000000
 11
255.6971655399095
 21
341.4808172011411
 31
0.0000000000000000
  0
LINE
  5
BA
100
AcDbEntity
  8
MAIN0
  6
CENTER
 62
3
100
AcDbLine
 10
190.1971655399099
 20
599.0220765176161
 30
0.0000000000000000
 11
190.1971655399097
 21
494.1294883702011
 31
0.0000000000000000
  0
LINE
  5
BB
100
AcDbEntity
  8
MAIN0
  6
CONTINUOUS
 62
3
100
AcDbLine
 10
158.6971655399093
 20
203.9808172011413
 30
0.0000000000000000
 11
158.6971655399098
 21
509.9808172011412
 31
0.0000000000000000
  0
LINE
  5
BC
100
AcDbEntity
  8
MAIN0
  6
CENTER
 62
3
100
AcDbLine
 10
141.0494988329444
 20
356.9808172011412
 30
0.0000000000000000
 11
310.6875507613146
 21
356.9808172011410
 31
0.0000000000000000
  0
LINE
  5
BD
100
AcDbEntity
  8
MAIN0
  6
CONTINUOUS
 62
3
100
AcDbLine
 10
282.4471655397503
 20
314.9808172011411
 30
0.0000000000000000
 11
287.4471655391274
 21
314.9808172011410
 31
0.0000000000000000
  0
LINE
  5
BE
100
AcDbEntity
  8
MAIN0
  6
CONTINUOUS
 62
3
100
AcDbLine
 10
289.9471655397502
 20
314.9808172011411
 30
0.0000000000000000
 11
297.6971655399094
 21
314.9808172011411
 31
0.0000000000000000
  0
LINE
  5
BF
100
AcDbEntity
  8
MAIN0
  6
CONTINUOUS
 62
3
100
AcDbLine
 10
252.6971655399090
 20
201.9808172011409
 30
0.0000000000000000
 11
267.1971655399093
 21
201.9808172011408
 31
0.0000000000000000
  0
LINE
  5
C0
100
AcDbEntity
  8
MAIN0
  6
CONTINUOUS
 62
3
100
AcDbLine
 10
257.4471655391274
 20
314.9808172011413
 30
0.0000000000000000
 11
258.6971655394374
 21
312.8157536911384
 31
0.0000000000000000
  0
LINE
  5
C1
100
AcDbEntity
  8
MAIN0
  6
CONTINUOUS
 62
3
100
AcDbLine
 10
258.6971655394373
 20
312.8157536911382
 30
0.0000000000000000
 11
259.9471655397502
 21
314.9808172011410
 31
0.0000000000000000
  0
LINE
  5
C2
100
AcDbEntity
  8
MAIN0
  6
CONTINUOUS
 62
3
100
AcDbLine
 10
264.9471655391274
 20
314.9808172011412
 30
0.0000000000000000
 11
266.1971655394374
 21
312.8157536911383
 31
0.0000000000000000
  0
LINE
  5
C3
100
AcDbEntity
  8
MAIN0
  6
CONTINUOUS
 62
3
100
AcDbLine
 10
266.1971655394373
 20
312.8157536911382
 30
0.0000000000000000
 11
267.4471655397502
 21
314.9808172011410
 31
0.0000000000000000
  0
LINE
  5
C4
100
AcDbEntity
  8
MAIN0
  6
CONTINUOUS
 62
3
100
AcDbLine
 10
272.4471655391274
 20
314.9808172011412
 30
0.0000000000000000
 11
273.6971655394374
 21
312.8157536911382
 31
0.0000000000000000
  0
LINE
  5
C5
100
AcDbEntity
  8
MAIN0
  6
CONTINUOUS
 62
3
100
AcDbLine
 10
273.6971655394374
 20
312.8157536911382
 30
0.0000000000000000
 11
274.9471655397503
 21
314.9808172011410
 31
0.0000000000000000
  0
LINE
  5
C6
100
AcDbEntity
  8
MAIN0
  6
CONTINUOUS
 62
3
100
AcDbLine
 10
279.9471655391274
 20
314.9808172011412
 30
0.0000000000000000
 11
281.1971655394374
 21
312.8157536911383
 31
0.0000000000000000
  0
LINE
  5
C7
100
AcDbEntity
  8
MAIN0
  6
CONTINUOUS
 62
3
100
AcDbLine
 10
281.1971655394373
 20
312.8157536911382
 30
0.0000000000000000
 11
282.4471655397502
 21
314.9808172011410
 31
0.0000000000000000
  0
LINE
  5
C8
100
AcDbEntity
  8
MAIN0
  6
CONTINUOUS
 62
3
100
AcDbLine
 10
287.4471655391274
 20
314.9808172011412
 30
0.0000000000000000
 11
288.6971655394374
 21
312.8157536911383
 31
0.0000000000000000
  0
LINE
  5
C9
100
AcDbEntity
  8
MAIN0
  6
CONTINUOUS
 62
3
100
AcDbLine
 10
288.6971655394373
 20
312.8157536911382
 30
0.0000000000000000
 11
289.9471655397502
 21
314.9808172011410
 31
0.0000000000000000
  0
LINE
  5
CA
100
AcDbEntity
  8
MAIN0
  6
CONTINUOUS
 62
3
100
AcDbLine
 10
160.6971655399093
 20
201.9808172011412
 30
0.0000000000000000
 11
252.6971655399092
 21
201.9808172011411
 31
0.0000000000000000
  0
LINE
  5
CB
100
AcDbEntity
  8
MAIN0
  6
PHANTOM
 62
3
100
AcDbLine
 10
258.6971655399095
 20
310.9004557607887
 30
0.0000000000000000
 11
258.6971655399095
 21
317.5765186057026
 31
0.0000000000000000
  0
LINE
  5
CC
100
AcDbEntity
  8
MAIN0
  6
CONTINUOUS
 62
3
100
AcDbLine
 10
254.6971655399093
 20
203.9808172011412
 30
0.0000000000000000
 11
254.6971655399098
 21
511.1808172011411
 31
0.0000000000000000
  0
LINE
  5
CD
100
AcDbEntity
  8
MAIN0
  6
CONTINUOUS
 62
3
100
AcDbLine
 10
292.6971655396908
 20
280.9808172011411
 30
0.0000000000000000
 11
291.6971655398197
 21
282.7128680084781
 31
0.0000000000000000
  0
LINE
  5
CE
100
AcDbEntity
  8
MAIN0
  6
CONTINUOUS
 62
3
100
AcDbLine
 10
291.6971655398199
 20
282.7128680084783
 30
0.0000000000000000
 11
290.6971655399534
 21
280.9808172011410
 31
0.0000000000000000
  0
LINE
  5
CF
100
AcDbEntity
  8
MAIN0
  6
CONTINUOUS
 62
3
100
AcDbLine
 10
275.4971655395843
 20
245.9808172011411
 30
0.0000000000000000
 11
276.4971655403374
 21
247.7128680100090
 31
0.0000000000000000
  0
LINE
  5
D0
100
AcDbEntity
  8
MAIN0
  6
CONTINUOUS
 62
3
100
AcDbLine
 10
277.4971655410862
 20
245.9808172011409
 30
0.0000000000000000
 11
276.4971655403375
 21
247.7128680100090
 31
0.0000000000000000
  0
LINE
  5
D1
100
AcDbEntity
  8
MAIN0
  6
CONTINUOUS
 62
3
100
AcDbLine
 10
286.2971655399094
 20
280.9808172011411
 30
0.0000000000000000
 11
284.3761834129382
 21
281.9808172011411
 31
0.0000000000000000
  0
LINE
  5
D2
100
AcDbEntity
  8
MAIN0
  6
CONTINUOUS
 62
3
100
AcDbLine
 10
284.3761834129383
 20
281.9808172011411
 30
0.0000000000000000
 11
284.0971655399094
 21
281.9808172011411
 31
0.0000000000000000
  0
LINE
  5
D3
100
AcDbEntity
  8
MAIN0
  6
CONTINUOUS
 62
3
100
AcDbLine
 10
282.8971655399095
 20
280.7808172011411
 30
0.0000000000000000
 11
282.8971655399095
 21
279.0176029027180
 31
0.0000000000000000
  0
LINE
  5
D4
100
AcDbEntity
  8
MAIN0
  6
CONTINUOUS
 62
3
100
AcDbLine
 10
282.8971655399094
 20
279.0176029027180
 30
0.0000000000000000
 11
283.6971655399094
 21
277.4808172011411
 31
0.0000000000000000
  0
ARC
  5
D5
100
AcDbEntity
  8
MAIN0
  6
CONTINUOUS
 62
3
100
AcDbCircle
 10
284.0971655399094
 20
280.7808172011411
 30
0.0000000000000000
 40
1.200000000000000
100
AcDbArc
 50
90.00000000000000
 51
180.0000000000000
  0
LINE
  5
D6
100
AcDbEntity
  8
MAIN0
  6
CONTINUOUS
 62
3
100
AcDbLine
 10
271.2971655399093
 20
245.9808172011411
 30
0.0000000000000000
 11
269.3761834129382
 21
246.9808172011411
 31
0.0000000000000000
  0
LINE
  5
D7
100
AcDbEntity
  8
MAIN0
  6
CONTINUOUS
 62
3
100
AcDbLine
 10
269.3761834129383
 20
246.9808172011410
 30
0.0000000000000000
 11
269.0971655399094
 21
246.9808172011410
 31
0.0000000000000000
  0
LINE
  5
D8
100
AcDbEntity
  8
MAIN0
  6
CONTINUOUS
 62
3
100
AcDbLine
 10
267.8971655399094
 20
245.7808172011410
 30
0.0000000000000000
 11
267.8971655399094
 21
244.0176029027180
 31
0.0000000000000000
  0
LINE
  5
D9
100
AcDbEntity
  8
MAIN0
  6
CONTINUOUS
 62
3
100
AcDbLine
 10
267.8971655399094
 20
244.0176029027180
 30
0.0000000000000000
 11
268.6971655399094
 21
242.4808172011411
 31
0.0000000000000000
  0
ARC
  5
DA
100
AcDbEntity
  8
MAIN0
  6
CONTINUOUS
 62
3
100
AcDbCircle
 10
269.0971655399094
 20
245.7808172011410
 30
0.0000000000000000
 40
1.200000000000000
100
AcDbArc
 50
90.00000000000000
 51
180.0000000000000
  0
CIRCLE
  5
DB
100
AcDbEntity
  8
MAIN0
  6
HIDDEN
 62
3
100
AcDbCircle
 10
528.0877473614697
 20
357.9342803909705
 30
0.0000000000000000
 40
131.4534631898298
  0
LINE
  5
DC
100
AcDbEntity
  8
MAIN0
  6
HIDDEN
 62
3
100
AcDbLine
 10
424.9411329496286
 20
276.4432445650902
 30
0.0000000000000000
 11
403.8668898639457
 21
264.2760246466037
 31
0.0000000000000000
  0
LINE
  5
DD
100
AcDbEntity
  8
MAIN0
  6
HIDDEN
 62
3
100
AcDbLine
 10
405.9411329496286
 20
309.3522099088989
 30
0.0000000000000000
 11
385.0435388157455
 21
297.2869783102860
 31
0.0000000000000000
  0
LINE
  5
DE
100
AcDbEntity
  8
MAIN0
  6
HIDDEN
 62
3
100
AcDbLine
 10
650.2343617733106
 20
309.3522099088984
 30
0.0000000000000000
 11
671.1319559071936
 21
297.2869783102854
 31
0.0000000000000000
  0
LINE
  5
DF
100
AcDbEntity
  8
MAIN0
  6
HIDDEN
 62
3
100
AcDbLine
 10
631.2343617733106
 20
276.4432445650896
 30
0.0000000000000000
 11
652.3086048589934
 21
264.2760246466030
 31
0.0000000000000000
  0
LINE
  5
E0
100
AcDbEntity
  8
MAIN0
  6
HIDDEN
 62
3
100
AcDbLine
 10
550.3377473614696
 20
203.5861057538425
 30
0.0000000000000000
 11
550.3377473614697
 21
314.4492113062304
 31
0.0000000000000000
  0
LINE
  5
E1
100
AcDbEntity
  8
MAIN0
  6
HIDDEN
 62
3
100
AcDbLine
 10
505.8377473614697
 20
203.5861057538426
 30
0.0000000000000000
 11
505.8377473614698
 21
314.4492113062305
 31
0.0000000000000000
  0
ARC
  5
E2
100
AcDbEntity
  8
MAIN0
  6
CONTINUOUS
 62
3
100
AcDbCircle
 10
528.0877473614697
 20
357.9808172011414
 30
0.0000000000000000
 40
43.00000000000000
100
AcDbArc
 50
267.3341182354896
 51
272.6658817645104
  0
LINE
  5
E3
100
AcDbEntity
  8
MAIN0
  6
CONTINUOUS
 62
3
100
AcDbLine
 10
512.8377473614697
 20
307.3774629443826
 30
0.0000000000000000
 11
526.0877473617234
 21
315.0273540113005
 31
0.0000000000000000
  0
LINE
  5
E4
100
AcDbEntity
  8
MAIN0
  6
CONTINUOUS
 62
3
100
AcDbLine
 10
543.3377473614696
 20
307.3774629443826
 30
0.0000000000000000
 11
530.0877473612161
 21
315.0273540113004
 31
0.0000000000000000
  0
LINE
  5
E5
100
AcDbEntity
  8
MAIN0
  6
HIDDEN
 62
3
100
AcDbLine
 10
649.8064642810141
 20
452.9472381589944
 30
0.0000000000000000
 11
553.7961985302103
 21
397.5156853828004
 31
0.0000000000000000
  0
LINE
  5
E6
100
AcDbEntity
  8
MAIN0
  6
HIDDEN
 62
3
100
AcDbLine
 10
672.0564642810141
 20
414.4091076905869
 30
0.0000000000000000
 11
576.0461985302104
 21
358.9775549143930
 31
0.0000000000000000
  0
ARC
  5
E7
100
AcDbEntity
  8
MAIN0
  6
CONTINUOUS
 62
3
100
AcDbCircle
 10
527.2217219576852
 20
356.4808172011415
 30
0.0000000000000000
 40
43.00000000000000
100
AcDbArc
 50
27.33411823548962
 51
32.66588176451042
  0
LINE
  5
E8
100
AcDbEntity
  8
MAIN0
  6
CONTINUOUS
 62
3
100
AcDbLine
 10
578.6705122608095
 20
368.5756069217691
 30
0.0000000000000000
 11
565.4205122604802
 21
376.2254979887127
 31
0.0000000000000000
  0
LINE
  5
E9
100
AcDbEntity
  8
MAIN0
  6
CONTINUOUS
 62
3
100
AcDbLine
 10
563.4205122607416
 20
394.9893817371552
 30
0.0000000000000000
 11
563.4205122607340
 21
379.6895996034111
 31
0.0000000000000000
  0
LINE
  5
EA
100
AcDbEntity
  8
MAIN0
  6
HIDDEN
 62
3
100
AcDbLine
 10
384.1190304419253
 20
414.4091076905871
 30
0.0000000000000000
 11
480.1292961927292
 21
358.9775549143928
 31
0.0000000000000000
  0
LINE
  5
EB
100
AcDbEntity
  8
MAIN0
  6
HIDDEN
 62
3
100
AcDbLine
 10
406.3690304419254
 20
452.9472381589947
 30
0.0000000000000000
 11
502.3792961927293
 21
397.5156853828003
 31
0.0000000000000000
  0
ARC
  5
EC
100
AcDbEntity
  8
MAIN0
  6
CONTINUOUS
 62
3
100
AcDbCircle
 10
528.9537727652541
 20
356.4808172011414
 30
0.0000000000000000
 40
43.00000000000000
100
AcDbArc
 50
147.3341182354896
 51
152.6658817645104
  0
LINE
  5
ED
100
AcDbEntity
  8
MAIN0
  6
CONTINUOUS
 62
3
100
AcDbLine
 10
492.7549824621976
 20
394.9893817371560
 30
0.0000000000000000
 11
492.7549824622053
 21
379.6895996034109
 31
0.0000000000000000
  0
LINE
  5
EE
100
AcDbEntity
  8
MAIN0
  6
CONTINUOUS
 62
3
100
AcDbLine
 10
477.5049824621306
 20
368.5756069217694
 30
0.0000000000000000
 11
490.7549824624591
 21
376.2254979887126
 31
0.0000000000000000
  0
MTEXT
  5
EF
100
AcDbEntity
  8
MAIN0
  6
CONTINUOUS
 62
3
100
AcDbMText
 10
612.2109209095374
 20
291.8765847297304
 30
0.0000000000000000
 40
6.000000000000000
 41
0.0000000000000000
 71
     1
 72
     1
  1
{\H0.63x;{JN12-101}}
 11
0.5000000000000009
 21
0.8660254037844382
 31
0.0000000000000000
  7
STANDARD
  0
MTEXT
  5
F0
100
AcDbEntity
  8
MAIN0
  6
CONTINUOUS
 62
3
100
AcDbMText
 10
618.0203294646585
 20
284.2513125475226
 30
0.0000000000000000
 40
7.500000000000000
 41
0.0000000000000000
 71
     1
 72
     1
  1
{\H0.63x;{KITAGAWA}}
 11
0.5000000000000009
 21
0.8660254037844382
 31
0.0000000000000000
  7
STANDARD
  0
LINE
  5
F1
100
AcDbEntity
  8
MAIN0
  6
CONTINUOUS
 62
3
100
AcDbLine
 10
624.3437744057051
 20
278.7011465767616
 30
0.0000000000000000
 11
643.4034571729850
 21
311.7134855058352
 31
0.0000000000000000
  0
LINE
  5
F2
100
AcDbEntity
  8
MAIN0
  6
HIDDEN
 62
3
100
AcDbLine
 10
528.0877473614696
 20
431.0167155860034
 30
0.0000000000000000
 11
522.4441332148015
 21
434.2750577327846
 31
0.0000000000000000
  0
LINE
  5
F3
100
AcDbEntity
  8
MAIN0
  6
HIDDEN
 62
3
100
AcDbLine
 10
533.7313615081379
 20
434.2750577327846
 30
0.0000000000000000
 11
528.0877473614698
 21
431.0167155860034
 31
0.0000000000000000
  0
CIRCLE
  5
F4
100
AcDbEntity
  8
MAIN0
  6
HIDDEN
 62
3
100
AcDbCircle
 10
528.0877473614697
 20
356.9808172011411
 30
0.0000000000000000
 40
77.50000000000020
  0
LINE
  5
F5
100
AcDbEntity
  8
MAIN0
  6
HIDDEN
 62
3
100
AcDbLine
 10
209.1971655399096
 20
511.5478044994250
 30
0.0000000000000000
 11
209.6301782416244
 21
511.9808172011411
 31
0.0000000000000000
  0
LINE
  5
F6
100
AcDbEntity
  8
MAIN0
  6
HIDDEN
 62
3
100
AcDbLine
 10
170.7641528378208
 20
511.9808172011411
 30
0.0000000000000000
 11
171.1971655399097
 21
511.5478044990526
 31
0.0000000000000000
  0
LINE
  5
F7
100
AcDbEntity
  8
MAIN0
  6
CONTINUOUS
 62
3
100
AcDbLine
 10
160.6971655399098
 20
511.9808172011412
 30
0.0000000000000000
 11
253.8971655399098
 21
511.9808172011411
 31
0.0000000000000000
  0
LINE
  5
F8
100
AcDbEntity
  8
MAIN0
  6
HIDDEN
 62
3
100
AcDbLine
 10
463.9707785681757
 20
319.9628680087103
 30
0.0000000000000000
 11
463.9707785681756
 21
313.4461837151478
 31
0.0000000000000000
  0
LINE
  5
F9
100
AcDbEntity
  8
MAIN0
  6
HIDDEN
 62
3
100
AcDbLine
 10
458.3271644215075
 20
323.2212101554915
 30
0.0000000000000000
 11
463.9707785681756
 21
319.9628680087104
 31
0.0000000000000000
  0
LINE
  5
FA
100
AcDbEntity
  8
MAIN0
  6
HIDDEN
 62
3
100
AcDbLine
 10
592.2047161547636
 20
319.9628680087101
 30
0.0000000000000000
 11
597.8483303014317
 21
323.2212101554912
 31
0.0000000000000000
  0
LINE
  5
FB
100
AcDbEntity
  8
MAIN0
  6
HIDDEN
 62
3
100
AcDbLine
 10
592.2047161547636
 20
313.4461837151475
 30
0.0000000000000000
 11
592.2047161547636
 21
319.9628680087099
 31
0.0000000000000000
  0
LINE
  5
FC
100
AcDbEntity
  8
MAIN0
  6
CENTER
 62
3
100
AcDbLine
 10
175.9106325670841
 20
585.3025974226780
 30
0.0000000000000000
 11
203.7253603316671
 21
585.3025974226780
 31
0.0000000000000000
  0
LINE
  5
FD
100
AcDbEntity
  8
MAIN0
  6
CONTINUOUS
 62
3
100
AcDbLine
 10
181.0807347384261
 20
586.0856615586131
 30
0.0000000000000000
 11
189.4141014034512
 21
594.4190282236257
 31
0.0000000000000000
  0
LINE
  5
FE
100
AcDbEntity
  8
MAIN0
  6
CONTINUOUS
 62
3
100
AcDbLine
 10
190.9802296734425
 20
576.1861666204059
 30
0.0000000000000000
 11
199.3135963416437
 21
584.5195332885946
 31
0.0000000000000000
  0
LINE
  5
FF
100
AcDbEntity
  8
MAIN0
  6
CONTINUOUS
 62
3
100
AcDbLine
 10
190.9802296749224
 20
594.4190282237468
 30
0.0000000000000000
 11
199.3135963415168
 21
586.0856615571393
 31
0.0000000000000000
  0
LINE
  5
100
100
AcDbEntity
  8
MAIN0
  6
CONTINUOUS
 62
3
100
AcDbLine
 10
181.0807347383019
 20
584.5195332871440
 30
0.0000000000000000
 11
189.4141014048986
 21
576.1861666205342
 31
0.0000000000000000
  0
LINE
  5
101
100
AcDbEntity
  8
MAIN0
  6
HIDDEN
 62
3
100
AcDbLine
 10
199.3471655399279
 20
510.8070567704337
 30
0.0000000000000000
 11
199.3471655399297
 21
502.7689369859235
 31
0.0000000000000000
  0
LINE
  5
102
100
AcDbEntity
  8
MAIN0
  6
HIDDEN
 62
3
100
AcDbLine
 10
181.0471655399105
 20
510.8070567704385
 30
0.0000000000000000
 11
181.0471655399101
 21
502.7689369859235
 31
0.0000000000000000
  0
LINE
  5
103
100
AcDbEntity
  8
MAIN0
  6
HIDDEN
 62
3
100
AcDbLine
 10
199.3471655399279
 20
510.8070567703688
 30
0.0000000000000000
 11
200.9471655400428
 21
511.7308172011410
 31
0.0000000000000000
  0
LINE
  5
104
100
AcDbEntity
  8
MAIN0
  6
HIDDEN
 62
3
100
AcDbLine
 10
179.4471655394426
 20
511.7308172011411
 30
0.0000000000000000
 11
181.0471655399105
 21
510.8070567701652
 31
0.0000000000000000
  0
LINE
  5
105
100
AcDbEntity
  8
MAIN0
  6
HIDDEN
 62
3
100
AcDbLine
 10
199.3471655399278
 20
510.8070567704338
 30
0.0000000000000000
 11
181.0471655399105
 21
510.8070567704385
 31
0.0000000000000000
  0
LINE
  5
106
100
AcDbEntity
  8
MAIN0
  6
HIDDEN
 62
3
100
AcDbLine
 10
199.3471655399278
 20
510.8070567704338
 30
0.0000000000000000
 11
195.1092103521533
 21
502.7689369859235
 31
0.0000000000000000
  0
LINE
  5
107
100
AcDbEntity
  8
MAIN0
  6
HIDDEN
 62
3
100
AcDbLine
 10
190.8712551642293
 20
510.8070567704359
 30
0.0000000000000000
 11
195.1092103520093
 21
502.7689369859235
 31
0.0000000000000000
  0
LINE
  5
108
100
AcDbEntity
  8
MAIN0
  6
HIDDEN
 62
3
100
AcDbLine
 10
189.5230759155902
 20
510.8070567704363
 30
0.0000000000000000
 11
185.2851207278210
 21
502.7689369859235
 31
0.0000000000000000
  0
LINE
  5
109
100
AcDbEntity
  8
MAIN0
  6
HIDDEN
 62
3
100
AcDbLine
 10
181.0471655399106
 20
510.8070567701652
 30
0.0000000000000000
 11
185.2851207276048
 21
502.7689369859235
 31
0.0000000000000000
  0
ARC
  5
10A
100
AcDbEntity
  8
MAIN0
  6
CONTINUOUS
 62
3
100
AcDbCircle
 10
190.1971655399098
 20
585.3025974221412
 30
0.0000000000000000
 40
9.150000000000000
100
AcDbArc
 50
85.09057720200698
 51
94.90942280710132
  0
ARC
  5
10B
100
AcDbEntity
  8
MAIN0
  6
CONTINUOUS
 62
3
100
AcDbCircle
 10
190.1971655399098
 20
585.3025974221412
 30
0.0000000000000000
 40
9.150000000000000
100
AcDbArc
 50
355.0905772112062
 51
364.9094227979033
  0
ARC
  5
10C
100
AcDbEntity
  8
MAIN0
  6
CONTINUOUS
 62
3
100
AcDbCircle
 10
190.1971655399098
 20
585.3025974221412
 30
0.0000000000000000
 40
9.150000000000000
100
AcDbArc
 50
175.0905771928136
 51
184.9094227979017
  0
ARC
  5
10D
100
AcDbEntity
  8
MAIN0
  6
CONTINUOUS
 62
3
100
AcDbCircle
 10
190.1971655399098
 20
585.3025974221412
 30
0.0000000000000000
 40
9.150000000000000
100
AcDbArc
 50
265.0905772020084
 51
274.9094227887085
  0
LINE
  5
10E
100
AcDbEntity
  8
MAIN0
  6
CONTINUOUS
 62
3
100
AcDbLine
 10
778.4707952633606
 20
502.3383542621173
 30
0.0000000000000000
 11
752.4707952633605
 21
502.3383542621173
 31
0.0000000000000000
  0
ARC
  5
10F
100
AcDbEntity
  8
MAIN0
  6
CONTINUOUS
 62
3
100
AcDbCircle
 10
678.4707952634138
 20
484.3383542621173
 30
0.0000000000000000
 40
7.999999999999915
100
AcDbArc
 50
90.00000000000000
 51
270.0000000000000
  0
ARC
  5
110
100
AcDbEntity
  8
MAIN0
  6
CONTINUOUS
 62
3
100
AcDbCircle
 10
852.4707952634137
 20
484.3383542621173
 30
0.0000000000000000
 40
7.999999999999943
100
AcDbArc
 50
270.0000000000000
 51
450.0000000000000
  0
LINE
  5
111
100
AcDbEntity
  8
MAIN0
  6
CONTINUOUS
 62
3
100
AcDbLine
 10
750.4707952633663
 20
500.3383542621173
 30
0.0000000000000000
 11
752.4707952633604
 21
502.3383542621173
 31
0.0000000000000000
  0
LINE
  5
112
100
AcDbEntity
  8
MAIN0
  6
CONTINUOUS
 62
3
100
AcDbLine
 10
778.4707952633604
 20
502.3383542621172
 30
0.0000000000000000
 11
780.4707952633663
 21
500.3383542621172
 31
0.0000000000000000
  0
LINE
  5
113
100
AcDbEntity
  8
MAIN0
  6
CONTINUOUS
 62
3
100
AcDbLine
 10
780.4707952633664
 20
500.3383542621173
 30
0.0000000000000000
 11
750.4707952633664
 21
500.3383542621173
 31
0.0000000000000000
  0
LINE
  5
114
100
AcDbEntity
  8
MAIN0
  6
CONTINUOUS
 62
3
100
AcDbLine
 10
778.4707952633665
 20
464.3383542621173
 30
0.0000000000000000
 11
752.4707952633664
 21
464.3383542621173
 31
0.0000000000000000
  0
LINE
  5
115
100
AcDbEntity
  8
MAIN0
  6
CONTINUOUS
 62
3
100
AcDbLine
 10
750.4707952634668
 20
466.3383542621173
 30
0.0000000000000000
 11
752.4707952634726
 21
464.3383542621173
 31
0.0000000000000000
  0
LINE
  5
116
100
AcDbEntity
  8
MAIN0
  6
CONTINUOUS
 62
3
100
AcDbLine
 10
780.4707952634666
 20
466.3383542621174
 30
0.0000000000000000
 11
778.4707952634725
 21
464.3383542621172
 31
0.0000000000000000
  0
LINE
  5
117
100
AcDbEntity
  8
MAIN0
  6
CONTINUOUS
 62
3
100
AcDbLine
 10
750.4707952634669
 20
466.3383542621173
 30
0.0000000000000000
 11
780.4707952634669
 21
466.3383542621173
 31
0.0000000000000000
  0
LINE
  5
118
100
AcDbEntity
  8
MAIN0
  6
CONTINUOUS
 62
3
100
AcDbLine
 10
778.4707952638099
 20
350.3383542621173
 30
0.0000000000000000
 11
778.4707952634730
 21
464.3383542621173
 31
0.0000000000000000
  0
LINE
  5
119
100
AcDbEntity
  8
MAIN0
  6
CONTINUOUS
 62
3
100
AcDbLine
 10
752.4707952638099
 20
350.3383542621173
 30
0.0000000000000000
 11
752.4707952634730
 21
464.3383542621173
 31
0.0000000000000000
  0
LINE
  5
11A
100
AcDbEntity
  8
MAIN0
  6
CONTINUOUS
 62
3
100
AcDbLine
 10
752.4707952638099
 20
350.3383542621173
 30
0.0000000000000000
 11
778.4707952638099
 21
350.3383542621173
 31
0.0000000000000000
  0
LINE
  5
11B
100
AcDbEntity
  8
MAIN0
  6
CONTINUOUS
 62
3
100
AcDbLine
 10
757.3207952626597
 20
302.3383542621173
 30
0.0000000000000000
 11
773.6207952634047
 21
302.3383542621173
 31
0.0000000000000000
  0
LINE
  5
11C
100
AcDbEntity
  8
MAIN0
  6
CENTER
 62
3
100
AcDbLine
 10
765.4707952641523
 20
234.5143146355981
 30
0.0000000000000000
 11
765.4707952640243
 21
277.8014301037276
 31
0.0000000000000000
  0
LINE
  5
11D
100
AcDbEntity
  8
MAIN0
  6
CENTER
 62
3
100
AcDbLine
 10
747.3701807649510
 20
251.5498907861014
 30
0.0000000000000000
 11
783.5676211948659
 21
251.5498907861061
 31
0.0000000000000000
  0
LINE
  5
11E
100
AcDbEntity
  8
MAIN0
  6
CONTINUOUS
 62
3
100
AcDbLine
 10
766.2538593988630
 20
260.6663215877096
 30
0.0000000000000000
 11
774.5872260654647
 21
252.3329549211079
 31
0.0000000000000000
  0
LINE
  5
11F
100
AcDbEntity
  8
MAIN0
  6
CONTINUOUS
 62
3
100
AcDbLine
 10
756.3543644622502
 20
250.7668266510992
 30
0.0000000000000000
 11
764.6877311288522
 21
242.4334599844972
 31
0.0000000000000000
  0
LINE
  5
120
100
AcDbEntity
  8
MAIN0
  6
CONTINUOUS
 62
3
100
AcDbLine
 10
756.3543644623925
 20
252.3329549226571
 30
0.0000000000000000
 11
764.6877311272509
 21
260.6663215875636
 31
0.0000000000000000
  0
LINE
  5
121
100
AcDbEntity
  8
MAIN0
  6
CONTINUOUS
 62
3
100
AcDbLine
 10
766.2538593973285
 20
242.4334599843699
 30
0.0000000000000000
 11
774.5872260655958
 21
250.7668266526852
 31
0.0000000000000000
  0
ARC
  5
122
100
AcDbEntity
  8
MAIN0
  6
CONTINUOUS
 62
3
100
AcDbCircle
 10
765.4707952638572
 20
251.5498907861037
 30
0.0000000000000000
 40
9.150000000000000
100
AcDbArc
 50
85.09057720206187
 51
94.90942280805487
  0
ARC
  5
123
100
AcDbEntity
  8
MAIN0
  6
CONTINUOUS
 62
3
100
AcDbCircle
 10
765.4707952638572
 20
251.5498907861037
 30
0.0000000000000000
 40
9.150000000000000
100
AcDbArc
 50
175.0905771922765
 51
184.9094227979363
  0
ARC
  5
124
100
AcDbEntity
  8
MAIN0
  6
CONTINUOUS
 62
3
100
AcDbCircle
 10
765.4707952638572
 20
251.5498907861037
 30
0.0000000000000000
 40
9.150000000000000
100
AcDbArc
 50
265.0905772020640
 51
274.9094227883215
  0
ARC
  5
125
100
AcDbEntity
  8
MAIN0
  6
CONTINUOUS
 62
3
100
AcDbCircle
 10
765.4707952638572
 20
251.5498907861037
 30
0.0000000000000000
 40
9.150000000000000
100
AcDbArc
 50
355.0905772120073
 51
364.9094227979362
  0
LINE
  5
126
100
AcDbEntity
  8
MAIN0
  6
CONTINUOUS
 62
3
100
AcDbLine
 10
774.6207952634047
 20
320.3383542621173
 30
0.0000000000000000
 11
774.6207952634047
 21
303.3383542621173
 31
0.0000000000000000
  0
LINE
  5
127
100
AcDbEntity
  8
MAIN0
  6
CONTINUOUS
 62
3
100
AcDbLine
 10
756.3207952626597
 20
320.3383542621173
 30
0.0000000000000000
 11
756.3207952626597
 21
303.3383542621173
 31
0.0000000000000000
  0
LINE
  5
128
100
AcDbEntity
  8
MAIN0
  6
CONTINUOUS
 62
3
100
AcDbLine
 10
756.3207952626594
 20
303.3383542621173
 30
0.0000000000000000
 11
757.3207952626594
 21
302.3383542621173
 31
0.0000000000000000
  0
LINE
  5
129
100
AcDbEntity
  8
MAIN0
  6
CONTINUOUS
 62
3
100
AcDbLine
 10
774.6207952634045
 20
303.3383542621173
 30
0.0000000000000000
 11
773.6207952634043
 21
302.3383542621172
 31
0.0000000000000000
  0
LINE
  5
12A
100
AcDbEntity
  8
MAIN0
  6
CONTINUOUS
 62
3
100
AcDbLine
 10
774.6207952634046
 20
303.3383542621173
 30
0.0000000000000000
 11
756.3207952626597
 21
303.3383542621173
 31
0.0000000000000000
  0
LINE
  5
12B
100
AcDbEntity
  8
MAIN0
  6
CONTINUOUS
 62
3
100
AcDbLine
 10
764.6877311276381
 20
303.3383542621173
 30
0.0000000000000000
 11
764.6877311274873
 21
320.3383542621173
 31
0.0000000000000000
  0
LINE
  5
12C
100
AcDbEntity
  8
MAIN0
  6
CONTINUOUS
 62
3
100
AcDbLine
 10
766.2538593974219
 20
303.3383542621173
 30
0.0000000000000000
 11
766.2538593973214
 21
320.3383542621173
 31
0.0000000000000000
  0
LINE
  5
12D
100
AcDbEntity
  8
MAIN0
  6
CONTINUOUS
 62
3
100
AcDbLine
 10
756.3207952626597
 20
320.3383542621173
 30
0.0000000000000000
 11
764.6877311274873
 21
320.3383542621173
 31
0.0000000000000000
  0
LINE
  5
12E
100
AcDbEntity
  8
MAIN0
  6
CONTINUOUS
 62
3
100
AcDbLine
 10
766.2538593973214
 20
320.3383542621173
 30
0.0000000000000000
 11
774.6207952634047
 21
320.3383542621173
 31
0.0000000000000000
  0
LINE
  5
12F
100
AcDbEntity
  8
MAIN0
  6
CONTINUOUS
 62
3
100
AcDbLine
 10
774.6207952634049
 20
320.3383542621172
 30
0.0000000000000000
 11
766.2538593974222
 21
303.3383542621172
 31
0.0000000000000000
  0
LINE
  5
130
100
AcDbEntity
  8
MAIN0
  6
CONTINUOUS
 62
3
100
AcDbLine
 10
766.2538593973217
 20
320.3383542621174
 30
0.0000000000000000
 11
774.6207952634048
 21
303.3383542621173
 31
0.0000000000000000
  0
LINE
  5
131
100
AcDbEntity
  8
MAIN0
  6
CONTINUOUS
 62
3
100
AcDbLine
 10
764.6877311274873
 20
320.3383542621173
 30
0.0000000000000000
 11
756.3207952626597
 21
303.3383542621173
 31
0.0000000000000000
  0
LINE
  5
132
100
AcDbEntity
  8
MAIN0
  6
CONTINUOUS
 62
3
100
AcDbLine
 10
756.3207952626595
 20
320.3383542621173
 30
0.0000000000000000
 11
764.6877311276382
 21
303.3383542621172
 31
0.0000000000000000
  0
ARC
  5
133
100
AcDbEntity
  8
MAIN0
  6
CONTINUOUS
 62
3
100
AcDbCircle
 10
859.6207952634047
 20
325.0465077485516
 30
0.0000000000000000
 40
85.00000000000000
100
AcDbArc
 50
162.6894221428432
 51
183.1752406273029
  0
ARC
  5
134
100
AcDbEntity
  8
MAIN0
  6
CONTINUOUS
 62
3
100
AcDbCircle
 10
671.3207952643649
 20
325.0465077479948
 30
0.0000000000000000
 40
85.00000000000000
100
AcDbArc
 50
356.8247593730358
 51
377.3105778574956
  0
ARC
  5
135
100
AcDbEntity
  8
MAIN0
  6
CONTINUOUS
 62
3
100
AcDbCircle
 10
789.6374619300805
 20
484.3383542621442
 30
0.0000000000000000
 40
12.16666666666681
100
AcDbArc
 50
138.8879095610022
 51
221.1120904393365
  0
ARC
  5
136
100
AcDbEntity
  8
MAIN0
  6
CONTINUOUS
 62
3
100
AcDbCircle
 10
741.3041285967470
 20
484.3383542620902
 30
0.0000000000000000
 40
12.16666666666674
100
AcDbArc
 50
318.8879095610026
 51
401.1120904393362
  0
LINE
  5
137
100
AcDbEntity
  8
MAIN0
  6
CONTINUOUS
 62
3
100
AcDbLine
 10
780.4707952634669
 20
466.3383542621173
 30
0.0000000000000000
 11
780.4707952634374
 21
476.3383542621170
 31
0.0000000000000000
  0
LINE
  5
138
100
AcDbEntity
  8
MAIN0
  6
CONTINUOUS
 62
3
100
AcDbLine
 10
780.4707952633901
 20
492.3383542621173
 30
0.0000000000000000
 11
780.4707952633664
 21
500.3383542621173
 31
0.0000000000000000
  0
LINE
  5
139
100
AcDbEntity
  8
MAIN0
  6
CONTINUOUS
 62
3
100
AcDbLine
 10
750.4707952634669
 20
466.3383542621173
 30
0.0000000000000000
 11
750.4707952634374
 21
476.3383542621173
 31
0.0000000000000000
  0
LINE
  5
13A
100
AcDbEntity
  8
MAIN0
  6
CONTINUOUS
 62
3
100
AcDbLine
 10
750.4707952633901
 20
492.3383542621173
 30
0.0000000000000000
 11
750.4707952633664
 21
500.3383542621173
 31
0.0000000000000000
  0
ARC
  5
13B
100
AcDbEntity
  8
MAIN0
  6
CONTINUOUS
 62
3
100
AcDbCircle
 10
822.9245030976366
 20
488.3383542621173
 30
0.0000000000000000
 40
6.000000000000000
100
AcDbArc
 50
138.1896851042212
 51
221.8103148957788
  0
ARC
  5
13C
100
AcDbEntity
  8
MAIN0
  6
CONTINUOUS
 62
3
100
AcDbCircle
 10
813.9802311876375
 20
488.3383542621173
 30
0.0000000000000000
 40
6.000000000000000
100
AcDbArc
 50
318.1896851042212
 51
401.8103148957788
  0
ARC
  5
13D
100
AcDbEntity
  8
MAIN0
  6
CONTINUOUS
 62
3
100
AcDbCircle
 10
828.9245030976366
 20
488.3383542621173
 30
0.0000000000000000
 40
6.000000000000000
100
AcDbArc
 50
138.1896851042212
 51
221.8103148957788
  0
ARC
  5
13E
100
AcDbEntity
  8
MAIN0
  6
CONTINUOUS
 62
3
100
AcDbCircle
 10
813.9802311876375
 20
480.3383542621173
 30
0.0000000000000000
 40
6.000000000000000
100
AcDbArc
 50
318.1896851042212
 51
401.8103148957788
  0
ARC
  5
13F
100
AcDbEntity
  8
MAIN0
  6
CONTINUOUS
 62
3
100
AcDbCircle
 10
828.9245030976366
 20
480.3383542621173
 30
0.0000000000000000
 40
6.000000000000000
100
AcDbArc
 50
138.1896851042212
 51
221.8103148957788
  0
ARC
  5
140
100
AcDbEntity
  8
MAIN0
  6
CONTINUOUS
 62
3
100
AcDbCircle
 10
819.9802311876375
 20
480.3383542621173
 30
0.0000000000000000
 40
6.000000000000000
100
AcDbArc
 50
318.1896851042212
 51
401.8103148957788
  0
LINE
  5
141
100
AcDbEntity
  8
MAIN0
  6
CONTINUOUS
 62
3
100
AcDbLine
 10
818.4523671426371
 20
492.3383542621173
 30
0.0000000000000000
 11
780.4707952633901
 21
492.3383542621173
 31
0.0000000000000000
  0
LINE
  5
142
100
AcDbEntity
  8
MAIN0
  6
CONTINUOUS
 62
3
100
AcDbLine
 10
852.6697047550248
 20
492.3383542621173
 30
0.0000000000000000
 11
824.4523671426371
 21
492.3383542621173
 31
0.0000000000000000
  0
LINE
  5
143
100
AcDbEntity
  8
MAIN0
  6
CONTINUOUS
 62
3
100
AcDbLine
 10
818.4523671426371
 20
476.3383542621173
 30
0.0000000000000000
 11
780.4707952634373
 21
476.3383542621173
 31
0.0000000000000000
  0
LINE
  5
144
100
AcDbEntity
  8
MAIN0
  6
CONTINUOUS
 62
3
100
AcDbLine
 10
852.6697047550248
 20
476.3383542621173
 30
0.0000000000000000
 11
824.4523671426371
 21
476.3383542621173
 31
0.0000000000000000
  0
ARC
  5
145
100
AcDbEntity
  8
MAIN0
  6
CONTINUOUS
 62
3
100
AcDbCircle
 10
703.3634585404560
 20
488.3383542621173
 30
0.0000000000000000
 40
6.000000000000000
100
AcDbArc
 50
138.1896851042212
 51
221.8103148957788
  0
ARC
  5
146
100
AcDbEntity
  8
MAIN0
  6
CONTINUOUS
 62
3
100
AcDbCircle
 10
694.4191866304569
 20
488.3383542621173
 30
0.0000000000000000
 40
6.000000000000000
100
AcDbArc
 50
318.1896851042212
 51
401.8103148957788
  0
ARC
  5
147
100
AcDbEntity
  8
MAIN0
  6
CONTINUOUS
 62
3
100
AcDbCircle
 10
709.3634585404560
 20
488.3383542621173
 30
0.0000000000000000
 40
6.000000000000000
100
AcDbArc
 50
138.1896851042212
 51
221.8103148957788
  0
ARC
  5
148
100
AcDbEntity
  8
MAIN0
  6
CONTINUOUS
 62
3
100
AcDbCircle
 10
694.4191866304569
 20
480.3383542621173
 30
0.0000000000000000
 40
6.000000000000000
100
AcDbArc
 50
318.1896851042212
 51
401.8103148957788
  0
ARC
  5
149
100
AcDbEntity
  8
MAIN0
  6
CONTINUOUS
 62
3
100
AcDbCircle
 10
709.3634585404560
 20
480.3383542621173
 30
0.0000000000000000
 40
6.000000000000000
100
AcDbArc
 50
138.1896851042212
 51
221.8103148957788
  0
ARC
  5
14A
100
AcDbEntity
  8
MAIN0
  6
CONTINUOUS
 62
3
100
AcDbCircle
 10
700.4191866304569
 20
480.3383542621173
 30
0.0000000000000000
 40
6.000000000000000
100
AcDbArc
 50
318.1896851042212
 51
401.8103148957788
  0
LINE
  5
14B
100
AcDbEntity
  8
MAIN0
  6
CONTINUOUS
 62
3
100
AcDbLine
 10
698.8913225854565
 20
492.3383542621173
 30
0.0000000000000000
 11
678.4707952634138
 21
492.3383542621173
 31
0.0000000000000000
  0
LINE
  5
14C
100
AcDbEntity
  8
MAIN0
  6
CONTINUOUS
 62
3
100
AcDbLine
 10
750.4707952633901
 20
492.3383542621173
 30
0.0000000000000000
 11
704.8913225854565
 21
492.3383542621173
 31
0.0000000000000000
  0
LINE
  5
14D
100
AcDbEntity
  8
MAIN0
  6
CONTINUOUS
 62
3
100
AcDbLine
 10
698.8913225854565
 20
476.3383542621173
 30
0.0000000000000000
 11
678.4707952634138
 21
476.3383542621173
 31
0.0000000000000000
  0
LINE
  5
14E
100
AcDbEntity
  8
MAIN0
  6
CONTINUOUS
 62
3
100
AcDbLine
 10
750.4707952634374
 20
476.3383542621173
 30
0.0000000000000000
 11
704.8913225854565
 21
476.3383542621173
 31
0.0000000000000000
  0
LINE
  5
14F
100
AcDbEntity
  8
MAIN0
  6
CENTER
 62
3
100
AcDbLine
 10
661.6314996293168
 20
484.3383542621173
 30
0.0000000000000000
 11
721.4601082614142
 21
484.3383542621173
 31
0.0000000000000000
  0
LINE
  5
150
100
AcDbEntity
  8
MAIN0
  6
CENTER
 62
3
100
AcDbLine
 10
730.6101081183631
 20
484.3383542621173
 30
0.0000000000000000
 11
868.0267439610028
 21
484.3383542621173
 31
0.0000000000000000
  0
LINE
  5
151
100
AcDbEntity
  8
MAIN0
  6
CENTER
 62
3
100
AcDbLine
 10
765.4707952639939
 20
288.1344861414934
 30
0.0000000000000000
 11
765.4707952636027
 21
420.4808172011412
 31
0.0000000000000000
  0
LINE
  5
152
100
AcDbEntity
  8
MAIN0
  6
CENTER
 62
3
100
AcDbLine
 10
765.4707952635755
 20
429.6308170580901
 30
0.0000000000000000
 11
765.4707952633379
 21
510.0039163023997
 31
0.0000000000000000
  0
LINE
  5
153
100
AcDbEntity
  8
MAIN0
  6
CONTINUOUS
 62
3
100
AcDbLine
 10
512.8377473614696
 20
201.9808172011414
 30
0.0000000000000000
 11
543.3377473614696
 21
201.9808172011414
 31
0.0000000000000000
  0
LINE
  5
154
100
AcDbEntity
  8
MAIN0
  6
CONTINUOUS
 62
3
100
AcDbLine
 10
669.9466849481628
 20
421.2739297932456
 30
0.0000000000000000
 11
654.6966849481629
 21
447.6877046086710
 31
0.0000000000000000
  0
LINE
  5
155
100
AcDbEntity
  8
MAIN0
  6
CONTINUOUS
 62
3
100
AcDbLine
 10
401.4788097747770
 20
447.6877046086719
 30
0.0000000000000000
 11
386.2288097747771
 21
421.2739297932466
 31
0.0000000000000000
  0
LINE
  5
156
100
AcDbEntity
  8
MAIN0
  6
PHANTOM
 62
3
100
AcDbLine
 10
298.6971655399095
 20
341.7308172011411
 30
0.0000000000000000
 11
298.6971655399095
 21
372.2308172011410
 31
0.0000000000000000
  0
LINE
  5
157
100
AcDbEntity
  8
MAIN0
  6
PHANTOM
 62
3
100
AcDbLine
 10
255.6971655399096
 20
372.2308172011411
 30
0.0000000000000000
 11
255.6971655399096
 21
372.4808172011411
 31
0.0000000000000000
  0
LINE
  5
158
100
AcDbEntity
  8
MAIN0
  6
PHANTOM
 62
3
100
AcDbLine
 10
255.6971655399096
 20
372.2308172011411
 30
0.0000000000000000
 11
298.6971655399096
 21
372.2308172011411
 31
0.0000000000000000
  0
LINE
  5
159
100
AcDbEntity
  8
MAIN0
  6
PHANTOM
 62
3
100
AcDbLine
 10
255.6971655399096
 20
341.7308172011411
 30
0.0000000000000000
 11
298.6971655399095
 21
341.7308172011410
 31
0.0000000000000000
  0
LINE
  5
15A
100
AcDbEntity
  8
MAIN0
  6
PHANTOM
 62
3
100
AcDbLine
 10
255.6971655399095
 20
341.4808172011411
 30
0.0000000000000000
 11
255.6971655399095
 21
341.7308172011411
 31
0.0000000000000000
  0
LINE
  5
15B
100
AcDbEntity
  8
MAIN0
  6
CONTINUOUS
 62
3
100
AcDbLine
 10
254.6971655399095
 20
314.9808172011411
 30
0.0000000000000000
 11
257.4471655391275
 21
314.9808172011411
 31
0.0000000000000000
  0
LINE
  5
15C
100
AcDbEntity
  8
MAIN0
  6
CONTINUOUS
 62
3
100
AcDbLine
 10
254.6971655399095
 20
307.3308172011411
 30
0.0000000000000000
 11
298.6971655399094
 21
307.3308172011411
 31
0.0000000000000000
  0
LINE
  5
15D
100
AcDbEntity
  8
MAIN0
  6
CONTINUOUS
 62
3
100
AcDbLine
 10
267.1971655399093
 20
201.9808172011409
 30
0.0000000000000000
 11
268.1971655399093
 21
202.9808172011409
 31
0.0000000000000000
  0
LINE
  5
15E
100
AcDbEntity
  8
MAIN0
  6
PHANTOM
 62
3
100
AcDbLine
 10
298.6971655399094
 20
479.9808172011409
 30
0.0000000000000000
 11
298.6971655399094
 21
510.9808172011411
 31
0.0000000000000000
  0
LINE
  5
15F
100
AcDbEntity
  8
MAIN0
  6
PHANTOM
 62
3
100
AcDbLine
 10
283.6971655399095
 20
461.4808172011410
 30
0.0000000000000000
 11
283.6971655399095
 21
475.4808172011411
 31
0.0000000000000000
  0
LINE
  5
160
100
AcDbEntity
  8
MAIN0
  6
PHANTOM
 62
3
100
AcDbLine
 10
268.6971655399094
 20
420.9808172011410
 30
0.0000000000000000
 11
268.6971655399094
 21
439.4808172011411
 31
0.0000000000000000
  0
LINE
  5
161
100
AcDbEntity
  8
MAIN0
  6
PHANTOM
 62
3
100
AcDbLine
 10
298.6971655399095
 20
510.9808172011410
 30
0.0000000000000000
 11
297.6971655399095
 21
511.9808172011410
 31
0.0000000000000000
  0
LINE
  5
162
100
AcDbEntity
  8
MAIN0
  6
PHANTOM
 62
3
100
AcDbLine
 10
297.6971655399094
 20
478.9808172011410
 30
0.0000000000000000
 11
298.6971655399094
 21
479.9808172011409
 31
0.0000000000000000
  0
LINE
  5
163
100
AcDbEntity
  8
MAIN0
  6
PHANTOM
 62
3
100
AcDbLine
 10
283.1971655399094
 20
443.4808172011410
 30
0.0000000000000000
 11
283.1971655399094
 21
460.9808172011410
 31
0.0000000000000000
  0
LINE
  5
164
100
AcDbEntity
  8
MAIN0
  6
PHANTOM
 62
3
100
AcDbLine
 10
268.1971655399093
 20
399.9808172011408
 30
0.0000000000000000
 11
268.1971655399093
 21
420.4808172011410
 31
0.0000000000000000
  0
LINE
  5
165
100
AcDbEntity
  8
MAIN0
  6
PHANTOM
 62
3
100
AcDbLine
 10
283.1971655399093
 20
443.4808172011410
 30
0.0000000000000000
 11
282.1971655399093
 21
442.4808172011410
 31
0.0000000000000000
  0
LINE
  5
166
100
AcDbEntity
  8
MAIN0
  6
PHANTOM
 62
3
100
AcDbLine
 10
283.6971655399094
 20
461.4808172011411
 30
0.0000000000000000
 11
283.1971655399094
 21
460.9808172011411
 31
0.0000000000000000
  0
LINE
  5
167
100
AcDbEntity
  8
MAIN0
  6
PHANTOM
 62
3
100
AcDbLine
 10
268.6971655399094
 20
420.9808172011409
 30
0.0000000000000000
 11
268.1971655399094
 21
420.4808172011410
 31
0.0000000000000000
  0
LINE
  5
168
100
AcDbEntity
  8
MAIN0
  6
PHANTOM
 62
3
100
AcDbLine
 10
286.2971655399094
 20
478.9808172011410
 30
0.0000000000000000
 11
290.6971655399533
 21
478.9808172011410
 31
0.0000000000000000
  0
LINE
  5
169
100
AcDbEntity
  8
MAIN0
  6
PHANTOM
 62
3
100
AcDbLine
 10
292.6971655396909
 20
478.9808172011410
 30
0.0000000000000000
 11
297.6971655399094
 21
478.9808172011410
 31
0.0000000000000000
  0
LINE
  5
16A
100
AcDbEntity
  8
MAIN0
  6
PHANTOM
 62
3
100
AcDbLine
 10
271.2971655399094
 20
442.4808172011411
 30
0.0000000000000000
 11
275.4971655395844
 21
442.4808172011410
 31
0.0000000000000000
  0
LINE
  5
16B
100
AcDbEntity
  8
MAIN0
  6
PHANTOM
 62
3
100
AcDbLine
 10
277.4971655410861
 20
442.4808172011411
 30
0.0000000000000000
 11
282.1971655399094
 21
442.4808172011411
 31
0.0000000000000000
  0
LINE
  5
16C
100
AcDbEntity
  8
MAIN0
  6
PHANTOM
 62
3
100
AcDbLine
 10
292.6971655396908
 20
478.9808172011411
 30
0.0000000000000000
 11
291.6971655398197
 21
480.7128680084782
 31
0.0000000000000000
  0
LINE
  5
16D
100
AcDbEntity
  8
MAIN0
  6
PHANTOM
 62
3
100
AcDbLine
 10
291.6971655398199
 20
480.7128680084783
 30
0.0000000000000000
 11
290.6971655399533
 21
478.9808172011410
 31
0.0000000000000000
  0
LINE
  5
16E
100
AcDbEntity
  8
MAIN0
  6
PHANTOM
 62
3
100
AcDbLine
 10
275.4971655395843
 20
442.4808172011412
 30
0.0000000000000000
 11
276.4971655403374
 21
444.2128680100090
 31
0.0000000000000000
  0
LINE
  5
16F
100
AcDbEntity
  8
MAIN0
  6
PHANTOM
 62
3
100
AcDbLine
 10
277.4971655410863
 20
442.4808172011409
 30
0.0000000000000000
 11
276.4971655403374
 21
444.2128680100090
 31
0.0000000000000000
  0
LINE
  5
170
100
AcDbEntity
  8
MAIN0
  6
PHANTOM
 62
3
100
AcDbLine
 10
286.2971655399094
 20
478.9808172011411
 30
0.0000000000000000
 11
284.3761834129382
 21
479.9808172011411
 31
0.0000000000000000
  0
LINE
  5
171
100
AcDbEntity
  8
MAIN0
  6
PHANTOM
 62
3
100
AcDbLine
 10
284.3761834129383
 20
479.9808172011411
 30
0.0000000000000000
 11
284.0971655399094
 21
479.9808172011411
 31
0.0000000000000000
  0
LINE
  5
172
100
AcDbEntity
  8
MAIN0
  6
PHANTOM
 62
3
100
AcDbLine
 10
282.8971655399095
 20
478.7808172011411
 30
0.0000000000000000
 11
282.8971655399095
 21
477.0176029027180
 31
0.0000000000000000
  0
LINE
  5
173
100
AcDbEntity
  8
MAIN0
  6
PHANTOM
 62
3
100
AcDbLine
 10
282.8971655399094
 20
477.0176029027180
 30
0.0000000000000000
 11
283.6971655399094
 21
475.4808172011411
 31
0.0000000000000000
  0
ARC
  5
174
100
AcDbEntity
  8
MAIN0
  6
PHANTOM
 62
3
100
AcDbCircle
 10
284.0971655399094
 20
478.7808172011411
 30
0.0000000000000000
 40
1.200000000000000
100
AcDbArc
 50
90.00000000000000
 51
180.0000000000000
  0
LINE
  5
175
100
AcDbEntity
  8
MAIN0
  6
PHANTOM
 62
3
100
AcDbLine
 10
271.2971655399093
 20
442.4808172011411
 30
0.0000000000000000
 11
269.3761834129382
 21
443.4808172011410
 31
0.0000000000000000
  0
LINE
  5
176
100
AcDbEntity
  8
MAIN0
  6
PHANTOM
 62
3
100
AcDbLine
 10
269.3761834129383
 20
443.4808172011410
 30
0.0000000000000000
 11
269.0971655399094
 21
443.4808172011410
 31
0.0000000000000000
  0
LINE
  5
177
100
AcDbEntity
  8
MAIN0
  6
PHANTOM
 62
3
100
AcDbLine
 10
267.8971655399094
 20
442.2808172011410
 30
0.0000000000000000
 11
267.8971655399094
 21
441.0176029027180
 31
0.0000000000000000
  0
LINE
  5
178
100
AcDbEntity
  8
MAIN0
  6
PHANTOM
 62
3
100
AcDbLine
 10
267.8971655399094
 20
441.0176029027180
 30
0.0000000000000000
 11
268.6971655399094
 21
439.4808172011411
 31
0.0000000000000000
  0
ARC
  5
179
100
AcDbEntity
  8
MAIN0
  6
PHANTOM
 62
3
100
AcDbCircle
 10
269.0971655399094
 20
442.2808172011410
 30
0.0000000000000000
 40
1.200000000000000
100
AcDbArc
 50
90.00000000000000
 51
180.0000000000000
  0
LINE
  5
17A
100
AcDbEntity
  8
MAIN0
  6
PHANTOM
 62
3
100
AcDbLine
 10
267.1971655399093
 20
398.9808172011408
 30
0.0000000000000000
 11
268.1971655399093
 21
399.9808172011408
 31
0.0000000000000000
  0
LINE
  5
17B
100
AcDbEntity
  8
MAIN0
  6
PHANTOM
 62
3
100
AcDbLine
 10
252.6971655399097
 20
511.9808172011410
 30
0.0000000000000000
 11
297.6971655399094
 21
511.9808172011410
 31
0.0000000000000000
  0
LINE
  5
17C
100
AcDbEntity
  8
MAIN0
  6
CONTINUOUS
 62
3
100
AcDbLine
 10
179.1971655399096
 20
404.9808172011412
 30
0.0000000000000000
 11
188.9116697702943
 21
404.9808172011412
 31
0.0000000000000000
  0
LINE
  5
17D
100
AcDbEntity
  8
MAIN0
  6
CONTINUOUS
 62
3
100
AcDbLine
 10
179.1971655399095
 20
308.9808172011412
 30
0.0000000000000000
 11
196.2191164631394
 21
308.9808172011412
 31
0.0000000000000000
  0
LINE
  5
17E
100
AcDbEntity
  8
MAIN0
  6
CONTINUOUS
 62
3
100
AcDbLine
 10
178.1971655399096
 20
405.9808172011412
 30
0.0000000000000000
 11
179.1971655399096
 21
404.9808172011412
 31
0.0000000000000000
  0
LINE
  5
17F
100
AcDbEntity
  8
MAIN0
  6
CONTINUOUS
 62
3
100
AcDbLine
 10
179.1971655399094
 20
308.9808172011413
 30
0.0000000000000000
 11
178.1971655399094
 21
307.9808172011413
 31
0.0000000000000000
  0
ARC
  5
180
100
AcDbEntity
  8
MAIN0
  6
CONTINUOUS
 62
3
100
AcDbCircle
 10
528.0877473614698
 20
356.9808172011411
 30
0.0000000000000000
 40
48.00000000000000
100
AcDbArc
 50
282.5998153316723
 51
377.4001846683281
  0
ARC
  5
181
100
AcDbEntity
  8
MAIN0
  6
CONTINUOUS
 62
3
100
AcDbCircle
 10
528.0877473614698
 20
356.9808172011411
 30
0.0000000000000000
 40
48.00000000000000
100
AcDbArc
 50
42.59981533167257
 51
137.4001846683283
  0
ARC
  5
182
100
AcDbEntity
  8
MAIN0
  6
CONTINUOUS
 62
3
100
AcDbCircle
 10
528.0877473614698
 20
356.9808172011411
 30
0.0000000000000000
 40
48.00000000000000
100
AcDbArc
 50
162.5998153316717
 51
257.4001846683274
  0
LINE
  5
183
100
AcDbEntity
  8
MAIN0
  6
CONTINUOUS
 62
3
100
AcDbLine
 10
543.3377473614695
 20
201.9808172011414
 30
0.0000000000000000
 11
543.3377473614697
 21
307.3774629443826
 31
0.0000000000000000
  0
LINE
  5
184
100
AcDbEntity
  8
MAIN0
  6
CONTINUOUS
 62
3
100
AcDbLine
 10
512.8377473614695
 20
201.9808172011414
 30
0.0000000000000000
 11
512.8377473614696
 21
307.3774629443826
 31
0.0000000000000000
  0
ARC
  5
185
100
AcDbEntity
  8
MAIN0
  6
CONTINUOUS
 62
3
100
AcDbCircle
 10
528.0877473614697
 20
357.9808172011414
 30
0.0000000000000000
 40
78.00000000000000
100
AcDbArc
 50
258.7253173103666
 51
281.2746826896333
  0
ARC
  5
186
100
AcDbEntity
  8
MAIN0
  6
CONTINUOUS
 62
3
100
AcDbCircle
 10
528.0877473614697
 20
357.9808172011414
 30
0.0000000000000000
 40
114.5000000000000
100
AcDbArc
 50
262.3461593897710
 51
277.6538406102288
  0
ARC
  5
187
100
AcDbEntity
  8
MAIN0
  6
CONTINUOUS
 62
3
100
AcDbCircle
 10
528.0877473614697
 20
357.9808172011414
 30
0.0000000000000000
 40
80.50000000000000
100
AcDbArc
 50
259.0798369591186
 51
280.9201630408813
  0
ARC
  5
188
100
AcDbEntity
  8
MAIN0
  6
CONTINUOUS
 62
3
100
AcDbCircle
 10
528.0877473614697
 20
357.9808172011414
 30
0.0000000000000000
 40
117.0000000000000
100
AcDbArc
 50
262.5106512868035
 51
277.4893487131964
  0
ARC
  5
189
100
AcDbEntity
  8
MAIN0
  6
CONTINUOUS
 62
3
100
AcDbCircle
 10
528.0877473614697
 20
357.9808172011414
 30
0.0000000000000000
 40
94.50000000000000
100
AcDbArc
 50
260.7132464573036
 51
279.2867535426964
  0
ARC
  5
18A
100
AcDbEntity
  8
MAIN0
  6
CONTINUOUS
 62
3
100
AcDbCircle
 10
528.0877473614697
 20
357.9808172011414
 30
0.0000000000000000
 40
136.0000000000000
100
AcDbArc
 50
263.5617489823239
 51
276.4382510176760
  0
ARC
  5
18B
100
AcDbEntity
  8
MAIN0
  6
CONTINUOUS
 62
3
100
AcDbCircle
 10
527.2217219576852
 20
356.4808172011410
 30
0.0000000000000000
 40
78.00000000000000
100
AcDbArc
 50
18.72531731036655
 51
41.27468268963317
  0
ARC
  5
18C
100
AcDbEntity
  8
MAIN0
  6
CONTINUOUS
 62
3
100
AcDbCircle
 10
527.2217219576852
 20
356.4808172011410
 30
0.0000000000000000
 40
80.50000000000000
100
AcDbArc
 50
19.07983695911850
 51
40.92016304088124
  0
ARC
  5
18D
100
AcDbEntity
  8
MAIN0
  6
CONTINUOUS
 62
3
100
AcDbCircle
 10
527.2217219576852
 20
356.4808172011410
 30
0.0000000000000000
 40
94.50000000000000
100
AcDbArc
 50
20.71324645730346
 51
39.28675354269628
  0
ARC
  5
18E
100
AcDbEntity
  8
MAIN0
  6
CONTINUOUS
 62
3
100
AcDbCircle
 10
527.2217219576852
 20
356.4808172011410
 30
0.0000000000000000
 40
114.5000000000000
100
AcDbArc
 50
22.34615938977091
 51
37.65384061022872
  0
ARC
  5
18F
100
AcDbEntity
  8
MAIN0
  6
CONTINUOUS
 62
3
100
AcDbCircle
 10
527.2217219576852
 20
356.4808172011410
 30
0.0000000000000000
 40
117.0000000000000
100
AcDbArc
 50
22.51065128680331
 51
37.48934871319631
  0
ARC
  5
190
100
AcDbEntity
  8
MAIN0
  6
CONTINUOUS
 62
3
100
AcDbCircle
 10
527.2217219576852
 20
356.4808172011410
 30
0.0000000000000000
 40
136.0000000000000
100
AcDbArc
 50
23.56174898232378
 51
36.43825101767595
  0
ARC
  5
191
100
AcDbEntity
  8
MAIN0
  6
CONTINUOUS
 62
3
100
AcDbCircle
 10
528.9537727652545
 20
356.4808172011411
 30
0.0000000000000000
 40
78.00000000000000
100
AcDbArc
 50
138.7253173103667
 51
161.2746826896334
  0
ARC
  5
192
100
AcDbEntity
  8
MAIN0
  6
CONTINUOUS
 62
3
100
AcDbCircle
 10
528.9537727652545
 20
356.4808172011411
 30
0.0000000000000000
 40
80.50000000000000
100
AcDbArc
 50
139.0798369591187
 51
160.9201630408814
  0
ARC
  5
193
100
AcDbEntity
  8
MAIN0
  6
CONTINUOUS
 62
3
100
AcDbCircle
 10
528.9537727652545
 20
356.4808172011411
 30
0.0000000000000000
 40
94.50000000000000
100
AcDbArc
 50
140.7132464573037
 51
159.2867535426965
  0
ARC
  5
194
100
AcDbEntity
  8
MAIN0
  6
CONTINUOUS
 62
3
100
AcDbCircle
 10
528.9537727652545
 20
356.4808172011411
 30
0.0000000000000000
 40
114.5000000000000
100
AcDbArc
 50
142.3461593897711
 51
157.6538406102290
  0
ARC
  5
195
100
AcDbEntity
  8
MAIN0
  6
CONTINUOUS
 62
3
100
AcDbCircle
 10
528.9537727652545
 20
356.4808172011411
 30
0.0000000000000000
 40
117.0000000000000
100
AcDbArc
 50
142.5106512868036
 51
157.4893487131965
  0
ARC
  5
196
100
AcDbEntity
  8
MAIN0
  6
CONTINUOUS
 62
3
100
AcDbCircle
 10
528.9537727652545
 20
356.4808172011411
 30
0.0000000000000000
 40
136.0000000000000
100
AcDbArc
 50
143.5617489823240
 51
156.4382510176761
  0
LINE
  5
197
100
AcDbEntity
  8
MAIN0
  6
CONTINUOUS
 62
3
100
AcDbLine
 10
563.4205122607417
 20
394.9893817371552
 30
0.0000000000000000
 11
654.6966849481631
 21
447.6877046086710
 31
0.0000000000000000
  0
LINE
  5
198
100
AcDbEntity
  8
MAIN0
  6
CONTINUOUS
 62
3
100
AcDbLine
 10
578.6705122608096
 20
368.5756069217691
 30
0.0000000000000000
 11
669.9466849481629
 21
421.2739297932457
 31
0.0000000000000000
  0
LINE
  5
199
100
AcDbEntity
  8
MAIN0
  6
CONTINUOUS
 62
3
100
AcDbLine
 10
401.4788097747770
 20
447.6877046086719
 30
0.0000000000000000
 11
492.7549824621978
 21
394.9893817371560
 31
0.0000000000000000
  0
LINE
  5
19A
100
AcDbEntity
  8
MAIN0
  6
CONTINUOUS
 62
3
100
AcDbLine
 10
386.2288097747771
 20
421.2739297932465
 30
0.0000000000000000
 11
477.5049824621306
 21
368.5756069217694
 31
0.0000000000000000
  0
LINE
  5
19B
100
AcDbEntity
  8
MAIN0
  6
PHANTOM
 62
3
100
AcDbLine
 10
257.9471655398098
 20
398.9808172011411
 30
0.0000000000000000
 11
259.1775502975477
 21
401.1119061143990
 31
0.0000000000000000
  0
LINE
  5
19C
100
AcDbEntity
  8
MAIN0
  6
PHANTOM
 62
3
100
AcDbLine
 10
260.2167807820886
 20
401.1119061143991
 30
0.0000000000000000
 11
261.4471655398262
 21
398.9808172011410
 31
0.0000000000000000
  0
ARC
  5
19D
100
AcDbEntity
  8
MAIN0
  6
PHANTOM
 62
3
100
AcDbCircle
 10
259.6971655398182
 20
400.8119061143987
 30
0.0000000000000000
 40
0.6000000000000001
100
AcDbArc
 50
30.00000000003074
 51
149.9999999999687
  0
LINE
  5
19E
100
AcDbEntity
  8
MAIN0
  6
CONTINUOUS
 62
3
100
AcDbLine
 10
253.8971655399098
 20
511.9808172011411
 30
0.0000000000000000
 11
254.6971655399098
 21
511.1808172011411
 31
0.0000000000000000
  0
LINE
  5
19F
100
AcDbEntity
  8
MAIN0
  6
PHANTOM
 62
3
100
AcDbLine
 10
261.4471655398262
 20
398.9808172011410
 30
0.0000000000000000
 11
267.1971655399095
 21
398.9808172011410
 31
0.0000000000000000
  0
LINE
  5
1A0
100
AcDbEntity
  8
MAIN0
  6
PHANTOM
 62
3
100
AcDbLine
 10
254.6971655399096
 20
398.9808172011410
 30
0.0000000000000000
 11
257.9471655398098
 21
398.9808172011410
 31
0.0000000000000000
  0
DIMENSION
  5
1A9
100
AcDbEntity
  8
MAIN0
  6
CONTINUOUS
 62
1
100
AcDbDimension
  2
*D0
 10
860.4707952634137
 20
531.7760214769595
 30
0.0000000000000000
 11
765.4707952634140
 21
532.2760214769595
 31
0.0000000000000000
 70
32
  1
\A1;390
  3
MAIN001
100
AcDbAlignedDimension
 13
670.4707952634142
 23
484.3383542621173
 33
0.0000000000000000
 14
860.4707952634137
 24
484.3383542621173
 34
0.0000000000000000
100
AcDbRotatedDimension
1001
ACAD
1000
DSTYLE
1002
{
1070
   173
1070
     1
1070
     6
1000
_OPEN
1070
     7
1000
_OPEN
1070
    41
1040
3.000000
1002
}
  0
DIMENSION
  5
1B2
100
AcDbEntity
  8
MAIN0
  6
CONTINUOUS
 62
3
100
AcDbDimension
  2
*D1
 10
750.4707952633901
 20
516.9808172011412
 30
0.0000000000000000
 11
765.4707952633783
 21
517.4808172011412
 31
0.0000000000000000
 70
32
  1
\A1;\U+220530
  3
MAIN001
100
AcDbAlignedDimension
 13
780.4707952633664
 23
500.3383542621173
 33
0.0000000000000000
 14
750.4707952633664
 24
500.3383542621173
 34
0.0000000000000000
100
AcDbRotatedDimension
1001
ACAD
1000
DSTYLE
1002
{
1070
   173
1070
     1
1070
     6
1000
_OPEN
1070
     7
1000
_OPEN
1070
    41
1040
3.000000
1002
}
  0
DIMENSION
  5
1B9
100
AcDbEntity
  8
MAIN0
  6
CONTINUOUS
 62
3
100
AcDbDimension
  2
*D2
 10
752.4707952634730
 20
421.9808172011412
 30
0.0000000000000000
 11
765.4707952634730
 21
422.4808172011412
 31
0.0000000000000000
 70
32
  1
\A1;\U+220526
  3
MAIN001
100
AcDbAlignedDimension
 13
778.4707952638099
 23
350.3383542621173
 33
0.0000000000000000
 14
752.4707952638099
 24
350.3383542621173
 34
0.0000000000000000
100
AcDbRotatedDimension
1001
ACAD
1000
DSTYLE
1002
{
1070
   173
1070
     1
1070
     6
1000
_OPEN
1070
     7
1000
_OPEN
1070
    41
1040
3.000000
1002
}
  0
DIMENSION
  5
1C2
100
AcDbEntity
  8
MAIN0
  6
CONTINUOUS
 62
3
100
AcDbDimension
  2
*D3
 10
793.6971655399095
 20
302.3383542621173
 30
0.0000000000000000
 11
793.1971655399095
 21
311.3383542621173
 31
0.0000000000000000
 70
32
  3
MAIN001
100
AcDbAlignedDimension
 13
774.6207952634047
 23
320.3383542621173
 33
0.0000000000000000
 14
773.6207952634047
 24
302.3383542621173
 34
0.0000000000000000
 50
90.00000000000000
100
AcDbRotatedDimension
1001
ACAD
1000
DSTYLE
1002
{
1070
   173
1070
     1
1070
     6
1000
_OPEN
1070
     7
1000
_OPEN
1070
    41
1040
3.000000
1002
}
  0
DIMENSION
  5
1CB
100
AcDbEntity
  8
MAIN0
  6
CONTINUOUS
 62
3
100
AcDbDimension
  2
*D4
 10
813.6971655399095
 20
502.3383542621173
 30
0.0000000000000000
 11
813.1971655399095
 21
402.3383542621173
 31
0.0000000000000000
 70
32
  3
MAIN001
100
AcDbAlignedDimension
 13
773.6207952634047
 23
302.3383542621173
 33
0.0000000000000000
 14
778.4707952633606
 24
502.3383542621173
 34
0.0000000000000000
 50
90.00000000000000
100
AcDbRotatedDimension
1001
ACAD
1000
DSTYLE
1002
{
1070
   173
1070
     1
1070
     6
1000
_OPEN
1070
     7
1000
_OPEN
1070
    41
1040
3.000000
1002
}
  0
DIMENSION
  5
1D5
100
AcDbEntity
  8
MAIN0
  6
CONTINUOUS
 62
3
100
AcDbDimension
  2
*D5
 10
790.6759542579873
 20
236.2442267285856
 30
0.0000000000000000
 11
795.1069531172378
 21
241.7358857596158
 31
0.0000000000000000
 70
161
  3
MAIN001
100
AcDbAlignedDimension
 13
764.6877311288521
 23
242.4334599844973
 33
0.0000000000000000
 14
774.5872260654649
 24
252.3329549211079
 34
0.0000000000000000
 50
45.00000000000016
1001
ACAD
1000
DSTYLE
1002
{
1070
   173
1070
     1
1070
     6
1000
_OPEN
1070
     7
1000
_OPEN
1070
    41
1040
3.000000
1070
   272
1070
     2
1070
    47
1040
0.000000
1070
    48
1040
0.150000
1070
    71
1070
     1
1002
}
  0
DIMENSION
  5
1DE
100
AcDbEntity
  8
MAIN0
  6
CONTINUOUS
 62
3
100
AcDbDimension
  2
*D6
 10
254.6971655399098
 20
555.3966828036382
 30
0.0000000000000000
 11
206.6971655399098
 21
555.8966828036382
 31
0.0000000000000000
 70
32
  3
MAIN001
100
AcDbAlignedDimension
 13
158.6971655399098
 23
509.9808172011412
 33
0.0000000000000000
 14
254.6971655399098
 24
511.1808172011415
 34
0.0000000000000000
100
AcDbRotatedDimension
1001
ACAD
1000
DSTYLE
1002
{
1070
   173
1070
     1
1070
     6
1000
_OPEN
1070
     7
1000
_OPEN
1070
    41
1040
3.000000
1002
}
  0
DIMENSION
  5
1E6
100
AcDbEntity
  8
MAIN0
  6
CONTINUOUS
 62
3
100
AcDbDimension
  2
*D7
 10
254.6971655399098
 20
541.5047950697184
 30
0.0000000000000000
 11
222.4471655399098
 21
542.0047950697184
 31
0.0000000000000000
 70
32
  3
MAIN001
100
AcDbAlignedDimension
 13
190.1971655399098
 23
494.1294883702012
 33
0.0000000000000000
 14
254.6971655399098
 24
511.1808172011415
 34
0.0000000000000000
100
AcDbRotatedDimension
1001
ACAD
1000
DSTYLE
1002
{
1070
   173
1070
     1
1070
     6
1000
_OPEN
1070
     7
1000
_OPEN
1070
    41
1040
3.000000
1002
}
  0
DIMENSION
  5
1EE
100
AcDbEntity
  8
MAIN0
  6
CONTINUOUS
 62
3
100
AcDbDimension
  2
*D8
 10
190.1971655399098
 20
541.5047950697184
 30
0.0000000000000000
 11
174.4471655399098
 21
542.0047950697184
 31
0.0000000000000000
 70
32
  3
MAIN001
100
AcDbAlignedDimension
 13
158.6971655399098
 23
509.9808172011412
 33
0.0000000000000000
 14
190.1971655399098
 24
494.1294883702012
 34
0.0000000000000000
100
AcDbRotatedDimension
1001
ACAD
1000
DSTYLE
1002
{
1070
   173
1070
     1
1070
     6
1000
_OPEN
1070
     7
1000
_OPEN
1070
    41
1040
3.000000
1002
}
  0
DIMENSION
  5
1F7
100
AcDbEntity
  8
MAIN0
  6
CONTINUOUS
 62
3
100
AcDbDimension
  2
*D9
 10
98.72389234672721
 20
511.9808172011412
 30
0.0000000000000000
 11
98.22389234672721
 21
356.9808172011412
 31
0.0000000000000000
 70
32
  1
\A1;\U+2205310
  3
MAIN001
100
AcDbAlignedDimension
 13
160.6971655399093
 23
201.9808172011412
 33
0.0000000000000000
 14
160.6971655399098
 24
511.9808172011412
 34
0.0000000000000000
 50
90.00000000000000
100
AcDbRotatedDimension
1001
ACAD
1000
DSTYLE
1002
{
1070
   173
1070
     1
1070
     6
1000
_OPEN
1070
     7
1000
_OPEN
1070
    41
1040
3.000000
1002
}
  0
DIMENSION
  5
200
100
AcDbEntity
  8
MAIN0
  6
CONTINUOUS
 62
3
100
AcDbDimension
  2
*D10
 10
116.2238923467272
 20
486.9808172011412
 30
0.0000000000000000
 11
115.7238923467272
 21
349.9058170640506
 31
0.0000000000000000
 70
32
  1
\A1;\U+2205260H6\H0.903226x;\S＋0.032^ 　0;
  3
MAIN001
100
AcDbAlignedDimension
 13
158.6971655399094
 23
226.9808172011412
 33
0.0000000000000000
 14
158.6971655399098
 24
486.9808172011412
 34
0.0000000000000000
 50
90.00000000000000
100
AcDbRotatedDimension
1001
ACAD
1000
DSTYLE
1002
{
1070
   173
1070
     1
1070
     6
1000
_OPEN
1070
     7
1000
_OPEN
1070
    41
1040
3.000000
1070
   272
1070
     3
1070
    47
1040
0.032000
1070
    48
1040
0.000000
1070
    71
1070
     1
1070
   340
1005
201
1002
}
  0
DIMENSION
  5
20A
100
AcDbEntity
  8
MAIN0
  6
CONTINUOUS
 62
3
100
AcDbDimension
  2
*D11
 10
158.6971655399093
 20
326.6294883702011
 30
0.0000000000000000
 11
153.7238923467272
 21
327.3794883702011
 31
0.0000000000000000
 70
160
  3
MAIN001
100
AcDbAlignedDimension
 13
165.6971655399094
 23
226.9808172011412
 33
0.0000000000000000
 14
158.6971655399093
 24
203.9808172011413
 34
0.0000000000000000
100
AcDbRotatedDimension
1001
ACAD
1000
DSTYLE
1002
{
1070
   173
1070
     1
1070
     6
1000
_OPEN
1070
     7
1000
_OPEN
1070
    41
1040
3.000000
1070
   287
1070
     0
1002
}
  0
DIMENSION
  5
214
100
AcDbEntity
  8
MAIN0
  6
CONTINUOUS
 62
3
100
AcDbDimension
  2
*D12
 10
209.1645266465783
 20
576.2347312520620
 30
0.0000000000000000
 11
214.1622594203651
 21
582.2931241976197
 31
0.0000000000000000
 70
161
  3
MAIN001
100
AcDbAlignedDimension
 13
189.4141014048986
 23
576.1861666205342
 33
0.0000000000000000
 14
199.3135963415168
 24
586.0856615571393
 34
0.0000000000000000
 50
44.99999999995443
1001
ACAD
1000
DSTYLE
1002
{
1070
   173
1070
     1
1070
     6
1000
_OPEN
1070
     7
1000
_OPEN
1070
    41
1040
3.000000
1070
   272
1070
     2
1070
    47
1040
0.150000
1070
    48
1040
-0.050000
1070
    71
1070
     1
1002
}
  0
DIMENSION
  5
21D
100
AcDbEntity
  8
MAIN0
  6
CONTINUOUS
 62
3
100
AcDbDimension
  2
*D13
 10
133.7238923467272
 20
404.9808172011412
 30
0.0000000000000000
 11
133.2238923467272
 21
356.9808172011412
 31
0.0000000000000000
 70
32
  1
\A1;\U+220596
  3
MAIN001
100
AcDbAlignedDimension
 13
179.1971655399095
 23
308.9808172011412
 33
0.0000000000000000
 14
179.1971655399096
 24
404.9808172011412
 34
0.0000000000000000
 50
90.00000000000000
100
AcDbRotatedDimension
1001
ACAD
1000
DSTYLE
1002
{
1070
   173
1070
     1
1070
     6
1000
_OPEN
1070
     7
1000
_OPEN
1070
    41
1040
3.000000
1002
}
  0
DIMENSION
  5
226
100
AcDbEntity
  8
MAIN0
  6
CONTINUOUS
 62
3
100
AcDbDimension
  2
*D14
 10
318.7238923467272
 20
372.2308172011410
 30
0.0000000000000000
 11
318.2238923467272
 21
356.9808172011410
 31
0.0000000000000000
 70
32
  3
MAIN001
100
AcDbAlignedDimension
 13
298.6971655399095
 23
341.7308172011410
 33
0.0000000000000000
 14
298.6971655399096
 24
372.2308172011411
 34
0.0000000000000000
 50
90.00000000000000
100
AcDbRotatedDimension
1001
ACAD
1000
DSTYLE
1002
{
1070
   173
1070
     1
1070
     6
1000
_OPEN
1070
     7
1000
_OPEN
1070
    41
1040
3.000000
1002
}
  0
CIRCLE
  5
227
100
AcDbEntity
  8
MAIN0
  6
CONTINUOUS
 62
3
100
AcDbCircle
 10
669.0877473614698
 20
356.9808172011409
 30
0.0000000000000000
 40
10.00000000000000
  0
CIRCLE
  5
228
100
AcDbEntity
  8
MAIN0
  6
CONTINUOUS
 62
3
100
AcDbCircle
 10
669.0877473614698
 20
356.9808172011409
 30
0.0000000000000000
 40
6.750000000000000
  0
CIRCLE
  5
229
100
AcDbEntity
  8
MAIN0
  6
CONTINUOUS
 62
3
100
AcDbCircle
 10
457.5877473614700
 20
479.0903991347471
 30
0.0000000000000000
 40
10.00000000000000
  0
CIRCLE
  5
22A
100
AcDbEntity
  8
MAIN0
  6
CONTINUOUS
 62
3
100
AcDbCircle
 10
457.5877473614700
 20
479.0903991347471
 30
0.0000000000000000
 40
6.750000000000000
  0
LINE
  5
22B
100
AcDbEntity
  8
MAIN0
  6
CENTER
 62
3
100
AcDbLine
 10
464.5690082953790
 20
466.9985004963208
 30
0.0000000000000000
 11
450.5877473614700
 21
491.2147547877292
 31
0.0000000000000000
  0
CIRCLE
  5
22C
100
AcDbEntity
  8
MAIN0
  6
CONTINUOUS
 62
3
100
AcDbCircle
 10
457.5877473614694
 20
234.8712352675353
 30
0.0000000000000000
 40
10.00000000000000
  0
CIRCLE
  5
22D
100
AcDbEntity
  8
MAIN0
  6
CONTINUOUS
 62
3
100
AcDbCircle
 10
457.5877473614694
 20
234.8712352675353
 30
0.0000000000000000
 40
6.750000000000000
  0
LINE
  5
22E
100
AcDbEntity
  8
MAIN0
  6
CENTER
 62
3
100
AcDbLine
 10
464.7424797086684
 20
247.2635952074409
 30
0.0000000000000000
 11
448.9336531334731
 21
219.8819043711575
 31
0.0000000000000000
  0
LINE
  5
22F
100
AcDbEntity
  8
MAIN0
  6
CENTER
 62
3
100
AcDbLine
 10
148.7238923467279
 20
497.9808172012894
 30
0.0000000000000000
 11
261.2238923467293
 21
497.9808172012306
 31
0.0000000000000000
  0
LINE
  5
230
100
AcDbEntity
  8
MAIN0
  6
HIDDEN
 62
3
100
AcDbLine
 10
240.1971655399098
 20
507.9808172012416
 30
0.0000000000000000
 11
254.6971655399098
 21
507.9808172012340
 31
0.0000000000000000
  0
LINE
  5
231
100
AcDbEntity
  8
MAIN0
  6
HIDDEN
 62
3
100
AcDbLine
 10
240.1971655399097
 20
497.9808172012416
 30
0.0000000000000000
 11
240.1971655399098
 21
507.9808172012416
 31
0.0000000000000000
  0
LINE
  5
232
100
AcDbEntity
  8
MAIN0
  6
HIDDEN
 62
3
100
AcDbLine
 10
158.6971655399098
 20
504.7308172012842
 30
0.0000000000000000
 11
240.1971655399098
 21
504.7308172012416
 31
0.0000000000000000
  0
LINE
  5
233
100
AcDbEntity
  8
MAIN0
  6
HIDDEN
 62
3
100
AcDbLine
 10
240.1971655399098
 20
497.9808172012416
 30
0.0000000000000000
 11
240.1971655398993
 21
487.9808172012416
 31
0.0000000000000000
  0
LINE
  5
234
100
AcDbEntity
  8
MAIN0
  6
HIDDEN
 62
3
100
AcDbLine
 10
158.6971655399027
 20
491.2308172012842
 30
0.0000000000000000
 11
240.1971655399027
 21
491.2308172012416
 31
0.0000000000000000
  0
LINE
  5
235
100
AcDbEntity
  8
MAIN0
  6
HIDDEN
 62
3
100
AcDbLine
 10
240.1971655398993
 20
487.9808172012416
 30
0.0000000000000000
 11
254.6971655398993
 21
487.9808172012340
 31
0.0000000000000000
  0
DIMENSION
  5
23E
100
AcDbEntity
  8
MAIN0
  6
CONTINUOUS
 62
3
100
AcDbDimension
  2
*D15
 10
276.2238923467272
 20
507.9808172012416
 30
0.0000000000000000
 11
275.7238923467272
 21
497.9808172012378
 31
0.0000000000000000
 70
32
  1
\A1;\U+220520
  3
MAIN001
100
AcDbAlignedDimension
 13
254.6971655398993
 23
487.9808172012340
 33
0.0000000000000000
 14
254.6971655399098
 24
507.9808172012340
 34
0.0000000000000000
 50
90.00000000000000
100
AcDbRotatedDimension
1001
ACAD
1000
DSTYLE
1002
{
1070
   173
1070
     1
1070
     6
1000
_OPEN
1070
     7
1000
_OPEN
1070
    41
1040
3.000000
1002
}
  0
DIMENSION
  5
247
100
AcDbEntity
  8
MAIN0
  6
CONTINUOUS
 62
3
100
AcDbDimension
  2
*D16
 10
133.7238923467272
 20
504.7308172012842
 30
0.0000000000000000
 11
133.2238923467272
 21
497.9808172012842
 31
0.0000000000000000
 70
32
  1
\A1;\U+220513.5
  3
MAIN001
100
AcDbAlignedDimension
 13
158.6971655399027
 23
491.2308172012842
 33
0.0000000000000000
 14
158.6971655399098
 24
504.7308172012842
 34
0.0000000000000000
 50
90.00000000000000
100
AcDbRotatedDimension
1001
ACAD
1000
DSTYLE
1002
{
1070
   173
1070
     1
1070
     6
1000
_OPEN
1070
     7
1000
_OPEN
1070
    41
1040
3.000000
1002
}
  0
DIMENSION
  5
251
100
AcDbEntity
  8
MAIN0
  6
CONTINUOUS
 62
3
100
AcDbDimension
  2
*D17
 10
240.1971655399098
 20
476.6294883702011
 30
0.0000000000000000
 11
247.4471655399098
 21
477.1294883702011
 31
0.0000000000000000
 70
32
  3
MAIN001
100
AcDbAlignedDimension
 13
254.6971655399093
 23
203.9808172011412
 33
0.0000000000000000
 14
240.1971655398993
 24
487.9808172012416
 34
0.0000000000000000
100
AcDbRotatedDimension
1001
ACAD
1000
DSTYLE
1002
{
1070
   173
1070
     1
1070
     6
1000
_OPEN
1070
     7
1000
_OPEN
1070
    41
1040
3.000000
1070
   287
1070
     0
1002
}
  0
ARC
  5
252
100
AcDbEntity
  8
MAIN0
  6
CENTER
 62
3
100
AcDbCircle
 10
528.0877473614697
 20
356.9808172011411
 30
0.0000000000000000
 40
141.0000000000000
100
AcDbArc
 50
113.8390472457294
 51
127.4130887286908
  0
ARC
  5
253
100
AcDbEntity
  8
MAIN0
  6
CENTER
 62
3
100
AcDbCircle
 10
528.0877473614697
 20
356.9808172011411
 30
0.0000000000000000
 40
141.0000000000000
100
AcDbArc
 50
226.4633926298027
 51
248.7478518067350
  0
ARC
  5
254
100
AcDbEntity
  8
MAIN0
  6
CENTER
 62
3
100
AcDbCircle
 10
528.0877473614697
 20
356.9808172011411
 30
0.0000000000000000
 40
141.0000000000000
100
AcDbArc
 50
352.1465041127350
 51
411.0904609658201
  0
LINE
  5
255
100
AcDbEntity
  8
MAIN0
  6
PHANTOM
 62
3
100
AcDbLine
 10
654.0877473614705
 20
364.4808172013354
 30
0.0000000000000000
 11
650.5877473614700
 21
364.4808172013341
 31
0.0000000000000000
  0
LINE
  5
256
100
AcDbEntity
  8
MAIN0
  6
PHANTOM
 62
3
100
AcDbLine
 10
654.0877473614698
 20
349.4808172013355
 30
0.0000000000000000
 11
654.0877473614706
 21
364.4808172013354
 31
0.0000000000000000
  0
LINE
  5
257
100
AcDbEntity
  8
MAIN0
  6
PHANTOM
 62
3
100
AcDbLine
 10
650.5877473614698
 20
349.4808172013341
 30
0.0000000000000000
 11
650.5877473614706
 21
364.4808172013342
 31
0.0000000000000000
  0
LINE
  5
258
100
AcDbEntity
  8
MAIN0
  6
PHANTOM
 62
3
100
AcDbLine
 10
654.0877473614697
 20
349.4808172013355
 30
0.0000000000000000
 11
650.5877473614704
 21
349.4808172013341
 31
0.0000000000000000
  0
MTEXT
  5
259
100
AcDbEntity
  8
MAIN0
  6
CONTINUOUS
 62
3
100
AcDbMText
 10
627.2425306704994
 20
279.7165440549985
 30
0.0000000000000000
 40
2.994604349136353
 41
0.0000000000000000
 71
     1
 72
     1
  1
{\H0.90x;{MAX.2200/min\P}
 11
0.5000000000000009
 21
0.8660254037844382
 31
0.0000000000000000
  7
STANDARD
  0
MTEXT
  5
25A
100
AcDbEntity
  8
MAIN0
  6
CONTINUOUS
 62
3
100
AcDbMText
 10
636.2302486460108
 20
284.3891237881808
 30
0.0000000000000000
 40
3.099999904632568
 41
0.0000000000000000
 71
     1
 72
     1
  1
{\H0.92x;{JAPAN}}
 11
0.5000000000000009
 21
0.8660254037844382
 31
0.0000000000000000
  7
STANDARD
  0
LINE
  5
25B
100
AcDbEntity
  8
MAIN0
  6
CENTER
 62
3
100
AcDbLine
 10
231.1971655399097
 20
471.6294883702011
 30
0.0000000000000000
 11
231.1971655399098
 21
516.6294883702011
 31
0.0000000000000000
  0
LEADER
  5
25C
100
AcDbEntity
  8
MAIN0
  6
CONTINUOUS
 62
3
100
AcDbLeader
  3
MAIN001
 73
     0
 74
     0
 75
     1
 40
4.649999856948853
 41
58.02100170946119
 76
     3
 10
236.1971655399098
 20
500.8040063775662
 30
0.0000000000000000
 10
276.2238923467272
 20
529.1294883702011
 30
0.0000000000000000
 10
279.1118922630423
 20
529.1294883702011
 30
0.0000000000000000
340
25D
213
0.0000000000000000
223
-0.7500000000000000
233
0.0000000000000000
1001
ACAD
1000
DSTYLE
1002
{
1070
   147
1040
0.0
1070
    77
1070
     1
1070
   173
1070
     1
1070
     6
1000
_OPEN
1070
     7
1000
_OPEN
1002
}
  0
MTEXT
  5
25D
102
{ACAD_REACTORS
330
25C
102
}
100
AcDbEntity
  8
MAIN0
  6
CONTINUOUS
 62
3
100
AcDbMText
 10
279.1128922630423
 20
534.5294882271500
 30
0.0000000000000000
 40
4.649999856948853
 41
0.0000000000000000
 71
     1
 72
     1
  1
{\H0.93x;{2-M10 ねじ深23\P2-M10 DEPTH 23}}
 11
1.000000000000000
 21
0.0000000000000000
 31
0.0000000000000000
  7
KNJYOKO
  0
DIMENSION
  5
266
100
AcDbEntity
  8
MAIN0
  6
CONTINUOUS
 62
3
100
AcDbDimension
  2
*D18
 10
254.6971655399098
 20
529.1294883702011
 30
0.0000000000000000
 11
246.3813711978072
 21
529.8794883702011
 31
0.0000000000000000
 70
160
  3
MAIN001
100
AcDbAlignedDimension
 13
231.1971655399098
 23
516.6294883702011
 33
0.0000000000000000
 14
254.6971655399098
 24
511.1808172011411
 34
0.0000000000000000
100
AcDbRotatedDimension
1001
ACAD
1000
DSTYLE
1002
{
1070
   173
1070
     1
1070
     6
1000
_OPEN
1070
     7
1000
_OPEN
1070
    41
1040
3.000000
1002
}
  0
LINE
  5
267
100
AcDbEntity
  8
MAIN0
  6
CENTER
 62
3
100
AcDbLine
 10
497.3865117375692
 20
242.4022459976023
 30
0.0000000000000000
 11
487.1145731933794
 21
204.0668494584611
 31
0.0000000000000000
  0
LINE
  5
268
100
AcDbEntity
  8
MAIN0
  6
CENTER
 62
3
100
AcDbLine
 10
558.7889829853700
 20
471.5593884046802
 30
0.0000000000000000
 11
569.0609215295598
 21
509.8947849438213
 31
0.0000000000000000
  0
DIMENSION
  5
270
100
AcDbEntity
  8
MAIN0
  6
CONTINUOUS
 62
3
100
AcDbDimension
  2
*D19
 10
675.5146034688822
 20
271.8638821420136
 30
0.0000000000000000
 11
613.6343122757015
 21
208.8098203569352
 31
0.0000000000000000
 70
162
  3
MAIN001
100
AcDb2LineAngularDimension
 13
528.0877473614695
 23
185.3876873728791
 33
0.0000000000000000
 14
528.0877473614698
 24
356.9808172011416
 34
0.0000000000000000
 15
674.6485780650971
 25
272.3638821420124
 35
0.0000000000000000
 16
613.8843122757019
 26
208.3768076550431
 36
0.0000000000000000
1001
ACAD
1000
DSTYLE
1002
{
1070
   173
1070
     1
1070
     6
1000
_OPEN
1070
     7
1000
_OPEN
1070
    41
1040
3.000000
1002
}
  0
DIMENSION
  5
278
100
AcDbEntity
  8
MAIN0
  6
CONTINUOUS
 62
3
100
AcDbDimension
  2
*D20
 10
699.6808771897324
 20
356.9808172011416
 30
0.0000000000000000
 11
693.3510201632473
 21
312.6986567155013
 31
0.0000000000000000
 70
162
  3
MAIN001
100
AcDb2LineAngularDimension
 13
675.5146034688822
 23
271.8638821420136
 33
0.0000000000000000
 14
674.6485780650971
 24
272.3638821420124
 34
0.0000000000000000
 15
528.0877473614698
 25
356.9808172011416
 35
0.0000000000000000
 16
693.8339830763919
 26
312.5692471929503
 36
0.0000000000000000
1001
ACAD
1000
DSTYLE
1002
{
1070
   173
1070
     1
1070
     6
1000
_OPEN
1070
     7
1000
_OPEN
1070
    41
1040
3.000000
1002
}
  0
DIMENSION
  5
280
100
AcDbEntity
  8
MAIN0
  6
CONTINUOUS
 62
3
100
AcDbDimension
  2
*D21
 10
670.0149275551015
 20
438.9225128910015
 30
0.0000000000000000
 11
693.3510201632474
 21
401.2629776867816
 31
0.0000000000000000
 70
162
  3
MAIN001
100
AcDb2LineAngularDimension
 13
699.6808771897324
 23
356.9808172011416
 33
0.0000000000000000
 14
528.0877473614698
 24
356.9808172011416
 34
0.0000000000000000
 15
669.1489021513164
 25
438.4225128910027
 35
0.0000000000000000
 16
693.8339830763920
 26
401.3923872093325
 36
0.0000000000000000
1001
ACAD
1000
DSTYLE
1002
{
1070
   173
1070
     1
1070
     6
1000
_OPEN
1070
     7
1000
_OPEN
1070
    41
1040
3.000000
1002
}
  0
DIMENSION
  5
289
100
AcDbEntity
  8
MAIN0
  6
CONTINUOUS
 62
3
100
AcDbDimension
  2
*D22
 10
569.0609215295599
 20
509.8947849438213
 30
0.0000000000000000
 11
632.8514069983993
 21
493.5114765914955
 31
0.0000000000000000
 70
162
  3
MAIN001
100
AcDb2LineAngularDimension
 13
670.0149275551015
 23
438.9225128910015
 33
0.0000000000000000
 14
669.1489021513164
 24
438.4225128910027
 34
0.0000000000000000
 15
568.8021024844574
 25
508.9288591175323
 35
0.0000000000000000
 16
632.5470262838948
 26
493.1147999213501
 36
0.0000000000000000
1001
ACAD
1000
DSTYLE
1002
{
1070
   173
1070
     1
1070
     6
1000
_OPEN
1070
     7
1000
_OPEN
1070
    41
1040
3.000000
1002
}
  0
DIMENSION
  5
291
100
AcDbEntity
  8
MAIN0
  6
CONTINUOUS
 62
3
100
AcDbDimension
  2
*D23
 10
528.0877473614701
 20
528.5739470294043
 30
0.0000000000000000
 11
550.5504083051843
 21
527.6016664471085
 31
0.0000000000000000
 70
162
  3
MAIN001
100
AcDb2LineAngularDimension
 13
569.0609215295599
 23
509.8947849438213
 33
0.0000000000000000
 14
568.8021024844574
 24
508.9288591175323
 34
0.0000000000000000
 15
528.0877473614698
 25
356.9808172011416
 35
0.0000000000000000
 16
550.4851452090742
 26
527.1059440164216
 36
0.0000000000000000
1001
ACAD
1000
DSTYLE
1002
{
1070
   173
1070
     1
1070
     6
1000
_OPEN
1070
     7
1000
_OPEN
1070
    41
1040
3.000000
1002
}
  0
DIMENSION
  5
299
100
AcDbEntity
  8
MAIN0
  6
CONTINUOUS
 62
3
100
AcDbDimension
  2
*D24
 10
498.9904246385936
 20
436.9250543478490
 30
0.0000000000000000
 11
498.2040889774603
 21
526.4594656960924
 31
0.0000000000000000
 70
162
  3
MAIN001
100
AcDb2LineAngularDimension
 13
528.0877473614701
 23
528.5739470294043
 33
0.0000000000000000
 14
528.0877473614698
 24
356.9808172011416
 34
0.0000000000000000
 15
499.3324447819230
 25
435.9853617270644
 35
0.0000000000000000
 16
498.2909130662947
 26
525.9670618195864
 36
0.0000000000000000
1001
ACAD
1000
DSTYLE
1002
{
1070
   173
1070
     1
1070
     6
1000
_OPEN
1070
     7
1000
_OPEN
1070
    41
1040
3.000000
1002
}
  0
DIMENSION
  5
2A1
100
AcDbEntity
  8
MAIN0
  6
CONTINUOUS
 62
3
100
AcDbDimension
  2
*D25
 10
298.6971655399093
 20
384.1294883702011
 30
0.0000000000000000
 11
276.6971655399093
 21
384.6294883702011
 31
0.0000000000000000
 70
32
  3
MAIN001
100
AcDbAlignedDimension
 13
254.6971655399093
 23
203.9808172011412
 33
0.0000000000000000
 14
298.6971655399095
 24
372.2308172011410
 34
0.0000000000000000
100
AcDbRotatedDimension
1001
ACAD
1000
DSTYLE
1002
{
1070
   173
1070
     1
1070
     6
1000
_OPEN
1070
     7
1000
_OPEN
1070
    41
1040
3.000000
1002
}
  0
SPLINE
  5
2A2
100
AcDbEntity
  8
MAIN0
  6
CONTINUOUS
 62
3
100
AcDbSpline
210
0.0000000000000000
220
0.0000000000000000
230
1.000000000000000
 70
     8
 71
     3
 72
    18
 73
    14
 74
     0
 42
1.000000000000000e-007
 43
1.000000000000000e-007
 12
0.1614780338989377
 22
-0.7421976160999790
 32
0.0000000000000000
 13
-0.2283184279379960
 23
-0.7059563464666674
 33
0.0000000000000000
 40
0.0000000000000000
 40
0.0000000000000000
 40
0.0000000000000000
 40
0.0000000000000000
 40
27.95084971874737
 40
55.90169943749474
 40
61.49186938124421
 40
74.95478139908047
 40
110.7493340572714
 40
140.8533205042521
 40
208.5382523576565
 40
220.2095707003562
 40
251.9774482226911
 40
294.5233681987595
 40
317.6315942324711
 40
317.6315942324711
 40
317.6315942324711
 40
317.6315942324711
 10
164.1907387761690
 20
511.9808172011412
 30
0.0000000000000000
 10
165.6952215289649
 20
505.0657991914002
 30
0.0000000000000000
 10
169.6378798934404
 20
486.9384208337983
 30
0.0000000000000000
 10
169.9532588888255
 20
465.6390018006088
 30
0.0000000000000000
 10
177.5720270948304
 20
451.8515814661945
 30
0.0000000000000000
 10
184.0524876539156
 20
434.7145850295995
 30
0.0000000000000000
 10
189.3309409287845
 20
408.5690823693213
 30
0.0000000000000000
 10
191.4445550821865
 20
364.1146907665078
 30
0.0000000000000000
 10
197.5934247378691
 20
327.7882101325985
 30
0.0000000000000000
 10
195.1428387359433
 20
290.7756998894556
 30
0.0000000000000000
 10
190.8102056496215
 20
262.4512347557227
 30
0.0000000000000000
 10
185.9506888791387
 20
229.2195553977732
 30
0.0000000000000000
 10
178.9034033638198
 20
207.4186168450048
 30
0.0000000000000000
 10
177.1447254170022
 20
201.9808172369765
 30
0.0000000000000000
  0
DIMENSION
  5
2AB
100
AcDbEntity
  8
MAIN0
  6
CONTINUOUS
 62
3
100
AcDbDimension
  2
*D26
 10
318.7238923467272
 20
201.9808172011409
 30
0.0000000000000000
 11
318.2238923467272
 21
258.4808172011410
 31
0.0000000000000000
 70
32
  3
MAIN001
100
AcDbAlignedDimension
 13
297.6971655399094
 23
314.9808172011411
 33
0.0000000000000000
 14
267.1971655399093
 24
201.9808172011408
 34
0.0000000000000000
 50
90.00000000000000
100
AcDbRotatedDimension
1001
ACAD
1000
DSTYLE
1002
{
1070
   173
1070
     1
1070
     6
1000
_OPEN
1070
     7
1000
_OPEN
1070
    41
1040
3.000000
1002
}
  0
DIMENSION
  5
2B2
100
AcDbEntity
  8
MAIN0
  6
CONTINUOUS
 62
3
100
AcDbDimension
  2
*D27
 10
433.0888965500058
 20
252.7876391878891
 30
0.0000000000000000
 11
453.3357935715800
 21
276.1072743904398
 31
0.0000000000000000
 70
163
  3
MAIN001
100
AcDbDiametricDimension
 15
623.0865981729335
 25
461.1739952143932
 35
0.0000000000000000
1001
ACAD
1000
DSTYLE
1002
{
1070
   287
1070
     2
1070
   173
1070
     1
1070
     6
1000
_OPEN
1070
     7
1000
_OPEN
1070
    41
1040
3.000000
1070
   272
1070
     1
1070
    47
1040
0.200000
1070
    48
1040
0.200000
1070
    71
1070
     1
1002
}
  0
DIMENSION
  5
2BA
100
AcDbEntity
  8
MAIN0
  6
CONTINUOUS
 62
3
100
AcDbDimension
  2
*D28
 10
798.6971655399095
 20
484.3383542621173
 30
0.0000000000000000
 11
797.9471655399095
 21
497.1598727051547
 31
0.0000000000000000
 70
160
  3
MAIN001
100
AcDbAlignedDimension
 13
778.4707952633606
 23
502.3383542621173
 33
0.0000000000000000
 14
730.6101081183631
 24
484.3383542621173
 34
0.0000000000000000
 50
90.00000000000000
100
AcDbRotatedDimension
1001
ACAD
1000
DSTYLE
1002
{
1070
   173
1070
     1
1070
     6
1000
_OPEN
1070
     7
1000
_OPEN
1070
    41
1040
3.000000
1002
}
  0
DIMENSION
  5
2C1
100
AcDbEntity
  8
MAIN0
  6
CONTINUOUS
 62
3
100
AcDbDimension
  2
*D29
 10
728.6971655399095
 20
492.3383542621173
 30
0.0000000000000000
 11
728.1971655399095
 21
484.3383542621173
 31
0.0000000000000000
 70
32
  1
\A1;\U+220516
  3
MAIN001
100
AcDbAlignedDimension
 13
750.4707952634374
 23
476.3383542621173
 33
0.0000000000000000
 14
750.4707952633901
 24
492.3383542621173
 34
0.0000000000000000
 50
90.00000000000000
100
AcDbRotatedDimension
1001
ACAD
1000
DSTYLE
1002
{
1070
   173
1070
     1
1070
     6
1000
_OPEN
1070
     7
1000
_OPEN
1070
    41
1040
3.000000
1002
}
  0
LINE
  5
2C2
100
AcDbEntity
  8
MAIN0
  6
HIDDEN
 62
3
100
AcDbLine
 10
254.6971655399094
 20
308.9808172011414
 30
0.0000000000000000
 11
196.2191164631394
 21
308.9808172011412
 31
0.0000000000000000
  0
LINE
  5
2C3
100
AcDbEntity
  8
MAIN0
  6
HIDDEN
 62
3
100
AcDbLine
 10
254.6971655399094
 20
404.9808172011414
 30
0.0000000000000000
 11
188.9116697702943
 21
404.9808172011412
 31
0.0000000000000000
  0
LINE
  5
2C4
100
AcDbEntity
  8
MAIN0
  6
HIDDEN
 62
3
100
AcDbLine
 10
573.8632310940043
 20
505.0672956151154
 30
0.0000000000000000
 11
571.8569507853118
 21
503.9089691388219
 31
0.0000000000000000
  0
LINE
  5
2C5
100
AcDbEntity
  8
MAIN0
  6
HIDDEN
 62
3
100
AcDbLine
 10
571.8569507853119
 20
503.9089691388220
 30
0.0000000000000000
 11
563.6465812618549
 21
506.1089310221934
 31
0.0000000000000000
  0
LINE
  5
2C6
100
AcDbEntity
  8
MAIN0
  6
HIDDEN
 62
3
100
AcDbLine
 10
563.6465812618496
 20
506.1089310221748
 30
0.0000000000000000
 11
562.4882547855431
 21
508.1152113308901
 31
0.0000000000000000
  0
LINE
  5
2C7
100
AcDbEntity
  8
MAIN0
  6
HIDDEN
 62
3
100
AcDbLine
 10
572.7755094388557
 20
504.4392992247118
 30
0.0000000000000000
 11
567.0814904464482
 21
483.1889310457854
 31
0.0000000000000000
  0
LINE
  5
2C8
100
AcDbEntity
  8
MAIN0
  6
HIDDEN
 62
3
100
AcDbLine
 10
567.0814904464481
 20
483.1889310457854
 30
0.0000000000000000
 11
557.4222321835575
 21
485.7771214968107
 31
0.0000000000000000
  0
LINE
  5
2C9
100
AcDbEntity
  8
MAIN0
  6
HIDDEN
 62
3
100
AcDbLine
 10
557.4222321835574
 20
485.7771214968106
 30
0.0000000000000000
 11
563.1162511759599
 21
507.0274896757184
 31
0.0000000000000000
  0
LINE
  5
2CA
100
AcDbEntity
  8
MAIN0
  6
HIDDEN
 62
3
100
AcDbLine
 10
571.8569507853118
 20
503.9089691388220
 30
0.0000000000000000
 11
564.0276746708087
 21
474.6897128930107
 31
0.0000000000000000
  0
LINE
  5
2CB
100
AcDbEntity
  8
MAIN0
  6
HIDDEN
 62
3
100
AcDbLine
 10
564.0276746708086
 20
474.6897128930107
 30
0.0000000000000000
 11
555.8173051473515
 21
476.8896747763821
 31
0.0000000000000000
  0
LINE
  5
2CC
100
AcDbEntity
  8
MAIN0
  6
HIDDEN
 62
3
100
AcDbLine
 10
555.8173051473517
 20
476.8896747763821
 30
0.0000000000000000
 11
563.6465812618499
 21
506.1089310221748
 31
0.0000000000000000
  0
LINE
  5
2CD
100
AcDbEntity
  8
MAIN0
  6
HIDDEN
 62
3
100
AcDbLine
 10
564.0276746708084
 20
474.6897128930109
 30
0.0000000000000000
 11
559.2874156162943
 21
473.4195643074395
 31
0.0000000000000000
  0
LINE
  5
2CE
100
AcDbEntity
  8
MAIN0
  6
HIDDEN
 62
3
100
AcDbLine
 10
559.2874156162944
 20
473.4195643074394
 30
0.0000000000000000
 11
555.8173051473516
 21
476.8896747763822
 31
0.0000000000000000
  0
LINE
  5
2CF
100
AcDbEntity
  8
MAIN0
  6
HIDDEN
 62
3
100
AcDbLine
 10
237.1971655399098
 20
511.9808172011412
 30
0.0000000000000000
 11
235.4471655399098
 21
510.2308172011412
 31
0.0000000000000000
  0
LINE
  5
2D0
100
AcDbEntity
  8
MAIN0
  6
HIDDEN
 62
3
100
AcDbLine
 10
235.4471655399098
 20
510.2308172011412
 30
0.0000000000000000
 11
226.9471655399098
 21
510.2308172011412
 31
0.0000000000000000
  0
LINE
  5
2D1
100
AcDbEntity
  8
MAIN0
  6
HIDDEN
 62
3
100
AcDbLine
 10
226.9471655399098
 20
510.2308172011411
 30
0.0000000000000000
 11
225.1971655399098
 21
511.9808172011411
 31
0.0000000000000000
  0
LINE
  5
2D2
100
AcDbEntity
  8
MAIN0
  6
HIDDEN
 62
3
100
AcDbLine
 10
236.1971655399098
 20
510.9808172011412
 30
0.0000000000000000
 11
236.1971655399098
 21
488.9808172011411
 31
0.0000000000000000
  0
LINE
  5
2D3
100
AcDbEntity
  8
MAIN0
  6
HIDDEN
 62
3
100
AcDbLine
 10
236.1971655399098
 20
488.9808172011411
 30
0.0000000000000000
 11
226.1971655399098
 21
488.9808172011411
 31
0.0000000000000000
  0
LINE
  5
2D4
100
AcDbEntity
  8
MAIN0
  6
HIDDEN
 62
3
100
AcDbLine
 10
226.1971655399098
 20
488.9808172011411
 30
0.0000000000000000
 11
226.1971655399098
 21
510.9808172011412
 31
0.0000000000000000
  0
LINE
  5
2D5
100
AcDbEntity
  8
MAIN0
  6
HIDDEN
 62
3
100
AcDbLine
 10
235.4471655399098
 20
510.2308172011412
 30
0.0000000000000000
 11
235.4471655399098
 21
479.9808172011411
 31
0.0000000000000000
  0
LINE
  5
2D6
100
AcDbEntity
  8
MAIN0
  6
HIDDEN
 62
3
100
AcDbLine
 10
235.4471655399098
 20
479.9808172011411
 30
0.0000000000000000
 11
226.9471655399098
 21
479.9808172011411
 31
0.0000000000000000
  0
LINE
  5
2D7
100
AcDbEntity
  8
MAIN0
  6
HIDDEN
 62
3
100
AcDbLine
 10
226.9471655399098
 20
479.9808172011411
 30
0.0000000000000000
 11
226.9471655399098
 21
510.2308172011411
 31
0.0000000000000000
  0
LINE
  5
2D8
100
AcDbEntity
  8
MAIN0
  6
HIDDEN
 62
3
100
AcDbLine
 10
235.4471655399097
 20
479.9808172011412
 30
0.0000000000000000
 11
231.1971655399097
 21
477.5270785570853
 31
0.0000000000000000
  0
LINE
  5
2D9
100
AcDbEntity
  8
MAIN0
  6
HIDDEN
 62
3
100
AcDbLine
 10
231.1971655399097
 20
477.5270785570853
 30
0.0000000000000000
 11
226.9471655399097
 21
479.9808172011412
 31
0.0000000000000000
  0
LINE
  5
2DA
100
AcDbEntity
  8
MAIN0
  6
HIDDEN
 62
3
100
AcDbLine
 10
493.6872399389100
 20
205.8464230710478
 30
0.0000000000000000
 11
492.5289134615061
 21
207.8527033816636
 31
0.0000000000000000
  0
LINE
  5
2DB
100
AcDbEntity
  8
MAIN0
  6
HIDDEN
 62
3
100
AcDbLine
 10
492.5289134615065
 20
207.8527033816635
 30
0.0000000000000000
 11
484.3185439380494
 21
210.0526652650349
 31
0.0000000000000000
  0
LINE
  5
2DC
100
AcDbEntity
  8
MAIN0
  6
HIDDEN
 62
3
100
AcDbLine
 10
484.3185439380357
 20
210.0526652649822
 30
0.0000000000000000
 11
482.3122636274840
 21
208.8943387876154
 31
0.0000000000000000
  0
LINE
  5
2DD
100
AcDbEntity
  8
MAIN0
  6
HIDDEN
 62
3
100
AcDbLine
 10
493.0592435473963
 20
206.9341447281196
 30
0.0000000000000000
 11
498.7532625393820
 21
228.1845129054718
 31
0.0000000000000000
  0
LINE
  5
2DE
100
AcDbEntity
  8
MAIN0
  6
HIDDEN
 62
3
100
AcDbLine
 10
498.7532625393821
 20
228.1845129054717
 30
0.0000000000000000
 11
489.0940042764915
 21
230.7727033564970
 31
0.0000000000000000
  0
LINE
  5
2DF
100
AcDbEntity
  8
MAIN0
  6
HIDDEN
 62
3
100
AcDbLine
 10
489.0940042764914
 20
230.7727033564971
 30
0.0000000000000000
 11
483.3999852844917
 21
209.5223351790925
 31
0.0000000000000000
  0
LINE
  5
2E0
100
AcDbEntity
  8
MAIN0
  6
HIDDEN
 62
3
100
AcDbLine
 10
492.5289134615064
 20
207.8527033816635
 30
0.0000000000000000
 11
500.3581895755879
 21
237.0719596259004
 31
0.0000000000000000
  0
LINE
  5
2E1
100
AcDbEntity
  8
MAIN0
  6
HIDDEN
 62
3
100
AcDbLine
 10
500.3581895755880
 20
237.0719596259003
 30
0.0000000000000000
 11
492.1478200521310
 21
239.2719215092717
 31
0.0000000000000000
  0
LINE
  5
2E2
100
AcDbEntity
  8
MAIN0
  6
HIDDEN
 62
3
100
AcDbLine
 10
492.1478200521310
 20
239.2719215092718
 30
0.0000000000000000
 11
484.3185439380354
 21
210.0526652649826
 31
0.0000000000000000
  0
LINE
  5
2E3
100
AcDbEntity
  8
MAIN0
  6
HIDDEN
 62
3
100
AcDbLine
 10
500.3581895755879
 20
237.0719596259003
 30
0.0000000000000000
 11
496.8880791066451
 21
240.5420700948431
 31
0.0000000000000000
  0
LINE
  5
2E4
100
AcDbEntity
  8
MAIN0
  6
HIDDEN
 62
3
100
AcDbLine
 10
496.8880791066450
 20
240.5420700948433
 30
0.0000000000000000
 11
492.1478200521307
 21
239.2719215092719
 31
0.0000000000000000
  0
MTEXT
  5
2E5
100
AcDbEntity
  8
E0
  6
CONTINUOUS
 62
3
100
AcDbMText
 10
221.0311699319942
 20
118.1421867689475
 30
0.0000000000000000
 40
4.649999856948853
 41
0.0000000000000000
 71
     1
 72
     1
  1
{\H0.90x;{206\P}
 11
1.000000000000000
 21
0.0000000000000000
 31
0.0000000000000000
  7
STANDARD
  0
MTEXT
  5
2E6
100
AcDbEntity
  8
E0
  6
CONTINUOUS
 62
3
100
AcDbMText
 10
225.5311699319943
 20
111.3921867689475
 30
0.0000000000000000
 40
4.649999856948853
 41
0.0000000000000000
 71
     1
 72
     1
  1
{\H0.81x;{21.0\P}
 11
1.000000000000000
 21
0.0000000000000000
 31
0.0000000000000000
  7
STANDARD
  0
MTEXT
  5
2E7
100
AcDbEntity
  8
E0
  6
CONTINUOUS
 62
3
100
AcDbMText
 10
221.0311699319942
 20
103.1421867689474
 30
0.0000000000000000
 40
4.649999856948853
 41
0.0000000000000000
 71
     1
 72
     1
  1
{\H0.88x;{55}}
 11
1.000000000000000
 21
0.0000000000000000
 31
0.0000000000000000
  7
STANDARD
  0
MTEXT
  5
2E8
100
AcDbEntity
  8
E0
  6
CONTINUOUS
 62
3
100
AcDbMText
 10
225.5311699319943
 20
96.39218676894741
 30
0.0000000000000000
 40
4.649999856948853
 41
0.0000000000000000
 71
     1
 72
     1
  1
{\H0.91x;{5608\P}
 11
1.000000000000000
 21
0.0000000000000000
 31
0.0000000000000000
  7
STANDARD
  0
MTEXT
  5
2E9
100
AcDbEntity
  8
E0
  6
CONTINUOUS
 62
3
100
AcDbMText
 10
221.0311699319942
 20
71.89218676894741
 30
0.0000000000000000
 40
4.649999856948853
 41
0.0000000000000000
 71
     1
 72
     1
  1
{\H0.88x;{41}}
 11
1.000000000000000
 21
0.0000000000000000
 31
0.0000000000000000
  7
STANDARD
  0
MTEXT
  5
2EA
100
AcDbEntity
  8
E0
  6
CONTINUOUS
 62
3
100
AcDbMText
 10
221.0311699319942
 20
58.89218676889634
 30
0.0000000000000000
 40
4.649999856948853
 41
0.0000000000000000
 71
     1
 72
     1
  1
{\H0.84x;{0.588}}
 11
1.000000000000000
 21
0.0000000000000000
 31
0.0000000000000000
  7
STANDARD
  0
MTEXT
  5
2EB
100
AcDbEntity
  8
E0
  6
CONTINUOUS
 62
3
100
AcDbMText
 10
221.0311699319508
 20
46.39218676894249
 30
0.0000000000000000
 40
4.649999856948853
 41
0.0000000000000000
 71
     1
 72
     1
  1
{\H0.93x;{\U+220510～\U+2205300}}
 11
1.000000000000000
 21
0.0000000000000000
 31
0.0000000000000000
  7
KNJYOKO
  0
MTEXT
  5
2EC
100
AcDbEntity
  8
E0
  6
CONTINUOUS
 62
3
100
AcDbMText
 10
221.0311699319508
 20
35.89218676894249
 30
0.0000000000000000
 40
4.649999856948853
 41
0.0000000000000000
 71
     1
 72
     1
  1
{\H0.93x;{\U+220586～\U+2205290}}
 11
1.000000000000000
 21
0.0000000000000000
 31
0.0000000000000000
  7
KNJYOKO
  0
MTEXT
  5
2ED
100
AcDbEntity
  8
E0
  6
CONTINUOUS
 62
3
100
AcDbMText
 10
173.4948400479993
 20
48.71879703677750
 30
0.0000000000000000
 40
3.750000000000000
 41
0.0000000000000000
 71
     1
 72
     1
  1
{\H0.63x;{EXTERNAL\PGRIPPING}}
 11
1.000000000000000
 21
0.0000000000000000
 31
0.0000000000000000
  7
STANDARD
  0
MTEXT
  5
2EE
100
AcDbEntity
  8
E0
  6
CONTINUOUS
 62
3
100
AcDbMText
 10
173.4172259052231
 20
38.08571841343967
 30
0.0000000000000000
 40
3.750000000000000
 41
0.0000000000000000
 71
     1
 72
     1
  1
{\H0.63x;{INTERNALLY\PGRIPPING}}
 11
1.000000000000000
 21
0.0000000000000000
 31
0.0000000000000000
  7
STANDARD
  0
LINE
  5
2EF
100
AcDbEntity
  8
E0
  6
CONTINUOUS
 62
3
100
AcDbLine
 10
143.0311699319944
 20
28.24218691199360
 30
0.0000000000000000
 11
263.0311699319944
 21
28.24218691199368
 31
0.0000000000000000
  0
LINE
  5
2F0
100
AcDbEntity
  8
E0
  6
CONTINUOUS
 62
3
100
AcDbLine
 10
172.2811699319943
 20
28.24218691199364
 30
0.0000000000000000
 11
172.2811699319943
 21
49.24218691199364
 31
0.0000000000000000
  0
MTEXT
  5
2F1
100
AcDbEntity
  8
E0
  6
CONTINUOUS
 62
3
100
AcDbMText
 10
196.8565703090822
 20
46.43663472100268
 30
0.0000000000000000
 40
4.649999856948853
 41
0.0000000000000000
 71
     1
 72
     1
  1
{\H0.92x;{外径把握}}
 11
1.000000000000000
 21
0.0000000000000000
 31
0.0000000000000000
  7
KNJYOKO
  0
MTEXT
  5
2F2
100
AcDbEntity
  8
E0
  6
CONTINUOUS
 62
3
100
AcDbMText
 10
196.8565703090822
 20
35.72594195488857
 30
0.0000000000000000
 40
4.649999856948853
 41
0.0000000000000000
 71
     1
 72
     1
  1
{\H0.92x;{内径把握}}
 11
1.000000000000000
 21
0.0000000000000000
 31
0.0000000000000000
  7
KNJYOKO
  0
MTEXT
  5
2F3
100
AcDbEntity
  8
E0
  6
CONTINUOUS
 62
3
100
AcDbMText
 10
155.7212971248769
 20
33.79082565463732
 30
0.0000000000000000
 40
4.500000000000000
 41
0.0000000000000000
 71
     1
 72
     1
  1
{\H0.63x;{(mm)}}
 11
1.000000000000000
 21
0.0000000000000000
 31
0.0000000000000000
  7
STANDARD
  0
MTEXT
  5
2F4
100
AcDbEntity
  8
E0
  6
CONTINUOUS
 62
3
100
AcDbMText
 10
146.7811699319959
 20
88.01718676898970
 30
0.0000000000000000
 40
4.649999856948853
 41
0.0000000000000000
 71
     1
 72
     1
  1
{\H0.94x;{許容最高回転速度　}}
 11
1.000000000000000
 21
0.0000000000000000
 31
0.0000000000000000
  7
KNJYOKO
  0
MTEXT
  5
2F5
100
AcDbEntity
  8
E0
  6
CONTINUOUS
 62
3
100
AcDbMText
 10
221.0311699319942
 20
82.74218691199856
 30
0.0000000000000000
 40
4.649999856948853
 41
0.0000000000000000
 71
     7
 72
     1
  1
{2200 min}
 11
1.000000000000000
 21
0.0000000000000000
 31
0.0000000000000000
  7
STANDARD
  0
MTEXT
  5
2F6
100
AcDbEntity
  8
E0
  6
CONTINUOUS
 62
3
100
AcDbMText
 10
254.3211709071262
 20
85.06718684047299
 30
0.0000000000000000
 40
2.324999928474426
 41
0.0000000000000000
 71
     7
 72
     1
  1
{-1}
 11
1.000000000000000
 21
0.0000000000000000
 31
0.0000000000000000
  7
STANDARD
  0
MTEXT
  5
2F7
100
AcDbEntity
  8
E0
  6
CONTINUOUS
 62
3
100
AcDbMText
 10
240.3770961608024
 20
81.83211406776259
 30
0.0000000000000000
 40
4.649999856948853
 41
0.0000000000000000
 71
     1
 72
     1
  1
{\H0.92x;{(rpm)}}
 11
1.000000000000000
 21
0.0000000000000000
 31
0.0000000000000000
  7
STANDARD
  0
LINE
  5
2F8
100
AcDbEntity
  8
E0
  6
CONTINUOUS
 62
3
100
AcDbLine
 10
172.2811699319944
 20
38.74218691199377
 30
0.0000000000000000
 11
263.0311699319942
 21
38.74218691199386
 31
0.0000000000000000
  0
LINE
  5
2F9
100
AcDbEntity
  8
E0
  6
CONTINUOUS
 62
3
100
AcDbLine
 10
143.0311699319941
 20
130.7421869120511
 30
0.0000000000000000
 11
263.0311699319944
 21
130.7421869120875
 31
0.0000000000000000
  0
LINE
  5
2FA
100
AcDbEntity
  8
E0
  6
CONTINUOUS
 62
3
100
AcDbLine
 10
143.0311699319941
 20
120.2421869120483
 30
0.0000000000000000
 11
263.0311699319941
 21
120.2421869120826
 31
0.0000000000000000
  0
LINE
  5
2FB
100
AcDbEntity
  8
E0
  6
CONTINUOUS
 62
3
100
AcDbLine
 10
143.0311699319942
 20
105.2421869120382
 30
0.0000000000000000
 11
263.0311699319942
 21
105.2421869120655
 31
0.0000000000000000
  0
LINE
  5
2FC
100
AcDbEntity
  8
E0
  6
CONTINUOUS
 62
3
100
AcDbLine
 10
143.0311699319940
 20
90.24218691203390
 30
0.0000000000000000
 11
263.0311699319939
 21
90.24218691205815
 31
0.0000000000000000
  0
LINE
  5
2FD
100
AcDbEntity
  8
E0
  6
CONTINUOUS
 62
3
100
AcDbLine
 10
143.0311699319941
 20
74.74218691203092
 30
0.0000000000000000
 11
263.0311699319942
 21
74.74218691205317
 31
0.0000000000000000
  0
LINE
  5
2FE
100
AcDbEntity
  8
E0
  6
CONTINUOUS
 62
3
100
AcDbLine
 10
143.0311699319941
 20
64.24218691202800
 30
0.0000000000000000
 11
263.0311699319943
 21
64.24218691204813
 31
0.0000000000000000
  0
LINE
  5
2FF
100
AcDbEntity
  8
E0
  6
CONTINUOUS
 62
3
100
AcDbLine
 10
143.0311699319944
 20
49.24218691199383
 30
0.0000000000000000
 11
263.0311699319942
 21
49.24218691199387
 31
0.0000000000000000
  0
LINE
  5
300
100
AcDbEntity
  8
E0
  6
CONTINUOUS
 62
3
100
AcDbLine
 10
143.0311699319943
 20
28.24218691199364
 30
0.0000000000000000
 11
143.0311699319943
 21
130.7421869119986
 31
0.0000000000000000
  0
LINE
  5
301
100
AcDbEntity
  8
E0
  6
CONTINUOUS
 62
3
100
AcDbLine
 10
218.0311699319943
 20
28.24218691199364
 30
0.0000000000000000
 11
218.0311699319943
 21
120.2421869120693
 31
0.0000000000000000
  0
LINE
  5
302
100
AcDbEntity
  8
E0
  6
CONTINUOUS
 62
3
100
AcDbLine
 10
263.0311699319943
 20
28.24218691199364
 30
0.0000000000000000
 11
263.0311699319943
 21
130.7421869119986
 31
0.0000000000000000
  0
MTEXT
  5
303
100
AcDbEntity
  8
E0
  6
CONTINUOUS
 62
3
100
AcDbMText
 10
146.7811699319960
 20
118.5171874842528
 30
0.0000000000000000
 40
4.650000572204590
 41
0.0000000000000000
 71
     1
 72
     1
  1
{\H0.94x;{許容最大ハンドルトルク}}
 11
1.000000000000000
 21
0.0000000000000000
 31
0.0000000000000000
  7
KNJYOKO
  0
MTEXT
  5
304
100
AcDbEntity
  8
E0
  6
CONTINUOUS
 62
3
100
AcDbMText
 10
146.7811699319959
 20
103.5171874842485
 30
0.0000000000000000
 40
4.650000572204590
 41
0.0000000000000000
 71
     1
 72
     1
  1
{\H0.94x;{最大静的把握力}}
 11
1.000000000000000
 21
0.0000000000000000
 31
0.0000000000000000
  7
KNJYOKO
  0
MTEXT
  5
305
100
AcDbEntity
  8
E0
  6
CONTINUOUS
 62
3
100
AcDbMText
 10
146.0311699319943
 20
71.89218748423259
 30
0.0000000000000000
 40
4.650000572204590
 41
0.0000000000000000
 71
     1
 72
     1
  1
{\H0.90x;{質量}}
 11
1.000000000000000
 21
0.0000000000000000
 31
0.0000000000000000
  7
KNJYOKO
  0
MTEXT
  5
306
100
AcDbEntity
  8
E0
  6
CONTINUOUS
 62
3
100
AcDbMText
 10
147.8831368970419
 20
47.47550077544626
 30
0.0000000000000000
 40
4.650000572204590
 41
0.0000000000000000
 71
     1
 72
     1
  1
{\H0.96x;{把握径}}
 11
1.000000000000000
 21
0.0000000000000000
 31
0.0000000000000000
  7
KNJYOKO
  0
MTEXT
  5
307
100
AcDbEntity
  8
E0
  6
CONTINUOUS
 62
3
100
AcDbMText
 10
151.5301709433945
 20
129.0406041042539
 30
0.0000000000000000
 40
7.500000000000000
 41
0.0000000000000000
 71
     1
 72
     1
  1
{\H0.91x;{仕　様}}
 11
1.000000000000000
 21
0.0000000000000000
 31
0.0000000000000000
  7
KNJYOKO
  0
MTEXT
  5
308
100
AcDbEntity
  8
E0
  6
CONTINUOUS
 62
3
100
AcDbMText
 10
240.5311699319943
 20
116.1921857675895
 30
0.0000000000000000
 40
4.199998855590820
 41
0.0000000000000000
 71
     1
 72
     1
  1
{\H0.58x;{　　　Ｎ・ｍ}}
 11
1.000000000000000
 21
0.0000000000000000
 31
0.0000000000000000
  7
KNJYOKO
  0
MTEXT
  5
309
100
AcDbEntity
  8
E0
  6
CONTINUOUS
 62
3
100
AcDbMText
 10
221.0311699319942
 20
110.1921857675895
 30
0.0000000000000000
 40
4.199998855590820
 41
0.0000000000000000
 71
     1
 72
     1
  1
{\H0.48x;{（}}
 11
1.000000000000000
 21
0.0000000000000000
 31
0.0000000000000000
  7
KNJYOKO
  0
MTEXT
  5
30A
100
AcDbEntity
  8
E0
  6
CONTINUOUS
 62
3
100
AcDbMText
 10
239.0311699319943
 20
110.1921857675895
 30
0.0000000000000000
 40
4.199998855590820
 41
0.0000000000000000
 71
     1
 72
     1
  1
{\H0.58x;{　ｋｇｆ・ｍ）}}
 11
1.000000000000000
 21
0.0000000000000000
 31
0.0000000000000000
  7
KNJYOKO
  0
MTEXT
  5
30B
100
AcDbEntity
  8
E0
  6
CONTINUOUS
 62
3
100
AcDbMText
 10
240.5311699319943
 20
69.94218576758935
 30
0.0000000000000000
 40
4.199998855590820
 41
0.0000000000000000
 71
     1
 72
     1
  1
{\H0.58x;{　　　　ｋｇ}}
 11
1.000000000000000
 21
0.0000000000000000
 31
0.0000000000000000
  7
KNJYOKO
  0
MTEXT
  5
30C
100
AcDbEntity
  8
E0
  6
CONTINUOUS
 62
3
100
AcDbMText
 10
240.5311699319943
 20
101.1921857675894
 30
0.0000000000000000
 40
4.199998855590820
 41
0.0000000000000000
 71
     1
 72
     1
  1
{\H0.58x;{　　　　ｋＮ}}
 11
1.000000000000000
 21
0.0000000000000000
 31
0.0000000000000000
  7
KNJYOKO
  0
MTEXT
  5
30D
100
AcDbEntity
  8
E0
  6
CONTINUOUS
 62
3
100
AcDbMText
 10
221.0311699319942
 20
95.19218576758938
 30
0.0000000000000000
 40
4.199998855590820
 41
0.0000000000000000
 71
     1
 72
     1
  1
{\H0.48x;{（}}
 11
1.000000000000000
 21
0.0000000000000000
 31
0.0000000000000000
  7
KNJYOKO
  0
MTEXT
  5
30E
100
AcDbEntity
  8
E0
  6
CONTINUOUS
 62
3
100
AcDbMText
 10
239.0311699319943
 20
95.19218576758938
 30
0.0000000000000000
 40
4.199998855590820
 41
0.0000000000000000
 71
     1
 72
     1
  1
{\H0.58x;{　　　ｋｇｆ）}}
 11
1.000000000000000
 21
0.0000000000000000
 31
0.0000000000000000
  7
KNJYOKO
  0
MTEXT
  5
30F
100
AcDbEntity
  8
E0
  6
CONTINUOUS
 62
3
100
AcDbMText
 10
190.2798810013609
 20
127.7101971532949
 30
0.0000000000000000
 40
4.649999856948853
 41
0.0000000000000000
 71
     1
 72
     1
  1
{\H0.93x;{SPECIFICATIONS}}
 11
1.000000000000000
 21
0.0000000000000000
 31
0.0000000000000000
  7
STANDARD
  0
MTEXT
  5
310
100
AcDbEntity
  8
E0
  6
CONTINUOUS
 62
3
100
AcDbMText
 10
146.7811699319938
 20
110.8671869120385
 30
0.0000000000000000
 40
3.750000000000000
 41
0.0000000000000000
 71
     1
 72
     1
  1
{\H0.62x;{MAX.PERMISSIBLE HANDLE TORQUE}}
 11
1.000000000000000
 21
0.0000000000000000
 31
0.0000000000000000
  7
STANDARD
  0
MTEXT
  5
311
100
AcDbEntity
  8
E0
  6
CONTINUOUS
 62
3
100
AcDbMText
 10
146.7811699319938
 20
95.86718691203392
 30
0.0000000000000000
 40
3.750000000000000
 41
0.0000000000000000
 71
     1
 72
     1
  1
{\H0.63x;{MAX STATIC GRIPPING FORCE}}
 11
1.000000000000000
 21
0.0000000000000000
 31
0.0000000000000000
  7
STANDARD
  0
MTEXT
  5
312
100
AcDbEntity
  8
E0
  6
CONTINUOUS
 62
3
100
AcDbMText
 10
146.7811699319936
 20
80.36718691203096
 30
0.0000000000000000
 40
3.750000000000000
 41
0.0000000000000000
 71
     1
 72
     1
  1
{\H0.63x;{MAX PREMISSIBLE SPEED}}
 11
1.000000000000000
 21
0.0000000000000000
 31
0.0000000000000000
  7
STANDARD
  0
MTEXT
  5
313
100
AcDbEntity
  8
E0
  6
CONTINUOUS
 62
3
100
AcDbMText
 10
144.0841452623684
 20
39.88927400307595
 30
0.0000000000000000
 40
3.750000000000000
 41
0.0000000000000000
 71
     1
 72
     1
  1
{\H0.54x;{GRIPPING RANGE}}
 11
1.000000000000000
 21
0.0000000000000000
 31
0.0000000000000000
  7
STANDARD
  0
MTEXT
  5
314
100
AcDbEntity
  8
E0
  6
CONTINUOUS
 62
3
100
AcDbMText
 10
171.3846568150428
 20
71.96536924829589
 30
0.0000000000000000
 40
4.650000572204590
 41
0.0000000000000000
 71
     1
 72
     1
  1
{\H0.91x;{MASS}}
 11
1.000000000000000
 21
0.0000000000000000
 31
0.0000000000000000
  7
STANDARD
  0
MTEXT
  5
315
100
AcDbEntity
  8
E0
  6
CONTINUOUS
 62
3
100
AcDbMText
 10
146.7811699319962
 20
62.51718748420824
 30
0.0000000000000000
 40
4.650000572204590
 41
0.0000000000000000
 71
     1
 72
     1
  1
{\H0.94x;{慣性モーメント}}
 11
1.000000000000000
 21
0.0000000000000000
 31
0.0000000000000000
  7
KNJYOKO
  0
MTEXT
  5
316
100
AcDbEntity
  8
E0
  6
CONTINUOUS
 62
3
100
AcDbMText
 10
146.7811699319939
 20
54.86718548148228
 30
0.0000000000000000
 40
3.749998569488525
 41
0.0000000000000000
 71
     1
 72
     1
  1
{\H0.75x;{MOMENT OF INERTIA}}
 11
1.000000000000000
 21
0.0000000000000000
 31
0.0000000000000000
  7
STANDARD
  0
MTEXT
  5
317
100
AcDbEntity
  8
E0
  6
CONTINUOUS
 62
3
100
AcDbMText
 10
246.1430783317217
 20
57.29635643299621
 30
0.0000000000000000
 40
3.000000000000000
 41
0.0000000000000000
 71
     1
 72
     1
  1
{\H0.92x;{ｋｇ・ｍ}}
 11
1.000000000000000
 21
0.0000000000000000
 31
0.0000000000000000
  7
KNJYOKO
  0
MTEXT
  5
318
100
AcDbEntity
  8
E0
  6
CONTINUOUS
 62
3
100
AcDbMText
 10
259.0502413776535
 20
59.07836107933660
 30
0.0000000000000000
 40
2.099999964237213
 41
0.0000000000000000
 71
     1
 72
     1
  1
{\H0.82x;{2}}
 11
1.000000000000000
 21
0.0000000000000000
 31
0.0000000000000000
  7
STANDARD
  0
MTEXT
  5
319
100
AcDbEntity
  8
E0
  6
CONTINUOUS
 62
3
100
AcDbMText
 10
143.0990838234543
 20
26.61256441623361
 30
0.0000000000000000
 40
4.650000572204590
 41
0.0000000000000000
 71
     1
 72
     1
  1
{\H0.95x;{○上記仕様は許容最大ハンドルトルク締込時の場合}}
 11
1.000000000000000
 21
0.0000000000000000
 31
0.0000000000000000
  7
KNJYOKO
  0
MTEXT
  5
31A
100
AcDbEntity
  8
E0
  6
CONTINUOUS
 62
3
100
AcDbMText
 10
148.8682114335431
 20
21.03378322408825
 30
0.0000000000000000
 40
4.649999856948853
 41
0.0000000000000000
 71
     1
 72
     1
  1
{\H0.69x;{AT MAX.PERMISSIBLE HANDLE TORQUE.}}
 11
1.000000000000000
 21
0.0000000000000000
 31
0.0000000000000000
  7
STANDARD
  0
LINE
  5
31B
100
AcDbEntity
  8
WAKU0
  6
CONTINUOUS
 62
3
100
AcDbLine
 10
412.0000000000000
 20
51.00000000000000
 30
0.0000000000000000
 11
582.0000000000000
 21
51.00000000000000
 31
0.0000000000000000
  0
LINE
  5
31C
100
AcDbEntity
  8
WAKU0
  6
CONTINUOUS
 62
3
100
AcDbLine
 10
412.0000000000000
 20
51.00000000000000
 30
0.0000000000000000
 11
412.0000000000000
 21
12.00000000000000
 31
0.0000000000000000
  0
LINE
  5
31D
100
AcDbEntity
  8
WAKU0
  6
CONTINUOUS
 62
3
100
AcDbLine
 10
484.0000000000000
 20
51.00000000000000
 30
0.0000000000000000
 11
484.0000000000000
 21
12.00000000000000
 31
0.0000000000000000
  0
LINE
  5
31E
100
AcDbEntity
  8
WAKU0
  6
CONTINUOUS
 62
3
100
AcDbLine
 10
504.0000000000000
 20
51.00000000000000
 30
0.0000000000000000
 11
504.0000000000000
 21
12.00000000000000
 31
0.0000000000000000
  0
LINE
  5
31F
100
AcDbEntity
  8
WAKU0
  6
CONTINUOUS
 62
3
100
AcDbLine
 10
516.0000000000000
 20
51.00000000000000
 30
0.0000000000000000
 11
516.0000000000000
 21
12.00000000000000
 31
0.0000000000000000
  0
LINE
  5
320
100
AcDbEntity
  8
WAKU0
  6
CONTINUOUS
 62
3
100
AcDbLine
 10
516.0000000000000
 20
37.00000000000000
 30
0.0000000000000000
 11
582.0000000000000
 21
37.00000000000000
 31
0.0000000000000000
  0
LINE
  5
321
100
AcDbEntity
  8
WAKU0
  6
CONTINUOUS
 62
3
100
AcDbLine
 10
504.0000000000000
 20
23.00000000000000
 30
0.0000000000000000
 11
582.0000000000000
 21
23.00000000000000
 31
0.0000000000000000
  0
LINE
  5
322
100
AcDbEntity
  8
WAKU0
  6
CONTINUOUS
 62
3
100
AcDbLine
 10
547.0000000000000
 20
51.00000000000000
 30
0.0000000000000000
 11
547.0000000000000
 21
44.00000000000000
 31
0.0000000000000000
  0
LINE
  5
323
100
AcDbEntity
  8
WAKU0
  6
CONTINUOUS
 62
3
100
AcDbLine
 10
559.0000000000000
 20
51.00000000000000
 30
0.0000000000000000
 11
559.0000000000000
 21
44.00000000000000
 31
0.0000000000000000
  0
LINE
  5
324
100
AcDbEntity
  8
WAKU0
  6
CONTINUOUS
 62
3
100
AcDbLine
 10
484.0000000000000
 20
31.50000000000000
 30
0.0000000000000000
 11
504.0000000000000
 21
31.50000000000000
 31
0.0000000000000000
  0
LINE
  5
325
100
AcDbEntity
  8
WAKU0
  6
CONTINUOUS
 62
3
100
AcDbLine
 10
504.0000000000000
 20
44.00000000000000
 30
0.0000000000000000
 11
582.0000000000000
 21
44.00000000000000
 31
0.0000000000000000
  0
LINE
  5
326
100
AcDbEntity
  8
WAKU0
  6
CONTINUOUS
 62
3
100
AcDbLine
 10
412.0000000000000
 20
37.00000000000000
 30
0.0000000000000000
 11
484.0000000000000
 21
37.00000000000000
 31
0.0000000000000000
  0
LINE
  5
327
100
AcDbEntity
  8
WAKU0
  6
CONTINUOUS
 62
3
100
AcDbLine
 10
412.0000000000000
 20
23.00000000000000
 30
0.0000000000000000
 11
484.0000000000000
 21
23.00000000000000
 31
0.0000000000000000
  0
LINE
  5
328
100
AcDbEntity
  8
WAKU0
  6
CONTINUOUS
 62
3
100
AcDbLine
 10
460.0000000000000
 20
37.00000000000000
 30
0.0000000000000000
 11
460.0000000000000
 21
12.00000000000000
 31
0.0000000000000000
  0
LINE
  5
329
100
AcDbEntity
  8
WAKU0
  6
CONTINUOUS
 62
3
100
AcDbLine
 10
436.0000000000000
 20
37.00000000000000
 30
0.0000000000000000
 11
436.0000000000000
 21
23.00000000000000
 31
0.0000000000000000
  0
LINE
  5
32A
100
AcDbEntity
  8
WAKU0
  6
CONTINUOUS
 62
3
100
AcDbLine
 10
472.0000000000000
 20
26.00000000000000
 30
0.0000000000000000
 11
472.0000000000000
 21
23.00000000000000
 31
0.0000000000000000
  0
LINE
  5
32B
100
AcDbEntity
  8
WAKU0
  6
CONTINUOUS
 62
3
100
AcDbLine
 10
448.0000000000000
 20
26.00000000000000
 30
0.0000000000000000
 11
448.0000000000000
 21
23.00000000000000
 31
0.0000000000000000
  0
LINE
  5
32C
100
AcDbEntity
  8
WAKU0
  6
CONTINUOUS
 62
3
100
AcDbLine
 10
424.0000000000000
 20
26.00000000000000
 30
0.0000000000000000
 11
424.0000000000000
 21
23.00000000000000
 31
0.0000000000000000
  0
LINE
  5
32D
100
AcDbEntity
  8
WAKU0
  6
CONTINUOUS
 62
3
100
AcDbLine
 10
430.0000000000000
 20
51.00000000000000
 30
0.0000000000000000
 11
430.0000000000000
 21
37.00000000000000
 31
0.0000000000000000
  0
LINE
  5
32E
100
AcDbEntity
  8
WAKU0
  6
CONTINUOUS
 62
3
100
AcDbLine
 10
412.0000000000000
 20
45.00000000000000
 30
0.0000000000000000
 11
484.0000000000000
 21
45.00000000000000
 31
0.0000000000000000
  0
LINE
  5
32F
100
AcDbEntity
  8
WAKU0
  6
HIDDEN
 62
3
100
AcDbLine
 10
532.5000000000000
 20
23.00000000000000
 30
0.0000000000000000
 11
532.5000000000000
 21
12.00000000000000
 31
0.0000000000000000
  0
LINE
  5
330
100
AcDbEntity
  8
WAKU0
  6
HIDDEN
 62
3
100
AcDbLine
 10
544.9000000000000
 20
23.00000000000000
 30
0.0000000000000000
 11
544.9000000000000
 21
12.00000000000000
 31
0.0000000000000000
  0
MTEXT
  5
331
100
AcDbEntity
  8
WAKU0
  6
CONTINUOUS
 62
3
100
AcDbMText
 10
516.4820000243485
 20
49.04999995231628
 30
0.0000000000000000
 40
3.099999904632568
 41
0.0000000000000000
 71
     1
 72
     1
  1
{\H0.93x;{JN12-101}}
 11
1.000000000000000
 21
0.0000000000000000
 31
0.0000000000000000
  7
STANDARD
  0
MTEXT
  5
332
100
AcDbEntity
  8
WAKU0
  6
CONTINUOUS
 62
3
100
AcDbMText
 10
516.4659999916852
 20
43.50000000000000
 30
0.0000000000000000
 40
3.000000000000000
 41
0.0000000000000000
 71
     1
 72
     1
  1
{\H0.94x;{スクロールチャック　１２\PＳＣＲＯＬＬ　ＣＨＵＣＫ　１２}}
 11
1.000000000000000
 21
0.0000000000000000
 31
0.0000000000000000
  7
KNJYOKO
  0
MTEXT
  5
333
100
AcDbEntity
  8
WAKU0
  6
CONTINUOUS
 62
3
100
AcDbMText
 10
516.4000000059605
 20
34.23333326975504
 30
0.0000000000000000
 40
3.099999904632568
 41
0.0000000000000000
 71
     1
 72
     1
  1
{\H0.70x;{ＪＮ１２－１０１　ガイケイ\PＪＮ１２－１０１　ＯＵＴＳＩＤＥ　ＶＩＥＷ}}
 11
1.000000000000000
 21
0.0000000000000000
 31
0.0000000000000000
  7
KNJYOKO
  0
MTEXT
  5
334
100
AcDbEntity
  8
WAKU0
  6
CONTINUOUS
 62
3
100
AcDbMText
 10
490.0049998760223
 20
39.29999995231628
 30
0.0000000000000000
 40
3.099999904632568
 41
0.0000000000000000
 71
     1
 72
     1
  1
{\H0.90x;{2:3}}
 11
1.000000000000000
 21
0.0000000000000000
 31
0.0000000000000000
  7
STANDARD
  0
MTEXT
  5
335
100
AcDbEntity
  8
WAKU0
  6
CONTINUOUS
 62
3
100
AcDbMText
 10
546.4000001549721
 20
20.15000009536743
 30
0.0000000000000000
 40
5.300000190734863
 41
0.0000000000000000
 71
     1
 72
     1
  1
{\H0.90x;{2935}}
 11
1.000000000000000
 21
0.0000000000000000
 31
0.0000000000000000
  7
STANDARD
  0
MTEXT
  5
336
100
AcDbEntity
  8
WAKU0
  6
CONTINUOUS
 62
3
100
AcDbMText
 10
534.3000000834466
 20
20.15000009536743
 30
0.0000000000000000
 40
5.300000190734863
 41
0.0000000000000000
 71
     1
 72
     1
  1
{\H0.87x;{26}}
 11
1.000000000000000
 21
0.0000000000000000
 31
0.0000000000000000
  7
STANDARD
  0
MTEXT
  5
337
100
AcDbEntity
  8
WAKU0
  6
CONTINUOUS
 62
3
100
AcDbMText
 10
517.5000001192093
 20
20.15000009536743
 30
0.0000000000000000
 40
5.300000190734863
 41
0.0000000000000000
 71
     1
 72
     1
  1
{\H0.89x;{61S}}
 11
1.000000000000000
 21
0.0000000000000000
 31
0.0000000000000000
  7
STANDARD
  0
MTEXT
  5
338
100
AcDbEntity
  8
WAKU0
  6
CONTINUOUS
 62
3
100
AcDbMText
 10
572.0000000476837
 20
20.15000009536743
 30
0.0000000000000000
 40
5.300000190734863
 41
0.0000000000000000
 71
     1
 72
     1
  1
{\H0.81x;{2}}
 11
1.000000000000000
 21
0.0000000000000000
 31
0.0000000000000000
  7
STANDARD
  0
MTEXT
  5
339
100
AcDbEntity
  8
WAKU0
  6
CONTINUOUS
 62
3
100
AcDbMText
 10
572.0000000819564
 20
44.84999990463257
 30
0.0000000000000000
 40
5.300000190734863
 41
0.0000000000000000
 71
     7
 72
     1
  1
{\H0.81x;{ }}
 11
1.000000000000000
 21
0.0000000000000000
 31
0.0000000000000000
  7
STANDARD
  0
MTEXT
  5
33A
100
AcDbEntity
  8
WAKU0
  6
CONTINUOUS
 62
3
100
AcDbMText
 10
461.3850002884865
 20
33.00000000000000
 30
0.0000000000000000
 40
3.000000000000000
 41
0.0000000000000000
 71
     7
 72
     1
  1
{\H0.93x;{DRAWN BY}}
 11
1.000000000000000
 21
0.0000000000000000
 31
0.0000000000000000
  7
STANDARD
  0
MTEXT
  5
33B
100
AcDbEntity
  8
WAKU0
  6
CONTINUOUS
 62
3
100
AcDbMText
 10
441.2149997949600
 20
32.95000004768372
 30
0.0000000000000000
 40
3.099999904632568
 41
0.0000000000000000
 71
     7
 72
     1
  1
{\H0.92x;{CHIEF}}
 11
1.000000000000000
 21
0.0000000000000000
 31
0.0000000000000000
  7
STANDARD
  0
MTEXT
  5
33C
100
AcDbEntity
  8
WAKU0
  6
CONTINUOUS
 62
3
100
AcDbMText
 10
414.4249997138977
 20
32.95000004768372
 30
0.0000000000000000
 40
3.099999904632568
 41
0.0000000000000000
 71
     7
 72
     1
  1
{\H0.92x;{MANAGER}}
 11
1.000000000000000
 21
0.0000000000000000
 31
0.0000000000000000
  7
STANDARD
  0
MTEXT
  5
33D
100
AcDbEntity
  8
WAKU0
  6
CONTINUOUS
 62
3
100
AcDbMText
 10
413.0850002169609
 20
46.50000000000000
 30
0.0000000000000000
 40
3.000000000000000
 41
0.0000000000000000
 71
     7
 72
     1
  1
{\H0.92x;{CAREER}}
 11
1.000000000000000
 21
0.0000000000000000
 31
0.0000000000000000
  7
STANDARD
  0
MTEXT
  5
33E
100
AcDbEntity
  8
WAKU0
  6
CONTINUOUS
 62
3
100
AcDbMText
 10
466.6099998354912
 20
18.95000004768372
 30
0.0000000000000000
 40
3.099999904632568
 41
0.0000000000000000
 71
     7
 72
     1
  1
{\H0.91x;{DATE}}
 11
1.000000000000000
 21
0.0000000000000000
 31
0.0000000000000000
  7
STANDARD
  0
MTEXT
  5
33F
100
AcDbEntity
  8
WAKU0
  6
CONTINUOUS
 62
3
100
AcDbMText
 10
485.9000002145767
 20
26.50000000000000
 30
0.0000000000000000
 40
3.000000000000000
 41
0.0000000000000000
 71
     7
 72
     1
  1
{\H0.63x;{3RD ANGLE}}
 11
1.000000000000000
 21
0.0000000000000000
 31
0.0000000000000000
  7
STANDARD
  0
MTEXT
  5
340
100
AcDbEntity
  8
WAKU0
  6
CONTINUOUS
 62
3
100
AcDbMText
 10
487.2149997949600
 20
45.95000004768372
 30
0.0000000000000000
 40
3.099999904632568
 41
0.0000000000000000
 71
     7
 72
     1
  1
{\H0.92x;{SCALE}}
 11
1.000000000000000
 21
0.0000000000000000
 31
0.0000000000000000
  7
STANDARD
  0
MTEXT
  5
341
100
AcDbEntity
  8
WAKU0
  6
CONTINUOUS
 62
3
100
AcDbMText
 10
577.7000000476837
 20
46.00000000000000
 30
0.0000000000000000
 40
3.000000000000000
 41
0.0000000000000000
 71
     7
 72
     1
  1
{\H0.63x;{kg}}
 11
1.000000000000000
 21
0.0000000000000000
 31
0.0000000000000000
  7
STANDARD
  0
MTEXT
  5
342
100
AcDbEntity
  8
WAKU0
  6
CONTINUOUS
 62
3
100
AcDbMText
 10
547.6000001430512
 20
46.00000000000000
 30
0.0000000000000000
 40
3.000000000000000
 41
0.0000000000000000
 71
     7
 72
     1
  1
{\H0.63x;{WEIGHT}}
 11
1.000000000000000
 21
0.0000000000000000
 31
0.0000000000000000
  7
STANDARD
  0
MTEXT
  5
343
100
AcDbEntity
  8
WAKU0
  6
CONTINUOUS
 62
3
100
AcDbMText
 10
506.0049998760223
 20
18.13333336512248
 30
0.0000000000000000
 40
3.099999904632568
 41
0.0000000000000000
 71
     7
 72
     1
  1
{\H0.90x;{DRW\PNO.}}
 11
1.000000000000000
 21
0.0000000000000000
 31
0.0000000000000000
  7
STANDARD
  0
MTEXT
  5
344
100
AcDbEntity
  8
WAKU0
  6
CONTINUOUS
 62
3
100
AcDbMText
 10
504.6099998354912
 20
31.95000004768372
 30
0.0000000000000000
 40
3.099999904632568
 41
0.0000000000000000
 71
     7
 72
     1
  1
{\H0.91x;{NAME}}
 11
1.000000000000000
 21
0.0000000000000000
 31
0.0000000000000000
  7
STANDARD
  0
MTEXT
  5
345
100
AcDbEntity
  8
WAKU0
  6
CONTINUOUS
 62
3
100
AcDbMText
 10
504.6099998354912
 20
45.95000004768372
 30
0.0000000000000000
 40
3.099999904632568
 41
0.0000000000000000
 71
     7
 72
     1
  1
{\H0.91x;{TYPE}}
 11
1.000000000000000
 21
0.0000000000000000
 31
0.0000000000000000
  7
STANDARD
  0
LINE
  5
346
100
AcDbEntity
  8
WAKU0
  6
HIDDEN
 62
3
100
AcDbLine
 10
579.1599564743885
 20
13.84999990463257
 30
0.0000000000000000
 11
568.9400436209789
 21
13.84999990463257
 31
0.0000000000000000
  0
LINE
  5
347
100
AcDbEntity
  8
WAKU0
  6
HIDDEN
 62
3
100
AcDbLine
 10
579.1599564743885
 20
13.84999990463250
 30
0.0000000000000000
 11
574.0500000476851
 21
22.70070406014901
 31
0.0000000000000000
  0
LINE
  5
348
100
AcDbEntity
  8
WAKU0
  6
HIDDEN
 62
3
100
AcDbLine
 10
574.0500000476851
 20
22.70070406014902
 30
0.0000000000000000
 11
568.9400436209789
 21
13.84999990463248
 31
0.0000000000000000
  0
MTEXT
  5
349
100
AcDbEntity
  8
WAKU0
  6
CONTINUOUS
 62
3
100
AcDbMText
 10
419.0000009614873
 20
20.63471521698214
 30
0.0000000000000000
 40
3.140094041824341
 41
0.0000000000000000
 71
     1
 72
     1
  1
{\H0.83x;{Ｋｉｔａｇａｗａ\PＣｏｒｐｏｒａｔｉｏｎ}}
 11
1.000000000000000
 21
0.0000000000000000
 31
0.0000000000000000
  7
KNJYOKO
  0
LINE
  5
34A
100
AcDbEntity
  8
WAKU0
  6
CONTINUOUS
 62
3
100
AcDbLine
 10
502.4713877753800
 20
15.78041421262812
 30
0.0000000000000000
 11
502.4713877753800
 21
21.78041421262815
 31
0.0000000000000000
  0
LINE
  5
34B
100
AcDbEntity
  8
WAKU0
  6
CONTINUOUS
 62
3
100
AcDbLine
 10
495.9336941228225
 20
17.28041421262811
 30
0.0000000000000000
 11
495.9336941228225
 21
20.28041421262824
 31
0.0000000000000000
  0
LINE
  5
34C
100
AcDbEntity
  8
WAKU0
  6
CENTER
 62
12
100
AcDbLine
 10
485.4321805514995
 20
18.78041421262813
 30
0.0000000000000000
 11
503.2765788964694
 21
18.78041421262813
 31
0.0000000000000000
  0
LINE
  5
34D
100
AcDbEntity
  8
WAKU0
  6
CENTER
 62
12
100
AcDbLine
 10
489.4474565857986
 20
14.55921662918448
 30
0.0000000000000000
 11
489.4474565857986
 21
22.89865102149943
 31
0.0000000000000000
  0
LINE
  5
34E
100
AcDbEntity
  8
WAKU0
  6
CONTINUOUS
 62
3
100
AcDbLine
 10
495.9336941228225
 20
20.28041421262797
 30
0.0000000000000000
 11
502.4713877753800
 21
21.78041421262795
 31
0.0000000000000000
  0
LINE
  5
34F
100
AcDbEntity
  8
WAKU0
  6
CONTINUOUS
 62
3
100
AcDbLine
 10
495.9336941228225
 20
17.28041421262811
 30
0.0000000000000000
 11
502.4713877753799
 21
15.78041421262812
 31
0.0000000000000000
  0
CIRCLE
  5
350
100
AcDbEntity
  8
WAKU0
  6
CONTINUOUS
 62
3
100
AcDbCircle
 10
489.4474565857986
 20
18.78041421262813
 30
0.0000000000000000
 40
1.499999999999972
  0
CIRCLE
  5
351
100
AcDbEntity
  8
WAKU0
  6
CONTINUOUS
 62
3
100
AcDbCircle
 10
489.4474565857986
 20
18.78041421262813
 30
0.0000000000000000
 40
2.999999999999979
  0
ENDSEC
  0
SECTION
  2
OBJECTS
  0
DICTIONARY
  5
3A7
100
AcDbDictionary
  3
ACAD_GROUP
350
3A8
  3
ACAD_MLINESTYLE
350
3A9
  0
DICTIONARY
  5
3A8
102
{ACAD_REACTORS
330
3A7
102
}
100
AcDbDictionary
  0
DICTIONARY
  5
3A9
102
{ACAD_REACTORS
330
3A7
102
}
100
AcDbDictionary
  3
STANDARD
350
3AA
  0
MLINESTYLE
  5
3AA
102
{ACAD_REACTORS
330
3A9
102
}
100
AcDbMlineStyle
  2
STANDARD
 70
     0
  3

 62
   256
 51
90.00
 52
90.00
 71
     2
 49
0.50
 62
   256
  6
BYLAYER
 49
-0.50
 62
   256
  6
BYLAYER
  0
ENDSEC
  0
EOF
