  0
SECTION
  2
HEADER
  9
$ACADVER
  1
AC1014
  9
$DWGCODEPAGE
  3
ANSI_932
  9
$LTSCALE
 40
20.0
  9
$FILLMODE
 70
     1
  9
$CLAYER
  8
0
  9
$PDMODE
 70
     0
  9
$SPLFRAME
 70
     0
  9
$SPLINETYPE
 70
     6
  9
$SPLINESEGS
 70
     8
  9
$DIMASZ
 40
2.000000
  9
$DIMEXE
 40
2.000000
  9
$DIMEXO
 40
0.800000
  9
$DIMTAD
 70
     1
  9
$DIMTIH
 70
     0
  9
$DIMTOH
 70
     0
  9
$DIMTVP
 40
0.500000
  9
$DIMTXT
 40
3.100000
  9
$EXTMIN
 10
0.000000
 20
0.000000
 30
0.000000
  9
$EXTMAX
 10
420.000000
 20
594.000000
 30
0.000000
  9
$MEASUREMENT
 70
  1
  9
$LIMMIN
 10
0.000000
 20
0.000000
  9
$LIMMAX
 10
420.000000
 20
594.000000
  9
$HANDLING
 70
     1
  9
$HANDSEED
  5
563
  9
$DIMBLK
  1
_OPEN
  9
$DIMDEC
 70
     3
  9
$DIMAUNIT
 70
     1
  9
$DIMZIN
 70
     8
  9
$DIMTOFL
 70
     1
  0
ENDSEC
  0
SECTION
  2
CLASSES
  0
ENDSEC
  0
SECTION
  2
TABLES
  0
TABLE
  2
VPORT
  5
4F6
100
AcDbSymbolTable
 70
     1
  0
VPORT
  5
4F7
100
AcDbSymbolTableRecord
100
AcDbViewportTableRecord
  2
*ACTIVE
 70
     0
 12
297.000000
 22
210.000000
 40
420.000000
 41
1.414286
  0
ENDTAB
  0
TABLE
  2
LTYPE
  5
4F8
100
AcDbSymbolTable
 70
     4
  0
LTYPE
  5
4F9
100
AcDbSymbolTableRecord
100
AcDbLinetypeTableRecord
  2
BYBLOCK
 70
     0
  3

 72
    65
 73
     0
 40
0.0
  0
LTYPE
  5
4FA
100
AcDbSymbolTableRecord
100
AcDbLinetypeTableRecord
  2
BYLAYER
 70
     0
  3

 72
    65
 73
     0
 40
0.0
  0
LTYPE
  5
4FB
100
AcDbSymbolTableRecord
100
AcDbLinetypeTableRecord
  2
CONTINUOUS
 70
     0
  3
Solid line (NEC CAE2D for Win R14.2 : 2020.11.24)
 72
    65
 73
     0
 40
0.0
  0
LTYPE
  5
4FC
100
AcDbSymbolTableRecord
100
AcDbLinetypeTableRecord
  2
HIDDEN
 70
     0
  3
__ __ __ __ __ __ __ __ __ __ __ __ __ __
 72
    65
 73
     2
 40
0.375
 49
0.25
 74
     0
 49
-0.125
 74
     0
  0
LTYPE
  5
4FD
100
AcDbSymbolTableRecord
100
AcDbLinetypeTableRecord
  2
CENTER
 70
     0
  3
____ _ ____ _ ____ _ ____ _ ____ _ ____
 72
    65
 73
     4
 40
2.0
 49
1.25
 74
     0
 49
-0.25
 74
     0
 49
0.25
 74
     0
 49
-0.25
 74
     0
  0
LTYPE
  5
4FE
100
AcDbSymbolTableRecord
100
AcDbLinetypeTableRecord
  2
PHANTOM
 70
     0
  3
______  __  __  ______  __  __  ______ 
 72
    65
 73
     6
 40
2.5
 49
1.25
 74
     0
 49
-0.25
 74
     0
 49
0.25
 74
     0
 49
-0.25
 74
     0
 49
0.25
 74
     0
 49
-0.25
 74
     0
  0
ENDTAB
  0
TABLE
  2
LAYER
  5
4FF
100
AcDbSymbolTable
 70
    26
  0
LAYER
  5
500
100
AcDbSymbolTableRecord
100
AcDbLayerTableRecord
  2
0
 70
     0
 62
     7
  6
CONTINUOUS
  0
LAYER
  5
501
100
AcDbSymbolTableRecord
100
AcDbLayerTableRecord
  2
MAIN0
 70
     0
 62
     7
  6
CONTINUOUS
  0
LAYER
  5
502
100
AcDbSymbolTableRecord
100
AcDbLayerTableRecord
  2
MAIN1
 70
     0
 62
     7
  6
CONTINUOUS
  0
LAYER
  5
503
100
AcDbSymbolTableRecord
100
AcDbLayerTableRecord
  2
MAIN2
 70
     0
 62
     7
  6
CONTINUOUS
  0
LAYER
  5
504
100
AcDbSymbolTableRecord
100
AcDbLayerTableRecord
  2
MAIN3
 70
     0
 62
     7
  6
CONTINUOUS
  0
LAYER
  5
505
100
AcDbSymbolTableRecord
100
AcDbLayerTableRecord
  2
MAIN4
 70
     0
 62
     7
  6
CONTINUOUS
  0
LAYER
  5
506
100
AcDbSymbolTableRecord
100
AcDbLayerTableRecord
  2
MAIN5
 70
     0
 62
     7
  6
CONTINUOUS
  0
LAYER
  5
507
100
AcDbSymbolTableRecord
100
AcDbLayerTableRecord
  2
MAIN6
 70
     0
 62
     7
  6
CONTINUOUS
  0
LAYER
  5
508
100
AcDbSymbolTableRecord
100
AcDbLayerTableRecord
  2
MAIN7
 70
     0
 62
     7
  6
CONTINUOUS
  0
LAYER
  5
509
100
AcDbSymbolTableRecord
100
AcDbLayerTableRecord
  2
MAIN8
 70
     0
 62
     7
  6
CONTINUOUS
  0
LAYER
  5
50A
100
AcDbSymbolTableRecord
100
AcDbLayerTableRecord
  2
MAIN10
 70
     0
 62
     7
  6
CONTINUOUS
  0
LAYER
  5
50B
100
AcDbSymbolTableRecord
100
AcDbLayerTableRecord
  2
MAIN1023
 70
     0
 62
    16
  6
CONTINUOUS
  0
LAYER
  5
50C
100
AcDbSymbolTableRecord
100
AcDbLayerTableRecord
  2
H0
 70
     0
 62
     7
  6
CONTINUOUS
  0
LAYER
  5
50D
100
AcDbSymbolTableRecord
100
AcDbLayerTableRecord
  2
H1
 70
     0
 62
     7
  6
CONTINUOUS
  0
LAYER
  5
50E
100
AcDbSymbolTableRecord
100
AcDbLayerTableRecord
  2
H2
 70
     0
 62
     7
  6
CONTINUOUS
  0
LAYER
  5
50F
100
AcDbSymbolTableRecord
100
AcDbLayerTableRecord
  2
H8
 70
     0
 62
     7
  6
CONTINUOUS
  0
LAYER
  5
510
100
AcDbSymbolTableRecord
100
AcDbLayerTableRecord
  2
H1023
 70
     0
 62
    16
  6
CONTINUOUS
  0
LAYER
  5
511
100
AcDbSymbolTableRecord
100
AcDbLayerTableRecord
  2
A0
 70
     0
 62
     7
  6
CONTINUOUS
  0
LAYER
  5
512
100
AcDbSymbolTableRecord
100
AcDbLayerTableRecord
  2
A8
 70
     0
 62
     7
  6
CONTINUOUS
  0
LAYER
  5
513
100
AcDbSymbolTableRecord
100
AcDbLayerTableRecord
  2
A1023
 70
     0
 62
    16
  6
CONTINUOUS
  0
LAYER
  5
514
100
AcDbSymbolTableRecord
100
AcDbLayerTableRecord
  2
ZH0
 70
     0
 62
     7
  6
CONTINUOUS
  0
LAYER
  5
515
100
AcDbSymbolTableRecord
100
AcDbLayerTableRecord
  2
ZH1
 70
     0
 62
     7
  6
CONTINUOUS
  0
LAYER
  5
516
100
AcDbSymbolTableRecord
100
AcDbLayerTableRecord
  2
ZH5
 70
     0
 62
     7
  6
CONTINUOUS
  0
LAYER
  5
517
100
AcDbSymbolTableRecord
100
AcDbLayerTableRecord
  2
ZH1023
 70
     0
 62
    16
  6
CONTINUOUS
  0
LAYER
  5
518
100
AcDbSymbolTableRecord
100
AcDbLayerTableRecord
  2
WAKU0
 70
     0
 62
     7
  6
CONTINUOUS
  0
LAYER
  5
519
100
AcDbSymbolTableRecord
100
AcDbLayerTableRecord
  2
WAKU1023
 70
     0
 62
    16
  6
CONTINUOUS
  0
ENDTAB
  0
TABLE
  2
STYLE
  5
51A
100
AcDbSymbolTable
 70
     4
  0
STYLE
  5
51B
100
AcDbSymbolTableRecord
100
AcDbTextStyleTableRecord
  2
STANDARD
 70
    64
 40
0.0
 41
1.0
 50
0.0
 71
     0
 42
3.140094041824341
  3
TXT
  4

  0
STYLE
  5
51C
100
AcDbSymbolTableRecord
100
AcDbTextStyleTableRecord
  2
ANKTATE
 70
    68
 40
0.0
 41
1.0
 50
0.0
 71
     0
 42
3.140094041824341
  3
TXT
  4

  0
STYLE
  5
9F
100
AcDbSymbolTableRecord
100
AcDbTextStyleTableRecord
  2
KNJYOKO
 70
    64
 40
0.0
 41
1.0
 50
0.0
 71
     0
 42
3.140094041824341
  3
TXT
  4
BIGFONT
  0
STYLE
  5
51D
100
AcDbSymbolTableRecord
100
AcDbTextStyleTableRecord
  2
KNJTATE
 70
    68
 40
0.0
 41
1.0
 50
0.0
 71
     0
 42
3.140094041824341
  3
TXT
  4
BIGFONT
  0
ENDTAB
  0
TABLE
  2
VIEW
  5
51E
100
AcDbSymbolTable
 70
     0
  0
ENDTAB
  0
TABLE
  2
UCS
  5
51F
100
AcDbSymbolTable
 70
     0
  0
ENDTAB
  0
TABLE
  2
APPID
  5
520
100
AcDbSymbolTable
 70
     1
  0
APPID
  5
521
100
AcDbSymbolTableRecord
100
AcDbRegAppTableRecord
  2
ACAD
 70
     0
  0
ENDTAB
  0
TABLE
  2
DIMSTYLE
  5
522
100
AcDbSymbolTable
 70
     1
  0
DIMSTYLE
105
523
100
AcDbSymbolTableRecord
100
AcDbDimStyleTableRecord
  2
STANDARD
 70
     0
 41
2.000000
 44
2.000000
 42
0.800000
145
0.661290
140
3.100000
144
1.000000
146
0.903226
340
51B
  0
DIMSTYLE
105
524
100
AcDbSymbolTableRecord
100
AcDbDimStyleTableRecord
  2
MAIN001
 70
     0
 41
2.000000
 44
2.000000
 42
0.800000
145
0.661290
140
3.100000
144
1.000000
146
0.903226
 77
     1
 73
     0
 74
     0
271
     3
275
     1
 78
     8
172
     1
340
51B
  0
DIMSTYLE
105
525
100
AcDbSymbolTableRecord
100
AcDbDimStyleTableRecord
  2
H002
 70
     0
 41
2.000000
 44
2.000000
 42
0.800000
145
0.661290
140
3.100000
144
1.000000
146
0.903226
 77
     1
 73
     0
 74
     0
271
     3
275
     1
 78
     8
172
     1
340
51B
  0
DIMSTYLE
105
526
100
AcDbSymbolTableRecord
100
AcDbDimStyleTableRecord
  2
A003
 70
     0
 41
3.000000
 44
3.000000
 42
1.200000
145
0.607527
140
4.650000
144
1.000000
146
0.903226
 77
     1
 73
     0
 74
     0
271
     3
275
     1
 78
     8
172
     1
340
51B
  0
DIMSTYLE
105
527
100
AcDbSymbolTableRecord
100
AcDbDimStyleTableRecord
  2
ZH004
 70
     0
 41
2.000000
 44
2.000000
 42
0.800000
145
0.661290
140
3.100000
144
1.000000
146
0.903226
 77
     1
 73
     0
 74
     0
271
     3
275
     1
 78
     8
172
     1
340
51B
  0
DIMSTYLE
105
528
100
AcDbSymbolTableRecord
100
AcDbDimStyleTableRecord
  2
WAKU005
 70
     0
 41
2.000000
 44
2.000000
 42
0.800000
145
0.661290
140
3.100000
144
1.000000
146
0.903226
 77
     1
 73
     0
 74
     0
271
     3
275
     1
 78
     8
172
     1
340
51B
  0
ENDTAB
  0
TABLE
  2
BLOCK_RECORD
  5
529
100
AcDbSymbolTable
 70
    58
  0
BLOCK_RECORD
  5
52A
100
AcDbSymbolTableRecord
100
AcDbBlockTableRecord
  2
*MODEL_SPACE
  0
BLOCK_RECORD
  5
52B
100
AcDbSymbolTableRecord
100
AcDbBlockTableRecord
  2
*PAPER_SPACE
  0
BLOCK_RECORD
  5
1
100
AcDbSymbolTableRecord
100
AcDbBlockTableRecord
  2
_NONE
  0
BLOCK_RECORD
  5
4
100
AcDbSymbolTableRecord
100
AcDbBlockTableRecord
  2
_CLOSED
  0
BLOCK_RECORD
  5
B
100
AcDbSymbolTableRecord
100
AcDbBlockTableRecord
  2
_DOT
  0
BLOCK_RECORD
  5
13
100
AcDbSymbolTableRecord
100
AcDbBlockTableRecord
  2
_OPEN
  0
BLOCK_RECORD
  5
19
100
AcDbSymbolTableRecord
100
AcDbBlockTableRecord
  2
_ORIGIN
  0
BLOCK_RECORD
  5
1E
100
AcDbSymbolTableRecord
100
AcDbBlockTableRecord
  2
_OPEN30
  0
BLOCK_RECORD
  5
24
100
AcDbSymbolTableRecord
100
AcDbBlockTableRecord
  2
_BOXFILLED
  0
BLOCK_RECORD
  5
29
100
AcDbSymbolTableRecord
100
AcDbBlockTableRecord
  2
_BOXBLANK
  0
BLOCK_RECORD
  5
31
100
AcDbSymbolTableRecord
100
AcDbBlockTableRecord
  2
_OBLIQUE
  0
BLOCK_RECORD
  5
35
100
AcDbSymbolTableRecord
100
AcDbBlockTableRecord
  2
_OPEN90
  0
BLOCK_RECORD
  5
3B
100
AcDbSymbolTableRecord
100
AcDbBlockTableRecord
  2
_CLOSEDBLANK
  0
BLOCK_RECORD
  5
41
100
AcDbSymbolTableRecord
100
AcDbBlockTableRecord
  2
_DOTBLANK
  0
BLOCK_RECORD
  5
52C
100
AcDbSymbolTableRecord
100
AcDbBlockTableRecord
  2
*D0
  0
BLOCK_RECORD
  5
52D
100
AcDbSymbolTableRecord
100
AcDbBlockTableRecord
  2
*D1
  0
BLOCK_RECORD
  5
52E
100
AcDbSymbolTableRecord
100
AcDbBlockTableRecord
  2
*D2
  0
BLOCK_RECORD
  5
52F
100
AcDbSymbolTableRecord
100
AcDbBlockTableRecord
  2
*D3
  0
BLOCK_RECORD
  5
530
100
AcDbSymbolTableRecord
100
AcDbBlockTableRecord
  2
*D4
  0
BLOCK_RECORD
  5
531
100
AcDbSymbolTableRecord
100
AcDbBlockTableRecord
  2
*D5
  0
BLOCK_RECORD
  5
532
100
AcDbSymbolTableRecord
100
AcDbBlockTableRecord
  2
*D6
  0
BLOCK_RECORD
  5
533
100
AcDbSymbolTableRecord
100
AcDbBlockTableRecord
  2
*D7
  0
BLOCK_RECORD
  5
534
100
AcDbSymbolTableRecord
100
AcDbBlockTableRecord
  2
*D8
  0
BLOCK_RECORD
  5
535
100
AcDbSymbolTableRecord
100
AcDbBlockTableRecord
  2
*D9
  0
BLOCK_RECORD
  5
536
100
AcDbSymbolTableRecord
100
AcDbBlockTableRecord
  2
*D10
  0
BLOCK_RECORD
  5
537
100
AcDbSymbolTableRecord
100
AcDbBlockTableRecord
  2
*D11
  0
BLOCK_RECORD
  5
538
100
AcDbSymbolTableRecord
100
AcDbBlockTableRecord
  2
*D12
  0
BLOCK_RECORD
  5
539
100
AcDbSymbolTableRecord
100
AcDbBlockTableRecord
  2
*D13
  0
BLOCK_RECORD
  5
53A
100
AcDbSymbolTableRecord
100
AcDbBlockTableRecord
  2
*D14
  0
BLOCK_RECORD
  5
53B
100
AcDbSymbolTableRecord
100
AcDbBlockTableRecord
  2
*D15
  0
BLOCK_RECORD
  5
53C
100
AcDbSymbolTableRecord
100
AcDbBlockTableRecord
  2
*D16
  0
BLOCK_RECORD
  5
53D
100
AcDbSymbolTableRecord
100
AcDbBlockTableRecord
  2
*D17
  0
BLOCK_RECORD
  5
53E
100
AcDbSymbolTableRecord
100
AcDbBlockTableRecord
  2
*D18
  0
BLOCK_RECORD
  5
53F
100
AcDbSymbolTableRecord
100
AcDbBlockTableRecord
  2
*D19
  0
BLOCK_RECORD
  5
540
100
AcDbSymbolTableRecord
100
AcDbBlockTableRecord
  2
*D20
  0
BLOCK_RECORD
  5
541
100
AcDbSymbolTableRecord
100
AcDbBlockTableRecord
  2
*D21
  0
BLOCK_RECORD
  5
542
100
AcDbSymbolTableRecord
100
AcDbBlockTableRecord
  2
*D22
  0
BLOCK_RECORD
  5
543
100
AcDbSymbolTableRecord
100
AcDbBlockTableRecord
  2
*D23
  0
BLOCK_RECORD
  5
544
100
AcDbSymbolTableRecord
100
AcDbBlockTableRecord
  2
*D24
  0
BLOCK_RECORD
  5
545
100
AcDbSymbolTableRecord
100
AcDbBlockTableRecord
  2
*D25
  0
BLOCK_RECORD
  5
546
100
AcDbSymbolTableRecord
100
AcDbBlockTableRecord
  2
*D26
  0
BLOCK_RECORD
  5
547
100
AcDbSymbolTableRecord
100
AcDbBlockTableRecord
  2
*D27
  0
BLOCK_RECORD
  5
548
100
AcDbSymbolTableRecord
100
AcDbBlockTableRecord
  2
*D28
  0
BLOCK_RECORD
  5
549
100
AcDbSymbolTableRecord
100
AcDbBlockTableRecord
  2
*D29
  0
BLOCK_RECORD
  5
54A
100
AcDbSymbolTableRecord
100
AcDbBlockTableRecord
  2
*D30
  0
BLOCK_RECORD
  5
54B
100
AcDbSymbolTableRecord
100
AcDbBlockTableRecord
  2
*D31
  0
BLOCK_RECORD
  5
54C
100
AcDbSymbolTableRecord
100
AcDbBlockTableRecord
  2
*X0
  0
BLOCK_RECORD
  5
54D
100
AcDbSymbolTableRecord
100
AcDbBlockTableRecord
  2
*X1
  0
BLOCK_RECORD
  5
54E
100
AcDbSymbolTableRecord
100
AcDbBlockTableRecord
  2
*X2
  0
BLOCK_RECORD
  5
54F
100
AcDbSymbolTableRecord
100
AcDbBlockTableRecord
  2
*X3
  0
BLOCK_RECORD
  5
550
100
AcDbSymbolTableRecord
100
AcDbBlockTableRecord
  2
*X4
  0
BLOCK_RECORD
  5
551
100
AcDbSymbolTableRecord
100
AcDbBlockTableRecord
  2
*X5
  0
BLOCK_RECORD
  5
552
100
AcDbSymbolTableRecord
100
AcDbBlockTableRecord
  2
*X6
  0
BLOCK_RECORD
  5
553
100
AcDbSymbolTableRecord
100
AcDbBlockTableRecord
  2
*X7
  0
BLOCK_RECORD
  5
554
100
AcDbSymbolTableRecord
100
AcDbBlockTableRecord
  2
M0
  0
BLOCK_RECORD
  5
555
100
AcDbSymbolTableRecord
100
AcDbBlockTableRecord
  2
M1
  0
BLOCK_RECORD
  5
556
100
AcDbSymbolTableRecord
100
AcDbBlockTableRecord
  2
*D32
  0
BLOCK_RECORD
  5
557
100
AcDbSymbolTableRecord
100
AcDbBlockTableRecord
  2
*D33
  0
BLOCK_RECORD
  5
558
100
AcDbSymbolTableRecord
100
AcDbBlockTableRecord
  2
*D34
  0
BLOCK_RECORD
  5
559
100
AcDbSymbolTableRecord
100
AcDbBlockTableRecord
  2
*D35
  0
ENDTAB
  0
ENDSEC
  0
SECTION
  2
BLOCKS
  0
BLOCK
  5
55A
100
AcDbEntity
  8
0
100
AcDbBlockBegin
  2
*MODEL_SPACE
 70
     0
 10
0.0
 20
0.0
 30
0.0
  3
*MODEL_SPACE
  1

  0
ENDBLK
  5
55B
100
AcDbEntity
  8
0
100
AcDbBlockEnd
  0
BLOCK
  5
55C
100
AcDbEntity
  8
0
100
AcDbBlockBegin
  2
*PAPER_SPACE
 70
     0
 10
0.0
 20
0.0
 30
0.0
  3
*PAPER_SPACE
  1

  0
ENDBLK
  5
55D
100
AcDbEntity
  8
0
100
AcDbBlockEnd
  0
BLOCK
  5
2
100
AcDbEntity
  8
0
100
AcDbBlockBegin
  2
_NONE
 70
     0
 10
0.0
 20
0.0
 30
0.0
  3
_NONE
  1

  0
ENDBLK
  5
3
100
AcDbEntity
  8
0
100
AcDbBlockEnd
  0
BLOCK
  5
5
100
AcDbEntity
  8
0
100
AcDbBlockBegin
  2
_CLOSED
 70
     0
 10
0.0
 20
0.0
 30
0.0
  3
_CLOSED
  1

  0
LINE
  5
6
100
AcDbEntity
  8
0
  6
BYBLOCK
 62
     0
100
AcDbLine
 10
-1.0
 20
0.166667
 30
0.0
 11
0.0
 21
0.0
 31
0.0
  0
LINE
  5
7
100
AcDbEntity
  8
0
  6
BYBLOCK
 62
     0
100
AcDbLine
 10
0.0
 20
0.0
 30
0.0
 11
-1.0
 21
-0.166667
 31
0.0
  0
LINE
  5
8
100
AcDbEntity
  8
0
  6
BYBLOCK
 62
     0
100
AcDbLine
 10
-1.0
 20
0.166667
 30
0.0
 11
-1.0
 21
-0.166667
 31
0.0
  0
LINE
  5
9
100
AcDbEntity
  8
0
  6
BYBLOCK
 62
     0
100
AcDbLine
 10
0.0
 20
0.0
 30
0.0
 11
-1.0
 21
0.0
 31
0.0
  0
ENDBLK
  5
A
100
AcDbEntity
  8
0
100
AcDbBlockEnd
  0
BLOCK
  5
C
100
AcDbEntity
  8
0
100
AcDbBlockBegin
  2
_DOT
 70
     0
 10
0.0
 20
0.0
 30
0.0
  3
_DOT
  1

  0
POLYLINE
  5
D
100
AcDbEntity
  8
0
  6
BYBLOCK
 62
     0
100
AcDb2dPolyline
 66
     1
 10
0.0
 20
0.0
 30
0.0
 70
     1
 40
0.5
 41
0.5
  0
VERTEX
  5
E
100
AcDbEntity
  8
0
  6
BYBLOCK
 62
     0
100
AcDbVertex
100
AcDb2dVertex
 10
-0.25
 20
0.0
 30
0.0
 42
1.0
  0
VERTEX
  5
F
100
AcDbEntity
  8
0
  6
BYBLOCK
 62
     0
100
AcDbVertex
100
AcDb2dVertex
 10
0.25
 20
0.0
 30
0.0
 42
1.0
  0
SEQEND
  5
10
100
AcDbEntity
  8
0
  6
BYBLOCK
 62
     0
  0
LINE
  5
11
100
AcDbEntity
  8
0
  6
BYBLOCK
 62
     0
100
AcDbLine
 10
-0.5
 20
0.0
 30
0.0
 11
-1.0
 21
0.0
 31
0.0
  0
ENDBLK
  5
12
100
AcDbEntity
  8
0
100
AcDbBlockEnd
  0
BLOCK
  5
14
100
AcDbEntity
  8
0
100
AcDbBlockBegin
  2
_OPEN
 70
     0
 10
0.0
 20
0.0
 30
0.0
  3
_OPEN
  1

  0
LINE
  5
15
100
AcDbEntity
  8
0
  6
BYBLOCK
 62
     0
100
AcDbLine
 10
-1.0
 20
0.166667
 30
0.0
 11
0.0
 21
0.0
 31
0.0
  0
LINE
  5
16
100
AcDbEntity
  8
0
  6
BYBLOCK
 62
     0
100
AcDbLine
 10
0.0
 20
0.0
 30
0.0
 11
-1.0
 21
-0.166667
 31
0.0
  0
LINE
  5
17
100
AcDbEntity
  8
0
  6
BYBLOCK
 62
     0
100
AcDbLine
 10
0.0
 20
0.0
 30
0.0
 11
-1.0
 21
0.0
 31
0.0
  0
ENDBLK
  5
18
100
AcDbEntity
  8
0
100
AcDbBlockEnd
  0
BLOCK
  5
1A
100
AcDbEntity
  8
0
100
AcDbBlockBegin
  2
_ORIGIN
 70
     0
 10
0.0
 20
0.0
 30
0.0
  3
_ORIGIN
  1

  0
CIRCLE
  5
1B
100
AcDbEntity
  8
0
  6
BYBLOCK
 62
     0
100
AcDbCircle
 10
0.0
 20
0.0
 30
0.0
 40
0.5
  0
LINE
  5
1C
100
AcDbEntity
  8
0
  6
BYBLOCK
 62
     0
100
AcDbLine
 10
0.0
 20
0.0
 30
0.0
 11
-1.0
 21
0.0
 31
0.0
  0
ENDBLK
  5
1D
100
AcDbEntity
  8
0
100
AcDbBlockEnd
  0
BLOCK
  5
1F
100
AcDbEntity
  8
0
100
AcDbBlockBegin
  2
_OPEN30
 70
     0
 10
0.0
 20
0.0
 30
0.0
  3
_OPEN30
  1

  0
LINE
  5
20
100
AcDbEntity
  8
0
  6
BYBLOCK
 62
     0
100
AcDbLine
 10
-1.0
 20
0.267949
 30
0.0
 11
0.0
 21
0.0
 31
0.0
  0
LINE
  5
21
100
AcDbEntity
  8
0
  6
BYBLOCK
 62
     0
100
AcDbLine
 10
0.0
 20
0.0
 30
0.0
 11
-1.0
 21
-0.267949
 31
0.0
  0
LINE
  5
22
100
AcDbEntity
  8
0
  6
BYBLOCK
 62
     0
100
AcDbLine
 10
0.0
 20
0.0
 30
0.0
 11
-1.0
 21
0.0
 31
0.0
  0
ENDBLK
  5
23
100
AcDbEntity
  8
0
100
AcDbBlockEnd
  0
BLOCK
  5
25
100
AcDbEntity
  8
0
100
AcDbBlockBegin
  2
_BOXFILLED
 70
     0
 10
0.0
 20
0.0
 30
0.0
  3
_BOXFILLED
  1

  0
SOLID
  5
26
100
AcDbEntity
  8
0
  6
BYBLOCK
 62
     0
100
AcDbTrace
 10
-0.5
 20
0.5
 30
0.0
 11
0.5
 21
0.5
 31
0.0
 12
-0.5
 22
-0.5
 32
0.0
 13
0.5
 23
-0.5
 33
0.0
  0
LINE
  5
27
100
AcDbEntity
  8
0
  6
BYBLOCK
 62
     0
100
AcDbLine
 10
-0.5
 20
0.0
 30
0.0
 11
-1.0
 21
0.0
 31
0.0
  0
ENDBLK
  5
28
100
AcDbEntity
  8
0
100
AcDbBlockEnd
  0
BLOCK
  5
2A
100
AcDbEntity
  8
0
100
AcDbBlockBegin
  2
_BOXBLANK
 70
     0
 10
0.0
 20
0.0
 30
0.0
  3
_BOXBLANK
  1

  0
LINE
  5
2B
100
AcDbEntity
  8
0
  6
BYBLOCK
 62
     0
100
AcDbLine
 10
-0.5
 20
-0.5
 30
0.0
 11
0.5
 21
-0.5
 31
0.0
  0
LINE
  5
2C
100
AcDbEntity
  8
0
  6
BYBLOCK
 62
     0
100
AcDbLine
 10
0.5
 20
-0.5
 30
0.0
 11
0.5
 21
0.5
 31
0.0
  0
LINE
  5
2D
100
AcDbEntity
  8
0
  6
BYBLOCK
 62
     0
100
AcDbLine
 10
0.5
 20
0.5
 30
0.0
 11
-0.5
 21
0.5
 31
0.0
  0
LINE
  5
2E
100
AcDbEntity
  8
0
  6
BYBLOCK
 62
     0
100
AcDbLine
 10
-0.5
 20
0.5
 30
0.0
 11
-0.5
 21
-0.5
 31
0.0
  0
LINE
  5
2F
100
AcDbEntity
  8
0
  6
BYBLOCK
 62
     0
100
AcDbLine
 10
-0.5
 20
0.0
 30
0.0
 11
-1.0
 21
0.0
 31
0.0
  0
ENDBLK
  5
30
100
AcDbEntity
  8
0
100
AcDbBlockEnd
  0
BLOCK
  5
32
100
AcDbEntity
  8
0
100
AcDbBlockBegin
  2
_OBLIQUE
 70
     0
 10
0.0
 20
0.0
 30
0.0
  3
_OBLIQUE
  1

  0
LINE
  5
33
100
AcDbEntity
  8
0
  6
BYBLOCK
 62
     0
100
AcDbLine
 10
-0.5
 20
-0.5
 30
0.0
 11
0.5
 21
0.5
 31
0.0
  0
ENDBLK
  5
34
100
AcDbEntity
  8
0
100
AcDbBlockEnd
  0
BLOCK
  5
36
100
AcDbEntity
  8
0
100
AcDbBlockBegin
  2
_OPEN90
 70
     0
 10
0.0
 20
0.0
 30
0.0
  3
_OPEN90
  1

  0
LINE
  5
37
100
AcDbEntity
  8
0
  6
BYBLOCK
 62
     0
100
AcDbLine
 10
-0.5
 20
0.5
 30
0.0
 11
0.0
 21
0.0
 31
0.0
  0
LINE
  5
38
100
AcDbEntity
  8
0
  6
BYBLOCK
 62
     0
100
AcDbLine
 10
0.0
 20
0.0
 30
0.0
 11
-0.5
 21
-0.5
 31
0.0
  0
LINE
  5
39
100
AcDbEntity
  8
0
  6
BYBLOCK
 62
     0
100
AcDbLine
 10
0.0
 20
0.0
 30
0.0
 11
-1.0
 21
0.0
 31
0.0
  0
ENDBLK
  5
3A
100
AcDbEntity
  8
0
100
AcDbBlockEnd
  0
BLOCK
  5
3C
100
AcDbEntity
  8
0
100
AcDbBlockBegin
  2
_CLOSEDBLANK
 70
     0
 10
0.0
 20
0.0
 30
0.0
  3
_CLOSEDBLANK
  1

  0
LINE
  5
3D
100
AcDbEntity
  8
0
  6
BYBLOCK
 62
     0
100
AcDbLine
 10
-1.0
 20
0.1666666666666666
 30
0.0
 11
0.0
 21
0.0
 31
0.0
  0
LINE
  5
3E
100
AcDbEntity
  8
0
  6
BYBLOCK
 62
     0
100
AcDbLine
 10
0.0
 20
0.0
 30
0.0
 11
-1.0
 21
-0.1666666666666666
 31
0.0
  0
LINE
  5
3F
100
AcDbEntity
  8
0
  6
BYBLOCK
 62
     0
100
AcDbLine
 10
-1.0
 20
0.1666666666666666
 30
0.0
 11
-1.0
 21
-0.1666666666666666
 31
0.0
  0
ENDBLK
  5
40
100
AcDbEntity
  8
0
100
AcDbBlockEnd
  0
BLOCK
  5
42
100
AcDbEntity
  8
0
100
AcDbBlockBegin
  2
_DOTBLANK
 70
     0
 10
0.0
 20
0.0
 30
0.0
  3
_DOTBLANK
  1

  0
CIRCLE
  5
43
100
AcDbEntity
  8
0
  6
BYBLOCK
 62
     0
100
AcDbCircle
 10
0.0
 20
0.0
 30
0.0
 40
0.5
  0
LINE
  5
44
100
AcDbEntity
  8
0
  6
BYBLOCK
 62
     0
100
AcDbLine
 10
-0.5
 20
0.0
 30
0.0
 11
-1.0
 21
0.0
 31
0.0
  0
ENDBLK
  5
45
100
AcDbEntity
  8
0
100
AcDbBlockEnd
  0
BLOCK
  5
95
100
AcDbEntity
  8
MAIN0
  6
CONTINUOUS
 62
3
100
AcDbBlockBegin
  2
*D0
 70
    65
 10
0.0
 20
0.0
 30
0.0
  0
LINE
  5
96
100
AcDbEntity
  8
MAIN0
  6
BYBLOCK
 62
0
100
AcDbLine
 10
138.8670233146702
 20
393.3500732035132
 30
0.0000000000000000
 11
147.9944657059262
 21
384.2226308122514
 31
0.0000000000000000
  0
LINE
  5
97
100
AcDbEntity
  8
MAIN0
  6
BYBLOCK
 62
0
100
AcDbLine
 10
145.1660385811796
 20
384.2226308122528
 30
0.0000000000000000
 11
140.9233978940567
 21
379.9799901251349
 31
0.0000000000000000
  0
INSERT
  5
98
100
AcDbEntity
  8
MAIN0
  6
BYBLOCK
 62
0
100
AcDbBlockReference
  2
_OPEN
 10
146.5802521435536
 20
385.6368443746250
 30
0.0000000000000000
 41
2.000000000000000
 42
2.000000000000000
 43
2.000000000000000
 50
44.99999999996584
  0
INSERT
  5
99
100
AcDbEntity
  8
MAIN0
  6
BYBLOCK
 62
0
100
AcDbBlockReference
  2
_OPEN
 10
139.5091843316828
 20
378.5657765627626
 30
0.0000000000000000
 41
2.000000000000000
 42
2.000000000000000
 43
2.000000000000000
 50
224.9999999999658
  0
LINE
  5
9A
100
AcDbEntity
  8
MAIN0
  6
BYBLOCK
 62
0
100
AcDbLine
 10
146.5802521435536
 20
385.6368443746250
 30
0.0000000000000000
 11
158.0025632930889
 21
397.0591555241467
 31
0.0000000000000000
  0
LINE
  5
9B
100
AcDbEntity
  8
MAIN0
  6
BYBLOCK
 62
0
100
AcDbLine
 10
131.7959555028095
 20
386.2790053916451
 30
0.0000000000000000
 11
140.9233978940551
 21
377.1515630003887
 31
0.0000000000000000
  0
MTEXT
  5
9C
100
AcDbEntity
  8
MAIN0
  6
BYBLOCK
 62
0
100
AcDbMText
 10
151.2673718194557
 20
393.2231017859497
 30
0.0000000000000000
 40
3.099999904632568
 41
0.0000000000000000
 71
     5
 72
     1
  1
\A1;□10\H0.903226x;\S＋0.15^ ＋0.05;
 11
0.7071067811869687
 21
0.7071067811861264
 31
0.0000000000000000
  7
KNJYOKO
  0
ENDBLK
  5
9D
100
AcDbEntity
  8
MAIN0
  6
CONTINUOUS
 62
3
100
AcDbBlockEnd
  0
BLOCK
  5
BC
100
AcDbEntity
  8
MAIN0
  6
CONTINUOUS
 62
3
100
AcDbBlockBegin
  2
*D1
 70
    65
 10
0.0
 20
0.0
 30
0.0
  0
LINE
  5
BD
100
AcDbEntity
  8
MAIN0
  6
BYBLOCK
 62
0
100
AcDbLine
 10
120.4739399959391
 20
234.7639818210366
 30
0.0000000000000000
 11
90.77394000786006
 21
234.7639818210366
 31
0.0000000000000000
  0
LINE
  5
BE
100
AcDbEntity
  8
MAIN0
  6
BYBLOCK
 62
0
100
AcDbLine
 10
92.77394000786006
 20
236.7639818210366
 30
0.0000000000000000
 11
92.77394000786006
 21
277.7639818210366
 31
0.0000000000000000
  0
INSERT
  5
BF
100
AcDbEntity
  8
MAIN0
  6
BYBLOCK
 62
0
100
AcDbBlockReference
  2
_OPEN
 10
92.77394000786006
 20
234.7639818210366
 30
0.0000000000000000
 41
2.000000000000000
 42
2.000000000000000
 43
2.000000000000000
 50
270.0000000000000
  0
INSERT
  5
C0
100
AcDbEntity
  8
MAIN0
  6
BYBLOCK
 62
0
100
AcDbBlockReference
  2
_OPEN
 10
92.77394000786006
 20
279.7639818210366
 30
0.0000000000000000
 41
2.000000000000000
 42
2.000000000000000
 43
2.000000000000000
 50
90.00000000000000
  0
LINE
  5
C1
100
AcDbEntity
  8
MAIN0
  6
BYBLOCK
 62
0
100
AcDbLine
 10
120.4739399959391
 20
279.7639818210366
 30
0.0000000000000000
 11
90.77394000786006
 21
279.7639818210366
 31
0.0000000000000000
  0
MTEXT
  5
C2
100
AcDbEntity
  8
MAIN0
  6
BYBLOCK
 62
0
100
AcDbMText
 10
90.72394005554378
 20
254.7887404854293
 30
0.0000000000000000
 40
3.099999904632568
 41
0.0000000000000000
 71
     5
 72
     1
  1
\A1;\U+220545
 11
6.123233995736766e-017
 21
1.000000000000000
 31
0.0000000000000000
  7
STANDARD
  0
ENDBLK
  5
C3
100
AcDbEntity
  8
MAIN0
  6
CONTINUOUS
 62
3
100
AcDbBlockEnd
  0
BLOCK
  5
C5
100
AcDbEntity
  8
MAIN0
  6
CONTINUOUS
 62
3
100
AcDbBlockBegin
  2
*D2
 70
    65
 10
0.0
 20
0.0
 30
0.0
  0
LINE
  5
C6
100
AcDbEntity
  8
MAIN0
  6
BYBLOCK
 62
0
100
AcDbLine
 10
106.9739399959391
 20
322.2639818210366
 30
0.0000000000000000
 11
80.77394000786006
 21
322.2639818210366
 31
0.0000000000000000
  0
LINE
  5
C7
100
AcDbEntity
  8
MAIN0
  6
BYBLOCK
 62
0
100
AcDbLine
 10
82.77394000786006
 20
320.2639818210366
 30
0.0000000000000000
 11
82.77394000786006
 21
194.2639818210366
 31
0.0000000000000000
  0
INSERT
  5
C8
100
AcDbEntity
  8
MAIN0
  6
BYBLOCK
 62
0
100
AcDbBlockReference
  2
_OPEN
 10
82.77394000786006
 20
322.2639818210366
 30
0.0000000000000000
 41
2.000000000000000
 42
2.000000000000000
 43
2.000000000000000
 50
90.00000000000000
  0
INSERT
  5
C9
100
AcDbEntity
  8
MAIN0
  6
BYBLOCK
 62
0
100
AcDbBlockReference
  2
_OPEN
 10
82.77394000786006
 20
192.2639818210366
 30
0.0000000000000000
 41
2.000000000000000
 42
2.000000000000000
 43
2.000000000000000
 50
270.0000000000000
  0
LINE
  5
CA
100
AcDbEntity
  8
MAIN0
  6
BYBLOCK
 62
0
100
AcDbLine
 10
106.9739399959391
 20
192.2639818210366
 30
0.0000000000000000
 11
80.77394000786006
 21
192.2639818210366
 31
0.0000000000000000
  0
MTEXT
  5
CB
100
AcDbEntity
  8
MAIN0
  6
BYBLOCK
 62
0
100
AcDbMText
 10
80.72394005554378
 20
263.0675432433538
 30
0.0000000000000000
 40
3.099999904632568
 41
0.0000000000000000
 71
     5
 72
     1
  1
\A1;\U+2205130H6\H0.903226x;\S＋0.025^ 　0;
 11
6.123233995736766e-017
 21
1.000000000000000
 31
0.0000000000000000
  7
KNJYOKO
  0
ENDBLK
  5
CC
100
AcDbEntity
  8
MAIN0
  6
CONTINUOUS
 62
3
100
AcDbBlockEnd
  0
BLOCK
  5
CE
100
AcDbEntity
  8
MAIN0
  6
CONTINUOUS
 62
3
100
AcDbBlockBegin
  2
*D3
 70
    65
 10
0.0
 20
0.0
 30
0.0
  0
LINE
  5
CF
100
AcDbEntity
  8
MAIN0
  6
BYBLOCK
 62
0
100
AcDbLine
 10
172.9739400197810
 20
338.2639818210366
 30
0.0000000000000000
 11
184.7739400078601
 21
338.2639818210366
 31
0.0000000000000000
  0
LINE
  5
D0
100
AcDbEntity
  8
MAIN0
  6
BYBLOCK
 62
0
100
AcDbLine
 10
182.7739400078601
 20
336.2639818210366
 30
0.0000000000000000
 11
182.7739400078601
 21
323.2639818210366
 31
0.0000000000000000
  0
INSERT
  5
D1
100
AcDbEntity
  8
MAIN0
  6
BYBLOCK
 62
0
100
AcDbBlockReference
  2
_OPEN
 10
182.7739400078601
 20
338.2639818210366
 30
0.0000000000000000
 41
2.000000000000000
 42
2.000000000000000
 43
2.000000000000000
 50
90.00000000000000
  0
INSERT
  5
D2
100
AcDbEntity
  8
MAIN0
  6
BYBLOCK
 62
0
100
AcDbBlockReference
  2
_OPEN
 10
182.7739400078601
 20
321.2639818210366
 30
0.0000000000000000
 41
2.000000000000000
 42
2.000000000000000
 43
2.000000000000000
 50
270.0000000000000
  0
LINE
  5
D3
100
AcDbEntity
  8
MAIN0
  6
BYBLOCK
 62
0
100
AcDbLine
 10
172.9739400197810
 20
321.2639818210366
 30
0.0000000000000000
 11
184.7739400078601
 21
321.2639818210366
 31
0.0000000000000000
  0
MTEXT
  5
D4
100
AcDbEntity
  8
MAIN0
  6
BYBLOCK
 62
0
100
AcDbMText
 10
180.7239400555438
 20
329.7639818210366
 30
0.0000000000000000
 40
3.099999904632568
 41
0.0000000000000000
 71
     5
 72
     1
  1
\A1;\U+220517
 11
6.123233995736766e-017
 21
1.000000000000000
 31
0.0000000000000000
  7
STANDARD
  0
ENDBLK
  5
D5
100
AcDbEntity
  8
MAIN0
  6
CONTINUOUS
 62
3
100
AcDbBlockEnd
  0
BLOCK
  5
DB
100
AcDbEntity
  8
MAIN0
  6
CONTINUOUS
 62
3
100
AcDbBlockBegin
  2
*D4
 70
    65
 10
0.0
 20
0.0
 30
0.0
  0
LINE
  5
DC
100
AcDbEntity
  8
MAIN0
  6
BYBLOCK
 62
0
100
AcDbLine
 10
107.3739399959391
 20
335.7639818210366
 30
0.0000000000000000
 11
90.77394000786006
 21
335.7639818210366
 31
0.0000000000000000
  0
LINE
  5
DD
100
AcDbEntity
  8
MAIN0
  6
BYBLOCK
 62
0
100
AcDbLine
 10
92.77394000786006
 20
333.7639818210366
 30
0.0000000000000000
 11
92.77394000786006
 21
325.7639818210366
 31
0.0000000000000000
  0
INSERT
  5
DE
100
AcDbEntity
  8
MAIN0
  6
BYBLOCK
 62
0
100
AcDbBlockReference
  2
_OPEN
 10
92.77394000786006
 20
335.7639818210366
 30
0.0000000000000000
 41
2.000000000000000
 42
2.000000000000000
 43
2.000000000000000
 50
90.00000000000000
  0
INSERT
  5
DF
100
AcDbEntity
  8
MAIN0
  6
BYBLOCK
 62
0
100
AcDbBlockReference
  2
_OPEN
 10
92.77394000786006
 20
323.7639818210366
 30
0.0000000000000000
 41
2.000000000000000
 42
2.000000000000000
 43
2.000000000000000
 50
270.0000000000000
  0
LINE
  5
E0
100
AcDbEntity
  8
MAIN0
  6
BYBLOCK
 62
0
100
AcDbLine
 10
107.3739399959391
 20
323.7639818210366
 30
0.0000000000000000
 11
90.77394000786006
 21
323.7639818210366
 31
0.0000000000000000
  0
MTEXT
  5
E1
100
AcDbEntity
  8
MAIN0
  6
BYBLOCK
 62
0
100
AcDbMText
 10
90.72394005554378
 20
329.7639818210366
 30
0.0000000000000000
 40
3.099999904632568
 41
0.0000000000000000
 71
     5
 72
     1
  1
\A1;\U+220512
 11
6.123233995736766e-017
 21
1.000000000000000
 31
0.0000000000000000
  7
STANDARD
  0
ENDBLK
  5
E2
100
AcDbEntity
  8
MAIN0
  6
CONTINUOUS
 62
3
100
AcDbBlockEnd
  0
BLOCK
  5
100
100
AcDbEntity
  8
MAIN0
  6
CONTINUOUS
 62
3
100
AcDbBlockBegin
  2
*D5
 70
    65
 10
0.0
 20
0.0
 30
0.0
  0
LINE
  5
101
100
AcDbEntity
  8
MAIN0
  6
BYBLOCK
 62
0
100
AcDbLine
 10
212.5739400197810
 20
270.2639818210366
 30
0.0000000000000000
 11
224.7739400078601
 21
270.2639818210366
 31
0.0000000000000000
  0
LINE
  5
102
100
AcDbEntity
  8
MAIN0
  6
BYBLOCK
 62
0
100
AcDbLine
 10
222.7739400078601
 20
268.2639818210366
 30
0.0000000000000000
 11
222.7739400078601
 21
246.2639818210366
 31
0.0000000000000000
  0
INSERT
  5
103
100
AcDbEntity
  8
MAIN0
  6
BYBLOCK
 62
0
100
AcDbBlockReference
  2
_OPEN
 10
222.7739400078601
 20
270.2639818210366
 30
0.0000000000000000
 41
2.000000000000000
 42
2.000000000000000
 43
2.000000000000000
 50
90.00000000000000
  0
INSERT
  5
104
100
AcDbEntity
  8
MAIN0
  6
BYBLOCK
 62
0
100
AcDbBlockReference
  2
_OPEN
 10
222.7739400078601
 20
244.2639818210366
 30
0.0000000000000000
 41
2.000000000000000
 42
2.000000000000000
 43
2.000000000000000
 50
270.0000000000000
  0
LINE
  5
105
100
AcDbEntity
  8
MAIN0
  6
BYBLOCK
 62
0
100
AcDbLine
 10
212.5739400197810
 20
244.2639818210366
 30
0.0000000000000000
 11
224.7739400078601
 21
244.2639818210366
 31
0.0000000000000000
  0
MTEXT
  5
106
100
AcDbEntity
  8
MAIN0
  6
BYBLOCK
 62
0
100
AcDbMText
 10
220.7239400555438
 20
257.2639818210366
 30
0.0000000000000000
 40
3.099999904632568
 41
0.0000000000000000
 71
     5
 72
     1
  1
\A1;26
 11
6.123233995736766e-017
 21
1.000000000000000
 31
0.0000000000000000
  7
STANDARD
  0
ENDBLK
  5
107
100
AcDbEntity
  8
MAIN0
  6
CONTINUOUS
 62
3
100
AcDbBlockEnd
  0
BLOCK
  5
109
100
AcDbEntity
  8
MAIN0
  6
CONTINUOUS
 62
3
100
AcDbBlockBegin
  2
*D6
 70
    65
 10
0.0
 20
0.0
 30
0.0
  0
LINE
  5
10A
100
AcDbEntity
  8
MAIN0
  6
BYBLOCK
 62
0
100
AcDbLine
 10
211.9739488656512
 20
240.2640195310756
 30
0.0000000000000000
 11
234.7739400078601
 21
240.2640195310723
 31
0.0000000000000000
  0
LINE
  5
10B
100
AcDbEntity
  8
MAIN0
  6
BYBLOCK
 62
0
100
AcDbLine
 10
232.7739400078601
 20
238.2640195310726
 30
0.0000000000000000
 11
232.7739400078601
 21
174.2640195310805
 31
0.0000000000000000
  0
INSERT
  5
10C
100
AcDbEntity
  8
MAIN0
  6
BYBLOCK
 62
0
100
AcDbBlockReference
  2
_OPEN
 10
232.7739400078601
 20
240.2640195310726
 30
0.0000000000000000
 41
2.000000000000000
 42
2.000000000000000
 43
2.000000000000000
 50
90.00000000000000
  0
INSERT
  5
10D
100
AcDbEntity
  8
MAIN0
  6
BYBLOCK
 62
0
100
AcDbBlockReference
  2
_OPEN
 10
232.7739400078601
 20
172.2640195310805
 30
0.0000000000000000
 41
2.000000000000000
 42
2.000000000000000
 43
2.000000000000000
 50
270.0000000000000
  0
LINE
  5
10E
100
AcDbEntity
  8
MAIN0
  6
BYBLOCK
 62
0
100
AcDbLine
 10
194.4739488656324
 20
172.2640195310805
 30
0.0000000000000000
 11
234.7739400078601
 21
172.2640195310805
 31
0.0000000000000000
  0
MTEXT
  5
10F
100
AcDbEntity
  8
MAIN0
  6
BYBLOCK
 62
0
100
AcDbMText
 10
230.7239400555438
 20
206.2640195310765
 30
0.0000000000000000
 40
3.099999904632568
 41
0.0000000000000000
 71
     5
 72
     1
  1
\A1;68
 11
6.123233995736766e-017
 21
1.000000000000000
 31
0.0000000000000000
  7
STANDARD
  0
ENDBLK
  5
110
100
AcDbEntity
  8
MAIN0
  6
CONTINUOUS
 62
3
100
AcDbBlockEnd
  0
BLOCK
  5
13F
100
AcDbEntity
  8
MAIN0
  6
CONTINUOUS
 62
3
100
AcDbBlockBegin
  2
*D7
 70
    65
 10
0.0
 20
0.0
 30
0.0
  0
LINE
  5
140
100
AcDbEntity
  8
MAIN0
  6
BYBLOCK
 62
0
100
AcDbLine
 10
294.6561622534214
 20
201.4866814066312
 30
0.0000000000000000
 11
341.1284619954383
 21
261.6034025980876
 31
0.0000000000000000
  0
INSERT
  5
141
100
AcDbEntity
  8
MAIN0
  6
BYBLOCK
 62
0
100
AcDbBlockReference
  2
_OPEN
 10
293.4329628845011
 20
199.9043466431020
 30
0.0000000000000000
 41
2.000000000000000
 42
2.000000000000000
 43
2.000000000000000
 50
232.2947393399683
  0
MTEXT
  5
142
100
AcDbEntity
  8
MAIN0
  6
BYBLOCK
 62
0
100
AcDbMText
 10
311.7740446719737
 20
226.9822965335772
 30
0.0000000000000000
 40
3.099999904632568
 41
0.0000000000000000
 71
     5
 72
     1
  1
\A1;\U+2205145\H0.903226x;\U+00B10.2
 11
0.6115996844601237
 21
0.7911673817646157
 31
0.0000000000000000
  7
STANDARD
  0
ENDBLK
  5
143
100
AcDbEntity
  8
MAIN0
  6
CONTINUOUS
 62
3
100
AcDbBlockEnd
  0
BLOCK
  5
14E
100
AcDbEntity
  8
MAIN0
  6
CONTINUOUS
 62
3
100
AcDbBlockBegin
  2
*D8
 70
    65
 10
0.0
 20
0.0
 30
0.0
  0
LINE
  5
14F
100
AcDbEntity
  8
MAIN0
  6
BYBLOCK
 62
0
100
AcDbLine
 10
211.9739488656455
 20
219.7640195310756
 30
0.0000000000000000
 11
224.7739400078601
 21
219.7640195310741
 31
0.0000000000000000
  0
LINE
  5
150
100
AcDbEntity
  8
MAIN0
  6
BYBLOCK
 62
0
100
AcDbLine
 10
222.7739400078601
 20
221.7640195310743
 30
0.0000000000000000
 11
222.7739400078601
 21
238.2640195310757
 31
0.0000000000000000
  0
INSERT
  5
151
100
AcDbEntity
  8
MAIN0
  6
BYBLOCK
 62
0
100
AcDbBlockReference
  2
_OPEN
 10
222.7739400078601
 20
219.7640195310743
 30
0.0000000000000000
 41
2.000000000000000
 42
2.000000000000000
 43
2.000000000000000
 50
270.0000000000000
  0
INSERT
  5
152
100
AcDbEntity
  8
MAIN0
  6
BYBLOCK
 62
0
100
AcDbBlockReference
  2
_OPEN
 10
222.7739400078601
 20
240.2640195310757
 30
0.0000000000000000
 41
2.000000000000000
 42
2.000000000000000
 43
2.000000000000000
 50
90.00000000000000
  0
LINE
  5
153
100
AcDbEntity
  8
MAIN0
  6
BYBLOCK
 62
0
100
AcDbLine
 10
211.9739488656512
 20
240.2640195310757
 30
0.0000000000000000
 11
224.7739400078601
 21
240.2640195310757
 31
0.0000000000000000
  0
MTEXT
  5
154
100
AcDbEntity
  8
MAIN0
  6
BYBLOCK
 62
0
100
AcDbMText
 10
220.7239400555438
 20
230.0140195310750
 30
0.0000000000000000
 40
3.099999904632568
 41
0.0000000000000000
 71
     5
 72
     1
  1
\A1;20.5
 11
6.123233995736766e-017
 21
1.000000000000000
 31
0.0000000000000000
  7
STANDARD
  0
ENDBLK
  5
155
100
AcDbEntity
  8
MAIN0
  6
CONTINUOUS
 62
3
100
AcDbBlockEnd
  0
BLOCK
  5
157
100
AcDbEntity
  8
MAIN0
  6
CONTINUOUS
 62
3
100
AcDbBlockBegin
  2
*D9
 70
    65
 10
0.0
 20
0.0
 30
0.0
  0
LINE
  5
158
100
AcDbEntity
  8
MAIN0
  6
BYBLOCK
 62
0
100
AcDbLine
 10
211.9739488656455
 20
219.7640195310757
 30
0.0000000000000000
 11
224.7739400078601
 21
219.7640195310757
 31
0.0000000000000000
  0
LINE
  5
159
100
AcDbEntity
  8
MAIN0
  6
BYBLOCK
 62
0
100
AcDbLine
 10
222.7739400078601
 20
217.7640195310757
 30
0.0000000000000000
 11
222.7739400078601
 21
200.2640195310782
 31
0.0000000000000000
  0
INSERT
  5
15A
100
AcDbEntity
  8
MAIN0
  6
BYBLOCK
 62
0
100
AcDbBlockReference
  2
_OPEN
 10
222.7739400078601
 20
219.7640195310757
 30
0.0000000000000000
 41
2.000000000000000
 42
2.000000000000000
 43
2.000000000000000
 50
90.00000000000000
  0
INSERT
  5
15B
100
AcDbEntity
  8
MAIN0
  6
BYBLOCK
 62
0
100
AcDbBlockReference
  2
_OPEN
 10
222.7739400078601
 20
198.2640195310782
 30
0.0000000000000000
 41
2.000000000000000
 42
2.000000000000000
 43
2.000000000000000
 50
270.0000000000000
  0
LINE
  5
15C
100
AcDbEntity
  8
MAIN0
  6
BYBLOCK
 62
0
100
AcDbLine
 10
202.9739488656396
 20
198.2640195310782
 30
0.0000000000000000
 11
224.7739400078601
 21
198.2640195310782
 31
0.0000000000000000
  0
MTEXT
  5
15D
100
AcDbEntity
  8
MAIN0
  6
BYBLOCK
 62
0
100
AcDbMText
 10
220.7239400555438
 20
209.0140195310769
 30
0.0000000000000000
 40
3.099999904632568
 41
0.0000000000000000
 71
     5
 72
     1
  1
\A1;21.5
 11
6.123233995736766e-017
 21
1.000000000000000
 31
0.0000000000000000
  7
STANDARD
  0
ENDBLK
  5
15E
100
AcDbEntity
  8
MAIN0
  6
CONTINUOUS
 62
3
100
AcDbBlockEnd
  0
BLOCK
  5
160
100
AcDbEntity
  8
MAIN0
  6
CONTINUOUS
 62
3
100
AcDbBlockBegin
  2
*D10
 70
    65
 10
0.0
 20
0.0
 30
0.0
  0
LINE
  5
161
100
AcDbEntity
  8
MAIN0
  6
BYBLOCK
 62
0
100
AcDbLine
 10
194.4739488656324
 20
172.2640195310805
 30
0.0000000000000000
 11
224.7739400078601
 21
172.2640195310801
 31
0.0000000000000000
  0
LINE
  5
162
100
AcDbEntity
  8
MAIN0
  6
BYBLOCK
 62
0
100
AcDbLine
 10
222.7739400078601
 20
174.2640195310801
 30
0.0000000000000000
 11
222.7739400078601
 21
196.2640195310782
 31
0.0000000000000000
  0
INSERT
  5
163
100
AcDbEntity
  8
MAIN0
  6
BYBLOCK
 62
0
100
AcDbBlockReference
  2
_OPEN
 10
222.7739400078601
 20
172.2640195310801
 30
0.0000000000000000
 41
2.000000000000000
 42
2.000000000000000
 43
2.000000000000000
 50
270.0000000000000
  0
INSERT
  5
164
100
AcDbEntity
  8
MAIN0
  6
BYBLOCK
 62
0
100
AcDbBlockReference
  2
_OPEN
 10
222.7739400078601
 20
198.2640195310782
 30
0.0000000000000000
 41
2.000000000000000
 42
2.000000000000000
 43
2.000000000000000
 50
90.00000000000000
  0
LINE
  5
165
100
AcDbEntity
  8
MAIN0
  6
BYBLOCK
 62
0
100
AcDbLine
 10
202.9739488656396
 20
198.2640195310782
 30
0.0000000000000000
 11
224.7739400078601
 21
198.2640195310782
 31
0.0000000000000000
  0
MTEXT
  5
166
100
AcDbEntity
  8
MAIN0
  6
BYBLOCK
 62
0
100
AcDbMText
 10
220.7239400555438
 20
185.2640195310792
 30
0.0000000000000000
 40
3.099999904632568
 41
0.0000000000000000
 71
     5
 72
     1
  1
\A1;26
 11
6.123233995736766e-017
 21
1.000000000000000
 31
0.0000000000000000
  7
STANDARD
  0
ENDBLK
  5
167
100
AcDbEntity
  8
MAIN0
  6
CONTINUOUS
 62
3
100
AcDbBlockEnd
  0
BLOCK
  5
169
100
AcDbEntity
  8
MAIN0
  6
CONTINUOUS
 62
3
100
AcDbBlockBegin
  2
*D11
 70
    65
 10
0.0
 20
0.0
 30
0.0
  0
LINE
  5
16A
100
AcDbEntity
  8
MAIN0
  6
BYBLOCK
 62
0
100
AcDbLine
 10
211.7739488537248
 20
219.5640195191546
 30
0.0000000000000000
 11
211.7739488537248
 21
207.7640195310779
 31
0.0000000000000000
  0
LINE
  5
16B
100
AcDbEntity
  8
MAIN0
  6
BYBLOCK
 62
0
100
AcDbLine
 10
211.7739488537248
 20
209.7640195310779
 30
0.0000000000000000
 11
203.2739488537236
 21
209.7640195310779
 31
0.0000000000000000
  0
INSERT
  5
16C
100
AcDbEntity
  8
MAIN0
  6
BYBLOCK
 62
0
100
AcDbBlockReference
  2
_OPEN
 10
211.7739488537248
 20
209.7640195310779
 30
0.0000000000000000
 41
2.000000000000000
 42
2.000000000000000
 43
2.000000000000000
 50
180.0000000000000
  0
INSERT
  5
16D
100
AcDbEntity
  8
MAIN0
  6
BYBLOCK
 62
0
100
AcDbBlockReference
  2
_OPEN
 10
203.2739488537236
 20
209.7640195310779
 30
0.0000000000000000
 41
2.000000000000000
 42
2.000000000000000
 43
2.000000000000000
 50
360.0000000000000
  0
LINE
  5
16E
100
AcDbEntity
  8
MAIN0
  6
BYBLOCK
 62
0
100
AcDbLine
 10
213.7739488537248
 20
209.7640195310779
 30
0.0000000000000000
 11
214.7739488537248
 21
209.7640195310779
 31
0.0000000000000000
  0
LINE
  5
16F
100
AcDbEntity
  8
MAIN0
  6
BYBLOCK
 62
0
100
AcDbLine
 10
201.2739488537236
 20
209.7640195310779
 30
0.0000000000000000
 11
200.2739488537236
 21
209.7640195310779
 31
0.0000000000000000
  0
MTEXT
  5
170
100
AcDbEntity
  8
MAIN0
  6
BYBLOCK
 62
0
100
AcDbMText
 10
207.5239488537242
 20
211.8140194833941
 30
0.0000000000000000
 40
3.099999904632568
 41
0.0000000000000000
 71
     5
 72
     1
  1
\A1;8.5
 11
1.000000000000000
 21
0.0000000000000000
 31
0.0000000000000000
  7
STANDARD
  0
ENDBLK
  5
171
100
AcDbEntity
  8
MAIN0
  6
CONTINUOUS
 62
3
100
AcDbBlockEnd
  0
BLOCK
  5
173
100
AcDbEntity
  8
MAIN0
  6
CONTINUOUS
 62
3
100
AcDbBlockBegin
  2
*D12
 70
    65
 10
0.0
 20
0.0
 30
0.0
  0
LINE
  5
174
100
AcDbEntity
  8
MAIN0
  6
BYBLOCK
 62
0
100
AcDbLine
 10
194.7739488537177
 20
190.0024553439194
 30
0.0000000000000000
 11
203.2739488537200
 21
190.0024553439194
 31
0.0000000000000000
  0
INSERT
  5
175
100
AcDbEntity
  8
MAIN0
  6
BYBLOCK
 62
0
100
AcDbBlockReference
  2
_OPEN
 10
194.7739488537177
 20
190.0024553439194
 30
0.0000000000000000
 41
2.000000000000000
 42
2.000000000000000
 43
2.000000000000000
 50
0.0000000000000000
  0
INSERT
  5
176
100
AcDbEntity
  8
MAIN0
  6
BYBLOCK
 62
0
100
AcDbBlockReference
  2
_OPEN
 10
203.2739488537200
 20
190.0024553439194
 30
0.0000000000000000
 41
2.000000000000000
 42
2.000000000000000
 43
2.000000000000000
 50
180.0000000000000
  0
LINE
  5
177
100
AcDbEntity
  8
MAIN0
  6
BYBLOCK
 62
0
100
AcDbLine
 10
192.7739488537177
 20
190.0024553439194
 30
0.0000000000000000
 11
191.7739488537177
 21
190.0024553439194
 31
0.0000000000000000
  0
LINE
  5
178
100
AcDbEntity
  8
MAIN0
  6
BYBLOCK
 62
0
100
AcDbLine
 10
205.2739488537200
 20
190.0024553439194
 30
0.0000000000000000
 11
206.2739488537200
 21
190.0024553439194
 31
0.0000000000000000
  0
LINE
  5
179
100
AcDbEntity
  8
MAIN0
  6
BYBLOCK
 62
0
100
AcDbLine
 10
203.2739488537200
 20
202.4640195191569
 30
0.0000000000000000
 11
203.2739488537200
 21
188.0024553439194
 31
0.0000000000000000
  0
MTEXT
  5
17A
100
AcDbEntity
  8
MAIN0
  6
BYBLOCK
 62
0
100
AcDbMText
 10
199.0239488537189
 20
192.0524552962357
 30
0.0000000000000000
 40
3.099999904632568
 41
0.0000000000000000
 71
     5
 72
     1
  1
\A1;8.5
 11
1.000000000000000
 21
0.0000000000000000
 31
0.0000000000000000
  7
STANDARD
  0
ENDBLK
  5
17B
100
AcDbEntity
  8
MAIN0
  6
CONTINUOUS
 62
3
100
AcDbBlockEnd
  0
BLOCK
  5
190
100
AcDbEntity
  8
MAIN0
  6
CONTINUOUS
 62
3
100
AcDbBlockBegin
  2
*D13
 70
    65
 10
0.0
 20
0.0
 30
0.0
  0
LINE
  5
191
100
AcDbEntity
  8
MAIN0
  6
BYBLOCK
 62
0
100
AcDbLine
 10
294.3739400019001
 20
182.0929767622236
 30
0.0000000000000000
 11
290.5239400078604
 21
175.4245811634069
 31
0.0000000000000000
  0
ARC
  5
192
100
AcDbEntity
  8
MAIN0
  6
BYBLOCK
 62
0
100
AcDbCircle
 10
337.7739400078601
 20
257.2639818210366
 30
0.0000000000000000
 40
92.50000000000009
100
AcDbArc
 50
241.2388276651480
 51
268.7611723348523
  0
INSERT
  5
193
100
AcDbEntity
  8
MAIN0
  6
BYBLOCK
 62
0
100
AcDbBlockReference
  2
_OPEN
 10
291.5239400078604
 20
177.1566319709758
 30
0.0000000000000000
 41
2.000000000000000
 42
2.000000000000000
 43
2.000000000000000
 50
150.0000000000002
  0
INSERT
  5
194
100
AcDbEntity
  8
MAIN0
  6
BYBLOCK
 62
0
100
AcDbBlockReference
  2
_OPEN
 10
337.7739400078601
 20
164.7639818210365
 30
0.0000000000000000
 41
2.000000000000000
 42
2.000000000000000
 43
2.000000000000000
 50
360.0000000000000
  0
MTEXT
  5
195
100
AcDbEntity
  8
MAIN0
  6
BYBLOCK
 62
0
100
AcDbMText
 10
314.3637573659958
 20
169.8959907871314
 30
0.0000000000000000
 40
3.099999904632568
 41
0.0000000000000000
 71
     5
 72
     1
  1
\A1;30\U+00B0
 11
0.9659258262890688
 21
-0.2588190451025190
 31
0.0000000000000000
  7
STANDARD
  0
ENDBLK
  5
196
100
AcDbEntity
  8
MAIN0
  6
CONTINUOUS
 62
3
100
AcDbBlockEnd
  0
BLOCK
  5
198
100
AcDbEntity
  8
MAIN0
  6
CONTINUOUS
 62
3
100
AcDbBlockBegin
  2
*D14
 70
    65
 10
0.0
 20
0.0
 30
0.0
  0
LINE
  5
199
100
AcDbEntity
  8
MAIN0
  6
BYBLOCK
 62
0
100
AcDbLine
 10
211.7739488537248
 20
219.5640195191546
 30
0.0000000000000000
 11
211.7739488537248
 21
164.7347904382496
 31
0.0000000000000000
  0
LINE
  5
19A
100
AcDbEntity
  8
MAIN0
  6
BYBLOCK
 62
0
100
AcDbLine
 10
209.7739488537248
 20
166.7347904382496
 30
0.0000000000000000
 11
174.7739400078613
 21
166.7347904382496
 31
0.0000000000000000
  0
INSERT
  5
19B
100
AcDbEntity
  8
MAIN0
  6
BYBLOCK
 62
0
100
AcDbBlockReference
  2
_OPEN
 10
211.7739488537248
 20
166.7347904382496
 30
0.0000000000000000
 41
2.000000000000000
 42
2.000000000000000
 43
2.000000000000000
 50
360.0000000000000
  0
INSERT
  5
19C
100
AcDbEntity
  8
MAIN0
  6
BYBLOCK
 62
0
100
AcDbBlockReference
  2
_OPEN
 10
172.7739400078613
 20
166.7347904382496
 30
0.0000000000000000
 41
2.000000000000000
 42
2.000000000000000
 43
2.000000000000000
 50
180.0000000000000
  0
LINE
  5
19D
100
AcDbEntity
  8
MAIN0
  6
BYBLOCK
 62
0
100
AcDbLine
 10
172.7739400078613
 20
175.5639818091159
 30
0.0000000000000000
 11
172.7739400078613
 21
164.7347904382496
 31
0.0000000000000000
  0
MTEXT
  5
19E
100
AcDbEntity
  8
MAIN0
  6
BYBLOCK
 62
0
100
AcDbMText
 10
192.2739444307931
 20
168.7847903905659
 30
0.0000000000000000
 40
3.099999904632568
 41
0.0000000000000000
 71
     5
 72
     1
  1
\A1;39
 11
1.000000000000000
 21
0.0000000000000000
 31
0.0000000000000000
  7
STANDARD
  0
ENDBLK
  5
19F
100
AcDbEntity
  8
MAIN0
  6
CONTINUOUS
 62
3
100
AcDbBlockEnd
  0
BLOCK
  5
1A1
100
AcDbEntity
  8
MAIN0
  6
CONTINUOUS
 62
3
100
AcDbBlockBegin
  2
*D15
 70
    65
 10
0.0
 20
0.0
 30
0.0
  0
LINE
  5
1A2
100
AcDbEntity
  8
MAIN0
  6
BYBLOCK
 62
0
100
AcDbLine
 10
107.7739400078601
 20
221.7639818210366
 30
0.0000000000000000
 11
112.7739400078601
 21
221.7639818210366
 31
0.0000000000000000
  0
INSERT
  5
1A3
100
AcDbEntity
  8
MAIN0
  6
BYBLOCK
 62
0
100
AcDbBlockReference
  2
_OPEN
 10
107.7739400078601
 20
221.7639818210366
 30
0.0000000000000000
 41
2.000000000000000
 42
2.000000000000000
 43
2.000000000000000
 50
0.0000000000000000
  0
INSERT
  5
1A4
100
AcDbEntity
  8
MAIN0
  6
BYBLOCK
 62
0
100
AcDbBlockReference
  2
_OPEN
 10
112.7739400078601
 20
221.7639818210366
 30
0.0000000000000000
 41
2.000000000000000
 42
2.000000000000000
 43
2.000000000000000
 50
180.0000000000000
  0
LINE
  5
1A5
100
AcDbEntity
  8
MAIN0
  6
BYBLOCK
 62
0
100
AcDbLine
 10
105.7739400078601
 20
221.7639818210366
 30
0.0000000000000000
 11
104.7739400078601
 21
221.7639818210366
 31
0.0000000000000000
  0
LINE
  5
1A6
100
AcDbEntity
  8
MAIN0
  6
BYBLOCK
 62
0
100
AcDbLine
 10
114.7739400078601
 20
221.7639818210366
 30
0.0000000000000000
 11
115.7739400078601
 21
221.7639818210366
 31
0.0000000000000000
  0
MTEXT
  5
1A7
100
AcDbEntity
  8
MAIN0
  6
BYBLOCK
 62
0
100
AcDbMText
 10
110.2739400078601
 20
223.8139817733529
 30
0.0000000000000000
 40
3.099999904632568
 41
0.0000000000000000
 71
     5
 72
     1
  1
\A1;5
 11
1.000000000000000
 21
0.0000000000000000
 31
0.0000000000000000
  7
STANDARD
  0
ENDBLK
  5
1A8
100
AcDbEntity
  8
MAIN0
  6
CONTINUOUS
 62
3
100
AcDbBlockEnd
  0
BLOCK
  5
1AA
100
AcDbEntity
  8
MAIN0
  6
CONTINUOUS
 62
3
100
AcDbBlockBegin
  2
*D16
 70
    65
 10
0.0
 20
0.0
 30
0.0
  0
LINE
  5
1AB
100
AcDbEntity
  8
MAIN0
  6
BYBLOCK
 62
0
100
AcDbLine
 10
172.7739400078602
 20
338.9639818329572
 30
0.0000000000000000
 11
172.7739400078616
 21
349.2639818210366
 31
0.0000000000000000
  0
LINE
  5
1AC
100
AcDbEntity
  8
MAIN0
  6
BYBLOCK
 62
0
100
AcDbLine
 10
170.7739400078613
 20
347.2639818210366
 30
0.0000000000000000
 11
162.7739400078601
 21
347.2639818210366
 31
0.0000000000000000
  0
INSERT
  5
1AD
100
AcDbEntity
  8
MAIN0
  6
BYBLOCK
 62
0
100
AcDbBlockReference
  2
_OPEN
 10
172.7739400078613
 20
347.2639818210366
 30
0.0000000000000000
 41
2.000000000000000
 42
2.000000000000000
 43
2.000000000000000
 50
360.0000000000000
  0
INSERT
  5
1AE
100
AcDbEntity
  8
MAIN0
  6
BYBLOCK
 62
0
100
AcDbBlockReference
  2
_OPEN
 10
160.7739400078601
 20
347.2639818210366
 30
0.0000000000000000
 41
2.000000000000000
 42
2.000000000000000
 43
2.000000000000000
 50
180.0000000000000
  0
LINE
  5
1AF
100
AcDbEntity
  8
MAIN0
  6
BYBLOCK
 62
0
100
AcDbLine
 10
160.7739400078601
 20
339.0639818329575
 30
0.0000000000000000
 11
160.7739400078601
 21
349.2639818210366
 31
0.0000000000000000
  0
MTEXT
  5
1B0
100
AcDbEntity
  8
MAIN0
  6
BYBLOCK
 62
0
100
AcDbMText
 10
166.7739400078607
 20
349.3139817733529
 30
0.0000000000000000
 40
3.099999904632568
 41
0.0000000000000000
 71
     5
 72
     1
  1
\A1;12
 11
1.000000000000000
 21
0.0000000000000000
 31
0.0000000000000000
  7
STANDARD
  0
ENDBLK
  5
1B1
100
AcDbEntity
  8
MAIN0
  6
CONTINUOUS
 62
3
100
AcDbBlockEnd
  0
BLOCK
  5
1B3
100
AcDbEntity
  8
MAIN0
  6
CONTINUOUS
 62
3
100
AcDbBlockBegin
  2
*D17
 70
    65
 10
0.0
 20
0.0
 30
0.0
  0
LINE
  5
1B4
100
AcDbEntity
  8
MAIN0
  6
BYBLOCK
 62
0
100
AcDbLine
 10
172.7739400078601
 20
338.9639818329572
 30
0.0000000000000000
 11
172.7739400078615
 21
359.2639818210366
 31
0.0000000000000000
  0
LINE
  5
1B5
100
AcDbEntity
  8
MAIN0
  6
BYBLOCK
 62
0
100
AcDbLine
 10
170.7739400078613
 20
357.2639818210366
 30
0.0000000000000000
 11
133.7739400078601
 21
357.2639818210366
 31
0.0000000000000000
  0
INSERT
  5
1B6
100
AcDbEntity
  8
MAIN0
  6
BYBLOCK
 62
0
100
AcDbBlockReference
  2
_OPEN
 10
172.7739400078613
 20
357.2639818210366
 30
0.0000000000000000
 41
2.000000000000000
 42
2.000000000000000
 43
2.000000000000000
 50
360.0000000000000
  0
INSERT
  5
1B7
100
AcDbEntity
  8
MAIN0
  6
BYBLOCK
 62
0
100
AcDbBlockReference
  2
_OPEN
 10
131.7739400078601
 20
357.2639818210366
 30
0.0000000000000000
 41
2.000000000000000
 42
2.000000000000000
 43
2.000000000000000
 50
180.0000000000000
  0
LINE
  5
1B8
100
AcDbEntity
  8
MAIN0
  6
BYBLOCK
 62
0
100
AcDbLine
 10
131.7739400078601
 20
353.0444198958755
 30
0.0000000000000000
 11
131.7739400078601
 21
359.2639818210366
 31
0.0000000000000000
  0
MTEXT
  5
1B9
100
AcDbEntity
  8
MAIN0
  6
BYBLOCK
 62
0
100
AcDbMText
 10
152.2739400078607
 20
359.3139817733529
 30
0.0000000000000000
 40
3.099999904632568
 41
0.0000000000000000
 71
     5
 72
     1
  1
\A1;41
 11
1.000000000000000
 21
0.0000000000000000
 31
0.0000000000000000
  7
STANDARD
  0
ENDBLK
  5
1BA
100
AcDbEntity
  8
MAIN0
  6
CONTINUOUS
 62
3
100
AcDbBlockEnd
  0
BLOCK
  5
1BC
100
AcDbEntity
  8
MAIN0
  6
CONTINUOUS
 62
3
100
AcDbBlockBegin
  2
*D18
 70
    65
 10
0.0
 20
0.0
 30
0.0
  0
LINE
  5
1BD
100
AcDbEntity
  8
MAIN0
  6
BYBLOCK
 62
0
100
AcDbLine
 10
131.7739400078601
 20
353.0444198958755
 30
0.0000000000000000
 11
131.7739400078601
 21
359.2639818210366
 31
0.0000000000000000
  0
LINE
  5
1BE
100
AcDbEntity
  8
MAIN0
  6
BYBLOCK
 62
0
100
AcDbLine
 10
129.7739400078601
 20
357.2639818210366
 30
0.0000000000000000
 11
109.7739400078601
 21
357.2639818210366
 31
0.0000000000000000
  0
INSERT
  5
1BF
100
AcDbEntity
  8
MAIN0
  6
BYBLOCK
 62
0
100
AcDbBlockReference
  2
_OPEN
 10
131.7739400078601
 20
357.2639818210366
 30
0.0000000000000000
 41
2.000000000000000
 42
2.000000000000000
 43
2.000000000000000
 50
360.0000000000000
  0
INSERT
  5
1C0
100
AcDbEntity
  8
MAIN0
  6
BYBLOCK
 62
0
100
AcDbBlockReference
  2
_OPEN
 10
107.7739400078601
 20
357.2639818210366
 30
0.0000000000000000
 41
2.000000000000000
 42
2.000000000000000
 43
2.000000000000000
 50
180.0000000000000
  0
LINE
  5
1C1
100
AcDbEntity
  8
MAIN0
  6
BYBLOCK
 62
0
100
AcDbLine
 10
107.7739400078601
 20
338.9639818329571
 30
0.0000000000000000
 11
107.7739400078601
 21
359.2639818210366
 31
0.0000000000000000
  0
MTEXT
  5
1C2
100
AcDbEntity
  8
MAIN0
  6
BYBLOCK
 62
0
100
AcDbMText
 10
119.7739400078601
 20
359.3139817733529
 30
0.0000000000000000
 40
3.099999904632568
 41
0.0000000000000000
 71
     5
 72
     1
  1
\A1;24
 11
1.000000000000000
 21
0.0000000000000000
 31
0.0000000000000000
  7
STANDARD
  0
ENDBLK
  5
1C3
100
AcDbEntity
  8
MAIN0
  6
CONTINUOUS
 62
3
100
AcDbBlockEnd
  0
BLOCK
  5
1C5
100
AcDbEntity
  8
MAIN0
  6
CONTINUOUS
 62
3
100
AcDbBlockBegin
  2
*D19
 70
    65
 10
0.0
 20
0.0
 30
0.0
  0
LINE
  5
1C6
100
AcDbEntity
  8
MAIN0
  6
BYBLOCK
 62
0
100
AcDbLine
 10
172.7739400078601
 20
338.9639818329572
 30
0.0000000000000000
 11
172.7739400078614
 21
369.2639818210366
 31
0.0000000000000000
  0
LINE
  5
1C7
100
AcDbEntity
  8
MAIN0
  6
BYBLOCK
 62
0
100
AcDbLine
 10
170.7739400078613
 20
367.2639818210366
 30
0.0000000000000000
 11
109.7739400078601
 21
367.2639818210366
 31
0.0000000000000000
  0
INSERT
  5
1C8
100
AcDbEntity
  8
MAIN0
  6
BYBLOCK
 62
0
100
AcDbBlockReference
  2
_OPEN
 10
172.7739400078613
 20
367.2639818210366
 30
0.0000000000000000
 41
2.000000000000000
 42
2.000000000000000
 43
2.000000000000000
 50
360.0000000000000
  0
INSERT
  5
1C9
100
AcDbEntity
  8
MAIN0
  6
BYBLOCK
 62
0
100
AcDbBlockReference
  2
_OPEN
 10
107.7739400078601
 20
367.2639818210366
 30
0.0000000000000000
 41
2.000000000000000
 42
2.000000000000000
 43
2.000000000000000
 50
180.0000000000000
  0
LINE
  5
1CA
100
AcDbEntity
  8
MAIN0
  6
BYBLOCK
 62
0
100
AcDbLine
 10
107.7739400078601
 20
338.9639818329571
 30
0.0000000000000000
 11
107.7739400078601
 21
369.2639818210366
 31
0.0000000000000000
  0
MTEXT
  5
1CB
100
AcDbEntity
  8
MAIN0
  6
BYBLOCK
 62
0
100
AcDbMText
 10
140.2739400078607
 20
369.3139817733529
 30
0.0000000000000000
 40
3.099999904632568
 41
0.0000000000000000
 71
     5
 72
     1
  1
\A1;65
 11
1.000000000000000
 21
0.0000000000000000
 31
0.0000000000000000
  7
STANDARD
  0
ENDBLK
  5
1CC
100
AcDbEntity
  8
MAIN0
  6
CONTINUOUS
 62
3
100
AcDbBlockEnd
  0
BLOCK
  5
1CE
100
AcDbEntity
  8
MAIN0
  6
CONTINUOUS
 62
3
100
AcDbBlockBegin
  2
*D20
 70
    65
 10
0.0
 20
0.0
 30
0.0
  0
LINE
  5
1CF
100
AcDbEntity
  8
MAIN0
  6
BYBLOCK
 62
0
100
AcDbLine
 10
108.5739399959396
 20
339.7639818210366
 30
0.0000000000000000
 11
70.77394000786006
 21
339.7639818210366
 31
0.0000000000000000
  0
LINE
  5
1D0
100
AcDbEntity
  8
MAIN0
  6
BYBLOCK
 62
0
100
AcDbLine
 10
72.77394000786006
 20
337.7639818210366
 30
0.0000000000000000
 11
72.77394000786006
 21
176.7639818210366
 31
0.0000000000000000
  0
INSERT
  5
1D1
100
AcDbEntity
  8
MAIN0
  6
BYBLOCK
 62
0
100
AcDbBlockReference
  2
_OPEN
 10
72.77394000786006
 20
339.7639818210366
 30
0.0000000000000000
 41
2.000000000000000
 42
2.000000000000000
 43
2.000000000000000
 50
90.00000000000000
  0
INSERT
  5
1D2
100
AcDbEntity
  8
MAIN0
  6
BYBLOCK
 62
0
100
AcDbBlockReference
  2
_OPEN
 10
72.77394000786006
 20
174.7639818210366
 30
0.0000000000000000
 41
2.000000000000000
 42
2.000000000000000
 43
2.000000000000000
 50
270.0000000000000
  0
LINE
  5
1D3
100
AcDbEntity
  8
MAIN0
  6
BYBLOCK
 62
0
100
AcDbLine
 10
108.5739399959394
 20
174.7639818210366
 30
0.0000000000000000
 11
70.77394000786006
 21
174.7639818210366
 31
0.0000000000000000
  0
MTEXT
  5
1D4
100
AcDbEntity
  8
MAIN0
  6
BYBLOCK
 62
0
100
AcDbMText
 10
70.72394005554378
 20
257.2639818210366
 30
0.0000000000000000
 40
3.099999904632568
 41
0.0000000000000000
 71
     5
 72
     1
  1
\A1;\U+2205165
 11
6.123233995736766e-017
 21
1.000000000000000
 31
0.0000000000000000
  7
STANDARD
  0
ENDBLK
  5
1D5
100
AcDbEntity
  8
MAIN0
  6
CONTINUOUS
 62
3
100
AcDbBlockEnd
  0
BLOCK
  5
33D
100
AcDbEntity
  8
H0
  6
CONTINUOUS
 62
3
100
AcDbBlockBegin
  2
*D21
 70
    65
 10
0.0
 20
0.0
 30
0.0
  0
LINE
  5
33E
100
AcDbEntity
  8
H0
  6
BYBLOCK
 62
0
100
AcDbLine
 10
497.8735285191007
 20
306.6707250496485
 30
0.0000000000000000
 11
513.8735285191007
 21
306.6707250496485
 31
0.0000000000000000
  0
INSERT
  5
33F
100
AcDbEntity
  8
H0
  6
BYBLOCK
 62
0
100
AcDbBlockReference
  2
_OPEN
 10
495.8735285191007
 20
306.6707250496485
 30
0.0000000000000000
 41
2.000000000000000
 42
2.000000000000000
 43
2.000000000000000
 50
180.0000000000000
  0
INSERT
  5
340
100
AcDbEntity
  8
H0
  6
BYBLOCK
 62
0
100
AcDbBlockReference
  2
_OPEN
 10
515.8735285191007
 20
306.6707250496485
 30
0.0000000000000000
 41
2.000000000000000
 42
2.000000000000000
 43
2.000000000000000
 50
0.0000000000000000
  0
MTEXT
  5
341
100
AcDbEntity
  8
H0
  6
BYBLOCK
 62
0
100
AcDbMText
 10
505.8735285191007
 20
308.7207250019648
 30
0.0000000000000000
 40
3.099999904632568
 41
0.0000000000000000
 71
     5
 72
     1
  1
\A1;\U+220520
 11
1.000000000000000
 21
0.0000000000000000
 31
0.0000000000000000
  7
STANDARD
  0
ENDBLK
  5
342
100
AcDbEntity
  8
H0
  6
CONTINUOUS
 62
3
100
AcDbBlockEnd
  0
BLOCK
  5
344
100
AcDbEntity
  8
H0
  6
CONTINUOUS
 62
3
100
AcDbBlockBegin
  2
*D22
 70
    65
 10
0.0
 20
0.0
 30
0.0
  0
LINE
  5
345
100
AcDbEntity
  8
H0
  6
BYBLOCK
 62
0
100
AcDbLine
 10
517.6735285310215
 20
361.0954693645721
 30
0.0000000000000000
 11
542.8735285191007
 21
361.0954693645721
 31
0.0000000000000000
  0
LINE
  5
346
100
AcDbEntity
  8
H0
  6
BYBLOCK
 62
0
100
AcDbLine
 10
540.8735285191007
 20
359.0954693645721
 30
0.0000000000000000
 11
540.8735285191007
 21
243.0954693645721
 31
0.0000000000000000
  0
INSERT
  5
347
100
AcDbEntity
  8
H0
  6
BYBLOCK
 62
0
100
AcDbBlockReference
  2
_OPEN
 10
540.8735285191007
 20
361.0954693645721
 30
0.0000000000000000
 41
2.000000000000000
 42
2.000000000000000
 43
2.000000000000000
 50
90.00000000000000
  0
INSERT
  5
348
100
AcDbEntity
  8
H0
  6
BYBLOCK
 62
0
100
AcDbBlockReference
  2
_OPEN
 10
540.8735285191007
 20
241.0954693645721
 30
0.0000000000000000
 41
2.000000000000000
 42
2.000000000000000
 43
2.000000000000000
 50
270.0000000000000
  0
LINE
  5
349
100
AcDbEntity
  8
H0
  6
BYBLOCK
 62
0
100
AcDbLine
 10
510.2378878851898
 20
241.0954693645721
 30
0.0000000000000000
 11
542.8735285191007
 21
241.0954693645721
 31
0.0000000000000000
  0
MTEXT
  5
34A
100
AcDbEntity
  8
H0
  6
BYBLOCK
 62
0
100
AcDbMText
 10
538.8235285667844
 20
301.0954693645721
 30
0.0000000000000000
 40
3.099999904632568
 41
0.0000000000000000
 71
     5
 72
     1
  1
\A1;120
 11
6.123233995736766e-017
 21
1.000000000000000
 31
0.0000000000000000
  7
STANDARD
  0
ENDBLK
  5
34B
100
AcDbEntity
  8
H0
  6
CONTINUOUS
 62
3
100
AcDbBlockEnd
  0
BLOCK
  5
34D
100
AcDbEntity
  8
H0
  6
CONTINUOUS
 62
3
100
AcDbBlockBegin
  2
*D23
 70
    65
 10
0.0
 20
0.0
 30
0.0
  0
LINE
  5
34E
100
AcDbEntity
  8
H0
  6
BYBLOCK
 62
0
100
AcDbLine
 10
512.9666118259111
 20
223.0734538696235
 30
0.0000000000000000
 11
518.3232759874078
 21
217.7167897081258
 31
0.0000000000000000
  0
LINE
  5
34F
100
AcDbEntity
  8
H0
  6
BYBLOCK
 62
0
100
AcDbLine
 10
515.4948488626609
 20
217.7167897081268
 30
0.0000000000000000
 11
511.2522081755380
 21
213.4741490210089
 31
0.0000000000000000
  0
INSERT
  5
350
100
AcDbEntity
  8
H0
  6
BYBLOCK
 62
0
100
AcDbBlockReference
  2
_OPEN
 10
516.9090624250348
 20
219.1310032704990
 30
0.0000000000000000
 41
2.000000000000000
 42
2.000000000000000
 43
2.000000000000000
 50
44.99999999996584
  0
INSERT
  5
351
100
AcDbEntity
  8
H0
  6
BYBLOCK
 62
0
100
AcDbBlockReference
  2
_OPEN
 10
509.8379946131640
 20
212.0599354586367
 30
0.0000000000000000
 41
2.000000000000000
 42
2.000000000000000
 43
2.000000000000000
 50
224.9999999999658
  0
LINE
  5
352
100
AcDbEntity
  8
H0
  6
BYBLOCK
 62
0
100
AcDbLine
 10
516.9090624250348
 20
219.1310032704990
 30
0.0000000000000000
 11
528.6591519756630
 21
230.8810928211133
 31
0.0000000000000000
  0
LINE
  5
353
100
AcDbEntity
  8
H0
  6
BYBLOCK
 62
0
100
AcDbLine
 10
505.8955440140501
 20
216.0023860577553
 30
0.0000000000000000
 11
511.2522081755363
 21
210.6457218962628
 31
0.0000000000000000
  0
MTEXT
  5
354
100
AcDbEntity
  8
H0
  6
BYBLOCK
 62
0
100
AcDbMText
 10
521.9239596803715
 20
227.0450382612579
 30
0.0000000000000000
 40
3.099999904632568
 41
0.0000000000000000
 71
     5
 72
     1
  1
\A1;□10\H0.903226x;\S　0^ －0.05;
 11
0.7071067811869692
 21
0.7071067811861258
 31
0.0000000000000000
  7
KNJYOKO
  0
ENDBLK
  5
355
100
AcDbEntity
  8
H0
  6
CONTINUOUS
 62
3
100
AcDbBlockEnd
  0
BLOCK
  5
357
100
AcDbEntity
  8
H0
  6
CONTINUOUS
 62
3
100
AcDbBlockBegin
  2
*D24
 70
    65
 10
0.0
 20
0.0
 30
0.0
  0
LINE
  5
358
100
AcDbEntity
  8
H0
  6
BYBLOCK
 62
0
100
AcDbLine
 10
493.8735285191007
 20
360.8954693764929
 30
0.0000000000000000
 11
493.8735285191007
 21
375.0954693645721
 31
0.0000000000000000
  0
LINE
  5
359
100
AcDbEntity
  8
H0
  6
BYBLOCK
 62
0
100
AcDbLine
 10
495.8735285191007
 20
373.0954693645721
 30
0.0000000000000000
 11
515.8735285191007
 21
373.0954693645721
 31
0.0000000000000000
  0
INSERT
  5
35A
100
AcDbEntity
  8
H0
  6
BYBLOCK
 62
0
100
AcDbBlockReference
  2
_OPEN
 10
493.8735285191007
 20
373.0954693645721
 30
0.0000000000000000
 41
2.000000000000000
 42
2.000000000000000
 43
2.000000000000000
 50
180.0000000000000
  0
INSERT
  5
35B
100
AcDbEntity
  8
H0
  6
BYBLOCK
 62
0
100
AcDbBlockReference
  2
_OPEN
 10
517.8735285191007
 20
373.0954693645721
 30
0.0000000000000000
 41
2.000000000000000
 42
2.000000000000000
 43
2.000000000000000
 50
0.0000000000000000
  0
LINE
  5
35C
100
AcDbEntity
  8
H0
  6
BYBLOCK
 62
0
100
AcDbLine
 10
517.8735285191007
 20
360.8954693764929
 30
0.0000000000000000
 11
517.8735285191007
 21
375.0954693645721
 31
0.0000000000000000
  0
MTEXT
  5
35D
100
AcDbEntity
  8
H0
  6
BYBLOCK
 62
0
100
AcDbMText
 10
505.8735285191007
 20
375.1454693168884
 30
0.0000000000000000
 40
3.099999904632568
 41
0.0000000000000000
 71
     5
 72
     1
  1
\A1;\U+220524
 11
1.000000000000000
 21
0.0000000000000000
 31
0.0000000000000000
  7
STANDARD
  0
ENDBLK
  5
35E
100
AcDbEntity
  8
H0
  6
CONTINUOUS
 62
3
100
AcDbBlockEnd
  0
BLOCK
  5
360
100
AcDbEntity
  8
H0
  6
CONTINUOUS
 62
3
100
AcDbBlockBegin
  2
*D25
 70
    65
 10
0.0
 20
0.0
 30
0.0
  0
LINE
  5
361
100
AcDbEntity
  8
H0
  6
BYBLOCK
 62
0
100
AcDbLine
 10
440.6735285071798
 20
356.0954693645721
 30
0.0000000000000000
 11
428.8735285191007
 21
356.0954693645721
 31
0.0000000000000000
  0
LINE
  5
362
100
AcDbEntity
  8
H0
  6
BYBLOCK
 62
0
100
AcDbLine
 10
430.8735285191007
 20
354.0954693645721
 30
0.0000000000000000
 11
430.8735285191007
 21
342.0954693645721
 31
0.0000000000000000
  0
INSERT
  5
363
100
AcDbEntity
  8
H0
  6
BYBLOCK
 62
0
100
AcDbBlockReference
  2
_OPEN
 10
430.8735285191007
 20
356.0954693645721
 30
0.0000000000000000
 41
2.000000000000000
 42
2.000000000000000
 43
2.000000000000000
 50
90.00000000000000
  0
INSERT
  5
364
100
AcDbEntity
  8
H0
  6
BYBLOCK
 62
0
100
AcDbBlockReference
  2
_OPEN
 10
430.8735285191007
 20
340.0954693645721
 30
0.0000000000000000
 41
2.000000000000000
 42
2.000000000000000
 43
2.000000000000000
 50
270.0000000000000
  0
LINE
  5
365
100
AcDbEntity
  8
H0
  6
BYBLOCK
 62
0
100
AcDbLine
 10
440.6735285071798
 20
340.0954693645721
 30
0.0000000000000000
 11
428.8735285191007
 21
340.0954693645721
 31
0.0000000000000000
  0
MTEXT
  5
366
100
AcDbEntity
  8
H0
  6
BYBLOCK
 62
0
100
AcDbMText
 10
428.8235285667844
 20
348.0954693645721
 30
0.0000000000000000
 40
3.099999904632568
 41
0.0000000000000000
 71
     5
 72
     1
  1
\A1;\U+220516
 11
6.123233995736766e-017
 21
1.000000000000000
 31
0.0000000000000000
  7
STANDARD
  0
ENDBLK
  5
367
100
AcDbEntity
  8
H0
  6
CONTINUOUS
 62
3
100
AcDbBlockEnd
  0
BLOCK
  5
369
100
AcDbEntity
  8
H0
  6
CONTINUOUS
 62
3
100
AcDbBlockBegin
  2
*D26
 70
    65
 10
0.0
 20
0.0
 30
0.0
  0
LINE
  5
36A
100
AcDbEntity
  8
H0
  6
BYBLOCK
 62
0
100
AcDbLine
 10
440.8735285191007
 20
356.2954693764931
 30
0.0000000000000000
 11
440.8735285191007
 21
371.9697807520028
 31
0.0000000000000000
  0
LINE
  5
36B
100
AcDbEntity
  8
H0
  6
BYBLOCK
 62
0
100
AcDbLine
 10
442.8735285191007
 20
369.9697807520028
 30
0.0000000000000000
 11
446.8735285191007
 21
369.9697807520028
 31
0.0000000000000000
  0
INSERT
  5
36C
100
AcDbEntity
  8
H0
  6
BYBLOCK
 62
0
100
AcDbBlockReference
  2
_OPEN
 10
440.8735285191007
 20
369.9697807520028
 30
0.0000000000000000
 41
2.000000000000000
 42
2.000000000000000
 43
2.000000000000000
 50
180.0000000000000
  0
INSERT
  5
36D
100
AcDbEntity
  8
H0
  6
BYBLOCK
 62
0
100
AcDbBlockReference
  2
_OPEN
 10
448.8735285191007
 20
369.9697807520028
 30
0.0000000000000000
 41
2.000000000000000
 42
2.000000000000000
 43
2.000000000000000
 50
0.0000000000000000
  0
LINE
  5
36E
100
AcDbEntity
  8
H0
  6
BYBLOCK
 62
0
100
AcDbLine
 10
448.8735285191007
 20
356.2954693764930
 30
0.0000000000000000
 11
448.8735285191007
 21
371.9697807520028
 31
0.0000000000000000
  0
MTEXT
  5
36F
100
AcDbEntity
  8
H0
  6
BYBLOCK
 62
0
100
AcDbMText
 10
444.8735285191007
 20
372.0197807043190
 30
0.0000000000000000
 40
3.099999904632568
 41
0.0000000000000000
 71
     5
 72
     1
  1
\A1;8
 11
1.000000000000000
 21
0.0000000000000000
 31
0.0000000000000000
  7
STANDARD
  0
ENDBLK
  5
370
100
AcDbEntity
  8
H0
  6
CONTINUOUS
 62
3
100
AcDbBlockEnd
  0
BLOCK
  5
372
100
AcDbEntity
  8
H0
  6
CONTINUOUS
 62
1
100
AcDbBlockBegin
  2
*D27
 70
    65
 10
0.0
 20
0.0
 30
0.0
  0
LINE
  5
373
100
AcDbEntity
  8
H0
  6
BYBLOCK
 62
0
100
AcDbLine
 10
570.8735285191007
 20
356.2954693764931
 30
0.0000000000000000
 11
570.8735285191007
 21
385.0954693645721
 31
0.0000000000000000
  0
LINE
  5
374
100
AcDbEntity
  8
H0
  6
BYBLOCK
 62
0
100
AcDbLine
 10
568.8735285191007
 20
383.0954693645721
 30
0.0000000000000000
 11
442.8735285191007
 21
383.0954693645721
 31
0.0000000000000000
  0
INSERT
  5
375
100
AcDbEntity
  8
H0
  6
BYBLOCK
 62
0
100
AcDbBlockReference
  2
_OPEN
 10
570.8735285191007
 20
383.0954693645721
 30
0.0000000000000000
 41
2.000000000000000
 42
2.000000000000000
 43
2.000000000000000
 50
360.0000000000000
  0
INSERT
  5
376
100
AcDbEntity
  8
H0
  6
BYBLOCK
 62
0
100
AcDbBlockReference
  2
_OPEN
 10
440.8735285191007
 20
383.0954693645721
 30
0.0000000000000000
 41
2.000000000000000
 42
2.000000000000000
 43
2.000000000000000
 50
180.0000000000000
  0
LINE
  5
377
100
AcDbEntity
  8
H0
  6
BYBLOCK
 62
0
100
AcDbLine
 10
440.8735285191007
 20
356.2954693764931
 30
0.0000000000000000
 11
440.8735285191007
 21
385.0954693645721
 31
0.0000000000000000
  0
MTEXT
  5
378
100
AcDbEntity
  8
H0
  6
BYBLOCK
 62
0
100
AcDbMText
 10
505.8735285191007
 20
385.1454693168884
 30
0.0000000000000000
 40
3.099999904632568
 41
0.0000000000000000
 71
     5
 72
     1
  1
\A1;210
 11
1.000000000000000
 21
0.0000000000000000
 31
0.0000000000000000
  7
STANDARD
  0
ENDBLK
  5
379
100
AcDbEntity
  8
H0
  6
CONTINUOUS
 62
1
100
AcDbBlockEnd
  0
BLOCK
  5
381
100
AcDbEntity
  8
H0
  6
CONTINUOUS
 62
3
100
AcDbBlockBegin
  2
*D28
 70
    65
 10
0.0
 20
0.0
 30
0.0
  0
LINE
  5
382
100
AcDbEntity
  8
H0
  6
BYBLOCK
 62
0
100
AcDbLine
 10
513.2235285310215
 20
255.0954693645721
 30
0.0000000000000000
 11
527.8735285191007
 21
255.0954693645721
 31
0.0000000000000000
  0
LINE
  5
383
100
AcDbEntity
  8
H0
  6
BYBLOCK
 62
0
100
AcDbLine
 10
525.8735285191007
 20
253.0954693645721
 30
0.0000000000000000
 11
525.8735285191007
 21
243.0954693645721
 31
0.0000000000000000
  0
INSERT
  5
384
100
AcDbEntity
  8
H0
  6
BYBLOCK
 62
0
100
AcDbBlockReference
  2
_OPEN
 10
525.8735285191007
 20
255.0954693645721
 30
0.0000000000000000
 41
2.000000000000000
 42
2.000000000000000
 43
2.000000000000000
 50
90.00000000000000
  0
INSERT
  5
385
100
AcDbEntity
  8
H0
  6
BYBLOCK
 62
0
100
AcDbBlockReference
  2
_OPEN
 10
525.8735285191007
 20
241.0954693645721
 30
0.0000000000000000
 41
2.000000000000000
 42
2.000000000000000
 43
2.000000000000000
 50
270.0000000000000
  0
LINE
  5
386
100
AcDbEntity
  8
H0
  6
BYBLOCK
 62
0
100
AcDbLine
 10
510.2378878851898
 20
241.0954693645721
 30
0.0000000000000000
 11
527.8735285191007
 21
241.0954693645721
 31
0.0000000000000000
  0
MTEXT
  5
387
100
AcDbEntity
  8
H0
  6
BYBLOCK
 62
0
100
AcDbMText
 10
523.8235285667844
 20
248.0954693645721
 30
0.0000000000000000
 40
3.099999904632568
 41
0.0000000000000000
 71
     5
 72
     1
  1
\A1;14
 11
6.123233995736766e-017
 21
1.000000000000000
 31
0.0000000000000000
  7
STANDARD
  0
ENDBLK
  5
388
100
AcDbEntity
  8
H0
  6
CONTINUOUS
 62
3
100
AcDbBlockEnd
  0
BLOCK
  5
3A0
100
AcDbEntity
  8
H0
  6
CONTINUOUS
 62
1
100
AcDbBlockBegin
  2
*D29
 70
    65
 10
0.0
 20
0.0
 30
0.0
  0
LINE
  5
3A1
100
AcDbEntity
  8
H0
  6
BYBLOCK
 62
0
100
AcDbLine
 10
395.8735285191007
 20
339.8954693526509
 30
0.0000000000000000
 11
395.8735285191007
 21
326.0954693645721
 31
0.0000000000000000
  0
LINE
  5
3A2
100
AcDbEntity
  8
H0
  6
BYBLOCK
 62
0
100
AcDbLine
 10
397.8735285191007
 20
328.0954693645721
 30
0.0000000000000000
 11
503.8735285191007
 21
328.0954693645721
 31
0.0000000000000000
  0
INSERT
  5
3A3
100
AcDbEntity
  8
H0
  6
BYBLOCK
 62
0
100
AcDbBlockReference
  2
_OPEN
 10
395.8735285191007
 20
328.0954693645721
 30
0.0000000000000000
 41
2.000000000000000
 42
2.000000000000000
 43
2.000000000000000
 50
180.0000000000000
  0
INSERT
  5
3A4
100
AcDbEntity
  8
H0
  6
BYBLOCK
 62
0
100
AcDbBlockReference
  2
_OPEN
 10
505.8735285191007
 20
328.0954693645721
 30
0.0000000000000000
 41
2.000000000000000
 42
2.000000000000000
 43
2.000000000000000
 50
0.0000000000000000
  0
MTEXT
  5
3A5
100
AcDbEntity
  8
H0
  6
BYBLOCK
 62
0
100
AcDbMText
 10
450.8735285191007
 20
330.1454693168884
 30
0.0000000000000000
 40
3.099999904632568
 41
0.0000000000000000
 71
     5
 72
     1
  1
\A1;MAX 190
 11
1.000000000000000
 21
0.0000000000000000
 31
0.0000000000000000
  7
STANDARD
  0
ENDBLK
  5
3A6
100
AcDbEntity
  8
H0
  6
CONTINUOUS
 62
1
100
AcDbBlockEnd
  0
BLOCK
  5
3AA
100
AcDbEntity
  8
H0
  6
CONTINUOUS
 62
3
100
AcDbBlockBegin
  2
*D30
 70
    65
 10
0.0
 20
0.0
 30
0.0
  0
LINE
  5
3AB
100
AcDbEntity
  8
H0
  6
BYBLOCK
 62
0
100
AcDbLine
 10
530.8735285191007
 20
350.0954693645721
 30
0.0000000000000000
 11
530.8735285191007
 21
359.0954693645721
 31
0.0000000000000000
  0
INSERT
  5
3AC
100
AcDbEntity
  8
H0
  6
BYBLOCK
 62
0
100
AcDbBlockReference
  2
_OPEN
 10
530.8735285191007
 20
348.0954693645721
 30
0.0000000000000000
 41
2.000000000000000
 42
2.000000000000000
 43
2.000000000000000
 50
270.0000000000000
  0
INSERT
  5
3AD
100
AcDbEntity
  8
H0
  6
BYBLOCK
 62
0
100
AcDbBlockReference
  2
_OPEN
 10
530.8735285191007
 20
361.0954693645721
 30
0.0000000000000000
 41
2.000000000000000
 42
2.000000000000000
 43
2.000000000000000
 50
90.00000000000000
  0
LINE
  5
3AE
100
AcDbEntity
  8
H0
  6
BYBLOCK
 62
0
100
AcDbLine
 10
517.6735285310215
 20
361.0954693645721
 30
0.0000000000000000
 11
532.8735285191007
 21
361.0954693645721
 31
0.0000000000000000
  0
MTEXT
  5
3AF
100
AcDbEntity
  8
H0
  6
BYBLOCK
 62
0
100
AcDbMText
 10
528.8235285667844
 20
356.7359236015045
 30
0.0000000000000000
 40
3.099999904632568
 41
0.0000000000000000
 71
     5
 72
     1
  1
\A1;13
 11
6.123233995736766e-017
 21
1.000000000000000
 31
0.0000000000000000
  7
STANDARD
  0
ENDBLK
  5
3B0
100
AcDbEntity
  8
H0
  6
CONTINUOUS
 62
3
100
AcDbBlockEnd
  0
BLOCK
  5
3B2
100
AcDbEntity
  8
H0
  6
CONTINUOUS
 62
3
100
AcDbBlockBegin
  2
*D31
 70
    65
 10
0.0
 20
0.0
 30
0.0
  0
LINE
  5
3B3
100
AcDbEntity
  8
H0
  6
BYBLOCK
 62
0
100
AcDbLine
 10
482.7991744003532
 20
351.0954693645721
 30
0.0000000000000000
 11
482.7991744003532
 21
345.0954693645721
 31
0.0000000000000000
  0
INSERT
  5
3B4
100
AcDbEntity
  8
H0
  6
BYBLOCK
 62
0
100
AcDbBlockReference
  2
_OPEN
 10
482.7991744003532
 20
353.0954693645721
 30
0.0000000000000000
 41
2.000000000000000
 42
2.000000000000000
 43
2.000000000000000
 50
90.00000000000000
  0
INSERT
  5
3B5
100
AcDbEntity
  8
H0
  6
BYBLOCK
 62
0
100
AcDbBlockReference
  2
_OPEN
 10
482.7991744003532
 20
343.0954693645721
 30
0.0000000000000000
 41
2.000000000000000
 42
2.000000000000000
 43
2.000000000000000
 50
270.0000000000000
  0
LINE
  5
3B6
100
AcDbEntity
  8
H0
  6
BYBLOCK
 62
0
100
AcDbLine
 10
482.7991744003532
 20
343.0954693645721
 30
0.0000000000000000
 11
482.7991744003532
 21
335.2811411709075
 31
0.0000000000000000
  0
MTEXT
  5
3B7
100
AcDbEntity
  8
H0
  6
BYBLOCK
 62
0
100
AcDbMText
 10
480.7491744480369
 20
338.6811409614628
 30
0.0000000000000000
 40
3.099999904632568
 41
0.0000000000000000
 71
     5
 72
     1
  1
\A1;\U+220510
 11
6.123233995736766e-017
 21
1.000000000000000
 31
0.0000000000000000
  7
STANDARD
  0
ENDBLK
  5
3B8
100
AcDbEntity
  8
H0
  6
CONTINUOUS
 62
3
100
AcDbBlockEnd
  0
BLOCK
  5
3BA
100
AcDbEntity
  8
H0
  6
BYBLOCK
 62
3
100
AcDbBlockBegin
  2
*X0
 70
     1
 10
0.0
 20
0.0
 30
0.0
  0
LINE
  5
3BB
100
AcDbEntity
  8
H0
  6
BYBLOCK
 62
0
100
AcDbLine
 10
442.2877420813707
 20
344.0954693645712
 30
0.0000000000000000
 11
440.8735285191024
 21
342.6812558023029
 31
0.0000000000000000
  0
LINE
  5
3BC
100
AcDbEntity
  8
H0
  6
BYBLOCK
 62
0
100
AcDbLine
 10
442.1463207230265
 20
344.0954693645716
 30
0.0000000000000000
 11
440.8735285191017
 21
342.8226771606463
 31
0.0000000000000000
  0
LINE
  5
3BD
100
AcDbEntity
  8
H0
  6
BYBLOCK
 62
0
100
AcDbLine
 10
442.0048993646803
 20
344.0954693645707
 30
0.0000000000000000
 11
440.8735285191021
 21
342.9640985189921
 31
0.0000000000000000
  0
LINE
  5
3BE
100
AcDbEntity
  8
H0
  6
BYBLOCK
 62
0
100
AcDbLine
 10
441.8634780063372
 20
344.0954693645721
 30
0.0000000000000000
 11
440.8735285191007
 21
343.1055198773356
 31
0.0000000000000000
  0
LINE
  5
3BF
100
AcDbEntity
  8
H0
  6
BYBLOCK
 62
0
100
AcDbLine
 10
441.7220566479916
 20
344.0954693645716
 30
0.0000000000000000
 11
440.8735285191002
 21
343.2469412356799
 31
0.0000000000000000
  0
LINE
  5
3C0
100
AcDbEntity
  8
H0
  6
BYBLOCK
 62
0
100
AcDbLine
 10
441.5806352896471
 20
344.0954693645716
 30
0.0000000000000000
 11
440.8735285191002
 21
343.3883625940247
 31
0.0000000000000000
  0
LINE
  5
3C1
100
AcDbEntity
  8
H0
  6
BYBLOCK
 62
0
100
AcDbLine
 10
441.4392139313014
 20
344.0954693645707
 30
0.0000000000000000
 11
440.8735285190997
 21
343.5297839523690
 31
0.0000000000000000
  0
LINE
  5
3C2
100
AcDbEntity
  8
H0
  6
BYBLOCK
 62
0
100
AcDbLine
 10
441.2977925729580
 20
344.0954693645721
 30
0.0000000000000000
 11
440.8735285191012
 21
343.6712053107148
 31
0.0000000000000000
  0
LINE
  5
3C3
100
AcDbEntity
  8
H0
  6
BYBLOCK
 62
0
100
AcDbLine
 10
441.1563712146132
 20
344.0954693645717
 30
0.0000000000000000
 11
440.8735285191011
 21
343.8126266690605
 31
0.0000000000000000
  0
LINE
  5
3C4
100
AcDbEntity
  8
H0
  6
BYBLOCK
 62
0
100
AcDbLine
 10
441.0149498562665
 20
344.0954693645708
 30
0.0000000000000000
 11
440.8735285191020
 21
343.9540480274058
 31
0.0000000000000000
  0
ENDBLK
  5
3C5
100
AcDbEntity
  8
H0
  6
BYBLOCK
 62
3
100
AcDbBlockEnd
  0
BLOCK
  5
3C7
100
AcDbEntity
  8
H0
  6
BYBLOCK
 62
3
100
AcDbBlockBegin
  2
*X1
 70
     1
 10
0.0
 20
0.0
 30
0.0
  0
LINE
  5
3C8
100
AcDbEntity
  8
H0
  6
BYBLOCK
 62
0
100
AcDbLine
 10
442.2877420813707
 20
352.0954693645730
 30
0.0000000000000000
 11
440.8735285191025
 21
353.5096829268413
 31
0.0000000000000000
  0
LINE
  5
3C9
100
AcDbEntity
  8
H0
  6
BYBLOCK
 62
0
100
AcDbLine
 10
442.1463207230264
 20
352.0954693645725
 30
0.0000000000000000
 11
440.8735285191016
 21
353.3682615684978
 31
0.0000000000000000
  0
LINE
  5
3CA
100
AcDbEntity
  8
H0
  6
BYBLOCK
 62
0
100
AcDbLine
 10
442.0048993646801
 20
352.0954693645734
 30
0.0000000000000000
 11
440.8735285191020
 21
353.2268402101521
 31
0.0000000000000000
  0
LINE
  5
3CB
100
AcDbEntity
  8
H0
  6
BYBLOCK
 62
0
100
AcDbLine
 10
441.8634780063372
 20
352.0954693645721
 30
0.0000000000000000
 11
440.8735285191007
 21
353.0854188518087
 31
0.0000000000000000
  0
LINE
  5
3CC
100
AcDbEntity
  8
H0
  6
BYBLOCK
 62
0
100
AcDbLine
 10
441.7220566479916
 20
352.0954693645726
 30
0.0000000000000000
 11
440.8735285191002
 21
352.9439974934644
 31
0.0000000000000000
  0
LINE
  5
3CD
100
AcDbEntity
  8
H0
  6
BYBLOCK
 62
0
100
AcDbLine
 10
441.5806352896472
 20
352.0954693645725
 30
0.0000000000000000
 11
440.8735285191002
 21
352.8025761351195
 31
0.0000000000000000
  0
LINE
  5
3CE
100
AcDbEntity
  8
H0
  6
BYBLOCK
 62
0
100
AcDbLine
 10
441.4392139313014
 20
352.0954693645736
 30
0.0000000000000000
 11
440.8735285190998
 21
352.6611547767752
 31
0.0000000000000000
  0
LINE
  5
3CF
100
AcDbEntity
  8
H0
  6
BYBLOCK
 62
0
100
AcDbLine
 10
441.2977925729580
 20
352.0954693645721
 30
0.0000000000000000
 11
440.8735285191012
 21
352.5197334184294
 31
0.0000000000000000
  0
LINE
  5
3D0
100
AcDbEntity
  8
H0
  6
BYBLOCK
 62
0
100
AcDbLine
 10
441.1563712146132
 20
352.0954693645726
 30
0.0000000000000000
 11
440.8735285191011
 21
352.3783120600837
 31
0.0000000000000000
  0
LINE
  5
3D1
100
AcDbEntity
  8
H0
  6
BYBLOCK
 62
0
100
AcDbLine
 10
441.0149498562666
 20
352.0954693645734
 30
0.0000000000000000
 11
440.8735285191020
 21
352.2368907017385
 31
0.0000000000000000
  0
ENDBLK
  5
3D2
100
AcDbEntity
  8
H0
  6
BYBLOCK
 62
3
100
AcDbBlockEnd
  0
BLOCK
  5
3D4
100
AcDbEntity
  8
H0
  6
BYBLOCK
 62
3
100
AcDbBlockBegin
  2
*X2
 70
     1
 10
0.0
 20
0.0
 30
0.0
  0
LINE
  5
3D5
100
AcDbEntity
  8
H0
  6
BYBLOCK
 62
0
100
AcDbLine
 10
569.4593149568307
 20
344.0954693645712
 30
0.0000000000000000
 11
570.8735285190988
 21
342.6812558023029
 31
0.0000000000000000
  0
LINE
  5
3D6
100
AcDbEntity
  8
H0
  6
BYBLOCK
 62
0
100
AcDbLine
 10
569.6007363151748
 20
344.0954693645716
 30
0.0000000000000000
 11
570.8735285190996
 21
342.8226771606463
 31
0.0000000000000000
  0
LINE
  5
3D7
100
AcDbEntity
  8
H0
  6
BYBLOCK
 62
0
100
AcDbLine
 10
569.7421576735210
 20
344.0954693645708
 30
0.0000000000000000
 11
570.8735285190992
 21
342.9640985189921
 31
0.0000000000000000
  0
LINE
  5
3D8
100
AcDbEntity
  8
H0
  6
BYBLOCK
 62
0
100
AcDbLine
 10
569.8835790318641
 20
344.0954693645721
 30
0.0000000000000000
 11
570.8735285191007
 21
343.1055198773356
 31
0.0000000000000000
  0
LINE
  5
3D9
100
AcDbEntity
  8
H0
  6
BYBLOCK
 62
0
100
AcDbLine
 10
570.0250003902098
 20
344.0954693645716
 30
0.0000000000000000
 11
570.8735285191011
 21
343.2469412356799
 31
0.0000000000000000
  0
LINE
  5
3DA
100
AcDbEntity
  8
H0
  6
BYBLOCK
 62
0
100
AcDbLine
 10
570.1664217485542
 20
344.0954693645716
 30
0.0000000000000000
 11
570.8735285191011
 21
343.3883625940247
 31
0.0000000000000000
  0
LINE
  5
3DB
100
AcDbEntity
  8
H0
  6
BYBLOCK
 62
0
100
AcDbLine
 10
570.3078431068999
 20
344.0954693645707
 30
0.0000000000000000
 11
570.8735285191016
 21
343.5297839523690
 31
0.0000000000000000
  0
LINE
  5
3DC
100
AcDbEntity
  8
H0
  6
BYBLOCK
 62
0
100
AcDbLine
 10
570.4492644652434
 20
344.0954693645721
 30
0.0000000000000000
 11
570.8735285191002
 21
343.6712053107148
 31
0.0000000000000000
  0
LINE
  5
3DD
100
AcDbEntity
  8
H0
  6
BYBLOCK
 62
0
100
AcDbLine
 10
570.5906858235882
 20
344.0954693645716
 30
0.0000000000000000
 11
570.8735285191002
 21
343.8126266690605
 31
0.0000000000000000
  0
LINE
  5
3DE
100
AcDbEntity
  8
H0
  6
BYBLOCK
 62
0
100
AcDbLine
 10
570.7321071819348
 20
344.0954693645708
 30
0.0000000000000000
 11
570.8735285190993
 21
343.9540480274058
 31
0.0000000000000000
  0
ENDBLK
  5
3DF
100
AcDbEntity
  8
H0
  6
BYBLOCK
 62
3
100
AcDbBlockEnd
  0
BLOCK
  5
3E1
100
AcDbEntity
  8
H0
  6
BYBLOCK
 62
3
100
AcDbBlockBegin
  2
*X3
 70
     1
 10
0.0
 20
0.0
 30
0.0
  0
LINE
  5
3E2
100
AcDbEntity
  8
H0
  6
BYBLOCK
 62
0
100
AcDbLine
 10
569.4593149568306
 20
352.0954693645730
 30
0.0000000000000000
 11
570.8735285190988
 21
353.5096829268413
 31
0.0000000000000000
  0
LINE
  5
3E3
100
AcDbEntity
  8
H0
  6
BYBLOCK
 62
0
100
AcDbLine
 10
569.6007363151749
 20
352.0954693645725
 30
0.0000000000000000
 11
570.8735285190998
 21
353.3682615684978
 31
0.0000000000000000
  0
LINE
  5
3E4
100
AcDbEntity
  8
H0
  6
BYBLOCK
 62
0
100
AcDbLine
 10
569.7421576735212
 20
352.0954693645735
 30
0.0000000000000000
 11
570.8735285190993
 21
353.2268402101521
 31
0.0000000000000000
  0
LINE
  5
3E5
100
AcDbEntity
  8
H0
  6
BYBLOCK
 62
0
100
AcDbLine
 10
569.8835790318641
 20
352.0954693645721
 30
0.0000000000000000
 11
570.8735285191007
 21
353.0854188518087
 31
0.0000000000000000
  0
LINE
  5
3E6
100
AcDbEntity
  8
H0
  6
BYBLOCK
 62
0
100
AcDbLine
 10
570.0250003902098
 20
352.0954693645726
 30
0.0000000000000000
 11
570.8735285191011
 21
352.9439974934644
 31
0.0000000000000000
  0
LINE
  5
3E7
100
AcDbEntity
  8
H0
  6
BYBLOCK
 62
0
100
AcDbLine
 10
570.1664217485542
 20
352.0954693645725
 30
0.0000000000000000
 11
570.8735285191011
 21
352.8025761351195
 31
0.0000000000000000
  0
LINE
  5
3E8
100
AcDbEntity
  8
H0
  6
BYBLOCK
 62
0
100
AcDbLine
 10
570.3078431068999
 20
352.0954693645735
 30
0.0000000000000000
 11
570.8735285191016
 21
352.6611547767752
 31
0.0000000000000000
  0
LINE
  5
3E9
100
AcDbEntity
  8
H0
  6
BYBLOCK
 62
0
100
AcDbLine
 10
570.4492644652432
 20
352.0954693645721
 30
0.0000000000000000
 11
570.8735285191001
 21
352.5197334184294
 31
0.0000000000000000
  0
LINE
  5
3EA
100
AcDbEntity
  8
H0
  6
BYBLOCK
 62
0
100
AcDbLine
 10
570.5906858235882
 20
352.0954693645726
 30
0.0000000000000000
 11
570.8735285191001
 21
352.3783120600837
 31
0.0000000000000000
  0
LINE
  5
3EB
100
AcDbEntity
  8
H0
  6
BYBLOCK
 62
0
100
AcDbLine
 10
570.7321071819347
 20
352.0954693645734
 30
0.0000000000000000
 11
570.8735285190993
 21
352.2368907017384
 31
0.0000000000000000
  0
ENDBLK
  5
3EC
100
AcDbEntity
  8
H0
  6
BYBLOCK
 62
3
100
AcDbBlockEnd
  0
BLOCK
  5
3EE
100
AcDbEntity
  8
H0
  6
BYBLOCK
 62
3
100
AcDbBlockBegin
  2
*X4
 70
     1
 10
0.0
 20
0.0
 30
0.0
  0
LINE
  5
3EF
100
AcDbEntity
  8
H0
  6
BYBLOCK
 62
0
100
AcDbLine
 10
524.4593149568307
 20
344.0954693645710
 30
0.0000000000000000
 11
525.8735285190988
 21
342.6812558023028
 31
0.0000000000000000
  0
LINE
  5
3F0
100
AcDbEntity
  8
H0
  6
BYBLOCK
 62
0
100
AcDbLine
 10
524.6007363151749
 20
344.0954693645716
 30
0.0000000000000000
 11
525.8735285190998
 21
342.8226771606463
 31
0.0000000000000000
  0
LINE
  5
3F1
100
AcDbEntity
  8
H0
  6
BYBLOCK
 62
0
100
AcDbLine
 10
524.7421576735210
 20
344.0954693645707
 30
0.0000000000000000
 11
525.8735285190993
 21
342.9640985189920
 31
0.0000000000000000
  0
LINE
  5
3F2
100
AcDbEntity
  8
H0
  6
BYBLOCK
 62
0
100
AcDbLine
 10
524.8835790318641
 20
344.0954693645721
 30
0.0000000000000000
 11
525.8735285191007
 21
343.1055198773355
 31
0.0000000000000000
  0
LINE
  5
3F3
100
AcDbEntity
  8
H0
  6
BYBLOCK
 62
0
100
AcDbLine
 10
525.0250003902098
 20
344.0954693645716
 30
0.0000000000000000
 11
525.8735285191011
 21
343.2469412356798
 31
0.0000000000000000
  0
LINE
  5
3F4
100
AcDbEntity
  8
H0
  6
BYBLOCK
 62
0
100
AcDbLine
 10
525.1664217485542
 20
344.0954693645716
 30
0.0000000000000000
 11
525.8735285191011
 21
343.3883625940246
 31
0.0000000000000000
  0
LINE
  5
3F5
100
AcDbEntity
  8
H0
  6
BYBLOCK
 62
0
100
AcDbLine
 10
525.3078431068999
 20
344.0954693645707
 30
0.0000000000000000
 11
525.8735285191017
 21
343.5297839523690
 31
0.0000000000000000
  0
LINE
  5
3F6
100
AcDbEntity
  8
H0
  6
BYBLOCK
 62
0
100
AcDbLine
 10
525.4492644652434
 20
344.0954693645721
 30
0.0000000000000000
 11
525.8735285191002
 21
343.6712053107148
 31
0.0000000000000000
  0
LINE
  5
3F7
100
AcDbEntity
  8
H0
  6
BYBLOCK
 62
0
100
AcDbLine
 10
525.5906858235882
 20
344.0954693645716
 30
0.0000000000000000
 11
525.8735285191002
 21
343.8126266690605
 31
0.0000000000000000
  0
LINE
  5
3F8
100
AcDbEntity
  8
H0
  6
BYBLOCK
 62
0
100
AcDbLine
 10
525.7321071819348
 20
344.0954693645707
 30
0.0000000000000000
 11
525.8735285190994
 21
343.9540480274058
 31
0.0000000000000000
  0
ENDBLK
  5
3F9
100
AcDbEntity
  8
H0
  6
BYBLOCK
 62
3
100
AcDbBlockEnd
  0
BLOCK
  5
3FB
100
AcDbEntity
  8
H0
  6
BYBLOCK
 62
3
100
AcDbBlockBegin
  2
*X5
 70
     1
 10
0.0
 20
0.0
 30
0.0
  0
LINE
  5
3FC
100
AcDbEntity
  8
H0
  6
BYBLOCK
 62
0
100
AcDbLine
 10
524.4593149568306
 20
352.0954693645729
 30
0.0000000000000000
 11
525.8735285190988
 21
353.5096829268412
 31
0.0000000000000000
  0
LINE
  5
3FD
100
AcDbEntity
  8
H0
  6
BYBLOCK
 62
0
100
AcDbLine
 10
524.6007363151749
 20
352.0954693645725
 30
0.0000000000000000
 11
525.8735285190998
 21
353.3682615684978
 31
0.0000000000000000
  0
LINE
  5
3FE
100
AcDbEntity
  8
H0
  6
BYBLOCK
 62
0
100
AcDbLine
 10
524.7421576735212
 20
352.0954693645734
 30
0.0000000000000000
 11
525.8735285190994
 21
353.2268402101520
 31
0.0000000000000000
  0
LINE
  5
3FF
100
AcDbEntity
  8
H0
  6
BYBLOCK
 62
0
100
AcDbLine
 10
524.8835790318641
 20
352.0954693645721
 30
0.0000000000000000
 11
525.8735285191007
 21
353.0854188518086
 31
0.0000000000000000
  0
LINE
  5
400
100
AcDbEntity
  8
H0
  6
BYBLOCK
 62
0
100
AcDbLine
 10
525.0250003902098
 20
352.0954693645725
 30
0.0000000000000000
 11
525.8735285191011
 21
352.9439974934643
 31
0.0000000000000000
  0
LINE
  5
401
100
AcDbEntity
  8
H0
  6
BYBLOCK
 62
0
100
AcDbLine
 10
525.1664217485542
 20
352.0954693645725
 30
0.0000000000000000
 11
525.8735285191011
 21
352.8025761351194
 31
0.0000000000000000
  0
LINE
  5
402
100
AcDbEntity
  8
H0
  6
BYBLOCK
 62
0
100
AcDbLine
 10
525.3078431068999
 20
352.0954693645734
 30
0.0000000000000000
 11
525.8735285191016
 21
352.6611547767751
 31
0.0000000000000000
  0
LINE
  5
403
100
AcDbEntity
  8
H0
  6
BYBLOCK
 62
0
100
AcDbLine
 10
525.4492644652434
 20
352.0954693645720
 30
0.0000000000000000
 11
525.8735285191002
 21
352.5197334184293
 31
0.0000000000000000
  0
LINE
  5
404
100
AcDbEntity
  8
H0
  6
BYBLOCK
 62
0
100
AcDbLine
 10
525.5906858235882
 20
352.0954693645725
 30
0.0000000000000000
 11
525.8735285191002
 21
352.3783120600836
 31
0.0000000000000000
  0
LINE
  5
405
100
AcDbEntity
  8
H0
  6
BYBLOCK
 62
0
100
AcDbLine
 10
525.7321071819347
 20
352.0954693645733
 30
0.0000000000000000
 11
525.8735285190993
 21
352.2368907017384
 31
0.0000000000000000
  0
ENDBLK
  5
406
100
AcDbEntity
  8
H0
  6
BYBLOCK
 62
3
100
AcDbBlockEnd
  0
BLOCK
  5
408
100
AcDbEntity
  8
H0
  6
BYBLOCK
 62
3
100
AcDbBlockBegin
  2
*X6
 70
     1
 10
0.0
 20
0.0
 30
0.0
  0
LINE
  5
409
100
AcDbEntity
  8
H0
  6
BYBLOCK
 62
0
100
AcDbLine
 10
397.2877420813707
 20
344.0954693645711
 30
0.0000000000000000
 11
395.8735285191024
 21
342.6812558023028
 31
0.0000000000000000
  0
LINE
  5
40A
100
AcDbEntity
  8
H0
  6
BYBLOCK
 62
0
100
AcDbLine
 10
397.1463207230265
 20
344.0954693645716
 30
0.0000000000000000
 11
395.8735285191017
 21
342.8226771606463
 31
0.0000000000000000
  0
LINE
  5
40B
100
AcDbEntity
  8
H0
  6
BYBLOCK
 62
0
100
AcDbLine
 10
397.0048993646803
 20
344.0954693645707
 30
0.0000000000000000
 11
395.8735285191021
 21
342.9640985189920
 31
0.0000000000000000
  0
LINE
  5
40C
100
AcDbEntity
  8
H0
  6
BYBLOCK
 62
0
100
AcDbLine
 10
396.8634780063372
 20
344.0954693645721
 30
0.0000000000000000
 11
395.8735285191007
 21
343.1055198773355
 31
0.0000000000000000
  0
LINE
  5
40D
100
AcDbEntity
  8
H0
  6
BYBLOCK
 62
0
100
AcDbLine
 10
396.7220566479916
 20
344.0954693645716
 30
0.0000000000000000
 11
395.8735285191003
 21
343.2469412356798
 31
0.0000000000000000
  0
LINE
  5
40E
100
AcDbEntity
  8
H0
  6
BYBLOCK
 62
0
100
AcDbLine
 10
396.5806352896471
 20
344.0954693645716
 30
0.0000000000000000
 11
395.8735285191002
 21
343.3883625940246
 31
0.0000000000000000
  0
LINE
  5
40F
100
AcDbEntity
  8
H0
  6
BYBLOCK
 62
0
100
AcDbLine
 10
396.4392139313014
 20
344.0954693645707
 30
0.0000000000000000
 11
395.8735285190997
 21
343.5297839523690
 31
0.0000000000000000
  0
LINE
  5
410
100
AcDbEntity
  8
H0
  6
BYBLOCK
 62
0
100
AcDbLine
 10
396.2977925729580
 20
344.0954693645721
 30
0.0000000000000000
 11
395.8735285191012
 21
343.6712053107148
 31
0.0000000000000000
  0
LINE
  5
411
100
AcDbEntity
  8
H0
  6
BYBLOCK
 62
0
100
AcDbLine
 10
396.1563712146132
 20
344.0954693645716
 30
0.0000000000000000
 11
395.8735285191011
 21
343.8126266690605
 31
0.0000000000000000
  0
LINE
  5
412
100
AcDbEntity
  8
H0
  6
BYBLOCK
 62
0
100
AcDbLine
 10
396.0149498562665
 20
344.0954693645707
 30
0.0000000000000000
 11
395.8735285191020
 21
343.9540480274057
 31
0.0000000000000000
  0
ENDBLK
  5
413
100
AcDbEntity
  8
H0
  6
BYBLOCK
 62
3
100
AcDbBlockEnd
  0
BLOCK
  5
415
100
AcDbEntity
  8
H0
  6
BYBLOCK
 62
3
100
AcDbBlockBegin
  2
*X7
 70
     1
 10
0.0
 20
0.0
 30
0.0
  0
LINE
  5
416
100
AcDbEntity
  8
H0
  6
BYBLOCK
 62
0
100
AcDbLine
 10
397.2877420813708
 20
352.0954693645730
 30
0.0000000000000000
 11
395.8735285191025
 21
353.5096829268412
 31
0.0000000000000000
  0
LINE
  5
417
100
AcDbEntity
  8
H0
  6
BYBLOCK
 62
0
100
AcDbLine
 10
397.1463207230264
 20
352.0954693645725
 30
0.0000000000000000
 11
395.8735285191016
 21
353.3682615684978
 31
0.0000000000000000
  0
LINE
  5
418
100
AcDbEntity
  8
H0
  6
BYBLOCK
 62
0
100
AcDbLine
 10
397.0048993646801
 20
352.0954693645734
 30
0.0000000000000000
 11
395.8735285191020
 21
353.2268402101520
 31
0.0000000000000000
  0
LINE
  5
419
100
AcDbEntity
  8
H0
  6
BYBLOCK
 62
0
100
AcDbLine
 10
396.8634780063373
 20
352.0954693645721
 30
0.0000000000000000
 11
395.8735285191007
 21
353.0854188518086
 31
0.0000000000000000
  0
LINE
  5
41A
100
AcDbEntity
  8
H0
  6
BYBLOCK
 62
0
100
AcDbLine
 10
396.7220566479916
 20
352.0954693645725
 30
0.0000000000000000
 11
395.8735285191002
 21
352.9439974934643
 31
0.0000000000000000
  0
LINE
  5
41B
100
AcDbEntity
  8
H0
  6
BYBLOCK
 62
0
100
AcDbLine
 10
396.5806352896472
 20
352.0954693645725
 30
0.0000000000000000
 11
395.8735285191002
 21
352.8025761351194
 31
0.0000000000000000
  0
LINE
  5
41C
100
AcDbEntity
  8
H0
  6
BYBLOCK
 62
0
100
AcDbLine
 10
396.4392139313014
 20
352.0954693645734
 30
0.0000000000000000
 11
395.8735285190998
 21
352.6611547767751
 31
0.0000000000000000
  0
LINE
  5
41D
100
AcDbEntity
  8
H0
  6
BYBLOCK
 62
0
100
AcDbLine
 10
396.2977925729581
 20
352.0954693645720
 30
0.0000000000000000
 11
395.8735285191012
 21
352.5197334184293
 31
0.0000000000000000
  0
LINE
  5
41E
100
AcDbEntity
  8
H0
  6
BYBLOCK
 62
0
100
AcDbLine
 10
396.1563712146131
 20
352.0954693645725
 30
0.0000000000000000
 11
395.8735285191011
 21
352.3783120600836
 31
0.0000000000000000
  0
LINE
  5
41F
100
AcDbEntity
  8
H0
  6
BYBLOCK
 62
0
100
AcDbLine
 10
396.0149498562666
 20
352.0954693645734
 30
0.0000000000000000
 11
395.8735285191020
 21
352.2368907017384
 31
0.0000000000000000
  0
ENDBLK
  5
420
100
AcDbEntity
  8
H0
  6
BYBLOCK
 62
3
100
AcDbBlockEnd
  0
BLOCK
  5
457
100
AcDbEntity
  8
A0
  6
BYBLOCK
 62
3
100
AcDbBlockBegin
  2
M0
 70
    64
 10
0.0
 20
0.0
 30
0.0
  0
LINE
  5
458
100
AcDbEntity
  8
A0
  6
BYBLOCK
 62
0
100
AcDbLine
 10
162.4171262583434
 20
125.0220249260269
 30
0.0000000000000000
 11
304.9171262583433
 21
125.0220249260269
 31
0.0000000000000000
  0
LINE
  5
459
100
AcDbEntity
  8
A0
  6
BYBLOCK
 62
0
100
AcDbLine
 10
162.4171262583434
 20
117.5220249260269
 30
0.0000000000000000
 11
304.9171262583433
 21
117.5220249260269
 31
0.0000000000000000
  0
LINE
  5
45A
100
AcDbEntity
  8
A0
  6
BYBLOCK
 62
0
100
AcDbLine
 10
162.4171262583434
 20
110.0220249260269
 30
0.0000000000000000
 11
304.9171262583433
 21
110.0220249260269
 31
0.0000000000000000
  0
MTEXT
  5
45B
100
AcDbEntity
  8
A0
  6
BYBLOCK
 62
0
100
AcDbMText
 10
163.9171262583434
 20
130.4220247829757
 30
0.0000000000000000
 40
4.649999856948853
 41
0.0000000000000000
 71
     1
 72
     1
  1
{\H0.88x;1.}
 11
1.000000000000000
 21
0.0000000000000000
 31
0.0000000000000000
  7
STANDARD
  0
MTEXT
  5
45C
100
AcDbEntity
  8
A0
  6
BYBLOCK
 62
0
100
AcDbMText
 10
164.6671262583434
 20
146.0220249260273
 30
0.0000000000000000
 40
9.000000000000000
 41
0.0000000000000000
 71
     1
 72
     1
  1
{\H0.80x;要注意}
 11
1.000000000000000
 21
0.0000000000000000
 31
0.0000000000000000
  7
KNJYOKO
  0
LINE
  5
45D
100
AcDbEntity
  8
A0
  6
BYBLOCK
 62
0
100
AcDbLine
 10
192.4171262583434
 20
148.2720249260273
 30
0.0000000000000000
 11
192.4171262583434
 21
134.7720249260273
 31
0.0000000000000000
  0
LINE
  5
45E
100
AcDbEntity
  8
A0
  6
BYBLOCK
 62
0
100
AcDbLine
 10
162.4171262583434
 20
134.7720249260273
 30
0.0000000000000000
 11
192.4171262583434
 21
134.7720249260273
 31
0.0000000000000000
  0
LINE
  5
45F
100
AcDbEntity
  8
A0
  6
BYBLOCK
 62
0
100
AcDbLine
 10
162.4171262583434
 20
148.2720249260273
 30
0.0000000000000000
 11
162.4171262583434
 21
134.7720249260273
 31
0.0000000000000000
  0
LINE
  5
460
100
AcDbEntity
  8
A0
  6
BYBLOCK
 62
0
100
AcDbLine
 10
162.4171262583434
 20
148.2720249260273
 30
0.0000000000000000
 11
192.4171262583434
 21
148.2720249260273
 31
0.0000000000000000
  0
ENDBLK
  5
461
100
AcDbEntity
  8
A0
  6
BYBLOCK
 62
3
100
AcDbBlockEnd
  0
BLOCK
  5
463
100
AcDbEntity
  8
A0
  6
BYBLOCK
 62
3
100
AcDbBlockBegin
  2
M1
 70
    64
 10
0.0
 20
0.0
 30
0.0
  0
LINE
  5
464
100
AcDbEntity
  8
A0
  6
BYBLOCK
 62
0
100
AcDbLine
 10
162.4171262583434
 20
67.52202492602686
 30
0.0000000000000000
 11
304.9171262583433
 21
67.52202492602686
 31
0.0000000000000000
  0
LINE
  5
465
100
AcDbEntity
  8
A0
  6
BYBLOCK
 62
0
100
AcDbLine
 10
162.4171262583434
 20
60.02202492602689
 30
0.0000000000000000
 11
304.9171262583434
 21
60.02202492602689
 31
0.0000000000000000
  0
LINE
  5
466
100
AcDbEntity
  8
A0
  6
BYBLOCK
 62
0
100
AcDbLine
 10
162.4171262583434
 20
52.52202492602694
 30
0.0000000000000000
 11
304.9171262583433
 21
52.52202492602694
 31
0.0000000000000000
  0
LINE
  5
467
100
AcDbEntity
  8
A0
  6
BYBLOCK
 62
0
100
AcDbLine
 10
162.4171262583434
 20
45.02202492602694
 30
0.0000000000000000
 11
304.9171262583434
 21
45.02202492602694
 31
0.0000000000000000
  0
MTEXT
  5
468
100
AcDbEntity
  8
A0
  6
BYBLOCK
 62
0
100
AcDbMText
 10
163.9171262583434
 20
72.92202478297571
 30
0.0000000000000000
 40
4.649999856948853
 41
0.0000000000000000
 71
     1
 72
     1
  1
{\H0.88x;1.}
 11
1.000000000000000
 21
0.0000000000000000
 31
0.0000000000000000
  7
STANDARD
  0
MTEXT
  5
469
100
AcDbEntity
  8
A0
  6
BYBLOCK
 62
0
100
AcDbMText
 10
164.6671262583434
 20
87.02202492602729
 30
0.0000000000000000
 40
7.500000000000000
 41
0.0000000000000000
 71
     1
 72
     1
  1
{\H0.63x;NOTICE}
 11
1.000000000000000
 21
0.0000000000000000
 31
0.0000000000000000
  7
STANDARD
  0
LINE
  5
46A
100
AcDbEntity
  8
A0
  6
BYBLOCK
 62
0
100
AcDbLine
 10
192.4171262583434
 20
90.77202492602727
 30
0.0000000000000000
 11
192.4171262583434
 21
77.27202492602730
 31
0.0000000000000000
  0
LINE
  5
46B
100
AcDbEntity
  8
A0
  6
BYBLOCK
 62
0
100
AcDbLine
 10
162.4171262583434
 20
77.27202492602729
 30
0.0000000000000000
 11
192.4171262583434
 21
77.27202492602729
 31
0.0000000000000000
  0
LINE
  5
46C
100
AcDbEntity
  8
A0
  6
BYBLOCK
 62
0
100
AcDbLine
 10
162.4171262583434
 20
90.77202492602727
 30
0.0000000000000000
 11
162.4171262583434
 21
77.27202492602727
 31
0.0000000000000000
  0
LINE
  5
46D
100
AcDbEntity
  8
A0
  6
BYBLOCK
 62
0
100
AcDbLine
 10
162.4171262583434
 20
90.77202492602729
 30
0.0000000000000000
 11
192.4171262583434
 21
90.77202492602729
 31
0.0000000000000000
  0
ENDBLK
  5
46E
100
AcDbEntity
  8
A0
  6
BYBLOCK
 62
3
100
AcDbBlockEnd
  0
BLOCK
  5
498
100
AcDbEntity
  8
ZH0
  6
CONTINUOUS
 62
3
100
AcDbBlockBegin
  2
*D32
 70
    65
 10
0.0
 20
0.0
 30
0.0
  0
LINE
  5
499
100
AcDbEntity
  8
ZH0
  6
BYBLOCK
 62
0
100
AcDbLine
 10
341.7907221322886
 20
126.5682244032876
 30
0.0000000000000000
 11
341.7907221322485
 21
143.9000429452412
 31
0.0000000000000000
  0
LINE
  5
49A
100
AcDbEntity
  8
ZH0
  6
BYBLOCK
 62
0
100
AcDbLine
 10
343.7907221322531
 20
141.9000429452412
 30
0.0000000000000000
 11
414.7907221322531
 21
141.9000429452412
 31
0.0000000000000000
  0
INSERT
  5
49B
100
AcDbEntity
  8
ZH0
  6
BYBLOCK
 62
0
100
AcDbBlockReference
  2
_OPEN
 10
341.7907221322531
 20
141.9000429452412
 30
0.0000000000000000
 41
2.000000000000000
 42
2.000000000000000
 43
2.000000000000000
 50
180.0000000000000
  0
INSERT
  5
49C
100
AcDbEntity
  8
ZH0
  6
BYBLOCK
 62
0
100
AcDbBlockReference
  2
_OPEN
 10
416.7907221322531
 20
141.9000429452412
 30
0.0000000000000000
 41
2.000000000000000
 42
2.000000000000000
 43
2.000000000000000
 50
0.0000000000000000
  0
LINE
  5
49D
100
AcDbEntity
  8
ZH0
  6
BYBLOCK
 62
0
100
AcDbLine
 10
416.7907221322885
 20
126.5682244032288
 30
0.0000000000000000
 11
416.7907221322484
 21
143.9000429452412
 31
0.0000000000000000
  0
MTEXT
  5
49E
100
AcDbEntity
  8
ZH0
  6
BYBLOCK
 62
0
100
AcDbMText
 10
379.2907221322531
 20
143.9500428975575
 30
0.0000000000000000
 40
3.099999904632568
 41
0.0000000000000000
 71
     5
 72
     1
  1
\A1;75
 11
1.000000000000000
 21
0.0000000000000000
 31
0.0000000000000000
  7
STANDARD
  0
ENDBLK
  5
49F
100
AcDbEntity
  8
ZH0
  6
CONTINUOUS
 62
3
100
AcDbBlockEnd
  0
BLOCK
  5
4A1
100
AcDbEntity
  8
ZH0
  6
CONTINUOUS
 62
3
100
AcDbBlockBegin
  2
*D33
 70
    65
 10
0.0
 20
0.0
 30
0.0
  0
LINE
  5
4A2
100
AcDbEntity
  8
ZH0
  6
BYBLOCK
 62
0
100
AcDbLine
 10
382.9307221441704
 20
88.76822439133520
 30
0.0000000000000000
 11
436.7986108042991
 21
88.76822439134573
 31
0.0000000000000000
  0
LINE
  5
4A3
100
AcDbEntity
  8
ZH0
  6
BYBLOCK
 62
0
100
AcDbLine
 10
434.7986108042990
 20
90.76822439134531
 30
0.0000000000000000
 11
434.7986108042990
 21
124.7682243913662
 31
0.0000000000000000
  0
INSERT
  5
4A4
100
AcDbEntity
  8
ZH0
  6
BYBLOCK
 62
0
100
AcDbBlockReference
  2
_OPEN
 10
434.7986108042990
 20
88.76822439134531
 30
0.0000000000000000
 41
2.000000000000000
 42
2.000000000000000
 43
2.000000000000000
 50
270.0000000000000
  0
INSERT
  5
4A5
100
AcDbEntity
  8
ZH0
  6
BYBLOCK
 62
0
100
AcDbBlockReference
  2
_OPEN
 10
434.7986108042990
 20
126.7682243913662
 30
0.0000000000000000
 41
2.000000000000000
 42
2.000000000000000
 43
2.000000000000000
 50
90.00000000000000
  0
LINE
  5
4A6
100
AcDbEntity
  8
ZH0
  6
BYBLOCK
 62
0
100
AcDbLine
 10
416.5907221442124
 20
126.7682243913110
 30
0.0000000000000000
 11
436.7986108042990
 21
126.7682243913723
 31
0.0000000000000000
  0
MTEXT
  5
4A7
100
AcDbEntity
  8
ZH0
  6
BYBLOCK
 62
0
100
AcDbMText
 10
432.7486108519827
 20
107.7682243913557
 30
0.0000000000000000
 40
3.099999904632568
 41
0.0000000000000000
 71
     5
 72
     1
  1
\A1;38
 11
6.123233995736766e-017
 21
1.000000000000000
 31
0.0000000000000000
  7
STANDARD
  0
ENDBLK
  5
4A8
100
AcDbEntity
  8
ZH0
  6
CONTINUOUS
 62
3
100
AcDbBlockEnd
  0
BLOCK
  5
4AA
100
AcDbEntity
  8
ZH0
  6
CONTINUOUS
 62
3
100
AcDbBlockBegin
  2
*D34
 70
    65
 10
0.0
 20
0.0
 30
0.0
  0
LINE
  5
4AB
100
AcDbEntity
  8
ZH0
  6
BYBLOCK
 62
0
100
AcDbLine
 10
375.7907221322436
 20
82.70783865822278
 30
0.0000000000000000
 11
375.7907221322436
 21
70.60948741033678
 31
0.0000000000000000
  0
LINE
  5
4AC
100
AcDbEntity
  8
ZH0
  6
BYBLOCK
 62
0
100
AcDbLine
 10
377.7907221322436
 20
72.60948741033678
 30
0.0000000000000000
 11
392.8407221322465
 21
72.60948741033678
 31
0.0000000000000000
  0
INSERT
  5
4AD
100
AcDbEntity
  8
ZH0
  6
BYBLOCK
 62
0
100
AcDbBlockReference
  2
_OPEN
 10
375.7907221322436
 20
72.60948741033678
 30
0.0000000000000000
 41
2.000000000000000
 42
2.000000000000000
 43
2.000000000000000
 50
180.0000000000000
  0
INSERT
  5
4AE
100
AcDbEntity
  8
ZH0
  6
BYBLOCK
 62
0
100
AcDbBlockReference
  2
_OPEN
 10
394.8407221322465
 20
72.60948741033678
 30
0.0000000000000000
 41
2.000000000000000
 42
2.000000000000000
 43
2.000000000000000
 50
0.0000000000000000
  0
LINE
  5
4AF
100
AcDbEntity
  8
ZH0
  6
BYBLOCK
 62
0
100
AcDbLine
 10
394.8407221322465
 20
85.23166306118571
 30
0.0000000000000000
 11
394.8407221322465
 21
70.60948741033678
 31
0.0000000000000000
  0
MTEXT
  5
4B0
100
AcDbEntity
  8
ZH0
  6
BYBLOCK
 62
0
100
AcDbMText
 10
385.3157221322451
 20
74.65948736265307
 30
0.0000000000000000
 40
3.099999904632568
 41
0.0000000000000000
 71
     5
 72
     1
  1
\A1;19.05
 11
1.000000000000000
 21
0.0000000000000000
 31
0.0000000000000000
  7
STANDARD
  0
ENDBLK
  5
4B1
100
AcDbEntity
  8
ZH0
  6
CONTINUOUS
 62
3
100
AcDbBlockEnd
  0
BLOCK
  5
4B3
100
AcDbEntity
  8
ZH0
  6
CONTINUOUS
 62
3
100
AcDbBlockBegin
  2
*D35
 70
    65
 10
0.0
 20
0.0
 30
0.0
  0
LINE
  5
4B4
100
AcDbEntity
  8
ZH0
  6
BYBLOCK
 62
0
100
AcDbLine
 10
375.7907221322436
 20
82.70783865822278
 30
0.0000000000000000
 11
375.7907221322436
 21
70.60948741033678
 31
0.0000000000000000
  0
LINE
  5
4B5
100
AcDbEntity
  8
ZH0
  6
BYBLOCK
 62
0
100
AcDbLine
 10
373.7907221322436
 20
72.60948741033678
 30
0.0000000000000000
 11
358.7407221322437
 21
72.60948741033678
 31
0.0000000000000000
  0
INSERT
  5
4B6
100
AcDbEntity
  8
ZH0
  6
BYBLOCK
 62
0
100
AcDbBlockReference
  2
_OPEN
 10
375.7907221322436
 20
72.60948741033678
 30
0.0000000000000000
 41
2.000000000000000
 42
2.000000000000000
 43
2.000000000000000
 50
360.0000000000000
  0
INSERT
  5
4B7
100
AcDbEntity
  8
ZH0
  6
BYBLOCK
 62
0
100
AcDbBlockReference
  2
_OPEN
 10
356.7407221322437
 20
72.60948741033678
 30
0.0000000000000000
 41
2.000000000000000
 42
2.000000000000000
 43
2.000000000000000
 50
180.0000000000000
  0
LINE
  5
4B8
100
AcDbEntity
  8
ZH0
  6
BYBLOCK
 62
0
100
AcDbLine
 10
356.7407221322437
 20
82.82255438552537
 30
0.0000000000000000
 11
356.7407221322437
 21
70.60948741033678
 31
0.0000000000000000
  0
MTEXT
  5
4B9
100
AcDbEntity
  8
ZH0
  6
BYBLOCK
 62
0
100
AcDbMText
 10
366.2657221322436
 20
74.65948736265307
 30
0.0000000000000000
 40
3.099999904632568
 41
0.0000000000000000
 71
     5
 72
     1
  1
\A1;19.05
 11
1.000000000000000
 21
0.0000000000000000
 31
0.0000000000000000
  7
STANDARD
  0
ENDBLK
  5
4BA
100
AcDbEntity
  8
ZH0
  6
CONTINUOUS
 62
3
100
AcDbBlockEnd
  0
ENDSEC
  0
SECTION
  2
ENTITIES
  0
LINE
  5
46
100
AcDbEntity
  8
MAIN0
  6
CONTINUOUS
 62
3
100
AcDbLine
 10
109.3739400078605
 20
339.7639818210366
 30
0.0000000000000000
 11
171.1739400078598
 21
339.7639818210366
 31
0.0000000000000000
  0
LINE
  5
47
100
AcDbEntity
  8
MAIN0
  6
CONTINUOUS
 62
3
100
AcDbLine
 10
172.7739400078601
 20
338.1639818210363
 30
0.0000000000000000
 11
171.1739400078598
 21
339.7639818210366
 31
0.0000000000000000
  0
LINE
  5
48
100
AcDbEntity
  8
MAIN0
  6
CONTINUOUS
 62
3
100
AcDbLine
 10
109.3739400078603
 20
174.7639818210366
 30
0.0000000000000000
 11
107.7739400078601
 21
176.3639818210369
 31
0.0000000000000000
  0
LINE
  5
49
100
AcDbEntity
  8
MAIN0
  6
CONTINUOUS
 62
3
100
AcDbLine
 10
107.7739400078601
 20
338.1639818210362
 30
0.0000000000000000
 11
109.3739400078605
 21
339.7639818210366
 31
0.0000000000000000
  0
LINE
  5
4A
100
AcDbEntity
  8
MAIN0
  6
CONTINUOUS
 62
3
100
AcDbLine
 10
107.7739400078601
 20
322.2639818210366
 30
0.0000000000000000
 11
115.7739400078607
 21
322.2639818210366
 31
0.0000000000000000
  0
LINE
  5
4B
100
AcDbEntity
  8
MAIN0
  6
CONTINUOUS
 62
3
100
AcDbLine
 10
107.7739400078601
 20
192.2639818210366
 30
0.0000000000000000
 11
115.7739400078607
 21
192.2639818210366
 31
0.0000000000000000
  0
LINE
  5
4C
100
AcDbEntity
  8
MAIN0
  6
CONTINUOUS
 62
3
100
AcDbLine
 10
114.7739400078601
 20
322.7639818210366
 30
0.0000000000000000
 11
114.7739400078601
 21
322.2639818210366
 31
0.0000000000000000
  0
LINE
  5
4D
100
AcDbEntity
  8
MAIN0
  6
PHANTOM
 62
3
100
AcDbLine
 10
172.7739400078606
 20
267.7639818210366
 30
0.0000000000000000
 11
177.7739400078601
 21
267.7639818210366
 31
0.0000000000000000
  0
LINE
  5
4E
100
AcDbEntity
  8
MAIN0
  6
PHANTOM
 62
3
100
AcDbLine
 10
172.7739400078608
 20
246.7639818210366
 30
0.0000000000000000
 11
177.7739400078601
 21
246.7639818210366
 31
0.0000000000000000
  0
LINE
  5
4F
100
AcDbEntity
  8
MAIN0
  6
CENTER
 62
3
100
AcDbLine
 10
131.7739400078601
 20
352.2444198839546
 30
0.0000000000000000
 11
131.7739400078601
 21
327.2639818210366
 31
0.0000000000000000
  0
LINE
  5
50
100
AcDbEntity
  8
MAIN0
  6
CONTINUOUS
 62
3
100
AcDbLine
 10
116.7531413247181
 20
314.2890270737982
 30
0.0000000000000000
 11
115.7739400078607
 21
322.2639818210366
 31
0.0000000000000000
  0
ARC
  5
51
100
AcDbEntity
  8
MAIN0
  6
CONTINUOUS
 62
3
100
AcDbCircle
 10
124.6935105378490
 20
315.2639818210366
 30
0.0000000000000000
 40
8.000000000000000
100
AcDbArc
 50
186.9999999999797
 51
243.3663111890926
  0
LINE
  5
52
100
AcDbEntity
  8
MAIN0
  6
CONTINUOUS
 62
3
100
AcDbLine
 10
112.7739400078601
 20
297.2639818210366
 30
0.0000000000000000
 11
121.2739400078600
 21
297.2639818210366
 31
0.0000000000000000
  0
LINE
  5
53
100
AcDbEntity
  8
MAIN0
  6
CONTINUOUS
 62
3
100
AcDbLine
 10
121.2739400078601
 20
279.7639818210366
 30
0.0000000000000000
 11
125.2739400072721
 21
279.7639818210366
 31
0.0000000000000000
  0
LINE
  5
54
100
AcDbEntity
  8
MAIN0
  6
CONTINUOUS
 62
3
100
AcDbLine
 10
116.7531413247181
 20
200.2389365682749
 30
0.0000000000000000
 11
115.7739400078607
 21
192.2639818210366
 31
0.0000000000000000
  0
ARC
  5
55
100
AcDbEntity
  8
MAIN0
  6
CONTINUOUS
 62
3
100
AcDbCircle
 10
124.6935105378490
 20
199.2639818210366
 30
0.0000000000000000
 40
8.000000000000000
100
AcDbArc
 50
90.00000000000000
 51
173.0000000000203
  0
LINE
  5
56
100
AcDbEntity
  8
MAIN0
  6
CONTINUOUS
 62
3
100
AcDbLine
 10
124.6935105378490
 20
207.2639818210366
 30
0.0000000000000000
 11
130.2739392850442
 21
207.2639818210366
 31
0.0000000000000000
  0
LINE
  5
57
100
AcDbEntity
  8
MAIN0
  6
CONTINUOUS
 62
3
100
AcDbLine
 10
114.7739400078601
 20
191.7639818210366
 30
0.0000000000000000
 11
127.6820872884069
 21
191.7639818210366
 31
0.0000000000000000
  0
LINE
  5
58
100
AcDbEntity
  8
MAIN0
  6
CONTINUOUS
 62
3
100
AcDbLine
 10
114.7739400078601
 20
192.2639818210366
 30
0.0000000000000000
 11
114.7739400078601
 21
191.7639818210366
 31
0.0000000000000000
  0
LINE
  5
59
100
AcDbEntity
  8
MAIN0
  6
CONTINUOUS
 62
3
100
AcDbLine
 10
112.7739400078601
 20
217.2639818210366
 30
0.0000000000000000
 11
121.2739400078600
 21
217.2639818210366
 31
0.0000000000000000
  0
LINE
  5
5A
100
AcDbEntity
  8
MAIN0
  6
CONTINUOUS
 62
3
100
AcDbLine
 10
121.2739400078601
 20
234.7639818210366
 30
0.0000000000000000
 11
132.7739399974338
 21
234.7639818210366
 31
0.0000000000000000
  0
LINE
  5
5B
100
AcDbEntity
  8
MAIN0
  6
CENTER
 62
3
100
AcDbLine
 10
117.7739400078601
 20
227.2639818210366
 30
0.0000000000000000
 11
137.7739400078601
 21
227.2639818210366
 31
0.0000000000000000
  0
LINE
  5
5C
100
AcDbEntity
  8
MAIN0
  6
HIDDEN
 62
3
100
AcDbLine
 10
117.7739400078601
 20
339.7639818210366
 30
0.0000000000000000
 11
117.7739400078601
 21
331.8788965248297
 31
0.0000000000000000
  0
LINE
  5
5D
100
AcDbEntity
  8
MAIN0
  6
HIDDEN
 62
3
100
AcDbLine
 10
145.7739400078601
 20
339.7639818210366
 30
0.0000000000000000
 11
145.7739400078601
 21
331.8788965248352
 31
0.0000000000000000
  0
LINE
  5
5E
100
AcDbEntity
  8
MAIN0
  6
HIDDEN
 62
3
100
AcDbLine
 10
117.7739400078600
 20
332.5139818210366
 30
0.0000000000000000
 11
119.7739400078601
 21
332.5139818210366
 31
0.0000000000000000
  0
ARC
  5
5F
100
AcDbEntity
  8
MAIN0
  6
HIDDEN
 62
3
100
AcDbCircle
 10
119.7739400078601
 20
329.7639818210366
 30
0.0000000000000000
 40
2.750000000000000
100
AcDbArc
 50
50.26954290042576
 51
90.00000000000000
  0
LINE
  5
60
100
AcDbEntity
  8
MAIN0
  6
HIDDEN
 62
3
100
AcDbLine
 10
118.2739400078601
 20
339.5139818210366
 30
0.0000000000000000
 11
145.2739400078603
 21
339.5139818210366
 31
0.0000000000000000
  0
LINE
  5
61
100
AcDbEntity
  8
MAIN0
  6
HIDDEN
 62
3
100
AcDbLine
 10
118.2739400078601
 20
339.5139818210366
 30
0.0000000000000000
 11
117.7739400078601
 21
339.0139818210366
 31
0.0000000000000000
  0
LINE
  5
62
100
AcDbEntity
  8
MAIN0
  6
HIDDEN
 62
3
100
AcDbLine
 10
145.2739400078603
 20
339.5139818210366
 30
0.0000000000000000
 11
145.7739400078601
 21
339.0139818210368
 31
0.0000000000000000
  0
LINE
  5
63
100
AcDbEntity
  8
MAIN0
  6
HIDDEN
 62
3
100
AcDbLine
 10
145.7739400078601
 20
332.5139818210366
 30
0.0000000000000000
 11
143.7739400078601
 21
332.5139818210366
 31
0.0000000000000000
  0
ARC
  5
64
100
AcDbEntity
  8
MAIN0
  6
HIDDEN
 62
3
100
AcDbCircle
 10
143.7739400078601
 20
329.7639818210366
 30
0.0000000000000000
 40
2.750000000000000
100
AcDbArc
 50
90.00000000000000
 51
129.7304570994407
  0
LINE
  5
65
100
AcDbEntity
  8
MAIN0
  6
CONTINUOUS
 62
3
100
AcDbLine
 10
114.7739400078601
 20
322.7639818210366
 30
0.0000000000000000
 11
116.5352120293590
 21
322.7639818210366
 31
0.0000000000000000
  0
LINE
  5
66
100
AcDbEntity
  8
MAIN0
  6
HIDDEN
 62
3
100
AcDbLine
 10
138.8239400078587
 20
339.1098366323124
 30
0.0000000000000000
 11
139.5239400083613
 21
339.5139818210367
 31
0.0000000000000000
  0
LINE
  5
67
100
AcDbEntity
  8
MAIN0
  6
HIDDEN
 62
3
100
AcDbLine
 10
138.3239400078601
 20
338.2438112285287
 30
0.0000000000000000
 11
138.3239400078601
 21
331.8788965248326
 31
0.0000000000000000
  0
LINE
  5
68
100
AcDbEntity
  8
MAIN0
  6
HIDDEN
 62
3
100
AcDbLine
 10
124.7239400078614
 20
339.1098366323124
 30
0.0000000000000000
 11
124.0239400073588
 21
339.5139818210366
 31
0.0000000000000000
  0
LINE
  5
69
100
AcDbEntity
  8
MAIN0
  6
HIDDEN
 62
3
100
AcDbLine
 10
125.2239400078601
 20
338.2438112285287
 30
0.0000000000000000
 11
125.2239400078601
 21
331.8788965248311
 31
0.0000000000000000
  0
ARC
  5
6A
100
AcDbEntity
  8
MAIN0
  6
HIDDEN
 62
3
100
AcDbCircle
 10
139.3239400078601
 20
338.2438112285287
 30
0.0000000000000000
 40
1.000000000000000
100
AcDbArc
 50
120.0000000000873
 51
180.0000000000000
  0
ARC
  5
6B
100
AcDbEntity
  8
MAIN0
  6
HIDDEN
 62
3
100
AcDbCircle
 10
124.2239400078601
 20
338.2438112285287
 30
0.0000000000000000
 40
1.000000000000000
100
AcDbArc
 50
0.0000000000000000
 51
59.99999999991231
  0
LINE
  5
6C
100
AcDbEntity
  8
MAIN0
  6
HIDDEN
 62
3
100
AcDbLine
 10
132.3176099462504
 20
338.2438112286274
 30
0.0000000000000000
 11
132.3176099462495
 21
331.8788965248326
 31
0.0000000000000000
  0
LINE
  5
6D
100
AcDbEntity
  8
MAIN0
  6
HIDDEN
 62
3
100
AcDbLine
 10
131.2302700694697
 20
338.2438112286269
 30
0.0000000000000000
 11
131.2302700694706
 21
331.8788965248323
 31
0.0000000000000000
  0
LINE
  5
6E
100
AcDbEntity
  8
MAIN0
  6
HIDDEN
 62
3
100
AcDbLine
 10
125.2239400078601
 20
338.2438112286246
 30
0.0000000000000000
 11
131.2302700694697
 21
338.2438112286269
 31
0.0000000000000000
  0
LINE
  5
6F
100
AcDbEntity
  8
MAIN0
  6
HIDDEN
 62
3
100
AcDbLine
 10
132.3176099462504
 20
338.2438112286274
 30
0.0000000000000000
 11
138.3239400078601
 21
338.2438112286297
 31
0.0000000000000000
  0
LINE
  5
70
100
AcDbEntity
  8
MAIN0
  6
HIDDEN
 62
3
100
AcDbLine
 10
125.2239400078601
 20
338.2438112286246
 30
0.0000000000000000
 11
128.2271050386651
 21
331.8788965248321
 31
0.0000000000000000
  0
LINE
  5
71
100
AcDbEntity
  8
MAIN0
  6
HIDDEN
 62
3
100
AcDbLine
 10
128.2271050386649
 20
331.8788965248317
 30
0.0000000000000000
 11
131.2302700694697
 21
338.2438112286269
 31
0.0000000000000000
  0
LINE
  5
72
100
AcDbEntity
  8
MAIN0
  6
HIDDEN
 62
3
100
AcDbLine
 10
132.3176099462504
 20
338.2438112286274
 30
0.0000000000000000
 11
135.3207749770547
 21
331.8788965248332
 31
0.0000000000000000
  0
LINE
  5
73
100
AcDbEntity
  8
MAIN0
  6
HIDDEN
 62
3
100
AcDbLine
 10
135.3207749770544
 20
331.8788965248332
 30
0.0000000000000000
 11
138.3239400078601
 21
338.2438112286297
 31
0.0000000000000000
  0
LINE
  5
74
100
AcDbEntity
  8
MAIN0
  6
CONTINUOUS
 62
3
100
AcDbLine
 10
172.7739400078613
 20
176.3639818210368
 30
0.0000000000000000
 11
171.1739400078611
 21
174.7639818210366
 31
0.0000000000000000
  0
LINE
  5
75
100
AcDbEntity
  8
MAIN0
  6
HIDDEN
 62
3
100
AcDbLine
 10
359.9236044336113
 20
253.3089387332048
 30
0.0000000000000000
 11
415.3588531022829
 21
285.3144944746560
 31
0.0000000000000000
  0
LINE
  5
76
100
AcDbEntity
  8
MAIN0
  6
HIDDEN
 62
3
100
AcDbLine
 10
345.4236044336114
 20
278.4236754429535
 30
0.0000000000000000
 11
400.8588531022828
 21
310.4292311844047
 31
0.0000000000000000
  0
LINE
  5
77
100
AcDbEntity
  8
MAIN0
  6
CENTER
 62
3
100
AcDbLine
 10
328.4189972171425
 20
278.2755273468273
 30
0.0000000000000000
 11
318.2505811402269
 21
301.1141637878831
 31
0.0000000000000000
  0
ARC
  5
78
100
AcDbEntity
  8
MAIN0
  6
CENTER
 62
3
100
AcDbCircle
 10
337.7739400078601
 20
257.2639818210366
 30
0.0000000000000000
 40
35.49999999999997
100
AcDbArc
 50
93.71972738576854
 51
134.2802726141773
  0
CIRCLE
  5
79
100
AcDbEntity
  8
MAIN0
  6
CONTINUOUS
 62
3
100
AcDbCircle
 10
323.3347891786847
 20
289.6948455673552
 30
0.0000000000000000
 40
7.500000000000000
  0
LINE
  5
7A
100
AcDbEntity
  8
MAIN0
  6
HIDDEN
 62
3
100
AcDbLine
 10
351.7739400078601
 20
338.5674257825318
 30
0.0000000000000000
 11
351.7739400078601
 21
321.2503084854107
 31
0.0000000000000000
  0
LINE
  5
7B
100
AcDbEntity
  8
MAIN0
  6
HIDDEN
 62
3
100
AcDbLine
 10
323.7739400078601
 20
338.5674257825318
 30
0.0000000000000000
 11
323.7739400078601
 21
321.2503084854107
 31
0.0000000000000000
  0
ARC
  5
7C
100
AcDbEntity
  8
MAIN0
  6
CENTER
 62
3
100
AcDbCircle
 10
337.7739400078601
 20
257.2639818210366
 30
0.0000000000000000
 40
72.50000000000000
100
AcDbArc
 50
94.78960686212281
 51
105.0667768224501
  0
LINE
  5
7D
100
AcDbEntity
  8
MAIN0
  6
CENTER
 62
3
100
AcDbLine
 10
325.2739400078601
 20
335.1782661064651
 30
0.0000000000000000
 11
325.2739400078601
 21
322.1782661064651
 31
0.0000000000000000
  0
LINE
  5
7E
100
AcDbEntity
  8
MAIN0
  6
HIDDEN
 62
3
100
AcDbLine
 10
274.3630921220406
 20
204.4879041873068
 30
0.0000000000000000
 11
289.3601556216624
 21
213.1464628358674
 31
0.0000000000000000
  0
LINE
  5
7F
100
AcDbEntity
  8
MAIN0
  6
CENTER
 62
3
100
AcDbLine
 10
276.5481904989963
 20
207.4815221310168
 30
0.0000000000000000
 11
287.8065207481940
 21
213.9815221310168
 31
0.0000000000000000
  0
CIRCLE
  5
80
100
AcDbEntity
  8
MAIN5
  6
HIDDEN
 62
3
100
AcDbCircle
 10
282.1773556235951
 20
210.7315221310169
 30
0.0000000000000000
 40
4.000000000000000
  0
CIRCLE
  5
81
100
AcDbEntity
  8
MAIN5
  6
HIDDEN
 62
3
100
AcDbCircle
 10
282.1773556235951
 20
210.7315221310169
 30
0.0000000000000000
 40
3.400000000000000
  0
LINE
  5
82
100
AcDbEntity
  8
MAIN0
  6
HIDDEN
 62
3
100
AcDbLine
 10
401.1847878936795
 20
204.4879041873068
 30
0.0000000000000000
 11
386.1877243940576
 21
213.1464628358674
 31
0.0000000000000000
  0
LINE
  5
83
100
AcDbEntity
  8
MAIN0
  6
HIDDEN
 62
3
100
AcDbLine
 10
415.1847878936795
 20
228.7366154932711
 30
0.0000000000000000
 11
400.1877243940576
 21
237.3951741418317
 31
0.0000000000000000
  0
ARC
  5
84
100
AcDbEntity
  8
MAIN0
  6
CENTER
 62
3
100
AcDbCircle
 10
337.7739400078601
 20
257.2639818210366
 30
0.0000000000000000
 40
72.50000000000000
100
AcDbArc
 50
334.7896068621228
 51
345.0667768224502
  0
LINE
  5
85
100
AcDbEntity
  8
MAIN0
  6
CENTER
 62
3
100
AcDbLine
 10
411.4996895167238
 20
229.1321572256278
 30
0.0000000000000000
 11
400.2413592675262
 21
235.6321572256278
 31
0.0000000000000000
  0
CIRCLE
  5
86
100
AcDbEntity
  8
MAIN0
  6
HIDDEN
 62
3
100
AcDbCircle
 10
405.8705243921250
 20
232.3821572256278
 30
0.0000000000000000
 40
4.000000000000000
  0
CIRCLE
  5
87
100
AcDbEntity
  8
MAIN0
  6
HIDDEN
 62
3
100
AcDbCircle
 10
405.8705243921250
 20
232.3821572256278
 30
0.0000000000000000
 40
3.400000000000000
  0
MTEXT
  5
88
100
AcDbEntity
  8
MAIN0
  6
CONTINUOUS
 62
3
100
AcDbMText
 10
355.3057226033002
 20
183.3957311846602
 30
0.0000000000000000
 40
3.099999904632568
 41
0.0000000000000000
 71
     1
 72
     1
  1
{\H0.67x;{1}}
 11
1.000000000000000
 21
0.0000000000000000
 31
0.0000000000000000
  7
STANDARD
  0
MTEXT
  5
89
100
AcDbEntity
  8
MAIN0
  6
CONTINUOUS
 62
3
100
AcDbMText
 10
392.9798302943579
 20
309.3810762405018
 30
0.0000000000000000
 40
3.099999904632568
 41
0.0000000000000000
 71
     1
 72
     1
  1
{\H0.67x;{2}}
 11
-0.4999999999999998
 21
0.8660254037844387
 31
0.0000000000000000
  7
STANDARD
  0
MTEXT
  5
8A
100
AcDbEntity
  8
MAIN0
  6
CONTINUOUS
 62
3
100
AcDbMText
 10
265.0362671259221
 20
279.0151380379477
 30
0.0000000000000000
 40
3.099999904632568
 41
0.0000000000000000
 71
     1
 72
     1
  1
{\H0.67x;{3}}
 11
-0.5000000000000004
 21
-0.8660254037844384
 31
0.0000000000000000
  7
STANDARD
  0
LINE
  5
8B
100
AcDbEntity
  8
MAIN0
  6
CENTER
 62
3
100
AcDbLine
 10
120.5949880760501
 20
393.3720886984640
 30
0.0000000000000000
 11
142.8143949852387
 21
393.3720886984597
 31
0.0000000000000000
  0
LINE
  5
8C
100
AcDbEntity
  8
MAIN0
  6
CONTINUOUS
 62
3
100
AcDbLine
 10
138.3013378812918
 20
393.9157586368920
 30
0.0000000000000000
 11
132.3176099462914
 21
399.8994865718995
 31
0.0000000000000000
  0
LINE
  5
8D
100
AcDbEntity
  8
MAIN0
  6
CONTINUOUS
 62
3
100
AcDbLine
 10
138.3013378812917
 20
392.8284187600292
 30
0.0000000000000000
 11
132.3176099462889
 21
386.8446908250240
 31
0.0000000000000000
  0
ARC
  5
8E
100
AcDbEntity
  8
MAIN0
  6
CONTINUOUS
 62
3
100
AcDbCircle
 10
131.7739400078601
 20
393.3720886984618
 30
0.0000000000000000
 40
6.550000000000000
100
AcDbArc
 50
355.2387981259365
 51
364.7612018740410
  0
ARC
  5
8F
100
AcDbEntity
  8
MAIN0
  6
CONTINUOUS
 62
3
100
AcDbCircle
 10
131.7739400078601
 20
393.3720886984618
 30
0.0000000000000000
 40
6.550000000000000
100
AcDbArc
 50
265.2387981259137
 51
274.7612018740863
  0
LINE
  5
90
100
AcDbEntity
  8
MAIN0
  6
CONTINUOUS
 62
3
100
AcDbLine
 10
125.2465421344285
 20
392.8284187600292
 30
0.0000000000000000
 11
131.2302700694313
 21
386.8446908250240
 31
0.0000000000000000
  0
ARC
  5
91
100
AcDbEntity
  8
MAIN0
  6
CONTINUOUS
 62
3
100
AcDbCircle
 10
131.7739400078601
 20
393.3720886984618
 30
0.0000000000000000
 40
6.550000000000000
100
AcDbArc
 50
175.2387981259133
 51
184.7612018740635
  0
LINE
  5
92
100
AcDbEntity
  8
MAIN0
  6
CONTINUOUS
 62
3
100
AcDbLine
 10
125.2465421344287
 20
393.9157586368971
 30
0.0000000000000000
 11
131.2302700694338
 21
399.8994865718998
 31
0.0000000000000000
  0
ARC
  5
93
100
AcDbEntity
  8
MAIN0
  6
CONTINUOUS
 62
3
100
AcDbCircle
 10
131.7739400078601
 20
393.3720886984618
 30
0.0000000000000000
 40
6.550000000000000
100
AcDbArc
 50
85.23879812589122
 51
94.76120187406400
  0
LINE
  5
94
100
AcDbEntity
  8
MAIN0
  6
CENTER
 62
3
100
AcDbLine
 10
131.7739400078601
 20
403.5538028379722
 30
0.0000000000000000
 11
131.7739400078601
 21
383.9484458309098
 31
0.0000000000000000
  0
DIMENSION
  5
9E
100
AcDbEntity
  8
MAIN0
  6
CONTINUOUS
 62
3
100
AcDbDimension
  2
*D0
 10
146.5802521435536
 20
385.6368443746250
 30
0.0000000000000000
 11
149.4819270557653
 21
389.2456260680194
 31
0.0000000000000000
 70
161
  1
\A1;□10\H0.903226x;\S＋0.15^ ＋0.05;
  3
MAIN001
100
AcDbAlignedDimension
 13
131.2302700694313
 23
386.8446908250241
 33
0.0000000000000000
 14
138.3013378812918
 24
393.9157586368920
 34
0.0000000000000000
 50
44.99999999996590
1001
ACAD
1000
DSTYLE
1002
{
1070
   173
1070
     1
1070
     6
1000
_OPEN
1070
     7
1000
_OPEN
1070
    41
1040
2.000000
1070
   272
1070
     2
1070
    47
1040
0.150000
1070
    48
1040
-0.050000
1070
    71
1070
     1
1070
   340
1005
9F
1002
}
  0
ARC
  5
A0
100
AcDbEntity
  8
MAIN0
  6
CONTINUOUS
 62
3
100
AcDbCircle
 10
337.7739400078601
 20
257.2639818210366
 30
0.0000000000000000
 40
22.50000000000000
100
AcDbArc
 50
49.62068144382813
 51
130.2966535357732
  0
ARC
  5
A1
100
AcDbEntity
  8
MAIN0
  6
CONTINUOUS
 62
3
100
AcDbCircle
 10
337.7739400078601
 20
257.2639818210366
 30
0.0000000000000000
 40
22.50000000000000
100
AcDbArc
 50
169.6620033542272
 51
250.3379501257002
  0
ARC
  5
A2
100
AcDbEntity
  8
MAIN0
  6
CONTINUOUS
 62
3
100
AcDbCircle
 10
337.7739400078601
 20
257.2639818210366
 30
0.0000000000000000
 40
22.50000000000000
100
AcDbArc
 50
289.6620033542274
 51
370.3379501257002
  0
LINE
  5
A3
100
AcDbEntity
  8
MAIN0
  6
HIDDEN
 62
3
100
AcDbLine
 10
330.1242755821088
 20
278.4236754429536
 30
0.0000000000000000
 11
274.6890269134374
 21
310.4292311844050
 31
0.0000000000000000
  0
LINE
  5
A4
100
AcDbEntity
  8
MAIN0
  6
HIDDEN
 62
3
100
AcDbLine
 10
315.6242755821087
 20
253.3089387332050
 30
0.0000000000000000
 11
260.1890269134374
 21
285.3144944746562
 31
0.0000000000000000
  0
LINE
  5
A5
100
AcDbEntity
  8
MAIN0
  6
HIDDEN
 62
3
100
AcDbLine
 10
323.2739400078600
 20
240.0593312869513
 30
0.0000000000000000
 11
323.2739400078600
 21
176.0482198040488
 31
0.0000000000000000
  0
LINE
  5
A6
100
AcDbEntity
  8
MAIN0
  6
HIDDEN
 62
3
100
AcDbLine
 10
352.2739400078600
 20
240.0593312869513
 30
0.0000000000000000
 11
352.2739400078599
 21
176.0482198040488
 31
0.0000000000000000
  0
LINE
  5
A7
100
AcDbEntity
  8
MAIN0
  6
CENTER
 62
3
100
AcDbLine
 10
97.77394000786006
 20
257.2639818210366
 30
0.0000000000000000
 11
217.7739400078601
 21
257.2639818210366
 31
0.0000000000000000
  0
LINE
  5
A8
100
AcDbEntity
  8
MAIN0
  6
CONTINUOUS
 62
3
100
AcDbLine
 10
327.2739400078601
 20
237.3642330789042
 30
0.0000000000000000
 11
327.2739400078601
 21
234.3845919211426
 31
0.0000000000000000
  0
LINE
  5
A9
100
AcDbEntity
  8
MAIN0
  6
CONTINUOUS
 62
3
100
AcDbLine
 10
348.2739400078601
 20
237.3642330789042
 30
0.0000000000000000
 11
348.2739400078601
 21
234.3845758420662
 31
0.0000000000000000
  0
LINE
  5
AA
100
AcDbEntity
  8
MAIN0
  6
CENTER
 62
3
100
AcDbLine
 10
308.2739400078602
 20
308.3594806443185
 30
0.0000000000000000
 11
294.7739400078602
 21
331.7421665464984
 31
0.0000000000000000
  0
LINE
  5
AB
100
AcDbEntity
  8
MAIN0
  6
CENTER
 62
3
100
AcDbLine
 10
308.2739400078602
 20
206.1684829977546
 30
0.0000000000000000
 11
294.7739400078604
 21
182.7857970955747
 31
0.0000000000000000
  0
LINE
  5
AC
100
AcDbEntity
  8
MAIN0
  6
CENTER
 62
3
100
AcDbLine
 10
242.7739400078601
 20
257.2639818210365
 30
0.0000000000000000
 11
432.7739400078601
 21
257.2639818210365
 31
0.0000000000000000
  0
ARC
  5
AD
100
AcDbEntity
  8
MAIN0
  6
CENTER
 62
3
100
AcDbCircle
 10
337.7739400078601
 20
257.2639818210366
 30
0.0000000000000000
 40
72.50000000000000
100
AcDbArc
 50
109.3156568679420
 51
130.6843431320577
  0
ARC
  5
AE
100
AcDbEntity
  8
MAIN0
  6
CENTER
 62
3
100
AcDbCircle
 10
337.7739400078601
 20
257.2639818210366
 30
0.0000000000000000
 40
72.50000000000000
100
AcDbArc
 50
214.7896068621228
 51
250.6843431320581
  0
ARC
  5
AF
100
AcDbEntity
  8
MAIN0
  6
CENTER
 62
3
100
AcDbCircle
 10
337.7739400078601
 20
257.2639818210366
 30
0.0000000000000000
 40
72.50000000000000
100
AcDbArc
 50
349.3156568679422
 51
370.6843431320578
  0
LINE
  5
B0
100
AcDbEntity
  8
MAIN0
  6
CENTER
 62
3
100
AcDbLine
 10
102.7739400078601
 20
329.7639818210366
 30
0.0000000000000000
 11
177.7739400078601
 21
329.7639818210366
 31
0.0000000000000000
  0
LINE
  5
B1
100
AcDbEntity
  8
MAIN0
  6
CONTINUOUS
 62
3
100
AcDbLine
 10
107.7739400078601
 20
192.2639818210366
 30
0.0000000000000000
 11
107.7739400078601
 21
176.3639818210369
 31
0.0000000000000000
  0
LINE
  5
B2
100
AcDbEntity
  8
MAIN0
  6
CONTINUOUS
 62
3
100
AcDbLine
 10
107.7739400078601
 20
338.1639818210362
 30
0.0000000000000000
 11
107.7739400078601
 21
192.2639818210366
 31
0.0000000000000000
  0
LINE
  5
B3
100
AcDbEntity
  8
MAIN0
  6
CONTINUOUS
 62
3
100
AcDbLine
 10
121.2739400078601
 20
234.7639818210366
 30
0.0000000000000000
 11
121.2739400078601
 21
217.2639818210366
 31
0.0000000000000000
  0
LINE
  5
B4
100
AcDbEntity
  8
MAIN0
  6
CONTINUOUS
 62
3
100
AcDbLine
 10
121.2739400078601
 20
297.2639818210366
 30
0.0000000000000000
 11
121.2739400078601
 21
234.7639818210366
 31
0.0000000000000000
  0
LINE
  5
B5
100
AcDbEntity
  8
MAIN0
  6
CONTINUOUS
 62
3
100
AcDbLine
 10
112.7739400078601
 20
321.8639818210365
 30
0.0000000000000000
 11
112.7739400078601
 21
192.6639818210366
 31
0.0000000000000000
  0
CIRCLE
  5
B6
100
AcDbEntity
  8
MAIN0
  6
CONTINUOUS
 62
3
100
AcDbCircle
 10
301.5239400078602
 20
320.0508235954085
 30
0.0000000000000000
 40
8.500000000000000
  0
CIRCLE
  5
B7
100
AcDbEntity
  8
MAIN0
  6
CONTINUOUS
 62
3
100
AcDbCircle
 10
301.5239400078602
 20
320.0508235954085
 30
0.0000000000000000
 40
6.000000000000000
  0
CIRCLE
  5
B8
100
AcDbEntity
  8
MAIN0
  6
CONTINUOUS
 62
3
100
AcDbCircle
 10
301.5239400078602
 20
194.4771400466647
 30
0.0000000000000000
 40
6.000000000000000
  0
CIRCLE
  5
B9
100
AcDbEntity
  8
MAIN0
  6
CONTINUOUS
 62
3
100
AcDbCircle
 10
301.5239400078602
 20
194.4771400466647
 30
0.0000000000000000
 40
8.500000000000000
  0
CIRCLE
  5
BA
100
AcDbEntity
  8
MAIN0
  6
CONTINUOUS
 62
3
100
AcDbCircle
 10
410.2739400078601
 20
257.2639818210365
 30
0.0000000000000000
 40
6.000000000000000
  0
CIRCLE
  5
BB
100
AcDbEntity
  8
MAIN0
  6
CONTINUOUS
 62
3
100
AcDbCircle
 10
410.2739400078601
 20
257.2639818210365
 30
0.0000000000000000
 40
8.500000000000000
  0
DIMENSION
  5
C4
100
AcDbEntity
  8
MAIN0
  6
CONTINUOUS
 62
3
100
AcDbDimension
  2
*D1
 10
92.77394000786006
 20
234.7639818210366
 30
0.0000000000000000
 11
92.27394000786006
 21
254.7887404854293
 31
0.0000000000000000
 70
160
  1
\A1;\U+220545
  3
MAIN001
100
AcDbAlignedDimension
 13
121.2739400078601
 23
279.7639818210366
 33
0.0000000000000000
 14
121.2739400078601
 24
234.7639818210366
 34
0.0000000000000000
 50
90.00000000000000
100
AcDbRotatedDimension
1001
ACAD
1000
DSTYLE
1002
{
1070
   173
1070
     1
1070
     6
1000
_OPEN
1070
     7
1000
_OPEN
1070
    41
1040
2.000000
1002
}
  0
DIMENSION
  5
CD
100
AcDbEntity
  8
MAIN0
  6
CONTINUOUS
 62
3
100
AcDbDimension
  2
*D2
 10
82.77394000786006
 20
322.2639818210366
 30
0.0000000000000000
 11
82.27394000786006
 21
255.9925431248896
 31
0.0000000000000000
 70
160
  1
\A1;\U+2205130H6\H0.903226x;\S＋0.025^ 　0;
  3
MAIN001
100
AcDbAlignedDimension
 13
107.7739400078601
 23
192.2639818210366
 33
0.0000000000000000
 14
107.7739400078601
 24
322.2639818210366
 34
0.0000000000000000
 50
90.00000000000000
100
AcDbRotatedDimension
1001
ACAD
1000
DSTYLE
1002
{
1070
   173
1070
     1
1070
     6
1000
_OPEN
1070
     7
1000
_OPEN
1070
    41
1040
2.000000
1070
   272
1070
     3
1070
    47
1040
0.025000
1070
    48
1040
0.000000
1070
    71
1070
     1
1070
   340
1005
9F
1002
}
  0
DIMENSION
  5
D6
100
AcDbEntity
  8
MAIN0
  6
CONTINUOUS
 62
3
100
AcDbDimension
  2
*D3
 10
182.7739400078601
 20
338.2639818210366
 30
0.0000000000000000
 11
182.2739400078601
 21
329.7639818210366
 31
0.0000000000000000
 70
32
  1
\A1;\U+220517
  3
MAIN001
100
AcDbAlignedDimension
 13
172.1739400078601
 23
321.2639818210366
 33
0.0000000000000000
 14
172.1739400078601
 24
338.2639818210366
 34
0.0000000000000000
 50
90.00000000000000
100
AcDbRotatedDimension
1001
ACAD
1000
DSTYLE
1002
{
1070
   173
1070
     1
1070
     6
1000
_OPEN
1070
     7
1000
_OPEN
1070
    41
1040
2.000000
1002
}
  0
LINE
  5
D7
100
AcDbEntity
  8
MAIN0
  6
HIDDEN
 62
3
100
AcDbLine
 10
108.1739400078601
 20
335.7639818210366
 30
0.0000000000000000
 11
160.7739400078601
 21
335.7639818210366
 31
0.0000000000000000
  0
LINE
  5
D8
100
AcDbEntity
  8
MAIN0
  6
HIDDEN
 62
3
100
AcDbLine
 10
108.1739400078601
 20
323.7639818210366
 30
0.0000000000000000
 11
160.7739400078601
 21
323.7639818210366
 31
0.0000000000000000
  0
LINE
  5
D9
100
AcDbEntity
  8
MAIN0
  6
HIDDEN
 62
3
100
AcDbLine
 10
108.1739400078601
 20
335.7639818210366
 30
0.0000000000000000
 11
107.7739400078601
 21
336.1639818210366
 31
0.0000000000000000
  0
LINE
  5
DA
100
AcDbEntity
  8
MAIN0
  6
HIDDEN
 62
3
100
AcDbLine
 10
108.1739400078601
 20
323.7639818210366
 30
0.0000000000000000
 11
107.7739400078601
 21
323.3639818210365
 31
0.0000000000000000
  0
DIMENSION
  5
E3
100
AcDbEntity
  8
MAIN0
  6
CONTINUOUS
 62
3
100
AcDbDimension
  2
*D4
 10
92.77394000786006
 20
335.7639818210366
 30
0.0000000000000000
 11
92.27394000786006
 21
329.7639818210366
 31
0.0000000000000000
 70
32
  1
\A1;\U+220512
  3
MAIN001
100
AcDbAlignedDimension
 13
108.1739400078601
 23
323.7639818210366
 33
0.0000000000000000
 14
108.1739400078601
 24
335.7639818210366
 34
0.0000000000000000
 50
90.00000000000000
100
AcDbRotatedDimension
1001
ACAD
1000
DSTYLE
1002
{
1070
   173
1070
     1
1070
     6
1000
_OPEN
1070
     7
1000
_OPEN
1070
    41
1040
2.000000
1002
}
  0
LINE
  5
E4
100
AcDbEntity
  8
MAIN0
  6
CONTINUOUS
 62
3
100
AcDbLine
 10
325.7902520682467
 20
276.3071229318391
 30
0.0000000000000000
 11
323.2221722568970
 21
277.7898045022222
 31
0.0000000000000000
  0
LINE
  5
E5
100
AcDbEntity
  8
MAIN0
  6
CONTINUOUS
 62
3
100
AcDbLine
 10
315.2902520682463
 20
258.1205894523660
 30
0.0000000000000000
 11
312.7097932065740
 21
259.6104180707852
 31
0.0000000000000000
  0
ARC
  5
E6
100
AcDbEntity
  8
MAIN0
  6
CONTINUOUS
 62
3
100
AcDbCircle
 10
337.7739400078601
 20
257.2639818210366
 30
0.0000000000000000
 40
82.50000000000000
100
AcDbArc
 50
34.55636952526546
 51
145.4432580668034
  0
ARC
  5
E7
100
AcDbEntity
  8
MAIN0
  6
CONTINUOUS
 62
3
100
AcDbCircle
 10
337.7739400078601
 20
257.2639818210366
 30
0.0000000000000000
 40
82.50000000000000
100
AcDbArc
 50
274.5563695252654
 51
385.4232619781109
  0
ARC
  5
E8
100
AcDbEntity
  8
MAIN0
  6
CONTINUOUS
 62
3
100
AcDbCircle
 10
337.7739400078601
 20
257.2639818210366
 30
0.0000000000000000
 40
82.50000000000000
100
AcDbArc
 50
154.5363883668587
 51
265.4432580668035
  0
LINE
  5
E9
100
AcDbEntity
  8
MAIN0
  6
CONTINUOUS
 62
3
100
AcDbLine
 10
352.3504519345802
 20
277.8040905587564
 30
0.0000000000000000
 11
349.7576279474741
 21
276.3071229318393
 31
0.0000000000000000
  0
LINE
  5
EA
100
AcDbEntity
  8
MAIN0
  6
CONTINUOUS
 62
3
100
AcDbLine
 10
362.8380728842573
 20
259.6104100312470
 30
0.0000000000000000
 11
360.2576279474741
 21
258.1205894523662
 31
0.0000000000000000
  0
LINE
  5
EB
100
AcDbEntity
  8
MAIN0
  6
PHANTOM
 62
3
100
AcDbLine
 10
211.7739400078601
 20
270.2639818210366
 30
0.0000000000000000
 11
174.7739400078601
 21
270.2639818210366
 31
0.0000000000000000
  0
LINE
  5
EC
100
AcDbEntity
  8
MAIN0
  6
PHANTOM
 62
3
100
AcDbLine
 10
211.7739400078601
 20
244.2639818210366
 30
0.0000000000000000
 11
174.7739400078601
 21
244.2639818210366
 31
0.0000000000000000
  0
LINE
  5
ED
100
AcDbEntity
  8
MAIN0
  6
PHANTOM
 62
3
100
AcDbLine
 10
211.7739400078601
 20
244.2639818210366
 30
0.0000000000000000
 11
211.7739400078601
 21
270.2639818210366
 31
0.0000000000000000
  0
LINE
  5
EE
100
AcDbEntity
  8
MAIN0
  6
PHANTOM
 62
3
100
AcDbLine
 10
174.7739400078601
 20
267.7639818210366
 30
0.0000000000000000
 11
174.7739400078601
 21
270.2639818210366
 31
0.0000000000000000
  0
LINE
  5
EF
100
AcDbEntity
  8
MAIN0
  6
PHANTOM
 62
3
100
AcDbLine
 10
174.7739400078601
 20
244.2639818210365
 30
0.0000000000000000
 11
174.7739400078601
 21
246.7639818210366
 31
0.0000000000000000
  0
LINE
  5
F0
100
AcDbEntity
  8
MAIN0
  6
PHANTOM
 62
3
100
AcDbLine
 10
181.2739400078601
 20
260.7339818210365
 30
0.0000000000000000
 11
177.7739400078601
 21
260.7339818210365
 31
0.0000000000000000
  0
LINE
  5
F1
100
AcDbEntity
  8
MAIN0
  6
PHANTOM
 62
3
100
AcDbLine
 10
181.2739400078601
 20
253.7939818210366
 30
0.0000000000000000
 11
177.7739400078600
 21
253.7939818210366
 31
0.0000000000000000
  0
LINE
  5
F2
100
AcDbEntity
  8
MAIN0
  6
PHANTOM
 62
3
100
AcDbLine
 10
181.2739400078601
 20
253.7939818210366
 30
0.0000000000000000
 11
181.2739400078601
 21
260.7339818210365
 31
0.0000000000000000
  0
LINE
  5
F3
100
AcDbEntity
  8
MAIN0
  6
PHANTOM
 62
3
100
AcDbLine
 10
177.7739400078601
 20
260.7339818210365
 30
0.0000000000000000
 11
177.7739400078601
 21
270.2639818210365
 31
0.0000000000000000
  0
LINE
  5
F4
100
AcDbEntity
  8
MAIN0
  6
PHANTOM
 62
3
100
AcDbLine
 10
177.7739400078601
 20
244.2639818210365
 30
0.0000000000000000
 11
177.7739400078601
 21
253.7939818210366
 31
0.0000000000000000
  0
LINE
  5
F5
100
AcDbEntity
  8
MAIN0
  6
CONTINUOUS
 62
3
100
AcDbLine
 10
175.2935552502213
 20
239.4319310134839
 30
0.0000000000000000
 11
175.7739400079413
 21
240.2639818210366
 31
0.0000000000000000
  0
LINE
  5
F6
100
AcDbEntity
  8
MAIN0
  6
CONTINUOUS
 62
3
100
AcDbLine
 10
173.7739400079601
 20
240.2639818210365
 30
0.0000000000000000
 11
174.2543247656799
 21
239.4319310134840
 31
0.0000000000000000
  0
ARC
  5
F7
100
AcDbEntity
  8
MAIN0
  6
CONTINUOUS
 62
3
100
AcDbCircle
 10
174.7739400079506
 20
239.7319310134840
 30
0.0000000000000000
 40
0.6000000000000000
100
AcDbArc
 50
209.9999999999958
 51
329.9999999999953
  0
LINE
  5
F8
100
AcDbEntity
  8
MAIN0
  6
CENTER
 62
3
100
AcDbLine
 10
167.7739400078601
 20
206.2639818210366
 30
0.0000000000000000
 11
182.7739400078601
 21
206.2639818210366
 31
0.0000000000000000
  0
LINE
  5
F9
100
AcDbEntity
  8
MAIN0
  6
CONTINUOUS
 62
3
100
AcDbLine
 10
177.7739400079026
 20
174.2639818210366
 30
0.0000000000000000
 11
177.7739400079011
 21
199.9239818210366
 31
0.0000000000000000
  0
LINE
  5
FA
100
AcDbEntity
  8
MAIN0
  6
CENTER
 62
3
100
AcDbLine
 10
167.7739400078601
 20
187.2139818210366
 30
0.0000000000000000
 11
197.1809820612506
 21
187.2139818210366
 31
0.0000000000000000
  0
LINE
  5
FB
100
AcDbEntity
  8
MAIN0
  6
CENTER
 62
3
100
AcDbLine
 10
167.7739400078601
 20
225.3139818210366
 30
0.0000000000000000
 11
214.1018426192566
 21
225.3139818210366
 31
0.0000000000000000
  0
LINE
  5
FC
100
AcDbEntity
  8
MAIN0
  6
CONTINUOUS
 62
3
100
AcDbLine
 10
177.7739400079004
 20
212.6039818210366
 30
0.0000000000000000
 11
177.7739400078988
 21
240.2639818210365
 31
0.0000000000000000
  0
LINE
  5
FD
100
AcDbEntity
  8
MAIN0
  6
CONTINUOUS
 62
3
100
AcDbLine
 10
177.7739400079026
 20
174.2639818210366
 30
0.0000000000000000
 11
177.7739400079011
 21
199.9239818210366
 31
0.0000000000000000
  0
LINE
  5
FE
100
AcDbEntity
  8
MAIN0
  6
CONTINUOUS
 62
3
100
AcDbLine
 10
174.2739400079004
 20
212.6039818210365
 30
0.0000000000000000
 11
174.2739400079011
 21
199.9239818210365
 31
0.0000000000000000
  0
LINE
  5
FF
100
AcDbEntity
  8
MAIN0
  6
CONTINUOUS
 62
3
100
AcDbLine
 10
175.7739400079596
 20
240.2639818210366
 30
0.0000000000000000
 11
177.7739400078988
 21
240.2639818210366
 31
0.0000000000000000
  0
DIMENSION
  5
108
100
AcDbEntity
  8
MAIN0
  6
CONTINUOUS
 62
3
100
AcDbDimension
  2
*D5
 10
222.7739400078601
 20
270.2639818210366
 30
0.0000000000000000
 11
222.2739400078601
 21
257.2639818210366
 31
0.0000000000000000
 70
32
  3
MAIN001
100
AcDbAlignedDimension
 13
211.7739400078601
 23
244.2639818210366
 33
0.0000000000000000
 14
211.7739400078601
 24
270.2639818210366
 34
0.0000000000000000
 50
90.00000000000000
100
AcDbRotatedDimension
1001
ACAD
1000
DSTYLE
1002
{
1070
   173
1070
     1
1070
     6
1000
_OPEN
1070
     7
1000
_OPEN
1070
    41
1040
2.000000
1002
}
  0
DIMENSION
  5
111
100
AcDbEntity
  8
MAIN0
  6
CONTINUOUS
 62
3
100
AcDbDimension
  2
*D6
 10
232.7739400078601
 20
240.2640195310726
 30
0.0000000000000000
 11
232.2739400078601
 21
206.2640195310765
 31
0.0000000000000000
 70
32
  3
MAIN001
100
AcDbAlignedDimension
 13
193.6739488537114
 23
172.2640195310805
 33
0.0000000000000000
 14
211.1739488537303
 24
240.2640195310757
 34
0.0000000000000000
 50
90.00000000000000
100
AcDbRotatedDimension
1001
ACAD
1000
DSTYLE
1002
{
1070
   173
1070
     1
1070
     6
1000
_OPEN
1070
     7
1000
_OPEN
1070
    41
1040
2.000000
1002
}
  0
LINE
  5
112
100
AcDbEntity
  8
MAIN0
  6
CENTER
 62
3
100
AcDbLine
 10
328.2739260832921
 20
186.7937158231509
 30
0.0000000000000000
 11
347.2739260832921
 21
186.7937158231434
 31
0.0000000000000000
  0
LINE
  5
113
100
AcDbEntity
  8
MAIN0
  6
CENTER
 62
3
100
AcDbLine
 10
328.2739260832921
 20
224.8937158231063
 30
0.0000000000000000
 11
347.2739260832921
 21
224.8937158231100
 31
0.0000000000000000
  0
LINE
  5
114
100
AcDbEntity
  8
MAIN0
  6
CONTINUOUS
 62
3
100
AcDbLine
 10
180.7739488537120
 20
174.2639818210366
 30
0.0000000000000000
 11
180.7739488537191
 21
199.9240195310841
 31
0.0000000000000000
  0
LINE
  5
115
100
AcDbEntity
  8
MAIN0
  6
CONTINUOUS
 62
3
100
AcDbLine
 10
180.7739488537226
 20
212.6040195310841
 30
0.0000000000000000
 11
180.7739488537303
 21
240.2640195310841
 31
0.0000000000000000
  0
ARC
  5
116
100
AcDbEntity
  8
MAIN0
  6
HIDDEN
 62
3
100
AcDbCircle
 10
180.3941360984609
 20
313.7494189378752
 30
0.0000000000000000
 40
41.00000000000000
100
AcDbArc
 50
147.5243887628323
 51
147.6071758059966
  0
ARC
  5
117
100
AcDbEntity
  8
MAIN0
  6
HIDDEN
 62
3
100
AcDbCircle
 10
83.15374391697503
 20
313.7494189383233
 30
0.0000000000000000
 40
41.00000000000000
100
AcDbArc
 50
27.13106569301564
 51
32.39282419326180
  0
ARC
  5
118
100
AcDbEntity
  8
MAIN0
  6
HIDDEN
 62
3
100
AcDbCircle
 10
180.3941360984609
 20
313.7494189378752
 30
0.0000000000000000
 40
41.00000000000000
100
AcDbArc
 50
147.6071758059967
 51
152.7629952506420
  0
LINE
  5
119
100
AcDbEntity
  8
MAIN0
  6
CONTINUOUS
 62
3
100
AcDbLine
 10
113.1739400078601
 20
322.2639818210366
 30
0.0000000000000000
 11
112.7739400078601
 21
321.8639818210365
 31
0.0000000000000000
  0
LINE
  5
11A
100
AcDbEntity
  8
MAIN0
  6
CONTINUOUS
 62
3
100
AcDbLine
 10
113.1739400078601
 20
192.2639818210366
 30
0.0000000000000000
 11
112.7739400078601
 21
192.6639818210366
 31
0.0000000000000000
  0
ARC
  5
11B
100
AcDbEntity
  8
MAIN0
  6
CONTINUOUS
 62
3
100
AcDbCircle
 10
337.7739400078600
 20
259.3181042977901
 30
0.0000000000000000
 40
42.80000000000000
100
AcDbArc
 50
252.3177062553273
 51
253.6423607401483
  0
ARC
  5
11C
100
AcDbEntity
  8
MAIN0
  6
CONTINUOUS
 62
3
100
AcDbCircle
 10
337.7739400078600
 20
259.3181042977901
 30
0.0000000000000000
 40
42.80000000000000
100
AcDbArc
 50
286.3576243437719
 51
287.6822546147382
  0
ARC
  5
11D
100
AcDbEntity
  8
MAIN0
  6
CONTINUOUS
 62
3
100
AcDbCircle
 10
337.7739400078600
 20
259.3181042977248
 30
0.0000000000000000
 40
64.20000000000000
100
AcDbArc
 50
258.3172525460619
 51
259.2600107555375
  0
ARC
  5
11E
100
AcDbEntity
  8
MAIN0
  6
CONTINUOUS
 62
3
100
AcDbCircle
 10
337.7739400078600
 20
259.3181042977248
 30
0.0000000000000000
 40
64.20000000000000
100
AcDbArc
 50
280.7399743283829
 51
281.6827220739905
  0
MTEXT
  5
11F
100
AcDbEntity
  8
MAIN0
  6
CONTINUOUS
 62
3
100
AcDbMText
 10
372.3334536140379
 20
217.1085372548089
 30
0.0000000000000000
 40
5.000000000000000
 41
0.0000000000000000
 71
     1
 72
     1
  1
{\H0.93x;{KITAGAWA}}
 11
0.5000000000000009
 21
0.8660254037844382
 31
0.0000000000000000
  7
STANDARD
  0
LINE
  5
120
100
AcDbEntity
  8
MAIN0
  6
CONTINUOUS
 62
3
100
AcDbLine
 10
377.5296060367446
 20
214.1085372548088
 30
0.0000000000000000
 11
395.0296060367448
 21
244.4194263872643
 31
0.0000000000000000
  0
MTEXT
  5
121
100
AcDbEntity
  8
MAIN0
  6
CONTINUOUS
 62
3
100
AcDbMText
 10
383.6141568244758
 20
220.6472884557601
 30
0.0000000000000000
 40
4.000000000000000
 41
0.0000000000000000
 71
     1
 72
     1
  1
{\H0.92x;{JAPAN}}
 11
0.5000000000000009
 21
0.8660254037844382
 31
0.0000000000000000
  7
STANDARD
  0
MTEXT
  5
122
100
AcDbEntity
  8
MAIN0
  6
CONTINUOUS
 62
3
100
AcDbMText
 10
369.8193560257690
 20
224.7539924967407
 30
0.0000000000000000
 40
4.000000000000000
 41
0.0000000000000000
 71
     1
 72
     1
  1
{JN06TN}
 11
0.5000000000000009
 21
0.8660254037844382
 31
0.0000000000000000
  7
STANDARD
  0
MTEXT
  5
123
100
AcDbEntity
  8
MAIN0
  6
CONTINUOUS
 62
3
100
AcDbMText
 10
291.1818751337741
 20
234.9780834347116
 30
0.0000000000000000
 40
3.000000000000000
 41
0.0000000000000000
 71
     1
 72
     1
  1
{\H0.60x;{T MAX 88.3 N・m\PΣS MAX 31 KN\PMASS 9.0 kg}}
 11
0.4999999999999986
 21
-0.8660254037844395
 31
0.0000000000000000
  7
KNJYOKO
  0
LINE
  5
124
100
AcDbEntity
  8
MAIN0
  6
CONTINUOUS
 62
3
100
AcDbLine
 10
283.4677735186326
 20
240.3392993668577
 30
0.0000000000000000
 11
284.2177735186308
 21
239.0402612611801
 31
0.0000000000000000
  0
LINE
  5
125
100
AcDbEntity
  8
MAIN0
  6
CONTINUOUS
 62
3
100
AcDbLine
 10
286.3828370280922
 20
240.2902612611797
 30
0.0000000000000000
 11
284.2177735186309
 21
239.0402612611802
 31
0.0000000000000000
  0
LINE
  5
126
100
AcDbEntity
  8
MAIN0
  6
CONTINUOUS
 62
3
100
AcDbLine
 10
283.4677735186327
 20
240.3392993668579
 30
0.0000000000000000
 11
281.3027100091705
 21
239.0892993668579
 31
0.0000000000000000
  0
LINE
  5
127
100
AcDbEntity
  8
MAIN0
  6
CONTINUOUS
 62
3
100
AcDbLine
 10
287.2979005375566
 20
243.7053247706420
 30
0.0000000000000000
 11
271.7094432694347
 21
234.7053247706454
 31
0.0000000000000000
  0
LINE
  5
128
100
AcDbEntity
  8
MAIN0
  6
CONTINUOUS
 62
3
100
AcDbLine
 10
280.8027100091724
 20
239.9553247706436
 30
0.0000000000000000
 11
281.3027100091705
 21
239.0892993668580
 31
0.0000000000000000
  0
LINE
  5
129
100
AcDbEntity
  8
MAIN0
  6
CONTINUOUS
 62
3
100
AcDbLine
 10
283.4219488402748
 20
238.2902168983353
 30
0.0000000000000000
 11
279.8621197697642
 21
236.2349486262078
 31
0.0000000000000000
  0
LINE
  5
12A
100
AcDbEntity
  8
MAIN0
  6
CONTINUOUS
 62
3
100
AcDbLine
 10
278.0087349181304
 20
235.1648963830748
 30
0.0000000000000000
 11
280.1488394042656
 21
235.7383356518552
 31
0.0000000000000000
  0
LINE
  5
12B
100
AcDbEntity
  8
MAIN0
  6
CONTINUOUS
 62
3
100
AcDbLine
 10
278.0087349180172
 20
235.1648963832712
 30
0.0000000000000000
 11
279.5754001353768
 21
236.7315616006265
 31
0.0000000000000000
  0
LINE
  5
12C
100
AcDbEntity
  8
MAIN0
  6
CONTINUOUS
 62
3
100
AcDbLine
 10
279.5754001353284
 20
236.7315616005781
 30
0.0000000000000000
 11
280.1488394042000
 21
235.7383356518374
 31
0.0000000000000000
  0
MTEXT
  5
12D
100
AcDbEntity
  8
MAIN0
  6
CONTINUOUS
 62
3
100
AcDbMText
 10
275.4834019913150
 20
235.9294477909214
 30
0.0000000000000000
 40
3.000000000000000
 41
0.0000000000000000
 71
     1
 72
     1
  1
{\H0.90x;{ΣＳ}}
 11
0.5000000000000009
 21
-0.8660254037844382
 31
0.0000000000000000
  7
KNJYOKO
  0
LINE
  5
12E
100
AcDbEntity
  8
MAIN0
  6
CONTINUOUS
 62
3
100
AcDbLine
 10
267.9594432694383
 20
241.2005152990401
 30
0.0000000000000000
 11
271.7094432694343
 21
234.7053247706461
 31
0.0000000000000000
  0
LINE
  5
12F
100
AcDbEntity
  8
MAIN0
  6
CONTINUOUS
 62
3
100
AcDbLine
 10
283.5479005375582
 20
250.2005152990491
 30
0.0000000000000000
 11
267.9594432694383
 21
241.2005152990400
 31
0.0000000000000000
  0
LINE
  5
130
100
AcDbEntity
  8
MAIN0
  6
CONTINUOUS
 62
3
100
AcDbLine
 10
283.5479005375545
 20
250.2005152990467
 30
0.0000000000000000
 11
289.2979005375509
 21
240.2412231555010
 31
0.0000000000000000
  0
LINE
  5
131
100
AcDbEntity
  8
MAIN0
  6
CONTINUOUS
 62
3
100
AcDbLine
 10
291.9180910659244
 20
250.7029200348684
 30
0.0000000000000000
 11
285.4229005375494
 21
246.9529200348540
 31
0.0000000000000000
  0
LINE
  5
132
100
AcDbEntity
  8
MAIN0
  6
CONTINUOUS
 62
3
100
AcDbLine
 10
288.2126168970202
 20
249.6614329086364
 30
0.0000000000000000
 11
286.5810670166202
 21
250.0374085052252
 31
0.0000000000000000
  0
LINE
  5
133
100
AcDbEntity
  8
MAIN0
  6
CONTINUOUS
 62
3
100
AcDbLine
 10
288.3773809700547
 20
251.5446948810321
 30
0.0000000000000000
 11
288.2126168970202
 21
249.6614329086365
 31
0.0000000000000000
  0
LINE
  5
134
100
AcDbEntity
  8
MAIN0
  6
CONTINUOUS
 62
3
100
AcDbLine
 10
288.3773809700546
 20
251.5446948810320
 30
0.0000000000000000
 11
286.5810670166201
 21
250.0374085052253
 31
0.0000000000000000
  0
ARC
  5
135
100
AcDbEntity
  8
MAIN0
  6
CONTINUOUS
 62
3
100
AcDbCircle
 10
289.9695339074135
 20
249.5779200348612
 30
0.0000000000000000
 40
2.530445468977860
100
AcDbArc
 50
173.2530843414756
 51
300.0000000000001
  0
MTEXT
  5
136
100
AcDbEntity
  8
MAIN0
  6
CONTINUOUS
 62
3
100
AcDbMText
 10
292.2512474502310
 20
245.6103678803267
 30
0.0000000000000000
 40
3.000000000000000
 41
0.0000000000000000
 71
     1
 72
     1
  1
{\H0.81x;{T}}
 11
0.5000000000000009
 21
-0.8660254037844382
 31
0.0000000000000000
  7
STANDARD
  0
LINE
  5
137
100
AcDbEntity
  8
MAIN0
  6
CONTINUOUS
 62
3
100
AcDbLine
 10
290.0430910659429
 20
253.9505152990381
 30
0.0000000000000000
 11
293.7930910659439
 21
247.4553247706327
 31
0.0000000000000000
  0
LINE
  5
138
100
AcDbEntity
  8
MAIN0
  6
CONTINUOUS
 62
3
100
AcDbLine
 10
289.2979005375556
 20
240.2412231555036
 30
0.0000000000000000
 11
287.1328370280893
 21
238.9912231555013
 31
0.0000000000000000
  0
LINE
  5
139
100
AcDbEntity
  8
MAIN0
  6
CONTINUOUS
 62
3
100
AcDbLine
 10
286.3828370280923
 20
240.2902612611799
 30
0.0000000000000000
 11
287.1328370280880
 21
238.9912231555039
 31
0.0000000000000000
  0
MTEXT
  5
13A
100
AcDbEntity
  8
MAIN0
  6
CONTINUOUS
 62
3
100
AcDbMText
 10
359.7821834248162
 20
313.7639818210366
 30
0.0000000000000000
 40
3.000000000000000
 41
0.0000000000000000
 71
     1
 72
     1
  1
{\H0.63x;{77-1 MOTOMACHI FUCHU-SHI\PHIROSHIMA 726-8610 JAPAN}}
 11
-1.000000000000000
 21
2.786999939015111e-015
 31
0.0000000000000000
  7
STANDARD
  0
MTEXT
  5
13B
100
AcDbEntity
  8
MAIN0
  6
CONTINUOUS
 62
3
100
AcDbMText
 10
348.2821834248162
 20
325.7639818210366
 30
0.0000000000000000
 40
3.000000000000000
 41
0.0000000000000000
 71
     1
 72
     1
  1
{\H0.63x;{SCROLL CHUCK}}
 11
-1.000000000000000
 21
2.786999939015111e-015
 31
0.0000000000000000
  7
STANDARD
  0
LINE
  5
13C
100
AcDbEntity
  8
MAIN0
  6
CENTER
 62
3
100
AcDbLine
 10
263.1231072666473
 20
214.1643034426677
 30
0.0000000000000000
 11
282.3544967306321
 21
225.2675513265899
 31
0.0000000000000000
  0
LINE
  5
13D
100
AcDbEntity
  8
MAIN0
  6
CENTER
 62
3
100
AcDbLine
 10
294.4788523836142
 20
232.2675513265899
 30
0.0000000000000000
 11
419.3870294128580
 21
304.3833209584091
 31
0.0000000000000000
  0
LINE
  5
13E
100
AcDbEntity
  8
MAIN0
  6
HIDDEN
 62
3
100
AcDbLine
 10
260.3630921220406
 20
228.7366154932711
 30
0.0000000000000000
 11
270.1583443079151
 21
234.3919069795659
 31
0.0000000000000000
  0
DIMENSION
  5
144
100
AcDbEntity
  8
MAIN0
  6
CONTINUOUS
 62
3
100
AcDbDimension
  2
*D7
 10
293.4329628845011
 20
199.9043466431020
 30
0.0000000000000000
 11
311.0585250796449
 21
223.5223606170825
 31
0.0000000000000000
 70
163
  3
MAIN001
100
AcDbDiametricDimension
 15
382.1149171312190
 25
314.6236169989712
 35
0.0000000000000000
1001
ACAD
1000
DSTYLE
1002
{
1070
   287
1070
     2
1070
   173
1070
     1
1070
     6
1000
_OPEN
1070
     7
1000
_NONE
1070
    41
1040
2.000000
1070
   272
1070
     1
1070
    47
1040
0.200000
1070
    48
1040
0.200000
1070
    71
1070
     1
1002
}
  0
LINE
  5
145
100
AcDbEntity
  8
MAIN0
  6
CENTER
 62
3
100
AcDbLine
 10
392.7747965238326
 20
225.5139818448785
 30
0.0000000000000000
 11
419.0132664321037
 21
210.3651941802143
 31
0.0000000000000000
  0
LINE
  5
146
100
AcDbEntity
  8
MAIN0
  6
CENTER
 62
3
100
AcDbLine
 10
256.4067433769214
 20
304.2461140381129
 30
0.0000000000000000
 11
374.5882630856548
 21
236.0139818210367
 31
0.0000000000000000
  0
LINE
  5
147
100
AcDbEntity
  8
MAIN0
  6
CENTER
 62
3
100
AcDbLine
 10
337.7739400078601
 20
162.2639818210366
 30
0.0000000000000000
 11
337.7739400078601
 21
312.2639818210366
 31
0.0000000000000000
  0
ARC
  5
148
100
AcDbEntity
  8
MAIN0
  6
HIDDEN
 62
3
100
AcDbCircle
 10
337.7739400078601
 20
257.2639818210366
 30
0.0000000000000000
 40
65.49999999999997
100
AcDbArc
 50
205.7983170508913
 51
428.9670683929530
  0
ARC
  5
149
100
AcDbEntity
  8
MAIN0
  6
HIDDEN
 62
3
100
AcDbCircle
 10
337.7739400078601
 20
257.2639818210366
 30
0.0000000000000000
 40
65.49999999999997
100
AcDbArc
 50
82.91599859556597
 51
97.08400140443403
  0
ARC
  5
14A
100
AcDbEntity
  8
MAIN0
  6
HIDDEN
 62
3
100
AcDbCircle
 10
337.7739400078601
 20
257.2639818210366
 30
0.0000000000000000
 40
65.49999999999997
100
AcDbArc
 50
110.2696615451595
 51
189.9917999156506
  0
LINE
  5
14B
100
AcDbEntity
  8
MAIN0
  6
CENTER
 62
3
100
AcDbLine
 10
337.7739400078601
 20
322.2639818210366
 30
0.0000000000000000
 11
337.7739400078601
 21
324.2639818210366
 31
0.0000000000000000
  0
LINE
  5
14C
100
AcDbEntity
  8
MAIN0
  6
CENTER
 62
3
100
AcDbLine
 10
337.7739400078601
 20
330.2639818210366
 30
0.0000000000000000
 11
337.7739400078601
 21
352.2639818210366
 31
0.0000000000000000
  0
ARC
  5
14D
100
AcDbEntity
  8
MAIN0
  6
HIDDEN
 62
3
100
AcDbCircle
 10
337.7739400078601
 20
257.2639818210366
 30
0.0000000000000000
 40
39.00000000000003
100
AcDbArc
 50
233.7640229213221
 51
584.7806940123808
  0
DIMENSION
  5
156
100
AcDbEntity
  8
MAIN0
  6
CONTINUOUS
 62
3
100
AcDbDimension
  2
*D8
 10
222.7739400078601
 20
219.7640195310743
 30
0.0000000000000000
 11
222.2739400078601
 21
230.0140195310750
 31
0.0000000000000000
 70
32
  3
MAIN001
100
AcDbAlignedDimension
 13
211.1739488537303
 23
240.2640195310757
 33
0.0000000000000000
 14
211.1739488537246
 24
219.7640195310757
 34
0.0000000000000000
 50
90.00000000000000
100
AcDbRotatedDimension
1001
ACAD
1000
DSTYLE
1002
{
1070
   173
1070
     1
1070
     6
1000
_OPEN
1070
     7
1000
_OPEN
1070
    41
1040
2.000000
1002
}
  0
DIMENSION
  5
15F
100
AcDbEntity
  8
MAIN0
  6
CONTINUOUS
 62
3
100
AcDbDimension
  2
*D9
 10
222.7739400078601
 20
219.7640195310757
 30
0.0000000000000000
 11
222.2739400078601
 21
209.0140195310769
 31
0.0000000000000000
 70
32
  3
MAIN001
100
AcDbAlignedDimension
 13
202.1739488537186
 23
198.2640195310782
 33
0.0000000000000000
 14
211.1739488537246
 24
219.7640195310757
 34
0.0000000000000000
 50
90.00000000000000
100
AcDbRotatedDimension
1001
ACAD
1000
DSTYLE
1002
{
1070
   173
1070
     1
1070
     6
1000
_OPEN
1070
     7
1000
_OPEN
1070
    41
1040
2.000000
1002
}
  0
DIMENSION
  5
168
100
AcDbEntity
  8
MAIN0
  6
CONTINUOUS
 62
3
100
AcDbDimension
  2
*D10
 10
222.7739400078601
 20
172.2640195310801
 30
0.0000000000000000
 11
222.2739400078601
 21
185.2640195310792
 31
0.0000000000000000
 70
32
  3
MAIN001
100
AcDbAlignedDimension
 13
202.1739488537186
 23
198.2640195310782
 33
0.0000000000000000
 14
193.6739488537114
 24
172.2640195310805
 34
0.0000000000000000
 50
90.00000000000000
100
AcDbRotatedDimension
1001
ACAD
1000
DSTYLE
1002
{
1070
   173
1070
     1
1070
     6
1000
_OPEN
1070
     7
1000
_OPEN
1070
    41
1040
2.000000
1002
}
  0
DIMENSION
  5
172
100
AcDbEntity
  8
MAIN0
  6
CONTINUOUS
 62
3
100
AcDbDimension
  2
*D11
 10
211.7739488537248
 20
209.7640195310779
 30
0.0000000000000000
 11
207.5239488537242
 21
210.2640195310779
 31
0.0000000000000000
 70
32
  3
MAIN001
100
AcDbAlignedDimension
 13
203.2739488537200
 23
203.2640195310779
 33
0.0000000000000000
 14
211.7739488537248
 24
220.3640195310755
 34
0.0000000000000000
100
AcDbRotatedDimension
1001
ACAD
1000
DSTYLE
1002
{
1070
   173
1070
     1
1070
     6
1000
_OPEN
1070
     7
1000
_OPEN
1070
    41
1040
2.000000
1070
   287
1070
     0
1002
}
  0
DIMENSION
  5
17C
100
AcDbEntity
  8
MAIN0
  6
CONTINUOUS
 62
3
100
AcDbDimension
  2
*D12
 10
194.7739488537177
 20
190.0024553439194
 30
0.0000000000000000
 11
199.0239488537189
 21
190.5024553439194
 31
0.0000000000000000
 70
32
  3
MAIN001
100
AcDbAlignedDimension
 13
203.2739488537200
 23
203.2640195310779
 33
0.0000000000000000
 14
194.7739488537134
 24
179.2640195310802
 34
0.0000000000000000
100
AcDbRotatedDimension
1001
ACAD
1000
DSTYLE
1002
{
1070
   173
1070
     1
1070
     6
1000
_OPEN
1070
     7
1000
_OPEN
1070
    41
1040
2.000000
1070
   287
1070
     0
1002
}
  0
LINE
  5
17D
100
AcDbEntity
  8
MAIN0
  6
PHANTOM
 62
3
100
AcDbLine
 10
393.2617436762945
 20
211.3716769760262
 30
0.0000000000000000
 11
396.7258452914317
 21
209.3716769760246
 31
0.0000000000000000
  0
LINE
  5
17E
100
AcDbEntity
  8
MAIN0
  6
PHANTOM
 62
3
100
AcDbLine
 10
408.7258452914114
 20
230.1562866668627
 30
0.0000000000000000
 11
396.7258452914315
 21
209.3716769760246
 31
0.0000000000000000
  0
LINE
  5
17F
100
AcDbEntity
  8
MAIN0
  6
PHANTOM
 62
3
100
AcDbLine
 10
405.2617436762745
 20
232.1562866668641
 30
0.0000000000000000
 11
393.2617436762947
 21
211.3716769760260
 31
0.0000000000000000
  0
LINE
  5
180
100
AcDbEntity
  8
MAIN0
  6
PHANTOM
 62
3
100
AcDbLine
 10
405.2617436762744
 20
232.1562866668641
 30
0.0000000000000000
 11
408.7258452914113
 21
230.1562866668627
 31
0.0000000000000000
  0
ARC
  5
181
100
AcDbEntity
  8
MAIN0
  6
CONTINUOUS
 62
3
100
AcDbCircle
 10
336.0073828859413
 20
256.2297815741617
 30
0.0000000000000000
 40
42.80000000000000
100
AcDbArc
 50
46.35762434377189
 51
47.68225461473821
  0
ARC
  5
182
100
AcDbEntity
  8
MAIN0
  6
CONTINUOUS
 62
3
100
AcDbCircle
 10
336.0073828859413
 20
256.2297815741617
 30
0.0000000000000000
 40
42.80000000000000
100
AcDbArc
 50
12.31770625532728
 51
13.64236074014829
  0
ARC
  5
183
100
AcDbEntity
  8
MAIN0
  6
CONTINUOUS
 62
3
100
AcDbCircle
 10
336.0073828859977
 20
256.2297815741943
 30
0.0000000000000000
 40
64.20000000000000
100
AcDbArc
 50
18.31725254606186
 51
19.26001075553747
  0
ARC
  5
184
100
AcDbEntity
  8
MAIN0
  6
CONTINUOUS
 62
3
100
AcDbCircle
 10
336.0073828859977
 20
256.2297815741943
 30
0.0000000000000000
 40
64.20000000000000
100
AcDbArc
 50
40.73997432838281
 51
41.68272207399047
  0
ARC
  5
185
100
AcDbEntity
  8
MAIN0
  6
CONTINUOUS
 62
3
100
AcDbCircle
 10
339.5652273806475
 20
256.2440595911580
 30
0.0000000000000000
 40
42.80000000000000
100
AcDbArc
 50
166.3576243437719
 51
167.6822546147382
  0
ARC
  5
186
100
AcDbEntity
  8
MAIN0
  6
CONTINUOUS
 62
3
100
AcDbCircle
 10
339.5652273806475
 20
256.2440595911580
 30
0.0000000000000000
 40
42.80000000000000
100
AcDbArc
 50
132.3177062553272
 51
133.6423607401483
  0
ARC
  5
187
100
AcDbEntity
  8
MAIN0
  6
CONTINUOUS
 62
3
100
AcDbCircle
 10
339.5652273805910
 20
256.2440595911906
 30
0.0000000000000000
 40
64.20000000000000
100
AcDbArc
 50
138.3172525460618
 51
139.2600107555374
  0
ARC
  5
188
100
AcDbEntity
  8
MAIN0
  6
CONTINUOUS
 62
3
100
AcDbCircle
 10
339.5652273805910
 20
256.2440595911906
 30
0.0000000000000000
 40
64.20000000000000
100
AcDbArc
 50
160.7399743283829
 51
161.6827220739905
  0
LINE
  5
189
100
AcDbEntity
  8
MAIN0
  6
CENTER
 62
3
100
AcDbLine
 10
370.5636008731324
 20
265.2111552352925
 30
0.0000000000000000
 11
361.0636035555212
 21
281.6656332611557
 31
0.0000000000000000
  0
LINE
  5
18A
100
AcDbEntity
  8
MAIN0
  6
CENTER
 62
3
100
AcDbLine
 10
403.5591687572809
 20
284.2611552352704
 30
0.0000000000000000
 11
394.0591714396795
 21
300.7156332611389
 31
0.0000000000000000
  0
LINE
  5
18B
100
AcDbEntity
  8
MAIN0
  6
CENTER
 62
3
100
AcDbLine
 10
314.4966555101979
 20
281.6870744047109
 30
0.0000000000000000
 11
304.9966581925932
 21
265.2325963788442
 31
0.0000000000000000
  0
LINE
  5
18C
100
AcDbEntity
  8
MAIN0
  6
CENTER
 62
3
100
AcDbLine
 10
281.5010876260494
 20
300.7370744046887
 30
0.0000000000000000
 11
272.0010903084349
 21
284.2825963788273
 31
0.0000000000000000
  0
SPLINE
  5
18D
100
AcDbEntity
  8
MAIN0
  6
CONTINUOUS
 62
3
100
AcDbSpline
210
0.0000000000000000
220
0.0000000000000000
230
1.000000000000000
 70
     8
 71
     3
 72
    19
 73
    15
 74
     0
 42
1.000000000000000e-007
 43
1.000000000000000e-007
 12
0.03498264979267773
 22
-0.9994297259984393
 32
0.0000000000000000
 13
-0.3235766558915820
 23
-0.9489957305857288
 33
0.0000000000000000
 40
0.0000000000000000
 40
0.0000000000000000
 40
0.0000000000000000
 40
0.0000000000000000
 40
17.04672423406374
 40
30.57366353670078
 40
36.16383348045025
 40
48.91138226443221
 40
61.41138226443221
 40
84.04984510977576
 40
107.0987062530080
 40
112.6888761967575
 40
120.1888761967575
 40
136.0002644975994
 40
151.2071708233449
 40
169.4074455465462
 40
169.4074455465462
 40
169.4074455465462
 40
169.4074455465462
 10
115.2739400078601
 20
339.7639818210366
 30
0.0000000000000000
 10
115.4727198691909
 20
334.0849808442295
 30
0.0000000000000000
 10
115.8292357906522
 20
323.8995714538116
 30
0.0000000000000000
 10
118.7809209626626
 20
311.9926261454525
 30
0.0000000000000000
 10
124.1955710077666
 20
302.7813654917900
 30
0.0000000000000000
 10
125.7187944736519
 20
292.3034995495142
 30
0.0000000000000000
 10
124.6834120567633
 20
276.3648340374278
 30
0.0000000000000000
 10
128.2841609727800
 20
257.3193403340380
 30
0.0000000000000000
 10
129.2410931087933
 20
239.6684310707576
 30
0.0000000000000000
 10
136.1634943788070
 20
229.3817728195368
 30
0.0000000000000000
 10
135.3590809666859
 20
219.2011287402975
 30
0.0000000000000000
 10
129.2352046628303
 20
207.7902981854896
 30
0.0000000000000000
 10
128.3402626604682
 20
191.0890668857567
 30
0.0000000000000000
 10
124.7370013516073
 20
180.5213094903050
 30
0.0000000000000000
 10
122.7739400078601
 20
174.7639818210366
 30
0.0000000000000000
  0
LINE
  5
18E
100
AcDbEntity
  8
MAIN0
  6
CONTINUOUS
 62
3
100
AcDbLine
 10
109.3739400078603
 20
174.7639818210366
 30
0.0000000000000000
 11
171.1739400078611
 21
174.7639818210366
 31
0.0000000000000000
  0
LINE
  5
18F
100
AcDbEntity
  8
MAIN0
  6
CONTINUOUS
 62
3
100
AcDbLine
 10
172.7739400078613
 20
176.3639818210368
 30
0.0000000000000000
 11
172.7739400078601
 21
338.1639818210363
 31
0.0000000000000000
  0
DIMENSION
  5
197
100
AcDbEntity
  8
MAIN0
  6
CONTINUOUS
 62
3
100
AcDbDimension
  2
*D13
 10
337.7739400078600
 20
164.7639818210366
 30
0.0000000000000000
 11
313.9625878584283
 21
168.3988058024422
 31
0.0000000000000000
 70
162
  3
MAIN001
100
AcDb2LineAngularDimension
 13
294.7739400078605
 23
182.7857970955750
 33
0.0000000000000000
 14
295.2739400078605
 24
183.6518224993594
 34
0.0000000000000000
 15
337.7739400078601
 25
257.2639818210366
 35
0.0000000000000000
 16
313.8331783358771
 26
167.9158428892977
 36
0.0000000000000000
1001
ACAD
1000
DSTYLE
1002
{
1070
   173
1070
     1
1070
     6
1000
_OPEN
1070
     7
1000
_OPEN
1070
    41
1040
2.000000
1002
}
  0
DIMENSION
  5
1A0
100
AcDbEntity
  8
MAIN0
  6
CONTINUOUS
 62
3
100
AcDbDimension
  2
*D14
 10
211.7739488537248
 20
166.7347904382496
 30
0.0000000000000000
 11
192.2739444307931
 21
167.2347904382496
 31
0.0000000000000000
 70
32
  3
MAIN001
100
AcDbAlignedDimension
 13
172.7739400078613
 23
176.3639818210368
 33
0.0000000000000000
 14
211.7739488537248
 24
220.3640195310755
 34
0.0000000000000000
100
AcDbRotatedDimension
1001
ACAD
1000
DSTYLE
1002
{
1070
   173
1070
     1
1070
     6
1000
_OPEN
1070
     7
1000
_OPEN
1070
    41
1040
2.000000
1002
}
  0
DIMENSION
  5
1A9
100
AcDbEntity
  8
MAIN0
  6
CONTINUOUS
 62
3
100
AcDbDimension
  2
*D15
 10
107.7739400078601
 20
221.7639818210366
 30
0.0000000000000000
 11
110.2739400078601
 21
222.2639818210366
 31
0.0000000000000000
 70
32
  3
MAIN001
100
AcDbAlignedDimension
 13
112.7739400078601
 23
192.6639818210366
 33
0.0000000000000000
 14
107.7739400078601
 24
338.1639818210362
 34
0.0000000000000000
100
AcDbRotatedDimension
1001
ACAD
1000
DSTYLE
1002
{
1070
   173
1070
     1
1070
     6
1000
_OPEN
1070
     7
1000
_OPEN
1070
    41
1040
2.000000
1070
   287
1070
     0
1002
}
  0
DIMENSION
  5
1B2
100
AcDbEntity
  8
MAIN0
  6
CONTINUOUS
 62
3
100
AcDbDimension
  2
*D16
 10
172.7739400078613
 20
347.2639818210366
 30
0.0000000000000000
 11
166.7739400078607
 21
347.7639818210366
 31
0.0000000000000000
 70
32
  3
MAIN001
100
AcDbAlignedDimension
 13
160.7739400078601
 23
338.2639818210366
 33
0.0000000000000000
 14
172.7739400078601
 24
338.1639818210363
 34
0.0000000000000000
100
AcDbRotatedDimension
1001
ACAD
1000
DSTYLE
1002
{
1070
   173
1070
     1
1070
     6
1000
_OPEN
1070
     7
1000
_OPEN
1070
    41
1040
2.000000
1002
}
  0
DIMENSION
  5
1BB
100
AcDbEntity
  8
MAIN0
  6
CONTINUOUS
 62
3
100
AcDbDimension
  2
*D17
 10
172.7739400078613
 20
357.2639818210366
 30
0.0000000000000000
 11
152.2739400078607
 21
357.7639818210366
 31
0.0000000000000000
 70
32
  3
MAIN001
100
AcDbAlignedDimension
 13
131.7739400078601
 23
352.2444198839546
 33
0.0000000000000000
 14
172.7739400078601
 24
338.1639818210363
 34
0.0000000000000000
100
AcDbRotatedDimension
1001
ACAD
1000
DSTYLE
1002
{
1070
   173
1070
     1
1070
     6
1000
_OPEN
1070
     7
1000
_OPEN
1070
    41
1040
2.000000
1002
}
  0
DIMENSION
  5
1C4
100
AcDbEntity
  8
MAIN0
  6
CONTINUOUS
 62
3
100
AcDbDimension
  2
*D18
 10
131.7739400078601
 20
357.2639818210366
 30
0.0000000000000000
 11
119.7739400078601
 21
357.7639818210366
 31
0.0000000000000000
 70
32
  3
MAIN001
100
AcDbAlignedDimension
 13
107.7739400078601
 23
338.1639818210362
 33
0.0000000000000000
 14
131.7739400078601
 24
352.2444198839546
 34
0.0000000000000000
100
AcDbRotatedDimension
1001
ACAD
1000
DSTYLE
1002
{
1070
   173
1070
     1
1070
     6
1000
_OPEN
1070
     7
1000
_OPEN
1070
    41
1040
2.000000
1002
}
  0
DIMENSION
  5
1CD
100
AcDbEntity
  8
MAIN0
  6
CONTINUOUS
 62
3
100
AcDbDimension
  2
*D19
 10
172.7739400078613
 20
367.2639818210366
 30
0.0000000000000000
 11
140.2739400078607
 21
367.7639818210366
 31
0.0000000000000000
 70
32
  3
MAIN001
100
AcDbAlignedDimension
 13
107.7739400078601
 23
338.1639818210362
 33
0.0000000000000000
 14
172.7739400078601
 24
338.1639818210363
 34
0.0000000000000000
100
AcDbRotatedDimension
1001
ACAD
1000
DSTYLE
1002
{
1070
   173
1070
     1
1070
     6
1000
_OPEN
1070
     7
1000
_OPEN
1070
    41
1040
2.000000
1002
}
  0
DIMENSION
  5
1D6
100
AcDbEntity
  8
MAIN0
  6
CONTINUOUS
 62
3
100
AcDbDimension
  2
*D20
 10
72.77394000786006
 20
339.7639818210366
 30
0.0000000000000000
 11
72.27394000786006
 21
257.2639818210366
 31
0.0000000000000000
 70
32
  1
\A1;\U+2205165
  3
MAIN001
100
AcDbAlignedDimension
 13
109.3739400078603
 23
174.7639818210366
 33
0.0000000000000000
 14
109.3739400078605
 24
339.7639818210366
 34
0.0000000000000000
 50
90.00000000000000
100
AcDbRotatedDimension
1001
ACAD
1000
DSTYLE
1002
{
1070
   173
1070
     1
1070
     6
1000
_OPEN
1070
     7
1000
_OPEN
1070
    41
1040
2.000000
1002
}
  0
LINE
  5
1D7
100
AcDbEntity
  8
MAIN0
  6
HIDDEN
 62
3
100
AcDbLine
 10
172.7739400078605
 20
279.7639818210366
 30
0.0000000000000000
 11
125.2739400072721
 21
279.7639818210366
 31
0.0000000000000000
  0
LINE
  5
1D8
100
AcDbEntity
  8
MAIN0
  6
HIDDEN
 62
3
100
AcDbLine
 10
172.7739400078608
 20
234.7639818210366
 30
0.0000000000000000
 11
132.7739399974338
 21
234.7639818210366
 31
0.0000000000000000
  0
LINE
  5
1D9
100
AcDbEntity
  8
MAIN0
  6
HIDDEN
 62
3
100
AcDbLine
 10
121.2739400078601
 20
233.1639818210365
 30
0.0000000000000000
 11
121.6739400078601
 21
232.7639818210366
 31
0.0000000000000000
  0
LINE
  5
1DA
100
AcDbEntity
  8
MAIN0
  6
HIDDEN
 62
3
100
AcDbLine
 10
121.6739400078601
 20
232.7639818210366
 30
0.0000000000000000
 11
129.2739400078601
 21
232.7639818210366
 31
0.0000000000000000
  0
LINE
  5
1DB
100
AcDbEntity
  8
MAIN0
  6
HIDDEN
 62
3
100
AcDbLine
 10
129.2739400078601
 20
232.7639818210366
 30
0.0000000000000000
 11
129.2739400078601
 21
221.7639818210366
 31
0.0000000000000000
  0
LINE
  5
1DC
100
AcDbEntity
  8
MAIN0
  6
HIDDEN
 62
3
100
AcDbLine
 10
129.2739400078601
 20
221.7639818210366
 30
0.0000000000000000
 11
121.6739400078601
 21
221.7639818210366
 31
0.0000000000000000
  0
LINE
  5
1DD
100
AcDbEntity
  8
MAIN0
  6
HIDDEN
 62
3
100
AcDbLine
 10
121.6739400078601
 20
221.7639818210366
 30
0.0000000000000000
 11
121.2739400078601
 21
221.3639818210366
 31
0.0000000000000000
  0
LINE
  5
1DE
100
AcDbEntity
  8
MAIN0
  6
HIDDEN
 62
3
100
AcDbLine
 10
129.2739400078601
 20
230.5639818210366
 30
0.0000000000000000
 11
134.9861535024740
 21
230.5639818210366
 31
0.0000000000000000
  0
LINE
  5
1DF
100
AcDbEntity
  8
MAIN0
  6
HIDDEN
 62
3
100
AcDbLine
 10
129.2739400078601
 20
223.9639818210366
 30
0.0000000000000000
 11
135.5721969572175
 21
223.9639818210366
 31
0.0000000000000000
  0
LINE
  5
1E0
100
AcDbEntity
  8
MAIN0
  6
HIDDEN
 62
3
100
AcDbLine
 10
129.2739400078601
 20
232.2639818210366
 30
0.0000000000000000
 11
123.8739400078601
 21
232.2639818210366
 31
0.0000000000000000
  0
LINE
  5
1E1
100
AcDbEntity
  8
MAIN0
  6
HIDDEN
 62
3
100
AcDbLine
 10
123.8739400078601
 20
232.2639818210366
 30
0.0000000000000000
 11
123.2739400078601
 21
231.2247513364953
 31
0.0000000000000000
  0
LINE
  5
1E2
100
AcDbEntity
  8
MAIN0
  6
HIDDEN
 62
3
100
AcDbLine
 10
123.2739400078601
 20
231.2247513364953
 30
0.0000000000000000
 11
123.2739400078601
 21
223.3032123055779
 31
0.0000000000000000
  0
LINE
  5
1E3
100
AcDbEntity
  8
MAIN0
  6
HIDDEN
 62
3
100
AcDbLine
 10
123.2739400078601
 20
223.3032123055779
 30
0.0000000000000000
 11
123.8739400078601
 21
222.2639818210366
 31
0.0000000000000000
  0
LINE
  5
1E4
100
AcDbEntity
  8
MAIN0
  6
HIDDEN
 62
3
100
AcDbLine
 10
123.8739400078601
 20
222.2639818210366
 30
0.0000000000000000
 11
129.2739400078601
 21
222.2639818210366
 31
0.0000000000000000
  0
LINE
  5
1E5
100
AcDbEntity
  8
MAIN0
  6
HIDDEN
 62
3
100
AcDbLine
 10
123.8739400078601
 20
232.2639818210366
 30
0.0000000000000000
 11
123.8739400078601
 21
222.2639818210366
 31
0.0000000000000000
  0
LINE
  5
1E6
100
AcDbEntity
  8
MAIN0
  6
HIDDEN
 62
3
100
AcDbLine
 10
129.2739400078601
 20
230.2639818210366
 30
0.0000000000000000
 11
135.1027262012545
 21
230.2639818210366
 31
0.0000000000000000
  0
LINE
  5
1E7
100
AcDbEntity
  8
MAIN0
  6
HIDDEN
 62
3
100
AcDbLine
 10
135.6115065832372
 20
224.2639818210366
 30
0.0000000000000000
 11
129.2739400078601
 21
224.2639818210366
 31
0.0000000000000000
  0
LINE
  5
1E8
100
AcDbEntity
  8
MAIN0
  6
HIDDEN
 62
3
100
AcDbLine
 10
129.2739400078601
 20
229.7227158210366
 30
0.0000000000000000
 11
135.2867151695841
 21
229.7227158210366
 31
0.0000000000000000
  0
LINE
  5
1E9
100
AcDbEntity
  8
MAIN0
  6
HIDDEN
 62
3
100
AcDbLine
 10
129.2739400078601
 20
224.8052478210366
 30
0.0000000000000000
 11
135.6709747504777
 21
224.8052478210366
 31
0.0000000000000000
  0
LINE
  5
1EA
100
AcDbEntity
  8
MAIN0
  6
CONTINUOUS
 62
3
100
AcDbLine
 10
164.7739400078601
 20
174.7639818210366
 30
0.0000000000000000
 11
164.7739400078601
 21
174.2639818210366
 31
0.0000000000000000
  0
LINE
  5
1EB
100
AcDbEntity
  8
MAIN0
  6
CONTINUOUS
 62
3
100
AcDbLine
 10
155.7739400078988
 20
174.2639818210366
 30
0.0000000000000000
 11
181.2739488537120
 21
174.2639818210366
 31
0.0000000000000000
  0
LINE
  5
1EC
100
AcDbEntity
  8
MAIN0
  6
CONTINUOUS
 62
3
100
AcDbLine
 10
172.7739400078609
 20
234.7791542637559
 30
0.0000000000000000
 11
177.7739400078991
 21
234.7791542637559
 31
0.0000000000000000
  0
LINE
  5
1ED
100
AcDbEntity
  8
MAIN0
  6
CONTINUOUS
 62
3
100
AcDbLine
 10
172.7739400078601
 20
240.2639818210366
 30
0.0000000000000000
 11
173.7739400079601
 21
240.2639818210366
 31
0.0000000000000000
  0
LINE
  5
1EE
100
AcDbEntity
  8
MAIN0
  6
CONTINUOUS
 62
3
100
AcDbLine
 10
325.3555151208483
 20
293.1948455673557
 30
0.0000000000000000
 11
321.3140632365209
 21
293.1948455673558
 31
0.0000000000000000
  0
LINE
  5
1EF
100
AcDbEntity
  8
MAIN0
  6
CONTINUOUS
 62
3
100
AcDbLine
 10
321.3140632365207
 20
286.1948455673558
 30
0.0000000000000000
 11
325.3555151208482
 21
286.1948455673558
 31
0.0000000000000000
  0
LINE
  5
1F0
100
AcDbEntity
  8
MAIN0
  6
CONTINUOUS
 62
3
100
AcDbLine
 10
327.3762410630119
 20
289.6948455673557
 30
0.0000000000000000
 11
325.3555151208483
 21
293.1948455673556
 31
0.0000000000000000
  0
LINE
  5
1F1
100
AcDbEntity
  8
MAIN0
  6
CONTINUOUS
 62
3
100
AcDbLine
 10
321.3140632365209
 20
293.1948455673559
 30
0.0000000000000000
 11
319.2933372943571
 21
289.6948455673558
 31
0.0000000000000000
  0
LINE
  5
1F2
100
AcDbEntity
  8
MAIN0
  6
CONTINUOUS
 62
3
100
AcDbLine
 10
319.2933372943571
 20
289.6948455673557
 30
0.0000000000000000
 11
321.3140632365207
 21
286.1948455673557
 31
0.0000000000000000
  0
LINE
  5
1F3
100
AcDbEntity
  8
MAIN0
  6
CONTINUOUS
 62
3
100
AcDbLine
 10
325.3555151208482
 20
286.1948455673558
 30
0.0000000000000000
 11
327.3762410630119
 21
289.6948455673557
 31
0.0000000000000000
  0
CIRCLE
  5
1F4
100
AcDbEntity
  8
MAIN0
  6
CONTINUOUS
 62
3
100
AcDbCircle
 10
323.3347891786845
 20
289.6948455673557
 30
0.0000000000000000
 40
2.154065922853398
  0
CIRCLE
  5
1F5
100
AcDbEntity
  8
MAIN0
  6
CONTINUOUS
 62
3
100
AcDbCircle
 10
323.3347891786845
 20
289.6948455673557
 30
0.0000000000000000
 40
3.299999999999997
  0
CIRCLE
  5
1F6
100
AcDbEntity
  8
MAIN0
  6
CONTINUOUS
 62
3
100
AcDbCircle
 10
323.3347891786845
 20
289.6948455673557
 30
0.0000000000000000
 40
0.9914283891267653
  0
CIRCLE
  5
1F7
100
AcDbEntity
  8
MAIN0
  6
HIDDEN
 62
3
100
AcDbCircle
 10
325.2739400078601
 20
328.6782661064651
 30
0.0000000000000000
 40
4.000000000000000
  0
CIRCLE
  5
1F8
100
AcDbEntity
  8
MAIN0
  6
HIDDEN
 62
3
100
AcDbCircle
 10
325.2739400078601
 20
328.6782661064651
 30
0.0000000000000000
 40
3.400000000000000
  0
LINE
  5
1F9
100
AcDbEntity
  8
MAIN0
  6
HIDDEN
 62
3
100
AcDbLine
 10
172.7739400078601
 20
320.6639818210365
 30
0.0000000000000000
 11
172.1739400078601
 21
321.2639818210366
 31
0.0000000000000000
  0
LINE
  5
1FA
100
AcDbEntity
  8
MAIN0
  6
HIDDEN
 62
3
100
AcDbLine
 10
172.1739400078601
 20
321.2639818210366
 30
0.0000000000000000
 11
160.7739400078601
 21
321.2639818210366
 31
0.0000000000000000
  0
LINE
  5
1FB
100
AcDbEntity
  8
MAIN0
  6
HIDDEN
 62
3
100
AcDbLine
 10
160.7739400078601
 20
321.2639818210366
 30
0.0000000000000000
 11
160.7739400078601
 21
338.2639818210366
 31
0.0000000000000000
  0
LINE
  5
1FC
100
AcDbEntity
  8
MAIN0
  6
HIDDEN
 62
3
100
AcDbLine
 10
160.7739400078601
 20
338.2639818210366
 30
0.0000000000000000
 11
172.1739400078601
 21
338.2639818210366
 31
0.0000000000000000
  0
LINE
  5
1FD
100
AcDbEntity
  8
MAIN0
  6
HIDDEN
 62
3
100
AcDbLine
 10
172.1739400078601
 20
338.2639818210366
 30
0.0000000000000000
 11
172.4239400078599
 21
338.5139818210365
 31
0.0000000000000000
  0
LINE
  5
1FE
100
AcDbEntity
  8
MAIN0
  6
CONTINUOUS
 62
3
100
AcDbLine
 10
350.7737096329599
 20
178.7462988589391
 30
0.0000000000000000
 11
338.7737096329599
 21
171.8180956286724
 31
0.0000000000000000
  0
LINE
  5
1FF
100
AcDbEntity
  8
MAIN0
  6
CONTINUOUS
 62
3
100
AcDbLine
 10
336.7737096330476
 20
171.8180956289083
 30
0.0000000000000000
 11
324.7737096329598
 21
178.7462988592313
 31
0.0000000000000000
  0
ARC
  5
200
100
AcDbEntity
  8
MAIN0
  6
CONTINUOUS
 62
3
100
AcDbCircle
 10
337.7737096329598
 20
152.3437535346048
 30
0.0000000000000000
 40
26.50000000000000
100
AcDbArc
 50
68.13799211629475
 51
111.8620078830115
  0
ARC
  5
201
100
AcDbEntity
  8
MAIN0
  6
CONTINUOUS
 62
3
100
AcDbCircle
 10
337.7737096329598
 20
152.3437535346048
 30
0.0000000000000000
 40
19.50000000000000
100
AcDbArc
 50
87.06046551356519
 51
92.93953448643390
  0
LINE
  5
202
100
AcDbEntity
  8
MAIN0
  6
CONTINUOUS
 62
3
100
AcDbLine
 10
350.7739260832922
 20
178.7464238265966
 30
0.0000000000000000
 11
350.7739260832921
 21
232.9412082084447
 31
0.0000000000000000
  0
LINE
  5
203
100
AcDbEntity
  8
MAIN0
  6
CONTINUOUS
 62
3
100
AcDbLine
 10
185.7739488537263
 20
218.8139818210366
 30
0.0000000000000000
 11
192.9739488537263
 21
218.8139818210366
 31
0.0000000000000000
  0
LINE
  5
204
100
AcDbEntity
  8
MAIN0
  6
CONTINUOUS
 62
3
100
AcDbLine
 10
192.9739488537263
 20
218.8139818210366
 30
0.0000000000000000
 11
193.7739488537263
 21
220.1996224670917
 31
0.0000000000000000
  0
LINE
  5
205
100
AcDbEntity
  8
MAIN0
  6
CONTINUOUS
 62
3
100
AcDbLine
 10
193.7739488537263
 20
220.1996224670917
 30
0.0000000000000000
 11
193.7739488537263
 21
230.4283411749815
 31
0.0000000000000000
  0
LINE
  5
206
100
AcDbEntity
  8
MAIN0
  6
CONTINUOUS
 62
3
100
AcDbLine
 10
193.7739488537263
 20
230.4283411749815
 30
0.0000000000000000
 11
192.9739488537263
 21
231.8139818210366
 31
0.0000000000000000
  0
LINE
  5
207
100
AcDbEntity
  8
MAIN0
  6
CONTINUOUS
 62
3
100
AcDbLine
 10
192.9739488537263
 20
231.8139818210366
 30
0.0000000000000000
 11
185.7739488537263
 21
231.8139818210366
 31
0.0000000000000000
  0
LINE
  5
208
100
AcDbEntity
  8
MAIN0
  6
CONTINUOUS
 62
3
100
AcDbLine
 10
192.9739488537263
 20
218.8139818210366
 30
0.0000000000000000
 11
192.9739488537263
 21
231.8139818210366
 31
0.0000000000000000
  0
LINE
  5
209
100
AcDbEntity
  8
MAIN0
  6
HIDDEN
 62
3
100
AcDbLine
 10
172.7739400078609
 20
229.3139818210366
 30
0.0000000000000000
 11
181.2739488537272
 21
229.3139818210366
 31
0.0000000000000000
  0
LINE
  5
20A
100
AcDbEntity
  8
MAIN0
  6
CONTINUOUS
 62
3
100
AcDbLine
 10
181.2739488537272
 20
229.3139818210366
 30
0.0000000000000000
 11
185.7739488537263
 21
229.3139818210366
 31
0.0000000000000000
  0
LINE
  5
20B
100
AcDbEntity
  8
MAIN0
  6
HIDDEN
 62
3
100
AcDbLine
 10
172.7739400078610
 20
221.3139818210366
 30
0.0000000000000000
 11
181.2739488537250
 21
221.3139818210366
 31
0.0000000000000000
  0
LINE
  5
20C
100
AcDbEntity
  8
MAIN0
  6
CONTINUOUS
 62
3
100
AcDbLine
 10
181.2739488537250
 20
221.3139818210366
 30
0.0000000000000000
 11
185.7739488537263
 21
221.3139818210366
 31
0.0000000000000000
  0
LINE
  5
20D
100
AcDbEntity
  8
MAIN0
  6
HIDDEN
 62
3
100
AcDbLine
 10
172.7739400078610
 20
221.9905643210366
 30
0.0000000000000000
 11
181.2739488537252
 21
221.9905643210366
 31
0.0000000000000000
  0
LINE
  5
20E
100
AcDbEntity
  8
MAIN0
  6
CONTINUOUS
 62
3
100
AcDbLine
 10
181.2739488537252
 20
221.9905643210366
 30
0.0000000000000000
 11
185.7739488537263
 21
221.9905643210366
 31
0.0000000000000000
  0
LINE
  5
20F
100
AcDbEntity
  8
MAIN0
  6
HIDDEN
 62
3
100
AcDbLine
 10
172.7739400078609
 20
228.6373993210366
 30
0.0000000000000000
 11
181.2739488537271
 21
228.6373993210366
 31
0.0000000000000000
  0
LINE
  5
210
100
AcDbEntity
  8
MAIN0
  6
CONTINUOUS
 62
3
100
AcDbLine
 10
181.2739488537271
 20
228.6373993210366
 30
0.0000000000000000
 11
185.7739488537263
 21
228.6373993210366
 31
0.0000000000000000
  0
LINE
  5
211
100
AcDbEntity
  8
MAIN0
  6
CONTINUOUS
 62
3
100
AcDbLine
 10
185.7739488537156
 20
180.7139818210366
 30
0.0000000000000000
 11
192.9739488537156
 21
180.7139818210366
 31
0.0000000000000000
  0
LINE
  5
212
100
AcDbEntity
  8
MAIN0
  6
CONTINUOUS
 62
3
100
AcDbLine
 10
192.9739488537156
 20
180.7139818210366
 30
0.0000000000000000
 11
193.7739488537156
 21
182.0996224670917
 31
0.0000000000000000
  0
LINE
  5
213
100
AcDbEntity
  8
MAIN0
  6
CONTINUOUS
 62
3
100
AcDbLine
 10
193.7739488537156
 20
182.0996224670917
 30
0.0000000000000000
 11
193.7739488537156
 21
192.3283411749815
 31
0.0000000000000000
  0
LINE
  5
214
100
AcDbEntity
  8
MAIN0
  6
CONTINUOUS
 62
3
100
AcDbLine
 10
193.7739488537156
 20
192.3283411749815
 30
0.0000000000000000
 11
192.9739488537156
 21
193.7139818210366
 31
0.0000000000000000
  0
LINE
  5
215
100
AcDbEntity
  8
MAIN0
  6
CONTINUOUS
 62
3
100
AcDbLine
 10
192.9739488537156
 20
193.7139818210366
 30
0.0000000000000000
 11
185.7739488537156
 21
193.7139818210366
 31
0.0000000000000000
  0
LINE
  5
216
100
AcDbEntity
  8
MAIN0
  6
CONTINUOUS
 62
3
100
AcDbLine
 10
192.9739488537156
 20
180.7139818210366
 30
0.0000000000000000
 11
192.9739488537156
 21
193.7139818210366
 31
0.0000000000000000
  0
LINE
  5
217
100
AcDbEntity
  8
MAIN0
  6
HIDDEN
 62
3
100
AcDbLine
 10
172.7739400078612
 20
191.2139818210366
 30
0.0000000000000000
 11
181.2739488537167
 21
191.2139818210366
 31
0.0000000000000000
  0
LINE
  5
218
100
AcDbEntity
  8
MAIN0
  6
CONTINUOUS
 62
3
100
AcDbLine
 10
181.2739488537167
 20
191.2139818210366
 30
0.0000000000000000
 11
185.7739488537156
 21
191.2139818210366
 31
0.0000000000000000
  0
LINE
  5
219
100
AcDbEntity
  8
MAIN0
  6
HIDDEN
 62
3
100
AcDbLine
 10
172.7739400078612
 20
190.5373993210366
 30
0.0000000000000000
 11
181.2739488537165
 21
190.5373993210366
 31
0.0000000000000000
  0
LINE
  5
21A
100
AcDbEntity
  8
MAIN0
  6
CONTINUOUS
 62
3
100
AcDbLine
 10
181.2739488537165
 20
190.5373993210366
 30
0.0000000000000000
 11
185.7739488537156
 21
190.5373993210366
 31
0.0000000000000000
  0
LINE
  5
21B
100
AcDbEntity
  8
MAIN0
  6
HIDDEN
 62
3
100
AcDbLine
 10
172.7739400078613
 20
183.8905643210366
 30
0.0000000000000000
 11
181.2739488537146
 21
183.8905643210366
 31
0.0000000000000000
  0
LINE
  5
21C
100
AcDbEntity
  8
MAIN0
  6
CONTINUOUS
 62
3
100
AcDbLine
 10
181.2739488537146
 20
183.8905643210366
 30
0.0000000000000000
 11
185.7739488537156
 21
183.8905643210366
 31
0.0000000000000000
  0
LINE
  5
21D
100
AcDbEntity
  8
MAIN0
  6
HIDDEN
 62
3
100
AcDbLine
 10
172.7739400078613
 20
183.2139818210366
 30
0.0000000000000000
 11
181.2739488537145
 21
183.2139818210366
 31
0.0000000000000000
  0
LINE
  5
21E
100
AcDbEntity
  8
MAIN0
  6
CONTINUOUS
 62
3
100
AcDbLine
 10
181.2739488537145
 20
183.2139818210366
 30
0.0000000000000000
 11
185.7739488537156
 21
183.2139818210366
 31
0.0000000000000000
  0
LINE
  5
21F
100
AcDbEntity
  8
MAIN0
  6
CONTINUOUS
 62
3
100
AcDbLine
 10
399.2845119618812
 20
307.7739399999267
 30
0.0000000000000000
 11
352.3504519345807
 21
280.6765478090027
 31
0.0000000000000000
  0
ARC
  5
220
100
AcDbEntity
  8
MAIN0
  6
CONTINUOUS
 62
3
100
AcDbCircle
 10
428.6500033876571
 20
309.7167574452384
 30
0.0000000000000000
 40
26.50000000000000
100
AcDbArc
 50
188.1379921162948
 51
231.8620078830115
  0
LINE
  5
221
100
AcDbEntity
  8
MAIN0
  6
CONTINUOUS
 62
3
100
AcDbLine
 10
399.2847284122133
 20
307.7738150322691
 30
0.0000000000000000
 11
411.2847284122057
 21
300.8456118019891
 31
0.0000000000000000
  0
ARC
  5
222
100
AcDbEntity
  8
MAIN0
  6
CONTINUOUS
 62
3
100
AcDbCircle
 10
428.6500033876571
 20
309.7167574452384
 30
0.0000000000000000
 40
19.50000000000000
100
AcDbArc
 50
207.0604655135652
 51
212.9395344864339
  0
LINE
  5
223
100
AcDbEntity
  8
MAIN0
  6
CONTINUOUS
 62
3
100
AcDbLine
 10
412.2847284119576
 20
299.1135609943783
 30
0.0000000000000000
 11
412.2847284119604
 21
285.2571545337274
 31
0.0000000000000000
  0
LINE
  5
224
100
AcDbEntity
  8
MAIN0
  6
CONTINUOUS
 62
3
100
AcDbLine
 10
263.2881122292753
 20
285.2715816365865
 30
0.0000000000000000
 11
310.2221722565759
 21
258.1741894456624
 31
0.0000000000000000
  0
ARC
  5
225
100
AcDbEntity
  8
MAIN0
  6
CONTINUOUS
 62
3
100
AcDbCircle
 10
246.9228372538319
 20
309.7314344832666
 30
0.0000000000000000
 40
26.50000000000000
100
AcDbArc
 50
308.1379921162948
 51
351.8620078830115
  0
LINE
  5
226
100
AcDbEntity
  8
MAIN0
  6
CONTINUOUS
 62
3
100
AcDbLine
 10
263.2881122292753
 20
285.2718315719016
 30
0.0000000000000000
 11
263.2881122292830
 21
299.1282380324482
 31
0.0000000000000000
  0
ARC
  5
227
100
AcDbEntity
  8
MAIN0
  6
CONTINUOUS
 62
3
100
AcDbCircle
 10
246.9228372538319
 20
309.7314344832666
 30
0.0000000000000000
 40
19.50000000000000
100
AcDbArc
 50
327.0604655135652
 51
332.9395344864338
  0
LINE
  5
228
100
AcDbEntity
  8
MAIN0
  6
CONTINUOUS
 62
3
100
AcDbLine
 10
264.2881122294434
 20
300.8602888398232
 30
0.0000000000000000
 11
276.2881122295285
 21
307.7884920701511
 31
0.0000000000000000
  0
CIRCLE
  5
229
100
AcDbEntity
  8
MAIN0
  6
CONTINUOUS
 62
3
100
AcDbCircle
 10
337.7739400078601
 20
224.8937158231082
 30
0.0000000000000000
 40
6.500000000000000
  0
LINE
  5
22A
100
AcDbEntity
  8
MAIN0
  6
CONTINUOUS
 62
3
100
AcDbLine
 10
337.7739400078601
 20
228.3578174382459
 30
0.0000000000000000
 11
334.7739400078601
 21
226.6257666306770
 31
0.0000000000000000
  0
LINE
  5
22B
100
AcDbEntity
  8
MAIN0
  6
CONTINUOUS
 62
3
100
AcDbLine
 10
334.7739400078601
 20
226.6257666306770
 30
0.0000000000000000
 11
334.7739400078601
 21
223.1616650155393
 31
0.0000000000000000
  0
LINE
  5
22C
100
AcDbEntity
  8
MAIN0
  6
CONTINUOUS
 62
3
100
AcDbLine
 10
334.7739400078600
 20
223.1616650155393
 30
0.0000000000000000
 11
337.7739400078601
 21
221.4296142079704
 31
0.0000000000000000
  0
LINE
  5
22D
100
AcDbEntity
  8
MAIN0
  6
CONTINUOUS
 62
3
100
AcDbLine
 10
337.7739400078601
 20
221.4296142079704
 30
0.0000000000000000
 11
340.7739400078601
 21
223.1616650155393
 31
0.0000000000000000
  0
LINE
  5
22E
100
AcDbEntity
  8
MAIN0
  6
CONTINUOUS
 62
3
100
AcDbLine
 10
340.7739400078601
 20
223.1616650155393
 30
0.0000000000000000
 11
340.7739400078601
 21
226.6257666306770
 31
0.0000000000000000
  0
LINE
  5
22F
100
AcDbEntity
  8
MAIN0
  6
CONTINUOUS
 62
3
100
AcDbLine
 10
340.7739400078600
 20
226.6257666306770
 30
0.0000000000000000
 11
337.7739400078600
 21
228.3578174382459
 31
0.0000000000000000
  0
CIRCLE
  5
230
100
AcDbEntity
  8
MAIN0
  6
CONTINUOUS
 62
3
100
AcDbCircle
 10
337.7739400078601
 20
186.7937158231471
 30
0.0000000000000000
 40
6.500000000000000
  0
LINE
  5
231
100
AcDbEntity
  8
MAIN0
  6
CONTINUOUS
 62
3
100
AcDbLine
 10
337.7739400078601
 20
190.2578174382849
 30
0.0000000000000000
 11
334.7739400078601
 21
188.5257666307160
 31
0.0000000000000000
  0
LINE
  5
232
100
AcDbEntity
  8
MAIN0
  6
CONTINUOUS
 62
3
100
AcDbLine
 10
334.7739400078601
 20
188.5257666307160
 30
0.0000000000000000
 11
334.7739400078601
 21
185.0616650155783
 31
0.0000000000000000
  0
LINE
  5
233
100
AcDbEntity
  8
MAIN0
  6
CONTINUOUS
 62
3
100
AcDbLine
 10
334.7739400078600
 20
185.0616650155783
 30
0.0000000000000000
 11
337.7739400078601
 21
183.3296142080094
 31
0.0000000000000000
  0
LINE
  5
234
100
AcDbEntity
  8
MAIN0
  6
CONTINUOUS
 62
3
100
AcDbLine
 10
337.7739400078601
 20
183.3296142080094
 30
0.0000000000000000
 11
340.7739400078601
 21
185.0616650155783
 31
0.0000000000000000
  0
LINE
  5
235
100
AcDbEntity
  8
MAIN0
  6
CONTINUOUS
 62
3
100
AcDbLine
 10
340.7739400078601
 20
185.0616650155783
 30
0.0000000000000000
 11
340.7739400078601
 21
188.5257666307160
 31
0.0000000000000000
  0
LINE
  5
236
100
AcDbEntity
  8
MAIN0
  6
CONTINUOUS
 62
3
100
AcDbLine
 10
340.7739400078601
 20
188.5257666307160
 30
0.0000000000000000
 11
337.7739400078601
 21
190.2578174382849
 31
0.0000000000000000
  0
CIRCLE
  5
237
100
AcDbEntity
  8
MAIN0
  6
CONTINUOUS
 62
3
100
AcDbCircle
 10
398.8071022819572
 20
292.5062538284793
 30
0.0000000000000000
 40
6.500000000000000
  0
LINE
  5
238
100
AcDbEntity
  8
MAIN0
  6
CONTINUOUS
 62
3
100
AcDbLine
 10
395.8071022819571
 20
290.7742030209105
 30
0.0000000000000000
 11
398.8071022819571
 21
289.0421522133416
 31
0.0000000000000000
  0
LINE
  5
239
100
AcDbEntity
  8
MAIN0
  6
CONTINUOUS
 62
3
100
AcDbLine
 10
398.8071022819572
 20
289.0421522133416
 30
0.0000000000000000
 11
401.8071022819571
 21
290.7742030209105
 31
0.0000000000000000
  0
LINE
  5
23A
100
AcDbEntity
  8
MAIN0
  6
CONTINUOUS
 62
3
100
AcDbLine
 10
401.8071022819572
 20
290.7742030209105
 30
0.0000000000000000
 11
401.8071022819572
 21
294.2383046360482
 31
0.0000000000000000
  0
LINE
  5
23B
100
AcDbEntity
  8
MAIN0
  6
CONTINUOUS
 62
3
100
AcDbLine
 10
401.8071022819571
 20
294.2383046360482
 30
0.0000000000000000
 11
398.8071022819571
 21
295.9703554436171
 31
0.0000000000000000
  0
LINE
  5
23C
100
AcDbEntity
  8
MAIN0
  6
CONTINUOUS
 62
3
100
AcDbLine
 10
398.8071022819571
 20
295.9703554436171
 30
0.0000000000000000
 11
395.8071022819572
 21
294.2383046360482
 31
0.0000000000000000
  0
LINE
  5
23D
100
AcDbEntity
  8
MAIN0
  6
CONTINUOUS
 62
3
100
AcDbLine
 10
395.8071022819572
 20
294.2383046360482
 30
0.0000000000000000
 11
395.8071022819572
 21
290.7742030209105
 31
0.0000000000000000
  0
CIRCLE
  5
23E
100
AcDbEntity
  8
MAIN0
  6
CONTINUOUS
 62
3
100
AcDbCircle
 10
276.7407777337630
 20
292.5062538284794
 30
0.0000000000000000
 40
6.500000000000000
  0
LINE
  5
23F
100
AcDbEntity
  8
MAIN0
  6
CONTINUOUS
 62
3
100
AcDbLine
 10
279.7407777337630
 20
290.7742030209105
 30
0.0000000000000000
 11
279.7407777337630
 21
294.2383046360483
 31
0.0000000000000000
  0
LINE
  5
240
100
AcDbEntity
  8
MAIN0
  6
CONTINUOUS
 62
3
100
AcDbLine
 10
279.7407777337630
 20
294.2383046360483
 30
0.0000000000000000
 11
276.7407777337630
 21
295.9703554436171
 31
0.0000000000000000
  0
LINE
  5
241
100
AcDbEntity
  8
MAIN0
  6
CONTINUOUS
 62
3
100
AcDbLine
 10
276.7407777337630
 20
295.9703554436171
 30
0.0000000000000000
 11
273.7407777337630
 21
294.2383046360482
 31
0.0000000000000000
  0
LINE
  5
242
100
AcDbEntity
  8
MAIN0
  6
CONTINUOUS
 62
3
100
AcDbLine
 10
273.7407777337630
 20
294.2383046360483
 30
0.0000000000000000
 11
273.7407777337630
 21
290.7742030209105
 31
0.0000000000000000
  0
LINE
  5
243
100
AcDbEntity
  8
MAIN0
  6
CONTINUOUS
 62
3
100
AcDbLine
 10
273.7407777337630
 20
290.7742030209105
 30
0.0000000000000000
 11
276.7407777337630
 21
289.0421522133416
 31
0.0000000000000000
  0
LINE
  5
244
100
AcDbEntity
  8
MAIN0
  6
CONTINUOUS
 62
3
100
AcDbLine
 10
276.7407777337630
 20
289.0421522133416
 30
0.0000000000000000
 11
279.7407777337630
 21
290.7742030209105
 31
0.0000000000000000
  0
CIRCLE
  5
245
100
AcDbEntity
  8
MAIN0
  6
CONTINUOUS
 62
3
100
AcDbCircle
 10
365.8074126893258
 20
273.4491148200008
 30
0.0000000000000000
 40
6.500000000000000
  0
LINE
  5
246
100
AcDbEntity
  8
MAIN0
  6
CONTINUOUS
 62
3
100
AcDbLine
 10
362.8074126893257
 20
271.7170640124319
 30
0.0000000000000000
 11
365.8074126893257
 21
269.9850132048630
 31
0.0000000000000000
  0
LINE
  5
247
100
AcDbEntity
  8
MAIN0
  6
CONTINUOUS
 62
3
100
AcDbLine
 10
365.8074126893257
 20
269.9850132048630
 30
0.0000000000000000
 11
368.8074126893257
 21
271.7170640124319
 31
0.0000000000000000
  0
LINE
  5
248
100
AcDbEntity
  8
MAIN0
  6
CONTINUOUS
 62
3
100
AcDbLine
 10
368.8074126893258
 20
271.7170640124319
 30
0.0000000000000000
 11
368.8074126893258
 21
275.1811656275697
 31
0.0000000000000000
  0
LINE
  5
249
100
AcDbEntity
  8
MAIN0
  6
CONTINUOUS
 62
3
100
AcDbLine
 10
368.8074126893257
 20
275.1811656275697
 30
0.0000000000000000
 11
365.8074126893257
 21
276.9132164351386
 31
0.0000000000000000
  0
LINE
  5
24A
100
AcDbEntity
  8
MAIN0
  6
CONTINUOUS
 62
3
100
AcDbLine
 10
365.8074126893257
 20
276.9132164351386
 30
0.0000000000000000
 11
362.8074126893257
 21
275.1811656275697
 31
0.0000000000000000
  0
LINE
  5
24B
100
AcDbEntity
  8
MAIN0
  6
CONTINUOUS
 62
3
100
AcDbLine
 10
362.8074126893257
 20
275.1811656275697
 30
0.0000000000000000
 11
362.8074126893257
 21
271.7170640124319
 31
0.0000000000000000
  0
CIRCLE
  5
24C
100
AcDbEntity
  8
MAIN0
  6
CONTINUOUS
 62
3
100
AcDbCircle
 10
309.7404673263944
 20
273.4491148200008
 30
0.0000000000000000
 40
6.500000000000000
  0
LINE
  5
24D
100
AcDbEntity
  8
MAIN0
  6
CONTINUOUS
 62
3
100
AcDbLine
 10
312.7404673263944
 20
271.7170640124320
 30
0.0000000000000000
 11
312.7404673263944
 21
275.1811656275697
 31
0.0000000000000000
  0
LINE
  5
24E
100
AcDbEntity
  8
MAIN0
  6
CONTINUOUS
 62
3
100
AcDbLine
 10
312.7404673263944
 20
275.1811656275697
 30
0.0000000000000000
 11
309.7404673263944
 21
276.9132164351386
 31
0.0000000000000000
  0
LINE
  5
24F
100
AcDbEntity
  8
MAIN0
  6
CONTINUOUS
 62
3
100
AcDbLine
 10
309.7404673263944
 20
276.9132164351386
 30
0.0000000000000000
 11
306.7404673263944
 21
275.1811656275697
 31
0.0000000000000000
  0
LINE
  5
250
100
AcDbEntity
  8
MAIN0
  6
CONTINUOUS
 62
3
100
AcDbLine
 10
306.7404673263944
 20
275.1811656275697
 30
0.0000000000000000
 11
306.7404673263944
 21
271.7170640124319
 31
0.0000000000000000
  0
LINE
  5
251
100
AcDbEntity
  8
MAIN0
  6
CONTINUOUS
 62
3
100
AcDbLine
 10
306.7404673263944
 20
271.7170640124319
 30
0.0000000000000000
 11
309.7404673263944
 21
269.9850132048631
 31
0.0000000000000000
  0
LINE
  5
252
100
AcDbEntity
  8
MAIN0
  6
CONTINUOUS
 62
3
100
AcDbLine
 10
309.7404673263944
 20
269.9850132048631
 30
0.0000000000000000
 11
312.7404673263944
 21
271.7170640124319
 31
0.0000000000000000
  0
LINE
  5
253
100
AcDbEntity
  8
MAIN0
  6
CONTINUOUS
 62
3
100
AcDbLine
 10
155.7739400078988
 20
174.7639818210366
 30
0.0000000000000000
 11
155.7739400078988
 21
174.2639818210366
 31
0.0000000000000000
  0
LINE
  5
254
100
AcDbEntity
  8
MAIN0
  6
CENTER
 62
3
100
AcDbLine
 10
316.2380154319069
 20
269.7025130112092
 30
0.0000000000000000
 11
297.0370489330298
 21
280.7881961880369
 31
0.0000000000000000
  0
LINE
  5
255
100
AcDbEntity
  8
MAIN0
  6
CONTINUOUS
 62
3
100
AcDbLine
 10
350.7739260832922
 20
232.9412082084447
 30
0.0000000000000000
 11
338.7739260829351
 21
239.8694114389286
 31
0.0000000000000000
  0
LINE
  5
256
100
AcDbEntity
  8
MAIN0
  6
CONTINUOUS
 62
3
100
AcDbLine
 10
336.7739260832921
 20
239.8694114390909
 30
0.0000000000000000
 11
324.7739260832921
 21
232.9412082088155
 31
0.0000000000000000
  0
ARC
  5
257
100
AcDbEntity
  8
MAIN0
  6
CONTINUOUS
 62
3
100
AcDbCircle
 10
337.7739260832920
 20
152.3447116218796
 30
0.0000000000000000
 40
42.00000000000000
100
AcDbArc
 50
71.96946460666182
 51
108.0305353933379
  0
ARC
  5
258
100
AcDbEntity
  8
MAIN0
  6
CONTINUOUS
 62
3
100
AcDbCircle
 10
337.7739260832921
 20
152.3437535331453
 30
0.0000000000000000
 40
45.50000000000000
100
AcDbArc
 50
74.75535132977323
 51
105.2446337541470
  0
ARC
  5
259
100
AcDbEntity
  8
MAIN0
  6
CONTINUOUS
 62
3
100
AcDbCircle
 10
337.7739260832921
 20
152.3437535332766
 30
0.0000000000000000
 40
63.50000000000000
100
AcDbArc
 50
78.18663328023982
 51
101.8133667197601
  0
ARC
  5
25A
100
AcDbEntity
  8
MAIN0
  6
CONTINUOUS
 62
3
100
AcDbCircle
 10
337.7739260832921
 20
259.3437535330974
 30
0.0000000000000000
 40
19.50000000000000
100
AcDbArc
 50
267.0604655135657
 51
272.9395344864340
  0
ARC
  5
25B
100
AcDbEntity
  8
MAIN0
  6
CONTINUOUS
 62
3
100
AcDbCircle
 10
337.7739260832921
 20
152.3437535332106
 30
0.0000000000000000
 40
67.00000000000000
100
AcDbArc
 50
93.53412973307810
 51
100.3644055166935
  0
ARC
  5
25C
100
AcDbEntity
  8
MAIN0
  6
CONTINUOUS
 62
3
100
AcDbCircle
 10
337.7739260832921
 20
152.3437535332106
 30
0.0000000000000000
 40
67.00000000000000
100
AcDbArc
 50
79.63557956722681
 51
86.46587026692178
  0
LINE
  5
25D
100
AcDbEntity
  8
MAIN0
  6
CONTINUOUS
 62
3
100
AcDbLine
 10
324.7739260832922
 20
178.7461738915736
 30
0.0000000000000000
 11
324.7739260832922
 21
232.9412082088155
 31
0.0000000000000000
  0
LINE
  5
25E
100
AcDbEntity
  8
MAIN0
  6
CONTINUOUS
 62
3
100
AcDbLine
 10
194.7729514561644
 20
194.7649776202972
 30
0.0000000000000000
 11
193.9729514561648
 21
196.3017633218744
 31
0.0000000000000000
  0
LINE
  5
25F
100
AcDbEntity
  8
MAIN0
  6
CONTINUOUS
 62
3
100
AcDbLine
 10
193.9729514561648
 20
196.3017633218743
 30
0.0000000000000000
 11
193.9729514561653
 21
198.0649776202974
 31
0.0000000000000000
  0
LINE
  5
260
100
AcDbEntity
  8
MAIN0
  6
CONTINUOUS
 62
3
100
AcDbLine
 10
195.1729514561656
 20
199.2649776202971
 30
0.0000000000000000
 11
195.4519693291945
 21
199.2649776202970
 31
0.0000000000000000
  0
LINE
  5
261
100
AcDbEntity
  8
MAIN0
  6
CONTINUOUS
 62
3
100
AcDbLine
 10
195.4519693291945
 20
199.2649776202970
 30
0.0000000000000000
 11
197.3729514561654
 21
198.2649776202965
 31
0.0000000000000000
  0
ARC
  5
262
100
AcDbEntity
  8
MAIN0
  6
CONTINUOUS
 62
3
100
AcDbCircle
 10
195.1729514561653
 20
198.0649776202971
 30
0.0000000000000000
 40
1.200000000000000
100
AcDbArc
 50
89.99999999998411
 51
179.9999999999841
  0
LINE
  5
263
100
AcDbEntity
  8
MAIN0
  6
CONTINUOUS
 62
3
100
AcDbLine
 10
353.3504519342596
 20
265.0880905406974
 30
0.0000000000000000
 11
365.3504519342596
 21
258.1598873104218
 31
0.0000000000000000
  0
LINE
  5
264
100
AcDbEntity
  8
MAIN0
  6
CONTINUOUS
 62
3
100
AcDbLine
 10
352.3504519345806
 20
280.6765478090027
 30
0.0000000000000000
 11
352.3504519345787
 21
266.8201413480382
 31
0.0000000000000000
  0
ARC
  5
265
100
AcDbEntity
  8
MAIN0
  6
CONTINUOUS
 62
3
100
AcDbCircle
 10
335.9851769588614
 20
256.2169448974786
 30
0.0000000000000000
 40
19.50000000000000
100
AcDbArc
 50
27.06046551356567
 51
32.93953448643396
  0
ARC
  5
266
100
AcDbEntity
  8
MAIN0
  6
CONTINUOUS
 62
3
100
AcDbCircle
 10
428.6498951636984
 20
309.7169448974219
 30
0.0000000000000000
 40
67.00000000000000
100
AcDbArc
 50
199.6355795672268
 51
206.4658702669218
  0
ARC
  5
267
100
AcDbEntity
  8
MAIN0
  6
CONTINUOUS
 62
3
100
AcDbCircle
 10
428.6498951636411
 20
309.7169448973889
 30
0.0000000000000000
 40
63.50000000000000
100
AcDbArc
 50
198.1866332802398
 51
221.8133667197601
  0
ARC
  5
268
100
AcDbEntity
  8
MAIN0
  6
CONTINUOUS
 62
3
100
AcDbCircle
 10
428.6498951636984
 20
309.7169448974219
 30
0.0000000000000000
 40
67.00000000000000
100
AcDbArc
 50
213.5341297330781
 51
220.3644055166935
  0
LINE
  5
269
100
AcDbEntity
  8
MAIN0
  6
CONTINUOUS
 62
3
100
AcDbLine
 10
412.2847284119605
 20
285.2574044690429
 30
0.0000000000000000
 11
365.3504519342596
 21
258.1598873104219
 31
0.0000000000000000
  0
ARC
  5
26A
100
AcDbEntity
  8
MAIN0
  6
CONTINUOUS
 62
3
100
AcDbCircle
 10
428.6490654345719
 20
309.7164658530874
 30
0.0000000000000000
 40
42.00000000000000
100
AcDbArc
 50
191.9694646066618
 51
228.0305353933379
  0
ARC
  5
26B
100
AcDbEntity
  8
MAIN0
  6
CONTINUOUS
 62
3
100
AcDbCircle
 10
428.6498951637548
 20
309.7169448974545
 30
0.0000000000000000
 40
45.50000000000000
100
AcDbArc
 50
194.7553513297732
 51
225.2446337541470
  0
LINE
  5
26C
100
AcDbEntity
  8
MAIN0
  6
CONTINUOUS
 62
3
100
AcDbLine
 10
323.2221722568970
 20
266.8344434833215
 30
0.0000000000000000
 11
323.2221722568970
 21
280.6908499438725
 31
0.0000000000000000
  0
LINE
  5
26D
100
AcDbEntity
  8
MAIN0
  6
CONTINUOUS
 62
3
100
AcDbLine
 10
310.2221722565759
 20
258.1741894456625
 30
0.0000000000000000
 11
322.2221722569350
 21
265.1023926761430
 31
0.0000000000000000
  0
ARC
  5
26E
100
AcDbEntity
  8
MAIN0
  6
CONTINUOUS
 62
3
100
AcDbCircle
 10
339.5874472322952
 20
256.2312470325338
 30
0.0000000000000000
 40
19.50000000000000
100
AcDbArc
 50
147.0604655135657
 51
152.9395344864339
  0
ARC
  5
26F
100
AcDbEntity
  8
MAIN0
  6
CONTINUOUS
 62
3
100
AcDbCircle
 10
246.9227290274583
 20
309.7312470324773
 30
0.0000000000000000
 40
67.00000000000000
100
AcDbArc
 50
319.6355795672268
 51
326.4658702669217
  0
ARC
  5
270
100
AcDbEntity
  8
MAIN0
  6
CONTINUOUS
 62
3
100
AcDbCircle
 10
246.9227290275155
 20
309.7312470324443
 30
0.0000000000000000
 40
63.50000000000000
100
AcDbArc
 50
318.1866332802398
 51
341.8133667197600
  0
ARC
  5
271
100
AcDbEntity
  8
MAIN0
  6
CONTINUOUS
 62
3
100
AcDbCircle
 10
246.9227290274583
 20
309.7312470324773
 30
0.0000000000000000
 40
67.00000000000000
100
AcDbArc
 50
333.5341297330781
 51
340.3644055166935
  0
LINE
  5
272
100
AcDbEntity
  8
MAIN0
  6
CONTINUOUS
 62
3
100
AcDbLine
 10
276.2878957791961
 20
307.7883671024933
 30
0.0000000000000000
 11
323.2221722568969
 21
280.6908499438724
 31
0.0000000000000000
  0
ARC
  5
273
100
AcDbEntity
  8
MAIN0
  6
CONTINUOUS
 62
3
100
AcDbCircle
 10
246.9235587565848
 20
309.7307679881429
 30
0.0000000000000000
 40
42.00000000000000
100
AcDbArc
 50
311.9694646066618
 51
348.0305353933379
  0
ARC
  5
274
100
AcDbEntity
  8
MAIN0
  6
CONTINUOUS
 62
3
100
AcDbCircle
 10
246.9227290274018
 20
309.7312470325099
 30
0.0000000000000000
 40
45.50000000000000
100
AcDbArc
 50
314.7553513297732
 51
345.2446337541470
  0
CIRCLE
  5
275
100
AcDbEntity
  8
MAIN0
  6
CONTINUOUS
 62
3
100
AcDbCircle
 10
337.7739260832921
 20
224.8937158231715
 30
0.0000000000000000
 40
7.000000000000000
  0
CIRCLE
  5
276
100
AcDbEntity
  8
MAIN0
  6
CONTINUOUS
 62
3
100
AcDbCircle
 10
337.7739260832921
 20
186.7937158230362
 30
0.0000000000000000
 40
7.000000000000000
  0
CIRCLE
  5
277
100
AcDbEntity
  8
MAIN0
  6
CONTINUOUS
 62
3
100
AcDbCircle
 10
365.8197847769891
 20
273.4419637524414
 30
0.0000000000000000
 40
7.000000000000000
  0
CIRCLE
  5
278
100
AcDbEntity
  8
MAIN0
  6
CONTINUOUS
 62
3
100
AcDbCircle
 10
398.8153526612934
 20
292.4919637525092
 30
0.0000000000000000
 40
7.000000000000000
  0
CIRCLE
  5
279
100
AcDbEntity
  8
MAIN0
  6
CONTINUOUS
 62
3
100
AcDbCircle
 10
309.7528394141675
 20
273.4562658874968
 30
0.0000000000000000
 40
7.000000000000000
  0
CIRCLE
  5
27A
100
AcDbEntity
  8
MAIN0
  6
CONTINUOUS
 62
3
100
AcDbCircle
 10
276.7572715298632
 20
292.5062658875644
 30
0.0000000000000000
 40
7.000000000000000
  0
LINE
  5
27B
100
AcDbEntity
  8
MAIN0
  6
CONTINUOUS
 62
3
100
AcDbLine
 10
181.2739488537114
 20
172.2640195310839
 30
0.0000000000000000
 11
193.6739488537114
 21
172.2640195310805
 31
0.0000000000000000
  0
LINE
  5
27C
100
AcDbEntity
  8
MAIN0
  6
CONTINUOUS
 62
3
100
AcDbLine
 10
194.7739488537134
 20
179.2640195310802
 30
0.0000000000000000
 11
194.7739488537177
 21
194.7630616374239
 31
0.0000000000000000
  0
LINE
  5
27D
100
AcDbEntity
  8
MAIN0
  6
CONTINUOUS
 62
3
100
AcDbLine
 10
203.2739488537200
 20
203.2640195310779
 30
0.0000000000000000
 11
203.2739488537236
 21
216.2640195310779
 31
0.0000000000000000
  0
LINE
  5
27E
100
AcDbEntity
  8
MAIN0
  6
CONTINUOUS
 62
3
100
AcDbLine
 10
211.7739488537248
 20
220.3640195310755
 30
0.0000000000000000
 11
211.7739488537301
 21
239.6640195310755
 31
0.0000000000000000
  0
LINE
  5
27F
100
AcDbEntity
  8
MAIN0
  6
CONTINUOUS
 62
3
100
AcDbLine
 10
211.1739488537246
 20
219.7640195310757
 30
0.0000000000000000
 11
211.7739488537248
 21
220.3640195310755
 31
0.0000000000000000
  0
LINE
  5
280
100
AcDbEntity
  8
MAIN0
  6
CONTINUOUS
 62
3
100
AcDbLine
 10
202.7739488537188
 20
198.8640195310780
 30
0.0000000000000000
 11
202.7739488537200
 21
203.2640195310780
 31
0.0000000000000000
  0
LINE
  5
281
100
AcDbEntity
  8
MAIN0
  6
CONTINUOUS
 62
3
100
AcDbLine
 10
194.2739488537116
 20
172.8640195310803
 30
0.0000000000000000
 11
194.2739488537134
 21
179.2640195310804
 31
0.0000000000000000
  0
LINE
  5
282
100
AcDbEntity
  8
MAIN0
  6
CONTINUOUS
 62
3
100
AcDbLine
 10
202.7739488537200
 20
203.2640195310780
 30
0.0000000000000000
 11
203.2739488537200
 21
203.2640195310779
 31
0.0000000000000000
  0
LINE
  5
283
100
AcDbEntity
  8
MAIN0
  6
CONTINUOUS
 62
3
100
AcDbLine
 10
194.2739488537134
 20
179.2640195310804
 30
0.0000000000000000
 11
194.7739488537134
 21
179.2640195310802
 31
0.0000000000000000
  0
LINE
  5
284
100
AcDbEntity
  8
MAIN0
  6
CONTINUOUS
 62
3
100
AcDbLine
 10
193.6739488537114
 20
172.2640195310805
 30
0.0000000000000000
 11
194.2739488537116
 21
172.8640195310803
 31
0.0000000000000000
  0
LINE
  5
285
100
AcDbEntity
  8
MAIN0
  6
CONTINUOUS
 62
3
100
AcDbLine
 10
202.1739488537186
 20
198.2640195310782
 30
0.0000000000000000
 11
202.7739488537188
 21
198.8640195310780
 31
0.0000000000000000
  0
LINE
  5
286
100
AcDbEntity
  8
MAIN0
  6
CONTINUOUS
 62
3
100
AcDbLine
 10
174.7739488537192
 20
200.3240195310858
 30
0.0000000000000000
 11
174.7739488537209
 21
206.2640195310858
 31
0.0000000000000000
  0
LINE
  5
287
100
AcDbEntity
  8
MAIN0
  6
CONTINUOUS
 62
3
100
AcDbLine
 10
174.2739400079011
 20
199.9240195310859
 30
0.0000000000000000
 11
181.2739488537191
 21
199.9240195310840
 31
0.0000000000000000
  0
LINE
  5
288
100
AcDbEntity
  8
MAIN0
  6
CONTINUOUS
 62
3
100
AcDbLine
 10
175.1739488537191
 20
199.9240195310856
 30
0.0000000000000000
 11
174.7739488537192
 21
200.3240195310857
 31
0.0000000000000000
  0
LINE
  5
289
100
AcDbEntity
  8
MAIN0
  6
CONTINUOUS
 62
3
100
AcDbLine
 10
177.7739488537122
 20
174.9561000997678
 30
0.0000000000000000
 11
177.7739488537183
 21
196.9240195310849
 31
0.0000000000000000
  0
LINE
  5
28A
100
AcDbEntity
  8
MAIN0
  6
CONTINUOUS
 62
3
100
AcDbLine
 10
174.7739488537225
 20
212.2040195310858
 30
0.0000000000000000
 11
174.7739488537209
 21
206.2640195310858
 31
0.0000000000000000
  0
LINE
  5
28B
100
AcDbEntity
  8
MAIN0
  6
CONTINUOUS
 62
3
100
AcDbLine
 10
174.2739400079004
 20
212.6040195310859
 30
0.0000000000000000
 11
181.2739488537226
 21
212.6040195310840
 31
0.0000000000000000
  0
LINE
  5
28C
100
AcDbEntity
  8
MAIN0
  6
CONTINUOUS
 62
3
100
AcDbLine
 10
175.1739488537226
 20
212.6040195310856
 30
0.0000000000000000
 11
174.7739488537225
 21
212.2040195310858
 31
0.0000000000000000
  0
LINE
  5
28D
100
AcDbEntity
  8
MAIN0
  6
CONTINUOUS
 62
3
100
AcDbLine
 10
177.7739488537295
 20
237.5719389624021
 30
0.0000000000000000
 11
177.7739488537235
 21
215.6040195310849
 31
0.0000000000000000
  0
LINE
  5
28E
100
AcDbEntity
  8
MAIN0
  6
CONTINUOUS
 62
3
100
AcDbLine
 10
211.3739488537281
 20
232.3140195310756
 30
0.0000000000000000
 11
211.7739488537282
 21
232.7140195310755
 31
0.0000000000000000
  0
LINE
  5
28F
100
AcDbEntity
  8
MAIN0
  6
CONTINUOUS
 62
3
100
AcDbLine
 10
185.7739488537242
 20
218.3140195310827
 30
0.0000000000000000
 11
185.7739488537281
 21
232.3140195310827
 31
0.0000000000000000
  0
LINE
  5
290
100
AcDbEntity
  8
MAIN0
  6
CONTINUOUS
 62
3
100
AcDbLine
 10
181.2739488537273
 20
229.5640195310840
 30
0.0000000000000000
 11
185.7739488537273
 21
229.5640195310827
 31
0.0000000000000000
  0
LINE
  5
291
100
AcDbEntity
  8
MAIN0
  6
CONTINUOUS
 62
3
100
AcDbLine
 10
181.2739488537250
 20
221.0640195310840
 30
0.0000000000000000
 11
185.7739488537250
 21
221.0640195310827
 31
0.0000000000000000
  0
LINE
  5
292
100
AcDbEntity
  8
MAIN0
  6
CONTINUOUS
 62
3
100
AcDbLine
 10
194.3739488537136
 20
180.2140195310803
 30
0.0000000000000000
 11
185.7739488537136
 21
180.2140195310827
 31
0.0000000000000000
  0
LINE
  5
293
100
AcDbEntity
  8
MAIN0
  6
CONTINUOUS
 62
3
100
AcDbLine
 10
194.1739488537175
 20
194.2140195310804
 30
0.0000000000000000
 11
185.7739488537175
 21
194.2140195310827
 31
0.0000000000000000
  0
LINE
  5
294
100
AcDbEntity
  8
MAIN0
  6
CONTINUOUS
 62
3
100
AcDbLine
 10
185.7739488537175
 20
194.2140195310827
 30
0.0000000000000000
 11
185.7739488537136
 21
180.2140195310827
 31
0.0000000000000000
  0
LINE
  5
295
100
AcDbEntity
  8
MAIN0
  6
CONTINUOUS
 62
3
100
AcDbLine
 10
181.2739488537168
 20
191.4640195310840
 30
0.0000000000000000
 11
185.7739488537168
 21
191.4640195310827
 31
0.0000000000000000
  0
LINE
  5
296
100
AcDbEntity
  8
MAIN0
  6
CONTINUOUS
 62
3
100
AcDbLine
 10
181.2739488537144
 20
182.9640195310840
 30
0.0000000000000000
 11
185.7739488537144
 21
182.9640195310827
 31
0.0000000000000000
  0
LINE
  5
297
100
AcDbEntity
  8
MAIN0
  6
CONTINUOUS
 62
3
100
AcDbLine
 10
194.3739488537137
 20
180.2140195310803
 30
0.0000000000000000
 11
194.7739488537136
 21
179.8140195310803
 31
0.0000000000000000
  0
LINE
  5
298
100
AcDbEntity
  8
MAIN0
  6
CONTINUOUS
 62
3
100
AcDbLine
 10
194.1739488537175
 20
194.2140195310803
 30
0.0000000000000000
 11
194.7565033879664
 21
194.7965740653289
 31
0.0000000000000000
  0
LINE
  5
299
100
AcDbEntity
  8
MAIN0
  6
CONTINUOUS
 62
3
100
AcDbLine
 10
211.7739488537301
 20
239.6640195310755
 30
0.0000000000000000
 11
211.1739488537303
 21
240.2640195310757
 31
0.0000000000000000
  0
LINE
  5
29A
100
AcDbEntity
  8
MAIN0
  6
CONTINUOUS
 62
3
100
AcDbLine
 10
205.7935640960008
 20
239.4319687234939
 30
0.0000000000000000
 11
206.2739488537385
 21
240.2640195310770
 31
0.0000000000000000
  0
LINE
  5
29B
100
AcDbEntity
  8
MAIN0
  6
CONTINUOUS
 62
3
100
AcDbLine
 10
204.7543336114593
 20
239.4319687234941
 30
0.0000000000000000
 11
204.2739488537221
 21
240.2640195310776
 31
0.0000000000000000
  0
ARC
  5
29C
100
AcDbEntity
  8
MAIN0
  6
CONTINUOUS
 62
3
100
AcDbCircle
 10
205.2739488537301
 20
239.7319687234939
 30
0.0000000000000000
 40
0.6000000000000000
100
AcDbArc
 50
209.9999999999765
 51
329.9999999999982
  0
LINE
  5
29D
100
AcDbEntity
  8
MAIN0
  6
CONTINUOUS
 62
3
100
AcDbLine
 10
199.7935640960008
 20
239.4319687234955
 30
0.0000000000000000
 11
200.2739488537384
 21
240.2640195310787
 31
0.0000000000000000
  0
LINE
  5
29E
100
AcDbEntity
  8
MAIN0
  6
CONTINUOUS
 62
3
100
AcDbLine
 10
198.7543336114593
 20
239.4319687234958
 30
0.0000000000000000
 11
198.2739488537221
 21
240.2640195310792
 31
0.0000000000000000
  0
ARC
  5
29F
100
AcDbEntity
  8
MAIN0
  6
CONTINUOUS
 62
3
100
AcDbCircle
 10
199.2739488537301
 20
239.7319687234956
 30
0.0000000000000000
 40
0.6000000000000000
100
AcDbArc
 50
209.9999999999765
 51
329.9999999999982
  0
LINE
  5
2A0
100
AcDbEntity
  8
MAIN0
  6
CONTINUOUS
 62
3
100
AcDbLine
 10
193.7935640960008
 20
239.4319687234972
 30
0.0000000000000000
 11
194.2739488537385
 21
240.2640195310803
 31
0.0000000000000000
  0
LINE
  5
2A1
100
AcDbEntity
  8
MAIN0
  6
CONTINUOUS
 62
3
100
AcDbLine
 10
192.7543336114593
 20
239.4319687234975
 30
0.0000000000000000
 11
192.2739488537221
 21
240.2640195310809
 31
0.0000000000000000
  0
ARC
  5
2A2
100
AcDbEntity
  8
MAIN0
  6
CONTINUOUS
 62
3
100
AcDbCircle
 10
193.2739488537301
 20
239.7319687234972
 30
0.0000000000000000
 40
0.6000000000000000
100
AcDbArc
 50
209.9999999999765
 51
329.9999999999982
  0
LINE
  5
2A3
100
AcDbEntity
  8
MAIN0
  6
CONTINUOUS
 62
3
100
AcDbLine
 10
187.7935640960008
 20
239.4319687234989
 30
0.0000000000000000
 11
188.2739488537385
 21
240.2640195310820
 31
0.0000000000000000
  0
LINE
  5
2A4
100
AcDbEntity
  8
MAIN0
  6
CONTINUOUS
 62
3
100
AcDbLine
 10
186.7543336114593
 20
239.4319687234991
 30
0.0000000000000000
 11
186.2739488537221
 21
240.2640195310825
 31
0.0000000000000000
  0
ARC
  5
2A5
100
AcDbEntity
  8
MAIN0
  6
CONTINUOUS
 62
3
100
AcDbCircle
 10
187.2739488537301
 20
239.7319687234989
 30
0.0000000000000000
 40
0.6000000000000000
100
AcDbArc
 50
209.9999999999765
 51
329.9999999999982
  0
LINE
  5
2A6
100
AcDbEntity
  8
MAIN0
  6
CONTINUOUS
 62
3
100
AcDbLine
 10
188.2739488537384
 20
240.2640195310820
 30
0.0000000000000000
 11
192.2739488537221
 21
240.2640195310809
 31
0.0000000000000000
  0
LINE
  5
2A7
100
AcDbEntity
  8
MAIN0
  6
CONTINUOUS
 62
3
100
AcDbLine
 10
194.2739488537384
 20
240.2640195310804
 30
0.0000000000000000
 11
198.2739488537221
 21
240.2640195310792
 31
0.0000000000000000
  0
LINE
  5
2A8
100
AcDbEntity
  8
MAIN0
  6
CONTINUOUS
 62
3
100
AcDbLine
 10
200.2739488537384
 20
240.2640195310787
 30
0.0000000000000000
 11
204.2739488537221
 21
240.2640195310776
 31
0.0000000000000000
  0
LINE
  5
2A9
100
AcDbEntity
  8
MAIN0
  6
CONTINUOUS
 62
3
100
AcDbLine
 10
206.2739488537384
 20
240.2640195310770
 30
0.0000000000000000
 11
211.1739488537303
 21
240.2640195310757
 31
0.0000000000000000
  0
LINE
  5
2AA
100
AcDbEntity
  8
MAIN0
  6
CONTINUOUS
 62
3
100
AcDbLine
 10
208.0543336114541
 20
220.5960703386598
 30
0.0000000000000000
 11
207.5739488537164
 21
219.7640195310767
 31
0.0000000000000000
  0
LINE
  5
2AB
100
AcDbEntity
  8
MAIN0
  6
CONTINUOUS
 62
3
100
AcDbLine
 10
209.0935640959955
 20
220.5960703386596
 30
0.0000000000000000
 11
209.5739488537328
 21
219.7640195310761
 31
0.0000000000000000
  0
ARC
  5
2AC
100
AcDbEntity
  8
MAIN0
  6
CONTINUOUS
 62
3
100
AcDbCircle
 10
208.5739488537248
 20
220.2960703386598
 30
0.0000000000000000
 40
0.6000000000000000
100
AcDbArc
 50
29.99999999997646
 51
149.9999999999982
  0
LINE
  5
2AD
100
AcDbEntity
  8
MAIN0
  6
CONTINUOUS
 62
3
100
AcDbLine
 10
199.2543336114482
 20
199.0960703386623
 30
0.0000000000000000
 11
198.7739488537105
 21
198.2640195310791
 31
0.0000000000000000
  0
LINE
  5
2AE
100
AcDbEntity
  8
MAIN0
  6
CONTINUOUS
 62
3
100
AcDbLine
 10
200.2935640959895
 20
199.0960703386620
 30
0.0000000000000000
 11
200.7739488537268
 21
198.2640195310786
 31
0.0000000000000000
  0
ARC
  5
2AF
100
AcDbEntity
  8
MAIN0
  6
CONTINUOUS
 62
3
100
AcDbCircle
 10
199.7739488537188
 20
198.7960703386623
 30
0.0000000000000000
 40
0.6000000000000000
100
AcDbArc
 50
29.99999999997646
 51
149.9999999999982
  0
LINE
  5
2B0
100
AcDbEntity
  8
MAIN0
  6
CONTINUOUS
 62
3
100
AcDbLine
 10
205.8739488537246
 20
219.7640195310771
 30
0.0000000000000000
 11
207.5739488537164
 21
219.7640195310767
 31
0.0000000000000000
  0
LINE
  5
2B1
100
AcDbEntity
  8
MAIN0
  6
CONTINUOUS
 62
3
100
AcDbLine
 10
209.5739488537328
 20
219.7640195310761
 30
0.0000000000000000
 11
211.1739488537246
 21
219.7640195310757
 31
0.0000000000000000
  0
LINE
  5
2B2
100
AcDbEntity
  8
MAIN0
  6
CONTINUOUS
 62
3
100
AcDbLine
 10
197.3739488537186
 20
198.2640195310795
 30
0.0000000000000000
 11
198.7739488537105
 21
198.2640195310791
 31
0.0000000000000000
  0
LINE
  5
2B3
100
AcDbEntity
  8
MAIN0
  6
CONTINUOUS
 62
3
100
AcDbLine
 10
200.7739488537268
 20
198.2640195310786
 30
0.0000000000000000
 11
202.1739488537186
 21
198.2640195310782
 31
0.0000000000000000
  0
LINE
  5
2B4
100
AcDbEntity
  8
MAIN0
  6
CONTINUOUS
 62
3
100
AcDbLine
 10
181.2739488537114
 20
172.2640195310839
 30
0.0000000000000000
 11
181.2739488537160
 21
188.7311220325649
 31
0.0000000000000000
  0
LINE
  5
2B5
100
AcDbEntity
  8
MAIN0
  6
CONTINUOUS
 62
3
100
AcDbLine
 10
181.2739488537257
 20
223.7969170296030
 30
0.0000000000000000
 11
181.2739488537303
 21
240.2640195310840
 31
0.0000000000000000
  0
LINE
  5
2B6
100
AcDbEntity
  8
MAIN0
  6
CONTINUOUS
 62
3
100
AcDbLine
 10
201.8067864000932
 20
218.3140195310783
 30
0.0000000000000000
 11
202.3914858453871
 21
217.9592151978068
 31
0.0000000000000000
  0
LINE
  5
2B7
100
AcDbEntity
  8
MAIN0
  6
CONTINUOUS
 62
3
100
AcDbLine
 10
181.8739488537303
 20
240.2640195310838
 30
0.0000000000000000
 11
186.2739488537221
 21
240.2640195310826
 31
0.0000000000000000
  0
LINE
  5
2B8
100
AcDbEntity
  8
MAIN0
  6
CONTINUOUS
 62
3
100
AcDbLine
 10
177.7739400078988
 20
240.2640195310849
 30
0.0000000000000000
 11
181.8739488537303
 21
240.2640195310838
 31
0.0000000000000000
  0
LINE
  5
2B9
100
AcDbEntity
  8
MAIN0
  6
CONTINUOUS
 62
3
100
AcDbLine
 10
181.2739488537226
 20
212.6040195310840
 30
0.0000000000000000
 11
181.2739488537257
 21
223.7969170296030
 31
0.0000000000000000
  0
LINE
  5
2BA
100
AcDbEntity
  8
MAIN0
  6
CONTINUOUS
 62
3
100
AcDbLine
 10
181.2739488537160
 20
188.7311220325649
 30
0.0000000000000000
 11
181.2739488537191
 21
199.9240195310840
 31
0.0000000000000000
  0
LINE
  5
2BB
100
AcDbEntity
  8
MAIN0
  6
CONTINUOUS
 62
3
100
AcDbLine
 10
211.3739488537281
 20
232.3140195310756
 30
0.0000000000000000
 11
185.7739488537281
 21
232.3140195310827
 31
0.0000000000000000
  0
LINE
  5
2BC
100
AcDbEntity
  8
MAIN0
  6
CONTINUOUS
 62
3
100
AcDbLine
 10
201.8067864000931
 20
218.3140195310783
 30
0.0000000000000000
 11
185.7739488537242
 21
218.3140195310827
 31
0.0000000000000000
  0
LINE
  5
2BD
100
AcDbEntity
  8
MAIN0
  6
CONTINUOUS
 62
3
100
AcDbLine
 10
203.2739488537237
 20
216.2640195310779
 30
0.0000000000000000
 11
202.3914858453871
 21
217.9592151978068
 31
0.0000000000000000
  0
LINE
  5
2BE
100
AcDbEntity
  8
MAIN0
  6
CONTINUOUS
 62
3
100
AcDbLine
 10
202.4739488537240
 20
217.8008052326550
 30
0.0000000000000000
 11
202.4739488537245
 21
219.5640195310781
 31
0.0000000000000000
  0
LINE
  5
2BF
100
AcDbEntity
  8
MAIN0
  6
CONTINUOUS
 62
3
100
AcDbLine
 10
203.6739488537249
 20
220.7640195310778
 30
0.0000000000000000
 11
203.9529667267537
 21
220.7640195310777
 31
0.0000000000000000
  0
LINE
  5
2C0
100
AcDbEntity
  8
MAIN0
  6
CONTINUOUS
 62
3
100
AcDbLine
 10
203.9529667267537
 20
220.7640195310777
 30
0.0000000000000000
 11
205.8739488537246
 21
219.7640195310771
 31
0.0000000000000000
  0
ARC
  5
2C1
100
AcDbEntity
  8
MAIN0
  6
CONTINUOUS
 62
3
100
AcDbCircle
 10
203.6739488537245
 20
219.5640195310778
 30
0.0000000000000000
 40
1.200000000000000
100
AcDbArc
 50
89.99999999998411
 51
179.9999999999841
  0
LINE
  5
2C2
100
AcDbEntity
  8
H0
  6
CONTINUOUS
 62
3
100
AcDbLine
 10
494.8735285191007
 20
361.0954693645721
 30
0.0000000000000000
 11
516.8735285191006
 21
361.0954693645721
 31
0.0000000000000000
  0
LINE
  5
2C3
100
AcDbEntity
  8
H0
  6
CONTINUOUS
 62
3
100
AcDbLine
 10
440.8735285191007
 20
355.4954693645722
 30
0.0000000000000000
 11
440.8735285191007
 21
340.6954693645719
 31
0.0000000000000000
  0
LINE
  5
2C4
100
AcDbEntity
  8
H0
  6
CONTINUOUS
 62
3
100
AcDbLine
 10
493.8735285191007
 20
360.0954693645720
 30
0.0000000000000000
 11
494.8735285191007
 21
361.0954693645720
 31
0.0000000000000000
  0
LINE
  5
2C5
100
AcDbEntity
  8
H0
  6
CONTINUOUS
 62
3
100
AcDbLine
 10
493.8735285191007
 20
360.0954693645721
 30
0.0000000000000000
 11
517.8735285191007
 21
360.0954693645721
 31
0.0000000000000000
  0
LINE
  5
2C6
100
AcDbEntity
  8
H0
  6
CONTINUOUS
 62
3
100
AcDbLine
 10
494.8735285191007
 20
335.0954693645721
 30
0.0000000000000000
 11
516.8735285191007
 21
335.0954693645721
 31
0.0000000000000000
  0
LINE
  5
2C7
100
AcDbEntity
  8
H0
  6
CONTINUOUS
 62
3
100
AcDbLine
 10
493.8735285191007
 20
336.0954693645720
 30
0.0000000000000000
 11
494.8735285191007
 21
335.0954693645720
 31
0.0000000000000000
  0
LINE
  5
2C8
100
AcDbEntity
  8
H0
  6
CONTINUOUS
 62
3
100
AcDbLine
 10
493.8735285191007
 20
336.0954693645721
 30
0.0000000000000000
 11
517.8735285191007
 21
336.0954693645721
 31
0.0000000000000000
  0
LINE
  5
2C9
100
AcDbEntity
  8
H0
  6
CONTINUOUS
 62
3
100
AcDbLine
 10
495.8735285191007
 20
335.0954693645720
 30
0.0000000000000000
 11
495.8735285191007
 21
287.0954693645721
 31
0.0000000000000000
  0
LINE
  5
2CA
100
AcDbEntity
  8
H0
  6
CONTINUOUS
 62
3
100
AcDbLine
 10
502.3091691649324
 20
241.0954693645721
 30
0.0000000000000000
 11
509.4378878732689
 21
241.0954693645721
 31
0.0000000000000000
  0
LINE
  5
2CB
100
AcDbEntity
  8
H0
  6
CONTINUOUS
 62
3
100
AcDbLine
 10
497.3735285191007
 20
285.5954693645721
 30
0.0000000000000000
 11
514.3735285191007
 21
285.5954693645721
 31
0.0000000000000000
  0
LINE
  5
2CC
100
AcDbEntity
  8
H0
  6
CENTER
 62
3
100
AcDbLine
 10
496.8235285191007
 20
223.0954693645738
 30
0.0000000000000000
 11
514.9235285191006
 21
223.0954693645703
 31
0.0000000000000000
  0
LINE
  5
2CD
100
AcDbEntity
  8
H0
  6
CONTINUOUS
 62
3
100
AcDbLine
 10
499.3461306456693
 20
223.6391393030073
 30
0.0000000000000000
 11
505.3298585806745
 21
229.6228672380101
 31
0.0000000000000000
  0
LINE
  5
2CE
100
AcDbEntity
  8
H0
  6
CONTINUOUS
 62
3
100
AcDbLine
 10
499.3235285191007
 20
255.0954693645721
 30
0.0000000000000000
 11
499.3235285191007
 21
241.8954693645721
 31
0.0000000000000000
  0
LINE
  5
2CF
100
AcDbEntity
  8
H0
  6
CONTINUOUS
 62
3
100
AcDbLine
 10
505.3298585806743
 20
255.0954693645721
 30
0.0000000000000000
 11
505.3298585806743
 21
241.8954693646556
 31
0.0000000000000000
  0
LINE
  5
2D0
100
AcDbEntity
  8
H0
  6
CONTINUOUS
 62
3
100
AcDbLine
 10
499.3235285191007
 20
241.8954693646568
 30
0.0000000000000000
 11
512.4235285191006
 21
241.8954693646542
 31
0.0000000000000000
  0
LINE
  5
2D1
100
AcDbEntity
  8
H0
  6
CONTINUOUS
 62
3
100
AcDbLine
 10
499.3461306456691
 20
222.5517994261394
 30
0.0000000000000000
 11
505.3298585806719
 21
216.5680714911343
 31
0.0000000000000000
  0
LINE
  5
2D2
100
AcDbEntity
  8
H0
  6
CONTINUOUS
 62
3
100
AcDbLine
 10
512.4009263925323
 20
222.5517994261394
 30
0.0000000000000000
 11
506.4171984575295
 21
216.5680714911343
 31
0.0000000000000000
  0
LINE
  5
2D3
100
AcDbEntity
  8
H0
  6
CONTINUOUS
 62
3
100
AcDbLine
 10
512.4009263925325
 20
223.6391393030022
 30
0.0000000000000000
 11
506.4171984575320
 21
229.6228672380097
 31
0.0000000000000000
  0
ARC
  5
2D4
100
AcDbEntity
  8
H0
  6
CONTINUOUS
 62
3
100
AcDbCircle
 10
505.8735285191007
 20
223.0954693645721
 30
0.0000000000000000
 40
6.550000000000000
100
AcDbArc
 50
85.23879812589122
 51
94.76120187406400
  0
ARC
  5
2D5
100
AcDbEntity
  8
H0
  6
CONTINUOUS
 62
3
100
AcDbCircle
 10
505.8735285191007
 20
223.0954693645721
 30
0.0000000000000000
 40
6.550000000000000
100
AcDbArc
 50
175.2387981259133
 51
184.7612018740635
  0
ARC
  5
2D6
100
AcDbEntity
  8
H0
  6
CONTINUOUS
 62
3
100
AcDbCircle
 10
505.8735285191007
 20
223.0954693645721
 30
0.0000000000000000
 40
6.550000000000000
100
AcDbArc
 50
265.2387981259137
 51
274.7612018740863
  0
ARC
  5
2D7
100
AcDbEntity
  8
H0
  6
CONTINUOUS
 62
3
100
AcDbCircle
 10
505.8735285191007
 20
223.0954693645721
 30
0.0000000000000000
 40
6.550000000000000
100
AcDbArc
 50
355.2387981259365
 51
364.7612018740410
  0
LINE
  5
2D8
100
AcDbEntity
  8
H0
  6
CENTER
 62
3
100
AcDbLine
 10
505.8735285191007
 20
232.1454693645721
 30
0.0000000000000000
 11
505.8735285191007
 21
214.0454693645721
 31
0.0000000000000000
  0
LINE
  5
2D9
100
AcDbEntity
  8
H0
  6
CONTINUOUS
 62
3
100
AcDbLine
 10
570.8735285191007
 20
355.4954693645722
 30
0.0000000000000000
 11
570.8735285191007
 21
340.6954693645719
 31
0.0000000000000000
  0
LINE
  5
2DA
100
AcDbEntity
  8
H0
  6
CONTINUOUS
 62
3
100
AcDbLine
 10
517.8735285191007
 20
360.0954693645720
 30
0.0000000000000000
 11
516.8735285191007
 21
361.0954693645720
 31
0.0000000000000000
  0
LINE
  5
2DB
100
AcDbEntity
  8
H0
  6
CONTINUOUS
 62
3
100
AcDbLine
 10
517.8735285191007
 20
336.0954693645721
 30
0.0000000000000000
 11
516.8735285191007
 21
335.0954693645721
 31
0.0000000000000000
  0
LINE
  5
2DC
100
AcDbEntity
  8
H0
  6
CONTINUOUS
 62
3
100
AcDbLine
 10
515.8735285191007
 20
335.0954693645720
 30
0.0000000000000000
 11
515.8735285191007
 21
287.0954693645721
 31
0.0000000000000000
  0
LINE
  5
2DD
100
AcDbEntity
  8
H0
  6
CONTINUOUS
 62
3
100
AcDbLine
 10
512.4235285191006
 20
255.0954693645721
 30
0.0000000000000000
 11
512.4235285191006
 21
241.8954693645721
 31
0.0000000000000000
  0
LINE
  5
2DE
100
AcDbEntity
  8
H0
  6
CONTINUOUS
 62
3
100
AcDbLine
 10
506.4171984575270
 20
255.0954693645721
 30
0.0000000000000000
 11
506.4171984575270
 21
241.8954693646556
 31
0.0000000000000000
  0
LINE
  5
2DF
100
AcDbEntity
  8
H0
  6
CENTER
 62
3
100
AcDbLine
 10
505.8735285191007
 20
238.0954693645721
 30
0.0000000000000000
 11
505.8735285191007
 21
305.6707250496485
 31
0.0000000000000000
  0
LINE
  5
2E0
100
AcDbEntity
  8
H0
  6
CENTER
 62
3
100
AcDbLine
 10
505.8735285191007
 20
311.7707249542811
 30
0.0000000000000000
 11
505.8735285191007
 21
368.0954693645721
 31
0.0000000000000000
  0
ARC
  5
2E1
100
AcDbEntity
  8
H0
  6
CONTINUOUS
 62
3
100
AcDbCircle
 10
523.1235285191007
 20
348.0954693645721
 30
0.0000000000000000
 40
7.250000000000028
100
AcDbArc
 50
136.3971810272964
 51
223.6028189727036
  0
ARC
  5
2E2
100
AcDbEntity
  8
H0
  6
CONTINUOUS
 62
3
100
AcDbCircle
 10
488.6235285191006
 20
348.0954693645721
 30
0.0000000000000000
 40
7.250000000000036
100
AcDbArc
 50
316.3971810272965
 51
403.6028189727035
  0
LINE
  5
2E3
100
AcDbEntity
  8
H0
  6
CONTINUOUS
 62
3
100
AcDbLine
 10
517.8735285191007
 20
343.0954693645721
 30
0.0000000000000000
 11
517.8735285191007
 21
336.0954693645720
 31
0.0000000000000000
  0
LINE
  5
2E4
100
AcDbEntity
  8
H0
  6
CONTINUOUS
 62
3
100
AcDbLine
 10
517.8735285191007
 20
360.0954693645720
 30
0.0000000000000000
 11
517.8735285191007
 21
353.0954693645721
 31
0.0000000000000000
  0
LINE
  5
2E5
100
AcDbEntity
  8
H0
  6
CONTINUOUS
 62
3
100
AcDbLine
 10
493.8735285191007
 20
343.0954693645721
 30
0.0000000000000000
 11
493.8735285191007
 21
336.0954693645720
 31
0.0000000000000000
  0
LINE
  5
2E6
100
AcDbEntity
  8
H0
  6
CONTINUOUS
 62
3
100
AcDbLine
 10
493.8735285191007
 20
360.0954693645720
 30
0.0000000000000000
 11
493.8735285191007
 21
353.0954693645721
 31
0.0000000000000000
  0
ARC
  5
2E7
100
AcDbEntity
  8
H0
  6
CONTINUOUS
 62
3
100
AcDbCircle
 10
549.7899929037176
 20
350.5954693645721
 30
0.0000000000000000
 40
3.750000000000000
100
AcDbArc
 50
138.1896851042214
 51
221.8103148957786
  0
ARC
  5
2E8
100
AcDbEntity
  8
H0
  6
CONTINUOUS
 62
3
100
AcDbCircle
 10
544.1998229599681
 20
350.5954693645721
 30
0.0000000000000000
 40
3.750000000000000
100
AcDbArc
 50
318.1896851042214
 51
401.8103148957786
  0
ARC
  5
2E9
100
AcDbEntity
  8
H0
  6
CONTINUOUS
 62
3
100
AcDbCircle
 10
553.5399929037176
 20
350.5954693645721
 30
0.0000000000000000
 40
3.750000000000000
100
AcDbArc
 50
138.1896851042214
 51
221.8103148957786
  0
ARC
  5
2EA
100
AcDbEntity
  8
H0
  6
CONTINUOUS
 62
3
100
AcDbCircle
 10
544.1998229599681
 20
345.5954693645721
 30
0.0000000000000000
 40
3.750000000000000
100
AcDbArc
 50
318.1896851042214
 51
401.8103148957786
  0
ARC
  5
2EB
100
AcDbEntity
  8
H0
  6
CONTINUOUS
 62
3
100
AcDbCircle
 10
553.5399929037176
 20
345.5954693645721
 30
0.0000000000000000
 40
3.750000000000000
100
AcDbArc
 50
138.1896851042214
 51
221.8103148957786
  0
ARC
  5
2EC
100
AcDbEntity
  8
H0
  6
CONTINUOUS
 62
3
100
AcDbCircle
 10
547.9498229599681
 20
345.5954693645721
 30
0.0000000000000000
 40
3.750000000000000
100
AcDbArc
 50
318.1896851042214
 51
401.8103148957786
  0
LINE
  5
2ED
100
AcDbEntity
  8
H0
  6
CONTINUOUS
 62
3
100
AcDbLine
 10
517.8735285191007
 20
353.0954693645721
 30
0.0000000000000000
 11
546.9949079318428
 21
353.0954693645721
 31
0.0000000000000000
  0
LINE
  5
2EE
100
AcDbEntity
  8
H0
  6
CONTINUOUS
 62
3
100
AcDbLine
 10
550.7449079318428
 20
353.0954693645721
 30
0.0000000000000000
 11
562.8735285191007
 21
353.0954693645721
 31
0.0000000000000000
  0
LINE
  5
2EF
100
AcDbEntity
  8
H0
  6
CONTINUOUS
 62
3
100
AcDbLine
 10
517.8735285191007
 20
343.0954693645721
 30
0.0000000000000000
 11
546.9949079318428
 21
343.0954693645721
 31
0.0000000000000000
  0
LINE
  5
2F0
100
AcDbEntity
  8
H0
  6
CONTINUOUS
 62
3
100
AcDbLine
 10
550.7449079318428
 20
343.0954693645721
 30
0.0000000000000000
 11
562.8735285191007
 21
343.0954693645721
 31
0.0000000000000000
  0
ARC
  5
2F1
100
AcDbEntity
  8
H0
  6
CONTINUOUS
 62
3
100
AcDbCircle
 10
460.1750423216915
 20
350.5954693645721
 30
0.0000000000000000
 40
3.750000000000000
100
AcDbArc
 50
138.1896851042214
 51
221.8103148957786
  0
ARC
  5
2F2
100
AcDbEntity
  8
H0
  6
CONTINUOUS
 62
3
100
AcDbCircle
 10
454.5848723779420
 20
350.5954693645721
 30
0.0000000000000000
 40
3.750000000000000
100
AcDbArc
 50
318.1896851042214
 51
401.8103148957786
  0
ARC
  5
2F3
100
AcDbEntity
  8
H0
  6
CONTINUOUS
 62
3
100
AcDbCircle
 10
463.9250423216915
 20
350.5954693645721
 30
0.0000000000000000
 40
3.750000000000000
100
AcDbArc
 50
138.1896851042214
 51
221.8103148957786
  0
ARC
  5
2F4
100
AcDbEntity
  8
H0
  6
CONTINUOUS
 62
3
100
AcDbCircle
 10
454.5848723779420
 20
345.5954693645721
 30
0.0000000000000000
 40
3.750000000000000
100
AcDbArc
 50
318.1896851042214
 51
401.8103148957786
  0
ARC
  5
2F5
100
AcDbEntity
  8
H0
  6
CONTINUOUS
 62
3
100
AcDbCircle
 10
463.9250423216915
 20
345.5954693645721
 30
0.0000000000000000
 40
3.750000000000000
100
AcDbArc
 50
138.1896851042214
 51
221.8103148957786
  0
ARC
  5
2F6
100
AcDbEntity
  8
H0
  6
CONTINUOUS
 62
3
100
AcDbCircle
 10
458.3348723779420
 20
345.5954693645721
 30
0.0000000000000000
 40
3.750000000000000
100
AcDbArc
 50
318.1896851042214
 51
401.8103148957786
  0
LINE
  5
2F7
100
AcDbEntity
  8
H0
  6
CONTINUOUS
 62
3
100
AcDbLine
 10
448.8735285191007
 20
353.0954693645721
 30
0.0000000000000000
 11
457.3799573498168
 21
353.0954693645721
 31
0.0000000000000000
  0
LINE
  5
2F8
100
AcDbEntity
  8
H0
  6
CONTINUOUS
 62
3
100
AcDbLine
 10
461.1299573498168
 20
353.0954693645721
 30
0.0000000000000000
 11
493.8735285191007
 21
353.0954693645721
 31
0.0000000000000000
  0
LINE
  5
2F9
100
AcDbEntity
  8
H0
  6
CONTINUOUS
 62
3
100
AcDbLine
 10
448.8735285191007
 20
343.0954693645721
 30
0.0000000000000000
 11
457.3799573498168
 21
343.0954693645721
 31
0.0000000000000000
  0
LINE
  5
2FA
100
AcDbEntity
  8
H0
  6
CONTINUOUS
 62
3
100
AcDbLine
 10
461.1299573498168
 20
343.0954693645721
 30
0.0000000000000000
 11
493.8735285191007
 21
343.0954693645721
 31
0.0000000000000000
  0
LINE
  5
2FB
100
AcDbEntity
  8
H0
  6
CONTINUOUS
 62
3
100
AcDbLine
 10
499.3735285191007
 20
255.0954693645721
 30
0.0000000000000000
 11
499.3735285191007
 21
284.7954693645721
 31
0.0000000000000000
  0
LINE
  5
2FC
100
AcDbEntity
  8
H0
  6
CONTINUOUS
 62
3
100
AcDbLine
 10
512.3735285191007
 20
255.0954693645721
 30
0.0000000000000000
 11
512.3735285191007
 21
284.7954693645721
 31
0.0000000000000000
  0
LINE
  5
2FD
100
AcDbEntity
  8
H0
  6
CONTINUOUS
 62
3
100
AcDbLine
 10
495.8735285191007
 20
287.0954693645720
 30
0.0000000000000000
 11
497.3735285191007
 21
285.5954693645721
 31
0.0000000000000000
  0
LINE
  5
2FE
100
AcDbEntity
  8
H0
  6
CONTINUOUS
 62
3
100
AcDbLine
 10
495.8735285191007
 20
287.0954693645721
 30
0.0000000000000000
 11
515.8735285191007
 21
287.0954693645721
 31
0.0000000000000000
  0
ARC
  5
2FF
100
AcDbEntity
  8
H0
  6
CONTINUOUS
 62
3
100
AcDbCircle
 10
498.5735285191007
 20
284.7954693645721
 30
0.0000000000000000
 40
0.8000000000000000
100
AcDbArc
 50
0.0000000000000000
 51
90.00000000000000
  0
LINE
  5
300
100
AcDbEntity
  8
H0
  6
CONTINUOUS
 62
3
100
AcDbLine
 10
515.8735285191007
 20
287.0954693645721
 30
0.0000000000000000
 11
514.3735285191007
 21
285.5954693645721
 31
0.0000000000000000
  0
ARC
  5
301
100
AcDbEntity
  8
H0
  6
CONTINUOUS
 62
3
100
AcDbCircle
 10
513.1735285191006
 20
284.7954693645721
 30
0.0000000000000000
 40
0.8000000000000000
100
AcDbArc
 50
90.00000000000000
 51
180.0000000000000
  0
LINE
  5
302
100
AcDbEntity
  8
H0
  6
CONTINUOUS
 62
3
100
AcDbLine
 10
499.3235285191008
 20
241.8954693645111
 30
0.0000000000000000
 11
502.3091691649323
 21
241.0954693645721
 31
0.0000000000000000
  0
LINE
  5
303
100
AcDbEntity
  8
H0
  6
CONTINUOUS
 62
3
100
AcDbLine
 10
512.4235285191005
 20
241.8954693645111
 30
0.0000000000000000
 11
509.4378878732690
 21
241.0954693645721
 31
0.0000000000000000
  0
LINE
  5
304
100
AcDbEntity
  8
H0
  6
PHANTOM
 62
3
100
AcDbLine
 10
499.2735285191006
 20
243.2954693645721
 30
0.0000000000000000
 11
499.2735285191006
 21
281.2454693645868
 31
0.0000000000000000
  0
LINE
  5
305
100
AcDbEntity
  8
H0
  6
CENTER
 62
3
100
AcDbLine
 10
505.8735285191007
 20
242.1450815358705
 30
0.0000000000000000
 11
505.8735285191007
 21
286.0009198840495
 31
0.0000000000000000
  0
LINE
  5
306
100
AcDbEntity
  8
H0
  6
CONTINUOUS
 62
3
100
AcDbLine
 10
499.0985285191007
 20
285.5954693645721
 30
0.0000000000000000
 11
512.6485285191006
 21
285.5954693645721
 31
0.0000000000000000
  0
LINE
  5
307
100
AcDbEntity
  8
H0
  6
CENTER
 62
3
100
AcDbLine
 10
498.6735285191007
 20
242.0137003768622
 30
0.0000000000000000
 11
498.6735285191007
 21
282.7002636849509
 31
0.0000000000000000
  0
LINE
  5
308
100
AcDbEntity
  8
H0
  6
PHANTOM
 62
3
100
AcDbLine
 10
498.0735285191007
 20
243.2954693645721
 30
0.0000000000000000
 11
498.0735285191007
 21
281.2454693645868
 31
0.0000000000000000
  0
LINE
  5
309
100
AcDbEntity
  8
H0
  6
CONTINUOUS
 62
3
100
AcDbLine
 10
498.6735285191007
 20
242.6954693645721
 30
0.0000000000000000
 11
513.0735285191007
 21
242.6954693645721
 31
0.0000000000000000
  0
CIRCLE
  5
30A
100
AcDbEntity
  8
H0
  6
CONTINUOUS
 62
3
100
AcDbCircle
 10
498.6735285191007
 20
243.2954693645721
 30
0.0000000000000000
 40
0.6000000000000014
  0
CIRCLE
  5
30B
100
AcDbEntity
  8
H0
  6
CONTINUOUS
 62
3
100
AcDbCircle
 10
513.0735285191007
 20
243.2954693645721
 30
0.0000000000000000
 40
0.6000000000000014
  0
LINE
  5
30C
100
AcDbEntity
  8
H0
  6
CONTINUOUS
 62
3
100
AcDbLine
 10
498.6735285191008
 20
243.8954693645711
 30
0.0000000000000000
 11
513.0735285191008
 21
243.8954693645671
 31
0.0000000000000000
  0
CIRCLE
  5
30D
100
AcDbEntity
  8
H0
  6
CONTINUOUS
 62
3
100
AcDbCircle
 10
498.6735285191010
 20
244.4954693645702
 30
0.0000000000000000
 40
0.6000000000000014
  0
CIRCLE
  5
30E
100
AcDbEntity
  8
H0
  6
CONTINUOUS
 62
3
100
AcDbCircle
 10
513.0735285191013
 20
245.6954693645604
 30
0.0000000000000000
 40
0.6000000000000014
  0
CIRCLE
  5
30F
100
AcDbEntity
  8
H0
  6
CONTINUOUS
 62
3
100
AcDbCircle
 10
498.6735285191016
 20
246.8954693645666
 30
0.0000000000000000
 40
0.6000000000000014
  0
CIRCLE
  5
310
100
AcDbEntity
  8
H0
  6
CONTINUOUS
 62
3
100
AcDbCircle
 10
513.0735285191020
 20
248.0954693645568
 30
0.0000000000000000
 40
0.6000000000000014
  0
LINE
  5
311
100
AcDbEntity
  8
H0
  6
CONTINUOUS
 62
3
100
AcDbLine
 10
513.0237012311894
 20
246.2933968195074
 30
0.0000000000000000
 11
498.6237012311892
 21
245.0933968195172
 31
0.0000000000000000
  0
LINE
  5
312
100
AcDbEntity
  8
H0
  6
CONTINUOUS
 62
3
100
AcDbLine
 10
498.7233558070128
 20
243.8975419096232
 30
0.0000000000000000
 11
513.1233558070131
 21
245.0975419096134
 31
0.0000000000000000
  0
LINE
  5
313
100
AcDbEntity
  8
H0
  6
CONTINUOUS
 62
3
100
AcDbLine
 10
513.0237012311901
 20
248.6933968195037
 30
0.0000000000000000
 11
498.6237012311898
 21
247.4933968195135
 31
0.0000000000000000
  0
LINE
  5
314
100
AcDbEntity
  8
H0
  6
CONTINUOUS
 62
3
100
AcDbLine
 10
498.7233558070135
 20
246.2975419096196
 30
0.0000000000000000
 11
513.1233558070138
 21
247.4975419096098
 31
0.0000000000000000
  0
CIRCLE
  5
315
100
AcDbEntity
  8
H0
  6
CONTINUOUS
 62
3
100
AcDbCircle
 10
498.6735285191098
 20
281.2454693645868
 30
0.0000000000000000
 40
0.6000000000000014
  0
LINE
  5
316
100
AcDbEntity
  8
H0
  6
CONTINUOUS
 62
3
100
AcDbLine
 10
513.0237012311983
 20
283.0433968195239
 30
0.0000000000000000
 11
498.6237012311980
 21
281.8433968195337
 31
0.0000000000000000
  0
LINE
  5
317
100
AcDbEntity
  8
H0
  6
CONTINUOUS
 62
3
100
AcDbLine
 10
498.7233558070217
 20
280.6475419096398
 30
0.0000000000000000
 11
513.1233558070220
 21
281.8475419096300
 31
0.0000000000000000
  0
CIRCLE
  5
318
100
AcDbEntity
  8
H0
  6
CONTINUOUS
 62
3
100
AcDbCircle
 10
513.0735285191101
 20
282.4454693645770
 30
0.0000000000000000
 40
0.6000000000000014
  0
LINE
  5
319
100
AcDbEntity
  8
H0
  6
PHANTOM
 62
3
100
AcDbLine
 10
513.6735285191006
 20
243.2954693645721
 30
0.0000000000000000
 11
513.6735285191006
 21
282.4454693645770
 31
0.0000000000000000
  0
LINE
  5
31A
100
AcDbEntity
  8
H0
  6
CENTER
 62
3
100
AcDbLine
 10
513.0735285191007
 20
242.0137003768622
 30
0.0000000000000000
 11
513.0735285191007
 21
283.3902731919083
 31
0.0000000000000000
  0
LINE
  5
31B
100
AcDbEntity
  8
H0
  6
PHANTOM
 62
3
100
AcDbLine
 10
512.4735285191007
 20
243.2954693645721
 30
0.0000000000000000
 11
512.4735285191007
 21
282.4454693645770
 31
0.0000000000000000
  0
CIRCLE
  5
31C
100
AcDbEntity
  8
H0
  6
CONTINUOUS
 62
3
100
AcDbCircle
 10
498.9485285191007
 20
285.1704693645721
 30
0.0000000000000000
 40
0.4249999999999972
  0
CIRCLE
  5
31D
100
AcDbEntity
  8
H0
  6
CONTINUOUS
 62
3
100
AcDbCircle
 10
512.7985285191006
 20
285.1704693645721
 30
0.0000000000000000
 40
0.4249999999999972
  0
CIRCLE
  5
31E
100
AcDbEntity
  8
H0
  6
CONTINUOUS
 62
3
100
AcDbCircle
 10
498.9485285191007
 20
284.3204693645721
 30
0.0000000000000000
 40
0.4249999999999972
  0
LINE
  5
31F
100
AcDbEntity
  8
H0
  6
CONTINUOUS
 62
3
100
AcDbLine
 10
498.9485285191007
 20
284.7454693645721
 30
0.0000000000000000
 11
512.7985285191006
 21
284.7454693645721
 31
0.0000000000000000
  0
CIRCLE
  5
320
100
AcDbEntity
  8
H0
  6
CONTINUOUS
 62
3
100
AcDbCircle
 10
512.7985285191006
 20
284.3204693645721
 30
0.0000000000000000
 40
0.4249999999999972
  0
LINE
  5
321
100
AcDbEntity
  8
H0
  6
CONTINUOUS
 62
3
100
AcDbLine
 10
512.7985285191006
 20
283.8954693645721
 30
0.0000000000000000
 11
498.9485285191007
 21
283.8954693645721
 31
0.0000000000000000
  0
LINE
  5
322
100
AcDbEntity
  8
H0
  6
CONTINUOUS
 62
3
100
AcDbLine
 10
513.1459277951412
 20
283.0410853019311
 30
0.0000000000000000
 11
506.0417357146154
 21
283.8954693645721
 31
0.0000000000000000
  0
LINE
  5
323
100
AcDbEntity
  8
H0
  6
CONTINUOUS
 62
3
100
AcDbLine
 10
498.8867899071129
 20
283.8999775765550
 30
0.0000000000000000
 11
507.8227358772389
 21
282.6099830400308
 31
0.0000000000000000
  0
LINE
  5
324
100
AcDbEntity
  8
H0
  6
CONTINUOUS
 62
3
100
AcDbLine
 10
505.8984852663880
 20
246.8954693645626
 30
0.0000000000000000
 11
513.1233558070138
 21
246.2933968195073
 31
0.0000000000000000
  0
LINE
  5
325
100
AcDbEntity
  8
H0
  6
CONTINUOUS
 62
3
100
AcDbLine
 10
505.8485717718151
 20
245.6954693645644
 30
0.0000000000000000
 11
498.6237012311892
 21
246.2975419096197
 31
0.0000000000000000
  0
CIRCLE
  5
326
100
AcDbEntity
  8
H0
  6
CONTINUOUS
 62
3
100
AcDbCircle
 10
513.0735285191095
 20
280.0454693645806
 30
0.0000000000000000
 40
0.6000000000000014
  0
LINE
  5
327
100
AcDbEntity
  8
H0
  6
CONTINUOUS
 62
3
100
AcDbLine
 10
513.0237012311976
 20
280.6433968195275
 30
0.0000000000000000
 11
498.6237012311973
 21
279.4433968195374
 31
0.0000000000000000
  0
LINE
  5
328
100
AcDbEntity
  8
H0
  6
CONTINUOUS
 62
3
100
AcDbLine
 10
498.7233558070210
 20
278.2475419096435
 30
0.0000000000000000
 11
513.1233558070213
 21
279.4475419096336
 31
0.0000000000000000
  0
CIRCLE
  5
329
100
AcDbEntity
  8
H0
  6
CONTINUOUS
 62
3
100
AcDbCircle
 10
498.6735285191091
 20
278.8454693645904
 30
0.0000000000000000
 40
0.6000000000000014
  0
CIRCLE
  5
32A
100
AcDbEntity
  8
H0
  6
PHANTOM
 62
3
100
AcDbCircle
 10
505.8735285191007
 20
223.0954693645721
 30
0.0000000000000000
 40
6.549999999999997
  0
LINE
  5
32B
100
AcDbEntity
  8
H0
  6
CONTINUOUS
 62
3
100
AcDbLine
 10
441.4735285191006
 20
356.0954693645721
 30
0.0000000000000000
 11
440.8735285191007
 21
355.4954693645722
 31
0.0000000000000000
  0
LINE
  5
32C
100
AcDbEntity
  8
H0
  6
CONTINUOUS
 62
3
100
AcDbLine
 10
448.2735285191008
 20
356.0954693645721
 30
0.0000000000000000
 11
441.4735285191007
 21
356.0954693645721
 31
0.0000000000000000
  0
LINE
  5
32D
100
AcDbEntity
  8
H0
  6
CONTINUOUS
 62
3
100
AcDbLine
 10
448.8735285191007
 20
355.4954693645721
 30
0.0000000000000000
 11
448.2735285191008
 21
356.0954693645720
 31
0.0000000000000000
  0
LINE
  5
32E
100
AcDbEntity
  8
H0
  6
CONTINUOUS
 62
3
100
AcDbLine
 10
448.8735285191007
 20
355.4954693645721
 30
0.0000000000000000
 11
448.8735285191007
 21
340.6954693645722
 31
0.0000000000000000
  0
LINE
  5
32F
100
AcDbEntity
  8
H0
  6
CONTINUOUS
 62
3
100
AcDbLine
 10
448.2735285191006
 20
340.0954693645721
 30
0.0000000000000000
 11
441.4735285191007
 21
340.0954693645721
 31
0.0000000000000000
  0
LINE
  5
330
100
AcDbEntity
  8
H0
  6
CONTINUOUS
 62
3
100
AcDbLine
 10
448.2735285191006
 20
340.0954693645722
 30
0.0000000000000000
 11
448.8735285191007
 21
340.6954693645722
 31
0.0000000000000000
  0
LINE
  5
331
100
AcDbEntity
  8
H0
  6
HIDDEN
 62
3
100
AcDbLine
 10
448.8735285191007
 20
344.0954693645721
 30
0.0000000000000000
 11
440.8735285191007
 21
344.0954693645721
 31
0.0000000000000000
  0
LINE
  5
332
100
AcDbEntity
  8
H0
  6
HIDDEN
 62
3
100
AcDbLine
 10
448.8735285191007
 20
352.0954693645721
 30
0.0000000000000000
 11
440.8735285191007
 21
352.0954693645721
 31
0.0000000000000000
  0
LINE
  5
333
100
AcDbEntity
  8
H0
  6
CONTINUOUS
 62
3
100
AcDbLine
 10
441.4735285191006
 20
340.0954693645720
 30
0.0000000000000000
 11
440.8735285191007
 21
340.6954693645719
 31
0.0000000000000000
  0
LINE
  5
334
100
AcDbEntity
  8
H0
  6
CONTINUOUS
 62
3
100
AcDbLine
 10
563.4735285191007
 20
340.0954693645721
 30
0.0000000000000000
 11
570.2735285191006
 21
340.0954693645721
 31
0.0000000000000000
  0
LINE
  5
335
100
AcDbEntity
  8
H0
  6
CONTINUOUS
 62
3
100
AcDbLine
 10
563.4735285191007
 20
340.0954693645722
 30
0.0000000000000000
 11
562.8735285191007
 21
340.6954693645722
 31
0.0000000000000000
  0
LINE
  5
336
100
AcDbEntity
  8
H0
  6
CONTINUOUS
 62
3
100
AcDbLine
 10
562.8735285191007
 20
355.4954693645721
 30
0.0000000000000000
 11
562.8735285191007
 21
340.6954693645722
 31
0.0000000000000000
  0
LINE
  5
337
100
AcDbEntity
  8
H0
  6
HIDDEN
 62
3
100
AcDbLine
 10
562.8735285191007
 20
344.0954693645721
 30
0.0000000000000000
 11
570.8735285191007
 21
344.0954693645721
 31
0.0000000000000000
  0
LINE
  5
338
100
AcDbEntity
  8
H0
  6
HIDDEN
 62
3
100
AcDbLine
 10
562.8735285191007
 20
352.0954693645721
 30
0.0000000000000000
 11
570.8735285191007
 21
352.0954693645721
 31
0.0000000000000000
  0
LINE
  5
339
100
AcDbEntity
  8
H0
  6
CONTINUOUS
 62
3
100
AcDbLine
 10
563.4735285191006
 20
356.0954693645721
 30
0.0000000000000000
 11
570.2735285191006
 21
356.0954693645721
 31
0.0000000000000000
  0
LINE
  5
33A
100
AcDbEntity
  8
H0
  6
CONTINUOUS
 62
3
100
AcDbLine
 10
570.2735285191006
 20
356.0954693645721
 30
0.0000000000000000
 11
570.8735285191007
 21
355.4954693645722
 31
0.0000000000000000
  0
LINE
  5
33B
100
AcDbEntity
  8
H0
  6
CONTINUOUS
 62
3
100
AcDbLine
 10
562.8735285191006
 20
355.4954693645721
 30
0.0000000000000000
 11
563.4735285191006
 21
356.0954693645720
 31
0.0000000000000000
  0
LINE
  5
33C
100
AcDbEntity
  8
H0
  6
CONTINUOUS
 62
3
100
AcDbLine
 10
570.2735285191006
 20
340.0954693645719
 30
0.0000000000000000
 11
570.8735285191007
 21
340.6954693645719
 31
0.0000000000000000
  0
DIMENSION
  5
343
100
AcDbEntity
  8
H0
  6
CONTINUOUS
 62
3
100
AcDbDimension
  2
*D21
 10
495.8735285191007
 20
306.6707250496485
 30
0.0000000000000000
 11
505.8735285191007
 21
307.1707250496485
 31
0.0000000000000000
 70
32
  1
\A1;\U+220520
  3
H002
100
AcDbAlignedDimension
 13
515.8735285191007
 23
335.0954693645720
 33
0.0000000000000000
 14
495.8735285191007
 24
335.0954693645720
 34
0.0000000000000000
100
AcDbRotatedDimension
1001
ACAD
1000
DSTYLE
1002
{
1070
   173
1070
     1
1070
     6
1000
_OPEN
1070
     7
1000
_OPEN
1070
    41
1040
2.000000
1002
}
  0
DIMENSION
  5
34C
100
AcDbEntity
  8
H0
  6
CONTINUOUS
 62
3
100
AcDbDimension
  2
*D22
 10
540.8735285191007
 20
361.0954693645721
 30
0.0000000000000000
 11
540.3735285191007
 21
301.0954693645721
 31
0.0000000000000000
 70
32
  3
H002
100
AcDbAlignedDimension
 13
509.4378878732689
 23
241.0954693645721
 33
0.0000000000000000
 14
516.8735285191006
 24
361.0954693645721
 34
0.0000000000000000
 50
90.00000000000000
100
AcDbRotatedDimension
1001
ACAD
1000
DSTYLE
1002
{
1070
   173
1070
     1
1070
     6
1000
_OPEN
1070
     7
1000
_OPEN
1070
    41
1040
2.000000
1002
}
  0
DIMENSION
  5
356
100
AcDbEntity
  8
H0
  6
CONTINUOUS
 62
3
100
AcDbDimension
  2
*D23
 10
516.9090624250348
 20
219.1310032704990
 30
0.0000000000000000
 11
520.1385149166812
 21
223.0675625433277
 31
0.0000000000000000
 70
161
  1
\A1;□10\H0.903226x;\S　0^ －0.05;
  3
H002
100
AcDbAlignedDimension
 13
505.3298585806718
 23
216.5680714911343
 33
0.0000000000000000
 14
512.4009263925325
 24
223.6391393030022
 34
0.0000000000000000
 50
44.99999999996590
1001
ACAD
1000
DSTYLE
1002
{
1070
   173
1070
     1
1070
     6
1000
_OPEN
1070
     7
1000
_OPEN
1070
    41
1040
2.000000
1070
   272
1070
     2
1070
    47
1040
0.000000
1070
    48
1040
0.050000
1070
    71
1070
     1
1070
   340
1005
9F
1002
}
  0
DIMENSION
  5
35F
100
AcDbEntity
  8
H0
  6
CONTINUOUS
 62
3
100
AcDbDimension
  2
*D24
 10
493.8735285191007
 20
373.0954693645721
 30
0.0000000000000000
 11
505.8735285191007
 21
373.5954693645721
 31
0.0000000000000000
 70
32
  1
\A1;\U+220524
  3
H002
100
AcDbAlignedDimension
 13
517.8735285191007
 23
360.0954693645720
 33
0.0000000000000000
 14
493.8735285191007
 24
360.0954693645720
 34
0.0000000000000000
100
AcDbRotatedDimension
1001
ACAD
1000
DSTYLE
1002
{
1070
   173
1070
     1
1070
     6
1000
_OPEN
1070
     7
1000
_OPEN
1070
    41
1040
2.000000
1002
}
  0
DIMENSION
  5
368
100
AcDbEntity
  8
H0
  6
CONTINUOUS
 62
3
100
AcDbDimension
  2
*D25
 10
430.8735285191007
 20
356.0954693645721
 30
0.0000000000000000
 11
430.3735285191007
 21
348.0954693645721
 31
0.0000000000000000
 70
32
  1
\A1;\U+220516
  3
H002
100
AcDbAlignedDimension
 13
441.4735285191007
 23
340.0954693645721
 33
0.0000000000000000
 14
441.4735285191007
 24
356.0954693645721
 34
0.0000000000000000
 50
90.00000000000000
100
AcDbRotatedDimension
1001
ACAD
1000
DSTYLE
1002
{
1070
   173
1070
     1
1070
     6
1000
_OPEN
1070
     7
1000
_OPEN
1070
    41
1040
2.000000
1002
}
  0
DIMENSION
  5
371
100
AcDbEntity
  8
H0
  6
CONTINUOUS
 62
3
100
AcDbDimension
  2
*D26
 10
440.8735285191007
 20
369.9697807520028
 30
0.0000000000000000
 11
444.8735285191007
 21
370.4697807520028
 31
0.0000000000000000
 70
32
  3
H002
100
AcDbAlignedDimension
 13
448.8735285191007
 23
355.4954693645721
 33
0.0000000000000000
 14
440.8735285191007
 24
355.4954693645722
 34
0.0000000000000000
100
AcDbRotatedDimension
1001
ACAD
1000
DSTYLE
1002
{
1070
   173
1070
     1
1070
     6
1000
_OPEN
1070
     7
1000
_OPEN
1070
    41
1040
2.000000
1002
}
  0
DIMENSION
  5
37A
100
AcDbEntity
  8
H0
  6
CONTINUOUS
 62
1
100
AcDbDimension
  2
*D27
 10
570.8735285191007
 20
383.0954693645721
 30
0.0000000000000000
 11
505.8735285191007
 21
383.5954693645721
 31
0.0000000000000000
 70
32
  1
\A1;210
  3
H002
100
AcDbAlignedDimension
 13
440.8735285191007
 23
355.4954693645722
 33
0.0000000000000000
 14
570.8735285191007
 24
355.4954693645722
 34
0.0000000000000000
100
AcDbRotatedDimension
1001
ACAD
1000
DSTYLE
1002
{
1070
   173
1070
     1
1070
     6
1000
_OPEN
1070
     7
1000
_OPEN
1070
    41
1040
2.000000
1002
}
  0
LINE
  5
37B
100
AcDbEntity
  8
H0
  6
CONTINUOUS
 62
3
100
AcDbLine
 10
512.4235285191006
 20
255.0954693645721
 30
0.0000000000000000
 11
506.4171984575270
 21
255.0954693645721
 31
0.0000000000000000
  0
LINE
  5
37C
100
AcDbEntity
  8
H0
  6
CONTINUOUS
 62
3
100
AcDbLine
 10
499.3235285191007
 20
255.0954693645721
 30
0.0000000000000000
 11
505.3298585806743
 21
255.0954693645721
 31
0.0000000000000000
  0
LINE
  5
37D
100
AcDbEntity
  8
H0
  6
CONTINUOUS
 62
3
100
AcDbLine
 10
512.4235285191006
 20
255.0954693645721
 30
0.0000000000000000
 11
506.4171984575270
 21
241.8954693646556
 31
0.0000000000000000
  0
LINE
  5
37E
100
AcDbEntity
  8
H0
  6
CONTINUOUS
 62
3
100
AcDbLine
 10
512.4235285191006
 20
241.8954693645721
 30
0.0000000000000000
 11
506.4171984575270
 21
255.0954693645721
 31
0.0000000000000000
  0
LINE
  5
37F
100
AcDbEntity
  8
H0
  6
CONTINUOUS
 62
3
100
AcDbLine
 10
505.3298585806743
 20
255.0954693645721
 30
0.0000000000000000
 11
499.3235285191007
 21
241.8954693645721
 31
0.0000000000000000
  0
LINE
  5
380
100
AcDbEntity
  8
H0
  6
CONTINUOUS
 62
3
100
AcDbLine
 10
499.3235285191007
 20
255.0954693645721
 30
0.0000000000000000
 11
505.3298585806743
 21
241.8954693646556
 31
0.0000000000000000
  0
DIMENSION
  5
389
100
AcDbEntity
  8
H0
  6
CONTINUOUS
 62
3
100
AcDbDimension
  2
*D28
 10
525.8735285191007
 20
255.0954693645721
 30
0.0000000000000000
 11
525.3735285191007
 21
248.0954693645721
 31
0.0000000000000000
 70
32
  3
H002
100
AcDbAlignedDimension
 13
509.4378878732689
 23
241.0954693645721
 33
0.0000000000000000
 14
512.4235285191006
 24
255.0954693645721
 34
0.0000000000000000
 50
90.00000000000000
100
AcDbRotatedDimension
1001
ACAD
1000
DSTYLE
1002
{
1070
   173
1070
     1
1070
     6
1000
_OPEN
1070
     7
1000
_OPEN
1070
    41
1040
2.000000
1002
}
  0
LINE
  5
38A
100
AcDbEntity
  8
H0
  6
PHANTOM
 62
3
100
AcDbLine
 10
525.8735285191007
 20
355.4954693645721
 30
0.0000000000000000
 11
525.8735285191007
 21
340.6954693645719
 31
0.0000000000000000
  0
LINE
  5
38B
100
AcDbEntity
  8
H0
  6
PHANTOM
 62
3
100
AcDbLine
 10
518.4735285191007
 20
340.0954693645720
 30
0.0000000000000000
 11
525.2735285191006
 21
340.0954693645720
 31
0.0000000000000000
  0
LINE
  5
38C
100
AcDbEntity
  8
H0
  6
PHANTOM
 62
3
100
AcDbLine
 10
518.4735285191007
 20
340.0954693645721
 30
0.0000000000000000
 11
517.8735285191007
 21
340.6954693645721
 31
0.0000000000000000
  0
LINE
  5
38D
100
AcDbEntity
  8
H0
  6
PHANTOM
 62
3
100
AcDbLine
 10
517.8735285191007
 20
355.4954693645720
 30
0.0000000000000000
 11
517.8735285191007
 21
340.6954693645721
 31
0.0000000000000000
  0
LINE
  5
38E
100
AcDbEntity
  8
H0
  6
HIDDEN
 62
3
100
AcDbLine
 10
517.8735285191007
 20
344.0954693645720
 30
0.0000000000000000
 11
525.8735285191007
 21
344.0954693645720
 31
0.0000000000000000
  0
LINE
  5
38F
100
AcDbEntity
  8
H0
  6
PHANTOM
 62
3
100
AcDbLine
 10
517.8735285191007
 20
352.0954693645720
 30
0.0000000000000000
 11
525.8735285191007
 21
352.0954693645720
 31
0.0000000000000000
  0
LINE
  5
390
100
AcDbEntity
  8
H0
  6
PHANTOM
 62
3
100
AcDbLine
 10
518.4735285191006
 20
356.0954693645720
 30
0.0000000000000000
 11
525.2735285191006
 21
356.0954693645720
 31
0.0000000000000000
  0
LINE
  5
391
100
AcDbEntity
  8
H0
  6
PHANTOM
 62
3
100
AcDbLine
 10
525.2735285191006
 20
356.0954693645721
 30
0.0000000000000000
 11
525.8735285191007
 21
355.4954693645721
 31
0.0000000000000000
  0
LINE
  5
392
100
AcDbEntity
  8
H0
  6
PHANTOM
 62
3
100
AcDbLine
 10
517.8735285191006
 20
355.4954693645720
 30
0.0000000000000000
 11
518.4735285191006
 21
356.0954693645720
 31
0.0000000000000000
  0
LINE
  5
393
100
AcDbEntity
  8
H0
  6
PHANTOM
 62
3
100
AcDbLine
 10
525.2735285191006
 20
340.0954693645718
 30
0.0000000000000000
 11
525.8735285191007
 21
340.6954693645719
 31
0.0000000000000000
  0
LINE
  5
394
100
AcDbEntity
  8
H0
  6
PHANTOM
 62
3
100
AcDbLine
 10
395.8735285191007
 20
355.4954693645721
 30
0.0000000000000000
 11
395.8735285191007
 21
340.6954693645719
 31
0.0000000000000000
  0
LINE
  5
395
100
AcDbEntity
  8
H0
  6
PHANTOM
 62
3
100
AcDbLine
 10
403.8735285191007
 20
353.0954693645720
 30
0.0000000000000000
 11
440.8735285191007
 21
353.0954693645720
 31
0.0000000000000000
  0
LINE
  5
396
100
AcDbEntity
  8
H0
  6
PHANTOM
 62
3
100
AcDbLine
 10
403.8735285191007
 20
343.0954693645720
 30
0.0000000000000000
 11
440.8735285191007
 21
343.0954693645720
 31
0.0000000000000000
  0
LINE
  5
397
100
AcDbEntity
  8
H0
  6
CONTINUOUS
 62
3
100
AcDbLine
 10
396.4735285191006
 20
356.0954693645721
 30
0.0000000000000000
 11
395.8735285191007
 21
355.4954693645721
 31
0.0000000000000000
  0
LINE
  5
398
100
AcDbEntity
  8
H0
  6
PHANTOM
 62
3
100
AcDbLine
 10
403.2735285191008
 20
356.0954693645720
 30
0.0000000000000000
 11
396.4735285191007
 21
356.0954693645721
 31
0.0000000000000000
  0
LINE
  5
399
100
AcDbEntity
  8
H0
  6
PHANTOM
 62
3
100
AcDbLine
 10
403.8735285191008
 20
355.4954693645720
 30
0.0000000000000000
 11
403.2735285191008
 21
356.0954693645720
 31
0.0000000000000000
  0
LINE
  5
39A
100
AcDbEntity
  8
H0
  6
PHANTOM
 62
3
100
AcDbLine
 10
403.8735285191007
 20
355.4954693645719
 30
0.0000000000000000
 11
403.8735285191007
 21
340.6954693645721
 31
0.0000000000000000
  0
LINE
  5
39B
100
AcDbEntity
  8
H0
  6
PHANTOM
 62
3
100
AcDbLine
 10
403.2735285191006
 20
340.0954693645720
 30
0.0000000000000000
 11
396.4735285191007
 21
340.0954693645721
 31
0.0000000000000000
  0
LINE
  5
39C
100
AcDbEntity
  8
H0
  6
PHANTOM
 62
3
100
AcDbLine
 10
403.2735285191006
 20
340.0954693645721
 30
0.0000000000000000
 11
403.8735285191007
 21
340.6954693645721
 31
0.0000000000000000
  0
LINE
  5
39D
100
AcDbEntity
  8
H0
  6
PHANTOM
 62
3
100
AcDbLine
 10
403.8735285191007
 20
344.0954693645720
 30
0.0000000000000000
 11
395.8735285191007
 21
344.0954693645720
 31
0.0000000000000000
  0
LINE
  5
39E
100
AcDbEntity
  8
H0
  6
PHANTOM
 62
3
100
AcDbLine
 10
403.8735285191007
 20
352.0954693645720
 30
0.0000000000000000
 11
395.8735285191007
 21
352.0954693645720
 31
0.0000000000000000
  0
LINE
  5
39F
100
AcDbEntity
  8
H0
  6
PHANTOM
 62
3
100
AcDbLine
 10
396.4735285191006
 20
340.0954693645719
 30
0.0000000000000000
 11
395.8735285191007
 21
340.6954693645719
 31
0.0000000000000000
  0
DIMENSION
  5
3A7
100
AcDbEntity
  8
H0
  6
CONTINUOUS
 62
1
100
AcDbDimension
  2
*D29
 10
395.8735285191007
 20
328.0954693645721
 30
0.0000000000000000
 11
450.8735285191007
 21
328.5954693645721
 31
0.0000000000000000
 70
32
  1
\A1;MAX 190
  3
H002
100
AcDbAlignedDimension
 13
505.8735285191007
 23
311.7707249542811
 33
0.0000000000000000
 14
395.8735285191007
 24
340.6954693645719
 34
0.0000000000000000
100
AcDbRotatedDimension
1001
ACAD
1000
DSTYLE
1002
{
1070
   173
1070
     1
1070
     6
1000
_OPEN
1070
     7
1000
_OPEN
1070
    41
1040
2.000000
1002
}
  0
LINE
  5
3A8
100
AcDbEntity
  8
H0
  6
CENTER
 62
3
100
AcDbLine
 10
390.8735285191007
 20
348.0954693645721
 30
0.0000000000000000
 11
425.7735286144681
 21
348.0954693645721
 31
0.0000000000000000
  0
LINE
  5
3A9
100
AcDbEntity
  8
H0
  6
CENTER
 62
3
100
AcDbLine
 10
431.8735285191007
 20
348.0954693645721
 30
0.0000000000000000
 11
575.8735285191007
 21
348.0954693645721
 31
0.0000000000000000
  0
DIMENSION
  5
3B1
100
AcDbEntity
  8
H0
  6
CONTINUOUS
 62
3
100
AcDbDimension
  2
*D30
 10
530.8735285191007
 20
348.0954693645721
 30
0.0000000000000000
 11
530.3735285191007
 21
356.7359236015045
 31
0.0000000000000000
 70
160
  3
H002
100
AcDbAlignedDimension
 13
516.8735285191006
 23
361.0954693645721
 33
0.0000000000000000
 14
431.8735285191007
 24
348.0954693645721
 34
0.0000000000000000
 50
90.00000000000000
100
AcDbRotatedDimension
1001
ACAD
1000
DSTYLE
1002
{
1070
   173
1070
     1
1070
     6
1000
_OPEN
1070
     7
1000
_OPEN
1070
    41
1040
2.000000
1002
}
  0
DIMENSION
  5
3B9
100
AcDbEntity
  8
H0
  6
CONTINUOUS
 62
3
100
AcDbDimension
  2
*D31
 10
482.7991744003532
 20
353.0954693645721
 30
0.0000000000000000
 11
482.2991744003532
 21
338.6811409614628
 31
0.0000000000000000
 70
160
  1
\A1;\U+220510
  3
H002
100
AcDbAlignedDimension
 13
461.1299573498168
 23
343.0954693645721
 33
0.0000000000000000
 14
461.1299573498168
 24
353.0954693645721
 34
0.0000000000000000
 50
90.00000000000000
100
AcDbRotatedDimension
1001
ACAD
1000
DSTYLE
1002
{
1070
   173
1070
     1
1070
     6
1000
_OPEN
1070
     7
1000
_OPEN
1070
    41
1040
2.000000
1002
}
  0
INSERT
  5
3C6
100
AcDbEntity
  8
H0
  6
CONTINUOUS
 62
3
100
AcDbBlockReference
  2
*X0
 10
0.0000000000000000
 20
0.0000000000000000
 30
0.0000000000000000
 50
0.0000000000000000
  0
INSERT
  5
3D3
100
AcDbEntity
  8
H0
  6
CONTINUOUS
 62
3
100
AcDbBlockReference
  2
*X1
 10
0.0000000000000000
 20
0.0000000000000000
 30
0.0000000000000000
 50
0.0000000000000000
  0
INSERT
  5
3E0
100
AcDbEntity
  8
H0
  6
CONTINUOUS
 62
3
100
AcDbBlockReference
  2
*X2
 10
0.0000000000000000
 20
0.0000000000000000
 30
0.0000000000000000
 50
0.0000000000000000
  0
INSERT
  5
3ED
100
AcDbEntity
  8
H0
  6
CONTINUOUS
 62
3
100
AcDbBlockReference
  2
*X3
 10
0.0000000000000000
 20
0.0000000000000000
 30
0.0000000000000000
 50
0.0000000000000000
  0
INSERT
  5
3FA
100
AcDbEntity
  8
H0
  6
CONTINUOUS
 62
3
100
AcDbBlockReference
  2
*X4
 10
0.0000000000000000
 20
0.0000000000000000
 30
0.0000000000000000
 50
0.0000000000000000
  0
INSERT
  5
407
100
AcDbEntity
  8
H0
  6
CONTINUOUS
 62
3
100
AcDbBlockReference
  2
*X5
 10
0.0000000000000000
 20
0.0000000000000000
 30
0.0000000000000000
 50
0.0000000000000000
  0
INSERT
  5
414
100
AcDbEntity
  8
H0
  6
CONTINUOUS
 62
3
100
AcDbBlockReference
  2
*X6
 10
0.0000000000000000
 20
0.0000000000000000
 30
0.0000000000000000
 50
0.0000000000000000
  0
INSERT
  5
421
100
AcDbEntity
  8
H0
  6
CONTINUOUS
 62
3
100
AcDbBlockReference
  2
*X7
 10
0.0000000000000000
 20
0.0000000000000000
 30
0.0000000000000000
 50
0.0000000000000000
  0
MTEXT
  5
422
100
AcDbEntity
  8
A0
  6
CONTINUOUS
 62
3
100
AcDbMText
 10
177.4171262583434
 20
130.4220247829757
 30
0.0000000000000000
 40
4.649999856948853
 41
0.0000000000000000
 71
     1
 72
     1
  1
{\H0.94x;{本スクロールチャックは円テーブル上で工作物を}}
 11
1.000000000000000
 21
0.0000000000000000
 31
0.0000000000000000
  7
KNJYOKO
  0
MTEXT
  5
423
100
AcDbEntity
  8
A0
  6
CONTINUOUS
 62
3
100
AcDbMText
 10
177.4171262583434
 20
122.9220247829757
 30
0.0000000000000000
 40
4.649999856948853
 41
0.0000000000000000
 71
     1
 72
     1
  1
{\H0.94x;{把握することに適しています。それ以外の用途の}}
 11
1.000000000000000
 21
0.0000000000000000
 31
0.0000000000000000
  7
KNJYOKO
  0
MTEXT
  5
424
100
AcDbEntity
  8
A0
  6
CONTINUOUS
 62
3
100
AcDbMText
 10
177.4171262583434
 20
115.4220247829758
 30
0.0000000000000000
 40
4.649999856948853
 41
0.0000000000000000
 71
     1
 72
     1
  1
{\H0.94x;{場合、事前に弊社にご相談下さい。}}
 11
1.000000000000000
 21
0.0000000000000000
 31
0.0000000000000000
  7
KNJYOKO
  0
MTEXT
  5
425
100
AcDbEntity
  8
A0
  6
CONTINUOUS
 62
3
100
AcDbMText
 10
125.8676490628080
 20
74.64613469725076
 30
0.0000000000000000
 40
4.199998855590820
 41
0.0000000000000000
 71
     7
 72
     1
  1
{　　Kg・m}
 11
1.000000000000000
 21
0.0000000000000000
 31
0.0000000000000000
  7
KNJYOKO
  0
MTEXT
  5
426
100
AcDbEntity
  8
A0
  6
CONTINUOUS
 62
3
100
AcDbMText
 10
143.6676487767057
 20
76.74613412504617
 30
0.0000000000000000
 40
2.099999427795410
 41
0.0000000000000000
 71
     7
 72
     1
  1
{2}
 11
1.000000000000000
 21
0.0000000000000000
 31
0.0000000000000000
  7
STANDARD
  0
MTEXT
  5
427
100
AcDbEntity
  8
A0
  6
CONTINUOUS
 62
3
100
AcDbMText
 10
26.94252910661094
 20
47.51621859814507
 30
0.0000000000000000
 40
4.650000572204590
 41
0.0000000000000000
 71
     1
 72
     1
  1
{\H0.95x;{○上記仕様は許容最大ハンドルトルク締込時の場合}}
 11
1.000000000000000
 21
0.0000000000000000
 31
0.0000000000000000
  7
KNJYOKO
  0
MTEXT
  5
428
100
AcDbEntity
  8
A0
  6
CONTINUOUS
 62
3
100
AcDbMText
 10
109.4171262583434
 20
118.9220247830286
 30
0.0000000000000000
 40
4.649999856948853
 41
0.0000000000000000
 71
     1
 72
     1
  1
{\H0.76x;{9.0}}
 11
1.000000000000000
 21
0.0000000000000000
 31
0.0000000000000000
  7
STANDARD
  0
MTEXT
  5
429
100
AcDbEntity
  8
A0
  6
CONTINUOUS
 62
3
100
AcDbMText
 10
109.4171262583434
 20
103.9220247830285
 30
0.0000000000000000
 40
4.649999856948853
 41
0.0000000000000000
 71
     1
 72
     1
  1
{\H0.91x;{3161}}
 11
1.000000000000000
 21
0.0000000000000000
 31
0.0000000000000000
  7
STANDARD
  0
MTEXT
  5
42A
100
AcDbEntity
  8
A0
  6
CONTINUOUS
 62
3
100
AcDbMText
 10
104.9171262583434
 20
125.6720247830286
 30
0.0000000000000000
 40
4.649999856948853
 41
0.0000000000000000
 71
     1
 72
     1
  1
{\H0.81x;{88.3}}
 11
1.000000000000000
 21
0.0000000000000000
 31
0.0000000000000000
  7
STANDARD
  0
MTEXT
  5
42B
100
AcDbEntity
  8
A0
  6
CONTINUOUS
 62
3
100
AcDbMText
 10
104.9171262583434
 20
110.6720247830285
 30
0.0000000000000000
 40
4.649999856948853
 41
0.0000000000000000
 71
     1
 72
     1
  1
{\H0.88x;{31}}
 11
1.000000000000000
 21
0.0000000000000000
 31
0.0000000000000000
  7
STANDARD
  0
MTEXT
  5
42C
100
AcDbEntity
  8
A0
  6
CONTINUOUS
 62
3
100
AcDbMText
 10
104.9171262583434
 20
93.92202478302839
 30
0.0000000000000000
 40
4.649999856948853
 41
0.0000000000000000
 71
     1
 72
     1
  1
{\H0.76x;{9.0}}
 11
1.000000000000000
 21
0.0000000000000000
 31
0.0000000000000000
  7
STANDARD
  0
MTEXT
  5
42D
100
AcDbEntity
  8
A0
  6
CONTINUOUS
 62
3
100
AcDbMText
 10
104.9171262582999
 20
68.42202478302356
 30
0.0000000000000000
 40
4.649999856948853
 41
0.0000000000000000
 71
     1
 72
     1
  1
{\H0.93x;{\U+22053～\U+2205160}}
 11
1.000000000000000
 21
0.0000000000000000
 31
0.0000000000000000
  7
KNJYOKO
  0
MTEXT
  5
42E
100
AcDbEntity
  8
A0
  6
CONTINUOUS
 62
3
100
AcDbMText
 10
104.9171262582999
 20
57.92202478302350
 30
0.0000000000000000
 40
4.649999856948853
 41
0.0000000000000000
 71
     1
 72
     1
  1
{\H0.93x;{\U+220555～\U+2205150}}
 11
1.000000000000000
 21
0.0000000000000000
 31
0.0000000000000000
  7
KNJYOKO
  0
MTEXT
  5
42F
100
AcDbEntity
  8
A0
  6
CONTINUOUS
 62
3
100
AcDbMText
 10
27.97010158871748
 20
61.91911201715696
 30
0.0000000000000000
 40
3.750000000000000
 41
0.0000000000000000
 71
     1
 72
     1
  1
{\H0.54x;{GRIPPING RANGE}}
 11
1.000000000000000
 21
0.0000000000000000
 31
0.0000000000000000
  7
STANDARD
  0
MTEXT
  5
430
100
AcDbEntity
  8
A0
  6
CONTINUOUS
 62
3
100
AcDbMText
 10
39.60725345122600
 20
55.82066366871838
 30
0.0000000000000000
 40
4.500000000000000
 41
0.0000000000000000
 71
     1
 72
     1
  1
{\H0.63x;{(mm)}}
 11
1.000000000000000
 21
0.0000000000000000
 31
0.0000000000000000
  7
STANDARD
  0
MTEXT
  5
431
100
AcDbEntity
  8
A0
  6
CONTINUOUS
 62
3
100
AcDbMText
 10
31.76909322339096
 20
69.50533878952733
 30
0.0000000000000000
 40
4.650000572204590
 41
0.0000000000000000
 71
     1
 72
     1
  1
{\H0.96x;{把握径}}
 11
1.000000000000000
 21
0.0000000000000000
 31
0.0000000000000000
  7
KNJYOKO
  0
MTEXT
  5
432
100
AcDbEntity
  8
A0
  6
CONTINUOUS
 62
3
100
AcDbMText
 10
30.16198600200312
 20
83.07898311099190
 30
0.0000000000000000
 40
3.750000000000000
 41
0.0000000000000000
 71
     1
 72
     1
  1
{\H0.63x;{慣性モーメント\PMOMENT OF INERTIA\P}
 11
1.000000000000000
 21
0.0000000000000000
 31
0.0000000000000000
  7
KNJYOKO
  0
MTEXT
  5
433
100
AcDbEntity
  8
A0
  6
CONTINUOUS
 62
3
100
AcDbMText
 10
30.16198600200312
 20
96.54215840994912
 30
0.0000000000000000
 40
3.750000000000000
 41
0.0000000000000000
 71
     1
 72
     1
  1
{\H0.63x;{質量\PMASS}}
 11
1.000000000000000
 21
0.0000000000000000
 31
0.0000000000000000
  7
KNJYOKO
  0
MTEXT
  5
434
100
AcDbEntity
  8
A0
  6
CONTINUOUS
 62
3
100
AcDbMText
 10
30.66712625834290
 20
103.3970249261150
 30
0.0000000000000000
 40
3.750000000000000
 41
0.0000000000000000
 71
     1
 72
     1
  1
{\H0.63x;{MAX STATIC GRIPPING FORCE}}
 11
1.000000000000000
 21
0.0000000000000000
 31
0.0000000000000000
  7
STANDARD
  0
MTEXT
  5
435
100
AcDbEntity
  8
A0
  6
CONTINUOUS
 62
3
100
AcDbMText
 10
30.66712625834495
 20
111.0470254983296
 30
0.0000000000000000
 40
4.650000572204590
 41
0.0000000000000000
 71
     1
 72
     1
  1
{\H0.94x;{最大静的把握力}}
 11
1.000000000000000
 21
0.0000000000000000
 31
0.0000000000000000
  7
KNJYOKO
  0
MTEXT
  5
436
100
AcDbEntity
  8
A0
  6
CONTINUOUS
 62
3
100
AcDbMText
 10
30.66712625834506
 20
126.0470254983339
 30
0.0000000000000000
 40
4.650000572204590
 41
0.0000000000000000
 71
     1
 72
     1
  1
{\H0.94x;{許容最大ハンドルトルク}}
 11
1.000000000000000
 21
0.0000000000000000
 31
0.0000000000000000
  7
KNJYOKO
  0
MTEXT
  5
437
100
AcDbEntity
  8
A0
  6
CONTINUOUS
 62
3
100
AcDbMText
 10
30.66712625834290
 20
118.3970249261194
 30
0.0000000000000000
 40
3.750000000000000
 41
0.0000000000000000
 71
     1
 72
     1
  1
{\H0.62x;{MAX.PERMISSIBLE HANDLE TORQUE}}
 11
1.000000000000000
 21
0.0000000000000000
 31
0.0000000000000000
  7
STANDARD
  0
LINE
  5
438
100
AcDbEntity
  8
A0
  6
CONTINUOUS
 62
3
100
AcDbLine
 10
26.91712625834327
 20
112.7720249261194
 30
0.0000000000000000
 11
146.9171262583433
 21
112.7720249261467
 31
0.0000000000000000
  0
LINE
  5
439
100
AcDbEntity
  8
A0
  6
CONTINUOUS
 62
3
100
AcDbLine
 10
26.91712625834312
 20
97.77202492611504
 30
0.0000000000000000
 11
146.9171262583431
 21
97.77202492613930
 31
0.0000000000000000
  0
LINE
  5
43A
100
AcDbEntity
  8
A0
  6
CONTINUOUS
 62
3
100
AcDbLine
 10
26.91712625834320
 20
86.27202492610904
 30
0.0000000000000000
 11
146.9171262583434
 21
86.27202492612916
 31
0.0000000000000000
  0
LINE
  5
43B
100
AcDbEntity
  8
A0
  6
CONTINUOUS
 62
3
100
AcDbLine
 10
26.91712625834343
 20
71.27202492607475
 30
0.0000000000000000
 11
146.9171262583433
 21
71.27202492607479
 31
0.0000000000000000
  0
MTEXT
  5
43C
100
AcDbEntity
  8
A0
  6
CONTINUOUS
 62
3
100
AcDbMText
 10
57.38079637434836
 20
70.74863505085857
 30
0.0000000000000000
 40
3.750000000000000
 41
0.0000000000000000
 71
     1
 72
     1
  1
{\H0.60x;{OUTER DIA.\PGRIPPING}}
 11
1.000000000000000
 21
0.0000000000000000
 31
0.0000000000000000
  7
STANDARD
  0
LINE
  5
43D
100
AcDbEntity
  8
A0
  6
CONTINUOUS
 62
3
100
AcDbLine
 10
56.16712625834336
 20
50.27202492607476
 30
0.0000000000000000
 11
56.16712625834336
 21
71.27202492607471
 31
0.0000000000000000
  0
LINE
  5
43E
100
AcDbEntity
  8
A0
  6
CONTINUOUS
 62
3
100
AcDbLine
 10
26.91712625834343
 20
50.27202492607465
 30
0.0000000000000000
 11
146.9171262583434
 21
50.27202492607474
 31
0.0000000000000000
  0
MTEXT
  5
43F
100
AcDbEntity
  8
A0
  6
CONTINUOUS
 62
3
100
AcDbMText
 10
57.30318223157209
 20
60.11555642752073
 30
0.0000000000000000
 40
3.750000000000000
 41
0.0000000000000000
 71
     1
 72
     1
  1
{\H0.60x;{INNER DIA.\PGRIPPING}}
 11
1.000000000000000
 21
0.0000000000000000
 31
0.0000000000000000
  7
STANDARD
  0
LINE
  5
440
100
AcDbEntity
  8
A0
  6
CONTINUOUS
 62
3
100
AcDbLine
 10
56.16712625834346
 20
60.77202492607464
 30
0.0000000000000000
 11
146.9171262583433
 21
60.77202492607472
 31
0.0000000000000000
  0
MTEXT
  5
441
100
AcDbEntity
  8
A0
  6
CONTINUOUS
 62
3
100
AcDbMText
 10
80.74252663543129
 20
57.75577996896969
 30
0.0000000000000000
 40
4.649999856948853
 41
0.0000000000000000
 71
     1
 72
     1
  1
{\H0.92x;{内径把握}}
 11
1.000000000000000
 21
0.0000000000000000
 31
0.0000000000000000
  7
KNJYOKO
  0
MTEXT
  5
442
100
AcDbEntity
  8
A0
  6
CONTINUOUS
 62
3
100
AcDbMText
 10
80.74252663543129
 20
68.46647273508368
 30
0.0000000000000000
 40
4.649999856948853
 41
0.0000000000000000
 71
     1
 72
     1
  1
{\H0.92x;{外径把握}}
 11
1.000000000000000
 21
0.0000000000000000
 31
0.0000000000000000
  7
KNJYOKO
  0
LINE
  5
443
100
AcDbEntity
  8
A0
  6
CONTINUOUS
 62
3
100
AcDbLine
 10
101.9171262583434
 20
50.27202492607471
 30
0.0000000000000000
 11
101.9171262583434
 21
127.7720249261503
 31
0.0000000000000000
  0
LINE
  5
444
100
AcDbEntity
  8
A0
  6
CONTINUOUS
 62
3
100
AcDbLine
 10
146.9171262583434
 20
50.27202492607474
 30
0.0000000000000000
 11
146.9171262583434
 21
148.2720249260798
 31
0.0000000000000000
  0
MTEXT
  5
445
100
AcDbEntity
  8
A0
  6
CONTINUOUS
 62
3
100
AcDbMText
 10
124.4171262583434
 20
91.97202378167036
 30
0.0000000000000000
 40
4.199998855590820
 41
0.0000000000000000
 71
     1
 72
     1
  1
{\H0.58x;{　　　　ｋｇ}}
 11
1.000000000000000
 21
0.0000000000000000
 31
0.0000000000000000
  7
KNJYOKO
  0
MTEXT
  5
446
100
AcDbEntity
  8
A0
  6
CONTINUOUS
 62
3
100
AcDbMText
 10
104.9171262583434
 20
102.7220237816704
 30
0.0000000000000000
 40
4.199998855590820
 41
0.0000000000000000
 71
     1
 72
     1
  1
{\H0.48x;{（}}
 11
1.000000000000000
 21
0.0000000000000000
 31
0.0000000000000000
  7
KNJYOKO
  0
MTEXT
  5
447
100
AcDbEntity
  8
A0
  6
CONTINUOUS
 62
3
100
AcDbMText
 10
122.9171262583434
 20
102.7220237816704
 30
0.0000000000000000
 40
4.199998855590820
 41
0.0000000000000000
 71
     1
 72
     1
  1
{\H0.58x;{　　　ｋｇｆ）}}
 11
1.000000000000000
 21
0.0000000000000000
 31
0.0000000000000000
  7
KNJYOKO
  0
MTEXT
  5
448
100
AcDbEntity
  8
A0
  6
CONTINUOUS
 62
3
100
AcDbMText
 10
124.4171262583434
 20
108.7220237816704
 30
0.0000000000000000
 40
4.199998855590820
 41
0.0000000000000000
 71
     1
 72
     1
  1
{\H0.58x;{　　　　ｋＮ}}
 11
1.000000000000000
 21
0.0000000000000000
 31
0.0000000000000000
  7
KNJYOKO
  0
MTEXT
  5
449
100
AcDbEntity
  8
A0
  6
CONTINUOUS
 62
3
100
AcDbMText
 10
122.9171262583434
 20
117.7220237816706
 30
0.0000000000000000
 40
4.199998855590820
 41
0.0000000000000000
 71
     1
 72
     1
  1
{\H0.58x;{　ｋｇｆ・ｍ）}}
 11
1.000000000000000
 21
0.0000000000000000
 31
0.0000000000000000
  7
KNJYOKO
  0
MTEXT
  5
44A
100
AcDbEntity
  8
A0
  6
CONTINUOUS
 62
3
100
AcDbMText
 10
124.4171262583434
 20
123.7220237816706
 30
0.0000000000000000
 40
4.199998855590820
 41
0.0000000000000000
 71
     1
 72
     1
  1
{\H0.58x;{　　　Ｎ・ｍ}}
 11
1.000000000000000
 21
0.0000000000000000
 31
0.0000000000000000
  7
KNJYOKO
  0
MTEXT
  5
44B
100
AcDbEntity
  8
A0
  6
CONTINUOUS
 62
3
100
AcDbMText
 10
104.9171262583434
 20
117.7220237816706
 30
0.0000000000000000
 40
4.199998855590820
 41
0.0000000000000000
 71
     1
 72
     1
  1
{\H0.48x;{（}}
 11
1.000000000000000
 21
0.0000000000000000
 31
0.0000000000000000
  7
KNJYOKO
  0
MTEXT
  5
44C
100
AcDbEntity
  8
A0
  6
CONTINUOUS
 62
3
100
AcDbMText
 10
52.37521446063602
 20
135.2625936217808
 30
0.0000000000000000
 40
4.649999856948853
 41
0.0000000000000000
 71
     1
 72
     1
  1
{\H0.93x;{SPECIFICATIONS}}
 11
1.000000000000000
 21
0.0000000000000000
 31
0.0000000000000000
  7
STANDARD
  0
LINE
  5
44D
100
AcDbEntity
  8
A0
  6
CONTINUOUS
 62
3
100
AcDbLine
 10
26.91712625834320
 20
127.7720249261294
 30
0.0000000000000000
 11
146.9171262583432
 21
127.7720249261636
 31
0.0000000000000000
  0
LINE
  5
44E
100
AcDbEntity
  8
A0
  6
CONTINUOUS
 62
3
100
AcDbLine
 10
26.91712625834327
 20
148.2720249261323
 30
0.0000000000000000
 11
146.9171262583434
 21
148.2720249261686
 31
0.0000000000000000
  0
MTEXT
  5
44F
100
AcDbEntity
  8
A0
  6
CONTINUOUS
 62
3
100
AcDbMText
 10
67.35718233322410
 20
146.5806585299781
 30
0.0000000000000000
 40
7.500000000000000
 41
0.0000000000000000
 71
     1
 72
     1
  1
{\H0.91x;{仕　様}}
 11
1.000000000000000
 21
0.0000000000000000
 31
0.0000000000000000
  7
KNJYOKO
  0
LINE
  5
450
100
AcDbEntity
  8
A0
  6
CONTINUOUS
 62
3
100
AcDbLine
 10
26.91712625834336
 20
50.27202492607465
 30
0.0000000000000000
 11
26.91712625834336
 21
148.2720249260798
 31
0.0000000000000000
  0
MTEXT
  5
451
100
AcDbEntity
  8
A0
  6
CONTINUOUS
 62
3
100
AcDbMText
 10
104.9171262583434
 20
82.17202478302839
 30
0.0000000000000000
 40
4.649999856948853
 41
0.0000000000000000
 71
     1
 72
     1
  1
{\H0.84x;{0.033}}
 11
1.000000000000000
 21
0.0000000000000000
 31
0.0000000000000000
  7
STANDARD
  0
MTEXT
  5
452
100
AcDbEntity
  8
A0
  6
CONTINUOUS
 62
3
100
AcDbMText
 10
28.72693898757813
 20
40.74299629714544
 30
0.0000000000000000
 40
4.500000000000000
 41
0.0000000000000000
 71
     1
 72
     1
  1
{\H0.63x;{ABOVE SPECS :AT MAX PERMISSIBLE HANDLE TORQUE}}
 11
1.000000000000000
 21
0.0000000000000000
 31
0.0000000000000000
  7
STANDARD
  0
MTEXT
  5
453
100
AcDbEntity
  8
A0
  6
CONTINUOUS
 62
3
100
AcDbMText
 10
177.4171262583434
 20
72.92202478297571
 30
0.0000000000000000
 40
4.649999856948853
 41
0.0000000000000000
 71
     1
 72
     1
  1
{\H0.71x;{This scroll chuck is suitable for}}
 11
1.000000000000000
 21
0.0000000000000000
 31
0.0000000000000000
  7
STANDARD
  0
MTEXT
  5
454
100
AcDbEntity
  8
A0
  6
CONTINUOUS
 62
3
100
AcDbMText
 10
177.4171262583434
 20
65.42202478297571
 30
0.0000000000000000
 40
4.649999856948853
 41
0.0000000000000000
 71
     1
 72
     1
  1
{\H0.71x;{gripping a workpiece on the rotary}}
 11
1.000000000000000
 21
0.0000000000000000
 31
0.0000000000000000
  7
STANDARD
  0
MTEXT
  5
455
100
AcDbEntity
  8
A0
  6
CONTINUOUS
 62
3
100
AcDbMText
 10
177.4171262583434
 20
57.92202478297580
 30
0.0000000000000000
 40
4.649999856948853
 41
0.0000000000000000
 71
     1
 72
     1
  1
{\H0.69x;{tables. For any other applications,}}
 11
1.000000000000000
 21
0.0000000000000000
 31
0.0000000000000000
  7
STANDARD
  0
MTEXT
  5
456
100
AcDbEntity
  8
A0
  6
CONTINUOUS
 62
3
100
AcDbMText
 10
177.4171262583434
 20
50.42202478297580
 30
0.0000000000000000
 40
4.649999856948853
 41
0.0000000000000000
 71
     1
 72
     1
  1
{\H0.69x;{please contact us.}}
 11
1.000000000000000
 21
0.0000000000000000
 31
0.0000000000000000
  7
STANDARD
  0
INSERT
  5
462
100
AcDbEntity
  8
A0
  6
CONTINUOUS
 62
3
100
AcDbBlockReference
  2
M0
 10
0.0000000000000000
 20
0.0000000000000000
 30
0.0000000000000000
 50
0.0000000000000000
  0
INSERT
  5
46F
100
AcDbEntity
  8
A0
  6
CONTINUOUS
 62
3
100
AcDbBlockReference
  2
M1
 10
0.0000000000000000
 20
0.0000000000000000
 30
0.0000000000000000
 50
0.0000000000000000
  0
LINE
  5
470
100
AcDbEntity
  8
ZH0
  6
CONTINUOUS
 62
3
100
AcDbLine
 10
342.7907221322915
 20
126.7682243913658
 30
0.0000000000000000
 11
415.7907221322915
 21
126.7682243913086
 31
0.0000000000000000
  0
LINE
  5
471
100
AcDbEntity
  8
ZH0
  6
CONTINUOUS
 62
3
100
AcDbLine
 10
369.4507221322494
 20
88.76822439134500
 30
0.0000000000000000
 11
382.1307221322495
 21
88.76822439133505
 31
0.0000000000000000
  0
LINE
  5
472
100
AcDbEntity
  8
ZH0
  6
CONTINUOUS
 62
3
100
AcDbLine
 10
416.7907221322531
 20
92.06822439130781
 30
0.0000000000000000
 11
416.7907221322905
 21
125.7682243913078
 31
0.0000000000000000
  0
LINE
  5
473
100
AcDbEntity
  8
ZH0
  6
CONTINUOUS
 62
3
100
AcDbLine
 10
341.7907221322531
 20
92.06822439136661
 30
0.0000000000000000
 11
341.7907221322905
 21
125.7682243913667
 31
0.0000000000000000
  0
LINE
  5
474
100
AcDbEntity
  8
ZH0
  6
CENTER
 62
3
100
AcDbLine
 10
375.7907221322436
 20
83.50783867014373
 30
0.0000000000000000
 11
375.7907221322619
 21
100.0274391508094
 31
0.0000000000000000
  0
LINE
  5
475
100
AcDbEntity
  8
ZH0
  6
CENTER
 62
3
100
AcDbLine
 10
394.8407221322466
 20
86.03166307310664
 30
0.0000000000000000
 11
394.8407221322945
 21
129.2809035076939
 31
0.0000000000000000
  0
LINE
  5
476
100
AcDbEntity
  8
ZH0
  6
CENTER
 62
3
100
AcDbLine
 10
356.7407221322437
 20
83.62255439744629
 30
0.0000000000000000
 11
356.7407221322955
 21
130.3133755431988
 31
0.0000000000000000
  0
LINE
  5
477
100
AcDbEntity
  8
ZH0
  6
CONTINUOUS
 62
3
100
AcDbLine
 10
349.7407221322615
 20
99.76822439136038
 30
0.0000000000000000
 11
363.7407221322615
 21
99.76822439134941
 31
0.0000000000000000
  0
LINE
  5
478
100
AcDbEntity
  8
ZH0
  6
CONTINUOUS
 62
3
100
AcDbLine
 10
363.7407221322616
 20
99.76822439134944
 30
0.0000000000000000
 11
363.7407221322915
 21
126.7682243913425
 31
0.0000000000000000
  0
LINE
  5
479
100
AcDbEntity
  8
ZH0
  6
CONTINUOUS
 62
3
100
AcDbLine
 10
349.7407221322616
 20
99.76822439136041
 30
0.0000000000000000
 11
349.7407221322915
 21
126.7682243913580
 31
0.0000000000000000
  0
LINE
  5
47A
100
AcDbEntity
  8
ZH0
  6
CONTINUOUS
 62
3
100
AcDbLine
 10
360.9907221322566
 20
95.26822439135160
 30
0.0000000000000000
 11
360.9907221322616
 21
99.76822439135160
 31
0.0000000000000000
  0
LINE
  5
47B
100
AcDbEntity
  8
ZH0
  6
CONTINUOUS
 62
3
100
AcDbLine
 10
352.4907221322566
 20
95.26822439135826
 30
0.0000000000000000
 11
352.4907221322616
 21
99.76822439135825
 31
0.0000000000000000
  0
LINE
  5
47C
100
AcDbEntity
  8
ZH0
  6
CONTINUOUS
 62
3
100
AcDbLine
 10
358.1768627937398
 20
91.76822439135381
 30
0.0000000000000000
 11
358.1768627937398
 21
95.26822439135381
 31
0.0000000000000000
  0
LINE
  5
47D
100
AcDbEntity
  8
ZH0
  6
CONTINUOUS
 62
3
100
AcDbLine
 10
355.3045814705528
 20
91.76822439135606
 30
0.0000000000000000
 11
355.3045814705528
 21
95.26822439135606
 31
0.0000000000000000
  0
LINE
  5
47E
100
AcDbEntity
  8
ZH0
  6
CONTINUOUS
 62
3
100
AcDbLine
 10
341.7907221322568
 20
95.26822439136669
 30
0.0000000000000000
 11
355.3045814705528
 21
95.26822439135603
 31
0.0000000000000000
  0
LINE
  5
47F
100
AcDbEntity
  8
ZH0
  6
CONTINUOUS
 62
3
100
AcDbLine
 10
382.1307221322495
 20
88.76822439132191
 30
0.0000000000000000
 11
382.1307221322535
 21
92.46822439133503
 31
0.0000000000000000
  0
LINE
  5
480
100
AcDbEntity
  8
ZH0
  6
CONTINUOUS
 62
3
100
AcDbLine
 10
369.4507221322494
 20
88.76822439133596
 30
0.0000000000000000
 11
369.4507221322535
 21
92.46822439134496
 31
0.0000000000000000
  0
LINE
  5
481
100
AcDbEntity
  8
ZH0
  6
CONTINUOUS
 62
3
100
AcDbLine
 10
385.1307221322527
 20
91.76822439133264
 30
0.0000000000000000
 11
385.1307221322535
 21
92.46822439133263
 31
0.0000000000000000
  0
LINE
  5
482
100
AcDbEntity
  8
ZH0
  6
CONTINUOUS
 62
3
100
AcDbLine
 10
366.4507221322527
 20
91.76822439134732
 30
0.0000000000000000
 11
366.4507221322535
 21
92.46822439134728
 31
0.0000000000000000
  0
LINE
  5
483
100
AcDbEntity
  8
ZH0
  6
CONTINUOUS
 62
3
100
AcDbLine
 10
366.4507221322535
 20
92.46822439134729
 30
0.0000000000000000
 11
369.4507221322535
 21
92.46822439134493
 31
0.0000000000000000
  0
LINE
  5
484
100
AcDbEntity
  8
ZH0
  6
CONTINUOUS
 62
3
100
AcDbLine
 10
382.1307221322535
 20
92.46822439133501
 30
0.0000000000000000
 11
385.1307221322535
 21
92.46822439133265
 31
0.0000000000000000
  0
LINE
  5
485
100
AcDbEntity
  8
ZH0
  6
CONTINUOUS
 62
3
100
AcDbLine
 10
342.0907221322527
 20
91.76822439136643
 30
0.0000000000000000
 11
366.4507221322530
 21
91.76822439134733
 31
0.0000000000000000
  0
LINE
  5
486
100
AcDbEntity
  8
ZH0
  6
CONTINUOUS
 62
3
100
AcDbLine
 10
385.1307221322530
 20
91.76822439133265
 30
0.0000000000000000
 11
416.4907221322528
 21
91.76822439130807
 31
0.0000000000000000
  0
LINE
  5
487
100
AcDbEntity
  8
ZH0
  6
CONTINUOUS
 62
3
100
AcDbLine
 10
387.8407221322617
 20
99.76822439131320
 30
0.0000000000000000
 11
401.8407221322617
 21
99.76822439130223
 31
0.0000000000000000
  0
LINE
  5
488
100
AcDbEntity
  8
ZH0
  6
CONTINUOUS
 62
3
100
AcDbLine
 10
401.8407221322618
 20
99.76822439130220
 30
0.0000000000000000
 11
401.8407221322917
 21
126.7682243912952
 31
0.0000000000000000
  0
LINE
  5
489
100
AcDbEntity
  8
ZH0
  6
CONTINUOUS
 62
3
100
AcDbLine
 10
387.8407221322618
 20
99.76822439131317
 30
0.0000000000000000
 11
387.8407221322917
 21
126.7682243913108
 31
0.0000000000000000
  0
LINE
  5
48A
100
AcDbEntity
  8
ZH0
  6
CONTINUOUS
 62
3
100
AcDbLine
 10
399.0907221322568
 20
95.26822439130439
 30
0.0000000000000000
 11
399.0907221322618
 21
99.76822439130439
 31
0.0000000000000000
  0
LINE
  5
48B
100
AcDbEntity
  8
ZH0
  6
CONTINUOUS
 62
3
100
AcDbLine
 10
390.5907221322568
 20
95.26822439131104
 30
0.0000000000000000
 11
390.5907221322618
 21
99.76822439131102
 31
0.0000000000000000
  0
LINE
  5
48C
100
AcDbEntity
  8
ZH0
  6
CONTINUOUS
 62
3
100
AcDbLine
 10
396.2768627937401
 20
91.76822439130658
 30
0.0000000000000000
 11
396.2768627937401
 21
95.26822439130658
 31
0.0000000000000000
  0
LINE
  5
48D
100
AcDbEntity
  8
ZH0
  6
CONTINUOUS
 62
3
100
AcDbLine
 10
393.4045814705530
 20
91.76822439130885
 30
0.0000000000000000
 11
393.4045814705530
 21
95.26822439130885
 31
0.0000000000000000
  0
LINE
  5
48E
100
AcDbEntity
  8
ZH0
  6
CONTINUOUS
 62
3
100
AcDbLine
 10
358.1768627937398
 20
95.26822439135376
 30
0.0000000000000000
 11
393.4045814705530
 21
95.26822439132616
 31
0.0000000000000000
  0
LINE
  5
48F
100
AcDbEntity
  8
ZH0
  6
CONTINUOUS
 62
3
100
AcDbLine
 10
396.2768627937400
 20
95.26822439132388
 30
0.0000000000000000
 11
416.7907221322565
 21
95.26822439130774
 31
0.0000000000000000
  0
LINE
  5
490
100
AcDbEntity
  8
ZH0
  6
CONTINUOUS
 62
3
100
AcDbLine
 10
415.7907221322915
 20
126.7682243913087
 30
0.0000000000000000
 11
416.7907221322904
 21
125.7682243913079
 31
0.0000000000000000
  0
LINE
  5
491
100
AcDbEntity
  8
ZH0
  6
CONTINUOUS
 62
3
100
AcDbLine
 10
342.7907221322915
 20
126.7682243913659
 30
0.0000000000000000
 11
341.7907221322904
 21
125.7682243913667
 31
0.0000000000000000
  0
LINE
  5
492
100
AcDbEntity
  8
ZH0
  6
CONTINUOUS
 62
3
100
AcDbLine
 10
341.7907221322531
 20
92.06822439136664
 30
0.0000000000000000
 11
342.0907221322528
 21
91.76822439136637
 31
0.0000000000000000
  0
LINE
  5
493
100
AcDbEntity
  8
ZH0
  6
CONTINUOUS
 62
3
100
AcDbLine
 10
416.4907221322528
 20
91.76822439130802
 30
0.0000000000000000
 11
416.7907221322531
 21
92.06822439130781
 31
0.0000000000000000
  0
LINE
  5
494
100
AcDbEntity
  8
ZH0
  6
CONTINUOUS
 62
3
100
AcDbLine
 10
402.1407221322917
 20
126.7682243913193
 30
0.0000000000000000
 11
401.8407221322913
 21
126.4682243913196
 31
0.0000000000000000
  0
LINE
  5
495
100
AcDbEntity
  8
ZH0
  6
CONTINUOUS
 62
3
100
AcDbLine
 10
387.5407221322918
 20
126.7682243913307
 30
0.0000000000000000
 11
387.8407221322914
 21
126.4682243913305
 31
0.0000000000000000
  0
LINE
  5
496
100
AcDbEntity
  8
ZH0
  6
CONTINUOUS
 62
3
100
AcDbLine
 10
364.0407221322915
 20
126.7682243913492
 30
0.0000000000000000
 11
363.7407221322911
 21
126.4682243913495
 31
0.0000000000000000
  0
LINE
  5
497
100
AcDbEntity
  8
ZH0
  6
CONTINUOUS
 62
3
100
AcDbLine
 10
349.4407221322915
 20
126.7682243913606
 30
0.0000000000000000
 11
349.7407221322911
 21
126.4682243913604
 31
0.0000000000000000
  0
DIMENSION
  5
4A0
100
AcDbEntity
  8
ZH0
  6
CONTINUOUS
 62
3
100
AcDbDimension
  2
*D32
 10
341.7907221322531
 20
141.9000429452412
 30
0.0000000000000000
 11
379.2907221322531
 21
142.4000429452412
 31
0.0000000000000000
 70
32
  3
ZH004
100
AcDbAlignedDimension
 13
416.7907221322904
 23
125.7682243913078
 33
0.0000000000000000
 14
341.7907221322905
 24
125.7682243913666
 34
0.0000000000000000
100
AcDbRotatedDimension
1001
ACAD
1000
DSTYLE
1002
{
1070
   173
1070
     1
1070
     6
1000
_OPEN
1070
     7
1000
_OPEN
1070
    41
1040
2.000000
1002
}
  0
DIMENSION
  5
4A9
100
AcDbEntity
  8
ZH0
  6
CONTINUOUS
 62
3
100
AcDbDimension
  2
*D33
 10
434.7986108042990
 20
88.76822439134531
 30
0.0000000000000000
 11
434.2986108042990
 21
107.7682243913557
 31
0.0000000000000000
 70
32
  3
ZH004
100
AcDbAlignedDimension
 13
415.7907221322915
 23
126.7682243913086
 33
0.0000000000000000
 14
382.1307221322495
 24
88.76822439133505
 34
0.0000000000000000
 50
90.00000000000000
100
AcDbRotatedDimension
1001
ACAD
1000
DSTYLE
1002
{
1070
   173
1070
     1
1070
     6
1000
_OPEN
1070
     7
1000
_OPEN
1070
    41
1040
2.000000
1002
}
  0
DIMENSION
  5
4B2
100
AcDbEntity
  8
ZH0
  6
CONTINUOUS
 62
3
100
AcDbDimension
  2
*D34
 10
375.7907221322436
 20
72.60948741033678
 30
0.0000000000000000
 11
385.3157221322451
 21
73.10948741033678
 31
0.0000000000000000
 70
32
  3
ZH004
100
AcDbAlignedDimension
 13
394.8407221322465
 23
86.03166307310664
 33
0.0000000000000000
 14
375.7907221322436
 24
83.50783867014371
 34
0.0000000000000000
100
AcDbRotatedDimension
1001
ACAD
1000
DSTYLE
1002
{
1070
   173
1070
     1
1070
     6
1000
_OPEN
1070
     7
1000
_OPEN
1070
    41
1040
2.000000
1002
}
  0
DIMENSION
  5
4BB
100
AcDbEntity
  8
ZH0
  6
CONTINUOUS
 62
3
100
AcDbDimension
  2
*D35
 10
375.7907221322436
 20
72.60948741033678
 30
0.0000000000000000
 11
366.2657221322436
 21
73.10948741033678
 31
0.0000000000000000
 70
32
  3
ZH004
100
AcDbAlignedDimension
 13
356.7407221322437
 23
83.62255439744629
 33
0.0000000000000000
 14
375.7907221322436
 24
83.50783867014371
 34
0.0000000000000000
100
AcDbRotatedDimension
1001
ACAD
1000
DSTYLE
1002
{
1070
   173
1070
     1
1070
     6
1000
_OPEN
1070
     7
1000
_OPEN
1070
    41
1040
2.000000
1002
}
  0
LINE
  5
4BC
100
AcDbEntity
  8
WAKU0
  6
CONTINUOUS
 62
3
100
AcDbLine
 10
412.0000000000000
 20
51.00000000000000
 30
0.0000000000000000
 11
582.0000000000000
 21
51.00000000000000
 31
0.0000000000000000
  0
LINE
  5
4BD
100
AcDbEntity
  8
WAKU0
  6
CONTINUOUS
 62
3
100
AcDbLine
 10
412.0000000000000
 20
51.00000000000000
 30
0.0000000000000000
 11
412.0000000000000
 21
12.00000000000000
 31
0.0000000000000000
  0
LINE
  5
4BE
100
AcDbEntity
  8
WAKU0
  6
CONTINUOUS
 62
3
100
AcDbLine
 10
484.0000000000000
 20
51.00000000000000
 30
0.0000000000000000
 11
484.0000000000000
 21
12.00000000000000
 31
0.0000000000000000
  0
LINE
  5
4BF
100
AcDbEntity
  8
WAKU0
  6
CONTINUOUS
 62
3
100
AcDbLine
 10
504.0000000000000
 20
51.00000000000000
 30
0.0000000000000000
 11
504.0000000000000
 21
12.00000000000000
 31
0.0000000000000000
  0
LINE
  5
4C0
100
AcDbEntity
  8
WAKU0
  6
CONTINUOUS
 62
3
100
AcDbLine
 10
516.0000000000000
 20
51.00000000000000
 30
0.0000000000000000
 11
516.0000000000000
 21
12.00000000000000
 31
0.0000000000000000
  0
LINE
  5
4C1
100
AcDbEntity
  8
WAKU0
  6
CONTINUOUS
 62
3
100
AcDbLine
 10
516.0000000000000
 20
37.00000000000000
 30
0.0000000000000000
 11
582.0000000000000
 21
37.00000000000000
 31
0.0000000000000000
  0
LINE
  5
4C2
100
AcDbEntity
  8
WAKU0
  6
CONTINUOUS
 62
3
100
AcDbLine
 10
504.0000000000000
 20
23.00000000000000
 30
0.0000000000000000
 11
582.0000000000000
 21
23.00000000000000
 31
0.0000000000000000
  0
LINE
  5
4C3
100
AcDbEntity
  8
WAKU0
  6
CONTINUOUS
 62
3
100
AcDbLine
 10
547.0000000000000
 20
51.00000000000000
 30
0.0000000000000000
 11
547.0000000000000
 21
44.00000000000000
 31
0.0000000000000000
  0
LINE
  5
4C4
100
AcDbEntity
  8
WAKU0
  6
CONTINUOUS
 62
3
100
AcDbLine
 10
559.0000000000000
 20
51.00000000000000
 30
0.0000000000000000
 11
559.0000000000000
 21
44.00000000000000
 31
0.0000000000000000
  0
LINE
  5
4C5
100
AcDbEntity
  8
WAKU0
  6
CONTINUOUS
 62
3
100
AcDbLine
 10
484.0000000000000
 20
31.50000000000000
 30
0.0000000000000000
 11
504.0000000000000
 21
31.50000000000000
 31
0.0000000000000000
  0
LINE
  5
4C6
100
AcDbEntity
  8
WAKU0
  6
CONTINUOUS
 62
3
100
AcDbLine
 10
504.0000000000000
 20
44.00000000000000
 30
0.0000000000000000
 11
582.0000000000000
 21
44.00000000000000
 31
0.0000000000000000
  0
LINE
  5
4C7
100
AcDbEntity
  8
WAKU0
  6
CONTINUOUS
 62
3
100
AcDbLine
 10
412.0000000000000
 20
37.00000000000000
 30
0.0000000000000000
 11
484.0000000000000
 21
37.00000000000000
 31
0.0000000000000000
  0
LINE
  5
4C8
100
AcDbEntity
  8
WAKU0
  6
CONTINUOUS
 62
3
100
AcDbLine
 10
412.0000000000000
 20
23.00000000000000
 30
0.0000000000000000
 11
484.0000000000000
 21
23.00000000000000
 31
0.0000000000000000
  0
LINE
  5
4C9
100
AcDbEntity
  8
WAKU0
  6
CONTINUOUS
 62
3
100
AcDbLine
 10
460.0000000000000
 20
37.00000000000000
 30
0.0000000000000000
 11
460.0000000000000
 21
12.00000000000000
 31
0.0000000000000000
  0
LINE
  5
4CA
100
AcDbEntity
  8
WAKU0
  6
CONTINUOUS
 62
3
100
AcDbLine
 10
436.0000000000000
 20
37.00000000000000
 30
0.0000000000000000
 11
436.0000000000000
 21
23.00000000000000
 31
0.0000000000000000
  0
LINE
  5
4CB
100
AcDbEntity
  8
WAKU0
  6
CONTINUOUS
 62
3
100
AcDbLine
 10
472.0000000000000
 20
26.00000000000000
 30
0.0000000000000000
 11
472.0000000000000
 21
23.00000000000000
 31
0.0000000000000000
  0
LINE
  5
4CC
100
AcDbEntity
  8
WAKU0
  6
CONTINUOUS
 62
3
100
AcDbLine
 10
448.0000000000000
 20
26.00000000000000
 30
0.0000000000000000
 11
448.0000000000000
 21
23.00000000000000
 31
0.0000000000000000
  0
LINE
  5
4CD
100
AcDbEntity
  8
WAKU0
  6
CONTINUOUS
 62
3
100
AcDbLine
 10
424.0000000000000
 20
26.00000000000000
 30
0.0000000000000000
 11
424.0000000000000
 21
23.00000000000000
 31
0.0000000000000000
  0
LINE
  5
4CE
100
AcDbEntity
  8
WAKU0
  6
CONTINUOUS
 62
3
100
AcDbLine
 10
430.0000000000000
 20
51.00000000000000
 30
0.0000000000000000
 11
430.0000000000000
 21
37.00000000000000
 31
0.0000000000000000
  0
LINE
  5
4CF
100
AcDbEntity
  8
WAKU0
  6
CONTINUOUS
 62
3
100
AcDbLine
 10
412.0000000000000
 20
45.00000000000000
 30
0.0000000000000000
 11
484.0000000000000
 21
45.00000000000000
 31
0.0000000000000000
  0
LINE
  5
4D0
100
AcDbEntity
  8
WAKU0
  6
HIDDEN
 62
3
100
AcDbLine
 10
532.5000000000000
 20
23.00000000000000
 30
0.0000000000000000
 11
532.5000000000000
 21
12.00000000000000
 31
0.0000000000000000
  0
LINE
  5
4D1
100
AcDbEntity
  8
WAKU0
  6
HIDDEN
 62
3
100
AcDbLine
 10
544.9000000000000
 20
23.00000000000000
 30
0.0000000000000000
 11
544.9000000000000
 21
12.00000000000000
 31
0.0000000000000000
  0
MTEXT
  5
4D2
100
AcDbEntity
  8
WAKU0
  6
CONTINUOUS
 62
3
100
AcDbMText
 10
516.4820000231266
 20
49.04999995231628
 30
0.0000000000000000
 40
3.099999904632568
 41
0.0000000000000000
 71
     1
 72
     1
  1
{\H0.92x;{JN06TN}}
 11
1.000000000000000
 21
0.0000000000000000
 31
0.0000000000000000
  7
STANDARD
  0
MTEXT
  5
4D3
100
AcDbEntity
  8
WAKU0
  6
CONTINUOUS
 62
3
100
AcDbMText
 10
517.1700016558170
 20
43.50000000000000
 30
0.0000000000000000
 40
3.000000000000000
 41
0.0000000000000000
 71
     1
 72
     1
  1
{\H0.94x;{スクロールチャック　６　　　　　　　\PＳＣＲＯＬＬ　ＣＨＵＣＫ　６　　　　　}}
 11
1.000000000000000
 21
0.0000000000000000
 31
0.0000000000000000
  7
KNJYOKO
  0
MTEXT
  5
4D4
100
AcDbEntity
  8
WAKU0
  6
CONTINUOUS
 62
3
100
AcDbMText
 10
517.8500011451542
 20
34.23333326975504
 30
0.0000000000000000
 40
3.099999904632568
 41
0.0000000000000000
 71
     1
 72
     1
  1
{\H0.71x;{ＪＮ０６ＴＮ　ガイケイ　　　　　　　　　　　　　\PＪＮ０６ＴＮ　ＯＵＴＳＩＤＥ　ＶＩＥＷ　　　　}}
 11
1.000000000000000
 21
0.0000000000000000
 31
0.0000000000000000
  7
KNJYOKO
  0
MTEXT
  5
4D5
100
AcDbEntity
  8
WAKU0
  6
CONTINUOUS
 62
3
100
AcDbMText
 10
490.0049998760223
 20
39.29999995231628
 30
0.0000000000000000
 40
3.099999904632568
 41
0.0000000000000000
 71
     1
 72
     1
  1
{\H0.90x;{1:1}}
 11
1.000000000000000
 21
0.0000000000000000
 31
0.0000000000000000
  7
STANDARD
  0
MTEXT
  5
4D6
100
AcDbEntity
  8
WAKU0
  6
CONTINUOUS
 62
3
100
AcDbMText
 10
481.1079998910427
 20
16.54999995231628
 30
0.0000000000000000
 40
3.099999904632568
 41
0.0000000000000000
 71
     1
 72
     1
  1
{\H0.81x;{ }}
 11
1.000000000000000
 21
0.0000000000000000
 31
0.0000000000000000
  7
STANDARD
  0
MTEXT
  5
4D7
100
AcDbEntity
  8
WAKU0
  6
CONTINUOUS
 62
3
100
AcDbMText
 10
546.4000001549721
 20
20.15000009536743
 30
0.0000000000000000
 40
5.300000190734863
 41
0.0000000000000000
 71
     1
 72
     1
  1
{\H0.90x;{6859}}
 11
1.000000000000000
 21
0.0000000000000000
 31
0.0000000000000000
  7
STANDARD
  0
MTEXT
  5
4D8
100
AcDbEntity
  8
WAKU0
  6
CONTINUOUS
 62
3
100
AcDbMText
 10
534.3000000834466
 20
20.15000009536743
 30
0.0000000000000000
 40
5.300000190734863
 41
0.0000000000000000
 71
     1
 72
     1
  1
{\H0.87x;{28}}
 11
1.000000000000000
 21
0.0000000000000000
 31
0.0000000000000000
  7
STANDARD
  0
MTEXT
  5
4D9
100
AcDbEntity
  8
WAKU0
  6
CONTINUOUS
 62
3
100
AcDbMText
 10
517.5000001192093
 20
20.15000009536743
 30
0.0000000000000000
 40
5.300000190734863
 41
0.0000000000000000
 71
     1
 72
     1
  1
{\H0.89x;{61S}}
 11
1.000000000000000
 21
0.0000000000000000
 31
0.0000000000000000
  7
STANDARD
  0
MTEXT
  5
4DA
100
AcDbEntity
  8
WAKU0
  6
CONTINUOUS
 62
3
100
AcDbMText
 10
572.0000000476837
 20
20.15000009536743
 30
0.0000000000000000
 40
5.300000190734863
 41
0.0000000000000000
 71
     1
 72
     1
  1
{\H0.81x;{1}}
 11
1.000000000000000
 21
0.0000000000000000
 31
0.0000000000000000
  7
STANDARD
  0
MTEXT
  5
4DB
100
AcDbEntity
  8
WAKU0
  6
CONTINUOUS
 62
3
100
AcDbMText
 10
481.1079998910427
 20
29.04999995231628
 30
0.0000000000000000
 40
3.099999904632568
 41
0.0000000000000000
 71
     1
 72
     1
  1
{\H0.81x;{ }}
 11
1.000000000000000
 21
0.0000000000000000
 31
0.0000000000000000
  7
STANDARD
  0
MTEXT
  5
4DC
100
AcDbEntity
  8
WAKU0
  6
CONTINUOUS
 62
3
100
AcDbMText
 10
481.1079998910427
 20
49.54999995231628
 30
0.0000000000000000
 40
3.099999904632568
 41
0.0000000000000000
 71
     1
 72
     1
  1
{\H0.81x;{ }}
 11
1.000000000000000
 21
0.0000000000000000
 31
0.0000000000000000
  7
STANDARD
  0
MTEXT
  5
4DD
100
AcDbEntity
  8
WAKU0
  6
CONTINUOUS
 62
3
100
AcDbMText
 10
572.0000000819564
 20
44.84999990463257
 30
0.0000000000000000
 40
5.300000190734863
 41
0.0000000000000000
 71
     7
 72
     1
  1
{\H0.81x;{ }}
 11
1.000000000000000
 21
0.0000000000000000
 31
0.0000000000000000
  7
STANDARD
  0
MTEXT
  5
4DE
100
AcDbEntity
  8
WAKU0
  6
CONTINUOUS
 62
3
100
AcDbMText
 10
461.3850002884865
 20
33.00000000000000
 30
0.0000000000000000
 40
3.000000000000000
 41
0.0000000000000000
 71
     7
 72
     1
  1
{\H0.93x;{DRAWN BY}}
 11
1.000000000000000
 21
0.0000000000000000
 31
0.0000000000000000
  7
STANDARD
  0
MTEXT
  5
4DF
100
AcDbEntity
  8
WAKU0
  6
CONTINUOUS
 62
3
100
AcDbMText
 10
441.2149997949600
 20
32.95000004768372
 30
0.0000000000000000
 40
3.099999904632568
 41
0.0000000000000000
 71
     7
 72
     1
  1
{\H0.92x;{CHIEF}}
 11
1.000000000000000
 21
0.0000000000000000
 31
0.0000000000000000
  7
STANDARD
  0
MTEXT
  5
4E0
100
AcDbEntity
  8
WAKU0
  6
CONTINUOUS
 62
3
100
AcDbMText
 10
414.4249997138977
 20
32.95000004768372
 30
0.0000000000000000
 40
3.099999904632568
 41
0.0000000000000000
 71
     7
 72
     1
  1
{\H0.92x;{MANAGER}}
 11
1.000000000000000
 21
0.0000000000000000
 31
0.0000000000000000
  7
STANDARD
  0
MTEXT
  5
4E1
100
AcDbEntity
  8
WAKU0
  6
CONTINUOUS
 62
3
100
AcDbMText
 10
413.0850002169609
 20
46.50000000000000
 30
0.0000000000000000
 40
3.000000000000000
 41
0.0000000000000000
 71
     7
 72
     1
  1
{\H0.92x;{CAREER}}
 11
1.000000000000000
 21
0.0000000000000000
 31
0.0000000000000000
  7
STANDARD
  0
MTEXT
  5
4E2
100
AcDbEntity
  8
WAKU0
  6
CONTINUOUS
 62
3
100
AcDbMText
 10
466.6099998354912
 20
18.95000004768372
 30
0.0000000000000000
 40
3.099999904632568
 41
0.0000000000000000
 71
     7
 72
     1
  1
{\H0.91x;{DATE}}
 11
1.000000000000000
 21
0.0000000000000000
 31
0.0000000000000000
  7
STANDARD
  0
MTEXT
  5
4E3
100
AcDbEntity
  8
WAKU0
  6
CONTINUOUS
 62
3
100
AcDbMText
 10
485.9000002145767
 20
26.50000000000000
 30
0.0000000000000000
 40
3.000000000000000
 41
0.0000000000000000
 71
     7
 72
     1
  1
{\H0.63x;{3RD ANGLE}}
 11
1.000000000000000
 21
0.0000000000000000
 31
0.0000000000000000
  7
STANDARD
  0
MTEXT
  5
4E4
100
AcDbEntity
  8
WAKU0
  6
CONTINUOUS
 62
3
100
AcDbMText
 10
487.2149997949600
 20
45.95000004768372
 30
0.0000000000000000
 40
3.099999904632568
 41
0.0000000000000000
 71
     7
 72
     1
  1
{\H0.92x;{SCALE}}
 11
1.000000000000000
 21
0.0000000000000000
 31
0.0000000000000000
  7
STANDARD
  0
MTEXT
  5
4E5
100
AcDbEntity
  8
WAKU0
  6
CONTINUOUS
 62
3
100
AcDbMText
 10
577.7000000476837
 20
46.00000000000000
 30
0.0000000000000000
 40
3.000000000000000
 41
0.0000000000000000
 71
     7
 72
     1
  1
{\H0.63x;{kg}}
 11
1.000000000000000
 21
0.0000000000000000
 31
0.0000000000000000
  7
STANDARD
  0
MTEXT
  5
4E6
100
AcDbEntity
  8
WAKU0
  6
CONTINUOUS
 62
3
100
AcDbMText
 10
547.6000001430512
 20
46.00000000000000
 30
0.0000000000000000
 40
3.000000000000000
 41
0.0000000000000000
 71
     7
 72
     1
  1
{\H0.63x;{WEIGHT}}
 11
1.000000000000000
 21
0.0000000000000000
 31
0.0000000000000000
  7
STANDARD
  0
MTEXT
  5
4E7
100
AcDbEntity
  8
WAKU0
  6
CONTINUOUS
 62
3
100
AcDbMText
 10
506.0049998760223
 20
18.13333336512248
 30
0.0000000000000000
 40
3.099999904632568
 41
0.0000000000000000
 71
     7
 72
     1
  1
{\H0.90x;{DRW\PNO.}}
 11
1.000000000000000
 21
0.0000000000000000
 31
0.0000000000000000
  7
STANDARD
  0
MTEXT
  5
4E8
100
AcDbEntity
  8
WAKU0
  6
CONTINUOUS
 62
3
100
AcDbMText
 10
504.6099998354912
 20
31.95000004768372
 30
0.0000000000000000
 40
3.099999904632568
 41
0.0000000000000000
 71
     7
 72
     1
  1
{\H0.91x;{NAME}}
 11
1.000000000000000
 21
0.0000000000000000
 31
0.0000000000000000
  7
STANDARD
  0
MTEXT
  5
4E9
100
AcDbEntity
  8
WAKU0
  6
CONTINUOUS
 62
3
100
AcDbMText
 10
504.6099998354912
 20
45.95000004768372
 30
0.0000000000000000
 40
3.099999904632568
 41
0.0000000000000000
 71
     7
 72
     1
  1
{\H0.91x;{TYPE}}
 11
1.000000000000000
 21
0.0000000000000000
 31
0.0000000000000000
  7
STANDARD
  0
LINE
  5
4EA
100
AcDbEntity
  8
WAKU0
  6
HIDDEN
 62
3
100
AcDbLine
 10
579.1599564743885
 20
13.84999990463257
 30
0.0000000000000000
 11
568.9400436209789
 21
13.84999990463257
 31
0.0000000000000000
  0
LINE
  5
4EB
100
AcDbEntity
  8
WAKU0
  6
HIDDEN
 62
3
100
AcDbLine
 10
579.1599564743885
 20
13.84999990463250
 30
0.0000000000000000
 11
574.0500000476851
 21
22.70070406014901
 31
0.0000000000000000
  0
LINE
  5
4EC
100
AcDbEntity
  8
WAKU0
  6
HIDDEN
 62
3
100
AcDbLine
 10
574.0500000476851
 20
22.70070406014902
 30
0.0000000000000000
 11
568.9400436209789
 21
13.84999990463248
 31
0.0000000000000000
  0
MTEXT
  5
4ED
100
AcDbEntity
  8
WAKU0
  6
CONTINUOUS
 62
3
100
AcDbMText
 10
419.0000009614873
 20
20.63471521698214
 30
0.0000000000000000
 40
3.140094041824341
 41
0.0000000000000000
 71
     1
 72
     1
  1
{\H0.83x;{Ｋｉｔａｇａｗａ\PＣｏｒｐｏｒａｔｉｏｎ}}
 11
1.000000000000000
 21
0.0000000000000000
 31
0.0000000000000000
  7
KNJYOKO
  0
LINE
  5
4EE
100
AcDbEntity
  8
WAKU0
  6
CONTINUOUS
 62
3
100
AcDbLine
 10
502.4713877753800
 20
15.78041421262812
 30
0.0000000000000000
 11
502.4713877753800
 21
21.78041421262815
 31
0.0000000000000000
  0
LINE
  5
4EF
100
AcDbEntity
  8
WAKU0
  6
CONTINUOUS
 62
3
100
AcDbLine
 10
495.9336941228225
 20
17.28041421262811
 30
0.0000000000000000
 11
495.9336941228225
 21
20.28041421262824
 31
0.0000000000000000
  0
LINE
  5
4F0
100
AcDbEntity
  8
WAKU0
  6
CENTER
 62
12
100
AcDbLine
 10
485.4321805514995
 20
18.78041421262813
 30
0.0000000000000000
 11
503.2765788964694
 21
18.78041421262813
 31
0.0000000000000000
  0
LINE
  5
4F1
100
AcDbEntity
  8
WAKU0
  6
CENTER
 62
12
100
AcDbLine
 10
489.4474565857986
 20
14.55921662918448
 30
0.0000000000000000
 11
489.4474565857986
 21
22.89865102149943
 31
0.0000000000000000
  0
LINE
  5
4F2
100
AcDbEntity
  8
WAKU0
  6
CONTINUOUS
 62
3
100
AcDbLine
 10
495.9336941228225
 20
20.28041421262797
 30
0.0000000000000000
 11
502.4713877753800
 21
21.78041421262795
 31
0.0000000000000000
  0
LINE
  5
4F3
100
AcDbEntity
  8
WAKU0
  6
CONTINUOUS
 62
3
100
AcDbLine
 10
495.9336941228225
 20
17.28041421262811
 30
0.0000000000000000
 11
502.4713877753799
 21
15.78041421262812
 31
0.0000000000000000
  0
CIRCLE
  5
4F4
100
AcDbEntity
  8
WAKU0
  6
CONTINUOUS
 62
3
100
AcDbCircle
 10
489.4474565857986
 20
18.78041421262813
 30
0.0000000000000000
 40
1.499999999999972
  0
CIRCLE
  5
4F5
100
AcDbEntity
  8
WAKU0
  6
CONTINUOUS
 62
3
100
AcDbCircle
 10
489.4474565857986
 20
18.78041421262813
 30
0.0000000000000000
 40
2.999999999999979
  0
ENDSEC
  0
SECTION
  2
OBJECTS
  0
DICTIONARY
  5
55E
100
AcDbDictionary
  3
ACAD_GROUP
350
55F
  3
ACAD_MLINESTYLE
350
560
  3
DWGPROPS
350
561
  0
DICTIONARY
  5
55F
102
{ACAD_REACTORS
330
55E
102
}
100
AcDbDictionary
  0
DICTIONARY
  5
560
102
{ACAD_REACTORS
330
55E
102
}
100
AcDbDictionary
  3
STANDARD
350
562
  0
MLINESTYLE
  5
562
102
{ACAD_REACTORS
330
560
102
}
100
AcDbMlineStyle
  2
STANDARD
 70
     0
  3

 62
   256
 51
90.00
 52
90.00
 71
     2
 49
0.50
 62
   256
  6
BYLAYER
 49
-0.50
 62
   256
  6
BYLAYER
  0
XRECORD
  5
561
102
{ACAD_REACTORS
330
55E
102
}
100
AcDbXrecord
280
     1
  1
DWGPROPS COOKIE
  2
ＪＮ０６Ｔ１０２　クミタテ
  3

  4

  6
スクロールチャック　６
  7

  8

  9

300
=
301
=
302
=
303
=
304
=
305
=
306
=
307
=
308
=
309
=
 40
0.000000
 41
0.000000
 42
0.000000
  1

 90
        0
  0
ENDSEC
  0
EOF
