  0
SECTION
  2
HEADER
  9
$ACADVER
  1
AC1014
  9
$DWGCODEPAGE
  3
ANSI_932
  9
$LTSCALE
 40
20.0
  9
$FILLMODE
 70
     1
  9
$CLAYER
  8
0
  9
$PDMODE
 70
     0
  9
$SPLFRAME
 70
     0
  9
$SPLINETYPE
 70
     6
  9
$SPLINESEGS
 70
     8
  9
$DIMASZ
 40
2.000000
  9
$DIMEXE
 40
2.000000
  9
$DIMEXO
 40
0.800000
  9
$DIMTAD
 70
     1
  9
$DIMTIH
 70
     0
  9
$DIMTOH
 70
     0
  9
$DIMTVP
 40
0.500000
  9
$DIMTXT
 40
3.100000
  9
$EXTMIN
 10
0.000000
 20
0.000000
 30
0.000000
  9
$EXTMAX
 10
420.000000
 20
594.000000
 30
0.000000
  9
$MEASUREMENT
 70
  1
  9
$LIMMIN
 10
0.000000
 20
0.000000
  9
$LIMMAX
 10
420.000000
 20
594.000000
  9
$HANDLING
 70
     1
  9
$HANDSEED
  5
554
  9
$DIMBLK
  1
_OPEN
  9
$DIMDEC
 70
     3
  9
$DIMAUNIT
 70
     1
  9
$DIMZIN
 70
     8
  9
$DIMTOFL
 70
     1
  0
ENDSEC
  0
SECTION
  2
CLASSES
  0
ENDSEC
  0
SECTION
  2
TABLES
  0
TABLE
  2
VPORT
  5
4F5
100
AcDbSymbolTable
 70
     1
  0
VPORT
  5
4F6
100
AcDbSymbolTableRecord
100
AcDbViewportTableRecord
  2
*ACTIVE
 70
     0
 12
433.028821
 22
296.854976
 40
596.900660
 41
1.450924
  0
ENDTAB
  0
TABLE
  2
LTYPE
  5
4F7
100
AcDbSymbolTable
 70
     4
  0
LTYPE
  5
4F8
100
AcDbSymbolTableRecord
100
AcDbLinetypeTableRecord
  2
BYBLOCK
 70
     0
  3

 72
    65
 73
     0
 40
0.0
  0
LTYPE
  5
4F9
100
AcDbSymbolTableRecord
100
AcDbLinetypeTableRecord
  2
BYLAYER
 70
     0
  3

 72
    65
 73
     0
 40
0.0
  0
LTYPE
  5
4FA
100
AcDbSymbolTableRecord
100
AcDbLinetypeTableRecord
  2
CONTINUOUS
 70
     0
  3
Solid line (NEC CAE2D for Win R12.1 : 2019.02.20)
 72
    65
 73
     0
 40
0.0
  0
LTYPE
  5
4FB
100
AcDbSymbolTableRecord
100
AcDbLinetypeTableRecord
  2
HIDDEN
 70
     0
  3
__ __ __ __ __ __ __ __ __ __ __ __ __ __
 72
    65
 73
     2
 40
0.375
 49
0.25
 74
     0
 49
-0.125
 74
     0
  0
LTYPE
  5
4FC
100
AcDbSymbolTableRecord
100
AcDbLinetypeTableRecord
  2
CENTER
 70
     0
  3
____ _ ____ _ ____ _ ____ _ ____ _ ____
 72
    65
 73
     4
 40
2.0
 49
1.25
 74
     0
 49
-0.25
 74
     0
 49
0.25
 74
     0
 49
-0.25
 74
     0
  0
LTYPE
  5
4FD
100
AcDbSymbolTableRecord
100
AcDbLinetypeTableRecord
  2
PHANTOM
 70
     0
  3
______  __  __  ______  __  __  ______ 
 72
    65
 73
     6
 40
2.5
 49
1.25
 74
     0
 49
-0.25
 74
     0
 49
0.25
 74
     0
 49
-0.25
 74
     0
 49
0.25
 74
     0
 49
-0.25
 74
     0
  0
ENDTAB
  0
TABLE
  2
LAYER
  5
4FE
100
AcDbSymbolTable
 70
    16
  0
LAYER
  5
4FF
100
AcDbSymbolTableRecord
100
AcDbLayerTableRecord
  2
0
 70
     0
 62
     7
  6
CONTINUOUS
  0
LAYER
  5
500
100
AcDbSymbolTableRecord
100
AcDbLayerTableRecord
  2
MAIN0
 70
     0
 62
     7
  6
CONTINUOUS
  0
LAYER
  5
501
100
AcDbSymbolTableRecord
100
AcDbLayerTableRecord
  2
MAIN1023
 70
     0
 62
    16
  6
CONTINUOUS
  0
LAYER
  5
502
100
AcDbSymbolTableRecord
100
AcDbLayerTableRecord
  2
A0
 70
     0
 62
     7
  6
CONTINUOUS
  0
LAYER
  5
503
100
AcDbSymbolTableRecord
100
AcDbLayerTableRecord
  2
A1
 70
     0
 62
     7
  6
CONTINUOUS
  0
LAYER
  5
504
100
AcDbSymbolTableRecord
100
AcDbLayerTableRecord
  2
A2
 70
     0
 62
     5
  6
CONTINUOUS
  0
LAYER
  5
505
100
AcDbSymbolTableRecord
100
AcDbLayerTableRecord
  2
A3
 70
     0
 62
    14
  6
CONTINUOUS
  0
LAYER
  5
506
100
AcDbSymbolTableRecord
100
AcDbLayerTableRecord
  2
A4
 70
     0
 62
     9
  6
CONTINUOUS
  0
LAYER
  5
507
100
AcDbSymbolTableRecord
100
AcDbLayerTableRecord
  2
A5
 70
     0
 62
     9
  6
CONTINUOUS
  0
LAYER
  5
508
100
AcDbSymbolTableRecord
100
AcDbLayerTableRecord
  2
A6
 70
     0
 62
    10
  6
CONTINUOUS
  0
LAYER
  5
509
100
AcDbSymbolTableRecord
100
AcDbLayerTableRecord
  2
A7
 70
     0
 62
     7
  6
CONTINUOUS
  0
LAYER
  5
50A
100
AcDbSymbolTableRecord
100
AcDbLayerTableRecord
  2
A8
 70
     0
 62
    12
  6
CONTINUOUS
  0
LAYER
  5
50B
100
AcDbSymbolTableRecord
100
AcDbLayerTableRecord
  2
A9
 70
     0
 62
     8
  6
CONTINUOUS
  0
LAYER
  5
50C
100
AcDbSymbolTableRecord
100
AcDbLayerTableRecord
  2
A1023
 70
     0
 62
    16
  6
CONTINUOUS
  0
LAYER
  5
50D
100
AcDbSymbolTableRecord
100
AcDbLayerTableRecord
  2
WAKU0
 70
     0
 62
     7
  6
CONTINUOUS
  0
LAYER
  5
50E
100
AcDbSymbolTableRecord
100
AcDbLayerTableRecord
  2
WAKU1023
 70
     0
 62
    16
  6
CONTINUOUS
  0
ENDTAB
  0
TABLE
  2
STYLE
  5
50F
100
AcDbSymbolTable
 70
     4
  0
STYLE
  5
510
100
AcDbSymbolTableRecord
100
AcDbTextStyleTableRecord
  2
STANDARD
 70
    64
 40
0.0
 41
1.0
 50
0.0
 71
     0
 42
3.140094041824341
  3
TXT
  4

  0
STYLE
  5
511
100
AcDbSymbolTableRecord
100
AcDbTextStyleTableRecord
  2
ANKTATE
 70
    68
 40
0.0
 41
1.0
 50
0.0
 71
     0
 42
3.140094041824341
  3
TXT
  4

  0
STYLE
  5
1A2
100
AcDbSymbolTableRecord
100
AcDbTextStyleTableRecord
  2
KNJYOKO
 70
    64
 40
0.0
 41
1.0
 50
0.0
 71
     0
 42
3.140094041824341
  3
TXT
  4
BIGFONT
  0
STYLE
  5
512
100
AcDbSymbolTableRecord
100
AcDbTextStyleTableRecord
  2
KNJTATE
 70
    68
 40
0.0
 41
1.0
 50
0.0
 71
     0
 42
3.140094041824341
  3
TXT
  4
BIGFONT
  0
ENDTAB
  0
TABLE
  2
VIEW
  5
513
100
AcDbSymbolTable
 70
     0
  0
ENDTAB
  0
TABLE
  2
UCS
  5
514
100
AcDbSymbolTable
 70
     0
  0
ENDTAB
  0
TABLE
  2
APPID
  5
515
100
AcDbSymbolTable
 70
     1
  0
APPID
  5
516
100
AcDbSymbolTableRecord
100
AcDbRegAppTableRecord
  2
ACAD
 70
     0
  0
ENDTAB
  0
TABLE
  2
DIMSTYLE
  5
517
100
AcDbSymbolTable
 70
     1
  0
DIMSTYLE
105
518
100
AcDbSymbolTableRecord
100
AcDbDimStyleTableRecord
  2
STANDARD
 70
     0
 41
2.000000
 44
2.000000
 42
0.800000
145
0.661290
140
3.100000
144
1.000000
146
0.903226
340
510
  0
DIMSTYLE
105
519
100
AcDbSymbolTableRecord
100
AcDbDimStyleTableRecord
  2
MAIN001
 70
     0
 41
3.000000
 44
3.000000
 42
1.200000
145
0.607527
140
4.650000
144
1.000000
146
0.903226
 77
     1
 73
     0
 74
     0
271
     3
275
     1
 78
     8
172
     1
340
510
  0
DIMSTYLE
105
51A
100
AcDbSymbolTableRecord
100
AcDbDimStyleTableRecord
  2
A002
 70
     0
 41
3.000000
 44
3.000000
 42
1.200000
145
0.607527
140
4.650000
144
1.000000
146
0.903226
 77
     1
 73
     0
 74
     0
271
     3
275
     1
 78
     8
172
     1
340
510
  0
DIMSTYLE
105
51B
100
AcDbSymbolTableRecord
100
AcDbDimStyleTableRecord
  2
WAKU003
 70
     0
 41
2.000000
 44
2.000000
 42
0.800000
145
0.661290
140
3.100000
144
1.000000
146
0.903226
 77
     1
 73
     0
 74
     0
271
     3
275
     1
 78
     8
172
     1
340
510
  0
ENDTAB
  0
TABLE
  2
BLOCK_RECORD
  5
51C
100
AcDbSymbolTable
 70
    57
  0
BLOCK_RECORD
  5
51D
100
AcDbSymbolTableRecord
100
AcDbBlockTableRecord
  2
*MODEL_SPACE
  0
BLOCK_RECORD
  5
51E
100
AcDbSymbolTableRecord
100
AcDbBlockTableRecord
  2
*PAPER_SPACE
  0
BLOCK_RECORD
  5
1
100
AcDbSymbolTableRecord
100
AcDbBlockTableRecord
  2
_NONE
  0
BLOCK_RECORD
  5
4
100
AcDbSymbolTableRecord
100
AcDbBlockTableRecord
  2
_CLOSED
  0
BLOCK_RECORD
  5
B
100
AcDbSymbolTableRecord
100
AcDbBlockTableRecord
  2
_DOT
  0
BLOCK_RECORD
  5
13
100
AcDbSymbolTableRecord
100
AcDbBlockTableRecord
  2
_OPEN
  0
BLOCK_RECORD
  5
19
100
AcDbSymbolTableRecord
100
AcDbBlockTableRecord
  2
_ORIGIN
  0
BLOCK_RECORD
  5
1E
100
AcDbSymbolTableRecord
100
AcDbBlockTableRecord
  2
_OPEN30
  0
BLOCK_RECORD
  5
24
100
AcDbSymbolTableRecord
100
AcDbBlockTableRecord
  2
_BOXFILLED
  0
BLOCK_RECORD
  5
29
100
AcDbSymbolTableRecord
100
AcDbBlockTableRecord
  2
_BOXBLANK
  0
BLOCK_RECORD
  5
31
100
AcDbSymbolTableRecord
100
AcDbBlockTableRecord
  2
_OBLIQUE
  0
BLOCK_RECORD
  5
35
100
AcDbSymbolTableRecord
100
AcDbBlockTableRecord
  2
_OPEN90
  0
BLOCK_RECORD
  5
3B
100
AcDbSymbolTableRecord
100
AcDbBlockTableRecord
  2
_CLOSEDBLANK
  0
BLOCK_RECORD
  5
41
100
AcDbSymbolTableRecord
100
AcDbBlockTableRecord
  2
_DOTBLANK
  0
BLOCK_RECORD
  5
51F
100
AcDbSymbolTableRecord
100
AcDbBlockTableRecord
  2
*D0
  0
BLOCK_RECORD
  5
520
100
AcDbSymbolTableRecord
100
AcDbBlockTableRecord
  2
*D1
  0
BLOCK_RECORD
  5
521
100
AcDbSymbolTableRecord
100
AcDbBlockTableRecord
  2
*D2
  0
BLOCK_RECORD
  5
522
100
AcDbSymbolTableRecord
100
AcDbBlockTableRecord
  2
*D3
  0
BLOCK_RECORD
  5
523
100
AcDbSymbolTableRecord
100
AcDbBlockTableRecord
  2
*D4
  0
BLOCK_RECORD
  5
524
100
AcDbSymbolTableRecord
100
AcDbBlockTableRecord
  2
*D5
  0
BLOCK_RECORD
  5
525
100
AcDbSymbolTableRecord
100
AcDbBlockTableRecord
  2
*D6
  0
BLOCK_RECORD
  5
526
100
AcDbSymbolTableRecord
100
AcDbBlockTableRecord
  2
*D7
  0
BLOCK_RECORD
  5
527
100
AcDbSymbolTableRecord
100
AcDbBlockTableRecord
  2
*D8
  0
BLOCK_RECORD
  5
528
100
AcDbSymbolTableRecord
100
AcDbBlockTableRecord
  2
*D9
  0
BLOCK_RECORD
  5
529
100
AcDbSymbolTableRecord
100
AcDbBlockTableRecord
  2
*D10
  0
BLOCK_RECORD
  5
52A
100
AcDbSymbolTableRecord
100
AcDbBlockTableRecord
  2
*D11
  0
BLOCK_RECORD
  5
52B
100
AcDbSymbolTableRecord
100
AcDbBlockTableRecord
  2
*D12
  0
BLOCK_RECORD
  5
52C
100
AcDbSymbolTableRecord
100
AcDbBlockTableRecord
  2
*D13
  0
BLOCK_RECORD
  5
52D
100
AcDbSymbolTableRecord
100
AcDbBlockTableRecord
  2
*D14
  0
BLOCK_RECORD
  5
52E
100
AcDbSymbolTableRecord
100
AcDbBlockTableRecord
  2
*D15
  0
BLOCK_RECORD
  5
52F
100
AcDbSymbolTableRecord
100
AcDbBlockTableRecord
  2
*D16
  0
BLOCK_RECORD
  5
530
100
AcDbSymbolTableRecord
100
AcDbBlockTableRecord
  2
*D17
  0
BLOCK_RECORD
  5
531
100
AcDbSymbolTableRecord
100
AcDbBlockTableRecord
  2
*D18
  0
BLOCK_RECORD
  5
532
100
AcDbSymbolTableRecord
100
AcDbBlockTableRecord
  2
*D19
  0
BLOCK_RECORD
  5
533
100
AcDbSymbolTableRecord
100
AcDbBlockTableRecord
  2
*D20
  0
BLOCK_RECORD
  5
534
100
AcDbSymbolTableRecord
100
AcDbBlockTableRecord
  2
*D21
  0
BLOCK_RECORD
  5
535
100
AcDbSymbolTableRecord
100
AcDbBlockTableRecord
  2
*D22
  0
BLOCK_RECORD
  5
536
100
AcDbSymbolTableRecord
100
AcDbBlockTableRecord
  2
*D23
  0
BLOCK_RECORD
  5
537
100
AcDbSymbolTableRecord
100
AcDbBlockTableRecord
  2
*D24
  0
BLOCK_RECORD
  5
538
100
AcDbSymbolTableRecord
100
AcDbBlockTableRecord
  2
*D25
  0
BLOCK_RECORD
  5
539
100
AcDbSymbolTableRecord
100
AcDbBlockTableRecord
  2
*D26
  0
BLOCK_RECORD
  5
53A
100
AcDbSymbolTableRecord
100
AcDbBlockTableRecord
  2
*D27
  0
BLOCK_RECORD
  5
53B
100
AcDbSymbolTableRecord
100
AcDbBlockTableRecord
  2
*D28
  0
BLOCK_RECORD
  5
53C
100
AcDbSymbolTableRecord
100
AcDbBlockTableRecord
  2
*D29
  0
BLOCK_RECORD
  5
53D
100
AcDbSymbolTableRecord
100
AcDbBlockTableRecord
  2
*X0
  0
BLOCK_RECORD
  5
53E
100
AcDbSymbolTableRecord
100
AcDbBlockTableRecord
  2
*X1
  0
BLOCK_RECORD
  5
53F
100
AcDbSymbolTableRecord
100
AcDbBlockTableRecord
  2
*X2
  0
BLOCK_RECORD
  5
540
100
AcDbSymbolTableRecord
100
AcDbBlockTableRecord
  2
*X3
  0
BLOCK_RECORD
  5
541
100
AcDbSymbolTableRecord
100
AcDbBlockTableRecord
  2
*D30
  0
BLOCK_RECORD
  5
542
100
AcDbSymbolTableRecord
100
AcDbBlockTableRecord
  2
*D31
  0
BLOCK_RECORD
  5
543
100
AcDbSymbolTableRecord
100
AcDbBlockTableRecord
  2
*D32
  0
BLOCK_RECORD
  5
544
100
AcDbSymbolTableRecord
100
AcDbBlockTableRecord
  2
*D33
  0
BLOCK_RECORD
  5
545
100
AcDbSymbolTableRecord
100
AcDbBlockTableRecord
  2
*D34
  0
BLOCK_RECORD
  5
546
100
AcDbSymbolTableRecord
100
AcDbBlockTableRecord
  2
*X4
  0
BLOCK_RECORD
  5
547
100
AcDbSymbolTableRecord
100
AcDbBlockTableRecord
  2
*X5
  0
BLOCK_RECORD
  5
548
100
AcDbSymbolTableRecord
100
AcDbBlockTableRecord
  2
*X6
  0
BLOCK_RECORD
  5
549
100
AcDbSymbolTableRecord
100
AcDbBlockTableRecord
  2
*X7
  0
BLOCK_RECORD
  5
54A
100
AcDbSymbolTableRecord
100
AcDbBlockTableRecord
  2
M0
  0
BLOCK_RECORD
  5
54B
100
AcDbSymbolTableRecord
100
AcDbBlockTableRecord
  2
M1
  0
ENDTAB
  0
ENDSEC
  0
SECTION
  2
BLOCKS
  0
BLOCK
  5
54C
100
AcDbEntity
  8
0
100
AcDbBlockBegin
  2
*MODEL_SPACE
 70
     0
 10
0.0
 20
0.0
 30
0.0
  3
*MODEL_SPACE
  1

  0
ENDBLK
  5
54D
100
AcDbEntity
  8
0
100
AcDbBlockEnd
  0
BLOCK
  5
54E
100
AcDbEntity
  8
0
100
AcDbBlockBegin
  2
*PAPER_SPACE
 70
     0
 10
0.0
 20
0.0
 30
0.0
  3
*PAPER_SPACE
  1

  0
ENDBLK
  5
54F
100
AcDbEntity
  8
0
100
AcDbBlockEnd
  0
BLOCK
  5
2
100
AcDbEntity
  8
0
100
AcDbBlockBegin
  2
_NONE
 70
     0
 10
0.0
 20
0.0
 30
0.0
  3
_NONE
  1

  0
ENDBLK
  5
3
100
AcDbEntity
  8
0
100
AcDbBlockEnd
  0
BLOCK
  5
5
100
AcDbEntity
  8
0
100
AcDbBlockBegin
  2
_CLOSED
 70
     0
 10
0.0
 20
0.0
 30
0.0
  3
_CLOSED
  1

  0
LINE
  5
6
100
AcDbEntity
  8
0
  6
BYBLOCK
 62
     0
100
AcDbLine
 10
-1.0
 20
0.166667
 30
0.0
 11
0.0
 21
0.0
 31
0.0
  0
LINE
  5
7
100
AcDbEntity
  8
0
  6
BYBLOCK
 62
     0
100
AcDbLine
 10
0.0
 20
0.0
 30
0.0
 11
-1.0
 21
-0.166667
 31
0.0
  0
LINE
  5
8
100
AcDbEntity
  8
0
  6
BYBLOCK
 62
     0
100
AcDbLine
 10
-1.0
 20
0.166667
 30
0.0
 11
-1.0
 21
-0.166667
 31
0.0
  0
LINE
  5
9
100
AcDbEntity
  8
0
  6
BYBLOCK
 62
     0
100
AcDbLine
 10
0.0
 20
0.0
 30
0.0
 11
-1.0
 21
0.0
 31
0.0
  0
ENDBLK
  5
A
100
AcDbEntity
  8
0
100
AcDbBlockEnd
  0
BLOCK
  5
C
100
AcDbEntity
  8
0
100
AcDbBlockBegin
  2
_DOT
 70
     0
 10
0.0
 20
0.0
 30
0.0
  3
_DOT
  1

  0
POLYLINE
  5
D
100
AcDbEntity
  8
0
  6
BYBLOCK
 62
     0
100
AcDb2dPolyline
 66
     1
 10
0.0
 20
0.0
 30
0.0
 70
     1
 40
0.5
 41
0.5
  0
VERTEX
  5
E
100
AcDbEntity
  8
0
  6
BYBLOCK
 62
     0
100
AcDbVertex
100
AcDb2dVertex
 10
-0.25
 20
0.0
 30
0.0
 42
1.0
  0
VERTEX
  5
F
100
AcDbEntity
  8
0
  6
BYBLOCK
 62
     0
100
AcDbVertex
100
AcDb2dVertex
 10
0.25
 20
0.0
 30
0.0
 42
1.0
  0
SEQEND
  5
10
100
AcDbEntity
  8
0
  6
BYBLOCK
 62
     0
  0
LINE
  5
11
100
AcDbEntity
  8
0
  6
BYBLOCK
 62
     0
100
AcDbLine
 10
-0.5
 20
0.0
 30
0.0
 11
-1.0
 21
0.0
 31
0.0
  0
ENDBLK
  5
12
100
AcDbEntity
  8
0
100
AcDbBlockEnd
  0
BLOCK
  5
14
100
AcDbEntity
  8
0
100
AcDbBlockBegin
  2
_OPEN
 70
     0
 10
0.0
 20
0.0
 30
0.0
  3
_OPEN
  1

  0
LINE
  5
15
100
AcDbEntity
  8
0
  6
BYBLOCK
 62
     0
100
AcDbLine
 10
-1.0
 20
0.166667
 30
0.0
 11
0.0
 21
0.0
 31
0.0
  0
LINE
  5
16
100
AcDbEntity
  8
0
  6
BYBLOCK
 62
     0
100
AcDbLine
 10
0.0
 20
0.0
 30
0.0
 11
-1.0
 21
-0.166667
 31
0.0
  0
LINE
  5
17
100
AcDbEntity
  8
0
  6
BYBLOCK
 62
     0
100
AcDbLine
 10
0.0
 20
0.0
 30
0.0
 11
-1.0
 21
0.0
 31
0.0
  0
ENDBLK
  5
18
100
AcDbEntity
  8
0
100
AcDbBlockEnd
  0
BLOCK
  5
1A
100
AcDbEntity
  8
0
100
AcDbBlockBegin
  2
_ORIGIN
 70
     0
 10
0.0
 20
0.0
 30
0.0
  3
_ORIGIN
  1

  0
CIRCLE
  5
1B
100
AcDbEntity
  8
0
  6
BYBLOCK
 62
     0
100
AcDbCircle
 10
0.0
 20
0.0
 30
0.0
 40
0.5
  0
LINE
  5
1C
100
AcDbEntity
  8
0
  6
BYBLOCK
 62
     0
100
AcDbLine
 10
0.0
 20
0.0
 30
0.0
 11
-1.0
 21
0.0
 31
0.0
  0
ENDBLK
  5
1D
100
AcDbEntity
  8
0
100
AcDbBlockEnd
  0
BLOCK
  5
1F
100
AcDbEntity
  8
0
100
AcDbBlockBegin
  2
_OPEN30
 70
     0
 10
0.0
 20
0.0
 30
0.0
  3
_OPEN30
  1

  0
LINE
  5
20
100
AcDbEntity
  8
0
  6
BYBLOCK
 62
     0
100
AcDbLine
 10
-1.0
 20
0.267949
 30
0.0
 11
0.0
 21
0.0
 31
0.0
  0
LINE
  5
21
100
AcDbEntity
  8
0
  6
BYBLOCK
 62
     0
100
AcDbLine
 10
0.0
 20
0.0
 30
0.0
 11
-1.0
 21
-0.267949
 31
0.0
  0
LINE
  5
22
100
AcDbEntity
  8
0
  6
BYBLOCK
 62
     0
100
AcDbLine
 10
0.0
 20
0.0
 30
0.0
 11
-1.0
 21
0.0
 31
0.0
  0
ENDBLK
  5
23
100
AcDbEntity
  8
0
100
AcDbBlockEnd
  0
BLOCK
  5
25
100
AcDbEntity
  8
0
100
AcDbBlockBegin
  2
_BOXFILLED
 70
     0
 10
0.0
 20
0.0
 30
0.0
  3
_BOXFILLED
  1

  0
SOLID
  5
26
100
AcDbEntity
  8
0
  6
BYBLOCK
 62
     0
100
AcDbTrace
 10
-0.5
 20
0.5
 30
0.0
 11
0.5
 21
0.5
 31
0.0
 12
-0.5
 22
-0.5
 32
0.0
 13
0.5
 23
-0.5
 33
0.0
  0
LINE
  5
27
100
AcDbEntity
  8
0
  6
BYBLOCK
 62
     0
100
AcDbLine
 10
-0.5
 20
0.0
 30
0.0
 11
-1.0
 21
0.0
 31
0.0
  0
ENDBLK
  5
28
100
AcDbEntity
  8
0
100
AcDbBlockEnd
  0
BLOCK
  5
2A
100
AcDbEntity
  8
0
100
AcDbBlockBegin
  2
_BOXBLANK
 70
     0
 10
0.0
 20
0.0
 30
0.0
  3
_BOXBLANK
  1

  0
LINE
  5
2B
100
AcDbEntity
  8
0
  6
BYBLOCK
 62
     0
100
AcDbLine
 10
-0.5
 20
-0.5
 30
0.0
 11
0.5
 21
-0.5
 31
0.0
  0
LINE
  5
2C
100
AcDbEntity
  8
0
  6
BYBLOCK
 62
     0
100
AcDbLine
 10
0.5
 20
-0.5
 30
0.0
 11
0.5
 21
0.5
 31
0.0
  0
LINE
  5
2D
100
AcDbEntity
  8
0
  6
BYBLOCK
 62
     0
100
AcDbLine
 10
0.5
 20
0.5
 30
0.0
 11
-0.5
 21
0.5
 31
0.0
  0
LINE
  5
2E
100
AcDbEntity
  8
0
  6
BYBLOCK
 62
     0
100
AcDbLine
 10
-0.5
 20
0.5
 30
0.0
 11
-0.5
 21
-0.5
 31
0.0
  0
LINE
  5
2F
100
AcDbEntity
  8
0
  6
BYBLOCK
 62
     0
100
AcDbLine
 10
-0.5
 20
0.0
 30
0.0
 11
-1.0
 21
0.0
 31
0.0
  0
ENDBLK
  5
30
100
AcDbEntity
  8
0
100
AcDbBlockEnd
  0
BLOCK
  5
32
100
AcDbEntity
  8
0
100
AcDbBlockBegin
  2
_OBLIQUE
 70
     0
 10
0.0
 20
0.0
 30
0.0
  3
_OBLIQUE
  1

  0
LINE
  5
33
100
AcDbEntity
  8
0
  6
BYBLOCK
 62
     0
100
AcDbLine
 10
-0.5
 20
-0.5
 30
0.0
 11
0.5
 21
0.5
 31
0.0
  0
ENDBLK
  5
34
100
AcDbEntity
  8
0
100
AcDbBlockEnd
  0
BLOCK
  5
36
100
AcDbEntity
  8
0
100
AcDbBlockBegin
  2
_OPEN90
 70
     0
 10
0.0
 20
0.0
 30
0.0
  3
_OPEN90
  1

  0
LINE
  5
37
100
AcDbEntity
  8
0
  6
BYBLOCK
 62
     0
100
AcDbLine
 10
-0.5
 20
0.5
 30
0.0
 11
0.0
 21
0.0
 31
0.0
  0
LINE
  5
38
100
AcDbEntity
  8
0
  6
BYBLOCK
 62
     0
100
AcDbLine
 10
0.0
 20
0.0
 30
0.0
 11
-0.5
 21
-0.5
 31
0.0
  0
LINE
  5
39
100
AcDbEntity
  8
0
  6
BYBLOCK
 62
     0
100
AcDbLine
 10
0.0
 20
0.0
 30
0.0
 11
-1.0
 21
0.0
 31
0.0
  0
ENDBLK
  5
3A
100
AcDbEntity
  8
0
100
AcDbBlockEnd
  0
BLOCK
  5
3C
100
AcDbEntity
  8
0
100
AcDbBlockBegin
  2
_CLOSEDBLANK
 70
     0
 10
0.0
 20
0.0
 30
0.0
  3
_CLOSEDBLANK
  1

  0
LINE
  5
3D
100
AcDbEntity
  8
0
  6
BYBLOCK
 62
     0
100
AcDbLine
 10
-1.0
 20
0.1666666666666666
 30
0.0
 11
0.0
 21
0.0
 31
0.0
  0
LINE
  5
3E
100
AcDbEntity
  8
0
  6
BYBLOCK
 62
     0
100
AcDbLine
 10
0.0
 20
0.0
 30
0.0
 11
-1.0
 21
-0.1666666666666666
 31
0.0
  0
LINE
  5
3F
100
AcDbEntity
  8
0
  6
BYBLOCK
 62
     0
100
AcDbLine
 10
-1.0
 20
0.1666666666666666
 30
0.0
 11
-1.0
 21
-0.1666666666666666
 31
0.0
  0
ENDBLK
  5
40
100
AcDbEntity
  8
0
100
AcDbBlockEnd
  0
BLOCK
  5
42
100
AcDbEntity
  8
0
100
AcDbBlockBegin
  2
_DOTBLANK
 70
     0
 10
0.0
 20
0.0
 30
0.0
  3
_DOTBLANK
  1

  0
CIRCLE
  5
43
100
AcDbEntity
  8
0
  6
BYBLOCK
 62
     0
100
AcDbCircle
 10
0.0
 20
0.0
 30
0.0
 40
0.5
  0
LINE
  5
44
100
AcDbEntity
  8
0
  6
BYBLOCK
 62
     0
100
AcDbLine
 10
-0.5
 20
0.0
 30
0.0
 11
-1.0
 21
0.0
 31
0.0
  0
ENDBLK
  5
45
100
AcDbEntity
  8
0
100
AcDbBlockEnd
  0
BLOCK
  5
190
100
AcDbEntity
  8
MAIN0
  6
CONTINUOUS
 62
3
100
AcDbBlockBegin
  2
*D0
 70
    65
 10
0.0
 20
0.0
 30
0.0
  0
LINE
  5
191
100
AcDbEntity
  8
MAIN0
  6
BYBLOCK
 62
0
100
AcDbLine
 10
140.8576417014601
 20
494.9053058392985
 30
0.0000000000000000
 11
73.05764171934129
 21
494.9053058392985
 31
0.0000000000000000
  0
LINE
  5
192
100
AcDbEntity
  8
MAIN0
  6
BYBLOCK
 62
0
100
AcDbLine
 10
76.05764171934129
 20
491.9053058392985
 30
0.0000000000000000
 11
76.05764171934129
 21
187.9053058392985
 31
0.0000000000000000
  0
INSERT
  5
193
100
AcDbEntity
  8
MAIN0
  6
BYBLOCK
 62
0
100
AcDbBlockReference
  2
_OPEN
 10
76.05764171934129
 20
494.9053058392985
 30
0.0000000000000000
 41
3.000000000000000
 42
3.000000000000000
 43
3.000000000000000
 50
90.00000000000000
  0
INSERT
  5
194
100
AcDbEntity
  8
MAIN0
  6
BYBLOCK
 62
0
100
AcDbBlockReference
  2
_OPEN
 10
76.05764171934129
 20
184.9053058392985
 30
0.0000000000000000
 41
3.000000000000000
 42
3.000000000000000
 43
3.000000000000000
 50
270.0000000000000
  0
LINE
  5
195
100
AcDbEntity
  8
MAIN0
  6
BYBLOCK
 62
0
100
AcDbLine
 10
140.8576417014597
 20
184.9053058392984
 30
0.0000000000000000
 11
73.05764171934129
 21
184.9053058392985
 31
0.0000000000000000
  0
MTEXT
  5
196
100
AcDbEntity
  8
MAIN0
  6
BYBLOCK
 62
0
100
AcDbMText
 10
73.23264179086687
 20
339.9053058392985
 30
0.0000000000000000
 40
4.649999856948853
 41
0.0000000000000000
 71
     5
 72
     1
  1
\A1;\U+2205310
 11
6.123233995736766e-017
 21
1.000000000000000
 31
0.0000000000000000
  7
STANDARD
  0
ENDBLK
  5
197
100
AcDbEntity
  8
MAIN0
  6
CONTINUOUS
 62
3
100
AcDbBlockEnd
  0
BLOCK
  5
199
100
AcDbEntity
  8
MAIN0
  6
CONTINUOUS
 62
3
100
AcDbBlockBegin
  2
*D1
 70
    65
 10
0.0
 20
0.0
 30
0.0
  0
LINE
  5
19A
100
AcDbEntity
  8
MAIN0
  6
BYBLOCK
 62
0
100
AcDbLine
 10
138.8576417014601
 20
469.9053058392985
 30
0.0000000000000000
 11
88.05764171934129
 21
469.9053058392985
 31
0.0000000000000000
  0
LINE
  5
19B
100
AcDbEntity
  8
MAIN0
  6
BYBLOCK
 62
0
100
AcDbLine
 10
91.05764171934129
 20
466.9053058392985
 30
0.0000000000000000
 11
91.05764171934129
 21
212.9053058392985
 31
0.0000000000000000
  0
INSERT
  5
19C
100
AcDbEntity
  8
MAIN0
  6
BYBLOCK
 62
0
100
AcDbBlockReference
  2
_OPEN
 10
91.05764171934129
 20
469.9053058392985
 30
0.0000000000000000
 41
3.000000000000000
 42
3.000000000000000
 43
3.000000000000000
 50
90.00000000000000
  0
INSERT
  5
19D
100
AcDbEntity
  8
MAIN0
  6
BYBLOCK
 62
0
100
AcDbBlockReference
  2
_OPEN
 10
91.05764171934129
 20
209.9053058392985
 30
0.0000000000000000
 41
3.000000000000000
 42
3.000000000000000
 43
3.000000000000000
 50
270.0000000000000
  0
LINE
  5
19E
100
AcDbEntity
  8
MAIN0
  6
BYBLOCK
 62
0
100
AcDbLine
 10
138.8576417014598
 20
209.9053058392985
 30
0.0000000000000000
 11
88.05764171934129
 21
209.9053058392985
 31
0.0000000000000000
  0
MTEXT
  5
19F
100
AcDbEntity
  8
MAIN0
  6
BYBLOCK
 62
0
100
AcDbMText
 10
88.23264179086687
 20
339.9053058206721
 30
0.0000000000000000
 40
4.649999856948853
 41
0.0000000000000000
 71
     5
 72
     1
  1
\A1;\U+2205260H6\H0.903226x;\S＋0.032^ 　0;
 11
6.123233995736766e-017
 21
1.000000000000000
 31
0.0000000000000000
  7
KNJYOKO
  0
ENDBLK
  5
1A0
100
AcDbEntity
  8
MAIN0
  6
CONTINUOUS
 62
3
100
AcDbBlockEnd
  0
BLOCK
  5
1A3
100
AcDbEntity
  8
MAIN0
  6
CONTINUOUS
 62
3
100
AcDbBlockBegin
  2
*D2
 70
    65
 10
0.0
 20
0.0
 30
0.0
  0
LINE
  5
1A4
100
AcDbEntity
  8
MAIN0
  6
BYBLOCK
 62
0
100
AcDbLine
 10
293.2576417372226
 20
359.9053058392983
 30
0.0000000000000000
 11
314.0576417193413
 21
359.9053058392983
 31
0.0000000000000000
  0
LINE
  5
1A5
100
AcDbEntity
  8
MAIN0
  6
BYBLOCK
 62
0
100
AcDbLine
 10
311.0576417193413
 20
356.9053058392983
 30
0.0000000000000000
 11
311.0576417193413
 21
322.9053058392983
 31
0.0000000000000000
  0
INSERT
  5
1A6
100
AcDbEntity
  8
MAIN0
  6
BYBLOCK
 62
0
100
AcDbBlockReference
  2
_OPEN
 10
311.0576417193413
 20
359.9053058392983
 30
0.0000000000000000
 41
3.000000000000000
 42
3.000000000000000
 43
3.000000000000000
 50
90.00000000000000
  0
INSERT
  5
1A7
100
AcDbEntity
  8
MAIN0
  6
BYBLOCK
 62
0
100
AcDbBlockReference
  2
_OPEN
 10
311.0576417193413
 20
319.9053058392983
 30
0.0000000000000000
 41
3.000000000000000
 42
3.000000000000000
 43
3.000000000000000
 50
270.0000000000000
  0
LINE
  5
1A8
100
AcDbEntity
  8
MAIN0
  6
BYBLOCK
 62
0
100
AcDbLine
 10
293.2576417372226
 20
319.9053058392984
 30
0.0000000000000000
 11
314.0576417193413
 21
319.9053058392983
 31
0.0000000000000000
  0
MTEXT
  5
1A9
100
AcDbEntity
  8
MAIN0
  6
BYBLOCK
 62
0
100
AcDbMText
 10
308.2326417908669
 20
339.9053058392983
 30
0.0000000000000000
 40
4.649999856948853
 41
0.0000000000000000
 71
     5
 72
     1
  1
\A1;40
 11
6.123233995736766e-017
 21
1.000000000000000
 31
0.0000000000000000
  7
STANDARD
  0
ENDBLK
  5
1AA
100
AcDbEntity
  8
MAIN0
  6
CONTINUOUS
 62
3
100
AcDbBlockEnd
  0
BLOCK
  5
1AC
100
AcDbEntity
  8
MAIN0
  6
CONTINUOUS
 62
3
100
AcDbBlockBegin
  2
*D3
 70
    65
 10
0.0
 20
0.0
 30
0.0
  0
LINE
  5
1AD
100
AcDbEntity
  8
MAIN0
  6
BYBLOCK
 62
0
100
AcDbLine
 10
239.0576417193412
 20
309.9053058392985
 30
0.0000000000000000
 11
289.0576417193412
 21
309.9053058392985
 31
0.0000000000000000
  0
INSERT
  5
1AE
100
AcDbEntity
  8
MAIN0
  6
BYBLOCK
 62
0
100
AcDbBlockReference
  2
_OPEN
 10
236.0576417193412
 20
309.9053058392985
 30
0.0000000000000000
 41
3.000000000000000
 42
3.000000000000000
 43
3.000000000000000
 50
180.0000000000000
  0
INSERT
  5
1AF
100
AcDbEntity
  8
MAIN0
  6
BYBLOCK
 62
0
100
AcDbBlockReference
  2
_OPEN
 10
292.0576417193412
 20
309.9053058392985
 30
0.0000000000000000
 41
3.000000000000000
 42
3.000000000000000
 43
3.000000000000000
 50
0.0000000000000000
  0
LINE
  5
1B0
100
AcDbEntity
  8
MAIN0
  6
BYBLOCK
 62
0
100
AcDbLine
 10
292.0576417193412
 20
318.7053058214169
 30
0.0000000000000000
 11
292.0576417193412
 21
306.9053058392985
 31
0.0000000000000000
  0
MTEXT
  5
1B1
100
AcDbEntity
  8
MAIN0
  6
BYBLOCK
 62
0
100
AcDbMText
 10
264.0576417193412
 20
312.7303057677730
 30
0.0000000000000000
 40
4.649999856948853
 41
0.0000000000000000
 71
     5
 72
     1
  1
\A1;56
 11
1.000000000000000
 21
0.0000000000000000
 31
0.0000000000000000
  7
STANDARD
  0
ENDBLK
  5
1B2
100
AcDbEntity
  8
MAIN0
  6
CONTINUOUS
 62
3
100
AcDbBlockEnd
  0
BLOCK
  5
1B4
100
AcDbEntity
  8
MAIN0
  6
CONTINUOUS
 62
3
100
AcDbBlockBegin
  2
*D4
 70
    65
 10
0.0
 20
0.0
 30
0.0
  0
LINE
  5
1B5
100
AcDbEntity
  8
MAIN0
  6
BYBLOCK
 62
0
100
AcDbLine
 10
292.2576417372225
 20
297.9053058392983
 30
0.0000000000000000
 11
314.0576417193413
 21
297.9053058392983
 31
0.0000000000000000
  0
LINE
  5
1B6
100
AcDbEntity
  8
MAIN0
  6
BYBLOCK
 62
0
100
AcDbLine
 10
311.0576417193413
 20
294.9053058392983
 30
0.0000000000000000
 11
311.0576417193413
 21
185.9053058392984
 31
0.0000000000000000
  0
INSERT
  5
1B7
100
AcDbEntity
  8
MAIN0
  6
BYBLOCK
 62
0
100
AcDbBlockReference
  2
_OPEN
 10
311.0576417193413
 20
297.9053058392983
 30
0.0000000000000000
 41
3.000000000000000
 42
3.000000000000000
 43
3.000000000000000
 50
90.00000000000000
  0
INSERT
  5
1B8
100
AcDbEntity
  8
MAIN0
  6
BYBLOCK
 62
0
100
AcDbBlockReference
  2
_OPEN
 10
311.0576417193413
 20
182.9053058392984
 30
0.0000000000000000
 41
3.000000000000000
 42
3.000000000000000
 43
3.000000000000000
 50
270.0000000000000
  0
LINE
  5
1B9
100
AcDbEntity
  8
MAIN0
  6
BYBLOCK
 62
0
100
AcDbLine
 10
261.7576417372225
 20
182.9053058392984
 30
0.0000000000000000
 11
314.0576417193413
 21
182.9053058392985
 31
0.0000000000000000
  0
MTEXT
  5
1BA
100
AcDbEntity
  8
MAIN0
  6
BYBLOCK
 62
0
100
AcDbMText
 10
308.2326417908669
 20
240.4053058392984
 30
0.0000000000000000
 40
4.649999856948853
 41
0.0000000000000000
 71
     5
 72
     1
  1
\A1;115
 11
6.123233995736766e-017
 21
1.000000000000000
 31
0.0000000000000000
  7
STANDARD
  0
ENDBLK
  5
1BB
100
AcDbEntity
  8
MAIN0
  6
CONTINUOUS
 62
3
100
AcDbBlockEnd
  0
BLOCK
  5
1BD
100
AcDbEntity
  8
MAIN0
  6
CONTINUOUS
 62
3
100
AcDbBlockBegin
  2
*D5
 70
    65
 10
0.0
 20
0.0
 30
0.0
  0
LINE
  5
1BE
100
AcDbEntity
  8
MAIN0
  6
BYBLOCK
 62
0
100
AcDbLine
 10
181.5226006710157
 20
564.8398418236911
 30
0.0000000000000000
 11
192.9548409908524
 21
553.4076015038363
 31
0.0000000000000000
  0
LINE
  5
1BF
100
AcDbEntity
  8
MAIN0
  6
BYBLOCK
 62
0
100
AcDbLine
 10
188.7122003037331
 20
553.4076015038397
 30
0.0000000000000000
 11
183.0553460542362
 21
547.7507472543518
 31
0.0000000000000000
  0
INSERT
  5
1C0
100
AcDbEntity
  8
MAIN0
  6
BYBLOCK
 62
0
100
AcDbBlockReference
  2
_OPEN
 10
190.8335206472944
 20
555.5289218473977
 30
0.0000000000000000
 41
3.000000000000000
 42
3.000000000000000
 43
3.000000000000000
 50
44.99999999995453
  0
INSERT
  5
1C1
100
AcDbEntity
  8
MAIN0
  6
BYBLOCK
 62
0
100
AcDbBlockReference
  2
_OPEN
 10
180.9340257106749
 20
545.6294269107939
 30
0.0000000000000000
 41
3.000000000000000
 42
3.000000000000000
 43
3.000000000000000
 50
224.9999999999545
  0
LINE
  5
1C2
100
AcDbEntity
  8
MAIN0
  6
BYBLOCK
 62
0
100
AcDbLine
 10
190.8335206472944
 20
555.5289218473977
 30
0.0000000000000000
 11
210.1448672332612
 21
574.8402684333337
 31
0.0000000000000000
  0
LINE
  5
1C3
100
AcDbEntity
  8
MAIN0
  6
BYBLOCK
 62
0
100
AcDbLine
 10
171.6231057343975
 20
554.9403468870862
 30
0.0000000000000000
 11
183.0553460542329
 21
543.5081065672325
 31
0.0000000000000000
  0
MTEXT
  5
1C4
100
AcDbEntity
  8
MAIN0
  6
BYBLOCK
 62
0
100
AcDbMText
 10
200.0951120961597
 20
569.1392198993897
 30
0.0000000000000000
 40
4.649999856948853
 41
0.0000000000000000
 71
     5
 72
     1
  1
\A1;□14\H0.903226x;\S+0.15^ +0.05;
 11
0.7071067811871102
 21
0.7071067811859848
 31
0.0000000000000000
  7
KNJYOKO
  0
ENDBLK
  5
1C5
100
AcDbEntity
  8
MAIN0
  6
CONTINUOUS
 62
3
100
AcDbBlockEnd
  0
BLOCK
  5
1EA
100
AcDbEntity
  8
MAIN0
  6
CONTINUOUS
 62
3
100
AcDbBlockBegin
  2
*D6
 70
    65
 10
0.0
 20
0.0
 30
0.0
  0
LINE
  5
1EB
100
AcDbEntity
  8
MAIN0
  6
BYBLOCK
 62
0
100
AcDbLine
 10
409.7576417372126
 20
578.9053058394395
 30
0.0000000000000000
 11
429.0576417193413
 21
578.9053058394395
 31
0.0000000000000000
  0
LINE
  5
1EC
100
AcDbEntity
  8
MAIN0
  6
BYBLOCK
 62
0
100
AcDbLine
 10
426.0576417193413
 20
575.9053058394395
 30
0.0000000000000000
 11
426.0576417193413
 21
527.9053058393183
 31
0.0000000000000000
  0
INSERT
  5
1ED
100
AcDbEntity
  8
MAIN0
  6
BYBLOCK
 62
0
100
AcDbBlockReference
  2
_OPEN
 10
426.0576417193413
 20
578.9053058394395
 30
0.0000000000000000
 41
3.000000000000000
 42
3.000000000000000
 43
3.000000000000000
 50
90.00000000000000
  0
INSERT
  5
1EE
100
AcDbEntity
  8
MAIN0
  6
BYBLOCK
 62
0
100
AcDbBlockReference
  2
_OPEN
 10
426.0576417193413
 20
524.9053058393183
 30
0.0000000000000000
 41
3.000000000000000
 42
3.000000000000000
 43
3.000000000000000
 50
270.0000000000000
  0
LINE
  5
1EF
100
AcDbEntity
  8
MAIN0
  6
BYBLOCK
 62
0
100
AcDbLine
 10
351.7726417372227
 20
524.9053058393183
 30
0.0000000000000000
 11
429.0576417193413
 21
524.9053058393183
 31
0.0000000000000000
  0
MTEXT
  5
1F0
100
AcDbEntity
  8
MAIN0
  6
BYBLOCK
 62
0
100
AcDbMText
 10
423.2326417908669
 20
551.9053058393789
 30
0.0000000000000000
 40
4.649999856948853
 41
0.0000000000000000
 71
     5
 72
     1
  1
\A1;54
 11
6.123233995736766e-017
 21
1.000000000000000
 31
0.0000000000000000
  7
STANDARD
  0
ENDBLK
  5
1F1
100
AcDbEntity
  8
MAIN0
  6
CONTINUOUS
 62
3
100
AcDbBlockEnd
  0
BLOCK
  5
1F3
100
AcDbEntity
  8
MAIN0
  6
CONTINUOUS
 62
3
100
AcDbBlockBegin
  2
*D7
 70
    65
 10
0.0
 20
0.0
 30
0.0
  0
LINE
  5
1F4
100
AcDbEntity
  8
MAIN0
  6
BYBLOCK
 62
0
100
AcDbLine
 10
283.5576417193303
 20
580.1053058570595
 30
0.0000000000000000
 11
283.5576417193192
 21
592.9053058392984
 31
0.0000000000000000
  0
LINE
  5
1F5
100
AcDbEntity
  8
MAIN0
  6
BYBLOCK
 62
0
100
AcDbLine
 10
286.5576417193218
 20
589.9053058392984
 30
0.0000000000000000
 11
405.5576417193313
 21
589.9053058392984
 31
0.0000000000000000
  0
INSERT
  5
1F6
100
AcDbEntity
  8
MAIN0
  6
BYBLOCK
 62
0
100
AcDbBlockReference
  2
_OPEN
 10
283.5576417193218
 20
589.9053058392984
 30
0.0000000000000000
 41
3.000000000000000
 42
3.000000000000000
 43
3.000000000000000
 50
180.0000000000000
  0
INSERT
  5
1F7
100
AcDbEntity
  8
MAIN0
  6
BYBLOCK
 62
0
100
AcDbBlockReference
  2
_OPEN
 10
408.5576417193313
 20
589.9053058392984
 30
0.0000000000000000
 41
3.000000000000000
 42
3.000000000000000
 43
3.000000000000000
 50
0.0000000000000000
  0
LINE
  5
1F8
100
AcDbEntity
  8
MAIN0
  6
BYBLOCK
 62
0
100
AcDbLine
 10
408.5576417193313
 20
580.1053058573209
 30
0.0000000000000000
 11
408.5576417193313
 21
592.9053058392984
 31
0.0000000000000000
  0
MTEXT
  5
1F9
100
AcDbEntity
  8
MAIN0
  6
BYBLOCK
 62
0
100
AcDbMText
 10
346.0576417193265
 20
592.7303057677729
 30
0.0000000000000000
 40
4.649999856948853
 41
0.0000000000000000
 71
     5
 72
     1
  1
\A1;125
 11
1.000000000000000
 21
0.0000000000000000
 31
0.0000000000000000
  7
STANDARD
  0
ENDBLK
  5
1FA
100
AcDbEntity
  8
MAIN0
  6
CONTINUOUS
 62
3
100
AcDbBlockEnd
  0
BLOCK
  5
1FC
100
AcDbEntity
  8
MAIN0
  6
CONTINUOUS
 62
3
100
AcDbBlockBegin
  2
*D8
 70
    65
 10
0.0
 20
0.0
 30
0.0
  0
LINE
  5
1FD
100
AcDbEntity
  8
MAIN0
  6
BYBLOCK
 62
0
100
AcDbLine
 10
309.3076417193414
 20
518.7053058214010
 30
0.0000000000000000
 11
309.3076417193412
 21
506.9053058392984
 31
0.0000000000000000
  0
LINE
  5
1FE
100
AcDbEntity
  8
MAIN0
  6
BYBLOCK
 62
0
100
AcDbLine
 10
312.3076417193412
 20
509.9053058392984
 30
0.0000000000000000
 11
338.0576417193424
 21
509.9053058392984
 31
0.0000000000000000
  0
INSERT
  5
1FF
100
AcDbEntity
  8
MAIN0
  6
BYBLOCK
 62
0
100
AcDbBlockReference
  2
_OPEN
 10
309.3076417193412
 20
509.9053058392984
 30
0.0000000000000000
 41
3.000000000000000
 42
3.000000000000000
 43
3.000000000000000
 50
180.0000000000000
  0
INSERT
  5
200
100
AcDbEntity
  8
MAIN0
  6
BYBLOCK
 62
0
100
AcDbBlockReference
  2
_OPEN
 10
341.0576417193424
 20
509.9053058392984
 30
0.0000000000000000
 41
3.000000000000000
 42
3.000000000000000
 43
3.000000000000000
 50
0.0000000000000000
  0
LINE
  5
201
100
AcDbEntity
  8
MAIN0
  6
BYBLOCK
 62
0
100
AcDbLine
 10
341.0576417193424
 20
513.7053058213986
 30
0.0000000000000000
 11
341.0576417193424
 21
506.9053058392984
 31
0.0000000000000000
  0
MTEXT
  5
202
100
AcDbEntity
  8
MAIN0
  6
BYBLOCK
 62
0
100
AcDbMText
 10
325.1826417193418
 20
512.7303057677729
 30
0.0000000000000000
 40
4.649999856948853
 41
0.0000000000000000
 71
     5
 72
     1
  1
\A1;31.75
 11
1.000000000000000
 21
0.0000000000000000
 31
0.0000000000000000
  7
STANDARD
  0
ENDBLK
  5
203
100
AcDbEntity
  8
MAIN0
  6
CONTINUOUS
 62
3
100
AcDbBlockEnd
  0
BLOCK
  5
205
100
AcDbEntity
  8
MAIN0
  6
CONTINUOUS
 62
3
100
AcDbBlockBegin
  2
*D9
 70
    65
 10
0.0
 20
0.0
 30
0.0
  0
LINE
  5
206
100
AcDbEntity
  8
MAIN0
  6
BYBLOCK
 62
0
100
AcDbLine
 10
341.0576417193424
 20
513.7053058213986
 30
0.0000000000000000
 11
341.0576417193424
 21
506.9053058392984
 31
0.0000000000000000
  0
LINE
  5
207
100
AcDbEntity
  8
MAIN0
  6
BYBLOCK
 62
0
100
AcDbLine
 10
344.0576417193423
 20
509.9053058392984
 30
0.0000000000000000
 11
369.8076417193412
 21
509.9053058392984
 31
0.0000000000000000
  0
INSERT
  5
208
100
AcDbEntity
  8
MAIN0
  6
BYBLOCK
 62
0
100
AcDbBlockReference
  2
_OPEN
 10
341.0576417193423
 20
509.9053058392984
 30
0.0000000000000000
 41
3.000000000000000
 42
3.000000000000000
 43
3.000000000000000
 50
180.0000000000000
  0
INSERT
  5
209
100
AcDbEntity
  8
MAIN0
  6
BYBLOCK
 62
0
100
AcDbBlockReference
  2
_OPEN
 10
372.8076417193412
 20
509.9053058392984
 30
0.0000000000000000
 41
3.000000000000000
 42
3.000000000000000
 43
3.000000000000000
 50
0.0000000000000000
  0
LINE
  5
20A
100
AcDbEntity
  8
MAIN0
  6
BYBLOCK
 62
0
100
AcDbLine
 10
372.8076417193414
 20
518.7053058213874
 30
0.0000000000000000
 11
372.8076417193411
 21
506.9053058392984
 31
0.0000000000000000
  0
MTEXT
  5
20B
100
AcDbEntity
  8
MAIN0
  6
BYBLOCK
 62
0
100
AcDbMText
 10
356.9326417193418
 20
512.7303057677729
 30
0.0000000000000000
 40
4.649999856948853
 41
0.0000000000000000
 71
     5
 72
     1
  1
\A1;31.75
 11
1.000000000000000
 21
0.0000000000000000
 31
0.0000000000000000
  7
STANDARD
  0
ENDBLK
  5
20C
100
AcDbEntity
  8
MAIN0
  6
CONTINUOUS
 62
3
100
AcDbBlockEnd
  0
BLOCK
  5
210
100
AcDbEntity
  8
MAIN0
  6
CONTINUOUS
 62
3
100
AcDbBlockBegin
  2
*D10
 70
    65
 10
0.0
 20
0.0
 30
0.0
  0
LINE
  5
211
100
AcDbEntity
  8
MAIN0
  6
BYBLOCK
 62
0
100
AcDbLine
 10
221.5576417193415
 20
492.1053058573614
 30
0.0000000000000000
 11
221.5576417193415
 21
507.9053058392984
 31
0.0000000000000000
  0
LINE
  5
212
100
AcDbEntity
  8
MAIN0
  6
BYBLOCK
 62
0
100
AcDbLine
 10
221.5576417193415
 20
504.9053058392984
 30
0.0000000000000000
 11
236.0576417193415
 21
504.9053058392984
 31
0.0000000000000000
  0
INSERT
  5
213
100
AcDbEntity
  8
MAIN0
  6
BYBLOCK
 62
0
100
AcDbBlockReference
  2
_OPEN
 10
221.5576417193415
 20
504.9053058392984
 30
0.0000000000000000
 41
3.000000000000000
 42
3.000000000000000
 43
3.000000000000000
 50
0.0000000000000000
  0
INSERT
  5
214
100
AcDbEntity
  8
MAIN0
  6
BYBLOCK
 62
0
100
AcDbBlockReference
  2
_OPEN
 10
236.0576417193415
 20
504.9053058392984
 30
0.0000000000000000
 41
3.000000000000000
 42
3.000000000000000
 43
3.000000000000000
 50
180.0000000000000
  0
LINE
  5
215
100
AcDbEntity
  8
MAIN0
  6
BYBLOCK
 62
0
100
AcDbLine
 10
218.5576417193415
 20
504.9053058392984
 30
0.0000000000000000
 11
217.0576417193415
 21
504.9053058392984
 31
0.0000000000000000
  0
LINE
  5
216
100
AcDbEntity
  8
MAIN0
  6
BYBLOCK
 62
0
100
AcDbLine
 10
239.0576417193415
 20
504.9053058392984
 30
0.0000000000000000
 11
240.5576417193415
 21
504.9053058392984
 31
0.0000000000000000
  0
LINE
  5
217
100
AcDbEntity
  8
MAIN0
  6
BYBLOCK
 62
0
100
AcDbLine
 10
236.0576417193415
 20
494.1053058571798
 30
0.0000000000000000
 11
236.0576417193415
 21
507.9053058392984
 31
0.0000000000000000
  0
MTEXT
  5
218
100
AcDbEntity
  8
MAIN0
  6
BYBLOCK
 62
0
100
AcDbMText
 10
228.8076417193415
 20
507.7303057677729
 30
0.0000000000000000
 40
4.649999856948853
 41
0.0000000000000000
 71
     5
 72
     1
  1
\A1;14.5
 11
1.000000000000000
 21
0.0000000000000000
 31
0.0000000000000000
  7
STANDARD
  0
ENDBLK
  5
219
100
AcDbEntity
  8
MAIN0
  6
CONTINUOUS
 62
3
100
AcDbBlockEnd
  0
BLOCK
  5
226
100
AcDbEntity
  8
MAIN0
  6
CONTINUOUS
 62
3
100
AcDbBlockBegin
  2
*D11
 70
    65
 10
0.0
 20
0.0
 30
0.0
  0
LINE
  5
227
100
AcDbEntity
  8
MAIN0
  6
BYBLOCK
 62
0
100
AcDbLine
 10
236.6576417372228
 20
490.9053058394800
 30
0.0000000000000000
 11
259.0576417193413
 21
490.9053058394800
 31
0.0000000000000000
  0
LINE
  5
228
100
AcDbEntity
  8
MAIN0
  6
BYBLOCK
 62
0
100
AcDbLine
 10
256.0576417193413
 20
487.9053058394800
 30
0.0000000000000000
 11
256.0576417193413
 21
473.9053058394800
 31
0.0000000000000000
  0
INSERT
  5
229
100
AcDbEntity
  8
MAIN0
  6
BYBLOCK
 62
0
100
AcDbBlockReference
  2
_OPEN
 10
256.0576417193413
 20
490.9053058394800
 30
0.0000000000000000
 41
3.000000000000000
 42
3.000000000000000
 43
3.000000000000000
 50
90.00000000000000
  0
INSERT
  5
22A
100
AcDbEntity
  8
MAIN0
  6
BYBLOCK
 62
0
100
AcDbBlockReference
  2
_OPEN
 10
256.0576417193413
 20
470.9053058394800
 30
0.0000000000000000
 41
3.000000000000000
 42
3.000000000000000
 43
3.000000000000000
 50
270.0000000000000
  0
LINE
  5
22B
100
AcDbEntity
  8
MAIN0
  6
BYBLOCK
 62
0
100
AcDbLine
 10
236.6576417372228
 20
470.9053058394800
 30
0.0000000000000000
 11
259.0576417193413
 21
470.9053058394800
 31
0.0000000000000000
  0
MTEXT
  5
22C
100
AcDbEntity
  8
MAIN0
  6
BYBLOCK
 62
0
100
AcDbMText
 10
253.2326417908669
 20
480.9053058394800
 30
0.0000000000000000
 40
4.649999856948853
 41
0.0000000000000000
 71
     5
 72
     1
  1
\A1;\U+220520
 11
6.123233995736766e-017
 21
1.000000000000000
 31
0.0000000000000000
  7
STANDARD
  0
ENDBLK
  5
22D
100
AcDbEntity
  8
MAIN0
  6
CONTINUOUS
 62
3
100
AcDbBlockEnd
  0
BLOCK
  5
23A
100
AcDbEntity
  8
MAIN0
  6
CONTINUOUS
 62
3
100
AcDbBlockBegin
  2
*D12
 70
    65
 10
0.0
 20
0.0
 30
0.0
  0
LINE
  5
23B
100
AcDbEntity
  8
MAIN0
  6
BYBLOCK
 62
0
100
AcDbLine
 10
146.8576417014600
 20
414.9053058392985
 30
0.0000000000000000
 11
103.0576417193413
 21
414.9053058392985
 31
0.0000000000000000
  0
LINE
  5
23C
100
AcDbEntity
  8
MAIN0
  6
BYBLOCK
 62
0
100
AcDbLine
 10
106.0576417193413
 20
411.9053058392985
 30
0.0000000000000000
 11
106.0576417193413
 21
267.9053058392987
 31
0.0000000000000000
  0
INSERT
  5
23D
100
AcDbEntity
  8
MAIN0
  6
BYBLOCK
 62
0
100
AcDbBlockReference
  2
_OPEN
 10
106.0576417193413
 20
414.9053058392985
 30
0.0000000000000000
 41
3.000000000000000
 42
3.000000000000000
 43
3.000000000000000
 50
90.00000000000000
  0
INSERT
  5
23E
100
AcDbEntity
  8
MAIN0
  6
BYBLOCK
 62
0
100
AcDbBlockReference
  2
_OPEN
 10
106.0576417193413
 20
264.9053058392987
 30
0.0000000000000000
 41
3.000000000000000
 42
3.000000000000000
 43
3.000000000000000
 50
270.0000000000000
  0
LINE
  5
23F
100
AcDbEntity
  8
MAIN0
  6
BYBLOCK
 62
0
100
AcDbLine
 10
146.8576417014598
 20
264.9053058392987
 30
0.0000000000000000
 11
103.0576417193413
 21
264.9053058392987
 31
0.0000000000000000
  0
MTEXT
  5
240
100
AcDbEntity
  8
MAIN0
  6
BYBLOCK
 62
0
100
AcDbMText
 10
103.2326417908669
 20
339.9053058392986
 30
0.0000000000000000
 40
4.649999856948853
 41
0.0000000000000000
 71
     5
 72
     1
  1
\A1;\U+2205150
 11
6.123233995736766e-017
 21
1.000000000000000
 31
0.0000000000000000
  7
STANDARD
  0
ENDBLK
  5
241
100
AcDbEntity
  8
MAIN0
  6
CONTINUOUS
 62
3
100
AcDbBlockEnd
  0
BLOCK
  5
243
100
AcDbEntity
  8
MAIN0
  6
CONTINUOUS
 62
3
100
AcDbBlockBegin
  2
*D13
 70
    65
 10
0.0
 20
0.0
 30
0.0
  0
LINE
  5
244
100
AcDbEntity
  8
MAIN0
  6
BYBLOCK
 62
0
100
AcDbLine
 10
140.0576417193411
 20
304.9053058392984
 30
0.0000000000000000
 11
147.0576417193411
 21
304.9053058392984
 31
0.0000000000000000
  0
INSERT
  5
245
100
AcDbEntity
  8
MAIN0
  6
BYBLOCK
 62
0
100
AcDbBlockReference
  2
_OPEN
 10
140.0576417193411
 20
304.9053058392984
 30
0.0000000000000000
 41
3.000000000000000
 42
3.000000000000000
 43
3.000000000000000
 50
0.0000000000000000
  0
INSERT
  5
246
100
AcDbEntity
  8
MAIN0
  6
BYBLOCK
 62
0
100
AcDbBlockReference
  2
_OPEN
 10
147.0576417193411
 20
304.9053058392984
 30
0.0000000000000000
 41
3.000000000000000
 42
3.000000000000000
 43
3.000000000000000
 50
180.0000000000000
  0
LINE
  5
247
100
AcDbEntity
  8
MAIN0
  6
BYBLOCK
 62
0
100
AcDbLine
 10
137.0576417193411
 20
304.9053058392984
 30
0.0000000000000000
 11
133.9157833493398
 21
304.9053058392984
 31
0.0000000000000000
  0
LINE
  5
248
100
AcDbEntity
  8
MAIN0
  6
BYBLOCK
 62
0
100
AcDbLine
 10
150.0576417193411
 20
304.9053058392984
 30
0.0000000000000000
 11
151.5576417193411
 21
304.9053058392984
 31
0.0000000000000000
  0
MTEXT
  5
249
100
AcDbEntity
  8
MAIN0
  6
BYBLOCK
 62
0
100
AcDbMText
 10
135.4157833493398
 20
307.9803057677729
 30
0.0000000000000000
 40
4.649999856948853
 41
0.0000000000000000
 71
     5
 72
     1
  1
\A1;7
 11
1.000000000000000
 21
0.0000000000000000
 31
0.0000000000000000
  7
STANDARD
  0
ENDBLK
  5
24A
100
AcDbEntity
  8
MAIN0
  6
CONTINUOUS
 62
3
100
AcDbBlockEnd
  0
BLOCK
  5
250
100
AcDbEntity
  8
MAIN0
  6
CONTINUOUS
 62
3
100
AcDbBlockBegin
  2
*D14
 70
    65
 10
0.0
 20
0.0
 30
0.0
  0
LINE
  5
251
100
AcDbEntity
  8
MAIN0
  6
BYBLOCK
 62
0
100
AcDbLine
 10
236.0576417193415
 20
494.1053058571798
 30
0.0000000000000000
 11
236.0576417193415
 21
527.9053058392984
 31
0.0000000000000000
  0
LINE
  5
252
100
AcDbEntity
  8
MAIN0
  6
BYBLOCK
 62
0
100
AcDbLine
 10
233.0576417193415
 20
524.9053058392984
 30
0.0000000000000000
 11
174.5576417193416
 21
524.9053058392984
 31
0.0000000000000000
  0
INSERT
  5
253
100
AcDbEntity
  8
MAIN0
  6
BYBLOCK
 62
0
100
AcDbBlockReference
  2
_OPEN
 10
236.0576417193415
 20
524.9053058392984
 30
0.0000000000000000
 41
3.000000000000000
 42
3.000000000000000
 43
3.000000000000000
 50
360.0000000000000
  0
INSERT
  5
254
100
AcDbEntity
  8
MAIN0
  6
BYBLOCK
 62
0
100
AcDbBlockReference
  2
_OPEN
 10
171.5576417193416
 20
524.9053058392984
 30
0.0000000000000000
 41
3.000000000000000
 42
3.000000000000000
 43
3.000000000000000
 50
180.0000000000000
  0
LINE
  5
255
100
AcDbEntity
  8
MAIN0
  6
BYBLOCK
 62
0
100
AcDbLine
 10
171.5576417193414
 20
506.1053058571803
 30
0.0000000000000000
 11
171.5576417193416
 21
527.9053058392984
 31
0.0000000000000000
  0
MTEXT
  5
256
100
AcDbEntity
  8
MAIN0
  6
BYBLOCK
 62
0
100
AcDbMText
 10
203.8076417193415
 20
527.7303057677729
 30
0.0000000000000000
 40
4.649999856948853
 41
0.0000000000000000
 71
     5
 72
     1
  1
\A1;64.5
 11
1.000000000000000
 21
0.0000000000000000
 31
0.0000000000000000
  7
STANDARD
  0
ENDBLK
  5
257
100
AcDbEntity
  8
MAIN0
  6
CONTINUOUS
 62
3
100
AcDbBlockEnd
  0
BLOCK
  5
259
100
AcDbEntity
  8
MAIN0
  6
CONTINUOUS
 62
3
100
AcDbBlockBegin
  2
*D15
 70
    65
 10
0.0
 20
0.0
 30
0.0
  0
LINE
  5
25A
100
AcDbEntity
  8
MAIN0
  6
BYBLOCK
 62
0
100
AcDbLine
 10
171.5576417193414
 20
506.1053058571803
 30
0.0000000000000000
 11
171.5576417193416
 21
527.9053058392984
 31
0.0000000000000000
  0
LINE
  5
25B
100
AcDbEntity
  8
MAIN0
  6
BYBLOCK
 62
0
100
AcDbLine
 10
168.5576417193416
 20
524.9053058392984
 30
0.0000000000000000
 11
143.0576417193415
 21
524.9053058392984
 31
0.0000000000000000
  0
INSERT
  5
25C
100
AcDbEntity
  8
MAIN0
  6
BYBLOCK
 62
0
100
AcDbBlockReference
  2
_OPEN
 10
171.5576417193416
 20
524.9053058392984
 30
0.0000000000000000
 41
3.000000000000000
 42
3.000000000000000
 43
3.000000000000000
 50
360.0000000000000
  0
INSERT
  5
25D
100
AcDbEntity
  8
MAIN0
  6
BYBLOCK
 62
0
100
AcDbBlockReference
  2
_OPEN
 10
140.0576417193415
 20
524.9053058392984
 30
0.0000000000000000
 41
3.000000000000000
 42
3.000000000000000
 43
3.000000000000000
 50
180.0000000000000
  0
LINE
  5
25E
100
AcDbEntity
  8
MAIN0
  6
BYBLOCK
 62
0
100
AcDbLine
 10
140.0576417193415
 20
494.1053058571799
 30
0.0000000000000000
 11
140.0576417193415
 21
527.9053058392984
 31
0.0000000000000000
  0
MTEXT
  5
25F
100
AcDbEntity
  8
MAIN0
  6
BYBLOCK
 62
0
100
AcDbMText
 10
155.8076417193415
 20
527.7303057677729
 30
0.0000000000000000
 40
4.649999856948853
 41
0.0000000000000000
 71
     5
 72
     1
  1
\A1;31.5
 11
1.000000000000000
 21
0.0000000000000000
 31
0.0000000000000000
  7
STANDARD
  0
ENDBLK
  5
260
100
AcDbEntity
  8
MAIN0
  6
CONTINUOUS
 62
3
100
AcDbBlockEnd
  0
BLOCK
  5
277
100
AcDbEntity
  8
MAIN0
  6
CONTINUOUS
 62
3
100
AcDbBlockBegin
  2
*D16
 70
    65
 10
0.0
 20
0.0
 30
0.0
  0
LINE
  5
278
100
AcDbEntity
  8
MAIN0
  6
BYBLOCK
 62
0
100
AcDbLine
 10
476.0624751432404
 20
422.3163486989074
 30
0.0000000000000000
 11
446.8881569233603
 21
502.4721292350273
 31
0.0000000000000000
  0
ARC
  5
279
100
AcDbEntity
  8
MAIN0
  6
BYBLOCK
 62
0
100
AcDbCircle
 10
506.0576417193411
 20
339.9053058393031
 30
0.0000000000000000
 40
169.9999999999953
100
AcDbArc
 50
91.01110199140723
 51
108.9888980088188
  0
INSERT
  5
27A
100
AcDbEntity
  8
MAIN0
  6
BYBLOCK
 62
0
100
AcDbBlockReference
  2
_OPEN
 10
506.0576417193415
 20
509.9053058392984
 30
0.0000000000000000
 41
3.000000000000000
 42
3.000000000000000
 43
3.000000000000000
 50
359.9999999999999
  0
INSERT
  5
27B
100
AcDbEntity
  8
MAIN0
  6
BYBLOCK
 62
0
100
AcDbBlockReference
  2
_OPEN
 10
447.9142173533484
 20
499.6530513726736
 30
0.0000000000000000
 41
3.000000000000000
 42
3.000000000000000
 43
3.000000000000000
 50
200.0000000002262
  0
MTEXT
  5
27C
100
AcDbEntity
  8
MAIN0
  6
BYBLOCK
 62
0
100
AcDbMText
 10
476.0468954261393
 20
510.1047056831352
 30
0.0000000000000000
 40
4.649999856948853
 41
0.0000000000000000
 71
     5
 72
     1
  1
\A1;20\U+00B0
 11
0.9848077530118655
 21
0.1736481776688731
 31
0.0000000000000000
  7
STANDARD
  0
ENDBLK
  5
27D
100
AcDbEntity
  8
MAIN0
  6
CONTINUOUS
 62
3
100
AcDbBlockEnd
  0
BLOCK
  5
27F
100
AcDbEntity
  8
MAIN0
  6
CONTINUOUS
 62
3
100
AcDbBlockBegin
  2
*D17
 70
    65
 10
0.0
 20
0.0
 30
0.0
  0
LINE
  5
280
100
AcDbEntity
  8
MAIN0
  6
BYBLOCK
 62
0
100
AcDbLine
 10
139.4576417014600
 20
487.6553058394800
 30
0.0000000000000000
 11
123.0576417193413
 21
487.6553058394800
 31
0.0000000000000000
  0
LINE
  5
281
100
AcDbEntity
  8
MAIN0
  6
BYBLOCK
 62
0
100
AcDbLine
 10
126.0576417193413
 20
487.6553058394800
 30
0.0000000000000000
 11
126.0576417193413
 21
474.1553058394800
 31
0.0000000000000000
  0
INSERT
  5
282
100
AcDbEntity
  8
MAIN0
  6
BYBLOCK
 62
0
100
AcDbBlockReference
  2
_OPEN
 10
126.0576417193413
 20
487.6553058394800
 30
0.0000000000000000
 41
3.000000000000000
 42
3.000000000000000
 43
3.000000000000000
 50
270.0000000000000
  0
INSERT
  5
283
100
AcDbEntity
  8
MAIN0
  6
BYBLOCK
 62
0
100
AcDbBlockReference
  2
_OPEN
 10
126.0576417193413
 20
474.1553058394800
 30
0.0000000000000000
 41
3.000000000000000
 42
3.000000000000000
 43
3.000000000000000
 50
90.00000000000000
  0
LINE
  5
284
100
AcDbEntity
  8
MAIN0
  6
BYBLOCK
 62
0
100
AcDbLine
 10
126.0576417193413
 20
490.6553058394800
 30
0.0000000000000000
 11
126.0576417193413
 21
492.1553058394800
 31
0.0000000000000000
  0
LINE
  5
285
100
AcDbEntity
  8
MAIN0
  6
BYBLOCK
 62
0
100
AcDbLine
 10
126.0576417193413
 20
471.1553058394800
 30
0.0000000000000000
 11
126.0576417193413
 21
469.6553058394800
 31
0.0000000000000000
  0
LINE
  5
286
100
AcDbEntity
  8
MAIN0
  6
BYBLOCK
 62
0
100
AcDbLine
 10
139.4576417014600
 20
474.1553058394800
 30
0.0000000000000000
 11
123.0576417193413
 21
474.1553058394800
 31
0.0000000000000000
  0
MTEXT
  5
287
100
AcDbEntity
  8
MAIN0
  6
BYBLOCK
 62
0
100
AcDbMText
 10
123.2326417908669
 20
480.9053058394800
 30
0.0000000000000000
 40
4.649999856948853
 41
0.0000000000000000
 71
     5
 72
     1
  1
\A1;\U+220513.5
 11
6.123233995736766e-017
 21
1.000000000000000
 31
0.0000000000000000
  7
STANDARD
  0
ENDBLK
  5
288
100
AcDbEntity
  8
MAIN0
  6
CONTINUOUS
 62
3
100
AcDbBlockEnd
  0
BLOCK
  5
292
100
AcDbEntity
  8
MAIN0
  6
CONTINUOUS
 62
3
100
AcDbBlockBegin
  2
*D18
 70
    65
 10
0.0
 20
0.0
 30
0.0
  0
LINE
  5
293
100
AcDbEntity
  8
MAIN0
  6
BYBLOCK
 62
0
100
AcDbLine
 10
427.4576417103992
 20
203.7661123488973
 30
0.0000000000000000
 11
414.5576417193407
 21
181.4226569467464
 31
0.0000000000000000
  0
LINE
  5
294
100
AcDbEntity
  8
MAIN0
  6
BYBLOCK
 62
0
100
AcDbLine
 10
506.0576417193410
 20
163.7053058214170
 30
0.0000000000000000
 11
506.0576417193409
 21
156.9053058392984
 31
0.0000000000000000
  0
ARC
  5
295
100
AcDbEntity
  8
MAIN0
  6
BYBLOCK
 62
0
100
AcDbCircle
 10
506.0576417193413
 20
339.9053058392991
 30
0.0000000000000000
 40
180.0000000000007
100
AcDbArc
 50
240.9549296585513
 51
269.0450703414485
  0
INSERT
  5
296
100
AcDbEntity
  8
MAIN0
  6
BYBLOCK
 62
0
100
AcDbBlockReference
  2
_OPEN
 10
416.0576417193407
 20
184.0207331580997
 30
0.0000000000000000
 41
3.000000000000000
 42
3.000000000000000
 43
3.000000000000000
 50
149.9999999999999
  0
INSERT
  5
297
100
AcDbEntity
  8
MAIN0
  6
BYBLOCK
 62
0
100
AcDbBlockReference
  2
_OPEN
 10
506.0576417193410
 20
159.9053058392984
 30
0.0000000000000000
 41
3.000000000000000
 42
3.000000000000000
 43
3.000000000000000
 50
359.9999999999999
  0
MTEXT
  5
298
100
AcDbEntity
  8
MAIN0
  6
BYBLOCK
 62
0
100
AcDbMText
 10
460.2013773847895
 20
168.7673974974445
 30
0.0000000000000000
 40
4.649999856948853
 41
0.0000000000000000
 71
     5
 72
     1
  1
\A1;30\U+00B0
 11
0.9659258262890679
 21
-0.2588190451025224
 31
0.0000000000000000
  7
STANDARD
  0
ENDBLK
  5
299
100
AcDbEntity
  8
MAIN0
  6
CONTINUOUS
 62
3
100
AcDbBlockEnd
  0
BLOCK
  5
29B
100
AcDbEntity
  8
MAIN0
  6
CONTINUOUS
 62
3
100
AcDbBlockBegin
  2
*D19
 70
    65
 10
0.0
 20
0.0
 30
0.0
  0
LINE
  5
29C
100
AcDbEntity
  8
MAIN0
  6
BYBLOCK
 62
0
100
AcDbLine
 10
464.3175669362782
 20
184.1292260371842
 30
0.0000000000000000
 11
461.2819469166047
 21
172.8001378912897
 31
0.0000000000000000
  0
ARC
  5
29D
100
AcDbEntity
  8
MAIN0
  6
BYBLOCK
 62
0
100
AcDbCircle
 10
506.0576417193413
 20
339.9053058392985
 30
0.0000000000000000
 40
170.0000000000001
100
AcDbArc
 50
256.0111019914072
 51
268.9888980085926
  0
INSERT
  5
29E
100
AcDbEntity
  8
MAIN0
  6
BYBLOCK
 62
0
100
AcDbBlockReference
  2
_OPEN
 10
462.0584040519123
 20
175.6979153701569
 30
0.0000000000000000
 41
3.000000000000000
 42
3.000000000000000
 43
3.000000000000000
 50
164.9999999999998
  0
INSERT
  5
29F
100
AcDbEntity
  8
MAIN0
  6
BYBLOCK
 62
0
100
AcDbBlockReference
  2
_OPEN
 10
506.0576417193410
 20
169.9053058392984
 30
0.0000000000000000
 41
3.000000000000000
 42
3.000000000000000
 43
3.000000000000000
 50
359.9999999999999
  0
MTEXT
  5
2A0
100
AcDbEntity
  8
MAIN0
  6
BYBLOCK
 62
0
100
AcDbMText
 10
484.2369255256177
 20
174.1605110682181
 30
0.0000000000000000
 40
4.649999856948853
 41
0.0000000000000000
 71
     5
 72
     1
  1
\A1;15\U+00B0
 11
0.9914448613738101
 21
-0.1305261922200543
 31
0.0000000000000000
  7
STANDARD
  0
ENDBLK
  5
2A1
100
AcDbEntity
  8
MAIN0
  6
CONTINUOUS
 62
3
100
AcDbBlockEnd
  0
BLOCK
  5
2A3
100
AcDbEntity
  8
MAIN0
  6
CONTINUOUS
 62
3
100
AcDbBlockBegin
  2
*D20
 70
    65
 10
0.0
 20
0.0
 30
0.0
  0
LINE
  5
2A4
100
AcDbEntity
  8
MAIN0
  6
BYBLOCK
 62
0
100
AcDbLine
 10
665.4576417014280
 20
525.9053058392984
 30
0.0000000000000000
 11
653.0576417193413
 21
525.9053058392984
 31
0.0000000000000000
  0
LINE
  5
2A5
100
AcDbEntity
  8
MAIN0
  6
BYBLOCK
 62
0
100
AcDbLine
 10
656.0576417193413
 20
522.9053058392984
 30
0.0000000000000000
 11
656.0576417193413
 21
506.9053058392984
 31
0.0000000000000000
  0
INSERT
  5
2A6
100
AcDbEntity
  8
MAIN0
  6
BYBLOCK
 62
0
100
AcDbBlockReference
  2
_OPEN
 10
656.0576417193413
 20
525.9053058392984
 30
0.0000000000000000
 41
3.000000000000000
 42
3.000000000000000
 43
3.000000000000000
 50
90.00000000000000
  0
INSERT
  5
2A7
100
AcDbEntity
  8
MAIN0
  6
BYBLOCK
 62
0
100
AcDbBlockReference
  2
_OPEN
 10
656.0576417193413
 20
503.9053058392984
 30
0.0000000000000000
 41
3.000000000000000
 42
3.000000000000000
 43
3.000000000000000
 50
270.0000000000000
  0
LINE
  5
2A8
100
AcDbEntity
  8
MAIN0
  6
BYBLOCK
 62
0
100
AcDbLine
 10
665.4576417014280
 20
503.9053058392984
 30
0.0000000000000000
 11
653.0576417193413
 21
503.9053058392984
 31
0.0000000000000000
  0
MTEXT
  5
2A9
100
AcDbEntity
  8
MAIN0
  6
BYBLOCK
 62
0
100
AcDbMText
 10
653.2326417908669
 20
514.9053058392984
 30
0.0000000000000000
 40
4.649999856948853
 41
0.0000000000000000
 71
     5
 72
     1
  1
\A1;\U+220522
 11
6.123233995736766e-017
 21
1.000000000000000
 31
0.0000000000000000
  7
STANDARD
  0
ENDBLK
  5
2AA
100
AcDbEntity
  8
MAIN0
  6
CONTINUOUS
 62
3
100
AcDbBlockEnd
  0
BLOCK
  5
2AC
100
AcDbEntity
  8
MAIN0
  6
CONTINUOUS
 62
3
100
AcDbBlockBegin
  2
*D21
 70
    65
 10
0.0
 20
0.0
 30
0.0
  0
LINE
  5
2AD
100
AcDbEntity
  8
MAIN0
  6
BYBLOCK
 62
0
100
AcDbLine
 10
666.0576417193092
 20
526.5053058571798
 30
0.0000000000000000
 11
666.0576417193092
 21
547.9053058392984
 31
0.0000000000000000
  0
LINE
  5
2AE
100
AcDbEntity
  8
MAIN0
  6
BYBLOCK
 62
0
100
AcDbLine
 10
666.0576417193092
 20
544.9053058392984
 30
0.0000000000000000
 11
676.0576417193092
 21
544.9053058392984
 31
0.0000000000000000
  0
INSERT
  5
2AF
100
AcDbEntity
  8
MAIN0
  6
BYBLOCK
 62
0
100
AcDbBlockReference
  2
_OPEN
 10
666.0576417193092
 20
544.9053058392984
 30
0.0000000000000000
 41
3.000000000000000
 42
3.000000000000000
 43
3.000000000000000
 50
0.0000000000000000
  0
INSERT
  5
2B0
100
AcDbEntity
  8
MAIN0
  6
BYBLOCK
 62
0
100
AcDbBlockReference
  2
_OPEN
 10
676.0576417193092
 20
544.9053058392984
 30
0.0000000000000000
 41
3.000000000000000
 42
3.000000000000000
 43
3.000000000000000
 50
180.0000000000000
  0
LINE
  5
2B1
100
AcDbEntity
  8
MAIN0
  6
BYBLOCK
 62
0
100
AcDbLine
 10
663.0576417193092
 20
544.9053058392984
 30
0.0000000000000000
 11
661.5576417193092
 21
544.9053058392984
 31
0.0000000000000000
  0
LINE
  5
2B2
100
AcDbEntity
  8
MAIN0
  6
BYBLOCK
 62
0
100
AcDbLine
 10
679.0576417193092
 20
544.9053058392984
 30
0.0000000000000000
 11
680.5576417193092
 21
544.9053058392984
 31
0.0000000000000000
  0
LINE
  5
2B3
100
AcDbEntity
  8
MAIN0
  6
BYBLOCK
 62
0
100
AcDbLine
 10
676.0576417193092
 20
526.5053058571798
 30
0.0000000000000000
 11
676.0576417193092
 21
547.9053058392984
 31
0.0000000000000000
  0
MTEXT
  5
2B4
100
AcDbEntity
  8
MAIN0
  6
BYBLOCK
 62
0
100
AcDbMText
 10
671.0576417193092
 20
547.7303057677729
 30
0.0000000000000000
 40
4.649999856948853
 41
0.0000000000000000
 71
     5
 72
     1
  1
\A1;10
 11
1.000000000000000
 21
0.0000000000000000
 31
0.0000000000000000
  7
STANDARD
  0
ENDBLK
  5
2B5
100
AcDbEntity
  8
MAIN0
  6
CONTINUOUS
 62
3
100
AcDbBlockEnd
  0
BLOCK
  5
2B7
100
AcDbEntity
  8
MAIN0
  6
CONTINUOUS
 62
1
100
AcDbBlockBegin
  2
*D22
 70
    65
 10
0.0
 20
0.0
 30
0.0
  0
LINE
  5
2B8
100
AcDbEntity
  8
MAIN0
  6
BYBLOCK
 62
0
100
AcDbLine
 10
758.0576417195570
 20
489.9053058392984
 30
0.0000000000000000
 11
619.0576417192450
 21
489.9053058392984
 31
0.0000000000000000
  0
INSERT
  5
2B9
100
AcDbEntity
  8
MAIN0
  6
BYBLOCK
 62
0
100
AcDbBlockReference
  2
_OPEN
 10
761.0576417195570
 20
489.9053058392984
 30
0.0000000000000000
 41
3.000000000000000
 42
3.000000000000000
 43
3.000000000000000
 50
360.0000000000000
  0
INSERT
  5
2BA
100
AcDbEntity
  8
MAIN0
  6
BYBLOCK
 62
0
100
AcDbBlockReference
  2
_OPEN
 10
616.0576417192450
 20
489.9053058392984
 30
0.0000000000000000
 41
3.000000000000000
 42
3.000000000000000
 43
3.000000000000000
 50
180.0000000000000
  0
LINE
  5
2BB
100
AcDbEntity
  8
MAIN0
  6
BYBLOCK
 62
0
100
AcDbLine
 10
616.0576417192450
 20
503.3053058214168
 30
0.0000000000000000
 11
616.0576417192450
 21
486.9053058392984
 31
0.0000000000000000
  0
MTEXT
  5
2BC
100
AcDbEntity
  8
MAIN0
  6
BYBLOCK
 62
0
100
AcDbMText
 10
688.5576417194010
 20
492.7303057677729
 30
0.0000000000000000
 40
4.649999856948853
 41
0.0000000000000000
 71
     5
 72
     1
  1
\A1;MAX 365
 11
1.000000000000000
 21
0.0000000000000000
 31
0.0000000000000000
  7
STANDARD
  0
ENDBLK
  5
2BD
100
AcDbEntity
  8
MAIN0
  6
CONTINUOUS
 62
1
100
AcDbBlockEnd
  0
BLOCK
  5
2BF
100
AcDbEntity
  8
MAIN0
  6
CONTINUOUS
 62
3
100
AcDbBlockBegin
  2
*D23
 70
    65
 10
0.0
 20
0.0
 30
0.0
  0
LINE
  5
2C0
100
AcDbEntity
  8
MAIN0
  6
BYBLOCK
 62
0
100
AcDbLine
 10
775.2576417371377
 20
532.9053058392984
 30
0.0000000000000000
 11
799.0576417193413
 21
532.9053058392984
 31
0.0000000000000000
  0
LINE
  5
2C1
100
AcDbEntity
  8
MAIN0
  6
BYBLOCK
 62
0
100
AcDbLine
 10
796.0576417193413
 20
529.9053058392984
 30
0.0000000000000000
 11
796.0576417193413
 21
335.9053058392984
 31
0.0000000000000000
  0
INSERT
  5
2C2
100
AcDbEntity
  8
MAIN0
  6
BYBLOCK
 62
0
100
AcDbBlockReference
  2
_OPEN
 10
796.0576417193413
 20
532.9053058392984
 30
0.0000000000000000
 41
3.000000000000000
 42
3.000000000000000
 43
3.000000000000000
 50
90.00000000000000
  0
INSERT
  5
2C3
100
AcDbEntity
  8
MAIN0
  6
BYBLOCK
 62
0
100
AcDbBlockReference
  2
_OPEN
 10
796.0576417193413
 20
332.9053058392984
 30
0.0000000000000000
 41
3.000000000000000
 42
3.000000000000000
 43
3.000000000000000
 50
270.0000000000000
  0
LINE
  5
2C4
100
AcDbEntity
  8
MAIN0
  6
BYBLOCK
 62
0
100
AcDbLine
 10
768.4220010919967
 20
332.9053058392984
 30
0.0000000000000000
 11
799.0576417193413
 21
332.9053058392984
 31
0.0000000000000000
  0
MTEXT
  5
2C5
100
AcDbEntity
  8
MAIN0
  6
BYBLOCK
 62
0
100
AcDbMText
 10
793.2326417908669
 20
432.9053058392984
 30
0.0000000000000000
 40
4.649999856948853
 41
0.0000000000000000
 71
     5
 72
     1
  1
\A1;200
 11
6.123233995736766e-017
 21
1.000000000000000
 31
0.0000000000000000
  7
STANDARD
  0
ENDBLK
  5
2C6
100
AcDbEntity
  8
MAIN0
  6
CONTINUOUS
 62
3
100
AcDbBlockEnd
  0
BLOCK
  5
2C8
100
AcDbEntity
  8
MAIN0
  6
CONTINUOUS
 62
3
100
AcDbBlockBegin
  2
*D24
 70
    65
 10
0.0
 20
0.0
 30
0.0
  0
LINE
  5
2C9
100
AcDbEntity
  8
MAIN0
  6
BYBLOCK
 62
0
100
AcDbLine
 10
771.0576417198017
 20
457.5477687783224
 30
0.0000000000000000
 11
751.0576417197874
 21
457.5477687783224
 31
0.0000000000000000
  0
INSERT
  5
2CA
100
AcDbEntity
  8
MAIN0
  6
BYBLOCK
 62
0
100
AcDbBlockReference
  2
_OPEN
 10
774.0576417198017
 20
457.5477687783224
 30
0.0000000000000000
 41
3.000000000000000
 42
3.000000000000000
 43
3.000000000000000
 50
360.0000000000000
  0
INSERT
  5
2CB
100
AcDbEntity
  8
MAIN0
  6
BYBLOCK
 62
0
100
AcDbBlockReference
  2
_OPEN
 10
748.0576417197874
 20
457.5477687783224
 30
0.0000000000000000
 41
3.000000000000000
 42
3.000000000000000
 43
3.000000000000000
 50
180.0000000000000
  0
MTEXT
  5
2CC
100
AcDbEntity
  8
MAIN0
  6
BYBLOCK
 62
0
100
AcDbMText
 10
761.0576417197946
 20
460.3727687067968
 30
0.0000000000000000
 40
4.649999856948853
 41
0.0000000000000000
 71
     5
 72
     1
  1
\A1;\U+220526
 11
1.000000000000000
 21
0.0000000000000000
 31
0.0000000000000000
  7
STANDARD
  0
ENDBLK
  5
2CD
100
AcDbEntity
  8
MAIN0
  6
CONTINUOUS
 62
3
100
AcDbBlockEnd
  0
BLOCK
  5
2CF
100
AcDbEntity
  8
MAIN0
  6
CONTINUOUS
 62
3
100
AcDbBlockBegin
  2
*D25
 70
    65
 10
0.0
 20
0.0
 30
0.0
  0
LINE
  5
2D0
100
AcDbEntity
  8
MAIN0
  6
BYBLOCK
 62
0
100
AcDbLine
 10
724.2840119958050
 20
509.9053058392984
 30
0.0000000000000000
 11
724.2840119958050
 21
519.9053058392984
 31
0.0000000000000000
  0
INSERT
  5
2D1
100
AcDbEntity
  8
MAIN0
  6
BYBLOCK
 62
0
100
AcDbBlockReference
  2
_OPEN
 10
724.2840119958050
 20
506.9053058392984
 30
0.0000000000000000
 41
3.000000000000000
 42
3.000000000000000
 43
3.000000000000000
 50
270.0000000000000
  0
INSERT
  5
2D2
100
AcDbEntity
  8
MAIN0
  6
BYBLOCK
 62
0
100
AcDbBlockReference
  2
_OPEN
 10
724.2840119958050
 20
522.9053058392984
 30
0.0000000000000000
 41
3.000000000000000
 42
3.000000000000000
 43
3.000000000000000
 50
90.00000000000000
  0
MTEXT
  5
2D3
100
AcDbEntity
  8
MAIN0
  6
BYBLOCK
 62
0
100
AcDbMText
 10
721.4590120673306
 20
514.9053058392984
 30
0.0000000000000000
 40
4.649999856948853
 41
0.0000000000000000
 71
     5
 72
     1
  1
\A1;\U+220516
 11
6.123233995736766e-017
 21
1.000000000000000
 31
0.0000000000000000
  7
STANDARD
  0
ENDBLK
  5
2D4
100
AcDbEntity
  8
MAIN0
  6
CONTINUOUS
 62
3
100
AcDbBlockEnd
  0
BLOCK
  5
2D6
100
AcDbEntity
  8
MAIN0
  6
CONTINUOUS
 62
3
100
AcDbBlockBegin
  2
*D26
 70
    65
 10
0.0
 20
0.0
 30
0.0
  0
LINE
  5
2D7
100
AcDbEntity
  8
MAIN0
  6
BYBLOCK
 62
0
100
AcDbLine
 10
236.0576417193415
 20
494.1053058571798
 30
0.0000000000000000
 11
236.0576417193410
 21
517.9053058392984
 31
0.0000000000000000
  0
LINE
  5
2D8
100
AcDbEntity
  8
MAIN0
  6
BYBLOCK
 62
0
100
AcDbLine
 10
233.0576417193410
 20
514.9053058392984
 30
0.0000000000000000
 11
215.5576417193415
 21
514.9053058392984
 31
0.0000000000000000
  0
INSERT
  5
2D9
100
AcDbEntity
  8
MAIN0
  6
BYBLOCK
 62
0
100
AcDbBlockReference
  2
_OPEN
 10
236.0576417193410
 20
514.9053058392984
 30
0.0000000000000000
 41
3.000000000000000
 42
3.000000000000000
 43
3.000000000000000
 50
360.0000000000000
  0
INSERT
  5
2DA
100
AcDbEntity
  8
MAIN0
  6
BYBLOCK
 62
0
100
AcDbBlockReference
  2
_OPEN
 10
212.5576417193415
 20
514.9053058392984
 30
0.0000000000000000
 41
3.000000000000000
 42
3.000000000000000
 43
3.000000000000000
 50
180.0000000000000
  0
LINE
  5
2DB
100
AcDbEntity
  8
MAIN0
  6
BYBLOCK
 62
0
100
AcDbLine
 10
212.5576417193415
 20
501.1053058571798
 30
0.0000000000000000
 11
212.5576417193415
 21
517.9053058392984
 31
0.0000000000000000
  0
MTEXT
  5
2DC
100
AcDbEntity
  8
MAIN0
  6
BYBLOCK
 62
0
100
AcDbMText
 10
224.3076417193413
 20
517.7303057677729
 30
0.0000000000000000
 40
4.649999856948853
 41
0.0000000000000000
 71
     5
 72
     1
  1
\A1;23.5
 11
1.000000000000000
 21
0.0000000000000000
 31
0.0000000000000000
  7
STANDARD
  0
ENDBLK
  5
2DD
100
AcDbEntity
  8
MAIN0
  6
CONTINUOUS
 62
3
100
AcDbBlockEnd
  0
BLOCK
  5
2DF
100
AcDbEntity
  8
MAIN0
  6
CONTINUOUS
 62
3
100
AcDbBlockBegin
  2
*D27
 70
    65
 10
0.0
 20
0.0
 30
0.0
  0
LINE
  5
2E0
100
AcDbEntity
  8
MAIN0
  6
BYBLOCK
 62
0
100
AcDbLine
 10
236.0576417193415
 20
494.1053058571798
 30
0.0000000000000000
 11
236.0576417193410
 21
537.9053058392984
 31
0.0000000000000000
  0
LINE
  5
2E1
100
AcDbEntity
  8
MAIN0
  6
BYBLOCK
 62
0
100
AcDbLine
 10
233.0576417193410
 20
534.9053058392984
 30
0.0000000000000000
 11
143.0576417193411
 21
534.9053058392984
 31
0.0000000000000000
  0
INSERT
  5
2E2
100
AcDbEntity
  8
MAIN0
  6
BYBLOCK
 62
0
100
AcDbBlockReference
  2
_OPEN
 10
236.0576417193410
 20
534.9053058392984
 30
0.0000000000000000
 41
3.000000000000000
 42
3.000000000000000
 43
3.000000000000000
 50
360.0000000000000
  0
INSERT
  5
2E3
100
AcDbEntity
  8
MAIN0
  6
BYBLOCK
 62
0
100
AcDbBlockReference
  2
_OPEN
 10
140.0576417193411
 20
534.9053058392984
 30
0.0000000000000000
 41
3.000000000000000
 42
3.000000000000000
 43
3.000000000000000
 50
180.0000000000000
  0
LINE
  5
2E4
100
AcDbEntity
  8
MAIN0
  6
BYBLOCK
 62
0
100
AcDbLine
 10
140.0576417193415
 20
494.1053058571799
 30
0.0000000000000000
 11
140.0576417193411
 21
537.9053058392984
 31
0.0000000000000000
  0
MTEXT
  5
2E5
100
AcDbEntity
  8
MAIN0
  6
BYBLOCK
 62
0
100
AcDbMText
 10
188.0576417193411
 20
537.7303057677729
 30
0.0000000000000000
 40
4.649999856948853
 41
0.0000000000000000
 71
     5
 72
     1
  1
\A1;96
 11
1.000000000000000
 21
0.0000000000000000
 31
0.0000000000000000
  7
STANDARD
  0
ENDBLK
  5
2E6
100
AcDbEntity
  8
MAIN0
  6
CONTINUOUS
 62
3
100
AcDbBlockEnd
  0
BLOCK
  5
2E8
100
AcDbEntity
  8
MAIN0
  6
CONTINUOUS
 62
3
100
AcDbBlockBegin
  2
*D28
 70
    65
 10
0.0
 20
0.0
 30
0.0
  0
LINE
  5
2E9
100
AcDbEntity
  8
MAIN0
  6
BYBLOCK
 62
0
100
AcDbLine
 10
159.3576417014600
 20
387.9053058392985
 30
0.0000000000000000
 11
118.0576417193413
 21
387.9053058392985
 31
0.0000000000000000
  0
LINE
  5
2EA
100
AcDbEntity
  8
MAIN0
  6
BYBLOCK
 62
0
100
AcDbLine
 10
121.0576417193413
 20
384.9053058392985
 30
0.0000000000000000
 11
121.0576417193413
 21
294.9053058392984
 31
0.0000000000000000
  0
INSERT
  5
2EB
100
AcDbEntity
  8
MAIN0
  6
BYBLOCK
 62
0
100
AcDbBlockReference
  2
_OPEN
 10
121.0576417193413
 20
387.9053058392985
 30
0.0000000000000000
 41
3.000000000000000
 42
3.000000000000000
 43
3.000000000000000
 50
90.00000000000000
  0
INSERT
  5
2EC
100
AcDbEntity
  8
MAIN0
  6
BYBLOCK
 62
0
100
AcDbBlockReference
  2
_OPEN
 10
121.0576417193413
 20
291.9053058392984
 30
0.0000000000000000
 41
3.000000000000000
 42
3.000000000000000
 43
3.000000000000000
 50
270.0000000000000
  0
LINE
  5
2ED
100
AcDbEntity
  8
MAIN0
  6
BYBLOCK
 62
0
100
AcDbLine
 10
159.3576417014598
 20
291.9053058392984
 30
0.0000000000000000
 11
118.0576417193413
 21
291.9053058392984
 31
0.0000000000000000
  0
MTEXT
  5
2EE
100
AcDbEntity
  8
MAIN0
  6
BYBLOCK
 62
0
100
AcDbMText
 10
118.2326417908669
 20
339.9053058392985
 30
0.0000000000000000
 40
4.649999856948853
 41
0.0000000000000000
 71
     5
 72
     1
  1
\A1;\U+220596
 11
6.123233995736766e-017
 21
1.000000000000000
 31
0.0000000000000000
  7
STANDARD
  0
ENDBLK
  5
2EF
100
AcDbEntity
  8
MAIN0
  6
CONTINUOUS
 62
3
100
AcDbBlockEnd
  0
BLOCK
  5
2F1
100
AcDbEntity
  8
MAIN0
  6
CONTINUOUS
 62
3
100
AcDbBlockBegin
  2
*D29
 70
    65
 10
0.0
 20
0.0
 30
0.0
  0
LINE
  5
2F2
100
AcDbEntity
  8
MAIN0
  6
BYBLOCK
 62
0
100
AcDbLine
 10
409.5531777903525
 20
241.2600401557467
 30
0.0000000000000000
 11
602.5621056483301
 21
438.5505715228502
 31
0.0000000000000000
  0
INSERT
  5
2F3
100
AcDbEntity
  8
MAIN0
  6
BYBLOCK
 62
0
100
AcDbBlockReference
  2
_OPEN
 10
407.4552546614614
 20
239.1155778582782
 30
0.0000000000000000
 41
3.000000000000000
 42
3.000000000000000
 43
3.000000000000000
 50
225.6285121971354
  0
INSERT
  5
2F4
100
AcDbEntity
  8
MAIN0
  6
BYBLOCK
 62
0
100
AcDbBlockReference
  2
_OPEN
 10
604.6600287772212
 20
440.6950338203187
 30
0.0000000000000000
 41
3.000000000000000
 42
3.000000000000000
 43
3.000000000000000
 50
45.62851219713544
  0
MTEXT
  5
2F5
100
AcDbEntity
  8
MAIN0
  6
BYBLOCK
 62
0
100
AcDbMText
 10
433.7926283350258
 20
270.4344111071647
 30
0.0000000000000000
 40
4.649999856948853
 41
0.0000000000000000
 71
     5
 72
     1
  1
\A1;\U+2205282\H0.903226x;\U+00B10.2
 11
0.6993077096303535
 21
0.7148207658228384
 31
0.0000000000000000
  7
STANDARD
  0
ENDBLK
  5
2F6
100
AcDbEntity
  8
MAIN0
  6
CONTINUOUS
 62
3
100
AcDbBlockEnd
  0
BLOCK
  5
356
100
AcDbEntity
  8
MAIN0
  6
BYBLOCK
 62
3
100
AcDbBlockBegin
  2
*X0
 70
     1
 10
0.0
 20
0.0
 30
0.0
  0
LINE
  5
357
100
AcDbEntity
  8
MAIN0
  6
BYBLOCK
 62
0
100
AcDbLine
 10
617.4718552815152
 20
520.9053058392791
 30
0.0000000000000000
 11
616.0576417192469
 21
522.3195194015473
 31
0.0000000000000000
  0
LINE
  5
358
100
AcDbEntity
  8
MAIN0
  6
BYBLOCK
 62
0
100
AcDbLine
 10
617.3304339231709
 20
520.9053058392785
 30
0.0000000000000000
 11
616.0576417192460
 21
522.1780980432038
 31
0.0000000000000000
  0
LINE
  5
359
100
AcDbEntity
  8
MAIN0
  6
BYBLOCK
 62
0
100
AcDbLine
 10
617.1890125648247
 20
520.9053058392797
 30
0.0000000000000000
 11
616.0576417192465
 21
522.0366766848582
 31
0.0000000000000000
  0
LINE
  5
35A
100
AcDbEntity
  8
MAIN0
  6
BYBLOCK
 62
0
100
AcDbLine
 10
617.0475912064816
 20
520.9053058392780
 30
0.0000000000000000
 11
616.0576417192450
 21
521.8952553265144
 31
0.0000000000000000
  0
LINE
  5
35B
100
AcDbEntity
  8
MAIN0
  6
BYBLOCK
 62
0
100
AcDbLine
 10
616.9061698481357
 20
520.9053058392785
 30
0.0000000000000000
 11
616.0576417192445
 21
521.7538339681703
 31
0.0000000000000000
  0
LINE
  5
35C
100
AcDbEntity
  8
MAIN0
  6
BYBLOCK
 62
0
100
AcDbLine
 10
616.7647484897916
 20
520.9053058392786
 30
0.0000000000000000
 11
616.0576417192447
 21
521.6124126098256
 31
0.0000000000000000
  0
LINE
  5
35D
100
AcDbEntity
  8
MAIN0
  6
BYBLOCK
 62
0
100
AcDbLine
 10
616.6233271314459
 20
520.9053058392796
 30
0.0000000000000000
 11
616.0576417192442
 21
521.4709912514811
 31
0.0000000000000000
  0
LINE
  5
35E
100
AcDbEntity
  8
MAIN0
  6
BYBLOCK
 62
0
100
AcDbLine
 10
616.4819057731025
 20
520.9053058392780
 30
0.0000000000000000
 11
616.0576417192458
 21
521.3295698931353
 31
0.0000000000000000
  0
LINE
  5
35F
100
AcDbEntity
  8
MAIN0
  6
BYBLOCK
 62
0
100
AcDbLine
 10
616.3404844147576
 20
520.9053058392785
 30
0.0000000000000000
 11
616.0576417192457
 21
521.1881485347897
 31
0.0000000000000000
  0
LINE
  5
360
100
AcDbEntity
  8
MAIN0
  6
BYBLOCK
 62
0
100
AcDbLine
 10
616.1990630564112
 20
520.9053058392794
 30
0.0000000000000000
 11
616.0576417192466
 21
521.0467271764444
 31
0.0000000000000000
  0
ENDBLK
  5
361
100
AcDbEntity
  8
MAIN0
  6
BYBLOCK
 62
3
100
AcDbBlockEnd
  0
BLOCK
  5
363
100
AcDbEntity
  8
MAIN0
  6
BYBLOCK
 62
3
100
AcDbBlockBegin
  2
*X1
 70
     1
 10
0.0
 20
0.0
 30
0.0
  0
LINE
  5
364
100
AcDbEntity
  8
MAIN0
  6
BYBLOCK
 62
0
100
AcDbLine
 10
617.4718552815152
 20
508.9053058393175
 30
0.0000000000000000
 11
616.0576417192469
 21
507.4910922770492
 31
0.0000000000000000
  0
LINE
  5
365
100
AcDbEntity
  8
MAIN0
  6
BYBLOCK
 62
0
100
AcDbLine
 10
617.3304339231706
 20
508.9053058393180
 30
0.0000000000000000
 11
616.0576417192458
 21
507.6325136353927
 31
0.0000000000000000
  0
LINE
  5
366
100
AcDbEntity
  8
MAIN0
  6
BYBLOCK
 62
0
100
AcDbLine
 10
617.1890125648247
 20
508.9053058393170
 30
0.0000000000000000
 11
616.0576417192465
 21
507.7739349937384
 31
0.0000000000000000
  0
LINE
  5
367
100
AcDbEntity
  8
MAIN0
  6
BYBLOCK
 62
0
100
AcDbLine
 10
617.0475912064816
 20
508.9053058393184
 30
0.0000000000000000
 11
616.0576417192450
 21
507.9153563520818
 31
0.0000000000000000
  0
LINE
  5
368
100
AcDbEntity
  8
MAIN0
  6
BYBLOCK
 62
0
100
AcDbLine
 10
616.9061698481359
 20
508.9053058393179
 30
0.0000000000000000
 11
616.0576417192444
 21
508.0567777104261
 31
0.0000000000000000
  0
LINE
  5
369
100
AcDbEntity
  8
MAIN0
  6
BYBLOCK
 62
0
100
AcDbLine
 10
616.7647484897916
 20
508.9053058393181
 30
0.0000000000000000
 11
616.0576417192447
 21
508.1981990687712
 31
0.0000000000000000
  0
LINE
  5
36A
100
AcDbEntity
  8
MAIN0
  6
BYBLOCK
 62
0
100
AcDbLine
 10
616.6233271314459
 20
508.9053058393170
 30
0.0000000000000000
 11
616.0576417192442
 21
508.3396204271154
 31
0.0000000000000000
  0
LINE
  5
36B
100
AcDbEntity
  8
MAIN0
  6
BYBLOCK
 62
0
100
AcDbLine
 10
616.4819057731024
 20
508.9053058393184
 30
0.0000000000000000
 11
616.0576417192456
 21
508.4810417854612
 31
0.0000000000000000
  0
LINE
  5
36C
100
AcDbEntity
  8
MAIN0
  6
BYBLOCK
 62
0
100
AcDbLine
 10
616.3404844147577
 20
508.9053058393180
 30
0.0000000000000000
 11
616.0576417192458
 21
508.6224631438069
 31
0.0000000000000000
  0
LINE
  5
36D
100
AcDbEntity
  8
MAIN0
  6
BYBLOCK
 62
0
100
AcDbLine
 10
616.1990630564111
 20
508.9053058393171
 30
0.0000000000000000
 11
616.0576417192465
 21
508.7638845021521
 31
0.0000000000000000
  0
ENDBLK
  5
36E
100
AcDbEntity
  8
MAIN0
  6
BYBLOCK
 62
3
100
AcDbBlockEnd
  0
BLOCK
  5
370
100
AcDbEntity
  8
MAIN0
  6
BYBLOCK
 62
3
100
AcDbBlockBegin
  2
*X2
 70
     1
 10
0.0
 20
0.0
 30
0.0
  0
LINE
  5
371
100
AcDbEntity
  8
MAIN0
  6
BYBLOCK
 62
0
100
AcDbLine
 10
784.6434281569868
 20
520.9053058400971
 30
0.0000000000000000
 11
786.0576417192427
 21
522.3195194023778
 31
0.0000000000000000
  0
LINE
  5
372
100
AcDbEntity
  8
MAIN0
  6
BYBLOCK
 62
0
100
AcDbLine
 10
784.7848495153310
 20
520.9053058400978
 30
0.0000000000000000
 11
786.0576417192447
 21
522.1780980440342
 31
0.0000000000000000
  0
LINE
  5
373
100
AcDbEntity
  8
MAIN0
  6
BYBLOCK
 62
0
100
AcDbLine
 10
784.9262708736771
 20
520.9053058400998
 30
0.0000000000000000
 11
786.0576417192455
 21
522.0366766856884
 31
0.0000000000000000
  0
LINE
  5
374
100
AcDbEntity
  8
MAIN0
  6
BYBLOCK
 62
0
100
AcDbLine
 10
785.0676922320201
 20
520.9053058400998
 30
0.0000000000000000
 11
786.0576417192481
 21
521.8952553273450
 31
0.0000000000000000
  0
LINE
  5
375
100
AcDbEntity
  8
MAIN0
  6
BYBLOCK
 62
0
100
AcDbLine
 10
785.2091135903658
 20
520.9053058401014
 30
0.0000000000000000
 11
786.0576417192497
 21
521.7538339690007
 31
0.0000000000000000
  0
LINE
  5
376
100
AcDbEntity
  8
MAIN0
  6
BYBLOCK
 62
0
100
AcDbLine
 10
785.3505349487103
 20
520.9053058401028
 30
0.0000000000000000
 11
786.0576417192511
 21
521.6124126106558
 31
0.0000000000000000
  0
LINE
  5
377
100
AcDbEntity
  8
MAIN0
  6
BYBLOCK
 62
0
100
AcDbLine
 10
785.4919563070561
 20
520.9053058401048
 30
0.0000000000000000
 11
786.0576417192530
 21
521.4709912523116
 31
0.0000000000000000
  0
LINE
  5
378
100
AcDbEntity
  8
MAIN0
  6
BYBLOCK
 62
0
100
AcDbLine
 10
785.6333776653994
 20
520.9053058401046
 30
0.0000000000000000
 11
786.0576417192526
 21
521.3295698939656
 31
0.0000000000000000
  0
LINE
  5
379
100
AcDbEntity
  8
MAIN0
  6
BYBLOCK
 62
0
100
AcDbLine
 10
785.7747990237443
 20
520.9053058401064
 30
0.0000000000000000
 11
786.0576417192540
 21
521.1881485356200
 31
0.0000000000000000
  0
LINE
  5
37A
100
AcDbEntity
  8
MAIN0
  6
BYBLOCK
 62
0
100
AcDbLine
 10
785.9162203820908
 20
520.9053058401087
 30
0.0000000000000000
 11
786.0576417192540
 21
521.0467271772748
 31
0.0000000000000000
  0
ENDBLK
  5
37B
100
AcDbEntity
  8
MAIN0
  6
BYBLOCK
 62
3
100
AcDbBlockEnd
  0
BLOCK
  5
37D
100
AcDbEntity
  8
MAIN0
  6
BYBLOCK
 62
3
100
AcDbBlockBegin
  2
*X3
 70
     1
 10
0.0
 20
0.0
 30
0.0
  0
LINE
  5
37E
100
AcDbEntity
  8
MAIN0
  6
BYBLOCK
 62
0
100
AcDbLine
 10
784.6434281570917
 20
508.9053058401352
 30
0.0000000000000000
 11
786.0576417193722
 21
507.4910922778793
 31
0.0000000000000000
  0
LINE
  5
37F
100
AcDbEntity
  8
MAIN0
  6
BYBLOCK
 62
0
100
AcDbLine
 10
784.7848495154357
 20
508.9053058401369
 30
0.0000000000000000
 11
786.0576417193715
 21
507.6325136362227
 31
0.0000000000000000
  0
LINE
  5
380
100
AcDbEntity
  8
MAIN0
  6
BYBLOCK
 62
0
100
AcDbLine
 10
784.9262708737819
 20
508.9053058401374
 30
0.0000000000000000
 11
786.0576417193701
 21
507.7739349945687
 31
0.0000000000000000
  0
LINE
  5
381
100
AcDbEntity
  8
MAIN0
  6
BYBLOCK
 62
0
100
AcDbLine
 10
785.0676922321250
 20
508.9053058401398
 30
0.0000000000000000
 11
786.0576417193702
 21
507.9153563529119
 31
0.0000000000000000
  0
LINE
  5
382
100
AcDbEntity
  8
MAIN0
  6
BYBLOCK
 62
0
100
AcDbLine
 10
785.2091135904707
 20
508.9053058401408
 30
0.0000000000000000
 11
786.0576417193695
 21
508.0567777112565
 31
0.0000000000000000
  0
LINE
  5
383
100
AcDbEntity
  8
MAIN0
  6
BYBLOCK
 62
0
100
AcDbLine
 10
785.3505349488153
 20
508.9053058401420
 30
0.0000000000000000
 11
786.0576417193684
 21
508.1981990696012
 31
0.0000000000000000
  0
LINE
  5
384
100
AcDbEntity
  8
MAIN0
  6
BYBLOCK
 62
0
100
AcDbLine
 10
785.4919563071608
 20
508.9053058401423
 30
0.0000000000000000
 11
786.0576417193676
 21
508.3396204279454
 31
0.0000000000000000
  0
LINE
  5
385
100
AcDbEntity
  8
MAIN0
  6
BYBLOCK
 62
0
100
AcDbLine
 10
785.6333776655041
 20
508.9053058401451
 30
0.0000000000000000
 11
786.0576417193647
 21
508.4810417862914
 31
0.0000000000000000
  0
LINE
  5
386
100
AcDbEntity
  8
MAIN0
  6
BYBLOCK
 62
0
100
AcDbLine
 10
785.7747990238490
 20
508.9053058401457
 30
0.0000000000000000
 11
786.0576417193636
 21
508.6224631446371
 31
0.0000000000000000
  0
LINE
  5
387
100
AcDbEntity
  8
MAIN0
  6
BYBLOCK
 62
0
100
AcDbLine
 10
785.9162203821957
 20
508.9053058401460
 30
0.0000000000000000
 11
786.0576417193614
 21
508.7638845029823
 31
0.0000000000000000
  0
ENDBLK
  5
388
100
AcDbEntity
  8
MAIN0
  6
BYBLOCK
 62
3
100
AcDbBlockEnd
  0
BLOCK
  5
3E5
100
AcDbEntity
  8
MAIN0
  6
CONTINUOUS
 62
1
100
AcDbBlockBegin
  2
*D30
 70
    65
 10
0.0
 20
0.0
 30
0.0
  0
LINE
  5
3E6
100
AcDbEntity
  8
MAIN0
  6
BYBLOCK
 62
0
100
AcDbLine
 10
856.0576417192824
 20
526.5053058580101
 30
0.0000000000000000
 11
856.0576417192824
 21
562.9053058392984
 31
0.0000000000000000
  0
LINE
  5
3E7
100
AcDbEntity
  8
MAIN0
  6
BYBLOCK
 62
0
100
AcDbLine
 10
853.0576417192824
 20
559.9053058392984
 30
0.0000000000000000
 11
669.0576417193092
 21
559.9053058392984
 31
0.0000000000000000
  0
INSERT
  5
3E8
100
AcDbEntity
  8
MAIN0
  6
BYBLOCK
 62
0
100
AcDbBlockReference
  2
_OPEN
 10
856.0576417192824
 20
559.9053058392984
 30
0.0000000000000000
 41
3.000000000000000
 42
3.000000000000000
 43
3.000000000000000
 50
360.0000000000000
  0
INSERT
  5
3E9
100
AcDbEntity
  8
MAIN0
  6
BYBLOCK
 62
0
100
AcDbBlockReference
  2
_OPEN
 10
666.0576417193092
 20
559.9053058392984
 30
0.0000000000000000
 41
3.000000000000000
 42
3.000000000000000
 43
3.000000000000000
 50
180.0000000000000
  0
LINE
  5
3EA
100
AcDbEntity
  8
MAIN0
  6
BYBLOCK
 62
0
100
AcDbLine
 10
666.0576417193092
 20
526.5053058571798
 30
0.0000000000000000
 11
666.0576417193092
 21
562.9053058392984
 31
0.0000000000000000
  0
MTEXT
  5
3EB
100
AcDbEntity
  8
MAIN0
  6
BYBLOCK
 62
0
100
AcDbMText
 10
761.0576417192958
 20
562.7303057677729
 30
0.0000000000000000
 40
4.649999856948853
 41
0.0000000000000000
 71
     5
 72
     1
  1
\A1;390
 11
1.000000000000000
 21
0.0000000000000000
 31
0.0000000000000000
  7
STANDARD
  0
ENDBLK
  5
3EC
100
AcDbEntity
  8
MAIN0
  6
CONTINUOUS
 62
1
100
AcDbBlockEnd
  0
BLOCK
  5
3EE
100
AcDbEntity
  8
MAIN0
  6
CONTINUOUS
 62
3
100
AcDbBlockBegin
  2
*D31
 70
    65
 10
0.0
 20
0.0
 30
0.0
  0
LINE
  5
3EF
100
AcDbEntity
  8
MAIN0
  6
BYBLOCK
 62
0
100
AcDbLine
 10
746.8576417013746
 20
532.9053058392984
 30
0.0000000000000000
 11
732.5050184743523
 21
532.9053058392984
 31
0.0000000000000000
  0
LINE
  5
3F0
100
AcDbEntity
  8
MAIN0
  6
BYBLOCK
 62
0
100
AcDbLine
 10
735.5050184743523
 20
529.9053058392984
 30
0.0000000000000000
 11
735.5050184743523
 21
517.9053058392984
 31
0.0000000000000000
  0
INSERT
  5
3F1
100
AcDbEntity
  8
MAIN0
  6
BYBLOCK
 62
0
100
AcDbBlockReference
  2
_OPEN
 10
735.5050184743523
 20
532.9053058392984
 30
0.0000000000000000
 41
3.000000000000000
 42
3.000000000000000
 43
3.000000000000000
 50
90.00000000000000
  0
INSERT
  5
3F2
100
AcDbEntity
  8
MAIN0
  6
BYBLOCK
 62
0
100
AcDbBlockReference
  2
_OPEN
 10
735.5050184743523
 20
514.9053058392984
 30
0.0000000000000000
 41
3.000000000000000
 42
3.000000000000000
 43
3.000000000000000
 50
270.0000000000000
  0
MTEXT
  5
3F3
100
AcDbEntity
  8
MAIN0
  6
BYBLOCK
 62
0
100
AcDbMText
 10
732.4300185458778
 20
527.9756940293164
 30
0.0000000000000000
 40
4.649999856948853
 41
0.0000000000000000
 71
     5
 72
     1
  1
\A1;18
 11
6.123233995736766e-017
 21
1.000000000000000
 31
0.0000000000000000
  7
STANDARD
  0
ENDBLK
  5
3F4
100
AcDbEntity
  8
MAIN0
  6
CONTINUOUS
 62
3
100
AcDbBlockEnd
  0
BLOCK
  5
3F6
100
AcDbEntity
  8
MAIN0
  6
CONTINUOUS
 62
3
100
AcDbBlockBegin
  2
*D32
 70
    65
 10
0.0
 20
0.0
 30
0.0
  0
LINE
  5
3F7
100
AcDbEntity
  8
MAIN0
  6
BYBLOCK
 62
0
100
AcDbLine
 10
746.0576417192640
 20
532.1053058571798
 30
0.0000000000000000
 11
746.0576417192907
 21
547.9053058392984
 31
0.0000000000000000
  0
LINE
  5
3F8
100
AcDbEntity
  8
MAIN0
  6
BYBLOCK
 62
0
100
AcDbLine
 10
749.0576417192856
 20
544.9053058392984
 30
0.0000000000000000
 11
773.0576417192619
 21
544.9053058392984
 31
0.0000000000000000
  0
INSERT
  5
3F9
100
AcDbEntity
  8
MAIN0
  6
BYBLOCK
 62
0
100
AcDbBlockReference
  2
_OPEN
 10
746.0576417192856
 20
544.9053058392984
 30
0.0000000000000000
 41
3.000000000000000
 42
3.000000000000000
 43
3.000000000000000
 50
180.0000000000000
  0
INSERT
  5
3FA
100
AcDbEntity
  8
MAIN0
  6
BYBLOCK
 62
0
100
AcDbBlockReference
  2
_OPEN
 10
776.0576417192619
 20
544.9053058392984
 30
0.0000000000000000
 41
3.000000000000000
 42
3.000000000000000
 43
3.000000000000000
 50
0.0000000000000000
  0
LINE
  5
3FB
100
AcDbEntity
  8
MAIN0
  6
BYBLOCK
 62
0
100
AcDbLine
 10
776.0576417192621
 20
532.1053058571798
 30
0.0000000000000000
 11
776.0576417192619
 21
547.9053058392984
 31
0.0000000000000000
  0
MTEXT
  5
3FC
100
AcDbEntity
  8
MAIN0
  6
BYBLOCK
 62
0
100
AcDbMText
 10
761.0576417192738
 20
547.7303057677729
 30
0.0000000000000000
 40
4.649999856948853
 41
0.0000000000000000
 71
     5
 72
     1
  1
\A1;\U+220530
 11
1.000000000000000
 21
0.0000000000000000
 31
0.0000000000000000
  7
STANDARD
  0
ENDBLK
  5
3FD
100
AcDbEntity
  8
MAIN0
  6
CONTINUOUS
 62
3
100
AcDbBlockEnd
  0
BLOCK
  5
3FF
100
AcDbEntity
  8
MAIN0
  6
CONTINUOUS
 62
3
100
AcDbBlockBegin
  2
*D33
 70
    65
 10
0.0
 20
0.0
 30
0.0
  0
LINE
  5
400
100
AcDbEntity
  8
MAIN0
  6
BYBLOCK
 62
0
100
AcDbLine
 10
768.4220010919967
 20
332.9053058392984
 30
0.0000000000000000
 11
789.0576417193413
 21
332.9053058392984
 31
0.0000000000000000
  0
LINE
  5
401
100
AcDbEntity
  8
MAIN0
  6
BYBLOCK
 62
0
100
AcDbLine
 10
786.0576417193413
 20
335.9053058392984
 30
0.0000000000000000
 11
786.0576417193413
 21
347.9053058392984
 31
0.0000000000000000
  0
INSERT
  5
402
100
AcDbEntity
  8
MAIN0
  6
BYBLOCK
 62
0
100
AcDbBlockReference
  2
_OPEN
 10
786.0576417193413
 20
332.9053058392984
 30
0.0000000000000000
 41
3.000000000000000
 42
3.000000000000000
 43
3.000000000000000
 50
270.0000000000000
  0
INSERT
  5
403
100
AcDbEntity
  8
MAIN0
  6
BYBLOCK
 62
0
100
AcDbBlockReference
  2
_OPEN
 10
786.0576417193413
 20
350.9053058392984
 30
0.0000000000000000
 41
3.000000000000000
 42
3.000000000000000
 43
3.000000000000000
 50
90.00000000000000
  0
LINE
  5
404
100
AcDbEntity
  8
MAIN0
  6
BYBLOCK
 62
0
100
AcDbLine
 10
771.7576417378625
 20
350.9053058392984
 30
0.0000000000000000
 11
789.0576417193413
 21
350.9053058392984
 31
0.0000000000000000
  0
MTEXT
  5
405
100
AcDbEntity
  8
MAIN0
  6
BYBLOCK
 62
0
100
AcDbMText
 10
783.2326417908669
 20
341.9053058392984
 30
0.0000000000000000
 40
4.649999856948853
 41
0.0000000000000000
 71
     5
 72
     1
  1
\A1;18
 11
6.123233995736766e-017
 21
1.000000000000000
 31
0.0000000000000000
  7
STANDARD
  0
ENDBLK
  5
406
100
AcDbEntity
  8
MAIN0
  6
CONTINUOUS
 62
3
100
AcDbBlockEnd
  0
BLOCK
  5
408
100
AcDbEntity
  8
MAIN0
  6
CONTINUOUS
 62
3
100
AcDbBlockBegin
  2
*D34
 70
    65
 10
0.0
 20
0.0
 30
0.0
  0
LINE
  5
409
100
AcDbEntity
  8
MAIN0
  6
BYBLOCK
 62
0
100
AcDbLine
 10
771.0226006715415
 20
307.0513783482213
 30
0.0000000000000000
 11
784.2344777934626
 21
293.8395012263005
 31
0.0000000000000000
  0
LINE
  5
40A
100
AcDbEntity
  8
MAIN0
  6
BYBLOCK
 62
0
100
AcDbLine
 10
779.9918371063433
 20
293.8395012263004
 30
0.0000000000000000
 11
774.3349828568510
 21
288.1826469768081
 31
0.0000000000000000
  0
INSERT
  5
40B
100
AcDbEntity
  8
MAIN0
  6
BYBLOCK
 62
0
100
AcDbBlockReference
  2
_OPEN
 10
782.1131574499029
 20
295.9608215698601
 30
0.0000000000000000
 41
3.000000000000000
 42
3.000000000000000
 43
3.000000000000000
 50
45.00000000000000
  0
INSERT
  5
40C
100
AcDbEntity
  8
MAIN0
  6
BYBLOCK
 62
0
100
AcDbBlockReference
  2
_OPEN
 10
772.2136625132914
 20
286.0613266332484
 30
0.0000000000000000
 41
3.000000000000000
 42
3.000000000000000
 43
3.000000000000000
 50
225.0000000000000
  0
LINE
  5
40D
100
AcDbEntity
  8
MAIN0
  6
BYBLOCK
 62
0
100
AcDbLine
 10
782.1131574499029
 20
295.9608215698601
 30
0.0000000000000000
 11
799.1009813882653
 21
312.9486455082226
 31
0.0000000000000000
  0
LINE
  5
40E
100
AcDbEntity
  8
MAIN0
  6
BYBLOCK
 62
0
100
AcDbLine
 10
761.1231057349289
 20
297.1518834116106
 30
0.0000000000000000
 11
774.3349828568510
 21
283.9400062896888
 31
0.0000000000000000
  0
MTEXT
  5
40F
100
AcDbEntity
  8
MAIN0
  6
BYBLOCK
 62
0
100
AcDbMText
 10
790.0058204693856
 20
308.2021911924879
 30
0.0000000000000000
 40
4.649999856948853
 41
0.0000000000000000
 71
     5
 72
     1
  1
\A1;□14\H0.903226x;\S　0^ －0.1;
 11
0.7071067811865435
 21
0.7071067811865516
 31
0.0000000000000000
  7
KNJYOKO
  0
ENDBLK
  5
410
100
AcDbEntity
  8
MAIN0
  6
CONTINUOUS
 62
3
100
AcDbBlockEnd
  0
BLOCK
  5
412
100
AcDbEntity
  8
MAIN0
  6
BYBLOCK
 62
3
100
AcDbBlockBegin
  2
*X4
 70
     1
 10
0.0
 20
0.0
 30
0.0
  0
LINE
  5
413
100
AcDbEntity
  8
MAIN0
  6
BYBLOCK
 62
0
100
AcDbLine
 10
667.4718552815796
 20
520.9053058392792
 30
0.0000000000000000
 11
666.0576417193113
 21
522.3195194015475
 31
0.0000000000000000
  0
LINE
  5
414
100
AcDbEntity
  8
MAIN0
  6
BYBLOCK
 62
0
100
AcDbLine
 10
667.3304339232351
 20
520.9053058392788
 30
0.0000000000000000
 11
666.0576417193103
 21
522.1780980432041
 31
0.0000000000000000
  0
LINE
  5
415
100
AcDbEntity
  8
MAIN0
  6
BYBLOCK
 62
0
100
AcDbLine
 10
667.1890125648888
 20
520.9053058392799
 30
0.0000000000000000
 11
666.0576417193107
 21
522.0366766848584
 31
0.0000000000000000
  0
LINE
  5
416
100
AcDbEntity
  8
MAIN0
  6
BYBLOCK
 62
0
100
AcDbLine
 10
667.0475912065458
 20
520.9053058392782
 30
0.0000000000000000
 11
666.0576417193092
 21
521.8952553265148
 31
0.0000000000000000
  0
LINE
  5
417
100
AcDbEntity
  8
MAIN0
  6
BYBLOCK
 62
0
100
AcDbLine
 10
666.9061698482001
 20
520.9053058392788
 30
0.0000000000000000
 11
666.0576417193088
 21
521.7538339681705
 31
0.0000000000000000
  0
LINE
  5
418
100
AcDbEntity
  8
MAIN0
  6
BYBLOCK
 62
0
100
AcDbLine
 10
666.7647484898560
 20
520.9053058392788
 30
0.0000000000000000
 11
666.0576417193090
 21
521.6124126098257
 31
0.0000000000000000
  0
LINE
  5
419
100
AcDbEntity
  8
MAIN0
  6
BYBLOCK
 62
0
100
AcDbLine
 10
666.6233271315102
 20
520.9053058392797
 30
0.0000000000000000
 11
666.0576417193086
 21
521.4709912514813
 31
0.0000000000000000
  0
LINE
  5
41A
100
AcDbEntity
  8
MAIN0
  6
BYBLOCK
 62
0
100
AcDbLine
 10
666.4819057731668
 20
520.9053058392782
 30
0.0000000000000000
 11
666.0576417193099
 21
521.3295698931354
 31
0.0000000000000000
  0
LINE
  5
41B
100
AcDbEntity
  8
MAIN0
  6
BYBLOCK
 62
0
100
AcDbLine
 10
666.3404844148220
 20
520.9053058392788
 30
0.0000000000000000
 11
666.0576417193099
 21
521.1881485347899
 31
0.0000000000000000
  0
LINE
  5
41C
100
AcDbEntity
  8
MAIN0
  6
BYBLOCK
 62
0
100
AcDbLine
 10
666.1990630564753
 20
520.9053058392796
 30
0.0000000000000000
 11
666.0576417193108
 21
521.0467271764446
 31
0.0000000000000000
  0
ENDBLK
  5
41D
100
AcDbEntity
  8
MAIN0
  6
BYBLOCK
 62
3
100
AcDbBlockEnd
  0
BLOCK
  5
41F
100
AcDbEntity
  8
MAIN0
  6
BYBLOCK
 62
3
100
AcDbBlockBegin
  2
*X5
 70
     1
 10
0.0
 20
0.0
 30
0.0
  0
LINE
  5
420
100
AcDbEntity
  8
MAIN0
  6
BYBLOCK
 62
0
100
AcDbLine
 10
667.4718552815795
 20
508.9053058393176
 30
0.0000000000000000
 11
666.0576417193112
 21
507.4910922770495
 31
0.0000000000000000
  0
LINE
  5
421
100
AcDbEntity
  8
MAIN0
  6
BYBLOCK
 62
0
100
AcDbLine
 10
667.3304339232350
 20
508.9053058393181
 30
0.0000000000000000
 11
666.0576417193101
 21
507.6325136353928
 31
0.0000000000000000
  0
LINE
  5
422
100
AcDbEntity
  8
MAIN0
  6
BYBLOCK
 62
0
100
AcDbLine
 10
667.1890125648888
 20
508.9053058393172
 30
0.0000000000000000
 11
666.0576417193106
 21
507.7739349937385
 31
0.0000000000000000
  0
LINE
  5
423
100
AcDbEntity
  8
MAIN0
  6
BYBLOCK
 62
0
100
AcDbLine
 10
667.0475912065458
 20
508.9053058393185
 30
0.0000000000000000
 11
666.0576417193092
 21
507.9153563520820
 31
0.0000000000000000
  0
LINE
  5
424
100
AcDbEntity
  8
MAIN0
  6
BYBLOCK
 62
0
100
AcDbLine
 10
666.9061698482001
 20
508.9053058393180
 30
0.0000000000000000
 11
666.0576417193088
 21
508.0567777104262
 31
0.0000000000000000
  0
LINE
  5
425
100
AcDbEntity
  8
MAIN0
  6
BYBLOCK
 62
0
100
AcDbLine
 10
666.7647484898560
 20
508.9053058393182
 30
0.0000000000000000
 11
666.0576417193090
 21
508.1981990687713
 31
0.0000000000000000
  0
LINE
  5
426
100
AcDbEntity
  8
MAIN0
  6
BYBLOCK
 62
0
100
AcDbLine
 10
666.6233271315100
 20
508.9053058393172
 30
0.0000000000000000
 11
666.0576417193084
 21
508.3396204271155
 31
0.0000000000000000
  0
LINE
  5
427
100
AcDbEntity
  8
MAIN0
  6
BYBLOCK
 62
0
100
AcDbLine
 10
666.4819057731667
 20
508.9053058393186
 30
0.0000000000000000
 11
666.0576417193098
 21
508.4810417854613
 31
0.0000000000000000
  0
LINE
  5
428
100
AcDbEntity
  8
MAIN0
  6
BYBLOCK
 62
0
100
AcDbLine
 10
666.3404844148220
 20
508.9053058393183
 30
0.0000000000000000
 11
666.0576417193099
 21
508.6224631438072
 31
0.0000000000000000
  0
LINE
  5
429
100
AcDbEntity
  8
MAIN0
  6
BYBLOCK
 62
0
100
AcDbLine
 10
666.1990630564753
 20
508.9053058393172
 30
0.0000000000000000
 11
666.0576417193108
 21
508.7638845021522
 31
0.0000000000000000
  0
ENDBLK
  5
42A
100
AcDbEntity
  8
MAIN0
  6
BYBLOCK
 62
3
100
AcDbBlockEnd
  0
BLOCK
  5
42C
100
AcDbEntity
  8
MAIN0
  6
BYBLOCK
 62
3
100
AcDbBlockBegin
  2
*X6
 70
     1
 10
0.0
 20
0.0
 30
0.0
  0
LINE
  5
42D
100
AcDbEntity
  8
MAIN0
  6
BYBLOCK
 62
0
100
AcDbLine
 10
854.6434281570512
 20
520.9053058400972
 30
0.0000000000000000
 11
856.0576417193070
 21
522.3195194023779
 31
0.0000000000000000
  0
LINE
  5
42E
100
AcDbEntity
  8
MAIN0
  6
BYBLOCK
 62
0
100
AcDbLine
 10
854.7848495153953
 20
520.9053058400978
 30
0.0000000000000000
 11
856.0576417193090
 21
522.1780980440342
 31
0.0000000000000000
  0
LINE
  5
42F
100
AcDbEntity
  8
MAIN0
  6
BYBLOCK
 62
0
100
AcDbLine
 10
854.9262708737414
 20
520.9053058401000
 30
0.0000000000000000
 11
856.0576417193097
 21
522.0366766856885
 31
0.0000000000000000
  0
LINE
  5
430
100
AcDbEntity
  8
MAIN0
  6
BYBLOCK
 62
0
100
AcDbLine
 10
855.0676922320844
 20
520.9053058400999
 30
0.0000000000000000
 11
856.0576417193123
 21
521.8952553273451
 31
0.0000000000000000
  0
LINE
  5
431
100
AcDbEntity
  8
MAIN0
  6
BYBLOCK
 62
0
100
AcDbLine
 10
855.2091135904300
 20
520.9053058401015
 30
0.0000000000000000
 11
856.0576417193139
 21
521.7538339690008
 31
0.0000000000000000
  0
LINE
  5
432
100
AcDbEntity
  8
MAIN0
  6
BYBLOCK
 62
0
100
AcDbLine
 10
855.3505349487746
 20
520.9053058401029
 30
0.0000000000000000
 11
856.0576417193154
 21
521.6124126106560
 31
0.0000000000000000
  0
LINE
  5
433
100
AcDbEntity
  8
MAIN0
  6
BYBLOCK
 62
0
100
AcDbLine
 10
855.4919563071203
 20
520.9053058401050
 30
0.0000000000000000
 11
856.0576417193172
 21
521.4709912523117
 31
0.0000000000000000
  0
LINE
  5
434
100
AcDbEntity
  8
MAIN0
  6
BYBLOCK
 62
0
100
AcDbLine
 10
855.6333776654635
 20
520.9053058401048
 30
0.0000000000000000
 11
856.0576417193167
 21
521.3295698939659
 31
0.0000000000000000
  0
LINE
  5
435
100
AcDbEntity
  8
MAIN0
  6
BYBLOCK
 62
0
100
AcDbLine
 10
855.7747990238086
 20
520.9053058401065
 30
0.0000000000000000
 11
856.0576417193181
 21
521.1881485356201
 31
0.0000000000000000
  0
LINE
  5
436
100
AcDbEntity
  8
MAIN0
  6
BYBLOCK
 62
0
100
AcDbLine
 10
855.9162203821550
 20
520.9053058401087
 30
0.0000000000000000
 11
856.0576417193181
 21
521.0467271772749
 31
0.0000000000000000
  0
ENDBLK
  5
437
100
AcDbEntity
  8
MAIN0
  6
BYBLOCK
 62
3
100
AcDbBlockEnd
  0
BLOCK
  5
439
100
AcDbEntity
  8
MAIN0
  6
BYBLOCK
 62
3
100
AcDbBlockBegin
  2
*X7
 70
     1
 10
0.0
 20
0.0
 30
0.0
  0
LINE
  5
43A
100
AcDbEntity
  8
MAIN0
  6
BYBLOCK
 62
0
100
AcDbLine
 10
854.6434281571560
 20
508.9053058401354
 30
0.0000000000000000
 11
856.0576417194367
 21
507.4910922778795
 31
0.0000000000000000
  0
LINE
  5
43B
100
AcDbEntity
  8
MAIN0
  6
BYBLOCK
 62
0
100
AcDbLine
 10
854.7848495154999
 20
508.9053058401371
 30
0.0000000000000000
 11
856.0576417194359
 21
507.6325136362229
 31
0.0000000000000000
  0
LINE
  5
43C
100
AcDbEntity
  8
MAIN0
  6
BYBLOCK
 62
0
100
AcDbLine
 10
854.9262708738461
 20
508.9053058401376
 30
0.0000000000000000
 11
856.0576417194343
 21
507.7739349945688
 31
0.0000000000000000
  0
LINE
  5
43D
100
AcDbEntity
  8
MAIN0
  6
BYBLOCK
 62
0
100
AcDbLine
 10
855.0676922321892
 20
508.9053058401400
 30
0.0000000000000000
 11
856.0576417194344
 21
507.9153563529122
 31
0.0000000000000000
  0
LINE
  5
43E
100
AcDbEntity
  8
MAIN0
  6
BYBLOCK
 62
0
100
AcDbLine
 10
855.2091135905349
 20
508.9053058401410
 30
0.0000000000000000
 11
856.0576417194336
 21
508.0567777112566
 31
0.0000000000000000
  0
LINE
  5
43F
100
AcDbEntity
  8
MAIN0
  6
BYBLOCK
 62
0
100
AcDbLine
 10
855.3505349488796
 20
508.9053058401422
 30
0.0000000000000000
 11
856.0576417194327
 21
508.1981990696015
 31
0.0000000000000000
  0
LINE
  5
440
100
AcDbEntity
  8
MAIN0
  6
BYBLOCK
 62
0
100
AcDbLine
 10
855.4919563072252
 20
508.9053058401424
 30
0.0000000000000000
 11
856.0576417194320
 21
508.3396204279457
 31
0.0000000000000000
  0
LINE
  5
441
100
AcDbEntity
  8
MAIN0
  6
BYBLOCK
 62
0
100
AcDbLine
 10
855.6333776655685
 20
508.9053058401452
 30
0.0000000000000000
 11
856.0576417194291
 21
508.4810417862915
 31
0.0000000000000000
  0
LINE
  5
442
100
AcDbEntity
  8
MAIN0
  6
BYBLOCK
 62
0
100
AcDbLine
 10
855.7747990239133
 20
508.9053058401457
 30
0.0000000000000000
 11
856.0576417194277
 21
508.6224631446371
 31
0.0000000000000000
  0
LINE
  5
443
100
AcDbEntity
  8
MAIN0
  6
BYBLOCK
 62
0
100
AcDbLine
 10
855.9162203822600
 20
508.9053058401462
 30
0.0000000000000000
 11
856.0576417194257
 21
508.7638845029825
 31
0.0000000000000000
  0
ENDBLK
  5
444
100
AcDbEntity
  8
MAIN0
  6
BYBLOCK
 62
3
100
AcDbBlockEnd
  0
BLOCK
  5
470
100
AcDbEntity
  8
A0
  6
BYBLOCK
 62
3
100
AcDbBlockBegin
  2
M0
 70
    64
 10
0.0
 20
0.0
 30
0.0
  0
LINE
  5
471
100
AcDbEntity
  8
A0
  6
BYBLOCK
 62
0
100
AcDbLine
 10
160.2959167669180
 20
87.18367425192042
 30
0.0000000000000000
 11
302.7959167669178
 21
87.18367425192042
 31
0.0000000000000000
  0
LINE
  5
472
100
AcDbEntity
  8
A0
  6
BYBLOCK
 62
0
100
AcDbLine
 10
160.2959167669180
 20
79.68367425192045
 30
0.0000000000000000
 11
302.7959167669179
 21
79.68367425192045
 31
0.0000000000000000
  0
LINE
  5
473
100
AcDbEntity
  8
A0
  6
BYBLOCK
 62
0
100
AcDbLine
 10
160.2959167669180
 20
72.18367425192051
 30
0.0000000000000000
 11
302.7959167669178
 21
72.18367425192051
 31
0.0000000000000000
  0
MTEXT
  5
474
100
AcDbEntity
  8
A0
  6
BYBLOCK
 62
0
100
AcDbMText
 10
161.7959167669180
 20
92.58367410886928
 30
0.0000000000000000
 40
4.649999856948853
 41
0.0000000000000000
 71
     1
 72
     1
  1
{\H0.88x;1.}
 11
1.000000000000000
 21
0.0000000000000000
 31
0.0000000000000000
  7
STANDARD
  0
MTEXT
  5
475
100
AcDbEntity
  8
A0
  6
BYBLOCK
 62
0
100
AcDbMText
 10
162.5459167669180
 20
108.1836742519209
 30
0.0000000000000000
 40
9.000000000000000
 41
0.0000000000000000
 71
     1
 72
     1
  1
{\H0.80x;要注意}
 11
1.000000000000000
 21
0.0000000000000000
 31
0.0000000000000000
  7
KNJYOKO
  0
LINE
  5
476
100
AcDbEntity
  8
A0
  6
BYBLOCK
 62
0
100
AcDbLine
 10
190.2959167669180
 20
110.4336742519208
 30
0.0000000000000000
 11
190.2959167669180
 21
96.93367425192086
 31
0.0000000000000000
  0
LINE
  5
477
100
AcDbEntity
  8
A0
  6
BYBLOCK
 62
0
100
AcDbLine
 10
160.2959167669180
 20
96.93367425192085
 30
0.0000000000000000
 11
190.2959167669180
 21
96.93367425192085
 31
0.0000000000000000
  0
LINE
  5
478
100
AcDbEntity
  8
A0
  6
BYBLOCK
 62
0
100
AcDbLine
 10
160.2959167669180
 20
110.4336742519208
 30
0.0000000000000000
 11
160.2959167669180
 21
96.93367425192083
 31
0.0000000000000000
  0
LINE
  5
479
100
AcDbEntity
  8
A0
  6
BYBLOCK
 62
0
100
AcDbLine
 10
160.2959167669180
 20
110.4336742519209
 30
0.0000000000000000
 11
190.2959167669180
 21
110.4336742519209
 31
0.0000000000000000
  0
ENDBLK
  5
47A
100
AcDbEntity
  8
A0
  6
BYBLOCK
 62
3
100
AcDbBlockEnd
  0
BLOCK
  5
4AF
100
AcDbEntity
  8
A0
  6
BYBLOCK
 62
3
100
AcDbBlockBegin
  2
M1
 70
    64
 10
0.0
 20
0.0
 30
0.0
  0
LINE
  5
4B0
100
AcDbEntity
  8
A0
  6
BYBLOCK
 62
0
100
AcDbLine
 10
160.2959167669180
 20
29.68367425192042
 30
0.0000000000000000
 11
302.7959167669178
 21
29.68367425192042
 31
0.0000000000000000
  0
LINE
  5
4B1
100
AcDbEntity
  8
A0
  6
BYBLOCK
 62
0
100
AcDbLine
 10
160.2959167669180
 20
22.18367425192045
 30
0.0000000000000000
 11
302.7959167669179
 21
22.18367425192045
 31
0.0000000000000000
  0
LINE
  5
4B2
100
AcDbEntity
  8
A0
  6
BYBLOCK
 62
0
100
AcDbLine
 10
160.2959167669179
 20
14.68367425192051
 30
0.0000000000000000
 11
302.7959167669178
 21
14.68367425192051
 31
0.0000000000000000
  0
LINE
  5
4B3
100
AcDbEntity
  8
A0
  6
BYBLOCK
 62
0
100
AcDbLine
 10
160.2959167669179
 20
7.183674251920508
 30
0.0000000000000000
 11
302.7959167669179
 21
7.183674251920508
 31
0.0000000000000000
  0
MTEXT
  5
4B4
100
AcDbEntity
  8
A0
  6
BYBLOCK
 62
0
100
AcDbMText
 10
161.7959167669180
 20
35.08367410886928
 30
0.0000000000000000
 40
4.649999856948853
 41
0.0000000000000000
 71
     1
 72
     1
  1
{\H0.88x;1.}
 11
1.000000000000000
 21
0.0000000000000000
 31
0.0000000000000000
  7
STANDARD
  0
MTEXT
  5
4B5
100
AcDbEntity
  8
A0
  6
BYBLOCK
 62
0
100
AcDbMText
 10
162.2225222715051
 20
48.66073841632750
 30
0.0000000000000000
 40
4.954128384590149
 41
0.0000000000000000
 71
     1
 72
     1
  1
{\H0.92x;NOTICE}
 11
1.000000000000000
 21
0.0000000000000000
 31
0.0000000000000000
  7
STANDARD
  0
LINE
  5
4B6
100
AcDbEntity
  8
A0
  6
BYBLOCK
 62
0
100
AcDbLine
 10
190.2959167669180
 20
52.93367425192083
 30
0.0000000000000000
 11
190.2959167669180
 21
39.43367425192086
 31
0.0000000000000000
  0
LINE
  5
4B7
100
AcDbEntity
  8
A0
  6
BYBLOCK
 62
0
100
AcDbLine
 10
160.2959167669180
 20
39.43367425192085
 30
0.0000000000000000
 11
190.2959167669180
 21
39.43367425192085
 31
0.0000000000000000
  0
LINE
  5
4B8
100
AcDbEntity
  8
A0
  6
BYBLOCK
 62
0
100
AcDbLine
 10
160.2959167669180
 20
52.93367425192083
 30
0.0000000000000000
 11
160.2959167669180
 21
39.43367425192083
 31
0.0000000000000000
  0
LINE
  5
4B9
100
AcDbEntity
  8
A0
  6
BYBLOCK
 62
0
100
AcDbLine
 10
160.2959167669180
 20
52.93367425192085
 30
0.0000000000000000
 11
190.2959167669180
 21
52.93367425192085
 31
0.0000000000000000
  0
ENDBLK
  5
4BA
100
AcDbEntity
  8
A0
  6
BYBLOCK
 62
3
100
AcDbBlockEnd
  0
ENDSEC
  0
SECTION
  2
ENTITIES
  0
LINE
  5
46
100
AcDbEntity
  8
MAIN0
  6
CONTINUOUS
 62
3
100
AcDbLine
 10
234.0576417193410
 20
184.9053058392984
 30
0.0000000000000000
 11
236.0576417193410
 21
186.9053058392985
 31
0.0000000000000000
  0
LINE
  5
47
100
AcDbEntity
  8
MAIN0
  6
CONTINUOUS
 62
3
100
AcDbLine
 10
234.0576417193414
 20
494.9053058392984
 30
0.0000000000000000
 11
236.0576417193414
 21
492.9053058392984
 31
0.0000000000000000
  0
LINE
  5
48
100
AcDbEntity
  8
MAIN0
  6
CENTER
 62
3
100
AcDbLine
 10
331.0576417193413
 20
339.9053058392987
 30
0.0000000000000000
 11
681.0576417193413
 21
339.9053058392982
 31
0.0000000000000000
  0
LINE
  5
49
100
AcDbEntity
  8
MAIN0
  6
CONTINUOUS
 62
3
100
AcDbLine
 10
140.0576417193415
 20
492.9053058392985
 30
0.0000000000000000
 11
142.0576417193415
 21
494.9053058392985
 31
0.0000000000000000
  0
LINE
  5
4A
100
AcDbEntity
  8
MAIN0
  6
CONTINUOUS
 62
3
100
AcDbLine
 10
142.0576417193411
 20
184.9053058392987
 30
0.0000000000000000
 11
140.0576417193411
 21
186.9053058392986
 31
0.0000000000000000
  0
ARC
  5
4B
100
AcDbEntity
  8
MAIN0
  6
CENTER
 62
3
100
AcDbCircle
 10
506.0576417193414
 20
339.9053058392984
 30
0.0000000000000000
 40
74.00000000000000
100
AcDbArc
 50
100.3101151919433
 51
119.6898848085067
  0
LINE
  5
4C
100
AcDbEntity
  8
MAIN0
  6
CENTER
 62
3
100
AcDbLine
 10
485.0234029045859
 20
397.6964020175493
 30
0.0000000000000000
 11
476.4728993213515
 21
421.1887175371632
 31
0.0000000000000000
  0
CIRCLE
  5
4D
100
AcDbEntity
  8
MAIN0
  6
CONTINUOUS
 62
3
100
AcDbCircle
 10
480.7481511129689
 20
409.4425597773563
 30
0.0000000000000000
 40
7.500000000000000
  0
LINE
  5
4E
100
AcDbEntity
  8
MAIN0
  6
CONTINUOUS
 62
3
100
AcDbLine
 10
478.7274251708047
 20
405.9425597773561
 30
0.0000000000000000
 11
482.7688770551321
 21
405.9425597773561
 31
0.0000000000000000
  0
LINE
  5
4F
100
AcDbEntity
  8
MAIN0
  6
CONTINUOUS
 62
3
100
AcDbLine
 10
482.7688770551324
 20
412.9425597773561
 30
0.0000000000000000
 11
478.7274251708049
 21
412.9425597773561
 31
0.0000000000000000
  0
LINE
  5
50
100
AcDbEntity
  8
MAIN0
  6
CONTINUOUS
 62
3
100
AcDbLine
 10
476.7066992286411
 20
409.4425597773561
 30
0.0000000000000000
 11
478.7274251708047
 21
405.9425597773562
 31
0.0000000000000000
  0
LINE
  5
51
100
AcDbEntity
  8
MAIN0
  6
CONTINUOUS
 62
3
100
AcDbLine
 10
482.7688770551325
 20
405.9425597773560
 30
0.0000000000000000
 11
484.7896029972962
 21
409.4425597773562
 31
0.0000000000000000
  0
LINE
  5
52
100
AcDbEntity
  8
MAIN0
  6
CONTINUOUS
 62
3
100
AcDbLine
 10
484.7896029972961
 20
409.4425597773561
 30
0.0000000000000000
 11
482.7688770551325
 21
412.9425597773561
 31
0.0000000000000000
  0
LINE
  5
53
100
AcDbEntity
  8
MAIN0
  6
CONTINUOUS
 62
3
100
AcDbLine
 10
478.7274251708050
 20
412.9425597773561
 30
0.0000000000000000
 11
476.7066992286414
 21
409.4425597773562
 31
0.0000000000000000
  0
CIRCLE
  5
54
100
AcDbEntity
  8
MAIN0
  6
CONTINUOUS
 62
3
100
AcDbCircle
 10
480.7481511129689
 20
409.4425597773563
 30
0.0000000000000000
 40
2.154065922853398
  0
CIRCLE
  5
55
100
AcDbEntity
  8
MAIN0
  6
CONTINUOUS
 62
3
100
AcDbCircle
 10
480.7481511129689
 20
409.4425597773563
 30
0.0000000000000000
 40
3.299999999999997
  0
CIRCLE
  5
56
100
AcDbEntity
  8
MAIN0
  6
CONTINUOUS
 62
3
100
AcDbCircle
 10
480.7481511129689
 20
409.4425597773563
 30
0.0000000000000000
 40
0.9914283891267653
  0
LINE
  5
57
100
AcDbEntity
  8
MAIN0
  6
CONTINUOUS
 62
3
100
AcDbLine
 10
140.0576417193416
 20
469.9053058392985
 30
0.0000000000000000
 11
145.0576417193415
 21
469.9053058392985
 31
0.0000000000000000
  0
LINE
  5
58
100
AcDbEntity
  8
MAIN0
  6
CONTINUOUS
 62
3
100
AcDbLine
 10
145.0576417193415
 20
469.9053058392985
 30
0.0000000000000000
 11
147.0576417193414
 21
469.9053058392985
 31
0.0000000000000000
  0
LINE
  5
59
100
AcDbEntity
  8
MAIN0
  6
CONTINUOUS
 62
3
100
AcDbLine
 10
140.0576417193412
 20
209.9053058392985
 30
0.0000000000000000
 11
147.0576417193411
 21
209.9053058392985
 31
0.0000000000000000
  0
LINE
  5
5A
100
AcDbEntity
  8
MAIN0
  6
CONTINUOUS
 62
3
100
AcDbLine
 10
140.5576417193411
 20
209.9053058392985
 30
0.0000000000000000
 11
152.0576417193411
 21
209.9053058392985
 31
0.0000000000000000
  0
LINE
  5
5B
100
AcDbEntity
  8
MAIN0
  6
HIDDEN
 62
3
100
AcDbLine
 10
525.0576417193413
 20
475.1553058392983
 30
0.0000000000000000
 11
525.0576417193414
 21
493.7363820235336
 31
0.0000000000000000
  0
LINE
  5
5C
100
AcDbEntity
  8
MAIN0
  6
CONTINUOUS
 62
3
100
AcDbLine
 10
152.0576417193411
 20
209.4053058392985
 30
0.0000000000000000
 11
152.0576417193411
 21
210.2367753047001
 31
0.0000000000000000
  0
LINE
  5
5D
100
AcDbEntity
  8
MAIN0
  6
CENTER
 62
3
100
AcDbLine
 10
156.0576417193413
 20
274.9053058392985
 30
0.0000000000000000
 11
186.0576417193413
 21
274.9053058392985
 31
0.0000000000000000
  0
LINE
  5
5E
100
AcDbEntity
  8
MAIN0
  6
CONTINUOUS
 62
3
100
AcDbLine
 10
152.0576417194035
 20
209.9053058392914
 30
0.0000000000000000
 11
155.9836724979338
 21
241.8802605865393
 31
0.0000000000000000
  0
ARC
  5
5F
100
AcDbEntity
  8
MAIN0
  6
CONTINUOUS
 62
3
100
AcDbCircle
 10
163.9240417110646
 20
240.9053058392985
 30
0.0000000000000000
 40
8.000000000000000
100
AcDbArc
 50
89.99999999999994
 51
173.0000000000022
  0
LINE
  5
60
100
AcDbEntity
  8
MAIN0
  6
HIDDEN
 62
3
100
AcDbLine
 10
159.5576417193412
 20
265.8053058392985
 30
0.0000000000000000
 11
160.1576417193412
 21
266.4053058392985
 31
0.0000000000000000
  0
LINE
  5
61
100
AcDbEntity
  8
MAIN0
  6
HIDDEN
 62
3
100
AcDbLine
 10
160.1576417193412
 20
266.4053058392984
 30
0.0000000000000000
 11
171.5576417193412
 21
266.4053058392984
 31
0.0000000000000000
  0
LINE
  5
62
100
AcDbEntity
  8
MAIN0
  6
HIDDEN
 62
3
100
AcDbLine
 10
171.5576417193412
 20
266.4053058392985
 30
0.0000000000000000
 11
171.5576417193412
 21
283.4053058392985
 31
0.0000000000000000
  0
LINE
  5
63
100
AcDbEntity
  8
MAIN0
  6
HIDDEN
 62
3
100
AcDbLine
 10
171.5576417193413
 20
283.4053058392984
 30
0.0000000000000000
 11
160.1576417193412
 21
283.4053058392984
 31
0.0000000000000000
  0
LINE
  5
64
100
AcDbEntity
  8
MAIN0
  6
HIDDEN
 62
3
100
AcDbLine
 10
160.1576417193413
 20
283.4053058392984
 30
0.0000000000000000
 11
159.5576417193413
 21
284.0053058392984
 31
0.0000000000000000
  0
LINE
  5
65
100
AcDbEntity
  8
MAIN0
  6
HIDDEN
 62
3
100
AcDbLine
 10
171.5576417193412
 20
269.4053058392984
 30
0.0000000000000000
 11
176.8576417420558
 21
269.4053058392984
 31
0.0000000000000000
  0
LINE
  5
66
100
AcDbEntity
  8
MAIN0
  6
HIDDEN
 62
3
100
AcDbLine
 10
171.5576417193412
 20
280.4053058392984
 30
0.0000000000000000
 11
176.8576417196353
 21
280.4053058392984
 31
0.0000000000000000
  0
LINE
  5
67
100
AcDbEntity
  8
MAIN0
  6
CONTINUOUS
 62
3
100
AcDbLine
 10
234.0576417193414
 20
494.9053058392984
 30
0.0000000000000000
 11
236.0576417193414
 21
492.9053058392984
 31
0.0000000000000000
  0
LINE
  5
68
100
AcDbEntity
  8
MAIN0
  6
CONTINUOUS
 62
3
100
AcDbLine
 10
244.5576417193411
 20
182.9053058392984
 30
0.0000000000000000
 11
260.5576417193411
 21
182.9053058392983
 31
0.0000000000000000
  0
LINE
  5
69
100
AcDbEntity
  8
MAIN0
  6
CONTINUOUS
 62
3
100
AcDbLine
 10
142.0576417193415
 20
494.9053058392985
 30
0.0000000000000000
 11
140.0576417193415
 21
492.9053058392985
 31
0.0000000000000000
  0
LINE
  5
6A
100
AcDbEntity
  8
MAIN0
  6
CONTINUOUS
 62
3
100
AcDbLine
 10
140.0576417193415
 20
469.9053058392985
 30
0.0000000000000000
 11
149.6499124644740
 21
469.9053058392985
 31
0.0000000000000000
  0
LINE
  5
6B
100
AcDbEntity
  8
MAIN0
  6
CONTINUOUS
 62
3
100
AcDbLine
 10
140.5576417193415
 20
469.9053058392985
 30
0.0000000000000000
 11
147.0576417193415
 21
469.9053058392985
 31
0.0000000000000000
  0
LINE
  5
6C
100
AcDbEntity
  8
MAIN0
  6
CONTINUOUS
 62
3
100
AcDbLine
 10
155.6351456640505
 20
440.7688743666521
 30
0.0000000000000000
 11
155.9836724979342
 21
437.9303510920576
 31
0.0000000000000000
  0
ARC
  5
6D
100
AcDbEntity
  8
MAIN0
  6
CONTINUOUS
 62
3
100
AcDbCircle
 10
163.9240417110648
 20
438.9053058392984
 30
0.0000000000000000
 40
8.000000000000000
100
AcDbArc
 50
186.9999999999976
 51
242.7624441555646
  0
LINE
  5
6E
100
AcDbEntity
  8
MAIN0
  6
CONTINUOUS
 62
3
100
AcDbLine
 10
292.0576417193411
 20
264.9053058392983
 30
0.0000000000000000
 11
292.0576417193412
 21
296.9053058392984
 31
0.0000000000000000
  0
LINE
  5
6F
100
AcDbEntity
  8
MAIN0
  6
CONTINUOUS
 62
3
100
AcDbLine
 10
277.0576417193412
 20
236.4053058392984
 30
0.0000000000000000
 11
277.0576417193413
 21
260.4053058392983
 31
0.0000000000000000
  0
LINE
  5
70
100
AcDbEntity
  8
MAIN0
  6
CONTINUOUS
 62
3
100
AcDbLine
 10
262.0576417193411
 20
201.4053058392984
 30
0.0000000000000000
 11
262.0576417193412
 21
225.4053058392984
 31
0.0000000000000000
  0
LINE
  5
71
100
AcDbEntity
  8
MAIN0
  6
CONTINUOUS
 62
3
100
AcDbLine
 10
292.0576417193412
 20
296.9053058392983
 30
0.0000000000000000
 11
291.0576417193412
 21
297.9053058392983
 31
0.0000000000000000
  0
LINE
  5
72
100
AcDbEntity
  8
MAIN0
  6
CONTINUOUS
 62
3
100
AcDbLine
 10
291.0576417193412
 20
263.9053058392983
 30
0.0000000000000000
 11
292.0576417193412
 21
264.9053058392983
 31
0.0000000000000000
  0
LINE
  5
73
100
AcDbEntity
  8
MAIN0
  6
CONTINUOUS
 62
3
100
AcDbLine
 10
276.5576417193411
 20
229.9053058392983
 30
0.0000000000000000
 11
276.5576417193411
 21
235.9053058392983
 31
0.0000000000000000
  0
LINE
  5
74
100
AcDbEntity
  8
MAIN0
  6
CONTINUOUS
 62
3
100
AcDbLine
 10
261.5576417193411
 20
183.9053058392983
 30
0.0000000000000000
 11
261.5576417193411
 21
200.9053058392985
 31
0.0000000000000000
  0
LINE
  5
75
100
AcDbEntity
  8
MAIN0
  6
CONTINUOUS
 62
3
100
AcDbLine
 10
261.5576417193411
 20
183.9053058392984
 30
0.0000000000000000
 11
260.5576417193410
 21
182.9053058392984
 31
0.0000000000000000
  0
LINE
  5
76
100
AcDbEntity
  8
MAIN0
  6
CONTINUOUS
 62
3
100
AcDbLine
 10
276.5576417193411
 20
229.9053058392984
 30
0.0000000000000000
 11
275.5576417193411
 21
228.9053058392984
 31
0.0000000000000000
  0
LINE
  5
77
100
AcDbEntity
  8
MAIN0
  6
CONTINUOUS
 62
3
100
AcDbLine
 10
277.0576417193412
 20
236.4053058392983
 30
0.0000000000000000
 11
276.5576417193412
 21
235.9053058392983
 31
0.0000000000000000
  0
LINE
  5
78
100
AcDbEntity
  8
MAIN0
  6
CONTINUOUS
 62
3
100
AcDbLine
 10
262.0576417193410
 20
201.4053058392984
 30
0.0000000000000000
 11
261.5576417193410
 21
200.9053058392984
 31
0.0000000000000000
  0
LINE
  5
79
100
AcDbEntity
  8
MAIN0
  6
CENTER
 62
3
100
AcDbLine
 10
285.0576417193411
 20
261.3174831162724
 30
0.0000000000000000
 11
285.0576417193411
 21
267.9220254517841
 31
0.0000000000000000
  0
LINE
  5
7A
100
AcDbEntity
  8
MAIN0
  6
PHANTOM
 62
3
100
AcDbLine
 10
282.0576417193411
 20
293.8249443989459
 30
0.0000000000000000
 11
282.0576417193412
 21
300.5010072438599
 31
0.0000000000000000
  0
LINE
  5
7B
100
AcDbEntity
  8
MAIN0
  6
HIDDEN
 62
3
100
AcDbLine
 10
188.0576417193415
 20
485.9053058392984
 30
0.0000000000000000
 11
190.5576417193415
 21
485.9053058392984
 31
0.0000000000000000
  0
LINE
  5
7C
100
AcDbEntity
  8
MAIN0
  6
HIDDEN
 62
3
100
AcDbLine
 10
190.5576417193416
 20
494.4722931375823
 30
0.0000000000000000
 11
190.5576417193415
 21
482.4053058392984
 31
0.0000000000000000
  0
ARC
  5
7D
100
AcDbEntity
  8
MAIN0
  6
HIDDEN
 62
3
100
AcDbCircle
 10
188.0576417193415
 20
482.4053058392984
 30
0.0000000000000000
 40
3.500000000000000
100
AcDbArc
 50
89.99999999999994
 51
180.0000000000000
  0
LINE
  5
7E
100
AcDbEntity
  8
MAIN0
  6
HIDDEN
 62
3
100
AcDbLine
 10
190.2576417193416
 20
494.6553058392984
 30
0.0000000000000000
 11
190.5576417193416
 21
494.3553058392984
 31
0.0000000000000000
  0
LINE
  5
7F
100
AcDbEntity
  8
MAIN0
  6
HIDDEN
 62
3
100
AcDbLine
 10
186.4356178042580
 20
483.0602949862397
 30
0.0000000000000000
 11
186.3675453401237
 21
482.4053058392984
 31
0.0000000000000000
  0
ARC
  5
80
100
AcDbEntity
  8
MAIN0
  6
HIDDEN
 62
3
100
AcDbCircle
 10
196.3820450665857
 20
482.0265712730446
 30
0.0000000000000000
 40
10.00000000000000
100
AcDbArc
 50
125.6223664678507
 51
157.9860847045921
  0
ARC
  5
81
100
AcDbEntity
  8
MAIN0
  6
HIDDEN
 62
3
100
AcDbCircle
 10
196.3820450665857
 20
482.0265712730446
 30
0.0000000000000000
 40
10.00000000000000
100
AcDbArc
 50
157.9860847045921
 51
174.0666000000003
  0
ARC
  5
82
100
AcDbEntity
  8
MAIN0
  6
HIDDEN
 62
3
100
AcDbCircle
 10
146.7332383720973
 20
482.0265712730446
 30
0.0000000000000000
 40
10.00000000000000
100
AcDbArc
 50
22.01391529540775
 51
54.37763353214925
  0
ARC
  5
83
100
AcDbEntity
  8
MAIN0
  6
HIDDEN
 62
3
100
AcDbCircle
 10
155.0576417193415
 20
482.4053058392985
 30
0.0000000000000000
 40
3.500000000000000
100
AcDbArc
 50
0.0000000000000000
 51
89.99999999999990
  0
LINE
  5
84
100
AcDbEntity
  8
MAIN0
  6
HIDDEN
 62
3
100
AcDbLine
 10
155.0576417193415
 20
485.9053058392985
 30
0.0000000000000000
 11
152.5576417193415
 21
485.9053058392985
 31
0.0000000000000000
  0
LINE
  5
85
100
AcDbEntity
  8
MAIN0
  6
HIDDEN
 62
3
100
AcDbLine
 10
152.5576417193415
 20
494.4722931372098
 30
0.0000000000000000
 11
152.5576417193415
 21
482.4053058392984
 31
0.0000000000000000
  0
LINE
  5
86
100
AcDbEntity
  8
MAIN0
  6
CONTINUOUS
 62
3
100
AcDbLine
 10
279.6576417193413
 20
263.9053058392983
 30
0.0000000000000000
 11
284.0576417193851
 21
263.9053058392983
 31
0.0000000000000000
  0
LINE
  5
87
100
AcDbEntity
  8
MAIN0
  6
CONTINUOUS
 62
3
100
AcDbLine
 10
286.0576417191226
 20
263.9053058392983
 30
0.0000000000000000
 11
291.0576417193412
 21
263.9053058392983
 31
0.0000000000000000
  0
LINE
  5
88
100
AcDbEntity
  8
MAIN0
  6
CENTER
 62
3
100
AcDbLine
 10
269.8576417193411
 20
226.3174831162724
 30
0.0000000000000000
 11
269.8576417193411
 21
233.1927633221363
 31
0.0000000000000000
  0
LINE
  5
89
100
AcDbEntity
  8
MAIN0
  6
CONTINUOUS
 62
3
100
AcDbLine
 10
264.6576417193411
 20
228.9053058392984
 30
0.0000000000000000
 11
268.8576417190162
 21
228.9053058392984
 31
0.0000000000000000
  0
LINE
  5
8A
100
AcDbEntity
  8
MAIN0
  6
CONTINUOUS
 62
3
100
AcDbLine
 10
270.8576417205179
 20
228.9053058392983
 30
0.0000000000000000
 11
275.5576417193412
 21
228.9053058392983
 31
0.0000000000000000
  0
LINE
  5
8B
100
AcDbEntity
  8
MAIN0
  6
PHANTOM
 62
3
100
AcDbLine
 10
274.5576417193411
 20
293.8249443989459
 30
0.0000000000000000
 11
274.5576417193412
 21
300.5010072438599
 31
0.0000000000000000
  0
LINE
  5
8C
100
AcDbEntity
  8
MAIN0
  6
PHANTOM
 62
3
100
AcDbLine
 10
267.0576417193412
 20
293.8249443989459
 30
0.0000000000000000
 11
267.0576417193412
 21
300.5010072438599
 31
0.0000000000000000
  0
LINE
  5
8D
100
AcDbEntity
  8
MAIN0
  6
PHANTOM
 62
3
100
AcDbLine
 10
259.5576417193412
 20
293.8249443989459
 30
0.0000000000000000
 11
259.5576417193412
 21
300.5010072438599
 31
0.0000000000000000
  0
LINE
  5
8E
100
AcDbEntity
  8
MAIN0
  6
CONTINUOUS
 62
3
100
AcDbLine
 10
268.3076417191820
 20
297.9053058392983
 30
0.0000000000000000
 11
273.3076417185591
 21
297.9053058392983
 31
0.0000000000000000
  0
LINE
  5
8F
100
AcDbEntity
  8
MAIN0
  6
CONTINUOUS
 62
3
100
AcDbLine
 10
260.8076417191821
 20
297.9053058392983
 30
0.0000000000000000
 11
265.8076417185593
 21
297.9053058392983
 31
0.0000000000000000
  0
LINE
  5
90
100
AcDbEntity
  8
MAIN0
  6
CONTINUOUS
 62
3
100
AcDbLine
 10
253.3076417191820
 20
297.9053058392984
 30
0.0000000000000000
 11
258.3076417185592
 21
297.9053058392983
 31
0.0000000000000000
  0
LINE
  5
91
100
AcDbEntity
  8
MAIN0
  6
CONTINUOUS
 62
3
100
AcDbLine
 10
244.5576417193413
 20
297.9053058392984
 30
0.0000000000000000
 11
250.8076417185593
 21
297.9053058392984
 31
0.0000000000000000
  0
LINE
  5
92
100
AcDbEntity
  8
MAIN0
  6
CONTINUOUS
 62
3
100
AcDbLine
 10
163.9240417110646
 20
248.9053058392985
 30
0.0000000000000000
 11
172.7408417079842
 21
248.9053058392985
 31
0.0000000000000000
  0
LINE
  5
93
100
AcDbEntity
  8
MAIN0
  6
CONTINUOUS
 62
3
100
AcDbLine
 10
152.0576417193411
 20
209.4053058392985
 30
0.0000000000000000
 11
163.9871550347006
 21
209.4053058392985
 31
0.0000000000000000
  0
LINE
  5
94
100
AcDbEntity
  8
MAIN0
  6
HIDDEN
 62
3
100
AcDbLine
 10
190.2576417193416
 20
494.6553058392984
 30
0.0000000000000000
 11
152.8576417193415
 21
494.6553058392985
 31
0.0000000000000000
  0
LINE
  5
95
100
AcDbEntity
  8
MAIN0
  6
HIDDEN
 62
3
100
AcDbLine
 10
152.8576417193415
 20
494.6553058392985
 30
0.0000000000000000
 11
152.5576417193415
 21
494.3553058392985
 31
0.0000000000000000
  0
LINE
  5
96
100
AcDbEntity
  8
MAIN0
  6
CENTER
 62
3
100
AcDbLine
 10
149.0582754210689
 20
482.4053058392984
 30
0.0000000000000000
 11
192.0255989372310
 21
482.4053058392984
 31
0.0000000000000000
  0
LINE
  5
97
100
AcDbEntity
  8
MAIN0
  6
HIDDEN
 62
3
100
AcDbLine
 10
172.2317313436654
 20
482.4053058392984
 30
0.0000000000000000
 11
172.2317313436610
 21
493.7315454085932
 31
0.0000000000000000
  0
LINE
  5
98
100
AcDbEntity
  8
MAIN0
  6
HIDDEN
 62
3
100
AcDbLine
 10
170.8835520950175
 20
482.4053058392984
 30
0.0000000000000000
 11
170.8835520950220
 21
493.7315454085936
 31
0.0000000000000000
  0
ARC
  5
99
100
AcDbEntity
  8
MAIN0
  6
CONTINUOUS
 62
3
100
AcDbCircle
 10
506.0576417193412
 20
339.9053058392984
 30
0.0000000000000000
 40
155.0000000000000
100
AcDbArc
 50
152.0860331848001
 51
267.9139668150736
  0
ARC
  5
9A
100
AcDbEntity
  8
MAIN0
  6
CONTINUOUS
 62
3
100
AcDbCircle
 10
506.0576417193412
 20
339.9053058392984
 30
0.0000000000000000
 40
155.0000000000000
100
AcDbArc
 50
32.08603318480020
 51
147.9139668150733
  0
ARC
  5
9B
100
AcDbEntity
  8
MAIN0
  6
CONTINUOUS
 62
3
100
AcDbCircle
 10
506.0576417193412
 20
339.9053058392984
 30
0.0000000000000000
 40
155.0000000000000
100
AcDbArc
 50
272.0860331848000
 51
387.9139668150734
  0
LINE
  5
9C
100
AcDbEntity
  8
MAIN0
  6
CENTER
 62
3
100
AcDbLine
 10
628.0992337910939
 20
289.0744689572009
 30
0.0000000000000000
 11
644.7109451928228
 21
279.4836929077725
 31
0.0000000000000000
  0
ARC
  5
9D
100
AcDbEntity
  8
MAIN0
  6
CENTER
 62
3
100
AcDbCircle
 10
506.0576417193415
 20
339.9053058392992
 30
0.0000000000000000
 40
142.5000000000000
100
AcDbArc
 50
333.3879184177778
 51
340.1310112391682
  0
CIRCLE
  5
9E
100
AcDbEntity
  8
MAIN0
  6
PHANTOM
 62
3
100
AcDbCircle
 10
637.0849345974480
 20
283.8865721778275
 30
0.0000000000000000
 40
5.000000000000000
  0
CIRCLE
  5
9F
100
AcDbEntity
  8
MAIN0
  6
PHANTOM
 62
3
100
AcDbCircle
 10
637.0849345974480
 20
283.8865721778275
 30
0.0000000000000000
 40
4.250000000000000
  0
LINE
  5
A0
100
AcDbEntity
  8
MAIN0
  6
CENTER
 62
3
100
AcDbLine
 10
401.0160496475083
 20
259.6296052284837
 30
0.0000000000000000
 11
384.4043382457794
 21
250.0388291790554
 31
0.0000000000000000
  0
CIRCLE
  5
A1
100
AcDbEntity
  8
MAIN0
  6
PHANTOM
 62
3
100
AcDbCircle
 10
392.0303488411544
 20
254.4417084491105
 30
0.0000000000000000
 40
5.000000000000000
  0
CIRCLE
  5
A2
100
AcDbEntity
  8
MAIN0
  6
PHANTOM
 62
3
100
AcDbCircle
 10
392.0303488411544
 20
254.4417084491105
 30
0.0000000000000000
 40
4.250000000000000
  0
MTEXT
  5
A3
100
AcDbEntity
  8
MAIN0
  6
CONTINUOUS
 62
3
100
AcDbMText
 10
530.9336869210908
 20
194.5215952759859
 30
0.0000000000000000
 40
4.649999856948853
 41
0.0000000000000000
 71
     1
 72
     1
  1
{\H0.81x;{1}}
 11
1.000000000000000
 21
-1.133107779529596e-015
 31
0.0000000000000000
  7
STANDARD
  0
MTEXT
  5
A4
100
AcDbEntity
  8
MAIN0
  6
CONTINUOUS
 62
3
100
AcDbMText
 10
369.6307058252278
 20
389.6165935093926
 30
0.0000000000000000
 40
4.649999856948853
 41
0.0000000000000000
 71
     1
 72
     1
  1
{\H0.81x;{3}}
 11
-0.5000000000000012
 21
-0.8660254037844379
 31
0.0000000000000000
  7
STANDARD
  0
MTEXT
  5
A5
100
AcDbEntity
  8
MAIN0
  6
CONTINUOUS
 62
3
100
AcDbMText
 10
618.3391679390620
 20
433.4540750171635
 30
0.0000000000000000
 40
4.649999856948853
 41
0.0000000000000000
 71
     1
 72
     1
  1
{\H0.81x;{2}}
 11
-0.4999999999999987
 21
0.8660254037844394
 31
0.0000000000000000
  7
STANDARD
  0
ARC
  5
A6
100
AcDbEntity
  8
MAIN0
  6
CENTER
 62
3
100
AcDbCircle
 10
506.0576417193412
 20
339.9053058392987
 30
0.0000000000000000
 40
142.5000000000000
100
AcDbArc
 50
212.4796946149216
 51
221.0378481943656
  0
LINE
  5
A7
100
AcDbEntity
  8
MAIN0
  6
PHANTOM
 62
3
100
AcDbLine
 10
236.0576417193413
 20
355.4053058392984
 30
0.0000000000000000
 11
241.0576417193413
 21
355.4053058392984
 31
0.0000000000000000
  0
LINE
  5
A8
100
AcDbEntity
  8
MAIN0
  6
PHANTOM
 62
3
100
AcDbLine
 10
236.0576417193412
 20
324.4053058392984
 30
0.0000000000000000
 11
241.0576417193414
 21
324.4053058392984
 31
0.0000000000000000
  0
LINE
  5
A9
100
AcDbEntity
  8
MAIN0
  6
CENTER
 62
3
100
AcDbLine
 10
131.0576417193413
 20
339.9053058392986
 30
0.0000000000000000
 11
301.0576417193413
 21
339.9053058392983
 31
0.0000000000000000
  0
LINE
  5
AA
100
AcDbEntity
  8
MAIN0
  6
PHANTOM
 62
3
100
AcDbLine
 10
238.0576417193413
 20
359.9053058392984
 30
0.0000000000000000
 11
292.0576417193412
 21
359.9053058392983
 31
0.0000000000000000
  0
LINE
  5
AB
100
AcDbEntity
  8
MAIN0
  6
PHANTOM
 62
3
100
AcDbLine
 10
238.0576417193413
 20
319.9053058392984
 30
0.0000000000000000
 11
292.0576417193412
 21
319.9053058392984
 31
0.0000000000000000
  0
LINE
  5
AC
100
AcDbEntity
  8
MAIN0
  6
PHANTOM
 62
3
100
AcDbLine
 10
292.0576417193412
 20
319.9053058392984
 30
0.0000000000000000
 11
292.0576417193412
 21
359.9053058392983
 31
0.0000000000000000
  0
LINE
  5
AD
100
AcDbEntity
  8
MAIN0
  6
CONTINUOUS
 62
3
100
AcDbLine
 10
275.8076417191820
 20
297.9053058392983
 30
0.0000000000000000
 11
280.8076417185591
 21
297.9053058392983
 31
0.0000000000000000
  0
LINE
  5
AE
100
AcDbEntity
  8
MAIN0
  6
CONTINUOUS
 62
3
100
AcDbLine
 10
283.3076417191821
 20
297.9053058392983
 30
0.0000000000000000
 11
291.0576417193411
 21
297.9053058392983
 31
0.0000000000000000
  0
LINE
  5
AF
100
AcDbEntity
  8
MAIN0
  6
CENTER
 62
3
100
AcDbLine
 10
231.5462167783147
 20
240.4053058392983
 30
0.0000000000000000
 11
250.4780167272157
 21
240.4053058392983
 31
0.0000000000000000
  0
LINE
  5
B0
100
AcDbEntity
  8
MAIN0
  6
CONTINUOUS
 62
3
100
AcDbLine
 10
244.5576417193410
 20
182.9053058392984
 30
0.0000000000000000
 11
244.5576417193412
 21
297.9053058392984
 31
0.0000000000000000
  0
LINE
  5
B1
100
AcDbEntity
  8
MAIN0
  6
CONTINUOUS
 62
3
100
AcDbLine
 10
241.0576417193411
 20
185.4167795093224
 30
0.0000000000000000
 11
241.0576417193411
 21
230.8903058392983
 31
0.0000000000000000
  0
LINE
  5
B2
100
AcDbEntity
  8
MAIN0
  6
CONTINUOUS
 62
3
100
AcDbLine
 10
238.0576417193412
 20
230.8903058392984
 30
0.0000000000000000
 11
238.0576417193412
 21
249.9203058392984
 31
0.0000000000000000
  0
LINE
  5
B3
100
AcDbEntity
  8
MAIN0
  6
CONTINUOUS
 62
3
100
AcDbLine
 10
237.5576417193411
 20
230.8903058392983
 30
0.0000000000000000
 11
244.0576417193412
 21
230.8903058392983
 31
0.0000000000000000
  0
LINE
  5
B4
100
AcDbEntity
  8
MAIN0
  6
CONTINUOUS
 62
3
100
AcDbLine
 10
237.5576417193412
 20
249.9203058392982
 30
0.0000000000000000
 11
244.0576417193412
 21
249.9203058392982
 31
0.0000000000000000
  0
LINE
  5
B5
100
AcDbEntity
  8
MAIN0
  6
CONTINUOUS
 62
3
100
AcDbLine
 10
241.0576417193411
 20
295.3938321692745
 30
0.0000000000000000
 11
241.0576417193412
 21
249.9203058392983
 31
0.0000000000000000
  0
LINE
  5
B6
100
AcDbEntity
  8
MAIN0
  6
CONTINUOUS
 62
3
100
AcDbLine
 10
204.7576417193410
 20
184.9053058392983
 30
0.0000000000000000
 11
244.0576417193411
 21
184.9053058392982
 31
0.0000000000000000
  0
LINE
  5
B7
100
AcDbEntity
  8
MAIN0
  6
CONTINUOUS
 62
3
100
AcDbLine
 10
241.0576417193411
 20
185.4167795093225
 30
0.0000000000000000
 11
244.5576417193391
 21
185.4167795093252
 31
0.0000000000000000
  0
LINE
  5
B8
100
AcDbEntity
  8
MAIN0
  6
CONTINUOUS
 62
3
100
AcDbLine
 10
241.0576417193412
 20
295.3938321692745
 30
0.0000000000000000
 11
244.5576417193392
 21
295.3938321692717
 31
0.0000000000000000
  0
LINE
  5
B9
100
AcDbEntity
  8
MAIN0
  6
CONTINUOUS
 62
3
100
AcDbLine
 10
237.5576417193412
 20
249.9203058392984
 30
0.0000000000000000
 11
237.5576417193412
 21
230.8903058392984
 31
0.0000000000000000
  0
LINE
  5
BA
100
AcDbEntity
  8
MAIN0
  6
CENTER
 62
3
100
AcDbLine
 10
236.5576417193413
 20
300.5010072438600
 30
0.0000000000000000
 11
236.5576417193412
 21
293.8249443989460
 31
0.0000000000000000
  0
LINE
  5
BB
100
AcDbEntity
  8
MAIN0
  6
CONTINUOUS
 62
3
100
AcDbLine
 10
236.5576417188690
 20
295.7402423292955
 30
0.0000000000000000
 11
237.8076417191820
 21
297.9053058392983
 31
0.0000000000000000
  0
LINE
  5
BC
100
AcDbEntity
  8
MAIN0
  6
CONTINUOUS
 62
3
100
AcDbLine
 10
236.0576417193412
 20
296.6062677322644
 30
0.0000000000000000
 11
236.5576417188691
 21
295.7402423292957
 31
0.0000000000000000
  0
LINE
  5
BD
100
AcDbEntity
  8
MAIN0
  6
CONTINUOUS
 62
3
100
AcDbLine
 10
237.8076417191820
 20
297.9053058392983
 30
0.0000000000000000
 11
244.0576417193413
 21
297.9053058392983
 31
0.0000000000000000
  0
LINE
  5
BE
100
AcDbEntity
  8
MAIN0
  6
CONTINUOUS
 62
3
100
AcDbLine
 10
250.8076417185591
 20
297.9053058392986
 30
0.0000000000000000
 11
252.0576417188692
 21
295.7402423292957
 31
0.0000000000000000
  0
LINE
  5
BF
100
AcDbEntity
  8
MAIN0
  6
CONTINUOUS
 62
3
100
AcDbLine
 10
252.0576417188691
 20
295.7402423292955
 30
0.0000000000000000
 11
253.3076417191820
 21
297.9053058392983
 31
0.0000000000000000
  0
LINE
  5
C0
100
AcDbEntity
  8
MAIN0
  6
CONTINUOUS
 62
3
100
AcDbLine
 10
258.3076417185591
 20
297.9053058392985
 30
0.0000000000000000
 11
259.5576417188692
 21
295.7402423292956
 31
0.0000000000000000
  0
LINE
  5
C1
100
AcDbEntity
  8
MAIN0
  6
CONTINUOUS
 62
3
100
AcDbLine
 10
259.5576417188692
 20
295.7402423292954
 30
0.0000000000000000
 11
260.8076417191821
 21
297.9053058392983
 31
0.0000000000000000
  0
LINE
  5
C2
100
AcDbEntity
  8
MAIN0
  6
CONTINUOUS
 62
3
100
AcDbLine
 10
265.8076417185591
 20
297.9053058392985
 30
0.0000000000000000
 11
267.0576417188692
 21
295.7402423292955
 31
0.0000000000000000
  0
LINE
  5
C3
100
AcDbEntity
  8
MAIN0
  6
CONTINUOUS
 62
3
100
AcDbLine
 10
267.0576417188692
 20
295.7402423292955
 30
0.0000000000000000
 11
268.3076417191821
 21
297.9053058392983
 31
0.0000000000000000
  0
LINE
  5
C4
100
AcDbEntity
  8
MAIN0
  6
CONTINUOUS
 62
3
100
AcDbLine
 10
273.3076417185591
 20
297.9053058392985
 30
0.0000000000000000
 11
274.5576417188692
 21
295.7402423292956
 31
0.0000000000000000
  0
LINE
  5
C5
100
AcDbEntity
  8
MAIN0
  6
CONTINUOUS
 62
3
100
AcDbLine
 10
274.5576417188692
 20
295.7402423292954
 30
0.0000000000000000
 11
275.8076417191821
 21
297.9053058392982
 31
0.0000000000000000
  0
LINE
  5
C6
100
AcDbEntity
  8
MAIN0
  6
CONTINUOUS
 62
3
100
AcDbLine
 10
280.8076417185591
 20
297.9053058392985
 30
0.0000000000000000
 11
282.0576417188692
 21
295.7402423292955
 31
0.0000000000000000
  0
LINE
  5
C7
100
AcDbEntity
  8
MAIN0
  6
CONTINUOUS
 62
3
100
AcDbLine
 10
282.0576417188692
 20
295.7402423292954
 30
0.0000000000000000
 11
283.3076417191821
 21
297.9053058392982
 31
0.0000000000000000
  0
LINE
  5
C8
100
AcDbEntity
  8
MAIN0
  6
CONTINUOUS
 62
3
100
AcDbLine
 10
244.0576417193412
 20
297.9053058392984
 30
0.0000000000000000
 11
244.0576417193412
 21
249.9203058392984
 31
0.0000000000000000
  0
LINE
  5
C9
100
AcDbEntity
  8
MAIN0
  6
CONTINUOUS
 62
3
100
AcDbLine
 10
244.0576417193411
 20
230.8903058392983
 30
0.0000000000000000
 11
244.0576417193411
 21
184.9053058392982
 31
0.0000000000000000
  0
LINE
  5
CA
100
AcDbEntity
  8
MAIN0
  6
PHANTOM
 62
3
100
AcDbLine
 10
244.0576417193412
 20
333.5553058392984
 30
0.0000000000000000
 11
244.0576417193413
 21
346.2553058392983
 31
0.0000000000000000
  0
LINE
  5
CB
100
AcDbEntity
  8
MAIN0
  6
PHANTOM
 62
3
100
AcDbLine
 10
241.0576417193413
 20
346.2553058392983
 30
0.0000000000000000
 11
244.0576417193413
 21
346.2553058392983
 31
0.0000000000000000
  0
LINE
  5
CC
100
AcDbEntity
  8
MAIN0
  6
PHANTOM
 62
3
100
AcDbLine
 10
241.0576417193414
 20
333.5553058392985
 30
0.0000000000000000
 11
244.0576417193413
 21
333.5553058392985
 31
0.0000000000000000
  0
LINE
  5
CD
100
AcDbEntity
  8
MAIN0
  6
PHANTOM
 62
3
100
AcDbLine
 10
238.0576417193413
 20
319.9053058392984
 30
0.0000000000000000
 11
238.0576417193413
 21
324.4053058392984
 31
0.0000000000000000
  0
LINE
  5
CE
100
AcDbEntity
  8
MAIN0
  6
PHANTOM
 62
3
100
AcDbLine
 10
238.0576417193413
 20
355.4053058392984
 30
0.0000000000000000
 11
238.0576417193413
 21
359.9053058392984
 31
0.0000000000000000
  0
LINE
  5
CF
100
AcDbEntity
  8
MAIN0
  6
PHANTOM
 62
3
100
AcDbLine
 10
241.0576417193413
 20
319.9053058392984
 30
0.0000000000000000
 11
241.0576417193413
 21
333.5553058392983
 31
0.0000000000000000
  0
LINE
  5
D0
100
AcDbEntity
  8
MAIN0
  6
PHANTOM
 62
3
100
AcDbLine
 10
241.0576417193413
 20
346.2553058392983
 30
0.0000000000000000
 11
241.0576417193413
 21
359.9053058392984
 31
0.0000000000000000
  0
LINE
  5
D1
100
AcDbEntity
  8
MAIN0
  6
CONTINUOUS
 62
3
100
AcDbLine
 10
142.0576417193411
 20
184.9053058392984
 30
0.0000000000000000
 11
234.0576417193410
 21
184.9053058392983
 31
0.0000000000000000
  0
LINE
  5
D2
100
AcDbEntity
  8
MAIN0
  6
PHANTOM
 62
3
100
AcDbLine
 10
252.0576417193412
 20
293.8249443989460
 30
0.0000000000000000
 11
252.0576417193412
 21
300.5010072438599
 31
0.0000000000000000
  0
LINE
  5
D3
100
AcDbEntity
  8
MAIN0
  6
CONTINUOUS
 62
3
100
AcDbLine
 10
236.0576417193410
 20
186.9053058392985
 30
0.0000000000000000
 11
236.0576417193415
 21
492.9053058392984
 31
0.0000000000000000
  0
LINE
  5
D4
100
AcDbEntity
  8
MAIN0
  6
CENTER
 62
3
100
AcDbLine
 10
226.0576417193413
 20
272.1553058392983
 30
0.0000000000000000
 11
297.9299844499337
 21
272.1553058392983
 31
0.0000000000000000
  0
LINE
  5
D5
100
AcDbEntity
  8
MAIN0
  6
CENTER
 62
3
100
AcDbLine
 10
226.0576417193413
 20
208.6553058392982
 30
0.0000000000000000
 11
265.7613146742093
 21
208.6553058392983
 31
0.0000000000000000
  0
LINE
  5
D6
100
AcDbEntity
  8
MAIN0
  6
CONTINUOUS
 62
3
100
AcDbLine
 10
286.0576417191226
 20
263.9053058392985
 30
0.0000000000000000
 11
285.0576417192515
 21
265.6373566466355
 31
0.0000000000000000
  0
LINE
  5
D7
100
AcDbEntity
  8
MAIN0
  6
CONTINUOUS
 62
3
100
AcDbLine
 10
285.0576417192517
 20
265.6373566466356
 30
0.0000000000000000
 11
284.0576417193851
 21
263.9053058392983
 31
0.0000000000000000
  0
LINE
  5
D8
100
AcDbEntity
  8
MAIN0
  6
CONTINUOUS
 62
3
100
AcDbLine
 10
268.8576417190160
 20
228.9053058392984
 30
0.0000000000000000
 11
269.8576417197691
 21
230.6373566481662
 31
0.0000000000000000
  0
LINE
  5
D9
100
AcDbEntity
  8
MAIN0
  6
CONTINUOUS
 62
3
100
AcDbLine
 10
270.8576417205180
 20
228.9053058392981
 30
0.0000000000000000
 11
269.8576417197692
 21
230.6373566481662
 31
0.0000000000000000
  0
LINE
  5
DA
100
AcDbEntity
  8
MAIN0
  6
CONTINUOUS
 62
3
100
AcDbLine
 10
276.2576417193411
 20
262.6553058392983
 30
0.0000000000000000
 11
251.5576417193411
 21
262.6553058392984
 31
0.0000000000000000
  0
LINE
  5
DB
100
AcDbEntity
  8
MAIN0
  6
CONTINUOUS
 62
3
100
AcDbLine
 10
251.5576417193412
 20
262.6553058392984
 30
0.0000000000000000
 11
251.5576417193412
 21
281.6553058392984
 31
0.0000000000000000
  0
LINE
  5
DC
100
AcDbEntity
  8
MAIN0
  6
CONTINUOUS
 62
3
100
AcDbLine
 10
251.5576417193412
 20
281.6553058392984
 30
0.0000000000000000
 11
291.4576417193412
 21
281.6553058392984
 31
0.0000000000000000
  0
LINE
  5
DD
100
AcDbEntity
  8
MAIN0
  6
CONTINUOUS
 62
3
100
AcDbLine
 10
291.4576417193412
 20
281.6553058392983
 30
0.0000000000000000
 11
292.0576417193412
 21
282.2553058392983
 31
0.0000000000000000
  0
LINE
  5
DE
100
AcDbEntity
  8
MAIN0
  6
CONTINUOUS
 62
3
100
AcDbLine
 10
251.5576417193412
 20
265.6553058392984
 30
0.0000000000000000
 11
245.1576417193413
 21
265.6553058392984
 31
0.0000000000000000
  0
LINE
  5
DF
100
AcDbEntity
  8
MAIN0
  6
CONTINUOUS
 62
3
100
AcDbLine
 10
245.1576417193413
 20
265.6553058392984
 30
0.0000000000000000
 11
244.5576417193413
 21
265.0553058392984
 31
0.0000000000000000
  0
LINE
  5
E0
100
AcDbEntity
  8
MAIN0
  6
CONTINUOUS
 62
3
100
AcDbLine
 10
251.5576417193412
 20
278.6553058392984
 30
0.0000000000000000
 11
245.1576417193413
 21
278.6553058392984
 31
0.0000000000000000
  0
LINE
  5
E1
100
AcDbEntity
  8
MAIN0
  6
CONTINUOUS
 62
3
100
AcDbLine
 10
245.1576417193413
 20
278.6553058392983
 30
0.0000000000000000
 11
244.5576417193414
 21
279.2553058392983
 31
0.0000000000000000
  0
LINE
  5
E2
100
AcDbEntity
  8
MAIN0
  6
CONTINUOUS
 62
3
100
AcDbLine
 10
251.5576417193412
 20
263.1553058392984
 30
0.0000000000000000
 11
262.3576417193412
 21
263.1553058392984
 31
0.0000000000000000
  0
LINE
  5
E3
100
AcDbEntity
  8
MAIN0
  6
CONTINUOUS
 62
3
100
AcDbLine
 10
262.3576417193412
 20
263.1553058392984
 30
0.0000000000000000
 11
263.5576417193412
 21
265.2337668083810
 31
0.0000000000000000
  0
LINE
  5
E4
100
AcDbEntity
  8
MAIN0
  6
CONTINUOUS
 62
3
100
AcDbLine
 10
263.5576417193412
 20
265.2337668083810
 30
0.0000000000000000
 11
263.5576417193412
 21
279.0768448702157
 31
0.0000000000000000
  0
LINE
  5
E5
100
AcDbEntity
  8
MAIN0
  6
CONTINUOUS
 62
3
100
AcDbLine
 10
263.5576417193412
 20
279.0768448702157
 30
0.0000000000000000
 11
262.3576417193412
 21
281.1553058392984
 31
0.0000000000000000
  0
LINE
  5
E6
100
AcDbEntity
  8
MAIN0
  6
CONTINUOUS
 62
3
100
AcDbLine
 10
262.3576417193412
 20
281.1553058392984
 30
0.0000000000000000
 11
251.5576417193412
 21
281.1553058392984
 31
0.0000000000000000
  0
LINE
  5
E7
100
AcDbEntity
  8
MAIN0
  6
CONTINUOUS
 62
3
100
AcDbLine
 10
262.3576417193412
 20
263.1553058392984
 30
0.0000000000000000
 11
262.3576417193412
 21
281.1553058392984
 31
0.0000000000000000
  0
LINE
  5
E8
100
AcDbEntity
  8
MAIN0
  6
HIDDEN
 62
3
100
AcDbLine
 10
231.0576417193413
 20
278.1553058392984
 30
0.0000000000000000
 11
244.5576417193412
 21
278.1553058392984
 31
0.0000000000000000
  0
LINE
  5
E9
100
AcDbEntity
  8
MAIN0
  6
CONTINUOUS
 62
3
100
AcDbLine
 10
244.5576417193412
 20
278.1553058392984
 30
0.0000000000000000
 11
251.5576417193412
 21
278.1553058392984
 31
0.0000000000000000
  0
LINE
  5
EA
100
AcDbEntity
  8
MAIN0
  6
HIDDEN
 62
3
100
AcDbLine
 10
231.0576417193413
 20
277.2080903392983
 30
0.0000000000000000
 11
244.5576417193412
 21
277.2080903392983
 31
0.0000000000000000
  0
LINE
  5
EB
100
AcDbEntity
  8
MAIN0
  6
CONTINUOUS
 62
3
100
AcDbLine
 10
244.5576417193412
 20
277.2080903392983
 30
0.0000000000000000
 11
251.5576417193412
 21
277.2080903392983
 31
0.0000000000000000
  0
LINE
  5
EC
100
AcDbEntity
  8
MAIN0
  6
HIDDEN
 62
3
100
AcDbLine
 10
231.0576417193413
 20
267.1025213392984
 30
0.0000000000000000
 11
244.5576417193412
 21
267.1025213392984
 31
0.0000000000000000
  0
LINE
  5
ED
100
AcDbEntity
  8
MAIN0
  6
CONTINUOUS
 62
3
100
AcDbLine
 10
244.5576417193412
 20
267.1025213392984
 30
0.0000000000000000
 11
251.5576417193412
 21
267.1025213392984
 31
0.0000000000000000
  0
LINE
  5
EE
100
AcDbEntity
  8
MAIN0
  6
HIDDEN
 62
3
100
AcDbLine
 10
231.0576417193413
 20
266.1553058392984
 30
0.0000000000000000
 11
244.5576417193412
 21
266.1553058392984
 31
0.0000000000000000
  0
LINE
  5
EF
100
AcDbEntity
  8
MAIN0
  6
CONTINUOUS
 62
3
100
AcDbLine
 10
244.5576417193412
 20
266.1553058392984
 30
0.0000000000000000
 11
251.5576417193412
 21
266.1553058392984
 31
0.0000000000000000
  0
LINE
  5
F0
100
AcDbEntity
  8
MAIN0
  6
CONTINUOUS
 62
3
100
AcDbLine
 10
261.5576417193411
 20
199.1553058392983
 30
0.0000000000000000
 11
248.5576417193412
 21
199.1553058392983
 31
0.0000000000000000
  0
LINE
  5
F1
100
AcDbEntity
  8
MAIN0
  6
CONTINUOUS
 62
3
100
AcDbLine
 10
248.5576417193412
 20
199.1553058392983
 30
0.0000000000000000
 11
248.5576417193412
 21
218.1553058392984
 31
0.0000000000000000
  0
LINE
  5
F2
100
AcDbEntity
  8
MAIN0
  6
CONTINUOUS
 62
3
100
AcDbLine
 10
248.5576417193412
 20
218.1553058392984
 30
0.0000000000000000
 11
261.4576417193412
 21
218.1553058392984
 31
0.0000000000000000
  0
LINE
  5
F3
100
AcDbEntity
  8
MAIN0
  6
CONTINUOUS
 62
3
100
AcDbLine
 10
261.4576417193410
 20
218.1553058392984
 30
0.0000000000000000
 11
262.0576417193411
 21
218.7553058392984
 31
0.0000000000000000
  0
LINE
  5
F4
100
AcDbEntity
  8
MAIN0
  6
CONTINUOUS
 62
3
100
AcDbLine
 10
248.5576417193412
 20
202.1553058392983
 30
0.0000000000000000
 11
245.1576417193411
 21
202.1553058392983
 31
0.0000000000000000
  0
LINE
  5
F5
100
AcDbEntity
  8
MAIN0
  6
CONTINUOUS
 62
3
100
AcDbLine
 10
245.1576417193411
 20
202.1553058392984
 30
0.0000000000000000
 11
244.5576417193411
 21
201.5553058392983
 31
0.0000000000000000
  0
LINE
  5
F6
100
AcDbEntity
  8
MAIN0
  6
CONTINUOUS
 62
3
100
AcDbLine
 10
248.5576417193412
 20
215.1553058392984
 30
0.0000000000000000
 11
245.1576417193411
 21
215.1553058392984
 31
0.0000000000000000
  0
LINE
  5
F7
100
AcDbEntity
  8
MAIN0
  6
CONTINUOUS
 62
3
100
AcDbLine
 10
245.1576417193411
 20
215.1553058392983
 30
0.0000000000000000
 11
244.5576417193411
 21
215.7553058392983
 31
0.0000000000000000
  0
LINE
  5
F8
100
AcDbEntity
  8
MAIN0
  6
CONTINUOUS
 62
3
100
AcDbLine
 10
248.5576417193412
 20
199.6553058392983
 30
0.0000000000000000
 11
259.3576417193411
 21
199.6553058392983
 31
0.0000000000000000
  0
LINE
  5
F9
100
AcDbEntity
  8
MAIN0
  6
CONTINUOUS
 62
3
100
AcDbLine
 10
259.3576417193412
 20
199.6553058392984
 30
0.0000000000000000
 11
260.5576417193412
 21
201.7337668083810
 31
0.0000000000000000
  0
LINE
  5
FA
100
AcDbEntity
  8
MAIN0
  6
CONTINUOUS
 62
3
100
AcDbLine
 10
260.5576417193412
 20
201.7337668083810
 30
0.0000000000000000
 11
260.5576417193412
 21
215.5768448702157
 31
0.0000000000000000
  0
LINE
  5
FB
100
AcDbEntity
  8
MAIN0
  6
CONTINUOUS
 62
3
100
AcDbLine
 10
260.5576417193411
 20
215.5768448702158
 30
0.0000000000000000
 11
259.3576417193411
 21
217.6553058392984
 31
0.0000000000000000
  0
LINE
  5
FC
100
AcDbEntity
  8
MAIN0
  6
CONTINUOUS
 62
3
100
AcDbLine
 10
259.3576417193411
 20
217.6553058392984
 30
0.0000000000000000
 11
248.5576417193412
 21
217.6553058392984
 31
0.0000000000000000
  0
LINE
  5
FD
100
AcDbEntity
  8
MAIN0
  6
CONTINUOUS
 62
3
100
AcDbLine
 10
259.3576417193411
 20
199.6553058392983
 30
0.0000000000000000
 11
259.3576417193411
 21
217.6553058392984
 31
0.0000000000000000
  0
LINE
  5
FE
100
AcDbEntity
  8
MAIN0
  6
HIDDEN
 62
3
100
AcDbLine
 10
231.0576417193413
 20
214.6553058392984
 30
0.0000000000000000
 11
244.5576417193412
 21
214.6553058392984
 31
0.0000000000000000
  0
LINE
  5
FF
100
AcDbEntity
  8
MAIN0
  6
CONTINUOUS
 62
3
100
AcDbLine
 10
244.5576417193412
 20
214.6553058392984
 30
0.0000000000000000
 11
248.5576417193412
 21
214.6553058392984
 31
0.0000000000000000
  0
LINE
  5
100
100
AcDbEntity
  8
MAIN0
  6
HIDDEN
 62
3
100
AcDbLine
 10
231.0576417193413
 20
213.7080903392983
 30
0.0000000000000000
 11
244.5576417193412
 21
213.7080903392983
 31
0.0000000000000000
  0
LINE
  5
101
100
AcDbEntity
  8
MAIN0
  6
CONTINUOUS
 62
3
100
AcDbLine
 10
244.5576417193412
 20
213.7080903392983
 30
0.0000000000000000
 11
248.5576417193412
 21
213.7080903392983
 31
0.0000000000000000
  0
LINE
  5
102
100
AcDbEntity
  8
MAIN0
  6
HIDDEN
 62
3
100
AcDbLine
 10
231.0576417193413
 20
203.6025213392984
 30
0.0000000000000000
 11
244.5576417193411
 21
203.6025213392984
 31
0.0000000000000000
  0
LINE
  5
103
100
AcDbEntity
  8
MAIN0
  6
CONTINUOUS
 62
3
100
AcDbLine
 10
244.5576417193411
 20
203.6025213392984
 30
0.0000000000000000
 11
248.5576417193412
 21
203.6025213392984
 31
0.0000000000000000
  0
LINE
  5
104
100
AcDbEntity
  8
MAIN0
  6
HIDDEN
 62
3
100
AcDbLine
 10
231.0576417193413
 20
202.6553058392983
 30
0.0000000000000000
 11
244.5576417193412
 21
202.6553058392983
 31
0.0000000000000000
  0
LINE
  5
105
100
AcDbEntity
  8
MAIN0
  6
CONTINUOUS
 62
3
100
AcDbLine
 10
244.5576417193412
 20
202.6553058392983
 30
0.0000000000000000
 11
248.5576417193412
 21
202.6553058392983
 31
0.0000000000000000
  0
LINE
  5
106
100
AcDbEntity
  8
MAIN0
  6
CONTINUOUS
 62
3
100
AcDbLine
 10
279.6576417193411
 20
263.9053058392984
 30
0.0000000000000000
 11
277.7366595923700
 21
264.9053058392984
 31
0.0000000000000000
  0
LINE
  5
107
100
AcDbEntity
  8
MAIN0
  6
CONTINUOUS
 62
3
100
AcDbLine
 10
277.7366595923700
 20
264.9053058392983
 30
0.0000000000000000
 11
277.4576417193412
 21
264.9053058392983
 31
0.0000000000000000
  0
LINE
  5
108
100
AcDbEntity
  8
MAIN0
  6
CONTINUOUS
 62
3
100
AcDbLine
 10
276.2576417193412
 20
263.7053058392984
 30
0.0000000000000000
 11
276.2576417193412
 21
261.9420915408753
 31
0.0000000000000000
  0
LINE
  5
109
100
AcDbEntity
  8
MAIN0
  6
CONTINUOUS
 62
3
100
AcDbLine
 10
276.2576417193411
 20
261.9420915408754
 30
0.0000000000000000
 11
277.0576417193412
 21
260.4053058392984
 31
0.0000000000000000
  0
ARC
  5
10A
100
AcDbEntity
  8
MAIN0
  6
CONTINUOUS
 62
3
100
AcDbCircle
 10
277.4576417193412
 20
263.7053058392984
 30
0.0000000000000000
 40
1.200000000000000
100
AcDbArc
 50
90.00000000000000
 51
180.0000000000000
  0
LINE
  5
10B
100
AcDbEntity
  8
MAIN0
  6
CONTINUOUS
 62
3
100
AcDbLine
 10
264.6576417193411
 20
228.9053058392984
 30
0.0000000000000000
 11
262.7366595923700
 21
229.9053058392984
 31
0.0000000000000000
  0
LINE
  5
10C
100
AcDbEntity
  8
MAIN0
  6
CONTINUOUS
 62
3
100
AcDbLine
 10
262.7366595923700
 20
229.9053058392983
 30
0.0000000000000000
 11
262.4576417193412
 21
229.9053058392983
 31
0.0000000000000000
  0
LINE
  5
10D
100
AcDbEntity
  8
MAIN0
  6
CONTINUOUS
 62
3
100
AcDbLine
 10
261.2576417193412
 20
228.7053058392984
 30
0.0000000000000000
 11
261.2576417193412
 21
226.9420915408753
 31
0.0000000000000000
  0
LINE
  5
10E
100
AcDbEntity
  8
MAIN0
  6
CONTINUOUS
 62
3
100
AcDbLine
 10
261.2576417193411
 20
226.9420915408754
 30
0.0000000000000000
 11
262.0576417193412
 21
225.4053058392984
 31
0.0000000000000000
  0
ARC
  5
10F
100
AcDbEntity
  8
MAIN0
  6
CONTINUOUS
 62
3
100
AcDbCircle
 10
262.4576417193412
 20
228.7053058392984
 30
0.0000000000000000
 40
1.200000000000000
100
AcDbArc
 50
90.00000000000000
 51
180.0000000000000
  0
LINE
  5
110
100
AcDbEntity
  8
MAIN0
  6
HIDDEN
 62
3
100
AcDbLine
 10
399.5643883063277
 20
257.4355502750400
 30
0.0000000000000000
 11
381.8367842218173
 21
247.2005132847609
 31
0.0000000000000000
  0
LINE
  5
111
100
AcDbEntity
  8
MAIN0
  6
HIDDEN
 62
3
100
AcDbLine
 10
377.4907515044982
 20
288.5699505839212
 30
0.0000000000000000
 11
363.0134331736171
 21
280.2114669484432
 31
0.0000000000000000
  0
LINE
  5
112
100
AcDbEntity
  8
MAIN0
  6
HIDDEN
 62
3
100
AcDbLine
 10
627.2368753121178
 20
292.8352161233513
 30
0.0000000000000000
 11
649.1018502650650
 21
280.2114669484426
 31
0.0000000000000000
  0
LINE
  5
113
100
AcDbEntity
  8
MAIN0
  6
HIDDEN
 62
3
100
AcDbLine
 10
608.4481771696303
 20
259.8042555952276
 30
0.0000000000000000
 11
630.2784992168648
 21
247.2005132847604
 31
0.0000000000000000
  0
LINE
  5
114
100
AcDbEntity
  8
MAIN0
  6
HIDDEN
 62
3
100
AcDbLine
 10
528.3076417193411
 20
186.5105943919998
 30
0.0000000000000000
 11
528.3076417193412
 21
297.3736999443883
 31
0.0000000000000000
  0
LINE
  5
115
100
AcDbEntity
  8
MAIN0
  6
HIDDEN
 62
3
100
AcDbLine
 10
483.8076417193411
 20
186.5105943919999
 30
0.0000000000000000
 11
483.8076417193412
 21
297.3736999443883
 31
0.0000000000000000
  0
LINE
  5
116
100
AcDbEntity
  8
MAIN0
  6
CONTINUOUS
 62
3
100
AcDbLine
 10
504.0576417190849
 20
182.9053058392987
 30
0.0000000000000000
 11
508.0576417192856
 21
182.9053058392987
 31
0.0000000000000000
  0
LINE
  5
117
100
AcDbEntity
  8
MAIN0
  6
CONTINUOUS
 62
3
100
AcDbLine
 10
526.0576417193411
 20
193.2976106847623
 30
0.0000000000000000
 11
526.0576417193412
 21
287.5595378038860
 31
0.0000000000000000
  0
LINE
  5
118
100
AcDbEntity
  8
MAIN0
  6
CONTINUOUS
 62
3
100
AcDbLine
 10
486.0576417193411
 20
193.2976106845568
 30
0.0000000000000000
 11
486.0576417193412
 21
287.5595378038861
 31
0.0000000000000000
  0
ARC
  5
119
100
AcDbEntity
  8
MAIN0
  6
CONTINUOUS
 62
3
100
AcDbCircle
 10
506.0576417193412
 20
340.9053058392987
 30
0.0000000000000000
 40
43.00000000000000
100
AcDbArc
 50
267.3341182354896
 51
272.6658817645104
  0
LINE
  5
11A
100
AcDbEntity
  8
MAIN0
  6
CONTINUOUS
 62
3
100
AcDbLine
 10
486.0576417193414
 20
287.5595378038862
 30
0.0000000000000000
 11
504.0576417195949
 21
297.9518426494579
 31
0.0000000000000000
  0
LINE
  5
11B
100
AcDbEntity
  8
MAIN0
  6
CONTINUOUS
 62
3
100
AcDbLine
 10
526.0576417193414
 20
287.5595378038859
 30
0.0000000000000000
 11
508.0576417190878
 21
297.9518426494577
 31
0.0000000000000000
  0
LINE
  5
11C
100
AcDbEntity
  8
MAIN0
  6
CONTINUOUS
 62
3
100
AcDbLine
 10
508.0576417192859
 20
182.9053058392985
 30
0.0000000000000000
 11
526.0576417193410
 21
193.2976106847625
 31
0.0000000000000000
  0
LINE
  5
11D
100
AcDbEntity
  8
MAIN0
  6
CONTINUOUS
 62
3
100
AcDbLine
 10
486.0576417193412
 20
193.2976106845568
 30
0.0000000000000000
 11
504.0576417190849
 21
182.9053058392986
 31
0.0000000000000000
  0
ARC
  5
11E
100
AcDbEntity
  8
MAIN0
  6
CONTINUOUS
 62
3
100
AcDbCircle
 10
506.0576417193410
 20
139.9053058392987
 30
0.0000000000000000
 40
85.50000000000000
100
AcDbArc
 50
76.47214125069552
 51
103.5278587493043
  0
ARC
  5
11F
100
AcDbEntity
  8
MAIN0
  6
CONTINUOUS
 62
3
100
AcDbCircle
 10
506.0576417193410
 20
139.9053058392987
 30
0.0000000000000000
 40
89.00000000000000
100
AcDbArc
 50
77.63468852035987
 51
102.3653114796401
  0
ARC
  5
120
100
AcDbEntity
  8
MAIN0
  6
CONTINUOUS
 62
3
100
AcDbCircle
 10
506.0576417193410
 20
139.9053058392987
 30
0.0000000000000000
 40
120.5000000000000
100
AcDbArc
 50
80.44611509740125
 51
99.55388490259860
  0
ARC
  5
121
100
AcDbEntity
  8
MAIN0
  6
CONTINUOUS
 62
3
100
AcDbCircle
 10
506.0576417193412
 20
340.8587690291278
 30
0.0000000000000000
 40
80.70000000000000
100
AcDbArc
 50
255.6507729547616
 51
256.3573127556387
  0
ARC
  5
122
100
AcDbEntity
  8
MAIN0
  6
CONTINUOUS
 62
3
100
AcDbCircle
 10
506.0576417193412
 20
340.8587690291278
 30
0.0000000000000000
 40
80.70000000000000
100
AcDbArc
 50
283.6426872443612
 51
284.3492270452383
  0
ARC
  5
123
100
AcDbEntity
  8
MAIN0
  6
CONTINUOUS
 62
3
100
AcDbCircle
 10
506.0576417193412
 20
340.8587690291278
 30
0.0000000000000000
 40
115.6000000000000
100
AcDbArc
 50
260.0371046988219
 51
260.5103965970255
  0
ARC
  5
124
100
AcDbEntity
  8
MAIN0
  6
CONTINUOUS
 62
3
100
AcDbCircle
 10
506.0576417193412
 20
340.8587690291278
 30
0.0000000000000000
 40
115.6000000000000
100
AcDbArc
 50
279.4896034029744
 51
279.9628953011780
  0
LINE
  5
125
100
AcDbEntity
  8
MAIN0
  6
HIDDEN
 62
3
100
AcDbLine
 10
627.7763586388855
 20
435.8717267971517
 30
0.0000000000000000
 11
531.7660928880813
 21
380.4401740209574
 31
0.0000000000000000
  0
LINE
  5
126
100
AcDbEntity
  8
MAIN0
  6
HIDDEN
 62
3
100
AcDbLine
 10
650.0263586388855
 20
397.3335963287442
 30
0.0000000000000000
 11
554.0160928880815
 21
341.9020435525500
 31
0.0000000000000000
  0
LINE
  5
127
100
AcDbEntity
  8
MAIN0
  6
CONTINUOUS
 62
3
100
AcDbLine
 10
643.0236301136263
 20
416.6732550315077
 30
0.0000000000000000
 11
641.0236301135258
 21
420.1373566468193
 31
0.0000000000000000
  0
LINE
  5
128
100
AcDbEntity
  8
MAIN0
  6
CONTINUOUS
 62
3
100
AcDbLine
 10
623.0236301134544
 20
430.5296614922556
 30
0.0000000000000000
 11
541.3904066186159
 21
383.3986979326938
 31
0.0000000000000000
  0
LINE
  5
129
100
AcDbEntity
  8
MAIN0
  6
CONTINUOUS
 62
3
100
AcDbLine
 10
643.0236301136323
 20
395.8886453409808
 30
0.0000000000000000
 11
561.3904066186158
 21
348.7576817813163
 31
0.0000000000000000
  0
ARC
  5
12A
100
AcDbEntity
  8
MAIN0
  6
CONTINUOUS
 62
3
100
AcDbCircle
 10
505.1916163155567
 20
339.4053058392988
 30
0.0000000000000000
 40
43.00000000000000
100
AcDbArc
 50
27.33411823548962
 51
32.66588176451042
  0
LINE
  5
12B
100
AcDbEntity
  8
MAIN0
  6
CONTINUOUS
 62
3
100
AcDbLine
 10
561.3904066186155
 20
348.7576817813164
 30
0.0000000000000000
 11
543.3904066183516
 21
359.1499866268700
 31
0.0000000000000000
  0
LINE
  5
12C
100
AcDbEntity
  8
MAIN0
  6
CONTINUOUS
 62
3
100
AcDbLine
 10
541.3904066186159
 20
383.3986979326939
 30
0.0000000000000000
 11
541.3904066186054
 21
362.6140882415684
 31
0.0000000000000000
  0
LINE
  5
12D
100
AcDbEntity
  8
MAIN0
  6
CONTINUOUS
 62
3
100
AcDbLine
 10
641.0236301135259
 20
420.1373566468199
 30
0.0000000000000000
 11
623.0236301134544
 21
430.5296614922555
 31
0.0000000000000000
  0
LINE
  5
12E
100
AcDbEntity
  8
MAIN0
  6
CONTINUOUS
 62
3
100
AcDbLine
 10
643.0236301136324
 20
395.8886453409806
 30
0.0000000000000000
 11
643.0236301136262
 21
416.6732550315078
 31
0.0000000000000000
  0
ARC
  5
12F
100
AcDbEntity
  8
MAIN0
  6
CONTINUOUS
 62
3
100
AcDbCircle
 10
679.2627224762291
 20
439.9053058392984
 30
0.0000000000000000
 40
85.50000000000000
100
AcDbArc
 50
196.4721412506955
 51
223.5278587493042
  0
ARC
  5
130
100
AcDbEntity
  8
MAIN0
  6
CONTINUOUS
 62
3
100
AcDbCircle
 10
679.2627224762291
 20
439.9053058392984
 30
0.0000000000000000
 40
89.00000000000000
100
AcDbArc
 50
197.6346885203598
 51
222.3653114796400
  0
ARC
  5
131
100
AcDbEntity
  8
MAIN0
  6
CONTINUOUS
 62
3
100
AcDbCircle
 10
679.2627224762291
 20
439.9053058392984
 30
0.0000000000000000
 40
120.5000000000000
100
AcDbArc
 50
200.4461150974013
 51
219.5538849025986
  0
ARC
  5
132
100
AcDbEntity
  8
MAIN0
  6
CONTINUOUS
 62
3
100
AcDbCircle
 10
505.2319183753759
 20
339.4285742443841
 30
0.0000000000000000
 40
80.70000000000000
100
AcDbArc
 50
15.65077295476159
 51
16.35731275563858
  0
ARC
  5
133
100
AcDbEntity
  8
MAIN0
  6
CONTINUOUS
 62
3
100
AcDbCircle
 10
505.2319183753759
 20
339.4285742443841
 30
0.0000000000000000
 40
80.70000000000000
100
AcDbArc
 50
43.64268724436125
 51
44.34922704523824
  0
ARC
  5
134
100
AcDbEntity
  8
MAIN0
  6
CONTINUOUS
 62
3
100
AcDbCircle
 10
505.2319183753759
 20
339.4285742443841
 30
0.0000000000000000
 40
115.6000000000000
100
AcDbArc
 50
20.03710469882193
 51
20.51039659702547
  0
ARC
  5
135
100
AcDbEntity
  8
MAIN0
  6
CONTINUOUS
 62
3
100
AcDbCircle
 10
505.2319183753759
 20
339.4285742443841
 30
0.0000000000000000
 40
115.6000000000000
100
AcDbArc
 50
39.48960340297437
 51
39.96289530117799
  0
LINE
  5
136
100
AcDbEntity
  8
MAIN0
  6
HIDDEN
 62
3
100
AcDbLine
 10
362.0889247997967
 20
397.3335963287445
 30
0.0000000000000000
 11
458.0991905506010
 21
341.9020435525499
 31
0.0000000000000000
  0
LINE
  5
137
100
AcDbEntity
  8
MAIN0
  6
HIDDEN
 62
3
100
AcDbLine
 10
384.3389247997968
 20
435.8717267971519
 30
0.0000000000000000
 11
480.3491905506011
 21
380.4401740209573
 31
0.0000000000000000
  0
LINE
  5
138
100
AcDbEntity
  8
MAIN0
  6
CONTINUOUS
 62
3
100
AcDbLine
 10
371.0916533253126
 20
420.1373566470895
 30
0.0000000000000000
 11
369.0916533252122
 21
416.6732550317779
 31
0.0000000000000000
  0
LINE
  5
139
100
AcDbEntity
  8
MAIN0
  6
CONTINUOUS
 62
3
100
AcDbLine
 10
369.0916533252281
 20
395.8886453408783
 30
0.0000000000000000
 11
450.7248768200665
 21
348.7576817813163
 31
0.0000000000000000
  0
LINE
  5
13A
100
AcDbEntity
  8
MAIN0
  6
CONTINUOUS
 62
3
100
AcDbLine
 10
389.0916533250502
 20
430.5296614923586
 30
0.0000000000000000
 11
470.7248768200666
 21
383.3986979326938
 31
0.0000000000000000
  0
ARC
  5
13B
100
AcDbEntity
  8
MAIN0
  6
CONTINUOUS
 62
3
100
AcDbCircle
 10
506.9236671231257
 20
339.4053058392987
 30
0.0000000000000000
 40
43.00000000000000
100
AcDbArc
 50
147.3341182354896
 51
152.6658817645104
  0
LINE
  5
13C
100
AcDbEntity
  8
MAIN0
  6
CONTINUOUS
 62
3
100
AcDbLine
 10
470.7248768200665
 20
383.3986979326934
 30
0.0000000000000000
 11
470.7248768200768
 21
362.6140882415682
 31
0.0000000000000000
  0
LINE
  5
13D
100
AcDbEntity
  8
MAIN0
  6
CONTINUOUS
 62
3
100
AcDbLine
 10
450.7248768200665
 20
348.7576817813161
 30
0.0000000000000000
 11
468.7248768203306
 21
359.1499866268698
 31
0.0000000000000000
  0
LINE
  5
13E
100
AcDbEntity
  8
MAIN0
  6
CONTINUOUS
 62
3
100
AcDbLine
 10
369.0916533252118
 20
416.6732550317778
 30
0.0000000000000000
 11
369.0916533252282
 21
395.8886453408782
 31
0.0000000000000000
  0
LINE
  5
13F
100
AcDbEntity
  8
MAIN0
  6
CONTINUOUS
 62
3
100
AcDbLine
 10
389.0916533250503
 20
430.5296614923585
 30
0.0000000000000000
 11
371.0916533253127
 21
420.1373566470896
 31
0.0000000000000000
  0
ARC
  5
140
100
AcDbEntity
  8
MAIN0
  6
CONTINUOUS
 62
3
100
AcDbCircle
 10
332.8525609624537
 20
439.9053058392990
 30
0.0000000000000000
 40
85.50000000000000
100
AcDbArc
 50
316.4721412506955
 51
343.5278587493042
  0
ARC
  5
141
100
AcDbEntity
  8
MAIN0
  6
CONTINUOUS
 62
3
100
AcDbCircle
 10
332.8525609624537
 20
439.9053058392990
 30
0.0000000000000000
 40
89.00000000000000
100
AcDbArc
 50
317.6346885203599
 51
342.3653114796400
  0
ARC
  5
142
100
AcDbEntity
  8
MAIN0
  6
CONTINUOUS
 62
3
100
AcDbCircle
 10
332.8525609624537
 20
439.9053058392990
 30
0.0000000000000000
 40
120.5000000000000
100
AcDbArc
 50
320.4461150974012
 51
339.5538849025986
  0
ARC
  5
143
100
AcDbEntity
  8
MAIN0
  6
CONTINUOUS
 62
3
100
AcDbCircle
 10
506.8833650633066
 20
339.4285742443841
 30
0.0000000000000000
 40
80.70000000000000
100
AcDbArc
 50
135.6507729547617
 51
136.3573127556386
  0
ARC
  5
144
100
AcDbEntity
  8
MAIN0
  6
CONTINUOUS
 62
3
100
AcDbCircle
 10
506.8833650633066
 20
339.4285742443841
 30
0.0000000000000000
 40
80.70000000000000
100
AcDbArc
 50
163.6426872443612
 51
164.3492270452382
  0
ARC
  5
145
100
AcDbEntity
  8
MAIN0
  6
CONTINUOUS
 62
3
100
AcDbCircle
 10
506.8833650633066
 20
339.4285742443841
 30
0.0000000000000000
 40
115.6000000000000
100
AcDbArc
 50
140.0371046988219
 51
140.5103965970254
  0
ARC
  5
146
100
AcDbEntity
  8
MAIN0
  6
CONTINUOUS
 62
3
100
AcDbCircle
 10
506.8833650633066
 20
339.4285742443841
 30
0.0000000000000000
 40
115.6000000000000
100
AcDbArc
 50
159.4896034029744
 51
159.9628953011780
  0
LINE
  5
147
100
AcDbEntity
  8
MAIN0
  6
PHANTOM
 62
3
100
AcDbLine
 10
629.6335042341259
 20
332.4053058394896
 30
0.0000000000000000
 11
629.6335042341266
 21
347.4053058394896
 31
0.0000000000000000
  0
LINE
  5
148
100
AcDbEntity
  8
MAIN0
  6
PHANTOM
 62
3
100
AcDbLine
 10
633.1335042341259
 20
332.4053058394910
 30
0.0000000000000000
 11
633.1335042341266
 21
347.4053058394910
 31
0.0000000000000000
  0
LINE
  5
149
100
AcDbEntity
  8
MAIN0
  6
PHANTOM
 62
3
100
AcDbLine
 10
633.1335042341258
 20
332.4053058394910
 30
0.0000000000000000
 11
629.6335042341265
 21
332.4053058394896
 31
0.0000000000000000
  0
LINE
  5
14A
100
AcDbEntity
  8
MAIN0
  6
PHANTOM
 62
3
100
AcDbLine
 10
633.1335042341268
 20
347.4053058394909
 30
0.0000000000000000
 11
629.6335042341262
 21
347.4053058394895
 31
0.0000000000000000
  0
LINE
  5
14B
100
AcDbEntity
  8
MAIN0
  6
HIDDEN
 62
3
100
AcDbLine
 10
190.5576417193414
 20
494.4722931375822
 30
0.0000000000000000
 11
190.9906544210562
 21
494.9053058392984
 31
0.0000000000000000
  0
LINE
  5
14C
100
AcDbEntity
  8
MAIN0
  6
HIDDEN
 62
3
100
AcDbLine
 10
152.1246290172525
 20
494.9053058392984
 30
0.0000000000000000
 11
152.5576417193414
 21
494.4722931372099
 31
0.0000000000000000
  0
LINE
  5
14D
100
AcDbEntity
  8
MAIN0
  6
CONTINUOUS
 62
3
100
AcDbLine
 10
142.0576417193415
 20
494.9053058392985
 30
0.0000000000000000
 11
234.0576417193414
 21
494.9053058392984
 31
0.0000000000000000
  0
LINE
  5
14E
100
AcDbEntity
  8
MAIN0
  6
CENTER
 62
3
100
AcDbLine
 10
157.2711087465159
 20
564.9053058392984
 30
0.0000000000000000
 11
186.0576417193413
 21
564.9053058392984
 31
0.0000000000000000
  0
LINE
  5
14F
100
AcDbEntity
  8
MAIN0
  6
CONTINUOUS
 62
3
100
AcDbLine
 10
162.4412109178580
 20
565.6883699752334
 30
0.0000000000000000
 11
170.7745775828831
 21
574.0217366402460
 31
0.0000000000000000
  0
LINE
  5
150
100
AcDbEntity
  8
MAIN0
  6
CONTINUOUS
 62
3
100
AcDbLine
 10
172.3407058528742
 20
555.7888750370262
 30
0.0000000000000000
 11
180.6740725210754
 21
564.1222417052150
 31
0.0000000000000000
  0
LINE
  5
151
100
AcDbEntity
  8
MAIN0
  6
CONTINUOUS
 62
3
100
AcDbLine
 10
172.3407058543540
 20
574.0217366403673
 30
0.0000000000000000
 11
180.6740725209485
 21
565.6883699737598
 31
0.0000000000000000
  0
LINE
  5
152
100
AcDbEntity
  8
MAIN0
  6
CONTINUOUS
 62
3
100
AcDbLine
 10
162.4412109177336
 20
564.1222417037645
 30
0.0000000000000000
 11
170.7745775843303
 21
555.7888750371548
 31
0.0000000000000000
  0
LINE
  5
153
100
AcDbEntity
  8
MAIN0
  6
HIDDEN
 62
3
100
AcDbLine
 10
180.7076417193596
 20
493.7315454085910
 30
0.0000000000000000
 11
180.7076417193622
 21
482.4053058392984
 31
0.0000000000000000
  0
LINE
  5
154
100
AcDbEntity
  8
MAIN0
  6
HIDDEN
 62
3
100
AcDbLine
 10
162.4076417193423
 20
493.7315454085958
 30
0.0000000000000000
 11
162.4076417193418
 21
482.4053058392984
 31
0.0000000000000000
  0
LINE
  5
155
100
AcDbEntity
  8
MAIN0
  6
HIDDEN
 62
3
100
AcDbLine
 10
180.7076417193597
 20
493.7315454085260
 30
0.0000000000000000
 11
182.3076417194745
 21
494.6553058392982
 31
0.0000000000000000
  0
LINE
  5
156
100
AcDbEntity
  8
MAIN0
  6
HIDDEN
 62
3
100
AcDbLine
 10
160.8076417188743
 20
494.6553058392984
 30
0.0000000000000000
 11
162.4076417193422
 21
493.7315454083226
 31
0.0000000000000000
  0
LINE
  5
157
100
AcDbEntity
  8
MAIN0
  6
HIDDEN
 62
3
100
AcDbLine
 10
180.7076417193596
 20
493.7315454085910
 30
0.0000000000000000
 11
162.4076417193422
 21
493.7315454085958
 31
0.0000000000000000
  0
LINE
  5
158
100
AcDbEntity
  8
MAIN0
  6
HIDDEN
 62
3
100
AcDbLine
 10
180.7076417193597
 20
493.7315454085909
 30
0.0000000000000000
 11
174.7360840631579
 21
482.4053058392984
 31
0.0000000000000000
  0
LINE
  5
159
100
AcDbEntity
  8
MAIN0
  6
HIDDEN
 62
3
100
AcDbLine
 10
172.2317313436610
 20
493.7315454085932
 30
0.0000000000000000
 11
178.2032889998703
 21
482.4053058392984
 31
0.0000000000000000
  0
LINE
  5
15A
100
AcDbEntity
  8
MAIN0
  6
HIDDEN
 62
3
100
AcDbLine
 10
170.8835520950220
 20
493.7315454085936
 30
0.0000000000000000
 11
164.9119944388281
 21
482.4053058392984
 31
0.0000000000000000
  0
LINE
  5
15B
100
AcDbEntity
  8
MAIN0
  6
HIDDEN
 62
3
100
AcDbLine
 10
162.4076417193422
 20
493.7315454083226
 30
0.0000000000000000
 11
168.3791993754890
 21
482.4053058392984
 31
0.0000000000000000
  0
ARC
  5
15C
100
AcDbEntity
  8
MAIN0
  6
CONTINUOUS
 62
3
100
AcDbCircle
 10
171.5576417193416
 20
564.9053058387615
 30
0.0000000000000000
 40
9.150000000000000
100
AcDbArc
 50
85.09057720200698
 51
94.90942280710132
  0
ARC
  5
15D
100
AcDbEntity
  8
MAIN0
  6
CONTINUOUS
 62
3
100
AcDbCircle
 10
171.5576417193416
 20
564.9053058387615
 30
0.0000000000000000
 40
9.150000000000000
100
AcDbArc
 50
355.0905772112062
 51
364.9094227979033
  0
ARC
  5
15E
100
AcDbEntity
  8
MAIN0
  6
CONTINUOUS
 62
3
100
AcDbCircle
 10
171.5576417193416
 20
564.9053058387615
 30
0.0000000000000000
 40
9.150000000000000
100
AcDbArc
 50
175.0905771928136
 51
184.9094227979017
  0
ARC
  5
15F
100
AcDbEntity
  8
MAIN0
  6
CONTINUOUS
 62
3
100
AcDbCircle
 10
171.5576417193416
 20
564.9053058387615
 30
0.0000000000000000
 40
9.150000000000000
100
AcDbArc
 50
265.0905772020084
 51
274.9094227887085
  0
LINE
  5
160
100
AcDbEntity
  8
MAIN0
  6
CENTER
 62
3
100
AcDbLine
 10
490.7117060081594
 20
272.1553058392985
 30
0.0000000000000000
 11
521.1055233646337
 21
272.1553058392985
 31
0.0000000000000000
  0
LINE
  5
161
100
AcDbEntity
  8
MAIN0
  6
CENTER
 62
3
100
AcDbLine
 10
490.7117060081594
 20
208.6553058392985
 30
0.0000000000000000
 11
521.1055233646337
 21
208.6553058392985
 31
0.0000000000000000
  0
CIRCLE
  5
162
100
AcDbEntity
  8
MAIN0
  6
CONTINUOUS
 62
3
100
AcDbCircle
 10
506.0576417193412
 20
272.1553058392985
 30
0.0000000000000000
 40
9.500000000000000
  0
CIRCLE
  5
163
100
AcDbEntity
  8
MAIN0
  6
CONTINUOUS
 62
3
100
AcDbCircle
 10
506.0576417193412
 20
272.1553058392985
 30
0.0000000000000000
 40
6.500000000000000
  0
CIRCLE
  5
164
100
AcDbEntity
  8
MAIN0
  6
CONTINUOUS
 62
3
100
AcDbCircle
 10
506.0576417193411
 20
208.6553058392985
 30
0.0000000000000000
 40
9.500000000000000
  0
CIRCLE
  5
165
100
AcDbEntity
  8
MAIN0
  6
CONTINUOUS
 62
3
100
AcDbCircle
 10
506.0576417193411
 20
208.6553058392985
 30
0.0000000000000000
 40
6.500000000000000
  0
ARC
  5
166
100
AcDbEntity
  8
MAIN0
  6
CONTINUOUS
 62
3
100
AcDbCircle
 10
506.0576417193410
 20
139.9053058392987
 30
0.0000000000000000
 40
95.99999999999994
100
AcDbArc
 50
77.97530081943407
 51
102.0246991805657
  0
ARC
  5
167
100
AcDbEntity
  8
MAIN0
  6
CONTINUOUS
 62
3
100
AcDbCircle
 10
506.0576417193410
 20
139.9053058392987
 30
0.0000000000000000
 40
60.99999999999994
100
AcDbArc
 50
70.86052554896382
 51
85.13743656815117
  0
ARC
  5
168
100
AcDbEntity
  8
MAIN0
  6
CONTINUOUS
 62
3
100
AcDbCircle
 10
506.0576417193410
 20
139.9053058392987
 30
0.0000000000000000
 40
60.99999999999994
100
AcDbArc
 50
94.86256343184864
 51
109.1394744510360
  0
CIRCLE
  5
169
100
AcDbEntity
  8
MAIN0
  6
CONTINUOUS
 62
3
100
AcDbCircle
 10
564.7308628257370
 20
373.7803058392984
 30
0.0000000000000000
 40
9.500000000000000
  0
CIRCLE
  5
16A
100
AcDbEntity
  8
MAIN0
  6
CONTINUOUS
 62
3
100
AcDbCircle
 10
564.7308628257370
 20
373.7803058392984
 30
0.0000000000000000
 40
6.500000000000000
  0
LINE
  5
16B
100
AcDbEntity
  8
MAIN0
  6
CENTER
 62
3
100
AcDbLine
 10
571.0579620275557
 20
362.8214485572191
 30
0.0000000000000000
 11
557.3145312874442
 21
386.6257688693963
 31
0.0000000000000000
  0
CIRCLE
  5
16C
100
AcDbEntity
  8
MAIN0
  6
CONTINUOUS
 62
3
100
AcDbCircle
 10
619.7234759660487
 20
405.5303058392982
 30
0.0000000000000000
 40
9.500000000000000
  0
CIRCLE
  5
16D
100
AcDbEntity
  8
MAIN0
  6
CONTINUOUS
 62
3
100
AcDbCircle
 10
619.7234759660487
 20
405.5303058392982
 30
0.0000000000000000
 40
6.500000000000000
  0
ARC
  5
16E
100
AcDbEntity
  8
MAIN0
  6
CONTINUOUS
 62
3
100
AcDbCircle
 10
679.2627224762289
 20
439.9053058392981
 30
0.0000000000000000
 40
95.99999999999994
100
AcDbArc
 50
197.9753008194340
 51
222.0246991805657
  0
LINE
  5
16F
100
AcDbEntity
  8
MAIN0
  6
CENTER
 62
3
100
AcDbLine
 10
626.0505751678677
 20
394.5714485572191
 30
0.0000000000000000
 11
612.3071444277562
 21
418.3757688693963
 31
0.0000000000000000
  0
ARC
  5
170
100
AcDbEntity
  8
MAIN0
  6
CONTINUOUS
 62
3
100
AcDbCircle
 10
679.2627224762289
 20
439.9053058392981
 30
0.0000000000000000
 40
60.99999999999994
100
AcDbArc
 50
190.8605255489638
 51
205.1374365681512
  0
ARC
  5
171
100
AcDbEntity
  8
MAIN0
  6
CONTINUOUS
 62
3
100
AcDbCircle
 10
679.2627224762289
 20
439.9053058392981
 30
0.0000000000000000
 40
60.99999999999994
100
AcDbArc
 50
214.8625634318486
 51
229.1394744510360
  0
CIRCLE
  5
172
100
AcDbEntity
  8
MAIN0
  6
CONTINUOUS
 62
3
100
AcDbCircle
 10
447.3844206129456
 20
373.7803058392984
 30
0.0000000000000000
 40
9.500000000000000
  0
CIRCLE
  5
173
100
AcDbEntity
  8
MAIN0
  6
CONTINUOUS
 62
3
100
AcDbCircle
 10
447.3844206129456
 20
373.7803058392984
 30
0.0000000000000000
 40
6.500000000000000
  0
LINE
  5
174
100
AcDbEntity
  8
MAIN0
  6
CENTER
 62
3
100
AcDbLine
 10
454.4533661171032
 20
386.0240786084349
 30
0.0000000000000000
 11
440.7266821506718
 21
362.2487645591347
 31
0.0000000000000000
  0
CIRCLE
  5
175
100
AcDbEntity
  8
MAIN0
  6
CONTINUOUS
 62
3
100
AcDbCircle
 10
392.3918074726338
 20
405.5303058392984
 30
0.0000000000000000
 40
9.500000000000000
  0
CIRCLE
  5
176
100
AcDbEntity
  8
MAIN0
  6
CONTINUOUS
 62
3
100
AcDbCircle
 10
392.3918074726338
 20
405.5303058392984
 30
0.0000000000000000
 40
6.500000000000000
  0
ARC
  5
177
100
AcDbEntity
  8
MAIN0
  6
CONTINUOUS
 62
3
100
AcDbCircle
 10
332.8525609624538
 20
439.9053058392985
 30
0.0000000000000000
 40
95.99999999999994
100
AcDbArc
 50
317.9753008194340
 51
342.0246991805657
  0
LINE
  5
178
100
AcDbEntity
  8
MAIN0
  6
CENTER
 62
3
100
AcDbLine
 10
399.4607529767915
 20
417.7740786084350
 30
0.0000000000000000
 11
385.7340690103600
 21
393.9987645591347
 31
0.0000000000000000
  0
ARC
  5
179
100
AcDbEntity
  8
MAIN0
  6
CONTINUOUS
 62
3
100
AcDbCircle
 10
332.8525609624538
 20
439.9053058392985
 30
0.0000000000000000
 40
60.99999999999994
100
AcDbArc
 50
310.8605255489638
 51
325.1374365681511
  0
ARC
  5
17A
100
AcDbEntity
  8
MAIN0
  6
CONTINUOUS
 62
3
100
AcDbCircle
 10
332.8525609624538
 20
439.9053058392985
 30
0.0000000000000000
 40
60.99999999999994
100
AcDbArc
 50
334.8625634318486
 51
349.1394744510359
  0
ARC
  5
17B
100
AcDbEntity
  8
MAIN0
  6
CONTINUOUS
 62
3
100
AcDbCircle
 10
332.8525609624537
 20
439.9053058392990
 30
0.0000000000000000
 40
124.0000000000000
100
AcDbArc
 50
321.1700006840105
 51
327.8923784976382
  0
ARC
  5
17C
100
AcDbEntity
  8
MAIN0
  6
CONTINUOUS
 62
3
100
AcDbCircle
 10
332.8525609624537
 20
439.9053058392990
 30
0.0000000000000000
 40
124.0000000000000
100
AcDbArc
 50
332.1076215023614
 51
338.8299993159893
  0
ARC
  5
17D
100
AcDbEntity
  8
MAIN0
  6
CONTINUOUS
 62
3
100
AcDbCircle
 10
679.2627224762291
 20
439.9053058392984
 30
0.0000000000000000
 40
124.0000000000000
100
AcDbArc
 50
201.1700006840105
 51
207.8923784976384
  0
ARC
  5
17E
100
AcDbEntity
  8
MAIN0
  6
CONTINUOUS
 62
3
100
AcDbCircle
 10
679.2627224762291
 20
439.9053058392984
 30
0.0000000000000000
 40
124.0000000000000
100
AcDbArc
 50
212.1076215023616
 51
218.8299993159894
  0
ARC
  5
17F
100
AcDbEntity
  8
MAIN0
  6
CONTINUOUS
 62
3
100
AcDbCircle
 10
506.0576417193410
 20
139.9053058392987
 30
0.0000000000000000
 40
124.0000000000000
100
AcDbArc
 50
81.17000068401052
 51
87.89237849763808
  0
ARC
  5
180
100
AcDbEntity
  8
MAIN0
  6
CONTINUOUS
 62
3
100
AcDbCircle
 10
506.0576417193410
 20
139.9053058392987
 30
0.0000000000000000
 40
124.0000000000000
100
AcDbArc
 50
92.10762150236171
 51
98.82999931598937
  0
LINE
  5
181
100
AcDbEntity
  8
MAIN0
  6
CONTINUOUS
 62
3
100
AcDbLine
 10
521.5576417193411
 20
185.6822530877723
 30
0.0000000000000000
 11
521.5576417193411
 21
190.6995344734044
 31
0.0000000000000000
  0
LINE
  5
182
100
AcDbEntity
  8
MAIN0
  6
CONTINUOUS
 62
3
100
AcDbLine
 10
490.5576417193411
 20
185.6822530877723
 30
0.0000000000000000
 11
490.5576417193411
 21
190.6995344732054
 31
0.0000000000000000
  0
LINE
  5
183
100
AcDbEntity
  8
MAIN0
  6
CONTINUOUS
 62
3
100
AcDbLine
 10
631.8687232513502
 20
430.4402259737200
 30
0.0000000000000000
 11
627.5236301134580
 21
427.9315852809040
 31
0.0000000000000000
  0
LINE
  5
184
100
AcDbEntity
  8
MAIN0
  6
CONTINUOUS
 62
3
100
AcDbLine
 10
647.3687232513502
 20
403.5934384564024
 30
0.0000000000000000
 11
643.0236301136304
 21
401.0847977636860
 31
0.0000000000000000
  0
LINE
  5
185
100
AcDbEntity
  8
MAIN0
  6
CONTINUOUS
 62
3
100
AcDbLine
 10
364.7465601873322
 20
403.5934384564029
 30
0.0000000000000000
 11
369.0916533252243
 21
401.0847977635869
 31
0.0000000000000000
  0
LINE
  5
186
100
AcDbEntity
  8
MAIN0
  6
CONTINUOUS
 62
3
100
AcDbLine
 10
380.2465601873323
 20
430.4402259737204
 30
0.0000000000000000
 11
384.5916533250521
 21
427.9315852810039
 31
0.0000000000000000
  0
LINE
  5
187
100
AcDbEntity
  8
MAIN0
  6
CONTINUOUS
 62
3
100
AcDbLine
 10
160.5576417193414
 20
387.9053058392985
 30
0.0000000000000000
 11
168.5075624270423
 21
387.9053058392985
 31
0.0000000000000000
  0
LINE
  5
188
100
AcDbEntity
  8
MAIN0
  6
CONTINUOUS
 62
3
100
AcDbLine
 10
160.5576417193412
 20
291.9053058392984
 30
0.0000000000000000
 11
176.0521822320674
 21
291.9053058392984
 31
0.0000000000000000
  0
LINE
  5
189
100
AcDbEntity
  8
MAIN0
  6
HIDDEN
 62
3
100
AcDbLine
 10
236.0576417193415
 20
470.3053058394798
 30
0.0000000000000000
 11
235.4576417193415
 21
470.9053058394799
 31
0.0000000000000000
  0
LINE
  5
18A
100
AcDbEntity
  8
MAIN0
  6
HIDDEN
 62
3
100
AcDbLine
 10
235.4576417193414
 20
470.9053058394800
 30
0.0000000000000000
 11
221.5576417193415
 21
470.9053058394800
 31
0.0000000000000000
  0
LINE
  5
18B
100
AcDbEntity
  8
MAIN0
  6
HIDDEN
 62
3
100
AcDbLine
 10
221.5576417193415
 20
470.9053058394800
 30
0.0000000000000000
 11
221.5576417193415
 21
490.9053058394800
 31
0.0000000000000000
  0
LINE
  5
18C
100
AcDbEntity
  8
MAIN0
  6
HIDDEN
 62
3
100
AcDbLine
 10
221.5576417193415
 20
490.9053058394800
 30
0.0000000000000000
 11
235.4576417193414
 21
490.9053058394800
 31
0.0000000000000000
  0
LINE
  5
18D
100
AcDbEntity
  8
MAIN0
  6
HIDDEN
 62
3
100
AcDbLine
 10
235.4576417193414
 20
490.9053058394800
 30
0.0000000000000000
 11
236.0576417193414
 21
491.5053058394800
 31
0.0000000000000000
  0
LINE
  5
18E
100
AcDbEntity
  8
MAIN0
  6
HIDDEN
 62
3
100
AcDbLine
 10
140.6576417193415
 20
474.1553058394800
 30
0.0000000000000000
 11
140.0576417193415
 21
473.5553058394800
 31
0.0000000000000000
  0
LINE
  5
18F
100
AcDbEntity
  8
MAIN0
  6
HIDDEN
 62
3
100
AcDbLine
 10
140.6576417193415
 20
487.6553058394800
 30
0.0000000000000000
 11
140.0576417193415
 21
488.2553058394800
 31
0.0000000000000000
  0
DIMENSION
  5
198
100
AcDbEntity
  8
MAIN0
  6
CONTINUOUS
 62
3
100
AcDbDimension
  2
*D0
 10
76.05764171934129
 20
494.9053058392985
 30
0.0000000000000000
 11
75.55764171934129
 21
339.9053058392985
 31
0.0000000000000000
 70
32
  1
\A1;\U+2205310
  3
MAIN001
100
AcDbAlignedDimension
 13
142.0576417193411
 23
184.9053058392984
 33
0.0000000000000000
 14
142.0576417193415
 24
494.9053058392985
 34
0.0000000000000000
 50
90.00000000000000
100
AcDbRotatedDimension
1001
ACAD
1000
DSTYLE
1002
{
1070
   173
1070
     1
1070
     6
1000
_OPEN
1070
     7
1000
_OPEN
1070
    41
1040
3.000000
1002
}
  0
DIMENSION
  5
1A1
100
AcDbEntity
  8
MAIN0
  6
CONTINUOUS
 62
3
100
AcDbDimension
  2
*D1
 10
91.05764171934129
 20
469.9053058392985
 30
0.0000000000000000
 11
90.55764171934129
 21
332.8303057022079
 31
0.0000000000000000
 70
32
  1
\A1;\U+2205260H6\H0.903226x;\S＋0.032^ 　0;
  3
MAIN001
100
AcDbAlignedDimension
 13
140.0576417193412
 23
209.9053058392985
 33
0.0000000000000000
 14
140.0576417193415
 24
469.9053058392985
 34
0.0000000000000000
 50
90.00000000000000
100
AcDbRotatedDimension
1001
ACAD
1000
DSTYLE
1002
{
1070
   173
1070
     1
1070
     6
1000
_OPEN
1070
     7
1000
_OPEN
1070
    41
1040
3.000000
1070
   272
1070
     3
1070
    47
1040
0.032000
1070
    48
1040
0.000000
1070
    71
1070
     1
1070
   340
1005
1A2
1002
}
  0
DIMENSION
  5
1AB
100
AcDbEntity
  8
MAIN0
  6
CONTINUOUS
 62
3
100
AcDbDimension
  2
*D2
 10
311.0576417193413
 20
359.9053058392983
 30
0.0000000000000000
 11
310.5576417193413
 21
339.9053058392983
 31
0.0000000000000000
 70
32
  3
MAIN001
100
AcDbAlignedDimension
 13
292.0576417193412
 23
319.9053058392984
 33
0.0000000000000000
 14
292.0576417193412
 24
359.9053058392983
 34
0.0000000000000000
 50
90.00000000000000
100
AcDbRotatedDimension
1001
ACAD
1000
DSTYLE
1002
{
1070
   173
1070
     1
1070
     6
1000
_OPEN
1070
     7
1000
_OPEN
1070
    41
1040
3.000000
1002
}
  0
DIMENSION
  5
1B3
100
AcDbEntity
  8
MAIN0
  6
CONTINUOUS
 62
3
100
AcDbDimension
  2
*D3
 10
236.0576417193412
 20
309.9053058392985
 30
0.0000000000000000
 11
264.0576417193412
 21
310.4053058392985
 31
0.0000000000000000
 70
32
  3
MAIN001
100
AcDbAlignedDimension
 13
292.0576417193412
 23
319.9053058392983
 33
0.0000000000000000
 14
236.0576417193412
 24
186.9053058392985
 34
0.0000000000000000
100
AcDbRotatedDimension
1001
ACAD
1000
DSTYLE
1002
{
1070
   173
1070
     1
1070
     6
1000
_OPEN
1070
     7
1000
_OPEN
1070
    41
1040
3.000000
1002
}
  0
DIMENSION
  5
1BC
100
AcDbEntity
  8
MAIN0
  6
CONTINUOUS
 62
3
100
AcDbDimension
  2
*D4
 10
311.0576417193413
 20
297.9053058392983
 30
0.0000000000000000
 11
310.5576417193413
 21
240.4053058392984
 31
0.0000000000000000
 70
32
  3
MAIN001
100
AcDbAlignedDimension
 13
260.5576417193411
 23
182.9053058392983
 33
0.0000000000000000
 14
291.0576417193411
 24
297.9053058392983
 34
0.0000000000000000
 50
90.00000000000000
100
AcDbRotatedDimension
1001
ACAD
1000
DSTYLE
1002
{
1070
   173
1070
     1
1070
     6
1000
_OPEN
1070
     7
1000
_OPEN
1070
    41
1040
3.000000
1002
}
  0
DIMENSION
  5
1C6
100
AcDbEntity
  8
MAIN0
  6
CONTINUOUS
 62
3
100
AcDbDimension
  2
*D5
 10
190.8335206472944
 20
555.5289218473977
 30
0.0000000000000000
 11
197.4169449506230
 21
563.1730063224949
 31
0.0000000000000000
 70
161
  1
\A1;□14\H0.903226x;\S+0.15^ +0.05;
  3
MAIN001
100
AcDbAlignedDimension
 13
170.7745775843303
 23
555.7888750371549
 33
0.0000000000000000
 14
180.6740725209485
 24
565.6883699737598
 34
0.0000000000000000
 50
44.99999999995458
1001
ACAD
1000
DSTYLE
1002
{
1070
   173
1070
     1
1070
     6
1000
_OPEN
1070
     7
1000
_OPEN
1070
    41
1040
3.000000
1070
   272
1070
     2
1070
    47
1040
0.150000
1070
    48
1040
-0.050000
1070
    71
1070
     1
1070
   340
1005
1A2
1002
}
  0
LINE
  5
1C7
100
AcDbEntity
  8
MAIN0
  6
CONTINUOUS
 62
3
100
AcDbLine
 10
283.5576417193407
 20
527.9053058391781
 30
0.0000000000000000
 11
283.5576417193313
 21
578.9053058391781
 31
0.0000000000000000
  0
LINE
  5
1C8
100
AcDbEntity
  8
MAIN0
  6
CONTINUOUS
 62
3
100
AcDbLine
 10
408.5576417193407
 20
527.9053058394395
 30
0.0000000000000000
 11
408.5576417193313
 21
578.9053058394395
 31
0.0000000000000000
  0
LINE
  5
1C9
100
AcDbEntity
  8
MAIN0
  6
CONTINUOUS
 62
3
100
AcDbLine
 10
283.5576417193313
 20
578.9053058391781
 30
0.0000000000000000
 11
408.5576417193312
 21
578.9053058394395
 31
0.0000000000000000
  0
LINE
  5
1CA
100
AcDbEntity
  8
MAIN0
  6
CONTINUOUS
 62
3
100
AcDbLine
 10
331.5426417193413
 20
524.9053058392785
 30
0.0000000000000000
 11
350.5726417193413
 21
524.9053058393183
 31
0.0000000000000000
  0
LINE
  5
1CB
100
AcDbEntity
  8
MAIN0
  6
CONTINUOUS
 62
3
100
AcDbLine
 10
283.5576417194379
 20
527.9053058391780
 30
0.0000000000000000
 11
328.5426417193407
 21
527.9053058392722
 31
0.0000000000000000
  0
LINE
  5
1CC
100
AcDbEntity
  8
MAIN0
  6
CENTER
 62
3
100
AcDbLine
 10
341.0576417193431
 20
514.9053058392993
 30
0.0000000000000000
 11
341.0576417193378
 21
543.9053058391795
 31
0.0000000000000000
  0
LINE
  5
1CD
100
AcDbEntity
  8
MAIN0
  6
CENTER
 62
3
100
AcDbLine
 10
309.3076417193422
 20
519.9053058392972
 30
0.0000000000000000
 11
309.3076417193302
 21
584.9053058392972
 31
0.0000000000000000
  0
LINE
  5
1CE
100
AcDbEntity
  8
MAIN0
  6
CENTER
 62
3
100
AcDbLine
 10
372.8076417193423
 20
519.9053058392979
 30
0.0000000000000000
 11
372.8076417193302
 21
584.9053058392988
 31
0.0000000000000000
  0
LINE
  5
1CF
100
AcDbEntity
  8
MAIN0
  6
CONTINUOUS
 62
3
100
AcDbLine
 10
299.8076417193388
 20
538.4053058392121
 30
0.0000000000000000
 11
299.8076417193313
 21
578.9053058391812
 31
0.0000000000000000
  0
LINE
  5
1D0
100
AcDbEntity
  8
MAIN0
  6
CONTINUOUS
 62
3
100
AcDbLine
 10
283.5576417193400
 20
531.4053058391781
 30
0.0000000000000000
 11
307.9192973815894
 21
531.4053058392291
 31
0.0000000000000000
  0
LINE
  5
1D1
100
AcDbEntity
  8
MAIN0
  6
CONTINUOUS
 62
3
100
AcDbLine
 10
307.9192973815868
 20
527.9053058392290
 30
0.0000000000000000
 11
307.9192973815894
 21
531.4053058392290
 31
0.0000000000000000
  0
LINE
  5
1D2
100
AcDbEntity
  8
MAIN0
  6
CONTINUOUS
 62
3
100
AcDbLine
 10
299.8076417193388
 20
538.4053058392120
 30
0.0000000000000000
 11
309.3076417193388
 21
538.4053058392318
 31
0.0000000000000000
  0
LINE
  5
1D3
100
AcDbEntity
  8
MAIN0
  6
CONTINUOUS
 62
3
100
AcDbLine
 10
302.8076417195459
 20
531.4053058392183
 30
0.0000000000000000
 11
302.8076417195537
 21
538.4053058392183
 31
0.0000000000000000
  0
LINE
  5
1D4
100
AcDbEntity
  8
MAIN0
  6
CONTINUOUS
 62
3
100
AcDbLine
 10
331.5426417193413
 20
524.9053058392785
 30
0.0000000000000000
 11
331.5426417193406
 21
528.6053058392785
 31
0.0000000000000000
  0
LINE
  5
1D5
100
AcDbEntity
  8
MAIN0
  6
CONTINUOUS
 62
3
100
AcDbLine
 10
328.5426417193407
 20
527.9053058392719
 30
0.0000000000000000
 11
328.5426417193406
 21
528.6053058392722
 31
0.0000000000000000
  0
LINE
  5
1D6
100
AcDbEntity
  8
MAIN0
  6
CONTINUOUS
 62
3
100
AcDbLine
 10
328.5426417193406
 20
528.6053058392722
 30
0.0000000000000000
 11
331.5426417193406
 21
528.6053058392785
 31
0.0000000000000000
  0
LINE
  5
1D7
100
AcDbEntity
  8
MAIN0
  6
CONTINUOUS
 62
3
100
AcDbLine
 10
318.8076417193386
 20
538.4053058392157
 30
0.0000000000000000
 11
318.8076417193312
 21
578.9053058391846
 31
0.0000000000000000
  0
LINE
  5
1D8
100
AcDbEntity
  8
MAIN0
  6
CONTINUOUS
 62
3
100
AcDbLine
 10
318.8076417193387
 20
538.4053058392155
 30
0.0000000000000000
 11
309.3076417193386
 21
538.4053058392318
 31
0.0000000000000000
  0
LINE
  5
1D9
100
AcDbEntity
  8
MAIN0
  6
CONTINUOUS
 62
3
100
AcDbLine
 10
315.8076417191340
 20
531.4053058392208
 30
0.0000000000000000
 11
315.8076417191237
 21
538.4053058392208
 31
0.0000000000000000
  0
LINE
  5
1DA
100
AcDbEntity
  8
MAIN0
  6
CONTINUOUS
 62
3
100
AcDbLine
 10
341.0576417193402
 20
531.4053058391773
 30
0.0000000000000000
 11
310.6959860570905
 21
531.4053058392296
 31
0.0000000000000000
  0
LINE
  5
1DB
100
AcDbEntity
  8
MAIN0
  6
CONTINUOUS
 62
3
100
AcDbLine
 10
310.6959860570944
 20
527.9053058392295
 30
0.0000000000000000
 11
310.6959860570905
 21
531.4053058392295
 31
0.0000000000000000
  0
LINE
  5
1DC
100
AcDbEntity
  8
MAIN0
  6
CONTINUOUS
 62
3
100
AcDbLine
 10
382.3076417193387
 20
538.4053058392274
 30
0.0000000000000000
 11
382.3076417193313
 21
578.9053058391963
 31
0.0000000000000000
  0
LINE
  5
1DD
100
AcDbEntity
  8
MAIN0
  6
CONTINUOUS
 62
3
100
AcDbLine
 10
382.3076417193387
 20
538.4053058392273
 30
0.0000000000000000
 11
372.8076417193387
 21
538.4053058392435
 31
0.0000000000000000
  0
LINE
  5
1DE
100
AcDbEntity
  8
MAIN0
  6
CONTINUOUS
 62
3
100
AcDbLine
 10
363.3076417193389
 20
538.4053058392237
 30
0.0000000000000000
 11
363.3076417193315
 21
578.9053058391929
 31
0.0000000000000000
  0
LINE
  5
1DF
100
AcDbEntity
  8
MAIN0
  6
CONTINUOUS
 62
3
100
AcDbLine
 10
363.3076417193389
 20
538.4053058392236
 30
0.0000000000000000
 11
372.8076417193389
 21
538.4053058392434
 31
0.0000000000000000
  0
LINE
  5
1E0
100
AcDbEntity
  8
MAIN0
  6
CONTINUOUS
 62
3
100
AcDbLine
 10
366.3076417195460
 20
531.4053058392301
 30
0.0000000000000000
 11
366.3076417195538
 21
538.4053058392301
 31
0.0000000000000000
  0
LINE
  5
1E1
100
AcDbEntity
  8
MAIN0
  6
CONTINUOUS
 62
3
100
AcDbLine
 10
379.3076417191343
 20
531.4053058392325
 30
0.0000000000000000
 11
379.3076417191239
 21
538.4053058392325
 31
0.0000000000000000
  0
LINE
  5
1E2
100
AcDbEntity
  8
MAIN0
  6
CONTINUOUS
 62
3
100
AcDbLine
 10
408.5576417193400
 20
531.4053058391821
 30
0.0000000000000000
 11
374.1959860570906
 21
531.4053058392412
 31
0.0000000000000000
  0
LINE
  5
1E3
100
AcDbEntity
  8
MAIN0
  6
CONTINUOUS
 62
3
100
AcDbLine
 10
374.1959860570945
 20
527.9053058392412
 30
0.0000000000000000
 11
374.1959860570906
 21
531.4053058392412
 31
0.0000000000000000
  0
LINE
  5
1E4
100
AcDbEntity
  8
MAIN0
  6
CONTINUOUS
 62
3
100
AcDbLine
 10
371.4192973815871
 20
527.9053058392407
 30
0.0000000000000000
 11
371.4192973815896
 21
531.4053058392407
 31
0.0000000000000000
  0
LINE
  5
1E5
100
AcDbEntity
  8
MAIN0
  6
CONTINUOUS
 62
3
100
AcDbLine
 10
341.0576417193400
 20
531.4053058391773
 30
0.0000000000000000
 11
371.4192973815895
 21
531.4053058392409
 31
0.0000000000000000
  0
LINE
  5
1E6
100
AcDbEntity
  8
MAIN0
  6
CONTINUOUS
 62
3
100
AcDbLine
 10
353.5726417193407
 20
528.6053058392769
 30
0.0000000000000000
 11
350.5726417193407
 21
528.6053058392820
 31
0.0000000000000000
  0
LINE
  5
1E7
100
AcDbEntity
  8
MAIN0
  6
CONTINUOUS
 62
3
100
AcDbLine
 10
350.5726417193413
 20
524.9053058392821
 30
0.0000000000000000
 11
350.5726417193406
 21
528.6053058392820
 31
0.0000000000000000
  0
LINE
  5
1E8
100
AcDbEntity
  8
MAIN0
  6
CONTINUOUS
 62
3
100
AcDbLine
 10
353.5726417193407
 20
527.9053058392766
 30
0.0000000000000000
 11
353.5726417193406
 21
528.6053058392768
 31
0.0000000000000000
  0
LINE
  5
1E9
100
AcDbEntity
  8
MAIN0
  6
CONTINUOUS
 62
3
100
AcDbLine
 10
408.5576417193407
 20
527.9053058391821
 30
0.0000000000000000
 11
353.5726417193408
 21
527.9053058392767
 31
0.0000000000000000
  0
DIMENSION
  5
1F2
100
AcDbEntity
  8
MAIN0
  6
CONTINUOUS
 62
3
100
AcDbDimension
  2
*D6
 10
426.0576417193413
 20
578.9053058394395
 30
0.0000000000000000
 11
425.5576417193413
 21
551.9053058393789
 31
0.0000000000000000
 70
32
  3
MAIN001
100
AcDbAlignedDimension
 13
350.5726417193413
 23
524.9053058393183
 33
0.0000000000000000
 14
408.5576417193312
 24
578.9053058394395
 34
0.0000000000000000
 50
90.00000000000000
100
AcDbRotatedDimension
1001
ACAD
1000
DSTYLE
1002
{
1070
   173
1070
     1
1070
     6
1000
_OPEN
1070
     7
1000
_OPEN
1070
    41
1040
3.000000
1002
}
  0
DIMENSION
  5
1FB
100
AcDbEntity
  8
MAIN0
  6
CONTINUOUS
 62
3
100
AcDbDimension
  2
*D7
 10
283.5576417193218
 20
589.9053058392984
 30
0.0000000000000000
 11
346.0576417193265
 21
590.4053058392984
 31
0.0000000000000000
 70
32
  3
MAIN001
100
AcDbAlignedDimension
 13
408.5576417193313
 23
578.9053058394395
 33
0.0000000000000000
 14
283.5576417193313
 24
578.9053058391781
 34
0.0000000000000000
100
AcDbRotatedDimension
1001
ACAD
1000
DSTYLE
1002
{
1070
   173
1070
     1
1070
     6
1000
_OPEN
1070
     7
1000
_OPEN
1070
    41
1040
3.000000
1002
}
  0
DIMENSION
  5
204
100
AcDbEntity
  8
MAIN0
  6
CONTINUOUS
 62
3
100
AcDbDimension
  2
*D8
 10
309.3076417193412
 20
509.9053058392984
 30
0.0000000000000000
 11
325.1826417193418
 21
510.4053058392984
 31
0.0000000000000000
 70
32
  3
MAIN001
100
AcDbAlignedDimension
 13
341.0576417193424
 23
514.9053058392800
 33
0.0000000000000000
 14
309.3076417193414
 24
519.9053058392824
 34
0.0000000000000000
100
AcDbRotatedDimension
1001
ACAD
1000
DSTYLE
1002
{
1070
   173
1070
     1
1070
     6
1000
_OPEN
1070
     7
1000
_OPEN
1070
    41
1040
3.000000
1002
}
  0
DIMENSION
  5
20D
100
AcDbEntity
  8
MAIN0
  6
CONTINUOUS
 62
3
100
AcDbDimension
  2
*D9
 10
341.0576417193423
 20
509.9053058392984
 30
0.0000000000000000
 11
356.9326417193418
 21
510.4053058392984
 31
0.0000000000000000
 70
32
  3
MAIN001
100
AcDbAlignedDimension
 13
372.8076417193414
 23
519.9053058392688
 33
0.0000000000000000
 14
341.0576417193424
 24
514.9053058392800
 34
0.0000000000000000
100
AcDbRotatedDimension
1001
ACAD
1000
DSTYLE
1002
{
1070
   173
1070
     1
1070
     6
1000
_OPEN
1070
     7
1000
_OPEN
1070
    41
1040
3.000000
1002
}
  0
LINE
  5
20E
100
AcDbEntity
  8
MAIN0
  6
CENTER
 62
3
100
AcDbLine
 10
171.5576417193415
 20
504.9053058392984
 30
0.0000000000000000
 11
171.5576417193415
 21
474.9053058392984
 31
0.0000000000000000
  0
LINE
  5
20F
100
AcDbEntity
  8
MAIN0
  6
CENTER
 62
3
100
AcDbLine
 10
171.5576417193416
 20
579.9053058392984
 30
0.0000000000000000
 11
171.5576417193416
 21
549.9053058392984
 31
0.0000000000000000
  0
DIMENSION
  5
21A
100
AcDbEntity
  8
MAIN0
  6
CONTINUOUS
 62
3
100
AcDbDimension
  2
*D10
 10
221.5576417193415
 20
504.9053058392984
 30
0.0000000000000000
 11
228.8076417193415
 21
505.4053058392984
 31
0.0000000000000000
 70
32
  3
MAIN001
100
AcDbAlignedDimension
 13
236.0576417193415
 23
492.9053058392984
 33
0.0000000000000000
 14
221.5576417193415
 24
490.9053058394800
 34
0.0000000000000000
100
AcDbRotatedDimension
1001
ACAD
1000
DSTYLE
1002
{
1070
   173
1070
     1
1070
     6
1000
_OPEN
1070
     7
1000
_OPEN
1070
    41
1040
3.000000
1070
   287
1070
     0
1002
}
  0
CIRCLE
  5
21B
100
AcDbEntity
  8
MAIN0
  6
CONTINUOUS
 62
3
100
AcDbCircle
 10
647.0576417193413
 20
339.9053058392982
 30
0.0000000000000000
 40
10.00000000000000
  0
CIRCLE
  5
21C
100
AcDbEntity
  8
MAIN0
  6
CONTINUOUS
 62
3
100
AcDbCircle
 10
647.0576417193413
 20
339.9053058392982
 30
0.0000000000000000
 40
6.750000000000000
  0
CIRCLE
  5
21D
100
AcDbEntity
  8
MAIN0
  6
CONTINUOUS
 62
3
100
AcDbCircle
 10
435.5576417193414
 20
462.0148877729044
 30
0.0000000000000000
 40
10.00000000000000
  0
CIRCLE
  5
21E
100
AcDbEntity
  8
MAIN0
  6
CONTINUOUS
 62
3
100
AcDbCircle
 10
435.5576417193414
 20
462.0148877729044
 30
0.0000000000000000
 40
6.750000000000000
  0
LINE
  5
21F
100
AcDbEntity
  8
MAIN0
  6
CENTER
 62
3
100
AcDbLine
 10
443.0576417193414
 20
449.0245067161379
 30
0.0000000000000000
 11
428.0576417193414
 21
475.0052688296711
 31
0.0000000000000000
  0
CIRCLE
  5
220
100
AcDbEntity
  8
MAIN0
  6
CONTINUOUS
 62
3
100
AcDbCircle
 10
435.5576417193411
 20
217.7957239056927
 30
0.0000000000000000
 40
10.00000000000000
  0
CIRCLE
  5
221
100
AcDbEntity
  8
MAIN0
  6
CONTINUOUS
 62
3
100
AcDbCircle
 10
435.5576417193411
 20
217.7957239056927
 30
0.0000000000000000
 40
6.750000000000000
  0
LINE
  5
222
100
AcDbEntity
  8
MAIN0
  6
CENTER
 62
3
100
AcDbLine
 10
443.0576417193410
 20
230.7861049624593
 30
0.0000000000000000
 11
428.0576417193410
 21
204.8053428489262
 31
0.0000000000000000
  0
ARC
  5
223
100
AcDbEntity
  8
MAIN0
  6
CENTER
 62
3
100
AcDbCircle
 10
506.0576417193412
 20
339.9053058392984
 30
0.0000000000000000
 40
141.0000000000000
100
AcDbArc
 50
113.9018263696463
 51
126.0981736303534
  0
ARC
  5
224
100
AcDbEntity
  8
MAIN0
  6
CENTER
 62
3
100
AcDbCircle
 10
506.0576417193412
 20
339.9053058392984
 30
0.0000000000000000
 40
141.0000000000000
100
AcDbArc
 50
223.4116432756165
 51
246.0981736303535
  0
ARC
  5
225
100
AcDbEntity
  8
MAIN0
  6
CENTER
 62
3
100
AcDbCircle
 10
506.0576417193412
 20
339.9053058392984
 30
0.0000000000000000
 40
141.0000000000000
100
AcDbArc
 50
353.9018263696464
 51
409.9075379068939
  0
DIMENSION
  5
22E
100
AcDbEntity
  8
MAIN0
  6
CONTINUOUS
 62
3
100
AcDbDimension
  2
*D11
 10
256.0576417193413
 20
490.9053058394800
 30
0.0000000000000000
 11
255.5576417193413
 21
480.9053058394800
 31
0.0000000000000000
 70
32
  1
\A1;\U+220520
  3
MAIN001
100
AcDbAlignedDimension
 13
235.4576417193414
 23
470.9053058394800
 33
0.0000000000000000
 14
235.4576417193414
 24
490.9053058394800
 34
0.0000000000000000
 50
90.00000000000000
100
AcDbRotatedDimension
1001
ACAD
1000
DSTYLE
1002
{
1070
   173
1070
     1
1070
     6
1000
_OPEN
1070
     7
1000
_OPEN
1070
    41
1040
3.000000
1002
}
  0
LINE
  5
22F
100
AcDbEntity
  8
MAIN0
  6
CONTINUOUS
 62
3
100
AcDbLine
 10
140.0576417193411
 20
186.9053058392986
 30
0.0000000000000000
 11
140.0576417193415
 21
492.9053058392985
 31
0.0000000000000000
  0
LINE
  5
230
100
AcDbEntity
  8
MAIN0
  6
HIDDEN
 62
3
100
AcDbLine
 10
221.5576417193415
 20
474.1553058394800
 30
0.0000000000000000
 11
140.6576417193414
 21
474.1553058394800
 31
0.0000000000000000
  0
LINE
  5
231
100
AcDbEntity
  8
MAIN0
  6
HIDDEN
 62
3
100
AcDbLine
 10
221.5576417193415
 20
487.6553058394800
 30
0.0000000000000000
 11
140.6576417193414
 21
487.6553058394800
 31
0.0000000000000000
  0
LINE
  5
232
100
AcDbEntity
  8
MAIN0
  6
CONTINUOUS
 62
3
100
AcDbLine
 10
147.0576417193411
 20
209.9053058392985
 30
0.0000000000000000
 11
147.0576417193415
 21
469.9053058392985
 31
0.0000000000000000
  0
LINE
  5
233
100
AcDbEntity
  8
MAIN0
  6
CONTINUOUS
 62
3
100
AcDbLine
 10
159.5576417193412
 20
264.9053058392986
 30
0.0000000000000000
 11
159.5576417193414
 21
414.9053058392985
 31
0.0000000000000000
  0
LINE
  5
234
100
AcDbEntity
  8
MAIN0
  6
CONTINUOUS
 62
3
100
AcDbLine
 10
148.0576417193414
 20
414.9053058392985
 30
0.0000000000000000
 11
159.5576417193414
 21
414.9053058392985
 31
0.0000000000000000
  0
LINE
  5
235
100
AcDbEntity
  8
MAIN0
  6
CONTINUOUS
 62
3
100
AcDbLine
 10
160.5576417193412
 20
291.9053058392984
 30
0.0000000000000000
 11
159.5576417193412
 21
290.9053058392984
 31
0.0000000000000000
  0
LINE
  5
236
100
AcDbEntity
  8
MAIN0
  6
CONTINUOUS
 62
3
100
AcDbLine
 10
159.5576417193414
 20
388.9053058392985
 30
0.0000000000000000
 11
160.5576417193414
 21
387.9053058392985
 31
0.0000000000000000
  0
LINE
  5
237
100
AcDbEntity
  8
MAIN0
  6
CONTINUOUS
 62
3
100
AcDbLine
 10
147.0576417193414
 20
415.9053058392985
 30
0.0000000000000000
 11
148.0576417193414
 21
414.9053058392985
 31
0.0000000000000000
  0
LINE
  5
238
100
AcDbEntity
  8
MAIN0
  6
CONTINUOUS
 62
3
100
AcDbLine
 10
147.0576417193412
 20
263.9053058392987
 30
0.0000000000000000
 11
148.0576417193412
 21
264.9053058392987
 31
0.0000000000000000
  0
LINE
  5
239
100
AcDbEntity
  8
MAIN0
  6
CONTINUOUS
 62
3
100
AcDbLine
 10
148.0576417193412
 20
264.9053058392987
 30
0.0000000000000000
 11
159.5576417193412
 21
264.9053058392987
 31
0.0000000000000000
  0
DIMENSION
  5
242
100
AcDbEntity
  8
MAIN0
  6
CONTINUOUS
 62
3
100
AcDbDimension
  2
*D12
 10
106.0576417193413
 20
414.9053058392985
 30
0.0000000000000000
 11
105.5576417193413
 21
339.9053058392986
 31
0.0000000000000000
 70
32
  1
\A1;\U+2205150
  3
MAIN001
100
AcDbAlignedDimension
 13
148.0576417193412
 23
264.9053058392987
 33
0.0000000000000000
 14
148.0576417193414
 24
414.9053058392985
 34
0.0000000000000000
 50
90.00000000000000
100
AcDbRotatedDimension
1001
ACAD
1000
DSTYLE
1002
{
1070
   173
1070
     1
1070
     6
1000
_OPEN
1070
     7
1000
_OPEN
1070
    41
1040
3.000000
1002
}
  0
DIMENSION
  5
24B
100
AcDbEntity
  8
MAIN0
  6
CONTINUOUS
 62
3
100
AcDbDimension
  2
*D13
 10
140.0576417193411
 20
304.9053058392984
 30
0.0000000000000000
 11
135.4157833493398
 21
305.6553058392984
 31
0.0000000000000000
 70
160
  3
MAIN001
100
AcDbAlignedDimension
 13
147.0576417193411
 23
209.9053058392985
 33
0.0000000000000000
 14
140.0576417193411
 24
186.9053058392986
 34
0.0000000000000000
100
AcDbRotatedDimension
1001
ACAD
1000
DSTYLE
1002
{
1070
   173
1070
     1
1070
     6
1000
_OPEN
1070
     7
1000
_OPEN
1070
    41
1040
3.000000
1070
   287
1070
     0
1002
}
  0
LEADER
  5
24C
100
AcDbEntity
  8
MAIN0
  6
CONTINUOUS
 62
3
100
AcDbLeader
  3
MAIN001
 73
     0
 74
     0
 75
     1
 40
4.649999856948853
 41
50.25100003352762
 76
     3
 10
217.5576417193415
 20
477.7472243674848
 30
0.0000000000000000
 10
251.0576417193413
 20
459.9053058392984
 30
0.0000000000000000
 10
253.7356416403502
 20
459.9053058392984
 30
0.0000000000000000
340
24D
213
-0.001000000000004775
223
-0.7500000000000000
233
0.0000000000000000
1001
ACAD
1000
DSTYLE
1002
{
1070
   147
1040
0.0
1070
    77
1070
     1
1070
   173
1070
     1
1070
     6
1000
_OPEN
1070
     7
1000
_OPEN
1002
}
  0
MTEXT
  5
24D
102
{ACAD_REACTORS
330
24C
102
}
100
AcDbEntity
  8
MAIN0
  6
CONTINUOUS
 62
3
100
AcDbMText
 10
253.7366416403502
 20
465.3053056962473
 30
0.0000000000000000
 40
4.649999856948853
 41
0.0000000000000000
 71
     1
 72
     1
  1
{\H0.71x;{2-M10 ねじ深23\P(等配)\P2-M10 DEPTH23\P(EQUALLY SPACED)}}
 11
1.000000000000000
 21
0.0000000000000000
 31
0.0000000000000000
  7
KNJYOKO
  0
LINE
  5
24E
100
AcDbEntity
  8
MAIN0
  6
CENTER
 62
3
100
AcDbLine
 10
212.5576417193415
 20
456.0613802088014
 30
0.0000000000000000
 11
212.5576417193415
 21
499.9053058392984
 31
0.0000000000000000
  0
LINE
  5
24F
100
AcDbEntity
  8
MAIN0
  6
CENTER
 62
3
100
AcDbLine
 10
475.6329592666465
 20
226.3588451216933
 30
0.0000000000000000
 11
464.6281497950297
 21
185.2883370460045
 31
0.0000000000000000
  0
DIMENSION
  5
258
100
AcDbEntity
  8
MAIN0
  6
CONTINUOUS
 62
3
100
AcDbDimension
  2
*D14
 10
236.0576417193415
 20
524.9053058392984
 30
0.0000000000000000
 11
203.8076417193415
 21
525.4053058392984
 31
0.0000000000000000
 70
32
  3
MAIN001
100
AcDbAlignedDimension
 13
171.5576417193414
 23
504.9053058392989
 33
0.0000000000000000
 14
236.0576417193415
 24
492.9053058392984
 34
0.0000000000000000
100
AcDbRotatedDimension
1001
ACAD
1000
DSTYLE
1002
{
1070
   173
1070
     1
1070
     6
1000
_OPEN
1070
     7
1000
_OPEN
1070
    41
1040
3.000000
1002
}
  0
DIMENSION
  5
261
100
AcDbEntity
  8
MAIN0
  6
CONTINUOUS
 62
3
100
AcDbDimension
  2
*D15
 10
171.5576417193416
 20
524.9053058392984
 30
0.0000000000000000
 11
155.8076417193415
 21
525.4053058392984
 31
0.0000000000000000
 70
32
  3
MAIN001
100
AcDbAlignedDimension
 13
140.0576417193415
 23
492.9053058392985
 33
0.0000000000000000
 14
171.5576417193414
 24
504.9053058392989
 34
0.0000000000000000
100
AcDbRotatedDimension
1001
ACAD
1000
DSTYLE
1002
{
1070
   173
1070
     1
1070
     6
1000
_OPEN
1070
     7
1000
_OPEN
1070
    41
1040
3.000000
1002
}
  0
MTEXT
  5
262
100
AcDbEntity
  8
MAIN0
  6
CONTINUOUS
 62
3
100
AcDbMText
 10
522.5576417193415
 20
479.4053058392984
 30
0.0000000000000000
 40
4.500000000000000
 41
0.0000000000000000
 71
     1
 72
     1
  1
{\H0.63x;{SCROLL CHUCK}}
 11
-1.000000000000000
 21
2.786999939015111e-015
 31
0.0000000000000000
  7
STANDARD
  0
MTEXT
  5
263
100
AcDbEntity
  8
MAIN0
  6
CONTINUOUS
 62
3
100
AcDbMText
 10
540.0576417193415
 20
462.4053058392984
 30
0.0000000000000000
 40
4.500000000000000
 41
0.0000000000000000
 71
     1
 72
     1
  1
{\H0.63x;{77-1 MOTOMACHI FUCHU-SHI\PHIROSHIMA 726-8610 JAPAN}}
 11
-1.000000000000000
 21
2.786999939015111e-015
 31
0.0000000000000000
  7
STANDARD
  0
MTEXT
  5
264
100
AcDbEntity
  8
MAIN0
  6
CONTINUOUS
 62
3
100
AcDbMText
 10
592.3438344179260
 20
276.0125478671784
 30
0.0000000000000000
 40
4.655172348022461
 41
0.0000000000000000
 71
     1
 72
     1
  1
{\H0.92x;{JN12TN}}
 11
0.5000000000000009
 21
0.8660254037844382
 31
0.0000000000000000
  7
STANDARD
  0
MTEXT
  5
265
100
AcDbEntity
  8
MAIN0
  6
CONTINUOUS
 62
3
100
AcDbMText
 10
593.7943455370834
 20
263.2697341587809
 30
0.0000000000000000
 40
7.199999809265137
 41
0.0000000000000000
 71
     1
 72
     1
  1
{\H0.82x;{KITAGAWA}}
 11
0.5000000000000009
 21
0.8660254037844382
 31
0.0000000000000000
  7
STANDARD
  0
LINE
  5
266
100
AcDbEntity
  8
MAIN0
  6
CONTINUOUS
 62
3
100
AcDbLine
 10
600.8957536829346
 20
259.1697342541485
 30
0.0000000000000000
 11
623.3957536829346
 21
298.1408774244482
 31
0.0000000000000000
  0
MTEXT
  5
267
100
AcDbEntity
  8
MAIN0
  6
CONTINUOUS
 62
3
100
AcDbMText
 10
610.3711497998644
 20
271.7869972106405
 30
0.0000000000000000
 40
3.099999904632568
 41
0.0000000000000000
 71
     1
 72
     1
  1
{\H0.92x;{JAPAN}}
 11
0.5000000000000009
 21
0.8660254037844382
 31
0.0000000000000000
  7
STANDARD
  0
LINE
  5
268
100
AcDbEntity
  8
MAIN0
  6
CENTER
 62
3
100
AcDbLine
 10
618.4221014751013
 20
275.0316547521674
 30
0.0000000000000000
 11
647.9756011109266
 21
257.9689337819816
 31
0.0000000000000000
  0
LINE
  5
269
100
AcDbEntity
  8
MAIN0
  6
CENTER
 62
3
100
AcDbLine
 10
361.3226347169252
 20
423.4681010930443
 30
0.0000000000000000
 11
596.4901048456892
 21
287.6940989099847
 31
0.0000000000000000
  0
LINE
  5
26A
100
AcDbEntity
  8
MAIN0
  6
CENTER
 62
3
100
AcDbLine
 10
506.0576417193415
 20
486.1553058392984
 30
0.0000000000000000
 11
506.0576417193415
 21
514.9053058392984
 31
0.0000000000000000
  0
LINE
  5
26B
100
AcDbEntity
  8
MAIN0
  6
CENTER
 62
3
100
AcDbLine
 10
506.0576417193410
 20
164.9053058392984
 30
0.0000000000000000
 11
506.0576417193414
 21
460.1553058392984
 31
0.0000000000000000
  0
LINE
  5
26C
100
AcDbEntity
  8
MAIN0
  6
CENTER
 62
3
100
AcDbLine
 10
506.0576417193415
 20
475.1553058392984
 30
0.0000000000000000
 11
506.0576417193415
 21
477.1553058392984
 31
0.0000000000000000
  0
ARC
  5
26D
100
AcDbEntity
  8
MAIN0
  6
PHANTOM
 62
3
100
AcDbCircle
 10
489.0576417193415
 20
481.3876368916245
 30
0.0000000000000000
 40
4.250000000000000
100
AcDbArc
 50
105.6992412155224
 51
254.3007587844771
  0
ARC
  5
26E
100
AcDbEntity
  8
MAIN0
  6
PHANTOM
 62
3
100
AcDbCircle
 10
489.0576417193415
 20
481.3876368916245
 30
0.0000000000000000
 40
4.250000000000000
100
AcDbArc
 50
264.7736428604001
 51
275.2263571395999
  0
ARC
  5
26F
100
AcDbEntity
  8
MAIN0
  6
CENTER
 62
3
100
AcDbCircle
 10
506.0576417193414
 20
339.9053058392984
 30
0.0000000000000000
 40
142.5000000000000
100
AcDbArc
 50
97.31754883579454
 51
100.8598387497879
  0
ARC
  5
270
100
AcDbEntity
  8
MAIN0
  6
PHANTOM
 62
3
100
AcDbCircle
 10
489.0576417193415
 20
481.3876368916245
 30
0.0000000000000000
 40
5.000000000000000
100
AcDbArc
 50
72.46513453340687
 51
302.1706298452218
  0
LINE
  5
271
100
AcDbEntity
  8
MAIN0
  6
HIDDEN
 62
3
100
AcDbLine
 10
487.0576417193414
 20
475.1553058392984
 30
0.0000000000000000
 11
487.0576417193415
 21
493.7363820235337
 31
0.0000000000000000
  0
LINE
  5
272
100
AcDbEntity
  8
MAIN0
  6
CENTER
 62
3
100
AcDbLine
 10
489.0576417193415
 20
475.1553058392984
 30
0.0000000000000000
 11
489.0576417193415
 21
490.1933954317760
 31
0.0000000000000000
  0
LINE
  5
273
100
AcDbEntity
  8
MAIN0
  6
CENTER
 62
3
100
AcDbLine
 10
536.5933132127883
 20
453.8659832960755
 30
0.0000000000000000
 11
538.2785321091837
 21
460.1553058392984
 31
0.0000000000000000
  0
LINE
  5
274
100
AcDbEntity
  8
MAIN0
  6
CENTER
 62
3
100
AcDbLine
 10
542.2977699956505
 20
475.1553058392984
 30
0.0000000000000000
 11
547.4871336436524
 21
494.5222746325924
 31
0.0000000000000000
  0
LINE
  5
275
100
AcDbEntity
  8
MAIN0
  6
CENTER
 62
3
100
AcDbLine
 10
368.7025847881694
 20
260.6033267457794
 30
0.0000000000000000
 11
390.6597566649772
 21
273.2803058394574
 31
0.0000000000000000
  0
LINE
  5
276
100
AcDbEntity
  8
MAIN0
  6
CENTER
 62
3
100
AcDbLine
 10
406.6812266350020
 20
282.5303058394356
 30
0.0000000000000000
 11
647.9848219129733
 21
421.8470015291589
 31
0.0000000000000000
  0
DIMENSION
  5
27E
100
AcDbEntity
  8
MAIN0
  6
CONTINUOUS
 62
3
100
AcDbDimension
  2
*D16
 10
476.4728993213515
 20
421.1887175371630
 30
0.0000000000000000
 11
476.4506274267991
 21
507.8150277278215
 31
0.0000000000000000
 70
162
  3
MAIN001
100
AcDb2LineAngularDimension
 13
506.0576417193415
 23
509.9053058392984
 33
0.0000000000000000
 14
506.0576417193415
 24
486.1553058392984
 34
0.0000000000000000
 15
476.8149194646808
 25
420.2490249163784
 35
0.0000000000000000
 16
476.5374515156335
 26
507.3226238513156
 36
0.0000000000000000
1001
ACAD
1000
DSTYLE
1002
{
1070
   173
1070
     1
1070
     6
1000
_OPEN
1070
     7
1000
_OPEN
1070
    41
1040
3.000000
1002
}
  0
DIMENSION
  5
289
100
AcDbEntity
  8
MAIN0
  6
CONTINUOUS
 62
3
100
AcDbDimension
  2
*D17
 10
126.0576417193413
 20
487.6553058394800
 30
0.0000000000000000
 11
125.5576417193413
 21
480.9053058394800
 31
0.0000000000000000
 70
32
  1
\A1;\U+220513.5
  3
MAIN001
100
AcDbAlignedDimension
 13
140.6576417193414
 23
474.1553058394800
 33
0.0000000000000000
 14
140.6576417193414
 24
487.6553058394800
 34
0.0000000000000000
 50
90.00000000000000
100
AcDbRotatedDimension
1001
ACAD
1000
DSTYLE
1002
{
1070
   173
1070
     1
1070
     6
1000
_OPEN
1070
     7
1000
_OPEN
1070
    41
1040
3.000000
1070
   287
1070
     0
1002
}
  0
LINE
  5
28A
100
AcDbEntity
  8
MAIN0
  6
CENTER
 62
3
100
AcDbLine
 10
131.0576417193413
 20
480.9053058394802
 30
0.0000000000000000
 11
246.0576417193413
 21
480.9053058394800
 31
0.0000000000000000
  0
CIRCLE
  5
28B
100
AcDbEntity
  8
MAIN0
  6
HIDDEN
 62
3
100
AcDbCircle
 10
506.0576417193412
 20
339.9053058392984
 30
0.0000000000000000
 40
75.00000000000009
  0
ARC
  5
28C
100
AcDbEntity
  8
MAIN0
  6
CONTINUOUS
 62
3
100
AcDbCircle
 10
506.0576417193412
 20
339.9053058392984
 30
0.0000000000000000
 40
47.99999999999954
100
AcDbArc
 50
42.59981533167177
 51
137.4001846683285
  0
ARC
  5
28D
100
AcDbEntity
  8
MAIN0
  6
CONTINUOUS
 62
3
100
AcDbCircle
 10
506.0576417193412
 20
339.9053058392984
 30
0.0000000000000000
 40
47.99999999999954
100
AcDbArc
 50
162.5998153316714
 51
257.4001846683280
  0
ARC
  5
28E
100
AcDbEntity
  8
MAIN0
  6
CONTINUOUS
 62
3
100
AcDbCircle
 10
506.0576417193412
 20
339.9053058392984
 30
0.0000000000000000
 40
47.99999999999954
100
AcDbArc
 50
282.5998153316719
 51
377.4001846683288
  0
ARC
  5
28F
100
AcDbEntity
  8
MAIN0
  6
HIDDEN
 62
3
100
AcDbCircle
 10
506.0576417193412
 20
339.9053058392984
 30
0.0000000000000000
 40
130.0000000000001
100
AcDbArc
 50
104.6158927710280
 51
199.2987493355971
  0
ARC
  5
290
100
AcDbEntity
  8
MAIN0
  6
HIDDEN
 62
3
100
AcDbCircle
 10
506.0576417193412
 20
339.9053058392984
 30
0.0000000000000000
 40
130.0000000000001
100
AcDbArc
 50
219.9565501767609
 51
434.2658084190963
  0
SPLINE
  5
291
100
AcDbEntity
  8
MAIN0
  6
CONTINUOUS
 62
3
100
AcDbSpline
210
0.0000000000000000
220
0.0000000000000000
230
1.000000000000000
 70
     8
 71
     3
 72
    19
 73
    15
 74
     0
 42
1.000000000000000e-007
 43
1.000000000000000e-007
 12
0.1727859323058816
 22
-0.9858316598206187
 32
0.0000000000000000
 13
-0.2201212307298128
 23
-0.9759604152797827
 33
0.0000000000000000
 40
0.0000000000000000
 40
0.0000000000000000
 40
0.0000000000000000
 40
0.0000000000000000
 40
25.25676956988625
 40
40.32268147906094
 40
56.13406977990284
 40
67.31440966740179
 40
77.62217373144594
 40
110.5045398263607
 40
158.0702838024618
 40
217.8523045110327
 40
228.8523045110327
 40
249.7615857582222
 40
292.2654816051207
 40
315.3143427483529
 40
315.3143427483529
 40
315.3143427483529
 40
315.3143427483529
 10
146.0576417193413
 20
494.9053058392984
 30
0.0000000000000000
 10
147.5123132117305
 20
486.6056648170359
 30
0.0000000000000000
 10
149.8347105825413
 20
473.3552061467291
 30
0.0000000000000000
 10
150.3293914906015
 20
454.5503071365801
 30
0.0000000000000000
 10
154.9041350916729
 20
441.0632552511832
 30
0.0000000000000000
 10
161.5780266952845
 20
430.4194603346576
 30
0.0000000000000000
 10
164.9833242836058
 20
412.4259930744158
 30
0.0000000000000000
 10
170.2320157722844
 20
382.7020994206074
 30
0.0000000000000000
 10
169.7323243464617
 20
335.6706048246629
 30
0.0000000000000000
 10
176.5080817596114
 20
296.7503318580246
 30
0.0000000000000000
 10
177.3206078174230
 20
266.0472582255830
 30
0.0000000000000000
 10
170.6180912611013
 20
241.9127718271245
 30
0.0000000000000000
 10
165.0586741287308
 20
213.7291965152645
 30
0.0000000000000000
 10
160.2488229465976
 20
192.4035645369901
 30
0.0000000000000000
 10
158.5576417193413
 20
184.9053058392984
 30
0.0000000000000000
  0
DIMENSION
  5
29A
100
AcDbEntity
  8
MAIN0
  6
CONTINUOUS
 62
3
100
AcDbDimension
  2
*D18
 10
506.0576417193410
 20
164.9053058392984
 30
0.0000000000000000
 11
459.5996231234383
 21
166.5216200204108
 31
0.0000000000000000
 70
162
  3
MAIN001
100
AcDb2LineAngularDimension
 13
428.0576417193399
 23
204.8053428489244
 33
0.0000000000000000
 14
428.5576417193399
 24
205.6713682527088
 34
0.0000000000000000
 15
506.0576417193410
 25
165.9053058392984
 35
0.0000000000000000
 16
459.4702136008871
 26
166.0386571072662
 36
0.0000000000000000
1001
ACAD
1000
DSTYLE
1002
{
1070
   173
1070
     1
1070
     6
1000
_OPEN
1070
     7
1000
_OPEN
1070
    41
1040
3.000000
1002
}
  0
DIMENSION
  5
2A2
100
AcDbEntity
  8
MAIN0
  6
CONTINUOUS
 62
3
100
AcDbDimension
  2
*D19
 10
506.0576417193410
 20
169.9053058392984
 30
0.0000000000000000
 11
483.9334521380421
 21
171.8554018364377
 31
0.0000000000000000
 70
162
  3
MAIN001
100
AcDb2LineAngularDimension
 13
464.6281497950293
 23
185.2883370460032
 33
0.0000000000000000
 14
464.8869688401319
 24
186.2542628722923
 34
0.0000000000000000
 15
506.0576417193413
 25
339.9053058392985
 35
0.0000000000000000
 16
483.8681890419321
 26
171.3596794057507
 36
0.0000000000000000
1001
ACAD
1000
DSTYLE
1002
{
1070
   173
1070
     1
1070
     6
1000
_OPEN
1070
     7
1000
_OPEN
1070
    41
1040
3.000000
1002
}
  0
DIMENSION
  5
2AB
100
AcDbEntity
  8
MAIN0
  6
CONTINUOUS
 62
3
100
AcDbDimension
  2
*D20
 10
656.0576417193413
 20
525.9053058392984
 30
0.0000000000000000
 11
655.5576417193413
 21
514.9053058392984
 31
0.0000000000000000
 70
32
  1
\A1;\U+220522
  3
MAIN001
100
AcDbAlignedDimension
 13
666.6576417193094
 23
503.9053058392984
 33
0.0000000000000000
 14
666.6576417193094
 24
525.9053058392984
 34
0.0000000000000000
 50
90.00000000000000
100
AcDbRotatedDimension
1001
ACAD
1000
DSTYLE
1002
{
1070
   173
1070
     1
1070
     6
1000
_OPEN
1070
     7
1000
_OPEN
1070
    41
1040
3.000000
1002
}
  0
DIMENSION
  5
2B6
100
AcDbEntity
  8
MAIN0
  6
CONTINUOUS
 62
3
100
AcDbDimension
  2
*D21
 10
666.0576417193092
 20
544.9053058392984
 30
0.0000000000000000
 11
671.0576417193092
 21
545.4053058392984
 31
0.0000000000000000
 70
32
  3
MAIN001
100
AcDbAlignedDimension
 13
676.0576417193092
 23
525.3053058392984
 33
0.0000000000000000
 14
666.0576417193092
 24
525.3053058392984
 34
0.0000000000000000
100
AcDbRotatedDimension
1001
ACAD
1000
DSTYLE
1002
{
1070
   173
1070
     1
1070
     6
1000
_OPEN
1070
     7
1000
_OPEN
1070
    41
1040
3.000000
1070
   287
1070
     0
1002
}
  0
DIMENSION
  5
2BE
100
AcDbEntity
  8
MAIN0
  6
CONTINUOUS
 62
1
100
AcDbDimension
  2
*D22
 10
761.0576417195570
 20
489.9053058392984
 30
0.0000000000000000
 11
688.5576417194010
 21
490.4053058392984
 31
0.0000000000000000
 70
32
  1
\A1;MAX 365
  3
MAIN001
100
AcDbAlignedDimension
 13
616.0576417192450
 23
504.5053058392982
 33
0.0000000000000000
 14
761.0576417195570
 24
465.5727686352713
 34
0.0000000000000000
100
AcDbRotatedDimension
1001
ACAD
1000
DSTYLE
1002
{
1070
   173
1070
     1
1070
     6
1000
_OPEN
1070
     7
1000
_OPEN
1070
    41
1040
3.000000
1002
}
  0
DIMENSION
  5
2C7
100
AcDbEntity
  8
MAIN0
  6
CONTINUOUS
 62
3
100
AcDbDimension
  2
*D23
 10
796.0576417193413
 20
532.9053058392984
 30
0.0000000000000000
 11
795.5576417193413
 21
432.9053058392984
 31
0.0000000000000000
 70
32
  3
MAIN001
100
AcDbAlignedDimension
 13
767.2220010741153
 23
332.9053058392984
 33
0.0000000000000000
 14
774.0576417192563
 24
532.9053058392984
 34
0.0000000000000000
 50
90.00000000000000
100
AcDbRotatedDimension
1001
ACAD
1000
DSTYLE
1002
{
1070
   173
1070
     1
1070
     6
1000
_OPEN
1070
     7
1000
_OPEN
1070
    41
1040
3.000000
1002
}
  0
DIMENSION
  5
2CE
100
AcDbEntity
  8
MAIN0
  6
CONTINUOUS
 62
3
100
AcDbDimension
  2
*D24
 10
774.0576417198017
 20
457.5477687783224
 30
0.0000000000000000
 11
761.0576417197946
 21
458.0477687783224
 31
0.0000000000000000
 70
32
  1
\A1;\U+220526
  3
MAIN001
100
AcDbAlignedDimension
 13
748.0576417197874
 23
404.5053058393040
 33
0.0000000000000000
 14
774.0576417198017
 24
404.5053058393245
 34
0.0000000000000000
100
AcDbRotatedDimension
1001
ACAD
1000
DSTYLE
1002
{
1070
   173
1070
     1
1070
     6
1000
_OPEN
1070
     7
1000
_OPEN
1070
    41
1040
3.000000
1002
}
  0
DIMENSION
  5
2D5
100
AcDbEntity
  8
MAIN0
  6
CONTINUOUS
 62
3
100
AcDbDimension
  2
*D25
 10
724.2840119958050
 20
506.9053058392984
 30
0.0000000000000000
 11
723.7840119958050
 21
514.9053058392984
 31
0.0000000000000000
 70
32
  1
\A1;\U+220516
  3
MAIN001
100
AcDbAlignedDimension
 13
746.0576417192856
 23
522.9053058392984
 33
0.0000000000000000
 14
746.0576417193329
 24
506.9053058392984
 34
0.0000000000000000
 50
90.00000000000000
100
AcDbRotatedDimension
1001
ACAD
1000
DSTYLE
1002
{
1070
   173
1070
     1
1070
     6
1000
_OPEN
1070
     7
1000
_OPEN
1070
    41
1040
3.000000
1002
}
  0
DIMENSION
  5
2DE
100
AcDbEntity
  8
MAIN0
  6
CONTINUOUS
 62
3
100
AcDbDimension
  2
*D26
 10
236.0576417193410
 20
514.9053058392984
 30
0.0000000000000000
 11
224.3076417193413
 21
515.4053058392984
 31
0.0000000000000000
 70
32
  3
MAIN001
100
AcDbAlignedDimension
 13
212.5576417193415
 23
499.9053058392984
 33
0.0000000000000000
 14
236.0576417193415
 24
492.9053058392984
 34
0.0000000000000000
100
AcDbRotatedDimension
1001
ACAD
1000
DSTYLE
1002
{
1070
   173
1070
     1
1070
     6
1000
_OPEN
1070
     7
1000
_OPEN
1070
    41
1040
3.000000
1002
}
  0
DIMENSION
  5
2E7
100
AcDbEntity
  8
MAIN0
  6
CONTINUOUS
 62
3
100
AcDbDimension
  2
*D27
 10
236.0576417193410
 20
534.9053058392984
 30
0.0000000000000000
 11
188.0576417193411
 21
535.4053058392984
 31
0.0000000000000000
 70
32
  3
MAIN001
100
AcDbAlignedDimension
 13
140.0576417193415
 23
492.9053058392985
 33
0.0000000000000000
 14
236.0576417193415
 24
492.9053058392984
 34
0.0000000000000000
100
AcDbRotatedDimension
1001
ACAD
1000
DSTYLE
1002
{
1070
   173
1070
     1
1070
     6
1000
_OPEN
1070
     7
1000
_OPEN
1070
    41
1040
3.000000
1002
}
  0
DIMENSION
  5
2F0
100
AcDbEntity
  8
MAIN0
  6
CONTINUOUS
 62
3
100
AcDbDimension
  2
*D28
 10
121.0576417193413
 20
387.9053058392985
 30
0.0000000000000000
 11
120.5576417193413
 21
339.9053058392985
 31
0.0000000000000000
 70
32
  1
\A1;\U+220596
  3
MAIN001
100
AcDbAlignedDimension
 13
160.5576417193412
 23
291.9053058392984
 33
0.0000000000000000
 14
160.5576417193414
 24
387.9053058392985
 34
0.0000000000000000
 50
90.00000000000000
100
AcDbRotatedDimension
1001
ACAD
1000
DSTYLE
1002
{
1070
   173
1070
     1
1070
     6
1000
_OPEN
1070
     7
1000
_OPEN
1070
    41
1040
3.000000
1002
}
  0
DIMENSION
  5
2F7
100
AcDbEntity
  8
MAIN0
  6
CONTINUOUS
 62
3
100
AcDbDimension
  2
*D29
 10
407.4552546614614
 20
239.1155778582782
 30
0.0000000000000000
 11
432.1241336004475
 21
265.4041868382568
 31
0.0000000000000000
 70
163
  3
MAIN001
100
AcDbDiametricDimension
 15
604.6600287772212
 25
440.6950338203187
 35
0.0000000000000000
1001
ACAD
1000
DSTYLE
1002
{
1070
   287
1070
     2
1070
   173
1070
     1
1070
     6
1000
_OPEN
1070
     7
1000
_OPEN
1070
    41
1040
3.000000
1070
   272
1070
     1
1070
    47
1040
0.200000
1070
    48
1040
0.200000
1070
    71
1070
     1
1002
}
  0
LEADER
  5
2F8
100
AcDbEntity
  8
MAIN0
  6
CONTINUOUS
 62
3
100
AcDbLeader
  3
MAIN001
 73
     0
 75
     1
 40
4.649999856948853
 41
50.24900003352758
 76
     3
 10
427.9795891498857
 20
211.2709159196619
 30
0.0000000000000000
 10
404.8488269075618
 20
191.3550099770164
 30
0.0000000000000000
 10
402.1688269865529
 20
191.3550099770164
 30
0.0000000000000000
340
2F9
213
0.0000000000000000
223
-0.7500000000000000
233
0.0000000000000000
1001
ACAD
1000
DSTYLE
1002
{
1070
   147
1040
0.0
1070
    77
1070
     1
1070
   173
1070
     1
1070
     6
1000
_OPEN
1070
     7
1000
_OPEN
1002
}
  0
MTEXT
  5
2F9
102
{ACAD_REACTORS
330
2F8
102
}
100
AcDbEntity
  8
MAIN0
  6
CONTINUOUS
 62
3
100
AcDbMText
 10
351.9198269530253
 20
196.7550098339653
 30
0.0000000000000000
 40
4.649999856948853
 41
0.0000000000000000
 71
     1
 72
     1
  1
{\H0.71x;{3等配\P3 EQUALLY SPACED}}
 11
1.000000000000000
 21
0.0000000000000000
 31
0.0000000000000000
  7
KNJYOKO
  0
LINE
  5
2FA
100
AcDbEntity
  8
MAIN0
  6
HIDDEN
 62
3
100
AcDbLine
 10
236.0576417193412
 20
291.9053058392984
 30
0.0000000000000000
 11
176.0521822320674
 21
291.9053058392984
 31
0.0000000000000000
  0
LINE
  5
2FB
100
AcDbEntity
  8
MAIN0
  6
HIDDEN
 62
3
100
AcDbLine
 10
236.0576417193413
 20
387.9053058392983
 30
0.0000000000000000
 11
168.5075624270423
 21
387.9053058392985
 31
0.0000000000000000
  0
LINE
  5
2FC
100
AcDbEntity
  8
MAIN0
  6
HIDDEN
 62
3
100
AcDbLine
 10
171.5576417193412
 20
282.9053058392985
 30
0.0000000000000000
 11
162.5576417193412
 21
282.9053058392985
 31
0.0000000000000000
  0
LINE
  5
2FD
100
AcDbEntity
  8
MAIN0
  6
HIDDEN
 62
3
100
AcDbLine
 10
162.5576417193413
 20
282.9053058392985
 30
0.0000000000000000
 11
161.5576417193413
 21
281.1732550317296
 31
0.0000000000000000
  0
LINE
  5
2FE
100
AcDbEntity
  8
MAIN0
  6
HIDDEN
 62
3
100
AcDbLine
 10
161.5576417193412
 20
281.1732550317296
 30
0.0000000000000000
 11
161.5576417193412
 21
268.6373566468674
 31
0.0000000000000000
  0
LINE
  5
2FF
100
AcDbEntity
  8
MAIN0
  6
HIDDEN
 62
3
100
AcDbLine
 10
161.5576417193412
 20
268.6373566468674
 30
0.0000000000000000
 11
162.5576417193412
 21
266.9053058392985
 31
0.0000000000000000
  0
LINE
  5
300
100
AcDbEntity
  8
MAIN0
  6
HIDDEN
 62
3
100
AcDbLine
 10
162.5576417193412
 20
266.9053058392985
 30
0.0000000000000000
 11
171.5576417193412
 21
266.9053058392985
 31
0.0000000000000000
  0
LINE
  5
301
100
AcDbEntity
  8
MAIN0
  6
HIDDEN
 62
3
100
AcDbLine
 10
162.5576417193412
 20
282.9053058392985
 30
0.0000000000000000
 11
162.5576417193412
 21
266.9053058392985
 31
0.0000000000000000
  0
LINE
  5
302
100
AcDbEntity
  8
MAIN0
  6
HIDDEN
 62
3
100
AcDbLine
 10
171.5576417193412
 20
279.9053058392985
 30
0.0000000000000000
 11
176.8816302320410
 21
279.9053058392985
 31
0.0000000000000000
  0
LINE
  5
303
100
AcDbEntity
  8
MAIN0
  6
HIDDEN
 62
3
100
AcDbLine
 10
176.8934043651769
 20
269.9053058392985
 30
0.0000000000000000
 11
171.5576417193412
 21
269.9053058392985
 31
0.0000000000000000
  0
LINE
  5
304
100
AcDbEntity
  8
MAIN0
  6
HIDDEN
 62
3
100
AcDbLine
 10
171.5576417193412
 20
279.0934068392986
 30
0.0000000000000000
 11
176.9179763356919
 21
279.0934068392986
 31
0.0000000000000000
  0
LINE
  5
305
100
AcDbEntity
  8
MAIN0
  6
HIDDEN
 62
3
100
AcDbLine
 10
171.5576417193412
 20
270.7172048392985
 30
0.0000000000000000
 11
176.9418312540849
 21
270.7172048392985
 31
0.0000000000000000
  0
LINE
  5
306
100
AcDbEntity
  8
MAIN0
  6
HIDDEN
 62
3
100
AcDbLine
 10
218.0076417193415
 20
494.9053058392984
 30
0.0000000000000000
 11
216.8076417193415
 21
493.7053058392985
 31
0.0000000000000000
  0
LINE
  5
307
100
AcDbEntity
  8
MAIN0
  6
HIDDEN
 62
3
100
AcDbLine
 10
216.8076417193415
 20
493.7053058392985
 30
0.0000000000000000
 11
208.3076417193415
 21
493.7053058392985
 31
0.0000000000000000
  0
LINE
  5
308
100
AcDbEntity
  8
MAIN0
  6
HIDDEN
 62
3
100
AcDbLine
 10
208.3076417193415
 20
493.7053058392985
 30
0.0000000000000000
 11
207.1076417193415
 21
494.9053058392985
 31
0.0000000000000000
  0
LINE
  5
309
100
AcDbEntity
  8
MAIN0
  6
HIDDEN
 62
3
100
AcDbLine
 10
217.5576417193415
 20
494.4553058392985
 30
0.0000000000000000
 11
217.5576417193415
 21
471.9053058392984
 31
0.0000000000000000
  0
LINE
  5
30A
100
AcDbEntity
  8
MAIN0
  6
HIDDEN
 62
3
100
AcDbLine
 10
207.5576417193415
 20
471.9053058392984
 30
0.0000000000000000
 11
207.5576417193415
 21
494.4553058392985
 31
0.0000000000000000
  0
LINE
  5
30B
100
AcDbEntity
  8
MAIN0
  6
HIDDEN
 62
3
100
AcDbLine
 10
216.8076417193415
 20
493.7053058392985
 30
0.0000000000000000
 11
216.8076417193415
 21
462.9053058392984
 31
0.0000000000000000
  0
LINE
  5
30C
100
AcDbEntity
  8
MAIN0
  6
HIDDEN
 62
3
100
AcDbLine
 10
216.8076417193415
 20
462.9053058392984
 30
0.0000000000000000
 11
208.3076417193415
 21
462.9053058392984
 31
0.0000000000000000
  0
LINE
  5
30D
100
AcDbEntity
  8
MAIN0
  6
HIDDEN
 62
3
100
AcDbLine
 10
208.3076417193415
 20
462.9053058392984
 30
0.0000000000000000
 11
208.3076417193415
 21
493.7053058392985
 31
0.0000000000000000
  0
LINE
  5
30E
100
AcDbEntity
  8
MAIN0
  6
HIDDEN
 62
3
100
AcDbLine
 10
216.8076417193416
 20
462.9053058392984
 30
0.0000000000000000
 11
212.5576417193415
 21
460.4515671952424
 31
0.0000000000000000
  0
LINE
  5
30F
100
AcDbEntity
  8
MAIN0
  6
HIDDEN
 62
3
100
AcDbLine
 10
212.5576417193415
 20
460.4515671952426
 30
0.0000000000000000
 11
208.3076417193415
 21
462.9053058392984
 31
0.0000000000000000
  0
LINE
  5
310
100
AcDbEntity
  8
MAIN0
  6
HIDDEN
 62
3
100
AcDbLine
 10
207.5576417193415
 20
471.9053058392984
 30
0.0000000000000000
 11
217.5576417193415
 21
471.9053058392984
 31
0.0000000000000000
  0
LINE
  5
311
100
AcDbEntity
  8
MAIN0
  6
HIDDEN
 62
3
100
AcDbLine
 10
540.9102979569568
 20
491.0343727099128
 30
0.0000000000000000
 11
541.7588260943808
 21
489.5646788642429
 31
0.0000000000000000
  0
LINE
  5
312
100
AcDbEntity
  8
MAIN0
  6
HIDDEN
 62
3
100
AcDbLine
 10
541.7588260943808
 20
489.5646788642430
 30
0.0000000000000000
 11
549.9691956178378
 21
487.3647169808715
 31
0.0000000000000000
  0
LINE
  5
313
100
AcDbEntity
  8
MAIN0
  6
HIDDEN
 62
3
100
AcDbLine
 10
549.9691956178376
 20
487.3647169808714
 30
0.0000000000000000
 11
551.4388894635075
 21
488.2132451182953
 31
0.0000000000000000
  0
LINE
  5
314
100
AcDbEntity
  8
MAIN0
  6
HIDDEN
 62
3
100
AcDbLine
 10
545.0513848043196
 20
466.1134196839429
 30
0.0000000000000000
 11
550.8877542713815
 21
487.8950470667614
 31
0.0000000000000000
  0
LINE
  5
315
100
AcDbEntity
  8
MAIN0
  6
HIDDEN
 62
3
100
AcDbLine
 10
533.7871995052230
 20
459.8141634145396
 30
0.0000000000000000
 11
541.9975690286800
 21
457.6142015311682
 31
0.0000000000000000
  0
LINE
  5
316
100
AcDbEntity
  8
MAIN0
  6
HIDDEN
 62
3
100
AcDbLine
 10
541.9975690286801
 20
457.6142015311683
 30
0.0000000000000000
 11
549.9691956178378
 21
487.3647169808714
 31
0.0000000000000000
  0
LINE
  5
317
100
AcDbEntity
  8
MAIN0
  6
HIDDEN
 62
3
100
AcDbLine
 10
533.7871995052228
 20
459.8141634145396
 30
0.0000000000000000
 11
537.2573099741658
 21
456.3440529455967
 31
0.0000000000000000
  0
LINE
  5
318
100
AcDbEntity
  8
MAIN0
  6
HIDDEN
 62
3
100
AcDbLine
 10
537.2573099741659
 20
456.3440529455968
 30
0.0000000000000000
 11
541.9975690286801
 21
457.6142015311682
 31
0.0000000000000000
  0
LINE
  5
319
100
AcDbEntity
  8
MAIN0
  6
HIDDEN
 62
3
100
AcDbLine
 10
537.1213890936003
 20
475.1553058392984
 30
0.0000000000000000
 11
541.2284960084908
 21
490.4832375177866
 31
0.0000000000000000
  0
LINE
  5
31A
100
AcDbEntity
  8
MAIN0
  6
HIDDEN
 62
3
100
AcDbLine
 10
533.7871995052229
 20
459.8141634145397
 30
0.0000000000000000
 11
533.9873389326746
 21
460.5610939263870
 31
0.0000000000000000
  0
LINE
  5
31B
100
AcDbEntity
  8
MAIN0
  6
HIDDEN
 62
3
100
AcDbLine
 10
537.8978462289081
 20
475.1553058392984
 30
0.0000000000000000
 11
541.7588260943808
 21
489.5646788642429
 31
0.0000000000000000
  0
LINE
  5
31C
100
AcDbEntity
  8
MAIN0
  6
HIDDEN
 62
3
100
AcDbLine
 10
542.3076417193415
 20
466.8486034278012
 30
0.0000000000000000
 11
545.0513848043195
 21
466.1134196839429
 31
0.0000000000000000
  0
LINE
  5
31D
100
AcDbEntity
  8
MAIN0
  6
HIDDEN
 62
3
100
AcDbLine
 10
460.6763939751745
 20
191.5973665603017
 30
0.0000000000000000
 11
462.1460878208445
 21
192.4458946977255
 31
0.0000000000000000
  0
LINE
  5
31E
100
AcDbEntity
  8
MAIN0
  6
HIDDEN
 62
3
100
AcDbLine
 10
462.1460878208445
 20
192.4458946977255
 30
0.0000000000000000
 11
470.3564573443016
 21
190.2459328143541
 31
0.0000000000000000
  0
LINE
  5
31F
100
AcDbEntity
  8
MAIN0
  6
HIDDEN
 62
3
100
AcDbLine
 10
470.3564573443015
 20
190.2459328143541
 30
0.0000000000000000
 11
471.2049854817253
 21
188.7762389686841
 31
0.0000000000000000
  0
LINE
  5
320
100
AcDbEntity
  8
MAIN0
  6
HIDDEN
 62
3
100
AcDbLine
 10
461.2275291673008
 20
191.9155646118357
 30
0.0000000000000000
 11
467.0638986343627
 21
213.6971919946542
 31
0.0000000000000000
  0
LINE
  5
321
100
AcDbEntity
  8
MAIN0
  6
HIDDEN
 62
3
100
AcDbLine
 10
467.0638986343627
 20
213.6971919946541
 30
0.0000000000000000
 11
476.7231568972534
 21
211.1090015436289
 31
0.0000000000000000
  0
LINE
  5
322
100
AcDbEntity
  8
MAIN0
  6
HIDDEN
 62
3
100
AcDbLine
 10
476.7231568972534
 20
211.1090015436289
 30
0.0000000000000000
 11
470.8867874301915
 21
189.3273741608105
 31
0.0000000000000000
  0
LINE
  5
323
100
AcDbEntity
  8
MAIN0
  6
HIDDEN
 62
3
100
AcDbLine
 10
462.1460878208445
 20
192.4458946977256
 30
0.0000000000000000
 11
470.1177144100022
 21
222.1964101474289
 31
0.0000000000000000
  0
LINE
  5
324
100
AcDbEntity
  8
MAIN0
  6
HIDDEN
 62
3
100
AcDbLine
 10
470.1177144100022
 20
222.1964101474288
 30
0.0000000000000000
 11
478.3280839334593
 21
219.9964482640574
 31
0.0000000000000000
  0
LINE
  5
325
100
AcDbEntity
  8
MAIN0
  6
HIDDEN
 62
3
100
AcDbLine
 10
478.3280839334593
 20
219.9964482640574
 30
0.0000000000000000
 11
470.3564573443016
 21
190.2459328143542
 31
0.0000000000000000
  0
LINE
  5
326
100
AcDbEntity
  8
MAIN0
  6
HIDDEN
 62
3
100
AcDbLine
 10
470.1177144100021
 20
222.1964101474289
 30
0.0000000000000000
 11
474.8579734645163
 21
223.4665587330003
 31
0.0000000000000000
  0
LINE
  5
327
100
AcDbEntity
  8
MAIN0
  6
HIDDEN
 62
3
100
AcDbLine
 10
474.8579734645164
 20
223.4665587330003
 30
0.0000000000000000
 11
478.3280839334592
 21
219.9964482640575
 31
0.0000000000000000
  0
LINE
  5
328
100
AcDbEntity
  8
MAIN0
  6
CONTINUOUS
 62
3
100
AcDbLine
 10
399.8616791763594
 20
289.8421085224039
 30
0.0000000000000000
 11
397.6966156668931
 21
288.5921085224017
 31
0.0000000000000000
  0
LINE
  5
329
100
AcDbEntity
  8
MAIN0
  6
CONTINUOUS
 62
3
100
AcDbLine
 10
394.1116791763583
 20
299.8014006659470
 30
0.0000000000000000
 11
399.8616791763546
 21
289.8421085224013
 31
0.0000000000000000
  0
LINE
  5
32A
100
AcDbEntity
  8
MAIN0
  6
CONTINUOUS
 62
3
100
AcDbLine
 10
396.9466156668962
 20
289.8911466280802
 30
0.0000000000000000
 11
397.6966156668919
 21
288.5921085224042
 31
0.0000000000000000
  0
LINE
  5
32B
100
AcDbEntity
  8
MAIN0
  6
CONTINUOUS
 62
3
100
AcDbLine
 10
396.9466156668961
 20
289.8911466280800
 30
0.0000000000000000
 11
394.7815521574347
 21
288.6411466280805
 31
0.0000000000000000
  0
LINE
  5
32C
100
AcDbEntity
  8
MAIN0
  6
CONTINUOUS
 62
3
100
AcDbLine
 10
394.0315521574365
 20
289.9401847337581
 30
0.0000000000000000
 11
394.7815521574347
 21
288.6411466280804
 31
0.0000000000000000
  0
LINE
  5
32D
100
AcDbEntity
  8
MAIN0
  6
CONTINUOUS
 62
3
100
AcDbLine
 10
391.3664886479762
 20
289.5562101375439
 30
0.0000000000000000
 11
391.8664886479743
 21
288.6901847337583
 31
0.0000000000000000
  0
LINE
  5
32E
100
AcDbEntity
  8
MAIN0
  6
CONTINUOUS
 62
3
100
AcDbLine
 10
394.0315521574365
 20
289.9401847337581
 30
0.0000000000000000
 11
391.8664886479743
 21
288.6901847337582
 31
0.0000000000000000
  0
LINE
  5
32F
100
AcDbEntity
  8
MAIN0
  6
CONTINUOUS
 62
3
100
AcDbLine
 10
393.9857274790786
 20
287.8911022652357
 30
0.0000000000000000
 11
390.4258984085680
 21
285.8358339931082
 31
0.0000000000000000
  0
LINE
  5
330
100
AcDbEntity
  8
MAIN0
  6
CONTINUOUS
 62
3
100
AcDbLine
 10
388.5725135568211
 20
284.7657817501715
 30
0.0000000000000000
 11
390.1391787741807
 21
286.3324469675268
 31
0.0000000000000000
  0
LINE
  5
331
100
AcDbEntity
  8
MAIN0
  6
CONTINUOUS
 62
3
100
AcDbLine
 10
388.5725135569342
 20
284.7657817499751
 30
0.0000000000000000
 11
390.7126180430694
 21
285.3392210187555
 31
0.0000000000000000
  0
MTEXT
  5
332
100
AcDbEntity
  8
MAIN0
  6
CONTINUOUS
 62
3
100
AcDbMText
 10
386.9132060339033
 20
286.0303331578217
 30
0.0000000000000000
 40
4.000000000000000
 41
0.0000000000000000
 71
     1
 72
     1
  1
{\H0.59x;{ΣＳ}}
 11
0.5000000000000009
 21
-0.8660254037844382
 31
0.0000000000000000
  7
KNJYOKO
  0
LINE
  5
333
100
AcDbEntity
  8
MAIN0
  6
CONTINUOUS
 62
3
100
AcDbLine
 10
397.8616791763604
 20
293.3062101375423
 30
0.0000000000000000
 11
382.2732219082386
 21
284.3062101375456
 31
0.0000000000000000
  0
LINE
  5
334
100
AcDbEntity
  8
MAIN0
  6
CONTINUOUS
 62
3
100
AcDbLine
 10
378.5232219082421
 20
290.8014006659404
 30
0.0000000000000000
 11
382.2732219082381
 21
284.3062101375464
 31
0.0000000000000000
  0
LINE
  5
335
100
AcDbEntity
  8
MAIN0
  6
CONTINUOUS
 62
3
100
AcDbLine
 10
394.1116791763621
 20
299.8014006659494
 30
0.0000000000000000
 11
378.5232219082422
 21
290.8014006659403
 31
0.0000000000000000
  0
LINE
  5
336
100
AcDbEntity
  8
MAIN0
  6
CONTINUOUS
 62
3
100
AcDbLine
 10
402.4818697047283
 20
300.3038054017687
 30
0.0000000000000000
 11
395.9866791763533
 21
296.5538054017543
 31
0.0000000000000000
  0
LINE
  5
337
100
AcDbEntity
  8
MAIN0
  6
CONTINUOUS
 62
3
100
AcDbLine
 10
398.9411596088585
 20
301.1455802479324
 30
0.0000000000000000
 11
397.1448456554240
 21
299.6382938721257
 31
0.0000000000000000
  0
LINE
  5
338
100
AcDbEntity
  8
MAIN0
  6
CONTINUOUS
 62
3
100
AcDbLine
 10
398.7763955358240
 20
299.2623182755366
 30
0.0000000000000000
 11
397.1448456554240
 21
299.6382938721255
 31
0.0000000000000000
  0
LINE
  5
339
100
AcDbEntity
  8
MAIN0
  6
CONTINUOUS
 62
3
100
AcDbLine
 10
398.9411596088585
 20
301.1455802479324
 30
0.0000000000000000
 11
398.7763955358241
 21
299.2623182755369
 31
0.0000000000000000
  0
ARC
  5
33A
100
AcDbEntity
  8
MAIN0
  6
CONTINUOUS
 62
3
100
AcDbCircle
 10
400.5333125462173
 20
299.1788054017615
 30
0.0000000000000000
 40
2.530445468977860
100
AcDbArc
 50
173.2530843414756
 51
300.0000000000001
  0
LINE
  5
33B
100
AcDbEntity
  8
MAIN0
  6
CONTINUOUS
 62
3
100
AcDbLine
 10
400.6068697047467
 20
303.5514006659384
 30
0.0000000000000000
 11
404.3568697047478
 21
297.0562101375330
 31
0.0000000000000000
  0
LINE
  5
33C
100
AcDbEntity
  8
MAIN0
  6
CONTINUOUS
 62
3
100
AcDbLine
 10
390.1391787741324
 20
286.3324469674784
 30
0.0000000000000000
 11
390.7126180430039
 21
285.3392210187377
 31
0.0000000000000000
  0
MTEXT
  5
33D
100
AcDbEntity
  8
MAIN0
  6
CONTINUOUS
 62
3
100
AcDbMText
 10
402.6116791763624
 20
285.0789688016120
 30
0.0000000000000000
 40
4.000000000000000
 41
0.0000000000000000
 71
     1
 72
     1
  1
{\H0.62x;{T MAX 206 N・m\PΣS MAX 55 KN\PMASS 43 kg}}
 11
0.4999999999999986
 21
-0.8660254037844395
 31
0.0000000000000000
  7
KNJYOKO
  0
MTEXT
  5
33E
100
AcDbEntity
  8
MAIN0
  6
CONTINUOUS
 62
3
100
AcDbMText
 10
403.6810514928193
 20
295.7112532472270
 30
0.0000000000000000
 40
4.000000000000000
 41
0.0000000000000000
 71
     1
 72
     1
  1
{\H0.63x;{T}}
 11
0.5000000000000009
 21
-0.8660254037844382
 31
0.0000000000000000
  7
STANDARD
  0
LINE
  5
33F
100
AcDbEntity
  8
MAIN0
  6
PHANTOM
 62
3
100
AcDbLine
 10
616.6576417192451
 20
525.9053058392983
 30
0.0000000000000000
 11
625.4576417192451
 21
525.9053058392983
 31
0.0000000000000000
  0
LINE
  5
340
100
AcDbEntity
  8
MAIN0
  6
PHANTOM
 62
3
100
AcDbLine
 10
616.6576417192451
 20
503.9053058392983
 30
0.0000000000000000
 11
625.4576417192451
 21
503.9053058392983
 31
0.0000000000000000
  0
LINE
  5
341
100
AcDbEntity
  8
MAIN0
  6
PHANTOM
 62
3
100
AcDbLine
 10
616.0576417192450
 20
504.5053058392982
 30
0.0000000000000000
 11
616.0576417192450
 21
525.3053058392983
 31
0.0000000000000000
  0
LINE
  5
342
100
AcDbEntity
  8
MAIN0
  6
PHANTOM
 62
3
100
AcDbLine
 10
626.0576417192450
 20
504.5053058392982
 30
0.0000000000000000
 11
626.0576417192450
 21
525.3053058392983
 31
0.0000000000000000
  0
LINE
  5
343
100
AcDbEntity
  8
MAIN0
  6
PHANTOM
 62
3
100
AcDbLine
 10
616.0576417192451
 20
520.9053058392781
 30
0.0000000000000000
 11
626.0576417192451
 21
520.9053058392983
 31
0.0000000000000000
  0
LINE
  5
344
100
AcDbEntity
  8
MAIN0
  6
PHANTOM
 62
3
100
AcDbLine
 10
616.0576417192451
 20
508.9053058393184
 30
0.0000000000000000
 11
626.0576417192451
 21
508.9053058392983
 31
0.0000000000000000
  0
LINE
  5
345
100
AcDbEntity
  8
MAIN0
  6
PHANTOM
 62
3
100
AcDbLine
 10
785.4576417192129
 20
525.9053058401232
 30
0.0000000000000000
 11
776.6576417192130
 21
525.9053058400464
 31
0.0000000000000000
  0
LINE
  5
346
100
AcDbEntity
  8
MAIN0
  6
PHANTOM
 62
3
100
AcDbLine
 10
785.4576417194052
 20
503.9053058401232
 30
0.0000000000000000
 11
776.6576417194052
 21
503.9053058400464
 31
0.0000000000000000
  0
LINE
  5
347
100
AcDbEntity
  8
MAIN0
  6
PHANTOM
 62
3
100
AcDbLine
 10
786.0576417194000
 20
504.5053058401285
 30
0.0000000000000000
 11
786.0576417192182
 21
525.3053058401285
 31
0.0000000000000000
  0
LINE
  5
348
100
AcDbEntity
  8
MAIN0
  6
PHANTOM
 62
3
100
AcDbLine
 10
776.0576417194000
 20
504.5053058400412
 30
0.0000000000000000
 11
776.0576417192182
 21
525.3053058400411
 31
0.0000000000000000
  0
LINE
  5
349
100
AcDbEntity
  8
MAIN0
  6
PHANTOM
 62
3
100
AcDbLine
 10
786.0576417192568
 20
520.9053058401083
 30
0.0000000000000000
 11
776.0576417192568
 21
520.9053058400411
 31
0.0000000000000000
  0
LINE
  5
34A
100
AcDbEntity
  8
MAIN0
  6
PHANTOM
 62
3
100
AcDbLine
 10
786.0576417193616
 20
508.9053058401486
 30
0.0000000000000000
 11
776.0576417193616
 21
508.9053058400411
 31
0.0000000000000000
  0
LINE
  5
34B
100
AcDbEntity
  8
MAIN0
  6
PHANTOM
 62
3
100
AcDbLine
 10
776.6576417192132
 20
525.9053058400464
 30
0.0000000000000000
 11
776.0576417192183
 21
525.3053058400410
 31
0.0000000000000000
  0
LINE
  5
34C
100
AcDbEntity
  8
MAIN0
  6
PHANTOM
 62
3
100
AcDbLine
 10
785.4576417192130
 20
525.9053058401233
 30
0.0000000000000000
 11
786.0576417192183
 21
525.3053058401285
 31
0.0000000000000000
  0
LINE
  5
34D
100
AcDbEntity
  8
MAIN0
  6
PHANTOM
 62
3
100
AcDbLine
 10
786.0576417194000
 20
504.5053058401285
 30
0.0000000000000000
 11
785.4576417194053
 21
503.9053058401232
 31
0.0000000000000000
  0
LINE
  5
34E
100
AcDbEntity
  8
MAIN0
  6
PHANTOM
 62
3
100
AcDbLine
 10
776.0576417194000
 20
504.5053058400412
 30
0.0000000000000000
 11
776.6576417194051
 21
503.9053058400465
 31
0.0000000000000000
  0
LINE
  5
34F
100
AcDbEntity
  8
MAIN0
  6
PHANTOM
 62
3
100
AcDbLine
 10
616.0576417192451
 20
525.3053058392982
 30
0.0000000000000000
 11
616.6576417192451
 21
525.9053058392983
 31
0.0000000000000000
  0
LINE
  5
350
100
AcDbEntity
  8
MAIN0
  6
PHANTOM
 62
3
100
AcDbLine
 10
625.4576417192453
 20
525.9053058392982
 30
0.0000000000000000
 11
626.0576417192452
 21
525.3053058392983
 31
0.0000000000000000
  0
LINE
  5
351
100
AcDbEntity
  8
MAIN0
  6
PHANTOM
 62
3
100
AcDbLine
 10
616.0576417192450
 20
504.5053058392983
 30
0.0000000000000000
 11
616.6576417192450
 21
503.9053058392983
 31
0.0000000000000000
  0
LINE
  5
352
100
AcDbEntity
  8
MAIN0
  6
PHANTOM
 62
3
100
AcDbLine
 10
625.4576417192452
 20
503.9053058392984
 30
0.0000000000000000
 11
626.0576417192451
 21
504.5053058392983
 31
0.0000000000000000
  0
LINE
  5
353
100
AcDbEntity
  8
MAIN0
  6
PHANTOM
 62
3
100
AcDbLine
 10
666.0576417193092
 20
522.9053058392983
 30
0.0000000000000000
 11
626.0576417192450
 21
522.9053058392983
 31
0.0000000000000000
  0
LINE
  5
354
100
AcDbEntity
  8
MAIN0
  6
PHANTOM
 62
3
100
AcDbLine
 10
666.0576417193092
 20
506.9053058392983
 30
0.0000000000000000
 11
626.0576417192450
 21
506.9053058392983
 31
0.0000000000000000
  0
LINE
  5
355
100
AcDbEntity
  8
MAIN0
  6
CENTER
 62
3
100
AcDbLine
 10
606.0576417193413
 20
514.9053058392984
 30
0.0000000000000000
 11
648.4076418623924
 21
514.9053058392983
 31
0.0000000000000000
  0
INSERT
  5
362
100
AcDbEntity
  8
MAIN0
  6
PHANTOM
 62
3
100
AcDbBlockReference
  2
*X0
 10
0.0000000000000000
 20
0.0000000000000000
 30
0.0000000000000000
 50
0.0000000000000000
  0
INSERT
  5
36F
100
AcDbEntity
  8
MAIN0
  6
PHANTOM
 62
3
100
AcDbBlockReference
  2
*X1
 10
0.0000000000000000
 20
0.0000000000000000
 30
0.0000000000000000
 50
0.0000000000000000
  0
INSERT
  5
37C
100
AcDbEntity
  8
MAIN0
  6
PHANTOM
 62
3
100
AcDbBlockReference
  2
*X2
 10
0.0000000000000000
 20
0.0000000000000000
 30
0.0000000000000000
 50
0.0000000000000000
  0
INSERT
  5
389
100
AcDbEntity
  8
MAIN0
  6
PHANTOM
 62
3
100
AcDbBlockReference
  2
*X3
 10
0.0000000000000000
 20
0.0000000000000000
 30
0.0000000000000000
 50
0.0000000000000000
  0
LINE
  5
38A
100
AcDbEntity
  8
MAIN0
  6
CENTER
 62
3
100
AcDbLine
 10
657.5576417193413
 20
514.9053058392985
 30
0.0000000000000000
 11
717.0469547165915
 21
514.9053058392985
 31
0.0000000000000000
  0
LINE
  5
38B
100
AcDbEntity
  8
MAIN0
  6
CONTINUOUS
 62
3
100
AcDbLine
 10
751.5576417199812
 20
350.9053058392984
 30
0.0000000000000000
 11
751.5576417198269
 21
403.1053058393008
 31
0.0000000000000000
  0
ARC
  5
38C
100
AcDbEntity
  8
MAIN0
  6
CONTINUOUS
 62
3
100
AcDbCircle
 10
750.7576417198268
 20
403.1053058392984
 30
0.0000000000000000
 40
0.8000000000000000
100
AcDbArc
 50
0.0000000000000000
 51
90.00000000000000
  0
LINE
  5
38D
100
AcDbEntity
  8
MAIN0
  6
CONTINUOUS
 62
3
100
AcDbLine
 10
774.0576417198524
 20
404.5053058393752
 30
0.0000000000000000
 11
773.4576417198543
 21
403.9053058393716
 31
0.0000000000000000
  0
ARC
  5
38E
100
AcDbEntity
  8
MAIN0
  6
CONTINUOUS
 62
3
100
AcDbCircle
 10
771.3576417198269
 20
403.1053058393593
 30
0.0000000000000000
 40
0.8000000000000000
100
AcDbArc
 50
90.00000000033872
 51
180.0000000003387
  0
LINE
  5
38F
100
AcDbEntity
  8
MAIN0
  6
CONTINUOUS
 62
3
100
AcDbLine
 10
770.5576417199812
 20
350.9053058392984
 30
0.0000000000000000
 11
770.5576417198269
 21
403.1053058393570
 31
0.0000000000000000
  0
CIRCLE
  5
390
100
AcDbEntity
  8
MAIN0
  6
PHANTOM
 62
3
100
AcDbCircle
 10
761.0576417201003
 20
307.1168423632849
 30
0.0000000000000000
 40
9.150000000000000
  0
LINE
  5
391
100
AcDbEntity
  8
MAIN0
  6
CONTINUOUS
 62
3
100
AcDbLine
 10
751.9076417186975
 20
333.7053058395612
 30
0.0000000000000000
 11
754.8932823657377
 21
332.9053058392983
 31
0.0000000000000000
  0
LINE
  5
392
100
AcDbEntity
  8
MAIN0
  6
CONTINUOUS
 62
3
100
AcDbLine
 10
770.2076417213131
 20
333.7053058396264
 30
0.0000000000000000
 11
767.2220010742785
 21
332.9053058393422
 31
0.0000000000000000
  0
LINE
  5
393
100
AcDbEntity
  8
MAIN0
  6
CONTINUOUS
 62
3
100
AcDbLine
 10
666.6576417193094
 20
525.9053058392984
 30
0.0000000000000000
 11
675.4576417193093
 21
525.9053058392984
 31
0.0000000000000000
  0
LINE
  5
394
100
AcDbEntity
  8
MAIN0
  6
CONTINUOUS
 62
3
100
AcDbLine
 10
666.6576417193094
 20
503.9053058392984
 30
0.0000000000000000
 11
675.4576417193093
 21
503.9053058392984
 31
0.0000000000000000
  0
LINE
  5
395
100
AcDbEntity
  8
MAIN0
  6
CONTINUOUS
 62
3
100
AcDbLine
 10
666.0576417193092
 20
504.5053058392984
 30
0.0000000000000000
 11
666.0576417193092
 21
525.3053058392984
 31
0.0000000000000000
  0
LINE
  5
396
100
AcDbEntity
  8
MAIN0
  6
CONTINUOUS
 62
3
100
AcDbLine
 10
676.0576417193092
 20
504.5053058392984
 30
0.0000000000000000
 11
676.0576417193092
 21
525.3053058392984
 31
0.0000000000000000
  0
LINE
  5
397
100
AcDbEntity
  8
MAIN0
  6
HIDDEN
 62
3
100
AcDbLine
 10
666.0576417193093
 20
520.9053058392783
 30
0.0000000000000000
 11
676.0576417193093
 21
520.9053058392984
 31
0.0000000000000000
  0
LINE
  5
398
100
AcDbEntity
  8
MAIN0
  6
HIDDEN
 62
3
100
AcDbLine
 10
666.0576417193095
 20
508.9053058393185
 30
0.0000000000000000
 11
676.0576417193095
 21
508.9053058392984
 31
0.0000000000000000
  0
LINE
  5
399
100
AcDbEntity
  8
MAIN0
  6
CONTINUOUS
 62
3
100
AcDbLine
 10
855.4576417192772
 20
525.9053058401235
 30
0.0000000000000000
 11
846.6576417192772
 21
525.9053058400465
 31
0.0000000000000000
  0
LINE
  5
39A
100
AcDbEntity
  8
MAIN0
  6
CONTINUOUS
 62
3
100
AcDbLine
 10
855.4576417194694
 20
503.9053058401234
 30
0.0000000000000000
 11
846.6576417194694
 21
503.9053058400465
 31
0.0000000000000000
  0
LINE
  5
39B
100
AcDbEntity
  8
MAIN0
  6
CONTINUOUS
 62
3
100
AcDbLine
 10
856.0576417194642
 20
504.5053058401287
 30
0.0000000000000000
 11
856.0576417192824
 21
525.3053058401287
 31
0.0000000000000000
  0
LINE
  5
39C
100
AcDbEntity
  8
MAIN0
  6
CONTINUOUS
 62
3
100
AcDbLine
 10
846.0576417194642
 20
504.5053058400413
 30
0.0000000000000000
 11
846.0576417192824
 21
525.3053058400412
 31
0.0000000000000000
  0
LINE
  5
39D
100
AcDbEntity
  8
MAIN0
  6
HIDDEN
 62
3
100
AcDbLine
 10
856.0576417193211
 20
520.9053058401084
 30
0.0000000000000000
 11
846.0576417193211
 21
520.9053058400411
 31
0.0000000000000000
  0
LINE
  5
39E
100
AcDbEntity
  8
MAIN0
  6
HIDDEN
 62
3
100
AcDbLine
 10
856.0576417194259
 20
508.9053058401488
 30
0.0000000000000000
 11
846.0576417194259
 21
508.9053058400413
 31
0.0000000000000000
  0
LINE
  5
39F
100
AcDbEntity
  8
MAIN0
  6
CONTINUOUS
 62
3
100
AcDbLine
 10
846.6576417192773
 20
525.9053058400466
 30
0.0000000000000000
 11
846.0576417192825
 21
525.3053058400412
 31
0.0000000000000000
  0
LINE
  5
3A0
100
AcDbEntity
  8
MAIN0
  6
CONTINUOUS
 62
3
100
AcDbLine
 10
855.4576417192774
 20
525.9053058401235
 30
0.0000000000000000
 11
856.0576417192826
 21
525.3053058401287
 31
0.0000000000000000
  0
LINE
  5
3A1
100
AcDbEntity
  8
MAIN0
  6
CONTINUOUS
 62
3
100
AcDbLine
 10
856.0576417194643
 20
504.5053058401286
 30
0.0000000000000000
 11
855.4576417194695
 21
503.9053058401233
 31
0.0000000000000000
  0
LINE
  5
3A2
100
AcDbEntity
  8
MAIN0
  6
CONTINUOUS
 62
3
100
AcDbLine
 10
846.0576417194642
 20
504.5053058400414
 30
0.0000000000000000
 11
846.6576417194693
 21
503.9053058400467
 31
0.0000000000000000
  0
LINE
  5
3A3
100
AcDbEntity
  8
MAIN0
  6
CONTINUOUS
 62
3
100
AcDbLine
 10
666.0576417193092
 20
525.3053058392984
 30
0.0000000000000000
 11
666.6576417193093
 21
525.9053058392984
 31
0.0000000000000000
  0
LINE
  5
3A4
100
AcDbEntity
  8
MAIN0
  6
CONTINUOUS
 62
3
100
AcDbLine
 10
675.4576417193096
 20
525.9053058392983
 30
0.0000000000000000
 11
676.0576417193093
 21
525.3053058392984
 31
0.0000000000000000
  0
LINE
  5
3A5
100
AcDbEntity
  8
MAIN0
  6
CONTINUOUS
 62
3
100
AcDbLine
 10
666.0576417193092
 20
504.5053058392985
 30
0.0000000000000000
 11
666.6576417193094
 21
503.9053058392984
 31
0.0000000000000000
  0
LINE
  5
3A6
100
AcDbEntity
  8
MAIN0
  6
CONTINUOUS
 62
3
100
AcDbLine
 10
675.4576417193094
 20
503.9053058392985
 30
0.0000000000000000
 11
676.0576417193093
 21
504.5053058392984
 31
0.0000000000000000
  0
LINE
  5
3A7
100
AcDbEntity
  8
MAIN0
  6
CONTINUOUS
 62
3
100
AcDbLine
 10
774.0576417192563
 20
532.9053058392984
 30
0.0000000000000000
 11
748.0576417192560
 21
532.9053058392984
 31
0.0000000000000000
  0
LINE
  5
3A8
100
AcDbEntity
  8
MAIN0
  6
CONTINUOUS
 62
3
100
AcDbLine
 10
746.0576417192619
 20
530.9053058392983
 30
0.0000000000000000
 11
748.0576417192560
 21
532.9053058392983
 31
0.0000000000000000
  0
LINE
  5
3A9
100
AcDbEntity
  8
MAIN0
  6
CONTINUOUS
 62
3
100
AcDbLine
 10
774.0576417192560
 20
532.9053058392983
 30
0.0000000000000000
 11
776.0576417192619
 21
530.9053058392983
 31
0.0000000000000000
  0
LINE
  5
3AA
100
AcDbEntity
  8
MAIN0
  6
CONTINUOUS
 62
3
100
AcDbLine
 10
776.0576417192619
 20
530.9053058392984
 30
0.0000000000000000
 11
746.0576417192619
 21
530.9053058392984
 31
0.0000000000000000
  0
LINE
  5
3AB
100
AcDbEntity
  8
MAIN0
  6
CONTINUOUS
 62
3
100
AcDbLine
 10
774.0576417192622
 20
496.9053058392984
 30
0.0000000000000000
 11
748.0576417192619
 21
496.9053058392984
 31
0.0000000000000000
  0
LINE
  5
3AC
100
AcDbEntity
  8
MAIN0
  6
CONTINUOUS
 62
3
100
AcDbLine
 10
746.0576417193626
 20
498.9053058392984
 30
0.0000000000000000
 11
748.0576417193685
 21
496.9053058392984
 31
0.0000000000000000
  0
LINE
  5
3AD
100
AcDbEntity
  8
MAIN0
  6
CONTINUOUS
 62
3
100
AcDbLine
 10
776.0576417193624
 20
498.9053058392985
 30
0.0000000000000000
 11
774.0576417193682
 21
496.9053058392983
 31
0.0000000000000000
  0
LINE
  5
3AE
100
AcDbEntity
  8
MAIN0
  6
CONTINUOUS
 62
3
100
AcDbLine
 10
746.0576417193624
 20
498.9053058392984
 30
0.0000000000000000
 11
776.0576417193624
 21
498.9053058392984
 31
0.0000000000000000
  0
LINE
  5
3AF
100
AcDbEntity
  8
MAIN0
  6
CONTINUOUS
 62
3
100
AcDbLine
 10
748.6576417197946
 20
403.9053058392984
 30
0.0000000000000000
 11
773.4576417198543
 21
403.9053058392984
 31
0.0000000000000000
  0
LINE
  5
3B0
100
AcDbEntity
  8
MAIN0
  6
CONTINUOUS
 62
3
100
AcDbLine
 10
754.8932823657374
 20
332.9053058392984
 30
0.0000000000000000
 11
767.2220010741153
 21
332.9053058392984
 31
0.0000000000000000
  0
LINE
  5
3B1
100
AcDbEntity
  8
MAIN0
  6
CENTER
 62
3
100
AcDbLine
 10
742.9570272209595
 20
307.1168423632825
 30
0.0000000000000000
 11
779.1544676508745
 21
307.1168423632872
 31
0.0000000000000000
  0
LINE
  5
3B2
100
AcDbEntity
  8
MAIN0
  6
CONTINUOUS
 62
3
100
AcDbLine
 10
761.8407058548719
 20
316.2332731648909
 30
0.0000000000000000
 11
770.1740725214736
 21
307.8999064982892
 31
0.0000000000000000
  0
LINE
  5
3B3
100
AcDbEntity
  8
MAIN0
  6
CONTINUOUS
 62
3
100
AcDbLine
 10
751.9412109182590
 20
306.3337782282805
 30
0.0000000000000000
 11
760.2745775848611
 21
298.0004115616785
 31
0.0000000000000000
  0
LINE
  5
3B4
100
AcDbEntity
  8
MAIN0
  6
CONTINUOUS
 62
3
100
AcDbLine
 10
751.9412109184015
 20
307.8999064998382
 30
0.0000000000000000
 11
760.2745775832595
 21
316.2332731647446
 31
0.0000000000000000
  0
LINE
  5
3B5
100
AcDbEntity
  8
MAIN0
  6
CONTINUOUS
 62
3
100
AcDbLine
 10
761.8407058533378
 20
298.0004115615508
 30
0.0000000000000000
 11
770.1740725216052
 21
306.3337782298663
 31
0.0000000000000000
  0
ARC
  5
3B6
100
AcDbEntity
  8
MAIN0
  6
CONTINUOUS
 62
3
100
AcDbCircle
 10
761.0576417198658
 20
307.1168423632849
 30
0.0000000000000000
 40
9.150000000000000
100
AcDbArc
 50
85.09057720206187
 51
94.90942280805487
  0
ARC
  5
3B7
100
AcDbEntity
  8
MAIN0
  6
CONTINUOUS
 62
3
100
AcDbCircle
 10
761.0576417198658
 20
307.1168423632849
 30
0.0000000000000000
 40
9.150000000000000
100
AcDbArc
 50
175.0905771922765
 51
184.9094227979363
  0
ARC
  5
3B8
100
AcDbEntity
  8
MAIN0
  6
CONTINUOUS
 62
3
100
AcDbCircle
 10
761.0576417198658
 20
307.1168423632849
 30
0.0000000000000000
 40
9.150000000000000
100
AcDbArc
 50
265.0905772020640
 51
274.9094227883215
  0
ARC
  5
3B9
100
AcDbEntity
  8
MAIN0
  6
CONTINUOUS
 62
3
100
AcDbCircle
 10
761.0576417198658
 20
307.1168423632849
 30
0.0000000000000000
 40
9.150000000000000
100
AcDbArc
 50
355.0905772120073
 51
364.9094227979362
  0
LINE
  5
3BA
100
AcDbEntity
  8
MAIN0
  6
CONTINUOUS
 62
3
100
AcDbLine
 10
770.2076417194428
 20
350.9053058392984
 30
0.0000000000000000
 11
770.2076417213133
 21
333.7053058396264
 31
0.0000000000000000
  0
LINE
  5
3BB
100
AcDbEntity
  8
MAIN0
  6
CONTINUOUS
 62
3
100
AcDbLine
 10
751.9076417186977
 20
350.9053058392984
 30
0.0000000000000000
 11
751.9076417186977
 21
333.7053058392984
 31
0.0000000000000000
  0
LINE
  5
3BC
100
AcDbEntity
  8
MAIN0
  6
CONTINUOUS
 62
3
100
AcDbLine
 10
770.2076417194428
 20
333.7053058392984
 30
0.0000000000000000
 11
751.9076417186977
 21
333.7053058392984
 31
0.0000000000000000
  0
LINE
  5
3BD
100
AcDbEntity
  8
MAIN0
  6
CONTINUOUS
 62
3
100
AcDbLine
 10
760.2745775836763
 20
333.7053058392984
 30
0.0000000000000000
 11
760.2745775835255
 21
350.9053058392984
 31
0.0000000000000000
  0
LINE
  5
3BE
100
AcDbEntity
  8
MAIN0
  6
CONTINUOUS
 62
3
100
AcDbLine
 10
761.8407058534601
 20
333.7053058392984
 30
0.0000000000000000
 11
761.8407058533596
 21
350.9053058392984
 31
0.0000000000000000
  0
LINE
  5
3BF
100
AcDbEntity
  8
MAIN0
  6
CONTINUOUS
 62
3
100
AcDbLine
 10
751.5576417199811
 20
350.9053058392984
 30
0.0000000000000000
 11
760.2745775835253
 21
350.9053058392984
 31
0.0000000000000000
  0
LINE
  5
3C0
100
AcDbEntity
  8
MAIN0
  6
CONTINUOUS
 62
3
100
AcDbLine
 10
761.8407058533596
 20
350.9053058392984
 30
0.0000000000000000
 11
770.5576417199811
 21
350.9053058392984
 31
0.0000000000000000
  0
LINE
  5
3C1
100
AcDbEntity
  8
MAIN0
  6
CONTINUOUS
 62
3
100
AcDbLine
 10
770.2076417194433
 20
350.9053058392984
 30
0.0000000000000000
 11
761.8407058534604
 21
333.7053058392984
 31
0.0000000000000000
  0
LINE
  5
3C2
100
AcDbEntity
  8
MAIN0
  6
CONTINUOUS
 62
3
100
AcDbLine
 10
761.8407058533594
 20
350.9053058392985
 30
0.0000000000000000
 11
770.2076417213133
 21
333.7053058396264
 31
0.0000000000000000
  0
LINE
  5
3C3
100
AcDbEntity
  8
MAIN0
  6
CONTINUOUS
 62
3
100
AcDbLine
 10
760.2745775835259
 20
350.9053058392985
 30
0.0000000000000000
 11
751.9076417186983
 21
333.7053058392985
 31
0.0000000000000000
  0
LINE
  5
3C4
100
AcDbEntity
  8
MAIN0
  6
CONTINUOUS
 62
3
100
AcDbLine
 10
751.9076417186980
 20
350.9053058392982
 30
0.0000000000000000
 11
760.2745775836766
 21
333.7053058392982
 31
0.0000000000000000
  0
ARC
  5
3C5
100
AcDbEntity
  8
MAIN0
  6
CONTINUOUS
 62
3
100
AcDbCircle
 10
785.2243083859760
 20
514.9053058393254
 30
0.0000000000000000
 40
12.16666666666681
100
AcDbArc
 50
138.8879095610022
 51
221.1120904393365
  0
ARC
  5
3C6
100
AcDbEntity
  8
MAIN0
  6
CONTINUOUS
 62
3
100
AcDbCircle
 10
736.8909750526425
 20
514.9053058392713
 30
0.0000000000000000
 40
12.16666666666674
100
AcDbArc
 50
318.8879095610026
 51
401.1120904393362
  0
LINE
  5
3C7
100
AcDbEntity
  8
MAIN0
  6
CONTINUOUS
 62
3
100
AcDbLine
 10
776.0576417193627
 20
498.9053058392984
 30
0.0000000000000000
 11
776.0576417193331
 21
506.9053058392981
 31
0.0000000000000000
  0
LINE
  5
3C8
100
AcDbEntity
  8
MAIN0
  6
CONTINUOUS
 62
3
100
AcDbLine
 10
776.0576417192857
 20
522.9053058392984
 30
0.0000000000000000
 11
776.0576417192621
 21
530.9053058392984
 31
0.0000000000000000
  0
LINE
  5
3C9
100
AcDbEntity
  8
MAIN0
  6
CONTINUOUS
 62
3
100
AcDbLine
 10
746.0576417193627
 20
498.9053058392984
 30
0.0000000000000000
 11
746.0576417193331
 21
506.9053058392984
 31
0.0000000000000000
  0
LINE
  5
3CA
100
AcDbEntity
  8
MAIN0
  6
CONTINUOUS
 62
3
100
AcDbLine
 10
746.0576417192857
 20
522.9053058392984
 30
0.0000000000000000
 11
746.0576417192621
 21
530.9053058392984
 31
0.0000000000000000
  0
ARC
  5
3CB
100
AcDbEntity
  8
MAIN0
  6
CONTINUOUS
 62
3
100
AcDbCircle
 10
818.5113495535322
 20
518.9053058392984
 30
0.0000000000000000
 40
6.000000000000000
100
AcDbArc
 50
138.1896851042212
 51
221.8103148957788
  0
ARC
  5
3CC
100
AcDbEntity
  8
MAIN0
  6
CONTINUOUS
 62
3
100
AcDbCircle
 10
809.5670776435331
 20
518.9053058392984
 30
0.0000000000000000
 40
6.000000000000000
100
AcDbArc
 50
318.1896851042212
 51
401.8103148957788
  0
ARC
  5
3CD
100
AcDbEntity
  8
MAIN0
  6
CONTINUOUS
 62
3
100
AcDbCircle
 10
824.5113495535322
 20
518.9053058392984
 30
0.0000000000000000
 40
6.000000000000000
100
AcDbArc
 50
138.1896851042212
 51
221.8103148957788
  0
ARC
  5
3CE
100
AcDbEntity
  8
MAIN0
  6
CONTINUOUS
 62
3
100
AcDbCircle
 10
809.5670776435331
 20
510.9053058392984
 30
0.0000000000000000
 40
6.000000000000000
100
AcDbArc
 50
318.1896851042212
 51
401.8103148957788
  0
ARC
  5
3CF
100
AcDbEntity
  8
MAIN0
  6
CONTINUOUS
 62
3
100
AcDbCircle
 10
824.5113495535322
 20
510.9053058392984
 30
0.0000000000000000
 40
6.000000000000000
100
AcDbArc
 50
138.1896851042212
 51
221.8103148957788
  0
ARC
  5
3D0
100
AcDbEntity
  8
MAIN0
  6
CONTINUOUS
 62
3
100
AcDbCircle
 10
815.5670776435331
 20
510.9053058392984
 30
0.0000000000000000
 40
6.000000000000000
100
AcDbArc
 50
318.1896851042212
 51
401.8103148957788
  0
LINE
  5
3D1
100
AcDbEntity
  8
MAIN0
  6
CONTINUOUS
 62
3
100
AcDbLine
 10
814.0392135985326
 20
522.9053058392984
 30
0.0000000000000000
 11
776.0576417192856
 21
522.9053058392984
 31
0.0000000000000000
  0
LINE
  5
3D2
100
AcDbEntity
  8
MAIN0
  6
CONTINUOUS
 62
3
100
AcDbLine
 10
846.0576417193033
 20
522.9053058392984
 30
0.0000000000000000
 11
820.0392135985326
 21
522.9053058392984
 31
0.0000000000000000
  0
LINE
  5
3D3
100
AcDbEntity
  8
MAIN0
  6
CONTINUOUS
 62
3
100
AcDbLine
 10
814.0392135985326
 20
506.9053058392984
 30
0.0000000000000000
 11
776.0576417193329
 21
506.9053058392984
 31
0.0000000000000000
  0
LINE
  5
3D4
100
AcDbEntity
  8
MAIN0
  6
CONTINUOUS
 62
3
100
AcDbLine
 10
846.0576417194432
 20
506.9053058392984
 30
0.0000000000000000
 11
820.0392135985326
 21
506.9053058392984
 31
0.0000000000000000
  0
ARC
  5
3D5
100
AcDbEntity
  8
MAIN0
  6
CONTINUOUS
 62
3
100
AcDbCircle
 10
698.9503049963516
 20
518.9053058392984
 30
0.0000000000000000
 40
6.000000000000000
100
AcDbArc
 50
138.1896851042212
 51
221.8103148957788
  0
ARC
  5
3D6
100
AcDbEntity
  8
MAIN0
  6
CONTINUOUS
 62
3
100
AcDbCircle
 10
690.0060330863526
 20
518.9053058392984
 30
0.0000000000000000
 40
6.000000000000000
100
AcDbArc
 50
318.1896851042212
 51
401.8103148957788
  0
ARC
  5
3D7
100
AcDbEntity
  8
MAIN0
  6
CONTINUOUS
 62
3
100
AcDbCircle
 10
704.9503049963516
 20
518.9053058392984
 30
0.0000000000000000
 40
6.000000000000000
100
AcDbArc
 50
138.1896851042212
 51
221.8103148957788
  0
ARC
  5
3D8
100
AcDbEntity
  8
MAIN0
  6
CONTINUOUS
 62
3
100
AcDbCircle
 10
690.0060330863526
 20
510.9053058392984
 30
0.0000000000000000
 40
6.000000000000000
100
AcDbArc
 50
318.1896851042212
 51
401.8103148957788
  0
ARC
  5
3D9
100
AcDbEntity
  8
MAIN0
  6
CONTINUOUS
 62
3
100
AcDbCircle
 10
704.9503049963516
 20
510.9053058392984
 30
0.0000000000000000
 40
6.000000000000000
100
AcDbArc
 50
138.1896851042212
 51
221.8103148957788
  0
ARC
  5
3DA
100
AcDbEntity
  8
MAIN0
  6
CONTINUOUS
 62
3
100
AcDbCircle
 10
696.0060330863526
 20
510.9053058392984
 30
0.0000000000000000
 40
6.000000000000000
100
AcDbArc
 50
318.1896851042212
 51
401.8103148957788
  0
LINE
  5
3DB
100
AcDbEntity
  8
MAIN0
  6
CONTINUOUS
 62
3
100
AcDbLine
 10
694.4781690413520
 20
522.9053058392984
 30
0.0000000000000000
 11
676.0576417193092
 21
522.9053058392984
 31
0.0000000000000000
  0
LINE
  5
3DC
100
AcDbEntity
  8
MAIN0
  6
CONTINUOUS
 62
3
100
AcDbLine
 10
746.0576417192856
 20
522.9053058392984
 30
0.0000000000000000
 11
700.4781690413520
 21
522.9053058392984
 31
0.0000000000000000
  0
LINE
  5
3DD
100
AcDbEntity
  8
MAIN0
  6
CONTINUOUS
 62
3
100
AcDbLine
 10
694.4781690413520
 20
506.9053058392984
 30
0.0000000000000000
 11
676.0576417193092
 21
506.9053058392984
 31
0.0000000000000000
  0
LINE
  5
3DE
100
AcDbEntity
  8
MAIN0
  6
CONTINUOUS
 62
3
100
AcDbLine
 10
746.0576417193329
 20
506.9053058392984
 30
0.0000000000000000
 11
700.4781690413520
 21
506.9053058392984
 31
0.0000000000000000
  0
LINE
  5
3DF
100
AcDbEntity
  8
MAIN0
  6
CENTER
 62
3
100
AcDbLine
 10
726.1969545742586
 20
514.9053058392984
 30
0.0000000000000000
 11
866.0576417193413
 21
514.9053058392984
 31
0.0000000000000000
  0
LINE
  5
3E0
100
AcDbEntity
  8
MAIN0
  6
CONTINUOUS
 62
3
100
AcDbLine
 10
748.0576417197874
 20
404.5053058393040
 30
0.0000000000000000
 11
748.0576417193687
 21
496.9053058392984
 31
0.0000000000000000
  0
LINE
  5
3E1
100
AcDbEntity
  8
MAIN0
  6
CONTINUOUS
 62
3
100
AcDbLine
 10
774.0576417198017
 20
404.5053058393245
 30
0.0000000000000000
 11
774.0576417193686
 21
496.9053058392984
 31
0.0000000000000000
  0
LINE
  5
3E2
100
AcDbEntity
  8
MAIN0
  6
CONTINUOUS
 62
3
100
AcDbLine
 10
748.0576417197931
 20
404.5053058392983
 30
0.0000000000000000
 11
748.6576417197946
 21
403.9053058392983
 31
0.0000000000000000
  0
LINE
  5
3E3
100
AcDbEntity
  8
MAIN0
  6
CENTER
 62
3
100
AcDbLine
 10
761.0576417203185
 20
291.2817559084812
 30
0.0000000000000000
 11
761.0576417195970
 21
456.4227687783224
 31
0.0000000000000000
  0
LINE
  5
3E4
100
AcDbEntity
  8
MAIN0
  6
CENTER
 62
3
100
AcDbLine
 10
761.0576417195570
 20
465.5727686352713
 30
0.0000000000000000
 11
761.0576417192427
 21
537.4676211333950
 31
0.0000000000000000
  0
DIMENSION
  5
3ED
100
AcDbEntity
  8
MAIN0
  6
CONTINUOUS
 62
1
100
AcDbDimension
  2
*D30
 10
856.0576417192824
 20
559.9053058392984
 30
0.0000000000000000
 11
761.0576417192958
 21
560.4053058392984
 31
0.0000000000000000
 70
32
  1
\A1;390
  3
MAIN001
100
AcDbAlignedDimension
 13
666.0576417193092
 23
525.3053058392984
 33
0.0000000000000000
 14
856.0576417192824
 24
525.3053058401287
 34
0.0000000000000000
100
AcDbRotatedDimension
1001
ACAD
1000
DSTYLE
1002
{
1070
   173
1070
     1
1070
     6
1000
_OPEN
1070
     7
1000
_OPEN
1070
    41
1040
3.000000
1002
}
  0
DIMENSION
  5
3F5
100
AcDbEntity
  8
MAIN0
  6
CONTINUOUS
 62
3
100
AcDbDimension
  2
*D31
 10
735.5050184743523
 20
532.9053058392984
 30
0.0000000000000000
 11
734.7550184743523
 21
527.9756940293164
 31
0.0000000000000000
 70
160
  3
MAIN001
100
AcDbAlignedDimension
 13
726.1969545742586
 23
514.9053058392984
 33
0.0000000000000000
 14
748.0576417192560
 24
532.9053058392984
 34
0.0000000000000000
 50
90.00000000000000
100
AcDbRotatedDimension
1001
ACAD
1000
DSTYLE
1002
{
1070
   173
1070
     1
1070
     6
1000
_OPEN
1070
     7
1000
_OPEN
1070
    41
1040
3.000000
1002
}
  0
DIMENSION
  5
3FE
100
AcDbEntity
  8
MAIN0
  6
CONTINUOUS
 62
3
100
AcDbDimension
  2
*D32
 10
746.0576417192856
 20
544.9053058392984
 30
0.0000000000000000
 11
761.0576417192738
 21
545.4053058392984
 31
0.0000000000000000
 70
32
  1
\A1;\U+220530
  3
MAIN001
100
AcDbAlignedDimension
 13
776.0576417192621
 23
530.9053058392984
 33
0.0000000000000000
 14
746.0576417192621
 24
530.9053058392984
 34
0.0000000000000000
100
AcDbRotatedDimension
1001
ACAD
1000
DSTYLE
1002
{
1070
   173
1070
     1
1070
     6
1000
_OPEN
1070
     7
1000
_OPEN
1070
    41
1040
3.000000
1002
}
  0
DIMENSION
  5
407
100
AcDbEntity
  8
MAIN0
  6
CONTINUOUS
 62
3
100
AcDbDimension
  2
*D33
 10
786.0576417193413
 20
332.9053058392984
 30
0.0000000000000000
 11
785.5576417193413
 21
341.9053058392984
 31
0.0000000000000000
 70
32
  3
MAIN001
100
AcDbAlignedDimension
 13
770.5576417199811
 23
350.9053058392984
 33
0.0000000000000000
 14
767.2220010741153
 24
332.9053058392984
 34
0.0000000000000000
 50
90.00000000000000
100
AcDbRotatedDimension
1001
ACAD
1000
DSTYLE
1002
{
1070
   173
1070
     1
1070
     6
1000
_OPEN
1070
     7
1000
_OPEN
1070
    41
1040
3.000000
1002
}
  0
DIMENSION
  5
411
100
AcDbEntity
  8
MAIN0
  6
CONTINUOUS
 62
3
100
AcDbDimension
  2
*D34
 10
782.1131574499029
 20
295.9608215698601
 30
0.0000000000000000
 11
788.2822475420710
 21
303.1905718338081
 31
0.0000000000000000
 70
161
  1
\A1;□14\H0.903226x;\S　0^ －0.1;
  3
MAIN001
100
AcDbAlignedDimension
 13
760.2745775848609
 23
298.0004115616785
 33
0.0000000000000000
 14
770.1740725214736
 24
307.8999064982892
 34
0.0000000000000000
 50
45.00000000000033
1001
ACAD
1000
DSTYLE
1002
{
1070
   173
1070
     1
1070
     6
1000
_OPEN
1070
     7
1000
_OPEN
1070
    41
1040
3.000000
1070
   272
1070
     1
1070
    47
1040
0.000000
1070
    48
1040
0.100000
1070
    71
1070
     1
1070
   340
1005
1A2
1002
}
  0
INSERT
  5
41E
100
AcDbEntity
  8
MAIN0
  6
CONTINUOUS
 62
3
100
AcDbBlockReference
  2
*X4
 10
0.0000000000000000
 20
0.0000000000000000
 30
0.0000000000000000
 50
0.0000000000000000
  0
INSERT
  5
42B
100
AcDbEntity
  8
MAIN0
  6
CONTINUOUS
 62
3
100
AcDbBlockReference
  2
*X5
 10
0.0000000000000000
 20
0.0000000000000000
 30
0.0000000000000000
 50
0.0000000000000000
  0
INSERT
  5
438
100
AcDbEntity
  8
MAIN0
  6
CONTINUOUS
 62
3
100
AcDbBlockReference
  2
*X6
 10
0.0000000000000000
 20
0.0000000000000000
 30
0.0000000000000000
 50
0.0000000000000000
  0
INSERT
  5
445
100
AcDbEntity
  8
MAIN0
  6
CONTINUOUS
 62
3
100
AcDbBlockReference
  2
*X7
 10
0.0000000000000000
 20
0.0000000000000000
 30
0.0000000000000000
 50
0.0000000000000000
  0
LINE
  5
446
100
AcDbEntity
  8
MAIN0
  6
PHANTOM
 62
3
100
AcDbLine
 10
751.4576417200947
 20
335.9053058392984
 30
0.0000000000000000
 11
751.4576417199107
 21
398.1149198102173
 31
0.0000000000000000
  0
LINE
  5
447
100
AcDbEntity
  8
MAIN0
  6
PHANTOM
 62
3
100
AcDbLine
 10
770.6576417200947
 20
335.9053058392984
 30
0.0000000000000000
 11
770.6576417199049
 21
400.1149198103442
 31
0.0000000000000000
  0
LINE
  5
448
100
AcDbEntity
  8
MAIN0
  6
CONTINUOUS
 62
3
100
AcDbLine
 10
750.9326417198267
 20
403.9053058392984
 30
0.0000000000000000
 11
771.1826417198267
 21
403.9053058392984
 31
0.0000000000000000
  0
LINE
  5
449
100
AcDbEntity
  8
MAIN0
  6
CONTINUOUS
 62
3
100
AcDbLine
 10
750.4576417200633
 20
335.9053058392984
 30
0.0000000000000000
 11
771.6576417200633
 21
335.9053058392984
 31
0.0000000000000000
  0
LINE
  5
44A
100
AcDbEntity
  8
MAIN0
  6
CONTINUOUS
 62
3
100
AcDbLine
 10
750.4576417200597
 20
337.9053058393557
 30
0.0000000000000000
 11
771.6576417200633
 21
337.9053058393557
 31
0.0000000000000000
  0
LINE
  5
44B
100
AcDbEntity
  8
MAIN0
  6
CONTINUOUS
 62
3
100
AcDbLine
 10
750.9326417198267
 20
402.6553058392984
 30
0.0000000000000000
 11
771.1826417198267
 21
402.6553058392984
 31
0.0000000000000000
  0
LINE
  5
44C
100
AcDbEntity
  8
MAIN0
  6
CENTER
 62
3
100
AcDbLine
 10
750.4576417200774
 20
332.9746988765365
 30
0.0000000000000000
 11
750.4576417198391
 21
399.8559078795022
 31
0.0000000000000000
  0
LINE
  5
44D
100
AcDbEntity
  8
MAIN0
  6
PHANTOM
 62
3
100
AcDbLine
 10
749.4576417200391
 20
335.9053058392912
 30
0.0000000000000000
 11
749.4576417197796
 21
398.1149198102102
 31
0.0000000000000000
  0
CIRCLE
  5
44E
100
AcDbEntity
  8
MAIN0
  6
CONTINUOUS
 62
3
100
AcDbCircle
 10
750.4576417200633
 20
336.9053058393269
 30
0.0000000000000000
 40
1.000000000028471
  0
CIRCLE
  5
44F
100
AcDbEntity
  8
MAIN0
  6
CONTINUOUS
 62
3
100
AcDbCircle
 10
771.6576417200633
 20
336.9053058394024
 30
0.0000000000000000
 40
1.000000000028471
  0
LINE
  5
450
100
AcDbEntity
  8
MAIN0
  6
CENTER
 62
3
100
AcDbLine
 10
771.6576417200773
 20
332.9746988766121
 30
0.0000000000000000
 11
771.6576417198273
 21
403.1232657342331
 31
0.0000000000000000
  0
CIRCLE
  5
451
100
AcDbEntity
  8
MAIN0
  6
CONTINUOUS
 62
3
100
AcDbCircle
 10
771.6576417200633
 20
340.9053058395169
 30
0.0000000000000000
 40
1.000000000028471
  0
LINE
  5
452
100
AcDbEntity
  8
MAIN0
  6
CONTINUOUS
 62
3
100
AcDbLine
 10
771.5637191254583
 20
343.9008853423160
 30
0.0000000000000000
 11
750.3637191254582
 21
341.9008853421832
 31
0.0000000000000000
  0
LINE
  5
453
100
AcDbEntity
  8
MAIN0
  6
CONTINUOUS
 62
3
100
AcDbLine
 10
771.7515643146680
 20
339.9097263367750
 30
0.0000000000000000
 11
750.5515643146676
 21
337.9097263366422
 31
0.0000000000000000
  0
CIRCLE
  5
454
100
AcDbEntity
  8
MAIN0
  6
CONTINUOUS
 62
3
100
AcDbCircle
 10
750.4576417200633
 20
338.9053058393841
 30
0.0000000000000000
 40
1.000000000028471
  0
CIRCLE
  5
455
100
AcDbEntity
  8
MAIN0
  6
CONTINUOUS
 62
3
100
AcDbCircle
 10
771.6576417200633
 20
344.9053058396314
 30
0.0000000000000000
 40
1.000000000028471
  0
LINE
  5
456
100
AcDbEntity
  8
MAIN0
  6
CONTINUOUS
 62
3
100
AcDbLine
 10
771.5637191254584
 20
345.9008853423732
 30
0.0000000000000000
 11
750.3637191254583
 21
343.9008853422404
 31
0.0000000000000000
  0
LINE
  5
457
100
AcDbEntity
  8
MAIN0
  6
CONTINUOUS
 62
3
100
AcDbLine
 10
771.7515643146674
 20
341.9097263368324
 30
0.0000000000000000
 11
750.5515643146674
 21
339.9097263366996
 31
0.0000000000000000
  0
CIRCLE
  5
458
100
AcDbEntity
  8
MAIN0
  6
CONTINUOUS
 62
3
100
AcDbCircle
 10
750.4576417200633
 20
342.9053058394986
 30
0.0000000000000000
 40
1.000000000028471
  0
LINE
  5
459
100
AcDbEntity
  8
MAIN0
  6
CONTINUOUS
 62
3
100
AcDbLine
 10
771.7515643146680
 20
339.9097263367750
 30
0.0000000000000000
 11
750.5515643146676
 21
337.9097263366422
 31
0.0000000000000000
  0
LINE
  5
45A
100
AcDbEntity
  8
MAIN0
  6
CONTINUOUS
 62
3
100
AcDbLine
 10
761.0343690093467
 20
340.8986701758857
 30
0.0000000000000000
 11
750.3637191254592
 21
341.9008853421832
 31
0.0000000000000000
  0
LINE
  5
45B
100
AcDbEntity
  8
MAIN0
  6
CONTINUOUS
 62
3
100
AcDbLine
 10
771.7515643146610
 20
341.9008853422594
 30
0.0000000000000000
 11
761.0576417200599
 21
342.9097459643823
 31
0.0000000000000000
  0
CIRCLE
  5
45C
100
AcDbEntity
  8
MAIN0
  6
CONTINUOUS
 62
3
100
AcDbCircle
 10
771.6576417198380
 20
400.1149198103472
 30
0.0000000000000000
 40
1.000000000028471
  0
LINE
  5
45D
100
AcDbEntity
  8
MAIN0
  6
CONTINUOUS
 62
3
100
AcDbLine
 10
771.5637191252332
 20
401.1104993130889
 30
0.0000000000000000
 11
750.3637191252329
 21
399.1104993129561
 31
0.0000000000000000
  0
LINE
  5
45E
100
AcDbEntity
  8
MAIN0
  6
CONTINUOUS
 62
3
100
AcDbLine
 10
771.5637191252331
 20
399.1104993130317
 30
0.0000000000000000
 11
750.3637191252328
 21
397.1104993128989
 31
0.0000000000000000
  0
CIRCLE
  5
45F
100
AcDbEntity
  8
MAIN0
  6
CONTINUOUS
 62
3
100
AcDbCircle
 10
750.4576417198380
 20
398.1149198102144
 30
0.0000000000000000
 40
1.000000000028471
  0
CIRCLE
  5
460
100
AcDbEntity
  8
MAIN0
  6
CONTINUOUS
 62
3
100
AcDbCircle
 10
771.6576417198380
 20
396.1149198102327
 30
0.0000000000000000
 40
1.000000000028471
  0
LINE
  5
461
100
AcDbEntity
  8
MAIN0
  6
CONTINUOUS
 62
3
100
AcDbLine
 10
771.7515643144426
 20
397.1193403075481
 30
0.0000000000000000
 11
750.5515643144422
 21
395.1193403074153
 31
0.0000000000000000
  0
LINE
  5
462
100
AcDbEntity
  8
MAIN0
  6
CONTINUOUS
 62
3
100
AcDbLine
 10
771.7515643144430
 20
395.1193403074908
 30
0.0000000000000000
 11
750.5515643144428
 21
393.1193403073580
 31
0.0000000000000000
  0
CIRCLE
  5
463
100
AcDbEntity
  8
MAIN0
  6
CONTINUOUS
 62
3
100
AcDbCircle
 10
750.4576417198380
 20
394.1149198100999
 30
0.0000000000000000
 40
1.000000000028471
  0
LINE
  5
464
100
AcDbEntity
  8
MAIN0
  6
CONTINUOUS
 62
3
100
AcDbLine
 10
771.7515643144425
 20
393.1193403074336
 30
0.0000000000000000
 11
750.5515643144424
 21
391.1193403073008
 31
0.0000000000000000
  0
CIRCLE
  5
465
100
AcDbEntity
  8
MAIN0
  6
CONTINUOUS
 62
3
100
AcDbCircle
 10
771.6576417198380
 20
392.1149198101182
 30
0.0000000000000000
 40
1.000000000028471
  0
LINE
  5
466
100
AcDbEntity
  8
MAIN0
  6
CONTINUOUS
 62
3
100
AcDbLine
 10
771.7515643144426
 20
391.1193403073764
 30
0.0000000000000000
 11
750.5515643144423
 21
389.1193403072436
 31
0.0000000000000000
  0
CIRCLE
  5
467
100
AcDbEntity
  8
MAIN0
  6
CONTINUOUS
 62
3
100
AcDbCircle
 10
750.4576417198380
 20
390.1149198099854
 30
0.0000000000000000
 40
1.000000000028471
  0
LINE
  5
468
100
AcDbEntity
  8
MAIN0
  6
PHANTOM
 62
3
100
AcDbLine
 10
772.6576417200949
 20
335.9053058393740
 30
0.0000000000000000
 11
772.6576417199051
 21
400.1149198103501
 31
0.0000000000000000
  0
CIRCLE
  5
469
100
AcDbEntity
  8
MAIN0
  6
CONTINUOUS
 62
3
100
AcDbCircle
 10
750.9326417198267
 20
403.2803058392984
 30
0.0000000000000000
 40
0.6250000000000178
  0
CIRCLE
  5
46A
100
AcDbEntity
  8
MAIN0
  6
CONTINUOUS
 62
3
100
AcDbCircle
 10
771.1826417198267
 20
403.2803058393695
 30
0.0000000000000000
 40
0.6250000000000178
  0
CIRCLE
  5
46B
100
AcDbEntity
  8
MAIN0
  6
CONTINUOUS
 62
3
100
AcDbCircle
 10
750.9326417198267
 20
402.0303058392983
 30
0.0000000000000000
 40
0.6250000000000178
  0
CIRCLE
  5
46C
100
AcDbEntity
  8
MAIN0
  6
CONTINUOUS
 62
3
100
AcDbCircle
 10
771.1826417198267
 20
402.0303058392273
 30
0.0000000000000000
 40
0.6250000000000178
  0
LINE
  5
46D
100
AcDbEntity
  8
MAIN0
  6
CONTINUOUS
 62
3
100
AcDbLine
 10
750.9326417198267
 20
401.4053058392983
 30
0.0000000000000000
 11
771.1826417198267
 21
401.4053058392983
 31
0.0000000000000000
  0
LINE
  5
46E
100
AcDbEntity
  8
MAIN0
  6
CONTINUOUS
 62
3
100
AcDbLine
 10
761.8864571547579
 20
400.1975500705307
 30
0.0000000000000000
 11
750.8634253180958
 21
401.4091503919814
 31
0.0000000000000000
  0
LINE
  5
46F
100
AcDbEntity
  8
MAIN0
  6
CONTINUOUS
 62
3
100
AcDbLine
 10
767.8136584737462
 20
401.4053058392983
 30
0.0000000000000000
 11
771.7322491470047
 21
401.1121327925473
 31
0.0000000000000000
  0
INSERT
  5
47B
100
AcDbEntity
  8
A0
  6
CONTINUOUS
 62
3
100
AcDbBlockReference
  2
M0
 10
0.0000000000000000
 20
0.0000000000000000
 30
0.0000000000000000
 50
0.0000000000000000
  0
MTEXT
  5
47C
100
AcDbEntity
  8
A0
  6
CONTINUOUS
 62
3
100
AcDbMText
 10
175.2959167669180
 20
92.58367410886928
 30
0.0000000000000000
 40
4.649999856948853
 41
0.0000000000000000
 71
     1
 72
     1
  1
{\H0.94x;{本スクロールチャックは円テーブル上で工作物を}}
 11
1.000000000000000
 21
0.0000000000000000
 31
0.0000000000000000
  7
KNJYOKO
  0
MTEXT
  5
47D
100
AcDbEntity
  8
A0
  6
CONTINUOUS
 62
3
100
AcDbMText
 10
175.2959167669180
 20
85.08367410886928
 30
0.0000000000000000
 40
4.649999856948853
 41
0.0000000000000000
 71
     1
 72
     1
  1
{\H0.94x;{把握することに適しています。それ以外の用途の}}
 11
1.000000000000000
 21
0.0000000000000000
 31
0.0000000000000000
  7
KNJYOKO
  0
MTEXT
  5
47E
100
AcDbEntity
  8
A0
  6
CONTINUOUS
 62
3
100
AcDbMText
 10
175.2959167669180
 20
77.58367410886936
 30
0.0000000000000000
 40
4.649999856948853
 41
0.0000000000000000
 71
     1
 72
     1
  1
{\H0.94x;{場合、事前に弊社にご相談下さい。}}
 11
1.000000000000000
 21
0.0000000000000000
 31
0.0000000000000000
  7
KNJYOKO
  0
MTEXT
  5
47F
100
AcDbEntity
  8
A0
  6
CONTINUOUS
 62
3
100
AcDbMText
 10
123.7464395713825
 20
36.80778402314432
 30
0.0000000000000000
 40
4.199998855590820
 41
0.0000000000000000
 71
     7
 72
     1
  1
{　　Kg・m}
 11
1.000000000000000
 21
0.0000000000000000
 31
0.0000000000000000
  7
KNJYOKO
  0
MTEXT
  5
480
100
AcDbEntity
  8
A0
  6
CONTINUOUS
 62
3
100
AcDbMText
 10
141.5464392852802
 20
38.90778345093973
 30
0.0000000000000000
 40
2.099999427795410
 41
0.0000000000000000
 71
     7
 72
     1
  1
{2}
 11
1.000000000000000
 21
0.0000000000000000
 31
0.0000000000000000
  7
STANDARD
  0
MTEXT
  5
481
100
AcDbEntity
  8
A0
  6
CONTINUOUS
 62
3
100
AcDbMText
 10
24.82131961518550
 20
9.677867924038637
 30
0.0000000000000000
 40
4.650000572204590
 41
0.0000000000000000
 71
     1
 72
     1
  1
{\H0.95x;{○上記仕様は許容最大ハンドルトルク締込時の場合}}
 11
1.000000000000000
 21
0.0000000000000000
 31
0.0000000000000000
  7
KNJYOKO
  0
MTEXT
  5
482
100
AcDbEntity
  8
A0
  6
CONTINUOUS
 62
3
100
AcDbMText
 10
107.2959167669179
 20
81.08367410892218
 30
0.0000000000000000
 40
4.649999856948853
 41
0.0000000000000000
 71
     1
 72
     1
  1
{\H0.81x;{21.0}}
 11
1.000000000000000
 21
0.0000000000000000
 31
0.0000000000000000
  7
STANDARD
  0
MTEXT
  5
483
100
AcDbEntity
  8
A0
  6
CONTINUOUS
 62
3
100
AcDbMText
 10
107.2959167669179
 20
66.08367410892201
 30
0.0000000000000000
 40
4.649999856948853
 41
0.0000000000000000
 71
     1
 72
     1
  1
{\H0.91x;{5608}}
 11
1.000000000000000
 21
0.0000000000000000
 31
0.0000000000000000
  7
STANDARD
  0
MTEXT
  5
484
100
AcDbEntity
  8
A0
  6
CONTINUOUS
 62
3
100
AcDbMText
 10
102.7959167669179
 20
87.83367410892218
 30
0.0000000000000000
 40
4.649999856948853
 41
0.0000000000000000
 71
     1
 72
     1
  1
{\H0.90x;{206}}
 11
1.000000000000000
 21
0.0000000000000000
 31
0.0000000000000000
  7
STANDARD
  0
MTEXT
  5
485
100
AcDbEntity
  8
A0
  6
CONTINUOUS
 62
3
100
AcDbMText
 10
102.7959167669179
 20
72.83367410892201
 30
0.0000000000000000
 40
4.649999856948853
 41
0.0000000000000000
 71
     1
 72
     1
  1
{\H0.88x;{55}}
 11
1.000000000000000
 21
0.0000000000000000
 31
0.0000000000000000
  7
STANDARD
  0
MTEXT
  5
486
100
AcDbEntity
  8
A0
  6
CONTINUOUS
 62
3
100
AcDbMText
 10
102.7959167669179
 20
56.08367410892195
 30
0.0000000000000000
 40
4.649999856948853
 41
0.0000000000000000
 71
     1
 72
     1
  1
{\H0.88x;{43}}
 11
1.000000000000000
 21
0.0000000000000000
 31
0.0000000000000000
  7
STANDARD
  0
MTEXT
  5
487
100
AcDbEntity
  8
A0
  6
CONTINUOUS
 62
3
100
AcDbMText
 10
102.7959167668745
 20
30.58367410891712
 30
0.0000000000000000
 40
4.649999856948853
 41
0.0000000000000000
 71
     1
 72
     1
  1
{\H0.93x;{\U+220510～\U+2205300}}
 11
1.000000000000000
 21
0.0000000000000000
 31
0.0000000000000000
  7
KNJYOKO
  0
MTEXT
  5
488
100
AcDbEntity
  8
A0
  6
CONTINUOUS
 62
3
100
AcDbMText
 10
102.7959167668745
 20
20.08367410891707
 30
0.0000000000000000
 40
4.649999856948853
 41
0.0000000000000000
 71
     1
 72
     1
  1
{\H0.93x;{\U+220590～\U+2205290}}
 11
1.000000000000000
 21
0.0000000000000000
 31
0.0000000000000000
  7
KNJYOKO
  0
MTEXT
  5
489
100
AcDbEntity
  8
A0
  6
CONTINUOUS
 62
3
100
AcDbMText
 10
25.84889209729204
 20
24.08076134305053
 30
0.0000000000000000
 40
3.750000000000000
 41
0.0000000000000000
 71
     1
 72
     1
  1
{\H0.54x;{GRIPPING RANGE}}
 11
1.000000000000000
 21
0.0000000000000000
 31
0.0000000000000000
  7
STANDARD
  0
MTEXT
  5
48A
100
AcDbEntity
  8
A0
  6
CONTINUOUS
 62
3
100
AcDbMText
 10
37.48604395980055
 20
17.98231299461195
 30
0.0000000000000000
 40
4.500000000000000
 41
0.0000000000000000
 71
     1
 72
     1
  1
{\H0.63x;{(mm)}}
 11
1.000000000000000
 21
0.0000000000000000
 31
0.0000000000000000
  7
STANDARD
  0
MTEXT
  5
48B
100
AcDbEntity
  8
A0
  6
CONTINUOUS
 62
3
100
AcDbMText
 10
29.64788373196552
 20
31.66698811542089
 30
0.0000000000000000
 40
4.650000572204590
 41
0.0000000000000000
 71
     1
 72
     1
  1
{\H0.96x;{把握径}}
 11
1.000000000000000
 21
0.0000000000000000
 31
0.0000000000000000
  7
KNJYOKO
  0
MTEXT
  5
48C
100
AcDbEntity
  8
A0
  6
CONTINUOUS
 62
3
100
AcDbMText
 10
28.04077651057767
 20
45.24063243688546
 30
0.0000000000000000
 40
3.750000000000000
 41
0.0000000000000000
 71
     1
 72
     1
  1
{\H0.63x;{慣性モーメント\PMOMENT OF INERTIA\P}
 11
1.000000000000000
 21
0.0000000000000000
 31
0.0000000000000000
  7
KNJYOKO
  0
MTEXT
  5
48D
100
AcDbEntity
  8
A0
  6
CONTINUOUS
 62
3
100
AcDbMText
 10
28.04077651057767
 20
58.70380773584269
 30
0.0000000000000000
 40
3.750000000000000
 41
0.0000000000000000
 71
     1
 72
     1
  1
{\H0.63x;{質量\PMASS}}
 11
1.000000000000000
 21
0.0000000000000000
 31
0.0000000000000000
  7
KNJYOKO
  0
MTEXT
  5
48E
100
AcDbEntity
  8
A0
  6
CONTINUOUS
 62
3
100
AcDbMText
 10
28.54591676691746
 20
65.55867425200857
 30
0.0000000000000000
 40
3.750000000000000
 41
0.0000000000000000
 71
     1
 72
     1
  1
{\H0.63x;{MAX STATIC GRIPPING FORCE}}
 11
1.000000000000000
 21
0.0000000000000000
 31
0.0000000000000000
  7
STANDARD
  0
MTEXT
  5
48F
100
AcDbEntity
  8
A0
  6
CONTINUOUS
 62
3
100
AcDbMText
 10
28.54591676691950
 20
73.20867482422311
 30
0.0000000000000000
 40
4.650000572204590
 41
0.0000000000000000
 71
     1
 72
     1
  1
{\H0.94x;{最大静的把握力}}
 11
1.000000000000000
 21
0.0000000000000000
 31
0.0000000000000000
  7
KNJYOKO
  0
MTEXT
  5
490
100
AcDbEntity
  8
A0
  6
CONTINUOUS
 62
3
100
AcDbMText
 10
28.54591676691962
 20
88.20867482422749
 30
0.0000000000000000
 40
4.650000572204590
 41
0.0000000000000000
 71
     1
 72
     1
  1
{\H0.94x;{許容最大ハンドルトルク}}
 11
1.000000000000000
 21
0.0000000000000000
 31
0.0000000000000000
  7
KNJYOKO
  0
MTEXT
  5
491
100
AcDbEntity
  8
A0
  6
CONTINUOUS
 62
3
100
AcDbMText
 10
28.54591676691746
 20
80.55867425201301
 30
0.0000000000000000
 40
3.750000000000000
 41
0.0000000000000000
 71
     1
 72
     1
  1
{\H0.62x;{MAX.PERMISSIBLE HANDLE TORQUE}}
 11
1.000000000000000
 21
0.0000000000000000
 31
0.0000000000000000
  7
STANDARD
  0
LINE
  5
492
100
AcDbEntity
  8
A0
  6
CONTINUOUS
 62
3
100
AcDbLine
 10
24.79591676691782
 20
74.93367425201295
 30
0.0000000000000000
 11
144.7959167669178
 21
74.93367425204023
 31
0.0000000000000000
  0
LINE
  5
493
100
AcDbEntity
  8
A0
  6
CONTINUOUS
 62
3
100
AcDbLine
 10
24.79591676691768
 20
59.93367425200860
 30
0.0000000000000000
 11
144.7959167669177
 21
59.93367425203286
 31
0.0000000000000000
  0
LINE
  5
494
100
AcDbEntity
  8
A0
  6
CONTINUOUS
 62
3
100
AcDbLine
 10
24.79591676691776
 20
48.43367425200260
 30
0.0000000000000000
 11
144.7959167669180
 21
48.43367425202273
 31
0.0000000000000000
  0
LINE
  5
495
100
AcDbEntity
  8
A0
  6
CONTINUOUS
 62
3
100
AcDbLine
 10
24.79591676691799
 20
33.43367425196831
 30
0.0000000000000000
 11
144.7959167669179
 21
33.43367425196836
 31
0.0000000000000000
  0
MTEXT
  5
496
100
AcDbEntity
  8
A0
  6
CONTINUOUS
 62
3
100
AcDbMText
 10
55.25958688292292
 20
32.91028437675213
 30
0.0000000000000000
 40
3.750000000000000
 41
0.0000000000000000
 71
     1
 72
     1
  1
{\H0.60x;{OUTER DIA.\PGRIPPING}}
 11
1.000000000000000
 21
0.0000000000000000
 31
0.0000000000000000
  7
STANDARD
  0
LINE
  5
497
100
AcDbEntity
  8
A0
  6
CONTINUOUS
 62
3
100
AcDbLine
 10
54.04591676691791
 20
12.43367425196833
 30
0.0000000000000000
 11
54.04591676691791
 21
33.43367425196827
 31
0.0000000000000000
  0
LINE
  5
498
100
AcDbEntity
  8
A0
  6
CONTINUOUS
 62
3
100
AcDbLine
 10
24.79591676691799
 20
12.43367425196821
 30
0.0000000000000000
 11
144.7959167669180
 21
12.43367425196830
 31
0.0000000000000000
  0
MTEXT
  5
499
100
AcDbEntity
  8
A0
  6
CONTINUOUS
 62
3
100
AcDbMText
 10
55.18197274014665
 20
22.27720575341429
 30
0.0000000000000000
 40
3.750000000000000
 41
0.0000000000000000
 71
     1
 72
     1
  1
{\H0.60x;{INNER DIA.\PGRIPPING}}
 11
1.000000000000000
 21
0.0000000000000000
 31
0.0000000000000000
  7
STANDARD
  0
LINE
  5
49A
100
AcDbEntity
  8
A0
  6
CONTINUOUS
 62
3
100
AcDbLine
 10
54.04591676691802
 20
22.93367425196820
 30
0.0000000000000000
 11
144.7959167669178
 21
22.93367425196828
 31
0.0000000000000000
  0
MTEXT
  5
49B
100
AcDbEntity
  8
A0
  6
CONTINUOUS
 62
3
100
AcDbMText
 10
78.62131714400584
 20
19.91742929486325
 30
0.0000000000000000
 40
4.649999856948853
 41
0.0000000000000000
 71
     1
 72
     1
  1
{\H0.92x;{内径把握}}
 11
1.000000000000000
 21
0.0000000000000000
 31
0.0000000000000000
  7
KNJYOKO
  0
MTEXT
  5
49C
100
AcDbEntity
  8
A0
  6
CONTINUOUS
 62
3
100
AcDbMText
 10
78.62131714400584
 20
30.62812206097725
 30
0.0000000000000000
 40
4.649999856948853
 41
0.0000000000000000
 71
     1
 72
     1
  1
{\H0.92x;{外径把握}}
 11
1.000000000000000
 21
0.0000000000000000
 31
0.0000000000000000
  7
KNJYOKO
  0
LINE
  5
49D
100
AcDbEntity
  8
A0
  6
CONTINUOUS
 62
3
100
AcDbLine
 10
99.79591676691791
 20
12.43367425196827
 30
0.0000000000000000
 11
99.79591676691791
 21
89.93367425204387
 31
0.0000000000000000
  0
LINE
  5
49E
100
AcDbEntity
  8
A0
  6
CONTINUOUS
 62
3
100
AcDbLine
 10
144.7959167669179
 20
12.43367425196830
 30
0.0000000000000000
 11
144.7959167669179
 21
110.4336742519733
 31
0.0000000000000000
  0
MTEXT
  5
49F
100
AcDbEntity
  8
A0
  6
CONTINUOUS
 62
3
100
AcDbMText
 10
122.2959167669179
 20
54.13367310756392
 30
0.0000000000000000
 40
4.199998855590820
 41
0.0000000000000000
 71
     1
 72
     1
  1
{\H0.58x;{　　　　ｋｇ}}
 11
1.000000000000000
 21
0.0000000000000000
 31
0.0000000000000000
  7
KNJYOKO
  0
MTEXT
  5
4A0
100
AcDbEntity
  8
A0
  6
CONTINUOUS
 62
3
100
AcDbMText
 10
102.7959167669179
 20
64.88367310756398
 30
0.0000000000000000
 40
4.199998855590820
 41
0.0000000000000000
 71
     1
 72
     1
  1
{\H0.48x;{（}}
 11
1.000000000000000
 21
0.0000000000000000
 31
0.0000000000000000
  7
KNJYOKO
  0
MTEXT
  5
4A1
100
AcDbEntity
  8
A0
  6
CONTINUOUS
 62
3
100
AcDbMText
 10
120.7959167669179
 20
64.88367310756398
 30
0.0000000000000000
 40
4.199998855590820
 41
0.0000000000000000
 71
     1
 72
     1
  1
{\H0.58x;{　　　ｋｇｆ）}}
 11
1.000000000000000
 21
0.0000000000000000
 31
0.0000000000000000
  7
KNJYOKO
  0
MTEXT
  5
4A2
100
AcDbEntity
  8
A0
  6
CONTINUOUS
 62
3
100
AcDbMText
 10
122.2959167669179
 20
70.88367310756398
 30
0.0000000000000000
 40
4.199998855590820
 41
0.0000000000000000
 71
     1
 72
     1
  1
{\H0.58x;{　　　　ｋＮ}}
 11
1.000000000000000
 21
0.0000000000000000
 31
0.0000000000000000
  7
KNJYOKO
  0
MTEXT
  5
4A3
100
AcDbEntity
  8
A0
  6
CONTINUOUS
 62
3
100
AcDbMText
 10
120.7959167669179
 20
79.88367310756415
 30
0.0000000000000000
 40
4.199998855590820
 41
0.0000000000000000
 71
     1
 72
     1
  1
{\H0.58x;{　ｋｇｆ・ｍ）}}
 11
1.000000000000000
 21
0.0000000000000000
 31
0.0000000000000000
  7
KNJYOKO
  0
MTEXT
  5
4A4
100
AcDbEntity
  8
A0
  6
CONTINUOUS
 62
3
100
AcDbMText
 10
122.2959167669179
 20
85.88367310756415
 30
0.0000000000000000
 40
4.199998855590820
 41
0.0000000000000000
 71
     1
 72
     1
  1
{\H0.58x;{　　　Ｎ・ｍ}}
 11
1.000000000000000
 21
0.0000000000000000
 31
0.0000000000000000
  7
KNJYOKO
  0
MTEXT
  5
4A5
100
AcDbEntity
  8
A0
  6
CONTINUOUS
 62
3
100
AcDbMText
 10
102.7959167669179
 20
79.88367310756415
 30
0.0000000000000000
 40
4.199998855590820
 41
0.0000000000000000
 71
     1
 72
     1
  1
{\H0.48x;{（}}
 11
1.000000000000000
 21
0.0000000000000000
 31
0.0000000000000000
  7
KNJYOKO
  0
MTEXT
  5
4A6
100
AcDbEntity
  8
A0
  6
CONTINUOUS
 62
3
100
AcDbMText
 10
50.25400496921057
 20
97.42424294767433
 30
0.0000000000000000
 40
4.649999856948853
 41
0.0000000000000000
 71
     1
 72
     1
  1
{\H0.93x;{SPECIFICATIONS}}
 11
1.000000000000000
 21
0.0000000000000000
 31
0.0000000000000000
  7
STANDARD
  0
LINE
  5
4A7
100
AcDbEntity
  8
A0
  6
CONTINUOUS
 62
3
100
AcDbLine
 10
24.79591676691776
 20
89.93367425202291
 30
0.0000000000000000
 11
144.7959167669177
 21
89.93367425205719
 31
0.0000000000000000
  0
LINE
  5
4A8
100
AcDbEntity
  8
A0
  6
CONTINUOUS
 62
3
100
AcDbLine
 10
24.79591676691783
 20
110.4336742520258
 30
0.0000000000000000
 11
144.7959167669179
 21
110.4336742520622
 31
0.0000000000000000
  0
MTEXT
  5
4A9
100
AcDbEntity
  8
A0
  6
CONTINUOUS
 62
3
100
AcDbMText
 10
65.23597284179866
 20
108.7423078558717
 30
0.0000000000000000
 40
7.500000000000000
 41
0.0000000000000000
 71
     1
 72
     1
  1
{\H0.91x;{仕　様}}
 11
1.000000000000000
 21
0.0000000000000000
 31
0.0000000000000000
  7
KNJYOKO
  0
LINE
  5
4AA
100
AcDbEntity
  8
A0
  6
CONTINUOUS
 62
3
100
AcDbLine
 10
24.79591676691791
 20
12.43367425196821
 30
0.0000000000000000
 11
24.79591676691791
 21
110.4336742519733
 31
0.0000000000000000
  0
MTEXT
  5
4AB
100
AcDbEntity
  8
A0
  6
CONTINUOUS
 62
3
100
AcDbMText
 10
102.7959167669179
 20
44.33367410892195
 30
0.0000000000000000
 40
4.649999856948853
 41
0.0000000000000000
 71
     1
 72
     1
  1
{\H0.84x;{0.588}}
 11
1.000000000000000
 21
0.0000000000000000
 31
0.0000000000000000
  7
STANDARD
  0
MTEXT
  5
4AC
100
AcDbEntity
  8
A0
  6
CONTINUOUS
 62
3
100
AcDbMText
 10
175.2959167669180
 20
35.08367410886928
 30
0.0000000000000000
 40
4.649999856948853
 41
0.0000000000000000
 71
     1
 72
     1
  1
{\H0.71x;{This scroll chuck is suitable for}}
 11
1.000000000000000
 21
0.0000000000000000
 31
0.0000000000000000
  7
STANDARD
  0
MTEXT
  5
4AD
100
AcDbEntity
  8
A0
  6
CONTINUOUS
 62
3
100
AcDbMText
 10
175.2959167669180
 20
27.58367410886928
 30
0.0000000000000000
 40
4.649999856948853
 41
0.0000000000000000
 71
     1
 72
     1
  1
{\H0.71x;{gripping a workpiece on the rotary}}
 11
1.000000000000000
 21
0.0000000000000000
 31
0.0000000000000000
  7
STANDARD
  0
MTEXT
  5
4AE
100
AcDbEntity
  8
A0
  6
CONTINUOUS
 62
3
100
AcDbMText
 10
175.2959167669180
 20
20.08367410886936
 30
0.0000000000000000
 40
4.649999856948853
 41
0.0000000000000000
 71
     1
 72
     1
  1
{\H0.69x;{tables. For any other applications,}}
 11
1.000000000000000
 21
0.0000000000000000
 31
0.0000000000000000
  7
STANDARD
  0
INSERT
  5
4BB
100
AcDbEntity
  8
A0
  6
CONTINUOUS
 62
3
100
AcDbBlockReference
  2
M1
 10
0.0000000000000000
 20
0.0000000000000000
 30
0.0000000000000000
 50
0.0000000000000000
  0
MTEXT
  5
4BC
100
AcDbEntity
  8
A0
  6
CONTINUOUS
 62
3
100
AcDbMText
 10
175.2959167669180
 20
12.58367410886936
 30
0.0000000000000000
 40
4.649999856948853
 41
0.0000000000000000
 71
     1
 72
     1
  1
{\H0.69x;{please contact us.}}
 11
1.000000000000000
 21
0.0000000000000000
 31
0.0000000000000000
  7
STANDARD
  0
MTEXT
  5
4BD
100
AcDbEntity
  8
A0
  6
CONTINUOUS
 62
3
100
AcDbMText
 10
24.60572949615269
 20
2.904645623039002
 30
0.0000000000000000
 40
4.500000000000000
 41
0.0000000000000000
 71
     1
 72
     1
  1
{\H0.63x;{ABOVE SPECS :AT MAX PERMISSIBLE HANDLE TORQUE}}
 11
1.000000000000000
 21
0.0000000000000000
 31
0.0000000000000000
  7
STANDARD
  0
LINE
  5
4BE
100
AcDbEntity
  8
WAKU0
  6
CONTINUOUS
 62
3
100
AcDbLine
 10
412.0000000000000
 20
51.00000000000000
 30
0.0000000000000000
 11
582.0000000000000
 21
51.00000000000000
 31
0.0000000000000000
  0
LINE
  5
4BF
100
AcDbEntity
  8
WAKU0
  6
CONTINUOUS
 62
3
100
AcDbLine
 10
412.0000000000000
 20
51.00000000000000
 30
0.0000000000000000
 11
412.0000000000000
 21
12.00000000000000
 31
0.0000000000000000
  0
LINE
  5
4C0
100
AcDbEntity
  8
WAKU0
  6
CONTINUOUS
 62
3
100
AcDbLine
 10
484.0000000000000
 20
51.00000000000000
 30
0.0000000000000000
 11
484.0000000000000
 21
12.00000000000000
 31
0.0000000000000000
  0
LINE
  5
4C1
100
AcDbEntity
  8
WAKU0
  6
CONTINUOUS
 62
3
100
AcDbLine
 10
504.0000000000000
 20
51.00000000000000
 30
0.0000000000000000
 11
504.0000000000000
 21
12.00000000000000
 31
0.0000000000000000
  0
LINE
  5
4C2
100
AcDbEntity
  8
WAKU0
  6
CONTINUOUS
 62
3
100
AcDbLine
 10
516.0000000000000
 20
51.00000000000000
 30
0.0000000000000000
 11
516.0000000000000
 21
12.00000000000000
 31
0.0000000000000000
  0
LINE
  5
4C3
100
AcDbEntity
  8
WAKU0
  6
CONTINUOUS
 62
3
100
AcDbLine
 10
516.0000000000000
 20
37.00000000000000
 30
0.0000000000000000
 11
582.0000000000000
 21
37.00000000000000
 31
0.0000000000000000
  0
LINE
  5
4C4
100
AcDbEntity
  8
WAKU0
  6
CONTINUOUS
 62
3
100
AcDbLine
 10
504.0000000000000
 20
23.00000000000000
 30
0.0000000000000000
 11
582.0000000000000
 21
23.00000000000000
 31
0.0000000000000000
  0
LINE
  5
4C5
100
AcDbEntity
  8
WAKU0
  6
CONTINUOUS
 62
3
100
AcDbLine
 10
547.0000000000000
 20
51.00000000000000
 30
0.0000000000000000
 11
547.0000000000000
 21
44.00000000000000
 31
0.0000000000000000
  0
LINE
  5
4C6
100
AcDbEntity
  8
WAKU0
  6
CONTINUOUS
 62
3
100
AcDbLine
 10
559.0000000000000
 20
51.00000000000000
 30
0.0000000000000000
 11
559.0000000000000
 21
44.00000000000000
 31
0.0000000000000000
  0
LINE
  5
4C7
100
AcDbEntity
  8
WAKU0
  6
CONTINUOUS
 62
3
100
AcDbLine
 10
484.0000000000000
 20
31.50000000000000
 30
0.0000000000000000
 11
504.0000000000000
 21
31.50000000000000
 31
0.0000000000000000
  0
LINE
  5
4C8
100
AcDbEntity
  8
WAKU0
  6
CONTINUOUS
 62
3
100
AcDbLine
 10
504.0000000000000
 20
44.00000000000000
 30
0.0000000000000000
 11
582.0000000000000
 21
44.00000000000000
 31
0.0000000000000000
  0
LINE
  5
4C9
100
AcDbEntity
  8
WAKU0
  6
CONTINUOUS
 62
3
100
AcDbLine
 10
412.0000000000000
 20
37.00000000000000
 30
0.0000000000000000
 11
484.0000000000000
 21
37.00000000000000
 31
0.0000000000000000
  0
LINE
  5
4CA
100
AcDbEntity
  8
WAKU0
  6
CONTINUOUS
 62
3
100
AcDbLine
 10
412.0000000000000
 20
23.00000000000000
 30
0.0000000000000000
 11
484.0000000000000
 21
23.00000000000000
 31
0.0000000000000000
  0
LINE
  5
4CB
100
AcDbEntity
  8
WAKU0
  6
CONTINUOUS
 62
3
100
AcDbLine
 10
460.0000000000000
 20
37.00000000000000
 30
0.0000000000000000
 11
460.0000000000000
 21
12.00000000000000
 31
0.0000000000000000
  0
LINE
  5
4CC
100
AcDbEntity
  8
WAKU0
  6
CONTINUOUS
 62
3
100
AcDbLine
 10
436.0000000000000
 20
37.00000000000000
 30
0.0000000000000000
 11
436.0000000000000
 21
23.00000000000000
 31
0.0000000000000000
  0
LINE
  5
4CD
100
AcDbEntity
  8
WAKU0
  6
CONTINUOUS
 62
3
100
AcDbLine
 10
472.0000000000000
 20
26.00000000000000
 30
0.0000000000000000
 11
472.0000000000000
 21
23.00000000000000
 31
0.0000000000000000
  0
LINE
  5
4CE
100
AcDbEntity
  8
WAKU0
  6
CONTINUOUS
 62
3
100
AcDbLine
 10
448.0000000000000
 20
26.00000000000000
 30
0.0000000000000000
 11
448.0000000000000
 21
23.00000000000000
 31
0.0000000000000000
  0
LINE
  5
4CF
100
AcDbEntity
  8
WAKU0
  6
CONTINUOUS
 62
3
100
AcDbLine
 10
424.0000000000000
 20
26.00000000000000
 30
0.0000000000000000
 11
424.0000000000000
 21
23.00000000000000
 31
0.0000000000000000
  0
LINE
  5
4D0
100
AcDbEntity
  8
WAKU0
  6
CONTINUOUS
 62
3
100
AcDbLine
 10
430.0000000000000
 20
51.00000000000000
 30
0.0000000000000000
 11
430.0000000000000
 21
37.00000000000000
 31
0.0000000000000000
  0
LINE
  5
4D1
100
AcDbEntity
  8
WAKU0
  6
CONTINUOUS
 62
3
100
AcDbLine
 10
412.0000000000000
 20
45.00000000000000
 30
0.0000000000000000
 11
484.0000000000000
 21
45.00000000000000
 31
0.0000000000000000
  0
LINE
  5
4D2
100
AcDbEntity
  8
WAKU0
  6
HIDDEN
 62
3
100
AcDbLine
 10
532.5000000000000
 20
23.00000000000000
 30
0.0000000000000000
 11
532.5000000000000
 21
12.00000000000000
 31
0.0000000000000000
  0
LINE
  5
4D3
100
AcDbEntity
  8
WAKU0
  6
HIDDEN
 62
3
100
AcDbLine
 10
544.9000000000000
 20
23.00000000000000
 30
0.0000000000000000
 11
544.9000000000000
 21
12.00000000000000
 31
0.0000000000000000
  0
MTEXT
  5
4D4
100
AcDbEntity
  8
WAKU0
  6
CONTINUOUS
 62
3
100
AcDbMText
 10
516.4820000243485
 20
49.04999995231628
 30
0.0000000000000000
 40
3.099999904632568
 41
0.0000000000000000
 71
     1
 72
     1
  1
{\H0.92x;{JN12TN}}
 11
1.000000000000000
 21
0.0000000000000000
 31
0.0000000000000000
  7
STANDARD
  0
MTEXT
  5
4D5
100
AcDbEntity
  8
WAKU0
  6
CONTINUOUS
 62
3
100
AcDbMText
 10
516.4659999916852
 20
43.50000000000000
 30
0.0000000000000000
 40
3.000000000000000
 41
0.0000000000000000
 71
     1
 72
     1
  1
{\H0.94x;{スクロールチャック　１２\PＳＣＲＯＬＬ　ＣＨＵＣＫ　１２}}
 11
1.000000000000000
 21
0.0000000000000000
 31
0.0000000000000000
  7
KNJYOKO
  0
MTEXT
  5
4D6
100
AcDbEntity
  8
WAKU0
  6
CONTINUOUS
 62
3
100
AcDbMText
 10
516.4000000059605
 20
34.23333326975504
 30
0.0000000000000000
 40
3.099999904632568
 41
0.0000000000000000
 71
     1
 72
     1
  1
{\H0.70x;{ＪＮ１２ＴＮ　ガイケイ\PＪＮ１２ＴＮ　ＯＵＴＳＩＤＥ　ＶＩＥＷ}}
 11
1.000000000000000
 21
0.0000000000000000
 31
0.0000000000000000
  7
KNJYOKO
  0
MTEXT
  5
4D7
100
AcDbEntity
  8
WAKU0
  6
CONTINUOUS
 62
3
100
AcDbMText
 10
490.0049998760223
 20
39.29999995231628
 30
0.0000000000000000
 40
3.099999904632568
 41
0.0000000000000000
 71
     1
 72
     1
  1
{\H0.90x;{2:3}}
 11
1.000000000000000
 21
0.0000000000000000
 31
0.0000000000000000
  7
STANDARD
  0
MTEXT
  5
4D8
100
AcDbEntity
  8
WAKU0
  6
CONTINUOUS
 62
3
100
AcDbMText
 10
546.4000001549721
 20
20.15000009536743
 30
0.0000000000000000
 40
5.300000190734863
 41
0.0000000000000000
 71
     1
 72
     1
  1
{\H0.90x;{6863}}
 11
1.000000000000000
 21
0.0000000000000000
 31
0.0000000000000000
  7
STANDARD
  0
MTEXT
  5
4D9
100
AcDbEntity
  8
WAKU0
  6
CONTINUOUS
 62
3
100
AcDbMText
 10
534.3000000834466
 20
20.15000009536743
 30
0.0000000000000000
 40
5.300000190734863
 41
0.0000000000000000
 71
     1
 72
     1
  1
{\H0.87x;{28}}
 11
1.000000000000000
 21
0.0000000000000000
 31
0.0000000000000000
  7
STANDARD
  0
MTEXT
  5
4DA
100
AcDbEntity
  8
WAKU0
  6
CONTINUOUS
 62
3
100
AcDbMText
 10
517.5000001192093
 20
20.15000009536743
 30
0.0000000000000000
 40
5.300000190734863
 41
0.0000000000000000
 71
     1
 72
     1
  1
{\H0.89x;{61S}}
 11
1.000000000000000
 21
0.0000000000000000
 31
0.0000000000000000
  7
STANDARD
  0
MTEXT
  5
4DB
100
AcDbEntity
  8
WAKU0
  6
CONTINUOUS
 62
3
100
AcDbMText
 10
572.0000000476837
 20
20.15000009536743
 30
0.0000000000000000
 40
5.300000190734863
 41
0.0000000000000000
 71
     1
 72
     1
  1
{\H0.81x;{0}}
 11
1.000000000000000
 21
0.0000000000000000
 31
0.0000000000000000
  7
STANDARD
  0
MTEXT
  5
4DC
100
AcDbEntity
  8
WAKU0
  6
CONTINUOUS
 62
3
100
AcDbMText
 10
572.0000000819564
 20
44.84999990463257
 30
0.0000000000000000
 40
5.300000190734863
 41
0.0000000000000000
 71
     7
 72
     1
  1
{\H0.81x;{ }}
 11
1.000000000000000
 21
0.0000000000000000
 31
0.0000000000000000
  7
STANDARD
  0
MTEXT
  5
4DD
100
AcDbEntity
  8
WAKU0
  6
CONTINUOUS
 62
3
100
AcDbMText
 10
461.3850002884865
 20
33.00000000000000
 30
0.0000000000000000
 40
3.000000000000000
 41
0.0000000000000000
 71
     7
 72
     1
  1
{\H0.93x;{DRAWN BY}}
 11
1.000000000000000
 21
0.0000000000000000
 31
0.0000000000000000
  7
STANDARD
  0
MTEXT
  5
4DE
100
AcDbEntity
  8
WAKU0
  6
CONTINUOUS
 62
3
100
AcDbMText
 10
441.2149997949600
 20
32.95000004768372
 30
0.0000000000000000
 40
3.099999904632568
 41
0.0000000000000000
 71
     7
 72
     1
  1
{\H0.92x;{CHIEF}}
 11
1.000000000000000
 21
0.0000000000000000
 31
0.0000000000000000
  7
STANDARD
  0
MTEXT
  5
4DF
100
AcDbEntity
  8
WAKU0
  6
CONTINUOUS
 62
3
100
AcDbMText
 10
414.4249997138977
 20
32.95000004768372
 30
0.0000000000000000
 40
3.099999904632568
 41
0.0000000000000000
 71
     7
 72
     1
  1
{\H0.92x;{MANAGER}}
 11
1.000000000000000
 21
0.0000000000000000
 31
0.0000000000000000
  7
STANDARD
  0
MTEXT
  5
4E0
100
AcDbEntity
  8
WAKU0
  6
CONTINUOUS
 62
3
100
AcDbMText
 10
413.0850002169609
 20
46.50000000000000
 30
0.0000000000000000
 40
3.000000000000000
 41
0.0000000000000000
 71
     7
 72
     1
  1
{\H0.92x;{CAREER}}
 11
1.000000000000000
 21
0.0000000000000000
 31
0.0000000000000000
  7
STANDARD
  0
MTEXT
  5
4E1
100
AcDbEntity
  8
WAKU0
  6
CONTINUOUS
 62
3
100
AcDbMText
 10
466.6099998354912
 20
18.95000004768372
 30
0.0000000000000000
 40
3.099999904632568
 41
0.0000000000000000
 71
     7
 72
     1
  1
{\H0.91x;{DATE}}
 11
1.000000000000000
 21
0.0000000000000000
 31
0.0000000000000000
  7
STANDARD
  0
MTEXT
  5
4E2
100
AcDbEntity
  8
WAKU0
  6
CONTINUOUS
 62
3
100
AcDbMText
 10
485.9000002145767
 20
26.50000000000000
 30
0.0000000000000000
 40
3.000000000000000
 41
0.0000000000000000
 71
     7
 72
     1
  1
{\H0.63x;{3RD ANGLE}}
 11
1.000000000000000
 21
0.0000000000000000
 31
0.0000000000000000
  7
STANDARD
  0
MTEXT
  5
4E3
100
AcDbEntity
  8
WAKU0
  6
CONTINUOUS
 62
3
100
AcDbMText
 10
487.2149997949600
 20
45.95000004768372
 30
0.0000000000000000
 40
3.099999904632568
 41
0.0000000000000000
 71
     7
 72
     1
  1
{\H0.92x;{SCALE}}
 11
1.000000000000000
 21
0.0000000000000000
 31
0.0000000000000000
  7
STANDARD
  0
MTEXT
  5
4E4
100
AcDbEntity
  8
WAKU0
  6
CONTINUOUS
 62
3
100
AcDbMText
 10
577.7000000476837
 20
46.00000000000000
 30
0.0000000000000000
 40
3.000000000000000
 41
0.0000000000000000
 71
     7
 72
     1
  1
{\H0.63x;{kg}}
 11
1.000000000000000
 21
0.0000000000000000
 31
0.0000000000000000
  7
STANDARD
  0
MTEXT
  5
4E5
100
AcDbEntity
  8
WAKU0
  6
CONTINUOUS
 62
3
100
AcDbMText
 10
547.6000001430512
 20
46.00000000000000
 30
0.0000000000000000
 40
3.000000000000000
 41
0.0000000000000000
 71
     7
 72
     1
  1
{\H0.63x;{WEIGHT}}
 11
1.000000000000000
 21
0.0000000000000000
 31
0.0000000000000000
  7
STANDARD
  0
MTEXT
  5
4E6
100
AcDbEntity
  8
WAKU0
  6
CONTINUOUS
 62
3
100
AcDbMText
 10
506.0049998760223
 20
18.13333336512248
 30
0.0000000000000000
 40
3.099999904632568
 41
0.0000000000000000
 71
     7
 72
     1
  1
{\H0.90x;{DRW\PNO.}}
 11
1.000000000000000
 21
0.0000000000000000
 31
0.0000000000000000
  7
STANDARD
  0
MTEXT
  5
4E7
100
AcDbEntity
  8
WAKU0
  6
CONTINUOUS
 62
3
100
AcDbMText
 10
504.6099998354912
 20
31.95000004768372
 30
0.0000000000000000
 40
3.099999904632568
 41
0.0000000000000000
 71
     7
 72
     1
  1
{\H0.91x;{NAME}}
 11
1.000000000000000
 21
0.0000000000000000
 31
0.0000000000000000
  7
STANDARD
  0
MTEXT
  5
4E8
100
AcDbEntity
  8
WAKU0
  6
CONTINUOUS
 62
3
100
AcDbMText
 10
504.6099998354912
 20
45.95000004768372
 30
0.0000000000000000
 40
3.099999904632568
 41
0.0000000000000000
 71
     7
 72
     1
  1
{\H0.91x;{TYPE}}
 11
1.000000000000000
 21
0.0000000000000000
 31
0.0000000000000000
  7
STANDARD
  0
LINE
  5
4E9
100
AcDbEntity
  8
WAKU0
  6
HIDDEN
 62
3
100
AcDbLine
 10
579.1599564743885
 20
13.84999990463257
 30
0.0000000000000000
 11
568.9400436209789
 21
13.84999990463257
 31
0.0000000000000000
  0
LINE
  5
4EA
100
AcDbEntity
  8
WAKU0
  6
HIDDEN
 62
3
100
AcDbLine
 10
579.1599564743885
 20
13.84999990463250
 30
0.0000000000000000
 11
574.0500000476851
 21
22.70070406014901
 31
0.0000000000000000
  0
LINE
  5
4EB
100
AcDbEntity
  8
WAKU0
  6
HIDDEN
 62
3
100
AcDbLine
 10
574.0500000476851
 20
22.70070406014902
 30
0.0000000000000000
 11
568.9400436209789
 21
13.84999990463248
 31
0.0000000000000000
  0
MTEXT
  5
4EC
100
AcDbEntity
  8
WAKU0
  6
CONTINUOUS
 62
3
100
AcDbMText
 10
419.0000009614873
 20
20.63471521698214
 30
0.0000000000000000
 40
3.140094041824341
 41
0.0000000000000000
 71
     1
 72
     1
  1
{\H0.83x;{Ｋｉｔａｇａｗａ\PＣｏｒｐｏｒａｔｉｏｎ}}
 11
1.000000000000000
 21
0.0000000000000000
 31
0.0000000000000000
  7
KNJYOKO
  0
LINE
  5
4ED
100
AcDbEntity
  8
WAKU0
  6
CONTINUOUS
 62
3
100
AcDbLine
 10
502.4713877753800
 20
15.78041421262812
 30
0.0000000000000000
 11
502.4713877753800
 21
21.78041421262815
 31
0.0000000000000000
  0
LINE
  5
4EE
100
AcDbEntity
  8
WAKU0
  6
CONTINUOUS
 62
3
100
AcDbLine
 10
495.9336941228225
 20
17.28041421262811
 30
0.0000000000000000
 11
495.9336941228225
 21
20.28041421262824
 31
0.0000000000000000
  0
LINE
  5
4EF
100
AcDbEntity
  8
WAKU0
  6
CENTER
 62
12
100
AcDbLine
 10
485.4321805514995
 20
18.78041421262813
 30
0.0000000000000000
 11
503.2765788964694
 21
18.78041421262813
 31
0.0000000000000000
  0
LINE
  5
4F0
100
AcDbEntity
  8
WAKU0
  6
CENTER
 62
12
100
AcDbLine
 10
489.4474565857986
 20
14.55921662918448
 30
0.0000000000000000
 11
489.4474565857986
 21
22.89865102149943
 31
0.0000000000000000
  0
LINE
  5
4F1
100
AcDbEntity
  8
WAKU0
  6
CONTINUOUS
 62
3
100
AcDbLine
 10
495.9336941228225
 20
20.28041421262797
 30
0.0000000000000000
 11
502.4713877753800
 21
21.78041421262795
 31
0.0000000000000000
  0
LINE
  5
4F2
100
AcDbEntity
  8
WAKU0
  6
CONTINUOUS
 62
3
100
AcDbLine
 10
495.9336941228225
 20
17.28041421262811
 30
0.0000000000000000
 11
502.4713877753799
 21
15.78041421262812
 31
0.0000000000000000
  0
CIRCLE
  5
4F3
100
AcDbEntity
  8
WAKU0
  6
CONTINUOUS
 62
3
100
AcDbCircle
 10
489.4474565857986
 20
18.78041421262813
 30
0.0000000000000000
 40
1.499999999999972
  0
CIRCLE
  5
4F4
100
AcDbEntity
  8
WAKU0
  6
CONTINUOUS
 62
3
100
AcDbCircle
 10
489.4474565857986
 20
18.78041421262813
 30
0.0000000000000000
 40
2.999999999999979
  0
ENDSEC
  0
SECTION
  2
OBJECTS
  0
DICTIONARY
  5
550
100
AcDbDictionary
  3
ACAD_GROUP
350
551
  3
ACAD_MLINESTYLE
350
552
  0
DICTIONARY
  5
551
102
{ACAD_REACTORS
330
550
102
}
100
AcDbDictionary
  0
DICTIONARY
  5
552
102
{ACAD_REACTORS
330
550
102
}
100
AcDbDictionary
  3
STANDARD
350
553
  0
MLINESTYLE
  5
553
102
{ACAD_REACTORS
330
552
102
}
100
AcDbMlineStyle
  2
STANDARD
 70
     0
  3

 62
   256
 51
90.00
 52
90.00
 71
     2
 49
0.50
 62
   256
  6
BYLAYER
 49
-0.50
 62
   256
  6
BYLAYER
  0
ENDSEC
  0
EOF
