  0
SECTION
  2
HEADER
  9
$ACADVER
  1
AC1014
  9
$DWGCODEPAGE
  3
ANSI_932
  9
$LTSCALE
 40
20.0
  9
$FILLMODE
 70
     1
  9
$CLAYER
  8
0
  9
$PDMODE
 70
     0
  9
$SPLFRAME
 70
     0
  9
$SPLINETYPE
 70
     6
  9
$SPLINESEGS
 70
     8
  9
$DIMASZ
 40
2.000000
  9
$DIMEXE
 40
2.000000
  9
$DIMEXO
 40
0.800000
  9
$DIMTAD
 70
     1
  9
$DIMTIH
 70
     0
  9
$DIMTOH
 70
     0
  9
$DIMTVP
 40
0.500000
  9
$DIMTXT
 40
3.100000
  9
$EXTMIN
 10
0.000000
 20
0.000000
 30
0.000000
  9
$EXTMAX
 10
297.000000
 20
420.000000
 30
0.000000
  9
$MEASUREMENT
 70
  1
  9
$LIMMIN
 10
0.000000
 20
0.000000
  9
$LIMMAX
 10
297.000000
 20
420.000000
  9
$HANDLING
 70
     1
  9
$HANDSEED
  5
439
  9
$DIMBLK
  1
_OPEN
  9
$DIMDEC
 70
     3
  9
$DIMAUNIT
 70
     1
  9
$DIMZIN
 70
     8
  9
$DIMTOFL
 70
     1
  0
ENDSEC
  0
SECTION
  2
CLASSES
  0
ENDSEC
  0
SECTION
  2
TABLES
  0
TABLE
  2
VPORT
  5
3DF
100
AcDbSymbolTable
 70
     1
  0
VPORT
  5
3E0
100
AcDbSymbolTableRecord
100
AcDbViewportTableRecord
  2
*ACTIVE
 70
     0
 12
265.918924
 22
147.215884
 40
326.866796
 41
1.386814
  0
ENDTAB
  0
TABLE
  2
LTYPE
  5
3E1
100
AcDbSymbolTable
 70
     4
  0
LTYPE
  5
3E2
100
AcDbSymbolTableRecord
100
AcDbLinetypeTableRecord
  2
BYBLOCK
 70
     0
  3

 72
    65
 73
     0
 40
0.0
  0
LTYPE
  5
3E3
100
AcDbSymbolTableRecord
100
AcDbLinetypeTableRecord
  2
BYLAYER
 70
     0
  3

 72
    65
 73
     0
 40
0.0
  0
LTYPE
  5
3E4
100
AcDbSymbolTableRecord
100
AcDbLinetypeTableRecord
  2
CONTINUOUS
 70
     0
  3
Solid line (NEC CAE2D for Win R12.1 : 2019.02.19)
 72
    65
 73
     0
 40
0.0
  0
LTYPE
  5
3E5
100
AcDbSymbolTableRecord
100
AcDbLinetypeTableRecord
  2
HIDDEN
 70
     0
  3
__ __ __ __ __ __ __ __ __ __ __ __ __ __
 72
    65
 73
     2
 40
0.375
 49
0.25
 74
     0
 49
-0.125
 74
     0
  0
LTYPE
  5
3E6
100
AcDbSymbolTableRecord
100
AcDbLinetypeTableRecord
  2
CENTER
 70
     0
  3
____ _ ____ _ ____ _ ____ _ ____ _ ____
 72
    65
 73
     4
 40
2.0
 49
1.25
 74
     0
 49
-0.25
 74
     0
 49
0.25
 74
     0
 49
-0.25
 74
     0
  0
LTYPE
  5
3E7
100
AcDbSymbolTableRecord
100
AcDbLinetypeTableRecord
  2
PHANTOM
 70
     0
  3
______  __  __  ______  __  __  ______ 
 72
    65
 73
     6
 40
2.5
 49
1.25
 74
     0
 49
-0.25
 74
     0
 49
0.25
 74
     0
 49
-0.25
 74
     0
 49
0.25
 74
     0
 49
-0.25
 74
     0
  0
ENDTAB
  0
TABLE
  2
LAYER
  5
3E8
100
AcDbSymbolTable
 70
    14
  0
LAYER
  5
3E9
100
AcDbSymbolTableRecord
100
AcDbLayerTableRecord
  2
0
 70
     0
 62
     7
  6
CONTINUOUS
  0
LAYER
  5
3EA
100
AcDbSymbolTableRecord
100
AcDbLayerTableRecord
  2
MAIN0
 70
     0
 62
     7
  6
CONTINUOUS
  0
LAYER
  5
3EB
100
AcDbSymbolTableRecord
100
AcDbLayerTableRecord
  2
MAIN1
 70
     0
 62
     7
  6
CONTINUOUS
  0
LAYER
  5
3EC
100
AcDbSymbolTableRecord
100
AcDbLayerTableRecord
  2
MAIN2
 70
     0
 62
     7
  6
CONTINUOUS
  0
LAYER
  5
3ED
100
AcDbSymbolTableRecord
100
AcDbLayerTableRecord
  2
MAIN3
 70
     0
 62
     7
  6
CONTINUOUS
  0
LAYER
  5
3EE
100
AcDbSymbolTableRecord
100
AcDbLayerTableRecord
  2
MAIN4
 70
     0
 62
     7
  6
CONTINUOUS
  0
LAYER
  5
3EF
100
AcDbSymbolTableRecord
100
AcDbLayerTableRecord
  2
MAIN6
 70
     0
 62
     7
  6
CONTINUOUS
  0
LAYER
  5
3F0
100
AcDbSymbolTableRecord
100
AcDbLayerTableRecord
  2
MAIN1023
 70
     0
 62
    16
  6
CONTINUOUS
  0
LAYER
  5
3F1
100
AcDbSymbolTableRecord
100
AcDbLayerTableRecord
  2
A0
 70
     0
 62
     7
  6
CONTINUOUS
  0
LAYER
  5
3F2
100
AcDbSymbolTableRecord
100
AcDbLayerTableRecord
  2
A1
 70
     0
 62
     7
  6
CONTINUOUS
  0
LAYER
  5
3F3
100
AcDbSymbolTableRecord
100
AcDbLayerTableRecord
  2
A2
 70
     0
 62
     7
  6
CONTINUOUS
  0
LAYER
  5
3F4
100
AcDbSymbolTableRecord
100
AcDbLayerTableRecord
  2
A1023
 70
     0
 62
    16
  6
CONTINUOUS
  0
LAYER
  5
3F5
100
AcDbSymbolTableRecord
100
AcDbLayerTableRecord
  2
WAKU0
 70
     0
 62
     7
  6
CONTINUOUS
  0
LAYER
  5
3F6
100
AcDbSymbolTableRecord
100
AcDbLayerTableRecord
  2
WAKU1023
 70
     0
 62
    16
  6
CONTINUOUS
  0
ENDTAB
  0
TABLE
  2
STYLE
  5
3F7
100
AcDbSymbolTable
 70
     4
  0
STYLE
  5
3F8
100
AcDbSymbolTableRecord
100
AcDbTextStyleTableRecord
  2
STANDARD
 70
    64
 40
0.0
 41
1.0
 50
0.0
 71
     0
 42
3.099999904632568
  3
TXT
  4

  0
STYLE
  5
3F9
100
AcDbSymbolTableRecord
100
AcDbTextStyleTableRecord
  2
ANKTATE
 70
    68
 40
0.0
 41
1.0
 50
0.0
 71
     0
 42
3.099999904632568
  3
TXT
  4

  0
STYLE
  5
26B
100
AcDbSymbolTableRecord
100
AcDbTextStyleTableRecord
  2
KNJYOKO
 70
    64
 40
0.0
 41
1.0
 50
0.0
 71
     0
 42
3.099999904632568
  3
TXT
  4
BIGFONT
  0
STYLE
  5
3FA
100
AcDbSymbolTableRecord
100
AcDbTextStyleTableRecord
  2
KNJTATE
 70
    68
 40
0.0
 41
1.0
 50
0.0
 71
     0
 42
3.099999904632568
  3
TXT
  4
BIGFONT
  0
ENDTAB
  0
TABLE
  2
VIEW
  5
3FB
100
AcDbSymbolTable
 70
     0
  0
ENDTAB
  0
TABLE
  2
UCS
  5
3FC
100
AcDbSymbolTable
 70
     0
  0
ENDTAB
  0
TABLE
  2
APPID
  5
3FD
100
AcDbSymbolTable
 70
     1
  0
APPID
  5
3FE
100
AcDbSymbolTableRecord
100
AcDbRegAppTableRecord
  2
ACAD
 70
     0
  0
ENDTAB
  0
TABLE
  2
DIMSTYLE
  5
3FF
100
AcDbSymbolTable
 70
     1
  0
DIMSTYLE
105
400
100
AcDbSymbolTableRecord
100
AcDbDimStyleTableRecord
  2
STANDARD
 70
     0
 41
2.000000
 44
2.000000
 42
0.800000
145
0.661290
140
3.100000
144
1.000000
146
0.903226
340
3F8
  0
DIMSTYLE
105
401
100
AcDbSymbolTableRecord
100
AcDbDimStyleTableRecord
  2
MAIN001
 70
     0
 41
2.000000
 44
2.000000
 42
0.800000
145
0.661290
140
3.100000
144
1.000000
146
0.903226
 77
     1
 73
     0
 74
     0
271
     3
275
     1
 78
     8
172
     1
340
3F8
  0
DIMSTYLE
105
402
100
AcDbSymbolTableRecord
100
AcDbDimStyleTableRecord
  2
A002
 70
     0
 41
3.000000
 44
3.000000
 42
1.200000
145
0.607527
140
4.650000
144
1.000000
146
0.903226
 77
     1
 73
     0
 74
     0
271
     3
275
     1
 78
     8
172
     1
340
3F8
  0
DIMSTYLE
105
403
100
AcDbSymbolTableRecord
100
AcDbDimStyleTableRecord
  2
WAKU003
 70
     0
 41
2.000000
 44
2.000000
 42
0.800000
145
0.661290
140
3.100000
144
1.000000
146
0.903226
 77
     1
 73
     0
 74
     0
271
     3
275
     1
 78
     8
172
     1
340
3F8
  0
ENDTAB
  0
TABLE
  2
BLOCK_RECORD
  5
404
100
AcDbSymbolTable
 70
    53
  0
BLOCK_RECORD
  5
405
100
AcDbSymbolTableRecord
100
AcDbBlockTableRecord
  2
*MODEL_SPACE
  0
BLOCK_RECORD
  5
406
100
AcDbSymbolTableRecord
100
AcDbBlockTableRecord
  2
*PAPER_SPACE
  0
BLOCK_RECORD
  5
1
100
AcDbSymbolTableRecord
100
AcDbBlockTableRecord
  2
_NONE
  0
BLOCK_RECORD
  5
4
100
AcDbSymbolTableRecord
100
AcDbBlockTableRecord
  2
_CLOSED
  0
BLOCK_RECORD
  5
B
100
AcDbSymbolTableRecord
100
AcDbBlockTableRecord
  2
_DOT
  0
BLOCK_RECORD
  5
13
100
AcDbSymbolTableRecord
100
AcDbBlockTableRecord
  2
_OPEN
  0
BLOCK_RECORD
  5
19
100
AcDbSymbolTableRecord
100
AcDbBlockTableRecord
  2
_ORIGIN
  0
BLOCK_RECORD
  5
1E
100
AcDbSymbolTableRecord
100
AcDbBlockTableRecord
  2
_OPEN30
  0
BLOCK_RECORD
  5
24
100
AcDbSymbolTableRecord
100
AcDbBlockTableRecord
  2
_BOXFILLED
  0
BLOCK_RECORD
  5
29
100
AcDbSymbolTableRecord
100
AcDbBlockTableRecord
  2
_BOXBLANK
  0
BLOCK_RECORD
  5
31
100
AcDbSymbolTableRecord
100
AcDbBlockTableRecord
  2
_OBLIQUE
  0
BLOCK_RECORD
  5
35
100
AcDbSymbolTableRecord
100
AcDbBlockTableRecord
  2
_OPEN90
  0
BLOCK_RECORD
  5
3B
100
AcDbSymbolTableRecord
100
AcDbBlockTableRecord
  2
_CLOSEDBLANK
  0
BLOCK_RECORD
  5
41
100
AcDbSymbolTableRecord
100
AcDbBlockTableRecord
  2
_DOTBLANK
  0
BLOCK_RECORD
  5
407
100
AcDbSymbolTableRecord
100
AcDbBlockTableRecord
  2
*D0
  0
BLOCK_RECORD
  5
408
100
AcDbSymbolTableRecord
100
AcDbBlockTableRecord
  2
*D1
  0
BLOCK_RECORD
  5
409
100
AcDbSymbolTableRecord
100
AcDbBlockTableRecord
  2
*D2
  0
BLOCK_RECORD
  5
40A
100
AcDbSymbolTableRecord
100
AcDbBlockTableRecord
  2
*D3
  0
BLOCK_RECORD
  5
40B
100
AcDbSymbolTableRecord
100
AcDbBlockTableRecord
  2
*D4
  0
BLOCK_RECORD
  5
40C
100
AcDbSymbolTableRecord
100
AcDbBlockTableRecord
  2
*D5
  0
BLOCK_RECORD
  5
40D
100
AcDbSymbolTableRecord
100
AcDbBlockTableRecord
  2
*D6
  0
BLOCK_RECORD
  5
40E
100
AcDbSymbolTableRecord
100
AcDbBlockTableRecord
  2
*D7
  0
BLOCK_RECORD
  5
40F
100
AcDbSymbolTableRecord
100
AcDbBlockTableRecord
  2
*D8
  0
BLOCK_RECORD
  5
410
100
AcDbSymbolTableRecord
100
AcDbBlockTableRecord
  2
*D9
  0
BLOCK_RECORD
  5
411
100
AcDbSymbolTableRecord
100
AcDbBlockTableRecord
  2
*D10
  0
BLOCK_RECORD
  5
412
100
AcDbSymbolTableRecord
100
AcDbBlockTableRecord
  2
*D11
  0
BLOCK_RECORD
  5
413
100
AcDbSymbolTableRecord
100
AcDbBlockTableRecord
  2
*D12
  0
BLOCK_RECORD
  5
414
100
AcDbSymbolTableRecord
100
AcDbBlockTableRecord
  2
*D13
  0
BLOCK_RECORD
  5
415
100
AcDbSymbolTableRecord
100
AcDbBlockTableRecord
  2
*D14
  0
BLOCK_RECORD
  5
416
100
AcDbSymbolTableRecord
100
AcDbBlockTableRecord
  2
*D15
  0
BLOCK_RECORD
  5
417
100
AcDbSymbolTableRecord
100
AcDbBlockTableRecord
  2
*D16
  0
BLOCK_RECORD
  5
418
100
AcDbSymbolTableRecord
100
AcDbBlockTableRecord
  2
*D17
  0
BLOCK_RECORD
  5
419
100
AcDbSymbolTableRecord
100
AcDbBlockTableRecord
  2
*D18
  0
BLOCK_RECORD
  5
41A
100
AcDbSymbolTableRecord
100
AcDbBlockTableRecord
  2
*D19
  0
BLOCK_RECORD
  5
41B
100
AcDbSymbolTableRecord
100
AcDbBlockTableRecord
  2
*D20
  0
BLOCK_RECORD
  5
41C
100
AcDbSymbolTableRecord
100
AcDbBlockTableRecord
  2
*D21
  0
BLOCK_RECORD
  5
41D
100
AcDbSymbolTableRecord
100
AcDbBlockTableRecord
  2
*D22
  0
BLOCK_RECORD
  5
41E
100
AcDbSymbolTableRecord
100
AcDbBlockTableRecord
  2
*D23
  0
BLOCK_RECORD
  5
41F
100
AcDbSymbolTableRecord
100
AcDbBlockTableRecord
  2
*D24
  0
BLOCK_RECORD
  5
420
100
AcDbSymbolTableRecord
100
AcDbBlockTableRecord
  2
*D25
  0
BLOCK_RECORD
  5
421
100
AcDbSymbolTableRecord
100
AcDbBlockTableRecord
  2
*D26
  0
BLOCK_RECORD
  5
422
100
AcDbSymbolTableRecord
100
AcDbBlockTableRecord
  2
*D27
  0
BLOCK_RECORD
  5
423
100
AcDbSymbolTableRecord
100
AcDbBlockTableRecord
  2
*D28
  0
BLOCK_RECORD
  5
424
100
AcDbSymbolTableRecord
100
AcDbBlockTableRecord
  2
*D29
  0
BLOCK_RECORD
  5
425
100
AcDbSymbolTableRecord
100
AcDbBlockTableRecord
  2
*D30
  0
BLOCK_RECORD
  5
426
100
AcDbSymbolTableRecord
100
AcDbBlockTableRecord
  2
*D31
  0
BLOCK_RECORD
  5
427
100
AcDbSymbolTableRecord
100
AcDbBlockTableRecord
  2
*D32
  0
BLOCK_RECORD
  5
428
100
AcDbSymbolTableRecord
100
AcDbBlockTableRecord
  2
*D33
  0
BLOCK_RECORD
  5
429
100
AcDbSymbolTableRecord
100
AcDbBlockTableRecord
  2
*D34
  0
BLOCK_RECORD
  5
42A
100
AcDbSymbolTableRecord
100
AcDbBlockTableRecord
  2
*D35
  0
BLOCK_RECORD
  5
42B
100
AcDbSymbolTableRecord
100
AcDbBlockTableRecord
  2
*D36
  0
BLOCK_RECORD
  5
42C
100
AcDbSymbolTableRecord
100
AcDbBlockTableRecord
  2
*D37
  0
BLOCK_RECORD
  5
42D
100
AcDbSymbolTableRecord
100
AcDbBlockTableRecord
  2
*D38
  0
BLOCK_RECORD
  5
42E
100
AcDbSymbolTableRecord
100
AcDbBlockTableRecord
  2
*D39
  0
BLOCK_RECORD
  5
42F
100
AcDbSymbolTableRecord
100
AcDbBlockTableRecord
  2
*D40
  0
ENDTAB
  0
ENDSEC
  0
SECTION
  2
BLOCKS
  0
BLOCK
  5
430
100
AcDbEntity
  8
0
100
AcDbBlockBegin
  2
*MODEL_SPACE
 70
     0
 10
0.0
 20
0.0
 30
0.0
  3
*MODEL_SPACE
  1

  0
ENDBLK
  5
431
100
AcDbEntity
  8
0
100
AcDbBlockEnd
  0
BLOCK
  5
432
100
AcDbEntity
  8
0
100
AcDbBlockBegin
  2
*PAPER_SPACE
 70
     0
 10
0.0
 20
0.0
 30
0.0
  3
*PAPER_SPACE
  1

  0
ENDBLK
  5
433
100
AcDbEntity
  8
0
100
AcDbBlockEnd
  0
BLOCK
  5
2
100
AcDbEntity
  8
0
100
AcDbBlockBegin
  2
_NONE
 70
     0
 10
0.0
 20
0.0
 30
0.0
  3
_NONE
  1

  0
ENDBLK
  5
3
100
AcDbEntity
  8
0
100
AcDbBlockEnd
  0
BLOCK
  5
5
100
AcDbEntity
  8
0
100
AcDbBlockBegin
  2
_CLOSED
 70
     0
 10
0.0
 20
0.0
 30
0.0
  3
_CLOSED
  1

  0
LINE
  5
6
100
AcDbEntity
  8
0
  6
BYBLOCK
 62
     0
100
AcDbLine
 10
-1.0
 20
0.166667
 30
0.0
 11
0.0
 21
0.0
 31
0.0
  0
LINE
  5
7
100
AcDbEntity
  8
0
  6
BYBLOCK
 62
     0
100
AcDbLine
 10
0.0
 20
0.0
 30
0.0
 11
-1.0
 21
-0.166667
 31
0.0
  0
LINE
  5
8
100
AcDbEntity
  8
0
  6
BYBLOCK
 62
     0
100
AcDbLine
 10
-1.0
 20
0.166667
 30
0.0
 11
-1.0
 21
-0.166667
 31
0.0
  0
LINE
  5
9
100
AcDbEntity
  8
0
  6
BYBLOCK
 62
     0
100
AcDbLine
 10
0.0
 20
0.0
 30
0.0
 11
-1.0
 21
0.0
 31
0.0
  0
ENDBLK
  5
A
100
AcDbEntity
  8
0
100
AcDbBlockEnd
  0
BLOCK
  5
C
100
AcDbEntity
  8
0
100
AcDbBlockBegin
  2
_DOT
 70
     0
 10
0.0
 20
0.0
 30
0.0
  3
_DOT
  1

  0
POLYLINE
  5
D
100
AcDbEntity
  8
0
  6
BYBLOCK
 62
     0
100
AcDb2dPolyline
 66
     1
 10
0.0
 20
0.0
 30
0.0
 70
     1
 40
0.5
 41
0.5
  0
VERTEX
  5
E
100
AcDbEntity
  8
0
  6
BYBLOCK
 62
     0
100
AcDbVertex
100
AcDb2dVertex
 10
-0.25
 20
0.0
 30
0.0
 42
1.0
  0
VERTEX
  5
F
100
AcDbEntity
  8
0
  6
BYBLOCK
 62
     0
100
AcDbVertex
100
AcDb2dVertex
 10
0.25
 20
0.0
 30
0.0
 42
1.0
  0
SEQEND
  5
10
100
AcDbEntity
  8
0
  6
BYBLOCK
 62
     0
  0
LINE
  5
11
100
AcDbEntity
  8
0
  6
BYBLOCK
 62
     0
100
AcDbLine
 10
-0.5
 20
0.0
 30
0.0
 11
-1.0
 21
0.0
 31
0.0
  0
ENDBLK
  5
12
100
AcDbEntity
  8
0
100
AcDbBlockEnd
  0
BLOCK
  5
14
100
AcDbEntity
  8
0
100
AcDbBlockBegin
  2
_OPEN
 70
     0
 10
0.0
 20
0.0
 30
0.0
  3
_OPEN
  1

  0
LINE
  5
15
100
AcDbEntity
  8
0
  6
BYBLOCK
 62
     0
100
AcDbLine
 10
-1.0
 20
0.166667
 30
0.0
 11
0.0
 21
0.0
 31
0.0
  0
LINE
  5
16
100
AcDbEntity
  8
0
  6
BYBLOCK
 62
     0
100
AcDbLine
 10
0.0
 20
0.0
 30
0.0
 11
-1.0
 21
-0.166667
 31
0.0
  0
LINE
  5
17
100
AcDbEntity
  8
0
  6
BYBLOCK
 62
     0
100
AcDbLine
 10
0.0
 20
0.0
 30
0.0
 11
-1.0
 21
0.0
 31
0.0
  0
ENDBLK
  5
18
100
AcDbEntity
  8
0
100
AcDbBlockEnd
  0
BLOCK
  5
1A
100
AcDbEntity
  8
0
100
AcDbBlockBegin
  2
_ORIGIN
 70
     0
 10
0.0
 20
0.0
 30
0.0
  3
_ORIGIN
  1

  0
CIRCLE
  5
1B
100
AcDbEntity
  8
0
  6
BYBLOCK
 62
     0
100
AcDbCircle
 10
0.0
 20
0.0
 30
0.0
 40
0.5
  0
LINE
  5
1C
100
AcDbEntity
  8
0
  6
BYBLOCK
 62
     0
100
AcDbLine
 10
0.0
 20
0.0
 30
0.0
 11
-1.0
 21
0.0
 31
0.0
  0
ENDBLK
  5
1D
100
AcDbEntity
  8
0
100
AcDbBlockEnd
  0
BLOCK
  5
1F
100
AcDbEntity
  8
0
100
AcDbBlockBegin
  2
_OPEN30
 70
     0
 10
0.0
 20
0.0
 30
0.0
  3
_OPEN30
  1

  0
LINE
  5
20
100
AcDbEntity
  8
0
  6
BYBLOCK
 62
     0
100
AcDbLine
 10
-1.0
 20
0.267949
 30
0.0
 11
0.0
 21
0.0
 31
0.0
  0
LINE
  5
21
100
AcDbEntity
  8
0
  6
BYBLOCK
 62
     0
100
AcDbLine
 10
0.0
 20
0.0
 30
0.0
 11
-1.0
 21
-0.267949
 31
0.0
  0
LINE
  5
22
100
AcDbEntity
  8
0
  6
BYBLOCK
 62
     0
100
AcDbLine
 10
0.0
 20
0.0
 30
0.0
 11
-1.0
 21
0.0
 31
0.0
  0
ENDBLK
  5
23
100
AcDbEntity
  8
0
100
AcDbBlockEnd
  0
BLOCK
  5
25
100
AcDbEntity
  8
0
100
AcDbBlockBegin
  2
_BOXFILLED
 70
     0
 10
0.0
 20
0.0
 30
0.0
  3
_BOXFILLED
  1

  0
SOLID
  5
26
100
AcDbEntity
  8
0
  6
BYBLOCK
 62
     0
100
AcDbTrace
 10
-0.5
 20
0.5
 30
0.0
 11
0.5
 21
0.5
 31
0.0
 12
-0.5
 22
-0.5
 32
0.0
 13
0.5
 23
-0.5
 33
0.0
  0
LINE
  5
27
100
AcDbEntity
  8
0
  6
BYBLOCK
 62
     0
100
AcDbLine
 10
-0.5
 20
0.0
 30
0.0
 11
-1.0
 21
0.0
 31
0.0
  0
ENDBLK
  5
28
100
AcDbEntity
  8
0
100
AcDbBlockEnd
  0
BLOCK
  5
2A
100
AcDbEntity
  8
0
100
AcDbBlockBegin
  2
_BOXBLANK
 70
     0
 10
0.0
 20
0.0
 30
0.0
  3
_BOXBLANK
  1

  0
LINE
  5
2B
100
AcDbEntity
  8
0
  6
BYBLOCK
 62
     0
100
AcDbLine
 10
-0.5
 20
-0.5
 30
0.0
 11
0.5
 21
-0.5
 31
0.0
  0
LINE
  5
2C
100
AcDbEntity
  8
0
  6
BYBLOCK
 62
     0
100
AcDbLine
 10
0.5
 20
-0.5
 30
0.0
 11
0.5
 21
0.5
 31
0.0
  0
LINE
  5
2D
100
AcDbEntity
  8
0
  6
BYBLOCK
 62
     0
100
AcDbLine
 10
0.5
 20
0.5
 30
0.0
 11
-0.5
 21
0.5
 31
0.0
  0
LINE
  5
2E
100
AcDbEntity
  8
0
  6
BYBLOCK
 62
     0
100
AcDbLine
 10
-0.5
 20
0.5
 30
0.0
 11
-0.5
 21
-0.5
 31
0.0
  0
LINE
  5
2F
100
AcDbEntity
  8
0
  6
BYBLOCK
 62
     0
100
AcDbLine
 10
-0.5
 20
0.0
 30
0.0
 11
-1.0
 21
0.0
 31
0.0
  0
ENDBLK
  5
30
100
AcDbEntity
  8
0
100
AcDbBlockEnd
  0
BLOCK
  5
32
100
AcDbEntity
  8
0
100
AcDbBlockBegin
  2
_OBLIQUE
 70
     0
 10
0.0
 20
0.0
 30
0.0
  3
_OBLIQUE
  1

  0
LINE
  5
33
100
AcDbEntity
  8
0
  6
BYBLOCK
 62
     0
100
AcDbLine
 10
-0.5
 20
-0.5
 30
0.0
 11
0.5
 21
0.5
 31
0.0
  0
ENDBLK
  5
34
100
AcDbEntity
  8
0
100
AcDbBlockEnd
  0
BLOCK
  5
36
100
AcDbEntity
  8
0
100
AcDbBlockBegin
  2
_OPEN90
 70
     0
 10
0.0
 20
0.0
 30
0.0
  3
_OPEN90
  1

  0
LINE
  5
37
100
AcDbEntity
  8
0
  6
BYBLOCK
 62
     0
100
AcDbLine
 10
-0.5
 20
0.5
 30
0.0
 11
0.0
 21
0.0
 31
0.0
  0
LINE
  5
38
100
AcDbEntity
  8
0
  6
BYBLOCK
 62
     0
100
AcDbLine
 10
0.0
 20
0.0
 30
0.0
 11
-0.5
 21
-0.5
 31
0.0
  0
LINE
  5
39
100
AcDbEntity
  8
0
  6
BYBLOCK
 62
     0
100
AcDbLine
 10
0.0
 20
0.0
 30
0.0
 11
-1.0
 21
0.0
 31
0.0
  0
ENDBLK
  5
3A
100
AcDbEntity
  8
0
100
AcDbBlockEnd
  0
BLOCK
  5
3C
100
AcDbEntity
  8
0
100
AcDbBlockBegin
  2
_CLOSEDBLANK
 70
     0
 10
0.0
 20
0.0
 30
0.0
  3
_CLOSEDBLANK
  1

  0
LINE
  5
3D
100
AcDbEntity
  8
0
  6
BYBLOCK
 62
     0
100
AcDbLine
 10
-1.0
 20
0.1666666666666666
 30
0.0
 11
0.0
 21
0.0
 31
0.0
  0
LINE
  5
3E
100
AcDbEntity
  8
0
  6
BYBLOCK
 62
     0
100
AcDbLine
 10
0.0
 20
0.0
 30
0.0
 11
-1.0
 21
-0.1666666666666666
 31
0.0
  0
LINE
  5
3F
100
AcDbEntity
  8
0
  6
BYBLOCK
 62
     0
100
AcDbLine
 10
-1.0
 20
0.1666666666666666
 30
0.0
 11
-1.0
 21
-0.1666666666666666
 31
0.0
  0
ENDBLK
  5
40
100
AcDbEntity
  8
0
100
AcDbBlockEnd
  0
BLOCK
  5
42
100
AcDbEntity
  8
0
100
AcDbBlockBegin
  2
_DOTBLANK
 70
     0
 10
0.0
 20
0.0
 30
0.0
  3
_DOTBLANK
  1

  0
CIRCLE
  5
43
100
AcDbEntity
  8
0
  6
BYBLOCK
 62
     0
100
AcDbCircle
 10
0.0
 20
0.0
 30
0.0
 40
0.5
  0
LINE
  5
44
100
AcDbEntity
  8
0
  6
BYBLOCK
 62
     0
100
AcDbLine
 10
-0.5
 20
0.0
 30
0.0
 11
-1.0
 21
0.0
 31
0.0
  0
ENDBLK
  5
45
100
AcDbEntity
  8
0
100
AcDbBlockEnd
  0
BLOCK
  5
194
100
AcDbEntity
  8
MAIN0
  6
CONTINUOUS
 62
3
100
AcDbBlockBegin
  2
*D0
 70
    65
 10
0.0
 20
0.0
 30
0.0
  0
LINE
  5
195
100
AcDbEntity
  8
MAIN0
  6
BYBLOCK
 62
0
100
AcDbLine
 10
336.8847601925714
 20
232.8713267059994
 30
0.0000000000000000
 11
348.5411736804833
 21
232.8713267059994
 31
0.0000000000000000
  0
LINE
  5
196
100
AcDbEntity
  8
MAIN0
  6
BYBLOCK
 62
0
100
AcDbLine
 10
346.5411736804833
 20
230.8713267059994
 30
0.0000000000000000
 11
346.5411736804833
 21
223.8713267059993
 31
0.0000000000000000
  0
INSERT
  5
197
100
AcDbEntity
  8
MAIN0
  6
BYBLOCK
 62
0
100
AcDbBlockReference
  2
_OPEN
 10
346.5411736804833
 20
232.8713267059994
 30
0.0000000000000000
 41
2.000000000000000
 42
2.000000000000000
 43
2.000000000000000
 50
90.00000000000000
  0
INSERT
  5
198
100
AcDbEntity
  8
MAIN0
  6
BYBLOCK
 62
0
100
AcDbBlockReference
  2
_OPEN
 10
346.5411736804833
 20
221.8713267059993
 30
0.0000000000000000
 41
2.000000000000000
 42
2.000000000000000
 43
2.000000000000000
 50
270.0000000000000
  0
LINE
  5
199
100
AcDbEntity
  8
MAIN0
  6
BYBLOCK
 62
0
100
AcDbLine
 10
336.3847601925531
 20
221.8713267059993
 30
0.0000000000000000
 11
348.5411736804833
 21
221.8713267059993
 31
0.0000000000000000
  0
MTEXT
  5
19A
100
AcDbEntity
  8
MAIN0
  6
BYBLOCK
 62
0
100
AcDbMText
 10
344.4911737281670
 20
227.3713267059994
 30
0.0000000000000000
 40
3.099999904632568
 41
0.0000000000000000
 71
     5
 72
     1
  1
\A1;11
 11
6.123233995736766e-017
 21
1.000000000000000
 31
0.0000000000000000
  7
STANDARD
  0
ENDBLK
  5
19B
100
AcDbEntity
  8
MAIN0
  6
CONTINUOUS
 62
3
100
AcDbBlockEnd
  0
BLOCK
  5
19D
100
AcDbEntity
  8
MAIN0
  6
CONTINUOUS
 62
3
100
AcDbBlockBegin
  2
*D1
 70
    65
 10
0.0
 20
0.0
 30
0.0
  0
LINE
  5
19E
100
AcDbEntity
  8
MAIN0
  6
BYBLOCK
 62
0
100
AcDbLine
 10
280.6847601807293
 20
280.6713267179122
 30
0.0000000000000000
 11
280.6847601807293
 21
309.0492824338622
 31
0.0000000000000000
  0
LINE
  5
19F
100
AcDbEntity
  8
MAIN0
  6
BYBLOCK
 62
0
100
AcDbLine
 10
282.6847601807293
 20
307.0492824338622
 30
0.0000000000000000
 11
378.6847601807282
 21
307.0492824338622
 31
0.0000000000000000
  0
INSERT
  5
1A0
100
AcDbEntity
  8
MAIN0
  6
BYBLOCK
 62
0
100
AcDbBlockReference
  2
_OPEN
 10
280.6847601807293
 20
307.0492824338622
 30
0.0000000000000000
 41
2.000000000000000
 42
2.000000000000000
 43
2.000000000000000
 50
180.0000000000000
  0
INSERT
  5
1A1
100
AcDbEntity
  8
MAIN0
  6
BYBLOCK
 62
0
100
AcDbBlockReference
  2
_OPEN
 10
380.6847601807282
 20
307.0492824338622
 30
0.0000000000000000
 41
2.000000000000000
 42
2.000000000000000
 43
2.000000000000000
 50
0.0000000000000000
  0
LINE
  5
1A2
100
AcDbEntity
  8
MAIN0
  6
BYBLOCK
 62
0
100
AcDbLine
 10
380.6847601807282
 20
280.6713267179268
 30
0.0000000000000000
 11
380.6847601807282
 21
309.0492824338622
 31
0.0000000000000000
  0
MTEXT
  5
1A3
100
AcDbEntity
  8
MAIN0
  6
BYBLOCK
 62
0
100
AcDbMText
 10
330.6847601807287
 20
309.0992823861785
 30
0.0000000000000000
 40
3.099999904632568
 41
0.0000000000000000
 71
     5
 72
     1
  1
\A1;140
 11
1.000000000000000
 21
0.0000000000000000
 31
0.0000000000000000
  7
STANDARD
  0
ENDBLK
  5
1A4
100
AcDbEntity
  8
MAIN0
  6
CONTINUOUS
 62
3
100
AcDbBlockEnd
  0
BLOCK
  5
1A6
100
AcDbEntity
  8
MAIN0
  6
CONTINUOUS
 62
3
100
AcDbBlockBegin
  2
*D2
 70
    65
 10
0.0
 20
0.0
 30
0.0
  0
LINE
  5
1A7
100
AcDbEntity
  8
MAIN0
  6
BYBLOCK
 62
0
100
AcDbLine
 10
313.7371610998464
 20
277.8713267059974
 30
0.0000000000000000
 11
313.7371610998464
 21
281.8713267059974
 31
0.0000000000000000
  0
INSERT
  5
1A8
100
AcDbEntity
  8
MAIN0
  6
BYBLOCK
 62
0
100
AcDbBlockReference
  2
_OPEN
 10
313.7371610998464
 20
275.8713267059974
 30
0.0000000000000000
 41
2.000000000000000
 42
2.000000000000000
 43
2.000000000000000
 50
270.0000000000000
  0
INSERT
  5
1A9
100
AcDbEntity
  8
MAIN0
  6
BYBLOCK
 62
0
100
AcDbBlockReference
  2
_OPEN
 10
313.7371610998464
 20
283.8713267059974
 30
0.0000000000000000
 41
2.000000000000000
 42
2.000000000000000
 43
2.000000000000000
 50
90.00000000000000
  0
MTEXT
  5
1AA
100
AcDbEntity
  8
MAIN0
  6
BYBLOCK
 62
0
100
AcDbMText
 10
311.6871611475301
 20
279.8713267059974
 30
0.0000000000000000
 40
3.099999904632568
 41
0.0000000000000000
 71
     5
 72
     1
  1
\A1;\U+22058
 11
6.123233995736766e-017
 21
1.000000000000000
 31
0.0000000000000000
  7
STANDARD
  0
ENDBLK
  5
1AB
100
AcDbEntity
  8
MAIN0
  6
CONTINUOUS
 62
3
100
AcDbBlockEnd
  0
BLOCK
  5
1AD
100
AcDbEntity
  8
MAIN0
  6
CONTINUOUS
 62
3
100
AcDbBlockBegin
  2
*D3
 70
    65
 10
0.0
 20
0.0
 30
0.0
  0
LINE
  5
1AE
100
AcDbEntity
  8
MAIN0
  6
BYBLOCK
 62
0
100
AcDbLine
 10
336.6440238064011
 20
203.0949830433901
 30
0.0000000000000000
 11
346.0700813187590
 21
193.6689255310058
 31
0.0000000000000000
  0
LINE
  5
1AF
100
AcDbEntity
  8
MAIN0
  6
BYBLOCK
 62
0
100
AcDbLine
 10
344.6558677563880
 20
195.0831390933809
 30
0.0000000000000000
 11
338.9990135069040
 21
189.4262848438998
 31
0.0000000000000000
  0
INSERT
  5
1B0
100
AcDbEntity
  8
MAIN0
  6
BYBLOCK
 62
0
100
AcDbBlockReference
  2
_OPEN
 10
344.6558677563880
 20
195.0831390933809
 30
0.0000000000000000
 41
2.000000000000000
 42
2.000000000000000
 43
2.000000000000000
 50
224.9999999999853
  0
INSERT
  5
1B1
100
AcDbEntity
  8
MAIN0
  6
BYBLOCK
 62
0
100
AcDbBlockReference
  2
_OPEN
 10
338.9990135069040
 20
189.4262848438998
 30
0.0000000000000000
 41
2.000000000000000
 42
2.000000000000000
 43
2.000000000000000
 50
44.99999999998533
  0
LINE
  5
1B2
100
AcDbEntity
  8
MAIN0
  6
BYBLOCK
 62
0
100
AcDbLine
 10
346.0700813187614
 20
196.4973526557536
 30
0.0000000000000000
 11
352.8499663323357
 21
203.2772376693245
 31
0.0000000000000000
  0
LINE
  5
1B3
100
AcDbEntity
  8
MAIN0
  6
BYBLOCK
 62
0
100
AcDbLine
 10
337.5847999445305
 20
188.0120712815271
 30
0.0000000000000000
 11
336.8776931633438
 21
187.3049645003407
 31
0.0000000000000000
  0
LINE
  5
1B4
100
AcDbEntity
  8
MAIN0
  6
BYBLOCK
 62
0
100
AcDbLine
 10
330.9871695569189
 20
197.4381287938890
 30
0.0000000000000000
 11
340.4132270692767
 21
188.0120712815264
 31
0.0000000000000000
  0
MTEXT
  5
1B5
100
AcDbEntity
  8
MAIN0
  6
BYBLOCK
 62
0
100
AcDbMText
 10
348.4128711888683
 20
201.7392802612888
 30
0.0000000000000000
 40
3.099999904632568
 41
0.0000000000000000
 71
     5
 72
     1
  1
\A1;8\H0.903226x;\S 0^ -0.1;
 11
0.7071067811867278
 21
0.7071067811863673
 31
0.0000000000000000
  7
STANDARD
  0
ENDBLK
  5
1B6
100
AcDbEntity
  8
MAIN0
  6
CONTINUOUS
 62
3
100
AcDbBlockEnd
  0
BLOCK
  5
1C3
100
AcDbEntity
  8
MAIN0
  6
CONTINUOUS
 62
3
100
AcDbBlockBegin
  2
*D4
 70
    65
 10
0.0
 20
0.0
 30
0.0
  0
LINE
  5
1C4
100
AcDbEntity
  8
MAIN0
  6
BYBLOCK
 62
0
100
AcDbLine
 10
279.1517838657597
 20
223.2223387601258
 30
0.0000000000000000
 11
224.6793266136417
 21
217.6583059519869
 31
0.0000000000000000
  0
INSERT
  5
1C5
100
AcDbEntity
  8
MAIN0
  6
BYBLOCK
 62
0
100
AcDbBlockReference
  2
_OPEN
 10
281.1414314143225
 20
223.4255692511903
 30
0.0000000000000000
 41
2.000000000000000
 42
2.000000000000000
 43
2.000000000000000
 50
5.832191092505923
  0
MTEXT
  5
1C6
100
AcDbEntity
  8
MAIN0
  6
BYBLOCK
 62
0
100
AcDbMText
 10
262.7560103410444
 20
223.4407419978266
 30
0.0000000000000000
 40
3.099999904632568
 41
0.0000000000000000
 71
     5
 72
     1
  1
\A1;\U+220595\H0.903226x;\U+00B10.2
 11
0.9948237742813666
 21
0.1016152455322355
 31
0.0000000000000000
  7
STANDARD
  0
ENDBLK
  5
1C7
100
AcDbEntity
  8
MAIN0
  6
CONTINUOUS
 62
3
100
AcDbBlockEnd
  0
BLOCK
  5
1C9
100
AcDbEntity
  8
MAIN0
  6
CONTINUOUS
 62
3
100
AcDbBlockBegin
  2
*D5
 70
    65
 10
0.0
 20
0.0
 30
0.0
  0
LINE
  5
1CA
100
AcDbEntity
  8
MAIN0
  6
BYBLOCK
 62
0
100
AcDbLine
 10
149.3672357132614
 20
231.5988450884091
 30
0.0000000000000000
 11
157.3672357013652
 21
231.5988450884091
 31
0.0000000000000000
  0
LINE
  5
1CB
100
AcDbEntity
  8
MAIN0
  6
BYBLOCK
 62
0
100
AcDbLine
 10
155.3672357013652
 20
233.5988450884091
 30
0.0000000000000000
 11
155.3672357013652
 21
242.5988450884091
 31
0.0000000000000000
  0
INSERT
  5
1CC
100
AcDbEntity
  8
MAIN0
  6
BYBLOCK
 62
0
100
AcDbBlockReference
  2
_OPEN
 10
155.3672357013652
 20
231.5988450884091
 30
0.0000000000000000
 41
2.000000000000000
 42
2.000000000000000
 43
2.000000000000000
 50
270.0000000000000
  0
INSERT
  5
1CD
100
AcDbEntity
  8
MAIN0
  6
BYBLOCK
 62
0
100
AcDbBlockReference
  2
_OPEN
 10
155.3672357013652
 20
244.5988450884091
 30
0.0000000000000000
 41
2.000000000000000
 42
2.000000000000000
 43
2.000000000000000
 50
90.00000000000000
  0
LINE
  5
1CE
100
AcDbEntity
  8
MAIN0
  6
BYBLOCK
 62
0
100
AcDbLine
 10
149.3672357132690
 20
244.5988450884091
 30
0.0000000000000000
 11
157.3672357013652
 21
244.5988450884091
 31
0.0000000000000000
  0
MTEXT
  5
1CF
100
AcDbEntity
  8
MAIN0
  6
BYBLOCK
 62
0
100
AcDbMText
 10
153.3172357490489
 20
238.0988450884091
 30
0.0000000000000000
 40
3.099999904632568
 41
0.0000000000000000
 71
     5
 72
     1
  1
\A1;13
 11
6.123233995736766e-017
 21
1.000000000000000
 31
0.0000000000000000
  7
STANDARD
  0
ENDBLK
  5
1D0
100
AcDbEntity
  8
MAIN0
  6
CONTINUOUS
 62
3
100
AcDbBlockEnd
  0
BLOCK
  5
1D2
100
AcDbEntity
  8
MAIN0
  6
CONTINUOUS
 62
3
100
AcDbBlockBegin
  2
*D6
 70
    65
 10
0.0
 20
0.0
 30
0.0
  0
LINE
  5
1D3
100
AcDbEntity
  8
MAIN0
  6
BYBLOCK
 62
0
100
AcDbLine
 10
149.3672357132690
 20
244.5988450884091
 30
0.0000000000000000
 11
157.3672357013652
 21
244.5988450884091
 31
0.0000000000000000
  0
LINE
  5
1D4
100
AcDbEntity
  8
MAIN0
  6
BYBLOCK
 62
0
100
AcDbLine
 10
155.3672357013652
 20
246.5988450884091
 30
0.0000000000000000
 11
155.3672357013652
 21
255.5988450884091
 31
0.0000000000000000
  0
INSERT
  5
1D5
100
AcDbEntity
  8
MAIN0
  6
BYBLOCK
 62
0
100
AcDbBlockReference
  2
_OPEN
 10
155.3672357013652
 20
244.5988450884091
 30
0.0000000000000000
 41
2.000000000000000
 42
2.000000000000000
 43
2.000000000000000
 50
270.0000000000000
  0
INSERT
  5
1D6
100
AcDbEntity
  8
MAIN0
  6
BYBLOCK
 62
0
100
AcDbBlockReference
  2
_OPEN
 10
155.3672357013652
 20
257.5988450884091
 30
0.0000000000000000
 41
2.000000000000000
 42
2.000000000000000
 43
2.000000000000000
 50
90.00000000000000
  0
LINE
  5
1D7
100
AcDbEntity
  8
MAIN0
  6
BYBLOCK
 62
0
100
AcDbLine
 10
142.3672357132767
 20
257.5988450884091
 30
0.0000000000000000
 11
157.3672357013652
 21
257.5988450884091
 31
0.0000000000000000
  0
MTEXT
  5
1D8
100
AcDbEntity
  8
MAIN0
  6
BYBLOCK
 62
0
100
AcDbMText
 10
153.3172357490489
 20
251.0988450884091
 30
0.0000000000000000
 40
3.099999904632568
 41
0.0000000000000000
 71
     5
 72
     1
  1
\A1;13
 11
6.123233995736766e-017
 21
1.000000000000000
 31
0.0000000000000000
  7
STANDARD
  0
ENDBLK
  5
1D9
100
AcDbEntity
  8
MAIN0
  6
CONTINUOUS
 62
3
100
AcDbBlockEnd
  0
BLOCK
  5
1DB
100
AcDbEntity
  8
MAIN0
  6
CONTINUOUS
 62
3
100
AcDbBlockBegin
  2
*D7
 70
    65
 10
0.0
 20
0.0
 30
0.0
  0
LINE
  5
1DC
100
AcDbEntity
  8
MAIN0
  6
BYBLOCK
 62
0
100
AcDbLine
 10
142.3672357132767
 20
257.5988450884091
 30
0.0000000000000000
 11
157.3672357013652
 21
257.5988450884091
 31
0.0000000000000000
  0
LINE
  5
1DD
100
AcDbEntity
  8
MAIN0
  6
BYBLOCK
 62
0
100
AcDbLine
 10
155.3672357013652
 20
259.5988450884091
 30
0.0000000000000000
 11
155.3672357013652
 21
271.5988450884091
 31
0.0000000000000000
  0
INSERT
  5
1DE
100
AcDbEntity
  8
MAIN0
  6
BYBLOCK
 62
0
100
AcDbBlockReference
  2
_OPEN
 10
155.3672357013652
 20
257.5988450884091
 30
0.0000000000000000
 41
2.000000000000000
 42
2.000000000000000
 43
2.000000000000000
 50
270.0000000000000
  0
INSERT
  5
1DF
100
AcDbEntity
  8
MAIN0
  6
BYBLOCK
 62
0
100
AcDbBlockReference
  2
_OPEN
 10
155.3672357013652
 20
273.5988450884091
 30
0.0000000000000000
 41
2.000000000000000
 42
2.000000000000000
 43
2.000000000000000
 50
90.00000000000000
  0
LINE
  5
1E0
100
AcDbEntity
  8
MAIN0
  6
BYBLOCK
 62
0
100
AcDbLine
 10
134.8672357132861
 20
273.5988450884091
 30
0.0000000000000000
 11
157.3672357013652
 21
273.5988450884091
 31
0.0000000000000000
  0
MTEXT
  5
1E1
100
AcDbEntity
  8
MAIN0
  6
BYBLOCK
 62
0
100
AcDbMText
 10
153.3172357490489
 20
265.5988450884091
 30
0.0000000000000000
 40
3.099999904632568
 41
0.0000000000000000
 71
     5
 72
     1
  1
\A1;16
 11
6.123233995736766e-017
 21
1.000000000000000
 31
0.0000000000000000
  7
STANDARD
  0
ENDBLK
  5
1E2
100
AcDbEntity
  8
MAIN0
  6
CONTINUOUS
 62
3
100
AcDbBlockEnd
  0
BLOCK
  5
1E4
100
AcDbEntity
  8
MAIN0
  6
CONTINUOUS
 62
3
100
AcDbBlockBegin
  2
*D8
 70
    65
 10
0.0
 20
0.0
 30
0.0
  0
LINE
  5
1E5
100
AcDbEntity
  8
MAIN0
  6
BYBLOCK
 62
0
100
AcDbLine
 10
134.8672357132861
 20
273.5988450884091
 30
0.0000000000000000
 11
164.8672357013652
 21
273.5988450884091
 31
0.0000000000000000
  0
LINE
  5
1E6
100
AcDbEntity
  8
MAIN0
  6
BYBLOCK
 62
0
100
AcDbLine
 10
162.8672357013652
 20
271.5988450884091
 30
0.0000000000000000
 11
162.8672357013652
 21
233.5988450884091
 31
0.0000000000000000
  0
INSERT
  5
1E7
100
AcDbEntity
  8
MAIN0
  6
BYBLOCK
 62
0
100
AcDbBlockReference
  2
_OPEN
 10
162.8672357013652
 20
273.5988450884091
 30
0.0000000000000000
 41
2.000000000000000
 42
2.000000000000000
 43
2.000000000000000
 50
90.00000000000000
  0
INSERT
  5
1E8
100
AcDbEntity
  8
MAIN0
  6
BYBLOCK
 62
0
100
AcDbBlockReference
  2
_OPEN
 10
162.8672357013652
 20
231.5988450884091
 30
0.0000000000000000
 41
2.000000000000000
 42
2.000000000000000
 43
2.000000000000000
 50
270.0000000000000
  0
LINE
  5
1E9
100
AcDbEntity
  8
MAIN0
  6
BYBLOCK
 62
0
100
AcDbLine
 10
149.3672357132614
 20
231.5988450884091
 30
0.0000000000000000
 11
164.8672357013652
 21
231.5988450884091
 31
0.0000000000000000
  0
MTEXT
  5
1EA
100
AcDbEntity
  8
MAIN0
  6
BYBLOCK
 62
0
100
AcDbMText
 10
160.8172357490489
 20
252.5988450884091
 30
0.0000000000000000
 40
3.099999904632568
 41
0.0000000000000000
 71
     5
 72
     1
  1
\A1;42
 11
6.123233995736766e-017
 21
1.000000000000000
 31
0.0000000000000000
  7
STANDARD
  0
ENDBLK
  5
1EB
100
AcDbEntity
  8
MAIN0
  6
CONTINUOUS
 62
3
100
AcDbBlockEnd
  0
BLOCK
  5
1ED
100
AcDbEntity
  8
MAIN0
  6
CONTINUOUS
 62
3
100
AcDbBlockBegin
  2
*D9
 70
    65
 10
0.0
 20
0.0
 30
0.0
  0
LINE
  5
1EE
100
AcDbEntity
  8
MAIN0
  6
BYBLOCK
 62
0
100
AcDbLine
 10
143.8672357013490
 20
251.0988450884091
 30
0.0000000000000000
 11
146.8672357013479
 21
251.0988450884091
 31
0.0000000000000000
  0
INSERT
  5
1EF
100
AcDbEntity
  8
MAIN0
  6
BYBLOCK
 62
0
100
AcDbBlockReference
  2
_OPEN
 10
141.8672357013490
 20
251.0988450884091
 30
0.0000000000000000
 41
2.000000000000000
 42
2.000000000000000
 43
2.000000000000000
 50
180.0000000000000
  0
INSERT
  5
1F0
100
AcDbEntity
  8
MAIN0
  6
BYBLOCK
 62
0
100
AcDbBlockReference
  2
_OPEN
 10
148.8672357013479
 20
251.0988450884091
 30
0.0000000000000000
 41
2.000000000000000
 42
2.000000000000000
 43
2.000000000000000
 50
0.0000000000000000
  0
LINE
  5
1F1
100
AcDbEntity
  8
MAIN0
  6
BYBLOCK
 62
0
100
AcDbLine
 10
148.8672357013479
 20
245.0988451003300
 30
0.0000000000000000
 11
148.8672357013479
 21
253.0988450884091
 31
0.0000000000000000
  0
MTEXT
  5
1F2
100
AcDbEntity
  8
MAIN0
  6
BYBLOCK
 62
0
100
AcDbMText
 10
145.3672357013485
 20
253.1488450407254
 30
0.0000000000000000
 40
3.099999904632568
 41
0.0000000000000000
 71
     5
 72
     1
  1
\A1;7
 11
1.000000000000000
 21
0.0000000000000000
 31
0.0000000000000000
  7
STANDARD
  0
ENDBLK
  5
1F3
100
AcDbEntity
  8
MAIN0
  6
CONTINUOUS
 62
3
100
AcDbBlockEnd
  0
BLOCK
  5
1F5
100
AcDbEntity
  8
MAIN0
  6
CONTINUOUS
 62
3
100
AcDbBlockBegin
  2
*D10
 70
    65
 10
0.0
 20
0.0
 30
0.0
  0
LINE
  5
1F6
100
AcDbEntity
  8
MAIN0
  6
BYBLOCK
 62
0
100
AcDbLine
 10
136.8672357013632
 20
263.5988450884091
 30
0.0000000000000000
 11
139.8672357013556
 21
263.5988450884091
 31
0.0000000000000000
  0
INSERT
  5
1F7
100
AcDbEntity
  8
MAIN0
  6
BYBLOCK
 62
0
100
AcDbBlockReference
  2
_OPEN
 10
134.8672357013632
 20
263.5988450884091
 30
0.0000000000000000
 41
2.000000000000000
 42
2.000000000000000
 43
2.000000000000000
 50
180.0000000000000
  0
INSERT
  5
1F8
100
AcDbEntity
  8
MAIN0
  6
BYBLOCK
 62
0
100
AcDbBlockReference
  2
_OPEN
 10
141.8672357013556
 20
263.5988450884091
 30
0.0000000000000000
 41
2.000000000000000
 42
2.000000000000000
 43
2.000000000000000
 50
0.0000000000000000
  0
LINE
  5
1F9
100
AcDbEntity
  8
MAIN0
  6
BYBLOCK
 62
0
100
AcDbLine
 10
141.8672357013556
 20
258.0988451003301
 30
0.0000000000000000
 11
141.8672357013556
 21
265.5988450884091
 31
0.0000000000000000
  0
MTEXT
  5
1FA
100
AcDbEntity
  8
MAIN0
  6
BYBLOCK
 62
0
100
AcDbMText
 10
138.3672357013594
 20
265.6488450407254
 30
0.0000000000000000
 40
3.099999904632568
 41
0.0000000000000000
 71
     5
 72
     1
  1
\A1;7
 11
1.000000000000000
 21
0.0000000000000000
 31
0.0000000000000000
  7
STANDARD
  0
ENDBLK
  5
1FB
100
AcDbEntity
  8
MAIN0
  6
CONTINUOUS
 62
3
100
AcDbBlockEnd
  0
BLOCK
  5
1FD
100
AcDbEntity
  8
MAIN0
  6
CONTINUOUS
 62
3
100
AcDbBlockBegin
  2
*D11
 70
    65
 10
0.0
 20
0.0
 30
0.0
  0
LINE
  5
1FE
100
AcDbEntity
  8
MAIN0
  6
BYBLOCK
 62
0
100
AcDbLine
 10
149.4672357130848
 20
225.5988450884308
 30
0.0000000000000000
 11
164.8672357013652
 21
225.5988450884308
 31
0.0000000000000000
  0
LINE
  5
1FF
100
AcDbEntity
  8
MAIN0
  6
BYBLOCK
 62
0
100
AcDbLine
 10
162.8672357013652
 20
223.5988450884308
 30
0.0000000000000000
 11
162.8672357013652
 21
213.5988450884308
 31
0.0000000000000000
  0
INSERT
  5
200
100
AcDbEntity
  8
MAIN0
  6
BYBLOCK
 62
0
100
AcDbBlockReference
  2
_OPEN
 10
162.8672357013652
 20
225.5988450884308
 30
0.0000000000000000
 41
2.000000000000000
 42
2.000000000000000
 43
2.000000000000000
 50
90.00000000000000
  0
INSERT
  5
201
100
AcDbEntity
  8
MAIN0
  6
BYBLOCK
 62
0
100
AcDbBlockReference
  2
_OPEN
 10
162.8672357013652
 20
211.5988450884308
 30
0.0000000000000000
 41
2.000000000000000
 42
2.000000000000000
 43
2.000000000000000
 50
270.0000000000000
  0
LINE
  5
202
100
AcDbEntity
  8
MAIN0
  6
BYBLOCK
 62
0
100
AcDbLine
 10
149.4672357130584
 20
211.5988450884308
 30
0.0000000000000000
 11
164.8672357013652
 21
211.5988450884308
 31
0.0000000000000000
  0
MTEXT
  5
203
100
AcDbEntity
  8
MAIN0
  6
BYBLOCK
 62
0
100
AcDbMText
 10
160.8172357490489
 20
218.5988450884308
 30
0.0000000000000000
 40
3.099999904632568
 41
0.0000000000000000
 71
     5
 72
     1
  1
\A1;14
 11
6.123233995736766e-017
 21
1.000000000000000
 31
0.0000000000000000
  7
STANDARD
  0
ENDBLK
  5
204
100
AcDbEntity
  8
MAIN0
  6
CONTINUOUS
 62
3
100
AcDbBlockEnd
  0
BLOCK
  5
206
100
AcDbEntity
  8
MAIN0
  6
CONTINUOUS
 62
3
100
AcDbBlockBegin
  2
*D12
 70
    65
 10
0.0
 20
0.0
 30
0.0
  0
LINE
  5
207
100
AcDbEntity
  8
MAIN0
  6
BYBLOCK
 62
0
100
AcDbLine
 10
134.8672357131055
 20
205.5988450884213
 30
0.0000000000000000
 11
157.3672357013652
 21
205.5988450884213
 31
0.0000000000000000
  0
LINE
  5
208
100
AcDbEntity
  8
MAIN0
  6
BYBLOCK
 62
0
100
AcDbLine
 10
155.3672357013652
 20
203.5988450884213
 30
0.0000000000000000
 11
155.3672357013652
 21
188.5988450884344
 31
0.0000000000000000
  0
INSERT
  5
209
100
AcDbEntity
  8
MAIN0
  6
BYBLOCK
 62
0
100
AcDbBlockReference
  2
_OPEN
 10
155.3672357013652
 20
205.5988450884213
 30
0.0000000000000000
 41
2.000000000000000
 42
2.000000000000000
 43
2.000000000000000
 50
90.00000000000000
  0
INSERT
  5
20A
100
AcDbEntity
  8
MAIN0
  6
BYBLOCK
 62
0
100
AcDbBlockReference
  2
_OPEN
 10
155.3672357013652
 20
186.5988450884344
 30
0.0000000000000000
 41
2.000000000000000
 42
2.000000000000000
 43
2.000000000000000
 50
270.0000000000000
  0
LINE
  5
20B
100
AcDbEntity
  8
MAIN0
  6
BYBLOCK
 62
0
100
AcDbLine
 10
142.3672357131497
 20
186.5988450884344
 30
0.0000000000000000
 11
157.3672357013652
 21
186.5988450884344
 31
0.0000000000000000
  0
MTEXT
  5
20C
100
AcDbEntity
  8
MAIN0
  6
BYBLOCK
 62
0
100
AcDbMText
 10
153.3172357490489
 20
196.0988450884278
 30
0.0000000000000000
 40
3.099999904632568
 41
0.0000000000000000
 71
     5
 72
     1
  1
\A1;19
 11
6.123233995736766e-017
 21
1.000000000000000
 31
0.0000000000000000
  7
STANDARD
  0
ENDBLK
  5
20D
100
AcDbEntity
  8
MAIN0
  6
CONTINUOUS
 62
3
100
AcDbBlockEnd
  0
BLOCK
  5
20F
100
AcDbEntity
  8
MAIN0
  6
CONTINUOUS
 62
3
100
AcDbBlockBegin
  2
*D13
 70
    65
 10
0.0
 20
0.0
 30
0.0
  0
LINE
  5
210
100
AcDbEntity
  8
MAIN0
  6
BYBLOCK
 62
0
100
AcDbLine
 10
142.3672357131497
 20
186.5988450884344
 30
0.0000000000000000
 11
157.3672357013652
 21
186.5988450884344
 31
0.0000000000000000
  0
LINE
  5
211
100
AcDbEntity
  8
MAIN0
  6
BYBLOCK
 62
0
100
AcDbLine
 10
155.3672357013652
 20
184.5988450884344
 30
0.0000000000000000
 11
155.3672357013652
 21
175.5988450884467
 31
0.0000000000000000
  0
INSERT
  5
212
100
AcDbEntity
  8
MAIN0
  6
BYBLOCK
 62
0
100
AcDbBlockReference
  2
_OPEN
 10
155.3672357013652
 20
186.5988450884344
 30
0.0000000000000000
 41
2.000000000000000
 42
2.000000000000000
 43
2.000000000000000
 50
90.00000000000000
  0
INSERT
  5
213
100
AcDbEntity
  8
MAIN0
  6
BYBLOCK
 62
0
100
AcDbBlockReference
  2
_OPEN
 10
155.3672357013652
 20
173.5988450884467
 30
0.0000000000000000
 41
2.000000000000000
 42
2.000000000000000
 43
2.000000000000000
 50
270.0000000000000
  0
LINE
  5
214
100
AcDbEntity
  8
MAIN0
  6
BYBLOCK
 62
0
100
AcDbLine
 10
149.3672357131802
 20
173.5988450884467
 30
0.0000000000000000
 11
157.3672357013652
 21
173.5988450884467
 31
0.0000000000000000
  0
MTEXT
  5
215
100
AcDbEntity
  8
MAIN0
  6
BYBLOCK
 62
0
100
AcDbMText
 10
153.3172357490489
 20
180.0988450884406
 30
0.0000000000000000
 40
3.099999904632568
 41
0.0000000000000000
 71
     5
 72
     1
  1
\A1;13
 11
6.123233995736766e-017
 21
1.000000000000000
 31
0.0000000000000000
  7
STANDARD
  0
ENDBLK
  5
216
100
AcDbEntity
  8
MAIN0
  6
CONTINUOUS
 62
3
100
AcDbBlockEnd
  0
BLOCK
  5
218
100
AcDbEntity
  8
MAIN0
  6
CONTINUOUS
 62
3
100
AcDbBlockBegin
  2
*D14
 70
    65
 10
0.0
 20
0.0
 30
0.0
  0
LINE
  5
219
100
AcDbEntity
  8
MAIN0
  6
BYBLOCK
 62
0
100
AcDbLine
 10
149.3672357131802
 20
173.5988450884467
 30
0.0000000000000000
 11
157.3672357013652
 21
173.5988450884467
 31
0.0000000000000000
  0
LINE
  5
21A
100
AcDbEntity
  8
MAIN0
  6
BYBLOCK
 62
0
100
AcDbLine
 10
155.3672357013652
 20
171.5988450884467
 30
0.0000000000000000
 11
155.3672357013652
 21
165.5988450884467
 31
0.0000000000000000
  0
INSERT
  5
21B
100
AcDbEntity
  8
MAIN0
  6
BYBLOCK
 62
0
100
AcDbBlockReference
  2
_OPEN
 10
155.3672357013652
 20
173.5988450884467
 30
0.0000000000000000
 41
2.000000000000000
 42
2.000000000000000
 43
2.000000000000000
 50
90.00000000000000
  0
INSERT
  5
21C
100
AcDbEntity
  8
MAIN0
  6
BYBLOCK
 62
0
100
AcDbBlockReference
  2
_OPEN
 10
155.3672357013652
 20
163.5988450884467
 30
0.0000000000000000
 41
2.000000000000000
 42
2.000000000000000
 43
2.000000000000000
 50
270.0000000000000
  0
LINE
  5
21D
100
AcDbEntity
  8
MAIN0
  6
BYBLOCK
 62
0
100
AcDbLine
 10
149.3672357132035
 20
163.5988450884467
 30
0.0000000000000000
 11
157.3672357013652
 21
163.5988450884467
 31
0.0000000000000000
  0
MTEXT
  5
21E
100
AcDbEntity
  8
MAIN0
  6
BYBLOCK
 62
0
100
AcDbMText
 10
153.3172357490489
 20
168.5988450884467
 30
0.0000000000000000
 40
3.099999904632568
 41
0.0000000000000000
 71
     5
 72
     1
  1
\A1;10
 11
6.123233995736766e-017
 21
1.000000000000000
 31
0.0000000000000000
  7
STANDARD
  0
ENDBLK
  5
21F
100
AcDbEntity
  8
MAIN0
  6
CONTINUOUS
 62
3
100
AcDbBlockEnd
  0
BLOCK
  5
221
100
AcDbEntity
  8
MAIN0
  6
CONTINUOUS
 62
3
100
AcDbBlockBegin
  2
*D15
 70
    65
 10
0.0
 20
0.0
 30
0.0
  0
LINE
  5
222
100
AcDbEntity
  8
MAIN0
  6
BYBLOCK
 62
0
100
AcDbLine
 10
148.8672357012594
 20
174.0988451003681
 30
0.0000000000000000
 11
148.8672357012541
 21
180.5988450884091
 31
0.0000000000000000
  0
LINE
  5
223
100
AcDbEntity
  8
MAIN0
  6
BYBLOCK
 62
0
100
AcDbLine
 10
146.8672357012557
 20
178.5988450884091
 30
0.0000000000000000
 11
143.8672357012296
 21
178.5988450884091
 31
0.0000000000000000
  0
INSERT
  5
224
100
AcDbEntity
  8
MAIN0
  6
BYBLOCK
 62
0
100
AcDbBlockReference
  2
_OPEN
 10
148.8672357012557
 20
178.5988450884091
 30
0.0000000000000000
 41
2.000000000000000
 42
2.000000000000000
 43
2.000000000000000
 50
360.0000000000000
  0
INSERT
  5
225
100
AcDbEntity
  8
MAIN0
  6
BYBLOCK
 62
0
100
AcDbBlockReference
  2
_OPEN
 10
141.8672357012296
 20
178.5988450884091
 30
0.0000000000000000
 41
2.000000000000000
 42
2.000000000000000
 43
2.000000000000000
 50
180.0000000000000
  0
MTEXT
  5
226
100
AcDbEntity
  8
MAIN0
  6
BYBLOCK
 62
0
100
AcDbMText
 10
145.3672357012426
 20
180.6488450407254
 30
0.0000000000000000
 40
3.099999904632568
 41
0.0000000000000000
 71
     5
 72
     1
  1
\A1;7
 11
1.000000000000000
 21
0.0000000000000000
 31
0.0000000000000000
  7
STANDARD
  0
ENDBLK
  5
227
100
AcDbEntity
  8
MAIN0
  6
CONTINUOUS
 62
3
100
AcDbBlockEnd
  0
BLOCK
  5
229
100
AcDbEntity
  8
MAIN0
  6
CONTINUOUS
 62
3
100
AcDbBlockBegin
  2
*D16
 70
    65
 10
0.0
 20
0.0
 30
0.0
  0
LINE
  5
22A
100
AcDbEntity
  8
MAIN0
  6
BYBLOCK
 62
0
100
AcDbLine
 10
141.8672357012296
 20
187.0988451003559
 30
0.0000000000000000
 11
141.8672357012296
 21
193.0988450884091
 31
0.0000000000000000
  0
LINE
  5
22B
100
AcDbEntity
  8
MAIN0
  6
BYBLOCK
 62
0
100
AcDbLine
 10
139.8672357012296
 20
191.0988450884091
 30
0.0000000000000000
 11
136.8672357012031
 21
191.0988450884091
 31
0.0000000000000000
  0
INSERT
  5
22C
100
AcDbEntity
  8
MAIN0
  6
BYBLOCK
 62
0
100
AcDbBlockReference
  2
_OPEN
 10
141.8672357012296
 20
191.0988450884091
 30
0.0000000000000000
 41
2.000000000000000
 42
2.000000000000000
 43
2.000000000000000
 50
360.0000000000000
  0
INSERT
  5
22D
100
AcDbEntity
  8
MAIN0
  6
BYBLOCK
 62
0
100
AcDbBlockReference
  2
_OPEN
 10
134.8672357012031
 20
191.0988450884091
 30
0.0000000000000000
 41
2.000000000000000
 42
2.000000000000000
 43
2.000000000000000
 50
180.0000000000000
  0
MTEXT
  5
22E
100
AcDbEntity
  8
MAIN0
  6
BYBLOCK
 62
0
100
AcDbMText
 10
138.3672357012163
 20
193.1488450407254
 30
0.0000000000000000
 40
3.099999904632568
 41
0.0000000000000000
 71
     5
 72
     1
  1
\A1;7
 11
1.000000000000000
 21
0.0000000000000000
 31
0.0000000000000000
  7
STANDARD
  0
ENDBLK
  5
22F
100
AcDbEntity
  8
MAIN0
  6
CONTINUOUS
 62
3
100
AcDbBlockEnd
  0
BLOCK
  5
231
100
AcDbEntity
  8
MAIN0
  6
CONTINUOUS
 62
3
100
AcDbBlockBegin
  2
*D17
 70
    65
 10
0.0
 20
0.0
 30
0.0
  0
LINE
  5
232
100
AcDbEntity
  8
MAIN0
  6
BYBLOCK
 62
0
100
AcDbLine
 10
85.36723570135557
 20
164.3690450764965
 30
0.0000000000000000
 11
85.36723570135881
 21
156.5988450884091
 31
0.0000000000000000
  0
LINE
  5
233
100
AcDbEntity
  8
MAIN0
  6
BYBLOCK
 62
0
100
AcDbLine
 10
87.36723570135797
 20
158.5988450884091
 30
0.0000000000000000
 11
107.3672357014433
 21
158.5988450884091
 31
0.0000000000000000
  0
INSERT
  5
234
100
AcDbEntity
  8
MAIN0
  6
BYBLOCK
 62
0
100
AcDbBlockReference
  2
_OPEN
 10
85.36723570135797
 20
158.5988450884091
 30
0.0000000000000000
 41
2.000000000000000
 42
2.000000000000000
 43
2.000000000000000
 50
180.0000000000000
  0
INSERT
  5
235
100
AcDbEntity
  8
MAIN0
  6
BYBLOCK
 62
0
100
AcDbBlockReference
  2
_OPEN
 10
109.3672357014433
 20
158.5988450884091
 30
0.0000000000000000
 41
2.000000000000000
 42
2.000000000000000
 43
2.000000000000000
 50
0.0000000000000000
  0
LINE
  5
236
100
AcDbEntity
  8
MAIN0
  6
BYBLOCK
 62
0
100
AcDbLine
 10
109.3672357014433
 20
164.3690450764848
 30
0.0000000000000000
 11
109.3672357014433
 21
156.5988450884091
 31
0.0000000000000000
  0
MTEXT
  5
237
100
AcDbEntity
  8
MAIN0
  6
BYBLOCK
 62
0
100
AcDbMText
 10
93.04029946084032
 20
160.6488450407254
 30
0.0000000000000000
 40
3.099999904632568
 41
0.0000000000000000
 71
     5
 72
     1
  1
\A1;\U+220524
 11
1.000000000000000
 21
0.0000000000000000
 31
0.0000000000000000
  7
STANDARD
  0
ENDBLK
  5
238
100
AcDbEntity
  8
MAIN0
  6
CONTINUOUS
 62
3
100
AcDbBlockEnd
  0
BLOCK
  5
24E
100
AcDbEntity
  8
MAIN0
  6
CONTINUOUS
 62
3
100
AcDbBlockBegin
  2
*D18
 70
    65
 10
0.0
 20
0.0
 30
0.0
  0
LINE
  5
24F
100
AcDbEntity
  8
MAIN0
  6
BYBLOCK
 62
0
100
AcDbLine
 10
103.1108162843894
 20
131.6152829200067
 30
0.0000000000000000
 11
110.9114584710424
 21
123.8146407333383
 31
0.0000000000000000
  0
LINE
  5
250
100
AcDbEntity
  8
MAIN0
  6
BYBLOCK
 62
0
100
AcDbLine
 10
109.4972449086707
 20
125.2288542957127
 30
0.0000000000000000
 11
103.8403906591778
 21
119.5720000462265
 31
0.0000000000000000
  0
INSERT
  5
251
100
AcDbEntity
  8
MAIN0
  6
BYBLOCK
 62
0
100
AcDbBlockReference
  2
_OPEN
 10
109.4972449086707
 20
125.2288542957127
 30
0.0000000000000000
 41
2.000000000000000
 42
2.000000000000000
 43
2.000000000000000
 50
224.9999999999663
  0
INSERT
  5
252
100
AcDbEntity
  8
MAIN0
  6
BYBLOCK
 62
0
100
AcDbBlockReference
  2
_OPEN
 10
103.8403906591778
 20
119.5720000462265
 30
0.0000000000000000
 41
2.000000000000000
 42
2.000000000000000
 43
2.000000000000000
 50
44.99999999996635
  0
LINE
  5
253
100
AcDbEntity
  8
MAIN0
  6
BYBLOCK
 62
0
100
AcDbLine
 10
110.9114584710446
 20
126.6430678580850
 30
0.0000000000000000
 11
111.6185652522316
 21
127.3501746392711
 31
0.0000000000000000
  0
LINE
  5
254
100
AcDbEntity
  8
MAIN0
  6
BYBLOCK
 62
0
100
AcDbLine
 10
102.4261770968039
 20
118.1577864838542
 30
0.0000000000000000
 11
94.83915633200806
 21
110.5707657190673
 31
0.0000000000000000
  0
LINE
  5
255
100
AcDbEntity
  8
MAIN0
  6
BYBLOCK
 62
0
100
AcDbLine
 10
97.45396203482852
 20
125.9584286705833
 30
0.0000000000000000
 11
105.2546042215501
 21
118.1577864838525
 31
0.0000000000000000
  0
MTEXT
  5
256
100
AcDbEntity
  8
MAIN0
  6
BYBLOCK
 62
0
100
AcDbMText
 10
97.01350958144134
 20
115.6442567039262
 30
0.0000000000000000
 40
3.099999904632568
 41
0.0000000000000000
 71
     5
 72
     1
  1
\A1;8\H0.903226x;\S+0.15^ +0.05;
 11
0.7071067811869634
 21
0.7071067811861318
 31
0.0000000000000000
  7
STANDARD
  0
ENDBLK
  5
257
100
AcDbEntity
  8
MAIN0
  6
CONTINUOUS
 62
3
100
AcDbBlockEnd
  0
BLOCK
  5
259
100
AcDbEntity
  8
MAIN0
  6
CONTINUOUS
 62
3
100
AcDbBlockBegin
  2
*D19
 70
    65
 10
0.0
 20
0.0
 30
0.0
  0
LINE
  5
25A
100
AcDbEntity
  8
MAIN0
  6
BYBLOCK
 62
0
100
AcDbLine
 10
77.56723568944426
 20
230.5988450884091
 30
0.0000000000000000
 11
60.86723570136519
 21
230.5988450884091
 31
0.0000000000000000
  0
LINE
  5
25B
100
AcDbEntity
  8
MAIN0
  6
BYBLOCK
 62
0
100
AcDbLine
 10
62.86723570136519
 20
228.5988450884091
 30
0.0000000000000000
 11
62.86723570136519
 21
208.5988450884091
 31
0.0000000000000000
  0
INSERT
  5
25C
100
AcDbEntity
  8
MAIN0
  6
BYBLOCK
 62
0
100
AcDbBlockReference
  2
_OPEN
 10
62.86723570136519
 20
230.5988450884091
 30
0.0000000000000000
 41
2.000000000000000
 42
2.000000000000000
 43
2.000000000000000
 50
90.00000000000000
  0
INSERT
  5
25D
100
AcDbEntity
  8
MAIN0
  6
BYBLOCK
 62
0
100
AcDbBlockReference
  2
_OPEN
 10
62.86723570136519
 20
206.5988450884091
 30
0.0000000000000000
 41
2.000000000000000
 42
2.000000000000000
 43
2.000000000000000
 50
270.0000000000000
  0
LINE
  5
25E
100
AcDbEntity
  8
MAIN0
  6
BYBLOCK
 62
0
100
AcDbLine
 10
77.56723568944426
 20
206.5988450884091
 30
0.0000000000000000
 11
60.86723570136519
 21
206.5988450884091
 31
0.0000000000000000
  0
MTEXT
  5
25F
100
AcDbEntity
  8
MAIN0
  6
BYBLOCK
 62
0
100
AcDbMText
 10
60.81723574904891
 20
218.5988450884091
 30
0.0000000000000000
 40
3.099999904632568
 41
0.0000000000000000
 71
     5
 72
     1
  1
\A1;\U+220524
 11
6.123233995736766e-017
 21
1.000000000000000
 31
0.0000000000000000
  7
STANDARD
  0
ENDBLK
  5
260
100
AcDbEntity
  8
MAIN0
  6
CONTINUOUS
 62
3
100
AcDbBlockEnd
  0
BLOCK
  5
262
100
AcDbEntity
  8
MAIN0
  6
CONTINUOUS
 62
3
100
AcDbBlockBegin
  2
*D20
 70
    65
 10
0.0
 20
0.0
 30
0.0
  0
LINE
  5
263
100
AcDbEntity
  8
MAIN0
  6
BYBLOCK
 62
0
100
AcDbLine
 10
72.06723568944426
 20
258.5988450884091
 30
0.0000000000000000
 11
50.86723570136519
 21
258.5988450884091
 31
0.0000000000000000
  0
LINE
  5
264
100
AcDbEntity
  8
MAIN0
  6
BYBLOCK
 62
0
100
AcDbLine
 10
52.86723570136519
 20
256.5988450884091
 30
0.0000000000000000
 11
52.86723570136519
 21
180.5988450884091
 31
0.0000000000000000
  0
INSERT
  5
265
100
AcDbEntity
  8
MAIN0
  6
BYBLOCK
 62
0
100
AcDbBlockReference
  2
_OPEN
 10
52.86723570136519
 20
258.5988450884091
 30
0.0000000000000000
 41
2.000000000000000
 42
2.000000000000000
 43
2.000000000000000
 50
90.00000000000000
  0
INSERT
  5
266
100
AcDbEntity
  8
MAIN0
  6
BYBLOCK
 62
0
100
AcDbBlockReference
  2
_OPEN
 10
52.86723570136519
 20
178.5988450884091
 30
0.0000000000000000
 41
2.000000000000000
 42
2.000000000000000
 43
2.000000000000000
 50
270.0000000000000
  0
LINE
  5
267
100
AcDbEntity
  8
MAIN0
  6
BYBLOCK
 62
0
100
AcDbLine
 10
72.06723568944426
 20
178.5988450884091
 30
0.0000000000000000
 11
50.86723570136519
 21
178.5988450884091
 31
0.0000000000000000
  0
MTEXT
  5
268
100
AcDbEntity
  8
MAIN0
  6
BYBLOCK
 62
0
100
AcDbMText
 10
50.81723574904891
 20
223.5472007823851
 30
0.0000000000000000
 40
3.099999904632568
 41
0.0000000000000000
 71
     5
 72
     1
  1
\A1;\U+220580H6\H0.903226x;\S＋0.019^ 　0;
 11
6.123233995736766e-017
 21
1.000000000000000
 31
0.0000000000000000
  7
KNJYOKO
  0
ENDBLK
  5
269
100
AcDbEntity
  8
MAIN0
  6
CONTINUOUS
 62
3
100
AcDbBlockEnd
  0
BLOCK
  5
26C
100
AcDbEntity
  8
MAIN0
  6
CONTINUOUS
 62
3
100
AcDbBlockBegin
  2
*D21
 70
    65
 10
0.0
 20
0.0
 30
0.0
  0
LINE
  5
26D
100
AcDbEntity
  8
MAIN0
  6
BYBLOCK
 62
0
100
AcDbLine
 10
73.06723568944426
 20
273.5988450884091
 30
0.0000000000000000
 11
40.86723570136519
 21
273.5988450884091
 31
0.0000000000000000
  0
LINE
  5
26E
100
AcDbEntity
  8
MAIN0
  6
BYBLOCK
 62
0
100
AcDbLine
 10
42.86723570136519
 20
271.5988450884091
 30
0.0000000000000000
 11
42.86723570136519
 21
165.5988450884091
 31
0.0000000000000000
  0
INSERT
  5
26F
100
AcDbEntity
  8
MAIN0
  6
BYBLOCK
 62
0
100
AcDbBlockReference
  2
_OPEN
 10
42.86723570136519
 20
273.5988450884091
 30
0.0000000000000000
 41
2.000000000000000
 42
2.000000000000000
 43
2.000000000000000
 50
90.00000000000000
  0
INSERT
  5
270
100
AcDbEntity
  8
MAIN0
  6
BYBLOCK
 62
0
100
AcDbBlockReference
  2
_OPEN
 10
42.86723570136519
 20
163.5988450884091
 30
0.0000000000000000
 41
2.000000000000000
 42
2.000000000000000
 43
2.000000000000000
 50
270.0000000000000
  0
LINE
  5
271
100
AcDbEntity
  8
MAIN0
  6
BYBLOCK
 62
0
100
AcDbLine
 10
73.06723568944426
 20
163.5988450884091
 30
0.0000000000000000
 11
40.86723570136519
 21
163.5988450884091
 31
0.0000000000000000
  0
MTEXT
  5
272
100
AcDbEntity
  8
MAIN0
  6
BYBLOCK
 62
0
100
AcDbMText
 10
40.81723574904891
 20
218.5988450884091
 30
0.0000000000000000
 40
3.099999904632568
 41
0.0000000000000000
 71
     5
 72
     1
  1
\A1;\U+2205110
 11
6.123233995736766e-017
 21
1.000000000000000
 31
0.0000000000000000
  7
STANDARD
  0
ENDBLK
  5
273
100
AcDbEntity
  8
MAIN0
  6
CONTINUOUS
 62
3
100
AcDbBlockEnd
  0
BLOCK
  5
276
100
AcDbEntity
  8
MAIN0
  6
CONTINUOUS
 62
3
100
AcDbBlockBegin
  2
*D22
 70
    65
 10
0.0
 20
0.0
 30
0.0
  0
LINE
  5
277
100
AcDbEntity
  8
MAIN0
  6
BYBLOCK
 62
0
100
AcDbLine
 10
72.86723570136519
 20
273.3988451003301
 30
0.0000000000000000
 11
72.86723570136519
 21
285.5988450884091
 31
0.0000000000000000
  0
LINE
  5
278
100
AcDbEntity
  8
MAIN0
  6
BYBLOCK
 62
0
100
AcDbLine
 10
74.86723570136519
 20
283.5988450884091
 30
0.0000000000000000
 11
86.86723570136519
 21
283.5988450884091
 31
0.0000000000000000
  0
INSERT
  5
279
100
AcDbEntity
  8
MAIN0
  6
BYBLOCK
 62
0
100
AcDbBlockReference
  2
_OPEN
 10
72.86723570136519
 20
283.5988450884091
 30
0.0000000000000000
 41
2.000000000000000
 42
2.000000000000000
 43
2.000000000000000
 50
180.0000000000000
  0
INSERT
  5
27A
100
AcDbEntity
  8
MAIN0
  6
BYBLOCK
 62
0
100
AcDbBlockReference
  2
_OPEN
 10
88.86723570136519
 20
283.5988450884091
 30
0.0000000000000000
 41
2.000000000000000
 42
2.000000000000000
 43
2.000000000000000
 50
0.0000000000000000
  0
LINE
  5
27B
100
AcDbEntity
  8
MAIN0
  6
BYBLOCK
 62
0
100
AcDbLine
 10
88.86723570136519
 20
270.8988451003301
 30
0.0000000000000000
 11
88.86723570136519
 21
285.5988450884091
 31
0.0000000000000000
  0
MTEXT
  5
27C
100
AcDbEntity
  8
MAIN0
  6
BYBLOCK
 62
0
100
AcDbMText
 10
80.86723570136519
 20
285.6488450407254
 30
0.0000000000000000
 40
3.099999904632568
 41
0.0000000000000000
 71
     5
 72
     1
  1
\A1;16
 11
1.000000000000000
 21
0.0000000000000000
 31
0.0000000000000000
  7
STANDARD
  0
ENDBLK
  5
27D
100
AcDbEntity
  8
MAIN0
  6
CONTINUOUS
 62
3
100
AcDbBlockEnd
  0
BLOCK
  5
28B
100
AcDbEntity
  8
MAIN0
  6
CONTINUOUS
 62
3
100
AcDbBlockBegin
  2
*D23
 70
    65
 10
0.0
 20
0.0
 30
0.0
  0
LINE
  5
28C
100
AcDbEntity
  8
MAIN0
  6
BYBLOCK
 62
0
100
AcDbLine
 10
131.2672357132861
 20
179.0988450884091
 30
0.0000000000000000
 11
139.8672357013652
 21
179.0988450884091
 31
0.0000000000000000
  0
LINE
  5
28D
100
AcDbEntity
  8
MAIN0
  6
BYBLOCK
 62
0
100
AcDbLine
 10
137.8672357013652
 20
177.0988450884091
 30
0.0000000000000000
 11
137.8672357013652
 21
167.0988450884091
 31
0.0000000000000000
  0
INSERT
  5
28E
100
AcDbEntity
  8
MAIN0
  6
BYBLOCK
 62
0
100
AcDbBlockReference
  2
_OPEN
 10
137.8672357013652
 20
179.0988450884091
 30
0.0000000000000000
 41
2.000000000000000
 42
2.000000000000000
 43
2.000000000000000
 50
90.00000000000000
  0
INSERT
  5
28F
100
AcDbEntity
  8
MAIN0
  6
BYBLOCK
 62
0
100
AcDbBlockReference
  2
_OPEN
 10
137.8672357013652
 20
165.0988450884091
 30
0.0000000000000000
 41
2.000000000000000
 42
2.000000000000000
 43
2.000000000000000
 50
270.0000000000000
  0
LINE
  5
290
100
AcDbEntity
  8
MAIN0
  6
BYBLOCK
 62
0
100
AcDbLine
 10
131.2672357132861
 20
165.0988450884091
 30
0.0000000000000000
 11
139.8672357013652
 21
165.0988450884091
 31
0.0000000000000000
  0
MTEXT
  5
291
100
AcDbEntity
  8
MAIN0
  6
BYBLOCK
 62
0
100
AcDbMText
 10
135.8172357490489
 20
172.0988450884091
 30
0.0000000000000000
 40
3.099999904632568
 41
0.0000000000000000
 71
     5
 72
     1
  1
\A1;\U+220514
 11
6.123233995736766e-017
 21
1.000000000000000
 31
0.0000000000000000
  7
STANDARD
  0
ENDBLK
  5
292
100
AcDbEntity
  8
MAIN0
  6
CONTINUOUS
 62
3
100
AcDbBlockEnd
  0
BLOCK
  5
294
100
AcDbEntity
  8
MAIN0
  6
CONTINUOUS
 62
3
100
AcDbBlockBegin
  2
*D24
 70
    65
 10
0.0
 20
0.0
 30
0.0
  0
LINE
  5
295
100
AcDbEntity
  8
MAIN0
  6
BYBLOCK
 62
0
100
AcDbLine
 10
72.46723568944427
 20
176.5988450884091
 30
0.0000000000000000
 11
60.86723570136519
 21
176.5988450884091
 31
0.0000000000000000
  0
LINE
  5
296
100
AcDbEntity
  8
MAIN0
  6
BYBLOCK
 62
0
100
AcDbLine
 10
62.86723570136519
 20
174.5988450884091
 30
0.0000000000000000
 11
62.86723570136519
 21
169.5988450884091
 31
0.0000000000000000
  0
INSERT
  5
297
100
AcDbEntity
  8
MAIN0
  6
BYBLOCK
 62
0
100
AcDbBlockReference
  2
_OPEN
 10
62.86723570136519
 20
176.5988450884091
 30
0.0000000000000000
 41
2.000000000000000
 42
2.000000000000000
 43
2.000000000000000
 50
90.00000000000000
  0
INSERT
  5
298
100
AcDbEntity
  8
MAIN0
  6
BYBLOCK
 62
0
100
AcDbBlockReference
  2
_OPEN
 10
62.86723570136519
 20
167.5988450884091
 30
0.0000000000000000
 41
2.000000000000000
 42
2.000000000000000
 43
2.000000000000000
 50
270.0000000000000
  0
LINE
  5
299
100
AcDbEntity
  8
MAIN0
  6
BYBLOCK
 62
0
100
AcDbLine
 10
72.46723568944427
 20
167.5988450884091
 30
0.0000000000000000
 11
60.86723570136519
 21
167.5988450884091
 31
0.0000000000000000
  0
MTEXT
  5
29A
100
AcDbEntity
  8
MAIN0
  6
BYBLOCK
 62
0
100
AcDbMText
 10
60.81723574904891
 20
172.0988450884091
 30
0.0000000000000000
 40
3.099999904632568
 41
0.0000000000000000
 71
     5
 72
     1
  1
\A1;\U+22059
 11
6.123233995736766e-017
 21
1.000000000000000
 31
0.0000000000000000
  7
STANDARD
  0
ENDBLK
  5
29B
100
AcDbEntity
  8
MAIN0
  6
CONTINUOUS
 62
3
100
AcDbBlockEnd
  0
BLOCK
  5
2A2
100
AcDbEntity
  8
MAIN0
  6
CONTINUOUS
 62
3
100
AcDbBlockBegin
  2
*D25
 70
    65
 10
0.0
 20
0.0
 30
0.0
  0
LINE
  5
2A3
100
AcDbEntity
  8
MAIN0
  6
BYBLOCK
 62
0
100
AcDbLine
 10
191.1558024416925
 20
206.1783405142950
 30
0.0000000000000000
 11
241.6928817396474
 21
220.8676453381519
 31
0.0000000000000000
  0
INSERT
  5
2A4
100
AcDbEntity
  8
MAIN0
  6
BYBLOCK
 62
0
100
AcDbBlockReference
  2
_OPEN
 10
189.2352856015008
 20
205.6201155896094
 30
0.0000000000000000
 41
2.000000000000000
 42
2.000000000000000
 43
2.000000000000000
 50
196.2072408386933
  0
MTEXT
  5
2A5
100
AcDbEntity
  8
MAIN0
  6
BYBLOCK
 62
0
100
AcDbMText
 10
202.1523207266915
 20
211.5094734061352
 30
0.0000000000000000
 40
3.099999904632568
 41
0.0000000000000000
 71
     5
 72
     1
  1
\A1;\U+220593\H0.903226x;\U+00B10.2
 11
0.9602584200958434
 21
0.2791124623427530
 31
0.0000000000000000
  7
STANDARD
  0
ENDBLK
  5
2A6
100
AcDbEntity
  8
MAIN0
  6
CONTINUOUS
 62
3
100
AcDbBlockEnd
  0
BLOCK
  5
2A8
100
AcDbEntity
  8
MAIN0
  6
CONTINUOUS
 62
3
100
AcDbBlockBegin
  2
*D26
 70
    65
 10
0.0
 20
0.0
 30
0.0
  0
LINE
  5
2A9
100
AcDbEntity
  8
MAIN0
  6
BYBLOCK
 62
0
100
AcDbLine
 10
77.36723570136519
 20
188.5988450884091
 30
0.0000000000000000
 11
72.86723570136519
 21
188.5988450884091
 31
0.0000000000000000
  0
INSERT
  5
2AA
100
AcDbEntity
  8
MAIN0
  6
BYBLOCK
 62
0
100
AcDbBlockReference
  2
_OPEN
 10
77.36723570136519
 20
188.5988450884091
 30
0.0000000000000000
 41
2.000000000000000
 42
2.000000000000000
 43
2.000000000000000
 50
180.0000000000000
  0
INSERT
  5
2AB
100
AcDbEntity
  8
MAIN0
  6
BYBLOCK
 62
0
100
AcDbBlockReference
  2
_OPEN
 10
72.86723570136519
 20
188.5988450884091
 30
0.0000000000000000
 41
2.000000000000000
 42
2.000000000000000
 43
2.000000000000000
 50
360.0000000000000
  0
LINE
  5
2AC
100
AcDbEntity
  8
MAIN0
  6
BYBLOCK
 62
0
100
AcDbLine
 10
79.36723570136519
 20
188.5988450884091
 30
0.0000000000000000
 11
80.36723570136519
 21
188.5988450884091
 31
0.0000000000000000
  0
LINE
  5
2AD
100
AcDbEntity
  8
MAIN0
  6
BYBLOCK
 62
0
100
AcDbLine
 10
70.86723570136519
 20
188.5988450884091
 30
0.0000000000000000
 11
65.21723560599776
 21
188.5988450884091
 31
0.0000000000000000
  0
MTEXT
  5
2AE
100
AcDbEntity
  8
MAIN0
  6
BYBLOCK
 62
0
100
AcDbMText
 10
67.86723570136519
 20
190.6488450407254
 30
0.0000000000000000
 40
3.099999904632568
 41
0.0000000000000000
 71
     5
 72
     1
  1
\A1;4.5
 11
1.000000000000000
 21
0.0000000000000000
 31
0.0000000000000000
  7
STANDARD
  0
ENDBLK
  5
2AF
100
AcDbEntity
  8
MAIN0
  6
CONTINUOUS
 62
3
100
AcDbBlockEnd
  0
BLOCK
  5
2BD
100
AcDbEntity
  8
MAIN0
  6
CONTINUOUS
 62
3
100
AcDbBlockBegin
  2
*D27
 70
    65
 10
0.0
 20
0.0
 30
0.0
  0
LINE
  5
2BE
100
AcDbEntity
  8
MAIN0
  6
BYBLOCK
 62
0
100
AcDbLine
 10
339.1847601807471
 20
291.6713267178114
 30
0.0000000000000000
 11
339.1847601807471
 21
301.1424161604879
 31
0.0000000000000000
  0
LINE
  5
2BF
100
AcDbEntity
  8
MAIN0
  6
BYBLOCK
 62
0
100
AcDbLine
 10
337.1847601807471
 20
299.1424161604879
 30
0.0000000000000000
 11
324.1847601807469
 21
299.1424161604879
 31
0.0000000000000000
  0
INSERT
  5
2C0
100
AcDbEntity
  8
MAIN0
  6
BYBLOCK
 62
0
100
AcDbBlockReference
  2
_OPEN
 10
339.1847601807471
 20
299.1424161604879
 30
0.0000000000000000
 41
2.000000000000000
 42
2.000000000000000
 43
2.000000000000000
 50
360.0000000000000
  0
INSERT
  5
2C1
100
AcDbEntity
  8
MAIN0
  6
BYBLOCK
 62
0
100
AcDbBlockReference
  2
_OPEN
 10
322.1847601807469
 20
299.1424161604879
 30
0.0000000000000000
 41
2.000000000000000
 42
2.000000000000000
 43
2.000000000000000
 50
180.0000000000000
  0
LINE
  5
2C2
100
AcDbEntity
  8
MAIN0
  6
BYBLOCK
 62
0
100
AcDbLine
 10
322.1847601807469
 20
291.6713267177947
 30
0.0000000000000000
 11
322.1847601807469
 21
301.1424161604879
 31
0.0000000000000000
  0
MTEXT
  5
2C3
100
AcDbEntity
  8
MAIN0
  6
BYBLOCK
 62
0
100
AcDbMText
 10
330.6847601807470
 20
301.1924161128042
 30
0.0000000000000000
 40
3.099999904632568
 41
0.0000000000000000
 71
     5
 72
     1
  1
\A1;\U+220517
 11
1.000000000000000
 21
0.0000000000000000
 31
0.0000000000000000
  7
STANDARD
  0
ENDBLK
  5
2C4
100
AcDbEntity
  8
MAIN0
  6
CONTINUOUS
 62
3
100
AcDbBlockEnd
  0
BLOCK
  5
2C6
100
AcDbEntity
  8
MAIN0
  6
CONTINUOUS
 62
3
100
AcDbBlockBegin
  2
*D28
 70
    65
 10
0.0
 20
0.0
 30
0.0
  0
LINE
  5
2C7
100
AcDbEntity
  8
MAIN0
  6
BYBLOCK
 62
0
100
AcDbLine
 10
338.9847601926695
 20
291.8713267058881
 30
0.0000000000000000
 11
348.5411736804833
 21
291.8713267058712
 31
0.0000000000000000
  0
LINE
  5
2C8
100
AcDbEntity
  8
MAIN0
  6
BYBLOCK
 62
0
100
AcDbLine
 10
346.5411736804833
 20
289.8713267058748
 30
0.0000000000000000
 11
346.5411736804833
 21
281.8713267059964
 31
0.0000000000000000
  0
INSERT
  5
2C9
100
AcDbEntity
  8
MAIN0
  6
BYBLOCK
 62
0
100
AcDbBlockReference
  2
_OPEN
 10
346.5411736804833
 20
291.8713267058748
 30
0.0000000000000000
 41
2.000000000000000
 42
2.000000000000000
 43
2.000000000000000
 50
90.00000000000000
  0
INSERT
  5
2CA
100
AcDbEntity
  8
MAIN0
  6
BYBLOCK
 62
0
100
AcDbBlockReference
  2
_OPEN
 10
346.5411736804833
 20
279.8713267059964
 30
0.0000000000000000
 41
2.000000000000000
 42
2.000000000000000
 43
2.000000000000000
 50
270.0000000000000
  0
MTEXT
  5
2CB
100
AcDbEntity
  8
MAIN0
  6
BYBLOCK
 62
0
100
AcDbMText
 10
344.4911737281670
 20
287.6086212419784
 30
0.0000000000000000
 40
3.099999904632568
 41
0.0000000000000000
 71
     5
 72
     1
  1
\A1;12
 11
6.123233995736766e-017
 21
1.000000000000000
 31
0.0000000000000000
  7
STANDARD
  0
ENDBLK
  5
2CC
100
AcDbEntity
  8
MAIN0
  6
CONTINUOUS
 62
3
100
AcDbBlockEnd
  0
BLOCK
  5
2CE
100
AcDbEntity
  8
MAIN0
  6
CONTINUOUS
 62
3
100
AcDbBlockBegin
  2
*D29
 70
    65
 10
0.0
 20
0.0
 30
0.0
  0
LINE
  5
2CF
100
AcDbEntity
  8
MAIN0
  6
BYBLOCK
 62
0
100
AcDbLine
 10
338.9847601926695
 20
291.8713267058888
 30
0.0000000000000000
 11
356.4681950286216
 21
291.8713267058730
 31
0.0000000000000000
  0
LINE
  5
2D0
100
AcDbEntity
  8
MAIN0
  6
BYBLOCK
 62
0
100
AcDbLine
 10
354.4681950286216
 20
289.8713267058748
 30
0.0000000000000000
 11
354.4681950286216
 21
223.8713267059993
 31
0.0000000000000000
  0
INSERT
  5
2D1
100
AcDbEntity
  8
MAIN0
  6
BYBLOCK
 62
0
100
AcDbBlockReference
  2
_OPEN
 10
354.4681950286216
 20
291.8713267058748
 30
0.0000000000000000
 41
2.000000000000000
 42
2.000000000000000
 43
2.000000000000000
 50
90.00000000000000
  0
INSERT
  5
2D2
100
AcDbEntity
  8
MAIN0
  6
BYBLOCK
 62
0
100
AcDbBlockReference
  2
_OPEN
 10
354.4681950286216
 20
221.8713267059993
 30
0.0000000000000000
 41
2.000000000000000
 42
2.000000000000000
 43
2.000000000000000
 50
270.0000000000000
  0
LINE
  5
2D3
100
AcDbEntity
  8
MAIN0
  6
BYBLOCK
 62
0
100
AcDbLine
 10
336.3847601925532
 20
221.8713267059993
 30
0.0000000000000000
 11
356.4681950286216
 21
221.8713267059993
 31
0.0000000000000000
  0
MTEXT
  5
2D4
100
AcDbEntity
  8
MAIN0
  6
BYBLOCK
 62
0
100
AcDbMText
 10
352.4181950763053
 20
256.8713267059371
 30
0.0000000000000000
 40
3.099999904632568
 41
0.0000000000000000
 71
     5
 72
     1
  1
\A1;70
 11
6.123233995736766e-017
 21
1.000000000000000
 31
0.0000000000000000
  7
STANDARD
  0
ENDBLK
  5
2D5
100
AcDbEntity
  8
MAIN0
  6
CONTINUOUS
 62
3
100
AcDbBlockEnd
  0
BLOCK
  5
2D7
100
AcDbEntity
  8
MAIN0
  6
CONTINUOUS
 62
3
100
AcDbBlockBegin
  2
*D30
 70
    65
 10
0.0
 20
0.0
 30
0.0
  0
LINE
  5
2D8
100
AcDbEntity
  8
MAIN0
  6
BYBLOCK
 62
0
100
AcDbLine
 10
233.8873021359574
 20
278.7684656911818
 30
0.0000000000000000
 11
233.8873021359574
 21
280.5652543349872
 31
0.0000000000000000
  0
LINE
  5
2D9
100
AcDbEntity
  8
MAIN0
  6
BYBLOCK
 62
0
100
AcDbLine
 10
182.6155879951882
 20
248.2005830495757
 30
0.0000000000000000
 11
180.2228175472565
 21
249.5820497118000
 31
0.0000000000000000
  0
ARC
  5
2DA
100
AcDbEntity
  8
MAIN0
  6
BYBLOCK
 62
0
100
AcDbCircle
 10
233.8873021359574
 20
218.5988450885475
 30
0.0000000000000000
 40
59.96640924643970
100
AcDbArc
 50
91.91092914293461
 51
148.0890708570306
  0
INSERT
  5
2DB
100
AcDbEntity
  8
MAIN0
  6
BYBLOCK
 62
0
100
AcDbBlockReference
  2
_OPEN
 10
233.8873021359574
 20
278.5652543349872
 30
0.0000000000000000
 41
2.000000000000000
 42
2.000000000000000
 43
2.000000000000000
 50
360.0000000000000
  0
INSERT
  5
2DC
100
AcDbEntity
  8
MAIN0
  6
BYBLOCK
 62
0
100
AcDbBlockReference
  2
_OPEN
 10
181.9548683548248
 20
248.5820497117989
 30
0.0000000000000000
 41
2.000000000000000
 42
2.000000000000000
 43
2.000000000000000
 50
239.9999999999651
  0
MTEXT
  5
2DD
100
AcDbEntity
  8
MAIN0
  6
BYBLOCK
 62
0
100
AcDbMText
 10
202.8790975365957
 20
272.3066309061705
 30
0.0000000000000000
 40
3.099999904632568
 41
0.0000000000000000
 71
     5
 72
     1
  1
\A1;60\U+00B0
 11
0.8660254037845908
 21
0.4999999999997364
 31
0.0000000000000000
  7
STANDARD
  0
ENDBLK
  5
2DE
100
AcDbEntity
  8
MAIN0
  6
CONTINUOUS
 62
3
100
AcDbBlockEnd
  0
BLOCK
  5
2E0
100
AcDbEntity
  8
MAIN0
  6
CONTINUOUS
 62
3
100
AcDbBlockBegin
  2
*D31
 70
    65
 10
0.0
 20
0.0
 30
0.0
  0
LINE
  5
2E1
100
AcDbEntity
  8
MAIN0
  6
BYBLOCK
 62
0
100
AcDbLine
 10
285.4649064674198
 20
188.8205013435799
 30
0.0000000000000000
 11
287.5517867251339
 21
187.6156404650204
 31
0.0000000000000000
  0
LINE
  5
2E2
100
AcDbEntity
  8
MAIN0
  6
BYBLOCK
 62
0
100
AcDbLine
 10
293.7495850120316
 20
218.5988450884091
 30
0.0000000000000000
 11
295.8537113829092
 21
218.5988450884092
 31
0.0000000000000000
  0
ARC
  5
2E3
100
AcDbEntity
  8
MAIN0
  6
BYBLOCK
 62
0
100
AcDbCircle
 10
233.8873021361970
 20
218.5988450884092
 30
0.0000000000000000
 40
59.96640924671219
100
AcDbArc
 50
331.9109291428911
 51
358.0890708570742
  0
INSERT
  5
2E4
100
AcDbEntity
  8
MAIN0
  6
BYBLOCK
 62
0
100
AcDbBlockReference
  2
_OPEN
 10
285.8197359175656
 20
188.6156404650215
 30
0.0000000000000000
 41
2.000000000000000
 42
2.000000000000000
 43
2.000000000000000
 50
239.9999999999652
  0
INSERT
  5
2E5
100
AcDbEntity
  8
MAIN0
  6
BYBLOCK
 62
0
100
AcDbBlockReference
  2
_OPEN
 10
293.8537113829092
 20
218.5988450884091
 30
0.0000000000000000
 41
2.000000000000000
 42
2.000000000000000
 43
2.000000000000000
 50
90.00000000000000
  0
MTEXT
  5
2E6
100
AcDbEntity
  8
MAIN0
  6
BYBLOCK
 62
0
100
AcDbMText
 10
289.8302576395777
 20
203.6089753390498
 30
0.0000000000000000
 40
3.099999904632568
 41
0.0000000000000000
 71
     5
 72
     1
  1
\A1;30\U+00B0
 11
0.2588190451028140
 21
0.9659258262889897
 31
0.0000000000000000
  7
STANDARD
  0
ENDBLK
  5
2E7
100
AcDbEntity
  8
MAIN0
  6
CONTINUOUS
 62
3
100
AcDbBlockEnd
  0
BLOCK
  5
2E9
100
AcDbEntity
  8
MAIN0
  6
CONTINUOUS
 62
3
100
AcDbBlockBegin
  2
*D32
 70
    65
 10
0.0
 20
0.0
 30
0.0
  0
LINE
  5
2EA
100
AcDbEntity
  8
MAIN0
  6
BYBLOCK
 62
0
100
AcDbLine
 10
293.7495850120316
 20
218.5988450884091
 30
0.0000000000000000
 11
295.8537113829092
 21
218.5988450884092
 31
0.0000000000000000
  0
LINE
  5
2EB
100
AcDbEntity
  8
MAIN0
  6
BYBLOCK
 62
0
100
AcDbLine
 10
285.6494169716301
 20
248.4837160227847
 30
0.0000000000000000
 11
287.5517867250118
 21
249.5820497120094
 31
0.0000000000000000
  0
ARC
  5
2EC
100
AcDbEntity
  8
MAIN0
  6
BYBLOCK
 62
0
100
AcDbCircle
 10
233.8873021361970
 20
218.5988450884092
 30
0.0000000000000000
 40
59.96640924671219
100
AcDbArc
 50
1.910929142925919
 51
28.08907085733478
  0
INSERT
  5
2ED
100
AcDbEntity
  8
MAIN0
  6
BYBLOCK
 62
0
100
AcDbBlockReference
  2
_OPEN
 10
293.8537113829092
 20
218.5988450884092
 30
0.0000000000000000
 41
2.000000000000000
 42
2.000000000000000
 43
2.000000000000000
 50
270.0000000000000
  0
INSERT
  5
2EE
100
AcDbEntity
  8
MAIN0
  6
BYBLOCK
 62
0
100
AcDbBlockReference
  2
_OPEN
 10
285.8197359174474
 20
248.5820497120016
 30
0.0000000000000000
 41
2.000000000000000
 42
2.000000000000000
 43
2.000000000000000
 50
120.0000000002607
  0
MTEXT
  5
2EF
100
AcDbEntity
  8
MAIN0
  6
BYBLOCK
 62
0
100
AcDbMText
 10
289.8302576395482
 20
233.5887148378787
 30
0.0000000000000000
 40
3.099999904632568
 41
0.0000000000000000
 71
     5
 72
     1
  1
\A1;30\U+00B0
 11
-0.2588190451047182
 21
0.9659258262884795
 31
0.0000000000000000
  7
STANDARD
  0
ENDBLK
  5
2F0
100
AcDbEntity
  8
MAIN0
  6
CONTINUOUS
 62
3
100
AcDbBlockEnd
  0
BLOCK
  5
2F2
100
AcDbEntity
  8
MAIN0
  6
CONTINUOUS
 62
3
100
AcDbBlockBegin
  2
*D33
 70
    65
 10
0.0
 20
0.0
 30
0.0
  0
LINE
  5
2F3
100
AcDbEntity
  8
MAIN0
  6
BYBLOCK
 62
0
100
AcDbLine
 10
285.6494169716301
 20
248.4837160227847
 30
0.0000000000000000
 11
287.5517867250118
 21
249.5820497120094
 31
0.0000000000000000
  0
LINE
  5
2F4
100
AcDbEntity
  8
MAIN0
  6
BYBLOCK
 62
0
100
AcDbLine
 10
261.7873021416835
 20
266.9230626300393
 30
0.0000000000000000
 11
264.8705067590936
 21
272.2633296776301
 31
0.0000000000000000
  0
ARC
  5
2F5
100
AcDbEntity
  8
MAIN0
  6
BYBLOCK
 62
0
100
AcDbCircle
 10
233.8873021361970
 20
218.5988450884092
 30
0.0000000000000000
 40
59.96640924671219
100
AcDbArc
 50
31.91092914318662
 51
58.08907085756465
  0
INSERT
  5
2F6
100
AcDbEntity
  8
MAIN0
  6
BYBLOCK
 62
0
100
AcDbBlockReference
  2
_OPEN
 10
285.8197359174474
 20
248.5820497120016
 30
0.0000000000000000
 41
2.000000000000000
 42
2.000000000000000
 43
2.000000000000000
 50
300.0000000002607
  0
INSERT
  5
2F7
100
AcDbEntity
  8
MAIN0
  6
BYBLOCK
 62
0
100
AcDbBlockReference
  2
_OPEN
 10
263.8705067591085
 20
270.5312788700527
 30
0.0000000000000000
 41
2.000000000000000
 42
2.000000000000000
 43
2.000000000000000
 50
150.0000000004906
  0
MTEXT
  5
2F8
100
AcDbEntity
  8
MAIN0
  6
BYBLOCK
 62
0
100
AcDbMText
 10
277.7395256253824
 20
262.4510685781694
 30
0.0000000000000000
 40
3.099999904632568
 41
0.0000000000000000
 71
     5
 72
     1
  1
\A1;30\U+00B0
 11
0.7071067811911829
 21
-0.7071067811819122
 31
0.0000000000000000
  7
STANDARD
  0
ENDBLK
  5
2F9
100
AcDbEntity
  8
MAIN0
  6
CONTINUOUS
 62
3
100
AcDbBlockEnd
  0
BLOCK
  5
2FB
100
AcDbEntity
  8
MAIN0
  6
CONTINUOUS
 62
3
100
AcDbBlockBegin
  2
*D34
 70
    65
 10
0.0
 20
0.0
 30
0.0
  0
LINE
  5
2FC
100
AcDbEntity
  8
MAIN0
  6
BYBLOCK
 62
0
100
AcDbLine
 10
261.7873021416835
 20
266.9230626300393
 30
0.0000000000000000
 11
264.8705067590936
 21
272.2633296776301
 31
0.0000000000000000
  0
LINE
  5
2FD
100
AcDbEntity
  8
MAIN0
  6
BYBLOCK
 62
0
100
AcDbLine
 10
233.8873021359541
 20
278.7684656911818
 30
0.0000000000000000
 11
233.8873021359469
 21
280.5652543351213
 31
0.0000000000000000
  0
ARC
  5
2FE
100
AcDbEntity
  8
MAIN0
  6
BYBLOCK
 62
0
100
AcDbCircle
 10
233.8873021361970
 20
218.5988450884092
 30
0.0000000000000000
 40
59.96640924671219
100
AcDbArc
 50
61.91092914341648
 51
88.08907085730533
  0
INSERT
  5
2FF
100
AcDbEntity
  8
MAIN0
  6
BYBLOCK
 62
0
100
AcDbBlockReference
  2
_OPEN
 10
263.8705067591085
 20
270.5312788700527
 30
0.0000000000000000
 41
2.000000000000000
 42
2.000000000000000
 43
2.000000000000000
 50
330.0000000004906
  0
INSERT
  5
300
100
AcDbEntity
  8
MAIN0
  6
BYBLOCK
 62
0
100
AcDbBlockReference
  2
_OPEN
 10
233.8873021359550
 20
278.5652543351213
 30
0.0000000000000000
 41
2.000000000000000
 42
2.000000000000000
 43
2.000000000000000
 50
180.0000000002313
  0
MTEXT
  5
301
100
AcDbEntity
  8
MAIN0
  6
BYBLOCK
 62
0
100
AcDbMText
 10
249.9383299453994
 20
278.5020963875628
 30
0.0000000000000000
 40
3.099999904632568
 41
0.0000000000000000
 71
     5
 72
     1
  1
\A1;30\U+00B0
 11
0.9659258262906986
 21
-0.2588190450964364
 31
0.0000000000000000
  7
STANDARD
  0
ENDBLK
  5
302
100
AcDbEntity
  8
MAIN0
  6
CONTINUOUS
 62
3
100
AcDbBlockEnd
  0
BLOCK
  5
304
100
AcDbEntity
  8
MAIN0
  6
CONTINUOUS
 62
3
100
AcDbBlockBegin
  2
*D35
 70
    65
 10
0.0
 20
0.0
 30
0.0
  0
LINE
  5
305
100
AcDbEntity
  8
MAIN0
  6
BYBLOCK
 62
0
100
AcDbLine
 10
233.8873021359541
 20
278.7684656911818
 30
0.0000000000000000
 11
233.8873021359469
 21
280.5652543351213
 31
0.0000000000000000
  0
LINE
  5
306
100
AcDbEntity
  8
MAIN0
  6
BYBLOCK
 62
0
100
AcDbLine
 10
182.6155879951882
 20
248.2005830495756
 30
0.0000000000000000
 11
180.2228175472601
 21
249.5820497117978
 31
0.0000000000000000
  0
ARC
  5
307
100
AcDbEntity
  8
MAIN0
  6
BYBLOCK
 62
0
100
AcDbCircle
 10
233.8873021361970
 20
218.5988450884092
 30
0.0000000000000000
 40
59.96640924671219
100
AcDbArc
 50
91.91092914315716
 51
148.0890708570393
  0
INSERT
  5
308
100
AcDbEntity
  8
MAIN0
  6
BYBLOCK
 62
0
100
AcDbBlockReference
  2
_OPEN
 10
233.8873021359550
 20
278.5652543351213
 30
0.0000000000000000
 41
2.000000000000000
 42
2.000000000000000
 43
2.000000000000000
 50
2.312390279257670e-010
  0
INSERT
  5
309
100
AcDbEntity
  8
MAIN0
  6
BYBLOCK
 62
0
100
AcDbBlockReference
  2
_OPEN
 10
181.9548683548284
 20
248.5820497117968
 30
0.0000000000000000
 41
2.000000000000000
 42
2.000000000000000
 43
2.000000000000000
 50
239.9999999999652
  0
MTEXT
  5
30A
100
AcDbEntity
  8
MAIN0
  6
BYBLOCK
 62
0
100
AcDbMText
 10
202.8790975365907
 20
272.3066309062056
 30
0.0000000000000000
 40
3.099999904632568
 41
0.0000000000000000
 71
     5
 72
     1
  1
\A1;60\U+00B0
 11
0.8660254037835814
 21
0.5000000000014848
 31
0.0000000000000000
  7
STANDARD
  0
ENDBLK
  5
30B
100
AcDbEntity
  8
MAIN0
  6
CONTINUOUS
 62
3
100
AcDbBlockEnd
  0
BLOCK
  5
310
100
AcDbEntity
  8
MAIN0
  6
CONTINUOUS
 62
3
100
AcDbBlockBegin
  2
*D36
 70
    65
 10
0.0
 20
0.0
 30
0.0
  0
LINE
  5
311
100
AcDbEntity
  8
MAIN0
  6
BYBLOCK
 62
0
100
AcDbLine
 10
148.8672357013477
 20
245.0988451003300
 30
0.0000000000000000
 11
148.8672357013402
 21
280.6390376147093
 31
0.0000000000000000
  0
LINE
  5
312
100
AcDbEntity
  8
MAIN0
  6
BYBLOCK
 62
0
100
AcDbLine
 10
146.8672357013406
 20
278.6390376147093
 30
0.0000000000000000
 11
132.8672357013652
 21
278.6390376147093
 31
0.0000000000000000
  0
INSERT
  5
313
100
AcDbEntity
  8
MAIN0
  6
BYBLOCK
 62
0
100
AcDbBlockReference
  2
_OPEN
 10
148.8672357013406
 20
278.6390376147093
 30
0.0000000000000000
 41
2.000000000000000
 42
2.000000000000000
 43
2.000000000000000
 50
360.0000000000000
  0
INSERT
  5
314
100
AcDbEntity
  8
MAIN0
  6
BYBLOCK
 62
0
100
AcDbBlockReference
  2
_OPEN
 10
130.8672357013652
 20
278.6390376147093
 30
0.0000000000000000
 41
2.000000000000000
 42
2.000000000000000
 43
2.000000000000000
 50
180.0000000000000
  0
LINE
  5
315
100
AcDbEntity
  8
MAIN0
  6
BYBLOCK
 62
0
100
AcDbLine
 10
130.8672357013652
 20
272.8988451003301
 30
0.0000000000000000
 11
130.8672357013652
 21
280.6390376147093
 31
0.0000000000000000
  0
MTEXT
  5
316
100
AcDbEntity
  8
MAIN0
  6
BYBLOCK
 62
0
100
AcDbMText
 10
139.8672357013529
 20
280.6890375670256
 30
0.0000000000000000
 40
3.099999904632568
 41
0.0000000000000000
 71
     5
 72
     1
  1
\A1;18
 11
1.000000000000000
 21
0.0000000000000000
 31
0.0000000000000000
  7
STANDARD
  0
ENDBLK
  5
317
100
AcDbEntity
  8
MAIN0
  6
CONTINUOUS
 62
3
100
AcDbBlockEnd
  0
BLOCK
  5
319
100
AcDbEntity
  8
MAIN0
  6
CONTINUOUS
 62
3
100
AcDbBlockBegin
  2
*D37
 70
    65
 10
0.0
 20
0.0
 30
0.0
  0
LINE
  5
31A
100
AcDbEntity
  8
MAIN0
  6
BYBLOCK
 62
0
100
AcDbLine
 10
130.8672357013652
 20
164.2988450764882
 30
0.0000000000000000
 11
130.8672357013652
 21
156.5988450884091
 31
0.0000000000000000
  0
LINE
  5
31B
100
AcDbEntity
  8
MAIN0
  6
BYBLOCK
 62
0
100
AcDbLine
 10
128.8672357013652
 20
158.5988450884091
 30
0.0000000000000000
 11
123.8672357013652
 21
158.5988450884091
 31
0.0000000000000000
  0
INSERT
  5
31C
100
AcDbEntity
  8
MAIN0
  6
BYBLOCK
 62
0
100
AcDbBlockReference
  2
_OPEN
 10
130.8672357013652
 20
158.5988450884091
 30
0.0000000000000000
 41
2.000000000000000
 42
2.000000000000000
 43
2.000000000000000
 50
360.0000000000000
  0
INSERT
  5
31D
100
AcDbEntity
  8
MAIN0
  6
BYBLOCK
 62
0
100
AcDbBlockReference
  2
_OPEN
 10
121.8672357013652
 20
158.5988450884091
 30
0.0000000000000000
 41
2.000000000000000
 42
2.000000000000000
 43
2.000000000000000
 50
180.0000000000000
  0
LINE
  5
31E
100
AcDbEntity
  8
MAIN0
  6
BYBLOCK
 62
0
100
AcDbLine
 10
121.8672357013652
 20
164.2988450764882
 30
0.0000000000000000
 11
121.8672357013652
 21
156.5988450884091
 31
0.0000000000000000
  0
MTEXT
  5
31F
100
AcDbEntity
  8
MAIN0
  6
BYBLOCK
 62
0
100
AcDbMText
 10
126.3672357013652
 20
160.6488450407254
 30
0.0000000000000000
 40
3.099999904632568
 41
0.0000000000000000
 71
     5
 72
     1
  1
\A1;9
 11
1.000000000000000
 21
0.0000000000000000
 31
0.0000000000000000
  7
STANDARD
  0
ENDBLK
  5
320
100
AcDbEntity
  8
MAIN0
  6
CONTINUOUS
 62
3
100
AcDbBlockEnd
  0
BLOCK
  5
322
100
AcDbEntity
  8
MAIN0
  6
CONTINUOUS
 62
3
100
AcDbBlockBegin
  2
*D38
 70
    65
 10
0.0
 20
0.0
 30
0.0
  0
LINE
  5
323
100
AcDbEntity
  8
MAIN0
  6
BYBLOCK
 62
0
100
AcDbLine
 10
130.8672357013652
 20
164.2988450764882
 30
0.0000000000000000
 11
130.8672357013652
 21
149.0988450884091
 31
0.0000000000000000
  0
LINE
  5
324
100
AcDbEntity
  8
MAIN0
  6
BYBLOCK
 62
0
100
AcDbLine
 10
128.8672357013652
 20
151.0988450884091
 30
0.0000000000000000
 11
99.36723570136519
 21
151.0988450884091
 31
0.0000000000000000
  0
INSERT
  5
325
100
AcDbEntity
  8
MAIN0
  6
BYBLOCK
 62
0
100
AcDbBlockReference
  2
_OPEN
 10
130.8672357013652
 20
151.0988450884091
 30
0.0000000000000000
 41
2.000000000000000
 42
2.000000000000000
 43
2.000000000000000
 50
360.0000000000000
  0
INSERT
  5
326
100
AcDbEntity
  8
MAIN0
  6
BYBLOCK
 62
0
100
AcDbBlockReference
  2
_OPEN
 10
97.36723570136519
 20
151.0988450884091
 30
0.0000000000000000
 41
2.000000000000000
 42
2.000000000000000
 43
2.000000000000000
 50
180.0000000000000
  0
LINE
  5
327
100
AcDbEntity
  8
MAIN0
  6
BYBLOCK
 62
0
100
AcDbLine
 10
97.36723570136519
 20
160.2988450764882
 30
0.0000000000000000
 11
97.36723570136519
 21
149.0988450884091
 31
0.0000000000000000
  0
MTEXT
  5
328
100
AcDbEntity
  8
MAIN0
  6
BYBLOCK
 62
0
100
AcDbMText
 10
114.1172357013652
 20
153.1488450407254
 30
0.0000000000000000
 40
3.099999904632568
 41
0.0000000000000000
 71
     5
 72
     1
  1
\A1;33.5
 11
1.000000000000000
 21
0.0000000000000000
 31
0.0000000000000000
  7
STANDARD
  0
ENDBLK
  5
329
100
AcDbEntity
  8
MAIN0
  6
CONTINUOUS
 62
3
100
AcDbBlockEnd
  0
BLOCK
  5
32B
100
AcDbEntity
  8
MAIN0
  6
CONTINUOUS
 62
3
100
AcDbBlockBegin
  2
*D39
 70
    65
 10
0.0
 20
0.0
 30
0.0
  0
LINE
  5
32C
100
AcDbEntity
  8
MAIN0
  6
BYBLOCK
 62
0
100
AcDbLine
 10
97.36723570136519
 20
160.2988450764882
 30
0.0000000000000000
 11
97.36723570136519
 21
149.0988450884091
 31
0.0000000000000000
  0
LINE
  5
32D
100
AcDbEntity
  8
MAIN0
  6
BYBLOCK
 62
0
100
AcDbLine
 10
95.36723570136519
 20
151.0988450884091
 30
0.0000000000000000
 11
74.86723570136519
 21
151.0988450884091
 31
0.0000000000000000
  0
INSERT
  5
32E
100
AcDbEntity
  8
MAIN0
  6
BYBLOCK
 62
0
100
AcDbBlockReference
  2
_OPEN
 10
97.36723570136519
 20
151.0988450884091
 30
0.0000000000000000
 41
2.000000000000000
 42
2.000000000000000
 43
2.000000000000000
 50
360.0000000000000
  0
INSERT
  5
32F
100
AcDbEntity
  8
MAIN0
  6
BYBLOCK
 62
0
100
AcDbBlockReference
  2
_OPEN
 10
72.86723570136519
 20
151.0988450884091
 30
0.0000000000000000
 41
2.000000000000000
 42
2.000000000000000
 43
2.000000000000000
 50
180.0000000000000
  0
LINE
  5
330
100
AcDbEntity
  8
MAIN0
  6
BYBLOCK
 62
0
100
AcDbLine
 10
72.86723570136519
 20
163.7988450764882
 30
0.0000000000000000
 11
72.86723570136519
 21
149.0988450884091
 31
0.0000000000000000
  0
MTEXT
  5
331
100
AcDbEntity
  8
MAIN0
  6
BYBLOCK
 62
0
100
AcDbMText
 10
85.11723570136519
 20
153.1488450407254
 30
0.0000000000000000
 40
3.099999904632568
 41
0.0000000000000000
 71
     5
 72
     1
  1
\A1;24.5
 11
1.000000000000000
 21
0.0000000000000000
 31
0.0000000000000000
  7
STANDARD
  0
ENDBLK
  5
332
100
AcDbEntity
  8
MAIN0
  6
CONTINUOUS
 62
3
100
AcDbBlockEnd
  0
BLOCK
  5
334
100
AcDbEntity
  8
MAIN0
  6
CONTINUOUS
 62
3
100
AcDbBlockBegin
  2
*D40
 70
    65
 10
0.0
 20
0.0
 30
0.0
  0
LINE
  5
335
100
AcDbEntity
  8
MAIN0
  6
BYBLOCK
 62
0
100
AcDbLine
 10
72.86723570136519
 20
163.7988450764882
 30
0.0000000000000000
 11
72.86723570136519
 21
141.5988450884091
 31
0.0000000000000000
  0
LINE
  5
336
100
AcDbEntity
  8
MAIN0
  6
BYBLOCK
 62
0
100
AcDbLine
 10
74.86723570136519
 20
143.5988450884091
 30
0.0000000000000000
 11
128.8672357013652
 21
143.5988450884091
 31
0.0000000000000000
  0
INSERT
  5
337
100
AcDbEntity
  8
MAIN0
  6
BYBLOCK
 62
0
100
AcDbBlockReference
  2
_OPEN
 10
72.86723570136519
 20
143.5988450884091
 30
0.0000000000000000
 41
2.000000000000000
 42
2.000000000000000
 43
2.000000000000000
 50
180.0000000000000
  0
INSERT
  5
338
100
AcDbEntity
  8
MAIN0
  6
BYBLOCK
 62
0
100
AcDbBlockReference
  2
_OPEN
 10
130.8672357013652
 20
143.5988450884091
 30
0.0000000000000000
 41
2.000000000000000
 42
2.000000000000000
 43
2.000000000000000
 50
0.0000000000000000
  0
LINE
  5
339
100
AcDbEntity
  8
MAIN0
  6
BYBLOCK
 62
0
100
AcDbLine
 10
130.8672357013652
 20
164.2988450764882
 30
0.0000000000000000
 11
130.8672357013652
 21
141.5988450884091
 31
0.0000000000000000
  0
MTEXT
  5
33A
100
AcDbEntity
  8
MAIN0
  6
BYBLOCK
 62
0
100
AcDbMText
 10
101.8672357013652
 20
145.6488450407254
 30
0.0000000000000000
 40
3.099999904632568
 41
0.0000000000000000
 71
     5
 72
     1
  1
\A1;58
 11
1.000000000000000
 21
0.0000000000000000
 31
0.0000000000000000
  7
STANDARD
  0
ENDBLK
  5
33B
100
AcDbEntity
  8
MAIN0
  6
CONTINUOUS
 62
3
100
AcDbBlockEnd
  0
ENDSEC
  0
SECTION
  2
ENTITIES
  0
LINE
  5
46
100
AcDbEntity
  8
MAIN0
  6
CONTINUOUS
 62
3
100
AcDbLine
 10
72.86723570136519
 20
164.5988450884091
 30
0.0000000000000000
 11
72.86723570136519
 21
272.5988450884091
 31
0.0000000000000000
  0
LINE
  5
47
100
AcDbEntity
  8
MAIN0
  6
CONTINUOUS
 62
3
100
AcDbLine
 10
78.36723570136519
 20
230.5988450884091
 30
0.0000000000000000
 11
90.41038438837893
 21
230.5988450884091
 31
0.0000000000000000
  0
LINE
  5
48
100
AcDbEntity
  8
MAIN0
  6
CONTINUOUS
 62
3
100
AcDbLine
 10
86.86723570136519
 20
238.0988450884091
 30
0.0000000000000000
 11
90.22460962497077
 21
238.0988450884091
 31
0.0000000000000000
  0
LINE
  5
49
100
AcDbEntity
  8
MAIN0
  6
CONTINUOUS
 62
3
100
AcDbLine
 10
72.86723570136519
 20
258.5988450884091
 30
0.0000000000000000
 11
79.86723570136519
 21
258.5988450884091
 31
0.0000000000000000
  0
LINE
  5
4A
100
AcDbEntity
  8
MAIN0
  6
CONTINUOUS
 62
3
100
AcDbLine
 10
79.86723570136519
 20
259.5988450884091
 30
0.0000000000000000
 11
93.86219191312040
 21
259.5988450884091
 31
0.0000000000000000
  0
LINE
  5
4B
100
AcDbEntity
  8
MAIN0
  6
CONTINUOUS
 62
3
100
AcDbLine
 10
73.86723570136519
 20
273.5988450884091
 30
0.0000000000000000
 11
72.86723570136520
 21
272.5988450884091
 31
0.0000000000000000
  0
ARC
  5
4C
100
AcDbEntity
  8
MAIN0
  6
CONTINUOUS
 62
3
100
AcDbCircle
 10
129.3672357013652
 20
272.0988450884091
 30
0.0000000000000000
 40
1.500000000000000
100
AcDbArc
 50
0.0000000000000000
 51
90.00000000000000
  0
LINE
  5
4D
100
AcDbEntity
  8
MAIN0
  6
CONTINUOUS
 62
3
100
AcDbLine
 10
78.36723570136519
 20
206.5988450884091
 30
0.0000000000000000
 11
91.15283652056299
 21
206.5988450884091
 31
0.0000000000000000
  0
LINE
  5
4E
100
AcDbEntity
  8
MAIN0
  6
CONTINUOUS
 62
3
100
AcDbLine
 10
72.86723570136519
 20
178.5988450884091
 30
0.0000000000000000
 11
79.86723570136519
 21
178.5988450884091
 31
0.0000000000000000
  0
LINE
  5
4F
100
AcDbEntity
  8
MAIN0
  6
CONTINUOUS
 62
3
100
AcDbLine
 10
73.86723570136519
 20
163.5988450884091
 30
0.0000000000000000
 11
72.86723570136520
 21
164.5988450884091
 31
0.0000000000000000
  0
ARC
  5
50
100
AcDbEntity
  8
MAIN0
  6
CONTINUOUS
 62
3
100
AcDbCircle
 10
129.3672357013652
 20
165.0988450884091
 30
0.0000000000000000
 40
1.500000000000000
100
AcDbArc
 50
270.0000000000000
 51
360.0000000000000
  0
LINE
  5
51
100
AcDbEntity
  8
MAIN0
  6
CONTINUOUS
 62
3
100
AcDbLine
 10
86.86723570136519
 20
238.5988450884091
 30
0.0000000000000000
 11
90.13723622770722
 21
238.5988450884091
 31
0.0000000000000000
  0
LINE
  5
52
100
AcDbEntity
  8
MAIN0
  6
CONTINUOUS
 62
3
100
AcDbLine
 10
84.36723570136519
 20
243.0988450884091
 30
0.0000000000000000
 11
88.88618687178479
 21
243.0988450884091
 31
0.0000000000000000
  0
LINE
  5
53
100
AcDbEntity
  8
MAIN0
  6
CONTINUOUS
 62
3
100
AcDbLine
 10
77.36723570136519
 20
178.5988450884091
 30
0.0000000000000000
 11
77.36723570136519
 21
258.5988450884091
 31
0.0000000000000000
  0
LINE
  5
54
100
AcDbEntity
  8
MAIN0
  6
CONTINUOUS
 62
3
100
AcDbLine
 10
83.36723570136519
 20
243.2704179636630
 30
0.0000000000000000
 11
83.36723570136519
 21
258.5988450884091
 31
0.0000000000000000
  0
LINE
  5
55
100
AcDbEntity
  8
MAIN0
  6
CONTINUOUS
 62
3
100
AcDbLine
 10
77.36723570136519
 20
258.5988450884091
 30
0.0000000000000000
 11
83.36723570136520
 21
258.5988450884091
 31
0.0000000000000000
  0
LINE
  5
56
100
AcDbEntity
  8
MAIN0
  6
CONTINUOUS
 62
3
100
AcDbLine
 10
81.36723570136519
 20
246.0988450884091
 30
0.0000000000000000
 11
81.36723570136519
 21
253.8488450884091
 31
0.0000000000000000
  0
ARC
  5
57
100
AcDbEntity
  8
MAIN0
  6
CONTINUOUS
 62
3
100
AcDbCircle
 10
84.36723570136519
 20
246.0988450884091
 30
0.0000000000000000
 40
3.000000000000000
100
AcDbArc
 50
180.0000000000000
 51
270.0000000000000
  0
LINE
  5
58
100
AcDbEntity
  8
MAIN0
  6
CONTINUOUS
 62
3
100
AcDbLine
 10
82.36723570136519
 20
254.8488450884091
 30
0.0000000000000000
 11
83.36723570136520
 21
254.8488450884091
 31
0.0000000000000000
  0
ARC
  5
59
100
AcDbEntity
  8
MAIN0
  6
CONTINUOUS
 62
3
100
AcDbCircle
 10
82.36723570136519
 20
253.8488450884091
 30
0.0000000000000000
 40
1.000000000000000
100
AcDbArc
 50
90.00000000000000
 51
180.0000000000000
  0
LINE
  5
5A
100
AcDbEntity
  8
MAIN0
  6
CONTINUOUS
 62
3
100
AcDbLine
 10
78.36723570136519
 20
199.5988450884141
 30
0.0000000000000000
 11
78.36723570136519
 21
237.5988450884041
 31
0.0000000000000000
  0
LINE
  5
5B
100
AcDbEntity
  8
MAIN0
  6
CONTINUOUS
 62
3
100
AcDbLine
 10
77.36723570136518
 20
238.5988450884040
 30
0.0000000000000000
 11
78.36723570136520
 21
237.5988450884041
 31
0.0000000000000000
  0
LINE
  5
5C
100
AcDbEntity
  8
MAIN0
  6
CENTER
 62
3
100
AcDbLine
 10
76.29376383474016
 20
234.5988450884091
 30
0.0000000000000000
 11
93.45895539782254
 21
234.5988450884091
 31
0.0000000000000000
  0
LINE
  5
5D
100
AcDbEntity
  8
MAIN0
  6
CONTINUOUS
 62
3
100
AcDbLine
 10
86.86723570136519
 20
199.0988450884091
 30
0.0000000000000000
 11
86.86723570136519
 21
232.7988450884091
 31
0.0000000000000000
  0
LINE
  5
5E
100
AcDbEntity
  8
MAIN0
  6
CONTINUOUS
 62
3
100
AcDbLine
 10
86.86723570136519
 20
236.3988450884091
 30
0.0000000000000000
 11
86.86723570136519
 21
238.0988450884091
 31
0.0000000000000000
  0
LINE
  5
5F
100
AcDbEntity
  8
MAIN0
  6
CONTINUOUS
 62
3
100
AcDbLine
 10
77.36723570136519
 20
178.5988450884091
 30
0.0000000000000000
 11
83.36723570136520
 21
178.5988450884091
 31
0.0000000000000000
  0
LINE
  5
60
100
AcDbEntity
  8
MAIN0
  6
CONTINUOUS
 62
3
100
AcDbLine
 10
83.36723570136519
 20
193.9272722131553
 30
0.0000000000000000
 11
83.36723570136519
 21
178.5988450884091
 31
0.0000000000000000
  0
LINE
  5
61
100
AcDbEntity
  8
MAIN0
  6
CONTINUOUS
 62
3
100
AcDbLine
 10
82.36723570136519
 20
182.3488450884091
 30
0.0000000000000000
 11
83.36723570136520
 21
182.3488450884091
 31
0.0000000000000000
  0
LINE
  5
62
100
AcDbEntity
  8
MAIN0
  6
CONTINUOUS
 62
3
100
AcDbLine
 10
81.36723570136519
 20
191.0988450884091
 30
0.0000000000000000
 11
81.36723570136519
 21
183.3488450884091
 31
0.0000000000000000
  0
ARC
  5
63
100
AcDbEntity
  8
MAIN0
  6
CONTINUOUS
 62
3
100
AcDbCircle
 10
82.36723570136519
 20
183.3488450884091
 30
0.0000000000000000
 40
1.000000000000000
100
AcDbArc
 50
180.0000000000000
 51
270.0000000000000
  0
ARC
  5
64
100
AcDbEntity
  8
MAIN0
  6
CONTINUOUS
 62
3
100
AcDbCircle
 10
84.36723570136519
 20
191.0988450884091
 30
0.0000000000000000
 40
3.000000000000000
100
AcDbArc
 50
90.00000000000000
 51
180.0000000000000
  0
LINE
  5
65
100
AcDbEntity
  8
MAIN0
  6
CONTINUOUS
 62
3
100
AcDbLine
 10
77.36723570136518
 20
198.5988450884143
 30
0.0000000000000000
 11
78.36723570136520
 21
199.5988450884141
 31
0.0000000000000000
  0
LINE
  5
66
100
AcDbEntity
  8
MAIN0
  6
CONTINUOUS
 62
3
100
AcDbLine
 10
79.86723570136519
 20
177.5988450884091
 30
0.0000000000000000
 11
79.86723570136519
 21
178.5988450884091
 31
0.0000000000000000
  0
LINE
  5
67
100
AcDbEntity
  8
MAIN0
  6
CONTINUOUS
 62
3
100
AcDbLine
 10
79.86723570136519
 20
258.5988450884091
 30
0.0000000000000000
 11
79.86723570136519
 21
259.5988450884091
 31
0.0000000000000000
  0
LINE
  5
68
100
AcDbEntity
  8
MAIN0
  6
CONTINUOUS
 62
3
100
AcDbLine
 10
86.86723570136519
 20
198.5988450884091
 30
0.0000000000000000
 11
86.86723570136519
 21
232.7988450884091
 31
0.0000000000000000
  0
LINE
  5
69
100
AcDbEntity
  8
MAIN0
  6
CONTINUOUS
 62
3
100
AcDbLine
 10
86.86723570136519
 20
232.7988450884091
 30
0.0000000000000000
 11
86.86723570136519
 21
238.5988450884091
 31
0.0000000000000000
  0
LINE
  5
6A
100
AcDbEntity
  8
MAIN0
  6
HIDDEN
 62
3
100
AcDbLine
 10
85.96723570137021
 20
164.9788450908270
 30
0.0000000000000000
 11
108.7672357013702
 21
164.9788450908222
 31
0.0000000000000000
  0
LINE
  5
6B
100
AcDbEntity
  8
MAIN0
  6
HIDDEN
 62
3
100
AcDbLine
 10
85.36723570136985
 20
165.5788450908271
 30
0.0000000000000000
 11
85.96723570137020
 21
164.9788450908270
 31
0.0000000000000000
  0
LINE
  5
6C
100
AcDbEntity
  8
MAIN0
  6
HIDDEN
 62
3
100
AcDbLine
 10
85.36723570136758
 20
169.4788450908271
 30
0.0000000000000000
 11
87.36723570136593
 21
169.4788450908267
 31
0.0000000000000000
  0
ARC
  5
6D
100
AcDbEntity
  8
MAIN0
  6
HIDDEN
 62
3
100
AcDbCircle
 10
87.36723570136596
 20
172.2288450908261
 30
0.0000000000000000
 40
2.750000000000581
100
AcDbArc
 50
270.0000000000000
 51
341.4530978128730
  0
LINE
  5
6E
100
AcDbEntity
  8
MAIN0
  6
HIDDEN
 62
3
100
AcDbLine
 10
85.36723570136985
 20
165.5788450908271
 30
0.0000000000000000
 11
85.36723570136756
 21
169.4788450908271
 31
0.0000000000000000
  0
LINE
  5
6F
100
AcDbEntity
  8
MAIN0
  6
HIDDEN
 62
3
100
AcDbLine
 10
86.06305233162669
 20
169.4788450908270
 30
0.0000000000000000
 11
85.36723570136870
 21
167.4788450908271
 31
0.0000000000000000
  0
LINE
  5
70
100
AcDbEntity
  8
MAIN0
  6
HIDDEN
 62
3
100
AcDbLine
 10
92.16723570136976
 20
165.7294004407724
 30
0.0000000000000000
 11
92.16723570136647
 21
171.3541227657970
 31
0.0000000000000000
  0
LINE
  5
71
100
AcDbEntity
  8
MAIN0
  6
HIDDEN
 62
3
100
AcDbLine
 10
90.86723570127040
 20
164.9788450908260
 30
0.0000000000000000
 11
92.16723570126902
 21
165.7294004407724
 31
0.0000000000000000
  0
LINE
  5
72
100
AcDbEntity
  8
MAIN0
  6
HIDDEN
 62
3
100
AcDbLine
 10
96.88828570136975
 20
165.7294004407704
 30
0.0000000000000000
 11
96.88828570136646
 21
171.3541227657997
 31
0.0000000000000000
  0
LINE
  5
73
100
AcDbEntity
  8
MAIN0
  6
HIDDEN
 62
3
100
AcDbLine
 10
92.16723570126902
 20
165.7294004407724
 30
0.0000000000000000
 11
102.5672357013697
 21
165.7294004407681
 31
0.0000000000000000
  0
LINE
  5
74
100
AcDbEntity
  8
MAIN0
  6
HIDDEN
 62
3
100
AcDbLine
 10
94.52776070136636
 20
171.3541227657984
 30
0.0000000000000000
 11
96.88828570136980
 21
165.7294004407704
 31
0.0000000000000000
  0
LINE
  5
75
100
AcDbEntity
  8
MAIN0
  6
HIDDEN
 62
3
100
AcDbLine
 10
92.16723570136972
 20
165.7294004407724
 30
0.0000000000000000
 11
94.52776070136635
 21
171.3541227657984
 31
0.0000000000000000
  0
LINE
  5
76
100
AcDbEntity
  8
MAIN0
  6
HIDDEN
 62
3
100
AcDbLine
 10
109.3672357013698
 20
165.5788450908412
 30
0.0000000000000000
 11
108.7672357013702
 21
164.9788450908404
 31
0.0000000000000000
  0
LINE
  5
77
100
AcDbEntity
  8
MAIN0
  6
HIDDEN
 62
3
100
AcDbLine
 10
109.3672357013676
 20
169.4788450908412
 30
0.0000000000000000
 11
107.3672357013692
 21
169.4788450908384
 31
0.0000000000000000
  0
ARC
  5
78
100
AcDbEntity
  8
MAIN0
  6
HIDDEN
 62
3
100
AcDbCircle
 10
107.3672357013660
 20
172.2288450908378
 30
0.0000000000000000
 40
2.750000000000581
100
AcDbArc
 50
198.5469021871989
 51
270.0000000000674
  0
LINE
  5
79
100
AcDbEntity
  8
MAIN0
  6
HIDDEN
 62
3
100
AcDbLine
 10
109.3672357013699
 20
165.5788450908412
 30
0.0000000000000000
 11
109.3672357013676
 21
169.4788450908412
 31
0.0000000000000000
  0
LINE
  5
7A
100
AcDbEntity
  8
MAIN0
  6
HIDDEN
 62
3
100
AcDbLine
 10
108.6714190711085
 20
169.4788450908403
 30
0.0000000000000000
 11
109.3672357013688
 21
167.4788450908412
 31
0.0000000000000000
  0
LINE
  5
7B
100
AcDbEntity
  8
MAIN0
  6
HIDDEN
 62
3
100
AcDbLine
 10
102.5672357013698
 20
165.7294004407785
 30
0.0000000000000000
 11
102.5672357013665
 21
171.3541227658030
 31
0.0000000000000000
  0
LINE
  5
7C
100
AcDbEntity
  8
MAIN0
  6
HIDDEN
 62
3
100
AcDbLine
 10
103.8672357014699
 20
164.9788450908336
 30
0.0000000000000000
 11
102.5672357014704
 21
165.7294004407785
 31
0.0000000000000000
  0
LINE
  5
7D
100
AcDbEntity
  8
MAIN0
  6
HIDDEN
 62
3
100
AcDbLine
 10
97.84618570136979
 20
165.7294004407710
 30
0.0000000000000000
 11
97.84618570136648
 21
171.3541227658003
 31
0.0000000000000000
  0
LINE
  5
7E
100
AcDbEntity
  8
MAIN0
  6
HIDDEN
 62
3
100
AcDbLine
 10
100.2067107013666
 20
171.3541227658016
 30
0.0000000000000000
 11
97.84618570136976
 21
165.7294004407710
 31
0.0000000000000000
  0
LINE
  5
7F
100
AcDbEntity
  8
MAIN0
  6
HIDDEN
 62
3
100
AcDbLine
 10
102.5672357013698
 20
165.7294004407785
 30
0.0000000000000000
 11
100.2067107013666
 21
171.3541227658016
 31
0.0000000000000000
  0
LINE
  5
80
100
AcDbEntity
  8
MAIN0
  6
CONTINUOUS
 62
3
100
AcDbLine
 10
79.86723570136519
 20
177.5988450884091
 30
0.0000000000000000
 11
84.49518025026278
 21
177.5988450884091
 31
0.0000000000000000
  0
LINE
  5
81
100
AcDbEntity
  8
MAIN0
  6
CONTINUOUS
 62
3
100
AcDbLine
 10
84.36723570136519
 20
194.0988450884091
 30
0.0000000000000000
 11
87.85683260160036
 21
194.0988450884091
 31
0.0000000000000000
  0
LINE
  5
82
100
AcDbEntity
  8
MAIN0
  6
CONTINUOUS
 62
3
100
AcDbLine
 10
86.86723570136519
 20
198.5988450884091
 30
0.0000000000000000
 11
87.86723570133944
 21
198.5988450884091
 31
0.0000000000000000
  0
LINE
  5
83
100
AcDbEntity
  8
MAIN0
  6
CONTINUOUS
 62
3
100
AcDbLine
 10
86.86723570136519
 20
199.0988450884091
 30
0.0000000000000000
 11
87.95798061451518
 21
199.0988450884091
 31
0.0000000000000000
  0
LINE
  5
84
100
AcDbEntity
  8
MAIN0
  6
HIDDEN
 62
3
100
AcDbLine
 10
83.79703570134731
 20
163.5988450884091
 30
0.0000000000000000
 11
85.36723570135031
 21
165.1690450884125
 31
0.0000000000000000
  0
LINE
  5
85
100
AcDbEntity
  8
MAIN0
  6
HIDDEN
 62
3
100
AcDbLine
 10
109.3672357014416
 20
165.1690450884075
 30
0.0000000000000000
 11
110.9374357014399
 21
163.5988450884091
 31
0.0000000000000000
  0
LINE
  5
86
100
AcDbEntity
  8
MAIN0
  6
HIDDEN
 62
3
100
AcDbLine
 10
85.36723570135030
 20
165.1690450884125
 30
0.0000000000000000
 11
85.77703570378469
 21
165.1690450884124
 31
0.0000000000000000
  0
LINE
  5
87
100
AcDbEntity
  8
MAIN0
  6
HIDDEN
 62
3
100
AcDbLine
 10
108.9574356989371
 20
165.1690450884076
 30
0.0000000000000000
 11
109.3672357014415
 21
165.1690450884075
 31
0.0000000000000000
  0
LINE
  5
88
100
AcDbEntity
  8
MAIN0
  6
HIDDEN
 62
3
100
AcDbLine
 10
109.3672357014433
 20
165.1690450884057
 30
0.0000000000000000
 11
109.3672357014424
 21
171.3541227658069
 31
0.0000000000000000
  0
LINE
  5
89
100
AcDbEntity
  8
MAIN0
  6
HIDDEN
 62
3
100
AcDbLine
 10
85.36723570135523
 20
165.1690450884175
 30
0.0000000000000000
 11
85.36723570135568
 21
171.3541227657931
 31
0.0000000000000000
  0
ARC
  5
8A
100
AcDbEntity
  8
MAIN0
  6
CONTINUOUS
 62
3
100
AcDbCircle
 10
97.36723570139363
 20
97.56771185811915
 30
0.0000000000000000
 40
67.41113323270542
100
AcDbArc
 50
78.38671616033832
 51
101.6132838396617
  0
LINE
  5
8B
100
AcDbEntity
  8
MAIN0
  6
CONTINUOUS
 62
3
100
AcDbLine
 10
73.86723570136519
 20
163.5988450884091
 30
0.0000000000000000
 11
83.79703570134730
 21
163.5988450884091
 31
0.0000000000000000
  0
LINE
  5
8C
100
AcDbEntity
  8
MAIN0
  6
CONTINUOUS
 62
3
100
AcDbLine
 10
110.9374357014399
 20
163.5988450884091
 30
0.0000000000000000
 11
129.3672357013652
 21
163.5988450884091
 31
0.0000000000000000
  0
LINE
  5
8D
100
AcDbEntity
  8
MAIN0
  6
CONTINUOUS
 62
3
100
AcDbLine
 10
148.8672357013406
 20
231.8988450884091
 30
0.0000000000000000
 11
148.8672357013479
 21
244.2988450884091
 31
0.0000000000000000
  0
LINE
  5
8E
100
AcDbEntity
  8
MAIN0
  6
CONTINUOUS
 62
3
100
AcDbLine
 10
141.8672357013490
 20
246.0988450879997
 30
0.0000000000000000
 11
141.8672357013556
 21
257.2988450884092
 31
0.0000000000000000
  0
LINE
  5
8F
100
AcDbEntity
  8
MAIN0
  6
CONTINUOUS
 62
3
100
AcDbLine
 10
134.8672357013566
 20
259.0988450879996
 30
0.0000000000000000
 11
134.8672357013616
 21
267.5988450884091
 31
0.0000000000000000
  0
LINE
  5
90
100
AcDbEntity
  8
MAIN0
  6
CONTINUOUS
 62
3
100
AcDbLine
 10
129.3672357013652
 20
273.5988450884091
 30
0.0000000000000000
 11
134.0672357013651
 21
273.5988450884091
 31
0.0000000000000000
  0
LINE
  5
91
100
AcDbEntity
  8
MAIN0
  6
CONTINUOUS
 62
3
100
AcDbLine
 10
148.5672357013405
 20
231.5988450884091
 30
0.0000000000000000
 11
148.8672357013406
 21
231.8988450884091
 31
0.0000000000000000
  0
LINE
  5
92
100
AcDbEntity
  8
MAIN0
  6
CONTINUOUS
 62
3
100
AcDbLine
 10
148.8672357013479
 20
244.2988450884091
 30
0.0000000000000000
 11
148.5672357013481
 21
244.5988450884091
 31
0.0000000000000000
  0
LINE
  5
93
100
AcDbEntity
  8
MAIN0
  6
CONTINUOUS
 62
3
100
AcDbLine
 10
134.3672357013616
 20
267.5988450884091
 30
0.0000000000000000
 11
134.8672357013616
 21
267.5988450884091
 31
0.0000000000000000
  0
LINE
  5
94
100
AcDbEntity
  8
MAIN0
  6
CONTINUOUS
 62
3
100
AcDbLine
 10
134.3672357013616
 20
267.5988450884091
 30
0.0000000000000000
 11
134.3672357013650
 21
273.2988450884091
 31
0.0000000000000000
  0
LINE
  5
95
100
AcDbEntity
  8
MAIN0
  6
CONTINUOUS
 62
3
100
AcDbLine
 10
134.0672357013651
 20
273.5988450884091
 30
0.0000000000000000
 11
134.3672357013650
 21
273.2988450884091
 31
0.0000000000000000
  0
LINE
  5
96
100
AcDbEntity
  8
MAIN0
  6
CONTINUOUS
 62
3
100
AcDbLine
 10
141.5672357013558
 20
257.5988450884091
 30
0.0000000000000000
 11
141.8672357013556
 21
257.2988450884092
 31
0.0000000000000000
  0
LINE
  5
97
100
AcDbEntity
  8
MAIN0
  6
CONTINUOUS
 62
3
100
AcDbLine
 10
142.4038382421671
 20
244.0426273061111
 30
0.0000000000000000
 11
143.3672357011838
 21
244.5988450884091
 31
0.0000000000000000
  0
LINE
  5
98
100
AcDbEntity
  8
MAIN0
  6
CONTINUOUS
 62
3
100
AcDbLine
 10
141.3110179191401
 20
245.1354476291385
 30
0.0000000000000000
 11
141.8672357013489
 21
246.0988450879996
 31
0.0000000000000000
  0
ARC
  5
99
100
AcDbEntity
  8
MAIN0
  6
CONTINUOUS
 62
3
100
AcDbCircle
 10
142.0038382421681
 20
244.7354476291393
 30
0.0000000000000000
 40
0.8000000000000000
100
AcDbArc
 50
150.0000000000611
 51
299.9999999999142
  0
LINE
  5
9A
100
AcDbEntity
  8
MAIN0
  6
CONTINUOUS
 62
3
100
AcDbLine
 10
134.3110179191477
 20
258.1354476291385
 30
0.0000000000000000
 11
134.8672357013566
 21
259.0988450879996
 31
0.0000000000000000
  0
ARC
  5
9B
100
AcDbEntity
  8
MAIN0
  6
CONTINUOUS
 62
3
100
AcDbCircle
 10
135.0038382421758
 20
257.7354476291393
 30
0.0000000000000000
 40
0.8000000000000000
100
AcDbArc
 50
150.0000000000611
 51
299.9999999999142
  0
LINE
  5
9C
100
AcDbEntity
  8
MAIN0
  6
CONTINUOUS
 62
3
100
AcDbLine
 10
135.4038382421747
 20
257.0426273061112
 30
0.0000000000000000
 11
136.3672357011914
 21
257.5988450884091
 31
0.0000000000000000
  0
LINE
  5
9D
100
AcDbEntity
  8
MAIN0
  6
CONTINUOUS
 62
3
100
AcDbLine
 10
130.8672357013652
 20
235.1816863046050
 30
0.0000000000000000
 11
148.8672357013426
 21
235.1816863046125
 31
0.0000000000000000
  0
LINE
  5
9E
100
AcDbEntity
  8
MAIN0
  6
CENTER
 62
3
100
AcDbLine
 10
144.8672357013398
 20
230.4099952851336
 30
0.0000000000000000
 11
144.8672357013420
 21
234.2915227686105
 31
0.0000000000000000
  0
LINE
  5
9F
100
AcDbEntity
  8
MAIN0
  6
CONTINUOUS
 62
3
100
AcDbLine
 10
144.1172357009616
 20
231.5988450884092
 30
0.0000000000000000
 11
144.6940306205363
 21
232.5978831946606
 31
0.0000000000000000
  0
LINE
  5
A0
100
AcDbEntity
  8
MAIN0
  6
CONTINUOUS
 62
3
100
AcDbLine
 10
145.0404407820501
 20
232.5978831946605
 30
0.0000000000000000
 11
145.6172357016241
 21
231.5988450884092
 31
0.0000000000000000
  0
ARC
  5
A1
100
AcDbEntity
  8
MAIN0
  6
CONTINUOUS
 62
3
100
AcDbCircle
 10
144.8672357012931
 20
232.4978831946605
 30
0.0000000000000000
 40
0.2000000000000000
100
AcDbArc
 50
29.99999999996739
 51
149.9999999999922
  0
LINE
  5
A2
100
AcDbEntity
  8
MAIN0
  6
CONTINUOUS
 62
3
100
AcDbLine
 10
145.6172357016241
 20
231.5988450884091
 30
0.0000000000000000
 11
148.5672357013405
 21
231.5988450884091
 31
0.0000000000000000
  0
LINE
  5
A3
100
AcDbEntity
  8
MAIN0
  6
CENTER
 62
3
100
AcDbLine
 10
140.8672357013398
 20
230.4099952851336
 30
0.0000000000000000
 11
140.8672357013420
 21
234.2915227686105
 31
0.0000000000000000
  0
LINE
  5
A4
100
AcDbEntity
  8
MAIN0
  6
CONTINUOUS
 62
3
100
AcDbLine
 10
140.1172357009616
 20
231.5988450884092
 30
0.0000000000000000
 11
140.6940306205363
 21
232.5978831946606
 31
0.0000000000000000
  0
LINE
  5
A5
100
AcDbEntity
  8
MAIN0
  6
CONTINUOUS
 62
3
100
AcDbLine
 10
141.0404407820501
 20
232.5978831946605
 30
0.0000000000000000
 11
141.6172357016241
 21
231.5988450884092
 31
0.0000000000000000
  0
ARC
  5
A6
100
AcDbEntity
  8
MAIN0
  6
CONTINUOUS
 62
3
100
AcDbCircle
 10
140.8672357012931
 20
232.4978831946605
 30
0.0000000000000000
 40
0.2000000000000000
100
AcDbArc
 50
29.99999999996739
 51
149.9999999999922
  0
LINE
  5
A7
100
AcDbEntity
  8
MAIN0
  6
CENTER
 62
3
100
AcDbLine
 10
136.8672357013398
 20
230.4099952851336
 30
0.0000000000000000
 11
136.8672357013420
 21
234.2915227686105
 31
0.0000000000000000
  0
LINE
  5
A8
100
AcDbEntity
  8
MAIN0
  6
CONTINUOUS
 62
3
100
AcDbLine
 10
136.1172357009615
 20
231.5988450884092
 30
0.0000000000000000
 11
136.6940306205363
 21
232.5978831946606
 31
0.0000000000000000
  0
LINE
  5
A9
100
AcDbEntity
  8
MAIN0
  6
CONTINUOUS
 62
3
100
AcDbLine
 10
137.0404407820501
 20
232.5978831946605
 30
0.0000000000000000
 11
137.6172357016241
 21
231.5988450884092
 31
0.0000000000000000
  0
ARC
  5
AA
100
AcDbEntity
  8
MAIN0
  6
CONTINUOUS
 62
3
100
AcDbCircle
 10
136.8672357012931
 20
232.4978831946605
 30
0.0000000000000000
 40
0.2000000000000000
100
AcDbArc
 50
29.99999999996739
 51
149.9999999999922
  0
LINE
  5
AB
100
AcDbEntity
  8
MAIN0
  6
CENTER
 62
3
100
AcDbLine
 10
132.8672357013398
 20
230.4099952851336
 30
0.0000000000000000
 11
132.8672357013420
 21
234.2915227686105
 31
0.0000000000000000
  0
LINE
  5
AC
100
AcDbEntity
  8
MAIN0
  6
CONTINUOUS
 62
3
100
AcDbLine
 10
132.1172357009615
 20
231.5988450884092
 30
0.0000000000000000
 11
132.6940306205363
 21
232.5978831946606
 31
0.0000000000000000
  0
LINE
  5
AD
100
AcDbEntity
  8
MAIN0
  6
CONTINUOUS
 62
3
100
AcDbLine
 10
133.0404407820501
 20
232.5978831946605
 30
0.0000000000000000
 11
133.6172357016241
 21
231.5988450884092
 31
0.0000000000000000
  0
ARC
  5
AE
100
AcDbEntity
  8
MAIN0
  6
CONTINUOUS
 62
3
100
AcDbCircle
 10
132.8672357012931
 20
232.4978831946605
 30
0.0000000000000000
 40
0.2000000000000000
100
AcDbArc
 50
29.99999999996739
 51
149.9999999999922
  0
LINE
  5
AF
100
AcDbEntity
  8
MAIN0
  6
CONTINUOUS
 62
3
100
AcDbLine
 10
141.6172357016241
 20
231.5988450884091
 30
0.0000000000000000
 11
144.1172357009616
 21
231.5988450884091
 31
0.0000000000000000
  0
LINE
  5
B0
100
AcDbEntity
  8
MAIN0
  6
CONTINUOUS
 62
3
100
AcDbLine
 10
137.6172357016241
 20
231.5988450884091
 30
0.0000000000000000
 11
140.1172357009616
 21
231.5988450884091
 31
0.0000000000000000
  0
LINE
  5
B1
100
AcDbEntity
  8
MAIN0
  6
CONTINUOUS
 62
3
100
AcDbLine
 10
133.6172357016241
 20
231.5988450884091
 30
0.0000000000000000
 11
136.1172357009615
 21
231.5988450884091
 31
0.0000000000000000
  0
LINE
  5
B2
100
AcDbEntity
  8
MAIN0
  6
CONTINUOUS
 62
3
100
AcDbLine
 10
130.8672357013652
 20
231.5988450884091
 30
0.0000000000000000
 11
132.1172357009615
 21
231.5988450884091
 31
0.0000000000000000
  0
LINE
  5
B3
100
AcDbEntity
  8
MAIN0
  6
CENTER
 62
3
100
AcDbLine
 10
145.9672357013412
 20
245.7876948916847
 30
0.0000000000000000
 11
145.9672357013389
 21
241.9061674082078
 31
0.0000000000000000
  0
LINE
  5
B4
100
AcDbEntity
  8
MAIN0
  6
CONTINUOUS
 62
3
100
AcDbLine
 10
146.7172357017194
 20
244.5988450884091
 30
0.0000000000000000
 11
146.1404407821447
 21
243.5998069821577
 31
0.0000000000000000
  0
LINE
  5
B5
100
AcDbEntity
  8
MAIN0
  6
CONTINUOUS
 62
3
100
AcDbLine
 10
145.7940306206308
 20
243.5998069821578
 30
0.0000000000000000
 11
145.2172357010568
 21
244.5988450884092
 31
0.0000000000000000
  0
ARC
  5
B6
100
AcDbEntity
  8
MAIN0
  6
CONTINUOUS
 62
3
100
AcDbCircle
 10
145.9672357013878
 20
243.6998069821577
 30
0.0000000000000000
 40
0.2000000000000000
100
AcDbArc
 50
209.9999999999674
 51
329.9999999999922
  0
LINE
  5
B7
100
AcDbEntity
  8
MAIN0
  6
CENTER
 62
3
100
AcDbLine
 10
138.6672357013412
 20
258.7876948916847
 30
0.0000000000000000
 11
138.6672357013389
 21
254.9061674082078
 31
0.0000000000000000
  0
LINE
  5
B8
100
AcDbEntity
  8
MAIN0
  6
CONTINUOUS
 62
3
100
AcDbLine
 10
139.4172357017194
 20
257.5988450884091
 30
0.0000000000000000
 11
138.8404407821447
 21
256.5998069821577
 31
0.0000000000000000
  0
LINE
  5
B9
100
AcDbEntity
  8
MAIN0
  6
CONTINUOUS
 62
3
100
AcDbLine
 10
138.4940306206308
 20
256.5998069821578
 30
0.0000000000000000
 11
137.9172357010568
 21
257.5988450884092
 31
0.0000000000000000
  0
ARC
  5
BA
100
AcDbEntity
  8
MAIN0
  6
CONTINUOUS
 62
3
100
AcDbCircle
 10
138.6672357013878
 20
256.6998069821577
 30
0.0000000000000000
 40
0.2000000000000000
100
AcDbArc
 50
209.9999999999674
 51
329.9999999999922
  0
LINE
  5
BB
100
AcDbEntity
  8
MAIN0
  6
CONTINUOUS
 62
3
100
AcDbLine
 10
143.3672357011840
 20
244.5988450884091
 30
0.0000000000000000
 11
145.2172357010568
 21
244.5988450884091
 31
0.0000000000000000
  0
LINE
  5
BC
100
AcDbEntity
  8
MAIN0
  6
CONTINUOUS
 62
3
100
AcDbLine
 10
146.7172357017194
 20
244.5988450884091
 30
0.0000000000000000
 11
148.5672357013481
 21
244.5988450884091
 31
0.0000000000000000
  0
LINE
  5
BD
100
AcDbEntity
  8
MAIN0
  6
CONTINUOUS
 62
3
100
AcDbLine
 10
136.3672357011914
 20
257.5988450884091
 30
0.0000000000000000
 11
137.9172357010568
 21
257.5988450884091
 31
0.0000000000000000
  0
LINE
  5
BE
100
AcDbEntity
  8
MAIN0
  6
CONTINUOUS
 62
3
100
AcDbLine
 10
139.4172357017194
 20
257.5988450884091
 30
0.0000000000000000
 11
141.5672357013558
 21
257.5988450884091
 31
0.0000000000000000
  0
LINE
  5
BF
100
AcDbEntity
  8
MAIN0
  6
CONTINUOUS
 62
3
100
AcDbLine
 10
73.86723570136519
 20
273.5988450884091
 30
0.0000000000000000
 11
129.3672357013652
 21
273.5988450884091
 31
0.0000000000000000
  0
LINE
  5
C0
100
AcDbEntity
  8
MAIN0
  6
PHANTOM
 62
3
100
AcDbLine
 10
148.8672357011427
 20
211.7988450884309
 30
0.0000000000000000
 11
148.8672357011587
 21
225.3988450884309
 31
0.0000000000000000
  0
LINE
  5
C1
100
AcDbEntity
  8
MAIN0
  6
PHANTOM
 62
3
100
AcDbLine
 10
148.6672357011589
 20
225.5988450884307
 30
0.0000000000000000
 11
148.8672357011587
 21
225.3988450884309
 31
0.0000000000000000
  0
LINE
  5
C2
100
AcDbEntity
  8
MAIN0
  6
PHANTOM
 62
3
100
AcDbLine
 10
148.8672357011427
 20
211.7988450884309
 30
0.0000000000000000
 11
148.6672357011424
 21
211.5988450884308
 31
0.0000000000000000
  0
LINE
  5
C3
100
AcDbEntity
  8
MAIN0
  6
PHANTOM
 62
3
100
AcDbLine
 10
130.8672357013652
 20
211.5988450884182
 30
0.0000000000000000
 11
148.6672357011424
 21
211.5988450884308
 31
0.0000000000000000
  0
LINE
  5
C4
100
AcDbEntity
  8
MAIN0
  6
PHANTOM
 62
3
100
AcDbLine
 10
130.8672357013652
 20
225.5988450884182
 30
0.0000000000000000
 11
148.6672357011589
 21
225.5988450884308
 31
0.0000000000000000
  0
LINE
  5
C5
100
AcDbEntity
  8
MAIN0
  6
CENTER
 62
3
100
AcDbLine
 10
144.8672357011471
 20
215.5446896453944
 30
0.0000000000000000
 11
144.8672357011545
 21
221.8733419183356
 31
0.0000000000000000
  0
LINE
  5
C6
100
AcDbEntity
  8
MAIN0
  6
PHANTOM
 62
3
100
AcDbLine
 10
145.6172357011498
 20
217.8488450884286
 30
0.0000000000000000
 11
145.6172357011516
 21
219.3488450884286
 31
0.0000000000000000
  0
LINE
  5
C7
100
AcDbEntity
  8
MAIN0
  6
PHANTOM
 62
3
100
AcDbLine
 10
144.1172357011498
 20
217.8488450884275
 30
0.0000000000000000
 11
144.1172357011516
 21
219.3488450884275
 31
0.0000000000000000
  0
LINE
  5
C8
100
AcDbEntity
  8
MAIN0
  6
PHANTOM
 62
3
100
AcDbLine
 10
144.1172357011517
 20
219.3488450884275
 30
0.0000000000000000
 11
144.6883502629532
 21
220.4910742120282
 31
0.0000000000000000
  0
LINE
  5
C9
100
AcDbEntity
  8
MAIN0
  6
PHANTOM
 62
3
100
AcDbLine
 10
145.0461211393531
 20
220.4910742120280
 30
0.0000000000000000
 11
145.6172357011516
 21
219.3488450884286
 31
0.0000000000000000
  0
LINE
  5
CA
100
AcDbEntity
  8
MAIN0
  6
PHANTOM
 62
3
100
AcDbLine
 10
145.6172357011498
 20
217.8488450884286
 30
0.0000000000000000
 11
148.8672357011498
 21
217.8488450884309
 31
0.0000000000000000
  0
LINE
  5
CB
100
AcDbEntity
  8
MAIN0
  6
PHANTOM
 62
3
100
AcDbLine
 10
145.6172357011516
 20
219.3488450884286
 30
0.0000000000000000
 11
148.8672357011516
 21
219.3488450884309
 31
0.0000000000000000
  0
ARC
  5
CC
100
AcDbEntity
  8
MAIN0
  6
PHANTOM
 62
3
100
AcDbCircle
 10
144.8672357011531
 20
220.4016314929281
 30
0.0000000000000000
 40
0.2000000000000000
100
AcDbArc
 50
26.56505117703065
 51
153.4349488228783
  0
LINE
  5
CD
100
AcDbEntity
  8
MAIN0
  6
PHANTOM
 62
3
100
AcDbLine
 10
144.1172357011527
 20
217.8488450884275
 30
0.0000000000000000
 11
144.6883502629558
 21
216.7066159648276
 31
0.0000000000000000
  0
LINE
  5
CE
100
AcDbEntity
  8
MAIN0
  6
PHANTOM
 62
3
100
AcDbLine
 10
145.0461211393557
 20
216.7066159648284
 30
0.0000000000000000
 11
145.6172357011526
 21
217.8488450884285
 31
0.0000000000000000
  0
ARC
  5
CF
100
AcDbEntity
  8
MAIN0
  6
PHANTOM
 62
3
100
AcDbCircle
 10
144.8672357011556
 20
216.7960586839280
 30
0.0000000000000000
 40
0.2000000000000000
100
AcDbArc
 50
206.5650511772021
 51
333.4349488230498
  0
LINE
  5
D0
100
AcDbEntity
  8
MAIN0
  6
CENTER
 62
3
100
AcDbLine
 10
140.8672357011471
 20
215.5446896453944
 30
0.0000000000000000
 11
140.8672357011545
 21
221.8733419183356
 31
0.0000000000000000
  0
LINE
  5
D1
100
AcDbEntity
  8
MAIN0
  6
PHANTOM
 62
3
100
AcDbLine
 10
141.6172357011498
 20
217.8488450884286
 30
0.0000000000000000
 11
141.6172357011516
 21
219.3488450884286
 31
0.0000000000000000
  0
LINE
  5
D2
100
AcDbEntity
  8
MAIN0
  6
PHANTOM
 62
3
100
AcDbLine
 10
140.1172357011498
 20
217.8488450884275
 30
0.0000000000000000
 11
140.1172357011516
 21
219.3488450884275
 31
0.0000000000000000
  0
LINE
  5
D3
100
AcDbEntity
  8
MAIN0
  6
PHANTOM
 62
3
100
AcDbLine
 10
140.1172357011517
 20
219.3488450884275
 30
0.0000000000000000
 11
140.6883502629532
 21
220.4910742120282
 31
0.0000000000000000
  0
LINE
  5
D4
100
AcDbEntity
  8
MAIN0
  6
PHANTOM
 62
3
100
AcDbLine
 10
141.0461211393531
 20
220.4910742120279
 30
0.0000000000000000
 11
141.6172357011516
 21
219.3488450884286
 31
0.0000000000000000
  0
ARC
  5
D5
100
AcDbEntity
  8
MAIN0
  6
PHANTOM
 62
3
100
AcDbCircle
 10
140.8672357011531
 20
220.4016314929281
 30
0.0000000000000000
 40
0.2000000000000000
100
AcDbArc
 50
26.56505117703065
 51
153.4349488228783
  0
LINE
  5
D6
100
AcDbEntity
  8
MAIN0
  6
PHANTOM
 62
3
100
AcDbLine
 10
140.1172357011527
 20
217.8488450884275
 30
0.0000000000000000
 11
140.6883502629558
 21
216.7066159648276
 31
0.0000000000000000
  0
LINE
  5
D7
100
AcDbEntity
  8
MAIN0
  6
PHANTOM
 62
3
100
AcDbLine
 10
141.0461211393557
 20
216.7066159648284
 30
0.0000000000000000
 11
141.6172357011526
 21
217.8488450884285
 31
0.0000000000000000
  0
ARC
  5
D8
100
AcDbEntity
  8
MAIN0
  6
PHANTOM
 62
3
100
AcDbCircle
 10
140.8672357011556
 20
216.7960586839280
 30
0.0000000000000000
 40
0.2000000000000000
100
AcDbArc
 50
206.5650511772021
 51
333.4349488230498
  0
LINE
  5
D9
100
AcDbEntity
  8
MAIN0
  6
CENTER
 62
3
100
AcDbLine
 10
136.8672357011471
 20
215.5446896453944
 30
0.0000000000000000
 11
136.8672357011545
 21
221.8733419183356
 31
0.0000000000000000
  0
LINE
  5
DA
100
AcDbEntity
  8
MAIN0
  6
PHANTOM
 62
3
100
AcDbLine
 10
137.6172357011498
 20
217.8488450884286
 30
0.0000000000000000
 11
137.6172357011516
 21
219.3488450884286
 31
0.0000000000000000
  0
LINE
  5
DB
100
AcDbEntity
  8
MAIN0
  6
PHANTOM
 62
3
100
AcDbLine
 10
136.1172357011498
 20
217.8488450884275
 30
0.0000000000000000
 11
136.1172357011516
 21
219.3488450884275
 31
0.0000000000000000
  0
LINE
  5
DC
100
AcDbEntity
  8
MAIN0
  6
PHANTOM
 62
3
100
AcDbLine
 10
136.1172357011516
 20
219.3488450884275
 30
0.0000000000000000
 11
136.6883502629531
 21
220.4910742120283
 31
0.0000000000000000
  0
LINE
  5
DD
100
AcDbEntity
  8
MAIN0
  6
PHANTOM
 62
3
100
AcDbLine
 10
137.0461211393531
 20
220.4910742120279
 30
0.0000000000000000
 11
137.6172357011516
 21
219.3488450884286
 31
0.0000000000000000
  0
ARC
  5
DE
100
AcDbEntity
  8
MAIN0
  6
PHANTOM
 62
3
100
AcDbCircle
 10
136.8672357011531
 20
220.4016314929281
 30
0.0000000000000000
 40
0.2000000000000000
100
AcDbArc
 50
26.56505117703065
 51
153.4349488228783
  0
LINE
  5
DF
100
AcDbEntity
  8
MAIN0
  6
PHANTOM
 62
3
100
AcDbLine
 10
136.1172357011527
 20
217.8488450884275
 30
0.0000000000000000
 11
136.6883502629558
 21
216.7066159648276
 31
0.0000000000000000
  0
LINE
  5
E0
100
AcDbEntity
  8
MAIN0
  6
PHANTOM
 62
3
100
AcDbLine
 10
137.0461211393558
 20
216.7066159648284
 30
0.0000000000000000
 11
137.6172357011526
 21
217.8488450884285
 31
0.0000000000000000
  0
ARC
  5
E1
100
AcDbEntity
  8
MAIN0
  6
PHANTOM
 62
3
100
AcDbCircle
 10
136.8672357011556
 20
216.7960586839280
 30
0.0000000000000000
 40
0.2000000000000000
100
AcDbArc
 50
206.5650511772021
 51
333.4349488230498
  0
LINE
  5
E2
100
AcDbEntity
  8
MAIN0
  6
CENTER
 62
3
100
AcDbLine
 10
132.8672357011471
 20
215.5446896453945
 30
0.0000000000000000
 11
132.8672357011545
 21
221.8733419183356
 31
0.0000000000000000
  0
LINE
  5
E3
100
AcDbEntity
  8
MAIN0
  6
PHANTOM
 62
3
100
AcDbLine
 10
133.6172357011498
 20
217.8488450884286
 30
0.0000000000000000
 11
133.6172357011516
 21
219.3488450884286
 31
0.0000000000000000
  0
LINE
  5
E4
100
AcDbEntity
  8
MAIN0
  6
PHANTOM
 62
3
100
AcDbLine
 10
132.1172357011498
 20
217.8488450884275
 30
0.0000000000000000
 11
132.1172357011516
 21
219.3488450884275
 31
0.0000000000000000
  0
LINE
  5
E5
100
AcDbEntity
  8
MAIN0
  6
PHANTOM
 62
3
100
AcDbLine
 10
132.1172357011516
 20
219.3488450884275
 30
0.0000000000000000
 11
132.6883502629531
 21
220.4910742120283
 31
0.0000000000000000
  0
LINE
  5
E6
100
AcDbEntity
  8
MAIN0
  6
PHANTOM
 62
3
100
AcDbLine
 10
133.0461211393531
 20
220.4910742120279
 30
0.0000000000000000
 11
133.6172357011516
 21
219.3488450884286
 31
0.0000000000000000
  0
ARC
  5
E7
100
AcDbEntity
  8
MAIN0
  6
PHANTOM
 62
3
100
AcDbCircle
 10
132.8672357011531
 20
220.4016314929281
 30
0.0000000000000000
 40
0.2000000000000000
100
AcDbArc
 50
26.56505117703065
 51
153.4349488228783
  0
LINE
  5
E8
100
AcDbEntity
  8
MAIN0
  6
PHANTOM
 62
3
100
AcDbLine
 10
132.1172357011527
 20
217.8488450884275
 30
0.0000000000000000
 11
132.6883502629558
 21
216.7066159648276
 31
0.0000000000000000
  0
LINE
  5
E9
100
AcDbEntity
  8
MAIN0
  6
PHANTOM
 62
3
100
AcDbLine
 10
133.0461211393558
 20
216.7066159648284
 30
0.0000000000000000
 11
133.6172357011526
 21
217.8488450884285
 31
0.0000000000000000
  0
ARC
  5
EA
100
AcDbEntity
  8
MAIN0
  6
PHANTOM
 62
3
100
AcDbCircle
 10
132.8672357011556
 20
216.7960586839280
 30
0.0000000000000000
 40
0.2000000000000000
100
AcDbArc
 50
206.5650511772021
 51
333.4349488230498
  0
LINE
  5
EB
100
AcDbEntity
  8
MAIN0
  6
PHANTOM
 62
3
100
AcDbLine
 10
141.6172357011516
 20
219.3488450884258
 30
0.0000000000000000
 11
144.1172357011516
 21
219.3488450884275
 31
0.0000000000000000
  0
LINE
  5
EC
100
AcDbEntity
  8
MAIN0
  6
PHANTOM
 62
3
100
AcDbLine
 10
141.6172357011526
 20
217.8488450884258
 30
0.0000000000000000
 11
144.1172357011498
 21
217.8488450884275
 31
0.0000000000000000
  0
LINE
  5
ED
100
AcDbEntity
  8
MAIN0
  6
PHANTOM
 62
3
100
AcDbLine
 10
137.6172357011502
 20
219.3488450884230
 30
0.0000000000000000
 11
140.1172357011516
 21
219.3488450884247
 31
0.0000000000000000
  0
LINE
  5
EE
100
AcDbEntity
  8
MAIN0
  6
PHANTOM
 62
3
100
AcDbLine
 10
137.6172357011498
 20
217.8488450884230
 30
0.0000000000000000
 11
140.1172357011528
 21
217.8488450884247
 31
0.0000000000000000
  0
LINE
  5
EF
100
AcDbEntity
  8
MAIN0
  6
PHANTOM
 62
3
100
AcDbLine
 10
133.6172357011526
 20
217.8488450884202
 30
0.0000000000000000
 11
136.1172357011527
 21
217.8488450884219
 31
0.0000000000000000
  0
LINE
  5
F0
100
AcDbEntity
  8
MAIN0
  6
PHANTOM
 62
3
100
AcDbLine
 10
133.6172357011516
 20
219.3488450884202
 30
0.0000000000000000
 11
136.1172357011516
 21
219.3488450884219
 31
0.0000000000000000
  0
LINE
  5
F1
100
AcDbEntity
  8
MAIN0
  6
PHANTOM
 62
3
100
AcDbLine
 10
130.8672357013652
 20
219.3488450884182
 30
0.0000000000000000
 11
132.1172357011516
 21
219.3488450884191
 31
0.0000000000000000
  0
LINE
  5
F2
100
AcDbEntity
  8
MAIN0
  6
PHANTOM
 62
3
100
AcDbLine
 10
130.8672357013652
 20
217.8488450884182
 30
0.0000000000000000
 11
132.1172357011528
 21
217.8488450884191
 31
0.0000000000000000
  0
LINE
  5
F3
100
AcDbEntity
  8
MAIN0
  6
PHANTOM
 62
3
100
AcDbLine
 10
129.3672357013678
 20
163.5988450884130
 30
0.0000000000000000
 11
148.5672357012826
 21
163.5988450884467
 31
0.0000000000000000
  0
LINE
  5
F4
100
AcDbEntity
  8
MAIN0
  6
PHANTOM
 62
3
100
AcDbLine
 10
130.8672357013652
 20
202.0160038722198
 30
0.0000000000000000
 11
134.3672357011928
 21
202.0160038722245
 31
0.0000000000000000
  0
LINE
  5
F5
100
AcDbEntity
  8
MAIN0
  6
PHANTOM
 62
3
100
AcDbLine
 10
134.3672357012032
 20
197.5988450884218
 30
0.0000000000000000
 11
134.8672357012031
 21
197.5988450884227
 31
0.0000000000000000
  0
LINE
  5
F6
100
AcDbEntity
  8
MAIN0
  6
PHANTOM
 62
3
100
AcDbLine
 10
148.8672357012600
 20
173.2988450884472
 30
0.0000000000000000
 11
148.8672357012819
 21
163.8988450884472
 31
0.0000000000000000
  0
LINE
  5
F7
100
AcDbEntity
  8
MAIN0
  6
PHANTOM
 62
3
100
AcDbLine
 10
141.8672357012296
 20
186.2988450884349
 30
0.0000000000000000
 11
141.8672357012558
 21
175.0988450883091
 31
0.0000000000000000
  0
LINE
  5
F8
100
AcDbEntity
  8
MAIN0
  6
PHANTOM
 62
3
100
AcDbLine
 10
134.8672357012031
 20
197.5988450884227
 30
0.0000000000000000
 11
134.8672357012254
 21
188.0988450882968
 31
0.0000000000000000
  0
LINE
  5
F9
100
AcDbEntity
  8
MAIN0
  6
PHANTOM
 62
3
100
AcDbLine
 10
134.3672357011852
 20
205.2988450884218
 30
0.0000000000000000
 11
134.3672357012032
 21
197.5988450884218
 31
0.0000000000000000
  0
LINE
  5
FA
100
AcDbEntity
  8
MAIN0
  6
PHANTOM
 62
3
100
AcDbLine
 10
134.0672357011846
 20
205.5988450884212
 30
0.0000000000000000
 11
134.3672357011852
 21
205.2988450884218
 31
0.0000000000000000
  0
LINE
  5
FB
100
AcDbEntity
  8
MAIN0
  6
PHANTOM
 62
3
100
AcDbLine
 10
141.5672357012288
 20
186.5988450884344
 30
0.0000000000000000
 11
141.8672357012295
 21
186.2988450884349
 31
0.0000000000000000
  0
LINE
  5
FC
100
AcDbEntity
  8
MAIN0
  6
PHANTOM
 62
3
100
AcDbLine
 10
148.5672357012592
 20
173.5988450884467
 30
0.0000000000000000
 11
148.8672357012599
 21
173.2988450884472
 31
0.0000000000000000
  0
LINE
  5
FD
100
AcDbEntity
  8
MAIN0
  6
PHANTOM
 62
3
100
AcDbLine
 10
148.8672357012819
 20
163.8988450884472
 30
0.0000000000000000
 11
148.5672357012826
 21
163.5988450884467
 31
0.0000000000000000
  0
LINE
  5
FE
100
AcDbEntity
  8
MAIN0
  6
PHANTOM
 62
3
100
AcDbLine
 10
142.4038382416590
 20
173.0426273057045
 30
0.0000000000000000
 11
143.3672357014239
 21
173.5988450884376
 31
0.0000000000000000
  0
LINE
  5
FF
100
AcDbEntity
  8
MAIN0
  6
PHANTOM
 62
3
100
AcDbLine
 10
141.3110179186313
 20
174.1354476287324
 30
0.0000000000000000
 11
141.8672357012558
 21
175.0988450883091
 31
0.0000000000000000
  0
ARC
  5
100
100
AcDbEntity
  8
MAIN0
  6
PHANTOM
 62
3
100
AcDbCircle
 10
142.0038382416585
 20
173.7354476287317
 30
0.0000000000000000
 40
0.8000000000000000
100
AcDbArc
 50
149.9999999999421
 51
300.0000000000513
  0
LINE
  5
101
100
AcDbEntity
  8
MAIN0
  6
PHANTOM
 62
3
100
AcDbLine
 10
134.3110179186008
 20
187.1354476287201
 30
0.0000000000000000
 11
134.8672357012253
 21
188.0988450882968
 31
0.0000000000000000
  0
ARC
  5
102
100
AcDbEntity
  8
MAIN0
  6
PHANTOM
 62
3
100
AcDbCircle
 10
135.0038382416280
 20
186.7354476287194
 30
0.0000000000000000
 40
0.8000000000000000
100
AcDbArc
 50
149.9999999999421
 51
300.0000000000513
  0
LINE
  5
103
100
AcDbEntity
  8
MAIN0
  6
PHANTOM
 62
3
100
AcDbLine
 10
135.4038382416285
 20
186.0426273056922
 30
0.0000000000000000
 11
136.3672357013934
 21
186.5988450884253
 31
0.0000000000000000
  0
LINE
  5
104
100
AcDbEntity
  8
MAIN0
  6
CENTER
 62
3
100
AcDbLine
 10
145.9672357012731
 20
175.0988450883067
 30
0.0000000000000000
 11
145.9672357012708
 21
171.0988450884088
 31
0.0000000000000000
  0
LINE
  5
105
100
AcDbEntity
  8
MAIN0
  6
PHANTOM
 62
3
100
AcDbLine
 10
145.7940306205626
 20
172.5998069821941
 30
0.0000000000000000
 11
145.2172357009886
 21
173.5988450884454
 31
0.0000000000000000
  0
LINE
  5
106
100
AcDbEntity
  8
MAIN0
  6
PHANTOM
 62
3
100
AcDbLine
 10
146.7172357016511
 20
173.5988450884454
 30
0.0000000000000000
 11
146.1404407820764
 21
172.5998069821940
 31
0.0000000000000000
  0
ARC
  5
107
100
AcDbEntity
  8
MAIN0
  6
PHANTOM
 62
3
100
AcDbCircle
 10
145.9672357013195
 20
172.6998069821940
 30
0.0000000000000000
 40
0.2000000000000000
100
AcDbArc
 50
209.9999999999674
 51
329.9999999999922
  0
LINE
  5
108
100
AcDbEntity
  8
MAIN0
  6
CENTER
 62
3
100
AcDbLine
 10
138.6672357012734
 20
188.5988450884101
 30
0.0000000000000000
 11
138.6672357012704
 21
183.5988450884101
 31
0.0000000000000000
  0
LINE
  5
109
100
AcDbEntity
  8
MAIN0
  6
PHANTOM
 62
3
100
AcDbLine
 10
138.4940306205626
 20
185.5998069821810
 30
0.0000000000000000
 11
137.9172357009886
 21
186.5988450884323
 31
0.0000000000000000
  0
LINE
  5
10A
100
AcDbEntity
  8
MAIN0
  6
PHANTOM
 62
3
100
AcDbLine
 10
139.4172357016511
 20
186.5988450884323
 30
0.0000000000000000
 11
138.8404407820764
 21
185.5998069821808
 31
0.0000000000000000
  0
ARC
  5
10B
100
AcDbEntity
  8
MAIN0
  6
PHANTOM
 62
3
100
AcDbCircle
 10
138.6672357013195
 20
185.6998069821810
 30
0.0000000000000000
 40
0.2000000000000000
100
AcDbArc
 50
209.9999999999674
 51
329.9999999999922
  0
LINE
  5
10C
100
AcDbEntity
  8
MAIN0
  6
PHANTOM
 62
3
100
AcDbLine
 10
143.3672357014239
 20
173.5988450884376
 30
0.0000000000000000
 11
145.2172357009887
 21
173.5988450884408
 31
0.0000000000000000
  0
LINE
  5
10D
100
AcDbEntity
  8
MAIN0
  6
PHANTOM
 62
3
100
AcDbLine
 10
146.7172357016512
 20
173.5988450884434
 30
0.0000000000000000
 11
148.5672357012593
 21
173.5988450884467
 31
0.0000000000000000
  0
LINE
  5
10E
100
AcDbEntity
  8
MAIN0
  6
PHANTOM
 62
3
100
AcDbLine
 10
136.3672357013936
 20
186.5988450884253
 30
0.0000000000000000
 11
137.9172357009886
 21
186.5988450884280
 31
0.0000000000000000
  0
LINE
  5
10F
100
AcDbEntity
  8
MAIN0
  6
PHANTOM
 62
3
100
AcDbLine
 10
139.4172357016511
 20
186.5988450884307
 30
0.0000000000000000
 11
141.5672357012288
 21
186.5988450884344
 31
0.0000000000000000
  0
LINE
  5
110
100
AcDbEntity
  8
MAIN0
  6
PHANTOM
 62
3
100
AcDbLine
 10
131.1172357015633
 20
205.5988450884177
 30
0.0000000000000000
 11
130.8672357013652
 21
205.1658323861821
 31
0.0000000000000000
  0
LINE
  5
111
100
AcDbEntity
  8
MAIN0
  6
PHANTOM
 62
3
100
AcDbLine
 10
131.1172357015634
 20
205.5988450884161
 30
0.0000000000000000
 11
134.0672357011845
 21
205.5988450884213
 31
0.0000000000000000
  0
LINE
  5
112
100
AcDbEntity
  8
MAIN0
  6
CENTER
 62
3
100
AcDbLine
 10
233.8873021359574
 20
159.9903716182393
 30
0.0000000000000000
 11
233.8873021359574
 21
277.9684656792608
 31
0.0000000000000000
  0
CIRCLE
  5
113
100
AcDbEntity
  8
MAIN0
  6
CONTINUOUS
 62
3
100
AcDbCircle
 10
233.8873021359574
 20
218.5988450884091
 30
0.0000000000000000
 40
12.00000000000000
  0
CIRCLE
  5
114
100
AcDbEntity
  8
MAIN0
  6
HIDDEN
 62
3
100
AcDbCircle
 10
233.8873021359574
 20
218.5988450884091
 30
0.0000000000000000
 40
41.00000000000000
  0
CIRCLE
  5
115
100
AcDbEntity
  8
MAIN0
  6
HIDDEN
 62
3
100
AcDbCircle
 10
233.8873021359574
 20
218.5988450884091
 30
0.0000000000000000
 40
40.00000000000000
  0
CIRCLE
  5
116
100
AcDbEntity
  8
MAIN0
  6
HIDDEN
 62
3
100
AcDbCircle
 10
233.8873021359574
 20
218.5988450884091
 30
0.0000000000000000
 40
19.50000000000000
  0
ARC
  5
117
100
AcDbEntity
  8
MAIN0
  6
CENTER
 62
3
100
AcDbCircle
 10
233.8873021359574
 20
218.5988450884091
 30
0.0000000000000000
 40
18.00000000000000
100
AcDbArc
 50
249.5533513217227
 51
291.1060403617032
  0
LINE
  5
118
100
AcDbEntity
  8
MAIN0
  6
CONTINUOUS
 62
3
100
AcDbLine
 10
226.8873021360106
 20
228.3456394332563
 30
0.0000000000000000
 11
226.8873021359578
 21
273.2988450884091
 31
0.0000000000000000
  0
LINE
  5
119
100
AcDbEntity
  8
MAIN0
  6
CONTINUOUS
 62
3
100
AcDbLine
 10
240.8873021360106
 20
228.3456394331799
 30
0.0000000000000000
 11
240.8873021359578
 21
273.2988450884091
 31
0.0000000000000000
  0
LINE
  5
11A
100
AcDbEntity
  8
MAIN0
  6
CONTINUOUS
 62
3
100
AcDbLine
 10
240.5873021359574
 20
273.5988450884091
 30
0.0000000000000000
 11
227.1873021359574
 21
273.5988450884091
 31
0.0000000000000000
  0
LINE
  5
11B
100
AcDbEntity
  8
MAIN0
  6
CONTINUOUS
 62
3
100
AcDbLine
 10
226.8873021359577
 20
273.2988450884091
 30
0.0000000000000000
 11
227.1873021359574
 21
273.5988450884091
 31
0.0000000000000000
  0
LINE
  5
11C
100
AcDbEntity
  8
MAIN0
  6
CONTINUOUS
 62
3
100
AcDbLine
 10
240.5873021359574
 20
273.5988450884092
 30
0.0000000000000000
 11
240.8873021359578
 21
273.2988450884092
 31
0.0000000000000000
  0
ARC
  5
11D
100
AcDbEntity
  8
MAIN0
  6
CONTINUOUS
 62
3
100
AcDbCircle
 10
233.8873021359574
 20
220.5988450884091
 30
0.0000000000000000
 40
11.00000000000000
100
AcDbArc
 50
86.09043647508268
 51
93.90956352440122
  0
LINE
  5
11E
100
AcDbEntity
  8
MAIN0
  6
CONTINUOUS
 62
3
100
AcDbLine
 10
234.6373021360069
 20
231.5732471223040
 30
0.0000000000000000
 11
240.8873021360025
 21
235.1816863047226
 31
0.0000000000000000
  0
LINE
  5
11F
100
AcDbEntity
  8
MAIN0
  6
CONTINUOUS
 62
3
100
AcDbLine
 10
226.8873021360026
 20
235.1816863046242
 30
0.0000000000000000
 11
233.1373021360068
 21
231.5732471221898
 31
0.0000000000000000
  0
ARC
  5
120
100
AcDbEntity
  8
MAIN0
  6
CONTINUOUS
 62
3
100
AcDbCircle
 10
233.8873021359574
 20
220.5988450884091
 30
0.0000000000000000
 40
24.00000000000000
100
AcDbArc
 50
73.04223669990762
 51
106.9577632999159
  0
ARC
  5
121
100
AcDbEntity
  8
MAIN0
  6
CONTINUOUS
 62
3
100
AcDbCircle
 10
233.8873021359574
 20
220.5988450884091
 30
0.0000000000000000
 40
25.50000000000000
100
AcDbArc
 50
74.06719618463403
 51
105.9328038152094
  0
ARC
  5
122
100
AcDbEntity
  8
MAIN0
  6
CONTINUOUS
 62
3
100
AcDbCircle
 10
233.8873021359574
 20
220.5988450884091
 30
0.0000000000000000
 40
37.00000000000000
100
AcDbArc
 50
79.09453000323870
 51
100.9054699966995
  0
ARC
  5
123
100
AcDbEntity
  8
MAIN0
  6
CONTINUOUS
 62
3
100
AcDbCircle
 10
233.8873021359574
 20
220.5988450884091
 30
0.0000000000000000
 40
38.50000000000000
100
AcDbArc
 50
79.52431830358313
 51
100.4756816963629
  0
ARC
  5
124
100
AcDbEntity
  8
MAIN0
  6
CONTINUOUS
 62
3
100
AcDbCircle
 10
233.8873021359574
 20
220.5988450884091
 30
0.0000000000000000
 40
47.00000000000000
100
AcDbArc
 50
81.43471889243973
 51
98.56528110754125
  0
LINE
  5
125
100
AcDbEntity
  8
MAIN0
  6
CONTINUOUS
 62
3
100
AcDbLine
 10
228.9463306278306
 20
207.6632700895406
 30
0.0000000000000000
 11
190.0157125489484
 21
185.1866672619184
 31
0.0000000000000000
  0
LINE
  5
126
100
AcDbEntity
  8
MAIN0
  6
CONTINUOUS
 62
3
100
AcDbLine
 10
221.9463306278968
 20
219.7876257425610
 30
0.0000000000000000
 11
183.0157125489484
 21
197.3110229149006
 31
0.0000000000000000
  0
LINE
  5
127
100
AcDbEntity
  8
MAIN0
  6
CONTINUOUS
 62
3
100
AcDbLine
 10
182.9059049278133
 20
196.9012152937649
 30
0.0000000000000000
 11
189.6059049278132
 21
185.2964748830534
 31
0.0000000000000000
  0
LINE
  5
128
100
AcDbEntity
  8
MAIN0
  6
CONTINUOUS
 62
3
100
AcDbLine
 10
190.0157125489484
 20
185.1866672619184
 30
0.0000000000000000
 11
189.6059049278132
 21
185.2964748830534
 31
0.0000000000000000
  0
LINE
  5
129
100
AcDbEntity
  8
MAIN0
  6
CONTINUOUS
 62
3
100
AcDbLine
 10
182.9059049278133
 20
196.9012152937648
 30
0.0000000000000000
 11
183.0157125489484
 21
197.3110229149005
 31
0.0000000000000000
  0
ARC
  5
12A
100
AcDbEntity
  8
MAIN0
  6
CONTINUOUS
 62
3
100
AcDbCircle
 10
232.1552513283885
 20
217.5988450884091
 30
0.0000000000000000
 40
11.00000000000000
100
AcDbArc
 50
206.0904364750826
 51
213.9095635244012
  0
LINE
  5
12B
100
AcDbEntity
  8
MAIN0
  6
CONTINUOUS
 62
3
100
AcDbLine
 10
222.2761403756672
 20
212.7611631243429
 30
0.0000000000000000
 11
216.0261403756837
 21
216.3696023067825
 31
0.0000000000000000
  0
LINE
  5
12C
100
AcDbEntity
  8
MAIN0
  6
CONTINUOUS
 62
3
100
AcDbLine
 10
223.0261403757690
 20
204.2452466538497
 30
0.0000000000000000
 11
223.0261403757662
 21
211.4621250187232
 31
0.0000000000000000
  0
ARC
  5
12D
100
AcDbEntity
  8
MAIN0
  6
CONTINUOUS
 62
3
100
AcDbCircle
 10
232.1552513283885
 20
217.5988450884091
 30
0.0000000000000000
 40
24.00000000000000
100
AcDbArc
 50
193.0422366999076
 51
226.9577632999159
  0
ARC
  5
12E
100
AcDbEntity
  8
MAIN0
  6
CONTINUOUS
 62
3
100
AcDbCircle
 10
232.1552513283885
 20
217.5988450884091
 30
0.0000000000000000
 40
25.50000000000000
100
AcDbArc
 50
194.0671961846340
 51
225.9328038152094
  0
ARC
  5
12F
100
AcDbEntity
  8
MAIN0
  6
CONTINUOUS
 62
3
100
AcDbCircle
 10
232.1552513283885
 20
217.5988450884091
 30
0.0000000000000000
 40
37.00000000000000
100
AcDbArc
 50
199.0945300032387
 51
220.9054699966995
  0
ARC
  5
130
100
AcDbEntity
  8
MAIN0
  6
CONTINUOUS
 62
3
100
AcDbCircle
 10
232.1552513283885
 20
217.5988450884091
 30
0.0000000000000000
 40
38.50000000000000
100
AcDbArc
 50
199.5243183035831
 51
220.4756816963630
  0
ARC
  5
131
100
AcDbEntity
  8
MAIN0
  6
CONTINUOUS
 62
3
100
AcDbCircle
 10
232.1552513283885
 20
217.5988450884091
 30
0.0000000000000000
 40
47.00000000000000
100
AcDbArc
 50
201.4347188924398
 51
218.5652811075413
  0
LINE
  5
132
100
AcDbEntity
  8
MAIN0
  6
CONTINUOUS
 62
3
100
AcDbLine
 10
245.8282736440310
 20
219.7876257424304
 30
0.0000000000000000
 11
284.7588917229659
 21
197.3110229148999
 31
0.0000000000000000
  0
LINE
  5
133
100
AcDbEntity
  8
MAIN0
  6
CONTINUOUS
 62
3
100
AcDbLine
 10
238.8282736439647
 20
207.6632700894866
 30
0.0000000000000000
 11
277.7588917229659
 21
185.1866672619178
 31
0.0000000000000000
  0
LINE
  5
134
100
AcDbEntity
  8
MAIN0
  6
CONTINUOUS
 62
3
100
AcDbLine
 10
278.1686993441016
 20
185.2964748830534
 30
0.0000000000000000
 11
284.8686993441015
 21
196.9012152937649
 31
0.0000000000000000
  0
LINE
  5
135
100
AcDbEntity
  8
MAIN0
  6
CONTINUOUS
 62
3
100
AcDbLine
 10
284.7588917229660
 20
197.3110229148999
 30
0.0000000000000000
 11
284.8686993441015
 21
196.9012152937648
 31
0.0000000000000000
  0
LINE
  5
136
100
AcDbEntity
  8
MAIN0
  6
CONTINUOUS
 62
3
100
AcDbLine
 10
278.1686993441015
 20
185.2964748830534
 30
0.0000000000000000
 11
277.7588917229659
 21
185.1866672619178
 31
0.0000000000000000
  0
ARC
  5
137
100
AcDbEntity
  8
MAIN0
  6
CONTINUOUS
 62
3
100
AcDbCircle
 10
235.6193529435263
 20
217.5988450884092
 30
0.0000000000000000
 40
11.00000000000000
100
AcDbArc
 50
326.0904364750827
 51
333.9095635244012
  0
LINE
  5
138
100
AcDbEntity
  8
MAIN0
  6
CONTINUOUS
 62
3
100
AcDbLine
 10
244.7484638961981
 20
211.4621250185805
 30
0.0000000000000000
 11
244.7484638961860
 21
204.2452466537223
 31
0.0000000000000000
  0
LINE
  5
139
100
AcDbEntity
  8
MAIN0
  6
CONTINUOUS
 62
3
100
AcDbLine
 10
251.7484638961007
 20
216.3696023067536
 30
0.0000000000000000
 11
245.4984638960993
 21
212.7611631243144
 31
0.0000000000000000
  0
ARC
  5
13A
100
AcDbEntity
  8
MAIN0
  6
CONTINUOUS
 62
3
100
AcDbCircle
 10
235.6193529435263
 20
217.5988450884092
 30
0.0000000000000000
 40
24.00000000000000
100
AcDbArc
 50
313.0422366999076
 51
346.9577632999159
  0
ARC
  5
13B
100
AcDbEntity
  8
MAIN0
  6
CONTINUOUS
 62
3
100
AcDbCircle
 10
235.6193529435263
 20
217.5988450884092
 30
0.0000000000000000
 40
25.50000000000000
100
AcDbArc
 50
314.0671961846340
 51
345.9328038152094
  0
ARC
  5
13C
100
AcDbEntity
  8
MAIN0
  6
CONTINUOUS
 62
3
100
AcDbCircle
 10
235.6193529435263
 20
217.5988450884092
 30
0.0000000000000000
 40
37.00000000000000
100
AcDbArc
 50
319.0945300032387
 51
340.9054699966994
  0
ARC
  5
13D
100
AcDbEntity
  8
MAIN0
  6
CONTINUOUS
 62
3
100
AcDbCircle
 10
235.6193529435263
 20
217.5988450884092
 30
0.0000000000000000
 40
38.50000000000000
100
AcDbArc
 50
319.5243183035831
 51
340.4756816963629
  0
ARC
  5
13E
100
AcDbEntity
  8
MAIN0
  6
CONTINUOUS
 62
3
100
AcDbCircle
 10
235.6193529435263
 20
217.5988450884092
 30
0.0000000000000000
 40
47.00000000000000
100
AcDbArc
 50
321.4347188924397
 51
338.5652811075412
  0
ARC
  5
13F
100
AcDbEntity
  8
MAIN0
  6
CONTINUOUS
 62
3
100
AcDbCircle
 10
233.8873021359574
 20
218.5988450884091
 30
0.0000000000000000
 40
55.00000000000000
100
AcDbArc
 50
97.31202192626637
 51
202.6879780737325
  0
ARC
  5
140
100
AcDbEntity
  8
MAIN0
  6
CONTINUOUS
 62
3
100
AcDbCircle
 10
233.8873021359574
 20
218.5988450884091
 30
0.0000000000000000
 40
55.00000000000000
100
AcDbArc
 50
217.3120219262663
 51
322.6879780737325
  0
ARC
  5
141
100
AcDbEntity
  8
MAIN0
  6
CONTINUOUS
 62
3
100
AcDbCircle
 10
233.8873021359574
 20
218.5988450884091
 30
0.0000000000000000
 40
55.00000000000000
100
AcDbArc
 50
337.3120219262664
 51
442.6879780737325
  0
CIRCLE
  5
142
100
AcDbEntity
  8
MAIN0
  6
HIDDEN
 62
3
100
AcDbCircle
 10
210.1373021359574
 20
259.7350517681700
 30
0.0000000000000000
 40
4.000000000000000
  0
CIRCLE
  5
143
100
AcDbEntity
  8
MAIN0
  6
HIDDEN
 62
3
100
AcDbCircle
 10
210.1373021359574
 20
259.7350517681700
 30
0.0000000000000000
 40
3.400000000000000
  0
ARC
  5
144
100
AcDbEntity
  8
MAIN0
  6
CENTER
 62
3
100
AcDbCircle
 10
233.8873021359574
 20
218.5988450884091
 30
0.0000000000000000
 40
47.50000000000000
100
AcDbArc
 50
111.5637334844408
 51
127.9724082980563
  0
CIRCLE
  5
145
100
AcDbEntity
  8
MAIN0
  6
HIDDEN
 62
3
100
AcDbCircle
 10
210.1373021359574
 20
177.4626384086483
 30
0.0000000000000000
 40
4.000000000000000
  0
CIRCLE
  5
146
100
AcDbEntity
  8
MAIN0
  6
HIDDEN
 62
3
100
AcDbCircle
 10
210.1373021359574
 20
177.4626384086483
 30
0.0000000000000000
 40
3.400000000000000
  0
ARC
  5
147
100
AcDbEntity
  8
MAIN0
  6
CENTER
 62
3
100
AcDbCircle
 10
233.8873021359574
 20
218.5988450884091
 30
0.0000000000000000
 40
47.50000000000000
100
AcDbArc
 50
231.5637334844408
 51
247.9724082980563
  0
LINE
  5
148
100
AcDbEntity
  8
MAIN0
  6
CENTER
 62
3
100
AcDbLine
 10
183.3084083285393
 20
247.8005830436148
 30
0.0000000000000000
 11
284.7720861340687
 21
189.2205013495407
 31
0.0000000000000000
  0
LINE
  5
149
100
AcDbEntity
  8
MAIN0
  6
CENTER
 62
3
100
AcDbLine
 10
284.9565966382805
 20
248.0837160168211
 30
0.0000000000000000
 11
181.3624348470642
 21
188.2735988199977
 31
0.0000000000000000
  0
LINE
  5
14A
100
AcDbEntity
  8
MAIN0
  6
CENTER
 62
3
100
AcDbLine
 10
67.86723570136519
 20
218.5988450884091
 30
0.0000000000000000
 11
152.0267346617562
 21
218.5988450884091
 31
0.0000000000000000
  0
LINE
  5
14B
100
AcDbEntity
  8
MAIN0
  6
CENTER
 62
3
100
AcDbLine
 10
175.4789062220260
 20
218.5988450884091
 30
0.0000000000000000
 11
292.9495850001107
 21
218.5988450884091
 31
0.0000000000000000
  0
CIRCLE
  5
14C
100
AcDbEntity
  8
MAIN0
  6
CONTINUOUS
 62
3
100
AcDbCircle
 10
233.8873021359574
 20
200.5988450884091
 30
0.0000000000000000
 40
1.732100000000000
  0
CIRCLE
  5
14D
100
AcDbEntity
  8
MAIN0
  6
CONTINUOUS
 62
3
100
AcDbCircle
 10
233.8873021359574
 20
200.5988450884091
 30
0.0000000000000000
 40
4.500000000000000
  0
CIRCLE
  5
14E
100
AcDbEntity
  8
MAIN0
  6
HIDDEN
 62
3
100
AcDbCircle
 10
249.8873021359574
 20
218.5988450884091
 30
0.0000000000000000
 40
2.250000000000000
  0
CIRCLE
  5
14F
100
AcDbEntity
  8
MAIN0
  6
HIDDEN
 62
3
100
AcDbCircle
 10
249.8873021359574
 20
218.5988450884091
 30
0.0000000000000000
 40
1.844000000000000
  0
CIRCLE
  5
150
100
AcDbEntity
  8
MAIN0
  6
HIDDEN
 62
3
100
AcDbCircle
 10
225.8873021363169
 20
232.4552515487526
 30
0.0000000000000000
 40
1.844000000000000
  0
CIRCLE
  5
151
100
AcDbEntity
  8
MAIN0
  6
HIDDEN
 62
3
100
AcDbCircle
 10
225.8873021363169
 20
232.4552515487526
 30
0.0000000000000000
 40
2.250000000000000
  0
CIRCLE
  5
152
100
AcDbEntity
  8
MAIN0
  6
HIDDEN
 62
3
100
AcDbCircle
 10
225.8873021357566
 20
204.7424386283892
 30
0.0000000000000000
 40
1.844000000000000
  0
CIRCLE
  5
153
100
AcDbEntity
  8
MAIN0
  6
HIDDEN
 62
3
100
AcDbCircle
 10
225.8873021357566
 20
204.7424386283892
 30
0.0000000000000000
 40
2.250000000000000
  0
ARC
  5
154
100
AcDbEntity
  8
MAIN0
  6
CENTER
 62
3
100
AcDbCircle
 10
233.8873021359574
 20
218.5988450884091
 30
0.0000000000000000
 40
16.00000000000000
100
AcDbArc
 50
346.1360995053573
 51
376.1316730592584
  0
ARC
  5
155
100
AcDbEntity
  8
MAIN0
  6
CENTER
 62
3
100
AcDbCircle
 10
233.8873021359574
 20
218.5988450884091
 30
0.0000000000000000
 40
16.00000000000000
100
AcDbArc
 50
106.3762475175517
 51
134.1620957605137
  0
ARC
  5
156
100
AcDbEntity
  8
MAIN0
  6
CENTER
 62
3
100
AcDbCircle
 10
233.8873021359574
 20
218.5988450884091
 30
0.0000000000000000
 40
16.00000000000000
100
AcDbArc
 50
226.6198116905344
 51
252.7953484143678
  0
LINE
  5
157
100
AcDbEntity
  8
MAIN0
  6
CENTER
 62
3
100
AcDbLine
 10
207.0764728893711
 20
172.1611266404148
 30
0.0000000000000000
 11
212.8417084565023
 21
182.1468075602874
 31
0.0000000000000000
  0
LINE
  5
158
100
AcDbEntity
  8
MAIN0
  6
CENTER
 62
3
100
AcDbLine
 10
224.4061406513366
 20
202.1769916824219
 30
0.0000000000000000
 11
227.5011940112756
 21
207.5377813539721
 31
0.0000000000000000
  0
LINE
  5
159
100
AcDbEntity
  8
MAIN0
  6
CENTER
 62
3
100
AcDbLine
 10
207.4380438557322
 20
264.4103042532271
 30
0.0000000000000000
 11
212.6951997315010
 21
255.3046431730576
 31
0.0000000000000000
  0
LINE
  5
15A
100
AcDbEntity
  8
MAIN0
  6
CENTER
 62
3
100
AcDbLine
 10
224.2685564575513
 20
235.2590013093565
 30
0.0000000000000000
 11
227.4742474317666
 21
229.7065816686333
 31
0.0000000000000000
  0
LINE
  5
15B
100
AcDbEntity
  8
MAIN0
  6
CENTER
 62
3
100
AcDbLine
 10
273.6341421973379
 20
253.6710495504266
 30
0.0000000000000000
 11
264.4707739173905
 21
248.3805764072984
 31
0.0000000000000000
  0
ARC
  5
15C
100
AcDbEntity
  8
MAIN0
  6
CENTER
 62
3
100
AcDbCircle
 10
233.8873021359574
 20
218.5988450884091
 30
0.0000000000000000
 40
47.50000000000000
100
AcDbArc
 50
351.5637334844408
 51
367.2918275958552
  0
ARC
  5
15D
100
AcDbEntity
  8
MAIN0
  6
CENTER
 62
3
100
AcDbCircle
 10
233.8873021359574
 20
218.5988450884091
 30
0.0000000000000000
 40
47.50000000000000
100
AcDbArc
 50
35.68197410127002
 51
50.73734219476417
  0
LINE
  5
15E
100
AcDbEntity
  8
MAIN0
  6
HIDDEN
 62
3
100
AcDbLine
 10
271.2176939919488
 20
253.1996729592621
 30
0.0000000000000000
 11
265.4940587834516
 21
249.8951306308825
 31
0.0000000000000000
  0
LINE
  5
15F
100
AcDbEntity
  8
MAIN0
  6
HIDDEN
 62
3
100
AcDbLine
 10
272.0176939919508
 20
251.8140323132081
 30
0.0000000000000000
 11
266.2940587834536
 21
248.5094899848285
 31
0.0000000000000000
  0
LINE
  5
160
100
AcDbEntity
  8
MAIN0
  6
HIDDEN
 62
3
100
AcDbLine
 10
274.3711703053652
 20
255.8286237345682
 30
0.0000000000000000
 11
261.8394743785946
 21
248.5934457178215
 31
0.0000000000000000
  0
LINE
  5
161
100
AcDbEntity
  8
MAIN0
  6
HIDDEN
 62
3
100
AcDbLine
 10
286.3711703054200
 20
235.0440140437732
 30
0.0000000000000000
 11
273.8394743786589
 21
227.8088360270320
 31
0.0000000000000000
  0
LINE
  5
162
100
AcDbEntity
  8
MAIN0
  6
HIDDEN
 62
3
100
AcDbLine
 10
181.4034339664752
 20
235.0440140436131
 30
0.0000000000000000
 11
193.9351298932659
 21
227.8088360269011
 31
0.0000000000000000
  0
CIRCLE
  5
163
100
AcDbEntity
  8
MAIN0
  6
HIDDEN
 62
3
100
AcDbCircle
 10
188.5187278841495
 20
232.6680479924612
 30
0.0000000000000000
 40
4.000000000000000
  0
CIRCLE
  5
164
100
AcDbEntity
  8
MAIN0
  6
HIDDEN
 62
3
100
AcDbCircle
 10
188.5187278841495
 20
232.6680479924612
 30
0.0000000000000000
 40
3.400000000000000
  0
ARC
  5
165
100
AcDbEntity
  8
MAIN0
  6
CENTER
 62
3
100
AcDbCircle
 10
233.8873021360244
 20
218.5988450885251
 30
0.0000000000000000
 40
47.50000000000000
100
AcDbArc
 50
155.6819741012700
 51
170.7373421947642
  0
LINE
  5
166
100
AcDbEntity
  8
MAIN0
  6
HIDDEN
 62
3
100
AcDbLine
 10
186.0569102798955
 20
235.0131394796711
 30
0.0000000000000000
 11
191.7805454884017
 21
231.7085971513073
 31
0.0000000000000000
  0
LINE
  5
167
100
AcDbEntity
  8
MAIN0
  6
CENTER
 62
3
100
AcDbLine
 10
183.6404620745051
 20
235.4845160708290
 30
0.0000000000000000
 11
192.8038303544671
 21
230.1940429277261
 31
0.0000000000000000
  0
LINE
  5
168
100
AcDbEntity
  8
MAIN0
  6
HIDDEN
 62
3
100
AcDbLine
 10
185.2569102798973
 20
233.6274988336149
 30
0.0000000000000000
 11
190.9805454884036
 21
230.3229565052511
 31
0.0000000000000000
  0
LINE
  5
169
100
AcDbEntity
  8
MAIN0
  6
HIDDEN
 62
3
100
AcDbLine
 10
193.4034339664206
 20
255.8286237344711
 30
0.0000000000000000
 11
205.9351298932017
 21
248.5934457177647
 31
0.0000000000000000
  0
LINE
  5
16A
100
AcDbEntity
  8
MAIN0
  6
HIDDEN
 62
3
100
AcDbLine
 10
245.8873021357638
 20
164.9238974872781
 30
0.0000000000000000
 11
245.8873021357438
 21
179.3942535207368
 31
0.0000000000000000
  0
CIRCLE
  5
16B
100
AcDbEntity
  8
MAIN0
  6
HIDDEN
 62
3
100
AcDbCircle
 10
244.3873021357536
 20
172.2739058009529
 30
0.0000000000000000
 40
4.000000000000000
  0
CIRCLE
  5
16C
100
AcDbEntity
  8
MAIN0
  6
HIDDEN
 62
3
100
AcDbCircle
 10
244.3873021357536
 20
172.2739058009529
 30
0.0000000000000000
 40
3.400000000000000
  0
ARC
  5
16D
100
AcDbEntity
  8
MAIN0
  6
CENTER
 62
3
100
AcDbCircle
 10
233.8873021356226
 20
218.5988450885251
 30
0.0000000000000000
 40
47.50000000000000
100
AcDbArc
 50
275.6819741012700
 51
290.7373421947642
  0
LINE
  5
16E
100
AcDbEntity
  8
MAIN0
  6
HIDDEN
 62
3
100
AcDbLine
 10
243.5873021357583
 20
168.9693634725801
 30
0.0000000000000000
 11
243.5873021357491
 21
175.5784481293235
 31
0.0000000000000000
  0
LINE
  5
16F
100
AcDbEntity
  8
MAIN0
  6
CENTER
 62
3
100
AcDbLine
 10
244.3873021357614
 20
166.6409696442038
 30
0.0000000000000000
 11
244.3873021357468
 21
177.2219159304349
 31
0.0000000000000000
  0
LINE
  5
170
100
AcDbEntity
  8
MAIN0
  6
HIDDEN
 62
3
100
AcDbLine
 10
245.1873021357582
 20
168.9693634725824
 30
0.0000000000000000
 11
245.1873021357491
 21
175.5784481293257
 31
0.0000000000000000
  0
LINE
  5
171
100
AcDbEntity
  8
MAIN0
  6
HIDDEN
 62
3
100
AcDbLine
 10
221.8873021357638
 20
164.9238974872150
 30
0.0000000000000000
 11
221.8873021357438
 21
179.3942535206627
 31
0.0000000000000000
  0
ARC
  5
172
100
AcDbEntity
  8
MAIN0
  6
CONTINUOUS
 62
3
100
AcDbCircle
 10
284.6847601807287
 20
279.8713267059912
 30
0.0000000000000000
 40
3.999999999999390
100
AcDbArc
 50
90.00000000000000
 51
270.0000000000000
  0
ARC
  5
173
100
AcDbEntity
  8
MAIN0
  6
CONTINUOUS
 62
3
100
AcDbCircle
 10
376.6847601807287
 20
279.8713267060059
 30
0.0000000000000000
 40
3.999999999999447
100
AcDbArc
 50
270.0000000000000
 51
450.0000000000000
  0
LINE
  5
174
100
AcDbEntity
  8
MAIN0
  6
CONTINUOUS
 62
3
100
AcDbLine
 10
322.1847601806755
 20
247.8713267059974
 30
0.0000000000000000
 11
339.1847601806755
 21
247.8713267059999
 31
0.0000000000000000
  0
LINE
  5
175
100
AcDbEntity
  8
MAIN0
  6
CONTINUOUS
 62
3
100
AcDbLine
 10
325.2847601806504
 20
232.8713267059978
 30
0.0000000000000000
 11
336.0847601806505
 21
232.8713267059994
 31
0.0000000000000000
  0
LINE
  5
176
100
AcDbEntity
  8
MAIN0
  6
CONTINUOUS
 62
3
100
AcDbLine
 10
325.7847601806323
 20
221.8713267059979
 30
0.0000000000000000
 11
335.5847601806323
 21
221.8713267059993
 31
0.0000000000000000
  0
LINE
  5
177
100
AcDbEntity
  8
MAIN0
  6
CONTINUOUS
 62
3
100
AcDbLine
 10
336.0847601806331
 20
222.3713267059994
 30
0.0000000000000000
 11
336.0847601806526
 21
234.0473685313180
 31
0.0000000000000000
  0
LINE
  5
178
100
AcDbEntity
  8
MAIN0
  6
CONTINUOUS
 62
3
100
AcDbLine
 10
325.2847601806331
 20
222.3713267059978
 30
0.0000000000000000
 11
325.2847601806525
 21
234.0473685312977
 31
0.0000000000000000
  0
LINE
  5
179
100
AcDbEntity
  8
MAIN0
  6
CONTINUOUS
 62
3
100
AcDbLine
 10
325.2847601806331
 20
222.3713267059978
 30
0.0000000000000000
 11
325.7847601806323
 21
221.8713267059979
 31
0.0000000000000000
  0
LINE
  5
17A
100
AcDbEntity
  8
MAIN0
  6
CONTINUOUS
 62
3
100
AcDbLine
 10
335.5847601806321
 20
221.8713267059993
 30
0.0000000000000000
 11
336.0847601806330
 21
222.3713267059994
 31
0.0000000000000000
  0
ARC
  5
17B
100
AcDbEntity
  8
MAIN0
  6
CONTINUOUS
 62
3
100
AcDbCircle
 10
371.0798202807039
 20
233.4593476186026
 30
0.0000000000000000
 40
35.00000000000000
100
AcDbArc
 50
155.6838757178591
 51
180.9626486200445
  0
ARC
  5
17C
100
AcDbEntity
  8
MAIN0
  6
CONTINUOUS
 62
3
100
AcDbCircle
 10
290.2897000805990
 20
233.4593476187065
 30
0.0000000000000000
 40
35.00000000000000
100
AcDbArc
 50
359.0373513797778
 51
384.3161242819498
  0
ARC
  5
17D
100
AcDbEntity
  8
MAIN0
  6
CONTINUOUS
 62
3
100
AcDbCircle
 10
348.3499115706403
 20
279.8713267059846
 30
0.0000000000000000
 40
10.00000000000000
100
AcDbArc
 50
156.4218215217025
 51
203.5781784781070
  0
ARC
  5
17E
100
AcDbEntity
  8
MAIN0
  6
CONTINUOUS
 62
3
100
AcDbCircle
 10
313.0196087908170
 20
279.8713267060126
 30
0.0000000000000000
 40
10.00000000000000
100
AcDbArc
 50
336.4218215217026
 51
383.5781784781067
  0
LINE
  5
17F
100
AcDbEntity
  8
MAIN0
  6
CONTINUOUS
 62
3
100
AcDbLine
 10
322.1847601806755
 20
247.8713267059974
 30
0.0000000000000000
 11
322.1847601807220
 21
275.8713267059974
 31
0.0000000000000000
  0
LINE
  5
180
100
AcDbEntity
  8
MAIN0
  6
CONTINUOUS
 62
3
100
AcDbLine
 10
322.1847601807353
 20
283.8713267059974
 30
0.0000000000000000
 11
322.1847601807469
 21
290.8713267058738
 31
0.0000000000000000
  0
LINE
  5
181
100
AcDbEntity
  8
MAIN0
  6
CONTINUOUS
 62
3
100
AcDbLine
 10
339.1847601806755
 20
247.8713267059999
 30
0.0000000000000000
 11
339.1847601807220
 21
275.8713267059999
 31
0.0000000000000000
  0
LINE
  5
182
100
AcDbEntity
  8
MAIN0
  6
CONTINUOUS
 62
3
100
AcDbLine
 10
339.1847601807354
 20
283.8713267059999
 30
0.0000000000000000
 11
339.1847601807471
 21
290.8713267058905
 31
0.0000000000000000
  0
LINE
  5
183
100
AcDbEntity
  8
MAIN0
  6
CONTINUOUS
 62
3
100
AcDbLine
 10
325.2911819881793
 20
203.6606684767621
 30
0.0000000000000000
 11
330.4214841235328
 21
208.7909706121130
 31
0.0000000000000000
  0
LINE
  5
184
100
AcDbEntity
  8
MAIN0
  6
CONTINUOUS
 62
3
100
AcDbLine
 10
330.9480362376700
 20
198.0038142272682
 30
0.0000000000000000
 11
336.0783383730237
 21
203.1341163626193
 31
0.0000000000000000
  0
LINE
  5
185
100
AcDbEntity
  8
MAIN0
  6
CONTINUOUS
 62
3
100
AcDbLine
 10
330.4214841235404
 20
198.0038142272678
 30
0.0000000000000000
 11
325.2911819881796
 21
203.1341163626116
 31
0.0000000000000000
  0
LINE
  5
186
100
AcDbEntity
  8
MAIN0
  6
CONTINUOUS
 62
3
100
AcDbLine
 10
336.0783383730234
 20
203.6606684767696
 30
0.0000000000000000
 11
330.9480362376627
 21
208.7909706121133
 31
0.0000000000000000
  0
ARC
  5
187
100
AcDbEntity
  8
MAIN0
  6
CONTINUOUS
 62
3
100
AcDbCircle
 10
330.6847601806015
 20
203.3973924196906
 30
0.0000000000000000
 40
5.400000000000000
100
AcDbArc
 50
177.2054464037178
 51
182.7945535963631
  0
ARC
  5
188
100
AcDbEntity
  8
MAIN0
  6
CONTINUOUS
 62
3
100
AcDbCircle
 10
330.6847601806015
 20
203.3973924196906
 30
0.0000000000000000
 40
5.400000000000000
100
AcDbArc
 50
357.2054464037191
 51
362.7945535963628
  0
LINE
  5
189
100
AcDbEntity
  8
MAIN0
  6
CONTINUOUS
 62
3
100
AcDbLine
 10
330.4214841232641
 20
222.3713267059986
 30
0.0000000000000000
 11
330.4214841232641
 21
232.8713267059986
 31
0.0000000000000000
  0
LINE
  5
18A
100
AcDbEntity
  8
MAIN0
  6
CONTINUOUS
 62
3
100
AcDbLine
 10
330.9480362378998
 20
222.3713267059987
 30
0.0000000000000000
 11
330.9480362378998
 21
232.8713267059986
 31
0.0000000000000000
  0
LINE
  5
18B
100
AcDbEntity
  8
MAIN0
  6
CONTINUOUS
 62
3
100
AcDbLine
 10
325.2847601806332
 20
222.3713267059978
 30
0.0000000000000000
 11
330.4214841232641
 21
222.3713267059986
 31
0.0000000000000000
  0
LINE
  5
18C
100
AcDbEntity
  8
MAIN0
  6
CONTINUOUS
 62
3
100
AcDbLine
 10
330.9480362378998
 20
222.3713267059987
 30
0.0000000000000000
 11
336.0847601806330
 21
222.3713267059994
 31
0.0000000000000000
  0
LINE
  5
18D
100
AcDbEntity
  8
MAIN0
  6
CONTINUOUS
 62
3
100
AcDbLine
 10
325.2847601806506
 20
232.8713267059978
 30
0.0000000000000000
 11
330.4214841232642
 21
222.3713267059986
 31
0.0000000000000000
  0
LINE
  5
18E
100
AcDbEntity
  8
MAIN0
  6
CONTINUOUS
 62
3
100
AcDbLine
 10
325.2847601806332
 20
222.3713267059978
 30
0.0000000000000000
 11
330.4214841232642
 21
232.8713267059986
 31
0.0000000000000000
  0
LINE
  5
18F
100
AcDbEntity
  8
MAIN0
  6
CONTINUOUS
 62
3
100
AcDbLine
 10
330.9480362378999
 20
232.8713267059986
 30
0.0000000000000000
 11
336.0847601806332
 21
222.3713267059994
 31
0.0000000000000000
  0
LINE
  5
190
100
AcDbEntity
  8
MAIN0
  6
CONTINUOUS
 62
3
100
AcDbLine
 10
330.9480362378998
 20
222.3713267059987
 30
0.0000000000000000
 11
336.0847601806506
 21
232.8713267059994
 31
0.0000000000000000
  0
LINE
  5
191
100
AcDbEntity
  8
MAIN0
  6
CENTER
 62
3
100
AcDbLine
 10
322.3071055520426
 20
203.3973924196819
 30
0.0000000000000000
 11
340.0500385732734
 21
203.3973924196819
 31
0.0000000000000000
  0
LINE
  5
192
100
AcDbEntity
  8
MAIN0
  6
CENTER
 62
3
100
AcDbLine
 10
330.6847601805886
 20
195.5852797797671
 30
0.0000000000000000
 11
330.6847601806138
 21
210.7166979365634
 31
0.0000000000000000
  0
LINE
  5
193
100
AcDbEntity
  8
MAIN0
  6
CENTER
 62
3
100
AcDbLine
 10
330.6847601806285
 20
219.6265670092735
 30
0.0000000000000000
 11
330.6847601807557
 21
296.1309454085319
 31
0.0000000000000000
  0
DIMENSION
  5
19C
100
AcDbEntity
  8
MAIN0
  6
CONTINUOUS
 62
3
100
AcDbDimension
  2
*D0
 10
346.5411736804833
 20
232.8713267059994
 30
0.0000000000000000
 11
346.0411736804833
 21
227.3713267059994
 31
0.0000000000000000
 70
32
  3
MAIN001
100
AcDbAlignedDimension
 13
335.5847601806322
 23
221.8713267059993
 33
0.0000000000000000
 14
336.0847601806505
 24
232.8713267059994
 34
0.0000000000000000
 50
90.00000000000000
100
AcDbRotatedDimension
1001
ACAD
1000
DSTYLE
1002
{
1070
   173
1070
     1
1070
     6
1000
_OPEN
1070
     7
1000
_OPEN
1070
    41
1040
2.000000
1002
}
  0
DIMENSION
  5
1A5
100
AcDbEntity
  8
MAIN0
  6
CONTINUOUS
 62
3
100
AcDbDimension
  2
*D1
 10
280.6847601807293
 20
307.0492824338622
 30
0.0000000000000000
 11
330.6847601807287
 21
307.5492824338622
 31
0.0000000000000000
 70
32
  1
\A1;140
  3
MAIN001
100
AcDbAlignedDimension
 13
380.6847601807282
 23
279.8713267060059
 33
0.0000000000000000
 14
280.6847601807293
 24
279.8713267059912
 34
0.0000000000000000
100
AcDbRotatedDimension
1001
ACAD
1000
DSTYLE
1002
{
1070
   173
1070
     1
1070
     6
1000
_OPEN
1070
     7
1000
_OPEN
1070
    41
1040
2.000000
1002
}
  0
DIMENSION
  5
1AC
100
AcDbEntity
  8
MAIN0
  6
CONTINUOUS
 62
3
100
AcDbDimension
  2
*D2
 10
313.7371610998464
 20
275.8713267059974
 30
0.0000000000000000
 11
313.2371610998464
 21
279.8713267059974
 31
0.0000000000000000
 70
32
  1
\A1;\U+22058
  3
MAIN001
100
AcDbAlignedDimension
 13
284.6847601807287
 23
283.8713267059919
 33
0.0000000000000000
 14
284.6847601807287
 24
275.8713267059919
 34
0.0000000000000000
 50
90.00000000000000
100
AcDbRotatedDimension
1001
ACAD
1000
DSTYLE
1002
{
1070
   173
1070
     1
1070
     6
1000
_OPEN
1070
     7
1000
_OPEN
1070
    41
1040
2.000000
1002
}
  0
DIMENSION
  5
1B7
100
AcDbEntity
  8
MAIN0
  6
CONTINUOUS
 62
3
100
AcDbDimension
  2
*D3
 10
344.6558677563880
 20
195.0831390933809
 30
0.0000000000000000
 11
347.2638226049019
 21
198.3982007230803
 31
0.0000000000000000
 70
161
  3
MAIN001
100
AcDbAlignedDimension
 13
330.4214841235404
 23
198.0038142272678
 33
0.0000000000000000
 14
336.0783383730233
 24
203.6606684767695
 34
0.0000000000000000
 50
44.99999999998532
1001
ACAD
1000
DSTYLE
1002
{
1070
   173
1070
     1
1070
     6
1000
_OPEN
1070
     7
1000
_OPEN
1070
    41
1040
2.000000
1070
   287
1070
     0
1070
   272
1070
     1
1070
    47
1040
0.000000
1070
    48
1040
0.100000
1070
    71
1070
     1
1002
}
  0
ARC
  5
1B8
100
AcDbEntity
  8
MAIN0
  6
CONTINUOUS
 62
3
100
AcDbCircle
 10
330.6847601806015
 20
203.3973924196906
 30
0.0000000000000000
 40
5.400000000000000
100
AcDbArc
 50
267.2054464038282
 51
272.7945535962519
  0
ARC
  5
1B9
100
AcDbEntity
  8
MAIN0
  6
CONTINUOUS
 62
3
100
AcDbCircle
 10
330.6847601806015
 20
203.3973924196906
 30
0.0000000000000000
 40
5.400000000000000
100
AcDbArc
 50
87.20544640382693
 51
92.79455359625338
  0
LINE
  5
1BA
100
AcDbEntity
  8
MAIN0
  6
CENTER
 62
3
100
AcDbLine
 10
89.78907716024332
 20
131.7020092535945
 30
0.0000000000000000
 11
105.9162305592411
 21
131.7020092535992
 31
0.0000000000000000
  0
LINE
  5
1BB
100
AcDbEntity
  8
MAIN0
  6
CONTINUOUS
 62
3
100
AcDbLine
 10
92.18934055171991
 20
132.1809683533955
 30
0.0000000000000000
 11
96.88827660157254
 21
136.8799044032426
 31
0.0000000000000000
  0
LINE
  5
1BC
100
AcDbEntity
  8
MAIN0
  6
CONTINUOUS
 62
3
100
AcDbLine
 10
97.84619480127063
 20
126.5241141039613
 30
0.0000000000000000
 11
102.5451308510000
 21
131.2230501536852
 31
0.0000000000000000
  0
LINE
  5
1BD
100
AcDbEntity
  8
MAIN0
  6
CONTINUOUS
 62
3
100
AcDbLine
 10
97.84619480115428
 20
136.8799044032429
 30
0.0000000000000000
 11
102.5451308510114
 21
132.1809683533858
 31
0.0000000000000000
  0
LINE
  5
1BE
100
AcDbEntity
  8
MAIN0
  6
CONTINUOUS
 62
3
100
AcDbLine
 10
92.18934055173065
 20
131.2230501536818
 30
0.0000000000000000
 11
96.88827660145023
 21
126.5241141039622
 31
0.0000000000000000
  0
ARC
  5
1BF
100
AcDbEntity
  8
MAIN0
  6
CONTINUOUS
 62
3
100
AcDbCircle
 10
97.36723570136519
 20
131.7020092535967
 30
0.0000000000000000
 40
5.200000000000000
100
AcDbArc
 50
84.71513723252282
 51
95.28486276751630
  0
ARC
  5
1C0
100
AcDbEntity
  8
MAIN0
  6
CONTINUOUS
 62
3
100
AcDbCircle
 10
97.36723570136519
 20
131.7020092535967
 30
0.0000000000000000
 40
5.200000000000000
100
AcDbArc
 50
174.7151372324163
 51
185.2848627688700
  0
ARC
  5
1C1
100
AcDbEntity
  8
MAIN0
  6
CONTINUOUS
 62
3
100
AcDbCircle
 10
97.36723570136519
 20
131.7020092535967
 30
0.0000000000000000
 40
5.200000000000000
100
AcDbArc
 50
264.7151372311301
 51
275.2848627687646
  0
ARC
  5
1C2
100
AcDbEntity
  8
MAIN0
  6
CONTINUOUS
 62
3
100
AcDbCircle
 10
97.36723570136519
 20
131.7020092535967
 30
0.0000000000000000
 40
5.200000000000000
100
AcDbArc
 50
354.7151372311682
 51
365.2848627674771
  0
DIMENSION
  5
1C8
100
AcDbEntity
  8
MAIN0
  6
CONTINUOUS
 62
3
100
AcDbDimension
  2
*D4
 10
281.1414314143225
 20
223.4255692511903
 30
0.0000000000000000
 11
259.7549483918922
 21
221.5761367812124
 31
0.0000000000000000
 70
163
  3
MAIN001
100
AcDbDiametricDimension
 15
186.6331728575926
 25
213.7721209256280
 35
0.0000000000000000
1001
ACAD
1000
DSTYLE
1002
{
1070
   287
1070
     2
1070
   173
1070
     1
1070
     6
1000
_OPEN
1070
     7
1000
_NONE
1070
    41
1040
2.000000
1070
   272
1070
     1
1070
    47
1040
0.200000
1070
    48
1040
0.200000
1070
    71
1070
     1
1002
}
  0
DIMENSION
  5
1D1
100
AcDbEntity
  8
MAIN0
  6
CONTINUOUS
 62
3
100
AcDbDimension
  2
*D5
 10
155.3672357013652
 20
231.5988450884091
 30
0.0000000000000000
 11
154.8672357013652
 21
238.0988450884091
 31
0.0000000000000000
 70
32
  3
MAIN001
100
AcDbAlignedDimension
 13
148.5672357013481
 23
244.5988450884091
 33
0.0000000000000000
 14
148.5672357013405
 24
231.5988450884091
 34
0.0000000000000000
 50
90.00000000000000
100
AcDbRotatedDimension
1001
ACAD
1000
DSTYLE
1002
{
1070
   173
1070
     1
1070
     6
1000
_OPEN
1070
     7
1000
_OPEN
1070
    41
1040
2.000000
1002
}
  0
DIMENSION
  5
1DA
100
AcDbEntity
  8
MAIN0
  6
CONTINUOUS
 62
3
100
AcDbDimension
  2
*D6
 10
155.3672357013652
 20
244.5988450884091
 30
0.0000000000000000
 11
154.8672357013652
 21
251.0988450884091
 31
0.0000000000000000
 70
32
  3
MAIN001
100
AcDbAlignedDimension
 13
141.5672357013558
 23
257.5988450884091
 33
0.0000000000000000
 14
148.5672357013481
 24
244.5988450884091
 34
0.0000000000000000
 50
90.00000000000000
100
AcDbRotatedDimension
1001
ACAD
1000
DSTYLE
1002
{
1070
   173
1070
     1
1070
     6
1000
_OPEN
1070
     7
1000
_OPEN
1070
    41
1040
2.000000
1002
}
  0
DIMENSION
  5
1E3
100
AcDbEntity
  8
MAIN0
  6
CONTINUOUS
 62
3
100
AcDbDimension
  2
*D7
 10
155.3672357013652
 20
257.5988450884091
 30
0.0000000000000000
 11
154.8672357013652
 21
265.5988450884091
 31
0.0000000000000000
 70
32
  3
MAIN001
100
AcDbAlignedDimension
 13
134.0672357013651
 23
273.5988450884091
 33
0.0000000000000000
 14
141.5672357013558
 24
257.5988450884091
 34
0.0000000000000000
 50
90.00000000000000
100
AcDbRotatedDimension
1001
ACAD
1000
DSTYLE
1002
{
1070
   173
1070
     1
1070
     6
1000
_OPEN
1070
     7
1000
_OPEN
1070
    41
1040
2.000000
1002
}
  0
DIMENSION
  5
1EC
100
AcDbEntity
  8
MAIN0
  6
CONTINUOUS
 62
3
100
AcDbDimension
  2
*D8
 10
162.8672357013652
 20
273.5988450884091
 30
0.0000000000000000
 11
162.3672357013652
 21
252.5988450884091
 31
0.0000000000000000
 70
32
  3
MAIN001
100
AcDbAlignedDimension
 13
148.5672357013405
 23
231.5988450884091
 33
0.0000000000000000
 14
134.0672357013651
 24
273.5988450884091
 34
0.0000000000000000
 50
90.00000000000000
100
AcDbRotatedDimension
1001
ACAD
1000
DSTYLE
1002
{
1070
   173
1070
     1
1070
     6
1000
_OPEN
1070
     7
1000
_OPEN
1070
    41
1040
2.000000
1002
}
  0
DIMENSION
  5
1F4
100
AcDbEntity
  8
MAIN0
  6
CONTINUOUS
 62
3
100
AcDbDimension
  2
*D9
 10
141.8672357013490
 20
251.0988450884091
 30
0.0000000000000000
 11
145.3672357013485
 21
251.5988450884091
 31
0.0000000000000000
 70
32
  3
MAIN001
100
AcDbAlignedDimension
 13
148.8672357013479
 23
244.2988450884091
 33
0.0000000000000000
 14
141.8672357013490
 24
246.0988450879997
 34
0.0000000000000000
100
AcDbRotatedDimension
1001
ACAD
1000
DSTYLE
1002
{
1070
   173
1070
     1
1070
     6
1000
_OPEN
1070
     7
1000
_OPEN
1070
    41
1040
2.000000
1002
}
  0
DIMENSION
  5
1FC
100
AcDbEntity
  8
MAIN0
  6
CONTINUOUS
 62
3
100
AcDbDimension
  2
*D10
 10
134.8672357013632
 20
263.5988450884091
 30
0.0000000000000000
 11
138.3672357013594
 21
264.0988450884091
 31
0.0000000000000000
 70
32
  3
MAIN001
100
AcDbAlignedDimension
 13
141.8672357013556
 23
257.2988450884092
 33
0.0000000000000000
 14
134.8672357013566
 24
259.0988450879996
 34
0.0000000000000000
100
AcDbRotatedDimension
1001
ACAD
1000
DSTYLE
1002
{
1070
   173
1070
     1
1070
     6
1000
_OPEN
1070
     7
1000
_OPEN
1070
    41
1040
2.000000
1002
}
  0
DIMENSION
  5
205
100
AcDbEntity
  8
MAIN0
  6
CONTINUOUS
 62
3
100
AcDbDimension
  2
*D11
 10
162.8672357013652
 20
225.5988450884308
 30
0.0000000000000000
 11
162.3672357013652
 21
218.5988450884308
 31
0.0000000000000000
 70
32
  3
MAIN001
100
AcDbAlignedDimension
 13
148.6672357011375
 23
211.5988450884308
 33
0.0000000000000000
 14
148.6672357011638
 24
225.5988450884308
 34
0.0000000000000000
 50
90.00000000000000
100
AcDbRotatedDimension
1001
ACAD
1000
DSTYLE
1002
{
1070
   173
1070
     1
1070
     6
1000
_OPEN
1070
     7
1000
_OPEN
1070
    41
1040
2.000000
1002
}
  0
DIMENSION
  5
20E
100
AcDbEntity
  8
MAIN0
  6
CONTINUOUS
 62
3
100
AcDbDimension
  2
*D12
 10
155.3672357013652
 20
205.5988450884213
 30
0.0000000000000000
 11
154.8672357013652
 21
196.0988450884278
 31
0.0000000000000000
 70
32
  3
MAIN001
100
AcDbAlignedDimension
 13
141.5672357012288
 23
186.5988450884344
 33
0.0000000000000000
 14
134.0672357011845
 24
205.5988450884213
 34
0.0000000000000000
 50
90.00000000000000
100
AcDbRotatedDimension
1001
ACAD
1000
DSTYLE
1002
{
1070
   173
1070
     1
1070
     6
1000
_OPEN
1070
     7
1000
_OPEN
1070
    41
1040
2.000000
1002
}
  0
DIMENSION
  5
217
100
AcDbEntity
  8
MAIN0
  6
CONTINUOUS
 62
3
100
AcDbDimension
  2
*D13
 10
155.3672357013652
 20
186.5988450884344
 30
0.0000000000000000
 11
154.8672357013652
 21
180.0988450884406
 31
0.0000000000000000
 70
32
  3
MAIN001
100
AcDbAlignedDimension
 13
148.5672357012593
 23
173.5988450884467
 33
0.0000000000000000
 14
141.5672357012288
 24
186.5988450884344
 34
0.0000000000000000
 50
90.00000000000000
100
AcDbRotatedDimension
1001
ACAD
1000
DSTYLE
1002
{
1070
   173
1070
     1
1070
     6
1000
_OPEN
1070
     7
1000
_OPEN
1070
    41
1040
2.000000
1002
}
  0
DIMENSION
  5
220
100
AcDbEntity
  8
MAIN0
  6
CONTINUOUS
 62
3
100
AcDbDimension
  2
*D14
 10
155.3672357013652
 20
173.5988450884467
 30
0.0000000000000000
 11
154.8672357013652
 21
168.5988450884467
 31
0.0000000000000000
 70
32
  3
MAIN001
100
AcDbAlignedDimension
 13
148.5672357012826
 23
163.5988450884467
 33
0.0000000000000000
 14
148.5672357012593
 24
173.5988450884467
 34
0.0000000000000000
 50
90.00000000000000
100
AcDbRotatedDimension
1001
ACAD
1000
DSTYLE
1002
{
1070
   173
1070
     1
1070
     6
1000
_OPEN
1070
     7
1000
_OPEN
1070
    41
1040
2.000000
1002
}
  0
DIMENSION
  5
228
100
AcDbEntity
  8
MAIN0
  6
CONTINUOUS
 62
3
100
AcDbDimension
  2
*D15
 10
148.8672357012557
 20
178.5988450884091
 30
0.0000000000000000
 11
145.3672357012426
 21
179.0988450884091
 31
0.0000000000000000
 70
32
  3
MAIN001
100
AcDbAlignedDimension
 13
141.8672357012296
 23
186.2988450884349
 33
0.0000000000000000
 14
148.8672357012600
 24
173.2988450884472
 34
0.0000000000000000
100
AcDbRotatedDimension
1001
ACAD
1000
DSTYLE
1002
{
1070
   173
1070
     1
1070
     6
1000
_OPEN
1070
     7
1000
_OPEN
1070
    41
1040
2.000000
1002
}
  0
DIMENSION
  5
230
100
AcDbEntity
  8
MAIN0
  6
CONTINUOUS
 62
3
100
AcDbDimension
  2
*D16
 10
141.8672357012296
 20
191.0988450884091
 30
0.0000000000000000
 11
138.3672357012163
 21
191.5988450884091
 31
0.0000000000000000
 70
32
  3
MAIN001
100
AcDbAlignedDimension
 13
134.8672357012031
 23
197.5988450884227
 33
0.0000000000000000
 14
141.8672357012296
 24
186.2988450884349
 34
0.0000000000000000
100
AcDbRotatedDimension
1001
ACAD
1000
DSTYLE
1002
{
1070
   173
1070
     1
1070
     6
1000
_OPEN
1070
     7
1000
_OPEN
1070
    41
1040
2.000000
1002
}
  0
DIMENSION
  5
239
100
AcDbEntity
  8
MAIN0
  6
CONTINUOUS
 62
3
100
AcDbDimension
  2
*D17
 10
85.36723570135797
 20
158.5988450884091
 30
0.0000000000000000
 11
93.04029946084032
 21
159.0988450884091
 31
0.0000000000000000
 70
160
  1
\A1;\U+220524
  3
MAIN001
100
AcDbAlignedDimension
 13
109.3672357014433
 23
165.1690450884057
 33
0.0000000000000000
 14
85.36723570135523
 24
165.1690450884175
 34
0.0000000000000000
100
AcDbRotatedDimension
1001
ACAD
1000
DSTYLE
1002
{
1070
   173
1070
     1
1070
     6
1000
_OPEN
1070
     7
1000
_OPEN
1070
    41
1040
2.000000
1002
}
  0
LINE
  5
23A
100
AcDbEntity
  8
MAIN0
  6
CENTER
 62
3
100
AcDbLine
 10
276.6517969622136
 20
279.8713267059907
 30
0.0000000000000000
 11
309.6429034595138
 21
279.8713267059956
 31
0.0000000000000000
  0
LINE
  5
23B
100
AcDbEntity
  8
MAIN0
  6
CENTER
 62
3
100
AcDbLine
 10
315.2011917099671
 20
279.8713267059964
 30
0.0000000000000000
 11
384.2487802147791
 21
279.8713267060065
 31
0.0000000000000000
  0
SPLINE
  5
23C
100
AcDbEntity
  8
MAIN0
  6
CONTINUOUS
 62
3
100
AcDbSpline
210
0.0000000000000000
220
0.0000000000000000
230
1.000000000000000
 70
     8
 71
     3
 72
    11
 73
     7
 74
     0
 42
1.000000000000000e-007
 43
1.000000000000000e-007
 12
0.6708203932532229
 22
0.8944271909956001
 32
0.0000000000000000
 13
0.6708203932515744
 23
0.8944271909989539
 33
0.0000000000000000
 40
0.0000000000000000
 40
0.0000000000000000
 40
0.0000000000000000
 40
0.0000000000000000
 40
2.236067977480139
 40
4.472135954999567
 40
6.708203932499802
 40
8.944271909999147
 40
8.944271909999147
 40
8.944271909999147
 40
8.944271909999147
 10
300.6847601807220
 20
275.8713267059943
 30
0.0000000000000000
 10
301.1847601807201
 20
276.5379933726518
 30
0.0000000000000000
 10
302.1847601807250
 20
277.8713267059788
 30
0.0000000000000000
 10
300.6847601807342
 20
279.8713267059903
 30
0.0000000000000000
 10
299.1847601807317
 20
281.8713267059966
 30
0.0000000000000000
 10
300.1847601807342
 20
283.2046600393284
 30
0.0000000000000000
 10
300.6847601807353
 20
283.8713267059942
 30
0.0000000000000000
  0
SPLINE
  5
23D
100
AcDbEntity
  8
MAIN0
  6
CONTINUOUS
 62
3
100
AcDbSpline
210
0.0000000000000000
220
0.0000000000000000
230
1.000000000000000
 70
     8
 71
     3
 72
     9
 73
     5
 74
     0
 42
1.000000000000000e-007
 43
1.000000000000000e-007
 12
-0.6708203932532229
 22
0.8944271909956001
 32
0.0000000000000000
 13
0.6708203914034812
 23
0.8944271885438866
 33
0.0000000000000000
 40
0.0000000000000000
 40
0.0000000000000000
 40
0.0000000000000000
 40
0.0000000000000000
 40
2.236067977480139
 40
4.472135951926193
 40
4.472135951926193
 40
4.472135951926193
 40
4.472135951926193
 10
300.6847601809019
 20
275.8713267059943
 30
0.0000000000000000
 10
300.1847601809038
 20
276.5379933726518
 30
0.0000000000000000
 10
299.1847601808991
 20
277.8713267059788
 30
0.0000000000000000
 10
300.1847601808928
 20
279.2046600393198
 30
0.0000000000000000
 10
300.6847601788337
 20
279.8713267032454
 30
0.0000000000000000
  0
SPLINE
  5
23E
100
AcDbEntity
  8
MAIN0
  6
CONTINUOUS
 62
3
100
AcDbSpline
210
0.0000000000000000
220
0.0000000000000000
230
1.000000000000000
 70
     8
 71
     3
 72
    11
 73
     7
 74
     0
 42
1.000000000000000e-007
 43
1.000000000000000e-007
 12
-0.6708203932532229
 22
-0.8944271909956569
 32
0.0000000000000000
 13
-0.6708203932515744
 23
-0.8944271909990107
 33
0.0000000000000000
 40
0.0000000000000000
 40
0.0000000000000000
 40
0.0000000000000000
 40
0.0000000000000000
 40
2.236067977480139
 40
4.472135954999567
 40
6.708203932499802
 40
8.944271909999147
 40
8.944271909999147
 40
8.944271909999147
 40
8.944271909999147
 10
297.6847601769453
 20
283.8713267004964
 30
0.0000000000000000
 10
297.1847601769472
 20
283.2046600338388
 30
0.0000000000000000
 10
296.1847601769424
 20
281.8713267005118
 30
0.0000000000000000
 10
297.6847601769332
 20
279.8713267005003
 30
0.0000000000000000
 10
299.1847601769357
 20
277.8713267004941
 30
0.0000000000000000
 10
298.1847601769331
 20
276.5379933671622
 30
0.0000000000000000
 10
297.6847601769320
 20
275.8713267004964
 30
0.0000000000000000
  0
SPLINE
  5
23F
100
AcDbEntity
  8
MAIN0
  6
CONTINUOUS
 62
3
100
AcDbSpline
210
0.0000000000000000
220
0.0000000000000000
230
1.000000000000000
 70
     8
 71
     3
 72
     9
 73
     5
 74
     0
 42
1.000000000000000e-007
 43
1.000000000000000e-007
 12
0.6708203932532797
 22
-0.8944271909956569
 32
0.0000000000000000
 13
-0.6708203914033106
 23
-0.8944271885437729
 33
0.0000000000000000
 40
0.0000000000000000
 40
0.0000000000000000
 40
0.0000000000000000
 40
0.0000000000000000
 40
2.236067977480139
 40
4.472135951926193
 40
4.472135951926193
 40
4.472135951926193
 40
4.472135951926193
 10
297.6847601767654
 20
283.8713267004964
 30
0.0000000000000000
 10
298.1847601767635
 20
283.2046600338388
 30
0.0000000000000000
 10
299.1847601767684
 20
281.8713267005118
 30
0.0000000000000000
 10
298.1847601767745
 20
280.5379933671709
 30
0.0000000000000000
 10
297.6847601788337
 20
279.8713267032454
 30
0.0000000000000000
  0
LINE
  5
240
100
AcDbEntity
  8
MAIN0
  6
CONTINUOUS
 62
3
100
AcDbLine
 10
284.6847601807287
 20
283.8713267059919
 30
0.0000000000000000
 11
297.6847601769453
 21
283.8713267059938
 31
0.0000000000000000
  0
LINE
  5
241
100
AcDbEntity
  8
MAIN0
  6
CONTINUOUS
 62
3
100
AcDbLine
 10
300.6847601807353
 20
283.8713267059943
 30
0.0000000000000000
 11
322.1847601807353
 21
283.8713267059974
 31
0.0000000000000000
  0
LINE
  5
242
100
AcDbEntity
  8
MAIN0
  6
CONTINUOUS
 62
3
100
AcDbLine
 10
284.6847601807287
 20
275.8713267059919
 30
0.0000000000000000
 11
297.6847601769321
 21
275.8713267059938
 31
0.0000000000000000
  0
LINE
  5
243
100
AcDbEntity
  8
MAIN0
  6
CONTINUOUS
 62
3
100
AcDbLine
 10
300.6847601807220
 20
275.8713267059943
 30
0.0000000000000000
 11
322.1847601807220
 21
275.8713267059974
 31
0.0000000000000000
  0
SPLINE
  5
244
100
AcDbEntity
  8
MAIN0
  6
CONTINUOUS
 62
3
100
AcDbSpline
210
0.0000000000000000
220
0.0000000000000000
230
1.000000000000000
 70
     8
 71
     3
 72
    11
 73
     7
 74
     0
 42
1.000000000000000e-007
 43
1.000000000000000e-007
 12
-0.6708203932531660
 22
-0.8944271909956569
 32
0.0000000000000000
 13
-0.6708203932516312
 23
-0.8944271909989539
 33
0.0000000000000000
 40
0.0000000000000000
 40
0.0000000000000000
 40
0.0000000000000000
 40
0.0000000000000000
 40
2.236067977480139
 40
4.472135954999567
 40
6.708203932499802
 40
8.944271909999147
 40
8.944271909999147
 40
8.944271909999147
 40
8.944271909999147
 10
360.6847601807352
 20
283.8713267060030
 30
0.0000000000000000
 10
360.1847601807372
 20
283.2046600393454
 30
0.0000000000000000
 10
359.1847601807324
 20
281.8713267060184
 30
0.0000000000000000
 10
360.6847601807232
 20
279.8713267060069
 30
0.0000000000000000
 10
362.1847601807257
 20
277.8713267060007
 30
0.0000000000000000
 10
361.1847601807231
 20
276.5379933726688
 30
0.0000000000000000
 10
360.6847601807219
 20
275.8713267060031
 30
0.0000000000000000
  0
SPLINE
  5
245
100
AcDbEntity
  8
MAIN0
  6
CONTINUOUS
 62
3
100
AcDbSpline
210
0.0000000000000000
220
0.0000000000000000
230
1.000000000000000
 70
     8
 71
     3
 72
     9
 73
     5
 74
     0
 42
1.000000000000000e-007
 43
1.000000000000000e-007
 12
0.6708203932532229
 22
-0.8944271909956569
 32
0.0000000000000000
 13
-0.6708203914034243
 23
-0.8944271885438866
 33
0.0000000000000000
 40
0.0000000000000000
 40
0.0000000000000000
 40
0.0000000000000000
 40
0.0000000000000000
 40
2.236067977480139
 40
4.472135951926193
 40
4.472135951926193
 40
4.472135951926193
 40
4.472135951926193
 10
360.6847601805554
 20
283.8713267060030
 30
0.0000000000000000
 10
361.1847601805534
 20
283.2046600393454
 30
0.0000000000000000
 10
362.1847601805583
 20
281.8713267060184
 30
0.0000000000000000
 10
361.1847601805645
 20
280.5379933726775
 30
0.0000000000000000
 10
360.6847601826237
 20
279.8713267087519
 30
0.0000000000000000
  0
SPLINE
  5
246
100
AcDbEntity
  8
MAIN0
  6
CONTINUOUS
 62
3
100
AcDbSpline
210
0.0000000000000000
220
0.0000000000000000
230
1.000000000000000
 70
     8
 71
     3
 72
    11
 73
     7
 74
     0
 42
1.000000000000000e-007
 43
1.000000000000000e-007
 12
0.6708203932531660
 22
0.8944271909956569
 32
0.0000000000000000
 13
0.6708203932517449
 23
0.8944271909989539
 33
0.0000000000000000
 40
0.0000000000000000
 40
0.0000000000000000
 40
0.0000000000000000
 40
0.0000000000000000
 40
2.236067977480139
 40
4.472135954999567
 40
6.708203932499802
 40
8.944271909999147
 40
8.944271909999147
 40
8.944271909999147
 40
8.944271909999147
 10
363.6847601845120
 20
275.8713267115008
 30
0.0000000000000000
 10
364.1847601845101
 20
276.5379933781585
 30
0.0000000000000000
 10
365.1847601845150
 20
277.8713267114854
 30
0.0000000000000000
 10
363.6847601845242
 20
279.8713267114970
 30
0.0000000000000000
 10
362.1847601845217
 20
281.8713267115031
 30
0.0000000000000000
 10
363.1847601845242
 20
283.2046600448350
 30
0.0000000000000000
 10
363.6847601845253
 20
283.8713267115008
 30
0.0000000000000000
  0
SPLINE
  5
247
100
AcDbEntity
  8
MAIN0
  6
CONTINUOUS
 62
3
100
AcDbSpline
210
0.0000000000000000
220
0.0000000000000000
230
1.000000000000000
 70
     8
 71
     3
 72
     9
 73
     5
 74
     0
 42
1.000000000000000e-007
 43
1.000000000000000e-007
 12
-0.6708203932532797
 22
0.8944271909956569
 32
0.0000000000000000
 13
0.6708203914034812
 23
0.8944271885437729
 33
0.0000000000000000
 40
0.0000000000000000
 40
0.0000000000000000
 40
0.0000000000000000
 40
0.0000000000000000
 40
2.236067977480139
 40
4.472135951926193
 40
4.472135951926193
 40
4.472135951926193
 40
4.472135951926193
 10
363.6847601846919
 20
275.8713267115008
 30
0.0000000000000000
 10
363.1847601846938
 20
276.5379933781585
 30
0.0000000000000000
 10
362.1847601846890
 20
277.8713267114854
 30
0.0000000000000000
 10
363.1847601846828
 20
279.2046600448264
 30
0.0000000000000000
 10
363.6847601826237
 20
279.8713267087519
 30
0.0000000000000000
  0
LINE
  5
248
100
AcDbEntity
  8
MAIN0
  6
CONTINUOUS
 62
3
100
AcDbLine
 10
339.1847601807353
 20
283.8713267059999
 30
0.0000000000000000
 11
360.6847601807352
 21
283.8713267060031
 31
0.0000000000000000
  0
LINE
  5
249
100
AcDbEntity
  8
MAIN0
  6
CONTINUOUS
 62
3
100
AcDbLine
 10
363.6847601845254
 20
283.8713267060035
 30
0.0000000000000000
 11
376.6847601807289
 21
283.8713267060053
 31
0.0000000000000000
  0
LINE
  5
24A
100
AcDbEntity
  8
MAIN0
  6
CONTINUOUS
 62
3
100
AcDbLine
 10
339.1847601807220
 20
275.8713267059999
 30
0.0000000000000000
 11
360.6847601807219
 21
275.8713267060031
 31
0.0000000000000000
  0
LINE
  5
24B
100
AcDbEntity
  8
MAIN0
  6
CONTINUOUS
 62
3
100
AcDbLine
 10
363.6847601846919
 20
275.8713267060035
 30
0.0000000000000000
 11
376.6847601807289
 21
275.8713267060053
 31
0.0000000000000000
  0
LINE
  5
24C
100
AcDbEntity
  8
MAIN0
  6
CENTER
 62
3
100
AcDbLine
 10
97.36723570136519
 20
139.7768464177558
 30
0.0000000000000000
 11
97.36723570136519
 21
124.0025924949251
 31
0.0000000000000000
  0
LINE
  5
24D
100
AcDbEntity
  8
MAIN0
  6
CENTER
 62
3
100
AcDbLine
 10
97.36723570136519
 20
173.5988450884091
 30
0.0000000000000000
 11
97.36723570136519
 21
161.0988450884091
 31
0.0000000000000000
  0
DIMENSION
  5
258
100
AcDbEntity
  8
MAIN0
  6
CONTINUOUS
 62
3
100
AcDbDimension
  2
*D18
 10
109.4972449086707
 20
125.2288542957127
 30
0.0000000000000000
 11
95.22806485199533
 21
111.6667810202403
 31
0.0000000000000000
 70
161
  3
MAIN001
100
AcDbAlignedDimension
 13
96.88827660145024
 23
126.5241141039622
 33
0.0000000000000000
 14
102.5451308510114
 24
132.1809683533858
 34
0.0000000000000000
 50
44.99999999996631
1001
ACAD
1000
DSTYLE
1002
{
1070
   173
1070
     1
1070
     6
1000
_OPEN
1070
     7
1000
_OPEN
1070
    41
1040
2.000000
1070
   287
1070
     0
1070
   272
1070
     2
1070
    47
1040
0.150000
1070
    48
1040
-0.050000
1070
    71
1070
     1
1002
}
  0
DIMENSION
  5
261
100
AcDbEntity
  8
MAIN0
  6
CONTINUOUS
 62
3
100
AcDbDimension
  2
*D19
 10
62.86723570136519
 20
230.5988450884091
 30
0.0000000000000000
 11
62.36723570136519
 21
218.5988450884091
 31
0.0000000000000000
 70
32
  1
\A1;\U+220524
  3
MAIN001
100
AcDbAlignedDimension
 13
78.36723570136519
 23
206.5988450884091
 33
0.0000000000000000
 14
78.36723570136519
 24
230.5988450884091
 34
0.0000000000000000
 50
90.00000000000000
100
AcDbRotatedDimension
1001
ACAD
1000
DSTYLE
1002
{
1070
   173
1070
     1
1070
     6
1000
_OPEN
1070
     7
1000
_OPEN
1070
    41
1040
2.000000
1002
}
  0
DIMENSION
  5
26A
100
AcDbEntity
  8
MAIN0
  6
CONTINUOUS
 62
3
100
AcDbDimension
  2
*D20
 10
52.86723570136519
 20
258.5988450884091
 30
0.0000000000000000
 11
52.36723570136519
 21
216.4722005689260
 31
0.0000000000000000
 70
160
  1
\A1;\U+220580H6\H0.903226x;\S＋0.019^ 　0;
  3
MAIN001
100
AcDbAlignedDimension
 13
72.86723570136519
 23
178.5988450884091
 33
0.0000000000000000
 14
72.86723570136519
 24
258.5988450884091
 34
0.0000000000000000
 50
90.00000000000000
100
AcDbRotatedDimension
1001
ACAD
1000
DSTYLE
1002
{
1070
   173
1070
     1
1070
     6
1000
_OPEN
1070
     7
1000
_OPEN
1070
    41
1040
2.000000
1070
   272
1070
     3
1070
    47
1040
0.019000
1070
    48
1040
0.000000
1070
    71
1070
     1
1070
   340
1005
26B
1002
}
  0
DIMENSION
  5
274
100
AcDbEntity
  8
MAIN0
  6
CONTINUOUS
 62
3
100
AcDbDimension
  2
*D21
 10
42.86723570136519
 20
273.5988450884091
 30
0.0000000000000000
 11
42.36723570136519
 21
218.5988450884091
 31
0.0000000000000000
 70
32
  1
\A1;\U+2205110
  3
MAIN001
100
AcDbAlignedDimension
 13
73.86723570136519
 23
163.5988450884091
 33
0.0000000000000000
 14
73.86723570136519
 24
273.5988450884091
 34
0.0000000000000000
 50
90.00000000000000
100
AcDbRotatedDimension
1001
ACAD
1000
DSTYLE
1002
{
1070
   173
1070
     1
1070
     6
1000
_OPEN
1070
     7
1000
_OPEN
1070
    41
1040
2.000000
1002
}
  0
LINE
  5
275
100
AcDbEntity
  8
MAIN0
  6
CENTER
 62
3
100
AcDbLine
 10
68.37322200704162
 20
266.0988450884091
 30
0.0000000000000000
 11
98.35372864642476
 21
266.0988450884091
 31
0.0000000000000000
  0
DIMENSION
  5
27E
100
AcDbEntity
  8
MAIN0
  6
CONTINUOUS
 62
3
100
AcDbDimension
  2
*D22
 10
72.86723570136519
 20
283.5988450884091
 30
0.0000000000000000
 11
80.86723570136519
 21
284.0988450884091
 31
0.0000000000000000
 70
32
  3
MAIN001
100
AcDbAlignedDimension
 13
88.86723570136519
 23
270.0988450884091
 33
0.0000000000000000
 14
72.86723570136519
 24
272.5988450884091
 34
0.0000000000000000
100
AcDbRotatedDimension
1001
ACAD
1000
DSTYLE
1002
{
1070
   173
1070
     1
1070
     6
1000
_OPEN
1070
     7
1000
_OPEN
1070
    41
1040
2.000000
1002
}
  0
LEADER
  5
27F
100
AcDbEntity
  8
MAIN0
  6
CONTINUOUS
 62
3
100
AcDbLeader
  3
MAIN001
 73
     0
 74
     0
 75
     1
 40
3.099999904632568
 41
10.78100032901763
 76
     3
 10
81.06723570136519
 20
270.0988450884091
 30
0.0000000000000000
 10
95.36723570136519
 20
283.5988450884091
 30
0.0000000000000000
 10
97.29223564557525
 20
283.5988450884091
 30
0.0000000000000000
340
280
213
0.0000000000000000
223
-0.5000000000000000
233
0.0000000000000000
1001
ACAD
1000
DSTYLE
1002
{
1070
   147
1040
0.0
1070
    77
1070
     1
1070
   173
1070
     1
1070
     6
1000
_OPEN
1070
     7
1000
_OPEN
1002
}
  0
MTEXT
  5
280
102
{ACAD_REACTORS
330
27F
102
}
100
AcDbEntity
  8
MAIN0
  6
CONTINUOUS
 62
3
100
AcDbMText
 10
97.29323564557524
 20
287.1988449930417
 30
0.0000000000000000
 40
3.099999904632568
 41
0.0000000000000000
 71
     1
 72
     1
  1
{\H0.91x;{3-M8}}
 11
1.000000000000000
 21
0.0000000000000000
 31
0.0000000000000000
  7
STANDARD
  0
CIRCLE
  5
281
100
AcDbEntity
  8
MAIN0
  6
CONTINUOUS
 62
3
100
AcDbCircle
 10
233.8873021359574
 20
200.5988450884091
 30
0.0000000000000000
 40
5.500000000000000
  0
LINE
  5
282
100
AcDbEntity
  8
MAIN0
  6
HIDDEN
 62
3
100
AcDbLine
 10
322.1847601807353
 20
283.8713267059974
 30
0.0000000000000000
 11
339.1847601807354
 21
283.8713267059999
 31
0.0000000000000000
  0
LINE
  5
283
100
AcDbEntity
  8
MAIN0
  6
HIDDEN
 62
3
100
AcDbLine
 10
322.1847601807220
 20
275.8713267059974
 30
0.0000000000000000
 11
339.1847601807221
 21
275.8713267059999
 31
0.0000000000000000
  0
LINE
  5
284
100
AcDbEntity
  8
MAIN0
  6
CONTINUOUS
 62
3
100
AcDbLine
 10
241.6852611070487
 20
209.4778892237436
 30
0.0000000000000000
 11
244.7484638961918
 21
207.7093482688542
 31
0.0000000000000000
  0
LINE
  5
285
100
AcDbEntity
  8
MAIN0
  6
CONTINUOUS
 62
3
100
AcDbLine
 10
245.6852611070801
 20
216.4060924540009
 30
0.0000000000000000
 11
248.7484638961000
 21
214.6375514991827
 31
0.0000000000000000
  0
LINE
  5
286
100
AcDbEntity
  8
MAIN0
  6
CONTINUOUS
 62
3
100
AcDbLine
 10
237.8873021360089
 20
229.9125535873756
 30
0.0000000000000000
 11
237.8873021360048
 21
233.4496354971616
 31
0.0000000000000000
  0
LINE
  5
287
100
AcDbEntity
  8
MAIN0
  6
CONTINUOUS
 62
3
100
AcDbLine
 10
229.8873021360090
 20
229.9125535874119
 30
0.0000000000000000
 11
229.8873021360048
 21
233.4496354970555
 31
0.0000000000000000
  0
LINE
  5
288
100
AcDbEntity
  8
MAIN0
  6
CONTINUOUS
 62
3
100
AcDbLine
 10
222.0893431648817
 20
216.4060924542243
 30
0.0000000000000000
 11
219.0261403757427
 21
214.6375514993277
 31
0.0000000000000000
  0
LINE
  5
289
100
AcDbEntity
  8
MAIN0
  6
CONTINUOUS
 62
3
100
AcDbLine
 10
226.0893431648502
 20
209.4778892239306
 30
0.0000000000000000
 11
223.0261403758346
 21
207.7093482691053
 31
0.0000000000000000
  0
LINE
  5
28A
100
AcDbEntity
  8
MAIN0
  6
CENTER
 62
3
100
AcDbLine
 10
67.86723570136519
 20
172.0988450884091
 30
0.0000000000000000
 11
132.8672357013652
 21
172.0988450884091
 31
0.0000000000000000
  0
DIMENSION
  5
293
100
AcDbEntity
  8
MAIN0
  6
CONTINUOUS
 62
3
100
AcDbDimension
  2
*D23
 10
137.8672357013652
 20
179.0988450884091
 30
0.0000000000000000
 11
137.3672357013652
 21
172.0988450884091
 31
0.0000000000000000
 70
32
  1
\A1;\U+220514
  3
MAIN001
100
AcDbAlignedDimension
 13
130.4672357013652
 23
165.0988450884091
 33
0.0000000000000000
 14
130.4672357013652
 24
179.0988450884091
 34
0.0000000000000000
 50
90.00000000000000
100
AcDbRotatedDimension
1001
ACAD
1000
DSTYLE
1002
{
1070
   173
1070
     1
1070
     6
1000
_OPEN
1070
     7
1000
_OPEN
1070
    41
1040
2.000000
1002
}
  0
DIMENSION
  5
29C
100
AcDbEntity
  8
MAIN0
  6
CONTINUOUS
 62
3
100
AcDbDimension
  2
*D24
 10
62.86723570136519
 20
176.5988450884091
 30
0.0000000000000000
 11
62.36723570136519
 21
172.0988450884091
 31
0.0000000000000000
 70
32
  1
\A1;\U+22059
  3
MAIN001
100
AcDbAlignedDimension
 13
73.26723570136520
 23
167.5988450884091
 33
0.0000000000000000
 14
73.26723570136520
 24
176.5988450884091
 34
0.0000000000000000
 50
90.00000000000000
100
AcDbRotatedDimension
1001
ACAD
1000
DSTYLE
1002
{
1070
   173
1070
     1
1070
     6
1000
_OPEN
1070
     7
1000
_OPEN
1070
    41
1040
2.000000
1002
}
  0
LINE
  5
29D
100
AcDbEntity
  8
MAIN0
  6
CENTER
 62
3
100
AcDbLine
 10
252.0596483667559
 20
187.1234181236166
 30
0.0000000000000000
 11
261.3873021357880
 21
170.9674478801672
 31
0.0000000000000000
  0
LINE
  5
29E
100
AcDbEntity
  8
MAIN0
  6
CENTER
 62
3
100
AcDbLine
 10
251.9540573980978
 20
249.8913831308001
 30
0.0000000000000000
 11
261.3873021357290
 21
266.2302422966845
 31
0.0000000000000000
  0
ARC
  5
29F
100
AcDbEntity
  8
MAIN0
  6
CENTER
 62
3
100
AcDbCircle
 10
233.8873021359574
 20
218.5988450885475
 30
0.0000000000000000
 40
46.50000000000000
100
AcDbArc
 50
48.80066560818977
 51
73.80579195426545
  0
ARC
  5
2A0
100
AcDbEntity
  8
MAIN0
  6
CENTER
 62
3
100
AcDbCircle
 10
233.8873021359574
 20
218.5988450885475
 30
0.0000000000000000
 40
46.50000000000000
100
AcDbArc
 50
288.5277213262895
 51
314.3809531416309
  0
ARC
  5
2A1
100
AcDbEntity
  8
MAIN0
  6
CENTER
 62
3
100
AcDbCircle
 10
233.8873021359574
 20
218.5988450885475
 30
0.0000000000000000
 40
46.50000000000000
100
AcDbArc
 50
168.0303700264152
 51
199.0098957873894
  0
DIMENSION
  5
2A7
100
AcDbEntity
  8
MAIN0
  6
CONTINUOUS
 62
3
100
AcDbDimension
  2
*D25
 10
189.2352856015008
 20
205.6201155896094
 30
0.0000000000000000
 11
199.5361244578514
 21
209.1348908071546
 31
0.0000000000000000
 70
163
  3
MAIN001
100
AcDbDiametricDimension
 15
278.5393186704144
 25
231.5775745874855
 35
0.0000000000000000
1001
ACAD
1000
DSTYLE
1002
{
1070
   287
1070
     2
1070
   173
1070
     1
1070
     6
1000
_OPEN
1070
     7
1000
_NONE
1070
    41
1040
2.000000
1070
   272
1070
     1
1070
    47
1040
0.200000
1070
    48
1040
0.200000
1070
    71
1070
     1
1002
}
  0
DIMENSION
  5
2B0
100
AcDbEntity
  8
MAIN0
  6
CONTINUOUS
 62
3
100
AcDbDimension
  2
*D26
 10
77.36723570136519
 20
188.5988450884091
 30
0.0000000000000000
 11
67.86723570136519
 21
189.0988450884091
 31
0.0000000000000000
 70
160
  3
MAIN001
100
AcDbAlignedDimension
 13
72.86723570136519
 23
164.5988450884091
 33
0.0000000000000000
 14
77.36723570136519
 24
178.5988450884091
 34
0.0000000000000000
100
AcDbRotatedDimension
1001
ACAD
1000
DSTYLE
1002
{
1070
   173
1070
     1
1070
     6
1000
_OPEN
1070
     7
1000
_OPEN
1070
    41
1040
2.000000
1070
   287
1070
     0
1002
}
  0
MTEXT
  5
2B1
100
AcDbEntity
  8
MAIN0
  6
CONTINUOUS
 62
3
100
AcDbMText
 10
223.9360924650447
 20
245.1935393850288
 30
0.0000000000000000
 40
5.000000000000000
 41
0.0000000000000000
 71
     1
 72
     1
  1
{\H0.93x;{KITAGAWA}}
 11
-0.4999999999997758
 21
-0.8660254037845681
 31
0.0000000000000000
  7
STANDARD
  0
LINE
  5
2B2
100
AcDbEntity
  8
MAIN0
  6
CONTINUOUS
 62
3
100
AcDbLine
 10
219.4021423927741
 20
248.1941561436477
 30
0.0000000000000000
 11
201.3966363941277
 21
217.0077049380741
 31
0.0000000000000000
  0
MTEXT
  5
2B3
100
AcDbEntity
  8
MAIN0
  6
CONTINUOUS
 62
3
100
AcDbMText
 10
219.8245517251269
 20
250.5583407294481
 30
0.0000000000000000
 40
4.000000000000000
 41
0.0000000000000000
 71
     1
 72
     1
  1
{\H0.90x;{MAX.2500/min}}
 11
-0.4999999999997758
 21
-0.8660254037845681
 31
0.0000000000000000
  7
STANDARD
  0
MTEXT
  5
2B4
100
AcDbEntity
  8
MAIN0
  6
CONTINUOUS
 62
3
100
AcDbMText
 10
208.9354699523155
 20
241.3765269503924
 30
0.0000000000000000
 40
3.000000000000000
 41
0.0000000000000000
 71
     1
 72
     1
  1
{\H0.92x;{JAPAN}}
 11
-0.4999999999997758
 21
-0.8660254037845681
 31
0.0000000000000000
  7
STANDARD
  0
LINE
  5
2B5
100
AcDbEntity
  8
MAIN0
  6
PHANTOM
 62
3
100
AcDbLine
 10
205.7487900831079
 20
243.8615125639557
 30
0.0000000000000000
 11
198.2487900831113
 21
230.8711315071874
 31
0.0000000000000000
  0
LINE
  5
2B6
100
AcDbEntity
  8
MAIN0
  6
PHANTOM
 62
3
100
AcDbLine
 10
205.7487900831079
 20
243.8615125639559
 30
0.0000000000000000
 11
203.1507138717534
 21
245.3615125639538
 31
0.0000000000000000
  0
LINE
  5
2B7
100
AcDbEntity
  8
MAIN0
  6
PHANTOM
 62
3
100
AcDbLine
 10
198.2487900831114
 20
230.8711315071874
 30
0.0000000000000000
 11
195.6507138717568
 21
232.3711315071854
 31
0.0000000000000000
  0
LINE
  5
2B8
100
AcDbEntity
  8
MAIN0
  6
PHANTOM
 62
3
100
AcDbLine
 10
203.1507138717534
 20
245.3615125639537
 30
0.0000000000000000
 11
195.6507138717568
 21
232.3711315071852
 31
0.0000000000000000
  0
LINE
  5
2B9
100
AcDbEntity
  8
MAIN0
  6
CONTINUOUS
 62
3
100
AcDbLine
 10
338.1847601807488
 20
291.8713267058895
 30
0.0000000000000000
 11
339.1847601807471
 21
290.8713267058905
 31
0.0000000000000000
  0
LINE
  5
2BA
100
AcDbEntity
  8
MAIN0
  6
CONTINUOUS
 62
3
100
AcDbLine
 10
323.1847601807486
 20
291.8713267058748
 30
0.0000000000000000
 11
338.1847601807486
 21
291.8713267058895
 31
0.0000000000000000
  0
LINE
  5
2BB
100
AcDbEntity
  8
MAIN0
  6
CONTINUOUS
 62
3
100
AcDbLine
 10
323.1847601807485
 20
291.8713267058747
 30
0.0000000000000000
 11
322.1847601807469
 21
290.8713267058737
 31
0.0000000000000000
  0
LINE
  5
2BC
100
AcDbEntity
  8
MAIN0
  6
CONTINUOUS
 62
3
100
AcDbLine
 10
322.1847601807469
 20
290.8713267059269
 30
0.0000000000000000
 11
339.1847601807471
 21
290.8713267059269
 31
0.0000000000000000
  0
DIMENSION
  5
2C5
100
AcDbEntity
  8
MAIN0
  6
CONTINUOUS
 62
3
100
AcDbDimension
  2
*D27
 10
339.1847601807471
 20
299.1424161604879
 30
0.0000000000000000
 11
330.6847601807470
 21
299.6424161604879
 31
0.0000000000000000
 70
32
  1
\A1;\U+220517
  3
MAIN001
100
AcDbAlignedDimension
 13
322.1847601807469
 23
290.8713267058738
 33
0.0000000000000000
 14
339.1847601807471
 24
290.8713267058905
 34
0.0000000000000000
100
AcDbRotatedDimension
1001
ACAD
1000
DSTYLE
1002
{
1070
   173
1070
     1
1070
     6
1000
_OPEN
1070
     7
1000
_OPEN
1070
    41
1040
2.000000
1002
}
  0
DIMENSION
  5
2CD
100
AcDbEntity
  8
MAIN0
  6
CONTINUOUS
 62
3
100
AcDbDimension
  2
*D28
 10
346.5411736804833
 20
291.8713267058748
 30
0.0000000000000000
 11
346.0411736804833
 21
287.6086212419784
 31
0.0000000000000000
 70
160
  3
MAIN001
100
AcDbAlignedDimension
 13
315.2011917099671
 23
279.8713267059964
 33
0.0000000000000000
 14
338.1847601807486
 24
291.8713267058895
 34
0.0000000000000000
 50
90.00000000000000
100
AcDbRotatedDimension
1001
ACAD
1000
DSTYLE
1002
{
1070
   173
1070
     1
1070
     6
1000
_OPEN
1070
     7
1000
_OPEN
1070
    41
1040
2.000000
1002
}
  0
DIMENSION
  5
2D6
100
AcDbEntity
  8
MAIN0
  6
CONTINUOUS
 62
3
100
AcDbDimension
  2
*D29
 10
354.4681950286216
 20
291.8713267058748
 30
0.0000000000000000
 11
353.9681950286216
 21
256.8713267059371
 31
0.0000000000000000
 70
32
  3
MAIN001
100
AcDbAlignedDimension
 13
335.5847601806323
 23
221.8713267059993
 33
0.0000000000000000
 14
338.1847601807486
 24
291.8713267058895
 34
0.0000000000000000
 50
90.00000000000000
100
AcDbRotatedDimension
1001
ACAD
1000
DSTYLE
1002
{
1070
   173
1070
     1
1070
     6
1000
_OPEN
1070
     7
1000
_OPEN
1070
    41
1040
2.000000
1002
}
  0
DIMENSION
  5
2DF
100
AcDbEntity
  8
MAIN0
  6
CONTINUOUS
 62
3
100
AcDbDimension
  2
*D30
 10
183.3084083285393
 20
247.8005830436148
 30
0.0000000000000000
 11
203.6540975127535
 21
270.9642915715997
 31
0.0000000000000000
 70
162
  3
MAIN001
100
AcDb2LineAngularDimension
 13
233.8873021359574
 23
277.9684656792608
 33
0.0000000000000000
 14
233.8873021359574
 24
276.9684656792608
 34
0.0000000000000000
 15
184.1744337323235
 25
247.3005830436143
 35
0.0000000000000000
 16
203.9040975127533
 26
270.5312788697074
 36
0.0000000000000000
1001
ACAD
1000
DSTYLE
1002
{
1070
   173
1070
     1
1070
     6
1000
_OPEN
1070
     7
1000
_OPEN
1070
    41
1040
2.000000
1002
}
  0
DIMENSION
  5
2E8
100
AcDbEntity
  8
MAIN0
  6
CONTINUOUS
 62
3
100
AcDbDimension
  2
*D31
 10
292.9495850001107
 20
218.5988450884091
 30
0.0000000000000000
 11
291.3274426242667
 21
203.2078058314820
 31
0.0000000000000000
 70
162
  3
MAIN001
100
AcDb2LineAngularDimension
 13
284.7720861340687
 23
189.2205013495407
 33
0.0000000000000000
 14
283.9060607302846
 24
189.7205013495413
 34
0.0000000000000000
 15
291.9495850001107
 25
218.5988450884091
 35
0.0000000000000000
 16
291.8104055374112
 26
203.0783963089305
 36
0.0000000000000000
1001
ACAD
1000
DSTYLE
1002
{
1070
   173
1070
     1
1070
     6
1000
_OPEN
1070
     7
1000
_OPEN
1070
    41
1040
2.000000
1002
}
  0
DIMENSION
  5
2F1
100
AcDbEntity
  8
MAIN0
  6
CONTINUOUS
 62
3
100
AcDbDimension
  2
*D32
 10
284.9565966382805
 20
248.0837160168211
 30
0.0000000000000000
 11
291.3274426242364
 21
233.9898843454496
 31
0.0000000000000000
 70
162
  3
MAIN001
100
AcDb2LineAngularDimension
 13
292.9495850001107
 23
218.5988450884091
 33
0.0000000000000000
 14
291.9495850001107
 24
218.5988450884091
 34
0.0000000000000000
 15
284.0905712344983
 25
247.5837160168172
 35
0.0000000000000000
 16
291.8104055373806
 26
234.1192938680019
 36
0.0000000000000000
1001
ACAD
1000
DSTYLE
1002
{
1070
   173
1070
     1
1070
     6
1000
_OPEN
1070
     7
1000
_OPEN
1070
    41
1040
2.000000
1002
}
  0
DIMENSION
  5
2FA
100
AcDbEntity
  8
MAIN0
  6
CONTINUOUS
 62
3
100
AcDbDimension
  2
*D33
 10
261.3873021357290
 20
266.2302422966845
 30
0.0000000000000000
 11
276.6435101482679
 21
261.3550531010406
 31
0.0000000000000000
 70
162
  3
MAIN001
100
AcDb2LineAngularDimension
 13
284.9565966382805
 23
248.0837160168211
 33
0.0000000000000000
 14
284.0905712344983
 24
247.5837160168172
 34
0.0000000000000000
 15
260.8873021357365
 25
265.3642168928958
 35
0.0000000000000000
 16
276.2899567576769
 26
261.0014997104450
 36
0.0000000000000000
1001
ACAD
1000
DSTYLE
1002
{
1070
   173
1070
     1
1070
     6
1000
_OPEN
1070
     7
1000
_OPEN
1070
    41
1040
2.000000
1002
}
  0
DIMENSION
  5
303
100
AcDbEntity
  8
MAIN0
  6
CONTINUOUS
 62
3
100
AcDbDimension
  2
*D34
 10
233.8873021359574
 20
277.9684656792608
 30
0.0000000000000000
 11
249.5371604378414
 21
277.0049114028711
 31
0.0000000000000000
 70
162
  3
MAIN001
100
AcDb2LineAngularDimension
 13
261.3873021357290
 23
266.2302422966845
 33
0.0000000000000000
 14
260.8873021357365
 24
265.3642168928958
 34
0.0000000000000000
 15
233.8873021359614
 25
276.9684656792608
 35
0.0000000000000000
 16
249.4077509152932
 26
276.5219484897258
 36
0.0000000000000000
1001
ACAD
1000
DSTYLE
1002
{
1070
   173
1070
     1
1070
     6
1000
_OPEN
1070
     7
1000
_OPEN
1070
    41
1040
2.000000
1002
}
  0
DIMENSION
  5
30C
100
AcDbEntity
  8
MAIN0
  6
CONTINUOUS
 62
3
100
AcDbDimension
  2
*D35
 10
183.3084083285393
 20
247.8005830436148
 30
0.0000000000000000
 11
203.6540975127512
 21
270.9642915716364
 31
0.0000000000000000
 70
162
  3
MAIN001
100
AcDb2LineAngularDimension
 13
233.8873021359574
 23
277.9684656792608
 33
0.0000000000000000
 14
233.8873021359614
 24
276.9684656792608
 34
0.0000000000000000
 15
184.1744337323234
 25
247.3005830436143
 35
0.0000000000000000
 16
203.9040975127519
 26
270.5312788697445
 36
0.0000000000000000
1001
ACAD
1000
DSTYLE
1002
{
1070
   173
1070
     1
1070
     6
1000
_OPEN
1070
     7
1000
_OPEN
1070
    41
1040
2.000000
1002
}
  0
MTEXT
  5
30D
100
AcDbEntity
  8
MAIN6
  6
CONTINUOUS
 62
3
100
AcDbMText
 10
222.4838170879876
 20
233.1182006734935
 30
0.0000000000000000
 40
4.000000000000000
 41
0.0000000000000000
 71
     1
 72
     1
  1
{\H0.91x;{SC-4}}
 11
-0.4999999999997758
 21
-0.8660254037845681
 31
0.0000000000000000
  7
STANDARD
  0
SPLINE
  5
30E
100
AcDbEntity
  8
MAIN0
  6
CONTINUOUS
 62
3
100
AcDbSpline
210
0.0000000000000000
220
0.0000000000000000
230
1.000000000000000
 70
     8
 71
     3
 72
    17
 73
    13
 74
     0
 42
1.000000000000000e-007
 43
1.000000000000000e-007
 12
-0.3603063876784347
 22
-0.9655021447300243
 32
0.0000000000000000
 13
-0.06238480241457722
 23
-1.000996744427894
 33
0.0000000000000000
 40
0.0000000000000000
 40
0.0000000000000000
 40
0.0000000000000000
 40
0.0000000000000000
 40
11.18033988749895
 40
18.25140769936443
 40
29.43174758686337
 40
40.19312348625464
 40
47.69542395394167
 40
71.70690527361018
 40
80.35532551815886
 40
85.35532551815886
 40
101.7068012298662
 40
115.8011335468441
 40
115.8011335468441
 40
115.8011335468441
 40
115.8011335468441
 10
102.8672357013652
 20
273.5988450884091
 30
0.0000000000000000
 10
101.5244530754046
 20
270.0006310416788
 30
0.0000000000000000
 10
99.33242014933646
 20
264.1267066156527
 30
0.0000000000000000
 10
91.62205922468651
 20
258.0694367320066
 30
0.0000000000000000
 10
85.80757149526220
 20
248.7485168032738
 30
0.0000000000000000
 10
90.98583189848013
 20
239.2111597155591
 30
0.0000000000000000
 10
89.52415364111174
 20
225.1399029895694
 30
0.0000000000000000
 10
95.22834405260852
 20
210.9595536678575
 30
0.0000000000000000
 10
87.22787065041167
 20
199.9317830758616
 30
0.0000000000000000
 10
88.59773517682157
 20
189.6986196311252
 30
0.0000000000000000
 10
83.79344498635909
 20
178.4603569158659
 30
0.0000000000000000
 10
83.16032641361854
 20
168.3016386764691
 30
0.0000000000000000
 10
82.86723570136519
 20
163.5988450884091
 30
0.0000000000000000
  0
LINE
  5
30F
100
AcDbEntity
  8
MAIN0
  6
CONTINUOUS
 62
3
100
AcDbLine
 10
130.8672357013652
 20
165.0988450884091
 30
0.0000000000000000
 11
130.8672357013652
 21
272.0988450884091
 31
0.0000000000000000
  0
DIMENSION
  5
318
100
AcDbEntity
  8
MAIN0
  6
CONTINUOUS
 62
3
100
AcDbDimension
  2
*D36
 10
148.8672357013406
 20
278.6390376147093
 30
0.0000000000000000
 11
139.8672357013529
 21
279.1390376147093
 31
0.0000000000000000
 70
32
  3
MAIN001
100
AcDbAlignedDimension
 13
130.8672357013652
 23
272.0988450884091
 33
0.0000000000000000
 14
148.8672357013479
 24
244.2988450884091
 34
0.0000000000000000
100
AcDbRotatedDimension
1001
ACAD
1000
DSTYLE
1002
{
1070
   173
1070
     1
1070
     6
1000
_OPEN
1070
     7
1000
_OPEN
1070
    41
1040
2.000000
1002
}
  0
DIMENSION
  5
321
100
AcDbEntity
  8
MAIN0
  6
CONTINUOUS
 62
3
100
AcDbDimension
  2
*D37
 10
130.8672357013652
 20
158.5988450884091
 30
0.0000000000000000
 11
126.3672357013652
 21
159.0988450884091
 31
0.0000000000000000
 70
32
  3
MAIN001
100
AcDbAlignedDimension
 13
121.8672357013652
 23
165.0988450884091
 33
0.0000000000000000
 14
130.8672357013652
 24
165.0988450884091
 34
0.0000000000000000
100
AcDbRotatedDimension
1001
ACAD
1000
DSTYLE
1002
{
1070
   173
1070
     1
1070
     6
1000
_OPEN
1070
     7
1000
_OPEN
1070
    41
1040
2.000000
1002
}
  0
DIMENSION
  5
32A
100
AcDbEntity
  8
MAIN0
  6
CONTINUOUS
 62
3
100
AcDbDimension
  2
*D38
 10
130.8672357013652
 20
151.0988450884091
 30
0.0000000000000000
 11
114.1172357013652
 21
151.5988450884091
 31
0.0000000000000000
 70
32
  3
MAIN001
100
AcDbAlignedDimension
 13
97.36723570136519
 23
161.0988450884091
 33
0.0000000000000000
 14
130.8672357013652
 24
165.0988450884091
 34
0.0000000000000000
100
AcDbRotatedDimension
1001
ACAD
1000
DSTYLE
1002
{
1070
   173
1070
     1
1070
     6
1000
_OPEN
1070
     7
1000
_OPEN
1070
    41
1040
2.000000
1002
}
  0
DIMENSION
  5
333
100
AcDbEntity
  8
MAIN0
  6
CONTINUOUS
 62
3
100
AcDbDimension
  2
*D39
 10
97.36723570136519
 20
151.0988450884091
 30
0.0000000000000000
 11
85.11723570136519
 21
151.5988450884091
 31
0.0000000000000000
 70
32
  3
MAIN001
100
AcDbAlignedDimension
 13
72.86723570136519
 23
164.5988450884091
 33
0.0000000000000000
 14
97.36723570136519
 24
161.0988450884091
 34
0.0000000000000000
100
AcDbRotatedDimension
1001
ACAD
1000
DSTYLE
1002
{
1070
   173
1070
     1
1070
     6
1000
_OPEN
1070
     7
1000
_OPEN
1070
    41
1040
2.000000
1002
}
  0
DIMENSION
  5
33C
100
AcDbEntity
  8
MAIN0
  6
CONTINUOUS
 62
3
100
AcDbDimension
  2
*D40
 10
72.86723570136519
 20
143.5988450884091
 30
0.0000000000000000
 11
101.8672357013652
 21
144.0988450884091
 31
0.0000000000000000
 70
32
  3
MAIN001
100
AcDbAlignedDimension
 13
130.8672357013652
 23
165.0988450884091
 33
0.0000000000000000
 14
72.86723570136519
 24
164.5988450884091
 34
0.0000000000000000
100
AcDbRotatedDimension
1001
ACAD
1000
DSTYLE
1002
{
1070
   173
1070
     1
1070
     6
1000
_OPEN
1070
     7
1000
_OPEN
1070
    41
1040
2.000000
1002
}
  0
LINE
  5
33D
100
AcDbEntity
  8
MAIN0
  6
HIDDEN
 62
3
100
AcDbLine
 10
130.8672357013652
 20
206.5988450884091
 30
0.0000000000000000
 11
91.15283652056299
 21
206.5988450884091
 31
0.0000000000000000
  0
LINE
  5
33E
100
AcDbEntity
  8
MAIN0
  6
HIDDEN
 62
3
100
AcDbLine
 10
130.8672357013652
 20
230.5988450884091
 30
0.0000000000000000
 11
90.41038438837893
 21
230.5988450884091
 31
0.0000000000000000
  0
LINE
  5
33F
100
AcDbEntity
  8
MAIN1
  6
HIDDEN
 62
3
100
AcDbLine
 10
84.86723670136519
 20
232.3488450884091
 30
0.0000000000000000
 11
90.41017193688404
 21
232.3488450884091
 31
0.0000000000000000
  0
LINE
  5
340
100
AcDbEntity
  8
MAIN1
  6
HIDDEN
 62
7
100
AcDbLine
 10
84.86723670136519
 20
232.7988450884091
 30
0.0000000000000000
 11
90.41780341293156
 21
232.7988450884091
 31
0.0000000000000000
  0
LINE
  5
341
100
AcDbEntity
  8
MAIN1
  6
HIDDEN
 62
7
100
AcDbLine
 10
90.40143716801606
 20
236.3988450884091
 30
0.0000000000000000
 11
84.86723670136519
 21
236.3988450884091
 31
0.0000000000000000
  0
LINE
  5
342
100
AcDbEntity
  8
MAIN1
  6
HIDDEN
 62
3
100
AcDbLine
 10
90.37063159651777
 20
236.8488450884091
 30
0.0000000000000000
 11
84.86723670136519
 21
236.8488450884091
 31
0.0000000000000000
  0
LINE
  5
343
100
AcDbEntity
  8
MAIN1
  6
HIDDEN
 62
3
100
AcDbLine
 10
82.86723570136519
 20
232.1988490884091
 30
0.0000000000000000
 11
86.86723670136519
 21
232.1988490884091
 31
0.0000000000000000
  0
LINE
  5
344
100
AcDbEntity
  8
MAIN1
  6
HIDDEN
 62
3
100
AcDbLine
 10
82.86723570136519
 20
232.3488450884091
 30
0.0000000000000000
 11
84.86723670136519
 21
232.3488450884091
 31
0.0000000000000000
  0
LINE
  5
345
100
AcDbEntity
  8
MAIN1
  6
HIDDEN
 62
7
100
AcDbLine
 10
84.08781370136519
 20
232.3488450884091
 30
0.0000000000000000
 11
84.86723670136517
 21
232.7988450884091
 31
0.0000000000000000
  0
LINE
  5
346
100
AcDbEntity
  8
MAIN1
  6
HIDDEN
 62
3
100
AcDbLine
 10
84.86723670136519
 20
236.8488450884091
 30
0.0000000000000000
 11
84.86723670136519
 21
232.3488450884091
 31
0.0000000000000000
  0
LINE
  5
347
100
AcDbEntity
  8
MAIN1
  6
HIDDEN
 62
7
100
AcDbLine
 10
84.86723670136519
 20
236.3988450884091
 30
0.0000000000000000
 11
84.08781370136518
 21
236.8488450884091
 31
0.0000000000000000
  0
LINE
  5
348
100
AcDbEntity
  8
MAIN1
  6
HIDDEN
 62
3
100
AcDbLine
 10
84.86723670136519
 20
236.8488450884091
 30
0.0000000000000000
 11
82.86723570136519
 21
236.8488450884091
 31
0.0000000000000000
  0
LINE
  5
349
100
AcDbEntity
  8
MAIN1
  6
HIDDEN
 62
3
100
AcDbLine
 10
82.86723570136519
 20
236.9988490884091
 30
0.0000000000000000
 11
86.86723670136519
 21
236.9988490884091
 31
0.0000000000000000
  0
LINE
  5
34A
100
AcDbEntity
  8
MAIN1
  6
HIDDEN
 62
3
100
AcDbLine
 10
82.86723570136519
 20
236.9988490884091
 30
0.0000000000000000
 11
82.86723570136519
 21
232.1988490884091
 31
0.0000000000000000
  0
LINE
  5
34B
100
AcDbEntity
  8
MAIN1
  6
HIDDEN
 62
3
100
AcDbLine
 10
82.86723570136519
 20
231.5988450884091
 30
0.0000000000000000
 11
78.86723570136519
 21
231.5988450884091
 31
0.0000000000000000
  0
LINE
  5
34C
100
AcDbEntity
  8
MAIN1
  6
HIDDEN
 62
3
100
AcDbLine
 10
78.36723570136519
 20
231.3988490884091
 30
0.0000000000000000
 11
82.86723570136519
 21
231.3988490884091
 31
0.0000000000000000
  0
LINE
  5
34D
100
AcDbEntity
  8
MAIN1
  6
HIDDEN
 62
3
100
AcDbLine
 10
82.86723570136519
 20
232.1988490884091
 30
0.0000000000000000
 11
82.86723570136519
 21
231.3988490884091
 31
0.0000000000000000
  0
LINE
  5
34E
100
AcDbEntity
  8
MAIN1
  6
HIDDEN
 62
3
100
AcDbLine
 10
78.86723570136519
 20
231.5988450884091
 30
0.0000000000000000
 11
78.86723570136519
 21
234.0988450884091
 31
0.0000000000000000
  0
LINE
  5
34F
100
AcDbEntity
  8
MAIN1
  6
HIDDEN
 62
3
100
AcDbLine
 10
80.46723170136522
 20
234.0988450884091
 30
0.0000000000000000
 11
78.86723170136520
 21
234.0988450884091
 31
0.0000000000000000
  0
LINE
  5
350
100
AcDbEntity
  8
MAIN1
  6
HIDDEN
 62
3
100
AcDbLine
 10
80.46723170136522
 20
234.0988450884091
 30
0.0000000000000000
 11
80.46723170136522
 21
235.0988450884091
 31
0.0000000000000000
  0
LINE
  5
351
100
AcDbEntity
  8
MAIN1
  6
HIDDEN
 62
3
100
AcDbLine
 10
80.46723170136522
 20
235.0988450884091
 30
0.0000000000000000
 11
78.86723170136520
 21
235.0988450884091
 31
0.0000000000000000
  0
LINE
  5
352
100
AcDbEntity
  8
MAIN1
  6
HIDDEN
 62
3
100
AcDbLine
 10
78.86723570136519
 20
235.0988450884091
 30
0.0000000000000000
 11
78.86723570136519
 21
237.5988450884091
 31
0.0000000000000000
  0
LINE
  5
353
100
AcDbEntity
  8
MAIN1
  6
HIDDEN
 62
3
100
AcDbLine
 10
82.86723570136519
 20
237.5988450884091
 30
0.0000000000000000
 11
78.86723570136519
 21
237.5988450884091
 31
0.0000000000000000
  0
LINE
  5
354
100
AcDbEntity
  8
MAIN1
  6
HIDDEN
 62
3
100
AcDbLine
 10
78.36723570136519
 20
237.7988490884091
 30
0.0000000000000000
 11
82.86723570136519
 21
237.7988490884091
 31
0.0000000000000000
  0
LINE
  5
355
100
AcDbEntity
  8
MAIN1
  6
HIDDEN
 62
3
100
AcDbLine
 10
82.86723570136519
 20
236.9988490884091
 30
0.0000000000000000
 11
82.86723570136519
 21
237.7988490884091
 31
0.0000000000000000
  0
CIRCLE
  5
356
100
AcDbEntity
  8
MAIN0
  6
HIDDEN
 62
3
100
AcDbCircle
 10
281.3873021359574
 20
218.5988450884091
 30
0.0000000000000000
 40
4.000000000000000
  0
CIRCLE
  5
357
100
AcDbEntity
  8
MAIN0
  6
HIDDEN
 62
3
100
AcDbCircle
 10
281.3873021359574
 20
218.5988450884091
 30
0.0000000000000000
 40
3.400000000000000
  0
CIRCLE
  5
358
100
AcDbEntity
  8
MAIN0
  6
HIDDEN
 62
3
100
AcDbCircle
 10
268.7558763877012
 20
250.8545814720453
 30
0.0000000000000000
 40
4.000000000000000
  0
CIRCLE
  5
359
100
AcDbEntity
  8
MAIN0
  6
HIDDEN
 62
3
100
AcDbCircle
 10
268.7558763877012
 20
250.8545814720453
 30
0.0000000000000000
 40
3.400000000000000
  0
LINE
  5
35A
100
AcDbEntity
  8
MAIN0
  6
HIDDEN
 62
3
100
AcDbLine
 10
72.86723570136519
 20
270.4988450884091
 30
0.0000000000000000
 11
73.86723570136519
 21
269.4988450884091
 31
0.0000000000000000
  0
LINE
  5
35B
100
AcDbEntity
  8
MAIN0
  6
HIDDEN
 62
3
100
AcDbLine
 10
73.86723570136519
 20
269.4988450884091
 30
0.0000000000000000
 11
73.86723570136519
 21
262.6988450884091
 31
0.0000000000000000
  0
LINE
  5
35C
100
AcDbEntity
  8
MAIN0
  6
HIDDEN
 62
3
100
AcDbLine
 10
73.86723570136519
 20
262.6988450884091
 30
0.0000000000000000
 11
72.86723570136519
 21
261.6988450884091
 31
0.0000000000000000
  0
LINE
  5
35D
100
AcDbEntity
  8
MAIN0
  6
HIDDEN
 62
3
100
AcDbLine
 10
73.26723570136520
 20
270.0988450884091
 30
0.0000000000000000
 11
88.86723570136519
 21
270.0988450884091
 31
0.0000000000000000
  0
LINE
  5
35E
100
AcDbEntity
  8
MAIN0
  6
HIDDEN
 62
3
100
AcDbLine
 10
88.86723570136519
 20
270.0988450884091
 30
0.0000000000000000
 11
88.86723570136519
 21
262.0988450884091
 31
0.0000000000000000
  0
LINE
  5
35F
100
AcDbEntity
  8
MAIN0
  6
HIDDEN
 62
3
100
AcDbLine
 10
88.86723570136519
 20
262.0988450884091
 30
0.0000000000000000
 11
73.26723570136520
 21
262.0988450884091
 31
0.0000000000000000
  0
LINE
  5
360
100
AcDbEntity
  8
MAIN0
  6
HIDDEN
 62
3
100
AcDbLine
 10
73.86723570136519
 20
269.4988450884091
 30
0.0000000000000000
 11
92.86723570136519
 21
269.4988450884091
 31
0.0000000000000000
  0
LINE
  5
361
100
AcDbEntity
  8
MAIN0
  6
HIDDEN
 62
3
100
AcDbLine
 10
92.86723570136519
 20
269.4988450884091
 30
0.0000000000000000
 11
92.86723570136519
 21
262.6988450884091
 31
0.0000000000000000
  0
LINE
  5
362
100
AcDbEntity
  8
MAIN0
  6
HIDDEN
 62
3
100
AcDbLine
 10
92.86723570136519
 20
262.6988450884091
 30
0.0000000000000000
 11
73.86723570136519
 21
262.6988450884091
 31
0.0000000000000000
  0
LINE
  5
363
100
AcDbEntity
  8
MAIN0
  6
HIDDEN
 62
3
100
AcDbLine
 10
92.86723570136519
 20
269.4988450884091
 30
0.0000000000000000
 11
94.83022661660992
 21
266.0988450884091
 31
0.0000000000000000
  0
LINE
  5
364
100
AcDbEntity
  8
MAIN0
  6
HIDDEN
 62
3
100
AcDbLine
 10
94.83022661660992
 20
266.0988450884091
 30
0.0000000000000000
 11
92.86723570136519
 21
262.6988450884091
 31
0.0000000000000000
  0
LINE
  5
365
100
AcDbEntity
  8
MAIN0
  6
HIDDEN
 62
3
100
AcDbLine
 10
130.8672357013652
 20
164.6988450884091
 30
0.0000000000000000
 11
130.4672357013652
 21
165.0988450884091
 31
0.0000000000000000
  0
LINE
  5
366
100
AcDbEntity
  8
MAIN0
  6
HIDDEN
 62
3
100
AcDbLine
 10
130.4672357013652
 20
165.0988450884091
 30
0.0000000000000000
 11
121.8672357013652
 21
165.0988450884091
 31
0.0000000000000000
  0
LINE
  5
367
100
AcDbEntity
  8
MAIN0
  6
HIDDEN
 62
3
100
AcDbLine
 10
121.8672357013652
 20
165.0988450884091
 30
0.0000000000000000
 11
121.8672357013652
 21
179.0988450884091
 31
0.0000000000000000
  0
LINE
  5
368
100
AcDbEntity
  8
MAIN0
  6
HIDDEN
 62
3
100
AcDbLine
 10
121.8672357013652
 20
179.0988450884091
 30
0.0000000000000000
 11
130.4672357013652
 21
179.0988450884091
 31
0.0000000000000000
  0
LINE
  5
369
100
AcDbEntity
  8
MAIN0
  6
HIDDEN
 62
3
100
AcDbLine
 10
130.4672357013652
 20
179.0988450884091
 30
0.0000000000000000
 11
130.8672357013652
 21
179.4988450884091
 31
0.0000000000000000
  0
LINE
  5
36A
100
AcDbEntity
  8
MAIN0
  6
HIDDEN
 62
3
100
AcDbLine
 10
121.8672357013652
 20
167.5988450884091
 30
0.0000000000000000
 11
73.26723570136520
 21
167.5988450884091
 31
0.0000000000000000
  0
LINE
  5
36B
100
AcDbEntity
  8
MAIN0
  6
HIDDEN
 62
3
100
AcDbLine
 10
73.26723570136520
 20
167.5988450884091
 30
0.0000000000000000
 11
72.86723570136519
 21
167.1988450884091
 31
0.0000000000000000
  0
LINE
  5
36C
100
AcDbEntity
  8
MAIN0
  6
HIDDEN
 62
3
100
AcDbLine
 10
121.8672357013652
 20
176.5988450884091
 30
0.0000000000000000
 11
73.26723570136520
 21
176.5988450884091
 31
0.0000000000000000
  0
LINE
  5
36D
100
AcDbEntity
  8
MAIN0
  6
HIDDEN
 62
3
100
AcDbLine
 10
73.26723570136520
 20
176.5988450884091
 30
0.0000000000000000
 11
72.86723570136519
 21
176.9988450884091
 31
0.0000000000000000
  0
CIRCLE
  5
36E
100
AcDbEntity
  8
MAIN0
  6
CONTINUOUS
 62
3
100
AcDbCircle
 10
257.1373021358039
 20
258.8690263646125
 30
0.0000000000000000
 40
7.000000000000000
  0
CIRCLE
  5
36F
100
AcDbEntity
  8
MAIN0
  6
CONTINUOUS
 62
3
100
AcDbCircle
 10
257.1373021358039
 20
258.8690263646125
 30
0.0000000000000000
 40
4.500000000000000
  0
CIRCLE
  5
370
100
AcDbEntity
  8
MAIN0
  6
CONTINUOUS
 62
3
100
AcDbCircle
 10
257.1373021357427
 20
178.3286638124472
 30
0.0000000000000000
 40
7.000000000000000
  0
CIRCLE
  5
371
100
AcDbEntity
  8
MAIN0
  6
CONTINUOUS
 62
3
100
AcDbCircle
 10
257.1373021357427
 20
178.3286638124472
 30
0.0000000000000000
 40
4.500000000000000
  0
CIRCLE
  5
372
100
AcDbEntity
  8
MAIN0
  6
CONTINUOUS
 62
3
100
AcDbCircle
 10
187.3873021359574
 20
218.5988450884091
 30
0.0000000000000000
 40
7.000000000000000
  0
CIRCLE
  5
373
100
AcDbEntity
  8
MAIN0
  6
CONTINUOUS
 62
3
100
AcDbCircle
 10
187.3873021359574
 20
218.5988450884091
 30
0.0000000000000000
 40
4.500000000000000
  0
MTEXT
  5
374
100
AcDbEntity
  8
A0
  6
CONTINUOUS
 62
3
100
AcDbMText
 10
274.5902979302565
 20
110.9519021678925
 30
0.0000000000000000
 40
4.649999856948853
 41
0.0000000000000000
 71
     1
 72
     1
  1
{\H0.81x;{44.1}}
 11
1.000000000000000
 21
0.0000000000000000
 31
0.0000000000000000
  7
STANDARD
  0
MTEXT
  5
375
100
AcDbEntity
  8
A0
  6
CONTINUOUS
 62
3
100
AcDbMText
 10
274.5902979302565
 20
104.2019021678925
 30
0.0000000000000000
 40
4.649999856948853
 41
0.0000000000000000
 71
     1
 72
     1
  1
{\H0.76x;{4.5}}
 11
1.000000000000000
 21
0.0000000000000000
 31
0.0000000000000000
  7
STANDARD
  0
MTEXT
  5
376
100
AcDbEntity
  8
A0
  6
CONTINUOUS
 62
3
100
AcDbMText
 10
274.5902979302565
 20
95.95190216789234
 30
0.0000000000000000
 40
4.649999856948853
 41
0.0000000000000000
 71
     1
 72
     1
  1
{\H0.88x;{12}}
 11
1.000000000000000
 21
0.0000000000000000
 31
0.0000000000000000
  7
STANDARD
  0
MTEXT
  5
377
100
AcDbEntity
  8
A0
  6
CONTINUOUS
 62
3
100
AcDbMText
 10
274.5902979302565
 20
89.20190216789234
 30
0.0000000000000000
 40
4.649999856948853
 41
0.0000000000000000
 71
     1
 72
     1
  1
{\H0.91x;{1224}}
 11
1.000000000000000
 21
0.0000000000000000
 31
0.0000000000000000
  7
STANDARD
  0
MTEXT
  5
378
100
AcDbEntity
  8
A0
  6
CONTINUOUS
 62
3
100
AcDbMText
 10
274.5902979302565
 20
77.20190216789234
 30
0.0000000000000000
 40
4.649999856948853
 41
0.0000000000000000
 71
     1
 72
     1
  1
{\H0.91x;{2500}}
 11
1.000000000000000
 21
0.0000000000000000
 31
0.0000000000000000
  7
STANDARD
  0
MTEXT
  5
379
100
AcDbEntity
  8
A0
  6
CONTINUOUS
 62
3
100
AcDbMText
 10
274.5902979302565
 20
64.70190216789231
 30
0.0000000000000000
 40
4.649999856948853
 41
0.0000000000000000
 71
     1
 72
     1
  1
{\H0.76x;{3.1}}
 11
1.000000000000000
 21
0.0000000000000000
 31
0.0000000000000000
  7
STANDARD
  0
MTEXT
  5
37A
100
AcDbEntity
  8
A0
  6
CONTINUOUS
 62
3
100
AcDbMText
 10
222.5539680462615
 20
41.52851243572249
 30
0.0000000000000000
 40
3.750000000000000
 41
0.0000000000000000
 71
     1
 72
     1
  1
{\H0.63x;{EXTERNAL\PGRIPPING}}
 11
1.000000000000000
 21
0.0000000000000000
 31
0.0000000000000000
  7
STANDARD
  0
MTEXT
  5
37B
100
AcDbEntity
  8
A0
  6
CONTINUOUS
 62
3
100
AcDbMText
 10
222.4763539034853
 20
30.89543381238465
 30
0.0000000000000000
 40
3.750000000000000
 41
0.0000000000000000
 71
     1
 72
     1
  1
{\H0.63x;{INTERNALLY\PGRIPPING}}
 11
1.000000000000000
 21
0.0000000000000000
 31
0.0000000000000000
  7
STANDARD
  0
LINE
  5
37C
100
AcDbEntity
  8
A0
  6
CONTINUOUS
 62
3
100
AcDbLine
 10
192.0902979302566
 20
21.05190231093857
 30
0.0000000000000000
 11
312.0902979302566
 21
21.05190231093866
 31
0.0000000000000000
  0
LINE
  5
37D
100
AcDbEntity
  8
A0
  6
CONTINUOUS
 62
3
100
AcDbLine
 10
221.3402979302565
 20
21.05190231093869
 30
0.0000000000000000
 11
221.3402979302565
 21
42.05190231093857
 31
0.0000000000000000
  0
MTEXT
  5
37E
100
AcDbEntity
  8
A0
  6
CONTINUOUS
 62
3
100
AcDbMText
 10
245.9156983073445
 20
39.24635011994761
 30
0.0000000000000000
 40
4.649999856948853
 41
0.0000000000000000
 71
     1
 72
     1
  1
{\H0.92x;{外径把握}}
 11
1.000000000000000
 21
0.0000000000000000
 31
0.0000000000000000
  7
KNJYOKO
  0
MTEXT
  5
37F
100
AcDbEntity
  8
A0
  6
CONTINUOUS
 62
3
100
AcDbMText
 10
245.9156983073445
 20
28.53565735383361
 30
0.0000000000000000
 40
4.649999856948853
 41
0.0000000000000000
 71
     1
 72
     1
  1
{\H0.92x;{内径把握}}
 11
1.000000000000000
 21
0.0000000000000000
 31
0.0000000000000000
  7
KNJYOKO
  0
MTEXT
  5
380
100
AcDbEntity
  8
A0
  6
CONTINUOUS
 62
3
100
AcDbMText
 10
204.7804251231391
 20
26.60054105358225
 30
0.0000000000000000
 40
4.500000000000000
 41
0.0000000000000000
 71
     1
 72
     1
  1
{\H0.63x;{(mm)}}
 11
1.000000000000000
 21
0.0000000000000000
 31
0.0000000000000000
  7
STANDARD
  0
MTEXT
  5
381
100
AcDbEntity
  8
A0
  6
CONTINUOUS
 62
3
100
AcDbMText
 10
195.8402979302581
 20
80.82690216793466
 30
0.0000000000000000
 40
4.649999856948853
 41
0.0000000000000000
 71
     1
 72
     1
  1
{\H0.94x;{許容最高回転速度　}}
 11
1.000000000000000
 21
0.0000000000000000
 31
0.0000000000000000
  7
KNJYOKO
  0
LINE
  5
382
100
AcDbEntity
  8
A0
  6
CONTINUOUS
 62
3
100
AcDbLine
 10
221.3402979302566
 20
31.55190231093860
 30
0.0000000000000000
 11
312.0902979302565
 21
31.55190231093869
 31
0.0000000000000000
  0
LINE
  5
383
100
AcDbEntity
  8
A0
  6
CONTINUOUS
 62
3
100
AcDbLine
 10
192.0902979302564
 20
123.5519023109962
 30
0.0000000000000000
 11
312.0902979302565
 21
123.5519023110326
 31
0.0000000000000000
  0
LINE
  5
384
100
AcDbEntity
  8
A0
  6
CONTINUOUS
 62
3
100
AcDbLine
 10
192.0902979302564
 20
113.0519023109932
 30
0.0000000000000000
 11
312.0902979302566
 21
113.0519023110275
 31
0.0000000000000000
  0
LINE
  5
385
100
AcDbEntity
  8
A0
  6
CONTINUOUS
 62
3
100
AcDbLine
 10
192.0902979302565
 20
98.05190231098331
 30
0.0000000000000000
 11
312.0902979302566
 21
98.05190231101059
 31
0.0000000000000000
  0
LINE
  5
386
100
AcDbEntity
  8
A0
  6
CONTINUOUS
 62
3
100
AcDbLine
 10
192.0902979302564
 20
83.05190231097893
 30
0.0000000000000000
 11
312.0902979302564
 21
83.05190231100319
 31
0.0000000000000000
  0
LINE
  5
387
100
AcDbEntity
  8
A0
  6
CONTINUOUS
 62
3
100
AcDbLine
 10
192.0902979302564
 20
67.55190231097589
 30
0.0000000000000000
 11
312.0902979302565
 21
67.55190231099815
 31
0.0000000000000000
  0
LINE
  5
388
100
AcDbEntity
  8
A0
  6
CONTINUOUS
 62
3
100
AcDbLine
 10
192.0902979302564
 20
57.05190231097291
 30
0.0000000000000000
 11
312.0902979302565
 21
57.05190231099303
 31
0.0000000000000000
  0
LINE
  5
389
100
AcDbEntity
  8
A0
  6
CONTINUOUS
 62
3
100
AcDbLine
 10
192.0902979302566
 20
42.05190231093857
 30
0.0000000000000000
 11
312.0902979302566
 21
42.05190231093862
 31
0.0000000000000000
  0
LINE
  5
38A
100
AcDbEntity
  8
A0
  6
CONTINUOUS
 62
3
100
AcDbLine
 10
192.0902979302565
 20
21.05190231093857
 30
0.0000000000000000
 11
192.0902979302565
 21
123.5519023109437
 31
0.0000000000000000
  0
LINE
  5
38B
100
AcDbEntity
  8
A0
  6
CONTINUOUS
 62
3
100
AcDbLine
 10
267.0902979302565
 20
21.05190231093869
 30
0.0000000000000000
 11
267.0902979302565
 21
113.0519023110142
 31
0.0000000000000000
  0
LINE
  5
38C
100
AcDbEntity
  8
A0
  6
CONTINUOUS
 62
3
100
AcDbLine
 10
312.0902979302565
 20
21.05190231093869
 30
0.0000000000000000
 11
312.0902979302565
 21
123.5519023109437
 31
0.0000000000000000
  0
MTEXT
  5
38D
100
AcDbEntity
  8
A0
  6
CONTINUOUS
 62
3
100
AcDbMText
 10
195.8402979302582
 20
111.3269028831979
 30
0.0000000000000000
 40
4.650000572204590
 41
0.0000000000000000
 71
     1
 72
     1
  1
{\H0.94x;{許容最大ハンドルトルク}}
 11
1.000000000000000
 21
0.0000000000000000
 31
0.0000000000000000
  7
KNJYOKO
  0
MTEXT
  5
38E
100
AcDbEntity
  8
A0
  6
CONTINUOUS
 62
3
100
AcDbMText
 10
195.8402979302581
 20
96.32690288319341
 30
0.0000000000000000
 40
4.650000572204590
 41
0.0000000000000000
 71
     1
 72
     1
  1
{\H0.94x;{最大静的把握力}}
 11
1.000000000000000
 21
0.0000000000000000
 31
0.0000000000000000
  7
KNJYOKO
  0
MTEXT
  5
38F
100
AcDbEntity
  8
A0
  6
CONTINUOUS
 62
3
100
AcDbMText
 10
195.0902979302566
 20
64.70190288317750
 30
0.0000000000000000
 40
4.650000572204590
 41
0.0000000000000000
 71
     1
 72
     1
  1
{\H0.90x;{質量}}
 11
1.000000000000000
 21
0.0000000000000000
 31
0.0000000000000000
  7
KNJYOKO
  0
MTEXT
  5
390
100
AcDbEntity
  8
A0
  6
CONTINUOUS
 62
3
100
AcDbMText
 10
196.9422648953041
 20
40.28521617439125
 30
0.0000000000000000
 40
4.650000572204590
 41
0.0000000000000000
 71
     1
 72
     1
  1
{\H0.96x;{把握径}}
 11
1.000000000000000
 21
0.0000000000000000
 31
0.0000000000000000
  7
KNJYOKO
  0
MTEXT
  5
391
100
AcDbEntity
  8
A0
  6
CONTINUOUS
 62
3
100
AcDbMText
 10
200.5892989416568
 20
121.8503195031988
 30
0.0000000000000000
 40
7.500000000000000
 41
0.0000000000000000
 71
     1
 72
     1
  1
{\H0.91x;{仕　様}}
 11
1.000000000000000
 21
0.0000000000000000
 31
0.0000000000000000
  7
KNJYOKO
  0
MTEXT
  5
392
100
AcDbEntity
  8
A0
  6
CONTINUOUS
 62
3
100
AcDbMText
 10
289.5902979302565
 20
110.5019011665345
 30
0.0000000000000000
 40
4.199998855590820
 41
0.0000000000000000
 71
     1
 72
     1
  1
{\H0.58x;{　　　Ｎ・ｍ}}
 11
1.000000000000000
 21
0.0000000000000000
 31
0.0000000000000000
  7
KNJYOKO
  0
MTEXT
  5
393
100
AcDbEntity
  8
A0
  6
CONTINUOUS
 62
3
100
AcDbMText
 10
270.0902979302565
 20
103.7519011665345
 30
0.0000000000000000
 40
4.199998855590820
 41
0.0000000000000000
 71
     1
 72
     1
  1
{\H0.48x;{（}}
 11
1.000000000000000
 21
0.0000000000000000
 31
0.0000000000000000
  7
KNJYOKO
  0
MTEXT
  5
394
100
AcDbEntity
  8
A0
  6
CONTINUOUS
 62
3
100
AcDbMText
 10
288.0902979302565
 20
103.7519011665345
 30
0.0000000000000000
 40
4.199998855590820
 41
0.0000000000000000
 71
     1
 72
     1
  1
{\H0.58x;{　ｋｇｆ・ｍ）}}
 11
1.000000000000000
 21
0.0000000000000000
 31
0.0000000000000000
  7
KNJYOKO
  0
MTEXT
  5
395
100
AcDbEntity
  8
A0
  6
CONTINUOUS
 62
3
100
AcDbMText
 10
289.5902979302565
 20
64.25190116653428
 30
0.0000000000000000
 40
4.199998855590820
 41
0.0000000000000000
 71
     1
 72
     1
  1
{\H0.58x;{　　　　ｋｇ}}
 11
1.000000000000000
 21
0.0000000000000000
 31
0.0000000000000000
  7
KNJYOKO
  0
MTEXT
  5
396
100
AcDbEntity
  8
A0
  6
CONTINUOUS
 62
3
100
AcDbMText
 10
289.5902979302565
 20
95.50190116653431
 30
0.0000000000000000
 40
4.199998855590820
 41
0.0000000000000000
 71
     1
 72
     1
  1
{\H0.58x;{　　　　ｋＮ}}
 11
1.000000000000000
 21
0.0000000000000000
 31
0.0000000000000000
  7
KNJYOKO
  0
MTEXT
  5
397
100
AcDbEntity
  8
A0
  6
CONTINUOUS
 62
3
100
AcDbMText
 10
270.0902979302565
 20
88.75190116653431
 30
0.0000000000000000
 40
4.199998855590820
 41
0.0000000000000000
 71
     1
 72
     1
  1
{\H0.48x;{（}}
 11
1.000000000000000
 21
0.0000000000000000
 31
0.0000000000000000
  7
KNJYOKO
  0
MTEXT
  5
398
100
AcDbEntity
  8
A0
  6
CONTINUOUS
 62
3
100
AcDbMText
 10
288.0902979302565
 20
88.75190116653431
 30
0.0000000000000000
 40
4.199998855590820
 41
0.0000000000000000
 71
     1
 72
     1
  1
{\H0.58x;{　　　ｋｇｆ）}}
 11
1.000000000000000
 21
0.0000000000000000
 31
0.0000000000000000
  7
KNJYOKO
  0
MTEXT
  5
399
100
AcDbEntity
  8
A0
  6
CONTINUOUS
 62
3
100
AcDbMText
 10
239.3390089996232
 20
120.5199125522400
 30
0.0000000000000000
 40
4.649999856948853
 41
0.0000000000000000
 71
     1
 72
     1
  1
{\H0.93x;{SPECIFICATIONS}}
 11
1.000000000000000
 21
0.0000000000000000
 31
0.0000000000000000
  7
STANDARD
  0
MTEXT
  5
39A
100
AcDbEntity
  8
A0
  6
CONTINUOUS
 62
3
100
AcDbMText
 10
195.8402979302561
 20
103.6769023109833
 30
0.0000000000000000
 40
3.750000000000000
 41
0.0000000000000000
 71
     1
 72
     1
  1
{\H0.62x;{MAX.PERMISSIBLE HANDLE TORQUE}}
 11
1.000000000000000
 21
0.0000000000000000
 31
0.0000000000000000
  7
STANDARD
  0
MTEXT
  5
39B
100
AcDbEntity
  8
A0
  6
CONTINUOUS
 62
3
100
AcDbMText
 10
195.8402979302560
 20
88.67690231097893
 30
0.0000000000000000
 40
3.750000000000000
 41
0.0000000000000000
 71
     1
 72
     1
  1
{\H0.63x;{MAX STATIC GRIPPING FORCE}}
 11
1.000000000000000
 21
0.0000000000000000
 31
0.0000000000000000
  7
STANDARD
  0
MTEXT
  5
39C
100
AcDbEntity
  8
A0
  6
CONTINUOUS
 62
3
100
AcDbMText
 10
195.8402979302560
 20
73.17690231097586
 30
0.0000000000000000
 40
3.750000000000000
 41
0.0000000000000000
 71
     1
 72
     1
  1
{\H0.63x;{MAX PREMISSIBLE SPEED}}
 11
1.000000000000000
 21
0.0000000000000000
 31
0.0000000000000000
  7
STANDARD
  0
MTEXT
  5
39D
100
AcDbEntity
  8
A0
  6
CONTINUOUS
 62
3
100
AcDbMText
 10
193.1432732606307
 20
32.69898940202089
 30
0.0000000000000000
 40
3.750000000000000
 41
0.0000000000000000
 71
     1
 72
     1
  1
{\H0.54x;{GRIPPING RANGE}}
 11
1.000000000000000
 21
0.0000000000000000
 31
0.0000000000000000
  7
STANDARD
  0
MTEXT
  5
39E
100
AcDbEntity
  8
A0
  6
CONTINUOUS
 62
3
100
AcDbMText
 10
220.4437848133051
 20
64.77508464724085
 30
0.0000000000000000
 40
4.650000572204590
 41
0.0000000000000000
 71
     1
 72
     1
  1
{\H0.91x;{MASS}}
 11
1.000000000000000
 21
0.0000000000000000
 31
0.0000000000000000
  7
STANDARD
  0
MTEXT
  5
39F
100
AcDbEntity
  8
A0
  6
CONTINUOUS
 62
3
100
AcDbMText
 10
292.5902979302566
 20
76.75190116653431
 30
0.0000000000000000
 40
4.199998855590820
 41
0.0000000000000000
 71
     1
 72
     1
  1
{\H0.57x;{　ｍｉｎ}}
 11
1.000000000000000
 21
0.0000000000000000
 31
0.0000000000000000
  7
KNJYOKO
  0
MTEXT
  5
3A0
100
AcDbEntity
  8
A0
  6
CONTINUOUS
 62
3
100
AcDbMText
 10
304.8223003027364
 20
77.75621799587646
 30
0.0000000000000000
 40
3.000000000000000
 41
0.0000000000000000
 71
     1
 72
     1
  1
{\H0.88x;{-1}}
 11
1.000000000000000
 21
0.0000000000000000
 31
0.0000000000000000
  7
STANDARD
  0
MTEXT
  5
3A1
100
AcDbEntity
  8
A0
  6
CONTINUOUS
 62
3
100
AcDbMText
 10
270.0902979302565
 20
53.45190216789230
 30
0.0000000000000000
 40
4.649999856948853
 41
0.0000000000000000
 71
     1
 72
     1
  1
{\H0.84x;{0.004}}
 11
1.000000000000000
 21
0.0000000000000000
 31
0.0000000000000000
  7
STANDARD
  0
MTEXT
  5
3A2
100
AcDbEntity
  8
A0
  6
CONTINUOUS
 62
3
100
AcDbMText
 10
289.5902979302565
 20
53.00190116653427
 30
0.0000000000000000
 40
4.199998855590820
 41
0.0000000000000000
 71
     1
 72
     1
  1
{\H0.64x;{　　kg・m}}
 11
1.000000000000000
 21
0.0000000000000000
 31
0.0000000000000000
  7
KNJYOKO
  0
MTEXT
  5
3A3
100
AcDbEntity
  8
A0
  6
CONTINUOUS
 62
3
100
AcDbMText
 10
307.4561168921917
 20
53.38525705323197
 30
0.0000000000000000
 40
3.000000000000000
 41
0.0000000000000000
 71
     1
 72
     1
  1
{\H0.81x;{2}}
 11
1.000000000000000
 21
0.0000000000000000
 31
0.0000000000000000
  7
STANDARD
  0
MTEXT
  5
3A4
100
AcDbEntity
  8
A0
  6
CONTINUOUS
 62
3
100
AcDbMText
 10
195.8402979302581
 20
55.32690288318302
 30
0.0000000000000000
 40
4.650000572204590
 41
0.0000000000000000
 71
     1
 72
     1
  1
{\H0.94x;{慣性モーメント}}
 11
1.000000000000000
 21
0.0000000000000000
 31
0.0000000000000000
  7
KNJYOKO
  0
MTEXT
  5
3A5
100
AcDbEntity
  8
A0
  6
CONTINUOUS
 62
3
100
AcDbMText
 10
195.8402979302560
 20
47.67690231096854
 30
0.0000000000000000
 40
3.750000000000000
 41
0.0000000000000000
 71
     1
 72
     1
  1
{\H0.63x;{MOMENT OF INERTIA}}
 11
1.000000000000000
 21
0.0000000000000000
 31
0.0000000000000000
  7
STANDARD
  0
MTEXT
  5
3A6
100
AcDbEntity
  8
A0
  6
CONTINUOUS
 62
3
100
AcDbMText
 10
270.0902979302131
 20
39.20190216788743
 30
0.0000000000000000
 40
4.649999856948853
 41
0.0000000000000000
 71
     1
 72
     1
  1
{\H0.93x;{\U+22053～\U+220595}}
 11
1.000000000000000
 21
0.0000000000000000
 31
0.0000000000000000
  7
KNJYOKO
  0
MTEXT
  5
3A7
100
AcDbEntity
  8
A0
  6
CONTINUOUS
 62
3
100
AcDbMText
 10
270.0902979302131
 20
28.70190216788743
 30
0.0000000000000000
 40
4.649999856948853
 41
0.0000000000000000
 71
     1
 72
     1
  1
{\H0.93x;{\U+220529～\U+220584}}
 11
1.000000000000000
 21
0.0000000000000000
 31
0.0000000000000000
  7
KNJYOKO
  0
LINE
  5
3A8
100
AcDbEntity
  8
WAKU0
  6
CONTINUOUS
 62
3
100
AcDbLine
 10
322.5706113735000
 20
22.78248663186714
 30
0.0000000000000000
 11
492.5706113735000
 21
22.78248663186714
 31
0.0000000000000000
  0
LINE
  5
3A9
100
AcDbEntity
  8
WAKU0
  6
CONTINUOUS
 62
3
100
AcDbLine
 10
322.5706113735000
 20
22.78248663186714
 30
0.0000000000000000
 11
322.5706113735000
 21
-16.21751336813286
 31
0.0000000000000000
  0
LINE
  5
3AA
100
AcDbEntity
  8
WAKU0
  6
CONTINUOUS
 62
3
100
AcDbLine
 10
394.5706113735000
 20
22.78248663186714
 30
0.0000000000000000
 11
394.5706113735000
 21
-16.21751336813286
 31
0.0000000000000000
  0
LINE
  5
3AB
100
AcDbEntity
  8
WAKU0
  6
CONTINUOUS
 62
3
100
AcDbLine
 10
414.5706113735000
 20
22.78248663186714
 30
0.0000000000000000
 11
414.5706113735000
 21
-16.21751336813286
 31
0.0000000000000000
  0
LINE
  5
3AC
100
AcDbEntity
  8
WAKU0
  6
CONTINUOUS
 62
3
100
AcDbLine
 10
426.5706113735000
 20
22.78248663186714
 30
0.0000000000000000
 11
426.5706113735000
 21
-16.21751336813286
 31
0.0000000000000000
  0
LINE
  5
3AD
100
AcDbEntity
  8
WAKU0
  6
CONTINUOUS
 62
3
100
AcDbLine
 10
426.5706113735000
 20
8.782486631867144
 30
0.0000000000000000
 11
492.5706113735000
 21
8.782486631867144
 31
0.0000000000000000
  0
LINE
  5
3AE
100
AcDbEntity
  8
WAKU0
  6
CONTINUOUS
 62
3
100
AcDbLine
 10
414.5706113735000
 20
-5.217513368132856
 30
0.0000000000000000
 11
492.5706113735000
 21
-5.217513368132856
 31
0.0000000000000000
  0
LINE
  5
3AF
100
AcDbEntity
  8
WAKU0
  6
CONTINUOUS
 62
3
100
AcDbLine
 10
457.5706113735000
 20
22.78248663186714
 30
0.0000000000000000
 11
457.5706113735000
 21
15.78248663186714
 31
0.0000000000000000
  0
LINE
  5
3B0
100
AcDbEntity
  8
WAKU0
  6
CONTINUOUS
 62
3
100
AcDbLine
 10
469.5706113735000
 20
22.78248663186714
 30
0.0000000000000000
 11
469.5706113735000
 21
15.78248663186714
 31
0.0000000000000000
  0
LINE
  5
3B1
100
AcDbEntity
  8
WAKU0
  6
CONTINUOUS
 62
3
100
AcDbLine
 10
394.5706113735000
 20
3.282486631867144
 30
0.0000000000000000
 11
414.5706113735000
 21
3.282486631867144
 31
0.0000000000000000
  0
LINE
  5
3B2
100
AcDbEntity
  8
WAKU0
  6
CONTINUOUS
 62
3
100
AcDbLine
 10
414.5706113735000
 20
15.78248663186714
 30
0.0000000000000000
 11
492.5706113735000
 21
15.78248663186714
 31
0.0000000000000000
  0
LINE
  5
3B3
100
AcDbEntity
  8
WAKU0
  6
CONTINUOUS
 62
3
100
AcDbLine
 10
322.5706113735000
 20
8.782486631867144
 30
0.0000000000000000
 11
394.5706113735000
 21
8.782486631867144
 31
0.0000000000000000
  0
LINE
  5
3B4
100
AcDbEntity
  8
WAKU0
  6
CONTINUOUS
 62
3
100
AcDbLine
 10
322.5706113735000
 20
-5.217513368132856
 30
0.0000000000000000
 11
394.5706113735000
 21
-5.217513368132856
 31
0.0000000000000000
  0
LINE
  5
3B5
100
AcDbEntity
  8
WAKU0
  6
CONTINUOUS
 62
3
100
AcDbLine
 10
370.5706113735000
 20
8.782486631867144
 30
0.0000000000000000
 11
370.5706113735000
 21
-16.21751336813286
 31
0.0000000000000000
  0
LINE
  5
3B6
100
AcDbEntity
  8
WAKU0
  6
CONTINUOUS
 62
3
100
AcDbLine
 10
346.5706113735000
 20
8.782486631867144
 30
0.0000000000000000
 11
346.5706113735000
 21
-5.217513368132856
 31
0.0000000000000000
  0
LINE
  5
3B7
100
AcDbEntity
  8
WAKU0
  6
CONTINUOUS
 62
3
100
AcDbLine
 10
382.5706113735000
 20
-2.217513368132856
 30
0.0000000000000000
 11
382.5706113735000
 21
-5.217513368132856
 31
0.0000000000000000
  0
LINE
  5
3B8
100
AcDbEntity
  8
WAKU0
  6
CONTINUOUS
 62
3
100
AcDbLine
 10
358.5706113735000
 20
-2.217513368132856
 30
0.0000000000000000
 11
358.5706113735000
 21
-5.217513368132856
 31
0.0000000000000000
  0
LINE
  5
3B9
100
AcDbEntity
  8
WAKU0
  6
CONTINUOUS
 62
3
100
AcDbLine
 10
334.5706113735000
 20
-2.217513368132856
 30
0.0000000000000000
 11
334.5706113735000
 21
-5.217513368132856
 31
0.0000000000000000
  0
LINE
  5
3BA
100
AcDbEntity
  8
WAKU0
  6
CONTINUOUS
 62
3
100
AcDbLine
 10
340.5706113735000
 20
22.78248663186714
 30
0.0000000000000000
 11
340.5706113735000
 21
8.782486631867144
 31
0.0000000000000000
  0
LINE
  5
3BB
100
AcDbEntity
  8
WAKU0
  6
CONTINUOUS
 62
3
100
AcDbLine
 10
322.5706113735000
 20
16.78248663186714
 30
0.0000000000000000
 11
394.5706113735000
 21
16.78248663186714
 31
0.0000000000000000
  0
LINE
  5
3BC
100
AcDbEntity
  8
WAKU0
  6
HIDDEN
 62
3
100
AcDbLine
 10
443.0706113735000
 20
-5.217513368132856
 30
0.0000000000000000
 11
443.0706113735000
 21
-16.21751336813286
 31
0.0000000000000000
  0
LINE
  5
3BD
100
AcDbEntity
  8
WAKU0
  6
HIDDEN
 62
3
100
AcDbLine
 10
455.4706113734999
 20
-5.217513368132856
 30
0.0000000000000000
 11
455.4706113734999
 21
-16.21751336813286
 31
0.0000000000000000
  0
MTEXT
  5
3BE
100
AcDbEntity
  8
WAKU0
  6
CONTINUOUS
 62
3
100
AcDbMText
 10
427.0526113978485
 20
20.83248658418343
 30
0.0000000000000000
 40
3.099999904632568
 41
0.0000000000000000
 71
     1
 72
     1
  1
{\H0.93x;{SC-4-105}}
 11
1.000000000000000
 21
0.0000000000000000
 31
0.0000000000000000
  7
STANDARD
  0
MTEXT
  5
3BF
100
AcDbEntity
  8
WAKU0
  6
CONTINUOUS
 62
3
100
AcDbMText
 10
427.1206113556186
 20
13.83248658418343
 30
0.0000000000000000
 40
3.099999904632568
 41
0.0000000000000000
 71
     1
 72
     1
  1
{\H0.71x;{スクロールチャック　　ＳＣＲＯＬＬ　ＣＨＵＣＫ　４}}
 11
1.000000000000000
 21
0.0000000000000000
 31
0.0000000000000000
  7
KNJYOKO
  0
MTEXT
  5
3C0
100
AcDbEntity
  8
WAKU0
  6
CONTINUOUS
 62
3
100
AcDbMText
 10
437.1406108597079
 20
6.015819901622187
 30
0.0000000000000000
 40
3.099999904632568
 41
0.0000000000000000
 71
     1
 72
     1
  1
{\H0.94x;{ＳＣ－４－１０５　ガイケイ\PＯＵＴＳＩＤＥ　ＶＩＥＷ}}
 11
1.000000000000000
 21
0.0000000000000000
 31
0.0000000000000000
  7
KNJYOKO
  0
MTEXT
  5
3C1
100
AcDbEntity
  8
WAKU0
  6
CONTINUOUS
 62
3
100
AcDbMText
 10
400.5756112495223
 20
11.08248658418343
 30
0.0000000000000000
 40
3.099999904632568
 41
0.0000000000000000
 71
     1
 72
     1
  1
{\H0.90x;{1:1}}
 11
1.000000000000000
 21
0.0000000000000000
 31
0.0000000000000000
  7
STANDARD
  0
MTEXT
  5
3C2
100
AcDbEntity
  8
WAKU0
  6
CONTINUOUS
 62
3
100
AcDbMText
 10
456.9706115284720
 20
-8.067513272765424
 30
0.0000000000000000
 40
5.300000190734863
 41
0.0000000000000000
 71
     1
 72
     1
  1
{\H0.90x;{1526}}
 11
1.000000000000000
 21
0.0000000000000000
 31
0.0000000000000000
  7
STANDARD
  0
MTEXT
  5
3C3
100
AcDbEntity
  8
WAKU0
  6
CONTINUOUS
 62
3
100
AcDbMText
 10
444.8706114569465
 20
-8.067513272765424
 30
0.0000000000000000
 40
5.300000190734863
 41
0.0000000000000000
 71
     1
 72
     1
  1
{\H0.87x;{35}}
 11
1.000000000000000
 21
0.0000000000000000
 31
0.0000000000000000
  7
STANDARD
  0
MTEXT
  5
3C4
100
AcDbEntity
  8
WAKU0
  6
CONTINUOUS
 62
3
100
AcDbMText
 10
428.0706114927093
 20
-8.067513272765424
 30
0.0000000000000000
 40
5.300000190734863
 41
0.0000000000000000
 71
     1
 72
     1
  1
{\H0.89x;{61S}}
 11
1.000000000000000
 21
0.0000000000000000
 31
0.0000000000000000
  7
STANDARD
  0
MTEXT
  5
3C5
100
AcDbEntity
  8
WAKU0
  6
CONTINUOUS
 62
3
100
AcDbMText
 10
482.5706114211837
 20
-8.067513272765424
 30
0.0000000000000000
 40
5.300000190734863
 41
0.0000000000000000
 71
     1
 72
     1
  1
{\H0.81x;{2}}
 11
1.000000000000000
 21
0.0000000000000000
 31
0.0000000000000000
  7
STANDARD
  0
MTEXT
  5
3C6
100
AcDbEntity
  8
WAKU0
  6
CONTINUOUS
 62
3
100
AcDbMText
 10
482.5706114554563
 20
16.63248653649971
 30
0.0000000000000000
 40
5.300000190734863
 41
0.0000000000000000
 71
     7
 72
     1
  1
{\H0.81x;{ }}
 11
1.000000000000000
 21
0.0000000000000000
 31
0.0000000000000000
  7
STANDARD
  0
MTEXT
  5
3C7
100
AcDbEntity
  8
WAKU0
  6
CONTINUOUS
 62
3
100
AcDbMText
 10
371.9556116619864
 20
4.782486631867144
 30
0.0000000000000000
 40
3.000000000000000
 41
0.0000000000000000
 71
     7
 72
     1
  1
{\H0.93x;{DRAWN BY}}
 11
1.000000000000000
 21
0.0000000000000000
 31
0.0000000000000000
  7
STANDARD
  0
MTEXT
  5
3C8
100
AcDbEntity
  8
WAKU0
  6
CONTINUOUS
 62
3
100
AcDbMText
 10
351.7856111684600
 20
4.732486679550860
 30
0.0000000000000000
 40
3.099999904632568
 41
0.0000000000000000
 71
     7
 72
     1
  1
{\H0.92x;{CHIEF}}
 11
1.000000000000000
 21
0.0000000000000000
 31
0.0000000000000000
  7
STANDARD
  0
MTEXT
  5
3C9
100
AcDbEntity
  8
WAKU0
  6
CONTINUOUS
 62
3
100
AcDbMText
 10
324.9956110873977
 20
4.732486679550860
 30
0.0000000000000000
 40
3.099999904632568
 41
0.0000000000000000
 71
     7
 72
     1
  1
{\H0.92x;{MANAGER}}
 11
1.000000000000000
 21
0.0000000000000000
 31
0.0000000000000000
  7
STANDARD
  0
MTEXT
  5
3CA
100
AcDbEntity
  8
WAKU0
  6
CONTINUOUS
 62
3
100
AcDbMText
 10
327.2306108036796
 20
-10.08418000301038
 30
0.0000000000000000
 40
3.099999904632568
 41
0.0000000000000000
 71
     7
 72
     1
  1
{\H0.93x;{KITAGAWA IRON\PWORKS CO.,LTD.}}
 11
1.000000000000000
 21
0.0000000000000000
 31
0.0000000000000000
  7
STANDARD
  0
MTEXT
  5
3CB
100
AcDbEntity
  8
WAKU0
  6
CONTINUOUS
 62
3
100
AcDbMText
 10
323.6556115904609
 20
18.28248663186714
 30
0.0000000000000000
 40
3.000000000000000
 41
0.0000000000000000
 71
     7
 72
     1
  1
{\H0.92x;{CAREER}}
 11
1.000000000000000
 21
0.0000000000000000
 31
0.0000000000000000
  7
STANDARD
  0
MTEXT
  5
3CC
100
AcDbEntity
  8
WAKU0
  6
CONTINUOUS
 62
3
100
AcDbMText
 10
377.1806112089911
 20
-9.267513320449140
 30
0.0000000000000000
 40
3.099999904632568
 41
0.0000000000000000
 71
     7
 72
     1
  1
{\H0.91x;{DATE}}
 11
1.000000000000000
 21
0.0000000000000000
 31
0.0000000000000000
  7
STANDARD
  0
MTEXT
  5
3CD
100
AcDbEntity
  8
WAKU0
  6
CONTINUOUS
 62
3
100
AcDbMText
 10
396.4706115880767
 20
-1.717513368132856
 30
0.0000000000000000
 40
3.000000000000000
 41
0.0000000000000000
 71
     7
 72
     1
  1
{\H0.63x;{3RD ANGLE}}
 11
1.000000000000000
 21
0.0000000000000000
 31
0.0000000000000000
  7
STANDARD
  0
MTEXT
  5
3CE
100
AcDbEntity
  8
WAKU0
  6
CONTINUOUS
 62
3
100
AcDbMText
 10
397.7856111684600
 20
17.73248667955086
 30
0.0000000000000000
 40
3.099999904632568
 41
0.0000000000000000
 71
     7
 72
     1
  1
{\H0.92x;{SCALE}}
 11
1.000000000000000
 21
0.0000000000000000
 31
0.0000000000000000
  7
STANDARD
  0
MTEXT
  5
3CF
100
AcDbEntity
  8
WAKU0
  6
CONTINUOUS
 62
3
100
AcDbMText
 10
488.2706114211837
 20
17.78248663186714
 30
0.0000000000000000
 40
3.000000000000000
 41
0.0000000000000000
 71
     7
 72
     1
  1
{\H0.63x;{kg}}
 11
1.000000000000000
 21
0.0000000000000000
 31
0.0000000000000000
  7
STANDARD
  0
MTEXT
  5
3D0
100
AcDbEntity
  8
WAKU0
  6
CONTINUOUS
 62
3
100
AcDbMText
 10
458.1706115165511
 20
17.78248663186714
 30
0.0000000000000000
 40
3.000000000000000
 41
0.0000000000000000
 71
     7
 72
     1
  1
{\H0.63x;{WEIGHT}}
 11
1.000000000000000
 21
0.0000000000000000
 31
0.0000000000000000
  7
STANDARD
  0
MTEXT
  5
3D1
100
AcDbEntity
  8
WAKU0
  6
CONTINUOUS
 62
3
100
AcDbMText
 10
416.5756112495223
 20
-10.08418000301038
 30
0.0000000000000000
 40
3.099999904632568
 41
0.0000000000000000
 71
     7
 72
     1
  1
{\H0.90x;{DRW\PNO.}}
 11
1.000000000000000
 21
0.0000000000000000
 31
0.0000000000000000
  7
STANDARD
  0
MTEXT
  5
3D2
100
AcDbEntity
  8
WAKU0
  6
CONTINUOUS
 62
3
100
AcDbMText
 10
415.1806112089911
 20
3.732486679550860
 30
0.0000000000000000
 40
3.099999904632568
 41
0.0000000000000000
 71
     7
 72
     1
  1
{\H0.91x;{NAME}}
 11
1.000000000000000
 21
0.0000000000000000
 31
0.0000000000000000
  7
STANDARD
  0
MTEXT
  5
3D3
100
AcDbEntity
  8
WAKU0
  6
CONTINUOUS
 62
3
100
AcDbMText
 10
415.1806112089911
 20
17.73248667955086
 30
0.0000000000000000
 40
3.099999904632568
 41
0.0000000000000000
 71
     7
 72
     1
  1
{\H0.91x;{TYPE}}
 11
1.000000000000000
 21
0.0000000000000000
 31
0.0000000000000000
  7
STANDARD
  0
LINE
  5
3D4
100
AcDbEntity
  8
WAKU0
  6
HIDDEN
 62
3
100
AcDbLine
 10
489.7305678478884
 20
-14.36751346350029
 30
0.0000000000000000
 11
479.5106549944789
 21
-14.36751346350029
 31
0.0000000000000000
  0
LINE
  5
3D5
100
AcDbEntity
  8
WAKU0
  6
HIDDEN
 62
3
100
AcDbLine
 10
489.7305678478884
 20
-14.36751346350036
 30
0.0000000000000000
 11
484.6206114211851
 21
-5.516809307983845
 31
0.0000000000000000
  0
LINE
  5
3D6
100
AcDbEntity
  8
WAKU0
  6
HIDDEN
 62
3
100
AcDbLine
 10
484.6206114211851
 20
-5.516809307983841
 30
0.0000000000000000
 11
479.5106549944788
 21
-14.36751346350037
 31
0.0000000000000000
  0
LINE
  5
3D7
100
AcDbEntity
  8
WAKU0
  6
CONTINUOUS
 62
3
100
AcDbLine
 10
413.0419991488799
 20
-12.43709915550473
 30
0.0000000000000000
 11
413.0419991488799
 21
-6.437099155504711
 31
0.0000000000000000
  0
LINE
  5
3D8
100
AcDbEntity
  8
WAKU0
  6
CONTINUOUS
 62
3
100
AcDbLine
 10
406.5043054963224
 20
-10.93709915550475
 30
0.0000000000000000
 11
406.5043054963224
 21
-7.937099155504612
 31
0.0000000000000000
  0
LINE
  5
3D9
100
AcDbEntity
  8
WAKU0
  6
CENTER
 62
12
100
AcDbLine
 10
396.0027919249995
 20
-9.437099155504725
 30
0.0000000000000000
 11
413.8471902699694
 21
-9.437099155504725
 31
0.0000000000000000
  0
LINE
  5
3DA
100
AcDbEntity
  8
WAKU0
  6
CENTER
 62
12
100
AcDbLine
 10
400.0180679592986
 20
-13.65829673894837
 30
0.0000000000000000
 11
400.0180679592986
 21
-5.318862346633424
 31
0.0000000000000000
  0
LINE
  5
3DB
100
AcDbEntity
  8
WAKU0
  6
CONTINUOUS
 62
3
100
AcDbLine
 10
406.5043054963225
 20
-7.937099155504882
 30
0.0000000000000000
 11
413.0419991488800
 21
-6.437099155504910
 31
0.0000000000000000
  0
LINE
  5
3DC
100
AcDbEntity
  8
WAKU0
  6
CONTINUOUS
 62
3
100
AcDbLine
 10
406.5043054963225
 20
-10.93709915550474
 30
0.0000000000000000
 11
413.0419991488799
 21
-12.43709915550474
 31
0.0000000000000000
  0
CIRCLE
  5
3DD
100
AcDbEntity
  8
WAKU0
  6
CONTINUOUS
 62
3
100
AcDbCircle
 10
400.0180679592986
 20
-9.437099155504722
 30
0.0000000000000000
 40
1.499999999999972
  0
CIRCLE
  5
3DE
100
AcDbEntity
  8
WAKU0
  6
CONTINUOUS
 62
3
100
AcDbCircle
 10
400.0180679592986
 20
-9.437099155504722
 30
0.0000000000000000
 40
2.999999999999979
  0
ENDSEC
  0
SECTION
  2
OBJECTS
  0
DICTIONARY
  5
434
100
AcDbDictionary
  3
ACAD_GROUP
350
435
  3
ACAD_MLINESTYLE
350
436
  3
DWGPROPS
350
437
  0
DICTIONARY
  5
435
102
{ACAD_REACTORS
330
434
102
}
100
AcDbDictionary
  0
DICTIONARY
  5
436
102
{ACAD_REACTORS
330
434
102
}
100
AcDbDictionary
  3
STANDARD
350
438
  0
MLINESTYLE
  5
438
102
{ACAD_REACTORS
330
436
102
}
100
AcDbMlineStyle
  2
STANDARD
 70
     0
  3

 62
   256
 51
90.00
 52
90.00
 71
     2
 49
0.50
 62
   256
  6
BYLAYER
 49
-0.50
 62
   256
  6
BYLAYER
  0
XRECORD
  5
437
102
{ACAD_REACTORS
330
434
102
}
100
AcDbXrecord
280
     1
  1
DWGPROPS COOKIE
  2
ＳＣ－４－１０５　ガイケイ
  3

  4

  6
スクロールチャック　４
  7

  8

  9

300
=
301
=
302
=
303
=
304
=
305
=
306
=
307
=
308
=
309
=
 40
0.000000
 41
0.000000
 42
0.000000
  1

 90
        0
  0
ENDSEC
  0
EOF
