  0
SECTION
  2
HEADER
  9
$ACADVER
  1
AC1014
  9
$DWGCODEPAGE
  3
ANSI_932
  9
$LTSCALE
 40
20.0
  9
$FILLMODE
 70
     1
  9
$CLAYER
  8
0
  9
$PDMODE
 70
     0
  9
$SPLFRAME
 70
     0
  9
$SPLINETYPE
 70
     6
  9
$SPLINESEGS
 70
     8
  9
$DIMASZ
 40
2.000000
  9
$DIMEXE
 40
2.000000
  9
$DIMEXO
 40
0.800000
  9
$DIMTAD
 70
     1
  9
$DIMTIH
 70
     0
  9
$DIMTOH
 70
     0
  9
$DIMTVP
 40
0.500000
  9
$DIMTXT
 40
3.100000
  9
$EXTMIN
 10
0.000000
 20
0.000000
 30
0.000000
  9
$EXTMAX
 10
297.000000
 20
420.000000
 30
0.000000
  9
$MEASUREMENT
 70
  1
  9
$LIMMIN
 10
0.000000
 20
0.000000
  9
$LIMMAX
 10
297.000000
 20
420.000000
  9
$HANDLING
 70
     1
  9
$HANDSEED
  5
4BE
  9
$DIMBLK
  1
_OPEN
  9
$DIMDEC
 70
     3
  9
$DIMAUNIT
 70
     1
  9
$DIMZIN
 70
     8
  9
$DIMTOFL
 70
     1
  0
ENDSEC
  0
SECTION
  2
CLASSES
  0
ENDSEC
  0
SECTION
  2
TABLES
  0
TABLE
  2
VPORT
  5
460
100
AcDbSymbolTable
 70
     1
  0
VPORT
  5
461
100
AcDbSymbolTableRecord
100
AcDbViewportTableRecord
  2
*ACTIVE
 70
     0
 12
265.414823
 22
130.095810
 40
336.471279
 41
1.367855
  0
ENDTAB
  0
TABLE
  2
LTYPE
  5
462
100
AcDbSymbolTable
 70
     4
  0
LTYPE
  5
463
100
AcDbSymbolTableRecord
100
AcDbLinetypeTableRecord
  2
BYBLOCK
 70
     0
  3

 72
    65
 73
     0
 40
0.0
  0
LTYPE
  5
464
100
AcDbSymbolTableRecord
100
AcDbLinetypeTableRecord
  2
BYLAYER
 70
     0
  3

 72
    65
 73
     0
 40
0.0
  0
LTYPE
  5
465
100
AcDbSymbolTableRecord
100
AcDbLinetypeTableRecord
  2
CONTINUOUS
 70
     0
  3
Solid line (NEC CAE2D for Win R12.1 : 2019.02.19)
 72
    65
 73
     0
 40
0.0
  0
LTYPE
  5
466
100
AcDbSymbolTableRecord
100
AcDbLinetypeTableRecord
  2
HIDDEN
 70
     0
  3
__ __ __ __ __ __ __ __ __ __ __ __ __ __
 72
    65
 73
     2
 40
0.375
 49
0.25
 74
     0
 49
-0.125
 74
     0
  0
LTYPE
  5
467
100
AcDbSymbolTableRecord
100
AcDbLinetypeTableRecord
  2
CENTER
 70
     0
  3
____ _ ____ _ ____ _ ____ _ ____ _ ____
 72
    65
 73
     4
 40
2.0
 49
1.25
 74
     0
 49
-0.25
 74
     0
 49
0.25
 74
     0
 49
-0.25
 74
     0
  0
LTYPE
  5
468
100
AcDbSymbolTableRecord
100
AcDbLinetypeTableRecord
  2
PHANTOM
 70
     0
  3
______  __  __  ______  __  __  ______ 
 72
    65
 73
     6
 40
2.5
 49
1.25
 74
     0
 49
-0.25
 74
     0
 49
0.25
 74
     0
 49
-0.25
 74
     0
 49
0.25
 74
     0
 49
-0.25
 74
     0
  0
ENDTAB
  0
TABLE
  2
LAYER
  5
469
100
AcDbSymbolTable
 70
    14
  0
LAYER
  5
46A
100
AcDbSymbolTableRecord
100
AcDbLayerTableRecord
  2
0
 70
     0
 62
     7
  6
CONTINUOUS
  0
LAYER
  5
46B
100
AcDbSymbolTableRecord
100
AcDbLayerTableRecord
  2
MAIN0
 70
     0
 62
     7
  6
CONTINUOUS
  0
LAYER
  5
46C
100
AcDbSymbolTableRecord
100
AcDbLayerTableRecord
  2
MAIN1
 70
     0
 62
     7
  6
CONTINUOUS
  0
LAYER
  5
46D
100
AcDbSymbolTableRecord
100
AcDbLayerTableRecord
  2
MAIN2
 70
     0
 62
     7
  6
CONTINUOUS
  0
LAYER
  5
46E
100
AcDbSymbolTableRecord
100
AcDbLayerTableRecord
  2
MAIN3
 70
     0
 62
     7
  6
CONTINUOUS
  0
LAYER
  5
46F
100
AcDbSymbolTableRecord
100
AcDbLayerTableRecord
  2
MAIN4
 70
     0
 62
     7
  6
CONTINUOUS
  0
LAYER
  5
470
100
AcDbSymbolTableRecord
100
AcDbLayerTableRecord
  2
MAIN1023
 70
     0
 62
    16
  6
CONTINUOUS
  0
LAYER
  5
471
100
AcDbSymbolTableRecord
100
AcDbLayerTableRecord
  2
A0
 70
     0
 62
     7
  6
CONTINUOUS
  0
LAYER
  5
472
100
AcDbSymbolTableRecord
100
AcDbLayerTableRecord
  2
A1
 70
     0
 62
     7
  6
CONTINUOUS
  0
LAYER
  5
473
100
AcDbSymbolTableRecord
100
AcDbLayerTableRecord
  2
A2
 70
     0
 62
     7
  6
CONTINUOUS
  0
LAYER
  5
474
100
AcDbSymbolTableRecord
100
AcDbLayerTableRecord
  2
A1023
 70
     0
 62
    16
  6
CONTINUOUS
  0
LAYER
  5
475
100
AcDbSymbolTableRecord
100
AcDbLayerTableRecord
  2
WAKU0
 70
     0
 62
     7
  6
CONTINUOUS
  0
LAYER
  5
476
100
AcDbSymbolTableRecord
100
AcDbLayerTableRecord
  2
WAKU2
 70
     0
 62
     7
  6
CONTINUOUS
  0
LAYER
  5
477
100
AcDbSymbolTableRecord
100
AcDbLayerTableRecord
  2
WAKU1023
 70
     0
 62
    16
  6
CONTINUOUS
  0
ENDTAB
  0
TABLE
  2
STYLE
  5
478
100
AcDbSymbolTable
 70
     4
  0
STYLE
  5
479
100
AcDbSymbolTableRecord
100
AcDbTextStyleTableRecord
  2
STANDARD
 70
    64
 40
0.0
 41
1.0
 50
0.0
 71
     0
 42
3.099999904632568
  3
TXT
  4

  0
STYLE
  5
47A
100
AcDbSymbolTableRecord
100
AcDbTextStyleTableRecord
  2
ANKTATE
 70
    68
 40
0.0
 41
1.0
 50
0.0
 71
     0
 42
3.099999904632568
  3
TXT
  4

  0
STYLE
  5
279
100
AcDbSymbolTableRecord
100
AcDbTextStyleTableRecord
  2
KNJYOKO
 70
    64
 40
0.0
 41
1.0
 50
0.0
 71
     0
 42
3.099999904632568
  3
TXT
  4
BIGFONT
  0
STYLE
  5
47B
100
AcDbSymbolTableRecord
100
AcDbTextStyleTableRecord
  2
KNJTATE
 70
    68
 40
0.0
 41
1.0
 50
0.0
 71
     0
 42
3.099999904632568
  3
TXT
  4
BIGFONT
  0
ENDTAB
  0
TABLE
  2
VIEW
  5
47C
100
AcDbSymbolTable
 70
     0
  0
ENDTAB
  0
TABLE
  2
UCS
  5
47D
100
AcDbSymbolTable
 70
     0
  0
ENDTAB
  0
TABLE
  2
APPID
  5
47E
100
AcDbSymbolTable
 70
     1
  0
APPID
  5
47F
100
AcDbSymbolTableRecord
100
AcDbRegAppTableRecord
  2
ACAD
 70
     0
  0
ENDTAB
  0
TABLE
  2
DIMSTYLE
  5
480
100
AcDbSymbolTable
 70
     1
  0
DIMSTYLE
105
481
100
AcDbSymbolTableRecord
100
AcDbDimStyleTableRecord
  2
STANDARD
 70
     0
 41
2.000000
 44
2.000000
 42
0.800000
145
0.661290
140
3.100000
144
1.000000
146
0.903226
340
479
  0
DIMSTYLE
105
482
100
AcDbSymbolTableRecord
100
AcDbDimStyleTableRecord
  2
MAIN001
 70
     0
 41
2.000000
 44
2.000000
 42
0.800000
145
0.661290
140
3.100000
144
1.000000
146
0.903226
 77
     1
 73
     0
 74
     0
271
     3
275
     1
 78
     8
172
     1
340
479
  0
DIMSTYLE
105
483
100
AcDbSymbolTableRecord
100
AcDbDimStyleTableRecord
  2
A002
 70
     0
 41
3.000000
 44
3.000000
 42
1.200000
145
0.607527
140
4.650000
144
1.000000
146
0.903226
 77
     1
 73
     0
 74
     0
271
     3
275
     1
 78
     8
172
     1
340
479
  0
DIMSTYLE
105
484
100
AcDbSymbolTableRecord
100
AcDbDimStyleTableRecord
  2
WAKU003
 70
     0
 41
2.000000
 44
2.000000
 42
0.800000
145
0.661290
140
3.100000
144
1.000000
146
0.903226
 77
     1
 73
     0
 74
     0
271
     3
275
     1
 78
     8
172
     1
340
479
  0
ENDTAB
  0
TABLE
  2
BLOCK_RECORD
  5
485
100
AcDbSymbolTable
 70
    57
  0
BLOCK_RECORD
  5
486
100
AcDbSymbolTableRecord
100
AcDbBlockTableRecord
  2
*MODEL_SPACE
  0
BLOCK_RECORD
  5
487
100
AcDbSymbolTableRecord
100
AcDbBlockTableRecord
  2
*PAPER_SPACE
  0
BLOCK_RECORD
  5
1
100
AcDbSymbolTableRecord
100
AcDbBlockTableRecord
  2
_NONE
  0
BLOCK_RECORD
  5
4
100
AcDbSymbolTableRecord
100
AcDbBlockTableRecord
  2
_CLOSED
  0
BLOCK_RECORD
  5
B
100
AcDbSymbolTableRecord
100
AcDbBlockTableRecord
  2
_DOT
  0
BLOCK_RECORD
  5
13
100
AcDbSymbolTableRecord
100
AcDbBlockTableRecord
  2
_OPEN
  0
BLOCK_RECORD
  5
19
100
AcDbSymbolTableRecord
100
AcDbBlockTableRecord
  2
_ORIGIN
  0
BLOCK_RECORD
  5
1E
100
AcDbSymbolTableRecord
100
AcDbBlockTableRecord
  2
_OPEN30
  0
BLOCK_RECORD
  5
24
100
AcDbSymbolTableRecord
100
AcDbBlockTableRecord
  2
_BOXFILLED
  0
BLOCK_RECORD
  5
29
100
AcDbSymbolTableRecord
100
AcDbBlockTableRecord
  2
_BOXBLANK
  0
BLOCK_RECORD
  5
31
100
AcDbSymbolTableRecord
100
AcDbBlockTableRecord
  2
_OBLIQUE
  0
BLOCK_RECORD
  5
35
100
AcDbSymbolTableRecord
100
AcDbBlockTableRecord
  2
_OPEN90
  0
BLOCK_RECORD
  5
3B
100
AcDbSymbolTableRecord
100
AcDbBlockTableRecord
  2
_CLOSEDBLANK
  0
BLOCK_RECORD
  5
41
100
AcDbSymbolTableRecord
100
AcDbBlockTableRecord
  2
_DOTBLANK
  0
BLOCK_RECORD
  5
488
100
AcDbSymbolTableRecord
100
AcDbBlockTableRecord
  2
*D0
  0
BLOCK_RECORD
  5
489
100
AcDbSymbolTableRecord
100
AcDbBlockTableRecord
  2
*D1
  0
BLOCK_RECORD
  5
48A
100
AcDbSymbolTableRecord
100
AcDbBlockTableRecord
  2
*D2
  0
BLOCK_RECORD
  5
48B
100
AcDbSymbolTableRecord
100
AcDbBlockTableRecord
  2
*D3
  0
BLOCK_RECORD
  5
48C
100
AcDbSymbolTableRecord
100
AcDbBlockTableRecord
  2
*D4
  0
BLOCK_RECORD
  5
48D
100
AcDbSymbolTableRecord
100
AcDbBlockTableRecord
  2
*D5
  0
BLOCK_RECORD
  5
48E
100
AcDbSymbolTableRecord
100
AcDbBlockTableRecord
  2
*D6
  0
BLOCK_RECORD
  5
48F
100
AcDbSymbolTableRecord
100
AcDbBlockTableRecord
  2
*D7
  0
BLOCK_RECORD
  5
490
100
AcDbSymbolTableRecord
100
AcDbBlockTableRecord
  2
*D8
  0
BLOCK_RECORD
  5
491
100
AcDbSymbolTableRecord
100
AcDbBlockTableRecord
  2
*D9
  0
BLOCK_RECORD
  5
492
100
AcDbSymbolTableRecord
100
AcDbBlockTableRecord
  2
*D10
  0
BLOCK_RECORD
  5
493
100
AcDbSymbolTableRecord
100
AcDbBlockTableRecord
  2
*D11
  0
BLOCK_RECORD
  5
494
100
AcDbSymbolTableRecord
100
AcDbBlockTableRecord
  2
*D12
  0
BLOCK_RECORD
  5
495
100
AcDbSymbolTableRecord
100
AcDbBlockTableRecord
  2
*D13
  0
BLOCK_RECORD
  5
496
100
AcDbSymbolTableRecord
100
AcDbBlockTableRecord
  2
*D14
  0
BLOCK_RECORD
  5
497
100
AcDbSymbolTableRecord
100
AcDbBlockTableRecord
  2
*D15
  0
BLOCK_RECORD
  5
498
100
AcDbSymbolTableRecord
100
AcDbBlockTableRecord
  2
*D16
  0
BLOCK_RECORD
  5
499
100
AcDbSymbolTableRecord
100
AcDbBlockTableRecord
  2
*D17
  0
BLOCK_RECORD
  5
49A
100
AcDbSymbolTableRecord
100
AcDbBlockTableRecord
  2
*D18
  0
BLOCK_RECORD
  5
49B
100
AcDbSymbolTableRecord
100
AcDbBlockTableRecord
  2
*D19
  0
BLOCK_RECORD
  5
49C
100
AcDbSymbolTableRecord
100
AcDbBlockTableRecord
  2
*D20
  0
BLOCK_RECORD
  5
49D
100
AcDbSymbolTableRecord
100
AcDbBlockTableRecord
  2
*D21
  0
BLOCK_RECORD
  5
49E
100
AcDbSymbolTableRecord
100
AcDbBlockTableRecord
  2
*D22
  0
BLOCK_RECORD
  5
49F
100
AcDbSymbolTableRecord
100
AcDbBlockTableRecord
  2
*D23
  0
BLOCK_RECORD
  5
4A0
100
AcDbSymbolTableRecord
100
AcDbBlockTableRecord
  2
*D24
  0
BLOCK_RECORD
  5
4A1
100
AcDbSymbolTableRecord
100
AcDbBlockTableRecord
  2
*D25
  0
BLOCK_RECORD
  5
4A2
100
AcDbSymbolTableRecord
100
AcDbBlockTableRecord
  2
*D26
  0
BLOCK_RECORD
  5
4A3
100
AcDbSymbolTableRecord
100
AcDbBlockTableRecord
  2
*D27
  0
BLOCK_RECORD
  5
4A4
100
AcDbSymbolTableRecord
100
AcDbBlockTableRecord
  2
*D28
  0
BLOCK_RECORD
  5
4A5
100
AcDbSymbolTableRecord
100
AcDbBlockTableRecord
  2
*D29
  0
BLOCK_RECORD
  5
4A6
100
AcDbSymbolTableRecord
100
AcDbBlockTableRecord
  2
*D30
  0
BLOCK_RECORD
  5
4A7
100
AcDbSymbolTableRecord
100
AcDbBlockTableRecord
  2
*D31
  0
BLOCK_RECORD
  5
4A8
100
AcDbSymbolTableRecord
100
AcDbBlockTableRecord
  2
*D32
  0
BLOCK_RECORD
  5
4A9
100
AcDbSymbolTableRecord
100
AcDbBlockTableRecord
  2
*D33
  0
BLOCK_RECORD
  5
4AA
100
AcDbSymbolTableRecord
100
AcDbBlockTableRecord
  2
*D34
  0
BLOCK_RECORD
  5
4AB
100
AcDbSymbolTableRecord
100
AcDbBlockTableRecord
  2
*D35
  0
BLOCK_RECORD
  5
4AC
100
AcDbSymbolTableRecord
100
AcDbBlockTableRecord
  2
*D36
  0
BLOCK_RECORD
  5
4AD
100
AcDbSymbolTableRecord
100
AcDbBlockTableRecord
  2
*D37
  0
BLOCK_RECORD
  5
4AE
100
AcDbSymbolTableRecord
100
AcDbBlockTableRecord
  2
*D38
  0
BLOCK_RECORD
  5
4AF
100
AcDbSymbolTableRecord
100
AcDbBlockTableRecord
  2
*D39
  0
BLOCK_RECORD
  5
4B0
100
AcDbSymbolTableRecord
100
AcDbBlockTableRecord
  2
*D40
  0
BLOCK_RECORD
  5
4B1
100
AcDbSymbolTableRecord
100
AcDbBlockTableRecord
  2
*D41
  0
BLOCK_RECORD
  5
4B2
100
AcDbSymbolTableRecord
100
AcDbBlockTableRecord
  2
*X0
  0
BLOCK_RECORD
  5
4B3
100
AcDbSymbolTableRecord
100
AcDbBlockTableRecord
  2
*D42
  0
BLOCK_RECORD
  5
4B4
100
AcDbSymbolTableRecord
100
AcDbBlockTableRecord
  2
*D43
  0
ENDTAB
  0
ENDSEC
  0
SECTION
  2
BLOCKS
  0
BLOCK
  5
4B5
100
AcDbEntity
  8
0
100
AcDbBlockBegin
  2
*MODEL_SPACE
 70
     0
 10
0.0
 20
0.0
 30
0.0
  3
*MODEL_SPACE
  1

  0
ENDBLK
  5
4B6
100
AcDbEntity
  8
0
100
AcDbBlockEnd
  0
BLOCK
  5
4B7
100
AcDbEntity
  8
0
100
AcDbBlockBegin
  2
*PAPER_SPACE
 70
     0
 10
0.0
 20
0.0
 30
0.0
  3
*PAPER_SPACE
  1

  0
ENDBLK
  5
4B8
100
AcDbEntity
  8
0
100
AcDbBlockEnd
  0
BLOCK
  5
2
100
AcDbEntity
  8
0
100
AcDbBlockBegin
  2
_NONE
 70
     0
 10
0.0
 20
0.0
 30
0.0
  3
_NONE
  1

  0
ENDBLK
  5
3
100
AcDbEntity
  8
0
100
AcDbBlockEnd
  0
BLOCK
  5
5
100
AcDbEntity
  8
0
100
AcDbBlockBegin
  2
_CLOSED
 70
     0
 10
0.0
 20
0.0
 30
0.0
  3
_CLOSED
  1

  0
LINE
  5
6
100
AcDbEntity
  8
0
  6
BYBLOCK
 62
     0
100
AcDbLine
 10
-1.0
 20
0.166667
 30
0.0
 11
0.0
 21
0.0
 31
0.0
  0
LINE
  5
7
100
AcDbEntity
  8
0
  6
BYBLOCK
 62
     0
100
AcDbLine
 10
0.0
 20
0.0
 30
0.0
 11
-1.0
 21
-0.166667
 31
0.0
  0
LINE
  5
8
100
AcDbEntity
  8
0
  6
BYBLOCK
 62
     0
100
AcDbLine
 10
-1.0
 20
0.166667
 30
0.0
 11
-1.0
 21
-0.166667
 31
0.0
  0
LINE
  5
9
100
AcDbEntity
  8
0
  6
BYBLOCK
 62
     0
100
AcDbLine
 10
0.0
 20
0.0
 30
0.0
 11
-1.0
 21
0.0
 31
0.0
  0
ENDBLK
  5
A
100
AcDbEntity
  8
0
100
AcDbBlockEnd
  0
BLOCK
  5
C
100
AcDbEntity
  8
0
100
AcDbBlockBegin
  2
_DOT
 70
     0
 10
0.0
 20
0.0
 30
0.0
  3
_DOT
  1

  0
POLYLINE
  5
D
100
AcDbEntity
  8
0
  6
BYBLOCK
 62
     0
100
AcDb2dPolyline
 66
     1
 10
0.0
 20
0.0
 30
0.0
 70
     1
 40
0.5
 41
0.5
  0
VERTEX
  5
E
100
AcDbEntity
  8
0
  6
BYBLOCK
 62
     0
100
AcDbVertex
100
AcDb2dVertex
 10
-0.25
 20
0.0
 30
0.0
 42
1.0
  0
VERTEX
  5
F
100
AcDbEntity
  8
0
  6
BYBLOCK
 62
     0
100
AcDbVertex
100
AcDb2dVertex
 10
0.25
 20
0.0
 30
0.0
 42
1.0
  0
SEQEND
  5
10
100
AcDbEntity
  8
0
  6
BYBLOCK
 62
     0
  0
LINE
  5
11
100
AcDbEntity
  8
0
  6
BYBLOCK
 62
     0
100
AcDbLine
 10
-0.5
 20
0.0
 30
0.0
 11
-1.0
 21
0.0
 31
0.0
  0
ENDBLK
  5
12
100
AcDbEntity
  8
0
100
AcDbBlockEnd
  0
BLOCK
  5
14
100
AcDbEntity
  8
0
100
AcDbBlockBegin
  2
_OPEN
 70
     0
 10
0.0
 20
0.0
 30
0.0
  3
_OPEN
  1

  0
LINE
  5
15
100
AcDbEntity
  8
0
  6
BYBLOCK
 62
     0
100
AcDbLine
 10
-1.0
 20
0.166667
 30
0.0
 11
0.0
 21
0.0
 31
0.0
  0
LINE
  5
16
100
AcDbEntity
  8
0
  6
BYBLOCK
 62
     0
100
AcDbLine
 10
0.0
 20
0.0
 30
0.0
 11
-1.0
 21
-0.166667
 31
0.0
  0
LINE
  5
17
100
AcDbEntity
  8
0
  6
BYBLOCK
 62
     0
100
AcDbLine
 10
0.0
 20
0.0
 30
0.0
 11
-1.0
 21
0.0
 31
0.0
  0
ENDBLK
  5
18
100
AcDbEntity
  8
0
100
AcDbBlockEnd
  0
BLOCK
  5
1A
100
AcDbEntity
  8
0
100
AcDbBlockBegin
  2
_ORIGIN
 70
     0
 10
0.0
 20
0.0
 30
0.0
  3
_ORIGIN
  1

  0
CIRCLE
  5
1B
100
AcDbEntity
  8
0
  6
BYBLOCK
 62
     0
100
AcDbCircle
 10
0.0
 20
0.0
 30
0.0
 40
0.5
  0
LINE
  5
1C
100
AcDbEntity
  8
0
  6
BYBLOCK
 62
     0
100
AcDbLine
 10
0.0
 20
0.0
 30
0.0
 11
-1.0
 21
0.0
 31
0.0
  0
ENDBLK
  5
1D
100
AcDbEntity
  8
0
100
AcDbBlockEnd
  0
BLOCK
  5
1F
100
AcDbEntity
  8
0
100
AcDbBlockBegin
  2
_OPEN30
 70
     0
 10
0.0
 20
0.0
 30
0.0
  3
_OPEN30
  1

  0
LINE
  5
20
100
AcDbEntity
  8
0
  6
BYBLOCK
 62
     0
100
AcDbLine
 10
-1.0
 20
0.267949
 30
0.0
 11
0.0
 21
0.0
 31
0.0
  0
LINE
  5
21
100
AcDbEntity
  8
0
  6
BYBLOCK
 62
     0
100
AcDbLine
 10
0.0
 20
0.0
 30
0.0
 11
-1.0
 21
-0.267949
 31
0.0
  0
LINE
  5
22
100
AcDbEntity
  8
0
  6
BYBLOCK
 62
     0
100
AcDbLine
 10
0.0
 20
0.0
 30
0.0
 11
-1.0
 21
0.0
 31
0.0
  0
ENDBLK
  5
23
100
AcDbEntity
  8
0
100
AcDbBlockEnd
  0
BLOCK
  5
25
100
AcDbEntity
  8
0
100
AcDbBlockBegin
  2
_BOXFILLED
 70
     0
 10
0.0
 20
0.0
 30
0.0
  3
_BOXFILLED
  1

  0
SOLID
  5
26
100
AcDbEntity
  8
0
  6
BYBLOCK
 62
     0
100
AcDbTrace
 10
-0.5
 20
0.5
 30
0.0
 11
0.5
 21
0.5
 31
0.0
 12
-0.5
 22
-0.5
 32
0.0
 13
0.5
 23
-0.5
 33
0.0
  0
LINE
  5
27
100
AcDbEntity
  8
0
  6
BYBLOCK
 62
     0
100
AcDbLine
 10
-0.5
 20
0.0
 30
0.0
 11
-1.0
 21
0.0
 31
0.0
  0
ENDBLK
  5
28
100
AcDbEntity
  8
0
100
AcDbBlockEnd
  0
BLOCK
  5
2A
100
AcDbEntity
  8
0
100
AcDbBlockBegin
  2
_BOXBLANK
 70
     0
 10
0.0
 20
0.0
 30
0.0
  3
_BOXBLANK
  1

  0
LINE
  5
2B
100
AcDbEntity
  8
0
  6
BYBLOCK
 62
     0
100
AcDbLine
 10
-0.5
 20
-0.5
 30
0.0
 11
0.5
 21
-0.5
 31
0.0
  0
LINE
  5
2C
100
AcDbEntity
  8
0
  6
BYBLOCK
 62
     0
100
AcDbLine
 10
0.5
 20
-0.5
 30
0.0
 11
0.5
 21
0.5
 31
0.0
  0
LINE
  5
2D
100
AcDbEntity
  8
0
  6
BYBLOCK
 62
     0
100
AcDbLine
 10
0.5
 20
0.5
 30
0.0
 11
-0.5
 21
0.5
 31
0.0
  0
LINE
  5
2E
100
AcDbEntity
  8
0
  6
BYBLOCK
 62
     0
100
AcDbLine
 10
-0.5
 20
0.5
 30
0.0
 11
-0.5
 21
-0.5
 31
0.0
  0
LINE
  5
2F
100
AcDbEntity
  8
0
  6
BYBLOCK
 62
     0
100
AcDbLine
 10
-0.5
 20
0.0
 30
0.0
 11
-1.0
 21
0.0
 31
0.0
  0
ENDBLK
  5
30
100
AcDbEntity
  8
0
100
AcDbBlockEnd
  0
BLOCK
  5
32
100
AcDbEntity
  8
0
100
AcDbBlockBegin
  2
_OBLIQUE
 70
     0
 10
0.0
 20
0.0
 30
0.0
  3
_OBLIQUE
  1

  0
LINE
  5
33
100
AcDbEntity
  8
0
  6
BYBLOCK
 62
     0
100
AcDbLine
 10
-0.5
 20
-0.5
 30
0.0
 11
0.5
 21
0.5
 31
0.0
  0
ENDBLK
  5
34
100
AcDbEntity
  8
0
100
AcDbBlockEnd
  0
BLOCK
  5
36
100
AcDbEntity
  8
0
100
AcDbBlockBegin
  2
_OPEN90
 70
     0
 10
0.0
 20
0.0
 30
0.0
  3
_OPEN90
  1

  0
LINE
  5
37
100
AcDbEntity
  8
0
  6
BYBLOCK
 62
     0
100
AcDbLine
 10
-0.5
 20
0.5
 30
0.0
 11
0.0
 21
0.0
 31
0.0
  0
LINE
  5
38
100
AcDbEntity
  8
0
  6
BYBLOCK
 62
     0
100
AcDbLine
 10
0.0
 20
0.0
 30
0.0
 11
-0.5
 21
-0.5
 31
0.0
  0
LINE
  5
39
100
AcDbEntity
  8
0
  6
BYBLOCK
 62
     0
100
AcDbLine
 10
0.0
 20
0.0
 30
0.0
 11
-1.0
 21
0.0
 31
0.0
  0
ENDBLK
  5
3A
100
AcDbEntity
  8
0
100
AcDbBlockEnd
  0
BLOCK
  5
3C
100
AcDbEntity
  8
0
100
AcDbBlockBegin
  2
_CLOSEDBLANK
 70
     0
 10
0.0
 20
0.0
 30
0.0
  3
_CLOSEDBLANK
  1

  0
LINE
  5
3D
100
AcDbEntity
  8
0
  6
BYBLOCK
 62
     0
100
AcDbLine
 10
-1.0
 20
0.1666666666666666
 30
0.0
 11
0.0
 21
0.0
 31
0.0
  0
LINE
  5
3E
100
AcDbEntity
  8
0
  6
BYBLOCK
 62
     0
100
AcDbLine
 10
0.0
 20
0.0
 30
0.0
 11
-1.0
 21
-0.1666666666666666
 31
0.0
  0
LINE
  5
3F
100
AcDbEntity
  8
0
  6
BYBLOCK
 62
     0
100
AcDbLine
 10
-1.0
 20
0.1666666666666666
 30
0.0
 11
-1.0
 21
-0.1666666666666666
 31
0.0
  0
ENDBLK
  5
40
100
AcDbEntity
  8
0
100
AcDbBlockEnd
  0
BLOCK
  5
42
100
AcDbEntity
  8
0
100
AcDbBlockBegin
  2
_DOTBLANK
 70
     0
 10
0.0
 20
0.0
 30
0.0
  3
_DOTBLANK
  1

  0
CIRCLE
  5
43
100
AcDbEntity
  8
0
  6
BYBLOCK
 62
     0
100
AcDbCircle
 10
0.0
 20
0.0
 30
0.0
 40
0.5
  0
LINE
  5
44
100
AcDbEntity
  8
0
  6
BYBLOCK
 62
     0
100
AcDbLine
 10
-0.5
 20
0.0
 30
0.0
 11
-1.0
 21
0.0
 31
0.0
  0
ENDBLK
  5
45
100
AcDbEntity
  8
0
100
AcDbBlockEnd
  0
BLOCK
  5
16F
100
AcDbEntity
  8
MAIN0
  6
CONTINUOUS
 62
3
100
AcDbBlockBegin
  2
*D0
 70
    65
 10
0.0
 20
0.0
 30
0.0
  0
LINE
  5
170
100
AcDbEntity
  8
MAIN0
  6
BYBLOCK
 62
0
100
AcDbLine
 10
354.8243275537931
 20
220.5534937757174
 30
0.0000000000000000
 11
366.4807410417050
 21
220.5534937757174
 31
0.0000000000000000
  0
LINE
  5
171
100
AcDbEntity
  8
MAIN0
  6
BYBLOCK
 62
0
100
AcDbLine
 10
364.4807410417050
 20
218.5534937757174
 30
0.0000000000000000
 11
364.4807410417050
 21
211.5534937757173
 31
0.0000000000000000
  0
INSERT
  5
172
100
AcDbEntity
  8
MAIN0
  6
BYBLOCK
 62
0
100
AcDbBlockReference
  2
_OPEN
 10
364.4807410417050
 20
220.5534937757174
 30
0.0000000000000000
 41
2.000000000000000
 42
2.000000000000000
 43
2.000000000000000
 50
90.00000000000000
  0
INSERT
  5
173
100
AcDbEntity
  8
MAIN0
  6
BYBLOCK
 62
0
100
AcDbBlockReference
  2
_OPEN
 10
364.4807410417050
 20
209.5534937757173
 30
0.0000000000000000
 41
2.000000000000000
 42
2.000000000000000
 43
2.000000000000000
 50
270.0000000000000
  0
LINE
  5
174
100
AcDbEntity
  8
MAIN0
  6
BYBLOCK
 62
0
100
AcDbLine
 10
354.3243275537748
 20
209.5534937757173
 30
0.0000000000000000
 11
366.4807410417050
 21
209.5534937757173
 31
0.0000000000000000
  0
MTEXT
  5
175
100
AcDbEntity
  8
MAIN0
  6
BYBLOCK
 62
0
100
AcDbMText
 10
362.4307410893887
 20
215.0534937757174
 30
0.0000000000000000
 40
3.099999904632568
 41
0.0000000000000000
 71
     5
 72
     1
  1
\A1;11
 11
6.123233995736766e-017
 21
1.000000000000000
 31
0.0000000000000000
  7
STANDARD
  0
ENDBLK
  5
176
100
AcDbEntity
  8
MAIN0
  6
CONTINUOUS
 62
3
100
AcDbBlockEnd
  0
BLOCK
  5
178
100
AcDbEntity
  8
MAIN0
  6
CONTINUOUS
 62
3
100
AcDbBlockBegin
  2
*D1
 70
    65
 10
0.0
 20
0.0
 30
0.0
  0
LINE
  5
179
100
AcDbEntity
  8
MAIN0
  6
BYBLOCK
 62
0
100
AcDbLine
 10
354.3243275537748
 20
209.5534937757173
 30
0.0000000000000000
 11
374.4077623898432
 21
209.5534937757173
 31
0.0000000000000000
  0
LINE
  5
17A
100
AcDbEntity
  8
MAIN0
  6
BYBLOCK
 62
0
100
AcDbLine
 10
372.4077623898432
 20
211.5534937757173
 30
0.0000000000000000
 11
372.4077623898432
 21
277.5534937756995
 31
0.0000000000000000
  0
INSERT
  5
17B
100
AcDbEntity
  8
MAIN0
  6
BYBLOCK
 62
0
100
AcDbBlockReference
  2
_OPEN
 10
372.4077623898432
 20
209.5534937757173
 30
0.0000000000000000
 41
2.000000000000000
 42
2.000000000000000
 43
2.000000000000000
 50
270.0000000000000
  0
INSERT
  5
17C
100
AcDbEntity
  8
MAIN0
  6
BYBLOCK
 62
0
100
AcDbBlockReference
  2
_OPEN
 10
372.4077623898432
 20
279.5534937756995
 30
0.0000000000000000
 41
2.000000000000000
 42
2.000000000000000
 43
2.000000000000000
 50
90.00000000000000
  0
LINE
  5
17D
100
AcDbEntity
  8
MAIN0
  6
BYBLOCK
 62
0
100
AcDbLine
 10
349.4243275538912
 20
279.5534937756995
 30
0.0000000000000000
 11
374.4077623898432
 21
279.5534937756995
 31
0.0000000000000000
  0
MTEXT
  5
17E
100
AcDbEntity
  8
MAIN0
  6
BYBLOCK
 62
0
100
AcDbMText
 10
370.3577624375270
 20
244.5534937757084
 30
0.0000000000000000
 40
3.099999904632568
 41
0.0000000000000000
 71
     5
 72
     1
  1
\A1;70
 11
6.123233995736766e-017
 21
1.000000000000000
 31
0.0000000000000000
  7
STANDARD
  0
ENDBLK
  5
17F
100
AcDbEntity
  8
MAIN0
  6
CONTINUOUS
 62
3
100
AcDbBlockEnd
  0
BLOCK
  5
181
100
AcDbEntity
  8
MAIN0
  6
CONTINUOUS
 62
3
100
AcDbBlockBegin
  2
*D2
 70
    65
 10
0.0
 20
0.0
 30
0.0
  0
LINE
  5
182
100
AcDbEntity
  8
MAIN0
  6
BYBLOCK
 62
0
100
AcDbLine
 10
349.4243275538912
 20
279.5534937756995
 30
0.0000000000000000
 11
366.4807410417050
 21
279.5534937756995
 31
0.0000000000000000
  0
LINE
  5
183
100
AcDbEntity
  8
MAIN0
  6
BYBLOCK
 62
0
100
AcDbLine
 10
364.4807410417050
 20
277.5534937756995
 30
0.0000000000000000
 11
364.4807410417050
 21
269.5534937757274
 31
0.0000000000000000
  0
INSERT
  5
184
100
AcDbEntity
  8
MAIN0
  6
BYBLOCK
 62
0
100
AcDbBlockReference
  2
_OPEN
 10
364.4807410417050
 20
279.5534937756995
 30
0.0000000000000000
 41
2.000000000000000
 42
2.000000000000000
 43
2.000000000000000
 50
90.00000000000000
  0
INSERT
  5
185
100
AcDbEntity
  8
MAIN0
  6
BYBLOCK
 62
0
100
AcDbBlockReference
  2
_OPEN
 10
364.4807410417050
 20
267.5534937757274
 30
0.0000000000000000
 41
2.000000000000000
 42
2.000000000000000
 43
2.000000000000000
 50
270.0000000000000
  0
MTEXT
  5
186
100
AcDbEntity
  8
MAIN0
  6
BYBLOCK
 62
0
100
AcDbMText
 10
362.4307410893887
 20
274.6586998059697
 30
0.0000000000000000
 40
3.099999904632568
 41
0.0000000000000000
 71
     5
 72
     1
  1
\A1;12
 11
6.123233995736766e-017
 21
1.000000000000000
 31
0.0000000000000000
  7
STANDARD
  0
ENDBLK
  5
187
100
AcDbEntity
  8
MAIN0
  6
CONTINUOUS
 62
3
100
AcDbBlockEnd
  0
BLOCK
  5
189
100
AcDbEntity
  8
MAIN0
  6
CONTINUOUS
 62
3
100
AcDbBlockBegin
  2
*D3
 70
    65
 10
0.0
 20
0.0
 30
0.0
  0
LINE
  5
18A
100
AcDbEntity
  8
MAIN0
  6
BYBLOCK
 62
0
100
AcDbLine
 10
298.6243275419510
 20
268.3534937876302
 30
0.0000000000000000
 11
298.6243275419510
 21
296.7314495035802
 31
0.0000000000000000
  0
LINE
  5
18B
100
AcDbEntity
  8
MAIN0
  6
BYBLOCK
 62
0
100
AcDbLine
 10
300.6243275419510
 20
294.7314495035802
 30
0.0000000000000000
 11
396.6243275419498
 21
294.7314495035802
 31
0.0000000000000000
  0
INSERT
  5
18C
100
AcDbEntity
  8
MAIN0
  6
BYBLOCK
 62
0
100
AcDbBlockReference
  2
_OPEN
 10
298.6243275419510
 20
294.7314495035802
 30
0.0000000000000000
 41
2.000000000000000
 42
2.000000000000000
 43
2.000000000000000
 50
180.0000000000000
  0
INSERT
  5
18D
100
AcDbEntity
  8
MAIN0
  6
BYBLOCK
 62
0
100
AcDbBlockReference
  2
_OPEN
 10
398.6243275419498
 20
294.7314495035802
 30
0.0000000000000000
 41
2.000000000000000
 42
2.000000000000000
 43
2.000000000000000
 50
0.0000000000000000
  0
LINE
  5
18E
100
AcDbEntity
  8
MAIN0
  6
BYBLOCK
 62
0
100
AcDbLine
 10
398.6243275419498
 20
268.3534937876448
 30
0.0000000000000000
 11
398.6243275419498
 21
296.7314495035802
 31
0.0000000000000000
  0
MTEXT
  5
18F
100
AcDbEntity
  8
MAIN0
  6
BYBLOCK
 62
0
100
AcDbMText
 10
348.6243275419504
 20
296.7814494558965
 30
0.0000000000000000
 40
3.099999904632568
 41
0.0000000000000000
 71
     5
 72
     1
  1
\A1;140
 11
1.000000000000000
 21
0.0000000000000000
 31
0.0000000000000000
  7
STANDARD
  0
ENDBLK
  5
190
100
AcDbEntity
  8
MAIN0
  6
CONTINUOUS
 62
3
100
AcDbBlockEnd
  0
BLOCK
  5
192
100
AcDbEntity
  8
MAIN0
  6
CONTINUOUS
 62
3
100
AcDbBlockBegin
  2
*D4
 70
    65
 10
0.0
 20
0.0
 30
0.0
  0
LINE
  5
193
100
AcDbEntity
  8
MAIN0
  6
BYBLOCK
 62
0
100
AcDbLine
 10
340.1243275419686
 20
279.3010816948801
 30
0.0000000000000000
 11
340.1243275419681
 21
286.9015800866948
 31
0.0000000000000000
  0
LINE
  5
194
100
AcDbEntity
  8
MAIN0
  6
BYBLOCK
 62
0
100
AcDbLine
 10
342.1243275419682
 20
284.9015800866948
 30
0.0000000000000000
 11
355.1243275419682
 21
284.9015800866948
 31
0.0000000000000000
  0
INSERT
  5
195
100
AcDbEntity
  8
MAIN0
  6
BYBLOCK
 62
0
100
AcDbBlockReference
  2
_OPEN
 10
340.1243275419682
 20
284.9015800866948
 30
0.0000000000000000
 41
2.000000000000000
 42
2.000000000000000
 43
2.000000000000000
 50
180.0000000000000
  0
INSERT
  5
196
100
AcDbEntity
  8
MAIN0
  6
BYBLOCK
 62
0
100
AcDbBlockReference
  2
_OPEN
 10
357.1243275419682
 20
284.9015800866948
 30
0.0000000000000000
 41
2.000000000000000
 42
2.000000000000000
 43
2.000000000000000
 50
0.0000000000000000
  0
LINE
  5
197
100
AcDbEntity
  8
MAIN0
  6
BYBLOCK
 62
0
100
AcDbLine
 10
357.1243275419686
 20
279.0317741709143
 30
0.0000000000000000
 11
357.1243275419681
 21
286.9015800866948
 31
0.0000000000000000
  0
MTEXT
  5
198
100
AcDbEntity
  8
MAIN0
  6
BYBLOCK
 62
0
100
AcDbMText
 10
348.6243275419682
 20
286.9515800390111
 30
0.0000000000000000
 40
3.099999904632568
 41
0.0000000000000000
 71
     5
 72
     1
  1
\A1;\U+220517
 11
1.000000000000000
 21
0.0000000000000000
 31
0.0000000000000000
  7
STANDARD
  0
ENDBLK
  5
199
100
AcDbEntity
  8
MAIN0
  6
CONTINUOUS
 62
3
100
AcDbBlockEnd
  0
BLOCK
  5
19B
100
AcDbEntity
  8
MAIN0
  6
CONTINUOUS
 62
3
100
AcDbBlockBegin
  2
*D5
 70
    65
 10
0.0
 20
0.0
 30
0.0
  0
LINE
  5
19C
100
AcDbEntity
  8
MAIN0
  6
BYBLOCK
 62
0
100
AcDbLine
 10
331.6767284610680
 20
265.5534937757154
 30
0.0000000000000000
 11
331.6767284610680
 21
269.5534937757154
 31
0.0000000000000000
  0
INSERT
  5
19D
100
AcDbEntity
  8
MAIN0
  6
BYBLOCK
 62
0
100
AcDbBlockReference
  2
_OPEN
 10
331.6767284610680
 20
263.5534937757154
 30
0.0000000000000000
 41
2.000000000000000
 42
2.000000000000000
 43
2.000000000000000
 50
270.0000000000000
  0
INSERT
  5
19E
100
AcDbEntity
  8
MAIN0
  6
BYBLOCK
 62
0
100
AcDbBlockReference
  2
_OPEN
 10
331.6767284610680
 20
271.5534937757154
 30
0.0000000000000000
 41
2.000000000000000
 42
2.000000000000000
 43
2.000000000000000
 50
90.00000000000000
  0
MTEXT
  5
19F
100
AcDbEntity
  8
MAIN0
  6
BYBLOCK
 62
0
100
AcDbMText
 10
329.6267285087517
 20
267.5534937757154
 30
0.0000000000000000
 40
3.099999904632568
 41
0.0000000000000000
 71
     5
 72
     1
  1
\A1;\U+22058
 11
6.123233995736766e-017
 21
1.000000000000000
 31
0.0000000000000000
  7
STANDARD
  0
ENDBLK
  5
1A0
100
AcDbEntity
  8
MAIN0
  6
CONTINUOUS
 62
3
100
AcDbBlockEnd
  0
BLOCK
  5
1A2
100
AcDbEntity
  8
MAIN0
  6
CONTINUOUS
 62
3
100
AcDbBlockBegin
  2
*D6
 70
    65
 10
0.0
 20
0.0
 30
0.0
  0
LINE
  5
1A3
100
AcDbEntity
  8
MAIN0
  6
BYBLOCK
 62
0
100
AcDbLine
 10
354.5835911676227
 20
190.7771501131081
 30
0.0000000000000000
 11
364.0096486799807
 21
181.3510926007238
 31
0.0000000000000000
  0
LINE
  5
1A4
100
AcDbEntity
  8
MAIN0
  6
BYBLOCK
 62
0
100
AcDbLine
 10
362.5954351176096
 20
182.7653061630989
 30
0.0000000000000000
 11
356.9385808681256
 21
177.1084519136178
 31
0.0000000000000000
  0
INSERT
  5
1A5
100
AcDbEntity
  8
MAIN0
  6
BYBLOCK
 62
0
100
AcDbBlockReference
  2
_OPEN
 10
362.5954351176096
 20
182.7653061630989
 30
0.0000000000000000
 41
2.000000000000000
 42
2.000000000000000
 43
2.000000000000000
 50
224.9999999999855
  0
INSERT
  5
1A6
100
AcDbEntity
  8
MAIN0
  6
BYBLOCK
 62
0
100
AcDbBlockReference
  2
_OPEN
 10
356.9385808681256
 20
177.1084519136178
 30
0.0000000000000000
 41
2.000000000000000
 42
2.000000000000000
 43
2.000000000000000
 50
44.99999999998545
  0
LINE
  5
1A7
100
AcDbEntity
  8
MAIN0
  6
BYBLOCK
 62
0
100
AcDbLine
 10
364.0096486799830
 20
184.1795197254716
 30
0.0000000000000000
 11
370.7895336935574
 21
190.9594047390425
 31
0.0000000000000000
  0
LINE
  5
1A8
100
AcDbEntity
  8
MAIN0
  6
BYBLOCK
 62
0
100
AcDbLine
 10
355.5243673057522
 20
175.6942383512451
 30
0.0000000000000000
 11
354.8172605245654
 21
174.9871315700587
 31
0.0000000000000000
  0
LINE
  5
1A9
100
AcDbEntity
  8
MAIN0
  6
BYBLOCK
 62
0
100
AcDbLine
 10
348.9267369181405
 20
185.1202958636070
 30
0.0000000000000000
 11
358.3527944304984
 21
175.6942383512444
 31
0.0000000000000000
  0
MTEXT
  5
1AA
100
AcDbEntity
  8
MAIN0
  6
BYBLOCK
 62
0
100
AcDbMText
 10
366.3524385500896
 20
189.4214473310069
 30
0.0000000000000000
 40
3.099999904632568
 41
0.0000000000000000
 71
     5
 72
     1
  1
\A1;8\H0.903226x;\S 0^ -0.1;
 11
0.7071067811867278
 21
0.7071067811863673
 31
0.0000000000000000
  7
STANDARD
  0
ENDBLK
  5
1AB
100
AcDbEntity
  8
MAIN0
  6
CONTINUOUS
 62
3
100
AcDbBlockEnd
  0
BLOCK
  5
1B6
100
AcDbEntity
  8
MAIN0
  6
CONTINUOUS
 62
3
100
AcDbBlockBegin
  2
*D7
 70
    65
 10
0.0
 20
0.0
 30
0.0
  0
LINE
  5
1B7
100
AcDbEntity
  8
MAIN0
  6
BYBLOCK
 62
0
100
AcDbLine
 10
273.5518753510148
 20
225.4406121776211
 30
0.0000000000000000
 11
220.0824673023271
 21
216.7052854385894
 31
0.0000000000000000
  0
INSERT
  5
1B8
100
AcDbEntity
  8
MAIN0
  6
BYBLOCK
 62
0
100
AcDbBlockReference
  2
_OPEN
 10
275.5257080662316
 20
225.7630783190063
 30
0.0000000000000000
 41
2.000000000000000
 42
2.000000000000000
 43
2.000000000000000
 50
9.278475292238340
  0
MTEXT
  5
1B9
100
AcDbEntity
  8
MAIN0
  6
BYBLOCK
 62
0
100
AcDbMText
 10
257.1726232262001
 20
224.6730255181822
 30
0.0000000000000000
 40
3.099999904632568
 41
0.0000000000000000
 71
     5
 72
     1
  1
\A1;\U+220595\H0.903226x;\U+00B10.2
 11
0.9869163576084051
 21
0.1612330706925801
 31
0.0000000000000000
  7
STANDARD
  0
ENDBLK
  5
1BA
100
AcDbEntity
  8
MAIN0
  6
CONTINUOUS
 62
3
100
AcDbBlockEnd
  0
BLOCK
  5
1BC
100
AcDbEntity
  8
MAIN0
  6
CONTINUOUS
 62
3
100
AcDbBlockBegin
  2
*D8
 70
    65
 10
0.0
 20
0.0
 30
0.0
  0
LINE
  5
1BD
100
AcDbEntity
  8
MAIN0
  6
BYBLOCK
 62
0
100
AcDbLine
 10
125.6271146452400
 20
272.4045074730296
 30
0.0000000000000000
 11
125.6271146452400
 21
285.1200445601760
 31
0.0000000000000000
  0
LINE
  5
1BE
100
AcDbEntity
  8
MAIN0
  6
BYBLOCK
 62
0
100
AcDbLine
 10
127.6271146452400
 20
283.1200445601760
 30
0.0000000000000000
 11
141.6271146452227
 21
283.1200445601760
 31
0.0000000000000000
  0
INSERT
  5
1BF
100
AcDbEntity
  8
MAIN0
  6
BYBLOCK
 62
0
100
AcDbBlockReference
  2
_OPEN
 10
125.6271146452400
 20
283.1200445601760
 30
0.0000000000000000
 41
2.000000000000000
 42
2.000000000000000
 43
2.000000000000000
 50
180.0000000000000
  0
INSERT
  5
1C0
100
AcDbEntity
  8
MAIN0
  6
BYBLOCK
 62
0
100
AcDbBlockReference
  2
_OPEN
 10
143.6271146452227
 20
283.1200445601760
 30
0.0000000000000000
 41
2.000000000000000
 42
2.000000000000000
 43
2.000000000000000
 50
0.0000000000000000
  0
LINE
  5
1C1
100
AcDbEntity
  8
MAIN0
  6
BYBLOCK
 62
0
100
AcDbLine
 10
143.6271146452227
 20
244.6045074730296
 30
0.0000000000000000
 11
143.6271146452227
 21
285.1200445601760
 31
0.0000000000000000
  0
MTEXT
  5
1C2
100
AcDbEntity
  8
MAIN0
  6
BYBLOCK
 62
0
100
AcDbMText
 10
134.6271146452314
 20
285.1700445124923
 30
0.0000000000000000
 40
3.099999904632568
 41
0.0000000000000000
 71
     5
 72
     1
  1
\A1;18
 11
1.000000000000000
 21
0.0000000000000000
 31
0.0000000000000000
  7
STANDARD
  0
ENDBLK
  5
1C3
100
AcDbEntity
  8
MAIN0
  6
CONTINUOUS
 62
3
100
AcDbBlockEnd
  0
BLOCK
  5
1C5
100
AcDbEntity
  8
MAIN0
  6
CONTINUOUS
 62
3
100
AcDbBlockBegin
  2
*D9
 70
    65
 10
0.0
 20
0.0
 30
0.0
  0
LINE
  5
1C6
100
AcDbEntity
  8
MAIN0
  6
BYBLOCK
 62
0
100
AcDbLine
 10
144.1271146571362
 20
231.1045074611087
 30
0.0000000000000000
 11
155.6365393255707
 21
231.1045074611087
 31
0.0000000000000000
  0
LINE
  5
1C7
100
AcDbEntity
  8
MAIN0
  6
BYBLOCK
 62
0
100
AcDbLine
 10
153.6365393255707
 20
233.1045074611087
 30
0.0000000000000000
 11
153.6365393255707
 21
242.1045074611087
 31
0.0000000000000000
  0
INSERT
  5
1C8
100
AcDbEntity
  8
MAIN0
  6
BYBLOCK
 62
0
100
AcDbBlockReference
  2
_OPEN
 10
153.6365393255707
 20
231.1045074611087
 30
0.0000000000000000
 41
2.000000000000000
 42
2.000000000000000
 43
2.000000000000000
 50
270.0000000000000
  0
INSERT
  5
1C9
100
AcDbEntity
  8
MAIN0
  6
BYBLOCK
 62
0
100
AcDbBlockReference
  2
_OPEN
 10
153.6365393255707
 20
244.1045074611087
 30
0.0000000000000000
 41
2.000000000000000
 42
2.000000000000000
 43
2.000000000000000
 50
90.00000000000000
  0
LINE
  5
1CA
100
AcDbEntity
  8
MAIN0
  6
BYBLOCK
 62
0
100
AcDbLine
 10
144.1271146571438
 20
244.1045074611087
 30
0.0000000000000000
 11
155.6365393255707
 21
244.1045074611087
 31
0.0000000000000000
  0
MTEXT
  5
1CB
100
AcDbEntity
  8
MAIN0
  6
BYBLOCK
 62
0
100
AcDbMText
 10
151.5865393732544
 20
237.6045074611087
 30
0.0000000000000000
 40
3.099999904632568
 41
0.0000000000000000
 71
     5
 72
     1
  1
\A1;13
 11
6.123233995736766e-017
 21
1.000000000000000
 31
0.0000000000000000
  7
STANDARD
  0
ENDBLK
  5
1CC
100
AcDbEntity
  8
MAIN0
  6
CONTINUOUS
 62
3
100
AcDbBlockEnd
  0
BLOCK
  5
1CE
100
AcDbEntity
  8
MAIN0
  6
CONTINUOUS
 62
3
100
AcDbBlockBegin
  2
*D10
 70
    65
 10
0.0
 20
0.0
 30
0.0
  0
LINE
  5
1CF
100
AcDbEntity
  8
MAIN0
  6
BYBLOCK
 62
0
100
AcDbLine
 10
144.1271146571438
 20
244.1045074611087
 30
0.0000000000000000
 11
155.6365393255707
 21
244.1045074611087
 31
0.0000000000000000
  0
LINE
  5
1D0
100
AcDbEntity
  8
MAIN0
  6
BYBLOCK
 62
0
100
AcDbLine
 10
153.6365393255707
 20
246.1045074611087
 30
0.0000000000000000
 11
153.6365393255707
 21
255.1045074611087
 31
0.0000000000000000
  0
INSERT
  5
1D1
100
AcDbEntity
  8
MAIN0
  6
BYBLOCK
 62
0
100
AcDbBlockReference
  2
_OPEN
 10
153.6365393255707
 20
244.1045074611087
 30
0.0000000000000000
 41
2.000000000000000
 42
2.000000000000000
 43
2.000000000000000
 50
270.0000000000000
  0
INSERT
  5
1D2
100
AcDbEntity
  8
MAIN0
  6
BYBLOCK
 62
0
100
AcDbBlockReference
  2
_OPEN
 10
153.6365393255707
 20
257.1045074611087
 30
0.0000000000000000
 41
2.000000000000000
 42
2.000000000000000
 43
2.000000000000000
 50
90.00000000000000
  0
LINE
  5
1D3
100
AcDbEntity
  8
MAIN0
  6
BYBLOCK
 62
0
100
AcDbLine
 10
137.1271146571515
 20
257.1045074611087
 30
0.0000000000000000
 11
155.6365393255707
 21
257.1045074611087
 31
0.0000000000000000
  0
MTEXT
  5
1D4
100
AcDbEntity
  8
MAIN0
  6
BYBLOCK
 62
0
100
AcDbMText
 10
151.5865393732544
 20
250.6045074611087
 30
0.0000000000000000
 40
3.099999904632568
 41
0.0000000000000000
 71
     5
 72
     1
  1
\A1;13
 11
6.123233995736766e-017
 21
1.000000000000000
 31
0.0000000000000000
  7
STANDARD
  0
ENDBLK
  5
1D5
100
AcDbEntity
  8
MAIN0
  6
CONTINUOUS
 62
3
100
AcDbBlockEnd
  0
BLOCK
  5
1D7
100
AcDbEntity
  8
MAIN0
  6
CONTINUOUS
 62
3
100
AcDbBlockBegin
  2
*D11
 70
    65
 10
0.0
 20
0.0
 30
0.0
  0
LINE
  5
1D8
100
AcDbEntity
  8
MAIN0
  6
BYBLOCK
 62
0
100
AcDbLine
 10
137.1271146571515
 20
257.1045074611087
 30
0.0000000000000000
 11
155.6365393255707
 21
257.1045074611087
 31
0.0000000000000000
  0
LINE
  5
1D9
100
AcDbEntity
  8
MAIN0
  6
BYBLOCK
 62
0
100
AcDbLine
 10
153.6365393255707
 20
259.1045074611087
 30
0.0000000000000000
 11
153.6365393255707
 21
271.1045074611087
 31
0.0000000000000000
  0
INSERT
  5
1DA
100
AcDbEntity
  8
MAIN0
  6
BYBLOCK
 62
0
100
AcDbBlockReference
  2
_OPEN
 10
153.6365393255707
 20
257.1045074611087
 30
0.0000000000000000
 41
2.000000000000000
 42
2.000000000000000
 43
2.000000000000000
 50
270.0000000000000
  0
INSERT
  5
1DB
100
AcDbEntity
  8
MAIN0
  6
BYBLOCK
 62
0
100
AcDbBlockReference
  2
_OPEN
 10
153.6365393255707
 20
273.1045074611087
 30
0.0000000000000000
 41
2.000000000000000
 42
2.000000000000000
 43
2.000000000000000
 50
90.00000000000000
  0
LINE
  5
1DC
100
AcDbEntity
  8
MAIN0
  6
BYBLOCK
 62
0
100
AcDbLine
 10
129.6271146571609
 20
273.1045074611087
 30
0.0000000000000000
 11
155.6365393255707
 21
273.1045074611087
 31
0.0000000000000000
  0
MTEXT
  5
1DD
100
AcDbEntity
  8
MAIN0
  6
BYBLOCK
 62
0
100
AcDbMText
 10
151.5865393732544
 20
265.1045074611087
 30
0.0000000000000000
 40
3.099999904632568
 41
0.0000000000000000
 71
     5
 72
     1
  1
\A1;16
 11
6.123233995736766e-017
 21
1.000000000000000
 31
0.0000000000000000
  7
STANDARD
  0
ENDBLK
  5
1DE
100
AcDbEntity
  8
MAIN0
  6
CONTINUOUS
 62
3
100
AcDbBlockEnd
  0
BLOCK
  5
1E0
100
AcDbEntity
  8
MAIN0
  6
CONTINUOUS
 62
3
100
AcDbBlockBegin
  2
*D12
 70
    65
 10
0.0
 20
0.0
 30
0.0
  0
LINE
  5
1E1
100
AcDbEntity
  8
MAIN0
  6
BYBLOCK
 62
0
100
AcDbLine
 10
129.6271146571609
 20
273.1045074611087
 30
0.0000000000000000
 11
165.1508560543939
 21
273.1045074611087
 31
0.0000000000000000
  0
LINE
  5
1E2
100
AcDbEntity
  8
MAIN0
  6
BYBLOCK
 62
0
100
AcDbLine
 10
163.1508560543939
 20
271.1045074611087
 30
0.0000000000000000
 11
163.1508560543939
 21
233.1045074611087
 31
0.0000000000000000
  0
INSERT
  5
1E3
100
AcDbEntity
  8
MAIN0
  6
BYBLOCK
 62
0
100
AcDbBlockReference
  2
_OPEN
 10
163.1508560543939
 20
273.1045074611087
 30
0.0000000000000000
 41
2.000000000000000
 42
2.000000000000000
 43
2.000000000000000
 50
90.00000000000000
  0
INSERT
  5
1E4
100
AcDbEntity
  8
MAIN0
  6
BYBLOCK
 62
0
100
AcDbBlockReference
  2
_OPEN
 10
163.1508560543939
 20
231.1045074611087
 30
0.0000000000000000
 41
2.000000000000000
 42
2.000000000000000
 43
2.000000000000000
 50
270.0000000000000
  0
LINE
  5
1E5
100
AcDbEntity
  8
MAIN0
  6
BYBLOCK
 62
0
100
AcDbLine
 10
144.1271146571362
 20
231.1045074611087
 30
0.0000000000000000
 11
165.1508560543939
 21
231.1045074611087
 31
0.0000000000000000
  0
MTEXT
  5
1E6
100
AcDbEntity
  8
MAIN0
  6
BYBLOCK
 62
0
100
AcDbMText
 10
161.1008561020776
 20
252.1045074611087
 30
0.0000000000000000
 40
3.099999904632568
 41
0.0000000000000000
 71
     5
 72
     1
  1
\A1;42
 11
6.123233995736766e-017
 21
1.000000000000000
 31
0.0000000000000000
  7
STANDARD
  0
ENDBLK
  5
1E7
100
AcDbEntity
  8
MAIN0
  6
CONTINUOUS
 62
3
100
AcDbBlockEnd
  0
BLOCK
  5
1E9
100
AcDbEntity
  8
MAIN0
  6
CONTINUOUS
 62
3
100
AcDbBlockBegin
  2
*D13
 70
    65
 10
0.0
 20
0.0
 30
0.0
  0
LINE
  5
1EA
100
AcDbEntity
  8
MAIN0
  6
BYBLOCK
 62
0
100
AcDbLine
 10
138.6271146452238
 20
250.4180084838146
 30
0.0000000000000000
 11
141.6271146452227
 21
250.4180084838146
 31
0.0000000000000000
  0
INSERT
  5
1EB
100
AcDbEntity
  8
MAIN0
  6
BYBLOCK
 62
0
100
AcDbBlockReference
  2
_OPEN
 10
136.6271146452238
 20
250.4180084838146
 30
0.0000000000000000
 41
2.000000000000000
 42
2.000000000000000
 43
2.000000000000000
 50
180.0000000000000
  0
INSERT
  5
1EC
100
AcDbEntity
  8
MAIN0
  6
BYBLOCK
 62
0
100
AcDbBlockReference
  2
_OPEN
 10
143.6271146452227
 20
250.4180084838146
 30
0.0000000000000000
 41
2.000000000000000
 42
2.000000000000000
 43
2.000000000000000
 50
0.0000000000000000
  0
LINE
  5
1ED
100
AcDbEntity
  8
MAIN0
  6
BYBLOCK
 62
0
100
AcDbLine
 10
143.6271146452227
 20
244.6045074730296
 30
0.0000000000000000
 11
143.6271146452227
 21
252.4180084838146
 31
0.0000000000000000
  0
MTEXT
  5
1EE
100
AcDbEntity
  8
MAIN0
  6
BYBLOCK
 62
0
100
AcDbMText
 10
140.1271146452233
 20
252.4680084361309
 30
0.0000000000000000
 40
3.099999904632568
 41
0.0000000000000000
 71
     5
 72
     1
  1
\A1;7
 11
1.000000000000000
 21
0.0000000000000000
 31
0.0000000000000000
  7
STANDARD
  0
ENDBLK
  5
1EF
100
AcDbEntity
  8
MAIN0
  6
CONTINUOUS
 62
3
100
AcDbBlockEnd
  0
BLOCK
  5
1F1
100
AcDbEntity
  8
MAIN0
  6
CONTINUOUS
 62
3
100
AcDbBlockBegin
  2
*D14
 70
    65
 10
0.0
 20
0.0
 30
0.0
  0
LINE
  5
1F2
100
AcDbEntity
  8
MAIN0
  6
BYBLOCK
 62
0
100
AcDbLine
 10
131.6271146452314
 20
263.3510193314387
 30
0.0000000000000000
 11
134.6271146452238
 21
263.3510193314387
 31
0.0000000000000000
  0
INSERT
  5
1F3
100
AcDbEntity
  8
MAIN0
  6
BYBLOCK
 62
0
100
AcDbBlockReference
  2
_OPEN
 10
129.6271146452314
 20
263.3510193314387
 30
0.0000000000000000
 41
2.000000000000000
 42
2.000000000000000
 43
2.000000000000000
 50
180.0000000000000
  0
INSERT
  5
1F4
100
AcDbEntity
  8
MAIN0
  6
BYBLOCK
 62
0
100
AcDbBlockReference
  2
_OPEN
 10
136.6271146452238
 20
263.3510193314387
 30
0.0000000000000000
 41
2.000000000000000
 42
2.000000000000000
 43
2.000000000000000
 50
0.0000000000000000
  0
LINE
  5
1F5
100
AcDbEntity
  8
MAIN0
  6
BYBLOCK
 62
0
100
AcDbLine
 10
136.6271146452296
 20
257.6045074730297
 30
0.0000000000000000
 11
136.6271146452218
 21
265.3510193314387
 31
0.0000000000000000
  0
MTEXT
  5
1F6
100
AcDbEntity
  8
MAIN0
  6
BYBLOCK
 62
0
100
AcDbMText
 10
133.1271146452276
 20
265.4010192837550
 30
0.0000000000000000
 40
3.099999904632568
 41
0.0000000000000000
 71
     5
 72
     1
  1
\A1;7
 11
1.000000000000000
 21
0.0000000000000000
 31
0.0000000000000000
  7
STANDARD
  0
ENDBLK
  5
1F7
100
AcDbEntity
  8
MAIN0
  6
CONTINUOUS
 62
3
100
AcDbBlockEnd
  0
BLOCK
  5
1F9
100
AcDbEntity
  8
MAIN0
  6
CONTINUOUS
 62
3
100
AcDbBlockBegin
  2
*D15
 70
    65
 10
0.0
 20
0.0
 30
0.0
  0
LINE
  5
1FA
100
AcDbEntity
  8
MAIN0
  6
BYBLOCK
 62
0
100
AcDbLine
 10
144.2271146569547
 20
225.1045074611303
 30
0.0000000000000000
 11
165.1508560543939
 21
225.1045074611303
 31
0.0000000000000000
  0
LINE
  5
1FB
100
AcDbEntity
  8
MAIN0
  6
BYBLOCK
 62
0
100
AcDbLine
 10
163.1508560543939
 20
223.1045074611303
 30
0.0000000000000000
 11
163.1508560543939
 21
213.1045074611303
 31
0.0000000000000000
  0
INSERT
  5
1FC
100
AcDbEntity
  8
MAIN0
  6
BYBLOCK
 62
0
100
AcDbBlockReference
  2
_OPEN
 10
163.1508560543939
 20
225.1045074611303
 30
0.0000000000000000
 41
2.000000000000000
 42
2.000000000000000
 43
2.000000000000000
 50
90.00000000000000
  0
INSERT
  5
1FD
100
AcDbEntity
  8
MAIN0
  6
BYBLOCK
 62
0
100
AcDbBlockReference
  2
_OPEN
 10
163.1508560543939
 20
211.1045074611303
 30
0.0000000000000000
 41
2.000000000000000
 42
2.000000000000000
 43
2.000000000000000
 50
270.0000000000000
  0
LINE
  5
1FE
100
AcDbEntity
  8
MAIN0
  6
BYBLOCK
 62
0
100
AcDbLine
 10
144.2271146569382
 20
211.1045074611303
 30
0.0000000000000000
 11
165.1508560543939
 21
211.1045074611303
 31
0.0000000000000000
  0
MTEXT
  5
1FF
100
AcDbEntity
  8
MAIN0
  6
BYBLOCK
 62
0
100
AcDbMText
 10
161.1008561020776
 20
218.1045074611303
 30
0.0000000000000000
 40
3.099999904632568
 41
0.0000000000000000
 71
     5
 72
     1
  1
\A1;14
 11
6.123233995736766e-017
 21
1.000000000000000
 31
0.0000000000000000
  7
STANDARD
  0
ENDBLK
  5
200
100
AcDbEntity
  8
MAIN0
  6
CONTINUOUS
 62
3
100
AcDbBlockEnd
  0
BLOCK
  5
202
100
AcDbEntity
  8
MAIN0
  6
CONTINUOUS
 62
3
100
AcDbBlockBegin
  2
*D16
 70
    65
 10
0.0
 20
0.0
 30
0.0
  0
LINE
  5
203
100
AcDbEntity
  8
MAIN0
  6
BYBLOCK
 62
0
100
AcDbLine
 10
129.6271146569803
 20
205.1045074611209
 30
0.0000000000000000
 11
155.6365393255707
 21
205.1045074611209
 31
0.0000000000000000
  0
LINE
  5
204
100
AcDbEntity
  8
MAIN0
  6
BYBLOCK
 62
0
100
AcDbLine
 10
153.6365393255707
 20
203.1045074611209
 30
0.0000000000000000
 11
153.6365393255707
 21
188.1045074611340
 31
0.0000000000000000
  0
INSERT
  5
205
100
AcDbEntity
  8
MAIN0
  6
BYBLOCK
 62
0
100
AcDbBlockReference
  2
_OPEN
 10
153.6365393255707
 20
205.1045074611209
 30
0.0000000000000000
 41
2.000000000000000
 42
2.000000000000000
 43
2.000000000000000
 50
90.00000000000000
  0
INSERT
  5
206
100
AcDbEntity
  8
MAIN0
  6
BYBLOCK
 62
0
100
AcDbBlockReference
  2
_OPEN
 10
153.6365393255707
 20
186.1045074611340
 30
0.0000000000000000
 41
2.000000000000000
 42
2.000000000000000
 43
2.000000000000000
 50
270.0000000000000
  0
LINE
  5
207
100
AcDbEntity
  8
MAIN0
  6
BYBLOCK
 62
0
100
AcDbLine
 10
137.1271146570246
 20
186.1045074611340
 30
0.0000000000000000
 11
155.6365393255707
 21
186.1045074611340
 31
0.0000000000000000
  0
MTEXT
  5
208
100
AcDbEntity
  8
MAIN0
  6
BYBLOCK
 62
0
100
AcDbMText
 10
151.5865393732544
 20
195.6045074611274
 30
0.0000000000000000
 40
3.099999904632568
 41
0.0000000000000000
 71
     5
 72
     1
  1
\A1;19
 11
6.123233995736766e-017
 21
1.000000000000000
 31
0.0000000000000000
  7
STANDARD
  0
ENDBLK
  5
209
100
AcDbEntity
  8
MAIN0
  6
CONTINUOUS
 62
3
100
AcDbBlockEnd
  0
BLOCK
  5
20B
100
AcDbEntity
  8
MAIN0
  6
CONTINUOUS
 62
3
100
AcDbBlockBegin
  2
*D17
 70
    65
 10
0.0
 20
0.0
 30
0.0
  0
LINE
  5
20C
100
AcDbEntity
  8
MAIN0
  6
BYBLOCK
 62
0
100
AcDbLine
 10
137.1271146570246
 20
186.1045074611340
 30
0.0000000000000000
 11
155.6365393255707
 21
186.1045074611340
 31
0.0000000000000000
  0
LINE
  5
20D
100
AcDbEntity
  8
MAIN0
  6
BYBLOCK
 62
0
100
AcDbLine
 10
153.6365393255707
 20
184.1045074611340
 30
0.0000000000000000
 11
153.6365393255707
 21
175.1045074611463
 31
0.0000000000000000
  0
INSERT
  5
20E
100
AcDbEntity
  8
MAIN0
  6
BYBLOCK
 62
0
100
AcDbBlockReference
  2
_OPEN
 10
153.6365393255707
 20
186.1045074611340
 30
0.0000000000000000
 41
2.000000000000000
 42
2.000000000000000
 43
2.000000000000000
 50
90.00000000000000
  0
INSERT
  5
20F
100
AcDbEntity
  8
MAIN0
  6
BYBLOCK
 62
0
100
AcDbBlockReference
  2
_OPEN
 10
153.6365393255707
 20
173.1045074611463
 30
0.0000000000000000
 41
2.000000000000000
 42
2.000000000000000
 43
2.000000000000000
 50
270.0000000000000
  0
LINE
  5
210
100
AcDbEntity
  8
MAIN0
  6
BYBLOCK
 62
0
100
AcDbLine
 10
144.1271146570550
 20
173.1045074611463
 30
0.0000000000000000
 11
155.6365393255707
 21
173.1045074611463
 31
0.0000000000000000
  0
MTEXT
  5
211
100
AcDbEntity
  8
MAIN0
  6
BYBLOCK
 62
0
100
AcDbMText
 10
151.5865393732544
 20
179.6045074611401
 30
0.0000000000000000
 40
3.099999904632568
 41
0.0000000000000000
 71
     5
 72
     1
  1
\A1;13
 11
6.123233995736766e-017
 21
1.000000000000000
 31
0.0000000000000000
  7
STANDARD
  0
ENDBLK
  5
212
100
AcDbEntity
  8
MAIN0
  6
CONTINUOUS
 62
3
100
AcDbBlockEnd
  0
BLOCK
  5
214
100
AcDbEntity
  8
MAIN0
  6
CONTINUOUS
 62
3
100
AcDbBlockBegin
  2
*D18
 70
    65
 10
0.0
 20
0.0
 30
0.0
  0
LINE
  5
215
100
AcDbEntity
  8
MAIN0
  6
BYBLOCK
 62
0
100
AcDbLine
 10
144.1271146570550
 20
173.1045074611463
 30
0.0000000000000000
 11
155.6365393255707
 21
173.1045074611463
 31
0.0000000000000000
  0
LINE
  5
216
100
AcDbEntity
  8
MAIN0
  6
BYBLOCK
 62
0
100
AcDbLine
 10
153.6365393255707
 20
171.1045074611463
 30
0.0000000000000000
 11
153.6365393255707
 21
165.1045074611463
 31
0.0000000000000000
  0
INSERT
  5
217
100
AcDbEntity
  8
MAIN0
  6
BYBLOCK
 62
0
100
AcDbBlockReference
  2
_OPEN
 10
153.6365393255707
 20
173.1045074611463
 30
0.0000000000000000
 41
2.000000000000000
 42
2.000000000000000
 43
2.000000000000000
 50
90.00000000000000
  0
INSERT
  5
218
100
AcDbEntity
  8
MAIN0
  6
BYBLOCK
 62
0
100
AcDbBlockReference
  2
_OPEN
 10
153.6365393255707
 20
163.1045074611463
 30
0.0000000000000000
 41
2.000000000000000
 42
2.000000000000000
 43
2.000000000000000
 50
270.0000000000000
  0
LINE
  5
219
100
AcDbEntity
  8
MAIN0
  6
BYBLOCK
 62
0
100
AcDbLine
 10
144.1271146570784
 20
163.1045074611463
 30
0.0000000000000000
 11
155.6365393255707
 21
163.1045074611463
 31
0.0000000000000000
  0
MTEXT
  5
21A
100
AcDbEntity
  8
MAIN0
  6
BYBLOCK
 62
0
100
AcDbMText
 10
151.5865393732544
 20
168.1045074611463
 30
0.0000000000000000
 40
3.099999904632568
 41
0.0000000000000000
 71
     5
 72
     1
  1
\A1;10
 11
6.123233995736766e-017
 21
1.000000000000000
 31
0.0000000000000000
  7
STANDARD
  0
ENDBLK
  5
21B
100
AcDbEntity
  8
MAIN0
  6
CONTINUOUS
 62
3
100
AcDbBlockEnd
  0
BLOCK
  5
21D
100
AcDbEntity
  8
MAIN0
  6
CONTINUOUS
 62
3
100
AcDbBlockBegin
  2
*D19
 70
    65
 10
0.0
 20
0.0
 30
0.0
  0
LINE
  5
21E
100
AcDbEntity
  8
MAIN0
  6
BYBLOCK
 62
0
100
AcDbLine
 10
143.6271146451374
 20
173.6045074730677
 30
0.0000000000000000
 11
143.6271146451633
 21
181.4712033005327
 31
0.0000000000000000
  0
LINE
  5
21F
100
AcDbEntity
  8
MAIN0
  6
BYBLOCK
 62
0
100
AcDbLine
 10
141.6271146451567
 20
179.4712033005327
 30
0.0000000000000000
 11
138.6271146451306
 21
179.4712033005327
 31
0.0000000000000000
  0
INSERT
  5
220
100
AcDbEntity
  8
MAIN0
  6
BYBLOCK
 62
0
100
AcDbBlockReference
  2
_OPEN
 10
143.6271146451567
 20
179.4712033005327
 30
0.0000000000000000
 41
2.000000000000000
 42
2.000000000000000
 43
2.000000000000000
 50
360.0000000000000
  0
INSERT
  5
221
100
AcDbEntity
  8
MAIN0
  6
BYBLOCK
 62
0
100
AcDbBlockReference
  2
_OPEN
 10
136.6271146451306
 20
179.4712033005327
 30
0.0000000000000000
 41
2.000000000000000
 42
2.000000000000000
 43
2.000000000000000
 50
180.0000000000000
  0
MTEXT
  5
222
100
AcDbEntity
  8
MAIN0
  6
BYBLOCK
 62
0
100
AcDbMText
 10
140.1271146451437
 20
181.5212032528490
 30
0.0000000000000000
 40
3.099999904632568
 41
0.0000000000000000
 71
     5
 72
     1
  1
\A1;7
 11
1.000000000000000
 21
0.0000000000000000
 31
0.0000000000000000
  7
STANDARD
  0
ENDBLK
  5
223
100
AcDbEntity
  8
MAIN0
  6
CONTINUOUS
 62
3
100
AcDbBlockEnd
  0
BLOCK
  5
225
100
AcDbEntity
  8
MAIN0
  6
CONTINUOUS
 62
3
100
AcDbBlockBegin
  2
*D20
 70
    65
 10
0.0
 20
0.0
 30
0.0
  0
LINE
  5
226
100
AcDbEntity
  8
MAIN0
  6
BYBLOCK
 62
0
100
AcDbLine
 10
136.6271146451044
 20
186.6045074730555
 30
0.0000000000000000
 11
136.6271146451044
 21
194.4042141481568
 31
0.0000000000000000
  0
LINE
  5
227
100
AcDbEntity
  8
MAIN0
  6
BYBLOCK
 62
0
100
AcDbLine
 10
134.6271146451044
 20
192.4042141481568
 30
0.0000000000000000
 11
131.6271146450779
 21
192.4042141481568
 31
0.0000000000000000
  0
INSERT
  5
228
100
AcDbEntity
  8
MAIN0
  6
BYBLOCK
 62
0
100
AcDbBlockReference
  2
_OPEN
 10
136.6271146451044
 20
192.4042141481568
 30
0.0000000000000000
 41
2.000000000000000
 42
2.000000000000000
 43
2.000000000000000
 50
360.0000000000000
  0
INSERT
  5
229
100
AcDbEntity
  8
MAIN0
  6
BYBLOCK
 62
0
100
AcDbBlockReference
  2
_OPEN
 10
129.6271146450779
 20
192.4042141481568
 30
0.0000000000000000
 41
2.000000000000000
 42
2.000000000000000
 43
2.000000000000000
 50
180.0000000000000
  0
MTEXT
  5
22A
100
AcDbEntity
  8
MAIN0
  6
BYBLOCK
 62
0
100
AcDbMText
 10
133.1271146450912
 20
194.4542141004731
 30
0.0000000000000000
 40
3.099999904632568
 41
0.0000000000000000
 71
     5
 72
     1
  1
\A1;7
 11
1.000000000000000
 21
0.0000000000000000
 31
0.0000000000000000
  7
STANDARD
  0
ENDBLK
  5
22B
100
AcDbEntity
  8
MAIN0
  6
CONTINUOUS
 62
3
100
AcDbBlockEnd
  0
BLOCK
  5
23F
100
AcDbEntity
  8
MAIN0
  6
CONTINUOUS
 62
3
100
AcDbBlockBegin
  2
*D21
 70
    65
 10
0.0
 20
0.0
 30
0.0
  0
LINE
  5
240
100
AcDbEntity
  8
MAIN0
  6
BYBLOCK
 62
0
100
AcDbLine
 10
67.62711464524000
 20
163.3045074491878
 30
0.0000000000000000
 11
67.62711464524000
 21
136.9453806631440
 31
0.0000000000000000
  0
LINE
  5
241
100
AcDbEntity
  8
MAIN0
  6
BYBLOCK
 62
0
100
AcDbLine
 10
69.62711464524000
 20
138.9453806631440
 30
0.0000000000000000
 11
123.6271146452400
 21
138.9453806631440
 31
0.0000000000000000
  0
INSERT
  5
242
100
AcDbEntity
  8
MAIN0
  6
BYBLOCK
 62
0
100
AcDbBlockReference
  2
_OPEN
 10
67.62711464524000
 20
138.9453806631440
 30
0.0000000000000000
 41
2.000000000000000
 42
2.000000000000000
 43
2.000000000000000
 50
180.0000000000000
  0
INSERT
  5
243
100
AcDbEntity
  8
MAIN0
  6
BYBLOCK
 62
0
100
AcDbBlockReference
  2
_OPEN
 10
125.6271146452400
 20
138.9453806631440
 30
0.0000000000000000
 41
2.000000000000000
 42
2.000000000000000
 43
2.000000000000000
 50
0.0000000000000000
  0
LINE
  5
244
100
AcDbEntity
  8
MAIN0
  6
BYBLOCK
 62
0
100
AcDbLine
 10
125.6271146452400
 20
163.8045074491878
 30
0.0000000000000000
 11
125.6271146452400
 21
136.9453806631440
 31
0.0000000000000000
  0
MTEXT
  5
245
100
AcDbEntity
  8
MAIN0
  6
BYBLOCK
 62
0
100
AcDbMText
 10
96.62711464524000
 20
140.9953806154603
 30
0.0000000000000000
 40
3.099999904632568
 41
0.0000000000000000
 71
     5
 72
     1
  1
\A1;58
 11
1.000000000000000
 21
0.0000000000000000
 31
0.0000000000000000
  7
STANDARD
  0
ENDBLK
  5
246
100
AcDbEntity
  8
MAIN0
  6
CONTINUOUS
 62
3
100
AcDbBlockEnd
  0
BLOCK
  5
24A
100
AcDbEntity
  8
MAIN0
  6
CONTINUOUS
 62
3
100
AcDbBlockBegin
  2
*D22
 70
    65
 10
0.0
 20
0.0
 30
0.0
  0
LINE
  5
24B
100
AcDbEntity
  8
MAIN0
  6
BYBLOCK
 62
0
100
AcDbLine
 10
125.6271146452400
 20
163.8045074491878
 30
0.0000000000000000
 11
125.6271146452400
 21
146.4596973919672
 31
0.0000000000000000
  0
LINE
  5
24C
100
AcDbEntity
  8
MAIN0
  6
BYBLOCK
 62
0
100
AcDbLine
 10
123.6271146452400
 20
148.4596973919672
 30
0.0000000000000000
 11
94.12711464524000
 21
148.4596973919672
 31
0.0000000000000000
  0
INSERT
  5
24D
100
AcDbEntity
  8
MAIN0
  6
BYBLOCK
 62
0
100
AcDbBlockReference
  2
_OPEN
 10
125.6271146452400
 20
148.4596973919672
 30
0.0000000000000000
 41
2.000000000000000
 42
2.000000000000000
 43
2.000000000000000
 50
360.0000000000000
  0
INSERT
  5
24E
100
AcDbEntity
  8
MAIN0
  6
BYBLOCK
 62
0
100
AcDbBlockReference
  2
_OPEN
 10
92.12711464524000
 20
148.4596973919672
 30
0.0000000000000000
 41
2.000000000000000
 42
2.000000000000000
 43
2.000000000000000
 50
180.0000000000000
  0
LINE
  5
24F
100
AcDbEntity
  8
MAIN0
  6
BYBLOCK
 62
0
100
AcDbLine
 10
92.12711464524000
 20
158.7451917816133
 30
0.0000000000000000
 11
92.12711464524000
 21
146.4596973919672
 31
0.0000000000000000
  0
MTEXT
  5
250
100
AcDbEntity
  8
MAIN0
  6
BYBLOCK
 62
0
100
AcDbMText
 10
108.8771146452400
 20
150.5096973442834
 30
0.0000000000000000
 40
3.099999904632568
 41
0.0000000000000000
 71
     5
 72
     1
  1
\A1;33.5
 11
1.000000000000000
 21
0.0000000000000000
 31
0.0000000000000000
  7
STANDARD
  0
ENDBLK
  5
251
100
AcDbEntity
  8
MAIN0
  6
CONTINUOUS
 62
3
100
AcDbBlockEnd
  0
BLOCK
  5
253
100
AcDbEntity
  8
MAIN0
  6
CONTINUOUS
 62
3
100
AcDbBlockBegin
  2
*D23
 70
    65
 10
0.0
 20
0.0
 30
0.0
  0
LINE
  5
254
100
AcDbEntity
  8
MAIN0
  6
BYBLOCK
 62
0
100
AcDbLine
 10
92.12711464524000
 20
158.7451917816133
 30
0.0000000000000000
 11
92.12711464524000
 21
146.4596973919672
 31
0.0000000000000000
  0
LINE
  5
255
100
AcDbEntity
  8
MAIN0
  6
BYBLOCK
 62
0
100
AcDbLine
 10
90.12711464524000
 20
148.4596973919672
 30
0.0000000000000000
 11
69.62711464524000
 21
148.4596973919672
 31
0.0000000000000000
  0
INSERT
  5
256
100
AcDbEntity
  8
MAIN0
  6
BYBLOCK
 62
0
100
AcDbBlockReference
  2
_OPEN
 10
92.12711464524000
 20
148.4596973919672
 30
0.0000000000000000
 41
2.000000000000000
 42
2.000000000000000
 43
2.000000000000000
 50
360.0000000000000
  0
INSERT
  5
257
100
AcDbEntity
  8
MAIN0
  6
BYBLOCK
 62
0
100
AcDbBlockReference
  2
_OPEN
 10
67.62711464524000
 20
148.4596973919672
 30
0.0000000000000000
 41
2.000000000000000
 42
2.000000000000000
 43
2.000000000000000
 50
180.0000000000000
  0
LINE
  5
258
100
AcDbEntity
  8
MAIN0
  6
BYBLOCK
 62
0
100
AcDbLine
 10
67.62711464524000
 20
163.3045074491878
 30
0.0000000000000000
 11
67.62711464524000
 21
146.4596973919672
 31
0.0000000000000000
  0
MTEXT
  5
259
100
AcDbEntity
  8
MAIN0
  6
BYBLOCK
 62
0
100
AcDbMText
 10
79.87711464524000
 20
150.5096973442834
 30
0.0000000000000000
 40
3.099999904632568
 41
0.0000000000000000
 71
     5
 72
     1
  1
\A1;24.5
 11
1.000000000000000
 21
0.0000000000000000
 31
0.0000000000000000
  7
STANDARD
  0
ENDBLK
  5
25A
100
AcDbEntity
  8
MAIN0
  6
CONTINUOUS
 62
3
100
AcDbBlockEnd
  0
BLOCK
  5
25C
100
AcDbEntity
  8
MAIN0
  6
CONTINUOUS
 62
3
100
AcDbBlockBegin
  2
*D24
 70
    65
 10
0.0
 20
0.0
 30
0.0
  0
LINE
  5
25D
100
AcDbEntity
  8
MAIN0
  6
BYBLOCK
 62
0
100
AcDbLine
 10
97.87069522826423
 20
121.1209452927062
 30
0.0000000000000000
 11
106.0583540658250
 21
112.9332864551297
 31
0.0000000000000000
  0
LINE
  5
25E
100
AcDbEntity
  8
MAIN0
  6
BYBLOCK
 62
0
100
AcDbLine
 10
104.6441405034533
 20
114.3475000175041
 30
0.0000000000000000
 11
98.98728625396038
 21
108.6906457680178
 31
0.0000000000000000
  0
INSERT
  5
25F
100
AcDbEntity
  8
MAIN0
  6
BYBLOCK
 62
0
100
AcDbBlockReference
  2
_OPEN
 10
104.6441405034533
 20
114.3475000175041
 30
0.0000000000000000
 41
2.000000000000000
 42
2.000000000000000
 43
2.000000000000000
 50
224.9999999999664
  0
INSERT
  5
260
100
AcDbEntity
  8
MAIN0
  6
BYBLOCK
 62
0
100
AcDbBlockReference
  2
_OPEN
 10
98.98728625396038
 20
108.6906457680178
 30
0.0000000000000000
 41
2.000000000000000
 42
2.000000000000000
 43
2.000000000000000
 50
44.99999999996635
  0
LINE
  5
261
100
AcDbEntity
  8
MAIN0
  6
BYBLOCK
 62
0
100
AcDbLine
 10
106.0583540658272
 20
115.7617135798764
 30
0.0000000000000000
 11
106.7654608470142
 21
116.4688203610625
 31
0.0000000000000000
  0
LINE
  5
262
100
AcDbEntity
  8
MAIN0
  6
BYBLOCK
 62
0
100
AcDbLine
 10
97.57307269158645
 20
107.2764322056456
 30
0.0000000000000000
 11
89.98605192679065
 21
99.68941144085868
 31
0.0000000000000000
  0
LINE
  5
263
100
AcDbEntity
  8
MAIN0
  6
BYBLOCK
 62
0
100
AcDbLine
 10
92.21384097870333
 20
115.4640910432829
 30
0.0000000000000000
 11
100.4014998163327
 21
107.2764322056439
 31
0.0000000000000000
  0
MTEXT
  5
264
100
AcDbEntity
  8
MAIN0
  6
BYBLOCK
 62
0
100
AcDbMText
 10
92.16040517622392
 20
104.7629024257177
 30
0.0000000000000000
 40
3.099999904632568
 41
0.0000000000000000
 71
     5
 72
     1
  1
\A1;8\H0.903226x;\S+0.15^ +0.05;
 11
0.7071067811869634
 21
0.7071067811861318
 31
0.0000000000000000
  7
STANDARD
  0
ENDBLK
  5
265
100
AcDbEntity
  8
MAIN0
  6
CONTINUOUS
 62
3
100
AcDbBlockEnd
  0
BLOCK
  5
267
100
AcDbEntity
  8
MAIN0
  6
CONTINUOUS
 62
3
100
AcDbBlockBegin
  2
*D25
 70
    65
 10
0.0
 20
0.0
 30
0.0
  0
LINE
  5
268
100
AcDbEntity
  8
MAIN0
  6
BYBLOCK
 62
0
100
AcDbLine
 10
72.62521015763015
 20
230.1045074611087
 30
0.0000000000000000
 11
56.00214046048964
 21
230.1045074611087
 31
0.0000000000000000
  0
LINE
  5
269
100
AcDbEntity
  8
MAIN0
  6
BYBLOCK
 62
0
100
AcDbLine
 10
58.00214046048964
 20
228.1045074611087
 30
0.0000000000000000
 11
58.00214046048964
 21
208.1045074611087
 31
0.0000000000000000
  0
INSERT
  5
26A
100
AcDbEntity
  8
MAIN0
  6
BYBLOCK
 62
0
100
AcDbBlockReference
  2
_OPEN
 10
58.00214046048964
 20
230.1045074611087
 30
0.0000000000000000
 41
2.000000000000000
 42
2.000000000000000
 43
2.000000000000000
 50
90.00000000000000
  0
INSERT
  5
26B
100
AcDbEntity
  8
MAIN0
  6
BYBLOCK
 62
0
100
AcDbBlockReference
  2
_OPEN
 10
58.00214046048964
 20
206.1045074611087
 30
0.0000000000000000
 41
2.000000000000000
 42
2.000000000000000
 43
2.000000000000000
 50
270.0000000000000
  0
LINE
  5
26C
100
AcDbEntity
  8
MAIN0
  6
BYBLOCK
 62
0
100
AcDbLine
 10
72.62265526413650
 20
206.1045074611087
 30
0.0000000000000000
 11
56.00214046048964
 21
206.1045074611087
 31
0.0000000000000000
  0
MTEXT
  5
26D
100
AcDbEntity
  8
MAIN0
  6
BYBLOCK
 62
0
100
AcDbMText
 10
55.95214050817336
 20
218.1045074611087
 30
0.0000000000000000
 40
3.099999904632568
 41
0.0000000000000000
 71
     5
 72
     1
  1
\A1;\U+220524
 11
6.123233995736766e-017
 21
1.000000000000000
 31
0.0000000000000000
  7
STANDARD
  0
ENDBLK
  5
26E
100
AcDbEntity
  8
MAIN0
  6
CONTINUOUS
 62
3
100
AcDbBlockEnd
  0
BLOCK
  5
270
100
AcDbEntity
  8
MAIN0
  6
CONTINUOUS
 62
3
100
AcDbBlockBegin
  2
*D26
 70
    65
 10
0.0
 20
0.0
 30
0.0
  0
LINE
  5
271
100
AcDbEntity
  8
MAIN0
  6
BYBLOCK
 62
0
100
AcDbLine
 10
66.82711463331907
 20
258.1045074611087
 30
0.0000000000000000
 11
46.59848118759372
 21
258.1045074611087
 31
0.0000000000000000
  0
LINE
  5
272
100
AcDbEntity
  8
MAIN0
  6
BYBLOCK
 62
0
100
AcDbLine
 10
48.59848118759372
 20
256.1045074611087
 30
0.0000000000000000
 11
48.59848118759372
 21
180.1045074611087
 31
0.0000000000000000
  0
INSERT
  5
273
100
AcDbEntity
  8
MAIN0
  6
BYBLOCK
 62
0
100
AcDbBlockReference
  2
_OPEN
 10
48.59848118759372
 20
258.1045074611087
 30
0.0000000000000000
 41
2.000000000000000
 42
2.000000000000000
 43
2.000000000000000
 50
90.00000000000000
  0
INSERT
  5
274
100
AcDbEntity
  8
MAIN0
  6
BYBLOCK
 62
0
100
AcDbBlockReference
  2
_OPEN
 10
48.59848118759372
 20
178.1045074611087
 30
0.0000000000000000
 41
2.000000000000000
 42
2.000000000000000
 43
2.000000000000000
 50
270.0000000000000
  0
LINE
  5
275
100
AcDbEntity
  8
MAIN0
  6
BYBLOCK
 62
0
100
AcDbLine
 10
66.82711463331907
 20
178.1045074611087
 30
0.0000000000000000
 11
46.59848118759372
 21
178.1045074611087
 31
0.0000000000000000
  0
MTEXT
  5
276
100
AcDbEntity
  8
MAIN0
  6
BYBLOCK
 62
0
100
AcDbMText
 10
46.54848123527744
 20
223.0528631550847
 30
0.0000000000000000
 40
3.099999904632568
 41
0.0000000000000000
 71
     5
 72
     1
  1
\A1;\U+220580H6\H0.903226x;\S＋0.019^ 　0;
 11
6.123233995736766e-017
 21
1.000000000000000
 31
0.0000000000000000
  7
KNJYOKO
  0
ENDBLK
  5
277
100
AcDbEntity
  8
MAIN0
  6
CONTINUOUS
 62
3
100
AcDbBlockEnd
  0
BLOCK
  5
27A
100
AcDbEntity
  8
MAIN0
  6
CONTINUOUS
 62
3
100
AcDbBlockBegin
  2
*D27
 70
    65
 10
0.0
 20
0.0
 30
0.0
  0
LINE
  5
27B
100
AcDbEntity
  8
MAIN0
  6
BYBLOCK
 62
0
100
AcDbLine
 10
67.82711463331907
 20
273.1045074611087
 30
0.0000000000000000
 11
37.08416445877058
 21
273.1045074611087
 31
0.0000000000000000
  0
LINE
  5
27C
100
AcDbEntity
  8
MAIN0
  6
BYBLOCK
 62
0
100
AcDbLine
 10
39.08416445877058
 20
271.1045074611087
 30
0.0000000000000000
 11
39.08416445877058
 21
165.1045074611087
 31
0.0000000000000000
  0
INSERT
  5
27D
100
AcDbEntity
  8
MAIN0
  6
BYBLOCK
 62
0
100
AcDbBlockReference
  2
_OPEN
 10
39.08416445877058
 20
273.1045074611087
 30
0.0000000000000000
 41
2.000000000000000
 42
2.000000000000000
 43
2.000000000000000
 50
90.00000000000000
  0
INSERT
  5
27E
100
AcDbEntity
  8
MAIN0
  6
BYBLOCK
 62
0
100
AcDbBlockReference
  2
_OPEN
 10
39.08416445877058
 20
163.1045074611087
 30
0.0000000000000000
 41
2.000000000000000
 42
2.000000000000000
 43
2.000000000000000
 50
270.0000000000000
  0
LINE
  5
27F
100
AcDbEntity
  8
MAIN0
  6
BYBLOCK
 62
0
100
AcDbLine
 10
67.82711463331907
 20
163.1045074611087
 30
0.0000000000000000
 11
37.08416445877058
 21
163.1045074611087
 31
0.0000000000000000
  0
MTEXT
  5
280
100
AcDbEntity
  8
MAIN0
  6
BYBLOCK
 62
0
100
AcDbMText
 10
37.03416450645430
 20
218.1045074611087
 30
0.0000000000000000
 40
3.099999904632568
 41
0.0000000000000000
 71
     5
 72
     1
  1
\A1;\U+2205110
 11
6.123233995736766e-017
 21
1.000000000000000
 31
0.0000000000000000
  7
STANDARD
  0
ENDBLK
  5
281
100
AcDbEntity
  8
MAIN0
  6
CONTINUOUS
 62
3
100
AcDbBlockEnd
  0
BLOCK
  5
284
100
AcDbEntity
  8
MAIN0
  6
CONTINUOUS
 62
3
100
AcDbBlockBegin
  2
*D28
 70
    65
 10
0.0
 20
0.0
 30
0.0
  0
LINE
  5
285
100
AcDbEntity
  8
MAIN0
  6
BYBLOCK
 62
0
100
AcDbLine
 10
67.62711464524000
 20
272.9045074730296
 30
0.0000000000000000
 11
67.62711464524000
 21
285.1200445601760
 31
0.0000000000000000
  0
LINE
  5
286
100
AcDbEntity
  8
MAIN0
  6
BYBLOCK
 62
0
100
AcDbLine
 10
69.62711464524000
 20
283.1200445601760
 30
0.0000000000000000
 11
81.62711464524000
 21
283.1200445601760
 31
0.0000000000000000
  0
INSERT
  5
287
100
AcDbEntity
  8
MAIN0
  6
BYBLOCK
 62
0
100
AcDbBlockReference
  2
_OPEN
 10
67.62711464524000
 20
283.1200445601760
 30
0.0000000000000000
 41
2.000000000000000
 42
2.000000000000000
 43
2.000000000000000
 50
180.0000000000000
  0
INSERT
  5
288
100
AcDbEntity
  8
MAIN0
  6
BYBLOCK
 62
0
100
AcDbBlockReference
  2
_OPEN
 10
83.62711464524000
 20
283.1200445601760
 30
0.0000000000000000
 41
2.000000000000000
 42
2.000000000000000
 43
2.000000000000000
 50
0.0000000000000000
  0
LINE
  5
289
100
AcDbEntity
  8
MAIN0
  6
BYBLOCK
 62
0
100
AcDbLine
 10
83.62711464524000
 20
270.4045074730296
 30
0.0000000000000000
 11
83.62711464524000
 21
285.1200445601760
 31
0.0000000000000000
  0
MTEXT
  5
28A
100
AcDbEntity
  8
MAIN0
  6
BYBLOCK
 62
0
100
AcDbMText
 10
75.62711464524000
 20
285.1700445124923
 30
0.0000000000000000
 40
3.099999904632568
 41
0.0000000000000000
 71
     5
 72
     1
  1
\A1;16
 11
1.000000000000000
 21
0.0000000000000000
 31
0.0000000000000000
  7
STANDARD
  0
ENDBLK
  5
28B
100
AcDbEntity
  8
MAIN0
  6
CONTINUOUS
 62
3
100
AcDbBlockEnd
  0
BLOCK
  5
299
100
AcDbEntity
  8
MAIN0
  6
CONTINUOUS
 62
3
100
AcDbBlockBegin
  2
*D29
 70
    65
 10
0.0
 20
0.0
 30
0.0
  0
LINE
  5
29A
100
AcDbEntity
  8
MAIN0
  6
BYBLOCK
 62
0
100
AcDbLine
 10
126.0271146571609
 20
178.6045074611087
 30
0.0000000000000000
 11
134.1326793567824
 21
178.6045074611087
 31
0.0000000000000000
  0
LINE
  5
29B
100
AcDbEntity
  8
MAIN0
  6
BYBLOCK
 62
0
100
AcDbLine
 10
132.1326793567824
 20
176.6045074611087
 30
0.0000000000000000
 11
132.1326793567824
 21
166.6045074611087
 31
0.0000000000000000
  0
INSERT
  5
29C
100
AcDbEntity
  8
MAIN0
  6
BYBLOCK
 62
0
100
AcDbBlockReference
  2
_OPEN
 10
132.1326793567824
 20
178.6045074611087
 30
0.0000000000000000
 41
2.000000000000000
 42
2.000000000000000
 43
2.000000000000000
 50
90.00000000000000
  0
INSERT
  5
29D
100
AcDbEntity
  8
MAIN0
  6
BYBLOCK
 62
0
100
AcDbBlockReference
  2
_OPEN
 10
132.1326793567824
 20
164.6045074611087
 30
0.0000000000000000
 41
2.000000000000000
 42
2.000000000000000
 43
2.000000000000000
 50
270.0000000000000
  0
LINE
  5
29E
100
AcDbEntity
  8
MAIN0
  6
BYBLOCK
 62
0
100
AcDbLine
 10
126.0271146571609
 20
164.6045074611087
 30
0.0000000000000000
 11
134.1326793567824
 21
164.6045074611087
 31
0.0000000000000000
  0
MTEXT
  5
29F
100
AcDbEntity
  8
MAIN0
  6
BYBLOCK
 62
0
100
AcDbMText
 10
130.0826794044661
 20
171.6045074611087
 30
0.0000000000000000
 40
3.099999904632568
 41
0.0000000000000000
 71
     5
 72
     1
  1
\A1;\U+220514
 11
6.123233995736766e-017
 21
1.000000000000000
 31
0.0000000000000000
  7
STANDARD
  0
ENDBLK
  5
2A0
100
AcDbEntity
  8
MAIN0
  6
CONTINUOUS
 62
3
100
AcDbBlockEnd
  0
BLOCK
  5
2A2
100
AcDbEntity
  8
MAIN0
  6
CONTINUOUS
 62
3
100
AcDbBlockBegin
  2
*D30
 70
    65
 10
0.0
 20
0.0
 30
0.0
  0
LINE
  5
2A3
100
AcDbEntity
  8
MAIN0
  6
BYBLOCK
 62
0
100
AcDbLine
 10
116.6271146452400
 20
163.8045074491878
 30
0.0000000000000000
 11
116.6271146452400
 21
155.6425428715555
 31
0.0000000000000000
  0
LINE
  5
2A4
100
AcDbEntity
  8
MAIN0
  6
BYBLOCK
 62
0
100
AcDbLine
 10
118.6271146452400
 20
157.6425428715555
 30
0.0000000000000000
 11
123.6271146452400
 21
157.6425428715555
 31
0.0000000000000000
  0
INSERT
  5
2A5
100
AcDbEntity
  8
MAIN0
  6
BYBLOCK
 62
0
100
AcDbBlockReference
  2
_OPEN
 10
116.6271146452400
 20
157.6425428715555
 30
0.0000000000000000
 41
2.000000000000000
 42
2.000000000000000
 43
2.000000000000000
 50
180.0000000000000
  0
INSERT
  5
2A6
100
AcDbEntity
  8
MAIN0
  6
BYBLOCK
 62
0
100
AcDbBlockReference
  2
_OPEN
 10
125.6271146452400
 20
157.6425428715555
 30
0.0000000000000000
 41
2.000000000000000
 42
2.000000000000000
 43
2.000000000000000
 50
0.0000000000000000
  0
LINE
  5
2A7
100
AcDbEntity
  8
MAIN0
  6
BYBLOCK
 62
0
100
AcDbLine
 10
125.6271146452400
 20
163.8045074491878
 30
0.0000000000000000
 11
125.6271146452400
 21
155.6425428715555
 31
0.0000000000000000
  0
MTEXT
  5
2A8
100
AcDbEntity
  8
MAIN0
  6
BYBLOCK
 62
0
100
AcDbMText
 10
121.1271146452400
 20
159.6925428238718
 30
0.0000000000000000
 40
3.099999904632568
 41
0.0000000000000000
 71
     5
 72
     1
  1
\A1;9
 11
1.000000000000000
 21
0.0000000000000000
 31
0.0000000000000000
  7
STANDARD
  0
ENDBLK
  5
2A9
100
AcDbEntity
  8
MAIN0
  6
CONTINUOUS
 62
3
100
AcDbBlockEnd
  0
BLOCK
  5
2AB
100
AcDbEntity
  8
MAIN0
  6
CONTINUOUS
 62
3
100
AcDbBlockBegin
  2
*D31
 70
    65
 10
0.0
 20
0.0
 30
0.0
  0
LINE
  5
2AC
100
AcDbEntity
  8
MAIN0
  6
BYBLOCK
 62
0
100
AcDbLine
 10
67.22711463331908
 20
176.1045074611087
 30
0.0000000000000000
 11
46.59848118759372
 21
176.1045074611087
 31
0.0000000000000000
  0
LINE
  5
2AD
100
AcDbEntity
  8
MAIN0
  6
BYBLOCK
 62
0
100
AcDbLine
 10
48.59848118759372
 20
174.1045074611087
 30
0.0000000000000000
 11
48.59848118759372
 21
169.1045074611087
 31
0.0000000000000000
  0
INSERT
  5
2AE
100
AcDbEntity
  8
MAIN0
  6
BYBLOCK
 62
0
100
AcDbBlockReference
  2
_OPEN
 10
48.59848118759372
 20
176.1045074611087
 30
0.0000000000000000
 41
2.000000000000000
 42
2.000000000000000
 43
2.000000000000000
 50
90.00000000000000
  0
INSERT
  5
2AF
100
AcDbEntity
  8
MAIN0
  6
BYBLOCK
 62
0
100
AcDbBlockReference
  2
_OPEN
 10
48.59848118759372
 20
167.1045074611087
 30
0.0000000000000000
 41
2.000000000000000
 42
2.000000000000000
 43
2.000000000000000
 50
270.0000000000000
  0
LINE
  5
2B0
100
AcDbEntity
  8
MAIN0
  6
BYBLOCK
 62
0
100
AcDbLine
 10
67.22711463331908
 20
167.1045074611087
 30
0.0000000000000000
 11
46.59848118759372
 21
167.1045074611087
 31
0.0000000000000000
  0
MTEXT
  5
2B1
100
AcDbEntity
  8
MAIN0
  6
BYBLOCK
 62
0
100
AcDbMText
 10
46.54848123527744
 20
171.6045074611087
 30
0.0000000000000000
 40
3.099999904632568
 41
0.0000000000000000
 71
     5
 72
     1
  1
\A1;\U+22059
 11
6.123233995736766e-017
 21
1.000000000000000
 31
0.0000000000000000
  7
STANDARD
  0
ENDBLK
  5
2B2
100
AcDbEntity
  8
MAIN0
  6
CONTINUOUS
 62
3
100
AcDbBlockEnd
  0
BLOCK
  5
2B9
100
AcDbEntity
  8
MAIN0
  6
CONTINUOUS
 62
3
100
AcDbBlockBegin
  2
*D32
 70
    65
 10
0.0
 20
0.0
 30
0.0
  0
LINE
  5
2BA
100
AcDbEntity
  8
MAIN0
  6
BYBLOCK
 62
0
100
AcDbLine
 10
301.6280120757575
 20
159.5517822887545
 30
0.0000000000000000
 11
291.7923932646985
 21
159.5517822887545
 31
0.0000000000000000
  0
LINE
  5
2BB
100
AcDbEntity
  8
MAIN0
  6
BYBLOCK
 62
0
100
AcDbLine
 10
293.7923932646985
 20
161.5517822887545
 30
0.0000000000000000
 11
293.7923932646985
 21
171.5517822887545
 31
0.0000000000000000
  0
INSERT
  5
2BC
100
AcDbEntity
  8
MAIN0
  6
BYBLOCK
 62
0
100
AcDbBlockReference
  2
_OPEN
 10
293.7923932646985
 20
159.5517822887545
 30
0.0000000000000000
 41
2.000000000000000
 42
2.000000000000000
 43
2.000000000000000
 50
270.0000000000000
  0
INSERT
  5
2BD
100
AcDbEntity
  8
MAIN0
  6
BYBLOCK
 62
0
100
AcDbBlockReference
  2
_OPEN
 10
293.7923932646985
 20
173.5517822887545
 30
0.0000000000000000
 41
2.000000000000000
 42
2.000000000000000
 43
2.000000000000000
 50
90.00000000000000
  0
LINE
  5
2BE
100
AcDbEntity
  8
MAIN0
  6
BYBLOCK
 62
0
100
AcDbLine
 10
301.6280120757575
 20
173.5517822887545
 30
0.0000000000000000
 11
291.7923932646985
 21
173.5517822887545
 31
0.0000000000000000
  0
MTEXT
  5
2BF
100
AcDbEntity
  8
MAIN0
  6
BYBLOCK
 62
0
100
AcDbMText
 10
291.7423933123822
 20
166.5517822887545
 30
0.0000000000000000
 40
3.099999904632568
 41
0.0000000000000000
 71
     5
 72
     1
  1
\A1;14
 11
6.123233995736766e-017
 21
1.000000000000000
 31
0.0000000000000000
  7
STANDARD
  0
ENDBLK
  5
2C0
100
AcDbEntity
  8
MAIN0
  6
CONTINUOUS
 62
3
100
AcDbBlockEnd
  0
BLOCK
  5
2C3
100
AcDbEntity
  8
MAIN0
  6
CONTINUOUS
 62
3
100
AcDbBlockBegin
  2
*D33
 70
    65
 10
0.0
 20
0.0
 30
0.0
  0
LINE
  5
2C4
100
AcDbEntity
  8
MAIN0
  6
BYBLOCK
 62
0
100
AcDbLine
 10
301.6280120757575
 20
142.6044878687739
 30
0.0000000000000000
 11
291.7923932646985
 21
142.6044878687739
 31
0.0000000000000000
  0
LINE
  5
2C5
100
AcDbEntity
  8
MAIN0
  6
BYBLOCK
 62
0
100
AcDbLine
 10
293.7923932646985
 20
140.6044878687739
 30
0.0000000000000000
 11
293.7923932646985
 21
130.6044878687739
 31
0.0000000000000000
  0
INSERT
  5
2C6
100
AcDbEntity
  8
MAIN0
  6
BYBLOCK
 62
0
100
AcDbBlockReference
  2
_OPEN
 10
293.7923932646985
 20
142.6044878687739
 30
0.0000000000000000
 41
2.000000000000000
 42
2.000000000000000
 43
2.000000000000000
 50
90.00000000000000
  0
INSERT
  5
2C7
100
AcDbEntity
  8
MAIN0
  6
BYBLOCK
 62
0
100
AcDbBlockReference
  2
_OPEN
 10
293.7923932646985
 20
128.6044878687739
 30
0.0000000000000000
 41
2.000000000000000
 42
2.000000000000000
 43
2.000000000000000
 50
270.0000000000000
  0
LINE
  5
2C8
100
AcDbEntity
  8
MAIN0
  6
BYBLOCK
 62
0
100
AcDbLine
 10
298.3204182427085
 20
128.6044878687739
 30
0.0000000000000000
 11
291.7923932646985
 21
128.6044878687739
 31
0.0000000000000000
  0
MTEXT
  5
2C9
100
AcDbEntity
  8
MAIN0
  6
BYBLOCK
 62
0
100
AcDbMText
 10
291.7423933123822
 20
135.6044878687739
 30
0.0000000000000000
 40
3.099999904632568
 41
0.0000000000000000
 71
     5
 72
     1
  1
\A1;14
 11
6.123233995736766e-017
 21
1.000000000000000
 31
0.0000000000000000
  7
STANDARD
  0
ENDBLK
  5
2CA
100
AcDbEntity
  8
MAIN0
  6
CONTINUOUS
 62
3
100
AcDbBlockEnd
  0
BLOCK
  5
2CC
100
AcDbEntity
  8
MAIN0
  6
CONTINUOUS
 62
3
100
AcDbBlockBegin
  2
*D34
 70
    65
 10
0.0
 20
0.0
 30
0.0
  0
LINE
  5
2CD
100
AcDbEntity
  8
MAIN0
  6
BYBLOCK
 62
0
100
AcDbLine
 10
293.6642944678704
 20
124.6044878687739
 30
0.0000000000000000
 11
282.1166196519318
 21
124.6044878687739
 31
0.0000000000000000
  0
LINE
  5
2CE
100
AcDbEntity
  8
MAIN0
  6
BYBLOCK
 62
0
100
AcDbLine
 10
284.1166196519318
 20
126.6044878687739
 30
0.0000000000000000
 11
284.1166196519318
 21
140.6044878687739
 31
0.0000000000000000
  0
INSERT
  5
2CF
100
AcDbEntity
  8
MAIN0
  6
BYBLOCK
 62
0
100
AcDbBlockReference
  2
_OPEN
 10
284.1166196519318
 20
124.6044878687739
 30
0.0000000000000000
 41
2.000000000000000
 42
2.000000000000000
 43
2.000000000000000
 50
270.0000000000000
  0
INSERT
  5
2D0
100
AcDbEntity
  8
MAIN0
  6
BYBLOCK
 62
0
100
AcDbBlockReference
  2
_OPEN
 10
284.1166196519318
 20
142.6044878687739
 30
0.0000000000000000
 41
2.000000000000000
 42
2.000000000000000
 43
2.000000000000000
 50
90.00000000000000
  0
LINE
  5
2D1
100
AcDbEntity
  8
MAIN0
  6
BYBLOCK
 62
0
100
AcDbLine
 10
301.6280120757575
 20
142.6044878687739
 30
0.0000000000000000
 11
282.1166196519318
 21
142.6044878687739
 31
0.0000000000000000
  0
MTEXT
  5
2D2
100
AcDbEntity
  8
MAIN0
  6
BYBLOCK
 62
0
100
AcDbMText
 10
282.0666196996155
 20
133.6044878687739
 30
0.0000000000000000
 40
3.099999904632568
 41
0.0000000000000000
 71
     5
 72
     1
  1
\A1;18
 11
6.123233995736766e-017
 21
1.000000000000000
 31
0.0000000000000000
  7
STANDARD
  0
ENDBLK
  5
2D3
100
AcDbEntity
  8
MAIN0
  6
CONTINUOUS
 62
3
100
AcDbBlockEnd
  0
BLOCK
  5
2E0
100
AcDbEntity
  8
MAIN0
  6
CONTINUOUS
 62
3
100
AcDbBlockBegin
  2
*D35
 70
    65
 10
0.0
 20
0.0
 30
0.0
  0
LINE
  5
2E1
100
AcDbEntity
  8
MAIN0
  6
BYBLOCK
 62
0
100
AcDbLine
 10
56.62711464524000
 20
166.8045074491878
 30
0.0000000000000000
 11
56.62711464524000
 21
146.4596973919672
 31
0.0000000000000000
  0
LINE
  5
2E2
100
AcDbEntity
  8
MAIN0
  6
BYBLOCK
 62
0
100
AcDbLine
 10
58.62711464524000
 20
148.4596973919672
 30
0.0000000000000000
 11
65.62711464524000
 21
148.4596973919672
 31
0.0000000000000000
  0
INSERT
  5
2E3
100
AcDbEntity
  8
MAIN0
  6
BYBLOCK
 62
0
100
AcDbBlockReference
  2
_OPEN
 10
56.62711464524000
 20
148.4596973919672
 30
0.0000000000000000
 41
2.000000000000000
 42
2.000000000000000
 43
2.000000000000000
 50
180.0000000000000
  0
INSERT
  5
2E4
100
AcDbEntity
  8
MAIN0
  6
BYBLOCK
 62
0
100
AcDbBlockReference
  2
_OPEN
 10
67.62711464524000
 20
148.4596973919672
 30
0.0000000000000000
 41
2.000000000000000
 42
2.000000000000000
 43
2.000000000000000
 50
0.0000000000000000
  0
LINE
  5
2E5
100
AcDbEntity
  8
MAIN0
  6
BYBLOCK
 62
0
100
AcDbLine
 10
67.62711464524000
 20
163.3045074491878
 30
0.0000000000000000
 11
67.62711464524000
 21
146.4596973919672
 31
0.0000000000000000
  0
MTEXT
  5
2E6
100
AcDbEntity
  8
MAIN0
  6
BYBLOCK
 62
0
100
AcDbMText
 10
62.12711464524000
 20
150.5096973442834
 30
0.0000000000000000
 40
3.099999904632568
 41
0.0000000000000000
 71
     5
 72
     1
  1
\A1;11
 11
1.000000000000000
 21
0.0000000000000000
 31
0.0000000000000000
  7
STANDARD
  0
ENDBLK
  5
2E7
100
AcDbEntity
  8
MAIN0
  6
CONTINUOUS
 62
3
100
AcDbBlockEnd
  0
BLOCK
  5
2F4
100
AcDbEntity
  8
MAIN0
  6
CONTINUOUS
 62
3
100
AcDbBlockBegin
  2
*D36
 70
    65
 10
0.0
 20
0.0
 30
0.0
  0
LINE
  5
2F5
100
AcDbEntity
  8
MAIN0
  6
BYBLOCK
 62
0
100
AcDbLine
 10
256.6425799010480
 20
183.5139358435206
 30
0.0000000000000000
 11
224.2090684173987
 21
223.5881533588403
 31
0.0000000000000000
  0
INSERT
  5
2F6
100
AcDbEntity
  8
MAIN0
  6
BYBLOCK
 62
0
100
AcDbBlockReference
  2
_OPEN
 10
257.9008000727881
 20
181.9593034112632
 30
0.0000000000000000
 41
2.000000000000000
 42
2.000000000000000
 43
2.000000000000000
 50
308.9844967612419
  0
MTEXT
  5
2F7
100
AcDbEntity
  8
MAIN0
  6
BYBLOCK
 62
0
100
AcDbMText
 10
251.0506322853674
 20
193.6818089350491
 30
0.0000000000000000
 40
3.099999904632568
 41
0.0000000000000000
 71
     5
 72
     1
  1
\A1;\U+220593\H0.903226x;\U+00B10.2
 11
0.6291100858700180
 21
-0.7773162161286863
 31
0.0000000000000000
  7
STANDARD
  0
ENDBLK
  5
2F8
100
AcDbEntity
  8
MAIN0
  6
CONTINUOUS
 62
3
100
AcDbBlockEnd
  0
BLOCK
  5
2FA
100
AcDbEntity
  8
MAIN0
  6
CONTINUOUS
 62
3
100
AcDbBlockBegin
  2
*D37
 70
    65
 10
0.0
 20
0.0
 30
0.0
  0
LINE
  5
2FB
100
AcDbEntity
  8
MAIN0
  6
BYBLOCK
 62
0
100
AcDbLine
 10
280.2247854112947
 20
188.3261637162794
 30
0.0000000000000000
 11
287.3258760586847
 21
184.2263471194631
 31
0.0000000000000000
  0
LINE
  5
2FC
100
AcDbEntity
  8
MAIN0
  6
BYBLOCK
 62
0
100
AcDbLine
 10
288.5094639559064
 20
218.1045074611087
 30
0.0000000000000000
 11
296.4035017632918
 21
218.1045074611087
 31
0.0000000000000000
  0
ARC
  5
2FD
100
AcDbEntity
  8
MAIN0
  6
BYBLOCK
 62
0
100
AcDbCircle
 10
228.6471810800718
 20
218.1045074611087
 30
0.0000000000000000
 40
65.75632068321998
100
AcDbArc
 50
331.7426698731506
 51
358.2573301268146
  0
INSERT
  5
2FE
100
AcDbEntity
  8
MAIN0
  6
BYBLOCK
 62
0
100
AcDbBlockReference
  2
_OPEN
 10
285.5938252511164
 20
185.2263471194641
 30
0.0000000000000000
 41
2.000000000000000
 42
2.000000000000000
 43
2.000000000000000
 50
239.9999999999652
  0
INSERT
  5
2FF
100
AcDbEntity
  8
MAIN0
  6
BYBLOCK
 62
0
100
AcDbBlockReference
  2
_OPEN
 10
294.4035017632918
 20
218.1045074611087
 30
0.0000000000000000
 41
2.000000000000000
 42
2.000000000000000
 43
2.000000000000000
 50
90.00000000000000
  0
MTEXT
  5
300
100
AcDbEntity
  8
MAIN0
  6
BYBLOCK
 62
0
100
AcDbMText
 10
290.1827615719013
 20
201.6160983625226
 30
0.0000000000000000
 40
3.099999904632568
 41
0.0000000000000000
 71
     5
 72
     1
  1
\A1;30\U+00B0
 11
0.2588190451028140
 21
0.9659258262889897
 31
0.0000000000000000
  7
STANDARD
  0
ENDBLK
  5
301
100
AcDbEntity
  8
MAIN0
  6
CONTINUOUS
 62
3
100
AcDbBlockEnd
  0
BLOCK
  5
303
100
AcDbEntity
  8
MAIN0
  6
CONTINUOUS
 62
3
100
AcDbBlockBegin
  2
*D38
 70
    65
 10
0.0
 20
0.0
 30
0.0
  0
LINE
  5
304
100
AcDbEntity
  8
MAIN0
  6
BYBLOCK
 62
0
100
AcDbLine
 10
288.5094639559064
 20
218.1045074611087
 30
0.0000000000000000
 11
296.4035017632918
 21
218.1045074611087
 31
0.0000000000000000
  0
LINE
  5
305
100
AcDbEntity
  8
MAIN0
  6
BYBLOCK
 62
0
100
AcDbLine
 10
280.4092959155049
 20
247.9893783954844
 30
0.0000000000000000
 11
287.3258760585512
 21
251.9826678029857
 31
0.0000000000000000
  0
ARC
  5
306
100
AcDbEntity
  8
MAIN0
  6
BYBLOCK
 62
0
100
AcDbCircle
 10
228.6471810800718
 20
218.1045074611087
 30
0.0000000000000000
 40
65.75632068321998
100
AcDbArc
 50
1.742669873185387
 51
28.25733012707529
  0
INSERT
  5
307
100
AcDbEntity
  8
MAIN0
  6
BYBLOCK
 62
0
100
AcDbBlockReference
  2
_OPEN
 10
294.4035017632918
 20
218.1045074611087
 30
0.0000000000000000
 41
2.000000000000000
 42
2.000000000000000
 43
2.000000000000000
 50
270.0000000000000
  0
INSERT
  5
308
100
AcDbEntity
  8
MAIN0
  6
BYBLOCK
 62
0
100
AcDbBlockReference
  2
_OPEN
 10
285.5938252509869
 20
250.9826678029778
 30
0.0000000000000000
 41
2.000000000000000
 42
2.000000000000000
 43
2.000000000000000
 50
120.0000000002607
  0
MTEXT
  5
309
100
AcDbEntity
  8
MAIN0
  6
BYBLOCK
 62
0
100
AcDbMText
 10
290.1827615718689
 20
234.5929165598161
 30
0.0000000000000000
 40
3.099999904632568
 41
0.0000000000000000
 71
     5
 72
     1
  1
\A1;30\U+00B0
 11
-0.2588190451047180
 21
0.9659258262884796
 31
0.0000000000000000
  7
STANDARD
  0
ENDBLK
  5
30A
100
AcDbEntity
  8
MAIN0
  6
CONTINUOUS
 62
3
100
AcDbBlockEnd
  0
BLOCK
  5
30C
100
AcDbEntity
  8
MAIN0
  6
CONTINUOUS
 62
3
100
AcDbBlockBegin
  2
*D39
 70
    65
 10
0.0
 20
0.0
 30
0.0
  0
LINE
  5
30D
100
AcDbEntity
  8
MAIN0
  6
BYBLOCK
 62
0
100
AcDbLine
 10
280.4092959155049
 20
247.9893783954844
 30
0.0000000000000000
 11
287.3258760585512
 21
251.9826678029857
 31
0.0000000000000000
  0
LINE
  5
30E
100
AcDbEntity
  8
MAIN0
  6
BYBLOCK
 62
0
100
AcDbLine
 10
256.5471810855584
 20
266.4287250027389
 30
0.0000000000000000
 11
262.5253414211794
 21
276.7832024400323
 31
0.0000000000000000
  0
ARC
  5
30F
100
AcDbEntity
  8
MAIN0
  6
BYBLOCK
 62
0
100
AcDbCircle
 10
228.6471810800718
 20
218.1045074611087
 30
0.0000000000000000
 40
65.75632068321998
100
AcDbArc
 50
31.74266987344607
 51
58.25733012730517
  0
INSERT
  5
310
100
AcDbEntity
  8
MAIN0
  6
BYBLOCK
 62
0
100
AcDbBlockReference
  2
_OPEN
 10
285.5938252509869
 20
250.9826678029778
 30
0.0000000000000000
 41
2.000000000000000
 42
2.000000000000000
 43
2.000000000000000
 50
300.0000000002607
  0
INSERT
  5
311
100
AcDbEntity
  8
MAIN0
  6
BYBLOCK
 62
0
100
AcDbBlockReference
  2
_OPEN
 10
261.5253414211942
 20
275.0511516324548
 30
0.0000000000000000
 41
2.000000000000000
 42
2.000000000000000
 43
2.000000000000000
 50
150.0000000004906
  0
MTEXT
  5
312
100
AcDbEntity
  8
MAIN0
  6
BYBLOCK
 62
0
100
AcDbMText
 10
276.5934902084546
 20
266.0508165901201
 30
0.0000000000000000
 40
3.099999904632568
 41
0.0000000000000000
 71
     5
 72
     1
  1
\A1;30\U+00B0
 11
0.7071067811911829
 21
-0.7071067811819122
 31
0.0000000000000000
  7
STANDARD
  0
ENDBLK
  5
313
100
AcDbEntity
  8
MAIN0
  6
CONTINUOUS
 62
3
100
AcDbBlockEnd
  0
BLOCK
  5
315
100
AcDbEntity
  8
MAIN0
  6
CONTINUOUS
 62
3
100
AcDbBlockBegin
  2
*D40
 70
    65
 10
0.0
 20
0.0
 30
0.0
  0
LINE
  5
316
100
AcDbEntity
  8
MAIN0
  6
BYBLOCK
 62
0
100
AcDbLine
 10
256.5471810855584
 20
266.4287250027389
 30
0.0000000000000000
 11
262.5253414211794
 21
276.7832024400323
 31
0.0000000000000000
  0
LINE
  5
317
100
AcDbEntity
  8
MAIN0
  6
BYBLOCK
 62
0
100
AcDbLine
 10
228.6471810798290
 20
278.2741280638813
 30
0.0000000000000000
 11
228.6471810797983
 21
285.8608281443287
 31
0.0000000000000000
  0
ARC
  5
318
100
AcDbEntity
  8
MAIN0
  6
BYBLOCK
 62
0
100
AcDbCircle
 10
228.6471810800718
 20
218.1045074611087
 30
0.0000000000000000
 40
65.75632068321998
100
AcDbArc
 50
61.74266987367594
 51
88.25733012704588
  0
INSERT
  5
319
100
AcDbEntity
  8
MAIN0
  6
BYBLOCK
 62
0
100
AcDbBlockReference
  2
_OPEN
 10
261.5253414211942
 20
275.0511516324548
 30
0.0000000000000000
 41
2.000000000000000
 42
2.000000000000000
 43
2.000000000000000
 50
330.0000000004906
  0
INSERT
  5
31A
100
AcDbEntity
  8
MAIN0
  6
BYBLOCK
 62
0
100
AcDbBlockReference
  2
_OPEN
 10
228.6471810798064
 20
283.8608281443287
 30
0.0000000000000000
 41
2.000000000000000
 42
2.000000000000000
 43
2.000000000000000
 50
180.0000000002313
  0
MTEXT
  5
31B
100
AcDbEntity
  8
MAIN0
  6
BYBLOCK
 62
0
100
AcDbMText
 10
246.1967482384641
 20
283.6003837487211
 30
0.0000000000000000
 40
3.099999904632568
 41
0.0000000000000000
 71
     5
 72
     1
  1
\A1;30\U+00B0
 11
0.9659258262906986
 21
-0.2588190450964364
 31
0.0000000000000000
  7
STANDARD
  0
ENDBLK
  5
31C
100
AcDbEntity
  8
MAIN0
  6
CONTINUOUS
 62
3
100
AcDbBlockEnd
  0
BLOCK
  5
31E
100
AcDbEntity
  8
MAIN0
  6
CONTINUOUS
 62
3
100
AcDbBlockBegin
  2
*D41
 70
    65
 10
0.0
 20
0.0
 30
0.0
  0
LINE
  5
31F
100
AcDbEntity
  8
MAIN0
  6
BYBLOCK
 62
0
100
AcDbLine
 10
228.6471810798290
 20
278.2741280638813
 30
0.0000000000000000
 11
228.6471810797983
 21
285.8608281443287
 31
0.0000000000000000
  0
LINE
  5
320
100
AcDbEntity
  8
MAIN0
  6
BYBLOCK
 62
0
100
AcDbLine
 10
177.3754669390630
 20
247.7062454222753
 30
0.0000000000000000
 11
169.9684861014589
 21
251.9826678027543
 31
0.0000000000000000
  0
ARC
  5
321
100
AcDbEntity
  8
MAIN0
  6
BYBLOCK
 62
0
100
AcDbCircle
 10
228.6471810800718
 20
218.1045074611087
 30
0.0000000000000000
 40
65.75632068321998
100
AcDbArc
 50
91.74266987341663
 51
148.2573301267798
  0
INSERT
  5
322
100
AcDbEntity
  8
MAIN0
  6
BYBLOCK
 62
0
100
AcDbBlockReference
  2
_OPEN
 10
228.6471810798064
 20
283.8608281443287
 30
0.0000000000000000
 41
2.000000000000000
 42
2.000000000000000
 43
2.000000000000000
 50
2.312390279257670e-010
  0
INSERT
  5
323
100
AcDbEntity
  8
MAIN0
  6
BYBLOCK
 62
0
100
AcDbBlockReference
  2
_OPEN
 10
171.7005369090272
 20
250.9826678027533
 30
0.0000000000000000
 41
2.000000000000000
 42
2.000000000000000
 43
2.000000000000000
 50
239.9999999999652
  0
MTEXT
  5
324
100
AcDbEntity
  8
MAIN0
  6
BYBLOCK
 62
0
100
AcDbMText
 10
194.7440207622030
 20
276.8265036685780
 30
0.0000000000000000
 40
3.099999904632568
 41
0.0000000000000000
 71
     5
 72
     1
  1
\A1;60\U+00B0
 11
0.8660254037835814
 21
0.5000000000014848
 31
0.0000000000000000
  7
STANDARD
  0
ENDBLK
  5
325
100
AcDbEntity
  8
MAIN0
  6
CONTINUOUS
 62
3
100
AcDbBlockEnd
  0
BLOCK
  5
33A
100
AcDbEntity
  8
MAIN0
  6
BYBLOCK
 62
3
100
AcDbBlockBegin
  2
*X0
 70
     1
 10
0.0
 20
0.0
 30
0.0
  0
LINE
  5
33B
100
AcDbEntity
  8
MAIN0
  6
BYBLOCK
 62
0
100
AcDbLine
 10
302.0280120876819
 20
135.4044878687769
 30
0.0000000000000000
 11
309.2280120876794
 21
142.6044878687749
 31
0.0000000000000000
  0
LINE
  5
33C
100
AcDbEntity
  8
MAIN0
  6
BYBLOCK
 62
0
100
AcDbLine
 10
302.0280120876769
 20
138.2329149935186
 30
0.0000000000000000
 11
306.3995849629328
 21
142.6044878687754
 31
0.0000000000000000
  0
LINE
  5
33D
100
AcDbEntity
  8
MAIN0
  6
BYBLOCK
 62
0
100
AcDbLine
 10
302.0280120876764
 20
141.0613421182653
 30
0.0000000000000000
 11
303.5711578381884
 21
142.6044878687772
 31
0.0000000000000000
  0
LINE
  5
33E
100
AcDbEntity
  8
MAIN0
  6
BYBLOCK
 62
0
100
AcDbLine
 10
302.0280120876823
 20
132.5760607440312
 30
0.0000000000000000
 11
312.0564392124270
 21
142.6044878687754
 31
0.0000000000000000
  0
LINE
  5
33F
100
AcDbEntity
  8
MAIN0
  6
BYBLOCK
 62
0
100
AcDbLine
 10
302.0280120876828
 20
129.7476336192850
 30
0.0000000000000000
 11
314.8848663371732
 21
142.6044878687759
 31
0.0000000000000000
  0
LINE
  5
340
100
AcDbEntity
  8
MAIN0
  6
BYBLOCK
 62
0
100
AcDbLine
 10
303.7132934619203
 20
128.6044878687754
 30
0.0000000000000000
 11
317.7132934619204
 21
142.6044878687754
 31
0.0000000000000000
  0
LINE
  5
341
100
AcDbEntity
  8
MAIN0
  6
BYBLOCK
 62
0
100
AcDbLine
 10
306.5417205866661
 20
128.6044878687749
 30
0.0000000000000000
 11
320.5417205866665
 21
142.6044878687754
 31
0.0000000000000000
  0
LINE
  5
342
100
AcDbEntity
  8
MAIN0
  6
BYBLOCK
 62
0
100
AcDbLine
 10
309.3701477114128
 20
128.6044878687745
 30
0.0000000000000000
 11
323.3701477114150
 21
142.6044878687772
 31
0.0000000000000000
  0
LINE
  5
343
100
AcDbEntity
  8
MAIN0
  6
BYBLOCK
 62
0
100
AcDbLine
 10
312.1985748361585
 20
128.6044878687740
 30
0.0000000000000000
 11
326.1985748361612
 21
142.6044878687772
 31
0.0000000000000000
  0
LINE
  5
344
100
AcDbEntity
  8
MAIN0
  6
BYBLOCK
 62
0
100
AcDbLine
 10
315.0270019609066
 20
128.6044878687754
 30
0.0000000000000000
 11
329.0270019609079
 21
142.6044878687767
 31
0.0000000000000000
  0
LINE
  5
345
100
AcDbEntity
  8
MAIN0
  6
BYBLOCK
 62
0
100
AcDbLine
 10
317.8554290856528
 20
128.6044878687749
 30
0.0000000000000000
 11
331.8554290856541
 21
142.6044878687758
 31
0.0000000000000000
  0
LINE
  5
346
100
AcDbEntity
  8
MAIN0
  6
BYBLOCK
 62
0
100
AcDbLine
 10
320.6838562104009
 20
128.6044878687763
 30
0.0000000000000000
 11
334.6838562104013
 21
142.6044878687767
 31
0.0000000000000000
  0
LINE
  5
347
100
AcDbEntity
  8
MAIN0
  6
BYBLOCK
 62
0
100
AcDbLine
 10
323.5122833351466
 20
128.6044878687758
 30
0.0000000000000000
 11
337.5122833351466
 21
142.6044878687758
 31
0.0000000000000000
  0
LINE
  5
348
100
AcDbEntity
  8
MAIN0
  6
BYBLOCK
 62
0
100
AcDbLine
 10
326.3407104598933
 20
128.6044878687754
 30
0.0000000000000000
 11
340.3407104598928
 21
142.6044878687749
 31
0.0000000000000000
  0
LINE
  5
349
100
AcDbEntity
  8
MAIN0
  6
BYBLOCK
 62
0
100
AcDbLine
 10
329.1691375846399
 20
128.6044878687754
 30
0.0000000000000000
 11
343.1691375846409
 21
142.6044878687763
 31
0.0000000000000000
  0
LINE
  5
34A
100
AcDbEntity
  8
MAIN0
  6
BYBLOCK
 62
0
100
AcDbLine
 10
331.9975647093862
 20
128.6044878687749
 30
0.0000000000000000
 11
344.0280120876806
 21
140.6349352470693
 31
0.0000000000000000
  0
LINE
  5
34B
100
AcDbEntity
  8
MAIN0
  6
BYBLOCK
 62
0
100
AcDbLine
 10
334.8259918341328
 20
128.6044878687744
 30
0.0000000000000000
 11
344.0280120876806
 21
137.8065081223226
 31
0.0000000000000000
  0
LINE
  5
34C
100
AcDbEntity
  8
MAIN0
  6
BYBLOCK
 62
0
100
AcDbLine
 10
337.6544189588785
 20
128.6044878687745
 30
0.0000000000000000
 11
344.0280120876814
 21
134.9780809975765
 31
0.0000000000000000
  0
LINE
  5
34D
100
AcDbEntity
  8
MAIN0
  6
BYBLOCK
 62
0
100
AcDbLine
 10
340.4828460836261
 20
128.6044878687749
 30
0.0000000000000000
 11
344.0280120876810
 21
132.1496538728298
 31
0.0000000000000000
  0
LINE
  5
34E
100
AcDbEntity
  8
MAIN0
  6
BYBLOCK
 62
0
100
AcDbLine
 10
343.3112732083737
 20
128.6044878687758
 30
0.0000000000000000
 11
344.0280120876787
 21
129.3212267480813
 31
0.0000000000000000
  0
ENDBLK
  5
34F
100
AcDbEntity
  8
MAIN0
  6
BYBLOCK
 62
3
100
AcDbBlockEnd
  0
BLOCK
  5
3D1
100
AcDbEntity
  8
MAIN0
  6
CONTINUOUS
 62
3
100
AcDbBlockBegin
  2
*D42
 70
    65
 10
0.0
 20
0.0
 30
0.0
  0
LINE
  5
3D2
100
AcDbEntity
  8
MAIN0
  6
BYBLOCK
 62
0
100
AcDbLine
 10
344.4280120995994
 20
142.6044878687739
 30
0.0000000000000000
 11
360.4897542795434
 21
142.6044878687739
 31
0.0000000000000000
  0
LINE
  5
3D3
100
AcDbEntity
  8
MAIN0
  6
BYBLOCK
 62
0
100
AcDbLine
 10
358.4897542795434
 20
140.6044878687739
 30
0.0000000000000000
 11
358.4897542795434
 21
110.1044878687739
 31
0.0000000000000000
  0
INSERT
  5
3D4
100
AcDbEntity
  8
MAIN0
  6
BYBLOCK
 62
0
100
AcDbBlockReference
  2
_OPEN
 10
358.4897542795434
 20
142.6044878687739
 30
0.0000000000000000
 41
2.000000000000000
 42
2.000000000000000
 43
2.000000000000000
 50
90.00000000000000
  0
INSERT
  5
3D5
100
AcDbEntity
  8
MAIN0
  6
BYBLOCK
 62
0
100
AcDbBlockReference
  2
_OPEN
 10
358.4897542795434
 20
108.1044878687739
 30
0.0000000000000000
 41
2.000000000000000
 42
2.000000000000000
 43
2.000000000000000
 50
270.0000000000000
  0
LINE
  5
3D6
100
AcDbEntity
  8
MAIN0
  6
BYBLOCK
 62
0
100
AcDbLine
 10
340.1280120995994
 20
108.1044878687739
 30
0.0000000000000000
 11
360.4897542795434
 21
108.1044878687739
 31
0.0000000000000000
  0
MTEXT
  5
3D7
100
AcDbEntity
  8
MAIN0
  6
BYBLOCK
 62
0
100
AcDbMText
 10
356.4397543272272
 20
125.3544878687739
 30
0.0000000000000000
 40
3.099999904632568
 41
0.0000000000000000
 71
     5
 72
     1
  1
\A1;34.5
 11
6.123233995736766e-017
 21
1.000000000000000
 31
0.0000000000000000
  7
STANDARD
  0
ENDBLK
  5
3D8
100
AcDbEntity
  8
MAIN0
  6
CONTINUOUS
 62
3
100
AcDbBlockEnd
  0
BLOCK
  5
3DA
100
AcDbEntity
  8
MAIN0
  6
CONTINUOUS
 62
3
100
AcDbBlockBegin
  2
*D43
 70
    65
 10
0.0
 20
0.0
 30
0.0
  0
LINE
  5
3DB
100
AcDbEntity
  8
MAIN0
  6
BYBLOCK
 62
0
100
AcDbLine
 10
302.0280120876784
 20
143.0044878806948
 30
0.0000000000000000
 11
302.0280120876784
 21
152.3480555965181
 31
0.0000000000000000
  0
LINE
  5
3DC
100
AcDbEntity
  8
MAIN0
  6
BYBLOCK
 62
0
100
AcDbLine
 10
304.0280120876784
 20
150.3480555965181
 30
0.0000000000000000
 11
342.0280120876784
 21
150.3480555965181
 31
0.0000000000000000
  0
INSERT
  5
3DD
100
AcDbEntity
  8
MAIN0
  6
BYBLOCK
 62
0
100
AcDbBlockReference
  2
_OPEN
 10
302.0280120876784
 20
150.3480555965181
 30
0.0000000000000000
 41
2.000000000000000
 42
2.000000000000000
 43
2.000000000000000
 50
180.0000000000000
  0
INSERT
  5
3DE
100
AcDbEntity
  8
MAIN0
  6
BYBLOCK
 62
0
100
AcDbBlockReference
  2
_OPEN
 10
344.0280120876784
 20
150.3480555965181
 30
0.0000000000000000
 41
2.000000000000000
 42
2.000000000000000
 43
2.000000000000000
 50
0.0000000000000000
  0
LINE
  5
3DF
100
AcDbEntity
  8
MAIN0
  6
BYBLOCK
 62
0
100
AcDbLine
 10
344.0280120876784
 20
143.0044878806948
 30
0.0000000000000000
 11
344.0280120876784
 21
152.3480555965181
 31
0.0000000000000000
  0
MTEXT
  5
3E0
100
AcDbEntity
  8
MAIN0
  6
BYBLOCK
 62
0
100
AcDbMText
 10
323.0280120876784
 20
152.3980555488344
 30
0.0000000000000000
 40
3.099999904632568
 41
0.0000000000000000
 71
     5
 72
     1
  1
\A1;42
 11
1.000000000000000
 21
0.0000000000000000
 31
0.0000000000000000
  7
STANDARD
  0
ENDBLK
  5
3E1
100
AcDbEntity
  8
MAIN0
  6
CONTINUOUS
 62
3
100
AcDbBlockEnd
  0
ENDSEC
  0
SECTION
  2
ENTITIES
  0
LINE
  5
46
100
AcDbEntity
  8
MAIN0
  6
CONTINUOUS
 62
3
100
AcDbLine
 10
67.62711464524000
 20
164.1045074611087
 30
0.0000000000000000
 11
67.62711464524000
 21
272.1045074611087
 31
0.0000000000000000
  0
LINE
  5
47
100
AcDbEntity
  8
MAIN0
  6
CONTINUOUS
 62
3
100
AcDbLine
 10
73.12711464524000
 20
230.1045074611087
 30
0.0000000000000000
 11
86.62218756469996
 21
230.1045074611087
 31
0.0000000000000000
  0
LINE
  5
48
100
AcDbEntity
  8
MAIN0
  6
CONTINUOUS
 62
3
100
AcDbLine
 10
81.62711464524000
 20
237.6045074611087
 30
0.0000000000000000
 11
86.79473352127491
 21
237.6045074611087
 31
0.0000000000000000
  0
LINE
  5
49
100
AcDbEntity
  8
MAIN0
  6
CONTINUOUS
 62
3
100
AcDbLine
 10
67.62711464524000
 20
258.1045074611087
 30
0.0000000000000000
 11
74.62711464524000
 21
258.1045074611087
 31
0.0000000000000000
  0
LINE
  5
4A
100
AcDbEntity
  8
MAIN0
  6
CONTINUOUS
 62
3
100
AcDbLine
 10
74.62711464524000
 20
259.1045074611087
 30
0.0000000000000000
 11
93.22488193368503
 21
259.1045074611087
 31
0.0000000000000000
  0
LINE
  5
4B
100
AcDbEntity
  8
MAIN0
  6
CONTINUOUS
 62
3
100
AcDbLine
 10
68.62711464524000
 20
273.1045074611087
 30
0.0000000000000000
 11
67.62711464524001
 21
272.1045074611087
 31
0.0000000000000000
  0
ARC
  5
4C
100
AcDbEntity
  8
MAIN0
  6
CONTINUOUS
 62
3
100
AcDbCircle
 10
124.1271146452400
 20
271.6045074611087
 30
0.0000000000000000
 40
1.500000000000000
100
AcDbArc
 50
0.0000000000000000
 51
90.00000000000000
  0
LINE
  5
4D
100
AcDbEntity
  8
MAIN0
  6
CONTINUOUS
 62
3
100
AcDbLine
 10
73.12711464524000
 20
206.1045074611087
 30
0.0000000000000000
 11
83.74176089341019
 21
206.1045074611087
 31
0.0000000000000000
  0
LINE
  5
4E
100
AcDbEntity
  8
MAIN0
  6
CONTINUOUS
 62
3
100
AcDbLine
 10
67.62711464524000
 20
178.1045074611087
 30
0.0000000000000000
 11
74.62711464524000
 21
178.1045074611087
 31
0.0000000000000000
  0
LINE
  5
4F
100
AcDbEntity
  8
MAIN0
  6
CONTINUOUS
 62
3
100
AcDbLine
 10
68.62711464524000
 20
163.1045074611087
 30
0.0000000000000000
 11
67.62711464524001
 21
164.1045074611087
 31
0.0000000000000000
  0
ARC
  5
50
100
AcDbEntity
  8
MAIN0
  6
CONTINUOUS
 62
3
100
AcDbCircle
 10
124.1271146452400
 20
164.6045074611087
 30
0.0000000000000000
 40
1.500000000000000
100
AcDbArc
 50
270.0000000000000
 51
360.0000000000000
  0
LINE
  5
51
100
AcDbEntity
  8
MAIN0
  6
CONTINUOUS
 62
3
100
AcDbLine
 10
81.62711464524000
 20
238.1045074611087
 30
0.0000000000000000
 11
86.79791140453598
 21
238.1045074611087
 31
0.0000000000000000
  0
LINE
  5
52
100
AcDbEntity
  8
MAIN0
  6
CONTINUOUS
 62
3
100
AcDbLine
 10
79.12711464524000
 20
242.6045074611087
 30
0.0000000000000000
 11
86.89995968407774
 21
242.6045074611087
 31
0.0000000000000000
  0
LINE
  5
53
100
AcDbEntity
  8
MAIN0
  6
CONTINUOUS
 62
3
100
AcDbLine
 10
72.12711464524000
 20
178.1045074611087
 30
0.0000000000000000
 11
72.12711464524000
 21
258.1045074611087
 31
0.0000000000000000
  0
LINE
  5
54
100
AcDbEntity
  8
MAIN0
  6
CONTINUOUS
 62
3
100
AcDbLine
 10
78.12711464524000
 20
242.7760803363626
 30
0.0000000000000000
 11
78.12711464524000
 21
258.1045074611087
 31
0.0000000000000000
  0
LINE
  5
55
100
AcDbEntity
  8
MAIN0
  6
CONTINUOUS
 62
3
100
AcDbLine
 10
72.12711464524000
 20
258.1045074611087
 30
0.0000000000000000
 11
78.12711464524001
 21
258.1045074611087
 31
0.0000000000000000
  0
LINE
  5
56
100
AcDbEntity
  8
MAIN0
  6
CONTINUOUS
 62
3
100
AcDbLine
 10
76.12711464524000
 20
245.6045074611087
 30
0.0000000000000000
 11
76.12711464524000
 21
253.3545074611087
 31
0.0000000000000000
  0
ARC
  5
57
100
AcDbEntity
  8
MAIN0
  6
CONTINUOUS
 62
3
100
AcDbCircle
 10
79.12711464524000
 20
245.6045074611087
 30
0.0000000000000000
 40
3.000000000000000
100
AcDbArc
 50
180.0000000000000
 51
270.0000000000000
  0
LINE
  5
58
100
AcDbEntity
  8
MAIN0
  6
CONTINUOUS
 62
3
100
AcDbLine
 10
77.12711464524000
 20
254.3545074611087
 30
0.0000000000000000
 11
78.12711464524001
 21
254.3545074611087
 31
0.0000000000000000
  0
ARC
  5
59
100
AcDbEntity
  8
MAIN0
  6
CONTINUOUS
 62
3
100
AcDbCircle
 10
77.12711464524000
 20
253.3545074611087
 30
0.0000000000000000
 40
1.000000000000000
100
AcDbArc
 50
90.00000000000000
 51
180.0000000000000
  0
LINE
  5
5A
100
AcDbEntity
  8
MAIN0
  6
CONTINUOUS
 62
3
100
AcDbLine
 10
73.12711464524000
 20
199.1045074611137
 30
0.0000000000000000
 11
73.12711464524000
 21
237.1045074611037
 31
0.0000000000000000
  0
LINE
  5
5B
100
AcDbEntity
  8
MAIN0
  6
CONTINUOUS
 62
3
100
AcDbLine
 10
72.12711464523999
 20
238.1045074611036
 30
0.0000000000000000
 11
73.12711464524001
 21
237.1045074611037
 31
0.0000000000000000
  0
LINE
  5
5C
100
AcDbEntity
  8
MAIN0
  6
CENTER
 62
3
100
AcDbLine
 10
71.05364277861497
 20
234.1045074611087
 30
0.0000000000000000
 11
90.70604075371986
 21
234.1045074611087
 31
0.0000000000000000
  0
LINE
  5
5D
100
AcDbEntity
  8
MAIN0
  6
CONTINUOUS
 62
3
100
AcDbLine
 10
81.62711464524000
 20
198.6045074611087
 30
0.0000000000000000
 11
81.62711464524000
 21
232.3045074611087
 31
0.0000000000000000
  0
LINE
  5
5E
100
AcDbEntity
  8
MAIN0
  6
CONTINUOUS
 62
3
100
AcDbLine
 10
81.62711464524000
 20
235.9045074611087
 30
0.0000000000000000
 11
81.62711464524000
 21
237.6045074611087
 31
0.0000000000000000
  0
LINE
  5
5F
100
AcDbEntity
  8
MAIN0
  6
CONTINUOUS
 62
3
100
AcDbLine
 10
72.12711464524000
 20
178.1045074611087
 30
0.0000000000000000
 11
78.12711464524001
 21
178.1045074611087
 31
0.0000000000000000
  0
LINE
  5
60
100
AcDbEntity
  8
MAIN0
  6
CONTINUOUS
 62
3
100
AcDbLine
 10
78.12711464524000
 20
193.4329345858549
 30
0.0000000000000000
 11
78.12711464524000
 21
178.1045074611087
 31
0.0000000000000000
  0
LINE
  5
61
100
AcDbEntity
  8
MAIN0
  6
CONTINUOUS
 62
3
100
AcDbLine
 10
77.12711464524000
 20
181.8545074611087
 30
0.0000000000000000
 11
78.12711464524001
 21
181.8545074611087
 31
0.0000000000000000
  0
LINE
  5
62
100
AcDbEntity
  8
MAIN0
  6
CONTINUOUS
 62
3
100
AcDbLine
 10
76.12711464524000
 20
190.6045074611087
 30
0.0000000000000000
 11
76.12711464524000
 21
182.8545074611087
 31
0.0000000000000000
  0
ARC
  5
63
100
AcDbEntity
  8
MAIN0
  6
CONTINUOUS
 62
3
100
AcDbCircle
 10
77.12711464524000
 20
182.8545074611087
 30
0.0000000000000000
 40
1.000000000000000
100
AcDbArc
 50
180.0000000000000
 51
270.0000000000000
  0
ARC
  5
64
100
AcDbEntity
  8
MAIN0
  6
CONTINUOUS
 62
3
100
AcDbCircle
 10
79.12711464524000
 20
190.6045074611087
 30
0.0000000000000000
 40
3.000000000000000
100
AcDbArc
 50
90.00000000000000
 51
180.0000000000000
  0
LINE
  5
65
100
AcDbEntity
  8
MAIN0
  6
CONTINUOUS
 62
3
100
AcDbLine
 10
72.12711464523999
 20
198.1045074611139
 30
0.0000000000000000
 11
73.12711464524001
 21
199.1045074611137
 31
0.0000000000000000
  0
LINE
  5
66
100
AcDbEntity
  8
MAIN0
  6
CONTINUOUS
 62
3
100
AcDbLine
 10
74.62711464524000
 20
177.1045074611087
 30
0.0000000000000000
 11
74.62711464524000
 21
178.1045074611087
 31
0.0000000000000000
  0
LINE
  5
67
100
AcDbEntity
  8
MAIN0
  6
CONTINUOUS
 62
3
100
AcDbLine
 10
74.62711464524000
 20
258.1045074611087
 30
0.0000000000000000
 11
74.62711464524000
 21
259.1045074611087
 31
0.0000000000000000
  0
LINE
  5
68
100
AcDbEntity
  8
MAIN0
  6
CONTINUOUS
 62
3
100
AcDbLine
 10
81.62711464524000
 20
198.1045074611087
 30
0.0000000000000000
 11
81.62711464524000
 21
232.3045074611087
 31
0.0000000000000000
  0
LINE
  5
69
100
AcDbEntity
  8
MAIN0
  6
CONTINUOUS
 62
3
100
AcDbLine
 10
81.62711464524000
 20
232.3045074611087
 30
0.0000000000000000
 11
81.62711464524000
 21
238.1045074611087
 31
0.0000000000000000
  0
LINE
  5
6A
100
AcDbEntity
  8
MAIN0
  6
HIDDEN
 62
3
100
AcDbLine
 10
80.72711464524502
 20
164.4845074635265
 30
0.0000000000000000
 11
103.5271146452450
 21
164.4845074635218
 31
0.0000000000000000
  0
LINE
  5
6B
100
AcDbEntity
  8
MAIN0
  6
HIDDEN
 62
3
100
AcDbLine
 10
80.12711464524466
 20
165.0845074635267
 30
0.0000000000000000
 11
80.72711464524501
 21
164.4845074635266
 31
0.0000000000000000
  0
LINE
  5
6C
100
AcDbEntity
  8
MAIN0
  6
HIDDEN
 62
3
100
AcDbLine
 10
80.12711464524466
 20
165.0845074635267
 30
0.0000000000000000
 11
80.12711464524237
 21
168.9845074635267
 31
0.0000000000000000
  0
LINE
  5
6D
100
AcDbEntity
  8
MAIN0
  6
HIDDEN
 62
3
100
AcDbLine
 10
86.92711464524457
 20
165.2350628134720
 30
0.0000000000000000
 11
86.92711464524146
 21
170.5399608772831
 31
0.0000000000000000
  0
LINE
  5
6E
100
AcDbEntity
  8
MAIN0
  6
HIDDEN
 62
3
100
AcDbLine
 10
85.62711464514521
 20
164.4845074635256
 30
0.0000000000000000
 11
86.92711464514383
 21
165.2350628134720
 31
0.0000000000000000
  0
LINE
  5
6F
100
AcDbEntity
  8
MAIN0
  6
HIDDEN
 62
3
100
AcDbLine
 10
91.64816464524456
 20
165.2350628134700
 30
0.0000000000000000
 11
91.64816464524165
 21
170.1879978297923
 31
0.0000000000000000
  0
LINE
  5
70
100
AcDbEntity
  8
MAIN0
  6
HIDDEN
 62
3
100
AcDbLine
 10
86.92711464514383
 20
165.2350628134720
 30
0.0000000000000000
 11
97.32711464524454
 21
165.2350628134677
 31
0.0000000000000000
  0
LINE
  5
71
100
AcDbEntity
  8
MAIN0
  6
CENTER
 62
3
100
AcDbLine
 10
89.12234189757770
 20
171.2536610481190
 30
0.0000000000000000
 11
91.64816464524459
 21
165.2350628134700
 31
0.0000000000000000
  0
LINE
  5
72
100
AcDbEntity
  8
MAIN0
  6
CENTER
 62
3
100
AcDbLine
 10
86.92711464524453
 20
165.2350628134720
 30
0.0000000000000000
 11
89.38863153930552
 21
171.1004313342346
 31
0.0000000000000000
  0
LINE
  5
73
100
AcDbEntity
  8
MAIN0
  6
HIDDEN
 62
3
100
AcDbLine
 10
104.1271146452447
 20
165.0845074635408
 30
0.0000000000000000
 11
103.5271146452450
 21
164.4845074635400
 31
0.0000000000000000
  0
LINE
  5
74
100
AcDbEntity
  8
MAIN0
  6
HIDDEN
 62
3
100
AcDbLine
 10
104.1271146452447
 20
165.0845074635408
 30
0.0000000000000000
 11
104.1271146452424
 21
168.9845074635408
 31
0.0000000000000000
  0
LINE
  5
75
100
AcDbEntity
  8
MAIN0
  6
HIDDEN
 62
3
100
AcDbLine
 10
97.32711464524459
 20
165.2350628134781
 30
0.0000000000000000
 11
97.32711464524158
 21
170.3639827101053
 31
0.0000000000000000
  0
LINE
  5
76
100
AcDbEntity
  8
MAIN0
  6
HIDDEN
 62
3
100
AcDbLine
 10
98.62711464534475
 20
164.4845074635332
 30
0.0000000000000000
 11
97.32711464534523
 21
165.2350628134781
 31
0.0000000000000000
  0
LINE
  5
77
100
AcDbEntity
  8
MAIN0
  6
HIDDEN
 62
3
100
AcDbLine
 10
92.60606464524460
 20
165.2350628134706
 30
0.0000000000000000
 11
92.60606464524159
 21
170.3639827101054
 31
0.0000000000000000
  0
LINE
  5
78
100
AcDbEntity
  8
MAIN0
  6
CENTER
 62
3
100
AcDbLine
 10
95.14960511874611
 20
171.2958793207910
 30
0.0000000000000000
 11
92.60606464524459
 21
165.2350628134706
 31
0.0000000000000000
  0
LINE
  5
79
100
AcDbEntity
  8
MAIN0
  6
CENTER
 62
3
100
AcDbLine
 10
97.32711464524456
 20
165.2350628134781
 30
0.0000000000000000
 11
94.83678715645063
 21
171.1690819926095
 31
0.0000000000000000
  0
LINE
  5
7A
100
AcDbEntity
  8
MAIN0
  6
CONTINUOUS
 62
3
100
AcDbLine
 10
74.62711464524000
 20
177.1045074611087
 30
0.0000000000000000
 11
79.14445889624599
 21
177.1045074611087
 31
0.0000000000000000
  0
LINE
  5
7B
100
AcDbEntity
  8
MAIN0
  6
CONTINUOUS
 62
3
100
AcDbLine
 10
79.12711464524000
 20
193.6045074611087
 30
0.0000000000000000
 11
82.24336460685122
 21
193.6045074611087
 31
0.0000000000000000
  0
LINE
  5
7C
100
AcDbEntity
  8
MAIN0
  6
CONTINUOUS
 62
3
100
AcDbLine
 10
81.62711464524000
 20
198.1045074611087
 30
0.0000000000000000
 11
83.43071565837772
 21
198.1045074611087
 31
0.0000000000000000
  0
LINE
  5
7D
100
AcDbEntity
  8
MAIN0
  6
CONTINUOUS
 62
3
100
AcDbLine
 10
81.62711464524000
 20
198.6045074611087
 30
0.0000000000000000
 11
83.50892485228746
 21
198.6045074611087
 31
0.0000000000000000
  0
LINE
  5
7E
100
AcDbEntity
  8
MAIN0
  6
HIDDEN
 62
3
100
AcDbLine
 10
78.55691464522212
 20
163.1045074611087
 30
0.0000000000000000
 11
80.12711464522512
 21
164.6747074611121
 31
0.0000000000000000
  0
LINE
  5
7F
100
AcDbEntity
  8
MAIN0
  6
HIDDEN
 62
3
100
AcDbLine
 10
104.1271146453164
 20
164.6747074611071
 30
0.0000000000000000
 11
105.6973146453147
 21
163.1045074611087
 31
0.0000000000000000
  0
LINE
  5
80
100
AcDbEntity
  8
MAIN0
  6
HIDDEN
 62
3
100
AcDbLine
 10
80.12711464522511
 20
164.6747074611121
 30
0.0000000000000000
 11
80.53691464765950
 21
164.6747074611120
 31
0.0000000000000000
  0
LINE
  5
81
100
AcDbEntity
  8
MAIN0
  6
HIDDEN
 62
3
100
AcDbLine
 10
103.7173146428119
 20
164.6747074611072
 30
0.0000000000000000
 11
104.1271146453163
 21
164.6747074611071
 31
0.0000000000000000
  0
LINE
  5
82
100
AcDbEntity
  8
MAIN0
  6
HIDDEN
 62
3
100
AcDbLine
 10
104.1271146453181
 20
164.6747074611053
 30
0.0000000000000000
 11
104.1271146453173
 21
170.3639827101056
 31
0.0000000000000000
  0
LINE
  5
83
100
AcDbEntity
  8
MAIN0
  6
HIDDEN
 62
3
100
AcDbLine
 10
80.12711464523004
 20
164.6747074611170
 30
0.0000000000000000
 11
80.12711464523046
 21
170.3639827101059
 31
0.0000000000000000
  0
LINE
  5
84
100
AcDbEntity
  8
MAIN0
  6
CONTINUOUS
 62
3
100
AcDbLine
 10
143.6271146452154
 20
231.4045074611087
 30
0.0000000000000000
 11
143.6271146452227
 21
243.8045074611087
 31
0.0000000000000000
  0
LINE
  5
85
100
AcDbEntity
  8
MAIN0
  6
CONTINUOUS
 62
3
100
AcDbLine
 10
136.6271146452238
 20
245.6045074606993
 30
0.0000000000000000
 11
136.6271146452304
 21
256.8045074611088
 31
0.0000000000000000
  0
LINE
  5
86
100
AcDbEntity
  8
MAIN0
  6
CONTINUOUS
 62
3
100
AcDbLine
 10
129.6271146452314
 20
258.6045074606992
 30
0.0000000000000000
 11
129.6271146452365
 21
267.1045074611087
 31
0.0000000000000000
  0
LINE
  5
87
100
AcDbEntity
  8
MAIN0
  6
CONTINUOUS
 62
3
100
AcDbLine
 10
112.6271146452251
 20
273.1045074611087
 30
0.0000000000000000
 11
128.8271146452399
 21
273.1045074611087
 31
0.0000000000000000
  0
LINE
  5
88
100
AcDbEntity
  8
MAIN0
  6
CONTINUOUS
 62
3
100
AcDbLine
 10
143.3271146452153
 20
231.1045074611087
 30
0.0000000000000000
 11
143.6271146452154
 21
231.4045074611087
 31
0.0000000000000000
  0
LINE
  5
89
100
AcDbEntity
  8
MAIN0
  6
CONTINUOUS
 62
3
100
AcDbLine
 10
143.6271146452228
 20
243.8045074611087
 30
0.0000000000000000
 11
143.3271146452229
 21
244.1045074611087
 31
0.0000000000000000
  0
LINE
  5
8A
100
AcDbEntity
  8
MAIN0
  6
CONTINUOUS
 62
3
100
AcDbLine
 10
129.1271146452365
 20
267.1045074611087
 30
0.0000000000000000
 11
129.6271146452364
 21
267.1045074611087
 31
0.0000000000000000
  0
LINE
  5
8B
100
AcDbEntity
  8
MAIN0
  6
CONTINUOUS
 62
3
100
AcDbLine
 10
129.1271146452365
 20
267.1045074611087
 30
0.0000000000000000
 11
129.1271146452398
 21
272.8045074611087
 31
0.0000000000000000
  0
LINE
  5
8C
100
AcDbEntity
  8
MAIN0
  6
CONTINUOUS
 62
3
100
AcDbLine
 10
128.8271146452399
 20
273.1045074611087
 30
0.0000000000000000
 11
129.1271146452398
 21
272.8045074611087
 31
0.0000000000000000
  0
LINE
  5
8D
100
AcDbEntity
  8
MAIN0
  6
CONTINUOUS
 62
3
100
AcDbLine
 10
136.3271146452306
 20
257.1045074611087
 30
0.0000000000000000
 11
136.6271146452304
 21
256.8045074611088
 31
0.0000000000000000
  0
LINE
  5
8E
100
AcDbEntity
  8
MAIN0
  6
CONTINUOUS
 62
3
100
AcDbLine
 10
137.1637171860419
 20
243.5482896788107
 30
0.0000000000000000
 11
138.1271146450586
 21
244.1045074611087
 31
0.0000000000000000
  0
LINE
  5
8F
100
AcDbEntity
  8
MAIN0
  6
CONTINUOUS
 62
3
100
AcDbLine
 10
136.0708968630149
 20
244.6411100018381
 30
0.0000000000000000
 11
136.6271146452237
 21
245.6045074606992
 31
0.0000000000000000
  0
ARC
  5
90
100
AcDbEntity
  8
MAIN0
  6
CONTINUOUS
 62
3
100
AcDbCircle
 10
136.7637171860430
 20
244.2411100018389
 30
0.0000000000000000
 40
0.8000000000000000
100
AcDbArc
 50
150.0000000000611
 51
299.9999999999142
  0
LINE
  5
91
100
AcDbEntity
  8
MAIN0
  6
CONTINUOUS
 62
3
100
AcDbLine
 10
129.0708968630225
 20
257.6411100018381
 30
0.0000000000000000
 11
129.6271146452314
 21
258.6045074606992
 31
0.0000000000000000
  0
ARC
  5
92
100
AcDbEntity
  8
MAIN0
  6
CONTINUOUS
 62
3
100
AcDbCircle
 10
129.7637171860506
 20
257.2411100018389
 30
0.0000000000000000
 40
0.8000000000000000
100
AcDbArc
 50
150.0000000000611
 51
299.9999999999142
  0
LINE
  5
93
100
AcDbEntity
  8
MAIN0
  6
CONTINUOUS
 62
3
100
AcDbLine
 10
130.1637171860495
 20
256.5482896788108
 30
0.0000000000000000
 11
131.1271146450662
 21
257.1045074611087
 31
0.0000000000000000
  0
LINE
  5
94
100
AcDbEntity
  8
MAIN0
  6
CONTINUOUS
 62
3
100
AcDbLine
 10
125.6271146452400
 20
234.6873486773046
 30
0.0000000000000000
 11
143.6271146452174
 21
234.6873486773121
 31
0.0000000000000000
  0
LINE
  5
95
100
AcDbEntity
  8
MAIN0
  6
CENTER
 62
3
100
AcDbLine
 10
139.6271146452146
 20
229.9156576578332
 30
0.0000000000000000
 11
139.6271146452168
 21
233.7971851413101
 31
0.0000000000000000
  0
LINE
  5
96
100
AcDbEntity
  8
MAIN0
  6
CONTINUOUS
 62
3
100
AcDbLine
 10
138.8771146448364
 20
231.1045074611088
 30
0.0000000000000000
 11
139.4539095644111
 21
232.1035455673602
 31
0.0000000000000000
  0
LINE
  5
97
100
AcDbEntity
  8
MAIN0
  6
CONTINUOUS
 62
3
100
AcDbLine
 10
139.8003197259249
 20
232.1035455673600
 30
0.0000000000000000
 11
140.3771146454989
 21
231.1045074611087
 31
0.0000000000000000
  0
ARC
  5
98
100
AcDbEntity
  8
MAIN0
  6
CONTINUOUS
 62
3
100
AcDbCircle
 10
139.6271146451680
 20
232.0035455673601
 30
0.0000000000000000
 40
0.2000000000000000
100
AcDbArc
 50
29.99999999996739
 51
149.9999999999922
  0
LINE
  5
99
100
AcDbEntity
  8
MAIN0
  6
CONTINUOUS
 62
3
100
AcDbLine
 10
140.3771146454989
 20
231.1045074611087
 30
0.0000000000000000
 11
143.3271146452153
 21
231.1045074611087
 31
0.0000000000000000
  0
LINE
  5
9A
100
AcDbEntity
  8
MAIN0
  6
CENTER
 62
3
100
AcDbLine
 10
135.6271146452146
 20
229.9156576578332
 30
0.0000000000000000
 11
135.6271146452168
 21
233.7971851413101
 31
0.0000000000000000
  0
LINE
  5
9B
100
AcDbEntity
  8
MAIN0
  6
CONTINUOUS
 62
3
100
AcDbLine
 10
134.8771146448364
 20
231.1045074611088
 30
0.0000000000000000
 11
135.4539095644111
 21
232.1035455673602
 31
0.0000000000000000
  0
LINE
  5
9C
100
AcDbEntity
  8
MAIN0
  6
CONTINUOUS
 62
3
100
AcDbLine
 10
135.8003197259249
 20
232.1035455673600
 30
0.0000000000000000
 11
136.3771146454989
 21
231.1045074611087
 31
0.0000000000000000
  0
ARC
  5
9D
100
AcDbEntity
  8
MAIN0
  6
CONTINUOUS
 62
3
100
AcDbCircle
 10
135.6271146451680
 20
232.0035455673601
 30
0.0000000000000000
 40
0.2000000000000000
100
AcDbArc
 50
29.99999999996739
 51
149.9999999999922
  0
LINE
  5
9E
100
AcDbEntity
  8
MAIN0
  6
CENTER
 62
3
100
AcDbLine
 10
131.6271146452146
 20
229.9156576578332
 30
0.0000000000000000
 11
131.6271146452168
 21
233.7971851413101
 31
0.0000000000000000
  0
LINE
  5
9F
100
AcDbEntity
  8
MAIN0
  6
CONTINUOUS
 62
3
100
AcDbLine
 10
130.8771146448364
 20
231.1045074611088
 30
0.0000000000000000
 11
131.4539095644111
 21
232.1035455673602
 31
0.0000000000000000
  0
LINE
  5
A0
100
AcDbEntity
  8
MAIN0
  6
CONTINUOUS
 62
3
100
AcDbLine
 10
131.8003197259249
 20
232.1035455673600
 30
0.0000000000000000
 11
132.3771146454989
 21
231.1045074611087
 31
0.0000000000000000
  0
ARC
  5
A1
100
AcDbEntity
  8
MAIN0
  6
CONTINUOUS
 62
3
100
AcDbCircle
 10
131.6271146451680
 20
232.0035455673601
 30
0.0000000000000000
 40
0.2000000000000000
100
AcDbArc
 50
29.99999999996739
 51
149.9999999999922
  0
LINE
  5
A2
100
AcDbEntity
  8
MAIN0
  6
CENTER
 62
3
100
AcDbLine
 10
127.6271146452146
 20
229.9156576578332
 30
0.0000000000000000
 11
127.6271146452168
 21
233.7971851413101
 31
0.0000000000000000
  0
LINE
  5
A3
100
AcDbEntity
  8
MAIN0
  6
CONTINUOUS
 62
3
100
AcDbLine
 10
126.8771146448364
 20
231.1045074611088
 30
0.0000000000000000
 11
127.4539095644111
 21
232.1035455673602
 31
0.0000000000000000
  0
LINE
  5
A4
100
AcDbEntity
  8
MAIN0
  6
CONTINUOUS
 62
3
100
AcDbLine
 10
127.8003197259249
 20
232.1035455673600
 30
0.0000000000000000
 11
128.3771146454989
 21
231.1045074611087
 31
0.0000000000000000
  0
ARC
  5
A5
100
AcDbEntity
  8
MAIN0
  6
CONTINUOUS
 62
3
100
AcDbCircle
 10
127.6271146451680
 20
232.0035455673601
 30
0.0000000000000000
 40
0.2000000000000000
100
AcDbArc
 50
29.99999999996739
 51
149.9999999999922
  0
LINE
  5
A6
100
AcDbEntity
  8
MAIN0
  6
CONTINUOUS
 62
3
100
AcDbLine
 10
136.3771146454989
 20
231.1045074611087
 30
0.0000000000000000
 11
138.8771146448364
 21
231.1045074611087
 31
0.0000000000000000
  0
LINE
  5
A7
100
AcDbEntity
  8
MAIN0
  6
CONTINUOUS
 62
3
100
AcDbLine
 10
132.3771146454989
 20
231.1045074611087
 30
0.0000000000000000
 11
134.8771146448364
 21
231.1045074611087
 31
0.0000000000000000
  0
LINE
  5
A8
100
AcDbEntity
  8
MAIN0
  6
CONTINUOUS
 62
3
100
AcDbLine
 10
128.3771146454989
 20
231.1045074611087
 30
0.0000000000000000
 11
130.8771146448364
 21
231.1045074611087
 31
0.0000000000000000
  0
LINE
  5
A9
100
AcDbEntity
  8
MAIN0
  6
CONTINUOUS
 62
3
100
AcDbLine
 10
125.6271146452400
 20
231.1045074611087
 30
0.0000000000000000
 11
126.8771146448364
 21
231.1045074611087
 31
0.0000000000000000
  0
LINE
  5
AA
100
AcDbEntity
  8
MAIN0
  6
CENTER
 62
3
100
AcDbLine
 10
140.7271146452160
 20
245.2933572643843
 30
0.0000000000000000
 11
140.7271146452137
 21
241.4118297809074
 31
0.0000000000000000
  0
LINE
  5
AB
100
AcDbEntity
  8
MAIN0
  6
CONTINUOUS
 62
3
100
AcDbLine
 10
141.4771146455942
 20
244.1045074611087
 30
0.0000000000000000
 11
140.9003197260195
 21
243.1054693548573
 31
0.0000000000000000
  0
LINE
  5
AC
100
AcDbEntity
  8
MAIN0
  6
CONTINUOUS
 62
3
100
AcDbLine
 10
140.5539095645056
 20
243.1054693548574
 30
0.0000000000000000
 11
139.9771146449317
 21
244.1045074611088
 31
0.0000000000000000
  0
ARC
  5
AD
100
AcDbEntity
  8
MAIN0
  6
CONTINUOUS
 62
3
100
AcDbCircle
 10
140.7271146452626
 20
243.2054693548573
 30
0.0000000000000000
 40
0.2000000000000000
100
AcDbArc
 50
209.9999999999674
 51
329.9999999999922
  0
LINE
  5
AE
100
AcDbEntity
  8
MAIN0
  6
CENTER
 62
3
100
AcDbLine
 10
133.4271146452160
 20
258.2933572643843
 30
0.0000000000000000
 11
133.4271146452137
 21
254.4118297809074
 31
0.0000000000000000
  0
LINE
  5
AF
100
AcDbEntity
  8
MAIN0
  6
CONTINUOUS
 62
3
100
AcDbLine
 10
134.1771146455942
 20
257.1045074611087
 30
0.0000000000000000
 11
133.6003197260195
 21
256.1054693548573
 31
0.0000000000000000
  0
LINE
  5
B0
100
AcDbEntity
  8
MAIN0
  6
CONTINUOUS
 62
3
100
AcDbLine
 10
133.2539095645056
 20
256.1054693548574
 30
0.0000000000000000
 11
132.6771146449316
 21
257.1045074611088
 31
0.0000000000000000
  0
ARC
  5
B1
100
AcDbEntity
  8
MAIN0
  6
CONTINUOUS
 62
3
100
AcDbCircle
 10
133.4271146452626
 20
256.2054693548573
 30
0.0000000000000000
 40
0.2000000000000000
100
AcDbArc
 50
209.9999999999674
 51
329.9999999999922
  0
LINE
  5
B2
100
AcDbEntity
  8
MAIN0
  6
CONTINUOUS
 62
3
100
AcDbLine
 10
138.1271146450588
 20
244.1045074611087
 30
0.0000000000000000
 11
139.9771146449317
 21
244.1045074611087
 31
0.0000000000000000
  0
LINE
  5
B3
100
AcDbEntity
  8
MAIN0
  6
CONTINUOUS
 62
3
100
AcDbLine
 10
141.4771146455942
 20
244.1045074611087
 30
0.0000000000000000
 11
143.3271146452229
 21
244.1045074611087
 31
0.0000000000000000
  0
LINE
  5
B4
100
AcDbEntity
  8
MAIN0
  6
CONTINUOUS
 62
3
100
AcDbLine
 10
131.1271146450662
 20
257.1045074611087
 30
0.0000000000000000
 11
132.6771146449316
 21
257.1045074611087
 31
0.0000000000000000
  0
LINE
  5
B5
100
AcDbEntity
  8
MAIN0
  6
CONTINUOUS
 62
3
100
AcDbLine
 10
134.1771146455942
 20
257.1045074611087
 30
0.0000000000000000
 11
136.3271146452306
 21
257.1045074611087
 31
0.0000000000000000
  0
LINE
  5
B6
100
AcDbEntity
  8
MAIN0
  6
CONTINUOUS
 62
3
100
AcDbLine
 10
125.6271146452400
 20
164.6045074611087
 30
0.0000000000000000
 11
125.6271146452400
 21
271.6045074611087
 31
0.0000000000000000
  0
LINE
  5
B7
100
AcDbEntity
  8
MAIN0
  6
CONTINUOUS
 62
3
100
AcDbLine
 10
68.62711464524000
 20
273.1045074611087
 30
0.0000000000000000
 11
112.6271146452251
 21
273.1045074611087
 31
0.0000000000000000
  0
LINE
  5
B8
100
AcDbEntity
  8
MAIN0
  6
PHANTOM
 62
3
100
AcDbLine
 10
143.6271146450175
 20
211.3045074611305
 30
0.0000000000000000
 11
143.6271146450335
 21
224.9045074611305
 31
0.0000000000000000
  0
LINE
  5
B9
100
AcDbEntity
  8
MAIN0
  6
PHANTOM
 62
3
100
AcDbLine
 10
143.4271146450337
 20
225.1045074611303
 30
0.0000000000000000
 11
143.6271146450335
 21
224.9045074611305
 31
0.0000000000000000
  0
LINE
  5
BA
100
AcDbEntity
  8
MAIN0
  6
PHANTOM
 62
3
100
AcDbLine
 10
143.6271146450175
 20
211.3045074611305
 30
0.0000000000000000
 11
143.4271146450172
 21
211.1045074611303
 31
0.0000000000000000
  0
LINE
  5
BB
100
AcDbEntity
  8
MAIN0
  6
PHANTOM
 62
3
100
AcDbLine
 10
125.6271146452400
 20
211.1045074611178
 30
0.0000000000000000
 11
143.4271146450172
 21
211.1045074611303
 31
0.0000000000000000
  0
LINE
  5
BC
100
AcDbEntity
  8
MAIN0
  6
PHANTOM
 62
3
100
AcDbLine
 10
125.6271146452400
 20
225.1045074611178
 30
0.0000000000000000
 11
143.4271146450337
 21
225.1045074611303
 31
0.0000000000000000
  0
LINE
  5
BD
100
AcDbEntity
  8
MAIN0
  6
CENTER
 62
3
100
AcDbLine
 10
139.6271146450219
 20
215.0503520180940
 30
0.0000000000000000
 11
139.6271146450293
 21
221.3790042910352
 31
0.0000000000000000
  0
LINE
  5
BE
100
AcDbEntity
  8
MAIN0
  6
PHANTOM
 62
3
100
AcDbLine
 10
140.3771146450246
 20
217.3545074611282
 30
0.0000000000000000
 11
140.3771146450264
 21
218.8545074611282
 31
0.0000000000000000
  0
LINE
  5
BF
100
AcDbEntity
  8
MAIN0
  6
PHANTOM
 62
3
100
AcDbLine
 10
138.8771146450246
 20
217.3545074611271
 30
0.0000000000000000
 11
138.8771146450264
 21
218.8545074611271
 31
0.0000000000000000
  0
LINE
  5
C0
100
AcDbEntity
  8
MAIN0
  6
PHANTOM
 62
3
100
AcDbLine
 10
138.8771146450265
 20
218.8545074611271
 30
0.0000000000000000
 11
139.4482292068280
 21
219.9967365847278
 31
0.0000000000000000
  0
LINE
  5
C1
100
AcDbEntity
  8
MAIN0
  6
PHANTOM
 62
3
100
AcDbLine
 10
139.8060000832279
 20
219.9967365847276
 30
0.0000000000000000
 11
140.3771146450264
 21
218.8545074611282
 31
0.0000000000000000
  0
LINE
  5
C2
100
AcDbEntity
  8
MAIN0
  6
PHANTOM
 62
3
100
AcDbLine
 10
140.3771146450246
 20
217.3545074611282
 30
0.0000000000000000
 11
143.6271146450246
 21
217.3545074611305
 31
0.0000000000000000
  0
LINE
  5
C3
100
AcDbEntity
  8
MAIN0
  6
PHANTOM
 62
3
100
AcDbLine
 10
140.3771146450264
 20
218.8545074611282
 30
0.0000000000000000
 11
143.6271146450264
 21
218.8545074611305
 31
0.0000000000000000
  0
ARC
  5
C4
100
AcDbEntity
  8
MAIN0
  6
PHANTOM
 62
3
100
AcDbCircle
 10
139.6271146450279
 20
219.9072938656277
 30
0.0000000000000000
 40
0.2000000000000000
100
AcDbArc
 50
26.56505117703065
 51
153.4349488228783
  0
LINE
  5
C5
100
AcDbEntity
  8
MAIN0
  6
PHANTOM
 62
3
100
AcDbLine
 10
138.8771146450275
 20
217.3545074611271
 30
0.0000000000000000
 11
139.4482292068306
 21
216.2122783375272
 31
0.0000000000000000
  0
LINE
  5
C6
100
AcDbEntity
  8
MAIN0
  6
PHANTOM
 62
3
100
AcDbLine
 10
139.8060000832305
 20
216.2122783375280
 30
0.0000000000000000
 11
140.3771146450274
 21
217.3545074611281
 31
0.0000000000000000
  0
ARC
  5
C7
100
AcDbEntity
  8
MAIN0
  6
PHANTOM
 62
3
100
AcDbCircle
 10
139.6271146450304
 20
216.3017210566275
 30
0.0000000000000000
 40
0.2000000000000000
100
AcDbArc
 50
206.5650511772021
 51
333.4349488230498
  0
LINE
  5
C8
100
AcDbEntity
  8
MAIN0
  6
CENTER
 62
3
100
AcDbLine
 10
135.6271146450219
 20
215.0503520180940
 30
0.0000000000000000
 11
135.6271146450293
 21
221.3790042910352
 31
0.0000000000000000
  0
LINE
  5
C9
100
AcDbEntity
  8
MAIN0
  6
PHANTOM
 62
3
100
AcDbLine
 10
136.3771146450246
 20
217.3545074611282
 30
0.0000000000000000
 11
136.3771146450264
 21
218.8545074611282
 31
0.0000000000000000
  0
LINE
  5
CA
100
AcDbEntity
  8
MAIN0
  6
PHANTOM
 62
3
100
AcDbLine
 10
134.8771146450246
 20
217.3545074611271
 30
0.0000000000000000
 11
134.8771146450264
 21
218.8545074611271
 31
0.0000000000000000
  0
LINE
  5
CB
100
AcDbEntity
  8
MAIN0
  6
PHANTOM
 62
3
100
AcDbLine
 10
134.8771146450265
 20
218.8545074611271
 30
0.0000000000000000
 11
135.4482292068280
 21
219.9967365847278
 31
0.0000000000000000
  0
LINE
  5
CC
100
AcDbEntity
  8
MAIN0
  6
PHANTOM
 62
3
100
AcDbLine
 10
135.8060000832279
 20
219.9967365847275
 30
0.0000000000000000
 11
136.3771146450264
 21
218.8545074611282
 31
0.0000000000000000
  0
ARC
  5
CD
100
AcDbEntity
  8
MAIN0
  6
PHANTOM
 62
3
100
AcDbCircle
 10
135.6271146450279
 20
219.9072938656277
 30
0.0000000000000000
 40
0.2000000000000000
100
AcDbArc
 50
26.56505117703065
 51
153.4349488228783
  0
LINE
  5
CE
100
AcDbEntity
  8
MAIN0
  6
PHANTOM
 62
3
100
AcDbLine
 10
134.8771146450275
 20
217.3545074611271
 30
0.0000000000000000
 11
135.4482292068306
 21
216.2122783375272
 31
0.0000000000000000
  0
LINE
  5
CF
100
AcDbEntity
  8
MAIN0
  6
PHANTOM
 62
3
100
AcDbLine
 10
135.8060000832305
 20
216.2122783375280
 30
0.0000000000000000
 11
136.3771146450274
 21
217.3545074611281
 31
0.0000000000000000
  0
ARC
  5
D0
100
AcDbEntity
  8
MAIN0
  6
PHANTOM
 62
3
100
AcDbCircle
 10
135.6271146450304
 20
216.3017210566275
 30
0.0000000000000000
 40
0.2000000000000000
100
AcDbArc
 50
206.5650511772021
 51
333.4349488230498
  0
LINE
  5
D1
100
AcDbEntity
  8
MAIN0
  6
CENTER
 62
3
100
AcDbLine
 10
131.6271146450219
 20
215.0503520180940
 30
0.0000000000000000
 11
131.6271146450293
 21
221.3790042910352
 31
0.0000000000000000
  0
LINE
  5
D2
100
AcDbEntity
  8
MAIN0
  6
PHANTOM
 62
3
100
AcDbLine
 10
132.3771146450246
 20
217.3545074611282
 30
0.0000000000000000
 11
132.3771146450264
 21
218.8545074611282
 31
0.0000000000000000
  0
LINE
  5
D3
100
AcDbEntity
  8
MAIN0
  6
PHANTOM
 62
3
100
AcDbLine
 10
130.8771146450247
 20
217.3545074611271
 30
0.0000000000000000
 11
130.8771146450264
 21
218.8545074611271
 31
0.0000000000000000
  0
LINE
  5
D4
100
AcDbEntity
  8
MAIN0
  6
PHANTOM
 62
3
100
AcDbLine
 10
130.8771146450264
 20
218.8545074611271
 30
0.0000000000000000
 11
131.4482292068279
 21
219.9967365847278
 31
0.0000000000000000
  0
LINE
  5
D5
100
AcDbEntity
  8
MAIN0
  6
PHANTOM
 62
3
100
AcDbLine
 10
131.8060000832279
 20
219.9967365847275
 30
0.0000000000000000
 11
132.3771146450264
 21
218.8545074611282
 31
0.0000000000000000
  0
ARC
  5
D6
100
AcDbEntity
  8
MAIN0
  6
PHANTOM
 62
3
100
AcDbCircle
 10
131.6271146450279
 20
219.9072938656277
 30
0.0000000000000000
 40
0.2000000000000000
100
AcDbArc
 50
26.56505117703065
 51
153.4349488228783
  0
LINE
  5
D7
100
AcDbEntity
  8
MAIN0
  6
PHANTOM
 62
3
100
AcDbLine
 10
130.8771146450275
 20
217.3545074611271
 30
0.0000000000000000
 11
131.4482292068306
 21
216.2122783375272
 31
0.0000000000000000
  0
LINE
  5
D8
100
AcDbEntity
  8
MAIN0
  6
PHANTOM
 62
3
100
AcDbLine
 10
131.8060000832306
 20
216.2122783375280
 30
0.0000000000000000
 11
132.3771146450274
 21
217.3545074611281
 31
0.0000000000000000
  0
ARC
  5
D9
100
AcDbEntity
  8
MAIN0
  6
PHANTOM
 62
3
100
AcDbCircle
 10
131.6271146450304
 20
216.3017210566275
 30
0.0000000000000000
 40
0.2000000000000000
100
AcDbArc
 50
206.5650511772021
 51
333.4349488230498
  0
LINE
  5
DA
100
AcDbEntity
  8
MAIN0
  6
CENTER
 62
3
100
AcDbLine
 10
127.6271146450219
 20
215.0503520180941
 30
0.0000000000000000
 11
127.6271146450294
 21
221.3790042910352
 31
0.0000000000000000
  0
LINE
  5
DB
100
AcDbEntity
  8
MAIN0
  6
PHANTOM
 62
3
100
AcDbLine
 10
128.3771146450247
 20
217.3545074611282
 30
0.0000000000000000
 11
128.3771146450264
 21
218.8545074611282
 31
0.0000000000000000
  0
LINE
  5
DC
100
AcDbEntity
  8
MAIN0
  6
PHANTOM
 62
3
100
AcDbLine
 10
126.8771146450247
 20
217.3545074611271
 30
0.0000000000000000
 11
126.8771146450264
 21
218.8545074611271
 31
0.0000000000000000
  0
LINE
  5
DD
100
AcDbEntity
  8
MAIN0
  6
PHANTOM
 62
3
100
AcDbLine
 10
126.8771146450264
 20
218.8545074611271
 30
0.0000000000000000
 11
127.4482292068279
 21
219.9967365847278
 31
0.0000000000000000
  0
LINE
  5
DE
100
AcDbEntity
  8
MAIN0
  6
PHANTOM
 62
3
100
AcDbLine
 10
127.8060000832279
 20
219.9967365847275
 30
0.0000000000000000
 11
128.3771146450264
 21
218.8545074611282
 31
0.0000000000000000
  0
ARC
  5
DF
100
AcDbEntity
  8
MAIN0
  6
PHANTOM
 62
3
100
AcDbCircle
 10
127.6271146450279
 20
219.9072938656277
 30
0.0000000000000000
 40
0.2000000000000000
100
AcDbArc
 50
26.56505117703065
 51
153.4349488228783
  0
LINE
  5
E0
100
AcDbEntity
  8
MAIN0
  6
PHANTOM
 62
3
100
AcDbLine
 10
126.8771146450275
 20
217.3545074611271
 30
0.0000000000000000
 11
127.4482292068306
 21
216.2122783375272
 31
0.0000000000000000
  0
LINE
  5
E1
100
AcDbEntity
  8
MAIN0
  6
PHANTOM
 62
3
100
AcDbLine
 10
127.8060000832306
 20
216.2122783375280
 30
0.0000000000000000
 11
128.3771146450274
 21
217.3545074611281
 31
0.0000000000000000
  0
ARC
  5
E2
100
AcDbEntity
  8
MAIN0
  6
PHANTOM
 62
3
100
AcDbCircle
 10
127.6271146450304
 20
216.3017210566275
 30
0.0000000000000000
 40
0.2000000000000000
100
AcDbArc
 50
206.5650511772021
 51
333.4349488230498
  0
LINE
  5
E3
100
AcDbEntity
  8
MAIN0
  6
PHANTOM
 62
3
100
AcDbLine
 10
136.3771146450264
 20
218.8545074611254
 30
0.0000000000000000
 11
138.8771146450264
 21
218.8545074611271
 31
0.0000000000000000
  0
LINE
  5
E4
100
AcDbEntity
  8
MAIN0
  6
PHANTOM
 62
3
100
AcDbLine
 10
136.3771146450274
 20
217.3545074611254
 30
0.0000000000000000
 11
138.8771146450246
 21
217.3545074611271
 31
0.0000000000000000
  0
LINE
  5
E5
100
AcDbEntity
  8
MAIN0
  6
PHANTOM
 62
3
100
AcDbLine
 10
132.3771146450250
 20
218.8545074611226
 30
0.0000000000000000
 11
134.8771146450264
 21
218.8545074611243
 31
0.0000000000000000
  0
LINE
  5
E6
100
AcDbEntity
  8
MAIN0
  6
PHANTOM
 62
3
100
AcDbLine
 10
132.3771146450246
 20
217.3545074611226
 30
0.0000000000000000
 11
134.8771146450276
 21
217.3545074611243
 31
0.0000000000000000
  0
LINE
  5
E7
100
AcDbEntity
  8
MAIN0
  6
PHANTOM
 62
3
100
AcDbLine
 10
128.3771146450274
 20
217.3545074611198
 30
0.0000000000000000
 11
130.8771146450276
 21
217.3545074611215
 31
0.0000000000000000
  0
LINE
  5
E8
100
AcDbEntity
  8
MAIN0
  6
PHANTOM
 62
3
100
AcDbLine
 10
128.3771146450264
 20
218.8545074611198
 30
0.0000000000000000
 11
130.8771146450264
 21
218.8545074611215
 31
0.0000000000000000
  0
LINE
  5
E9
100
AcDbEntity
  8
MAIN0
  6
PHANTOM
 62
3
100
AcDbLine
 10
125.6271146452400
 20
218.8545074611178
 30
0.0000000000000000
 11
126.8771146450264
 21
218.8545074611187
 31
0.0000000000000000
  0
LINE
  5
EA
100
AcDbEntity
  8
MAIN0
  6
PHANTOM
 62
3
100
AcDbLine
 10
125.6271146452400
 20
217.3545074611178
 30
0.0000000000000000
 11
126.8771146450276
 21
217.3545074611187
 31
0.0000000000000000
  0
LINE
  5
EB
100
AcDbEntity
  8
MAIN0
  6
PHANTOM
 62
3
100
AcDbLine
 10
125.6271146452400
 20
201.5216662449194
 30
0.0000000000000000
 11
129.1271146450677
 21
201.5216662449241
 31
0.0000000000000000
  0
LINE
  5
EC
100
AcDbEntity
  8
MAIN0
  6
PHANTOM
 62
3
100
AcDbLine
 10
129.1271146450780
 20
197.1045074611214
 30
0.0000000000000000
 11
129.6271146450779
 21
197.1045074611223
 31
0.0000000000000000
  0
LINE
  5
ED
100
AcDbEntity
  8
MAIN0
  6
PHANTOM
 62
3
100
AcDbLine
 10
143.6271146451348
 20
172.8045074611468
 30
0.0000000000000000
 11
143.6271146451567
 21
163.4045074611468
 31
0.0000000000000000
  0
LINE
  5
EE
100
AcDbEntity
  8
MAIN0
  6
PHANTOM
 62
3
100
AcDbLine
 10
136.6271146451044
 20
185.8045074611345
 30
0.0000000000000000
 11
136.6271146451306
 21
174.6045074610087
 31
0.0000000000000000
  0
LINE
  5
EF
100
AcDbEntity
  8
MAIN0
  6
PHANTOM
 62
3
100
AcDbLine
 10
129.6271146450779
 20
197.1045074611223
 30
0.0000000000000000
 11
129.6271146451002
 21
187.6045074609964
 31
0.0000000000000000
  0
LINE
  5
F0
100
AcDbEntity
  8
MAIN0
  6
PHANTOM
 62
3
100
AcDbLine
 10
129.1271146450600
 20
204.8045074611214
 30
0.0000000000000000
 11
129.1271146450780
 21
197.1045074611214
 31
0.0000000000000000
  0
LINE
  5
F1
100
AcDbEntity
  8
MAIN0
  6
PHANTOM
 62
3
100
AcDbLine
 10
128.8271146450594
 20
205.1045074611208
 30
0.0000000000000000
 11
129.1271146450600
 21
204.8045074611214
 31
0.0000000000000000
  0
LINE
  5
F2
100
AcDbEntity
  8
MAIN0
  6
PHANTOM
 62
3
100
AcDbLine
 10
136.3271146451036
 20
186.1045074611340
 30
0.0000000000000000
 11
136.6271146451043
 21
185.8045074611345
 31
0.0000000000000000
  0
LINE
  5
F3
100
AcDbEntity
  8
MAIN0
  6
PHANTOM
 62
3
100
AcDbLine
 10
143.3271146451340
 20
173.1045074611463
 30
0.0000000000000000
 11
143.6271146451347
 21
172.8045074611468
 31
0.0000000000000000
  0
LINE
  5
F4
100
AcDbEntity
  8
MAIN0
  6
PHANTOM
 62
3
100
AcDbLine
 10
143.6271146451568
 20
163.4045074611468
 30
0.0000000000000000
 11
143.3271146451575
 21
163.1045074611463
 31
0.0000000000000000
  0
LINE
  5
F5
100
AcDbEntity
  8
MAIN0
  6
PHANTOM
 62
3
100
AcDbLine
 10
137.1637171855338
 20
172.5482896784041
 30
0.0000000000000000
 11
138.1271146452988
 21
173.1045074611372
 31
0.0000000000000000
  0
LINE
  5
F6
100
AcDbEntity
  8
MAIN0
  6
PHANTOM
 62
3
100
AcDbLine
 10
136.0708968625061
 20
173.6411100014319
 30
0.0000000000000000
 11
136.6271146451306
 21
174.6045074610087
 31
0.0000000000000000
  0
ARC
  5
F7
100
AcDbEntity
  8
MAIN0
  6
PHANTOM
 62
3
100
AcDbCircle
 10
136.7637171855333
 20
173.2411100014313
 30
0.0000000000000000
 40
0.8000000000000000
100
AcDbArc
 50
149.9999999999421
 51
300.0000000000513
  0
LINE
  5
F8
100
AcDbEntity
  8
MAIN0
  6
PHANTOM
 62
3
100
AcDbLine
 10
129.0708968624757
 20
186.6411100014197
 30
0.0000000000000000
 11
129.6271146451001
 21
187.6045074609964
 31
0.0000000000000000
  0
ARC
  5
F9
100
AcDbEntity
  8
MAIN0
  6
PHANTOM
 62
3
100
AcDbCircle
 10
129.7637171855028
 20
186.2411100014190
 30
0.0000000000000000
 40
0.8000000000000000
100
AcDbArc
 50
149.9999999999421
 51
300.0000000000513
  0
LINE
  5
FA
100
AcDbEntity
  8
MAIN0
  6
PHANTOM
 62
3
100
AcDbLine
 10
130.1637171855033
 20
185.5482896783918
 30
0.0000000000000000
 11
131.1271146452683
 21
186.1045074611249
 31
0.0000000000000000
  0
LINE
  5
FB
100
AcDbEntity
  8
MAIN0
  6
CENTER
 62
3
100
AcDbLine
 10
140.7271146451477
 20
174.2933572644206
 30
0.0000000000000000
 11
140.7271146451455
 21
170.4118297809437
 31
0.0000000000000000
  0
LINE
  5
FC
100
AcDbEntity
  8
MAIN0
  6
PHANTOM
 62
3
100
AcDbLine
 10
140.5539095644374
 20
172.1054693548937
 30
0.0000000000000000
 11
139.9771146448634
 21
173.1045074611450
 31
0.0000000000000000
  0
LINE
  5
FD
100
AcDbEntity
  8
MAIN0
  6
PHANTOM
 62
3
100
AcDbLine
 10
141.4771146455259
 20
173.1045074611450
 30
0.0000000000000000
 11
140.9003197259512
 21
172.1054693548936
 31
0.0000000000000000
  0
ARC
  5
FE
100
AcDbEntity
  8
MAIN0
  6
PHANTOM
 62
3
100
AcDbCircle
 10
140.7271146451943
 20
172.2054693548936
 30
0.0000000000000000
 40
0.2000000000000000
100
AcDbArc
 50
209.9999999999674
 51
329.9999999999922
  0
LINE
  5
FF
100
AcDbEntity
  8
MAIN0
  6
CENTER
 62
3
100
AcDbLine
 10
133.4271146451477
 20
187.2933572644075
 30
0.0000000000000000
 11
133.4271146451455
 21
183.4118297809306
 31
0.0000000000000000
  0
LINE
  5
100
100
AcDbEntity
  8
MAIN0
  6
PHANTOM
 62
3
100
AcDbLine
 10
133.2539095644374
 20
185.1054693548806
 30
0.0000000000000000
 11
132.6771146448634
 21
186.1045074611319
 31
0.0000000000000000
  0
LINE
  5
101
100
AcDbEntity
  8
MAIN0
  6
PHANTOM
 62
3
100
AcDbLine
 10
134.1771146455259
 20
186.1045074611319
 30
0.0000000000000000
 11
133.6003197259512
 21
185.1054693548804
 31
0.0000000000000000
  0
ARC
  5
102
100
AcDbEntity
  8
MAIN0
  6
PHANTOM
 62
3
100
AcDbCircle
 10
133.4271146451943
 20
185.2054693548805
 30
0.0000000000000000
 40
0.2000000000000000
100
AcDbArc
 50
209.9999999999674
 51
329.9999999999922
  0
LINE
  5
103
100
AcDbEntity
  8
MAIN0
  6
PHANTOM
 62
3
100
AcDbLine
 10
138.1271146452988
 20
173.1045074611372
 30
0.0000000000000000
 11
139.9771146448635
 21
173.1045074611404
 31
0.0000000000000000
  0
LINE
  5
104
100
AcDbEntity
  8
MAIN0
  6
PHANTOM
 62
3
100
AcDbLine
 10
141.4771146455260
 20
173.1045074611430
 30
0.0000000000000000
 11
143.3271146451341
 21
173.1045074611463
 31
0.0000000000000000
  0
LINE
  5
105
100
AcDbEntity
  8
MAIN0
  6
PHANTOM
 62
3
100
AcDbLine
 10
131.1271146452684
 20
186.1045074611249
 30
0.0000000000000000
 11
132.6771146448634
 21
186.1045074611276
 31
0.0000000000000000
  0
LINE
  5
106
100
AcDbEntity
  8
MAIN0
  6
PHANTOM
 62
3
100
AcDbLine
 10
134.1771146455259
 20
186.1045074611303
 30
0.0000000000000000
 11
136.3271146451036
 21
186.1045074611340
 31
0.0000000000000000
  0
LINE
  5
107
100
AcDbEntity
  8
MAIN0
  6
PHANTOM
 62
3
100
AcDbLine
 10
125.8771146454381
 20
205.1045074611157
 30
0.0000000000000000
 11
128.8271146450593
 21
205.1045074611209
 31
0.0000000000000000
  0
LINE
  5
108
100
AcDbEntity
  8
MAIN0
  6
CENTER
 62
3
100
AcDbLine
 10
122.1573256955461
 20
200.1045074611087
 30
0.0000000000000000
 11
127.2991321680613
 21
200.1045074611087
 31
0.0000000000000000
  0
LINE
  5
109
100
AcDbEntity
  8
MAIN0
  6
CENTER
 62
3
100
AcDbLine
 10
228.6471810798322
 20
159.4960339909389
 30
0.0000000000000000
 11
228.6471810798322
 21
277.4741280519604
 31
0.0000000000000000
  0
CIRCLE
  5
10A
100
AcDbEntity
  8
MAIN0
  6
CONTINUOUS
 62
3
100
AcDbCircle
 10
228.6471810798322
 20
218.1045074611087
 30
0.0000000000000000
 40
12.00000000000000
  0
CIRCLE
  5
10B
100
AcDbEntity
  8
MAIN0
  6
HIDDEN
 62
3
100
AcDbCircle
 10
228.6471810798322
 20
218.1045074611087
 30
0.0000000000000000
 40
41.00000000000000
  0
CIRCLE
  5
10C
100
AcDbEntity
  8
MAIN0
  6
HIDDEN
 62
3
100
AcDbCircle
 10
228.6471810798322
 20
218.1045074611087
 30
0.0000000000000000
 40
40.00000000000000
  0
ARC
  5
10D
100
AcDbEntity
  8
MAIN0
  6
CENTER
 62
3
100
AcDbCircle
 10
228.6471810798322
 20
218.1045074611087
 30
0.0000000000000000
 40
18.00000000000000
100
AcDbArc
 50
249.5533513217227
 51
291.1060403617032
  0
LINE
  5
10E
100
AcDbEntity
  8
MAIN0
  6
CONTINUOUS
 62
3
100
AcDbLine
 10
221.6471810798854
 20
227.8513018059559
 30
0.0000000000000000
 11
221.6471810798326
 21
272.8045074611087
 31
0.0000000000000000
  0
LINE
  5
10F
100
AcDbEntity
  8
MAIN0
  6
CONTINUOUS
 62
3
100
AcDbLine
 10
235.6471810798854
 20
227.8513018058794
 30
0.0000000000000000
 11
235.6471810798326
 21
272.8045074611087
 31
0.0000000000000000
  0
LINE
  5
110
100
AcDbEntity
  8
MAIN0
  6
CONTINUOUS
 62
3
100
AcDbLine
 10
235.3471810798322
 20
273.1045074611087
 30
0.0000000000000000
 11
221.9471810798322
 21
273.1045074611087
 31
0.0000000000000000
  0
LINE
  5
111
100
AcDbEntity
  8
MAIN0
  6
CONTINUOUS
 62
3
100
AcDbLine
 10
221.6471810798325
 20
272.8045074611087
 30
0.0000000000000000
 11
221.9471810798322
 21
273.1045074611087
 31
0.0000000000000000
  0
LINE
  5
112
100
AcDbEntity
  8
MAIN0
  6
CONTINUOUS
 62
3
100
AcDbLine
 10
235.3471810798322
 20
273.1045074611088
 30
0.0000000000000000
 11
235.6471810798326
 21
272.8045074611088
 31
0.0000000000000000
  0
ARC
  5
113
100
AcDbEntity
  8
MAIN0
  6
CONTINUOUS
 62
3
100
AcDbCircle
 10
228.6471810798322
 20
220.1045074611087
 30
0.0000000000000000
 40
11.00000000000000
100
AcDbArc
 50
86.09043647508268
 51
93.90956352440122
  0
LINE
  5
114
100
AcDbEntity
  8
MAIN0
  6
CONTINUOUS
 62
3
100
AcDbLine
 10
229.3971810798817
 20
231.0789094950036
 30
0.0000000000000000
 11
235.6471810798773
 21
234.6873486774222
 31
0.0000000000000000
  0
LINE
  5
115
100
AcDbEntity
  8
MAIN0
  6
CONTINUOUS
 62
3
100
AcDbLine
 10
221.6471810798774
 20
234.6873486773237
 30
0.0000000000000000
 11
227.8971810798816
 21
231.0789094948894
 31
0.0000000000000000
  0
ARC
  5
116
100
AcDbEntity
  8
MAIN0
  6
CONTINUOUS
 62
3
100
AcDbCircle
 10
228.6471810798322
 20
220.1045074611087
 30
0.0000000000000000
 40
24.00000000000000
100
AcDbArc
 50
73.04223669990762
 51
106.9577632999159
  0
ARC
  5
117
100
AcDbEntity
  8
MAIN0
  6
CONTINUOUS
 62
3
100
AcDbCircle
 10
228.6471810798322
 20
220.1045074611087
 30
0.0000000000000000
 40
25.50000000000000
100
AcDbArc
 50
74.06719618463403
 51
105.9328038152094
  0
ARC
  5
118
100
AcDbEntity
  8
MAIN0
  6
CONTINUOUS
 62
3
100
AcDbCircle
 10
228.6471810798322
 20
220.1045074611087
 30
0.0000000000000000
 40
37.00000000000000
100
AcDbArc
 50
79.09453000323870
 51
100.9054699966995
  0
ARC
  5
119
100
AcDbEntity
  8
MAIN0
  6
CONTINUOUS
 62
3
100
AcDbCircle
 10
228.6471810798322
 20
220.1045074611087
 30
0.0000000000000000
 40
38.50000000000000
100
AcDbArc
 50
79.52431830358313
 51
100.4756816963629
  0
ARC
  5
11A
100
AcDbEntity
  8
MAIN0
  6
CONTINUOUS
 62
3
100
AcDbCircle
 10
228.6471810798322
 20
220.1045074611087
 30
0.0000000000000000
 40
47.00000000000000
100
AcDbArc
 50
81.43471889243973
 51
98.56528110754125
  0
LINE
  5
11B
100
AcDbEntity
  8
MAIN0
  6
CONTINUOUS
 62
3
100
AcDbLine
 10
223.7062095717054
 20
207.1689324622402
 30
0.0000000000000000
 11
184.7755914928232
 21
184.6923296346180
 31
0.0000000000000000
  0
LINE
  5
11C
100
AcDbEntity
  8
MAIN0
  6
CONTINUOUS
 62
3
100
AcDbLine
 10
216.7062095717716
 20
219.2932881152605
 30
0.0000000000000000
 11
177.7755914928232
 21
196.8166852876001
 31
0.0000000000000000
  0
LINE
  5
11D
100
AcDbEntity
  8
MAIN0
  6
CONTINUOUS
 62
3
100
AcDbLine
 10
177.6657838716881
 20
196.4068776664645
 30
0.0000000000000000
 11
184.3657838716881
 21
184.8021372557530
 31
0.0000000000000000
  0
LINE
  5
11E
100
AcDbEntity
  8
MAIN0
  6
CONTINUOUS
 62
3
100
AcDbLine
 10
184.7755914928232
 20
184.6923296346180
 30
0.0000000000000000
 11
184.3657838716881
 21
184.8021372557530
 31
0.0000000000000000
  0
LINE
  5
11F
100
AcDbEntity
  8
MAIN0
  6
CONTINUOUS
 62
3
100
AcDbLine
 10
177.6657838716881
 20
196.4068776664644
 30
0.0000000000000000
 11
177.7755914928233
 21
196.8166852876001
 31
0.0000000000000000
  0
ARC
  5
120
100
AcDbEntity
  8
MAIN0
  6
CONTINUOUS
 62
3
100
AcDbCircle
 10
226.9151302722634
 20
217.1045074611087
 30
0.0000000000000000
 40
11.00000000000000
100
AcDbArc
 50
206.0904364750826
 51
213.9095635244012
  0
LINE
  5
121
100
AcDbEntity
  8
MAIN0
  6
CONTINUOUS
 62
3
100
AcDbLine
 10
217.0360193195420
 20
212.2668254970425
 30
0.0000000000000000
 11
210.7860193195585
 21
215.8752646794821
 31
0.0000000000000000
  0
LINE
  5
122
100
AcDbEntity
  8
MAIN0
  6
CONTINUOUS
 62
3
100
AcDbLine
 10
217.7860193196438
 20
203.7509090265493
 30
0.0000000000000000
 11
217.7860193196410
 21
210.9677873914228
 31
0.0000000000000000
  0
ARC
  5
123
100
AcDbEntity
  8
MAIN0
  6
CONTINUOUS
 62
3
100
AcDbCircle
 10
226.9151302722634
 20
217.1045074611087
 30
0.0000000000000000
 40
24.00000000000000
100
AcDbArc
 50
193.0422366999076
 51
226.9577632999159
  0
ARC
  5
124
100
AcDbEntity
  8
MAIN0
  6
CONTINUOUS
 62
3
100
AcDbCircle
 10
226.9151302722634
 20
217.1045074611087
 30
0.0000000000000000
 40
25.50000000000000
100
AcDbArc
 50
194.0671961846340
 51
225.9328038152094
  0
ARC
  5
125
100
AcDbEntity
  8
MAIN0
  6
CONTINUOUS
 62
3
100
AcDbCircle
 10
226.9151302722634
 20
217.1045074611087
 30
0.0000000000000000
 40
37.00000000000000
100
AcDbArc
 50
199.0945300032387
 51
220.9054699966995
  0
ARC
  5
126
100
AcDbEntity
  8
MAIN0
  6
CONTINUOUS
 62
3
100
AcDbCircle
 10
226.9151302722634
 20
217.1045074611087
 30
0.0000000000000000
 40
38.50000000000000
100
AcDbArc
 50
199.5243183035831
 51
220.4756816963630
  0
ARC
  5
127
100
AcDbEntity
  8
MAIN0
  6
CONTINUOUS
 62
3
100
AcDbCircle
 10
226.9151302722634
 20
217.1045074611087
 30
0.0000000000000000
 40
47.00000000000000
100
AcDbArc
 50
201.4347188924398
 51
218.5652811075413
  0
LINE
  5
128
100
AcDbEntity
  8
MAIN0
  6
CONTINUOUS
 62
3
100
AcDbLine
 10
240.5881525879058
 20
219.2932881151300
 30
0.0000000000000000
 11
279.5187706668407
 21
196.8166852875995
 31
0.0000000000000000
  0
LINE
  5
129
100
AcDbEntity
  8
MAIN0
  6
CONTINUOUS
 62
3
100
AcDbLine
 10
233.5881525878396
 20
207.1689324621862
 30
0.0000000000000000
 11
272.5187706668407
 21
184.6923296346174
 31
0.0000000000000000
  0
LINE
  5
12A
100
AcDbEntity
  8
MAIN0
  6
CONTINUOUS
 62
3
100
AcDbLine
 10
272.9285782879764
 20
184.8021372557530
 30
0.0000000000000000
 11
279.6285782879763
 21
196.4068776664645
 31
0.0000000000000000
  0
LINE
  5
12B
100
AcDbEntity
  8
MAIN0
  6
CONTINUOUS
 62
3
100
AcDbLine
 10
279.5187706668409
 20
196.8166852875995
 30
0.0000000000000000
 11
279.6285782879763
 21
196.4068776664644
 31
0.0000000000000000
  0
LINE
  5
12C
100
AcDbEntity
  8
MAIN0
  6
CONTINUOUS
 62
3
100
AcDbLine
 10
272.9285782879763
 20
184.8021372557530
 30
0.0000000000000000
 11
272.5187706668407
 21
184.6923296346174
 31
0.0000000000000000
  0
ARC
  5
12D
100
AcDbEntity
  8
MAIN0
  6
CONTINUOUS
 62
3
100
AcDbCircle
 10
230.3792318874011
 20
217.1045074611087
 30
0.0000000000000000
 40
11.00000000000000
100
AcDbArc
 50
326.0904364750827
 51
333.9095635244012
  0
LINE
  5
12E
100
AcDbEntity
  8
MAIN0
  6
CONTINUOUS
 62
3
100
AcDbLine
 10
239.5083428400729
 20
210.9677873912801
 30
0.0000000000000000
 11
239.5083428400608
 21
203.7509090264219
 31
0.0000000000000000
  0
LINE
  5
12F
100
AcDbEntity
  8
MAIN0
  6
CONTINUOUS
 62
3
100
AcDbLine
 10
246.5083428399755
 20
215.8752646794532
 30
0.0000000000000000
 11
240.2583428399741
 21
212.2668254970140
 31
0.0000000000000000
  0
ARC
  5
130
100
AcDbEntity
  8
MAIN0
  6
CONTINUOUS
 62
3
100
AcDbCircle
 10
230.3792318874011
 20
217.1045074611087
 30
0.0000000000000000
 40
24.00000000000000
100
AcDbArc
 50
313.0422366999076
 51
346.9577632999159
  0
ARC
  5
131
100
AcDbEntity
  8
MAIN0
  6
CONTINUOUS
 62
3
100
AcDbCircle
 10
230.3792318874011
 20
217.1045074611087
 30
0.0000000000000000
 40
25.50000000000000
100
AcDbArc
 50
314.0671961846340
 51
345.9328038152094
  0
ARC
  5
132
100
AcDbEntity
  8
MAIN0
  6
CONTINUOUS
 62
3
100
AcDbCircle
 10
230.3792318874011
 20
217.1045074611087
 30
0.0000000000000000
 40
37.00000000000000
100
AcDbArc
 50
319.0945300032387
 51
340.9054699966994
  0
ARC
  5
133
100
AcDbEntity
  8
MAIN0
  6
CONTINUOUS
 62
3
100
AcDbCircle
 10
230.3792318874011
 20
217.1045074611087
 30
0.0000000000000000
 40
38.50000000000000
100
AcDbArc
 50
319.5243183035831
 51
340.4756816963629
  0
ARC
  5
134
100
AcDbEntity
  8
MAIN0
  6
CONTINUOUS
 62
3
100
AcDbCircle
 10
230.3792318874011
 20
217.1045074611087
 30
0.0000000000000000
 40
47.00000000000000
100
AcDbArc
 50
321.4347188924397
 51
338.5652811075412
  0
ARC
  5
135
100
AcDbEntity
  8
MAIN0
  6
CONTINUOUS
 62
3
100
AcDbCircle
 10
228.6471810798322
 20
218.1045074611087
 30
0.0000000000000000
 40
55.00000000000000
100
AcDbArc
 50
97.31202192626637
 51
202.6879780737325
  0
ARC
  5
136
100
AcDbEntity
  8
MAIN0
  6
CONTINUOUS
 62
3
100
AcDbCircle
 10
228.6471810798322
 20
218.1045074611087
 30
0.0000000000000000
 40
55.00000000000000
100
AcDbArc
 50
217.3120219262663
 51
322.6879780737325
  0
ARC
  5
137
100
AcDbEntity
  8
MAIN0
  6
CONTINUOUS
 62
3
100
AcDbCircle
 10
228.6471810798322
 20
218.1045074611087
 30
0.0000000000000000
 40
55.00000000000000
100
AcDbArc
 50
337.3120219262664
 51
442.6879780737325
  0
CIRCLE
  5
138
100
AcDbEntity
  8
MAIN0
  6
HIDDEN
 62
3
100
AcDbCircle
 10
204.8971810798322
 20
259.2407141408696
 30
0.0000000000000000
 40
4.000000000000000
  0
CIRCLE
  5
139
100
AcDbEntity
  8
MAIN0
  6
HIDDEN
 62
3
100
AcDbCircle
 10
204.8971810798322
 20
259.2407141408696
 30
0.0000000000000000
 40
3.400000000000000
  0
ARC
  5
13A
100
AcDbEntity
  8
MAIN0
  6
CENTER
 62
3
100
AcDbCircle
 10
228.6471810798322
 20
218.1045074611087
 30
0.0000000000000000
 40
47.50000000000000
100
AcDbArc
 50
111.5637334844408
 51
127.9724082980563
  0
CIRCLE
  5
13B
100
AcDbEntity
  8
MAIN0
  6
HIDDEN
 62
3
100
AcDbCircle
 10
204.8971810798322
 20
176.9683007813479
 30
0.0000000000000000
 40
4.000000000000000
  0
CIRCLE
  5
13C
100
AcDbEntity
  8
MAIN0
  6
HIDDEN
 62
3
100
AcDbCircle
 10
204.8971810798322
 20
176.9683007813479
 30
0.0000000000000000
 40
3.400000000000000
  0
ARC
  5
13D
100
AcDbEntity
  8
MAIN0
  6
CENTER
 62
3
100
AcDbCircle
 10
228.6471810798322
 20
218.1045074611087
 30
0.0000000000000000
 40
47.50000000000000
100
AcDbArc
 50
231.5637334844408
 51
247.9724082980563
  0
LINE
  5
13E
100
AcDbEntity
  8
MAIN0
  6
CENTER
 62
3
100
AcDbLine
 10
178.0682872724141
 20
247.3062454163144
 30
0.0000000000000000
 11
279.5319650779435
 21
188.7261637222403
 31
0.0000000000000000
  0
LINE
  5
13F
100
AcDbEntity
  8
MAIN0
  6
CENTER
 62
3
100
AcDbLine
 10
279.7164755821553
 20
247.5893783895207
 30
0.0000000000000000
 11
176.1223137909390
 21
187.7792611926973
 31
0.0000000000000000
  0
LINE
  5
140
100
AcDbEntity
  8
MAIN0
  6
CENTER
 62
3
100
AcDbLine
 10
63.13310095091643
 20
218.1045074611087
 30
0.0000000000000000
 11
146.7866136056310
 21
218.1045074611087
 31
0.0000000000000000
  0
LINE
  5
141
100
AcDbEntity
  8
MAIN0
  6
CENTER
 62
3
100
AcDbLine
 10
170.2387851659008
 20
218.1045074611087
 30
0.0000000000000000
 11
287.7094639439855
 21
218.1045074611087
 31
0.0000000000000000
  0
CIRCLE
  5
142
100
AcDbEntity
  8
MAIN0
  6
CONTINUOUS
 62
3
100
AcDbCircle
 10
228.6471810798322
 20
200.1045074611087
 30
0.0000000000000000
 40
1.732100000000000
  0
CIRCLE
  5
143
100
AcDbEntity
  8
MAIN0
  6
CONTINUOUS
 62
3
100
AcDbCircle
 10
228.6471810798322
 20
200.1045074611087
 30
0.0000000000000000
 40
4.500000000000000
  0
CIRCLE
  5
144
100
AcDbEntity
  8
MAIN0
  6
HIDDEN
 62
3
100
AcDbCircle
 10
220.6471810797712
 20
204.2481010005929
 30
0.0000000000000000
 40
2.250000000000000
  0
CIRCLE
  5
145
100
AcDbEntity
  8
MAIN0
  6
HIDDEN
 62
3
100
AcDbCircle
 10
220.6471810797712
 20
204.2481010005929
 30
0.0000000000000000
 40
1.844000000000000
  0
ARC
  5
146
100
AcDbEntity
  8
MAIN0
  6
CENTER
 62
3
100
AcDbCircle
 10
228.6471810798322
 20
218.1045074611087
 30
0.0000000000000000
 40
16.00000000000000
100
AcDbArc
 50
226.6198116905344
 51
252.7953484143678
  0
LINE
  5
147
100
AcDbEntity
  8
MAIN0
  6
CENTER
 62
3
100
AcDbLine
 10
201.8363518332459
 20
171.6667890131144
 30
0.0000000000000000
 11
207.6015874003771
 21
181.6524699329870
 31
0.0000000000000000
  0
LINE
  5
148
100
AcDbEntity
  8
MAIN0
  6
CENTER
 62
3
100
AcDbLine
 10
219.1660195952114
 20
201.6826540551215
 30
0.0000000000000000
 11
222.2610729551504
 21
207.0434437266717
 31
0.0000000000000000
  0
LINE
  5
149
100
AcDbEntity
  8
MAIN0
  6
CENTER
 62
3
100
AcDbLine
 10
202.1979227996070
 20
263.9159666259267
 30
0.0000000000000000
 11
207.4550786753758
 21
254.8103055457572
 31
0.0000000000000000
  0
LINE
  5
14A
100
AcDbEntity
  8
MAIN0
  6
CENTER
 62
3
100
AcDbLine
 10
268.3940211412127
 20
253.1767119231261
 30
0.0000000000000000
 11
259.2306528612653
 21
247.8862387799979
 31
0.0000000000000000
  0
ARC
  5
14B
100
AcDbEntity
  8
MAIN0
  6
CENTER
 62
3
100
AcDbCircle
 10
228.6471810798322
 20
218.1045074611087
 30
0.0000000000000000
 40
47.50000000000000
100
AcDbArc
 50
351.5637334844408
 51
372.6596665367276
  0
ARC
  5
14C
100
AcDbEntity
  8
MAIN0
  6
CENTER
 62
3
100
AcDbCircle
 10
228.6471810798322
 20
218.1045074611087
 30
0.0000000000000000
 40
47.50000000000000
100
AcDbArc
 50
35.68197410127002
 51
50.73734219476417
  0
LINE
  5
14D
100
AcDbEntity
  8
MAIN0
  6
HIDDEN
 62
3
100
AcDbLine
 10
269.1310492492401
 20
255.3342861072678
 30
0.0000000000000000
 11
256.5993533224694
 21
248.0991080905210
 31
0.0000000000000000
  0
LINE
  5
14E
100
AcDbEntity
  8
MAIN0
  6
HIDDEN
 62
3
100
AcDbLine
 10
281.1310492492949
 20
234.5496764164728
 30
0.0000000000000000
 11
268.5993533225337
 21
227.3144983997316
 31
0.0000000000000000
  0
LINE
  5
14F
100
AcDbEntity
  8
MAIN0
  6
HIDDEN
 62
3
100
AcDbLine
 10
176.1633129103500
 20
234.5496764163127
 30
0.0000000000000000
 11
188.6950088371407
 21
227.3144983996006
 31
0.0000000000000000
  0
ARC
  5
150
100
AcDbEntity
  8
MAIN0
  6
CENTER
 62
3
100
AcDbCircle
 10
228.6471810798992
 20
218.1045074612247
 30
0.0000000000000000
 40
47.50000000000000
100
AcDbArc
 50
155.6819741012700
 51
170.7373421947642
  0
LINE
  5
151
100
AcDbEntity
  8
MAIN0
  6
CENTER
 62
3
100
AcDbLine
 10
178.4003410183799
 20
234.9901784435286
 30
0.0000000000000000
 11
187.5637092983419
 21
229.6997053004257
 31
0.0000000000000000
  0
LINE
  5
152
100
AcDbEntity
  8
MAIN0
  6
HIDDEN
 62
3
100
AcDbLine
 10
188.1633129102954
 20
255.3342861071707
 30
0.0000000000000000
 11
200.6950088370765
 21
248.0991080904643
 31
0.0000000000000000
  0
LINE
  5
153
100
AcDbEntity
  8
MAIN0
  6
HIDDEN
 62
3
100
AcDbLine
 10
240.6471810796386
 20
164.4295598599776
 30
0.0000000000000000
 11
240.6471810796186
 21
178.8999158934364
 31
0.0000000000000000
  0
CIRCLE
  5
154
100
AcDbEntity
  8
MAIN0
  6
HIDDEN
 62
3
100
AcDbCircle
 10
239.1471810796284
 20
171.7795681736525
 30
0.0000000000000000
 40
4.000000000000000
  0
CIRCLE
  5
155
100
AcDbEntity
  8
MAIN0
  6
HIDDEN
 62
3
100
AcDbCircle
 10
239.1471810796284
 20
171.7795681736525
 30
0.0000000000000000
 40
3.400000000000000
  0
ARC
  5
156
100
AcDbEntity
  8
MAIN0
  6
CENTER
 62
3
100
AcDbCircle
 10
228.6471810794974
 20
218.1045074612247
 30
0.0000000000000000
 40
47.50000000000000
100
AcDbArc
 50
275.6819741012700
 51
290.7373421947642
  0
LINE
  5
157
100
AcDbEntity
  8
MAIN0
  6
HIDDEN
 62
3
100
AcDbLine
 10
238.3471810796331
 20
168.4750258452797
 30
0.0000000000000000
 11
238.3471810796239
 21
175.0841105020231
 31
0.0000000000000000
  0
LINE
  5
158
100
AcDbEntity
  8
MAIN0
  6
CENTER
 62
3
100
AcDbLine
 10
239.1471810796362
 20
166.1466320169034
 30
0.0000000000000000
 11
239.1471810796216
 21
176.7275783031345
 31
0.0000000000000000
  0
LINE
  5
159
100
AcDbEntity
  8
MAIN0
  6
HIDDEN
 62
3
100
AcDbLine
 10
239.9471810796330
 20
168.4750258452820
 30
0.0000000000000000
 11
239.9471810796239
 21
175.0841105020253
 31
0.0000000000000000
  0
LINE
  5
15A
100
AcDbEntity
  8
MAIN0
  6
HIDDEN
 62
3
100
AcDbLine
 10
216.6471810796386
 20
164.4295598599146
 30
0.0000000000000000
 11
216.6471810796186
 21
178.8999158933623
 31
0.0000000000000000
  0
ARC
  5
15B
100
AcDbEntity
  8
MAIN0
  6
CONTINUOUS
 62
3
100
AcDbCircle
 10
302.6243275419504
 20
267.5534937757092
 30
0.0000000000000000
 40
3.999999999999390
100
AcDbArc
 50
90.00000000000000
 51
270.0000000000000
  0
ARC
  5
15C
100
AcDbEntity
  8
MAIN0
  6
CONTINUOUS
 62
3
100
AcDbCircle
 10
394.6243275419504
 20
267.5534937757239
 30
0.0000000000000000
 40
3.999999999999447
100
AcDbArc
 50
270.0000000000000
 51
450.0000000000000
  0
LINE
  5
15D
100
AcDbEntity
  8
MAIN0
  6
CONTINUOUS
 62
3
100
AcDbLine
 10
340.1243275418971
 20
235.5534937757154
 30
0.0000000000000000
 11
357.1243275418972
 21
235.5534937757179
 31
0.0000000000000000
  0
LINE
  5
15E
100
AcDbEntity
  8
MAIN0
  6
CONTINUOUS
 62
3
100
AcDbLine
 10
343.4243275418721
 20
220.5534937757159
 30
0.0000000000000000
 11
353.8243275418722
 21
220.5534937757174
 31
0.0000000000000000
  0
LINE
  5
15F
100
AcDbEntity
  8
MAIN0
  6
CONTINUOUS
 62
3
100
AcDbLine
 10
343.9243275418709
 20
209.5534937757159
 30
0.0000000000000000
 11
353.3243275418538
 21
209.5534937757173
 31
0.0000000000000000
  0
ARC
  5
160
100
AcDbEntity
  8
MAIN0
  6
CONTINUOUS
 62
3
100
AcDbCircle
 10
366.2894789318619
 20
267.5534937757026
 30
0.0000000000000000
 40
10.00000000000000
100
AcDbArc
 50
156.4218215217025
 51
203.5781784781070
  0
ARC
  5
161
100
AcDbEntity
  8
MAIN0
  6
CONTINUOUS
 62
3
100
AcDbCircle
 10
330.9591761520386
 20
267.5534937757306
 30
0.0000000000000000
 40
10.00000000000000
100
AcDbArc
 50
336.4218215217026
 51
383.5781784781067
  0
LINE
  5
162
100
AcDbEntity
  8
MAIN0
  6
CONTINUOUS
 62
3
100
AcDbLine
 10
340.1243275418971
 20
235.5534937757153
 30
0.0000000000000000
 11
340.1243275419437
 21
263.5534937757154
 31
0.0000000000000000
  0
LINE
  5
163
100
AcDbEntity
  8
MAIN0
  6
CONTINUOUS
 62
3
100
AcDbLine
 10
340.1243275419569
 20
271.5534937757154
 30
0.0000000000000000
 11
340.1243275419686
 21
278.5534937756449
 31
0.0000000000000000
  0
LINE
  5
164
100
AcDbEntity
  8
MAIN0
  6
CONTINUOUS
 62
3
100
AcDbLine
 10
357.1243275418971
 20
235.5534937757178
 30
0.0000000000000000
 11
357.1243275419437
 21
263.5534937757178
 31
0.0000000000000000
  0
LINE
  5
165
100
AcDbEntity
  8
MAIN0
  6
CONTINUOUS
 62
3
100
AcDbLine
 10
357.1243275419570
 20
271.5534937757179
 30
0.0000000000000000
 11
357.1243275419686
 21
278.5534937756449
 31
0.0000000000000000
  0
LINE
  5
166
100
AcDbEntity
  8
MAIN0
  6
CONTINUOUS
 62
3
100
AcDbLine
 10
343.4464323921829
 20
191.5585185892620
 30
0.0000000000000000
 11
348.1453684419724
 21
196.2574546390491
 31
0.0000000000000000
  0
LINE
  5
167
100
AcDbEntity
  8
MAIN0
  6
CONTINUOUS
 62
3
100
AcDbLine
 10
349.1032866416737
 20
185.9016643397681
 30
0.0000000000000000
 11
353.8022226914634
 21
190.6006003895555
 31
0.0000000000000000
  0
LINE
  5
168
100
AcDbEntity
  8
MAIN0
  6
CONTINUOUS
 62
3
100
AcDbLine
 10
348.1453684419797
 20
185.9016643397675
 30
0.0000000000000000
 11
343.4464323921836
 21
190.6006003895479
 31
0.0000000000000000
  0
LINE
  5
169
100
AcDbEntity
  8
MAIN0
  6
CONTINUOUS
 62
3
100
AcDbLine
 10
353.8022226914627
 20
191.5585185892691
 30
0.0000000000000000
 11
349.1032866416666
 21
196.2574546390497
 31
0.0000000000000000
  0
LINE
  5
16A
100
AcDbEntity
  8
MAIN0
  6
CONTINUOUS
 62
3
100
AcDbLine
 10
343.4243275418547
 20
210.0534937757159
 30
0.0000000000000000
 11
348.1453684419860
 21
210.0534937757165
 31
0.0000000000000000
  0
LINE
  5
16B
100
AcDbEntity
  8
MAIN0
  6
CONTINUOUS
 62
3
100
AcDbLine
 10
349.1032866416965
 20
210.0534937757167
 30
0.0000000000000000
 11
353.8243275418546
 21
210.0534937757174
 31
0.0000000000000000
  0
LINE
  5
16C
100
AcDbEntity
  8
MAIN0
  6
CENTER
 62
3
100
AcDbLine
 10
340.2466729132642
 20
191.0795594893999
 30
0.0000000000000000
 11
357.9896059344950
 21
191.0795594893999
 31
0.0000000000000000
  0
LINE
  5
16D
100
AcDbEntity
  8
MAIN0
  6
CENTER
 62
3
100
AcDbLine
 10
348.6243275418103
 20
183.2674468494851
 30
0.0000000000000000
 11
348.6243275418354
 21
198.3988650062813
 31
0.0000000000000000
  0
LINE
  5
16E
100
AcDbEntity
  8
MAIN0
  6
CENTER
 62
3
100
AcDbLine
 10
348.6243275418501
 20
207.3087340789915
 30
0.0000000000000000
 11
348.6243275419773
 21
283.8131124782499
 31
0.0000000000000000
  0
DIMENSION
  5
177
100
AcDbEntity
  8
MAIN0
  6
CONTINUOUS
 62
3
100
AcDbDimension
  2
*D0
 10
364.4807410417050
 20
220.5534937757174
 30
0.0000000000000000
 11
363.9807410417050
 21
215.0534937757174
 31
0.0000000000000000
 70
32
  3
MAIN001
100
AcDbAlignedDimension
 13
353.5243275418538
 23
209.5534937757173
 33
0.0000000000000000
 14
354.0243275418721
 24
220.5534937757174
 34
0.0000000000000000
 50
90.00000000000000
100
AcDbRotatedDimension
1001
ACAD
1000
DSTYLE
1002
{
1070
   173
1070
     1
1070
     6
1000
_OPEN
1070
     7
1000
_OPEN
1070
    41
1040
2.000000
1002
}
  0
DIMENSION
  5
180
100
AcDbEntity
  8
MAIN0
  6
CONTINUOUS
 62
3
100
AcDbDimension
  2
*D1
 10
372.4077623898432
 20
209.5534937757173
 30
0.0000000000000000
 11
371.9077623898432
 21
244.5534937757084
 31
0.0000000000000000
 70
32
  3
MAIN001
100
AcDbAlignedDimension
 13
348.6243275419703
 23
279.5534937756995
 33
0.0000000000000000
 14
353.5243275418538
 24
209.5534937757173
 34
0.0000000000000000
 50
90.00000000000000
100
AcDbRotatedDimension
1001
ACAD
1000
DSTYLE
1002
{
1070
   173
1070
     1
1070
     6
1000
_OPEN
1070
     7
1000
_OPEN
1070
    41
1040
2.000000
1002
}
  0
DIMENSION
  5
188
100
AcDbEntity
  8
MAIN0
  6
CONTINUOUS
 62
3
100
AcDbDimension
  2
*D2
 10
364.4807410417050
 20
279.5534937756995
 30
0.0000000000000000
 11
363.9807410417050
 21
274.6586998059697
 31
0.0000000000000000
 70
160
  3
MAIN001
100
AcDbAlignedDimension
 13
422.1883475760006
 23
267.5534937757274
 33
0.0000000000000000
 14
348.6243275419703
 24
279.5534937756995
 34
0.0000000000000000
 50
90.00000000000000
100
AcDbRotatedDimension
1001
ACAD
1000
DSTYLE
1002
{
1070
   173
1070
     1
1070
     6
1000
_OPEN
1070
     7
1000
_OPEN
1070
    41
1040
2.000000
1002
}
  0
DIMENSION
  5
191
100
AcDbEntity
  8
MAIN0
  6
CONTINUOUS
 62
3
100
AcDbDimension
  2
*D3
 10
298.6243275419510
 20
294.7314495035802
 30
0.0000000000000000
 11
348.6243275419504
 21
295.2314495035802
 31
0.0000000000000000
 70
32
  1
\A1;140
  3
MAIN001
100
AcDbAlignedDimension
 13
398.6243275419498
 23
267.5534937757239
 33
0.0000000000000000
 14
298.6243275419510
 24
267.5534937757092
 34
0.0000000000000000
100
AcDbRotatedDimension
1001
ACAD
1000
DSTYLE
1002
{
1070
   173
1070
     1
1070
     6
1000
_OPEN
1070
     7
1000
_OPEN
1070
    41
1040
2.000000
1002
}
  0
DIMENSION
  5
19A
100
AcDbEntity
  8
MAIN0
  6
CONTINUOUS
 62
3
100
AcDbDimension
  2
*D4
 10
340.1243275419682
 20
284.9015800866948
 30
0.0000000000000000
 11
348.6243275419682
 21
285.4015800866948
 31
0.0000000000000000
 70
32
  1
\A1;\U+220517
  3
MAIN001
100
AcDbAlignedDimension
 13
357.1243275419687
 23
278.5534937756449
 33
0.0000000000000000
 14
340.1243275419686
 24
278.5534937756449
 34
0.0000000000000000
100
AcDbRotatedDimension
1001
ACAD
1000
DSTYLE
1002
{
1070
   173
1070
     1
1070
     6
1000
_OPEN
1070
     7
1000
_OPEN
1070
    41
1040
2.000000
1002
}
  0
DIMENSION
  5
1A1
100
AcDbEntity
  8
MAIN0
  6
CONTINUOUS
 62
3
100
AcDbDimension
  2
*D5
 10
331.6767284610680
 20
263.5534937757154
 30
0.0000000000000000
 11
331.1767284610680
 21
267.5534937757154
 31
0.0000000000000000
 70
32
  1
\A1;\U+22058
  3
MAIN001
100
AcDbAlignedDimension
 13
302.6243275419504
 23
271.5534937757099
 33
0.0000000000000000
 14
302.6243275419504
 24
263.5534937757099
 34
0.0000000000000000
 50
90.00000000000000
100
AcDbRotatedDimension
1001
ACAD
1000
DSTYLE
1002
{
1070
   173
1070
     1
1070
     6
1000
_OPEN
1070
     7
1000
_OPEN
1070
    41
1040
2.000000
1002
}
  0
DIMENSION
  5
1AC
100
AcDbEntity
  8
MAIN0
  6
CONTINUOUS
 62
3
100
AcDbDimension
  2
*D6
 10
362.5954351176096
 20
182.7653061630989
 30
0.0000000000000000
 11
365.2033899661233
 21
186.0803677927983
 31
0.0000000000000000
 70
161
  3
MAIN001
100
AcDbAlignedDimension
 13
348.3610514847621
 23
185.6859812969858
 33
0.0000000000000000
 14
354.0179057342449
 24
191.3428355464875
 34
0.0000000000000000
 50
44.99999999998545
1001
ACAD
1000
DSTYLE
1002
{
1070
   173
1070
     1
1070
     6
1000
_OPEN
1070
     7
1000
_OPEN
1070
    41
1040
2.000000
1070
   287
1070
     0
1070
   272
1070
     1
1070
    47
1040
0.000000
1070
    48
1040
0.100000
1070
    71
1070
     1
1002
}
  0
LINE
  5
1AD
100
AcDbEntity
  8
MAIN0
  6
CENTER
 62
3
100
AcDbLine
 10
84.54895610411813
 20
121.2076716262941
 30
0.0000000000000000
 11
100.6761095031159
 21
121.2076716262988
 31
0.0000000000000000
  0
LINE
  5
1AE
100
AcDbEntity
  8
MAIN0
  6
CONTINUOUS
 62
3
100
AcDbLine
 10
86.94921949559470
 20
121.6866307260951
 30
0.0000000000000000
 11
91.64815554544735
 21
126.3855667759422
 31
0.0000000000000000
  0
LINE
  5
1AF
100
AcDbEntity
  8
MAIN0
  6
CONTINUOUS
 62
3
100
AcDbLine
 10
92.60607374514544
 20
116.0297764766609
 30
0.0000000000000000
 11
97.30500979487485
 21
120.7287125263848
 31
0.0000000000000000
  0
LINE
  5
1B0
100
AcDbEntity
  8
MAIN0
  6
CONTINUOUS
 62
3
100
AcDbLine
 10
92.60607374502908
 20
126.3855667759425
 30
0.0000000000000000
 11
97.30500979488616
 21
121.6866307260854
 31
0.0000000000000000
  0
LINE
  5
1B1
100
AcDbEntity
  8
MAIN0
  6
CONTINUOUS
 62
3
100
AcDbLine
 10
86.94921949560546
 20
120.7287125263813
 30
0.0000000000000000
 11
91.64815554532505
 21
116.0297764766618
 31
0.0000000000000000
  0
ARC
  5
1B2
100
AcDbEntity
  8
MAIN0
  6
CONTINUOUS
 62
3
100
AcDbCircle
 10
92.12711464524000
 20
121.2076716262963
 30
0.0000000000000000
 40
5.200000000000000
100
AcDbArc
 50
84.71513723252282
 51
95.28486276751630
  0
ARC
  5
1B3
100
AcDbEntity
  8
MAIN0
  6
CONTINUOUS
 62
3
100
AcDbCircle
 10
92.12711464524000
 20
121.2076716262963
 30
0.0000000000000000
 40
5.200000000000000
100
AcDbArc
 50
174.7151372324163
 51
185.2848627688700
  0
ARC
  5
1B4
100
AcDbEntity
  8
MAIN0
  6
CONTINUOUS
 62
3
100
AcDbCircle
 10
92.12711464524000
 20
121.2076716262963
 30
0.0000000000000000
 40
5.200000000000000
100
AcDbArc
 50
264.7151372311301
 51
275.2848627687646
  0
ARC
  5
1B5
100
AcDbEntity
  8
MAIN0
  6
CONTINUOUS
 62
3
100
AcDbCircle
 10
92.12711464524000
 20
121.2076716262963
 30
0.0000000000000000
 40
5.200000000000000
100
AcDbArc
 50
354.7151372311682
 51
365.2848627674771
  0
DIMENSION
  5
1BB
100
AcDbEntity
  8
MAIN0
  6
CONTINUOUS
 62
3
100
AcDbDimension
  2
*D7
 10
275.5257080662316
 20
225.7630783190063
 30
0.0000000000000000
 11
254.2890749518679
 21
222.6313901966643
 31
0.0000000000000000
 70
163
  3
MAIN001
100
AcDbDiametricDimension
 15
181.7686540934331
 25
210.4459366032112
 35
0.0000000000000000
1001
ACAD
1000
DSTYLE
1002
{
1070
   287
1070
     2
1070
   173
1070
     1
1070
     6
1000
_OPEN
1070
     7
1000
_NONE
1070
    41
1040
2.000000
1070
   272
1070
     1
1070
    47
1040
0.200000
1070
    48
1040
0.200000
1070
    71
1070
     1
1002
}
  0
DIMENSION
  5
1C4
100
AcDbEntity
  8
MAIN0
  6
CONTINUOUS
 62
3
100
AcDbDimension
  2
*D8
 10
125.6271146452400
 20
283.1200445601760
 30
0.0000000000000000
 11
134.6271146452314
 21
283.6200445601760
 31
0.0000000000000000
 70
32
  3
MAIN001
100
AcDbAlignedDimension
 13
143.6271146452227
 23
243.8045074611087
 33
0.0000000000000000
 14
125.6271146452400
 24
271.6045074611087
 34
0.0000000000000000
100
AcDbRotatedDimension
1001
ACAD
1000
DSTYLE
1002
{
1070
   173
1070
     1
1070
     6
1000
_OPEN
1070
     7
1000
_OPEN
1070
    41
1040
2.000000
1002
}
  0
DIMENSION
  5
1CD
100
AcDbEntity
  8
MAIN0
  6
CONTINUOUS
 62
3
100
AcDbDimension
  2
*D9
 10
153.6365393255707
 20
231.1045074611087
 30
0.0000000000000000
 11
153.1365393255707
 21
237.6045074611087
 31
0.0000000000000000
 70
32
  3
MAIN001
100
AcDbAlignedDimension
 13
143.3271146452229
 23
244.1045074611087
 33
0.0000000000000000
 14
143.3271146452153
 24
231.1045074611087
 34
0.0000000000000000
 50
90.00000000000000
100
AcDbRotatedDimension
1001
ACAD
1000
DSTYLE
1002
{
1070
   173
1070
     1
1070
     6
1000
_OPEN
1070
     7
1000
_OPEN
1070
    41
1040
2.000000
1002
}
  0
DIMENSION
  5
1D6
100
AcDbEntity
  8
MAIN0
  6
CONTINUOUS
 62
3
100
AcDbDimension
  2
*D10
 10
153.6365393255707
 20
244.1045074611087
 30
0.0000000000000000
 11
153.1365393255707
 21
250.6045074611087
 31
0.0000000000000000
 70
32
  3
MAIN001
100
AcDbAlignedDimension
 13
136.3271146452306
 23
257.1045074611087
 33
0.0000000000000000
 14
143.3271146452229
 24
244.1045074611087
 34
0.0000000000000000
 50
90.00000000000000
100
AcDbRotatedDimension
1001
ACAD
1000
DSTYLE
1002
{
1070
   173
1070
     1
1070
     6
1000
_OPEN
1070
     7
1000
_OPEN
1070
    41
1040
2.000000
1002
}
  0
DIMENSION
  5
1DF
100
AcDbEntity
  8
MAIN0
  6
CONTINUOUS
 62
3
100
AcDbDimension
  2
*D11
 10
153.6365393255707
 20
257.1045074611087
 30
0.0000000000000000
 11
153.1365393255707
 21
265.1045074611087
 31
0.0000000000000000
 70
32
  3
MAIN001
100
AcDbAlignedDimension
 13
128.8271146452399
 23
273.1045074611087
 33
0.0000000000000000
 14
136.3271146452306
 24
257.1045074611087
 34
0.0000000000000000
 50
90.00000000000000
100
AcDbRotatedDimension
1001
ACAD
1000
DSTYLE
1002
{
1070
   173
1070
     1
1070
     6
1000
_OPEN
1070
     7
1000
_OPEN
1070
    41
1040
2.000000
1002
}
  0
DIMENSION
  5
1E8
100
AcDbEntity
  8
MAIN0
  6
CONTINUOUS
 62
3
100
AcDbDimension
  2
*D12
 10
163.1508560543939
 20
273.1045074611087
 30
0.0000000000000000
 11
162.6508560543939
 21
252.1045074611087
 31
0.0000000000000000
 70
32
  3
MAIN001
100
AcDbAlignedDimension
 13
143.3271146452153
 23
231.1045074611087
 33
0.0000000000000000
 14
128.8271146452399
 24
273.1045074611087
 34
0.0000000000000000
 50
90.00000000000000
100
AcDbRotatedDimension
1001
ACAD
1000
DSTYLE
1002
{
1070
   173
1070
     1
1070
     6
1000
_OPEN
1070
     7
1000
_OPEN
1070
    41
1040
2.000000
1002
}
  0
DIMENSION
  5
1F0
100
AcDbEntity
  8
MAIN0
  6
CONTINUOUS
 62
3
100
AcDbDimension
  2
*D13
 10
136.6271146452238
 20
250.4180084838146
 30
0.0000000000000000
 11
140.1271146452233
 21
250.9180084838146
 31
0.0000000000000000
 70
32
  3
MAIN001
100
AcDbAlignedDimension
 13
143.6271146452227
 23
243.8045074611087
 33
0.0000000000000000
 14
136.6271146452238
 24
245.6045074606993
 34
0.0000000000000000
100
AcDbRotatedDimension
1001
ACAD
1000
DSTYLE
1002
{
1070
   173
1070
     1
1070
     6
1000
_OPEN
1070
     7
1000
_OPEN
1070
    41
1040
2.000000
1002
}
  0
DIMENSION
  5
1F8
100
AcDbEntity
  8
MAIN0
  6
CONTINUOUS
 62
3
100
AcDbDimension
  2
*D14
 10
129.6271146452314
 20
263.3510193314387
 30
0.0000000000000000
 11
133.1271146452276
 21
263.8510193314387
 31
0.0000000000000000
 70
32
  3
MAIN001
100
AcDbAlignedDimension
 13
136.6271146452304
 23
256.8045074611088
 33
0.0000000000000000
 14
129.6271146452314
 24
258.6045074606992
 34
0.0000000000000000
100
AcDbRotatedDimension
1001
ACAD
1000
DSTYLE
1002
{
1070
   173
1070
     1
1070
     6
1000
_OPEN
1070
     7
1000
_OPEN
1070
    41
1040
2.000000
1002
}
  0
DIMENSION
  5
201
100
AcDbEntity
  8
MAIN0
  6
CONTINUOUS
 62
3
100
AcDbDimension
  2
*D15
 10
163.1508560543939
 20
225.1045074611303
 30
0.0000000000000000
 11
162.6508560543939
 21
218.1045074611303
 31
0.0000000000000000
 70
32
  3
MAIN001
100
AcDbAlignedDimension
 13
143.4271146450172
 23
211.1045074611303
 33
0.0000000000000000
 14
143.4271146450337
 24
225.1045074611303
 34
0.0000000000000000
 50
90.00000000000000
100
AcDbRotatedDimension
1001
ACAD
1000
DSTYLE
1002
{
1070
   173
1070
     1
1070
     6
1000
_OPEN
1070
     7
1000
_OPEN
1070
    41
1040
2.000000
1002
}
  0
DIMENSION
  5
20A
100
AcDbEntity
  8
MAIN0
  6
CONTINUOUS
 62
3
100
AcDbDimension
  2
*D16
 10
153.6365393255707
 20
205.1045074611209
 30
0.0000000000000000
 11
153.1365393255707
 21
195.6045074611274
 31
0.0000000000000000
 70
32
  3
MAIN001
100
AcDbAlignedDimension
 13
136.3271146451036
 23
186.1045074611340
 33
0.0000000000000000
 14
128.8271146450593
 24
205.1045074611209
 34
0.0000000000000000
 50
90.00000000000000
100
AcDbRotatedDimension
1001
ACAD
1000
DSTYLE
1002
{
1070
   173
1070
     1
1070
     6
1000
_OPEN
1070
     7
1000
_OPEN
1070
    41
1040
2.000000
1002
}
  0
DIMENSION
  5
213
100
AcDbEntity
  8
MAIN0
  6
CONTINUOUS
 62
3
100
AcDbDimension
  2
*D17
 10
153.6365393255707
 20
186.1045074611340
 30
0.0000000000000000
 11
153.1365393255707
 21
179.6045074611401
 31
0.0000000000000000
 70
32
  3
MAIN001
100
AcDbAlignedDimension
 13
143.3271146451341
 23
173.1045074611463
 33
0.0000000000000000
 14
136.3271146451036
 24
186.1045074611340
 34
0.0000000000000000
 50
90.00000000000000
100
AcDbRotatedDimension
1001
ACAD
1000
DSTYLE
1002
{
1070
   173
1070
     1
1070
     6
1000
_OPEN
1070
     7
1000
_OPEN
1070
    41
1040
2.000000
1002
}
  0
DIMENSION
  5
21C
100
AcDbEntity
  8
MAIN0
  6
CONTINUOUS
 62
3
100
AcDbDimension
  2
*D18
 10
153.6365393255707
 20
173.1045074611463
 30
0.0000000000000000
 11
153.1365393255707
 21
168.1045074611463
 31
0.0000000000000000
 70
32
  3
MAIN001
100
AcDbAlignedDimension
 13
143.3271146451574
 23
163.1045074611463
 33
0.0000000000000000
 14
143.3271146451341
 24
173.1045074611463
 34
0.0000000000000000
 50
90.00000000000000
100
AcDbRotatedDimension
1001
ACAD
1000
DSTYLE
1002
{
1070
   173
1070
     1
1070
     6
1000
_OPEN
1070
     7
1000
_OPEN
1070
    41
1040
2.000000
1002
}
  0
DIMENSION
  5
224
100
AcDbEntity
  8
MAIN0
  6
CONTINUOUS
 62
3
100
AcDbDimension
  2
*D19
 10
143.6271146451567
 20
179.4712033005327
 30
0.0000000000000000
 11
140.1271146451437
 21
179.9712033005327
 31
0.0000000000000000
 70
32
  3
MAIN001
100
AcDbAlignedDimension
 13
136.6271146451044
 23
185.8045074611345
 33
0.0000000000000000
 14
143.6271146451348
 24
172.8045074611468
 34
0.0000000000000000
100
AcDbRotatedDimension
1001
ACAD
1000
DSTYLE
1002
{
1070
   173
1070
     1
1070
     6
1000
_OPEN
1070
     7
1000
_OPEN
1070
    41
1040
2.000000
1002
}
  0
DIMENSION
  5
22C
100
AcDbEntity
  8
MAIN0
  6
CONTINUOUS
 62
3
100
AcDbDimension
  2
*D20
 10
136.6271146451044
 20
192.4042141481568
 30
0.0000000000000000
 11
133.1271146450912
 21
192.9042141481568
 31
0.0000000000000000
 70
32
  3
MAIN001
100
AcDbAlignedDimension
 13
129.6271146450779
 23
197.1045074611223
 33
0.0000000000000000
 14
136.6271146451044
 24
185.8045074611345
 34
0.0000000000000000
100
AcDbRotatedDimension
1001
ACAD
1000
DSTYLE
1002
{
1070
   173
1070
     1
1070
     6
1000
_OPEN
1070
     7
1000
_OPEN
1070
    41
1040
2.000000
1002
}
  0
LINE
  5
22D
100
AcDbEntity
  8
MAIN0
  6
CENTER
 62
3
100
AcDbLine
 10
294.5913643234352
 20
267.5534937757087
 30
0.0000000000000000
 11
327.5824708207355
 21
267.5534937757136
 31
0.0000000000000000
  0
LINE
  5
22E
100
AcDbEntity
  8
MAIN0
  6
CENTER
 62
3
100
AcDbLine
 10
333.1407590711888
 20
267.5534937757143
 30
0.0000000000000000
 11
402.1883475760007
 21
267.5534937757245
 31
0.0000000000000000
  0
SPLINE
  5
22F
100
AcDbEntity
  8
MAIN0
  6
CONTINUOUS
 62
3
100
AcDbSpline
210
0.0000000000000000
220
0.0000000000000000
230
1.000000000000000
 70
     8
 71
     3
 72
    11
 73
     7
 74
     0
 42
1.000000000000000e-007
 43
1.000000000000000e-007
 12
0.6708203932532797
 22
0.8944271909956001
 32
0.0000000000000000
 13
0.6708203932516312
 23
0.8944271909988402
 33
0.0000000000000000
 40
0.0000000000000000
 40
0.0000000000000000
 40
0.0000000000000000
 40
0.0000000000000000
 40
2.236067977480139
 40
4.472135954999567
 40
6.708203932499802
 40
8.944271909999147
 40
8.944271909999147
 40
8.944271909999147
 40
8.944271909999147
 10
318.6243275419437
 20
263.5534937757122
 30
0.0000000000000000
 10
319.1243275419417
 20
264.2201604423698
 30
0.0000000000000000
 10
320.1243275419466
 20
265.5534937756968
 30
0.0000000000000000
 10
318.6243275419558
 20
267.5534937757083
 30
0.0000000000000000
 10
317.1243275419533
 20
269.5534937757145
 30
0.0000000000000000
 10
318.1243275419558
 20
270.8868271090464
 30
0.0000000000000000
 10
318.6243275419570
 20
271.5534937757122
 30
0.0000000000000000
  0
SPLINE
  5
230
100
AcDbEntity
  8
MAIN0
  6
CONTINUOUS
 62
3
100
AcDbSpline
210
0.0000000000000000
220
0.0000000000000000
230
1.000000000000000
 70
     8
 71
     3
 72
     9
 73
     5
 74
     0
 42
1.000000000000000e-007
 43
1.000000000000000e-007
 12
-0.6708203932532229
 22
0.8944271909956001
 32
0.0000000000000000
 13
0.6708203914034812
 23
0.8944271885437729
 33
0.0000000000000000
 40
0.0000000000000000
 40
0.0000000000000000
 40
0.0000000000000000
 40
0.0000000000000000
 40
2.236067977480139
 40
4.472135951926193
 40
4.472135951926193
 40
4.472135951926193
 40
4.472135951926193
 10
318.6243275421235
 20
263.5534937757122
 30
0.0000000000000000
 10
318.1243275421255
 20
264.2201604423698
 30
0.0000000000000000
 10
317.1243275421207
 20
265.5534937756968
 30
0.0000000000000000
 10
318.1243275421144
 20
266.8868271090378
 30
0.0000000000000000
 10
318.6243275400553
 20
267.5534937729633
 30
0.0000000000000000
  0
SPLINE
  5
231
100
AcDbEntity
  8
MAIN0
  6
CONTINUOUS
 62
3
100
AcDbSpline
210
0.0000000000000000
220
0.0000000000000000
230
1.000000000000000
 70
     8
 71
     3
 72
    11
 73
     7
 74
     0
 42
1.000000000000000e-007
 43
1.000000000000000e-007
 12
-0.6708203932532797
 22
-0.8944271909956569
 32
0.0000000000000000
 13
-0.6708203932516312
 23
-0.8944271909989539
 33
0.0000000000000000
 40
0.0000000000000000
 40
0.0000000000000000
 40
0.0000000000000000
 40
0.0000000000000000
 40
2.236067977480139
 40
4.472135954999567
 40
6.708203932499802
 40
8.944271909999147
 40
8.944271909999147
 40
8.944271909999147
 40
8.944271909999147
 10
315.6243275381669
 20
271.5534937702144
 30
0.0000000000000000
 10
315.1243275381688
 20
270.8868271035568
 30
0.0000000000000000
 10
314.1243275381640
 20
269.5534937702298
 30
0.0000000000000000
 10
315.6243275381548
 20
267.5534937702183
 30
0.0000000000000000
 10
317.1243275381573
 20
265.5534937702121
 30
0.0000000000000000
 10
316.1243275381547
 20
264.2201604368802
 30
0.0000000000000000
 10
315.6243275381536
 20
263.5534937702144
 30
0.0000000000000000
  0
SPLINE
  5
232
100
AcDbEntity
  8
MAIN0
  6
CONTINUOUS
 62
3
100
AcDbSpline
210
0.0000000000000000
220
0.0000000000000000
230
1.000000000000000
 70
     8
 71
     3
 72
     9
 73
     5
 74
     0
 42
1.000000000000000e-007
 43
1.000000000000000e-007
 12
0.6708203932532229
 22
-0.8944271909956569
 32
0.0000000000000000
 13
-0.6708203914033106
 23
-0.8944271885438866
 33
0.0000000000000000
 40
0.0000000000000000
 40
0.0000000000000000
 40
0.0000000000000000
 40
0.0000000000000000
 40
2.236067977480139
 40
4.472135951926193
 40
4.472135951926193
 40
4.472135951926193
 40
4.472135951926193
 10
315.6243275379870
 20
271.5534937702144
 30
0.0000000000000000
 10
316.1243275379851
 20
270.8868271035568
 30
0.0000000000000000
 10
317.1243275379900
 20
269.5534937702298
 30
0.0000000000000000
 10
316.1243275379961
 20
268.2201604368889
 30
0.0000000000000000
 10
315.6243275400553
 20
267.5534937729633
 30
0.0000000000000000
  0
LINE
  5
233
100
AcDbEntity
  8
MAIN0
  6
CONTINUOUS
 62
3
100
AcDbLine
 10
302.6243275419504
 20
271.5534937757099
 30
0.0000000000000000
 11
315.6243275381669
 21
271.5534937757118
 31
0.0000000000000000
  0
LINE
  5
234
100
AcDbEntity
  8
MAIN0
  6
CONTINUOUS
 62
3
100
AcDbLine
 10
318.6243275419570
 20
271.5534937757122
 30
0.0000000000000000
 11
340.1243275419570
 21
271.5534937757154
 31
0.0000000000000000
  0
LINE
  5
235
100
AcDbEntity
  8
MAIN0
  6
CONTINUOUS
 62
3
100
AcDbLine
 10
302.6243275419504
 20
263.5534937757099
 30
0.0000000000000000
 11
315.6243275381537
 21
263.5534937757118
 31
0.0000000000000000
  0
LINE
  5
236
100
AcDbEntity
  8
MAIN0
  6
CONTINUOUS
 62
3
100
AcDbLine
 10
318.6243275419436
 20
263.5534937757122
 30
0.0000000000000000
 11
340.1243275419436
 21
263.5534937757154
 31
0.0000000000000000
  0
SPLINE
  5
237
100
AcDbEntity
  8
MAIN0
  6
CONTINUOUS
 62
3
100
AcDbSpline
210
0.0000000000000000
220
0.0000000000000000
230
1.000000000000000
 70
     8
 71
     3
 72
    11
 73
     7
 74
     0
 42
1.000000000000000e-007
 43
1.000000000000000e-007
 12
-0.6708203932531660
 22
-0.8944271909956569
 32
0.0000000000000000
 13
-0.6708203932515744
 23
-0.8944271909990107
 33
0.0000000000000000
 40
0.0000000000000000
 40
0.0000000000000000
 40
0.0000000000000000
 40
0.0000000000000000
 40
2.236067977480139
 40
4.472135954999567
 40
6.708203932499802
 40
8.944271909999147
 40
8.944271909999147
 40
8.944271909999147
 40
8.944271909999147
 10
378.6243275419569
 20
271.5534937757210
 30
0.0000000000000000
 10
378.1243275419588
 20
270.8868271090634
 30
0.0000000000000000
 10
377.1243275419540
 20
269.5534937757364
 30
0.0000000000000000
 10
378.6243275419448
 20
267.5534937757249
 30
0.0000000000000000
 10
380.1243275419473
 20
265.5534937757187
 30
0.0000000000000000
 10
379.1243275419447
 20
264.2201604423868
 30
0.0000000000000000
 10
378.6243275419436
 20
263.5534937757210
 30
0.0000000000000000
  0
SPLINE
  5
238
100
AcDbEntity
  8
MAIN0
  6
CONTINUOUS
 62
3
100
AcDbSpline
210
0.0000000000000000
220
0.0000000000000000
230
1.000000000000000
 70
     8
 71
     3
 72
     9
 73
     5
 74
     0
 42
1.000000000000000e-007
 43
1.000000000000000e-007
 12
0.6708203932531660
 22
-0.8944271909956569
 32
0.0000000000000000
 13
-0.6708203914034243
 23
-0.8944271885438297
 33
0.0000000000000000
 40
0.0000000000000000
 40
0.0000000000000000
 40
0.0000000000000000
 40
0.0000000000000000
 40
2.236067977480139
 40
4.472135951926193
 40
4.472135951926193
 40
4.472135951926193
 40
4.472135951926193
 10
378.6243275417770
 20
271.5534937757210
 30
0.0000000000000000
 10
379.1243275417751
 20
270.8868271090634
 30
0.0000000000000000
 10
380.1243275417800
 20
269.5534937757364
 30
0.0000000000000000
 10
379.1243275417861
 20
268.2201604423955
 30
0.0000000000000000
 10
378.6243275438453
 20
267.5534937784699
 30
0.0000000000000000
  0
SPLINE
  5
239
100
AcDbEntity
  8
MAIN0
  6
CONTINUOUS
 62
3
100
AcDbSpline
210
0.0000000000000000
220
0.0000000000000000
230
1.000000000000000
 70
     8
 71
     3
 72
    11
 73
     7
 74
     0
 42
1.000000000000000e-007
 43
1.000000000000000e-007
 12
0.6708203932531660
 22
0.8944271909956001
 32
0.0000000000000000
 13
0.6708203932516881
 23
0.8944271909988970
 33
0.0000000000000000
 40
0.0000000000000000
 40
0.0000000000000000
 40
0.0000000000000000
 40
0.0000000000000000
 40
2.236067977480139
 40
4.472135954999567
 40
6.708203932499802
 40
8.944271909999147
 40
8.944271909999147
 40
8.944271909999147
 40
8.944271909999147
 10
381.6243275457337
 20
263.5534937812188
 30
0.0000000000000000
 10
382.1243275457317
 20
264.2201604478764
 30
0.0000000000000000
 10
383.1243275457366
 20
265.5534937812034
 30
0.0000000000000000
 10
381.6243275457458
 20
267.5534937812149
 30
0.0000000000000000
 10
380.1243275457433
 20
269.5534937812211
 30
0.0000000000000000
 10
381.1243275457458
 20
270.8868271145530
 30
0.0000000000000000
 10
381.6243275457470
 20
271.5534937812188
 30
0.0000000000000000
  0
SPLINE
  5
23A
100
AcDbEntity
  8
MAIN0
  6
CONTINUOUS
 62
3
100
AcDbSpline
210
0.0000000000000000
220
0.0000000000000000
230
1.000000000000000
 70
     8
 71
     3
 72
     9
 73
     5
 74
     0
 42
1.000000000000000e-007
 43
1.000000000000000e-007
 12
-0.6708203932533365
 22
0.8944271909956001
 32
0.0000000000000000
 13
0.6708203914034812
 23
0.8944271885438297
 33
0.0000000000000000
 40
0.0000000000000000
 40
0.0000000000000000
 40
0.0000000000000000
 40
0.0000000000000000
 40
2.236067977480139
 40
4.472135951926193
 40
4.472135951926193
 40
4.472135951926193
 40
4.472135951926193
 10
381.6243275459135
 20
263.5534937812188
 30
0.0000000000000000
 10
381.1243275459154
 20
264.2201604478764
 30
0.0000000000000000
 10
380.1243275459107
 20
265.5534937812034
 30
0.0000000000000000
 10
381.1243275459044
 20
266.8868271145444
 30
0.0000000000000000
 10
381.6243275438453
 20
267.5534937784699
 30
0.0000000000000000
  0
LINE
  5
23B
100
AcDbEntity
  8
MAIN0
  6
CONTINUOUS
 62
3
100
AcDbLine
 10
357.1243275419569
 20
271.5534937757179
 30
0.0000000000000000
 11
378.6243275419568
 21
271.5534937757210
 31
0.0000000000000000
  0
LINE
  5
23C
100
AcDbEntity
  8
MAIN0
  6
CONTINUOUS
 62
3
100
AcDbLine
 10
381.6243275457470
 20
271.5534937757215
 30
0.0000000000000000
 11
394.6243275419504
 21
271.5534937757233
 31
0.0000000000000000
  0
LINE
  5
23D
100
AcDbEntity
  8
MAIN0
  6
CONTINUOUS
 62
3
100
AcDbLine
 10
357.1243275419437
 20
263.5534937757179
 30
0.0000000000000000
 11
378.6243275419436
 21
263.5534937757210
 31
0.0000000000000000
  0
LINE
  5
23E
100
AcDbEntity
  8
MAIN0
  6
CONTINUOUS
 62
3
100
AcDbLine
 10
381.6243275459135
 20
263.5534937757215
 30
0.0000000000000000
 11
394.6243275419505
 21
263.5534937757233
 31
0.0000000000000000
  0
DIMENSION
  5
247
100
AcDbEntity
  8
MAIN0
  6
CONTINUOUS
 62
3
100
AcDbDimension
  2
*D21
 10
67.62711464524000
 20
138.9453806631440
 30
0.0000000000000000
 11
96.62711464524000
 21
139.4453806631440
 31
0.0000000000000000
 70
32
  3
MAIN001
100
AcDbAlignedDimension
 13
125.6271146452400
 23
164.6045074611087
 33
0.0000000000000000
 14
67.62711464524000
 24
164.1045074611087
 34
0.0000000000000000
100
AcDbRotatedDimension
1001
ACAD
1000
DSTYLE
1002
{
1070
   173
1070
     1
1070
     6
1000
_OPEN
1070
     7
1000
_OPEN
1070
    41
1040
2.000000
1002
}
  0
LINE
  5
248
100
AcDbEntity
  8
MAIN0
  6
CENTER
 62
3
100
AcDbLine
 10
92.12711464524000
 20
129.2825087904554
 30
0.0000000000000000
 11
92.12711464524000
 21
113.5082548676247
 31
0.0000000000000000
  0
LINE
  5
249
100
AcDbEntity
  8
MAIN0
  6
CENTER
 62
3
100
AcDbLine
 10
92.12711464524000
 20
180.3948926413363
 30
0.0000000000000000
 11
92.12711464524000
 21
159.5451917935342
 31
0.0000000000000000
  0
DIMENSION
  5
252
100
AcDbEntity
  8
MAIN0
  6
CONTINUOUS
 62
3
100
AcDbDimension
  2
*D22
 10
125.6271146452400
 20
148.4596973919672
 30
0.0000000000000000
 11
108.8771146452400
 21
148.9596973919672
 31
0.0000000000000000
 70
32
  3
MAIN001
100
AcDbAlignedDimension
 13
92.12711464524000
 23
159.5451917935342
 33
0.0000000000000000
 14
125.6271146452400
 24
164.6045074611087
 34
0.0000000000000000
100
AcDbRotatedDimension
1001
ACAD
1000
DSTYLE
1002
{
1070
   173
1070
     1
1070
     6
1000
_OPEN
1070
     7
1000
_OPEN
1070
    41
1040
2.000000
1002
}
  0
DIMENSION
  5
25B
100
AcDbEntity
  8
MAIN0
  6
CONTINUOUS
 62
3
100
AcDbDimension
  2
*D23
 10
92.12711464524000
 20
148.4596973919672
 30
0.0000000000000000
 11
79.87711464524000
 21
148.9596973919672
 31
0.0000000000000000
 70
32
  3
MAIN001
100
AcDbAlignedDimension
 13
67.62711464524000
 23
164.1045074611087
 33
0.0000000000000000
 14
92.12711464524000
 24
159.5451917935342
 34
0.0000000000000000
100
AcDbRotatedDimension
1001
ACAD
1000
DSTYLE
1002
{
1070
   173
1070
     1
1070
     6
1000
_OPEN
1070
     7
1000
_OPEN
1070
    41
1040
2.000000
1002
}
  0
DIMENSION
  5
266
100
AcDbEntity
  8
MAIN0
  6
CONTINUOUS
 62
3
100
AcDbDimension
  2
*D24
 10
104.6441405034533
 20
114.3475000175041
 30
0.0000000000000000
 11
90.37496044677792
 21
100.7854267420317
 31
0.0000000000000000
 70
161
  3
MAIN001
100
AcDbAlignedDimension
 13
91.64815554532504
 23
116.0297764766618
 33
0.0000000000000000
 14
97.30500979488616
 24
121.6866307260854
 34
0.0000000000000000
 50
44.99999999996639
1001
ACAD
1000
DSTYLE
1002
{
1070
   173
1070
     1
1070
     6
1000
_OPEN
1070
     7
1000
_OPEN
1070
    41
1040
2.000000
1070
   287
1070
     0
1070
   272
1070
     2
1070
    47
1040
0.150000
1070
    48
1040
-0.050000
1070
    71
1070
     1
1002
}
  0
DIMENSION
  5
26F
100
AcDbEntity
  8
MAIN0
  6
CONTINUOUS
 62
3
100
AcDbDimension
  2
*D25
 10
58.00214046048964
 20
230.1045074611087
 30
0.0000000000000000
 11
57.50214046048964
 21
218.1045074611087
 31
0.0000000000000000
 70
32
  1
\A1;\U+220524
  3
MAIN001
100
AcDbAlignedDimension
 13
81.62711464524001
 23
206.1045074611087
 33
0.0000000000000000
 14
81.62711464524001
 24
230.1045074611087
 34
0.0000000000000000
 50
90.00000000000000
100
AcDbRotatedDimension
1001
ACAD
1000
DSTYLE
1002
{
1070
   173
1070
     1
1070
     6
1000
_OPEN
1070
     7
1000
_OPEN
1070
    41
1040
2.000000
1002
}
  0
DIMENSION
  5
278
100
AcDbEntity
  8
MAIN0
  6
CONTINUOUS
 62
3
100
AcDbDimension
  2
*D26
 10
48.59848118759372
 20
258.1045074611087
 30
0.0000000000000000
 11
48.09848118759372
 21
215.9778629416256
 31
0.0000000000000000
 70
160
  1
\A1;\U+220580H6\H0.903226x;\S＋0.019^ 　0;
  3
MAIN001
100
AcDbAlignedDimension
 13
67.62711464524000
 23
178.1045074611087
 33
0.0000000000000000
 14
67.62711464524000
 24
258.1045074611087
 34
0.0000000000000000
 50
90.00000000000000
100
AcDbRotatedDimension
1001
ACAD
1000
DSTYLE
1002
{
1070
   173
1070
     1
1070
     6
1000
_OPEN
1070
     7
1000
_OPEN
1070
    41
1040
2.000000
1070
   272
1070
     3
1070
    47
1040
0.019000
1070
    48
1040
0.000000
1070
    71
1070
     1
1070
   340
1005
279
1002
}
  0
DIMENSION
  5
282
100
AcDbEntity
  8
MAIN0
  6
CONTINUOUS
 62
3
100
AcDbDimension
  2
*D27
 10
39.08416445877058
 20
273.1045074611087
 30
0.0000000000000000
 11
38.58416445877058
 21
218.1045074611087
 31
0.0000000000000000
 70
32
  1
\A1;\U+2205110
  3
MAIN001
100
AcDbAlignedDimension
 13
68.62711464524000
 23
163.1045074611087
 33
0.0000000000000000
 14
68.62711464524000
 24
273.1045074611087
 34
0.0000000000000000
 50
90.00000000000000
100
AcDbRotatedDimension
1001
ACAD
1000
DSTYLE
1002
{
1070
   173
1070
     1
1070
     6
1000
_OPEN
1070
     7
1000
_OPEN
1070
    41
1040
2.000000
1002
}
  0
LINE
  5
283
100
AcDbEntity
  8
MAIN0
  6
CENTER
 62
3
100
AcDbLine
 10
63.13310095091643
 20
265.6045074611087
 30
0.0000000000000000
 11
93.11360759029957
 21
265.6045074611087
 31
0.0000000000000000
  0
DIMENSION
  5
28C
100
AcDbEntity
  8
MAIN0
  6
CONTINUOUS
 62
3
100
AcDbDimension
  2
*D28
 10
67.62711464524000
 20
283.1200445601760
 30
0.0000000000000000
 11
75.62711464524000
 21
283.6200445601760
 31
0.0000000000000000
 70
32
  3
MAIN001
100
AcDbAlignedDimension
 13
83.62711464524000
 23
269.6045074611087
 33
0.0000000000000000
 14
67.62711464524000
 24
272.1045074611087
 34
0.0000000000000000
100
AcDbRotatedDimension
1001
ACAD
1000
DSTYLE
1002
{
1070
   173
1070
     1
1070
     6
1000
_OPEN
1070
     7
1000
_OPEN
1070
    41
1040
2.000000
1002
}
  0
LEADER
  5
28D
100
AcDbEntity
  8
MAIN0
  6
CONTINUOUS
 62
3
100
AcDbLeader
  3
MAIN001
 73
     0
 74
     0
 75
     1
 40
3.099999904632568
 41
10.78100032901763
 76
     3
 10
77.01979071897216
 20
269.6045074611087
 30
0.0000000000000000
 10
89.06684630602956
 20
283.4122100716414
 30
0.0000000000000000
 10
90.99184625023962
 20
283.4122100716414
 30
0.0000000000000000
340
28E
213
0.0000000000000000
223
-0.5000000000000000
233
0.0000000000000000
1001
ACAD
1000
DSTYLE
1002
{
1070
   147
1040
0.0
1070
    77
1070
     1
1070
   173
1070
     1
1070
     6
1000
_OPEN
1070
     7
1000
_OPEN
1002
}
  0
MTEXT
  5
28E
102
{ACAD_REACTORS
330
28D
102
}
100
AcDbEntity
  8
MAIN0
  6
CONTINUOUS
 62
3
100
AcDbMText
 10
90.99284625023961
 20
287.0122099762740
 30
0.0000000000000000
 40
3.099999904632568
 41
0.0000000000000000
 71
     1
 72
     1
  1
{\H0.91x;{3-M8}}
 11
1.000000000000000
 21
0.0000000000000000
 31
0.0000000000000000
  7
STANDARD
  0
CIRCLE
  5
28F
100
AcDbEntity
  8
MAIN0
  6
CONTINUOUS
 62
3
100
AcDbCircle
 10
228.6471810798322
 20
200.1045074611087
 30
0.0000000000000000
 40
5.500000000000000
  0
LINE
  5
290
100
AcDbEntity
  8
MAIN0
  6
HIDDEN
 62
3
100
AcDbLine
 10
340.1243275419570
 20
271.5534937757154
 30
0.0000000000000000
 11
357.1243275419570
 21
271.5534937757179
 31
0.0000000000000000
  0
LINE
  5
291
100
AcDbEntity
  8
MAIN0
  6
HIDDEN
 62
3
100
AcDbLine
 10
340.1243275419437
 20
263.5534937757154
 30
0.0000000000000000
 11
357.1243275419437
 21
263.5534937757179
 31
0.0000000000000000
  0
LINE
  5
292
100
AcDbEntity
  8
MAIN0
  6
CONTINUOUS
 62
3
100
AcDbLine
 10
236.4451400509235
 20
208.9835515964432
 30
0.0000000000000000
 11
239.5083428400666
 21
207.2150106415538
 31
0.0000000000000000
  0
LINE
  5
293
100
AcDbEntity
  8
MAIN0
  6
CONTINUOUS
 62
3
100
AcDbLine
 10
240.4451400509549
 20
215.9117548267005
 30
0.0000000000000000
 11
243.5083428399748
 21
214.1432138718823
 31
0.0000000000000000
  0
LINE
  5
294
100
AcDbEntity
  8
MAIN0
  6
CONTINUOUS
 62
3
100
AcDbLine
 10
232.6471810798838
 20
229.4182159600752
 30
0.0000000000000000
 11
232.6471810798796
 21
232.9552978698612
 31
0.0000000000000000
  0
LINE
  5
295
100
AcDbEntity
  8
MAIN0
  6
CONTINUOUS
 62
3
100
AcDbLine
 10
224.6471810798838
 20
229.4182159601115
 30
0.0000000000000000
 11
224.6471810798796
 21
232.9552978697551
 31
0.0000000000000000
  0
LINE
  5
296
100
AcDbEntity
  8
MAIN0
  6
CONTINUOUS
 62
3
100
AcDbLine
 10
216.8492221087565
 20
215.9117548269238
 30
0.0000000000000000
 11
213.7860193196175
 21
214.1432138720273
 31
0.0000000000000000
  0
LINE
  5
297
100
AcDbEntity
  8
MAIN0
  6
CONTINUOUS
 62
3
100
AcDbLine
 10
220.8492221087250
 20
208.9835515966302
 30
0.0000000000000000
 11
217.7860193197094
 21
207.2150106418048
 31
0.0000000000000000
  0
LINE
  5
298
100
AcDbEntity
  8
MAIN0
  6
CENTER
 62
3
100
AcDbLine
 10
54.64396605896693
 20
171.6045074611087
 30
0.0000000000000000
 11
127.0587596924538
 21
171.6045074611087
 31
0.0000000000000000
  0
DIMENSION
  5
2A1
100
AcDbEntity
  8
MAIN0
  6
CONTINUOUS
 62
3
100
AcDbDimension
  2
*D29
 10
132.1326793567824
 20
178.6045074611087
 30
0.0000000000000000
 11
131.6326793567824
 21
171.6045074611087
 31
0.0000000000000000
 70
32
  1
\A1;\U+220514
  3
MAIN001
100
AcDbAlignedDimension
 13
125.2271146452400
 23
164.6045074611087
 33
0.0000000000000000
 14
125.2271146452400
 24
178.6045074611087
 34
0.0000000000000000
 50
90.00000000000000
100
AcDbRotatedDimension
1001
ACAD
1000
DSTYLE
1002
{
1070
   173
1070
     1
1070
     6
1000
_OPEN
1070
     7
1000
_OPEN
1070
    41
1040
2.000000
1002
}
  0
DIMENSION
  5
2AA
100
AcDbEntity
  8
MAIN0
  6
CONTINUOUS
 62
3
100
AcDbDimension
  2
*D30
 10
116.6271146452400
 20
157.6425428715555
 30
0.0000000000000000
 11
121.1271146452400
 21
158.1425428715555
 31
0.0000000000000000
 70
32
  3
MAIN001
100
AcDbAlignedDimension
 13
125.6271146452400
 23
164.6045074611087
 33
0.0000000000000000
 14
116.6271146452400
 24
164.6045074611087
 34
0.0000000000000000
100
AcDbRotatedDimension
1001
ACAD
1000
DSTYLE
1002
{
1070
   173
1070
     1
1070
     6
1000
_OPEN
1070
     7
1000
_OPEN
1070
    41
1040
2.000000
1002
}
  0
DIMENSION
  5
2B3
100
AcDbEntity
  8
MAIN0
  6
CONTINUOUS
 62
3
100
AcDbDimension
  2
*D31
 10
48.59848118759372
 20
176.1045074611087
 30
0.0000000000000000
 11
48.09848118759372
 21
171.6045074611087
 31
0.0000000000000000
 70
32
  1
\A1;\U+22059
  3
MAIN001
100
AcDbAlignedDimension
 13
68.02711464524001
 23
167.1045074611087
 33
0.0000000000000000
 14
68.02711464524001
 24
176.1045074611087
 34
0.0000000000000000
 50
90.00000000000000
100
AcDbRotatedDimension
1001
ACAD
1000
DSTYLE
1002
{
1070
   173
1070
     1
1070
     6
1000
_OPEN
1070
     7
1000
_OPEN
1070
    41
1040
2.000000
1002
}
  0
LINE
  5
2B4
100
AcDbEntity
  8
MAIN0
  6
CENTER
 62
3
100
AcDbLine
 10
246.8195273106308
 20
186.6290804963162
 30
0.0000000000000000
 11
256.1471810796628
 21
170.4731102528668
 31
0.0000000000000000
  0
LINE
  5
2B5
100
AcDbEntity
  8
MAIN0
  6
CENTER
 62
3
100
AcDbLine
 10
246.7139363419726
 20
249.3970455034997
 30
0.0000000000000000
 11
256.1471810796039
 21
265.7359046693841
 31
0.0000000000000000
  0
ARC
  5
2B6
100
AcDbEntity
  8
MAIN0
  6
CENTER
 62
3
100
AcDbCircle
 10
228.6471810798322
 20
218.1045074612471
 30
0.0000000000000000
 40
46.50000000000000
100
AcDbArc
 50
48.80066560818977
 51
73.80579195426545
  0
ARC
  5
2B7
100
AcDbEntity
  8
MAIN0
  6
CENTER
 62
3
100
AcDbCircle
 10
228.6471810798322
 20
218.1045074612471
 30
0.0000000000000000
 40
46.50000000000000
100
AcDbArc
 50
288.5277213262895
 51
314.3809531416309
  0
ARC
  5
2B8
100
AcDbEntity
  8
MAIN0
  6
CENTER
 62
3
100
AcDbCircle
 10
228.6471810798322
 20
218.1045074612471
 30
0.0000000000000000
 40
46.50000000000000
100
AcDbArc
 50
168.0303700264152
 51
192.4809384632619
  0
DIMENSION
  5
2C1
100
AcDbEntity
  8
MAIN0
  6
CONTINUOUS
 62
3
100
AcDbDimension
  2
*D32
 10
293.7923932646985
 20
159.5517822887545
 30
0.0000000000000000
 11
293.2923932646985
 21
166.5517822887545
 31
0.0000000000000000
 70
32
  3
MAIN001
100
AcDbAlignedDimension
 13
302.4280120876784
 23
173.5517822887545
 33
0.0000000000000000
 14
302.4280120876784
 24
159.5517822887545
 34
0.0000000000000000
 50
90.00000000000000
100
AcDbRotatedDimension
1001
ACAD
1000
DSTYLE
1002
{
1070
   173
1070
     1
1070
     6
1000
_OPEN
1070
     7
1000
_OPEN
1070
    41
1040
2.000000
1002
}
  0
LINE
  5
2C2
100
AcDbEntity
  8
MAIN0
  6
PHANTOM
 62
3
100
AcDbLine
 10
294.4642944797913
 20
124.6044878687739
 30
0.0000000000000000
 11
347.8337024849696
 21
124.6044878687739
 31
0.0000000000000000
  0
DIMENSION
  5
2CB
100
AcDbEntity
  8
MAIN0
  6
CONTINUOUS
 62
3
100
AcDbDimension
  2
*D33
 10
293.7923932646985
 20
142.6044878687739
 30
0.0000000000000000
 11
293.2923932646985
 21
135.6044878687739
 31
0.0000000000000000
 70
32
  3
MAIN001
100
AcDbAlignedDimension
 13
299.1204182546294
 23
128.6044878687739
 33
0.0000000000000000
 14
302.4280120876784
 24
142.6044878687739
 34
0.0000000000000000
 50
90.00000000000000
100
AcDbRotatedDimension
1001
ACAD
1000
DSTYLE
1002
{
1070
   173
1070
     1
1070
     6
1000
_OPEN
1070
     7
1000
_OPEN
1070
    41
1040
2.000000
1002
}
  0
DIMENSION
  5
2D4
100
AcDbEntity
  8
MAIN0
  6
CONTINUOUS
 62
3
100
AcDbDimension
  2
*D34
 10
284.1166196519318
 20
124.6044878687739
 30
0.0000000000000000
 11
283.6166196519318
 21
133.6044878687739
 31
0.0000000000000000
 70
32
  3
MAIN001
100
AcDbAlignedDimension
 13
302.4280120876784
 23
142.6044878687739
 33
0.0000000000000000
 14
294.4642944797913
 24
124.6044878687739
 34
0.0000000000000000
 50
90.00000000000000
100
AcDbRotatedDimension
1001
ACAD
1000
DSTYLE
1002
{
1070
   173
1070
     1
1070
     6
1000
_OPEN
1070
     7
1000
_OPEN
1070
    41
1040
2.000000
1002
}
  0
LEADER
  5
2D5
100
AcDbEntity
  8
MAIN0
  6
CONTINUOUS
 62
3
100
AcDbLeader
  3
MAIN001
 73
     0
 74
     0
 75
     1
 40
3.000000000000000
 41
34.20099909400943
 76
     3
 10
342.1826747830201
 20
142.7539236460537
 30
0.0000000000000000
 10
352.2773826822386
 20
161.2349957851778
 30
0.0000000000000000
 10
353.9563826822386
 20
161.2349957851778
 30
0.0000000000000000
340
2D6
213
-0.001000000000033197
223
-0.5000000000000000
233
0.0000000000000000
1001
ACAD
1000
DSTYLE
1002
{
1070
   147
1040
0.0
1070
    77
1070
     1
1070
   173
1070
     1
1070
     6
1000
_OPEN
1070
     7
1000
_OPEN
1002
}
  0
MTEXT
  5
2D6
102
{ACAD_REACTORS
330
2D5
102
}
100
AcDbEntity
  8
MAIN0
  6
CONTINUOUS
 62
3
100
AcDbMText
 10
353.9573826822386
 20
164.7349957851778
 30
0.0000000000000000
 40
3.000000000000000
 41
0.0000000000000000
 71
     1
 72
     1
  1
{\H0.63x;{斜線部加工可能範囲\PSHADOW AREA:IT IS\PPOSSIBLE TO MACHINE}}
 11
1.000000000000000
 21
0.0000000000000000
 31
0.0000000000000000
  7
KNJYOKO
  0
LEADER
  5
2D7
100
AcDbEntity
  8
MAIN0
  6
CONTINUOUS
 62
3
100
AcDbLeader
  3
MAIN001
 73
     0
 75
     1
 40
3.000000000000000
 41
17.99899952316287
 76
     3
 10
299.2690785521872
 20
124.7219215353601
 30
0.0000000000000000
 10
290.0008330980184
 20
109.6743629747932
 30
0.0000000000000000
 10
288.3198330980184
 20
109.6743629747932
 30
0.0000000000000000
340
2D8
213
0.0000000000000000
223
-0.5000000000000000
233
0.0000000000000000
1001
ACAD
1000
DSTYLE
1002
{
1070
   147
1040
0.0
1070
    77
1070
     1
1070
   173
1070
     1
1070
     6
1000
_OPEN
1070
     7
1000
_OPEN
1002
}
  0
MTEXT
  5
2D8
102
{ACAD_REACTORS
330
2D7
102
}
100
AcDbEntity
  8
MAIN0
  6
CONTINUOUS
 62
3
100
AcDbMText
 10
270.3208335748556
 20
113.1743629747932
 30
0.0000000000000000
 40
3.000000000000000
 41
0.0000000000000000
 71
     1
 72
     1
  1
{\H0.63x;{チャック表面\PCHUCK FACE}}
 11
1.000000000000000
 21
0.0000000000000000
 31
0.0000000000000000
  7
KNJYOKO
  0
MTEXT
  5
2D9
100
AcDbEntity
  8
MAIN0
  6
CONTINUOUS
 62
3
100
AcDbMText
 10
312.4404616749818
 20
102.0852503067194
 30
0.0000000000000000
 40
3.099999904632568
 41
0.0000000000000000
 71
     1
 72
     1
  1
{\H0.93x;{ソフトジョー}}
 11
1.000000000000000
 21
0.0000000000000000
 31
0.0000000000000000
  7
KNJYOKO
  0
LINE
  5
2DA
100
AcDbEntity
  8
MAIN0
  6
CONTINUOUS
 62
3
100
AcDbLine
 10
310.9181942266835
 20
97.84353529826448
 30
0.0000000000000000
 11
334.5136881000088
 21
97.84353529825141
 31
0.0000000000000000
  0
LINE
  5
2DB
100
AcDbEntity
  8
MAIN0
  6
CONTINUOUS
 62
3
100
AcDbLine
 10
298.3446712185898
 20
128.6044878687739
 30
0.0000000000000000
 11
301.3011502443207
 21
128.6044878687739
 31
0.0000000000000000
  0
LINE
  5
2DC
100
AcDbEntity
  8
MAIN0
  6
PHANTOM
 62
3
100
AcDbLine
 10
302.0280120876784
 20
128.6044878687739
 30
0.0000000000000000
 11
344.0280120876784
 21
128.6044878687739
 31
0.0000000000000000
  0
SPLINE
  5
2DD
100
AcDbEntity
  8
MAIN0
  6
CONTINUOUS
 62
3
100
AcDbSpline
210
0.0000000000000000
220
0.0000000000000000
230
1.000000000000000
 70
     8
 71
     3
 72
    16
 73
    12
 74
     0
 42
1.000000000000000e-007
 43
1.000000000000000e-007
 12
-0.2013085218600423
 22
-0.9934501250252481
 32
0.0000000000000000
 13
-0.06309435119452189
 23
-0.9959432112301982
 33
0.0000000000000000
 40
0.0000000000000000
 40
0.0000000000000000
 40
0.0000000000000000
 40
0.0000000000000000
 40
8.937080646084546
 40
23.33850133243553
 40
39.66589034245344
 40
53.06934541505278
 40
66.43578357368057
 40
77.87995253748638
 40
89.07238713643790
 40
104.0813978840393
 40
113.4651919528215
 40
113.4651919528215
 40
113.4651919528215
 40
113.4651919528215
 10
99.10383671225655
 20
273.1045074611087
 30
0.0000000000000000
 10
98.50413321405412
 20
270.1449928327043
 30
0.0000000000000000
 10
96.93805347883375
 20
262.4164471438343
 30
0.0000000000000000
 10
86.57309312781243
 20
252.6164406232561
 30
0.0000000000000000
 10
86.94526537423596
 20
236.9971556612013
 30
0.0000000000000000
 10
86.42073778626690
 20
222.7943795706164
 30
0.0000000000000000
 10
83.02302301484944
 20
210.3380779711298
 30
0.0000000000000000
 10
84.52858868046508
 20
198.0836062156318
 30
0.0000000000000000
 10
78.96129567574739
 20
186.3829008748265
 30
0.0000000000000000
 10
79.26728550929452
 20
174.3176989138175
 30
0.0000000000000000
 10
78.75426944472639
 20
166.2197494605706
 30
0.0000000000000000
 10
78.55691464522212
 20
163.1045074611087
 30
0.0000000000000000
  0
LINE
  5
2DE
100
AcDbEntity
  8
MAIN0
  6
CONTINUOUS
 62
3
100
AcDbLine
 10
68.62711464524000
 20
163.1045074611087
 30
0.0000000000000000
 11
124.1271146452400
 21
163.1045074611087
 31
0.0000000000000000
  0
LINE
  5
2DF
100
AcDbEntity
  8
MAIN0
  6
PHANTOM
 62
3
100
AcDbLine
 10
125.5271146453802
 20
163.1045074611338
 30
0.0000000000000000
 11
143.3271146451575
 21
163.1045074611463
 31
0.0000000000000000
  0
DIMENSION
  5
2E8
100
AcDbEntity
  8
MAIN0
  6
CONTINUOUS
 62
3
100
AcDbDimension
  2
*D35
 10
56.62711464524000
 20
148.4596973919672
 30
0.0000000000000000
 11
62.12711464524000
 21
148.9596973919672
 31
0.0000000000000000
 70
32
  3
MAIN001
100
AcDbAlignedDimension
 13
67.62711464524000
 23
164.1045074611087
 33
0.0000000000000000
 14
56.62711464524000
 24
167.6045074611087
 34
0.0000000000000000
100
AcDbRotatedDimension
1001
ACAD
1000
DSTYLE
1002
{
1070
   173
1070
     1
1070
     6
1000
_OPEN
1070
     7
1000
_OPEN
1070
    41
1040
2.000000
1002
}
  0
LEADER
  5
2E9
100
AcDbEntity
  8
MAIN0
  6
CONTINUOUS
 62
3
100
AcDbLeader
  3
MAIN001
 73
     0
 75
     1
 40
3.099999904632568
 41
10.77900032901763
 76
     3
 10
60.87368783225863
 20
167.5216521576215
 30
0.0000000000000000
 10
47.99892989686417
 20
142.8104192882975
 30
0.0000000000000000
 10
46.07192995265412
 20
142.8104192882975
 30
0.0000000000000000
340
2EA
213
0.0000000000000000
223
-0.5000000000000000
233
0.0000000000000000
1001
ACAD
1000
DSTYLE
1002
{
1070
   147
1040
0.0
1070
    77
1070
     1
1070
   173
1070
     1
1070
     6
1000
_OPEN
1070
     7
1000
_OPEN
1002
}
  0
MTEXT
  5
2EA
102
{ACAD_REACTORS
330
2E9
102
}
100
AcDbEntity
  8
MAIN0
  6
CONTINUOUS
 62
3
100
AcDbMText
 10
35.29292962363648
 20
146.4104191929300
 30
0.0000000000000000
 40
3.099999904632568
 41
0.0000000000000000
 71
     1
 72
     1
  1
{\H0.91x;{3-M8}}
 11
1.000000000000000
 21
0.0000000000000000
 31
0.0000000000000000
  7
STANDARD
  0
MTEXT
  5
2EB
100
AcDbEntity
  8
MAIN0
  6
CONTINUOUS
 62
3
100
AcDbMText
 10
311.9604621979302
 20
97.12859157682770
 30
0.0000000000000000
 40
3.099999904632568
 41
0.0000000000000000
 71
     1
 72
     1
  1
{\H0.93x;{SOFT JAW}}
 11
1.000000000000000
 21
0.0000000000000000
 31
0.0000000000000000
  7
STANDARD
  0
MTEXT
  5
2EC
100
AcDbEntity
  8
MAIN0
  6
CONTINUOUS
 62
3
100
AcDbMText
 10
218.5592882154186
 20
244.7781158363404
 30
0.0000000000000000
 40
5.000000000000000
 41
0.0000000000000000
 71
     1
 72
     1
  1
{\H0.93x;{KITAGAWA}}
 11
-0.4999999999997758
 21
-0.8660254037845681
 31
0.0000000000000000
  7
STANDARD
  0
LINE
  5
2ED
100
AcDbEntity
  8
MAIN0
  6
CONTINUOUS
 62
3
100
AcDbLine
 10
214.0253381431480
 20
247.7787325949593
 30
0.0000000000000000
 11
196.0198321445017
 21
216.5922813893857
 31
0.0000000000000000
  0
MTEXT
  5
2EE
100
AcDbEntity
  8
MAIN0
  6
CONTINUOUS
 62
3
100
AcDbMText
 10
214.4477474755009
 20
250.1429171807597
 30
0.0000000000000000
 40
4.000000000000000
 41
0.0000000000000000
 71
     1
 72
     1
  1
{\H0.90x;{MAX.2500/min}}
 11
-0.4999999999997758
 21
-0.8660254037845681
 31
0.0000000000000000
  7
STANDARD
  0
MTEXT
  5
2EF
100
AcDbEntity
  8
MAIN0
  6
CONTINUOUS
 62
3
100
AcDbMText
 10
203.5586657026894
 20
240.9611034017040
 30
0.0000000000000000
 40
3.000000000000000
 41
0.0000000000000000
 71
     1
 72
     1
  1
{\H0.92x;{JAPAN}}
 11
-0.4999999999997758
 21
-0.8660254037845681
 31
0.0000000000000000
  7
STANDARD
  0
LINE
  5
2F0
100
AcDbEntity
  8
MAIN0
  6
PHANTOM
 62
3
100
AcDbLine
 10
200.3719858334818
 20
243.4460890152673
 30
0.0000000000000000
 11
192.8719858334853
 21
230.4557079584990
 31
0.0000000000000000
  0
LINE
  5
2F1
100
AcDbEntity
  8
MAIN0
  6
PHANTOM
 62
3
100
AcDbLine
 10
192.8719858334853
 20
230.4557079584990
 30
0.0000000000000000
 11
190.2739096221307
 21
231.9557079584970
 31
0.0000000000000000
  0
LINE
  5
2F2
100
AcDbEntity
  8
MAIN0
  6
PHANTOM
 62
3
100
AcDbLine
 10
197.7739096221273
 20
244.9460890152653
 30
0.0000000000000000
 11
190.2739096221307
 21
231.9557079584968
 31
0.0000000000000000
  0
LINE
  5
2F3
100
AcDbEntity
  8
MAIN0
  6
PHANTOM
 62
3
100
AcDbLine
 10
200.3719858334817
 20
243.4460890152675
 30
0.0000000000000000
 11
197.7739096221273
 21
244.9460890152654
 31
0.0000000000000000
  0
DIMENSION
  5
2F9
100
AcDbEntity
  8
MAIN0
  6
CONTINUOUS
 62
3
100
AcDbDimension
  2
*D36
 10
257.9008000727881
 20
181.9593034112632
 30
0.0000000000000000
 11
247.8483676069085
 21
195.1746673896819
 31
0.0000000000000000
 70
163
  3
MAIN001
100
AcDbDiametricDimension
 15
199.3935620868763
 25
254.2497115112309
 35
0.0000000000000000
1001
ACAD
1000
DSTYLE
1002
{
1070
   287
1070
     2
1070
   173
1070
     1
1070
     6
1000
_OPEN
1070
     7
1000
_NONE
1070
    41
1040
2.000000
1070
   272
1070
     1
1070
    47
1040
0.200000
1070
    48
1040
0.200000
1070
    71
1070
     1
1002
}
  0
DIMENSION
  5
302
100
AcDbEntity
  8
MAIN0
  6
CONTINUOUS
 62
3
100
AcDbDimension
  2
*D37
 10
287.7094639439855
 20
218.1045074611087
 30
0.0000000000000000
 11
291.6799465565903
 21
201.2149288549547
 31
0.0000000000000000
 70
162
  3
MAIN001
100
AcDb2LineAngularDimension
 13
279.5319650779435
 23
188.7261637222403
 33
0.0000000000000000
 14
278.6659396741594
 24
189.2261637222409
 34
0.0000000000000000
 15
286.7094639439855
 25
218.1045074611087
 35
0.0000000000000000
 16
292.1629094697349
 26
201.0855193324033
 36
0.0000000000000000
1001
ACAD
1000
DSTYLE
1002
{
1070
   173
1070
     1
1070
     6
1000
_OPEN
1070
     7
1000
_OPEN
1070
    41
1040
2.000000
1002
}
  0
DIMENSION
  5
30B
100
AcDbEntity
  8
MAIN0
  6
CONTINUOUS
 62
3
100
AcDbDimension
  2
*D38
 10
279.7164755821553
 20
247.5893783895207
 30
0.0000000000000000
 11
291.6799465565571
 21
234.9940860673870
 31
0.0000000000000000
 70
162
  3
MAIN001
100
AcDb2LineAngularDimension
 13
287.7094639439855
 23
218.1045074611087
 33
0.0000000000000000
 14
286.7094639439855
 24
218.1045074611087
 34
0.0000000000000000
 15
278.8504501783732
 25
247.0893783895168
 35
0.0000000000000000
 16
292.1629094697013
 26
235.1234955899394
 36
0.0000000000000000
1001
ACAD
1000
DSTYLE
1002
{
1070
   173
1070
     1
1070
     6
1000
_OPEN
1070
     7
1000
_OPEN
1070
    41
1040
2.000000
1002
}
  0
DIMENSION
  5
314
100
AcDbEntity
  8
MAIN0
  6
CONTINUOUS
 62
3
100
AcDbDimension
  2
*D39
 10
256.1471810796038
 20
265.7359046693841
 30
0.0000000000000000
 11
275.4974747313401
 21
264.9548011129912
 31
0.0000000000000000
 70
162
  3
MAIN001
100
AcDb2LineAngularDimension
 13
279.7164755821553
 23
247.5893783895207
 33
0.0000000000000000
 14
278.8504501783732
 24
247.0893783895168
 34
0.0000000000000000
 15
255.6471810796112
 25
264.8698792655954
 35
0.0000000000000000
 16
275.1439213407491
 26
264.6012477223956
 36
0.0000000000000000
1001
ACAD
1000
DSTYLE
1002
{
1070
   173
1070
     1
1070
     6
1000
_OPEN
1070
     7
1000
_OPEN
1070
    41
1040
2.000000
1002
}
  0
DIMENSION
  5
31D
100
AcDbEntity
  8
MAIN0
  6
CONTINUOUS
 62
3
100
AcDbDimension
  2
*D40
 10
228.6471810798322
 20
277.4741280519604
 30
0.0000000000000000
 11
245.7955787309061
 21
282.1031987640295
 31
0.0000000000000000
 70
162
  3
MAIN001
100
AcDb2LineAngularDimension
 13
256.1471810796038
 23
265.7359046693841
 33
0.0000000000000000
 14
255.6471810796112
 24
264.8698792655954
 34
0.0000000000000000
 15
228.6471810798362
 25
276.4741280519604
 35
0.0000000000000000
 16
245.6661692083579
 26
281.6202358508841
 36
0.0000000000000000
1001
ACAD
1000
DSTYLE
1002
{
1070
   173
1070
     1
1070
     6
1000
_OPEN
1070
     7
1000
_OPEN
1070
    41
1040
2.000000
1002
}
  0
DIMENSION
  5
326
100
AcDbEntity
  8
MAIN0
  6
CONTINUOUS
 62
3
100
AcDbDimension
  2
*D41
 10
178.0682872724141
 20
247.3062454163144
 30
0.0000000000000000
 11
195.5190207383635
 21
275.4841643340088
 31
0.0000000000000000
 70
162
  3
MAIN001
100
AcDb2LineAngularDimension
 13
228.6471810798322
 23
277.4741280519604
 33
0.0000000000000000
 14
228.6471810798362
 24
276.4741280519604
 34
0.0000000000000000
 15
178.9343126761982
 25
246.8062454163139
 35
0.0000000000000000
 16
195.7690207383642
 26
275.0511516321170
 36
0.0000000000000000
1001
ACAD
1000
DSTYLE
1002
{
1070
   173
1070
     1
1070
     6
1000
_OPEN
1070
     7
1000
_OPEN
1070
    41
1040
2.000000
1002
}
  0
LINE
  5
327
100
AcDbEntity
  8
MAIN0
  6
CONTINUOUS
 62
3
100
AcDbLine
 10
341.1243275419703
 20
279.5534937756449
 30
0.0000000000000000
 11
356.1243275419703
 21
279.5534937756449
 31
0.0000000000000000
  0
LINE
  5
328
100
AcDbEntity
  8
MAIN0
  6
CONTINUOUS
 62
3
100
AcDbLine
 10
341.1243275419702
 20
279.5534937756449
 30
0.0000000000000000
 11
340.1243275419685
 21
278.5534937756448
 31
0.0000000000000000
  0
LINE
  5
329
100
AcDbEntity
  8
MAIN0
  6
CONTINUOUS
 62
3
100
AcDbLine
 10
356.1243275419703
 20
279.5534937756449
 30
0.0000000000000000
 11
357.1243275419687
 21
278.5534937756449
 31
0.0000000000000000
  0
LINE
  5
32A
100
AcDbEntity
  8
MAIN0
  6
CONTINUOUS
 62
3
100
AcDbLine
 10
340.1243275419686
 20
278.5534937756449
 30
0.0000000000000000
 11
357.1243275419687
 21
278.5534937756449
 31
0.0000000000000000
  0
LINE
  5
32B
100
AcDbEntity
  8
MAIN0
  6
CONTINUOUS
 62
3
100
AcDbLine
 10
353.8243275418546
 20
210.0534937757174
 30
0.0000000000000000
 11
353.8243275418754
 21
222.5534937757174
 31
0.0000000000000000
  0
ARC
  5
32C
100
AcDbEntity
  8
MAIN0
  6
CONTINUOUS
 62
3
100
AcDbCircle
 10
388.7698554898274
 20
220.6015520658005
 30
0.0000000000000000
 40
35.00000000000000
100
AcDbArc
 50
154.7101096375301
 51
176.8029692151961
  0
LINE
  5
32D
100
AcDbEntity
  8
MAIN0
  6
CONTINUOUS
 62
3
100
AcDbLine
 10
353.8243275418546
 20
210.0534937757174
 30
0.0000000000000000
 11
353.3243275418538
 21
209.5534937757173
 31
0.0000000000000000
  0
LINE
  5
32E
100
AcDbEntity
  8
MAIN0
  6
CONTINUOUS
 62
3
100
AcDbLine
 10
353.8243275418546
 20
210.0534937757174
 30
0.0000000000000000
 11
349.1032866417198
 21
220.5534937757167
 31
0.0000000000000000
  0
LINE
  5
32F
100
AcDbEntity
  8
MAIN0
  6
CONTINUOUS
 62
3
100
AcDbLine
 10
353.8243275418721
 20
220.5534937757174
 30
0.0000000000000000
 11
349.1032866416965
 21
210.0534937757167
 31
0.0000000000000000
  0
LINE
  5
330
100
AcDbEntity
  8
MAIN0
  6
CONTINUOUS
 62
3
100
AcDbLine
 10
349.1032866416965
 20
210.0534937757167
 30
0.0000000000000000
 11
349.1032866417198
 21
220.5534937757167
 31
0.0000000000000000
  0
LINE
  5
331
100
AcDbEntity
  8
MAIN0
  6
CONTINUOUS
 62
3
100
AcDbLine
 10
348.1453684419860
 20
210.0534937757166
 30
0.0000000000000000
 11
348.1453684420093
 21
220.5534937757165
 31
0.0000000000000000
  0
LINE
  5
332
100
AcDbEntity
  8
MAIN0
  6
CONTINUOUS
 62
3
100
AcDbLine
 10
343.4243275418722
 20
220.5534937757159
 30
0.0000000000000000
 11
348.1453684419860
 21
210.0534937757166
 31
0.0000000000000000
  0
LINE
  5
333
100
AcDbEntity
  8
MAIN0
  6
CONTINUOUS
 62
3
100
AcDbLine
 10
348.1453684420093
 20
220.5534937757166
 30
0.0000000000000000
 11
343.4243275418547
 21
210.0534937757347
 31
0.0000000000000000
  0
LINE
  5
334
100
AcDbEntity
  8
MAIN0
  6
CONTINUOUS
 62
3
100
AcDbLine
 10
343.4243275418546
 20
210.0534937757347
 30
0.0000000000000000
 11
343.4243275418754
 21
222.5534937757159
 31
0.0000000000000000
  0
ARC
  5
335
100
AcDbEntity
  8
MAIN0
  6
CONTINUOUS
 62
3
100
AcDbCircle
 10
308.4787995939171
 20
220.6015520659340
 30
0.0000000000000000
 40
35.00000000000000
100
AcDbArc
 50
3.197030784613316
 51
25.28989036227933
  0
LINE
  5
336
100
AcDbEntity
  8
MAIN0
  6
CONTINUOUS
 62
3
100
AcDbLine
 10
343.4243275418547
 20
210.0534937757346
 30
0.0000000000000000
 11
343.9243275418538
 21
209.5534937757329
 31
0.0000000000000000
  0
MTEXT
  5
337
100
AcDbEntity
  8
MAIN3
  6
CONTINUOUS
 62
3
100
AcDbMText
 10
217.2436960312139
 20
232.6238630463336
 30
0.0000000000000000
 40
4.000000000000000
 41
0.0000000000000000
 71
     1
 72
     1
  1
{\H0.91x;{SC-4}}
 11
-0.4999999999997758
 21
-0.8660254037845681
 31
0.0000000000000000
  7
STANDARD
  0
LINE
  5
338
100
AcDbEntity
  8
MAIN0
  6
HIDDEN
 62
3
100
AcDbLine
 10
125.6271146452400
 20
206.1045074611087
 30
0.0000000000000000
 11
83.74176089341019
 21
206.1045074611087
 31
0.0000000000000000
  0
LINE
  5
339
100
AcDbEntity
  8
MAIN0
  6
HIDDEN
 62
3
100
AcDbLine
 10
125.6271146452400
 20
230.1045074611087
 30
0.0000000000000000
 11
86.62218756469996
 21
230.1045074611087
 31
0.0000000000000000
  0
INSERT
  5
350
100
AcDbEntity
  8
MAIN0
  6
CONTINUOUS
 62
3
100
AcDbBlockReference
  2
*X0
 10
0.0000000000000000
 20
0.0000000000000000
 30
0.0000000000000000
 50
0.0000000000000000
  0
LINE
  5
351
100
AcDbEntity
  8
MAIN1
  6
HIDDEN
 62
3
100
AcDbLine
 10
79.62711564524000
 20
231.8545074611087
 30
0.0000000000000000
 11
86.69755407894309
 21
231.8545074611087
 31
0.0000000000000000
  0
LINE
  5
352
100
AcDbEntity
  8
MAIN1
  6
HIDDEN
 62
7
100
AcDbLine
 10
79.62711564524000
 20
232.3045074611087
 30
0.0000000000000000
 11
86.71255740522769
 21
232.3045074611087
 31
0.0000000000000000
  0
LINE
  5
353
100
AcDbEntity
  8
MAIN1
  6
HIDDEN
 62
7
100
AcDbLine
 10
86.78268159325243
 20
235.9045074611087
 30
0.0000000000000000
 11
79.62711564524000
 21
235.9045074611087
 31
0.0000000000000000
  0
LINE
  5
354
100
AcDbEntity
  8
MAIN1
  6
HIDDEN
 62
3
100
AcDbLine
 10
86.78658920605891
 20
236.3545074611087
 30
0.0000000000000000
 11
79.62711564524000
 21
236.3545074611087
 31
0.0000000000000000
  0
LINE
  5
355
100
AcDbEntity
  8
MAIN1
  6
HIDDEN
 62
3
100
AcDbLine
 10
77.62711464524000
 20
231.7045114611087
 30
0.0000000000000000
 11
81.62711564524000
 21
231.7045114611087
 31
0.0000000000000000
  0
LINE
  5
356
100
AcDbEntity
  8
MAIN1
  6
HIDDEN
 62
3
100
AcDbLine
 10
77.62711464524000
 20
231.8545074611087
 30
0.0000000000000000
 11
79.62711564524000
 21
231.8545074611087
 31
0.0000000000000000
  0
LINE
  5
357
100
AcDbEntity
  8
MAIN1
  6
HIDDEN
 62
7
100
AcDbLine
 10
78.84769264524000
 20
231.8545074611087
 30
0.0000000000000000
 11
79.62711564523998
 21
232.3045074611087
 31
0.0000000000000000
  0
LINE
  5
358
100
AcDbEntity
  8
MAIN1
  6
HIDDEN
 62
3
100
AcDbLine
 10
79.62711564524000
 20
236.3545074611087
 30
0.0000000000000000
 11
79.62711564524000
 21
231.8545074611087
 31
0.0000000000000000
  0
LINE
  5
359
100
AcDbEntity
  8
MAIN1
  6
HIDDEN
 62
7
100
AcDbLine
 10
79.62711564524000
 20
235.9045074611087
 30
0.0000000000000000
 11
78.84769264523999
 21
236.3545074611087
 31
0.0000000000000000
  0
LINE
  5
35A
100
AcDbEntity
  8
MAIN1
  6
HIDDEN
 62
3
100
AcDbLine
 10
79.62711564524000
 20
236.3545074611087
 30
0.0000000000000000
 11
77.62711464524000
 21
236.3545074611087
 31
0.0000000000000000
  0
LINE
  5
35B
100
AcDbEntity
  8
MAIN1
  6
HIDDEN
 62
3
100
AcDbLine
 10
77.62711464524000
 20
236.5045114611087
 30
0.0000000000000000
 11
81.62711564524000
 21
236.5045114611087
 31
0.0000000000000000
  0
LINE
  5
35C
100
AcDbEntity
  8
MAIN1
  6
HIDDEN
 62
3
100
AcDbLine
 10
77.62711464524000
 20
236.5045114611087
 30
0.0000000000000000
 11
77.62711464524000
 21
231.7045114611087
 31
0.0000000000000000
  0
LINE
  5
35D
100
AcDbEntity
  8
MAIN1
  6
HIDDEN
 62
3
100
AcDbLine
 10
77.62711464524000
 20
231.1045074611087
 30
0.0000000000000000
 11
73.62711464524000
 21
231.1045074611087
 31
0.0000000000000000
  0
LINE
  5
35E
100
AcDbEntity
  8
MAIN1
  6
HIDDEN
 62
3
100
AcDbLine
 10
73.12711464524000
 20
230.9045114611087
 30
0.0000000000000000
 11
77.62711464524000
 21
230.9045114611087
 31
0.0000000000000000
  0
LINE
  5
35F
100
AcDbEntity
  8
MAIN1
  6
HIDDEN
 62
3
100
AcDbLine
 10
77.62711464524000
 20
231.7045114611087
 30
0.0000000000000000
 11
77.62711464524000
 21
230.9045114611087
 31
0.0000000000000000
  0
LINE
  5
360
100
AcDbEntity
  8
MAIN1
  6
HIDDEN
 62
3
100
AcDbLine
 10
73.62711464524000
 20
231.1045074611087
 30
0.0000000000000000
 11
73.62711464524000
 21
233.6045074611087
 31
0.0000000000000000
  0
LINE
  5
361
100
AcDbEntity
  8
MAIN1
  6
HIDDEN
 62
3
100
AcDbLine
 10
75.22711064524003
 20
233.6045074611087
 30
0.0000000000000000
 11
73.62711064524001
 21
233.6045074611087
 31
0.0000000000000000
  0
LINE
  5
362
100
AcDbEntity
  8
MAIN1
  6
HIDDEN
 62
3
100
AcDbLine
 10
75.22711064524003
 20
233.6045074611087
 30
0.0000000000000000
 11
75.22711064524003
 21
234.6045074611087
 31
0.0000000000000000
  0
LINE
  5
363
100
AcDbEntity
  8
MAIN1
  6
HIDDEN
 62
3
100
AcDbLine
 10
75.22711064524003
 20
234.6045074611087
 30
0.0000000000000000
 11
73.62711064524001
 21
234.6045074611087
 31
0.0000000000000000
  0
LINE
  5
364
100
AcDbEntity
  8
MAIN1
  6
HIDDEN
 62
3
100
AcDbLine
 10
73.62711464524000
 20
234.6045074611087
 30
0.0000000000000000
 11
73.62711464524000
 21
237.1045074611087
 31
0.0000000000000000
  0
LINE
  5
365
100
AcDbEntity
  8
MAIN1
  6
HIDDEN
 62
3
100
AcDbLine
 10
77.62711464524000
 20
237.1045074611087
 30
0.0000000000000000
 11
73.62711464524000
 21
237.1045074611087
 31
0.0000000000000000
  0
LINE
  5
366
100
AcDbEntity
  8
MAIN1
  6
HIDDEN
 62
3
100
AcDbLine
 10
73.12711464524000
 20
237.3045114611087
 30
0.0000000000000000
 11
77.62711464524000
 21
237.3045114611087
 31
0.0000000000000000
  0
LINE
  5
367
100
AcDbEntity
  8
MAIN1
  6
HIDDEN
 62
3
100
AcDbLine
 10
77.62711464524000
 20
236.5045114611087
 30
0.0000000000000000
 11
77.62711464524000
 21
237.3045114611087
 31
0.0000000000000000
  0
CIRCLE
  5
368
100
AcDbEntity
  8
MAIN0
  6
HIDDEN
 62
3
100
AcDbCircle
 10
276.1471810798322
 20
218.1045074611087
 30
0.0000000000000000
 40
4.000000000000000
  0
CIRCLE
  5
369
100
AcDbEntity
  8
MAIN0
  6
HIDDEN
 62
3
100
AcDbCircle
 10
276.1471810798322
 20
218.1045074611087
 30
0.0000000000000000
 40
3.400000000000000
  0
LINE
  5
36A
100
AcDbEntity
  8
MAIN0
  6
HIDDEN
 62
3
100
AcDbLine
 10
67.62711464524000
 20
270.0045074611087
 30
0.0000000000000000
 11
68.62711464524000
 21
269.0045074611087
 31
0.0000000000000000
  0
LINE
  5
36B
100
AcDbEntity
  8
MAIN0
  6
HIDDEN
 62
3
100
AcDbLine
 10
68.62711464524000
 20
269.0045074611087
 30
0.0000000000000000
 11
68.62711464524000
 21
262.2045074611087
 31
0.0000000000000000
  0
LINE
  5
36C
100
AcDbEntity
  8
MAIN0
  6
HIDDEN
 62
3
100
AcDbLine
 10
68.62711464524000
 20
262.2045074611087
 30
0.0000000000000000
 11
67.62711464524000
 21
261.2045074611087
 31
0.0000000000000000
  0
LINE
  5
36D
100
AcDbEntity
  8
MAIN0
  6
HIDDEN
 62
3
100
AcDbLine
 10
68.02711464524001
 20
269.6045074611087
 30
0.0000000000000000
 11
83.62711464524000
 21
269.6045074611087
 31
0.0000000000000000
  0
LINE
  5
36E
100
AcDbEntity
  8
MAIN0
  6
HIDDEN
 62
3
100
AcDbLine
 10
83.62711464524000
 20
269.6045074611087
 30
0.0000000000000000
 11
83.62711464524000
 21
261.6045074611087
 31
0.0000000000000000
  0
LINE
  5
36F
100
AcDbEntity
  8
MAIN0
  6
HIDDEN
 62
3
100
AcDbLine
 10
83.62711464524000
 20
261.6045074611087
 30
0.0000000000000000
 11
68.02711464524001
 21
261.6045074611087
 31
0.0000000000000000
  0
LINE
  5
370
100
AcDbEntity
  8
MAIN0
  6
HIDDEN
 62
3
100
AcDbLine
 10
68.62711464524000
 20
269.0045074611087
 30
0.0000000000000000
 11
87.62711464524000
 21
269.0045074611087
 31
0.0000000000000000
  0
LINE
  5
371
100
AcDbEntity
  8
MAIN0
  6
HIDDEN
 62
3
100
AcDbLine
 10
87.62711464524000
 20
269.0045074611087
 30
0.0000000000000000
 11
87.62711464524000
 21
262.2045074611087
 31
0.0000000000000000
  0
LINE
  5
372
100
AcDbEntity
  8
MAIN0
  6
HIDDEN
 62
3
100
AcDbLine
 10
87.62711464524000
 20
262.2045074611087
 30
0.0000000000000000
 11
68.62711464524000
 21
262.2045074611087
 31
0.0000000000000000
  0
LINE
  5
373
100
AcDbEntity
  8
MAIN0
  6
HIDDEN
 62
3
100
AcDbLine
 10
87.62711464524000
 20
269.0045074611087
 30
0.0000000000000000
 11
89.59010556048473
 21
265.6045074611087
 31
0.0000000000000000
  0
LINE
  5
374
100
AcDbEntity
  8
MAIN0
  6
HIDDEN
 62
3
100
AcDbLine
 10
89.59010556048473
 20
265.6045074611087
 30
0.0000000000000000
 11
87.62711464524000
 21
262.2045074611087
 31
0.0000000000000000
  0
LINE
  5
375
100
AcDbEntity
  8
MAIN0
  6
HIDDEN
 62
3
100
AcDbLine
 10
125.6271146452400
 20
164.2045074611087
 30
0.0000000000000000
 11
125.2271146452400
 21
164.6045074611087
 31
0.0000000000000000
  0
LINE
  5
376
100
AcDbEntity
  8
MAIN0
  6
HIDDEN
 62
3
100
AcDbLine
 10
125.2271146452400
 20
164.6045074611087
 30
0.0000000000000000
 11
116.6271146452400
 21
164.6045074611087
 31
0.0000000000000000
  0
LINE
  5
377
100
AcDbEntity
  8
MAIN0
  6
HIDDEN
 62
3
100
AcDbLine
 10
116.6271146452400
 20
164.6045074611087
 30
0.0000000000000000
 11
116.6271146452400
 21
178.6045074611087
 31
0.0000000000000000
  0
LINE
  5
378
100
AcDbEntity
  8
MAIN0
  6
HIDDEN
 62
3
100
AcDbLine
 10
116.6271146452400
 20
178.6045074611087
 30
0.0000000000000000
 11
125.2271146452400
 21
178.6045074611087
 31
0.0000000000000000
  0
LINE
  5
379
100
AcDbEntity
  8
MAIN0
  6
HIDDEN
 62
3
100
AcDbLine
 10
125.2271146452400
 20
178.6045074611087
 30
0.0000000000000000
 11
125.6271146452400
 21
179.0045074611087
 31
0.0000000000000000
  0
LINE
  5
37A
100
AcDbEntity
  8
MAIN0
  6
HIDDEN
 62
3
100
AcDbLine
 10
116.6271146452400
 20
167.1045074611087
 30
0.0000000000000000
 11
68.02711464524001
 21
167.1045074611087
 31
0.0000000000000000
  0
LINE
  5
37B
100
AcDbEntity
  8
MAIN0
  6
HIDDEN
 62
3
100
AcDbLine
 10
68.02711464524001
 20
167.1045074611087
 30
0.0000000000000000
 11
67.62711464524000
 21
166.7045074611087
 31
0.0000000000000000
  0
LINE
  5
37C
100
AcDbEntity
  8
MAIN0
  6
HIDDEN
 62
3
100
AcDbLine
 10
116.6271146452400
 20
176.1045074611087
 30
0.0000000000000000
 11
68.02711464524001
 21
176.1045074611087
 31
0.0000000000000000
  0
LINE
  5
37D
100
AcDbEntity
  8
MAIN0
  6
HIDDEN
 62
3
100
AcDbLine
 10
68.02711464524001
 20
176.1045074611087
 30
0.0000000000000000
 11
67.62711464524000
 21
176.5045074611087
 31
0.0000000000000000
  0
CIRCLE
  5
37E
100
AcDbEntity
  8
MAIN0
  6
CONTINUOUS
 62
3
100
AcDbCircle
 10
251.8971810796788
 20
258.3746887373121
 30
0.0000000000000000
 40
7.000000000000000
  0
CIRCLE
  5
37F
100
AcDbEntity
  8
MAIN0
  6
CONTINUOUS
 62
3
100
AcDbCircle
 10
251.8971810796788
 20
258.3746887373121
 30
0.0000000000000000
 40
4.500000000000000
  0
CIRCLE
  5
380
100
AcDbEntity
  8
MAIN0
  6
CONTINUOUS
 62
3
100
AcDbCircle
 10
251.8971810796176
 20
177.8343261851468
 30
0.0000000000000000
 40
7.000000000000000
  0
CIRCLE
  5
381
100
AcDbEntity
  8
MAIN0
  6
CONTINUOUS
 62
3
100
AcDbCircle
 10
251.8971810796176
 20
177.8343261851468
 30
0.0000000000000000
 40
4.500000000000000
  0
CIRCLE
  5
382
100
AcDbEntity
  8
MAIN0
  6
CONTINUOUS
 62
3
100
AcDbCircle
 10
182.1471810798322
 20
218.1045074611087
 30
0.0000000000000000
 40
7.000000000000000
  0
CIRCLE
  5
383
100
AcDbEntity
  8
MAIN0
  6
CONTINUOUS
 62
3
100
AcDbCircle
 10
182.1471810798322
 20
218.1045074611087
 30
0.0000000000000000
 40
4.500000000000000
  0
LINE
  5
384
100
AcDbEntity
  8
MAIN0
  6
CONTINUOUS
 62
3
100
AcDbLine
 10
302.4280120876784
 20
142.6044878687739
 30
0.0000000000000000
 11
343.6280120876784
 21
142.6044878687739
 31
0.0000000000000000
  0
LINE
  5
385
100
AcDbEntity
  8
MAIN0
  6
CONTINUOUS
 62
3
100
AcDbLine
 10
339.5280120876784
 20
111.4044878687739
 30
0.0000000000000000
 11
339.5280120876784
 21
108.3044878687739
 31
0.0000000000000000
  0
LINE
  5
386
100
AcDbEntity
  8
MAIN0
  6
CONTINUOUS
 62
3
100
AcDbLine
 10
336.9880120876784
 20
111.4044878687739
 30
0.0000000000000000
 11
336.9880120876784
 21
108.3044878687739
 31
0.0000000000000000
  0
LINE
  5
387
100
AcDbEntity
  8
MAIN0
  6
CONTINUOUS
 62
3
100
AcDbLine
 10
334.4480120876784
 20
111.4044878687739
 30
0.0000000000000000
 11
334.4480120876784
 21
108.3044878687739
 31
0.0000000000000000
  0
LINE
  5
388
100
AcDbEntity
  8
MAIN0
  6
CONTINUOUS
 62
3
100
AcDbLine
 10
331.9080120876784
 20
111.4044878687739
 30
0.0000000000000000
 11
331.9080120876784
 21
108.3044878687739
 31
0.0000000000000000
  0
LINE
  5
389
100
AcDbEntity
  8
MAIN0
  6
CONTINUOUS
 62
3
100
AcDbLine
 10
329.3680120876784
 20
111.4044878687739
 30
0.0000000000000000
 11
329.3680120876784
 21
108.3044878687739
 31
0.0000000000000000
  0
LINE
  5
38A
100
AcDbEntity
  8
MAIN0
  6
CONTINUOUS
 62
3
100
AcDbLine
 10
326.8280120876784
 20
111.4044878687739
 30
0.0000000000000000
 11
326.8280120876784
 21
108.3044878687739
 31
0.0000000000000000
  0
LINE
  5
38B
100
AcDbEntity
  8
MAIN0
  6
CONTINUOUS
 62
3
100
AcDbLine
 10
324.2880120876784
 20
111.4044878687739
 30
0.0000000000000000
 11
324.2880120876784
 21
108.3044878687739
 31
0.0000000000000000
  0
LINE
  5
38C
100
AcDbEntity
  8
MAIN0
  6
CONTINUOUS
 62
3
100
AcDbLine
 10
321.7480120876784
 20
111.4044878687739
 30
0.0000000000000000
 11
321.7480120876784
 21
108.3044878687739
 31
0.0000000000000000
  0
LINE
  5
38D
100
AcDbEntity
  8
MAIN0
  6
CONTINUOUS
 62
3
100
AcDbLine
 10
319.2080120876784
 20
111.4044878687739
 30
0.0000000000000000
 11
319.2080120876784
 21
108.3044878687739
 31
0.0000000000000000
  0
LINE
  5
38E
100
AcDbEntity
  8
MAIN0
  6
CONTINUOUS
 62
3
100
AcDbLine
 10
316.6680120876784
 20
111.4044878687739
 30
0.0000000000000000
 11
316.6680120876784
 21
108.3044878687739
 31
0.0000000000000000
  0
LINE
  5
38F
100
AcDbEntity
  8
MAIN0
  6
CONTINUOUS
 62
3
100
AcDbLine
 10
314.1280120876784
 20
111.4044878687739
 30
0.0000000000000000
 11
314.1280120876784
 21
108.3044878687739
 31
0.0000000000000000
  0
LINE
  5
390
100
AcDbEntity
  8
MAIN0
  6
CONTINUOUS
 62
3
100
AcDbLine
 10
311.5880120876784
 20
111.4044878687739
 30
0.0000000000000000
 11
311.5880120876784
 21
108.3044878687739
 31
0.0000000000000000
  0
LINE
  5
391
100
AcDbEntity
  8
MAIN0
  6
CONTINUOUS
 62
3
100
AcDbLine
 10
309.0480120876784
 20
111.4044878687739
 30
0.0000000000000000
 11
309.0480120876784
 21
108.3044878687739
 31
0.0000000000000000
  0
LINE
  5
392
100
AcDbEntity
  8
MAIN0
  6
CONTINUOUS
 62
3
100
AcDbLine
 10
306.5080120876784
 20
111.4044878687739
 30
0.0000000000000000
 11
306.5080120876784
 21
108.3044878687739
 31
0.0000000000000000
  0
LINE
  5
393
100
AcDbEntity
  8
MAIN0
  6
CONTINUOUS
 62
3
100
AcDbLine
 10
339.7280120876784
 20
111.6044878687739
 30
0.0000000000000000
 11
343.6280120876784
 21
111.6044878687739
 31
0.0000000000000000
  0
LINE
  5
394
100
AcDbEntity
  8
MAIN0
  6
CONTINUOUS
 62
3
100
AcDbLine
 10
334.6480120876784
 20
111.6044878687739
 30
0.0000000000000000
 11
336.7880120876784
 21
111.6044878687739
 31
0.0000000000000000
  0
LINE
  5
395
100
AcDbEntity
  8
MAIN0
  6
CONTINUOUS
 62
3
100
AcDbLine
 10
329.5680120876784
 20
111.6044878687739
 30
0.0000000000000000
 11
331.7080120876784
 21
111.6044878687739
 31
0.0000000000000000
  0
LINE
  5
396
100
AcDbEntity
  8
MAIN0
  6
CONTINUOUS
 62
3
100
AcDbLine
 10
324.4880120876784
 20
111.6044878687739
 30
0.0000000000000000
 11
326.6280120876784
 21
111.6044878687739
 31
0.0000000000000000
  0
LINE
  5
397
100
AcDbEntity
  8
MAIN0
  6
CONTINUOUS
 62
3
100
AcDbLine
 10
319.4080120876784
 20
111.6044878687739
 30
0.0000000000000000
 11
321.5480120876784
 21
111.6044878687739
 31
0.0000000000000000
  0
LINE
  5
398
100
AcDbEntity
  8
MAIN0
  6
CONTINUOUS
 62
3
100
AcDbLine
 10
314.3280120876784
 20
111.6044878687739
 30
0.0000000000000000
 11
316.4680120876784
 21
111.6044878687739
 31
0.0000000000000000
  0
LINE
  5
399
100
AcDbEntity
  8
MAIN0
  6
CONTINUOUS
 62
3
100
AcDbLine
 10
302.4280120876784
 20
111.6044878687739
 30
0.0000000000000000
 11
306.3080120876784
 21
111.6044878687739
 31
0.0000000000000000
  0
LINE
  5
39A
100
AcDbEntity
  8
MAIN0
  6
CONTINUOUS
 62
3
100
AcDbLine
 10
309.2480120876784
 20
111.6044878687739
 30
0.0000000000000000
 11
311.3880120876784
 21
111.6044878687739
 31
0.0000000000000000
  0
LINE
  5
39B
100
AcDbEntity
  8
MAIN0
  6
CONTINUOUS
 62
3
100
AcDbLine
 10
337.1880120876784
 20
108.1044878687739
 30
0.0000000000000000
 11
339.3280120876784
 21
108.1044878687739
 31
0.0000000000000000
  0
LINE
  5
39C
100
AcDbEntity
  8
MAIN0
  6
CONTINUOUS
 62
3
100
AcDbLine
 10
332.1080120876784
 20
108.1044878687739
 30
0.0000000000000000
 11
334.2480120876784
 21
108.1044878687739
 31
0.0000000000000000
  0
LINE
  5
39D
100
AcDbEntity
  8
MAIN0
  6
CONTINUOUS
 62
3
100
AcDbLine
 10
327.0280120876784
 20
108.1044878687739
 30
0.0000000000000000
 11
329.1680120876784
 21
108.1044878687739
 31
0.0000000000000000
  0
LINE
  5
39E
100
AcDbEntity
  8
MAIN0
  6
CONTINUOUS
 62
3
100
AcDbLine
 10
321.9480120876784
 20
108.1044878687739
 30
0.0000000000000000
 11
324.0880120876784
 21
108.1044878687739
 31
0.0000000000000000
  0
LINE
  5
39F
100
AcDbEntity
  8
MAIN0
  6
CONTINUOUS
 62
3
100
AcDbLine
 10
316.8680120876784
 20
108.1044878687739
 30
0.0000000000000000
 11
319.0080120876784
 21
108.1044878687739
 31
0.0000000000000000
  0
LINE
  5
3A0
100
AcDbEntity
  8
MAIN0
  6
CONTINUOUS
 62
3
100
AcDbLine
 10
306.7080120876784
 20
108.1044878687739
 30
0.0000000000000000
 11
308.8480120876784
 21
108.1044878687739
 31
0.0000000000000000
  0
LINE
  5
3A1
100
AcDbEntity
  8
MAIN0
  6
CONTINUOUS
 62
3
100
AcDbLine
 10
311.7880120876784
 20
108.1044878687739
 30
0.0000000000000000
 11
313.9280120876784
 21
108.1044878687739
 31
0.0000000000000000
  0
LINE
  5
3A2
100
AcDbEntity
  8
MAIN0
  6
CONTINUOUS
 62
3
100
AcDbLine
 10
306.5080120876784
 20
108.3044878687740
 30
0.0000000000000000
 11
306.7080120876784
 21
108.1044878687739
 31
0.0000000000000000
  0
LINE
  5
3A3
100
AcDbEntity
  8
MAIN0
  6
CONTINUOUS
 62
3
100
AcDbLine
 10
308.8480120876783
 20
108.1044878687739
 30
0.0000000000000000
 11
309.0480120876783
 21
108.3044878687739
 31
0.0000000000000000
  0
LINE
  5
3A4
100
AcDbEntity
  8
MAIN0
  6
CONTINUOUS
 62
3
100
AcDbLine
 10
311.5880120876783
 20
108.3044878687739
 30
0.0000000000000000
 11
311.7880120876783
 21
108.1044878687739
 31
0.0000000000000000
  0
LINE
  5
3A5
100
AcDbEntity
  8
MAIN0
  6
CONTINUOUS
 62
3
100
AcDbLine
 10
313.9280120876784
 20
108.1044878687739
 30
0.0000000000000000
 11
314.1280120876784
 21
108.3044878687739
 31
0.0000000000000000
  0
LINE
  5
3A6
100
AcDbEntity
  8
MAIN0
  6
CONTINUOUS
 62
3
100
AcDbLine
 10
316.6680120876784
 20
108.3044878687740
 30
0.0000000000000000
 11
316.8680120876784
 21
108.1044878687739
 31
0.0000000000000000
  0
LINE
  5
3A7
100
AcDbEntity
  8
MAIN0
  6
CONTINUOUS
 62
3
100
AcDbLine
 10
319.0080120876784
 20
108.1044878687739
 30
0.0000000000000000
 11
319.2080120876785
 21
108.3044878687739
 31
0.0000000000000000
  0
LINE
  5
3A8
100
AcDbEntity
  8
MAIN0
  6
CONTINUOUS
 62
3
100
AcDbLine
 10
321.7480120876784
 20
108.3044878687740
 30
0.0000000000000000
 11
321.9480120876785
 21
108.1044878687739
 31
0.0000000000000000
  0
LINE
  5
3A9
100
AcDbEntity
  8
MAIN0
  6
CONTINUOUS
 62
3
100
AcDbLine
 10
324.0880120876785
 20
108.1044878687739
 30
0.0000000000000000
 11
324.2880120876785
 21
108.3044878687738
 31
0.0000000000000000
  0
LINE
  5
3AA
100
AcDbEntity
  8
MAIN0
  6
CONTINUOUS
 62
3
100
AcDbLine
 10
326.8280120876784
 20
108.3044878687739
 30
0.0000000000000000
 11
327.0280120876784
 21
108.1044878687739
 31
0.0000000000000000
  0
LINE
  5
3AB
100
AcDbEntity
  8
MAIN0
  6
CONTINUOUS
 62
3
100
AcDbLine
 10
329.1680120876785
 20
108.1044878687739
 30
0.0000000000000000
 11
329.3680120876784
 21
108.3044878687739
 31
0.0000000000000000
  0
LINE
  5
3AC
100
AcDbEntity
  8
MAIN0
  6
CONTINUOUS
 62
3
100
AcDbLine
 10
331.9080120876785
 20
108.3044878687739
 30
0.0000000000000000
 11
332.1080120876784
 21
108.1044878687739
 31
0.0000000000000000
  0
LINE
  5
3AD
100
AcDbEntity
  8
MAIN0
  6
CONTINUOUS
 62
3
100
AcDbLine
 10
334.2480120876784
 20
108.1044878687739
 30
0.0000000000000000
 11
334.4480120876784
 21
108.3044878687739
 31
0.0000000000000000
  0
LINE
  5
3AE
100
AcDbEntity
  8
MAIN0
  6
CONTINUOUS
 62
3
100
AcDbLine
 10
336.9880120876784
 20
108.3044878687739
 30
0.0000000000000000
 11
337.1880120876784
 21
108.1044878687739
 31
0.0000000000000000
  0
LINE
  5
3AF
100
AcDbEntity
  8
MAIN0
  6
CONTINUOUS
 62
3
100
AcDbLine
 10
339.3280120876784
 20
108.1044878687739
 30
0.0000000000000000
 11
339.5280120876785
 21
108.3044878687739
 31
0.0000000000000000
  0
ARC
  5
3B0
100
AcDbEntity
  8
MAIN0
  6
CONTINUOUS
 62
3
100
AcDbCircle
 10
339.7280120876784
 20
111.4044878687739
 30
0.0000000000000000
 40
0.2000000000000000
100
AcDbArc
 50
90.00000000000000
 51
180.0000000000000
  0
ARC
  5
3B1
100
AcDbEntity
  8
MAIN0
  6
CONTINUOUS
 62
3
100
AcDbCircle
 10
336.7880120876784
 20
111.4044878687739
 30
0.0000000000000000
 40
0.2000000000000000
100
AcDbArc
 50
0.0000000000000000
 51
90.00000000000000
  0
ARC
  5
3B2
100
AcDbEntity
  8
MAIN0
  6
CONTINUOUS
 62
3
100
AcDbCircle
 10
334.6480120876784
 20
111.4044878687739
 30
0.0000000000000000
 40
0.2000000000000000
100
AcDbArc
 50
90.00000000000000
 51
180.0000000000000
  0
ARC
  5
3B3
100
AcDbEntity
  8
MAIN0
  6
CONTINUOUS
 62
3
100
AcDbCircle
 10
331.7080120876784
 20
111.4044878687739
 30
0.0000000000000000
 40
0.2000000000000000
100
AcDbArc
 50
0.0000000000000000
 51
90.00000000000000
  0
ARC
  5
3B4
100
AcDbEntity
  8
MAIN0
  6
CONTINUOUS
 62
3
100
AcDbCircle
 10
329.5680120876784
 20
111.4044878687739
 30
0.0000000000000000
 40
0.2000000000000000
100
AcDbArc
 50
90.00000000000000
 51
180.0000000000000
  0
ARC
  5
3B5
100
AcDbEntity
  8
MAIN0
  6
CONTINUOUS
 62
3
100
AcDbCircle
 10
326.6280120876784
 20
111.4044878687739
 30
0.0000000000000000
 40
0.2000000000000000
100
AcDbArc
 50
0.0000000000000000
 51
90.00000000000000
  0
ARC
  5
3B6
100
AcDbEntity
  8
MAIN0
  6
CONTINUOUS
 62
3
100
AcDbCircle
 10
324.4880120876784
 20
111.4044878687739
 30
0.0000000000000000
 40
0.2000000000000000
100
AcDbArc
 50
90.00000000000000
 51
180.0000000000000
  0
ARC
  5
3B7
100
AcDbEntity
  8
MAIN0
  6
CONTINUOUS
 62
3
100
AcDbCircle
 10
321.5480120876784
 20
111.4044878687739
 30
0.0000000000000000
 40
0.2000000000000000
100
AcDbArc
 50
0.0000000000000000
 51
90.00000000000000
  0
ARC
  5
3B8
100
AcDbEntity
  8
MAIN0
  6
CONTINUOUS
 62
3
100
AcDbCircle
 10
319.4080120876784
 20
111.4044878687739
 30
0.0000000000000000
 40
0.2000000000000000
100
AcDbArc
 50
90.00000000000000
 51
180.0000000000000
  0
ARC
  5
3B9
100
AcDbEntity
  8
MAIN0
  6
CONTINUOUS
 62
3
100
AcDbCircle
 10
316.4680120876784
 20
111.4044878687739
 30
0.0000000000000000
 40
0.2000000000000000
100
AcDbArc
 50
0.0000000000000000
 51
90.00000000000000
  0
ARC
  5
3BA
100
AcDbEntity
  8
MAIN0
  6
CONTINUOUS
 62
3
100
AcDbCircle
 10
314.3280120876784
 20
111.4044878687739
 30
0.0000000000000000
 40
0.2000000000000000
100
AcDbArc
 50
90.00000000000000
 51
180.0000000000000
  0
ARC
  5
3BB
100
AcDbEntity
  8
MAIN0
  6
CONTINUOUS
 62
3
100
AcDbCircle
 10
311.3880120876784
 20
111.4044878687739
 30
0.0000000000000000
 40
0.2000000000000000
100
AcDbArc
 50
0.0000000000000000
 51
90.00000000000000
  0
ARC
  5
3BC
100
AcDbEntity
  8
MAIN0
  6
CONTINUOUS
 62
3
100
AcDbCircle
 10
309.2480120876784
 20
111.4044878687739
 30
0.0000000000000000
 40
0.2000000000000000
100
AcDbArc
 50
90.00000000000000
 51
180.0000000000000
  0
ARC
  5
3BD
100
AcDbEntity
  8
MAIN0
  6
CONTINUOUS
 62
3
100
AcDbCircle
 10
306.3080120876784
 20
111.4044878687739
 30
0.0000000000000000
 40
0.2000000000000000
100
AcDbArc
 50
0.0000000000000000
 51
90.00000000000000
  0
LINE
  5
3BE
100
AcDbEntity
  8
MAIN0
  6
CONTINUOUS
 62
3
100
AcDbLine
 10
302.0280120876784
 20
142.2044878687739
 30
0.0000000000000000
 11
302.4280120876784
 21
142.6044878687739
 31
0.0000000000000000
  0
LINE
  5
3BF
100
AcDbEntity
  8
MAIN0
  6
CONTINUOUS
 62
3
100
AcDbLine
 10
302.0280120876785
 20
112.0044878687739
 30
0.0000000000000000
 11
302.4280120876785
 21
111.6044878687739
 31
0.0000000000000000
  0
LINE
  5
3C0
100
AcDbEntity
  8
MAIN0
  6
CONTINUOUS
 62
3
100
AcDbLine
 10
343.6280120876784
 20
111.6044878687739
 30
0.0000000000000000
 11
344.0280120876784
 21
112.0044878687739
 31
0.0000000000000000
  0
LINE
  5
3C1
100
AcDbEntity
  8
MAIN0
  6
CONTINUOUS
 62
3
100
AcDbLine
 10
302.0280120876784
 20
173.1517822887545
 30
0.0000000000000000
 11
302.0280120876784
 21
166.5517822887545
 31
0.0000000000000000
  0
LINE
  5
3C2
100
AcDbEntity
  8
MAIN0
  6
CONTINUOUS
 62
3
100
AcDbLine
 10
344.0280120876784
 20
167.3017822886270
 30
0.0000000000000000
 11
344.0280120876784
 21
166.5517822887545
 31
0.0000000000000000
  0
LINE
  5
3C3
100
AcDbEntity
  8
MAIN0
  6
CONTINUOUS
 62
3
100
AcDbLine
 10
302.4280120876784
 20
173.5517822887545
 30
0.0000000000000000
 11
340.4195729051751
 21
173.5517822887545
 31
0.0000000000000000
  0
LINE
  5
3C4
100
AcDbEntity
  8
MAIN0
  6
CONTINUOUS
 62
3
100
AcDbLine
 10
340.4195729051751
 20
173.5517822887545
 30
0.0000000000000000
 11
344.0280120876785
 21
167.3017822886270
 31
0.0000000000000000
  0
LINE
  5
3C5
100
AcDbEntity
  8
MAIN0
  6
CONTINUOUS
 62
3
100
AcDbLine
 10
302.0280120876784
 20
159.9517822887545
 30
0.0000000000000000
 11
302.0280120876784
 21
166.5517822887545
 31
0.0000000000000000
  0
LINE
  5
3C6
100
AcDbEntity
  8
MAIN0
  6
CONTINUOUS
 62
3
100
AcDbLine
 10
344.0280120876784
 20
165.8017822888820
 30
0.0000000000000000
 11
344.0280120876784
 21
166.5517822887545
 31
0.0000000000000000
  0
LINE
  5
3C7
100
AcDbEntity
  8
MAIN0
  6
CONTINUOUS
 62
3
100
AcDbLine
 10
302.4280120876784
 20
159.5517822887545
 30
0.0000000000000000
 11
340.4195729051751
 21
159.5517822887545
 31
0.0000000000000000
  0
LINE
  5
3C8
100
AcDbEntity
  8
MAIN0
  6
CONTINUOUS
 62
3
100
AcDbLine
 10
340.4195729051751
 20
159.5517822887545
 30
0.0000000000000000
 11
344.0280120876785
 21
165.8017822888820
 31
0.0000000000000000
  0
LINE
  5
3C9
100
AcDbEntity
  8
MAIN0
  6
CONTINUOUS
 62
3
100
AcDbLine
 10
342.3825638204158
 20
120.8544878687739
 30
0.0000000000000000
 11
342.3825638204158
 21
114.3044878687782
 31
0.0000000000000000
  0
LINE
  5
3CA
100
AcDbEntity
  8
MAIN0
  6
CONTINUOUS
 62
3
100
AcDbLine
 10
302.0280120876784
 20
120.8544878687739
 30
0.0000000000000000
 11
342.3825638204158
 21
120.8544878687739
 31
0.0000000000000000
  0
LINE
  5
3CB
100
AcDbEntity
  8
MAIN0
  6
CONTINUOUS
 62
3
100
AcDbLine
 10
302.0280120876784
 20
114.3044878687783
 30
0.0000000000000000
 11
342.3825638204158
 21
114.3044878687783
 31
0.0000000000000000
  0
LINE
  5
3CC
100
AcDbEntity
  8
MAIN0
  6
CONTINUOUS
 62
3
100
AcDbLine
 10
340.4195729051780
 20
114.3044878687783
 30
0.0000000000000000
 11
340.4195729051781
 21
111.6044878687739
 31
0.0000000000000000
  0
LINE
  5
3CD
100
AcDbEntity
  8
MAIN0
  6
CONTINUOUS
 62
3
100
AcDbLine
 10
340.4195729051775
 20
142.6044878687739
 30
0.0000000000000000
 11
340.4195729051779
 21
120.8544878687739
 31
0.0000000000000000
  0
LINE
  5
3CE
100
AcDbEntity
  8
MAIN0
  6
CONTINUOUS
 62
3
100
AcDbLine
 10
302.0280120876784
 20
173.1517822887545
 30
0.0000000000000000
 11
302.4280120876784
 21
173.5517822887545
 31
0.0000000000000000
  0
LINE
  5
3CF
100
AcDbEntity
  8
MAIN0
  6
CONTINUOUS
 62
3
100
AcDbLine
 10
302.0280120876785
 20
159.9517822887545
 30
0.0000000000000000
 11
302.4280120876784
 21
159.5517822887545
 31
0.0000000000000000
  0
LINE
  5
3D0
100
AcDbEntity
  8
MAIN0
  6
CONTINUOUS
 62
3
100
AcDbLine
 10
343.6280120876785
 20
142.6044878687738
 30
0.0000000000000000
 11
344.0280120876785
 21
142.2044878687739
 31
0.0000000000000000
  0
DIMENSION
  5
3D9
100
AcDbEntity
  8
MAIN0
  6
CONTINUOUS
 62
3
100
AcDbDimension
  2
*D42
 10
358.4897542795434
 20
142.6044878687739
 30
0.0000000000000000
 11
357.9897542795434
 21
125.3544878687739
 31
0.0000000000000000
 70
32
  3
MAIN001
100
AcDbAlignedDimension
 13
339.3280120876784
 23
108.1044878687739
 33
0.0000000000000000
 14
343.6280120876784
 24
142.6044878687739
 34
0.0000000000000000
 50
90.00000000000000
100
AcDbRotatedDimension
1001
ACAD
1000
DSTYLE
1002
{
1070
   173
1070
     1
1070
     6
1000
_OPEN
1070
     7
1000
_OPEN
1070
    41
1040
2.000000
1002
}
  0
DIMENSION
  5
3E2
100
AcDbEntity
  8
MAIN0
  6
CONTINUOUS
 62
3
100
AcDbDimension
  2
*D43
 10
302.0280120876784
 20
150.3480555965181
 30
0.0000000000000000
 11
323.0280120876784
 21
150.8480555965181
 31
0.0000000000000000
 70
32
  3
MAIN001
100
AcDbAlignedDimension
 13
344.0280120876784
 23
142.2044878687739
 33
0.0000000000000000
 14
302.0280120876784
 24
142.2044878687739
 34
0.0000000000000000
100
AcDbRotatedDimension
1001
ACAD
1000
DSTYLE
1002
{
1070
   173
1070
     1
1070
     6
1000
_OPEN
1070
     7
1000
_OPEN
1070
    41
1040
2.000000
1002
}
  0
LINE
  5
3E3
100
AcDbEntity
  8
MAIN0
  6
CENTER
 62
3
100
AcDbLine
 10
297.7291149246267
 20
166.5517822887545
 30
0.0000000000000000
 11
347.0625233794251
 21
166.5517822887545
 31
0.0000000000000000
  0
LINE
  5
3E4
100
AcDbEntity
  8
MAIN0
  6
CONTINUOUS
 62
3
100
AcDbLine
 10
344.0280120876784
 20
112.0044878687739
 30
0.0000000000000000
 11
344.0280120876784
 21
142.2044878687739
 31
0.0000000000000000
  0
LINE
  5
3E5
100
AcDbEntity
  8
MAIN0
  6
CONTINUOUS
 62
3
100
AcDbLine
 10
302.0280120876784
 20
112.0044878687739
 30
0.0000000000000000
 11
302.0280120876784
 21
142.2044878687739
 31
0.0000000000000000
  0
LINE
  5
3E6
100
AcDbEntity
  8
MAIN0
  6
PHANTOM
 62
3
100
AcDbLine
 10
116.6271146452400
 20
165.1045074611087
 30
0.0000000000000000
 11
123.8271146452400
 21
165.1045074611087
 31
0.0000000000000000
  0
LINE
  5
3E7
100
AcDbEntity
  8
MAIN0
  6
PHANTOM
 62
3
100
AcDbLine
 10
123.8271146452400
 20
165.1045074611087
 30
0.0000000000000000
 11
124.6271146452400
 21
166.4901481071638
 31
0.0000000000000000
  0
LINE
  5
3E8
100
AcDbEntity
  8
MAIN0
  6
PHANTOM
 62
3
100
AcDbLine
 10
124.6271146452400
 20
166.4901481071638
 30
0.0000000000000000
 11
124.6271146452400
 21
176.7188668150536
 31
0.0000000000000000
  0
LINE
  5
3E9
100
AcDbEntity
  8
MAIN0
  6
PHANTOM
 62
3
100
AcDbLine
 10
124.6271146452400
 20
176.7188668150536
 30
0.0000000000000000
 11
123.8271146452400
 21
178.1045074611087
 31
0.0000000000000000
  0
LINE
  5
3EA
100
AcDbEntity
  8
MAIN0
  6
PHANTOM
 62
3
100
AcDbLine
 10
123.8271146452400
 20
178.1045074611087
 30
0.0000000000000000
 11
116.6271146452400
 21
178.1045074611087
 31
0.0000000000000000
  0
LINE
  5
3EB
100
AcDbEntity
  8
MAIN0
  6
PHANTOM
 62
3
100
AcDbLine
 10
123.8271146452400
 20
165.1045074611087
 30
0.0000000000000000
 11
123.8271146452400
 21
178.1045074611087
 31
0.0000000000000000
  0
LINE
  5
3EC
100
AcDbEntity
  8
MAIN0
  6
PHANTOM
 62
3
100
AcDbLine
 10
116.6271146452400
 20
167.6045074611087
 30
0.0000000000000000
 11
56.62711464524000
 21
167.6045074611087
 31
0.0000000000000000
  0
LINE
  5
3ED
100
AcDbEntity
  8
MAIN0
  6
PHANTOM
 62
3
100
AcDbLine
 10
56.62711464524000
 20
167.6045074611087
 30
0.0000000000000000
 11
56.62711464524000
 21
175.6045074611087
 31
0.0000000000000000
  0
LINE
  5
3EE
100
AcDbEntity
  8
MAIN0
  6
PHANTOM
 62
3
100
AcDbLine
 10
56.62711464524000
 20
175.6045074611087
 30
0.0000000000000000
 11
116.6271146452400
 21
175.6045074611087
 31
0.0000000000000000
  0
LINE
  5
3EF
100
AcDbEntity
  8
MAIN0
  6
PHANTOM
 62
3
100
AcDbLine
 10
84.62711464524000
 20
168.2810899611087
 30
0.0000000000000000
 11
56.62711464524000
 21
168.2810899611087
 31
0.0000000000000000
  0
LINE
  5
3F0
100
AcDbEntity
  8
MAIN0
  6
PHANTOM
 62
3
100
AcDbLine
 10
84.62711464524000
 20
174.9279249611087
 30
0.0000000000000000
 11
56.62711464524000
 21
174.9279249611087
 31
0.0000000000000000
  0
LINE
  5
3F1
100
AcDbEntity
  8
MAIN0
  6
PHANTOM
 62
3
100
AcDbLine
 10
84.62711464524000
 20
167.6045074611087
 30
0.0000000000000000
 11
84.62711464524000
 21
175.6045074611087
 31
0.0000000000000000
  0
ARC
  5
3F2
100
AcDbEntity
  8
MAIN0
  6
CONTINUOUS
 62
3
100
AcDbCircle
 10
348.6243275418232
 20
191.0795594894086
 30
0.0000000000000000
 40
5.200000000000000
100
AcDbArc
 50
84.71513723192193
 51
95.28486276815923
  0
ARC
  5
3F3
100
AcDbEntity
  8
MAIN0
  6
CONTINUOUS
 62
3
100
AcDbCircle
 10
348.6243275418232
 20
191.0795594894086
 30
0.0000000000000000
 40
5.200000000000000
100
AcDbArc
 50
264.7151372319225
 51
275.2848627681573
  0
ARC
  5
3F4
100
AcDbEntity
  8
MAIN0
  6
CONTINUOUS
 62
3
100
AcDbCircle
 10
348.6243275418232
 20
191.0795594894086
 30
0.0000000000000000
 40
5.200000000000000
100
AcDbArc
 50
354.7151372318133
 51
365.2848627682694
  0
ARC
  5
3F5
100
AcDbEntity
  8
MAIN0
  6
CONTINUOUS
 62
3
100
AcDbCircle
 10
348.6243275418232
 20
191.0795594894086
 30
0.0000000000000000
 40
5.200000000000000
100
AcDbArc
 50
174.7151372318110
 51
185.2848627682691
  0
MTEXT
  5
3F6
100
AcDbEntity
  8
A0
  6
CONTINUOUS
 62
3
100
AcDbMText
 10
118.9322050480997
 20
-19.98982951176510
 30
0.0000000000000000
 40
4.649999856948853
 41
0.0000000000000000
 71
     1
 72
     1
  1
{\H0.93x;{\U+22053～\U+220595}}
 11
1.000000000000000
 21
0.0000000000000000
 31
0.0000000000000000
  7
KNJYOKO
  0
MTEXT
  5
3F7
100
AcDbEntity
  8
A0
  6
CONTINUOUS
 62
3
100
AcDbMText
 10
118.9322050480997
 20
-30.48982951176510
 30
0.0000000000000000
 40
4.649999856948853
 41
0.0000000000000000
 71
     1
 72
     1
  1
{\H0.93x;{\U+220529～\U+220584}}
 11
1.000000000000000
 21
0.0000000000000000
 31
0.0000000000000000
  7
KNJYOKO
  0
MTEXT
  5
3F8
100
AcDbEntity
  8
A0
  6
CONTINUOUS
 62
3
100
AcDbMText
 10
123.4322050481431
 20
51.76017048823999
 30
0.0000000000000000
 40
4.649999856948853
 41
0.0000000000000000
 71
     1
 72
     1
  1
{\H0.81x;{44.1}}
 11
1.000000000000000
 21
0.0000000000000000
 31
0.0000000000000000
  7
STANDARD
  0
MTEXT
  5
3F9
100
AcDbEntity
  8
A0
  6
CONTINUOUS
 62
3
100
AcDbMText
 10
123.4322050481431
 20
45.01017048823999
 30
0.0000000000000000
 40
4.649999856948853
 41
0.0000000000000000
 71
     1
 72
     1
  1
{\H0.76x;{4.5}}
 11
1.000000000000000
 21
0.0000000000000000
 31
0.0000000000000000
  7
STANDARD
  0
MTEXT
  5
3FA
100
AcDbEntity
  8
A0
  6
CONTINUOUS
 62
3
100
AcDbMText
 10
123.4322050481431
 20
36.76017048823982
 30
0.0000000000000000
 40
4.649999856948853
 41
0.0000000000000000
 71
     1
 72
     1
  1
{\H0.88x;{12}}
 11
1.000000000000000
 21
0.0000000000000000
 31
0.0000000000000000
  7
STANDARD
  0
MTEXT
  5
3FB
100
AcDbEntity
  8
A0
  6
CONTINUOUS
 62
3
100
AcDbMText
 10
123.4322050481431
 20
30.01017048823982
 30
0.0000000000000000
 40
4.649999856948853
 41
0.0000000000000000
 71
     1
 72
     1
  1
{\H0.91x;{1224}}
 11
1.000000000000000
 21
0.0000000000000000
 31
0.0000000000000000
  7
STANDARD
  0
MTEXT
  5
3FC
100
AcDbEntity
  8
A0
  6
CONTINUOUS
 62
3
100
AcDbMText
 10
123.4322050481431
 20
18.01017048823982
 30
0.0000000000000000
 40
4.649999856948853
 41
0.0000000000000000
 71
     1
 72
     1
  1
{\H0.91x;{2500}}
 11
1.000000000000000
 21
0.0000000000000000
 31
0.0000000000000000
  7
STANDARD
  0
MTEXT
  5
3FD
100
AcDbEntity
  8
A0
  6
CONTINUOUS
 62
3
100
AcDbMText
 10
123.4322050481431
 20
5.510170488239794
 30
0.0000000000000000
 40
4.649999856948853
 41
0.0000000000000000
 71
     1
 72
     1
  1
{\H0.76x;{3.1}}
 11
1.000000000000000
 21
0.0000000000000000
 31
0.0000000000000000
  7
STANDARD
  0
MTEXT
  5
3FE
100
AcDbEntity
  8
A0
  6
CONTINUOUS
 62
3
100
AcDbMText
 10
71.39587516414801
 20
-17.66321924393003
 30
0.0000000000000000
 40
3.750000000000000
 41
0.0000000000000000
 71
     1
 72
     1
  1
{\H0.63x;{EXTERNAL\PGRIPPING}}
 11
1.000000000000000
 21
0.0000000000000000
 31
0.0000000000000000
  7
STANDARD
  0
MTEXT
  5
3FF
100
AcDbEntity
  8
A0
  6
CONTINUOUS
 62
3
100
AcDbMText
 10
71.31826102137177
 20
-28.29629786726787
 30
0.0000000000000000
 40
3.750000000000000
 41
0.0000000000000000
 71
     1
 72
     1
  1
{\H0.63x;{INTERNALLY\PGRIPPING}}
 11
1.000000000000000
 21
0.0000000000000000
 31
0.0000000000000000
  7
STANDARD
  0
LINE
  5
400
100
AcDbEntity
  8
A0
  6
CONTINUOUS
 62
3
100
AcDbLine
 10
40.93220504814312
 20
-38.13982936871395
 30
0.0000000000000000
 11
160.9322050481431
 21
-38.13982936871386
 31
0.0000000000000000
  0
LINE
  5
401
100
AcDbEntity
  8
A0
  6
CONTINUOUS
 62
3
100
AcDbLine
 10
70.18220504814300
 20
-38.13982936871383
 30
0.0000000000000000
 11
70.18220504814300
 21
-17.13982936871395
 31
0.0000000000000000
  0
MTEXT
  5
402
100
AcDbEntity
  8
A0
  6
CONTINUOUS
 62
3
100
AcDbMText
 10
94.75760542523103
 20
-19.94538155970491
 30
0.0000000000000000
 40
4.649999856948853
 41
0.0000000000000000
 71
     1
 72
     1
  1
{\H0.92x;{外径把握}}
 11
1.000000000000000
 21
0.0000000000000000
 31
0.0000000000000000
  7
KNJYOKO
  0
MTEXT
  5
403
100
AcDbEntity
  8
A0
  6
CONTINUOUS
 62
3
100
AcDbMText
 10
94.75760542523103
 20
-30.65607432581891
 30
0.0000000000000000
 40
4.649999856948853
 41
0.0000000000000000
 71
     1
 72
     1
  1
{\H0.92x;{内径把握}}
 11
1.000000000000000
 21
0.0000000000000000
 31
0.0000000000000000
  7
KNJYOKO
  0
MTEXT
  5
404
100
AcDbEntity
  8
A0
  6
CONTINUOUS
 62
3
100
AcDbMText
 10
53.62233224102560
 20
-32.59119062607027
 30
0.0000000000000000
 40
4.500000000000000
 41
0.0000000000000000
 71
     1
 72
     1
  1
{\H0.63x;{(mm)}}
 11
1.000000000000000
 21
0.0000000000000000
 31
0.0000000000000000
  7
STANDARD
  0
MTEXT
  5
405
100
AcDbEntity
  8
A0
  6
CONTINUOUS
 62
3
100
AcDbMText
 10
44.68220504814459
 20
21.63517048828214
 30
0.0000000000000000
 40
4.649999856948853
 41
0.0000000000000000
 71
     1
 72
     1
  1
{\H0.94x;{許容最高回転速度　}}
 11
1.000000000000000
 21
0.0000000000000000
 31
0.0000000000000000
  7
KNJYOKO
  0
LINE
  5
406
100
AcDbEntity
  8
A0
  6
CONTINUOUS
 62
3
100
AcDbLine
 10
70.18220504814309
 20
-27.63982936871391
 30
0.0000000000000000
 11
160.9322050481430
 21
-27.63982936871382
 31
0.0000000000000000
  0
LINE
  5
407
100
AcDbEntity
  8
A0
  6
CONTINUOUS
 62
3
100
AcDbLine
 10
40.93220504814296
 20
64.36017063134366
 30
0.0000000000000000
 11
160.9322050481430
 21
64.36017063138003
 31
0.0000000000000000
  0
LINE
  5
408
100
AcDbEntity
  8
A0
  6
CONTINUOUS
 62
3
100
AcDbLine
 10
40.93220504814293
 20
53.86017063134071
 30
0.0000000000000000
 11
160.9322050481431
 21
53.86017063137498
 31
0.0000000000000000
  0
LINE
  5
409
100
AcDbEntity
  8
A0
  6
CONTINUOUS
 62
3
100
AcDbLine
 10
40.93220504814305
 20
38.86017063133079
 30
0.0000000000000000
 11
160.9322050481431
 21
38.86017063135807
 31
0.0000000000000000
  0
LINE
  5
40A
100
AcDbEntity
  8
A0
  6
CONTINUOUS
 62
3
100
AcDbLine
 10
40.93220504814291
 20
23.86017063132641
 30
0.0000000000000000
 11
160.9322050481430
 21
23.86017063135067
 31
0.0000000000000000
  0
LINE
  5
40B
100
AcDbEntity
  8
A0
  6
CONTINUOUS
 62
3
100
AcDbLine
 10
40.93220504814290
 20
8.360170631323378
 30
0.0000000000000000
 11
160.9322050481430
 21
8.360170631345632
 31
0.0000000000000000
  0
LINE
  5
40C
100
AcDbEntity
  8
A0
  6
CONTINUOUS
 62
3
100
AcDbLine
 10
40.93220504814293
 20
-2.139829368679614
 30
0.0000000000000000
 11
160.9322050481430
 21
-2.139829368659491
 31
0.0000000000000000
  0
LINE
  5
40D
100
AcDbEntity
  8
A0
  6
CONTINUOUS
 62
3
100
AcDbLine
 10
40.93220504814308
 20
-17.13982936871395
 30
0.0000000000000000
 11
160.9322050481431
 21
-17.13982936871391
 31
0.0000000000000000
  0
LINE
  5
40E
100
AcDbEntity
  8
A0
  6
CONTINUOUS
 62
3
100
AcDbLine
 10
40.93220504814301
 20
-38.13982936871395
 30
0.0000000000000000
 11
40.93220504814301
 21
64.36017063129114
 31
0.0000000000000000
  0
LINE
  5
40F
100
AcDbEntity
  8
A0
  6
CONTINUOUS
 62
3
100
AcDbLine
 10
115.9322050481431
 20
-38.13982936871383
 30
0.0000000000000000
 11
115.9322050481431
 21
53.86017063136171
 31
0.0000000000000000
  0
LINE
  5
410
100
AcDbEntity
  8
A0
  6
CONTINUOUS
 62
3
100
AcDbLine
 10
160.9322050481430
 20
-38.13982936871383
 30
0.0000000000000000
 11
160.9322050481430
 21
64.36017063129114
 31
0.0000000000000000
  0
MTEXT
  5
411
100
AcDbEntity
  8
A0
  6
CONTINUOUS
 62
3
100
AcDbMText
 10
44.68220504814474
 20
52.13517120354533
 30
0.0000000000000000
 40
4.650000572204590
 41
0.0000000000000000
 71
     1
 72
     1
  1
{\H0.94x;{許容最大ハンドルトルク}}
 11
1.000000000000000
 21
0.0000000000000000
 31
0.0000000000000000
  7
KNJYOKO
  0
MTEXT
  5
412
100
AcDbEntity
  8
A0
  6
CONTINUOUS
 62
3
100
AcDbMText
 10
44.68220504814461
 20
37.13517120354089
 30
0.0000000000000000
 40
4.650000572204590
 41
0.0000000000000000
 71
     1
 72
     1
  1
{\H0.94x;{最大静的把握力}}
 11
1.000000000000000
 21
0.0000000000000000
 31
0.0000000000000000
  7
KNJYOKO
  0
MTEXT
  5
413
100
AcDbEntity
  8
A0
  6
CONTINUOUS
 62
3
100
AcDbMText
 10
43.93220504814314
 20
5.510171203524976
 30
0.0000000000000000
 40
4.650000572204590
 41
0.0000000000000000
 71
     1
 72
     1
  1
{\H0.90x;{質量}}
 11
1.000000000000000
 21
0.0000000000000000
 31
0.0000000000000000
  7
KNJYOKO
  0
MTEXT
  5
414
100
AcDbEntity
  8
A0
  6
CONTINUOUS
 62
3
100
AcDbMText
 10
45.78417201319062
 20
-18.90651550526127
 30
0.0000000000000000
 40
4.650000572204590
 41
0.0000000000000000
 71
     1
 72
     1
  1
{\H0.96x;{把握径}}
 11
1.000000000000000
 21
0.0000000000000000
 31
0.0000000000000000
  7
KNJYOKO
  0
MTEXT
  5
415
100
AcDbEntity
  8
A0
  6
CONTINUOUS
 62
3
100
AcDbMText
 10
49.43120605954334
 20
62.65858782354627
 30
0.0000000000000000
 40
7.500000000000000
 41
0.0000000000000000
 71
     1
 72
     1
  1
{\H0.91x;{仕　様}}
 11
1.000000000000000
 21
0.0000000000000000
 31
0.0000000000000000
  7
KNJYOKO
  0
MTEXT
  5
416
100
AcDbEntity
  8
A0
  6
CONTINUOUS
 62
3
100
AcDbMText
 10
138.4322050481430
 20
51.31016948688196
 30
0.0000000000000000
 40
4.199998855590820
 41
0.0000000000000000
 71
     1
 72
     1
  1
{\H0.58x;{　　　Ｎ・ｍ}}
 11
1.000000000000000
 21
0.0000000000000000
 31
0.0000000000000000
  7
KNJYOKO
  0
MTEXT
  5
417
100
AcDbEntity
  8
A0
  6
CONTINUOUS
 62
3
100
AcDbMText
 10
118.9322050481431
 20
44.56016948688196
 30
0.0000000000000000
 40
4.199998855590820
 41
0.0000000000000000
 71
     1
 72
     1
  1
{\H0.48x;{（}}
 11
1.000000000000000
 21
0.0000000000000000
 31
0.0000000000000000
  7
KNJYOKO
  0
MTEXT
  5
418
100
AcDbEntity
  8
A0
  6
CONTINUOUS
 62
3
100
AcDbMText
 10
136.9322050481430
 20
44.56016948688196
 30
0.0000000000000000
 40
4.199998855590820
 41
0.0000000000000000
 71
     1
 72
     1
  1
{\H0.58x;{　ｋｇｆ・ｍ）}}
 11
1.000000000000000
 21
0.0000000000000000
 31
0.0000000000000000
  7
KNJYOKO
  0
MTEXT
  5
419
100
AcDbEntity
  8
A0
  6
CONTINUOUS
 62
3
100
AcDbMText
 10
138.4322050481430
 20
5.060169486881762
 30
0.0000000000000000
 40
4.199998855590820
 41
0.0000000000000000
 71
     1
 72
     1
  1
{\H0.58x;{　　　　ｋｇ}}
 11
1.000000000000000
 21
0.0000000000000000
 31
0.0000000000000000
  7
KNJYOKO
  0
MTEXT
  5
41A
100
AcDbEntity
  8
A0
  6
CONTINUOUS
 62
3
100
AcDbMText
 10
138.4322050481430
 20
36.31016948688179
 30
0.0000000000000000
 40
4.199998855590820
 41
0.0000000000000000
 71
     1
 72
     1
  1
{\H0.58x;{　　　　ｋＮ}}
 11
1.000000000000000
 21
0.0000000000000000
 31
0.0000000000000000
  7
KNJYOKO
  0
MTEXT
  5
41B
100
AcDbEntity
  8
A0
  6
CONTINUOUS
 62
3
100
AcDbMText
 10
118.9322050481431
 20
29.56016948688179
 30
0.0000000000000000
 40
4.199998855590820
 41
0.0000000000000000
 71
     1
 72
     1
  1
{\H0.48x;{（}}
 11
1.000000000000000
 21
0.0000000000000000
 31
0.0000000000000000
  7
KNJYOKO
  0
MTEXT
  5
41C
100
AcDbEntity
  8
A0
  6
CONTINUOUS
 62
3
100
AcDbMText
 10
136.9322050481430
 20
29.56016948688179
 30
0.0000000000000000
 40
4.199998855590820
 41
0.0000000000000000
 71
     1
 72
     1
  1
{\H0.58x;{　　　ｋｇｆ）}}
 11
1.000000000000000
 21
0.0000000000000000
 31
0.0000000000000000
  7
KNJYOKO
  0
MTEXT
  5
41D
100
AcDbEntity
  8
A0
  6
CONTINUOUS
 62
3
100
AcDbMText
 10
88.18091611750975
 20
61.32818087258744
 30
0.0000000000000000
 40
4.649999856948853
 41
0.0000000000000000
 71
     1
 72
     1
  1
{\H0.93x;{SPECIFICATIONS}}
 11
1.000000000000000
 21
0.0000000000000000
 31
0.0000000000000000
  7
STANDARD
  0
MTEXT
  5
41E
100
AcDbEntity
  8
A0
  6
CONTINUOUS
 62
3
100
AcDbMText
 10
44.68220504814263
 20
44.48517063133082
 30
0.0000000000000000
 40
3.750000000000000
 41
0.0000000000000000
 71
     1
 72
     1
  1
{\H0.62x;{MAX.PERMISSIBLE HANDLE TORQUE}}
 11
1.000000000000000
 21
0.0000000000000000
 31
0.0000000000000000
  7
STANDARD
  0
MTEXT
  5
41F
100
AcDbEntity
  8
A0
  6
CONTINUOUS
 62
3
100
AcDbMText
 10
44.68220504814250
 20
29.48517063132641
 30
0.0000000000000000
 40
3.750000000000000
 41
0.0000000000000000
 71
     1
 72
     1
  1
{\H0.63x;{MAX STATIC GRIPPING FORCE}}
 11
1.000000000000000
 21
0.0000000000000000
 31
0.0000000000000000
  7
STANDARD
  0
MTEXT
  5
420
100
AcDbEntity
  8
A0
  6
CONTINUOUS
 62
3
100
AcDbMText
 10
44.68220504814248
 20
13.98517063132334
 30
0.0000000000000000
 40
3.750000000000000
 41
0.0000000000000000
 71
     1
 72
     1
  1
{\H0.63x;{MAX PREMISSIBLE SPEED}}
 11
1.000000000000000
 21
0.0000000000000000
 31
0.0000000000000000
  7
STANDARD
  0
MTEXT
  5
421
100
AcDbEntity
  8
A0
  6
CONTINUOUS
 62
3
100
AcDbMText
 10
41.98518037851718
 20
-26.49274227763164
 30
0.0000000000000000
 40
3.750000000000000
 41
0.0000000000000000
 71
     1
 72
     1
  1
{\H0.54x;{GRIPPING RANGE}}
 11
1.000000000000000
 21
0.0000000000000000
 31
0.0000000000000000
  7
STANDARD
  0
MTEXT
  5
422
100
AcDbEntity
  8
A0
  6
CONTINUOUS
 62
3
100
AcDbMText
 10
69.28569193119165
 20
5.583352967588326
 30
0.0000000000000000
 40
4.650000572204590
 41
0.0000000000000000
 71
     1
 72
     1
  1
{\H0.91x;{MASS}}
 11
1.000000000000000
 21
0.0000000000000000
 31
0.0000000000000000
  7
STANDARD
  0
MTEXT
  5
423
100
AcDbEntity
  8
A0
  6
CONTINUOUS
 62
3
100
AcDbMText
 10
141.4322050481431
 20
17.56016948688179
 30
0.0000000000000000
 40
4.199998855590820
 41
0.0000000000000000
 71
     1
 72
     1
  1
{\H0.57x;{　ｍｉｎ}}
 11
1.000000000000000
 21
0.0000000000000000
 31
0.0000000000000000
  7
KNJYOKO
  0
MTEXT
  5
424
100
AcDbEntity
  8
A0
  6
CONTINUOUS
 62
3
100
AcDbMText
 10
153.6642074206229
 20
18.56448631622394
 30
0.0000000000000000
 40
3.000000000000000
 41
0.0000000000000000
 71
     1
 72
     1
  1
{\H0.88x;{-1}}
 11
1.000000000000000
 21
0.0000000000000000
 31
0.0000000000000000
  7
STANDARD
  0
MTEXT
  5
425
100
AcDbEntity
  8
A0
  6
CONTINUOUS
 62
3
100
AcDbMText
 10
119.0621166430371
 20
-7.256845165137747
 30
0.0000000000000000
 40
4.649999856948853
 41
0.0000000000000000
 71
     1
 72
     1
  1
{\H0.84x;{0.004}}
 11
1.000000000000000
 21
0.0000000000000000
 31
0.0000000000000000
  7
STANDARD
  0
MTEXT
  5
426
100
AcDbEntity
  8
A0
  6
CONTINUOUS
 62
3
100
AcDbMText
 10
138.5621166430371
 20
-7.706846166495780
 30
0.0000000000000000
 40
4.199998855590820
 41
0.0000000000000000
 71
     1
 72
     1
  1
{\H0.64x;{　　kg・m}}
 11
1.000000000000000
 21
0.0000000000000000
 31
0.0000000000000000
  7
KNJYOKO
  0
MTEXT
  5
427
100
AcDbEntity
  8
A0
  6
CONTINUOUS
 62
3
100
AcDbMText
 10
156.4279356049723
 20
-7.323490279798079
 30
0.0000000000000000
 40
3.000000000000000
 41
0.0000000000000000
 71
     1
 72
     1
  1
{\H0.81x;{2}}
 11
1.000000000000000
 21
0.0000000000000000
 31
0.0000000000000000
  7
STANDARD
  0
MTEXT
  5
428
100
AcDbEntity
  8
A0
  6
CONTINUOUS
 62
3
100
AcDbMText
 10
44.03886277562339
 20
-6.947538781162791
 30
0.0000000000000000
 40
4.650000572204590
 41
0.0000000000000000
 71
     1
 72
     1
  1
{\H0.94x;{慣性モーメント}}
 11
1.000000000000000
 21
0.0000000000000000
 31
0.0000000000000000
  7
KNJYOKO
  0
LINE
  5
429
100
AcDbEntity
  8
WAKU0
  6
CONTINUOUS
 62
3
100
AcDbLine
 10
325.5367160461030
 20
28.91243240698060
 30
0.0000000000000000
 11
495.5367160461030
 21
28.91243240698060
 31
0.0000000000000000
  0
LINE
  5
42A
100
AcDbEntity
  8
WAKU0
  6
CONTINUOUS
 62
3
100
AcDbLine
 10
325.5367160461030
 20
28.91243240698060
 30
0.0000000000000000
 11
325.5367160461030
 21
-10.08756759301940
 31
0.0000000000000000
  0
LINE
  5
42B
100
AcDbEntity
  8
WAKU0
  6
CONTINUOUS
 62
3
100
AcDbLine
 10
397.5367160461030
 20
28.91243240698060
 30
0.0000000000000000
 11
397.5367160461030
 21
-10.08756759301940
 31
0.0000000000000000
  0
LINE
  5
42C
100
AcDbEntity
  8
WAKU0
  6
CONTINUOUS
 62
3
100
AcDbLine
 10
417.5367160461030
 20
28.91243240698060
 30
0.0000000000000000
 11
417.5367160461030
 21
-10.08756759301940
 31
0.0000000000000000
  0
LINE
  5
42D
100
AcDbEntity
  8
WAKU0
  6
CONTINUOUS
 62
3
100
AcDbLine
 10
429.5367160461030
 20
28.91243240698060
 30
0.0000000000000000
 11
429.5367160461030
 21
-10.08756759301940
 31
0.0000000000000000
  0
LINE
  5
42E
100
AcDbEntity
  8
WAKU0
  6
CONTINUOUS
 62
3
100
AcDbLine
 10
429.5367160461030
 20
14.91243240698060
 30
0.0000000000000000
 11
495.5367160461030
 21
14.91243240698060
 31
0.0000000000000000
  0
LINE
  5
42F
100
AcDbEntity
  8
WAKU0
  6
CONTINUOUS
 62
3
100
AcDbLine
 10
417.5367160461030
 20
0.9124324069805994
 30
0.0000000000000000
 11
495.5367160461030
 21
0.9124324069805994
 31
0.0000000000000000
  0
LINE
  5
430
100
AcDbEntity
  8
WAKU0
  6
CONTINUOUS
 62
3
100
AcDbLine
 10
460.5367160461030
 20
28.91243240698060
 30
0.0000000000000000
 11
460.5367160461030
 21
21.91243240698060
 31
0.0000000000000000
  0
LINE
  5
431
100
AcDbEntity
  8
WAKU0
  6
CONTINUOUS
 62
3
100
AcDbLine
 10
472.5367160461030
 20
28.91243240698060
 30
0.0000000000000000
 11
472.5367160461030
 21
21.91243240698060
 31
0.0000000000000000
  0
LINE
  5
432
100
AcDbEntity
  8
WAKU0
  6
CONTINUOUS
 62
3
100
AcDbLine
 10
397.5367160461030
 20
9.412432406980599
 30
0.0000000000000000
 11
417.5367160461030
 21
9.412432406980599
 31
0.0000000000000000
  0
LINE
  5
433
100
AcDbEntity
  8
WAKU0
  6
CONTINUOUS
 62
3
100
AcDbLine
 10
417.5367160461030
 20
21.91243240698060
 30
0.0000000000000000
 11
495.5367160461030
 21
21.91243240698060
 31
0.0000000000000000
  0
LINE
  5
434
100
AcDbEntity
  8
WAKU0
  6
CONTINUOUS
 62
3
100
AcDbLine
 10
325.5367160461030
 20
14.91243240698060
 30
0.0000000000000000
 11
397.5367160461030
 21
14.91243240698060
 31
0.0000000000000000
  0
LINE
  5
435
100
AcDbEntity
  8
WAKU0
  6
CONTINUOUS
 62
3
100
AcDbLine
 10
325.5367160461030
 20
0.9124324069805994
 30
0.0000000000000000
 11
397.5367160461030
 21
0.9124324069805994
 31
0.0000000000000000
  0
LINE
  5
436
100
AcDbEntity
  8
WAKU0
  6
CONTINUOUS
 62
3
100
AcDbLine
 10
373.5367160461030
 20
14.91243240698060
 30
0.0000000000000000
 11
373.5367160461030
 21
-10.08756759301940
 31
0.0000000000000000
  0
LINE
  5
437
100
AcDbEntity
  8
WAKU0
  6
CONTINUOUS
 62
3
100
AcDbLine
 10
349.5367160461030
 20
14.91243240698060
 30
0.0000000000000000
 11
349.5367160461030
 21
0.9124324069805994
 31
0.0000000000000000
  0
LINE
  5
438
100
AcDbEntity
  8
WAKU0
  6
CONTINUOUS
 62
3
100
AcDbLine
 10
385.5367160461030
 20
3.912432406980599
 30
0.0000000000000000
 11
385.5367160461030
 21
0.9124324069805994
 31
0.0000000000000000
  0
LINE
  5
439
100
AcDbEntity
  8
WAKU0
  6
CONTINUOUS
 62
3
100
AcDbLine
 10
361.5367160461030
 20
3.912432406980599
 30
0.0000000000000000
 11
361.5367160461030
 21
0.9124324069805994
 31
0.0000000000000000
  0
LINE
  5
43A
100
AcDbEntity
  8
WAKU0
  6
CONTINUOUS
 62
3
100
AcDbLine
 10
337.5367160461030
 20
3.912432406980599
 30
0.0000000000000000
 11
337.5367160461030
 21
0.9124324069805994
 31
0.0000000000000000
  0
LINE
  5
43B
100
AcDbEntity
  8
WAKU0
  6
CONTINUOUS
 62
3
100
AcDbLine
 10
343.5367160461030
 20
28.91243240698060
 30
0.0000000000000000
 11
343.5367160461030
 21
14.91243240698060
 31
0.0000000000000000
  0
LINE
  5
43C
100
AcDbEntity
  8
WAKU0
  6
CONTINUOUS
 62
3
100
AcDbLine
 10
325.5367160461030
 20
22.91243240698060
 30
0.0000000000000000
 11
397.5367160461030
 21
22.91243240698060
 31
0.0000000000000000
  0
LINE
  5
43D
100
AcDbEntity
  8
WAKU0
  6
HIDDEN
 62
3
100
AcDbLine
 10
446.0367160461030
 20
0.9124324069805994
 30
0.0000000000000000
 11
446.0367160461030
 21
-10.08756759301940
 31
0.0000000000000000
  0
LINE
  5
43E
100
AcDbEntity
  8
WAKU0
  6
HIDDEN
 62
3
100
AcDbLine
 10
458.4367160461030
 20
0.9124324069805994
 30
0.0000000000000000
 11
458.4367160461030
 21
-10.08756759301940
 31
0.0000000000000000
  0
MTEXT
  5
43F
100
AcDbEntity
  8
WAKU0
  6
CONTINUOUS
 62
3
100
AcDbMText
 10
430.0187160704515
 20
26.96243235929688
 30
0.0000000000000000
 40
3.099999904632568
 41
0.0000000000000000
 71
     1
 72
     1
  1
{\H0.93x;{SC-4F-112}}
 11
1.000000000000000
 21
0.0000000000000000
 31
0.0000000000000000
  7
STANDARD
  0
MTEXT
  5
440
100
AcDbEntity
  8
WAKU0
  6
CONTINUOUS
 62
3
100
AcDbMText
 10
430.1567160362682
 20
20.41243240698060
 30
0.0000000000000000
 40
4.000000000000000
 41
0.0000000000000000
 71
     1
 72
     1
  1
{\H0.94x;{スクロールチャック　４　}}
 11
1.000000000000000
 21
0.0000000000000000
 31
0.0000000000000000
  7
KNJYOKO
  0
MTEXT
  5
441
100
AcDbEntity
  8
WAKU0
  6
CONTINUOUS
 62
3
100
AcDbMText
 10
430.1567160362682
 20
9.912432406980599
 30
0.0000000000000000
 40
4.000000000000000
 41
0.0000000000000000
 71
     1
 72
     1
  1
{\H0.94x;{ＳＣ－４Ｆ－１１２ガイケイ}}
 11
1.000000000000000
 21
0.0000000000000000
 31
0.0000000000000000
  7
KNJYOKO
  0
MTEXT
  5
442
100
AcDbEntity
  8
WAKU0
  6
CONTINUOUS
 62
3
100
AcDbMText
 10
403.5417159221253
 20
17.21243235929688
 30
0.0000000000000000
 40
3.099999904632568
 41
0.0000000000000000
 71
     1
 72
     1
  1
{\H0.90x;{1:1}}
 11
1.000000000000000
 21
0.0000000000000000
 31
0.0000000000000000
  7
STANDARD
  0
MTEXT
  5
443
100
AcDbEntity
  8
WAKU0
  6
CONTINUOUS
 62
3
100
AcDbMText
 10
459.9367162010751
 20
-1.937567497651969
 30
0.0000000000000000
 40
5.300000190734863
 41
0.0000000000000000
 71
     1
 72
     1
  1
{\H0.90x;{2782}}
 11
1.000000000000000
 21
0.0000000000000000
 31
0.0000000000000000
  7
STANDARD
  0
MTEXT
  5
444
100
AcDbEntity
  8
WAKU0
  6
CONTINUOUS
 62
3
100
AcDbMText
 10
447.8367161295495
 20
-1.937567497651969
 30
0.0000000000000000
 40
5.300000190734863
 41
0.0000000000000000
 71
     1
 72
     1
  1
{\H0.87x;{35}}
 11
1.000000000000000
 21
0.0000000000000000
 31
0.0000000000000000
  7
STANDARD
  0
MTEXT
  5
445
100
AcDbEntity
  8
WAKU0
  6
CONTINUOUS
 62
3
100
AcDbMText
 10
431.0367161653123
 20
-1.937567497651969
 30
0.0000000000000000
 40
5.300000190734863
 41
0.0000000000000000
 71
     1
 72
     1
  1
{\H0.89x;{61S}}
 11
1.000000000000000
 21
0.0000000000000000
 31
0.0000000000000000
  7
STANDARD
  0
MTEXT
  5
446
100
AcDbEntity
  8
WAKU0
  6
CONTINUOUS
 62
3
100
AcDbMText
 10
485.5367160937867
 20
-1.937567497651969
 30
0.0000000000000000
 40
5.300000190734863
 41
0.0000000000000000
 71
     1
 72
     1
  1
{\H0.81x;{2}}
 11
1.000000000000000
 21
0.0000000000000000
 31
0.0000000000000000
  7
STANDARD
  0
MTEXT
  5
447
100
AcDbEntity
  8
WAKU0
  6
CONTINUOUS
 62
3
100
AcDbMText
 10
485.5367161280594
 20
22.76243231161317
 30
0.0000000000000000
 40
5.300000190734863
 41
0.0000000000000000
 71
     7
 72
     1
  1
{\H0.81x;{ }}
 11
1.000000000000000
 21
0.0000000000000000
 31
0.0000000000000000
  7
STANDARD
  0
MTEXT
  5
448
100
AcDbEntity
  8
WAKU0
  6
CONTINUOUS
 62
3
100
AcDbMText
 10
374.9217163345895
 20
10.91243240698060
 30
0.0000000000000000
 40
3.000000000000000
 41
0.0000000000000000
 71
     7
 72
     1
  1
{\H0.93x;{DRAWN BY}}
 11
1.000000000000000
 21
0.0000000000000000
 31
0.0000000000000000
  7
STANDARD
  0
MTEXT
  5
449
100
AcDbEntity
  8
WAKU0
  6
CONTINUOUS
 62
3
100
AcDbMText
 10
354.7517158410630
 20
10.86243245466432
 30
0.0000000000000000
 40
3.099999904632568
 41
0.0000000000000000
 71
     7
 72
     1
  1
{\H0.92x;{CHIEF}}
 11
1.000000000000000
 21
0.0000000000000000
 31
0.0000000000000000
  7
STANDARD
  0
MTEXT
  5
44A
100
AcDbEntity
  8
WAKU0
  6
CONTINUOUS
 62
3
100
AcDbMText
 10
327.9617157600007
 20
10.86243245466432
 30
0.0000000000000000
 40
3.099999904632568
 41
0.0000000000000000
 71
     7
 72
     1
  1
{\H0.92x;{MANAGER}}
 11
1.000000000000000
 21
0.0000000000000000
 31
0.0000000000000000
  7
STANDARD
  0
MTEXT
  5
44B
100
AcDbEntity
  8
WAKU0
  6
CONTINUOUS
 62
3
100
AcDbMText
 10
330.1967154762826
 20
-3.954234227896923
 30
0.0000000000000000
 40
3.099999904632568
 41
0.0000000000000000
 71
     7
 72
     1
  1
{\H0.93x;{KITAGAWA IRON\PWORKS CO.,LTD.}}
 11
1.000000000000000
 21
0.0000000000000000
 31
0.0000000000000000
  7
STANDARD
  0
MTEXT
  5
44C
100
AcDbEntity
  8
WAKU0
  6
CONTINUOUS
 62
3
100
AcDbMText
 10
326.6217162630639
 20
24.41243240698060
 30
0.0000000000000000
 40
3.000000000000000
 41
0.0000000000000000
 71
     7
 72
     1
  1
{\H0.92x;{CAREER}}
 11
1.000000000000000
 21
0.0000000000000000
 31
0.0000000000000000
  7
STANDARD
  0
MTEXT
  5
44D
100
AcDbEntity
  8
WAKU0
  6
CONTINUOUS
 62
3
100
AcDbMText
 10
380.1467158815942
 20
-3.137567545335685
 30
0.0000000000000000
 40
3.099999904632568
 41
0.0000000000000000
 71
     7
 72
     1
  1
{\H0.91x;{DATE}}
 11
1.000000000000000
 21
0.0000000000000000
 31
0.0000000000000000
  7
STANDARD
  0
MTEXT
  5
44E
100
AcDbEntity
  8
WAKU0
  6
CONTINUOUS
 62
3
100
AcDbMText
 10
399.4367162606797
 20
4.412432406980599
 30
0.0000000000000000
 40
3.000000000000000
 41
0.0000000000000000
 71
     7
 72
     1
  1
{\H0.63x;{3RD ANGLE}}
 11
1.000000000000000
 21
0.0000000000000000
 31
0.0000000000000000
  7
STANDARD
  0
MTEXT
  5
44F
100
AcDbEntity
  8
WAKU0
  6
CONTINUOUS
 62
3
100
AcDbMText
 10
400.7517158410630
 20
23.86243245466432
 30
0.0000000000000000
 40
3.099999904632568
 41
0.0000000000000000
 71
     7
 72
     1
  1
{\H0.92x;{SCALE}}
 11
1.000000000000000
 21
0.0000000000000000
 31
0.0000000000000000
  7
STANDARD
  0
MTEXT
  5
450
100
AcDbEntity
  8
WAKU0
  6
CONTINUOUS
 62
3
100
AcDbMText
 10
491.2367160937867
 20
23.91243240698060
 30
0.0000000000000000
 40
3.000000000000000
 41
0.0000000000000000
 71
     7
 72
     1
  1
{\H0.63x;{kg}}
 11
1.000000000000000
 21
0.0000000000000000
 31
0.0000000000000000
  7
STANDARD
  0
MTEXT
  5
451
100
AcDbEntity
  8
WAKU0
  6
CONTINUOUS
 62
3
100
AcDbMText
 10
461.1367161891541
 20
23.91243240698060
 30
0.0000000000000000
 40
3.000000000000000
 41
0.0000000000000000
 71
     7
 72
     1
  1
{\H0.63x;{WEIGHT}}
 11
1.000000000000000
 21
0.0000000000000000
 31
0.0000000000000000
  7
STANDARD
  0
MTEXT
  5
452
100
AcDbEntity
  8
WAKU0
  6
CONTINUOUS
 62
3
100
AcDbMText
 10
419.5417159221253
 20
-3.954234227896923
 30
0.0000000000000000
 40
3.099999904632568
 41
0.0000000000000000
 71
     7
 72
     1
  1
{\H0.90x;{DRW\PNO.}}
 11
1.000000000000000
 21
0.0000000000000000
 31
0.0000000000000000
  7
STANDARD
  0
MTEXT
  5
453
100
AcDbEntity
  8
WAKU0
  6
CONTINUOUS
 62
3
100
AcDbMText
 10
418.1467158815942
 20
9.862432454664315
 30
0.0000000000000000
 40
3.099999904632568
 41
0.0000000000000000
 71
     7
 72
     1
  1
{\H0.91x;{NAME}}
 11
1.000000000000000
 21
0.0000000000000000
 31
0.0000000000000000
  7
STANDARD
  0
MTEXT
  5
454
100
AcDbEntity
  8
WAKU0
  6
CONTINUOUS
 62
3
100
AcDbMText
 10
418.1467158815942
 20
23.86243245466432
 30
0.0000000000000000
 40
3.099999904632568
 41
0.0000000000000000
 71
     7
 72
     1
  1
{\H0.91x;{TYPE}}
 11
1.000000000000000
 21
0.0000000000000000
 31
0.0000000000000000
  7
STANDARD
  0
LINE
  5
455
100
AcDbEntity
  8
WAKU0
  6
HIDDEN
 62
3
100
AcDbLine
 10
492.6966725204915
 20
-8.237567688386832
 30
0.0000000000000000
 11
482.4767596670819
 21
-8.237567688386832
 31
0.0000000000000000
  0
LINE
  5
456
100
AcDbEntity
  8
WAKU0
  6
HIDDEN
 62
3
100
AcDbLine
 10
492.6966725204915
 20
-8.237567688386900
 30
0.0000000000000000
 11
487.5867160937881
 21
0.6131364671296105
 31
0.0000000000000000
  0
LINE
  5
457
100
AcDbEntity
  8
WAKU0
  6
HIDDEN
 62
3
100
AcDbLine
 10
487.5867160937881
 20
0.6131364671296140
 30
0.0000000000000000
 11
482.4767596670819
 21
-8.237567688386918
 31
0.0000000000000000
  0
LINE
  5
458
100
AcDbEntity
  8
WAKU0
  6
CONTINUOUS
 62
3
100
AcDbLine
 10
416.0081038214830
 20
-6.307153380391277
 30
0.0000000000000000
 11
416.0081038214830
 21
-0.3071533803912558
 31
0.0000000000000000
  0
LINE
  5
459
100
AcDbEntity
  8
WAKU0
  6
CONTINUOUS
 62
3
100
AcDbLine
 10
409.4704101689255
 20
-4.807153380391291
 30
0.0000000000000000
 11
409.4704101689255
 21
-1.807153380391156
 31
0.0000000000000000
  0
LINE
  5
45A
100
AcDbEntity
  8
WAKU0
  6
CENTER
 62
12
100
AcDbLine
 10
398.9688965976025
 20
-3.307153380391270
 30
0.0000000000000000
 11
416.8132949425724
 21
-3.307153380391270
 31
0.0000000000000000
  0
LINE
  5
45B
100
AcDbEntity
  8
WAKU0
  6
CENTER
 62
12
100
AcDbLine
 10
402.9841726319016
 20
-7.528350963834917
 30
0.0000000000000000
 11
402.9841726319016
 21
0.8110834284800319
 31
0.0000000000000000
  0
LINE
  5
45C
100
AcDbEntity
  8
WAKU0
  6
CONTINUOUS
 62
3
100
AcDbLine
 10
409.4704101689255
 20
-1.807153380391426
 30
0.0000000000000000
 11
416.0081038214830
 21
-0.3071533803914548
 31
0.0000000000000000
  0
LINE
  5
45D
100
AcDbEntity
  8
WAKU0
  6
CONTINUOUS
 62
3
100
AcDbLine
 10
409.4704101689255
 20
-4.807153380391288
 30
0.0000000000000000
 11
416.0081038214829
 21
-6.307153380391281
 31
0.0000000000000000
  0
CIRCLE
  5
45E
100
AcDbEntity
  8
WAKU0
  6
CONTINUOUS
 62
3
100
AcDbCircle
 10
402.9841726319016
 20
-3.307153380391267
 30
0.0000000000000000
 40
1.499999999999972
  0
CIRCLE
  5
45F
100
AcDbEntity
  8
WAKU0
  6
CONTINUOUS
 62
3
100
AcDbCircle
 10
402.9841726319016
 20
-3.307153380391267
 30
0.0000000000000000
 40
2.999999999999979
  0
ENDSEC
  0
SECTION
  2
OBJECTS
  0
DICTIONARY
  5
4B9
100
AcDbDictionary
  3
ACAD_GROUP
350
4BA
  3
ACAD_MLINESTYLE
350
4BB
  3
DWGPROPS
350
4BC
  0
DICTIONARY
  5
4BA
102
{ACAD_REACTORS
330
4B9
102
}
100
AcDbDictionary
  0
DICTIONARY
  5
4BB
102
{ACAD_REACTORS
330
4B9
102
}
100
AcDbDictionary
  3
STANDARD
350
4BD
  0
MLINESTYLE
  5
4BD
102
{ACAD_REACTORS
330
4BB
102
}
100
AcDbMlineStyle
  2
STANDARD
 70
     0
  3

 62
   256
 51
90.00
 52
90.00
 71
     2
 49
0.50
 62
   256
  6
BYLAYER
 49
-0.50
 62
   256
  6
BYLAYER
  0
XRECORD
  5
4BC
102
{ACAD_REACTORS
330
4B9
102
}
100
AcDbXrecord
280
     1
  1
DWGPROPS COOKIE
  2
ＳＣ－４Ｆ－１１２ガイケイ
  3

  4

  6
スクロールチャック　４　
  7

  8

  9

300
=
301
=
302
=
303
=
304
=
305
=
306
=
307
=
308
=
309
=
 40
0.000000
 41
0.000000
 42
0.000000
  1

 90
        0
  0
ENDSEC
  0
EOF
