  0
SECTION
  2
HEADER
  9
$ACADVER
  1
AC1014
  9
$DWGCODEPAGE
  3
ANSI_932
  9
$LTSCALE
 40
20.0
  9
$FILLMODE
 70
     1
  9
$CLAYER
  8
0
  9
$PDMODE
 70
     0
  9
$SPLFRAME
 70
     0
  9
$SPLINETYPE
 70
     6
  9
$SPLINESEGS
 70
     8
  9
$DIMASZ
 40
2.000000
  9
$DIMEXE
 40
2.000000
  9
$DIMEXO
 40
0.800000
  9
$DIMTAD
 70
     1
  9
$DIMTIH
 70
     0
  9
$DIMTOH
 70
     0
  9
$DIMTVP
 40
0.500000
  9
$DIMTXT
 40
3.100000
  9
$EXTMIN
 10
0.000000
 20
0.000000
 30
0.000000
  9
$EXTMAX
 10
297.000000
 20
420.000000
 30
0.000000
  9
$MEASUREMENT
 70
  1
  9
$LIMMIN
 10
0.000000
 20
0.000000
  9
$LIMMAX
 10
297.000000
 20
420.000000
  9
$HANDLING
 70
     1
  9
$HANDSEED
  5
444
  9
$DIMBLK
  1
_OPEN
  9
$DIMDEC
 70
     3
  9
$DIMAUNIT
 70
     1
  9
$DIMZIN
 70
     8
  9
$DIMTOFL
 70
     1
  0
ENDSEC
  0
SECTION
  2
CLASSES
  0
ENDSEC
  0
SECTION
  2
TABLES
  0
TABLE
  2
VPORT
  5
3F8
100
AcDbSymbolTable
 70
     1
  0
VPORT
  5
3F9
100
AcDbSymbolTableRecord
100
AcDbViewportTableRecord
  2
*ACTIVE
 70
     0
 12
549.367286
 22
318.797192
 40
785.675593
 41
1.188952
  0
ENDTAB
  0
TABLE
  2
LTYPE
  5
3FA
100
AcDbSymbolTable
 70
     4
  0
LTYPE
  5
3FB
100
AcDbSymbolTableRecord
100
AcDbLinetypeTableRecord
  2
BYBLOCK
 70
     0
  3

 72
    65
 73
     0
 40
0.0
  0
LTYPE
  5
3FC
100
AcDbSymbolTableRecord
100
AcDbLinetypeTableRecord
  2
BYLAYER
 70
     0
  3

 72
    65
 73
     0
 40
0.0
  0
LTYPE
  5
3FD
100
AcDbSymbolTableRecord
100
AcDbLinetypeTableRecord
  2
CONTINUOUS
 70
     0
  3
Solid line (NEC CAE2D for Win R12.1 : 2019.02.20)
 72
    65
 73
     0
 40
0.0
  0
LTYPE
  5
3FE
100
AcDbSymbolTableRecord
100
AcDbLinetypeTableRecord
  2
HIDDEN
 70
     0
  3
__ __ __ __ __ __ __ __ __ __ __ __ __ __
 72
    65
 73
     2
 40
0.375
 49
0.25
 74
     0
 49
-0.125
 74
     0
  0
LTYPE
  5
3FF
100
AcDbSymbolTableRecord
100
AcDbLinetypeTableRecord
  2
CENTER
 70
     0
  3
____ _ ____ _ ____ _ ____ _ ____ _ ____
 72
    65
 73
     4
 40
2.0
 49
1.25
 74
     0
 49
-0.25
 74
     0
 49
0.25
 74
     0
 49
-0.25
 74
     0
  0
LTYPE
  5
400
100
AcDbSymbolTableRecord
100
AcDbLinetypeTableRecord
  2
PHANTOM
 70
     0
  3
______  __  __  ______  __  __  ______ 
 72
    65
 73
     6
 40
2.5
 49
1.25
 74
     0
 49
-0.25
 74
     0
 49
0.25
 74
     0
 49
-0.25
 74
     0
 49
0.25
 74
     0
 49
-0.25
 74
     0
  0
ENDTAB
  0
TABLE
  2
LAYER
  5
401
100
AcDbSymbolTable
 70
     9
  0
LAYER
  5
402
100
AcDbSymbolTableRecord
100
AcDbLayerTableRecord
  2
0
 70
     0
 62
     7
  6
CONTINUOUS
  0
LAYER
  5
403
100
AcDbSymbolTableRecord
100
AcDbLayerTableRecord
  2
MAIN0
 70
     0
 62
     7
  6
CONTINUOUS
  0
LAYER
  5
404
100
AcDbSymbolTableRecord
100
AcDbLayerTableRecord
  2
MAIN1
 70
     0
 62
     7
  6
CONTINUOUS
  0
LAYER
  5
405
100
AcDbSymbolTableRecord
100
AcDbLayerTableRecord
  2
MAIN2
 70
     0
 62
     7
  6
CONTINUOUS
  0
LAYER
  5
406
100
AcDbSymbolTableRecord
100
AcDbLayerTableRecord
  2
MAIN3
 70
     0
 62
     7
  6
CONTINUOUS
  0
LAYER
  5
407
100
AcDbSymbolTableRecord
100
AcDbLayerTableRecord
  2
MAIN1023
 70
     0
 62
    16
  6
CONTINUOUS
  0
LAYER
  5
408
100
AcDbSymbolTableRecord
100
AcDbLayerTableRecord
  2
WAKU0
 70
     0
 62
     7
  6
CONTINUOUS
  0
LAYER
  5
409
100
AcDbSymbolTableRecord
100
AcDbLayerTableRecord
  2
WAKU3
 70
     0
 62
     7
  6
CONTINUOUS
  0
LAYER
  5
40A
100
AcDbSymbolTableRecord
100
AcDbLayerTableRecord
  2
WAKU1023
 70
     0
 62
    16
  6
CONTINUOUS
  0
ENDTAB
  0
TABLE
  2
STYLE
  5
40B
100
AcDbSymbolTable
 70
     4
  0
STYLE
  5
40C
100
AcDbSymbolTableRecord
100
AcDbTextStyleTableRecord
  2
STANDARD
 70
    64
 40
0.0
 41
1.0
 50
0.0
 71
     0
 42
3.099999904632568
  3
TXT
  4

  0
STYLE
  5
40D
100
AcDbSymbolTableRecord
100
AcDbTextStyleTableRecord
  2
ANKTATE
 70
    68
 40
0.0
 41
1.0
 50
0.0
 71
     0
 42
3.099999904632568
  3
TXT
  4

  0
STYLE
  5
1E7
100
AcDbSymbolTableRecord
100
AcDbTextStyleTableRecord
  2
KNJYOKO
 70
    64
 40
0.0
 41
1.0
 50
0.0
 71
     0
 42
3.099999904632568
  3
TXT
  4
BIGFONT
  0
STYLE
  5
40E
100
AcDbSymbolTableRecord
100
AcDbTextStyleTableRecord
  2
KNJTATE
 70
    68
 40
0.0
 41
1.0
 50
0.0
 71
     0
 42
3.099999904632568
  3
TXT
  4
BIGFONT
  0
ENDTAB
  0
TABLE
  2
VIEW
  5
40F
100
AcDbSymbolTable
 70
     0
  0
ENDTAB
  0
TABLE
  2
UCS
  5
410
100
AcDbSymbolTable
 70
     0
  0
ENDTAB
  0
TABLE
  2
APPID
  5
411
100
AcDbSymbolTable
 70
     1
  0
APPID
  5
412
100
AcDbSymbolTableRecord
100
AcDbRegAppTableRecord
  2
ACAD
 70
     0
  0
ENDTAB
  0
TABLE
  2
DIMSTYLE
  5
413
100
AcDbSymbolTable
 70
     1
  0
DIMSTYLE
105
414
100
AcDbSymbolTableRecord
100
AcDbDimStyleTableRecord
  2
STANDARD
 70
     0
 41
2.000000
 44
2.000000
 42
0.800000
145
0.661290
140
3.100000
144
1.000000
146
0.903226
340
40C
  0
DIMSTYLE
105
415
100
AcDbSymbolTableRecord
100
AcDbDimStyleTableRecord
  2
MAIN001
 70
     0
 41
5.000000
 44
5.000000
 42
2.000000
145
0.564516
140
7.750000
144
1.000000
146
0.903226
 77
     1
 73
     0
 74
     0
271
     3
275
     1
 78
     8
172
     1
340
40C
  0
DIMSTYLE
105
416
100
AcDbSymbolTableRecord
100
AcDbDimStyleTableRecord
  2
WAKU002
 70
     0
 41
2.000000
 44
2.000000
 42
0.800000
145
0.661290
140
3.100000
144
1.000000
146
0.903226
 77
     1
 73
     0
 74
     0
271
     3
275
     1
 78
     8
172
     1
340
40C
  0
ENDTAB
  0
TABLE
  2
BLOCK_RECORD
  5
417
100
AcDbSymbolTable
 70
    45
  0
BLOCK_RECORD
  5
418
100
AcDbSymbolTableRecord
100
AcDbBlockTableRecord
  2
*MODEL_SPACE
  0
BLOCK_RECORD
  5
419
100
AcDbSymbolTableRecord
100
AcDbBlockTableRecord
  2
*PAPER_SPACE
  0
BLOCK_RECORD
  5
1
100
AcDbSymbolTableRecord
100
AcDbBlockTableRecord
  2
_NONE
  0
BLOCK_RECORD
  5
4
100
AcDbSymbolTableRecord
100
AcDbBlockTableRecord
  2
_CLOSED
  0
BLOCK_RECORD
  5
B
100
AcDbSymbolTableRecord
100
AcDbBlockTableRecord
  2
_DOT
  0
BLOCK_RECORD
  5
13
100
AcDbSymbolTableRecord
100
AcDbBlockTableRecord
  2
_OPEN
  0
BLOCK_RECORD
  5
19
100
AcDbSymbolTableRecord
100
AcDbBlockTableRecord
  2
_ORIGIN
  0
BLOCK_RECORD
  5
1E
100
AcDbSymbolTableRecord
100
AcDbBlockTableRecord
  2
_OPEN30
  0
BLOCK_RECORD
  5
24
100
AcDbSymbolTableRecord
100
AcDbBlockTableRecord
  2
_BOXFILLED
  0
BLOCK_RECORD
  5
29
100
AcDbSymbolTableRecord
100
AcDbBlockTableRecord
  2
_BOXBLANK
  0
BLOCK_RECORD
  5
31
100
AcDbSymbolTableRecord
100
AcDbBlockTableRecord
  2
_OBLIQUE
  0
BLOCK_RECORD
  5
35
100
AcDbSymbolTableRecord
100
AcDbBlockTableRecord
  2
_OPEN90
  0
BLOCK_RECORD
  5
3B
100
AcDbSymbolTableRecord
100
AcDbBlockTableRecord
  2
_CLOSEDBLANK
  0
BLOCK_RECORD
  5
41
100
AcDbSymbolTableRecord
100
AcDbBlockTableRecord
  2
_DOTBLANK
  0
BLOCK_RECORD
  5
41A
100
AcDbSymbolTableRecord
100
AcDbBlockTableRecord
  2
*D0
  0
BLOCK_RECORD
  5
41B
100
AcDbSymbolTableRecord
100
AcDbBlockTableRecord
  2
*D1
  0
BLOCK_RECORD
  5
41C
100
AcDbSymbolTableRecord
100
AcDbBlockTableRecord
  2
*D2
  0
BLOCK_RECORD
  5
41D
100
AcDbSymbolTableRecord
100
AcDbBlockTableRecord
  2
*D3
  0
BLOCK_RECORD
  5
41E
100
AcDbSymbolTableRecord
100
AcDbBlockTableRecord
  2
*D4
  0
BLOCK_RECORD
  5
41F
100
AcDbSymbolTableRecord
100
AcDbBlockTableRecord
  2
*D5
  0
BLOCK_RECORD
  5
420
100
AcDbSymbolTableRecord
100
AcDbBlockTableRecord
  2
*D6
  0
BLOCK_RECORD
  5
421
100
AcDbSymbolTableRecord
100
AcDbBlockTableRecord
  2
*D7
  0
BLOCK_RECORD
  5
422
100
AcDbSymbolTableRecord
100
AcDbBlockTableRecord
  2
*D8
  0
BLOCK_RECORD
  5
423
100
AcDbSymbolTableRecord
100
AcDbBlockTableRecord
  2
*D9
  0
BLOCK_RECORD
  5
424
100
AcDbSymbolTableRecord
100
AcDbBlockTableRecord
  2
*D10
  0
BLOCK_RECORD
  5
425
100
AcDbSymbolTableRecord
100
AcDbBlockTableRecord
  2
*D11
  0
BLOCK_RECORD
  5
426
100
AcDbSymbolTableRecord
100
AcDbBlockTableRecord
  2
*D12
  0
BLOCK_RECORD
  5
427
100
AcDbSymbolTableRecord
100
AcDbBlockTableRecord
  2
*D13
  0
BLOCK_RECORD
  5
428
100
AcDbSymbolTableRecord
100
AcDbBlockTableRecord
  2
*D14
  0
BLOCK_RECORD
  5
429
100
AcDbSymbolTableRecord
100
AcDbBlockTableRecord
  2
*D15
  0
BLOCK_RECORD
  5
42A
100
AcDbSymbolTableRecord
100
AcDbBlockTableRecord
  2
*D16
  0
BLOCK_RECORD
  5
42B
100
AcDbSymbolTableRecord
100
AcDbBlockTableRecord
  2
*D17
  0
BLOCK_RECORD
  5
42C
100
AcDbSymbolTableRecord
100
AcDbBlockTableRecord
  2
*D18
  0
BLOCK_RECORD
  5
42D
100
AcDbSymbolTableRecord
100
AcDbBlockTableRecord
  2
*D19
  0
BLOCK_RECORD
  5
42E
100
AcDbSymbolTableRecord
100
AcDbBlockTableRecord
  2
*D20
  0
BLOCK_RECORD
  5
42F
100
AcDbSymbolTableRecord
100
AcDbBlockTableRecord
  2
*D21
  0
BLOCK_RECORD
  5
430
100
AcDbSymbolTableRecord
100
AcDbBlockTableRecord
  2
*D22
  0
BLOCK_RECORD
  5
431
100
AcDbSymbolTableRecord
100
AcDbBlockTableRecord
  2
*D23
  0
BLOCK_RECORD
  5
432
100
AcDbSymbolTableRecord
100
AcDbBlockTableRecord
  2
*D24
  0
BLOCK_RECORD
  5
433
100
AcDbSymbolTableRecord
100
AcDbBlockTableRecord
  2
*D25
  0
BLOCK_RECORD
  5
434
100
AcDbSymbolTableRecord
100
AcDbBlockTableRecord
  2
*D26
  0
BLOCK_RECORD
  5
435
100
AcDbSymbolTableRecord
100
AcDbBlockTableRecord
  2
*D27
  0
BLOCK_RECORD
  5
436
100
AcDbSymbolTableRecord
100
AcDbBlockTableRecord
  2
*D28
  0
BLOCK_RECORD
  5
437
100
AcDbSymbolTableRecord
100
AcDbBlockTableRecord
  2
*D29
  0
BLOCK_RECORD
  5
438
100
AcDbSymbolTableRecord
100
AcDbBlockTableRecord
  2
*D30
  0
BLOCK_RECORD
  5
439
100
AcDbSymbolTableRecord
100
AcDbBlockTableRecord
  2
*D31
  0
BLOCK_RECORD
  5
43A
100
AcDbSymbolTableRecord
100
AcDbBlockTableRecord
  2
*D32
  0
ENDTAB
  0
ENDSEC
  0
SECTION
  2
BLOCKS
  0
BLOCK
  5
43B
100
AcDbEntity
  8
0
100
AcDbBlockBegin
  2
*MODEL_SPACE
 70
     0
 10
0.0
 20
0.0
 30
0.0
  3
*MODEL_SPACE
  1

  0
ENDBLK
  5
43C
100
AcDbEntity
  8
0
100
AcDbBlockEnd
  0
BLOCK
  5
43D
100
AcDbEntity
  8
0
100
AcDbBlockBegin
  2
*PAPER_SPACE
 70
     0
 10
0.0
 20
0.0
 30
0.0
  3
*PAPER_SPACE
  1

  0
ENDBLK
  5
43E
100
AcDbEntity
  8
0
100
AcDbBlockEnd
  0
BLOCK
  5
2
100
AcDbEntity
  8
0
100
AcDbBlockBegin
  2
_NONE
 70
     0
 10
0.0
 20
0.0
 30
0.0
  3
_NONE
  1

  0
ENDBLK
  5
3
100
AcDbEntity
  8
0
100
AcDbBlockEnd
  0
BLOCK
  5
5
100
AcDbEntity
  8
0
100
AcDbBlockBegin
  2
_CLOSED
 70
     0
 10
0.0
 20
0.0
 30
0.0
  3
_CLOSED
  1

  0
LINE
  5
6
100
AcDbEntity
  8
0
  6
BYBLOCK
 62
     0
100
AcDbLine
 10
-1.0
 20
0.166667
 30
0.0
 11
0.0
 21
0.0
 31
0.0
  0
LINE
  5
7
100
AcDbEntity
  8
0
  6
BYBLOCK
 62
     0
100
AcDbLine
 10
0.0
 20
0.0
 30
0.0
 11
-1.0
 21
-0.166667
 31
0.0
  0
LINE
  5
8
100
AcDbEntity
  8
0
  6
BYBLOCK
 62
     0
100
AcDbLine
 10
-1.0
 20
0.166667
 30
0.0
 11
-1.0
 21
-0.166667
 31
0.0
  0
LINE
  5
9
100
AcDbEntity
  8
0
  6
BYBLOCK
 62
     0
100
AcDbLine
 10
0.0
 20
0.0
 30
0.0
 11
-1.0
 21
0.0
 31
0.0
  0
ENDBLK
  5
A
100
AcDbEntity
  8
0
100
AcDbBlockEnd
  0
BLOCK
  5
C
100
AcDbEntity
  8
0
100
AcDbBlockBegin
  2
_DOT
 70
     0
 10
0.0
 20
0.0
 30
0.0
  3
_DOT
  1

  0
POLYLINE
  5
D
100
AcDbEntity
  8
0
  6
BYBLOCK
 62
     0
100
AcDb2dPolyline
 66
     1
 10
0.0
 20
0.0
 30
0.0
 70
     1
 40
0.5
 41
0.5
  0
VERTEX
  5
E
100
AcDbEntity
  8
0
  6
BYBLOCK
 62
     0
100
AcDbVertex
100
AcDb2dVertex
 10
-0.25
 20
0.0
 30
0.0
 42
1.0
  0
VERTEX
  5
F
100
AcDbEntity
  8
0
  6
BYBLOCK
 62
     0
100
AcDbVertex
100
AcDb2dVertex
 10
0.25
 20
0.0
 30
0.0
 42
1.0
  0
SEQEND
  5
10
100
AcDbEntity
  8
0
  6
BYBLOCK
 62
     0
  0
LINE
  5
11
100
AcDbEntity
  8
0
  6
BYBLOCK
 62
     0
100
AcDbLine
 10
-0.5
 20
0.0
 30
0.0
 11
-1.0
 21
0.0
 31
0.0
  0
ENDBLK
  5
12
100
AcDbEntity
  8
0
100
AcDbBlockEnd
  0
BLOCK
  5
14
100
AcDbEntity
  8
0
100
AcDbBlockBegin
  2
_OPEN
 70
     0
 10
0.0
 20
0.0
 30
0.0
  3
_OPEN
  1

  0
LINE
  5
15
100
AcDbEntity
  8
0
  6
BYBLOCK
 62
     0
100
AcDbLine
 10
-1.0
 20
0.166667
 30
0.0
 11
0.0
 21
0.0
 31
0.0
  0
LINE
  5
16
100
AcDbEntity
  8
0
  6
BYBLOCK
 62
     0
100
AcDbLine
 10
0.0
 20
0.0
 30
0.0
 11
-1.0
 21
-0.166667
 31
0.0
  0
LINE
  5
17
100
AcDbEntity
  8
0
  6
BYBLOCK
 62
     0
100
AcDbLine
 10
0.0
 20
0.0
 30
0.0
 11
-1.0
 21
0.0
 31
0.0
  0
ENDBLK
  5
18
100
AcDbEntity
  8
0
100
AcDbBlockEnd
  0
BLOCK
  5
1A
100
AcDbEntity
  8
0
100
AcDbBlockBegin
  2
_ORIGIN
 70
     0
 10
0.0
 20
0.0
 30
0.0
  3
_ORIGIN
  1

  0
CIRCLE
  5
1B
100
AcDbEntity
  8
0
  6
BYBLOCK
 62
     0
100
AcDbCircle
 10
0.0
 20
0.0
 30
0.0
 40
0.5
  0
LINE
  5
1C
100
AcDbEntity
  8
0
  6
BYBLOCK
 62
     0
100
AcDbLine
 10
0.0
 20
0.0
 30
0.0
 11
-1.0
 21
0.0
 31
0.0
  0
ENDBLK
  5
1D
100
AcDbEntity
  8
0
100
AcDbBlockEnd
  0
BLOCK
  5
1F
100
AcDbEntity
  8
0
100
AcDbBlockBegin
  2
_OPEN30
 70
     0
 10
0.0
 20
0.0
 30
0.0
  3
_OPEN30
  1

  0
LINE
  5
20
100
AcDbEntity
  8
0
  6
BYBLOCK
 62
     0
100
AcDbLine
 10
-1.0
 20
0.267949
 30
0.0
 11
0.0
 21
0.0
 31
0.0
  0
LINE
  5
21
100
AcDbEntity
  8
0
  6
BYBLOCK
 62
     0
100
AcDbLine
 10
0.0
 20
0.0
 30
0.0
 11
-1.0
 21
-0.267949
 31
0.0
  0
LINE
  5
22
100
AcDbEntity
  8
0
  6
BYBLOCK
 62
     0
100
AcDbLine
 10
0.0
 20
0.0
 30
0.0
 11
-1.0
 21
0.0
 31
0.0
  0
ENDBLK
  5
23
100
AcDbEntity
  8
0
100
AcDbBlockEnd
  0
BLOCK
  5
25
100
AcDbEntity
  8
0
100
AcDbBlockBegin
  2
_BOXFILLED
 70
     0
 10
0.0
 20
0.0
 30
0.0
  3
_BOXFILLED
  1

  0
SOLID
  5
26
100
AcDbEntity
  8
0
  6
BYBLOCK
 62
     0
100
AcDbTrace
 10
-0.5
 20
0.5
 30
0.0
 11
0.5
 21
0.5
 31
0.0
 12
-0.5
 22
-0.5
 32
0.0
 13
0.5
 23
-0.5
 33
0.0
  0
LINE
  5
27
100
AcDbEntity
  8
0
  6
BYBLOCK
 62
     0
100
AcDbLine
 10
-0.5
 20
0.0
 30
0.0
 11
-1.0
 21
0.0
 31
0.0
  0
ENDBLK
  5
28
100
AcDbEntity
  8
0
100
AcDbBlockEnd
  0
BLOCK
  5
2A
100
AcDbEntity
  8
0
100
AcDbBlockBegin
  2
_BOXBLANK
 70
     0
 10
0.0
 20
0.0
 30
0.0
  3
_BOXBLANK
  1

  0
LINE
  5
2B
100
AcDbEntity
  8
0
  6
BYBLOCK
 62
     0
100
AcDbLine
 10
-0.5
 20
-0.5
 30
0.0
 11
0.5
 21
-0.5
 31
0.0
  0
LINE
  5
2C
100
AcDbEntity
  8
0
  6
BYBLOCK
 62
     0
100
AcDbLine
 10
0.5
 20
-0.5
 30
0.0
 11
0.5
 21
0.5
 31
0.0
  0
LINE
  5
2D
100
AcDbEntity
  8
0
  6
BYBLOCK
 62
     0
100
AcDbLine
 10
0.5
 20
0.5
 30
0.0
 11
-0.5
 21
0.5
 31
0.0
  0
LINE
  5
2E
100
AcDbEntity
  8
0
  6
BYBLOCK
 62
     0
100
AcDbLine
 10
-0.5
 20
0.5
 30
0.0
 11
-0.5
 21
-0.5
 31
0.0
  0
LINE
  5
2F
100
AcDbEntity
  8
0
  6
BYBLOCK
 62
     0
100
AcDbLine
 10
-0.5
 20
0.0
 30
0.0
 11
-1.0
 21
0.0
 31
0.0
  0
ENDBLK
  5
30
100
AcDbEntity
  8
0
100
AcDbBlockEnd
  0
BLOCK
  5
32
100
AcDbEntity
  8
0
100
AcDbBlockBegin
  2
_OBLIQUE
 70
     0
 10
0.0
 20
0.0
 30
0.0
  3
_OBLIQUE
  1

  0
LINE
  5
33
100
AcDbEntity
  8
0
  6
BYBLOCK
 62
     0
100
AcDbLine
 10
-0.5
 20
-0.5
 30
0.0
 11
0.5
 21
0.5
 31
0.0
  0
ENDBLK
  5
34
100
AcDbEntity
  8
0
100
AcDbBlockEnd
  0
BLOCK
  5
36
100
AcDbEntity
  8
0
100
AcDbBlockBegin
  2
_OPEN90
 70
     0
 10
0.0
 20
0.0
 30
0.0
  3
_OPEN90
  1

  0
LINE
  5
37
100
AcDbEntity
  8
0
  6
BYBLOCK
 62
     0
100
AcDbLine
 10
-0.5
 20
0.5
 30
0.0
 11
0.0
 21
0.0
 31
0.0
  0
LINE
  5
38
100
AcDbEntity
  8
0
  6
BYBLOCK
 62
     0
100
AcDbLine
 10
0.0
 20
0.0
 30
0.0
 11
-0.5
 21
-0.5
 31
0.0
  0
LINE
  5
39
100
AcDbEntity
  8
0
  6
BYBLOCK
 62
     0
100
AcDbLine
 10
0.0
 20
0.0
 30
0.0
 11
-1.0
 21
0.0
 31
0.0
  0
ENDBLK
  5
3A
100
AcDbEntity
  8
0
100
AcDbBlockEnd
  0
BLOCK
  5
3C
100
AcDbEntity
  8
0
100
AcDbBlockBegin
  2
_CLOSEDBLANK
 70
     0
 10
0.0
 20
0.0
 30
0.0
  3
_CLOSEDBLANK
  1

  0
LINE
  5
3D
100
AcDbEntity
  8
0
  6
BYBLOCK
 62
     0
100
AcDbLine
 10
-1.0
 20
0.1666666666666666
 30
0.0
 11
0.0
 21
0.0
 31
0.0
  0
LINE
  5
3E
100
AcDbEntity
  8
0
  6
BYBLOCK
 62
     0
100
AcDbLine
 10
0.0
 20
0.0
 30
0.0
 11
-1.0
 21
-0.1666666666666666
 31
0.0
  0
LINE
  5
3F
100
AcDbEntity
  8
0
  6
BYBLOCK
 62
     0
100
AcDbLine
 10
-1.0
 20
0.1666666666666666
 30
0.0
 11
-1.0
 21
-0.1666666666666666
 31
0.0
  0
ENDBLK
  5
40
100
AcDbEntity
  8
0
100
AcDbBlockEnd
  0
BLOCK
  5
42
100
AcDbEntity
  8
0
100
AcDbBlockBegin
  2
_DOTBLANK
 70
     0
 10
0.0
 20
0.0
 30
0.0
  3
_DOTBLANK
  1

  0
CIRCLE
  5
43
100
AcDbEntity
  8
0
  6
BYBLOCK
 62
     0
100
AcDbCircle
 10
0.0
 20
0.0
 30
0.0
 40
0.5
  0
LINE
  5
44
100
AcDbEntity
  8
0
  6
BYBLOCK
 62
     0
100
AcDbLine
 10
-0.5
 20
0.0
 30
0.0
 11
-1.0
 21
0.0
 31
0.0
  0
ENDBLK
  5
45
100
AcDbEntity
  8
0
100
AcDbBlockEnd
  0
BLOCK
  5
160
100
AcDbEntity
  8
MAIN0
  6
CONTINUOUS
 62
3
100
AcDbBlockBegin
  2
*D0
 70
    65
 10
0.0
 20
0.0
 30
0.0
  0
LINE
  5
161
100
AcDbEntity
  8
MAIN0
  6
BYBLOCK
 62
0
100
AcDbLine
 10
1010.156862368035
 20
606.6545019036606
 30
0.0000000000000000
 11
1010.156862368035
 21
662.2969648128823
 31
0.0000000000000000
  0
LINE
  5
162
100
AcDbEntity
  8
MAIN0
  6
BYBLOCK
 62
0
100
AcDbLine
 10
1005.156862368035
 20
657.2969648128823
 30
0.0000000000000000
 11
625.1568623680356
 21
657.2969648128823
 31
0.0000000000000000
  0
INSERT
  5
163
100
AcDbEntity
  8
MAIN0
  6
BYBLOCK
 62
0
100
AcDbBlockReference
  2
_OPEN
 10
1010.156862368035
 20
657.2969648128823
 30
0.0000000000000000
 41
5.000000000000000
 42
5.000000000000000
 43
5.000000000000000
 50
360.0000000000000
  0
INSERT
  5
164
100
AcDbEntity
  8
MAIN0
  6
BYBLOCK
 62
0
100
AcDbBlockReference
  2
_OPEN
 10
620.1568623680356
 20
657.2969648128823
 30
0.0000000000000000
 41
5.000000000000000
 42
5.000000000000000
 43
5.000000000000000
 50
180.0000000000000
  0
LINE
  5
165
100
AcDbEntity
  8
MAIN0
  6
BYBLOCK
 62
0
100
AcDbLine
 10
620.1568623680356
 20
606.6545019036606
 30
0.0000000000000000
 11
620.1568623680356
 21
662.2969648128823
 31
0.0000000000000000
  0
MTEXT
  5
166
100
AcDbEntity
  8
MAIN0
  6
BYBLOCK
 62
0
100
AcDbMText
 10
815.1568623680354
 20
661.6719646936730
 30
0.0000000000000000
 40
7.749999761581421
 41
0.0000000000000000
 71
     5
 72
     1
  1
\A1;390
 11
1.000000000000000
 21
0.0000000000000000
 31
0.0000000000000000
  7
STANDARD
  0
ENDBLK
  5
167
100
AcDbEntity
  8
MAIN0
  6
CONTINUOUS
 62
3
100
AcDbBlockEnd
  0
BLOCK
  5
169
100
AcDbEntity
  8
MAIN0
  6
CONTINUOUS
 62
3
100
AcDbBlockBegin
  2
*D1
 70
    65
 10
0.0
 20
0.0
 30
0.0
  0
LINE
  5
16A
100
AcDbEntity
  8
MAIN0
  6
BYBLOCK
 62
0
100
AcDbLine
 10
800.1568623679907
 20
622.6545019036606
 30
0.0000000000000000
 11
800.1568623680186
 21
642.2969648128823
 31
0.0000000000000000
  0
LINE
  5
16B
100
AcDbEntity
  8
MAIN0
  6
BYBLOCK
 62
0
100
AcDbLine
 10
805.1568623680115
 20
637.2969648128823
 30
0.0000000000000000
 11
825.1568623679879
 21
637.2969648128823
 31
0.0000000000000000
  0
INSERT
  5
16C
100
AcDbEntity
  8
MAIN0
  6
BYBLOCK
 62
0
100
AcDbBlockReference
  2
_OPEN
 10
800.1568623680115
 20
637.2969648128823
 30
0.0000000000000000
 41
5.000000000000000
 42
5.000000000000000
 43
5.000000000000000
 50
180.0000000000000
  0
INSERT
  5
16D
100
AcDbEntity
  8
MAIN0
  6
BYBLOCK
 62
0
100
AcDbBlockReference
  2
_OPEN
 10
830.1568623679879
 20
637.2969648128823
 30
0.0000000000000000
 41
5.000000000000000
 42
5.000000000000000
 43
5.000000000000000
 50
0.0000000000000000
  0
LINE
  5
16E
100
AcDbEntity
  8
MAIN0
  6
BYBLOCK
 62
0
100
AcDbLine
 10
830.1568623679879
 20
622.6545019036606
 30
0.0000000000000000
 11
830.1568623679879
 21
642.2969648128823
 31
0.0000000000000000
  0
MTEXT
  5
16F
100
AcDbEntity
  8
MAIN0
  6
BYBLOCK
 62
0
100
AcDbMText
 10
815.1568623679997
 20
641.6719646936730
 30
0.0000000000000000
 40
7.749999761581421
 41
0.0000000000000000
 71
     5
 72
     1
  1
\A1;\U+220530
 11
1.000000000000000
 21
0.0000000000000000
 31
0.0000000000000000
  7
STANDARD
  0
ENDBLK
  5
170
100
AcDbEntity
  8
MAIN0
  6
CONTINUOUS
 62
3
100
AcDbBlockEnd
  0
BLOCK
  5
172
100
AcDbEntity
  8
MAIN0
  6
CONTINUOUS
 62
3
100
AcDbBlockBegin
  2
*D2
 70
    65
 10
0.0
 20
0.0
 30
0.0
  0
LINE
  5
173
100
AcDbEntity
  8
MAIN0
  6
BYBLOCK
 62
0
100
AcDbLine
 10
830.1568623977844
 20
622.6545018738583
 30
0.0000000000000000
 11
863.2089406350300
 21
622.6545018738583
 31
0.0000000000000000
  0
LINE
  5
174
100
AcDbEntity
  8
MAIN0
  6
BYBLOCK
 62
0
100
AcDbLine
 10
858.2089406350300
 20
617.6545018738583
 30
0.0000000000000000
 11
858.2089406350300
 21
609.6545018738583
 31
0.0000000000000000
  0
INSERT
  5
175
100
AcDbEntity
  8
MAIN0
  6
BYBLOCK
 62
0
100
AcDbBlockReference
  2
_OPEN
 10
858.2089406350300
 20
622.6545018738583
 30
0.0000000000000000
 41
5.000000000000000
 42
5.000000000000000
 43
5.000000000000000
 50
90.00000000000000
  0
INSERT
  5
176
100
AcDbEntity
  8
MAIN0
  6
BYBLOCK
 62
0
100
AcDbBlockReference
  2
_OPEN
 10
858.2089406350300
 20
604.6545018738583
 30
0.0000000000000000
 41
5.000000000000000
 42
5.000000000000000
 43
5.000000000000000
 50
270.0000000000000
  0
LINE
  5
177
100
AcDbEntity
  8
MAIN0
  6
BYBLOCK
 62
0
100
AcDbLine
 10
858.2089406350300
 20
622.6545018738583
 30
0.0000000000000000
 11
858.2089406350300
 21
634.9548126209494
 31
0.0000000000000000
  0
MTEXT
  5
178
100
AcDbEntity
  8
MAIN0
  6
BYBLOCK
 62
0
100
AcDbMText
 10
853.0839407542393
 20
629.8298127401588
 30
0.0000000000000000
 40
7.749999761581421
 41
0.0000000000000000
 71
     5
 72
     1
  1
\A1;18
 11
6.123233995736766e-017
 21
1.000000000000000
 31
0.0000000000000000
  7
STANDARD
  0
ENDBLK
  5
179
100
AcDbEntity
  8
MAIN0
  6
CONTINUOUS
 62
3
100
AcDbBlockEnd
  0
BLOCK
  5
17B
100
AcDbEntity
  8
MAIN0
  6
CONTINUOUS
 62
3
100
AcDbBlockBegin
  2
*D3
 70
    65
 10
0.0
 20
0.0
 30
0.0
  0
LINE
  5
17C
100
AcDbEntity
  8
MAIN0
  6
BYBLOCK
 62
0
100
AcDbLine
 10
778.3832326445310
 20
607.6545018738583
 30
0.0000000000000000
 11
778.3832326445310
 21
601.6545018738583
 31
0.0000000000000000
  0
INSERT
  5
17D
100
AcDbEntity
  8
MAIN0
  6
BYBLOCK
 62
0
100
AcDbBlockReference
  2
_OPEN
 10
778.3832326445310
 20
612.6545018738583
 30
0.0000000000000000
 41
5.000000000000000
 42
5.000000000000000
 43
5.000000000000000
 50
90.00000000000000
  0
INSERT
  5
17E
100
AcDbEntity
  8
MAIN0
  6
BYBLOCK
 62
0
100
AcDbBlockReference
  2
_OPEN
 10
778.3832326445310
 20
596.6545018738583
 30
0.0000000000000000
 41
5.000000000000000
 42
5.000000000000000
 43
5.000000000000000
 50
270.0000000000000
  0
LINE
  5
17F
100
AcDbEntity
  8
MAIN0
  6
BYBLOCK
 62
0
100
AcDbLine
 10
778.3832326445310
 20
612.6545018738583
 30
0.0000000000000000
 11
778.3832326445310
 21
631.9504856328530
 31
0.0000000000000000
  0
MTEXT
  5
180
100
AcDbEntity
  8
MAIN0
  6
BYBLOCK
 62
0
100
AcDbMText
 10
773.2582327637402
 20
623.5754858712717
 30
0.0000000000000000
 40
7.749999761581421
 41
0.0000000000000000
 71
     5
 72
     1
  1
\A1;\U+220516
 11
6.123233995736766e-017
 21
1.000000000000000
 31
0.0000000000000000
  7
STANDARD
  0
ENDBLK
  5
181
100
AcDbEntity
  8
MAIN0
  6
CONTINUOUS
 62
3
100
AcDbBlockEnd
  0
BLOCK
  5
185
100
AcDbEntity
  8
MAIN0
  6
CONTINUOUS
 62
3
100
AcDbBlockBegin
  2
*D4
 70
    65
 10
0.0
 20
0.0
 30
0.0
  0
LINE
  5
186
100
AcDbEntity
  8
MAIN0
  6
BYBLOCK
 62
0
100
AcDbLine
 10
807.1568623680944
 20
542.2969648128823
 30
0.0000000000000000
 11
823.1568623680944
 21
542.2969648128823
 31
0.0000000000000000
  0
INSERT
  5
187
100
AcDbEntity
  8
MAIN0
  6
BYBLOCK
 62
0
100
AcDbBlockReference
  2
_OPEN
 10
802.1568623680944
 20
542.2969648128823
 30
0.0000000000000000
 41
5.000000000000000
 42
5.000000000000000
 43
5.000000000000000
 50
180.0000000000000
  0
INSERT
  5
188
100
AcDbEntity
  8
MAIN0
  6
BYBLOCK
 62
0
100
AcDbBlockReference
  2
_OPEN
 10
828.1568623680944
 20
542.2969648128823
 30
0.0000000000000000
 41
5.000000000000000
 42
5.000000000000000
 43
5.000000000000000
 50
0.0000000000000000
  0
MTEXT
  5
189
100
AcDbEntity
  8
MAIN0
  6
BYBLOCK
 62
0
100
AcDbMText
 10
815.1568623680944
 20
546.6719646936730
 30
0.0000000000000000
 40
7.749999761581421
 41
0.0000000000000000
 71
     5
 72
     1
  1
\A1;\U+220526
 11
1.000000000000000
 21
0.0000000000000000
 31
0.0000000000000000
  7
STANDARD
  0
ENDBLK
  5
18A
100
AcDbEntity
  8
MAIN0
  6
CONTINUOUS
 62
3
100
AcDbBlockEnd
  0
BLOCK
  5
18C
100
AcDbEntity
  8
MAIN0
  6
CONTINUOUS
 62
3
100
AcDbBlockBegin
  2
*D5
 70
    65
 10
0.0
 20
0.0
 30
0.0
  0
LINE
  5
18D
100
AcDbEntity
  8
MAIN0
  6
BYBLOCK
 62
0
100
AcDbLine
 10
825.3068623978285
 20
422.6545018738583
 30
0.0000000000000000
 11
863.2089406350300
 21
422.6545018738583
 31
0.0000000000000000
  0
LINE
  5
18E
100
AcDbEntity
  8
MAIN0
  6
BYBLOCK
 62
0
100
AcDbLine
 10
858.2089406350300
 20
427.6545018738583
 30
0.0000000000000000
 11
858.2089406350300
 21
435.6545018738583
 31
0.0000000000000000
  0
INSERT
  5
18F
100
AcDbEntity
  8
MAIN0
  6
BYBLOCK
 62
0
100
AcDbBlockReference
  2
_OPEN
 10
858.2089406350300
 20
422.6545018738583
 30
0.0000000000000000
 41
5.000000000000000
 42
5.000000000000000
 43
5.000000000000000
 50
270.0000000000000
  0
INSERT
  5
190
100
AcDbEntity
  8
MAIN0
  6
BYBLOCK
 62
0
100
AcDbBlockReference
  2
_OPEN
 10
858.2089406350300
 20
440.6545018738583
 30
0.0000000000000000
 41
5.000000000000000
 42
5.000000000000000
 43
5.000000000000000
 50
90.00000000000000
  0
LINE
  5
191
100
AcDbEntity
  8
MAIN0
  6
BYBLOCK
 62
0
100
AcDbLine
 10
826.3068623978285
 20
440.6545018738583
 30
0.0000000000000000
 11
863.2089406350300
 21
440.6545018738583
 31
0.0000000000000000
  0
MTEXT
  5
192
100
AcDbEntity
  8
MAIN0
  6
BYBLOCK
 62
0
100
AcDbMText
 10
853.8339407542393
 20
431.6545018738583
 30
0.0000000000000000
 40
7.749999761581421
 41
0.0000000000000000
 71
     5
 72
     1
  1
\A1;18
 11
6.123233995736766e-017
 21
1.000000000000000
 31
0.0000000000000000
  7
STANDARD
  0
ENDBLK
  5
193
100
AcDbEntity
  8
MAIN0
  6
CONTINUOUS
 62
3
100
AcDbBlockEnd
  0
BLOCK
  5
195
100
AcDbEntity
  8
MAIN0
  6
CONTINUOUS
 62
3
100
AcDbBlockBegin
  2
*D6
 70
    65
 10
0.0
 20
0.0
 30
0.0
  0
LINE
  5
196
100
AcDbEntity
  8
MAIN0
  6
BYBLOCK
 62
0
100
AcDbLine
 10
830.1568623977844
 20
622.6545018738583
 30
0.0000000000000000
 11
883.5354134903911
 21
622.6545018738583
 31
0.0000000000000000
  0
LINE
  5
197
100
AcDbEntity
  8
MAIN0
  6
BYBLOCK
 62
0
100
AcDbLine
 10
878.5354134903911
 20
617.6545018738583
 30
0.0000000000000000
 11
878.5354134903911
 21
427.6545018738583
 31
0.0000000000000000
  0
INSERT
  5
198
100
AcDbEntity
  8
MAIN0
  6
BYBLOCK
 62
0
100
AcDbBlockReference
  2
_OPEN
 10
878.5354134903911
 20
622.6545018738583
 30
0.0000000000000000
 41
5.000000000000000
 42
5.000000000000000
 43
5.000000000000000
 50
90.00000000000000
  0
INSERT
  5
199
100
AcDbEntity
  8
MAIN0
  6
BYBLOCK
 62
0
100
AcDbBlockReference
  2
_OPEN
 10
878.5354134903911
 20
422.6545018738583
 30
0.0000000000000000
 41
5.000000000000000
 42
5.000000000000000
 43
5.000000000000000
 50
270.0000000000000
  0
LINE
  5
19A
100
AcDbEntity
  8
MAIN0
  6
BYBLOCK
 62
0
100
AcDbLine
 10
825.3068623978285
 20
422.6545018738583
 30
0.0000000000000000
 11
883.5354134903911
 21
422.6545018738583
 31
0.0000000000000000
  0
MTEXT
  5
19B
100
AcDbEntity
  8
MAIN0
  6
BYBLOCK
 62
0
100
AcDbMText
 10
874.1604136096004
 20
522.6545018738583
 30
0.0000000000000000
 40
7.749999761581421
 41
0.0000000000000000
 71
     5
 72
     1
  1
\A1;200
 11
6.123233995736766e-017
 21
1.000000000000000
 31
0.0000000000000000
  7
STANDARD
  0
ENDBLK
  5
19C
100
AcDbEntity
  8
MAIN0
  6
CONTINUOUS
 62
3
100
AcDbBlockEnd
  0
BLOCK
  5
19E
100
AcDbEntity
  8
MAIN0
  6
CONTINUOUS
 62
3
100
AcDbBlockBegin
  2
*D7
 70
    65
 10
0.0
 20
0.0
 30
0.0
  0
LINE
  5
19F
100
AcDbEntity
  8
MAIN0
  6
BYBLOCK
 62
0
100
AcDbLine
 10
825.6875067535328
 20
371.2348889494026
 30
0.0000000000000000
 11
843.8975552685415
 21
353.0248404343939
 31
0.0000000000000000
  0
LINE
  5
1A0
100
AcDbEntity
  8
MAIN0
  6
BYBLOCK
 62
0
100
AcDbLine
 10
836.8264874566761
 20
353.0248404343939
 30
0.0000000000000000
 11
833.9980603319299
 21
350.1964133096477
 31
0.0000000000000000
  0
INSERT
  5
1A1
100
AcDbEntity
  8
MAIN0
  6
BYBLOCK
 62
0
100
AcDbBlockReference
  2
_OPEN
 10
840.3620213626087
 20
356.5603743403266
 30
0.0000000000000000
 41
5.000000000000000
 42
5.000000000000000
 43
5.000000000000000
 50
45.00000000000000
  0
INSERT
  5
1A2
100
AcDbEntity
  8
MAIN0
  6
BYBLOCK
 62
0
100
AcDbBlockReference
  2
_OPEN
 10
830.4625264259971
 20
346.6608794037149
 30
0.0000000000000000
 41
5.000000000000000
 42
5.000000000000000
 43
5.000000000000000
 50
225.0000000000000
  0
LINE
  5
1A3
100
AcDbEntity
  8
MAIN0
  6
BYBLOCK
 62
0
100
AcDbLine
 10
840.3620213626087
 20
356.5603743403266
 30
0.0000000000000000
 11
866.9933454668618
 21
383.1916984445796
 31
0.0000000000000000
  0
LINE
  5
1A4
100
AcDbEntity
  8
MAIN0
  6
BYBLOCK
 62
0
100
AcDbLine
 10
815.7880118169200
 20
361.3353940127917
 30
0.0000000000000000
 11
833.9980603319297
 21
343.1253454977822
 31
0.0000000000000000
  0
MTEXT
  5
1A5
100
AcDbEntity
  8
MAIN0
  6
BYBLOCK
 62
0
100
AcDbMText
 10
852.5418505690686
 20
375.9880478853606
 30
0.0000000000000000
 40
7.749999761581421
 41
0.0000000000000000
 71
     5
 72
     1
  1
\A1;14\H0.903226x;\S 0^ -0.15;
 11
0.7071067811865476
 21
0.7071067811865475
 31
0.0000000000000000
  7
STANDARD
  0
ENDBLK
  5
1A6
100
AcDbEntity
  8
MAIN0
  6
CONTINUOUS
 62
3
100
AcDbBlockEnd
  0
BLOCK
  5
1A8
100
AcDbEntity
  8
MAIN0
  6
CONTINUOUS
 62
3
100
AcDbBlockBegin
  2
*D8
 70
    65
 10
0.0
 20
0.0
 30
0.0
  0
LINE
  5
1A9
100
AcDbEntity
  8
MAIN0
  6
BYBLOCK
 62
0
100
AcDbLine
 10
839.0327288270257
 20
251.2414616058414
 30
0.0000000000000000
 11
839.0327288270257
 21
290.3834649757351
 31
0.0000000000000000
  0
LINE
  5
1AA
100
AcDbEntity
  8
MAIN0
  6
BYBLOCK
 62
0
100
AcDbLine
 10
834.0327288270257
 20
285.3834649757351
 30
0.0000000000000000
 11
719.0327288270257
 21
285.3834649757351
 31
0.0000000000000000
  0
INSERT
  5
1AB
100
AcDbEntity
  8
MAIN0
  6
BYBLOCK
 62
0
100
AcDbBlockReference
  2
_OPEN
 10
839.0327288270257
 20
285.3834649757351
 30
0.0000000000000000
 41
5.000000000000000
 42
5.000000000000000
 43
5.000000000000000
 50
360.0000000000000
  0
INSERT
  5
1AC
100
AcDbEntity
  8
MAIN0
  6
BYBLOCK
 62
0
100
AcDbBlockReference
  2
_OPEN
 10
714.0327288270257
 20
285.3834649757351
 30
0.0000000000000000
 41
5.000000000000000
 42
5.000000000000000
 43
5.000000000000000
 50
180.0000000000000
  0
LINE
  5
1AD
100
AcDbEntity
  8
MAIN0
  6
BYBLOCK
 62
0
100
AcDbLine
 10
714.0327288270257
 20
251.2414616058876
 30
0.0000000000000000
 11
714.0327288270257
 21
290.3834649757351
 31
0.0000000000000000
  0
MTEXT
  5
1AE
100
AcDbEntity
  8
MAIN0
  6
BYBLOCK
 62
0
100
AcDbMText
 10
776.5327288270257
 20
289.7584648565258
 30
0.0000000000000000
 40
7.749999761581421
 41
0.0000000000000000
 71
     5
 72
     1
  1
\A1;125
 11
1.000000000000000
 21
0.0000000000000000
 31
0.0000000000000000
  7
STANDARD
  0
ENDBLK
  5
1AF
100
AcDbEntity
  8
MAIN0
  6
CONTINUOUS
 62
3
100
AcDbBlockEnd
  0
BLOCK
  5
1B1
100
AcDbEntity
  8
MAIN0
  6
CONTINUOUS
 62
3
100
AcDbBlockBegin
  2
*D9
 70
    65
 10
0.0
 20
0.0
 30
0.0
  0
LINE
  5
1B2
100
AcDbEntity
  8
MAIN0
  6
BYBLOCK
 62
0
100
AcDbLine
 10
841.0327288568280
 20
249.2414615759547
 30
0.0000000000000000
 11
870.7169464646170
 21
249.2414615759547
 31
0.0000000000000000
  0
LINE
  5
1B3
100
AcDbEntity
  8
MAIN0
  6
BYBLOCK
 62
0
100
AcDbLine
 10
865.7169464646170
 20
244.2414615759547
 30
0.0000000000000000
 11
865.7169464646170
 21
200.2414615760152
 31
0.0000000000000000
  0
INSERT
  5
1B4
100
AcDbEntity
  8
MAIN0
  6
BYBLOCK
 62
0
100
AcDbBlockReference
  2
_OPEN
 10
865.7169464646170
 20
249.2414615759547
 30
0.0000000000000000
 41
5.000000000000000
 42
5.000000000000000
 43
5.000000000000000
 50
90.00000000000000
  0
INSERT
  5
1B5
100
AcDbEntity
  8
MAIN0
  6
BYBLOCK
 62
0
100
AcDbBlockReference
  2
_OPEN
 10
865.7169464646170
 20
195.2414615760152
 30
0.0000000000000000
 41
5.000000000000000
 42
5.000000000000000
 43
5.000000000000000
 50
270.0000000000000
  0
LINE
  5
1B6
100
AcDbEntity
  8
MAIN0
  6
BYBLOCK
 62
0
100
AcDbLine
 10
783.0477288568081
 20
195.2414615760152
 30
0.0000000000000000
 11
870.7169464646170
 21
195.2414615760152
 31
0.0000000000000000
  0
MTEXT
  5
1B7
100
AcDbEntity
  8
MAIN0
  6
BYBLOCK
 62
0
100
AcDbMText
 10
861.3419465838263
 20
222.2414615759849
 30
0.0000000000000000
 40
7.749999761581421
 41
0.0000000000000000
 71
     5
 72
     1
  1
\A1;54
 11
6.123233995736766e-017
 21
1.000000000000000
 31
0.0000000000000000
  7
STANDARD
  0
ENDBLK
  5
1B8
100
AcDbEntity
  8
MAIN0
  6
CONTINUOUS
 62
3
100
AcDbBlockEnd
  0
BLOCK
  5
1BA
100
AcDbEntity
  8
MAIN0
  6
CONTINUOUS
 62
3
100
AcDbBlockBegin
  2
*D10
 70
    65
 10
0.0
 20
0.0
 30
0.0
  0
LINE
  5
1BB
100
AcDbEntity
  8
MAIN0
  6
BYBLOCK
 62
0
100
AcDbLine
 10
803.2827288270017
 20
182.4843151516183
 30
0.0000000000000000
 11
803.2827288270017
 21
165.3834649757351
 31
0.0000000000000000
  0
LINE
  5
1BC
100
AcDbEntity
  8
MAIN0
  6
BYBLOCK
 62
0
100
AcDbLine
 10
798.2827288270017
 20
170.3834649757351
 30
0.0000000000000000
 11
776.5327288270017
 21
170.3834649757351
 31
0.0000000000000000
  0
INSERT
  5
1BD
100
AcDbEntity
  8
MAIN0
  6
BYBLOCK
 62
0
100
AcDbBlockReference
  2
_OPEN
 10
803.2827288270017
 20
170.3834649757351
 30
0.0000000000000000
 41
5.000000000000000
 42
5.000000000000000
 43
5.000000000000000
 50
360.0000000000000
  0
INSERT
  5
1BE
100
AcDbEntity
  8
MAIN0
  6
BYBLOCK
 62
0
100
AcDbBlockReference
  2
_OPEN
 10
771.5327288270017
 20
170.3834649757351
 30
0.0000000000000000
 41
5.000000000000000
 42
5.000000000000000
 43
5.000000000000000
 50
180.0000000000000
  0
LINE
  5
1BF
100
AcDbEntity
  8
MAIN0
  6
BYBLOCK
 62
0
100
AcDbLine
 10
771.5327288270017
 20
182.4843151516300
 30
0.0000000000000000
 11
771.5327288270017
 21
165.3834649757351
 31
0.0000000000000000
  0
MTEXT
  5
1C0
100
AcDbEntity
  8
MAIN0
  6
BYBLOCK
 62
0
100
AcDbMText
 10
787.4077288270017
 20
174.7584648565258
 30
0.0000000000000000
 40
7.749999761581421
 41
0.0000000000000000
 71
     5
 72
     1
  1
\A1;31.75
 11
1.000000000000000
 21
0.0000000000000000
 31
0.0000000000000000
  7
STANDARD
  0
ENDBLK
  5
1C1
100
AcDbEntity
  8
MAIN0
  6
CONTINUOUS
 62
3
100
AcDbBlockEnd
  0
BLOCK
  5
1C3
100
AcDbEntity
  8
MAIN0
  6
CONTINUOUS
 62
3
100
AcDbBlockBegin
  2
*D11
 70
    65
 10
0.0
 20
0.0
 30
0.0
  0
LINE
  5
1C4
100
AcDbEntity
  8
MAIN0
  6
BYBLOCK
 62
0
100
AcDbLine
 10
771.5327288270017
 20
182.4843151516300
 30
0.0000000000000000
 11
771.5327288270017
 21
165.3834649757351
 31
0.0000000000000000
  0
LINE
  5
1C5
100
AcDbEntity
  8
MAIN0
  6
BYBLOCK
 62
0
100
AcDbLine
 10
766.5327288270017
 20
170.3834649757351
 30
0.0000000000000000
 11
744.7827288270017
 21
170.3834649757351
 31
0.0000000000000000
  0
INSERT
  5
1C6
100
AcDbEntity
  8
MAIN0
  6
BYBLOCK
 62
0
100
AcDbBlockReference
  2
_OPEN
 10
771.5327288270017
 20
170.3834649757351
 30
0.0000000000000000
 41
5.000000000000000
 42
5.000000000000000
 43
5.000000000000000
 50
360.0000000000000
  0
INSERT
  5
1C7
100
AcDbEntity
  8
MAIN0
  6
BYBLOCK
 62
0
100
AcDbBlockReference
  2
_OPEN
 10
739.7827288270017
 20
170.3834649757351
 30
0.0000000000000000
 41
5.000000000000000
 42
5.000000000000000
 43
5.000000000000000
 50
180.0000000000000
  0
LINE
  5
1C8
100
AcDbEntity
  8
MAIN0
  6
BYBLOCK
 62
0
100
AcDbLine
 10
739.7827288270017
 20
182.4843151516418
 30
0.0000000000000000
 11
739.7827288270017
 21
165.3834649757351
 31
0.0000000000000000
  0
MTEXT
  5
1C9
100
AcDbEntity
  8
MAIN0
  6
BYBLOCK
 62
0
100
AcDbMText
 10
755.6577288270017
 20
174.7584648565258
 30
0.0000000000000000
 40
7.749999761581421
 41
0.0000000000000000
 71
     5
 72
     1
  1
\A1;31.75
 11
1.000000000000000
 21
0.0000000000000000
 31
0.0000000000000000
  7
STANDARD
  0
ENDBLK
  5
1CA
100
AcDbEntity
  8
MAIN0
  6
CONTINUOUS
 62
3
100
AcDbBlockEnd
  0
BLOCK
  5
1CC
100
AcDbEntity
  8
MAIN0
  6
CONTINUOUS
 62
3
100
AcDbBlockBegin
  2
*D12
 70
    65
 10
0.0
 20
0.0
 30
0.0
  0
LINE
  5
1CD
100
AcDbEntity
  8
MAIN0
  6
BYBLOCK
 62
0
100
AcDbLine
 10
257.3021132083267
 20
577.4134727479496
 30
0.0000000000000000
 11
257.3021132083267
 21
652.5815868900470
 31
0.0000000000000000
  0
LINE
  5
1CE
100
AcDbEntity
  8
MAIN0
  6
BYBLOCK
 62
0
100
AcDbLine
 10
252.3021132083266
 20
647.5815868900470
 30
0.0000000000000000
 11
166.3021132083266
 21
647.5815868900470
 31
0.0000000000000000
  0
INSERT
  5
1CF
100
AcDbEntity
  8
MAIN0
  6
BYBLOCK
 62
0
100
AcDbBlockReference
  2
_OPEN
 10
257.3021132083267
 20
647.5815868900470
 30
0.0000000000000000
 41
5.000000000000000
 42
5.000000000000000
 43
5.000000000000000
 50
360.0000000000000
  0
INSERT
  5
1D0
100
AcDbEntity
  8
MAIN0
  6
BYBLOCK
 62
0
100
AcDbBlockReference
  2
_OPEN
 10
161.3021132083266
 20
647.5815868900470
 30
0.0000000000000000
 41
5.000000000000000
 42
5.000000000000000
 43
5.000000000000000
 50
180.0000000000000
  0
LINE
  5
1D1
100
AcDbEntity
  8
MAIN0
  6
BYBLOCK
 62
0
100
AcDbLine
 10
161.3021132083266
 20
577.4134727479498
 30
0.0000000000000000
 11
161.3021132083266
 21
652.5815868900470
 31
0.0000000000000000
  0
MTEXT
  5
1D2
100
AcDbEntity
  8
MAIN0
  6
BYBLOCK
 62
0
100
AcDbMText
 10
209.3021132083266
 20
651.9565867708377
 30
0.0000000000000000
 40
7.749999761581421
 41
0.0000000000000000
 71
     5
 72
     1
  1
\A1;96
 11
1.000000000000000
 21
0.0000000000000000
 31
0.0000000000000000
  7
STANDARD
  0
ENDBLK
  5
1D3
100
AcDbEntity
  8
MAIN0
  6
CONTINUOUS
 62
3
100
AcDbBlockEnd
  0
BLOCK
  5
1D5
100
AcDbEntity
  8
MAIN0
  6
CONTINUOUS
 62
3
100
AcDbBlockBegin
  2
*D13
 70
    65
 10
0.0
 20
0.0
 30
0.0
  0
LINE
  5
1D6
100
AcDbEntity
  8
MAIN0
  6
BYBLOCK
 62
0
100
AcDbLine
 10
161.3021131785243
 20
577.4134727181474
 30
0.0000000000000000
 11
86.30211320832640
 21
577.4134727181474
 31
0.0000000000000000
  0
LINE
  5
1D7
100
AcDbEntity
  8
MAIN0
  6
BYBLOCK
 62
0
100
AcDbLine
 10
91.30211320832640
 20
572.4134727181474
 30
0.0000000000000000
 11
91.30211320832640
 21
272.4134727181474
 31
0.0000000000000000
  0
INSERT
  5
1D8
100
AcDbEntity
  8
MAIN0
  6
BYBLOCK
 62
0
100
AcDbBlockReference
  2
_OPEN
 10
91.30211320832640
 20
577.4134727181474
 30
0.0000000000000000
 41
5.000000000000000
 42
5.000000000000000
 43
5.000000000000000
 50
90.00000000000000
  0
INSERT
  5
1D9
100
AcDbEntity
  8
MAIN0
  6
BYBLOCK
 62
0
100
AcDbBlockReference
  2
_OPEN
 10
91.30211320832640
 20
267.4134727181474
 30
0.0000000000000000
 41
5.000000000000000
 42
5.000000000000000
 43
5.000000000000000
 50
270.0000000000000
  0
LINE
  5
1DA
100
AcDbEntity
  8
MAIN0
  6
BYBLOCK
 62
0
100
AcDbLine
 10
161.3021131785239
 20
267.4134727181474
 30
0.0000000000000000
 11
86.30211320832640
 21
267.4134727181474
 31
0.0000000000000000
  0
MTEXT
  5
1DB
100
AcDbEntity
  8
MAIN0
  6
BYBLOCK
 62
0
100
AcDbMText
 10
86.92711332753569
 20
422.4134727181474
 30
0.0000000000000000
 40
7.749999761581421
 41
0.0000000000000000
 71
     5
 72
     1
  1
\A1;\U+2205310
 11
6.123233995736766e-017
 21
1.000000000000000
 31
0.0000000000000000
  7
STANDARD
  0
ENDBLK
  5
1DC
100
AcDbEntity
  8
MAIN0
  6
CONTINUOUS
 62
3
100
AcDbBlockEnd
  0
BLOCK
  5
1DE
100
AcDbEntity
  8
MAIN0
  6
CONTINUOUS
 62
3
100
AcDbBlockBegin
  2
*D14
 70
    65
 10
0.0
 20
0.0
 30
0.0
  0
LINE
  5
1DF
100
AcDbEntity
  8
MAIN0
  6
BYBLOCK
 62
0
100
AcDbLine
 10
159.3021131785243
 20
552.4134727181474
 30
0.0000000000000000
 11
111.3021132083264
 21
552.4134727181474
 31
0.0000000000000000
  0
LINE
  5
1E0
100
AcDbEntity
  8
MAIN0
  6
BYBLOCK
 62
0
100
AcDbLine
 10
116.3021132083264
 20
547.4134727181474
 30
0.0000000000000000
 11
116.3021132083264
 21
297.4134727181474
 31
0.0000000000000000
  0
INSERT
  5
1E1
100
AcDbEntity
  8
MAIN0
  6
BYBLOCK
 62
0
100
AcDbBlockReference
  2
_OPEN
 10
116.3021132083264
 20
552.4134727181474
 30
0.0000000000000000
 41
5.000000000000000
 42
5.000000000000000
 43
5.000000000000000
 50
90.00000000000000
  0
INSERT
  5
1E2
100
AcDbEntity
  8
MAIN0
  6
BYBLOCK
 62
0
100
AcDbBlockReference
  2
_OPEN
 10
116.3021132083264
 20
292.4134727181474
 30
0.0000000000000000
 41
5.000000000000000
 42
5.000000000000000
 43
5.000000000000000
 50
270.0000000000000
  0
LINE
  5
1E3
100
AcDbEntity
  8
MAIN0
  6
BYBLOCK
 62
0
100
AcDbLine
 10
159.3021131785240
 20
292.4134727181474
 30
0.0000000000000000
 11
111.3021132083264
 21
292.4134727181474
 31
0.0000000000000000
  0
MTEXT
  5
1E4
100
AcDbEntity
  8
MAIN0
  6
BYBLOCK
 62
0
100
AcDbMText
 10
111.9271133275357
 20
422.4134726995210
 30
0.0000000000000000
 40
7.749999761581421
 41
0.0000000000000000
 71
     5
 72
     1
  1
\A1;\U+2205260H6\H0.903226x;\S＋0.032^ 　0;
 11
6.123233995736766e-017
 21
1.000000000000000
 31
0.0000000000000000
  7
KNJYOKO
  0
ENDBLK
  5
1E5
100
AcDbEntity
  8
MAIN0
  6
CONTINUOUS
 62
3
100
AcDbBlockEnd
  0
BLOCK
  5
1E8
100
AcDbEntity
  8
MAIN0
  6
CONTINUOUS
 62
3
100
AcDbBlockBegin
  2
*D15
 70
    65
 10
0.0
 20
0.0
 30
0.0
  0
LINE
  5
1E9
100
AcDbEntity
  8
MAIN0
  6
BYBLOCK
 62
0
100
AcDbLine
 10
161.3021132083262
 20
392.4134727181474
 30
0.0000000000000000
 11
168.3021132083262
 21
392.4134727181474
 31
0.0000000000000000
  0
INSERT
  5
1EA
100
AcDbEntity
  8
MAIN0
  6
BYBLOCK
 62
0
100
AcDbBlockReference
  2
_OPEN
 10
161.3021132083262
 20
392.4134727181474
 30
0.0000000000000000
 41
5.000000000000000
 42
5.000000000000000
 43
5.000000000000000
 50
0.0000000000000000
  0
INSERT
  5
1EB
100
AcDbEntity
  8
MAIN0
  6
BYBLOCK
 62
0
100
AcDbBlockReference
  2
_OPEN
 10
168.3021132083262
 20
392.4134727181474
 30
0.0000000000000000
 41
5.000000000000000
 42
5.000000000000000
 43
5.000000000000000
 50
180.0000000000000
  0
LINE
  5
1EC
100
AcDbEntity
  8
MAIN0
  6
BYBLOCK
 62
0
100
AcDbLine
 10
156.3021132083262
 20
392.4134727181474
 30
0.0000000000000000
 11
149.0677712203275
 21
392.4134727181474
 31
0.0000000000000000
  0
LINE
  5
1ED
100
AcDbEntity
  8
MAIN0
  6
BYBLOCK
 62
0
100
AcDbLine
 10
173.3021132083262
 20
392.4134727181474
 30
0.0000000000000000
 11
175.8021132083262
 21
392.4134727181474
 31
0.0000000000000000
  0
MTEXT
  5
1EE
100
AcDbEntity
  8
MAIN0
  6
BYBLOCK
 62
0
100
AcDbMText
 10
151.5677712203275
 20
397.0384725989381
 30
0.0000000000000000
 40
7.749999761581421
 41
0.0000000000000000
 71
     5
 72
     1
  1
\A1;7
 11
1.000000000000000
 21
0.0000000000000000
 31
0.0000000000000000
  7
STANDARD
  0
ENDBLK
  5
1EF
100
AcDbEntity
  8
MAIN0
  6
CONTINUOUS
 62
3
100
AcDbBlockEnd
  0
BLOCK
  5
1F1
100
AcDbEntity
  8
MAIN0
  6
CONTINUOUS
 62
3
100
AcDbBlockBegin
  2
*D16
 70
    65
 10
0.0
 20
0.0
 30
0.0
  0
LINE
  5
1F2
100
AcDbEntity
  8
MAIN0
  6
BYBLOCK
 62
0
100
AcDbLine
 10
315.3021132381288
 20
442.4134727181472
 30
0.0000000000000000
 11
341.3021132083264
 21
442.4134727181472
 31
0.0000000000000000
  0
LINE
  5
1F3
100
AcDbEntity
  8
MAIN0
  6
BYBLOCK
 62
0
100
AcDbLine
 10
336.3021132083264
 20
437.4134727181472
 30
0.0000000000000000
 11
336.3021132083264
 21
407.4134727181472
 31
0.0000000000000000
  0
INSERT
  5
1F4
100
AcDbEntity
  8
MAIN0
  6
BYBLOCK
 62
0
100
AcDbBlockReference
  2
_OPEN
 10
336.3021132083264
 20
442.4134727181472
 30
0.0000000000000000
 41
5.000000000000000
 42
5.000000000000000
 43
5.000000000000000
 50
90.00000000000000
  0
INSERT
  5
1F5
100
AcDbEntity
  8
MAIN0
  6
BYBLOCK
 62
0
100
AcDbBlockReference
  2
_OPEN
 10
336.3021132083264
 20
402.4134727181472
 30
0.0000000000000000
 41
5.000000000000000
 42
5.000000000000000
 43
5.000000000000000
 50
270.0000000000000
  0
LINE
  5
1F6
100
AcDbEntity
  8
MAIN0
  6
BYBLOCK
 62
0
100
AcDbLine
 10
315.3021132381287
 20
402.4134727181472
 30
0.0000000000000000
 11
341.3021132083264
 21
402.4134727181472
 31
0.0000000000000000
  0
MTEXT
  5
1F7
100
AcDbEntity
  8
MAIN0
  6
BYBLOCK
 62
0
100
AcDbMText
 10
331.9271133275357
 20
422.4134727181472
 30
0.0000000000000000
 40
7.749999761581421
 41
0.0000000000000000
 71
     5
 72
     1
  1
\A1;40
 11
6.123233995736766e-017
 21
1.000000000000000
 31
0.0000000000000000
  7
STANDARD
  0
ENDBLK
  5
1F8
100
AcDbEntity
  8
MAIN0
  6
CONTINUOUS
 62
3
100
AcDbBlockEnd
  0
BLOCK
  5
1FA
100
AcDbEntity
  8
MAIN0
  6
CONTINUOUS
 62
3
100
AcDbBlockBegin
  2
*D17
 70
    65
 10
0.0
 20
0.0
 30
0.0
  0
LINE
  5
1FB
100
AcDbEntity
  8
MAIN0
  6
BYBLOCK
 62
0
100
AcDbLine
 10
314.3021132381286
 20
380.4134727181472
 30
0.0000000000000000
 11
341.3021132083264
 21
380.4134727181472
 31
0.0000000000000000
  0
LINE
  5
1FC
100
AcDbEntity
  8
MAIN0
  6
BYBLOCK
 62
0
100
AcDbLine
 10
336.3021132083264
 20
375.4134727181472
 30
0.0000000000000000
 11
336.3021132083264
 21
270.4134727181473
 31
0.0000000000000000
  0
INSERT
  5
1FD
100
AcDbEntity
  8
MAIN0
  6
BYBLOCK
 62
0
100
AcDbBlockReference
  2
_OPEN
 10
336.3021132083264
 20
380.4134727181472
 30
0.0000000000000000
 41
5.000000000000000
 42
5.000000000000000
 43
5.000000000000000
 50
90.00000000000000
  0
INSERT
  5
1FE
100
AcDbEntity
  8
MAIN0
  6
BYBLOCK
 62
0
100
AcDbBlockReference
  2
_OPEN
 10
336.3021132083264
 20
265.4134727181473
 30
0.0000000000000000
 41
5.000000000000000
 42
5.000000000000000
 43
5.000000000000000
 50
270.0000000000000
  0
LINE
  5
1FF
100
AcDbEntity
  8
MAIN0
  6
BYBLOCK
 62
0
100
AcDbLine
 10
283.8021132381285
 20
265.4134727181473
 30
0.0000000000000000
 11
341.3021132083264
 21
265.4134727181473
 31
0.0000000000000000
  0
MTEXT
  5
200
100
AcDbEntity
  8
MAIN0
  6
BYBLOCK
 62
0
100
AcDbMText
 10
331.9271133275357
 20
322.9134727181473
 30
0.0000000000000000
 40
7.749999761581421
 41
0.0000000000000000
 71
     5
 72
     1
  1
\A1;115
 11
6.123233995736766e-017
 21
1.000000000000000
 31
0.0000000000000000
  7
STANDARD
  0
ENDBLK
  5
201
100
AcDbEntity
  8
MAIN0
  6
CONTINUOUS
 62
3
100
AcDbBlockEnd
  0
BLOCK
  5
209
100
AcDbEntity
  8
MAIN0
  6
CONTINUOUS
 62
3
100
AcDbBlockBegin
  2
*D18
 70
    65
 10
0.0
 20
0.0
 30
0.0
  0
LINE
  5
20A
100
AcDbEntity
  8
MAIN0
  6
BYBLOCK
 62
0
100
AcDbLine
 10
203.3327575933791
 20
685.1041034906980
 30
0.0000000000000000
 11
215.3050082209251
 21
673.1318528631327
 31
0.0000000000000000
  0
LINE
  5
20B
100
AcDbEntity
  8
MAIN0
  6
BYBLOCK
 62
0
100
AcDbLine
 10
208.2339404090596
 20
673.1318528631383
 30
0.0000000000000000
 11
205.4055132843112
 21
670.3034257383944
 31
0.0000000000000000
  0
INSERT
  5
20C
100
AcDbEntity
  8
MAIN0
  6
BYBLOCK
 62
0
100
AcDbBlockReference
  2
_OPEN
 10
211.7694743149952
 20
676.6673867690682
 30
0.0000000000000000
 41
5.000000000000000
 42
5.000000000000000
 43
5.000000000000000
 50
44.99999999995453
  0
INSERT
  5
20D
100
AcDbEntity
  8
MAIN0
  6
BYBLOCK
 62
0
100
AcDbBlockReference
  2
_OPEN
 10
201.8699793783756
 20
666.7678918324644
 30
0.0000000000000000
 41
5.000000000000000
 42
5.000000000000000
 43
5.000000000000000
 50
224.9999999999545
  0
LINE
  5
20E
100
AcDbEntity
  8
MAIN0
  6
BYBLOCK
 62
0
100
AcDbLine
 10
211.7694743149952
 20
676.6673867690682
 30
0.0000000000000000
 11
240.2758883501769
 21
705.1738008042047
 31
0.0000000000000000
  0
LINE
  5
20F
100
AcDbEntity
  8
MAIN0
  6
BYBLOCK
 62
0
100
AcDbLine
 10
193.4332626567608
 20
675.2046085540928
 30
0.0000000000000000
 11
205.4055132843055
 21
663.2323579265290
 31
0.0000000000000000
  0
MTEXT
  5
210
100
AcDbEntity
  8
MAIN0
  6
BYBLOCK
 62
0
100
AcDbMText
 10
225.8243934523776
 20
697.9701502449975
 30
0.0000000000000000
 40
7.749999761581421
 41
0.0000000000000000
 71
     5
 72
     1
  1
\A1;14\H0.903226x;\S+0.15^ +0.05;
 11
0.7071067811871090
 21
0.7071067811859860
 31
0.0000000000000000
  7
STANDARD
  0
ENDBLK
  5
211
100
AcDbEntity
  8
MAIN0
  6
CONTINUOUS
 62
3
100
AcDbBlockEnd
  0
BLOCK
  5
263
100
AcDbEntity
  8
MAIN0
  6
CONTINUOUS
 62
3
100
AcDbBlockBegin
  2
*D19
 70
    65
 10
0.0
 20
0.0
 30
0.0
  0
LINE
  5
264
100
AcDbEntity
  8
MAIN0
  6
BYBLOCK
 62
0
100
AcDbLine
 10
159.9021131785243
 20
556.6634727181473
 30
0.0000000000000000
 11
136.3021132083264
 21
556.6634727181473
 31
0.0000000000000000
  0
LINE
  5
265
100
AcDbEntity
  8
MAIN0
  6
BYBLOCK
 62
0
100
AcDbLine
 10
141.3021132083264
 20
556.6634727181473
 30
0.0000000000000000
 11
141.3021132083264
 21
570.1634727181473
 31
0.0000000000000000
  0
INSERT
  5
266
100
AcDbEntity
  8
MAIN0
  6
BYBLOCK
 62
0
100
AcDbBlockReference
  2
_OPEN
 10
141.3021132083264
 20
556.6634727181473
 30
0.0000000000000000
 41
5.000000000000000
 42
5.000000000000000
 43
5.000000000000000
 50
90.00000000000000
  0
INSERT
  5
267
100
AcDbEntity
  8
MAIN0
  6
BYBLOCK
 62
0
100
AcDbBlockReference
  2
_OPEN
 10
141.3021132083264
 20
570.1634727181473
 30
0.0000000000000000
 41
5.000000000000000
 42
5.000000000000000
 43
5.000000000000000
 50
270.0000000000000
  0
LINE
  5
268
100
AcDbEntity
  8
MAIN0
  6
BYBLOCK
 62
0
100
AcDbLine
 10
141.3021132083264
 20
551.6634727181473
 30
0.0000000000000000
 11
141.3021132083264
 21
549.1634727181473
 31
0.0000000000000000
  0
LINE
  5
269
100
AcDbEntity
  8
MAIN0
  6
BYBLOCK
 62
0
100
AcDbLine
 10
141.3021132083264
 20
575.1634727181473
 30
0.0000000000000000
 11
141.3021132083264
 21
577.6634727181473
 31
0.0000000000000000
  0
LINE
  5
26A
100
AcDbEntity
  8
MAIN0
  6
BYBLOCK
 62
0
100
AcDbLine
 10
159.9021131785243
 20
570.1634727181473
 30
0.0000000000000000
 11
136.3021132083264
 21
570.1634727181473
 31
0.0000000000000000
  0
MTEXT
  5
26B
100
AcDbEntity
  8
MAIN0
  6
BYBLOCK
 62
0
100
AcDbMText
 10
136.1771133275357
 20
561.6443645987765
 30
0.0000000000000000
 40
7.749999761581421
 41
0.0000000000000000
 71
     5
 72
     1
  1
\A1;\U+220513.5
 11
6.123233995736766e-017
 21
1.000000000000000
 31
0.0000000000000000
  7
STANDARD
  0
ENDBLK
  5
26C
100
AcDbEntity
  8
MAIN0
  6
CONTINUOUS
 62
3
100
AcDbBlockEnd
  0
BLOCK
  5
26E
100
AcDbEntity
  8
MAIN0
  6
CONTINUOUS
 62
3
100
AcDbBlockBegin
  2
*D20
 70
    65
 10
0.0
 20
0.0
 30
0.0
  0
LINE
  5
26F
100
AcDbEntity
  8
MAIN0
  6
BYBLOCK
 62
0
100
AcDbLine
 10
258.7021132381290
 20
553.4134727181473
 30
0.0000000000000000
 11
302.0505973969264
 21
553.4134727181473
 31
0.0000000000000000
  0
LINE
  5
270
100
AcDbEntity
  8
MAIN0
  6
BYBLOCK
 62
0
100
AcDbLine
 10
297.0505973969264
 20
553.4134727181473
 30
0.0000000000000000
 11
297.0505973969264
 21
573.4134727181473
 31
0.0000000000000000
  0
INSERT
  5
271
100
AcDbEntity
  8
MAIN0
  6
BYBLOCK
 62
0
100
AcDbBlockReference
  2
_OPEN
 10
297.0505973969264
 20
553.4134727181473
 30
0.0000000000000000
 41
5.000000000000000
 42
5.000000000000000
 43
5.000000000000000
 50
90.00000000000000
  0
INSERT
  5
272
100
AcDbEntity
  8
MAIN0
  6
BYBLOCK
 62
0
100
AcDbBlockReference
  2
_OPEN
 10
297.0505973969264
 20
573.4134727181473
 30
0.0000000000000000
 41
5.000000000000000
 42
5.000000000000000
 43
5.000000000000000
 50
270.0000000000000
  0
LINE
  5
273
100
AcDbEntity
  8
MAIN0
  6
BYBLOCK
 62
0
100
AcDbLine
 10
297.0505973969264
 20
548.4134727181473
 30
0.0000000000000000
 11
297.0505973969264
 21
545.9134727181473
 31
0.0000000000000000
  0
LINE
  5
274
100
AcDbEntity
  8
MAIN0
  6
BYBLOCK
 62
0
100
AcDbLine
 10
297.0505973969264
 20
578.4134727181473
 30
0.0000000000000000
 11
297.0505973969264
 21
580.9134727181473
 31
0.0000000000000000
  0
LINE
  5
275
100
AcDbEntity
  8
MAIN0
  6
BYBLOCK
 62
0
100
AcDbLine
 10
258.7021132381290
 20
573.4134727181473
 30
0.0000000000000000
 11
302.0505973969264
 21
573.4134727181473
 31
0.0000000000000000
  0
MTEXT
  5
276
100
AcDbEntity
  8
MAIN0
  6
BYBLOCK
 62
0
100
AcDbMText
 10
292.6755975161357
 20
563.4134727181473
 30
0.0000000000000000
 40
7.749999761581421
 41
0.0000000000000000
 71
     5
 72
     1
  1
\A1;\U+220520
 11
6.123233995736766e-017
 21
1.000000000000000
 31
0.0000000000000000
  7
STANDARD
  0
ENDBLK
  5
277
100
AcDbEntity
  8
MAIN0
  6
CONTINUOUS
 62
3
100
AcDbBlockEnd
  0
BLOCK
  5
279
100
AcDbEntity
  8
MAIN0
  6
CONTINUOUS
 62
3
100
AcDbBlockBegin
  2
*D21
 70
    65
 10
0.0
 20
0.0
 30
0.0
  0
LINE
  5
27A
100
AcDbEntity
  8
MAIN0
  6
BYBLOCK
 62
0
100
AcDbLine
 10
242.8021132083266
 20
575.4134727479496
 30
0.0000000000000000
 11
242.8021132083266
 21
599.3495832865731
 31
0.0000000000000000
  0
LINE
  5
27B
100
AcDbEntity
  8
MAIN0
  6
BYBLOCK
 62
0
100
AcDbLine
 10
242.8021132083266
 20
594.3495832865731
 30
0.0000000000000000
 11
257.3021132083267
 21
594.3495832865731
 31
0.0000000000000000
  0
INSERT
  5
27C
100
AcDbEntity
  8
MAIN0
  6
BYBLOCK
 62
0
100
AcDbBlockReference
  2
_OPEN
 10
242.8021132083266
 20
594.3495832865731
 30
0.0000000000000000
 41
5.000000000000000
 42
5.000000000000000
 43
5.000000000000000
 50
0.0000000000000000
  0
INSERT
  5
27D
100
AcDbEntity
  8
MAIN0
  6
BYBLOCK
 62
0
100
AcDbBlockReference
  2
_OPEN
 10
257.3021132083267
 20
594.3495832865731
 30
0.0000000000000000
 41
5.000000000000000
 42
5.000000000000000
 43
5.000000000000000
 50
180.0000000000000
  0
LINE
  5
27E
100
AcDbEntity
  8
MAIN0
  6
BYBLOCK
 62
0
100
AcDbLine
 10
237.8021132083266
 20
594.3495832865731
 30
0.0000000000000000
 11
235.3021132083266
 21
594.3495832865731
 31
0.0000000000000000
  0
LINE
  5
27F
100
AcDbEntity
  8
MAIN0
  6
BYBLOCK
 62
0
100
AcDbLine
 10
262.3021132083267
 20
594.3495832865731
 30
0.0000000000000000
 11
277.6415900808844
 21
594.3495832865731
 31
0.0000000000000000
  0
LINE
  5
280
100
AcDbEntity
  8
MAIN0
  6
BYBLOCK
 62
0
100
AcDbLine
 10
257.3021132083267
 20
577.4134727479496
 30
0.0000000000000000
 11
257.3021132083267
 21
599.3495832865731
 31
0.0000000000000000
  0
MTEXT
  5
281
100
AcDbEntity
  8
MAIN0
  6
BYBLOCK
 62
0
100
AcDbMText
 10
268.5165898424658
 20
599.4745831673638
 30
0.0000000000000000
 40
7.749999761581421
 41
0.0000000000000000
 71
     5
 72
     1
  1
\A1;14.5
 11
1.000000000000000
 21
0.0000000000000000
 31
0.0000000000000000
  7
STANDARD
  0
ENDBLK
  5
282
100
AcDbEntity
  8
MAIN0
  6
CONTINUOUS
 62
3
100
AcDbBlockEnd
  0
BLOCK
  5
291
100
AcDbEntity
  8
MAIN0
  6
CONTINUOUS
 62
3
100
AcDbBlockBegin
  2
*D22
 70
    65
 10
0.0
 20
0.0
 30
0.0
  0
LINE
  5
292
100
AcDbEntity
  8
MAIN0
  6
BYBLOCK
 62
0
100
AcDbLine
 10
262.3021132083267
 20
463.7581655005989
 30
0.0000000000000000
 11
308.3021132083264
 21
463.7581655005989
 31
0.0000000000000000
  0
INSERT
  5
293
100
AcDbEntity
  8
MAIN0
  6
BYBLOCK
 62
0
100
AcDbBlockReference
  2
_OPEN
 10
257.3021132083267
 20
463.7581655005989
 30
0.0000000000000000
 41
5.000000000000000
 42
5.000000000000000
 43
5.000000000000000
 50
180.0000000000000
  0
INSERT
  5
294
100
AcDbEntity
  8
MAIN0
  6
BYBLOCK
 62
0
100
AcDbBlockReference
  2
_OPEN
 10
313.3021132083264
 20
463.7581655005989
 30
0.0000000000000000
 41
5.000000000000000
 42
5.000000000000000
 43
5.000000000000000
 50
0.0000000000000000
  0
LINE
  5
295
100
AcDbEntity
  8
MAIN0
  6
BYBLOCK
 62
0
100
AcDbLine
 10
313.3021132083264
 20
444.4134727479495
 30
0.0000000000000000
 11
313.3021132083264
 21
468.7581655005989
 31
0.0000000000000000
  0
MTEXT
  5
296
100
AcDbEntity
  8
MAIN0
  6
BYBLOCK
 62
0
100
AcDbMText
 10
285.3021132083266
 20
468.1331653813896
 30
0.0000000000000000
 40
7.749999761581421
 41
0.0000000000000000
 71
     5
 72
     1
  1
\A1;56
 11
1.000000000000000
 21
0.0000000000000000
 31
0.0000000000000000
  7
STANDARD
  0
ENDBLK
  5
297
100
AcDbEntity
  8
MAIN0
  6
CONTINUOUS
 62
3
100
AcDbBlockEnd
  0
BLOCK
  5
29B
100
AcDbEntity
  8
MAIN0
  6
CONTINUOUS
 62
3
100
AcDbBlockBegin
  2
*D23
 70
    65
 10
0.0
 20
0.0
 30
0.0
  0
LINE
  5
29C
100
AcDbEntity
  8
MAIN0
  6
BYBLOCK
 62
0
100
AcDbLine
 10
451.9068513807189
 20
285.9523886021920
 30
0.0000000000000000
 11
436.1160669874740
 21
258.6019477418369
 31
0.0000000000000000
  0
LINE
  5
29D
100
AcDbEntity
  8
MAIN0
  6
BYBLOCK
 62
0
100
AcDbLine
 10
530.6926950298864
 20
252.8366362347366
 30
0.0000000000000000
 11
530.6926950298862
 21
233.2602166349247
 31
0.0000000000000000
  0
ARC
  5
29E
100
AcDbEntity
  8
MAIN0
  6
BYBLOCK
 62
0
100
AcDbCircle
 10
530.6926950298870
 20
422.4134727191758
 30
0.0000000000000000
 40
184.1532560842511
100
AcDbArc
 50
241.5556548042563
 51
268.4443451956430
  0
INSERT
  5
29F
100
AcDbEntity
  8
MAIN0
  6
BYBLOCK
 62
0
100
AcDbBlockReference
  2
_OPEN
 10
438.6160669874816
 20
262.9320747607547
 30
0.0000000000000000
 41
5.000000000000000
 42
5.000000000000000
 43
5.000000000000000
 50
149.9999999998994
  0
INSERT
  5
2A0
100
AcDbEntity
  8
MAIN0
  6
BYBLOCK
 62
0
100
AcDbBlockReference
  2
_OPEN
 10
530.6926950298863
 20
238.2602166349247
 30
0.0000000000000000
 41
5.000000000000000
 42
5.000000000000000
 43
5.000000000000000
 50
359.9999999999998
  0
MTEXT
  5
2A1
100
AcDbEntity
  8
MAIN0
  6
BYBLOCK
 62
0
100
AcDbMText
 10
484.1626584289583
 20
248.7610120470814
 30
0.0000000000000000
 40
7.749999761581421
 41
0.0000000000000000
 71
     5
 72
     1
  1
\A1;30\U+00B0
 11
0.9659258262888407
 21
-0.2588190451033701
 31
0.0000000000000000
  7
STANDARD
  0
ENDBLK
  5
2A2
100
AcDbEntity
  8
MAIN0
  6
CONTINUOUS
 62
3
100
AcDbBlockEnd
  0
BLOCK
  5
2A4
100
AcDbEntity
  8
MAIN0
  6
CONTINUOUS
 62
3
100
AcDbBlockBegin
  2
*D24
 70
    65
 10
0.0
 20
0.0
 30
0.0
  0
LINE
  5
2A5
100
AcDbEntity
  8
MAIN0
  6
BYBLOCK
 62
0
100
AcDbLine
 10
530.6926950298864
 20
252.8366362347366
 30
0.0000000000000000
 11
530.6926950298862
 21
233.2602166349247
 31
0.0000000000000000
  0
LINE
  5
2A6
100
AcDbEntity
  8
MAIN0
  6
BYBLOCK
 62
0
100
AcDbLine
 10
704.1566036523406
 20
422.4134727183093
 30
0.0000000000000000
 11
719.8459511141381
 21
422.4134727195811
 31
0.0000000000000000
  0
ARC
  5
2A7
100
AcDbEntity
  8
MAIN0
  6
BYBLOCK
 62
0
100
AcDbCircle
 10
530.6926950298870
 20
422.4134727191758
 30
0.0000000000000000
 40
184.1532560842511
100
AcDbArc
 50
271.5556548043566
 51
358.4443451956432
  0
INSERT
  5
2A8
100
AcDbEntity
  8
MAIN0
  6
BYBLOCK
 62
0
100
AcDbBlockReference
  2
_OPEN
 10
530.6926950298863
 20
238.2602166349247
 30
0.0000000000000000
 41
5.000000000000000
 42
5.000000000000000
 43
5.000000000000000
 50
179.9999999999998
  0
INSERT
  5
2A9
100
AcDbEntity
  8
MAIN0
  6
BYBLOCK
 62
0
100
AcDbBlockReference
  2
_OPEN
 10
714.8459511141381
 20
422.4134727191757
 30
0.0000000000000000
 41
5.000000000000000
 42
5.000000000000000
 43
5.000000000000000
 50
90.00000000000000
  0
MTEXT
  5
2AA
100
AcDbEntity
  8
MAIN0
  6
BYBLOCK
 62
0
100
AcDbMText
 10
657.8151191012460
 20
295.2910486478162
 30
0.0000000000000000
 40
7.749999761581421
 41
0.0000000000000000
 71
     5
 72
     1
  1
\A1;90\U+00B0
 11
0.7071067811865488
 21
0.7071067811865462
 31
0.0000000000000000
  7
STANDARD
  0
ENDBLK
  5
2AB
100
AcDbEntity
  8
MAIN0
  6
CONTINUOUS
 62
3
100
AcDbBlockEnd
  0
BLOCK
  5
2AD
100
AcDbEntity
  8
MAIN0
  6
CONTINUOUS
 62
3
100
AcDbBlockBegin
  2
*D25
 70
    65
 10
0.0
 20
0.0
 30
0.0
  0
LINE
  5
2AE
100
AcDbEntity
  8
MAIN0
  6
BYBLOCK
 62
0
100
AcDbLine
 10
704.1566036523406
 20
422.4134727183093
 30
0.0000000000000000
 11
719.8459511141381
 21
422.4134727195811
 31
0.0000000000000000
  0
LINE
  5
2AF
100
AcDbEntity
  8
MAIN0
  6
BYBLOCK
 62
0
100
AcDbLine
 10
674.3519260569035
 20
505.3551684228971
 30
0.0000000000000000
 11
694.5042200080344
 21
516.9901007601884
 31
0.0000000000000000
  0
ARC
  5
2B0
100
AcDbEntity
  8
MAIN0
  6
BYBLOCK
 62
0
100
AcDbCircle
 10
530.6926950298870
 20
422.4134727191758
 30
0.0000000000000000
 40
184.1532560842511
100
AcDbArc
 50
1.555654804356791
 51
28.44434519525395
  0
INSERT
  5
2B1
100
AcDbEntity
  8
MAIN0
  6
BYBLOCK
 62
0
100
AcDbBlockReference
  2
_OPEN
 10
714.8459511141381
 20
422.4134727191758
 30
0.0000000000000000
 41
5.000000000000000
 42
5.000000000000000
 43
5.000000000000000
 50
270.0000000000000
  0
INSERT
  5
2B2
100
AcDbEntity
  8
MAIN0
  6
BYBLOCK
 62
0
100
AcDbBlockReference
  2
_OPEN
 10
690.1740929890952
 20
514.4901007602178
 30
0.0000000000000000
 41
5.000000000000000
 42
5.000000000000000
 43
5.000000000000000
 50
119.9999999996108
  0
MTEXT
  5
2B3
100
AcDbEntity
  8
MAIN0
  6
BYBLOCK
 62
0
100
AcDbMText
 10
704.3451557021804
 20
468.9435093193618
 30
0.0000000000000000
 40
7.749999761581421
 41
0.0000000000000000
 71
     5
 72
     1
  1
\A1;30\U+00B0
 11
-0.2588190450992395
 21
0.9659258262899475
 31
0.0000000000000000
  7
STANDARD
  0
ENDBLK
  5
2B4
100
AcDbEntity
  8
MAIN0
  6
CONTINUOUS
 62
3
100
AcDbBlockEnd
  0
BLOCK
  5
2B6
100
AcDbEntity
  8
MAIN0
  6
CONTINUOUS
 62
3
100
AcDbBlockBegin
  2
*D26
 70
    65
 10
0.0
 20
0.0
 30
0.0
  0
LINE
  5
2B7
100
AcDbEntity
  8
MAIN0
  6
BYBLOCK
 62
0
100
AcDbLine
 10
674.3519260569035
 20
505.3551684228971
 30
0.0000000000000000
 11
694.5042200080344
 21
516.9901007601884
 31
0.0000000000000000
  0
LINE
  5
2B8
100
AcDbEntity
  8
MAIN0
  6
BYBLOCK
 62
0
100
AcDbLine
 10
530.6926950298870
 20
590.7891752525761
 30
0.0000000000000000
 11
530.6926950298870
 21
611.5667288034268
 31
0.0000000000000000
  0
ARC
  5
2B9
100
AcDbEntity
  8
MAIN0
  6
BYBLOCK
 62
0
100
AcDbCircle
 10
530.6926950298870
 20
422.4134727191758
 30
0.0000000000000000
 40
184.1532560842511
100
AcDbArc
 50
31.55565480396752
 51
88.44434519564321
  0
INSERT
  5
2BA
100
AcDbEntity
  8
MAIN0
  6
BYBLOCK
 62
0
100
AcDbBlockReference
  2
_OPEN
 10
690.1740929890952
 20
514.4901007602178
 30
0.0000000000000000
 41
5.000000000000000
 42
5.000000000000000
 43
5.000000000000000
 50
299.9999999996107
  0
INSERT
  5
2BB
100
AcDbEntity
  8
MAIN0
  6
BYBLOCK
 62
0
100
AcDbBlockReference
  2
_OPEN
 10
530.6926950298870
 20
606.5667288034268
 30
0.0000000000000000
 41
5.000000000000000
 42
5.000000000000000
 43
5.000000000000000
 50
180.0000000000000
  0
MTEXT
  5
2BC
100
AcDbEntity
  8
MAIN0
  6
BYBLOCK
 62
0
100
AcDbMText
 10
635.2500386713842
 20
579.2913398255787
 30
0.0000000000000000
 40
7.749999761581421
 41
0.0000000000000000
 71
     5
 72
     1
  1
\A1;60\U+00B0
 11
0.8321185930638012
 21
-0.5545977344684343
 31
0.0000000000000000
  7
STANDARD
  0
ENDBLK
  5
2BD
100
AcDbEntity
  8
MAIN0
  6
CONTINUOUS
 62
3
100
AcDbBlockEnd
  0
BLOCK
  5
2BF
100
AcDbEntity
  8
MAIN0
  6
CONTINUOUS
 62
3
100
AcDbBlockBegin
  2
*D27
 70
    65
 10
0.0
 20
0.0
 30
0.0
  0
LINE
  5
2C0
100
AcDbEntity
  8
MAIN0
  6
BYBLOCK
 62
0
100
AcDbLine
 10
179.8021131785240
 20
374.4134727181474
 30
0.0000000000000000
 11
136.3021132083264
 21
374.4134727181474
 31
0.0000000000000000
  0
LINE
  5
2C1
100
AcDbEntity
  8
MAIN0
  6
BYBLOCK
 62
0
100
AcDbLine
 10
141.3021132083264
 20
379.4134727181474
 30
0.0000000000000000
 11
141.3021132083264
 21
465.4134727181474
 31
0.0000000000000000
  0
INSERT
  5
2C2
100
AcDbEntity
  8
MAIN0
  6
BYBLOCK
 62
0
100
AcDbBlockReference
  2
_OPEN
 10
141.3021132083264
 20
374.4134727181474
 30
0.0000000000000000
 41
5.000000000000000
 42
5.000000000000000
 43
5.000000000000000
 50
270.0000000000000
  0
INSERT
  5
2C3
100
AcDbEntity
  8
MAIN0
  6
BYBLOCK
 62
0
100
AcDbBlockReference
  2
_OPEN
 10
141.3021132083264
 20
470.4134727181474
 30
0.0000000000000000
 41
5.000000000000000
 42
5.000000000000000
 43
5.000000000000000
 50
90.00000000000000
  0
LINE
  5
2C4
100
AcDbEntity
  8
MAIN0
  6
BYBLOCK
 62
0
100
AcDbLine
 10
179.8021131785241
 20
470.4134727181474
 30
0.0000000000000000
 11
136.3021132083264
 21
470.4134727181474
 31
0.0000000000000000
  0
MTEXT
  5
2C5
100
AcDbEntity
  8
MAIN0
  6
BYBLOCK
 62
0
100
AcDbMText
 10
136.9271133275357
 20
422.4134727181474
 30
0.0000000000000000
 40
7.749999761581421
 41
0.0000000000000000
 71
     5
 72
     1
  1
\A1;\U+220596
 11
6.123233995736766e-017
 21
1.000000000000000
 31
0.0000000000000000
  7
STANDARD
  0
ENDBLK
  5
2C6
100
AcDbEntity
  8
MAIN0
  6
CONTINUOUS
 62
3
100
AcDbBlockEnd
  0
BLOCK
  5
2DB
100
AcDbEntity
  8
MAIN0
  6
CONTINUOUS
 62
3
100
AcDbBlockBegin
  2
*D28
 70
    65
 10
0.0
 20
0.0
 30
0.0
  0
LINE
  5
2DC
100
AcDbEntity
  8
MAIN0
  6
BYBLOCK
 62
0
100
AcDbLine
 10
257.3021132083267
 20
577.4134727479496
 30
0.0000000000000000
 11
257.3021132083267
 21
636.9521855567900
 31
0.0000000000000000
  0
LINE
  5
2DD
100
AcDbEntity
  8
MAIN0
  6
BYBLOCK
 62
0
100
AcDbLine
 10
252.3021132083266
 20
631.9521855567900
 30
0.0000000000000000
 11
197.8021132083266
 21
631.9521855567900
 31
0.0000000000000000
  0
INSERT
  5
2DE
100
AcDbEntity
  8
MAIN0
  6
BYBLOCK
 62
0
100
AcDbBlockReference
  2
_OPEN
 10
257.3021132083267
 20
631.9521855567900
 30
0.0000000000000000
 41
5.000000000000000
 42
5.000000000000000
 43
5.000000000000000
 50
360.0000000000000
  0
INSERT
  5
2DF
100
AcDbEntity
  8
MAIN0
  6
BYBLOCK
 62
0
100
AcDbBlockReference
  2
_OPEN
 10
192.8021132083266
 20
631.9521855567900
 30
0.0000000000000000
 41
5.000000000000000
 42
5.000000000000000
 43
5.000000000000000
 50
180.0000000000000
  0
LINE
  5
2E0
100
AcDbEntity
  8
MAIN0
  6
BYBLOCK
 62
0
100
AcDbLine
 10
192.8021132083266
 20
583.1967938412581
 30
0.0000000000000000
 11
192.8021132083266
 21
636.9521855567900
 31
0.0000000000000000
  0
MTEXT
  5
2E1
100
AcDbEntity
  8
MAIN0
  6
BYBLOCK
 62
0
100
AcDbMText
 10
225.0521132083266
 20
636.3271854375807
 30
0.0000000000000000
 40
7.749999761581421
 41
0.0000000000000000
 71
     5
 72
     1
  1
\A1;64.5
 11
1.000000000000000
 21
0.0000000000000000
 31
0.0000000000000000
  7
STANDARD
  0
ENDBLK
  5
2E2
100
AcDbEntity
  8
MAIN0
  6
CONTINUOUS
 62
3
100
AcDbBlockEnd
  0
BLOCK
  5
2E4
100
AcDbEntity
  8
MAIN0
  6
CONTINUOUS
 62
3
100
AcDbBlockBegin
  2
*D29
 70
    65
 10
0.0
 20
0.0
 30
0.0
  0
LINE
  5
2E5
100
AcDbEntity
  8
MAIN0
  6
BYBLOCK
 62
0
100
AcDbLine
 10
192.8021132083266
 20
583.1967938412581
 30
0.0000000000000000
 11
192.8021132083266
 21
636.9521855567900
 31
0.0000000000000000
  0
LINE
  5
2E6
100
AcDbEntity
  8
MAIN0
  6
BYBLOCK
 62
0
100
AcDbLine
 10
187.8021132083266
 20
631.9521855567900
 30
0.0000000000000000
 11
166.3021132083266
 21
631.9521855567900
 31
0.0000000000000000
  0
INSERT
  5
2E7
100
AcDbEntity
  8
MAIN0
  6
BYBLOCK
 62
0
100
AcDbBlockReference
  2
_OPEN
 10
192.8021132083266
 20
631.9521855567900
 30
0.0000000000000000
 41
5.000000000000000
 42
5.000000000000000
 43
5.000000000000000
 50
360.0000000000000
  0
INSERT
  5
2E8
100
AcDbEntity
  8
MAIN0
  6
BYBLOCK
 62
0
100
AcDbBlockReference
  2
_OPEN
 10
161.3021132083266
 20
631.9521855567900
 30
0.0000000000000000
 41
5.000000000000000
 42
5.000000000000000
 43
5.000000000000000
 50
180.0000000000000
  0
LINE
  5
2E9
100
AcDbEntity
  8
MAIN0
  6
BYBLOCK
 62
0
100
AcDbLine
 10
161.3021132083266
 20
577.4134727479498
 30
0.0000000000000000
 11
161.3021132083266
 21
636.9521855567900
 31
0.0000000000000000
  0
MTEXT
  5
2EA
100
AcDbEntity
  8
MAIN0
  6
BYBLOCK
 62
0
100
AcDbMText
 10
177.0521132083266
 20
636.3271854375807
 30
0.0000000000000000
 40
7.749999761581421
 41
0.0000000000000000
 71
     5
 72
     1
  1
\A1;31.5
 11
1.000000000000000
 21
0.0000000000000000
 31
0.0000000000000000
  7
STANDARD
  0
ENDBLK
  5
2EB
100
AcDbEntity
  8
MAIN0
  6
CONTINUOUS
 62
3
100
AcDbBlockEnd
  0
BLOCK
  5
2ED
100
AcDbEntity
  8
MAIN0
  6
CONTINUOUS
 62
3
100
AcDbBlockBegin
  2
*D30
 70
    65
 10
0.0
 20
0.0
 30
0.0
  0
LINE
  5
2EE
100
AcDbEntity
  8
MAIN0
  6
BYBLOCK
 62
0
100
AcDbLine
 10
257.3021132083267
 20
577.4134727479496
 30
0.0000000000000000
 11
257.3021132083267
 21
614.4645299015497
 31
0.0000000000000000
  0
LINE
  5
2EF
100
AcDbEntity
  8
MAIN0
  6
BYBLOCK
 62
0
100
AcDbLine
 10
257.3021132083267
 20
609.4645299015497
 30
0.0000000000000000
 11
233.8021132083267
 21
609.4645299015497
 31
0.0000000000000000
  0
INSERT
  5
2F0
100
AcDbEntity
  8
MAIN0
  6
BYBLOCK
 62
0
100
AcDbBlockReference
  2
_OPEN
 10
257.3021132083267
 20
609.4645299015497
 30
0.0000000000000000
 41
5.000000000000000
 42
5.000000000000000
 43
5.000000000000000
 50
180.0000000000000
  0
INSERT
  5
2F1
100
AcDbEntity
  8
MAIN0
  6
BYBLOCK
 62
0
100
AcDbBlockReference
  2
_OPEN
 10
233.8021132083267
 20
609.4645299015497
 30
0.0000000000000000
 41
5.000000000000000
 42
5.000000000000000
 43
5.000000000000000
 50
360.0000000000000
  0
LINE
  5
2F2
100
AcDbEntity
  8
MAIN0
  6
BYBLOCK
 62
0
100
AcDbLine
 10
262.3021132083267
 20
609.4645299015497
 30
0.0000000000000000
 11
264.8021132083267
 21
609.4645299015497
 31
0.0000000000000000
  0
LINE
  5
2F3
100
AcDbEntity
  8
MAIN0
  6
BYBLOCK
 62
0
100
AcDbLine
 10
228.8021132083267
 20
609.4645299015497
 30
0.0000000000000000
 11
226.3021132083267
 21
609.4645299015497
 31
0.0000000000000000
  0
LINE
  5
2F4
100
AcDbEntity
  8
MAIN0
  6
BYBLOCK
 62
0
100
AcDbLine
 10
233.8021132083267
 20
584.3064459141058
 30
0.0000000000000000
 11
233.8021132083267
 21
614.4645299015497
 31
0.0000000000000000
  0
MTEXT
  5
2F5
100
AcDbEntity
  8
MAIN0
  6
BYBLOCK
 62
0
100
AcDbMText
 10
245.5521132083266
 20
613.8395297823404
 30
0.0000000000000000
 40
7.749999761581421
 41
0.0000000000000000
 71
     5
 72
     1
  1
\A1;23.5
 11
1.000000000000000
 21
0.0000000000000000
 31
0.0000000000000000
  7
STANDARD
  0
ENDBLK
  5
2F6
100
AcDbEntity
  8
MAIN0
  6
CONTINUOUS
 62
3
100
AcDbBlockEnd
  0
BLOCK
  5
2FB
100
AcDbEntity
  8
MAIN0
  6
CONTINUOUS
 62
3
100
AcDbBlockBegin
  2
*D31
 70
    65
 10
0.0
 20
0.0
 30
0.0
  0
LINE
  5
2FC
100
AcDbEntity
  8
MAIN0
  6
BYBLOCK
 62
0
100
AcDbLine
 10
614.4392982613844
 20
529.5699305132149
 30
0.0000000000000000
 11
446.9460917983889
 21
315.2570149230797
 31
0.0000000000000000
  0
INSERT
  5
2FD
100
AcDbEntity
  8
MAIN0
  6
BYBLOCK
 62
0
100
AcDbBlockReference
  2
_OPEN
 10
617.5182174978364
 20
533.5095061674454
 30
0.0000000000000000
 41
5.000000000000000
 42
5.000000000000000
 43
5.000000000000000
 50
51.99110186948906
  0
INSERT
  5
2FE
100
AcDbEntity
  8
MAIN0
  6
BYBLOCK
 62
0
100
AcDbBlockReference
  2
_OPEN
 10
443.8671725619369
 20
311.3174392688493
 30
0.0000000000000000
 41
5.000000000000000
 42
5.000000000000000
 43
5.000000000000000
 50
231.9911018694890
  0
MTEXT
  5
2FF
100
AcDbEntity
  8
MAIN0
  6
BYBLOCK
 62
0
100
AcDbMText
 10
484.6451820704173
 20
371.8169323007564
 30
0.0000000000000000
 40
7.749999761581421
 41
0.0000000000000000
 71
     5
 72
     1
  1
\A1;\U+2205282\H0.903226x;\U+00B10.2
 11
0.6157838472904240
 21
0.7879151308460853
 31
0.0000000000000000
  7
STANDARD
  0
ENDBLK
  5
300
100
AcDbEntity
  8
MAIN0
  6
CONTINUOUS
 62
3
100
AcDbBlockEnd
  0
BLOCK
  5
304
100
AcDbEntity
  8
MAIN0
  6
CONTINUOUS
 62
3
100
AcDbBlockBegin
  2
*D32
 70
    65
 10
0.0
 20
0.0
 30
0.0
  0
LINE
  5
305
100
AcDbEntity
  8
MAIN0
  6
BYBLOCK
 62
0
100
AcDbLine
 10
572.6857302987363
 20
579.1336139024388
 30
0.0000000000000000
 11
575.8179355131475
 21
590.8231629022716
 31
0.0000000000000000
  0
LINE
  5
306
100
AcDbEntity
  8
MAIN0
  6
BYBLOCK
 62
0
100
AcDbLine
 10
530.6926950298870
 20
590.7891752525761
 30
0.0000000000000000
 11
530.6926950298870
 21
596.7640135161652
 31
0.0000000000000000
  0
ARC
  5
307
100
AcDbEntity
  8
MAIN0
  6
BYBLOCK
 62
0
100
AcDbCircle
 10
530.6926950298865
 20
422.4134727161600
 30
0.0000000000000000
 40
169.3505408000051
100
AcDbArc
 50
76.69163261123977
 51
88.30836738865951
  0
INSERT
  5
308
100
AcDbEntity
  8
MAIN0
  6
BYBLOCK
 62
0
100
AcDbBlockReference
  2
_OPEN
 10
574.5238402876265
 20
585.9935337708286
 30
0.0000000000000000
 41
5.000000000000000
 42
5.000000000000000
 43
5.000000000000000
 50
344.9999999998994
  0
INSERT
  5
309
100
AcDbEntity
  8
MAIN0
  6
BYBLOCK
 62
0
100
AcDbBlockReference
  2
_OPEN
 10
530.6926950298870
 20
591.7640135161652
 30
0.0000000000000000
 41
5.000000000000000
 42
5.000000000000000
 43
5.000000000000000
 50
179.9999999999998
  0
MTEXT
  5
30A
100
AcDbEntity
  8
MAIN0
  6
BYBLOCK
 62
0
100
AcDbMText
 10
553.3684283464719
 20
594.6527673135020
 30
0.0000000000000000
 40
7.749999761581421
 41
0.0000000000000000
 71
     5
 72
     1
  1
\A1;15\U+00B0
 11
0.9914448613736956
 21
-0.1305261922209235
 31
0.0000000000000000
  7
STANDARD
  0
ENDBLK
  5
30B
100
AcDbEntity
  8
MAIN0
  6
CONTINUOUS
 62
3
100
AcDbBlockEnd
  0
ENDSEC
  0
SECTION
  2
ENTITIES
  0
LINE
  5
46
100
AcDbEntity
  8
MAIN0
  6
CONTINUOUS
 62
3
100
AcDbLine
 10
255.3021132083261
 20
267.4134727181473
 30
0.0000000000000000
 11
257.3021132083261
 21
269.4134727181473
 31
0.0000000000000000
  0
LINE
  5
47
100
AcDbEntity
  8
MAIN0
  6
CONTINUOUS
 62
3
100
AcDbLine
 10
255.3021132083265
 20
577.4134727181472
 30
0.0000000000000000
 11
257.3021132083266
 21
575.4134727181472
 31
0.0000000000000000
  0
LINE
  5
48
100
AcDbEntity
  8
MAIN0
  6
CENTER
 62
3
100
AcDbLine
 10
530.6926950298864
 20
254.8366362645390
 30
0.0000000000000000
 11
530.6926950298870
 21
588.7891752227738
 31
0.0000000000000000
  0
LINE
  5
49
100
AcDbEntity
  8
MAIN0
  6
CENTER
 62
3
100
AcDbLine
 10
360.5926185400923
 20
422.4134727181476
 30
0.0000000000000000
 11
702.1566036225382
 21
422.4134727181471
 31
0.0000000000000000
  0
LINE
  5
4A
100
AcDbEntity
  8
MAIN0
  6
CONTINUOUS
 62
3
100
AcDbLine
 10
161.3021132083266
 20
575.4134727181474
 30
0.0000000000000000
 11
163.3021132083266
 21
577.4134727181474
 31
0.0000000000000000
  0
LINE
  5
4B
100
AcDbEntity
  8
MAIN0
  6
CONTINUOUS
 62
3
100
AcDbLine
 10
163.3021132083262
 20
267.4134727181474
 30
0.0000000000000000
 11
161.3021132083262
 21
269.4134727181474
 31
0.0000000000000000
  0
ARC
  5
4C
100
AcDbEntity
  8
MAIN0
  6
PHANTOM
 62
3
100
AcDbCircle
 10
530.6926950298868
 20
422.4134727181473
 30
0.0000000000000000
 40
74.00000000000000
100
AcDbArc
 50
99.46251140634411
 51
120.9321777243968
  0
LINE
  5
4D
100
AcDbEntity
  8
MAIN0
  6
PHANTOM
 62
3
100
AcDbLine
 10
510.0729858949134
 20
479.0656579615170
 30
0.0000000000000000
 11
501.5953723070106
 21
502.3577098648551
 31
0.0000000000000000
  0
CIRCLE
  5
4E
100
AcDbEntity
  8
MAIN0
  6
CONTINUOUS
 62
3
100
AcDbCircle
 10
505.3832044235143
 20
491.9507266562052
 30
0.0000000000000000
 40
7.500000000000000
  0
LINE
  5
4F
100
AcDbEntity
  8
MAIN0
  6
HIDDEN
 62
3
100
AcDbLine
 10
161.3021132083267
 20
552.4134727181474
 30
0.0000000000000000
 11
166.3021132083266
 21
552.4134727181474
 31
0.0000000000000000
  0
LINE
  5
50
100
AcDbEntity
  8
MAIN0
  6
HIDDEN
 62
3
100
AcDbLine
 10
166.3021132083266
 20
552.4134727181474
 30
0.0000000000000000
 11
168.3021132083265
 21
552.4134727181474
 31
0.0000000000000000
  0
LINE
  5
51
100
AcDbEntity
  8
MAIN0
  6
HIDDEN
 62
3
100
AcDbLine
 10
161.3021132083263
 20
292.4134727181474
 30
0.0000000000000000
 11
166.7021132083262
 21
292.4134727181474
 31
0.0000000000000000
  0
LINE
  5
52
100
AcDbEntity
  8
MAIN0
  6
HIDDEN
 62
3
100
AcDbLine
 10
166.7021132083262
 20
292.4134727181474
 30
0.0000000000000000
 11
173.3021132083262
 21
292.4134727181474
 31
0.0000000000000000
  0
LINE
  5
53
100
AcDbEntity
  8
MAIN0
  6
HIDDEN
 62
3
100
AcDbLine
 10
549.6926950298868
 20
540.8858394948065
 30
0.0000000000000000
 11
549.6926950298869
 21
576.2445489023826
 31
0.0000000000000000
  0
LINE
  5
54
100
AcDbEntity
  8
MAIN0
  6
HIDDEN
 62
3
100
AcDbLine
 10
180.8021132083263
 20
347.4134727181474
 30
0.0000000000000000
 11
180.8021132083265
 21
497.4134727181474
 31
0.0000000000000000
  0
LINE
  5
55
100
AcDbEntity
  8
MAIN0
  6
HIDDEN
 62
3
100
AcDbLine
 10
169.3021132083263
 20
347.4134727181474
 30
0.0000000000000000
 11
180.8021132083263
 21
347.4134727181474
 31
0.0000000000000000
  0
LINE
  5
56
100
AcDbEntity
  8
MAIN0
  6
HIDDEN
 62
3
100
AcDbLine
 10
169.3021132083263
 20
347.4134727181474
 30
0.0000000000000000
 11
168.3021132083263
 21
346.4134727181474
 31
0.0000000000000000
  0
LINE
  5
57
100
AcDbEntity
  8
MAIN0
  6
HIDDEN
 62
3
100
AcDbLine
 10
168.3021132083262
 20
292.4134727181474
 30
0.0000000000000000
 11
168.3021132083266
 21
552.4134727181474
 31
0.0000000000000000
  0
LINE
  5
58
100
AcDbEntity
  8
MAIN0
  6
CONTINUOUS
 62
3
100
AcDbLine
 10
255.3021132083265
 20
577.4134727181472
 30
0.0000000000000000
 11
257.3021132083266
 21
575.4134727181472
 31
0.0000000000000000
  0
LINE
  5
59
100
AcDbEntity
  8
MAIN0
  6
CONTINUOUS
 62
3
100
AcDbLine
 10
265.8021132083262
 20
265.4134727181473
 30
0.0000000000000000
 11
281.8021132083262
 21
265.4134727181473
 31
0.0000000000000000
  0
LINE
  5
5A
100
AcDbEntity
  8
MAIN0
  6
CONTINUOUS
 62
3
100
AcDbLine
 10
163.3021132083266
 20
577.4134727181474
 30
0.0000000000000000
 11
161.3021132083266
 21
575.4134727181474
 31
0.0000000000000000
  0
LINE
  5
5B
100
AcDbEntity
  8
MAIN0
  6
HIDDEN
 62
3
100
AcDbLine
 10
161.3021132083267
 20
552.4134727181474
 30
0.0000000000000000
 11
166.7021132083266
 21
552.4134727181474
 31
0.0000000000000000
  0
LINE
  5
5C
100
AcDbEntity
  8
MAIN0
  6
HIDDEN
 62
3
100
AcDbLine
 10
166.7021132083266
 20
552.4134727181474
 30
0.0000000000000000
 11
173.3021132083266
 21
552.4134727181474
 31
0.0000000000000000
  0
LINE
  5
5D
100
AcDbEntity
  8
MAIN0
  6
HIDDEN
 62
3
100
AcDbLine
 10
169.3021132083265
 20
497.4134727181474
 30
0.0000000000000000
 11
180.8021132083265
 21
497.4134727181474
 31
0.0000000000000000
  0
LINE
  5
5E
100
AcDbEntity
  8
MAIN0
  6
HIDDEN
 62
3
100
AcDbLine
 10
169.3021132083265
 20
497.4134727181474
 30
0.0000000000000000
 11
168.3021132083265
 21
498.4134727181474
 31
0.0000000000000000
  0
LINE
  5
5F
100
AcDbEntity
  8
MAIN0
  6
CONTINUOUS
 62
3
100
AcDbLine
 10
313.3021132083263
 20
347.4134727181472
 30
0.0000000000000000
 11
313.3021132083263
 21
379.4134727181473
 31
0.0000000000000000
  0
LINE
  5
60
100
AcDbEntity
  8
MAIN0
  6
CONTINUOUS
 62
3
100
AcDbLine
 10
298.3021132083263
 20
318.9134727181472
 30
0.0000000000000000
 11
298.3021132083263
 21
342.9134727181472
 31
0.0000000000000000
  0
LINE
  5
61
100
AcDbEntity
  8
MAIN0
  6
CONTINUOUS
 62
3
100
AcDbLine
 10
283.3021132083263
 20
283.9134727181473
 30
0.0000000000000000
 11
283.3021132083263
 21
307.9134727181473
 31
0.0000000000000000
  0
LINE
  5
62
100
AcDbEntity
  8
MAIN0
  6
CONTINUOUS
 62
3
100
AcDbLine
 10
313.3021132083263
 20
379.4134727181472
 30
0.0000000000000000
 11
312.3021132083263
 21
380.4134727181472
 31
0.0000000000000000
  0
LINE
  5
63
100
AcDbEntity
  8
MAIN0
  6
CONTINUOUS
 62
3
100
AcDbLine
 10
312.3021132083263
 20
346.4134727181472
 30
0.0000000000000000
 11
313.3021132083263
 21
347.4134727181472
 31
0.0000000000000000
  0
LINE
  5
64
100
AcDbEntity
  8
MAIN0
  6
CONTINUOUS
 62
3
100
AcDbLine
 10
297.8021132083263
 20
312.4134727181473
 30
0.0000000000000000
 11
297.8021132083263
 21
318.4134727181472
 31
0.0000000000000000
  0
LINE
  5
65
100
AcDbEntity
  8
MAIN0
  6
CONTINUOUS
 62
3
100
AcDbLine
 10
282.8021132083262
 20
266.4134727181472
 30
0.0000000000000000
 11
282.8021132083262
 21
283.4134727181473
 31
0.0000000000000000
  0
LINE
  5
66
100
AcDbEntity
  8
MAIN0
  6
CONTINUOUS
 62
3
100
AcDbLine
 10
282.8021132083262
 20
266.4134727181473
 30
0.0000000000000000
 11
281.8021132083262
 21
265.4134727181473
 31
0.0000000000000000
  0
LINE
  5
67
100
AcDbEntity
  8
MAIN0
  6
CONTINUOUS
 62
3
100
AcDbLine
 10
297.8021132083263
 20
312.4134727181472
 30
0.0000000000000000
 11
296.8021132083263
 21
311.4134727181472
 31
0.0000000000000000
  0
LINE
  5
68
100
AcDbEntity
  8
MAIN0
  6
CONTINUOUS
 62
3
100
AcDbLine
 10
298.3021132083263
 20
318.9134727181472
 30
0.0000000000000000
 11
297.8021132083263
 21
318.4134727181472
 31
0.0000000000000000
  0
LINE
  5
69
100
AcDbEntity
  8
MAIN0
  6
CONTINUOUS
 62
3
100
AcDbLine
 10
283.3021132083262
 20
283.9134727181473
 30
0.0000000000000000
 11
282.8021132083262
 21
283.4134727181473
 31
0.0000000000000000
  0
LINE
  5
6A
100
AcDbEntity
  8
MAIN0
  6
CENTER
 62
3
100
AcDbLine
 10
306.3021132083263
 20
343.8256499951214
 30
0.0000000000000000
 11
306.3021132083263
 21
350.4301923306331
 31
0.0000000000000000
  0
LINE
  5
6B
100
AcDbEntity
  8
MAIN0
  6
PHANTOM
 62
3
100
AcDbLine
 10
303.3021132083263
 20
376.3331112777948
 30
0.0000000000000000
 11
303.3021132083263
 21
383.0091741227088
 31
0.0000000000000000
  0
LINE
  5
6C
100
AcDbEntity
  8
MAIN0
  6
CONTINUOUS
 62
3
100
AcDbLine
 10
300.9021132083263
 20
346.4134727181472
 30
0.0000000000000000
 11
305.3021132083701
 21
346.4134727181472
 31
0.0000000000000000
  0
LINE
  5
6D
100
AcDbEntity
  8
MAIN0
  6
CONTINUOUS
 62
3
100
AcDbLine
 10
307.3021132081078
 20
346.4134727181472
 30
0.0000000000000000
 11
312.3021132083263
 21
346.4134727181472
 31
0.0000000000000000
  0
LINE
  5
6E
100
AcDbEntity
  8
MAIN0
  6
CENTER
 62
3
100
AcDbLine
 10
291.1021132083262
 20
308.8256499951214
 30
0.0000000000000000
 11
291.1021132083263
 21
315.7009302009852
 31
0.0000000000000000
  0
LINE
  5
6F
100
AcDbEntity
  8
MAIN0
  6
CONTINUOUS
 62
3
100
AcDbLine
 10
285.9021132083263
 20
311.4134727181473
 30
0.0000000000000000
 11
290.1021132080013
 21
311.4134727181473
 31
0.0000000000000000
  0
LINE
  5
70
100
AcDbEntity
  8
MAIN0
  6
CONTINUOUS
 62
3
100
AcDbLine
 10
292.1021132095030
 20
311.4134727181473
 30
0.0000000000000000
 11
296.8021132083263
 21
311.4134727181473
 31
0.0000000000000000
  0
LINE
  5
71
100
AcDbEntity
  8
MAIN0
  6
PHANTOM
 62
3
100
AcDbLine
 10
295.8021132083263
 20
376.3331112777948
 30
0.0000000000000000
 11
295.8021132083263
 21
383.0091741227088
 31
0.0000000000000000
  0
LINE
  5
72
100
AcDbEntity
  8
MAIN0
  6
PHANTOM
 62
3
100
AcDbLine
 10
288.3021132083263
 20
376.3331112777948
 30
0.0000000000000000
 11
288.3021132083263
 21
383.0091741227088
 31
0.0000000000000000
  0
LINE
  5
73
100
AcDbEntity
  8
MAIN0
  6
PHANTOM
 62
3
100
AcDbLine
 10
280.8021132083263
 20
376.3331112777948
 30
0.0000000000000000
 11
280.8021132083263
 21
383.0091741227088
 31
0.0000000000000000
  0
LINE
  5
74
100
AcDbEntity
  8
MAIN0
  6
CONTINUOUS
 62
3
100
AcDbLine
 10
289.5521132081672
 20
380.4134727181473
 30
0.0000000000000000
 11
294.5521132075444
 21
380.4134727181473
 31
0.0000000000000000
  0
LINE
  5
75
100
AcDbEntity
  8
MAIN0
  6
CONTINUOUS
 62
3
100
AcDbLine
 10
282.0521132081672
 20
380.4134727181473
 30
0.0000000000000000
 11
287.0521132075444
 21
380.4134727181473
 31
0.0000000000000000
  0
LINE
  5
76
100
AcDbEntity
  8
MAIN0
  6
CONTINUOUS
 62
3
100
AcDbLine
 10
274.5521132081672
 20
380.4134727181473
 30
0.0000000000000000
 11
279.5521132075444
 21
380.4134727181473
 31
0.0000000000000000
  0
LINE
  5
77
100
AcDbEntity
  8
MAIN0
  6
CONTINUOUS
 62
3
100
AcDbLine
 10
265.8021132083264
 20
380.4134727181473
 30
0.0000000000000000
 11
272.0521132075444
 21
380.4134727181473
 31
0.0000000000000000
  0
ARC
  5
78
100
AcDbEntity
  8
MAIN0
  6
CONTINUOUS
 62
3
100
AcDbCircle
 10
530.6926950298866
 20
422.4134727181474
 30
0.0000000000000000
 40
155.0000000000000
100
AcDbArc
 50
152.0860331848001
 51
267.9139668150736
  0
ARC
  5
79
100
AcDbEntity
  8
MAIN0
  6
CONTINUOUS
 62
3
100
AcDbCircle
 10
530.6926950298866
 20
422.4134727181474
 30
0.0000000000000000
 40
155.0000000000000
100
AcDbArc
 50
32.08603318480020
 51
147.9139668150733
  0
ARC
  5
7A
100
AcDbEntity
  8
MAIN0
  6
CONTINUOUS
 62
3
100
AcDbCircle
 10
530.6926950298866
 20
422.4134727181474
 30
0.0000000000000000
 40
155.0000000000000
100
AcDbArc
 50
272.0860331848000
 51
387.9139668150734
  0
LINE
  5
7B
100
AcDbEntity
  8
MAIN0
  6
HIDDEN
 62
3
100
AcDbLine
 10
511.6926950298868
 20
540.8858394948065
 30
0.0000000000000000
 11
511.6926950298869
 21
576.2445489023826
 31
0.0000000000000000
  0
LINE
  5
7C
100
AcDbEntity
  8
MAIN0
  6
CENTER
 62
3
100
AcDbLine
 10
513.6926950298869
 20
553.5200102116779
 30
0.0000000000000000
 11
513.6926950298869
 21
572.7015623106249
 31
0.0000000000000000
  0
ARC
  5
7D
100
AcDbEntity
  8
MAIN0
  6
CENTER
 62
3
100
AcDbCircle
 10
530.6926950298868
 20
422.4134727181473
 30
0.0000000000000000
 40
142.5000000000000
100
AcDbArc
 50
93.29498585594212
 51
100.8598387497879
  0
MTEXT
  5
7E
100
AcDbEntity
  8
MAIN0
  6
CONTINUOUS
 62
3
100
AcDbMText
 10
555.5687402316363
 20
280.1297620594673
 30
0.0000000000000000
 40
7.749999761581421
 41
0.0000000000000000
 71
     1
 72
     1
  1
{\H0.81x;{1}}
 11
1.000000000000000
 21
-1.133107779529596e-015
 31
0.0000000000000000
  7
STANDARD
  0
MTEXT
  5
7F
100
AcDbEntity
  8
MAIN0
  6
CONTINUOUS
 62
3
100
AcDbMText
 10
396.9504378049143
 20
470.5747604359252
 30
0.0000000000000000
 40
7.749999761581421
 41
0.0000000000000000
 71
     1
 72
     1
  1
{\H0.81x;{3}}
 11
-0.5000000000000012
 21
-0.8660254037844379
 31
0.0000000000000000
  7
STANDARD
  0
MTEXT
  5
80
100
AcDbEntity
  8
MAIN0
  6
CONTINUOUS
 62
3
100
AcDbMText
 10
640.2895425804662
 20
514.4122419436962
 30
0.0000000000000000
 40
7.749999761581421
 41
0.0000000000000000
 71
     1
 72
     1
  1
{\H0.81x;{2}}
 11
-0.4999999999999987
 21
0.8660254037844394
 31
0.0000000000000000
  7
STANDARD
  0
ARC
  5
81
100
AcDbEntity
  8
MAIN0
  6
HIDDEN
 62
3
100
AcDbCircle
 10
256.6021132083265
 20
496.4134727181473
 30
0.0000000000000000
 40
0.5000000000000000
100
AcDbArc
 50
269.9999999999999
 51
449.9999999999999
  0
LINE
  5
82
100
AcDbEntity
  8
MAIN0
  6
PHANTOM
 62
3
100
AcDbLine
 10
220.0021132083691
 20
406.6634727181474
 30
0.0000000000000000
 11
231.8021132083264
 21
406.6634727181473
 31
0.0000000000000000
  0
LINE
  5
83
100
AcDbEntity
  8
MAIN0
  6
PHANTOM
 62
3
100
AcDbLine
 10
231.8021132083264
 20
400.1634727181473
 30
0.0000000000000000
 11
242.8021132083264
 21
400.1634727181473
 31
0.0000000000000000
  0
LINE
  5
84
100
AcDbEntity
  8
MAIN0
  6
PHANTOM
 62
3
100
AcDbLine
 10
231.8021132083264
 20
400.4134727181473
 30
0.0000000000000000
 11
242.8021132083264
 21
400.4134727181473
 31
0.0000000000000000
  0
LINE
  5
85
100
AcDbEntity
  8
MAIN0
  6
PHANTOM
 62
3
100
AcDbLine
 10
220.0021132083691
 20
406.6634727181474
 30
0.0000000000000000
 11
220.0021132083754
 21
438.1634727181473
 31
0.0000000000000000
  0
LINE
  5
86
100
AcDbEntity
  8
MAIN0
  6
PHANTOM
 62
3
100
AcDbLine
 10
220.0021132083692
 20
406.9134727181474
 30
0.0000000000000000
 11
231.8021132083264
 21
406.9134727181473
 31
0.0000000000000000
  0
LINE
  5
87
100
AcDbEntity
  8
MAIN0
  6
PHANTOM
 62
3
100
AcDbLine
 10
220.0021132083692
 20
438.1634727181474
 30
0.0000000000000000
 11
231.8021132083264
 21
438.1634727181473
 31
0.0000000000000000
  0
LINE
  5
88
100
AcDbEntity
  8
MAIN0
  6
PHANTOM
 62
3
100
AcDbLine
 10
231.8021132083264
 20
444.6634727181473
 30
0.0000000000000000
 11
242.8021132083264
 21
444.6634727181473
 31
0.0000000000000000
  0
LINE
  5
89
100
AcDbEntity
  8
MAIN0
  6
PHANTOM
 62
3
100
AcDbLine
 10
231.8021132083264
 20
444.4134727181473
 30
0.0000000000000000
 11
242.8021132083264
 21
444.4134727181473
 31
0.0000000000000000
  0
LINE
  5
8A
100
AcDbEntity
  8
MAIN0
  6
PHANTOM
 62
3
100
AcDbLine
 10
220.0021132083692
 20
437.9134727181474
 30
0.0000000000000000
 11
231.8021132083264
 21
437.9134727181473
 31
0.0000000000000000
  0
LINE
  5
8B
100
AcDbEntity
  8
MAIN0
  6
PHANTOM
 62
3
100
AcDbLine
 10
242.8021132083264
 20
400.1634727181473
 30
0.0000000000000000
 11
242.8021132083264
 21
406.9134727181473
 31
0.0000000000000000
  0
LINE
  5
8C
100
AcDbEntity
  8
MAIN0
  6
PHANTOM
 62
3
100
AcDbLine
 10
242.8021132083264
 20
437.9134727181473
 30
0.0000000000000000
 11
242.8021132083264
 21
444.6634727181473
 31
0.0000000000000000
  0
LINE
  5
8D
100
AcDbEntity
  8
MAIN0
  6
PHANTOM
 62
3
100
AcDbLine
 10
231.8021132083264
 20
400.1634727181473
 30
0.0000000000000000
 11
231.8021132083264
 21
406.9134727181473
 31
0.0000000000000000
  0
LINE
  5
8E
100
AcDbEntity
  8
MAIN0
  6
PHANTOM
 62
3
100
AcDbLine
 10
231.8021132083264
 20
437.9134727181473
 30
0.0000000000000000
 11
231.8021132083264
 21
444.6634727181473
 31
0.0000000000000000
  0
LINE
  5
8F
100
AcDbEntity
  8
MAIN0
  6
PHANTOM
 62
3
100
AcDbLine
 10
242.8021132083265
 20
437.9134727181473
 30
0.0000000000000000
 11
262.3021132083264
 21
437.9134727181473
 31
0.0000000000000000
  0
LINE
  5
90
100
AcDbEntity
  8
MAIN0
  6
PHANTOM
 62
3
100
AcDbLine
 10
242.8021132083264
 20
406.9134727181473
 30
0.0000000000000000
 11
262.3021132083264
 21
406.9134727181473
 31
0.0000000000000000
  0
LINE
  5
91
100
AcDbEntity
  8
MAIN0
  6
CONTINUOUS
 62
3
100
AcDbLine
 10
161.3021132083262
 20
269.4134727181474
 30
0.0000000000000000
 11
161.3021132083266
 21
575.4134727181474
 31
0.0000000000000000
  0
LINE
  5
92
100
AcDbEntity
  8
MAIN0
  6
HIDDEN
 62
3
100
AcDbLine
 10
181.8021132083265
 20
470.4134727181474
 30
0.0000000000000000
 11
256.3021132083265
 21
470.4134727181473
 31
0.0000000000000000
  0
LINE
  5
93
100
AcDbEntity
  8
MAIN0
  6
HIDDEN
 62
3
100
AcDbLine
 10
180.8021132083265
 20
471.4134727181474
 30
0.0000000000000000
 11
181.8021132083265
 21
470.4134727181474
 31
0.0000000000000000
  0
LINE
  5
94
100
AcDbEntity
  8
MAIN0
  6
CENTER
 62
3
100
AcDbLine
 10
143.6544465013613
 20
422.4134727181474
 30
0.0000000000000000
 11
320.7949570576514
 21
422.4134727181472
 31
0.0000000000000000
  0
LINE
  5
95
100
AcDbEntity
  8
MAIN0
  6
PHANTOM
 62
3
100
AcDbLine
 10
259.3021132083264
 20
442.4134727181473
 30
0.0000000000000000
 11
313.3021132083264
 21
442.4134727181472
 31
0.0000000000000000
  0
LINE
  5
96
100
AcDbEntity
  8
MAIN0
  6
PHANTOM
 62
3
100
AcDbLine
 10
259.3021132083264
 20
402.4134727181473
 30
0.0000000000000000
 11
313.3021132083264
 21
402.4134727181472
 31
0.0000000000000000
  0
LINE
  5
97
100
AcDbEntity
  8
MAIN0
  6
PHANTOM
 62
3
100
AcDbLine
 10
313.3021132083264
 20
402.4134727181472
 30
0.0000000000000000
 11
313.3021132083264
 21
442.4134727181472
 31
0.0000000000000000
  0
LINE
  5
98
100
AcDbEntity
  8
MAIN0
  6
CONTINUOUS
 62
3
100
AcDbLine
 10
297.0521132081672
 20
380.4134727181473
 30
0.0000000000000000
 11
302.0521132075443
 21
380.4134727181473
 31
0.0000000000000000
  0
LINE
  5
99
100
AcDbEntity
  8
MAIN0
  6
CONTINUOUS
 62
3
100
AcDbLine
 10
304.5521132081672
 20
380.4134727181472
 30
0.0000000000000000
 11
312.3021132083263
 21
380.4134727181472
 31
0.0000000000000000
  0
LINE
  5
9A
100
AcDbEntity
  8
MAIN0
  6
CENTER
 62
3
100
AcDbLine
 10
252.7906882672998
 20
322.9134727181472
 30
0.0000000000000000
 11
271.7224882162009
 21
322.9134727181473
 31
0.0000000000000000
  0
LINE
  5
9B
100
AcDbEntity
  8
MAIN0
  6
CONTINUOUS
 62
3
100
AcDbLine
 10
265.8021132083262
 20
265.4134727181473
 30
0.0000000000000000
 11
265.8021132083264
 21
380.4134727181473
 31
0.0000000000000000
  0
LINE
  5
9C
100
AcDbEntity
  8
MAIN0
  6
CONTINUOUS
 62
3
100
AcDbLine
 10
259.3021132083263
 20
313.3984727181472
 30
0.0000000000000000
 11
259.3021132083263
 21
332.4284727181473
 31
0.0000000000000000
  0
LINE
  5
9D
100
AcDbEntity
  8
MAIN0
  6
CONTINUOUS
 62
3
100
AcDbLine
 10
258.8021132083263
 20
313.3984727181472
 30
0.0000000000000000
 11
265.3021132083263
 21
313.3984727181473
 31
0.0000000000000000
  0
LINE
  5
9E
100
AcDbEntity
  8
MAIN0
  6
CONTINUOUS
 62
3
100
AcDbLine
 10
258.8021132083263
 20
332.4284727181473
 30
0.0000000000000000
 11
265.3021132083263
 21
332.4284727181473
 31
0.0000000000000000
  0
LINE
  5
9F
100
AcDbEntity
  8
MAIN0
  6
CONTINUOUS
 62
3
100
AcDbLine
 10
226.0021132083261
 20
267.4134727181472
 30
0.0000000000000000
 11
265.3021132083262
 21
267.4134727181471
 31
0.0000000000000000
  0
LINE
  5
A0
100
AcDbEntity
  8
MAIN0
  6
CONTINUOUS
 62
3
100
AcDbLine
 10
258.8021132083263
 20
332.4284727181473
 30
0.0000000000000000
 11
258.8021132083263
 21
313.3984727181472
 31
0.0000000000000000
  0
LINE
  5
A1
100
AcDbEntity
  8
MAIN0
  6
CENTER
 62
3
100
AcDbLine
 10
257.8021132083263
 20
383.0091741227089
 30
0.0000000000000000
 11
257.8021132083263
 21
376.3331112777949
 31
0.0000000000000000
  0
LINE
  5
A2
100
AcDbEntity
  8
MAIN0
  6
CENTER
 62
3
100
AcDbLine
 10
250.3021132083263
 20
383.0091741227089
 30
0.0000000000000000
 11
250.3021132083263
 21
376.3331112777949
 31
0.0000000000000000
  0
LINE
  5
A3
100
AcDbEntity
  8
MAIN0
  6
CENTER
 62
3
100
AcDbLine
 10
242.8021132083263
 20
383.0091741227089
 30
0.0000000000000000
 11
242.8021132083263
 21
376.3331112777949
 31
0.0000000000000000
  0
LINE
  5
A4
100
AcDbEntity
  8
MAIN0
  6
CENTER
 62
3
100
AcDbLine
 10
235.3021132083263
 20
383.0091741227089
 30
0.0000000000000000
 11
235.3021132083263
 21
376.3331112777949
 31
0.0000000000000000
  0
LINE
  5
A5
100
AcDbEntity
  8
MAIN0
  6
CONTINUOUS
 62
3
100
AcDbLine
 10
257.8021132078542
 20
378.2484092081444
 30
0.0000000000000000
 11
259.0521132081671
 21
380.4134727181472
 31
0.0000000000000000
  0
LINE
  5
A6
100
AcDbEntity
  8
MAIN0
  6
HIDDEN
 62
3
100
AcDbLine
 10
256.5521132075443
 20
380.4134727181475
 30
0.0000000000000000
 11
257.8021132078543
 21
378.2484092081446
 31
0.0000000000000000
  0
LINE
  5
A7
100
AcDbEntity
  8
MAIN0
  6
CONTINUOUS
 62
3
100
AcDbLine
 10
259.0521132081671
 20
380.4134727181473
 30
0.0000000000000000
 11
265.3021132083264
 21
380.4134727181473
 31
0.0000000000000000
  0
LINE
  5
A8
100
AcDbEntity
  8
MAIN0
  6
HIDDEN
 62
3
100
AcDbLine
 10
251.5521132081671
 20
380.4134727181473
 30
0.0000000000000000
 11
256.5521132075443
 21
380.4134727181473
 31
0.0000000000000000
  0
LINE
  5
A9
100
AcDbEntity
  8
MAIN0
  6
CONTINUOUS
 62
3
100
AcDbLine
 10
272.0521132075443
 20
380.4134727181475
 30
0.0000000000000000
 11
273.3021132078543
 21
378.2484092081446
 31
0.0000000000000000
  0
LINE
  5
AA
100
AcDbEntity
  8
MAIN0
  6
CONTINUOUS
 62
3
100
AcDbLine
 10
273.3021132078542
 20
378.2484092081444
 30
0.0000000000000000
 11
274.5521132081672
 21
380.4134727181472
 31
0.0000000000000000
  0
LINE
  5
AB
100
AcDbEntity
  8
MAIN0
  6
CONTINUOUS
 62
3
100
AcDbLine
 10
279.5521132075443
 20
380.4134727181474
 30
0.0000000000000000
 11
280.8021132078543
 21
378.2484092081446
 31
0.0000000000000000
  0
LINE
  5
AC
100
AcDbEntity
  8
MAIN0
  6
CONTINUOUS
 62
3
100
AcDbLine
 10
280.8021132078542
 20
378.2484092081444
 30
0.0000000000000000
 11
282.0521132081672
 21
380.4134727181472
 31
0.0000000000000000
  0
LINE
  5
AD
100
AcDbEntity
  8
MAIN0
  6
CONTINUOUS
 62
3
100
AcDbLine
 10
287.0521132075443
 20
380.4134727181474
 30
0.0000000000000000
 11
288.3021132078543
 21
378.2484092081445
 31
0.0000000000000000
  0
LINE
  5
AE
100
AcDbEntity
  8
MAIN0
  6
CONTINUOUS
 62
3
100
AcDbLine
 10
288.3021132078542
 20
378.2484092081444
 30
0.0000000000000000
 11
289.5521132081672
 21
380.4134727181472
 31
0.0000000000000000
  0
LINE
  5
AF
100
AcDbEntity
  8
MAIN0
  6
CONTINUOUS
 62
3
100
AcDbLine
 10
294.5521132075443
 20
380.4134727181474
 30
0.0000000000000000
 11
295.8021132078543
 21
378.2484092081445
 31
0.0000000000000000
  0
LINE
  5
B0
100
AcDbEntity
  8
MAIN0
  6
CONTINUOUS
 62
3
100
AcDbLine
 10
295.8021132078542
 20
378.2484092081444
 30
0.0000000000000000
 11
297.0521132081672
 21
380.4134727181472
 31
0.0000000000000000
  0
LINE
  5
B1
100
AcDbEntity
  8
MAIN0
  6
CONTINUOUS
 62
3
100
AcDbLine
 10
302.0521132075443
 20
380.4134727181474
 30
0.0000000000000000
 11
303.3021132078543
 21
378.2484092081444
 31
0.0000000000000000
  0
LINE
  5
B2
100
AcDbEntity
  8
MAIN0
  6
CONTINUOUS
 62
3
100
AcDbLine
 10
303.3021132078542
 20
378.2484092081444
 30
0.0000000000000000
 11
304.5521132081671
 21
380.4134727181472
 31
0.0000000000000000
  0
LINE
  5
B3
100
AcDbEntity
  8
MAIN0
  6
PHANTOM
 62
3
100
AcDbLine
 10
265.3021132083264
 20
416.0634727181473
 30
0.0000000000000000
 11
265.3021132083264
 21
428.7634727181473
 31
0.0000000000000000
  0
LINE
  5
B4
100
AcDbEntity
  8
MAIN0
  6
PHANTOM
 62
3
100
AcDbLine
 10
262.3021132083264
 20
428.7634727181473
 30
0.0000000000000000
 11
265.3021132083264
 21
428.7634727181473
 31
0.0000000000000000
  0
LINE
  5
B5
100
AcDbEntity
  8
MAIN0
  6
PHANTOM
 62
3
100
AcDbLine
 10
262.3021132083264
 20
416.0634727181473
 30
0.0000000000000000
 11
265.3021132083264
 21
416.0634727181473
 31
0.0000000000000000
  0
LINE
  5
B6
100
AcDbEntity
  8
MAIN0
  6
PHANTOM
 62
3
100
AcDbLine
 10
259.3021132083264
 20
402.4134727181473
 30
0.0000000000000000
 11
259.3021132083264
 21
406.9134727181473
 31
0.0000000000000000
  0
LINE
  5
B7
100
AcDbEntity
  8
MAIN0
  6
PHANTOM
 62
3
100
AcDbLine
 10
259.3021132083264
 20
437.9134727181473
 30
0.0000000000000000
 11
259.3021132083264
 21
442.4134727181473
 31
0.0000000000000000
  0
LINE
  5
B8
100
AcDbEntity
  8
MAIN0
  6
PHANTOM
 62
3
100
AcDbLine
 10
262.3021132083264
 20
402.4134727181473
 30
0.0000000000000000
 11
262.3021132083264
 21
416.0634727181472
 31
0.0000000000000000
  0
LINE
  5
B9
100
AcDbEntity
  8
MAIN0
  6
PHANTOM
 62
3
100
AcDbLine
 10
262.3021132083264
 20
428.7634727181473
 30
0.0000000000000000
 11
262.3021132083264
 21
442.4134727181473
 31
0.0000000000000000
  0
LINE
  5
BA
100
AcDbEntity
  8
MAIN0
  6
CONTINUOUS
 62
3
100
AcDbLine
 10
163.3021132083262
 20
267.4134727181474
 30
0.0000000000000000
 11
255.3021132083261
 21
267.4134727181473
 31
0.0000000000000000
  0
LINE
  5
BB
100
AcDbEntity
  8
MAIN0
  6
PHANTOM
 62
3
100
AcDbLine
 10
273.3021132083263
 20
376.3331112777948
 30
0.0000000000000000
 11
273.3021132083263
 21
383.0091741227088
 31
0.0000000000000000
  0
LINE
  5
BC
100
AcDbEntity
  8
MAIN0
  6
CENTER
 62
3
100
AcDbLine
 10
245.7977792859970
 20
354.6634727181472
 30
0.0000000000000000
 11
319.1744559389188
 21
354.6634727181473
 31
0.0000000000000000
  0
LINE
  5
BD
100
AcDbEntity
  8
MAIN0
  6
CENTER
 62
3
100
AcDbLine
 10
241.6573456085571
 20
291.1634727181472
 30
0.0000000000000000
 11
287.0057861631944
 21
291.1634727181473
 31
0.0000000000000000
  0
LINE
  5
BE
100
AcDbEntity
  8
MAIN0
  6
CONTINUOUS
 62
3
100
AcDbLine
 10
307.3021132081077
 20
346.4134727181473
 30
0.0000000000000000
 11
306.3021132082366
 21
348.1455235254843
 31
0.0000000000000000
  0
LINE
  5
BF
100
AcDbEntity
  8
MAIN0
  6
CONTINUOUS
 62
3
100
AcDbLine
 10
306.3021132082367
 20
348.1455235254845
 30
0.0000000000000000
 11
305.3021132083702
 21
346.4134727181472
 31
0.0000000000000000
  0
LINE
  5
C0
100
AcDbEntity
  8
MAIN0
  6
CONTINUOUS
 62
3
100
AcDbLine
 10
290.1021132080011
 20
311.4134727181474
 30
0.0000000000000000
 11
291.1021132087542
 21
313.1455235270151
 31
0.0000000000000000
  0
LINE
  5
C1
100
AcDbEntity
  8
MAIN0
  6
CONTINUOUS
 62
3
100
AcDbLine
 10
292.1021132095031
 20
311.4134727181471
 30
0.0000000000000000
 11
291.1021132087543
 21
313.1455235270151
 31
0.0000000000000000
  0
LINE
  5
C2
100
AcDbEntity
  8
MAIN0
  6
CONTINUOUS
 62
3
100
AcDbLine
 10
285.9021132083262
 20
311.4134727181473
 30
0.0000000000000000
 11
283.9811310813551
 21
312.4134727181473
 31
0.0000000000000000
  0
LINE
  5
C3
100
AcDbEntity
  8
MAIN0
  6
CONTINUOUS
 62
3
100
AcDbLine
 10
283.9811310813551
 20
312.4134727181472
 30
0.0000000000000000
 11
283.7021132083263
 21
312.4134727181472
 31
0.0000000000000000
  0
LINE
  5
C4
100
AcDbEntity
  8
MAIN0
  6
CONTINUOUS
 62
3
100
AcDbLine
 10
282.5021132083263
 20
311.2134727181472
 30
0.0000000000000000
 11
282.5021132083263
 21
309.4502584197242
 31
0.0000000000000000
  0
LINE
  5
C5
100
AcDbEntity
  8
MAIN0
  6
CONTINUOUS
 62
3
100
AcDbLine
 10
282.5021132083263
 20
309.4502584197242
 30
0.0000000000000000
 11
283.3021132083263
 21
307.9134727181473
 31
0.0000000000000000
  0
ARC
  5
C6
100
AcDbEntity
  8
MAIN0
  6
CONTINUOUS
 62
3
100
AcDbCircle
 10
283.7021132083263
 20
311.2134727181472
 30
0.0000000000000000
 40
1.200000000000000
100
AcDbArc
 50
90.00000000000000
 51
180.0000000000000
  0
LINE
  5
C7
100
AcDbEntity
  8
MAIN0
  6
HIDDEN
 62
3
100
AcDbLine
 10
552.9426950298865
 20
269.0187612708488
 30
0.0000000000000000
 11
552.9426950298866
 21
379.8818668232373
 31
0.0000000000000000
  0
LINE
  5
C8
100
AcDbEntity
  8
MAIN0
  6
HIDDEN
 62
3
100
AcDbLine
 10
508.4426950298865
 20
269.0187612708488
 30
0.0000000000000000
 11
508.4426950298866
 21
379.8818668232373
 31
0.0000000000000000
  0
LINE
  5
C9
100
AcDbEntity
  8
MAIN0
  6
CONTINUOUS
 62
3
100
AcDbLine
 10
528.6926950296303
 20
265.4134727181476
 30
0.0000000000000000
 11
532.6926950298310
 21
265.4134727181476
 31
0.0000000000000000
  0
LINE
  5
CA
100
AcDbEntity
  8
MAIN0
  6
CONTINUOUS
 62
3
100
AcDbLine
 10
550.6926950298865
 20
275.8057775636113
 30
0.0000000000000000
 11
550.6926950298866
 21
370.0677046827349
 31
0.0000000000000000
  0
LINE
  5
CB
100
AcDbEntity
  8
MAIN0
  6
CONTINUOUS
 62
3
100
AcDbLine
 10
510.6926950298865
 20
275.8057775634057
 30
0.0000000000000000
 11
510.6926950298866
 21
370.0677046827350
 31
0.0000000000000000
  0
ARC
  5
CC
100
AcDbEntity
  8
MAIN0
  6
CONTINUOUS
 62
3
100
AcDbCircle
 10
530.6926950298866
 20
423.4134727181476
 30
0.0000000000000000
 40
43.00000000000000
100
AcDbArc
 50
267.3341182354896
 51
272.6658817645104
  0
LINE
  5
CD
100
AcDbEntity
  8
MAIN0
  6
CONTINUOUS
 62
3
100
AcDbLine
 10
510.6926950298868
 20
370.0677046827350
 30
0.0000000000000000
 11
528.6926950301403
 21
380.4600095283067
 31
0.0000000000000000
  0
LINE
  5
CE
100
AcDbEntity
  8
MAIN0
  6
CONTINUOUS
 62
3
100
AcDbLine
 10
550.6926950298866
 20
370.0677046827348
 30
0.0000000000000000
 11
532.6926950296330
 21
380.4600095283066
 31
0.0000000000000000
  0
LINE
  5
CF
100
AcDbEntity
  8
MAIN0
  6
CONTINUOUS
 62
3
100
AcDbLine
 10
532.6926950298314
 20
265.4134727181473
 30
0.0000000000000000
 11
550.6926950298864
 21
275.8057775636113
 31
0.0000000000000000
  0
LINE
  5
D0
100
AcDbEntity
  8
MAIN0
  6
CONTINUOUS
 62
3
100
AcDbLine
 10
510.6926950298864
 20
275.8057775634059
 30
0.0000000000000000
 11
528.6926950296302
 21
265.4134727181477
 31
0.0000000000000000
  0
ARC
  5
D1
100
AcDbEntity
  8
MAIN0
  6
CONTINUOUS
 62
3
100
AcDbCircle
 10
530.6926950298864
 20
222.4134727181476
 30
0.0000000000000000
 40
85.50000000000000
100
AcDbArc
 50
76.47214125069552
 51
103.5278587493043
  0
ARC
  5
D2
100
AcDbEntity
  8
MAIN0
  6
CONTINUOUS
 62
3
100
AcDbCircle
 10
530.6926950298864
 20
222.4134727181476
 30
0.0000000000000000
 40
89.00000000000000
100
AcDbArc
 50
77.63468852035987
 51
102.3653114796401
  0
ARC
  5
D3
100
AcDbEntity
  8
MAIN0
  6
CONTINUOUS
 62
3
100
AcDbCircle
 10
530.6926950298864
 20
222.4134727181476
 30
0.0000000000000000
 40
120.5000000000000
100
AcDbArc
 50
80.44611509740125
 51
99.55388490259860
  0
ARC
  5
D4
100
AcDbEntity
  8
MAIN0
  6
CONTINUOUS
 62
3
100
AcDbCircle
 10
530.6926950298866
 20
423.3669359079767
 30
0.0000000000000000
 40
80.70000000000000
100
AcDbArc
 50
255.6507729547616
 51
256.3573127556387
  0
ARC
  5
D5
100
AcDbEntity
  8
MAIN0
  6
CONTINUOUS
 62
3
100
AcDbCircle
 10
530.6926950298866
 20
423.3669359079767
 30
0.0000000000000000
 40
80.70000000000000
100
AcDbArc
 50
283.6426872443612
 51
284.3492270452383
  0
ARC
  5
D6
100
AcDbEntity
  8
MAIN0
  6
CONTINUOUS
 62
3
100
AcDbCircle
 10
530.6926950298866
 20
423.3669359079767
 30
0.0000000000000000
 40
115.6000000000000
100
AcDbArc
 50
260.0371046988219
 51
260.5103965970255
  0
ARC
  5
D7
100
AcDbEntity
  8
MAIN0
  6
CONTINUOUS
 62
3
100
AcDbCircle
 10
530.6926950298866
 20
423.3669359079767
 30
0.0000000000000000
 40
115.6000000000000
100
AcDbArc
 50
279.4896034029744
 51
279.9628953011780
  0
LINE
  5
D8
100
AcDbEntity
  8
MAIN0
  6
HIDDEN
 62
3
100
AcDbLine
 10
652.4114119494310
 20
518.3798936760006
 30
0.0000000000000000
 11
556.4011461986265
 21
462.9483408998062
 31
0.0000000000000000
  0
LINE
  5
D9
100
AcDbEntity
  8
MAIN0
  6
HIDDEN
 62
3
100
AcDbLine
 10
674.6614119494310
 20
479.8417632075932
 30
0.0000000000000000
 11
578.6511461986268
 21
424.4102104313988
 31
0.0000000000000000
  0
LINE
  5
DA
100
AcDbEntity
  8
MAIN0
  6
CONTINUOUS
 62
3
100
AcDbLine
 10
667.6586834241716
 20
499.1814219103568
 30
0.0000000000000000
 11
665.6586834240712
 21
502.6455235256684
 31
0.0000000000000000
  0
LINE
  5
DB
100
AcDbEntity
  8
MAIN0
  6
CONTINUOUS
 62
3
100
AcDbLine
 10
647.6586834239997
 20
513.0378283711045
 30
0.0000000000000000
 11
566.0254599291612
 21
465.9068648115427
 31
0.0000000000000000
  0
LINE
  5
DC
100
AcDbEntity
  8
MAIN0
  6
CONTINUOUS
 62
3
100
AcDbLine
 10
667.6586834241778
 20
478.3968122198297
 30
0.0000000000000000
 11
586.0254599291612
 21
431.2658486601652
 31
0.0000000000000000
  0
ARC
  5
DD
100
AcDbEntity
  8
MAIN0
  6
CONTINUOUS
 62
3
100
AcDbCircle
 10
529.8266696261021
 20
421.9134727181477
 30
0.0000000000000000
 40
43.00000000000000
100
AcDbArc
 50
27.33411823548962
 51
32.66588176451042
  0
LINE
  5
DE
100
AcDbEntity
  8
MAIN0
  6
CONTINUOUS
 62
3
100
AcDbLine
 10
586.0254599291611
 20
431.2658486601653
 30
0.0000000000000000
 11
568.0254599288971
 21
441.6581535057189
 31
0.0000000000000000
  0
LINE
  5
DF
100
AcDbEntity
  8
MAIN0
  6
CONTINUOUS
 62
3
100
AcDbLine
 10
566.0254599291612
 20
465.9068648115429
 30
0.0000000000000000
 11
566.0254599291508
 21
445.1222551204174
 31
0.0000000000000000
  0
LINE
  5
E0
100
AcDbEntity
  8
MAIN0
  6
CONTINUOUS
 62
3
100
AcDbLine
 10
665.6586834240712
 20
502.6455235256688
 30
0.0000000000000000
 11
647.6586834239997
 21
513.0378283711043
 31
0.0000000000000000
  0
LINE
  5
E1
100
AcDbEntity
  8
MAIN0
  6
CONTINUOUS
 62
3
100
AcDbLine
 10
667.6586834241779
 20
478.3968122198295
 30
0.0000000000000000
 11
667.6586834241716
 21
499.1814219103566
 31
0.0000000000000000
  0
ARC
  5
E2
100
AcDbEntity
  8
MAIN0
  6
CONTINUOUS
 62
3
100
AcDbCircle
 10
703.8977757867745
 20
522.4134727181473
 30
0.0000000000000000
 40
85.50000000000000
100
AcDbArc
 50
196.4721412506955
 51
223.5278587493042
  0
ARC
  5
E3
100
AcDbEntity
  8
MAIN0
  6
CONTINUOUS
 62
3
100
AcDbCircle
 10
703.8977757867745
 20
522.4134727181473
 30
0.0000000000000000
 40
89.00000000000000
100
AcDbArc
 50
197.6346885203598
 51
222.3653114796400
  0
ARC
  5
E4
100
AcDbEntity
  8
MAIN0
  6
CONTINUOUS
 62
3
100
AcDbCircle
 10
703.8977757867745
 20
522.4134727181473
 30
0.0000000000000000
 40
120.5000000000000
100
AcDbArc
 50
200.4461150974013
 51
219.5538849025986
  0
ARC
  5
E5
100
AcDbEntity
  8
MAIN0
  6
CONTINUOUS
 62
3
100
AcDbCircle
 10
529.8669716859213
 20
421.9367411232330
 30
0.0000000000000000
 40
80.70000000000000
100
AcDbArc
 50
15.65077295476159
 51
16.35731275563858
  0
ARC
  5
E6
100
AcDbEntity
  8
MAIN0
  6
CONTINUOUS
 62
3
100
AcDbCircle
 10
529.8669716859213
 20
421.9367411232330
 30
0.0000000000000000
 40
80.70000000000000
100
AcDbArc
 50
43.64268724436125
 51
44.34922704523824
  0
ARC
  5
E7
100
AcDbEntity
  8
MAIN0
  6
CONTINUOUS
 62
3
100
AcDbCircle
 10
529.8669716859213
 20
421.9367411232330
 30
0.0000000000000000
 40
115.6000000000000
100
AcDbArc
 50
20.03710469882193
 51
20.51039659702547
  0
ARC
  5
E8
100
AcDbEntity
  8
MAIN0
  6
CONTINUOUS
 62
3
100
AcDbCircle
 10
529.8669716859213
 20
421.9367411232330
 30
0.0000000000000000
 40
115.6000000000000
100
AcDbArc
 50
39.48960340297437
 51
39.96289530117799
  0
LINE
  5
E9
100
AcDbEntity
  8
MAIN0
  6
HIDDEN
 62
3
100
AcDbLine
 10
386.7239781103422
 20
479.8417632075934
 30
0.0000000000000000
 11
482.7342438611464
 21
424.4102104313988
 31
0.0000000000000000
  0
LINE
  5
EA
100
AcDbEntity
  8
MAIN0
  6
HIDDEN
 62
3
100
AcDbLine
 10
408.9739781103422
 20
518.3798936760009
 30
0.0000000000000000
 11
504.9842438611465
 21
462.9483408998062
 31
0.0000000000000000
  0
LINE
  5
EB
100
AcDbEntity
  8
MAIN0
  6
CONTINUOUS
 62
3
100
AcDbLine
 10
395.7267066358580
 20
502.6455235259385
 30
0.0000000000000000
 11
393.7267066357576
 21
499.1814219106269
 31
0.0000000000000000
  0
LINE
  5
EC
100
AcDbEntity
  8
MAIN0
  6
CONTINUOUS
 62
3
100
AcDbLine
 10
393.7267066357736
 20
478.3968122197272
 30
0.0000000000000000
 11
475.3599301306120
 21
431.2658486601652
 31
0.0000000000000000
  0
LINE
  5
ED
100
AcDbEntity
  8
MAIN0
  6
CONTINUOUS
 62
3
100
AcDbLine
 10
413.7267066355956
 20
513.0378283712075
 30
0.0000000000000000
 11
495.3599301306120
 21
465.9068648115427
 31
0.0000000000000000
  0
ARC
  5
EE
100
AcDbEntity
  8
MAIN0
  6
CONTINUOUS
 62
3
100
AcDbCircle
 10
531.5587204336711
 20
421.9134727181476
 30
0.0000000000000000
 40
43.00000000000000
100
AcDbArc
 50
147.3341182354896
 51
152.6658817645104
  0
LINE
  5
EF
100
AcDbEntity
  8
MAIN0
  6
CONTINUOUS
 62
3
100
AcDbLine
 10
495.3599301306117
 20
465.9068648115424
 30
0.0000000000000000
 11
495.3599301306222
 21
445.1222551204172
 31
0.0000000000000000
  0
LINE
  5
F0
100
AcDbEntity
  8
MAIN0
  6
CONTINUOUS
 62
3
100
AcDbLine
 10
475.3599301306118
 20
431.2658486601652
 30
0.0000000000000000
 11
493.3599301308759
 21
441.6581535057188
 31
0.0000000000000000
  0
LINE
  5
F1
100
AcDbEntity
  8
MAIN0
  6
CONTINUOUS
 62
3
100
AcDbLine
 10
393.7267066357572
 20
499.1814219106267
 30
0.0000000000000000
 11
393.7267066357736
 21
478.3968122197271
 31
0.0000000000000000
  0
LINE
  5
F2
100
AcDbEntity
  8
MAIN0
  6
CONTINUOUS
 62
3
100
AcDbLine
 10
413.7267066355956
 20
513.0378283712074
 30
0.0000000000000000
 11
395.7267066358581
 21
502.6455235259385
 31
0.0000000000000000
  0
ARC
  5
F3
100
AcDbEntity
  8
MAIN0
  6
CONTINUOUS
 62
3
100
AcDbCircle
 10
357.4876142729991
 20
522.4134727181479
 30
0.0000000000000000
 40
85.50000000000000
100
AcDbArc
 50
316.4721412506955
 51
343.5278587493042
  0
ARC
  5
F4
100
AcDbEntity
  8
MAIN0
  6
CONTINUOUS
 62
3
100
AcDbCircle
 10
357.4876142729991
 20
522.4134727181479
 30
0.0000000000000000
 40
89.00000000000000
100
AcDbArc
 50
317.6346885203599
 51
342.3653114796400
  0
ARC
  5
F5
100
AcDbEntity
  8
MAIN0
  6
CONTINUOUS
 62
3
100
AcDbCircle
 10
357.4876142729991
 20
522.4134727181479
 30
0.0000000000000000
 40
120.5000000000000
100
AcDbArc
 50
320.4461150974012
 51
339.5538849025986
  0
ARC
  5
F6
100
AcDbEntity
  8
MAIN0
  6
CONTINUOUS
 62
3
100
AcDbCircle
 10
531.5184183738520
 20
421.9367411232330
 30
0.0000000000000000
 40
80.70000000000000
100
AcDbArc
 50
135.6507729547617
 51
136.3573127556386
  0
ARC
  5
F7
100
AcDbEntity
  8
MAIN0
  6
CONTINUOUS
 62
3
100
AcDbCircle
 10
531.5184183738520
 20
421.9367411232330
 30
0.0000000000000000
 40
80.70000000000000
100
AcDbArc
 50
163.6426872443612
 51
164.3492270452382
  0
ARC
  5
F8
100
AcDbEntity
  8
MAIN0
  6
CONTINUOUS
 62
3
100
AcDbCircle
 10
531.5184183738520
 20
421.9367411232330
 30
0.0000000000000000
 40
115.6000000000000
100
AcDbArc
 50
140.0371046988219
 51
140.5103965970254
  0
ARC
  5
F9
100
AcDbEntity
  8
MAIN0
  6
CONTINUOUS
 62
3
100
AcDbCircle
 10
531.5184183738520
 20
421.9367411232330
 30
0.0000000000000000
 40
115.6000000000000
100
AcDbArc
 50
159.4896034029744
 51
159.9628953011780
  0
LINE
  5
FA
100
AcDbEntity
  8
MAIN0
  6
HIDDEN
 62
3
100
AcDbLine
 10
530.6926950298865
 20
496.4493711030095
 30
0.0000000000000000
 11
525.0490808832185
 21
499.7077132497908
 31
0.0000000000000000
  0
LINE
  5
FB
100
AcDbEntity
  8
MAIN0
  6
HIDDEN
 62
3
100
AcDbLine
 10
536.3363091765548
 20
499.7077132497908
 30
0.0000000000000000
 11
530.6926950298868
 21
496.4493711030096
 31
0.0000000000000000
  0
LINE
  5
FC
100
AcDbEntity
  8
MAIN0
  6
CONTINUOUS
 62
3
100
AcDbLine
 10
163.3021132083266
 20
577.4134727181474
 30
0.0000000000000000
 11
255.3021132083266
 21
577.4134727181473
 31
0.0000000000000000
  0
LINE
  5
FD
100
AcDbEntity
  8
MAIN0
  6
CENTER
 62
3
100
AcDbLine
 10
178.5155802355010
 20
685.7352529396842
 30
0.0000000000000000
 11
206.3303080000839
 21
685.7352529396842
 31
0.0000000000000000
  0
LINE
  5
FE
100
AcDbEntity
  8
MAIN0
  6
CONTINUOUS
 62
3
100
AcDbLine
 10
183.6856824068431
 20
686.5183170756191
 30
0.0000000000000000
 11
192.0190490718682
 21
694.8516837406318
 31
0.0000000000000000
  0
LINE
  5
FF
100
AcDbEntity
  8
MAIN0
  6
CONTINUOUS
 62
3
100
AcDbLine
 10
193.5851773418594
 20
676.6188221374121
 30
0.0000000000000000
 11
201.9185440100605
 21
684.9521888056008
 31
0.0000000000000000
  0
LINE
  5
100
100
AcDbEntity
  8
MAIN0
  6
CONTINUOUS
 62
3
100
AcDbLine
 10
193.5851773433392
 20
694.8516837407531
 30
0.0000000000000000
 11
201.9185440099337
 21
686.5183170741454
 31
0.0000000000000000
  0
LINE
  5
101
100
AcDbEntity
  8
MAIN0
  6
CONTINUOUS
 62
3
100
AcDbLine
 10
183.6856824067187
 20
684.9521888041502
 30
0.0000000000000000
 11
192.0190490733154
 21
676.6188221375405
 31
0.0000000000000000
  0
ARC
  5
102
100
AcDbEntity
  8
MAIN0
  6
CONTINUOUS
 62
3
100
AcDbCircle
 10
192.8021132083267
 20
685.7352529391474
 30
0.0000000000000000
 40
9.150000000000000
100
AcDbArc
 50
85.09057720200698
 51
94.90942280710132
  0
ARC
  5
103
100
AcDbEntity
  8
MAIN0
  6
CONTINUOUS
 62
3
100
AcDbCircle
 10
192.8021132083267
 20
685.7352529391474
 30
0.0000000000000000
 40
9.150000000000000
100
AcDbArc
 50
355.0905772112062
 51
364.9094227979033
  0
ARC
  5
104
100
AcDbEntity
  8
MAIN0
  6
CONTINUOUS
 62
3
100
AcDbCircle
 10
192.8021132083267
 20
685.7352529391474
 30
0.0000000000000000
 40
9.150000000000000
100
AcDbArc
 50
175.0905771928136
 51
184.9094227979017
  0
ARC
  5
105
100
AcDbEntity
  8
MAIN0
  6
CONTINUOUS
 62
3
100
AcDbCircle
 10
192.8021132083267
 20
685.7352529391474
 30
0.0000000000000000
 40
9.150000000000000
100
AcDbArc
 50
265.0905772020084
 51
274.9094227887085
  0
LINE
  5
106
100
AcDbEntity
  8
MAIN0
  6
CENTER
 62
3
100
AcDbLine
 10
515.3467593187048
 20
354.6634727181475
 30
0.0000000000000000
 11
545.7405766751791
 21
354.6634727181475
 31
0.0000000000000000
  0
LINE
  5
107
100
AcDbEntity
  8
MAIN0
  6
CENTER
 62
3
100
AcDbLine
 10
515.3467593187048
 20
291.1634727181475
 30
0.0000000000000000
 11
545.7405766751791
 21
291.1634727181475
 31
0.0000000000000000
  0
ARC
  5
108
100
AcDbEntity
  8
MAIN0
  6
CONTINUOUS
 62
3
100
AcDbCircle
 10
530.6926950298864
 20
222.4134727181476
 30
0.0000000000000000
 40
95.99999999999994
100
AcDbArc
 50
77.97530081943407
 51
102.0246991805657
  0
ARC
  5
109
100
AcDbEntity
  8
MAIN0
  6
CONTINUOUS
 62
3
100
AcDbCircle
 10
530.6926950298864
 20
222.4134727181476
 30
0.0000000000000000
 40
60.99999999999994
100
AcDbArc
 50
70.86052554896382
 51
85.13743656815117
  0
ARC
  5
10A
100
AcDbEntity
  8
MAIN0
  6
CONTINUOUS
 62
3
100
AcDbCircle
 10
530.6926950298864
 20
222.4134727181476
 30
0.0000000000000000
 40
60.99999999999994
100
AcDbArc
 50
94.86256343184864
 51
109.1394744510360
  0
CIRCLE
  5
10B
100
AcDbEntity
  8
MAIN0
  6
CONTINUOUS
 62
3
100
AcDbCircle
 10
589.3659161362823
 20
456.2884727181473
 30
0.0000000000000000
 40
9.500000000000000
  0
CIRCLE
  5
10C
100
AcDbEntity
  8
MAIN0
  6
CONTINUOUS
 62
3
100
AcDbCircle
 10
589.3659161362823
 20
456.2884727181473
 30
0.0000000000000000
 40
6.500000000000000
  0
LINE
  5
10D
100
AcDbEntity
  8
MAIN0
  6
CENTER
 62
3
100
AcDbLine
 10
595.6930153381012
 20
445.3296154360681
 30
0.0000000000000000
 11
581.9495845979897
 21
469.1339357482453
 31
0.0000000000000000
  0
CIRCLE
  5
10E
100
AcDbEntity
  8
MAIN0
  6
CONTINUOUS
 62
3
100
AcDbCircle
 10
644.3585292765941
 20
488.0384727181472
 30
0.0000000000000000
 40
9.500000000000000
  0
CIRCLE
  5
10F
100
AcDbEntity
  8
MAIN0
  6
CONTINUOUS
 62
3
100
AcDbCircle
 10
644.3585292765941
 20
488.0384727181472
 30
0.0000000000000000
 40
6.500000000000000
  0
ARC
  5
110
100
AcDbEntity
  8
MAIN0
  6
CONTINUOUS
 62
3
100
AcDbCircle
 10
703.8977757867743
 20
522.4134727181470
 30
0.0000000000000000
 40
95.99999999999994
100
AcDbArc
 50
197.9753008194340
 51
222.0246991805657
  0
LINE
  5
111
100
AcDbEntity
  8
MAIN0
  6
CENTER
 62
3
100
AcDbLine
 10
650.6856284784130
 20
477.0796154360681
 30
0.0000000000000000
 11
636.9421977383015
 21
500.8839357482453
 31
0.0000000000000000
  0
ARC
  5
112
100
AcDbEntity
  8
MAIN0
  6
CONTINUOUS
 62
3
100
AcDbCircle
 10
703.8977757867743
 20
522.4134727181470
 30
0.0000000000000000
 40
60.99999999999994
100
AcDbArc
 50
190.8605255489638
 51
205.1374365681512
  0
ARC
  5
113
100
AcDbEntity
  8
MAIN0
  6
CONTINUOUS
 62
3
100
AcDbCircle
 10
703.8977757867743
 20
522.4134727181470
 30
0.0000000000000000
 40
60.99999999999994
100
AcDbArc
 50
214.8625634318486
 51
229.1394744510360
  0
CIRCLE
  5
114
100
AcDbEntity
  8
MAIN0
  6
CONTINUOUS
 62
3
100
AcDbCircle
 10
472.0194739234910
 20
456.2884727181473
 30
0.0000000000000000
 40
9.500000000000000
  0
CIRCLE
  5
115
100
AcDbEntity
  8
MAIN0
  6
CONTINUOUS
 62
3
100
AcDbCircle
 10
472.0194739234910
 20
456.2884727181473
 30
0.0000000000000000
 40
6.500000000000000
  0
LINE
  5
116
100
AcDbEntity
  8
MAIN0
  6
CENTER
 62
3
100
AcDbLine
 10
479.0884194276487
 20
468.5322454872838
 30
0.0000000000000000
 11
465.3617354612172
 21
444.7569314379835
 31
0.0000000000000000
  0
CIRCLE
  5
117
100
AcDbEntity
  8
MAIN0
  6
CONTINUOUS
 62
3
100
AcDbCircle
 10
417.0268607831793
 20
488.0384727181474
 30
0.0000000000000000
 40
9.500000000000000
  0
CIRCLE
  5
118
100
AcDbEntity
  8
MAIN0
  6
CONTINUOUS
 62
3
100
AcDbCircle
 10
417.0268607831793
 20
488.0384727181474
 30
0.0000000000000000
 40
6.500000000000000
  0
ARC
  5
119
100
AcDbEntity
  8
MAIN0
  6
CONTINUOUS
 62
3
100
AcDbCircle
 10
357.4876142729992
 20
522.4134727181474
 30
0.0000000000000000
 40
95.99999999999994
100
AcDbArc
 50
317.9753008194340
 51
342.0246991805657
  0
LINE
  5
11A
100
AcDbEntity
  8
MAIN0
  6
CENTER
 62
3
100
AcDbLine
 10
424.0958062873369
 20
500.2822454872838
 30
0.0000000000000000
 11
410.3691223209054
 21
476.5069314379836
 31
0.0000000000000000
  0
ARC
  5
11B
100
AcDbEntity
  8
MAIN0
  6
CONTINUOUS
 62
3
100
AcDbCircle
 10
357.4876142729992
 20
522.4134727181474
 30
0.0000000000000000
 40
60.99999999999994
100
AcDbArc
 50
310.8605255489638
 51
325.1374365681511
  0
ARC
  5
11C
100
AcDbEntity
  8
MAIN0
  6
CONTINUOUS
 62
3
100
AcDbCircle
 10
357.4876142729992
 20
522.4134727181474
 30
0.0000000000000000
 40
60.99999999999994
100
AcDbArc
 50
334.8625634318486
 51
349.1394744510359
  0
LINE
  5
11D
100
AcDbEntity
  8
MAIN0
  6
CONTINUOUS
 62
3
100
AcDbLine
 10
762.0177288270057
 20
195.2414615760351
 30
0.0000000000000000
 11
781.0477288270058
 21
195.2414615760152
 31
0.0000000000000000
  0
LINE
  5
11E
100
AcDbEntity
  8
MAIN0
  6
CONTINUOUS
 62
3
100
AcDbLine
 10
714.0327288270257
 20
249.2414615760853
 30
0.0000000000000000
 11
839.0327288270257
 21
249.2414615759547
 31
0.0000000000000000
  0
LINE
  5
11F
100
AcDbEntity
  8
MAIN0
  6
CONTINUOUS
 62
3
100
AcDbLine
 10
714.0327288270069
 20
198.2414615760853
 30
0.0000000000000000
 11
714.0327288270257
 21
249.2414615760853
 31
0.0000000000000000
  0
LINE
  5
120
100
AcDbEntity
  8
MAIN0
  6
CONTINUOUS
 62
3
100
AcDbLine
 10
839.0327288270067
 20
198.2414615759547
 30
0.0000000000000000
 11
839.0327288270256
 21
249.2414615760391
 31
0.0000000000000000
  0
LINE
  5
121
100
AcDbEntity
  8
MAIN0
  6
CENTER
 62
3
100
AcDbLine
 10
771.5327288270019
 20
184.4843151814324
 30
0.0000000000000000
 11
771.5327288270103
 21
207.1500243005469
 31
0.0000000000000000
  0
LINE
  5
122
100
AcDbEntity
  8
MAIN0
  6
CENTER
 62
3
100
AcDbLine
 10
803.2827288270019
 20
184.4843151814206
 30
0.0000000000000000
 11
803.2827288270282
 21
255.7782755164956
 31
0.0000000000000000
  0
LINE
  5
123
100
AcDbEntity
  8
MAIN0
  6
CENTER
 62
3
100
AcDbLine
 10
739.7827288270019
 20
184.4843151814442
 30
0.0000000000000000
 11
739.7827288270289
 21
257.8388059068334
 31
0.0000000000000000
  0
LINE
  5
124
100
AcDbEntity
  8
MAIN0
  6
CONTINUOUS
 62
3
100
AcDbLine
 10
781.0477288270057
 20
195.2414615760152
 30
0.0000000000000000
 11
781.0477288270071
 21
198.9414615760152
 31
0.0000000000000000
  0
LINE
  5
125
100
AcDbEntity
  8
MAIN0
  6
CONTINUOUS
 62
3
100
AcDbLine
 10
762.0177288270057
 20
195.2414615760352
 30
0.0000000000000000
 11
762.0177288270071
 21
198.9414615760352
 31
0.0000000000000000
  0
LINE
  5
126
100
AcDbEntity
  8
MAIN0
  6
CONTINUOUS
 62
3
100
AcDbLine
 10
714.0327288270088
 20
198.2414615760853
 30
0.0000000000000000
 11
759.0177288270068
 21
198.2414615760383
 31
0.0000000000000000
  0
LINE
  5
127
100
AcDbEntity
  8
MAIN0
  6
CONTINUOUS
 62
3
100
AcDbLine
 10
784.0477288270068
 20
198.2414615760121
 30
0.0000000000000000
 11
839.0327288270088
 21
198.2414615759546
 31
0.0000000000000000
  0
LINE
  5
128
100
AcDbEntity
  8
MAIN0
  6
CONTINUOUS
 62
3
100
AcDbLine
 10
784.0477288270067
 20
198.2414615760121
 30
0.0000000000000000
 11
784.0477288270071
 21
198.9414615760121
 31
0.0000000000000000
  0
LINE
  5
129
100
AcDbEntity
  8
MAIN0
  6
CONTINUOUS
 62
3
100
AcDbLine
 10
759.0177288270068
 20
198.2414615760383
 30
0.0000000000000000
 11
759.0177288270071
 21
198.9414615760383
 31
0.0000000000000000
  0
LINE
  5
12A
100
AcDbEntity
  8
MAIN0
  6
CONTINUOUS
 62
3
100
AcDbLine
 10
759.0177288270072
 20
198.9414615760383
 30
0.0000000000000000
 11
762.0177288270072
 21
198.9414615760352
 31
0.0000000000000000
  0
LINE
  5
12B
100
AcDbEntity
  8
MAIN0
  6
CONTINUOUS
 62
3
100
AcDbLine
 10
781.0477288270072
 20
198.9414615760152
 30
0.0000000000000000
 11
784.0477288270072
 21
198.9414615760121
 31
0.0000000000000000
  0
LINE
  5
12C
100
AcDbEntity
  8
MAIN0
  6
CONTINUOUS
 62
3
100
AcDbLine
 10
804.6710731648552
 20
198.2414615759906
 30
0.0000000000000000
 11
804.6710731648526
 21
201.7414615759906
 31
0.0000000000000000
  0
LINE
  5
12D
100
AcDbEntity
  8
MAIN0
  6
CONTINUOUS
 62
3
100
AcDbLine
 10
801.8943844891587
 20
198.2414615759916
 30
0.0000000000000000
 11
801.8943844891638
 21
201.7414615759915
 31
0.0000000000000000
  0
LINE
  5
12E
100
AcDbEntity
  8
MAIN0
  6
CONTINUOUS
 62
3
100
AcDbLine
 10
738.3943844891578
 20
198.2414615760151
 30
0.0000000000000000
 11
738.3943844891630
 21
201.7414615760151
 31
0.0000000000000000
  0
LINE
  5
12F
100
AcDbEntity
  8
MAIN0
  6
CONTINUOUS
 62
3
100
AcDbLine
 10
741.1710731648543
 20
198.2414615760141
 30
0.0000000000000000
 11
741.1710731648518
 21
201.7414615760140
 31
0.0000000000000000
  0
LINE
  5
130
100
AcDbEntity
  8
MAIN0
  6
CONTINUOUS
 62
3
100
AcDbLine
 10
804.6710731648527
 20
201.7414615759906
 30
0.0000000000000000
 11
839.0327288270127
 21
201.7414615759547
 31
0.0000000000000000
  0
LINE
  5
131
100
AcDbEntity
  8
MAIN0
  6
CONTINUOUS
 62
3
100
AcDbLine
 10
714.0327288270125
 20
201.7414615760852
 30
0.0000000000000000
 11
738.3943844891629
 21
201.7414615760598
 31
0.0000000000000000
  0
LINE
  5
132
100
AcDbEntity
  8
MAIN0
  6
CONTINUOUS
 62
3
100
AcDbLine
 10
741.1710731648516
 20
201.7414615760569
 30
0.0000000000000000
 11
801.8943844891637
 21
201.7414615759935
 31
0.0000000000000000
  0
LINE
  5
133
100
AcDbEntity
  8
MAIN0
  6
CONTINUOUS
 62
3
100
AcDbLine
 10
828.1568623679821
 20
622.6545018738583
 30
0.0000000000000000
 11
802.1568623679819
 21
622.6545018738583
 31
0.0000000000000000
  0
ARC
  5
134
100
AcDbEntity
  8
MAIN0
  6
CONTINUOUS
 62
3
100
AcDbCircle
 10
628.1568623680353
 20
604.6545018738583
 30
0.0000000000000000
 40
7.999999999999915
100
AcDbArc
 50
90.00000000000000
 51
270.0000000000000
  0
ARC
  5
135
100
AcDbEntity
  8
MAIN0
  6
CONTINUOUS
 62
3
100
AcDbCircle
 10
1002.156862368035
 20
604.6545018738584
 30
0.0000000000000000
 40
7.999999999999943
100
AcDbArc
 50
270.0000000000000
 51
450.0000000000000
  0
LINE
  5
136
100
AcDbEntity
  8
MAIN0
  6
CONTINUOUS
 62
3
100
AcDbLine
 10
800.1568623679876
 20
620.6545018738582
 30
0.0000000000000000
 11
802.1568623679817
 21
622.6545018738582
 31
0.0000000000000000
  0
LINE
  5
137
100
AcDbEntity
  8
MAIN0
  6
CONTINUOUS
 62
3
100
AcDbLine
 10
828.1568623679817
 20
622.6545018738582
 30
0.0000000000000000
 11
830.1568623679876
 21
620.6545018738582
 31
0.0000000000000000
  0
LINE
  5
138
100
AcDbEntity
  8
MAIN0
  6
CONTINUOUS
 62
3
100
AcDbLine
 10
830.1568623679879
 20
620.6545018738583
 30
0.0000000000000000
 11
800.1568623679879
 21
620.6545018738583
 31
0.0000000000000000
  0
LINE
  5
139
100
AcDbEntity
  8
MAIN0
  6
CONTINUOUS
 62
3
100
AcDbLine
 10
828.1568623679880
 20
584.6545018738583
 30
0.0000000000000000
 11
802.1568623679879
 21
584.6545018738583
 31
0.0000000000000000
  0
LINE
  5
13A
100
AcDbEntity
  8
MAIN0
  6
CONTINUOUS
 62
3
100
AcDbLine
 10
800.1568623680880
 20
586.6545018738582
 30
0.0000000000000000
 11
802.1568623680939
 21
584.6545018738582
 31
0.0000000000000000
  0
LINE
  5
13B
100
AcDbEntity
  8
MAIN0
  6
CONTINUOUS
 62
3
100
AcDbLine
 10
830.1568623680880
 20
586.6545018738583
 30
0.0000000000000000
 11
828.1568623680938
 21
584.6545018738581
 31
0.0000000000000000
  0
LINE
  5
13C
100
AcDbEntity
  8
MAIN0
  6
CONTINUOUS
 62
3
100
AcDbLine
 10
800.1568623680884
 20
586.6545018738583
 30
0.0000000000000000
 11
830.1568623680884
 21
586.6545018738583
 31
0.0000000000000000
  0
LINE
  5
13D
100
AcDbEntity
  8
MAIN0
  6
CONTINUOUS
 62
3
100
AcDbLine
 10
828.1568623684314
 20
470.6545018738583
 30
0.0000000000000000
 11
828.1568623680944
 21
584.6545018738583
 31
0.0000000000000000
  0
LINE
  5
13E
100
AcDbEntity
  8
MAIN0
  6
CONTINUOUS
 62
3
100
AcDbLine
 10
802.1568623684314
 20
470.6545018738583
 30
0.0000000000000000
 11
802.1568623680944
 21
584.6545018738583
 31
0.0000000000000000
  0
LINE
  5
13F
100
AcDbEntity
  8
MAIN0
  6
CONTINUOUS
 62
3
100
AcDbLine
 10
802.1568623684314
 20
470.6545018738583
 30
0.0000000000000000
 11
828.1568623684314
 21
470.6545018738583
 31
0.0000000000000000
  0
LINE
  5
140
100
AcDbEntity
  8
MAIN0
  6
CONTINUOUS
 62
3
100
AcDbLine
 10
807.0068623672811
 20
422.6545018738583
 30
0.0000000000000000
 11
823.3068623680262
 21
422.6545018738583
 31
0.0000000000000000
  0
LINE
  5
141
100
AcDbEntity
  8
MAIN0
  6
CENTER
 62
3
100
AcDbLine
 10
815.1568623687737
 20
354.8304622473391
 30
0.0000000000000000
 11
815.1568623686457
 21
398.1175777154686
 31
0.0000000000000000
  0
LINE
  5
142
100
AcDbEntity
  8
MAIN0
  6
CENTER
 62
3
100
AcDbLine
 10
797.0562478695725
 20
371.8660383978424
 30
0.0000000000000000
 11
833.2536882994874
 21
371.8660383978472
 31
0.0000000000000000
  0
LINE
  5
143
100
AcDbEntity
  8
MAIN0
  6
CONTINUOUS
 62
3
100
AcDbLine
 10
815.9399265034843
 20
380.9824691994508
 30
0.0000000000000000
 11
824.2732931700861
 21
372.6491025328491
 31
0.0000000000000000
  0
LINE
  5
144
100
AcDbEntity
  8
MAIN0
  6
CONTINUOUS
 62
3
100
AcDbLine
 10
806.0404315668716
 20
371.0829742628404
 30
0.0000000000000000
 11
814.3737982334736
 21
362.7496075962383
 31
0.0000000000000000
  0
LINE
  5
145
100
AcDbEntity
  8
MAIN0
  6
CONTINUOUS
 62
3
100
AcDbLine
 10
806.0404315670140
 20
372.6491025343981
 30
0.0000000000000000
 11
814.3737982318725
 21
380.9824691993046
 31
0.0000000000000000
  0
LINE
  5
146
100
AcDbEntity
  8
MAIN0
  6
CONTINUOUS
 62
3
100
AcDbLine
 10
815.9399265019500
 20
362.7496075961107
 30
0.0000000000000000
 11
824.2732931702174
 21
371.0829742644261
 31
0.0000000000000000
  0
ARC
  5
147
100
AcDbEntity
  8
MAIN0
  6
CONTINUOUS
 62
3
100
AcDbCircle
 10
815.1568623684786
 20
371.8660383978448
 30
0.0000000000000000
 40
9.150000000000000
100
AcDbArc
 50
85.09057720206187
 51
94.90942280805487
  0
ARC
  5
148
100
AcDbEntity
  8
MAIN0
  6
CONTINUOUS
 62
3
100
AcDbCircle
 10
815.1568623684786
 20
371.8660383978448
 30
0.0000000000000000
 40
9.150000000000000
100
AcDbArc
 50
175.0905771922765
 51
184.9094227979363
  0
ARC
  5
149
100
AcDbEntity
  8
MAIN0
  6
CONTINUOUS
 62
3
100
AcDbCircle
 10
815.1568623684786
 20
371.8660383978448
 30
0.0000000000000000
 40
9.150000000000000
100
AcDbArc
 50
265.0905772020640
 51
274.9094227883215
  0
ARC
  5
14A
100
AcDbEntity
  8
MAIN0
  6
CONTINUOUS
 62
3
100
AcDbCircle
 10
815.1568623684786
 20
371.8660383978448
 30
0.0000000000000000
 40
9.150000000000000
100
AcDbArc
 50
355.0905772120073
 51
364.9094227979362
  0
LINE
  5
14B
100
AcDbEntity
  8
MAIN0
  6
CONTINUOUS
 62
3
100
AcDbLine
 10
824.3068623680262
 20
440.6545018738583
 30
0.0000000000000000
 11
824.3068623680262
 21
423.6545018738583
 31
0.0000000000000000
  0
LINE
  5
14C
100
AcDbEntity
  8
MAIN0
  6
CONTINUOUS
 62
3
100
AcDbLine
 10
806.0068623672811
 20
440.6545018738583
 30
0.0000000000000000
 11
806.0068623672811
 21
423.6545018738583
 31
0.0000000000000000
  0
LINE
  5
14D
100
AcDbEntity
  8
MAIN0
  6
CONTINUOUS
 62
3
100
AcDbLine
 10
806.0068623672809
 20
423.6545018738583
 30
0.0000000000000000
 11
807.0068623672809
 21
422.6545018738583
 31
0.0000000000000000
  0
LINE
  5
14E
100
AcDbEntity
  8
MAIN0
  6
CONTINUOUS
 62
3
100
AcDbLine
 10
824.3068623680259
 20
423.6545018738582
 30
0.0000000000000000
 11
823.3068623680258
 21
422.6545018738582
 31
0.0000000000000000
  0
LINE
  5
14F
100
AcDbEntity
  8
MAIN0
  6
CONTINUOUS
 62
3
100
AcDbLine
 10
824.3068623680260
 20
423.6545018738583
 30
0.0000000000000000
 11
806.0068623672811
 21
423.6545018738583
 31
0.0000000000000000
  0
LINE
  5
150
100
AcDbEntity
  8
MAIN0
  6
CONTINUOUS
 62
3
100
AcDbLine
 10
814.3737982322597
 20
423.6545018738583
 30
0.0000000000000000
 11
814.3737982321088
 21
440.6545018738583
 31
0.0000000000000000
  0
LINE
  5
151
100
AcDbEntity
  8
MAIN0
  6
CONTINUOUS
 62
3
100
AcDbLine
 10
815.9399265020434
 20
423.6545018738583
 30
0.0000000000000000
 11
815.9399265019429
 21
440.6545018738583
 31
0.0000000000000000
  0
LINE
  5
152
100
AcDbEntity
  8
MAIN0
  6
CONTINUOUS
 62
3
100
AcDbLine
 10
806.0068623672811
 20
440.6545018738583
 30
0.0000000000000000
 11
814.3737982321087
 21
440.6545018738583
 31
0.0000000000000000
  0
LINE
  5
153
100
AcDbEntity
  8
MAIN0
  6
CONTINUOUS
 62
3
100
AcDbLine
 10
815.9399265019429
 20
440.6545018738583
 30
0.0000000000000000
 11
824.3068623680262
 21
440.6545018738583
 31
0.0000000000000000
  0
LINE
  5
154
100
AcDbEntity
  8
MAIN0
  6
CONTINUOUS
 62
3
100
AcDbLine
 10
824.3068623680264
 20
440.6545018738583
 30
0.0000000000000000
 11
815.9399265020436
 21
423.6545018738582
 31
0.0000000000000000
  0
LINE
  5
155
100
AcDbEntity
  8
MAIN0
  6
CONTINUOUS
 62
3
100
AcDbLine
 10
815.9399265019431
 20
440.6545018738583
 30
0.0000000000000000
 11
824.3068623680263
 21
423.6545018738582
 31
0.0000000000000000
  0
LINE
  5
156
100
AcDbEntity
  8
MAIN0
  6
CONTINUOUS
 62
3
100
AcDbLine
 10
814.3737982321087
 20
440.6545018738583
 30
0.0000000000000000
 11
806.0068623672812
 21
423.6545018738584
 31
0.0000000000000000
  0
LINE
  5
157
100
AcDbEntity
  8
MAIN0
  6
CONTINUOUS
 62
3
100
AcDbLine
 10
806.0068623672809
 20
440.6545018738582
 30
0.0000000000000000
 11
814.3737982322596
 21
423.6545018738582
 31
0.0000000000000000
  0
ARC
  5
158
100
AcDbEntity
  8
MAIN0
  6
CONTINUOUS
 62
3
100
AcDbCircle
 10
909.3068623680262
 20
445.3626553602926
 30
0.0000000000000000
 40
85.00000000000000
100
AcDbArc
 50
162.6894221428432
 51
183.1752406273029
  0
ARC
  5
159
100
AcDbEntity
  8
MAIN0
  6
CONTINUOUS
 62
3
100
AcDbCircle
 10
721.0068623689863
 20
445.3626553597359
 30
0.0000000000000000
 40
85.00000000000000
100
AcDbArc
 50
356.8247593730358
 51
377.3105778574956
  0
ARC
  5
15A
100
AcDbEntity
  8
MAIN0
  6
CONTINUOUS
 62
3
100
AcDbCircle
 10
839.3235290347019
 20
604.6545018738852
 30
0.0000000000000000
 40
12.16666666666681
100
AcDbArc
 50
138.8879095610022
 51
221.1120904393365
  0
ARC
  5
15B
100
AcDbEntity
  8
MAIN0
  6
CONTINUOUS
 62
3
100
AcDbCircle
 10
790.9901957013684
 20
604.6545018738311
 30
0.0000000000000000
 40
12.16666666666674
100
AcDbArc
 50
318.8879095610026
 51
401.1120904393362
  0
LINE
  5
15C
100
AcDbEntity
  8
MAIN0
  6
CONTINUOUS
 62
3
100
AcDbLine
 10
830.1568623680884
 20
586.6545018738583
 30
0.0000000000000000
 11
830.1568623680588
 21
596.6545018738580
 31
0.0000000000000000
  0
LINE
  5
15D
100
AcDbEntity
  8
MAIN0
  6
CONTINUOUS
 62
3
100
AcDbLine
 10
830.1568623680115
 20
612.6545018738583
 30
0.0000000000000000
 11
830.1568623679879
 21
620.6545018738583
 31
0.0000000000000000
  0
LINE
  5
15E
100
AcDbEntity
  8
MAIN0
  6
CONTINUOUS
 62
3
100
AcDbLine
 10
800.1568623680884
 20
586.6545018738583
 30
0.0000000000000000
 11
800.1568623680588
 21
596.6545018738582
 31
0.0000000000000000
  0
LINE
  5
15F
100
AcDbEntity
  8
MAIN0
  6
CONTINUOUS
 62
3
100
AcDbLine
 10
800.1568623680115
 20
612.6545018738583
 30
0.0000000000000000
 11
800.1568623679879
 21
620.6545018738583
 31
0.0000000000000000
  0
DIMENSION
  5
168
100
AcDbEntity
  8
MAIN0
  6
CONTINUOUS
 62
3
100
AcDbDimension
  2
*D0
 10
1010.156862368035
 20
657.2969648128823
 30
0.0000000000000000
 11
815.1568623680354
 21
657.7969648128823
 31
0.0000000000000000
 70
32
  1
\A1;390
  3
MAIN001
100
AcDbAlignedDimension
 13
620.1568623680356
 23
604.6545018738583
 33
0.0000000000000000
 14
1010.156862368035
 24
604.6545018738583
 34
0.0000000000000000
100
AcDbRotatedDimension
1001
ACAD
1000
DSTYLE
1002
{
1070
   173
1070
     1
1070
     6
1000
_OPEN
1070
     7
1000
_OPEN
1070
    41
1040
5.000000
1002
}
  0
DIMENSION
  5
171
100
AcDbEntity
  8
MAIN0
  6
CONTINUOUS
 62
3
100
AcDbDimension
  2
*D1
 10
800.1568623680115
 20
637.2969648128823
 30
0.0000000000000000
 11
815.1568623679997
 21
637.7969648128823
 31
0.0000000000000000
 70
32
  1
\A1;\U+220530
  3
MAIN001
100
AcDbAlignedDimension
 13
830.1568623679879
 23
620.6545018738583
 33
0.0000000000000000
 14
800.1568623679879
 24
620.6545018738583
 34
0.0000000000000000
100
AcDbRotatedDimension
1001
ACAD
1000
DSTYLE
1002
{
1070
   173
1070
     1
1070
     6
1000
_OPEN
1070
     7
1000
_OPEN
1070
    41
1040
5.000000
1002
}
  0
DIMENSION
  5
17A
100
AcDbEntity
  8
MAIN0
  6
CONTINUOUS
 62
3
100
AcDbDimension
  2
*D2
 10
858.2089406350300
 20
622.6545018738583
 30
0.0000000000000000
 11
856.9589406350300
 21
629.8298127401588
 31
0.0000000000000000
 70
160
  3
MAIN001
100
AcDbAlignedDimension
 13
917.7128110656242
 23
604.6545018738583
 33
0.0000000000000000
 14
828.1568623679821
 24
622.6545018738583
 34
0.0000000000000000
 50
90.00000000000000
100
AcDbRotatedDimension
1001
ACAD
1000
DSTYLE
1002
{
1070
   173
1070
     1
1070
     6
1000
_OPEN
1070
     7
1000
_OPEN
1070
    41
1040
5.000000
1002
}
  0
DIMENSION
  5
182
100
AcDbEntity
  8
MAIN0
  6
CONTINUOUS
 62
3
100
AcDbDimension
  2
*D3
 10
778.3832326445310
 20
612.6545018738583
 30
0.0000000000000000
 11
777.1332326445310
 21
623.5754858712717
 31
0.0000000000000000
 70
160
  1
\A1;\U+220516
  3
MAIN001
100
AcDbAlignedDimension
 13
800.1568623680588
 23
596.6545018738583
 33
0.0000000000000000
 14
800.1568623680115
 24
612.6545018738583
 34
0.0000000000000000
 50
90.00000000000000
100
AcDbRotatedDimension
1001
ACAD
1000
DSTYLE
1002
{
1070
   173
1070
     1
1070
     6
1000
_OPEN
1070
     7
1000
_OPEN
1070
    41
1040
5.000000
1002
}
  0
LINE
  5
183
100
AcDbEntity
  8
MAIN0
  6
CENTER
 62
3
100
AcDbLine
 10
609.8999786430292
 20
604.6545018738583
 30
0.0000000000000000
 11
771.1461753660357
 21
604.6545018738583
 31
0.0000000000000000
  0
LINE
  5
184
100
AcDbEntity
  8
MAIN0
  6
CENTER
 62
3
100
AcDbLine
 10
780.2961752229845
 20
604.6545018738583
 30
0.0000000000000000
 11
1016.432458900322
 21
604.6545018738583
 31
0.0000000000000000
  0
DIMENSION
  5
18B
100
AcDbEntity
  8
MAIN0
  6
CONTINUOUS
 62
3
100
AcDbDimension
  2
*D4
 10
802.1568623680944
 20
542.2969648128823
 30
0.0000000000000000
 11
815.1568623680944
 21
542.7969648128823
 31
0.0000000000000000
 70
32
  1
\A1;\U+220526
  3
MAIN001
100
AcDbAlignedDimension
 13
828.1568623684312
 23
470.6545018738583
 33
0.0000000000000000
 14
802.1568623684312
 24
470.6545018738583
 34
0.0000000000000000
100
AcDbRotatedDimension
1001
ACAD
1000
DSTYLE
1002
{
1070
   173
1070
     1
1070
     6
1000
_OPEN
1070
     7
1000
_OPEN
1070
    41
1040
5.000000
1002
}
  0
DIMENSION
  5
194
100
AcDbEntity
  8
MAIN0
  6
CONTINUOUS
 62
3
100
AcDbDimension
  2
*D5
 10
858.2089406350300
 20
422.6545018738583
 30
0.0000000000000000
 11
857.7089406350300
 21
431.6545018738583
 31
0.0000000000000000
 70
32
  3
MAIN001
100
AcDbAlignedDimension
 13
824.3068623680262
 23
440.6545018738583
 33
0.0000000000000000
 14
823.3068623680262
 24
422.6545018738583
 34
0.0000000000000000
 50
90.00000000000000
100
AcDbRotatedDimension
1001
ACAD
1000
DSTYLE
1002
{
1070
   173
1070
     1
1070
     6
1000
_OPEN
1070
     7
1000
_OPEN
1070
    41
1040
5.000000
1002
}
  0
DIMENSION
  5
19D
100
AcDbEntity
  8
MAIN0
  6
CONTINUOUS
 62
3
100
AcDbDimension
  2
*D6
 10
878.5354134903911
 20
622.6545018738583
 30
0.0000000000000000
 11
878.0354134903911
 21
522.6545018738583
 31
0.0000000000000000
 70
32
  3
MAIN001
100
AcDbAlignedDimension
 13
823.3068623680262
 23
422.6545018738583
 33
0.0000000000000000
 14
828.1568623679821
 24
622.6545018738583
 34
0.0000000000000000
 50
90.00000000000000
100
AcDbRotatedDimension
1001
ACAD
1000
DSTYLE
1002
{
1070
   173
1070
     1
1070
     6
1000
_OPEN
1070
     7
1000
_OPEN
1070
    41
1040
5.000000
1002
}
  0
DIMENSION
  5
1A7
100
AcDbEntity
  8
MAIN0
  6
CONTINUOUS
 62
3
100
AcDbDimension
  2
*D7
 10
840.3620213626087
 20
356.5603743403266
 30
0.0000000000000000
 11
848.0782387026541
 21
366.0443586333378
 31
0.0000000000000000
 70
161
  3
MAIN001
100
AcDbAlignedDimension
 13
814.3737982334734
 23
362.7496075962383
 33
0.0000000000000000
 14
824.2732931700863
 24
372.6491025328491
 34
0.0000000000000000
 50
45.00000000000000
1001
ACAD
1000
DSTYLE
1002
{
1070
   173
1070
     1
1070
     6
1000
_OPEN
1070
     7
1000
_OPEN
1070
    41
1040
5.000000
1070
   272
1070
     2
1070
    47
1040
0.000000
1070
    48
1040
0.150000
1070
    71
1070
     1
1002
}
  0
DIMENSION
  5
1B0
100
AcDbEntity
  8
MAIN0
  6
CONTINUOUS
 62
3
100
AcDbDimension
  2
*D8
 10
839.0327288270257
 20
285.3834649757351
 30
0.0000000000000000
 11
776.5327288270257
 21
285.8834649757351
 31
0.0000000000000000
 70
32
  3
MAIN001
100
AcDbAlignedDimension
 13
714.0327288270257
 23
249.2414615760853
 33
0.0000000000000000
 14
839.0327288270257
 24
249.2414615760391
 34
0.0000000000000000
100
AcDbRotatedDimension
1001
ACAD
1000
DSTYLE
1002
{
1070
   173
1070
     1
1070
     6
1000
_OPEN
1070
     7
1000
_OPEN
1070
    41
1040
5.000000
1002
}
  0
DIMENSION
  5
1B9
100
AcDbEntity
  8
MAIN0
  6
CONTINUOUS
 62
3
100
AcDbDimension
  2
*D9
 10
865.7169464646170
 20
249.2414615759547
 30
0.0000000000000000
 11
865.2169464646170
 21
222.2414615759849
 31
0.0000000000000000
 70
32
  3
MAIN001
100
AcDbAlignedDimension
 13
781.0477288270058
 23
195.2414615760152
 33
0.0000000000000000
 14
839.0327288270257
 24
249.2414615759547
 34
0.0000000000000000
 50
90.00000000000000
100
AcDbRotatedDimension
1001
ACAD
1000
DSTYLE
1002
{
1070
   173
1070
     1
1070
     6
1000
_OPEN
1070
     7
1000
_OPEN
1070
    41
1040
5.000000
1002
}
  0
DIMENSION
  5
1C2
100
AcDbEntity
  8
MAIN0
  6
CONTINUOUS
 62
3
100
AcDbDimension
  2
*D10
 10
803.2827288270017
 20
170.3834649757351
 30
0.0000000000000000
 11
787.4077288270017
 21
170.8834649757351
 31
0.0000000000000000
 70
32
  3
MAIN001
100
AcDbAlignedDimension
 13
771.5327288270017
 23
184.4843151814324
 33
0.0000000000000000
 14
803.2827288270017
 24
184.4843151814206
 34
0.0000000000000000
100
AcDbRotatedDimension
1001
ACAD
1000
DSTYLE
1002
{
1070
   173
1070
     1
1070
     6
1000
_OPEN
1070
     7
1000
_OPEN
1070
    41
1040
5.000000
1002
}
  0
DIMENSION
  5
1CB
100
AcDbEntity
  8
MAIN0
  6
CONTINUOUS
 62
3
100
AcDbDimension
  2
*D11
 10
771.5327288270017
 20
170.3834649757351
 30
0.0000000000000000
 11
755.6577288270017
 21
170.8834649757351
 31
0.0000000000000000
 70
32
  3
MAIN001
100
AcDbAlignedDimension
 13
739.7827288270017
 23
184.4843151814441
 33
0.0000000000000000
 14
771.5327288270017
 24
184.4843151814324
 34
0.0000000000000000
100
AcDbRotatedDimension
1001
ACAD
1000
DSTYLE
1002
{
1070
   173
1070
     1
1070
     6
1000
_OPEN
1070
     7
1000
_OPEN
1070
    41
1040
5.000000
1002
}
  0
DIMENSION
  5
1D4
100
AcDbEntity
  8
MAIN0
  6
CONTINUOUS
 62
3
100
AcDbDimension
  2
*D12
 10
257.3021132083267
 20
647.5815868900470
 30
0.0000000000000000
 11
209.3021132083266
 21
648.0815868900470
 31
0.0000000000000000
 70
32
  3
MAIN001
100
AcDbAlignedDimension
 13
161.3021132083266
 23
575.4134727181474
 33
0.0000000000000000
 14
257.3021132083267
 24
575.4134727181473
 34
0.0000000000000000
100
AcDbRotatedDimension
1001
ACAD
1000
DSTYLE
1002
{
1070
   173
1070
     1
1070
     6
1000
_OPEN
1070
     7
1000
_OPEN
1070
    41
1040
5.000000
1002
}
  0
DIMENSION
  5
1DD
100
AcDbEntity
  8
MAIN0
  6
CONTINUOUS
 62
3
100
AcDbDimension
  2
*D13
 10
91.30211320832640
 20
577.4134727181474
 30
0.0000000000000000
 11
90.80211320832640
 21
422.4134727181474
 31
0.0000000000000000
 70
32
  1
\A1;\U+2205310
  3
MAIN001
100
AcDbAlignedDimension
 13
163.3021132083262
 23
267.4134727181474
 33
0.0000000000000000
 14
163.3021132083266
 24
577.4134727181474
 34
0.0000000000000000
 50
90.00000000000000
100
AcDbRotatedDimension
1001
ACAD
1000
DSTYLE
1002
{
1070
   173
1070
     1
1070
     6
1000
_OPEN
1070
     7
1000
_OPEN
1070
    41
1040
5.000000
1002
}
  0
DIMENSION
  5
1E6
100
AcDbEntity
  8
MAIN0
  6
CONTINUOUS
 62
3
100
AcDbDimension
  2
*D14
 10
116.3021132083264
 20
552.4134727181474
 30
0.0000000000000000
 11
115.8021132083264
 21
415.3384725810568
 31
0.0000000000000000
 70
32
  1
\A1;\U+2205260H6\H0.903226x;\S＋0.032^ 　0;
  3
MAIN001
100
AcDbAlignedDimension
 13
161.3021132083263
 23
292.4134727181474
 33
0.0000000000000000
 14
161.3021132083267
 24
552.4134727181474
 34
0.0000000000000000
 50
90.00000000000000
100
AcDbRotatedDimension
1001
ACAD
1000
DSTYLE
1002
{
1070
   173
1070
     1
1070
     6
1000
_OPEN
1070
     7
1000
_OPEN
1070
    41
1040
5.000000
1070
   272
1070
     3
1070
    47
1040
0.032000
1070
    48
1040
0.000000
1070
    71
1070
     1
1070
   340
1005
1E7
1002
}
  0
DIMENSION
  5
1F0
100
AcDbEntity
  8
MAIN0
  6
CONTINUOUS
 62
3
100
AcDbDimension
  2
*D15
 10
161.3021132083262
 20
392.4134727181474
 30
0.0000000000000000
 11
151.5677712203275
 21
393.1634727181474
 31
0.0000000000000000
 70
160
  3
MAIN001
100
AcDbAlignedDimension
 13
168.3021132083262
 23
292.4134727181474
 33
0.0000000000000000
 14
161.3021132083262
 24
269.4134727181474
 34
0.0000000000000000
100
AcDbRotatedDimension
1001
ACAD
1000
DSTYLE
1002
{
1070
   173
1070
     1
1070
     6
1000
_OPEN
1070
     7
1000
_OPEN
1070
    41
1040
5.000000
1070
   287
1070
     0
1002
}
  0
DIMENSION
  5
1F9
100
AcDbEntity
  8
MAIN0
  6
CONTINUOUS
 62
3
100
AcDbDimension
  2
*D16
 10
336.3021132083264
 20
442.4134727181472
 30
0.0000000000000000
 11
335.8021132083264
 21
422.4134727181472
 31
0.0000000000000000
 70
32
  3
MAIN001
100
AcDbAlignedDimension
 13
313.3021132083264
 23
402.4134727181472
 33
0.0000000000000000
 14
313.3021132083264
 24
442.4134727181472
 34
0.0000000000000000
 50
90.00000000000000
100
AcDbRotatedDimension
1001
ACAD
1000
DSTYLE
1002
{
1070
   173
1070
     1
1070
     6
1000
_OPEN
1070
     7
1000
_OPEN
1070
    41
1040
5.000000
1002
}
  0
DIMENSION
  5
202
100
AcDbEntity
  8
MAIN0
  6
CONTINUOUS
 62
3
100
AcDbDimension
  2
*D17
 10
336.3021132083264
 20
380.4134727181472
 30
0.0000000000000000
 11
335.8021132083264
 21
322.9134727181473
 31
0.0000000000000000
 70
32
  3
MAIN001
100
AcDbAlignedDimension
 13
281.8021132083262
 23
265.4134727181473
 33
0.0000000000000000
 14
312.3021132083263
 24
380.4134727181472
 34
0.0000000000000000
 50
90.00000000000000
100
AcDbRotatedDimension
1001
ACAD
1000
DSTYLE
1002
{
1070
   173
1070
     1
1070
     6
1000
_OPEN
1070
     7
1000
_OPEN
1070
    41
1040
5.000000
1002
}
  0
ARC
  5
203
100
AcDbEntity
  8
MAIN0
  6
CONTINUOUS
 62
3
100
AcDbCircle
 10
357.4876142729991
 20
522.4134727181479
 30
0.0000000000000000
 40
124.0000000000000
100
AcDbArc
 50
321.1700006840105
 51
327.8923784976382
  0
ARC
  5
204
100
AcDbEntity
  8
MAIN0
  6
CONTINUOUS
 62
3
100
AcDbCircle
 10
357.4876142729991
 20
522.4134727181479
 30
0.0000000000000000
 40
124.0000000000000
100
AcDbArc
 50
332.1076215023614
 51
338.8299993159893
  0
ARC
  5
205
100
AcDbEntity
  8
MAIN0
  6
CONTINUOUS
 62
3
100
AcDbCircle
 10
703.8977757867745
 20
522.4134727181473
 30
0.0000000000000000
 40
124.0000000000000
100
AcDbArc
 50
201.1700006840105
 51
207.8923784976384
  0
ARC
  5
206
100
AcDbEntity
  8
MAIN0
  6
CONTINUOUS
 62
3
100
AcDbCircle
 10
703.8977757867745
 20
522.4134727181473
 30
0.0000000000000000
 40
124.0000000000000
100
AcDbArc
 50
212.1076215023616
 51
218.8299993159894
  0
ARC
  5
207
100
AcDbEntity
  8
MAIN0
  6
CONTINUOUS
 62
3
100
AcDbCircle
 10
530.6926950298864
 20
222.4134727181476
 30
0.0000000000000000
 40
124.0000000000000
100
AcDbArc
 50
81.17000068401052
 51
87.89237849763808
  0
ARC
  5
208
100
AcDbEntity
  8
MAIN0
  6
CONTINUOUS
 62
3
100
AcDbCircle
 10
530.6926950298864
 20
222.4134727181476
 30
0.0000000000000000
 40
124.0000000000000
100
AcDbArc
 50
92.10762150236171
 51
98.82999931598937
  0
DIMENSION
  5
212
100
AcDbEntity
  8
MAIN0
  6
CONTINUOUS
 62
3
100
AcDbDimension
  2
*D18
 10
211.7694743149952
 20
676.6673867690682
 30
0.0000000000000000
 11
221.3607815859552
 21
688.0264609929782
 31
0.0000000000000000
 70
161
  3
MAIN001
100
AcDbAlignedDimension
 13
192.0190490733154
 23
676.6188221375405
 33
0.0000000000000000
 14
201.9185440099337
 24
686.5183170741456
 34
0.0000000000000000
 50
44.99999999995443
1001
ACAD
1000
DSTYLE
1002
{
1070
   173
1070
     1
1070
     6
1000
_OPEN
1070
     7
1000
_OPEN
1070
    41
1040
5.000000
1070
   272
1070
     2
1070
    47
1040
0.150000
1070
    48
1040
-0.050000
1070
    71
1070
     1
1002
}
  0
LINE
  5
213
100
AcDbEntity
  8
MAIN0
  6
CENTER
 62
3
100
AcDbLine
 10
815.1568623686153
 20
408.4506337532345
 30
0.0000000000000000
 11
815.1568623682241
 21
540.7969648128823
 31
0.0000000000000000
  0
LINE
  5
214
100
AcDbEntity
  8
MAIN0
  6
CENTER
 62
3
100
AcDbLine
 10
815.1568623681969
 20
549.9469646698311
 30
0.0000000000000000
 11
815.1568623679593
 21
630.3200639141408
 31
0.0000000000000000
  0
LINE
  5
215
100
AcDbEntity
  8
MAIN0
  6
HIDDEN
 62
3
100
AcDbLine
 10
256.3021132083265
 20
470.4134727181473
 30
0.0000000000000000
 11
257.3021132083265
 21
471.4134727181473
 31
0.0000000000000000
  0
LINE
  5
216
100
AcDbEntity
  8
MAIN0
  6
CONTINUOUS
 62
3
100
AcDbLine
 10
546.1926950298865
 20
268.1904199666213
 30
0.0000000000000000
 11
546.1926950298865
 21
273.2077013522533
 31
0.0000000000000000
  0
LINE
  5
217
100
AcDbEntity
  8
MAIN0
  6
CONTINUOUS
 62
3
100
AcDbLine
 10
515.1926950298865
 20
268.1904199666213
 30
0.0000000000000000
 11
515.1926950298865
 21
273.2077013520543
 31
0.0000000000000000
  0
LINE
  5
218
100
AcDbEntity
  8
MAIN0
  6
CONTINUOUS
 62
3
100
AcDbLine
 10
656.5037765618956
 20
512.9483928525690
 30
0.0000000000000000
 11
652.1586834240035
 21
510.4397521597530
 31
0.0000000000000000
  0
LINE
  5
219
100
AcDbEntity
  8
MAIN0
  6
CONTINUOUS
 62
3
100
AcDbLine
 10
672.0037765618956
 20
486.1016053352514
 30
0.0000000000000000
 11
667.6586834241759
 21
483.5929646425350
 31
0.0000000000000000
  0
LINE
  5
21A
100
AcDbEntity
  8
MAIN0
  6
CONTINUOUS
 62
3
100
AcDbLine
 10
389.3816134978777
 20
486.1016053352518
 30
0.0000000000000000
 11
393.7267066357698
 21
483.5929646424358
 31
0.0000000000000000
  0
LINE
  5
21B
100
AcDbEntity
  8
MAIN0
  6
CONTINUOUS
 62
3
100
AcDbLine
 10
404.8816134978777
 20
512.9483928525694
 30
0.0000000000000000
 11
409.2267066355975
 21
510.4397521598529
 31
0.0000000000000000
  0
LINE
  5
21C
100
AcDbEntity
  8
MAIN0
  6
CONTINUOUS
 62
3
100
AcDbLine
 10
830.1568623680115
 20
612.6545018738583
 30
0.0000000000000000
 11
1002.355771859646
 21
612.6545018738583
 31
0.0000000000000000
  0
LINE
  5
21D
100
AcDbEntity
  8
MAIN0
  6
CONTINUOUS
 62
3
100
AcDbLine
 10
628.1568623680353
 20
612.6545018738583
 30
0.0000000000000000
 11
800.1568623680115
 21
612.6545018738583
 31
0.0000000000000000
  0
LINE
  5
21E
100
AcDbEntity
  8
MAIN0
  6
CONTINUOUS
 62
3
100
AcDbLine
 10
628.1568623680353
 20
596.6545018738583
 30
0.0000000000000000
 11
800.1568623680588
 21
596.6545018738583
 31
0.0000000000000000
  0
LINE
  5
21F
100
AcDbEntity
  8
MAIN0
  6
CONTINUOUS
 62
3
100
AcDbLine
 10
830.1568623680587
 20
596.6545018738583
 30
0.0000000000000000
 11
1002.355771859646
 21
596.6545018738583
 31
0.0000000000000000
  0
LINE
  5
220
100
AcDbEntity
  8
MAIN0
  6
CONTINUOUS
 62
3
100
AcDbLine
 10
257.3021132083262
 20
269.4134727181473
 30
0.0000000000000000
 11
257.3021132083267
 21
575.4134727181473
 31
0.0000000000000000
  0
LINE
  5
221
100
AcDbEntity
  8
MAIN0
  6
CENTER
 62
3
100
AcDbLine
 10
154.9367602040835
 20
563.4134727181474
 30
0.0000000000000000
 11
264.4276024759147
 21
563.4134727181473
 31
0.0000000000000000
  0
LINE
  5
222
100
AcDbEntity
  8
MAIN0
  6
HIDDEN
 62
3
100
AcDbLine
 10
524.6926950298868
 20
499.9134727181472
 30
0.0000000000000000
 11
524.6926950298868
 21
515.6457727181473
 31
0.0000000000000000
  0
LINE
  5
223
100
AcDbEntity
  8
MAIN0
  6
HIDDEN
 62
3
100
AcDbLine
 10
524.6926950298869
 20
511.5957727181474
 30
0.0000000000000000
 11
523.8926950298869
 21
512.3957727181473
 31
0.0000000000000000
  0
LINE
  5
224
100
AcDbEntity
  8
MAIN0
  6
HIDDEN
 62
3
100
AcDbLine
 10
547.1926950298869
 20
567.3957727181473
 30
0.0000000000000000
 11
549.6926950298869
 21
567.3957727181473
 31
0.0000000000000000
  0
LINE
  5
225
100
AcDbEntity
  8
MAIN0
  6
HIDDEN
 62
3
100
AcDbLine
 10
547.1926950298869
 20
560.3957727181473
 30
0.0000000000000000
 11
549.6926950298869
 21
560.3957727181473
 31
0.0000000000000000
  0
LINE
  5
226
100
AcDbEntity
  8
MAIN0
  6
HIDDEN
 62
3
100
AcDbLine
 10
549.6926950298869
 20
575.9627600164312
 30
0.0000000000000000
 11
549.6926950298869
 21
546.5348785306672
 31
0.0000000000000000
  0
ARC
  5
227
100
AcDbEntity
  8
MAIN0
  6
HIDDEN
 62
3
100
AcDbCircle
 10
547.1926950298869
 20
563.8957727181473
 30
0.0000000000000000
 40
3.500000000000000
100
AcDbArc
 50
89.99999999999994
 51
269.9999999999999
  0
LINE
  5
228
100
AcDbEntity
  8
MAIN0
  6
HIDDEN
 62
3
100
AcDbLine
 10
549.3926950298870
 20
576.1457727181473
 30
0.0000000000000000
 11
549.6926950298870
 21
575.8457727181474
 31
0.0000000000000000
  0
LINE
  5
229
100
AcDbEntity
  8
MAIN0
  6
HIDDEN
 62
3
100
AcDbLine
 10
525.1926950298868
 20
500.6457727181473
 30
0.0000000000000000
 11
536.1926950298868
 21
500.6457727181473
 31
0.0000000000000000
  0
LINE
  5
22A
100
AcDbEntity
  8
MAIN0
  6
HIDDEN
 62
3
100
AcDbLine
 10
515.8643095932366
 20
525.6457727181473
 30
0.0000000000000000
 11
545.5579381444355
 21
525.6457727181473
 31
0.0000000000000000
  0
LINE
  5
22B
100
AcDbEntity
  8
MAIN0
  6
HIDDEN
 62
3
100
AcDbLine
 10
545.2410207958477
 20
561.3788863652412
 30
0.0000000000000000
 11
545.2033190924102
 21
561.0161228471754
 31
0.0000000000000000
  0
LINE
  5
22C
100
AcDbEntity
  8
MAIN0
  6
HIDDEN
 62
3
100
AcDbLine
 10
545.2033190924102
 20
561.0161228471754
 30
0.0000000000000000
 11
541.3677054209035
 21
524.1100792853872
 31
0.0000000000000000
  0
ARC
  5
22D
100
AcDbEntity
  8
MAIN0
  6
HIDDEN
 62
3
100
AcDbCircle
 10
555.5170983771311
 20
563.5170381518935
 30
0.0000000000000000
 40
10.00000000000000
100
AcDbArc
 50
125.6223664678507
 51
157.9860847045921
  0
ARC
  5
22E
100
AcDbEntity
  8
MAIN0
  6
HIDDEN
 62
3
100
AcDbCircle
 10
555.5170983771311
 20
563.5170381518935
 30
0.0000000000000000
 40
10.00000000000000
100
AcDbArc
 50
157.9860847045921
 51
159.7952500103909
  0
LINE
  5
22F
100
AcDbEntity
  8
MAIN0
  6
HIDDEN
 62
3
100
AcDbLine
 10
536.1926950298868
 20
500.6457727181473
 30
0.0000000000000000
 11
536.6926950298868
 21
501.1457727181473
 31
0.0000000000000000
  0
ARC
  5
230
100
AcDbEntity
  8
MAIN0
  6
HIDDEN
 62
3
100
AcDbCircle
 10
546.6926950298869
 20
515.6457727181473
 30
0.0000000000000000
 40
10.00000000000000
100
AcDbArc
 50
96.68239212604985
 51
179.9999999999999
  0
LINE
  5
231
100
AcDbEntity
  8
MAIN0
  6
HIDDEN
 62
3
100
AcDbLine
 10
546.6711911348241
 20
526.6344419182676
 30
0.0000000000000000
 11
545.5210804665370
 21
525.6457727181473
 31
0.0000000000000000
  0
ARC
  5
232
100
AcDbEntity
  8
MAIN0
  6
HIDDEN
 62
3
100
AcDbCircle
 10
505.8682916826426
 20
563.5170381518935
 30
0.0000000000000000
 40
10.00000000000000
100
AcDbArc
 50
22.01391529540775
 51
54.37763353214925
  0
ARC
  5
233
100
AcDbEntity
  8
MAIN0
  6
HIDDEN
 62
3
100
AcDbCircle
 10
514.1926950298869
 20
563.8957727181474
 30
0.0000000000000000
 40
3.500000000000000
100
AcDbArc
 50
269.9999999999999
 51
449.9999999999999
  0
LINE
  5
234
100
AcDbEntity
  8
MAIN0
  6
HIDDEN
 62
3
100
AcDbLine
 10
514.1926950298869
 20
567.3957727181474
 30
0.0000000000000000
 11
511.6926950298869
 21
567.3957727181474
 31
0.0000000000000000
  0
LINE
  5
235
100
AcDbEntity
  8
MAIN0
  6
HIDDEN
 62
3
100
AcDbLine
 10
514.1926950298869
 20
560.3957727181474
 30
0.0000000000000000
 11
511.6926950298869
 21
560.3957727181474
 31
0.0000000000000000
  0
LINE
  5
236
100
AcDbEntity
  8
MAIN0
  6
HIDDEN
 62
3
100
AcDbLine
 10
516.1820709673635
 20
561.0161228471754
 30
0.0000000000000000
 11
520.0176846388702
 21
524.1100792853872
 31
0.0000000000000000
  0
LINE
  5
237
100
AcDbEntity
  8
MAIN0
  6
HIDDEN
 62
3
100
AcDbLine
 10
511.6926950298869
 20
546.5348785306676
 30
0.0000000000000000
 11
514.7141989249495
 21
526.6344419182676
 31
0.0000000000000000
  0
LINE
  5
238
100
AcDbEntity
  8
MAIN0
  6
HIDDEN
 62
3
100
AcDbLine
 10
514.7141989249495
 20
526.6344419182676
 30
0.0000000000000000
 11
515.8643095932365
 21
525.6457727181473
 31
0.0000000000000000
  0
ARC
  5
239
100
AcDbEntity
  8
MAIN0
  6
HIDDEN
 62
3
100
AcDbCircle
 10
514.6926950298868
 20
515.6457727181473
 30
0.0000000000000000
 40
10.00000000000000
100
AcDbArc
 50
359.9999999999999
 51
443.3176078739500
  0
LINE
  5
23A
100
AcDbEntity
  8
MAIN0
  6
HIDDEN
 62
3
100
AcDbLine
 10
525.1926950298868
 20
500.6457727181473
 30
0.0000000000000000
 11
524.6926950298868
 21
501.1457727181473
 31
0.0000000000000000
  0
LINE
  5
23B
100
AcDbEntity
  8
MAIN0
  6
HIDDEN
 62
3
100
AcDbLine
 10
539.8426950299088
 20
559.1457727181473
 30
0.0000000000000000
 11
521.5426950298869
 21
559.1457727181473
 31
0.0000000000000000
  0
LINE
  5
23C
100
AcDbEntity
  8
MAIN0
  6
HIDDEN
 62
3
100
AcDbLine
 10
537.6926950298869
 20
553.1457727181473
 30
0.0000000000000000
 11
523.6926950298869
 21
553.1457727181473
 31
0.0000000000000000
  0
LINE
  5
23D
100
AcDbEntity
  8
MAIN0
  6
HIDDEN
 62
3
100
AcDbLine
 10
537.6926950298869
 20
559.1457727181473
 30
0.0000000000000000
 11
537.6926950298869
 21
553.1457727181473
 31
0.0000000000000000
  0
LINE
  5
23E
100
AcDbEntity
  8
MAIN0
  6
HIDDEN
 62
3
100
AcDbLine
 10
523.6926950298869
 20
559.1457727181473
 30
0.0000000000000000
 11
523.6926950298869
 21
553.1457727181473
 31
0.0000000000000000
  0
LINE
  5
23F
100
AcDbEntity
  8
MAIN0
  6
CENTER
 62
3
100
AcDbLine
 10
497.5493676641083
 20
563.8957727181474
 30
0.0000000000000000
 11
551.1606522477763
 21
563.8957727181473
 31
0.0000000000000000
  0
LINE
  5
240
100
AcDbEntity
  8
MAIN0
  6
HIDDEN
 62
3
100
AcDbLine
 10
530.6926950298866
 20
549.1043208335944
 30
0.0000000000000000
 11
537.6926950298871
 21
553.1457727179336
 31
0.0000000000000000
  0
LINE
  5
241
100
AcDbEntity
  8
MAIN0
  6
HIDDEN
 62
3
100
AcDbLine
 10
530.6926950298872
 20
549.1043208335944
 30
0.0000000000000000
 11
523.6926950298868
 21
553.1457727179336
 31
0.0000000000000000
  0
LINE
  5
242
100
AcDbEntity
  8
MAIN0
  6
HIDDEN
 62
3
100
AcDbLine
 10
531.3667846542127
 20
559.1457727181473
 30
0.0000000000000000
 11
531.3667846542064
 21
575.2220122874421
 31
0.0000000000000000
  0
LINE
  5
243
100
AcDbEntity
  8
MAIN0
  6
HIDDEN
 62
3
100
AcDbLine
 10
530.0186054055611
 20
559.1457727181476
 30
0.0000000000000000
 11
530.0186054055673
 21
575.2220122874425
 31
0.0000000000000000
  0
LINE
  5
244
100
AcDbEntity
  8
MAIN0
  6
HIDDEN
 62
3
100
AcDbLine
 10
549.6926950298869
 20
546.5348785306675
 30
0.0000000000000000
 11
546.6711911348242
 21
526.6344419182676
 31
0.0000000000000000
  0
LINE
  5
245
100
AcDbEntity
  8
MAIN0
  6
HIDDEN
 62
3
100
AcDbLine
 10
549.6926950298869
 20
575.9627600164312
 30
0.0000000000000000
 11
550.1257077316016
 21
576.3957727181474
 31
0.0000000000000000
  0
LINE
  5
246
100
AcDbEntity
  8
MAIN0
  6
HIDDEN
 62
3
100
AcDbLine
 10
539.8426950299050
 20
575.2220122874398
 30
0.0000000000000000
 11
539.8426950299088
 21
559.1457727181473
 31
0.0000000000000000
  0
LINE
  5
247
100
AcDbEntity
  8
MAIN0
  6
HIDDEN
 62
3
100
AcDbLine
 10
521.5426950298877
 20
575.2220122874446
 30
0.0000000000000000
 11
521.5426950298869
 21
559.1457727181474
 31
0.0000000000000000
  0
LINE
  5
248
100
AcDbEntity
  8
MAIN0
  6
HIDDEN
 62
3
100
AcDbLine
 10
539.8426950299050
 20
575.2220122873749
 30
0.0000000000000000
 11
541.4426950300199
 21
576.1457727181471
 31
0.0000000000000000
  0
LINE
  5
249
100
AcDbEntity
  8
MAIN0
  6
HIDDEN
 62
3
100
AcDbLine
 10
519.9426950294197
 20
576.1457727181473
 30
0.0000000000000000
 11
521.5426950298877
 21
575.2220122871714
 31
0.0000000000000000
  0
LINE
  5
24A
100
AcDbEntity
  8
MAIN0
  6
HIDDEN
 62
3
100
AcDbLine
 10
539.8426950299049
 20
575.2220122874398
 30
0.0000000000000000
 11
521.5426950298876
 21
575.2220122874446
 31
0.0000000000000000
  0
LINE
  5
24B
100
AcDbEntity
  8
MAIN0
  6
HIDDEN
 62
3
100
AcDbLine
 10
539.8426950299050
 20
575.2220122874398
 30
0.0000000000000000
 11
531.3667846542127
 21
559.1457727181473
 31
0.0000000000000000
  0
LINE
  5
24C
100
AcDbEntity
  8
MAIN0
  6
HIDDEN
 62
3
100
AcDbLine
 10
531.3667846542064
 20
575.2220122874421
 30
0.0000000000000000
 11
539.8426950299088
 21
559.1457727181473
 31
0.0000000000000000
  0
LINE
  5
24D
100
AcDbEntity
  8
MAIN0
  6
HIDDEN
 62
3
100
AcDbLine
 10
530.0186054055674
 20
575.2220122874426
 30
0.0000000000000000
 11
521.5426950298870
 21
559.1457727181474
 31
0.0000000000000000
  0
LINE
  5
24E
100
AcDbEntity
  8
MAIN0
  6
HIDDEN
 62
3
100
AcDbLine
 10
521.5426950298878
 20
575.2220122871715
 30
0.0000000000000000
 11
530.0186054055612
 21
559.1457727181476
 31
0.0000000000000000
  0
LINE
  5
24F
100
AcDbEntity
  8
MAIN0
  6
HIDDEN
 62
3
100
AcDbLine
 10
536.6926950298869
 20
499.9134727181472
 30
0.0000000000000000
 11
536.6926950298870
 21
515.6457727181473
 31
0.0000000000000000
  0
ARC
  5
250
100
AcDbEntity
  8
MAIN0
  6
HIDDEN
 62
3
100
AcDbCircle
 10
530.6926950298866
 20
422.4134727181474
 30
0.0000000000000000
 40
91.00000000000000
100
AcDbArc
 50
76.59290116978667
 51
86.21951376240503
  0
ARC
  5
251
100
AcDbEntity
  8
MAIN0
  6
HIDDEN
 62
3
100
AcDbCircle
 10
530.6926950298866
 20
422.4134727181474
 30
0.0000000000000000
 40
91.00000000000000
100
AcDbArc
 50
93.78048623759467
 51
103.8864815231852
  0
LINE
  5
252
100
AcDbEntity
  8
MAIN0
  6
HIDDEN
 62
3
100
AcDbLine
 10
181.8021132083263
 20
374.4134727181474
 30
0.0000000000000000
 11
256.3021132083263
 21
374.4134727181473
 31
0.0000000000000000
  0
LINE
  5
253
100
AcDbEntity
  8
MAIN0
  6
HIDDEN
 62
3
100
AcDbLine
 10
180.8021132083263
 20
373.4134727181474
 30
0.0000000000000000
 11
181.8021132083263
 21
374.4134727181474
 31
0.0000000000000000
  0
LINE
  5
254
100
AcDbEntity
  8
MAIN0
  6
HIDDEN
 62
3
100
AcDbLine
 10
256.3021132083263
 20
374.4134727181473
 30
0.0000000000000000
 11
257.3021132083263
 21
373.4134727181473
 31
0.0000000000000000
  0
LINE
  5
255
100
AcDbEntity
  8
MAIN0
  6
HIDDEN
 62
3
100
AcDbLine
 10
236.5521132081670
 20
380.4134727181473
 30
0.0000000000000000
 11
241.5521132075443
 21
380.4134727181473
 31
0.0000000000000000
  0
LINE
  5
256
100
AcDbEntity
  8
MAIN0
  6
HIDDEN
 62
3
100
AcDbLine
 10
226.0021132081956
 20
380.4134727181473
 30
0.0000000000000000
 11
234.0521132075443
 21
380.4134727181473
 31
0.0000000000000000
  0
LINE
  5
257
100
AcDbEntity
  8
MAIN0
  6
HIDDEN
 62
3
100
AcDbLine
 10
244.0521132081671
 20
380.4134727181473
 30
0.0000000000000000
 11
249.0521132075442
 21
380.4134727181473
 31
0.0000000000000000
  0
LINE
  5
258
100
AcDbEntity
  8
MAIN0
  6
HIDDEN
 62
3
100
AcDbLine
 10
234.0521132075442
 20
380.4134727181475
 30
0.0000000000000000
 11
235.3021132078542
 21
378.2484092081446
 31
0.0000000000000000
  0
LINE
  5
259
100
AcDbEntity
  8
MAIN0
  6
HIDDEN
 62
3
100
AcDbLine
 10
235.3021132078541
 20
378.2484092081444
 30
0.0000000000000000
 11
236.5521132081670
 21
380.4134727181473
 31
0.0000000000000000
  0
LINE
  5
25A
100
AcDbEntity
  8
MAIN0
  6
HIDDEN
 62
3
100
AcDbLine
 10
241.5521132075442
 20
380.4134727181475
 30
0.0000000000000000
 11
242.8021132078542
 21
378.2484092081446
 31
0.0000000000000000
  0
LINE
  5
25B
100
AcDbEntity
  8
MAIN0
  6
HIDDEN
 62
3
100
AcDbLine
 10
242.8021132078541
 20
378.2484092081444
 30
0.0000000000000000
 11
244.0521132081670
 21
380.4134727181473
 31
0.0000000000000000
  0
LINE
  5
25C
100
AcDbEntity
  8
MAIN0
  6
HIDDEN
 62
3
100
AcDbLine
 10
249.0521132075442
 20
380.4134727181474
 30
0.0000000000000000
 11
250.3021132078542
 21
378.2484092081445
 31
0.0000000000000000
  0
LINE
  5
25D
100
AcDbEntity
  8
MAIN0
  6
HIDDEN
 62
3
100
AcDbLine
 10
250.3021132078541
 20
378.2484092081444
 30
0.0000000000000000
 11
251.5521132081670
 21
380.4134727181473
 31
0.0000000000000000
  0
LINE
  5
25E
100
AcDbEntity
  8
MAIN0
  6
HIDDEN
 62
3
100
AcDbLine
 10
220.3021132083629
 20
374.9134727181474
 30
0.0000000000000000
 11
226.0021132081967
 21
374.9134727181473
 31
0.0000000000000000
  0
LINE
  5
25F
100
AcDbEntity
  8
MAIN0
  6
HIDDEN
 62
3
100
AcDbLine
 10
226.0021132081967
 20
374.9134727181474
 30
0.0000000000000000
 11
226.0021132081956
 21
380.4134727181468
 31
0.0000000000000000
  0
LINE
  5
260
100
AcDbEntity
  8
MAIN0
  6
PHANTOM
 62
3
100
AcDbLine
 10
226.0021132081905
 20
406.9134727181473
 30
0.0000000000000000
 11
226.0021132081844
 21
437.9134727181473
 31
0.0000000000000000
  0
LINE
  5
261
100
AcDbEntity
  8
MAIN0
  6
HIDDEN
 62
3
100
AcDbLine
 10
220.3021132083621
 20
371.2683474171168
 30
0.0000000000000000
 11
220.3021132083629
 21
374.9134727181474
 31
0.0000000000000000
  0
LINE
  5
262
100
AcDbEntity
  8
MAIN0
  6
PHANTOM
 62
3
100
AcDbLine
 10
220.3021132083692
 20
406.9134727181473
 30
0.0000000000000000
 11
220.3021132083754
 21
438.1634727181472
 31
0.0000000000000000
  0
DIMENSION
  5
26D
100
AcDbEntity
  8
MAIN0
  6
CONTINUOUS
 62
3
100
AcDbDimension
  2
*D19
 10
141.3021132083264
 20
556.6634727181473
 30
0.0000000000000000
 11
140.0521132083264
 21
561.6443645987765
 31
0.0000000000000000
 70
160
  1
\A1;\U+220513.5
  3
MAIN001
100
AcDbAlignedDimension
 13
161.9021132083266
 23
570.1634727181473
 33
0.0000000000000000
 14
161.9021132083266
 24
556.6634727181473
 34
0.0000000000000000
 50
90.00000000000000
100
AcDbRotatedDimension
1001
ACAD
1000
DSTYLE
1002
{
1070
   173
1070
     1
1070
     6
1000
_OPEN
1070
     7
1000
_OPEN
1070
    41
1040
5.000000
1070
   287
1070
     0
1002
}
  0
DIMENSION
  5
278
100
AcDbEntity
  8
MAIN0
  6
CONTINUOUS
 62
3
100
AcDbDimension
  2
*D20
 10
297.0505973969264
 20
553.4134727181473
 30
0.0000000000000000
 11
296.5505973969264
 21
563.4134727181473
 31
0.0000000000000000
 70
32
  1
\A1;\U+220520
  3
MAIN001
100
AcDbAlignedDimension
 13
256.7021132083266
 23
573.4134727181473
 33
0.0000000000000000
 14
256.7021132083266
 24
553.4134727181473
 34
0.0000000000000000
 50
90.00000000000000
100
AcDbRotatedDimension
1001
ACAD
1000
DSTYLE
1002
{
1070
   173
1070
     1
1070
     6
1000
_OPEN
1070
     7
1000
_OPEN
1070
    41
1040
5.000000
1070
   287
1070
     0
1002
}
  0
DIMENSION
  5
283
100
AcDbEntity
  8
MAIN0
  6
CONTINUOUS
 62
3
100
AcDbDimension
  2
*D21
 10
242.8021132083266
 20
594.3495832865731
 30
0.0000000000000000
 11
268.5165898424658
 21
595.5995832865731
 31
0.0000000000000000
 70
160
  3
MAIN001
100
AcDbAlignedDimension
 13
257.3021132083267
 23
575.4134727181473
 33
0.0000000000000000
 14
242.8021132083266
 24
573.4134727181473
 34
0.0000000000000000
100
AcDbRotatedDimension
1001
ACAD
1000
DSTYLE
1002
{
1070
   173
1070
     1
1070
     6
1000
_OPEN
1070
     7
1000
_OPEN
1070
    41
1040
5.000000
1070
   287
1070
     0
1002
}
  0
LINE
  5
284
100
AcDbEntity
  8
MAIN0
  6
CONTINUOUS
 62
3
100
AcDbLine
 10
265.8021132083262
 20
275.8057775633017
 30
0.0000000000000000
 11
282.8021132083262
 21
275.8057775633017
 31
0.0000000000000000
  0
LINE
  5
285
100
AcDbEntity
  8
MAIN0
  6
CONTINUOUS
 62
3
100
AcDbLine
 10
257.3021132083263
 20
370.0677046827580
 30
0.0000000000000000
 11
313.3021132083263
 21
370.0677046827580
 31
0.0000000000000000
  0
CIRCLE
  5
286
100
AcDbEntity
  8
MAIN0
  6
CONTINUOUS
 62
3
100
AcDbCircle
 10
671.6894712623439
 20
422.4134727181472
 30
0.0000000000000000
 40
10.00000000000000
  0
CIRCLE
  5
287
100
AcDbEntity
  8
MAIN0
  6
CONTINUOUS
 62
3
100
AcDbCircle
 10
671.6894712623439
 20
422.4134727181472
 30
0.0000000000000000
 40
6.750000000000000
  0
LINE
  5
288
100
AcDbEntity
  8
MAIN0
  6
CENTER
 62
3
100
AcDbLine
 10
393.3376380987147
 20
343.1114936246283
 30
0.0000000000000000
 11
420.8534187487738
 21
358.9977369898527
 31
0.0000000000000000
  0
LINE
  5
289
100
AcDbEntity
  8
MAIN0
  6
CENTER
 62
3
100
AcDbLine
 10
556.6955609572872
 20
437.4262343609868
 30
0.0000000000000000
 11
672.6198752235183
 21
504.3551684080077
 31
0.0000000000000000
  0
LINE
  5
28A
100
AcDbEntity
  8
MAIN0
  6
CENTER
 62
3
100
AcDbLine
 10
385.9576880274706
 20
505.9762679718932
 30
0.0000000000000000
 11
505.9854924507339
 21
436.6781827780995
 31
0.0000000000000000
  0
LINE
  5
28B
100
AcDbEntity
  8
MAIN0
  6
CENTER
 62
3
100
AcDbLine
 10
452.9068513956231
 20
287.6844394355686
 30
0.0000000000000000
 11
468.5230030070305
 21
314.7324074451154
 31
0.0000000000000000
  0
CIRCLE
  5
28C
100
AcDbEntity
  8
MAIN0
  6
CONTINUOUS
 62
3
100
AcDbCircle
 10
460.1943069136581
 20
544.5202627871654
 30
0.0000000000000000
 40
6.750000000000000
  0
CIRCLE
  5
28D
100
AcDbEntity
  8
MAIN0
  6
CONTINUOUS
 62
3
100
AcDbCircle
 10
460.1943069136581
 20
544.5202627871654
 30
0.0000000000000000
 40
10.00000000000000
  0
CIRCLE
  5
28E
100
AcDbEntity
  8
MAIN0
  6
CONTINUOUS
 62
3
100
AcDbCircle
 10
460.1943069136578
 20
300.3066826491295
 30
0.0000000000000000
 40
6.750000000000000
  0
CIRCLE
  5
28F
100
AcDbEntity
  8
MAIN0
  6
CONTINUOUS
 62
3
100
AcDbCircle
 10
460.1943069136578
 20
300.3066826491295
 30
0.0000000000000000
 40
10.00000000000000
  0
LINE
  5
290
100
AcDbEntity
  8
MAIN0
  6
CENTER
 62
3
100
AcDbLine
 10
452.9068513956233
 20
557.1425060007263
 30
0.0000000000000000
 11
470.0519124438667
 21
527.4463891664186
 31
0.0000000000000000
  0
DIMENSION
  5
298
100
AcDbEntity
  8
MAIN0
  6
CONTINUOUS
 62
3
100
AcDbDimension
  2
*D22
 10
257.3021132083267
 20
463.7581655005989
 30
0.0000000000000000
 11
285.3021132083266
 21
464.2581655005989
 31
0.0000000000000000
 70
32
  3
MAIN001
100
AcDbAlignedDimension
 13
313.3021132083264
 23
442.4134727181472
 33
0.0000000000000000
 14
257.3021132083267
 24
575.4134727181473
 34
0.0000000000000000
100
AcDbRotatedDimension
1001
ACAD
1000
DSTYLE
1002
{
1070
   173
1070
     1
1070
     6
1000
_OPEN
1070
     7
1000
_OPEN
1070
    41
1040
5.000000
1002
}
  0
LINE
  5
299
100
AcDbEntity
  8
MAIN0
  6
CENTER
 62
3
100
AcDbLine
 10
192.8021132083268
 20
697.0235485800032
 30
0.0000000000000000
 11
192.8021132083267
 21
666.7716598718503
 31
0.0000000000000000
  0
LINE
  5
29A
100
AcDbEntity
  8
MAIN0
  6
CENTER
 62
3
100
AcDbLine
 10
192.8021132083266
 20
581.1967938114558
 30
0.0000000000000000
 11
192.8021132083265
 21
493.5649000600271
 31
0.0000000000000000
  0
DIMENSION
  5
2A3
100
AcDbEntity
  8
MAIN0
  6
CONTINUOUS
 62
3
100
AcDbDimension
  2
*D23
 10
530.6926950298864
 20
254.8366362645390
 30
0.0000000000000000
 11
483.1597346600364
 21
245.0180495853595
 31
0.0000000000000000
 70
162
  3
MAIN001
100
AcDb2LineAngularDimension
 13
452.9068513956230
 23
287.6844394355686
 33
0.0000000000000000
 14
453.4068513956245
 24
288.5504648393522
 34
0.0000000000000000
 15
530.6926950298864
 25
255.8366362645390
 35
0.0000000000000000
 16
483.0303251374847
 26
244.5350866722151
 36
0.0000000000000000
1001
ACAD
1000
DSTYLE
1002
{
1070
   173
1070
     1
1070
     6
1000
_OPEN
1070
     7
1000
_OPEN
1070
    41
1040
5.000000
1002
}
  0
DIMENSION
  5
2AC
100
AcDbEntity
  8
MAIN0
  6
CONTINUOUS
 62
3
100
AcDbDimension
  2
*D24
 10
702.1566036225382
 20
422.4134727181471
 30
0.0000000000000000
 11
660.5551577940502
 21
292.5510099550120
 31
0.0000000000000000
 70
162
  3
MAIN001
100
AcDb2LineAngularDimension
 13
530.6926950298864
 23
254.8366362645390
 33
0.0000000000000000
 14
530.6926950298864
 24
255.8366362645390
 34
0.0000000000000000
 15
701.1566036225382
 25
422.4134727181531
 35
0.0000000000000000
 16
660.9087111846435
 26
292.1974565644188
 36
0.0000000000000000
1001
ACAD
1000
DSTYLE
1002
{
1070
   173
1070
     1
1070
     6
1000
_OPEN
1070
     7
1000
_OPEN
1070
    41
1040
5.000000
1002
}
  0
DIMENSION
  5
2B5
100
AcDbEntity
  8
MAIN0
  6
CONTINUOUS
 62
3
100
AcDbDimension
  2
*D25
 10
672.6198752235182
 20
504.3551684080077
 30
0.0000000000000000
 11
708.0881181639065
 21
469.9464330882677
 31
0.0000000000000000
 70
162
  3
MAIN001
100
AcDb2LineAngularDimension
 13
702.1566036225382
 23
422.4134727181471
 33
0.0000000000000000
 14
701.1566036225382
 24
422.4134727181531
 34
0.0000000000000000
 15
671.7538498197304
 25
503.8551684080136
 35
0.0000000000000000
 16
708.5710810770515
 26
470.0758426108174
 36
0.0000000000000000
1001
ACAD
1000
DSTYLE
1002
{
1070
   173
1070
     1
1070
     6
1000
_OPEN
1070
     7
1000
_OPEN
1070
    41
1040
5.000000
1002
}
  0
DIMENSION
  5
2BE
100
AcDbEntity
  8
MAIN0
  6
CONTINUOUS
 62
3
100
AcDbDimension
  2
*D26
 10
530.6926950298870
 20
588.7891752227738
 30
0.0000000000000000
 11
633.1009725164322
 21
576.0668803766527
 31
0.0000000000000000
 70
162
  3
MAIN001
100
AcDb2LineAngularDimension
 13
672.6198752235182
 23
504.3551684080077
 33
0.0000000000000000
 14
671.7538498197304
 24
503.8551684080136
 34
0.0000000000000000
 15
530.6926950298870
 25
587.7891752227738
 35
0.0000000000000000
 16
622.7693230725542
 26
581.8948706774456
 36
0.0000000000000000
1001
ACAD
1000
DSTYLE
1002
{
1070
   173
1070
     1
1070
     6
1000
_OPEN
1070
     7
1000
_OPEN
1070
    41
1040
5.000000
1002
}
  0
DIMENSION
  5
2C7
100
AcDbEntity
  8
MAIN0
  6
CONTINUOUS
 62
3
100
AcDbDimension
  2
*D27
 10
141.3021132083264
 20
374.4134727181474
 30
0.0000000000000000
 11
140.8021132083264
 21
422.4134727181474
 31
0.0000000000000000
 70
32
  1
\A1;\U+220596
  3
MAIN001
100
AcDbAlignedDimension
 13
181.8021132083265
 23
470.4134727181474
 33
0.0000000000000000
 14
181.8021132083263
 24
374.4134727181474
 34
0.0000000000000000
 50
90.00000000000000
100
AcDbRotatedDimension
1001
ACAD
1000
DSTYLE
1002
{
1070
   173
1070
     1
1070
     6
1000
_OPEN
1070
     7
1000
_OPEN
1070
    41
1040
5.000000
1002
}
  0
ARC
  5
2C8
100
AcDbEntity
  8
MAIN0
  6
CONTINUOUS
 62
3
100
AcDbCircle
 10
530.6926950298866
 20
422.4134727181473
 30
0.0000000000000000
 40
47.99999999999952
100
AcDbArc
 50
42.59981533167176
 51
137.4001846683287
  0
ARC
  5
2C9
100
AcDbEntity
  8
MAIN0
  6
CONTINUOUS
 62
3
100
AcDbCircle
 10
530.6926950298865
 20
422.4134727181474
 30
0.0000000000000000
 40
47.99999999999952
100
AcDbArc
 50
162.5998153316718
 51
257.4001846683287
  0
ARC
  5
2CA
100
AcDbEntity
  8
MAIN0
  6
CONTINUOUS
 62
3
100
AcDbCircle
 10
530.6926950298866
 20
422.4134727181474
 30
0.0000000000000000
 40
47.99999999999952
100
AcDbArc
 50
282.5998153316718
 51
377.4001846683287
  0
LINE
  5
2CB
100
AcDbEntity
  8
MAIN0
  6
CONTINUOUS
 62
3
100
AcDbLine
 10
495.3599301306142
 20
460.7107123887569
 30
0.0000000000000000
 11
499.1004467463454
 21
458.5511241137630
 31
0.0000000000000000
  0
LINE
  5
2CC
100
AcDbEntity
  8
MAIN0
  6
CONTINUOUS
 62
3
100
AcDbLine
 10
479.8599301306507
 20
433.8639248714182
 30
0.0000000000000000
 11
483.6004467463818
 21
431.7043365964244
 31
0.0000000000000000
  0
LINE
  5
2CD
100
AcDbEntity
  8
MAIN0
  6
CONTINUOUS
 62
3
100
AcDbLine
 10
515.1926950299535
 20
372.6657808941297
 30
0.0000000000000000
 11
515.1926950299477
 21
376.9849574441276
 31
0.0000000000000000
  0
LINE
  5
2CE
100
AcDbEntity
  8
MAIN0
  6
CONTINUOUS
 62
3
100
AcDbLine
 10
546.1926950299537
 20
372.6657808941716
 30
0.0000000000000000
 11
546.1926950299479
 21
376.9849574441695
 31
0.0000000000000000
  0
LINE
  5
2CF
100
AcDbEntity
  8
MAIN0
  6
CONTINUOUS
 62
3
100
AcDbLine
 10
581.5254599290915
 20
433.8639248715555
 30
0.0000000000000000
 11
577.7849433133663
 21
431.7043365965515
 31
0.0000000000000000
  0
LINE
  5
2D0
100
AcDbEntity
  8
MAIN0
  6
CONTINUOUS
 62
3
100
AcDbLine
 10
566.0254599290553
 20
460.7107123888522
 30
0.0000000000000000
 11
562.2849433133300
 21
458.5511241138481
 31
0.0000000000000000
  0
MTEXT
  5
2D1
100
AcDbEntity
  8
MAIN0
  6
CONTINUOUS
 62
3
100
AcDbMText
 10
289.3037213612522
 20
96.67539355045471
 30
0.0000000000000000
 40
6.250000000000000
 41
0.0000000000000000
 71
     1
 72
     1
  1
{\H0.63x;{MOMENT OF INERTIA}}
 11
1.000000000000000
 21
0.0000000000000000
 31
0.0000000000000000
  7
STANDARD
  0
MTEXT
  5
2D2
100
AcDbEntity
  8
MAIN0
  6
CONTINUOUS
 62
3
100
AcDbMText
 10
629.8474783389160
 20
345.1491995720047
 30
0.0000000000000000
 40
2.994604349136353
 41
0.0000000000000000
 71
     1
 72
     1
  1
{\H0.90x;{MAX.2200/min\P}
 11
0.5000000000000009
 21
0.8660254037844382
 31
0.0000000000000000
  7
STANDARD
  0
MTEXT
  5
2D3
100
AcDbEntity
  8
MAIN0
  6
CONTINUOUS
 62
3
100
AcDbMText
 10
618.4293988476293
 20
345.7779010376298
 30
0.0000000000000000
 40
7.199999809265137
 41
0.0000000000000000
 71
     1
 72
     1
  1
{\H0.82x;{KITAGAWA}}
 11
0.5000000000000009
 21
0.8660254037844382
 31
0.0000000000000000
  7
STANDARD
  0
MTEXT
  5
2D4
100
AcDbEntity
  8
MAIN0
  6
CONTINUOUS
 62
3
100
AcDbMText
 10
614.8265342114569
 20
354.7927290987079
 30
0.0000000000000000
 40
4.655172348022461
 41
0.0000000000000000
 71
     1
 72
     1
  1
{\H0.93x;{JN12T102}}
 11
0.5000000000000009
 21
0.8660254037844382
 31
0.0000000000000000
  7
STANDARD
  0
MTEXT
  5
2D5
100
AcDbEntity
  8
MAIN0
  6
CONTINUOUS
 62
3
100
AcDbMText
 10
638.8351963144276
 20
349.8217793051870
 30
0.0000000000000000
 40
3.099999904632568
 41
0.0000000000000000
 71
     1
 72
     1
  1
{\H0.92x;{JAPAN}}
 11
0.5000000000000009
 21
0.8660254037844382
 31
0.0000000000000000
  7
STANDARD
  0
LINE
  5
2D6
100
AcDbEntity
  8
MAIN0
  6
CENTER
 62
3
100
AcDbLine
 10
617.3277552161379
 20
372.3946973985130
 30
0.0000000000000000
 11
619.9687901768325
 21
370.8698951530215
 31
0.0000000000000000
  0
LINE
  5
2D7
100
AcDbEntity
  8
MAIN0
  6
CENTER
 62
3
100
AcDbLine
 10
648.3693891990994
 20
354.4728016624206
 30
0.0000000000000000
 11
668.4163344780683
 21
342.8986924092145
 31
0.0000000000000000
  0
LINE
  5
2D8
100
AcDbEntity
  8
MAIN0
  6
CENTER
 62
3
100
AcDbLine
 10
233.8021132083266
 20
538.2889232067554
 30
0.0000000000000000
 11
233.8021132083267
 21
582.3064458843035
 31
0.0000000000000000
  0
LEADER
  5
2D9
100
AcDbEntity
  8
MAIN0
  6
CONTINUOUS
 62
3
100
AcDbLeader
  3
MAIN001
 73
     0
 74
     0
 75
     1
 40
7.749999761581421
 41
80.95100222325323
 76
     3
 10
238.8021132083266
 20
563.3497364043479
 30
0.0000000000000000
 10
300.6857909954267
 20
590.3787581781938
 30
0.0000000000000000
 10
305.4997908559518
 20
590.3787581781940
 30
0.0000000000000000
340
2DA
213
0.0000000000000000
223
-1.250000000000000
233
0.0000000000000000
1001
ACAD
1000
DSTYLE
1002
{
1070
   147
1040
0.0
1070
    77
1070
     1
1070
   173
1070
     1
1070
     6
1000
_OPEN
1070
     7
1000
_OPEN
1002
}
  0
MTEXT
  5
2DA
102
{ACAD_REACTORS
330
2D9
102
}
100
AcDbEntity
  8
MAIN0
  6
CONTINUOUS
 62
3
100
AcDbMText
 10
305.5007908559518
 20
599.3787579397754
 30
0.0000000000000000
 40
7.749999761581421
 41
0.0000000000000000
 71
     1
 72
     1
  1
{\H0.93x;{2-M10 ねじ深23}}
 11
1.000000000000000
 21
0.0000000000000000
 31
0.0000000000000000
  7
KNJYOKO
  0
DIMENSION
  5
2E3
100
AcDbEntity
  8
MAIN0
  6
CONTINUOUS
 62
3
100
AcDbDimension
  2
*D28
 10
257.3021132083267
 20
631.9521855567900
 30
0.0000000000000000
 11
225.0521132083266
 21
632.4521855567900
 31
0.0000000000000000
 70
32
  3
MAIN001
100
AcDbAlignedDimension
 13
192.8021132083266
 23
581.1967938114558
 33
0.0000000000000000
 14
257.3021132083267
 24
575.4134727181473
 34
0.0000000000000000
100
AcDbRotatedDimension
1001
ACAD
1000
DSTYLE
1002
{
1070
   173
1070
     1
1070
     6
1000
_OPEN
1070
     7
1000
_OPEN
1070
    41
1040
5.000000
1002
}
  0
DIMENSION
  5
2EC
100
AcDbEntity
  8
MAIN0
  6
CONTINUOUS
 62
3
100
AcDbDimension
  2
*D29
 10
192.8021132083266
 20
631.9521855567900
 30
0.0000000000000000
 11
177.0521132083266
 21
632.4521855567900
 31
0.0000000000000000
 70
32
  3
MAIN001
100
AcDbAlignedDimension
 13
161.3021132083266
 23
575.4134727181474
 33
0.0000000000000000
 14
192.8021132083266
 24
581.1967938114558
 34
0.0000000000000000
100
AcDbRotatedDimension
1001
ACAD
1000
DSTYLE
1002
{
1070
   173
1070
     1
1070
     6
1000
_OPEN
1070
     7
1000
_OPEN
1070
    41
1040
5.000000
1002
}
  0
DIMENSION
  5
2F7
100
AcDbEntity
  8
MAIN0
  6
CONTINUOUS
 62
3
100
AcDbDimension
  2
*D30
 10
257.3021132083267
 20
609.4645299015497
 30
0.0000000000000000
 11
245.5521132083266
 21
609.9645299015497
 31
0.0000000000000000
 70
32
  3
MAIN001
100
AcDbAlignedDimension
 13
233.8021132083267
 23
582.3064458843035
 33
0.0000000000000000
 14
257.3021132083267
 24
575.4134727181473
 34
0.0000000000000000
100
AcDbRotatedDimension
1001
ACAD
1000
DSTYLE
1002
{
1070
   173
1070
     1
1070
     6
1000
_OPEN
1070
     7
1000
_OPEN
1070
    41
1040
5.000000
1070
   287
1070
     0
1002
}
  0
ARC
  5
2F8
100
AcDbEntity
  8
MAIN0
  6
CENTER
 62
3
100
AcDbCircle
 10
530.6926950298866
 20
422.4134727181473
 30
0.0000000000000000
 40
141.0000000000000
100
AcDbArc
 50
229.5960969989237
 51
246.1926832932307
  0
ARC
  5
2F9
100
AcDbEntity
  8
MAIN0
  6
CENTER
 62
3
100
AcDbCircle
 10
530.6926950298866
 20
422.4134727181473
 30
0.0000000000000000
 40
141.0000000000000
100
AcDbArc
 50
353.0850367859071
 51
415.8104147530843
  0
ARC
  5
2FA
100
AcDbEntity
  8
MAIN0
  6
CENTER
 62
3
100
AcDbCircle
 10
530.6926950298866
 20
422.4134727181473
 30
0.0000000000000000
 40
141.0000000000000
100
AcDbArc
 50
113.6836958950649
 51
126.2690754863136
  0
DIMENSION
  5
301
100
AcDbEntity
  8
MAIN0
  6
CONTINUOUS
 62
3
100
AcDbDimension
  2
*D31
 10
617.5182174978364
 20
533.5095061674454
 30
0.0000000000000000
 11
482.8105688252392
 21
363.1766936206927
 31
0.0000000000000000
 70
163
  3
MAIN001
100
AcDbDiametricDimension
 15
443.8671725619369
 25
311.3174392688493
 35
0.0000000000000000
1001
ACAD
1000
DSTYLE
1002
{
1070
   287
1070
     2
1070
   173
1070
     1
1070
     6
1000
_OPEN
1070
     7
1000
_OPEN
1070
    41
1040
5.000000
1070
   272
1070
     1
1070
    47
1040
0.200000
1070
    48
1040
0.200000
1070
    71
1070
     1
1002
}
  0
LINE
  5
302
100
AcDbEntity
  8
MAIN0
  6
CENTER
 62
3
100
AcDbLine
 10
572.1680922008145
 20
577.2017622210748
 30
0.0000000000000000
 11
561.1533107993580
 21
536.0940383968631
 31
0.0000000000000000
  0
LINE
  5
303
100
AcDbEntity
  8
MAIN0
  6
CENTER
 62
3
100
AcDbLine
 10
489.2172978589589
 20
267.6251832152199
 30
0.0000000000000000
 11
500.2320792604154
 21
308.7329070394316
 31
0.0000000000000000
  0
DIMENSION
  5
30C
100
AcDbEntity
  8
MAIN0
  6
CONTINUOUS
 62
3
100
AcDbDimension
  2
*D32
 10
530.6926950298870
 20
588.7891752227738
 30
0.0000000000000000
 11
552.8626393671758
 21
590.8109185938683
 31
0.0000000000000000
 70
162
  3
MAIN001
100
AcDb2LineAngularDimension
 13
572.1680922008144
 23
577.2017622210748
 33
0.0000000000000000
 14
571.9092731557103
 24
576.2358363947861
 34
0.0000000000000000
 15
530.6926950298870
 25
587.7891752227738
 35
0.0000000000000000
 16
552.7973762710652
 26
590.3151961631816
 36
0.0000000000000000
1001
ACAD
1000
DSTYLE
1002
{
1070
   173
1070
     1
1070
     6
1000
_OPEN
1070
     7
1000
_OPEN
1070
    41
1040
5.000000
1002
}
  0
LINE
  5
30D
100
AcDbEntity
  8
MAIN0
  6
CONTINUOUS
 62
3
100
AcDbLine
 10
625.5308069934803
 20
341.6779011329971
 30
0.0000000000000000
 11
648.0308069934803
 21
380.6490443032967
 31
0.0000000000000000
  0
LINE
  5
30E
100
AcDbEntity
  8
MAIN0
  6
CONTINUOUS
 62
3
100
AcDbLine
 10
503.3624784813501
 20
488.4507266562051
 30
0.0000000000000000
 11
507.4039303656774
 21
488.4507266562050
 31
0.0000000000000000
  0
LINE
  5
30F
100
AcDbEntity
  8
MAIN0
  6
CONTINUOUS
 62
3
100
AcDbLine
 10
507.4039303656778
 20
495.4507266562051
 30
0.0000000000000000
 11
503.3624784813502
 21
495.4507266562051
 31
0.0000000000000000
  0
LINE
  5
310
100
AcDbEntity
  8
MAIN0
  6
CONTINUOUS
 62
3
100
AcDbLine
 10
501.3417525391865
 20
491.9507266562050
 30
0.0000000000000000
 11
503.3624784813501
 21
488.4507266562051
 31
0.0000000000000000
  0
LINE
  5
311
100
AcDbEntity
  8
MAIN0
  6
CONTINUOUS
 62
3
100
AcDbLine
 10
507.4039303656780
 20
488.4507266562049
 30
0.0000000000000000
 11
509.4246563078417
 21
491.9507266562051
 31
0.0000000000000000
  0
LINE
  5
312
100
AcDbEntity
  8
MAIN0
  6
CONTINUOUS
 62
3
100
AcDbLine
 10
509.4246563078414
 20
491.9507266562051
 30
0.0000000000000000
 11
507.4039303656778
 21
495.4507266562051
 31
0.0000000000000000
  0
LINE
  5
313
100
AcDbEntity
  8
MAIN0
  6
CONTINUOUS
 62
3
100
AcDbLine
 10
503.3624784813504
 20
495.4507266562050
 30
0.0000000000000000
 11
501.3417525391868
 21
491.9507266562051
 31
0.0000000000000000
  0
CIRCLE
  5
314
100
AcDbEntity
  8
MAIN0
  6
CONTINUOUS
 62
3
100
AcDbCircle
 10
505.3832044235143
 20
491.9507266562052
 30
0.0000000000000000
 40
2.154065922853398
  0
CIRCLE
  5
315
100
AcDbEntity
  8
MAIN0
  6
CONTINUOUS
 62
3
100
AcDbCircle
 10
505.3832044235143
 20
491.9507266562052
 30
0.0000000000000000
 40
3.299999999999997
  0
CIRCLE
  5
316
100
AcDbEntity
  8
MAIN0
  6
CONTINUOUS
 62
3
100
AcDbCircle
 10
505.3832044235143
 20
491.9507266562052
 30
0.0000000000000000
 40
0.9914283891267653
  0
CIRCLE
  5
317
100
AcDbEntity
  8
MAIN0
  6
PHANTOM
 62
3
100
AcDbCircle
 10
513.6926950298869
 20
563.8958037704734
 30
0.0000000000000000
 40
5.000000000000000
  0
CIRCLE
  5
318
100
AcDbEntity
  8
MAIN0
  6
PHANTOM
 62
3
100
AcDbCircle
 10
513.6926950298869
 20
563.8958037704734
 30
0.0000000000000000
 40
4.250000000000000
  0
LINE
  5
319
100
AcDbEntity
  8
MAIN0
  6
HIDDEN
 62
3
100
AcDbLine
 10
297.5021132083263
 20
345.1634727181473
 30
0.0000000000000000
 11
272.8021132083263
 21
345.1634727181473
 31
0.0000000000000000
  0
LINE
  5
31A
100
AcDbEntity
  8
MAIN0
  6
HIDDEN
 62
3
100
AcDbLine
 10
272.8021132083263
 20
345.1634727181473
 30
0.0000000000000000
 11
272.8021132083263
 21
364.1634727181473
 31
0.0000000000000000
  0
LINE
  5
31B
100
AcDbEntity
  8
MAIN0
  6
HIDDEN
 62
3
100
AcDbLine
 10
272.8021132083263
 20
364.1634727181473
 30
0.0000000000000000
 11
312.7021132083263
 21
364.1634727181473
 31
0.0000000000000000
  0
LINE
  5
31C
100
AcDbEntity
  8
MAIN0
  6
HIDDEN
 62
3
100
AcDbLine
 10
312.7021132083263
 20
364.1634727181473
 30
0.0000000000000000
 11
313.3021132083263
 21
364.7634727181472
 31
0.0000000000000000
  0
LINE
  5
31D
100
AcDbEntity
  8
MAIN0
  6
HIDDEN
 62
3
100
AcDbLine
 10
272.8021132083263
 20
348.1634727181473
 30
0.0000000000000000
 11
266.4021132083265
 21
348.1634727181473
 31
0.0000000000000000
  0
LINE
  5
31E
100
AcDbEntity
  8
MAIN0
  6
HIDDEN
 62
3
100
AcDbLine
 10
266.4021132083265
 20
348.1634727181473
 30
0.0000000000000000
 11
265.8021132083264
 21
347.5634727181473
 31
0.0000000000000000
  0
LINE
  5
31F
100
AcDbEntity
  8
MAIN0
  6
HIDDEN
 62
3
100
AcDbLine
 10
272.8021132083263
 20
361.1634727181473
 30
0.0000000000000000
 11
266.4021132083265
 21
361.1634727181473
 31
0.0000000000000000
  0
LINE
  5
320
100
AcDbEntity
  8
MAIN0
  6
HIDDEN
 62
3
100
AcDbLine
 10
266.4021132083265
 20
361.1634727181473
 30
0.0000000000000000
 11
265.8021132083264
 21
361.7634727181473
 31
0.0000000000000000
  0
LINE
  5
321
100
AcDbEntity
  8
MAIN0
  6
HIDDEN
 62
3
100
AcDbLine
 10
272.8021132083263
 20
345.6634727181473
 30
0.0000000000000000
 11
283.6021132083263
 21
345.6634727181473
 31
0.0000000000000000
  0
LINE
  5
322
100
AcDbEntity
  8
MAIN0
  6
HIDDEN
 62
3
100
AcDbLine
 10
283.6021132083263
 20
345.6634727181473
 30
0.0000000000000000
 11
284.8021132083263
 21
347.7419336872299
 31
0.0000000000000000
  0
LINE
  5
323
100
AcDbEntity
  8
MAIN0
  6
HIDDEN
 62
3
100
AcDbLine
 10
284.8021132083263
 20
347.7419336872299
 30
0.0000000000000000
 11
284.8021132083263
 21
361.5850117490646
 31
0.0000000000000000
  0
LINE
  5
324
100
AcDbEntity
  8
MAIN0
  6
HIDDEN
 62
3
100
AcDbLine
 10
284.8021132083263
 20
361.5850117490646
 30
0.0000000000000000
 11
283.6021132083263
 21
363.6634727181473
 31
0.0000000000000000
  0
LINE
  5
325
100
AcDbEntity
  8
MAIN0
  6
HIDDEN
 62
3
100
AcDbLine
 10
283.6021132083263
 20
363.6634727181473
 30
0.0000000000000000
 11
272.8021132083263
 21
363.6634727181473
 31
0.0000000000000000
  0
LINE
  5
326
100
AcDbEntity
  8
MAIN0
  6
HIDDEN
 62
3
100
AcDbLine
 10
283.6021132083263
 20
345.6634727181473
 30
0.0000000000000000
 11
283.6021132083263
 21
363.6634727181473
 31
0.0000000000000000
  0
LINE
  5
327
100
AcDbEntity
  8
MAIN0
  6
HIDDEN
 62
3
100
AcDbLine
 10
257.3021132083263
 20
360.6634727181473
 30
0.0000000000000000
 11
265.8021132083263
 21
360.6634727181473
 31
0.0000000000000000
  0
LINE
  5
328
100
AcDbEntity
  8
MAIN0
  6
HIDDEN
 62
3
100
AcDbLine
 10
265.8021132083263
 20
360.6634727181473
 30
0.0000000000000000
 11
272.8021132083263
 21
360.6634727181473
 31
0.0000000000000000
  0
LINE
  5
329
100
AcDbEntity
  8
MAIN0
  6
HIDDEN
 62
3
100
AcDbLine
 10
257.3021132083263
 20
359.7162572181473
 30
0.0000000000000000
 11
265.8021132083263
 21
359.7162572181473
 31
0.0000000000000000
  0
LINE
  5
32A
100
AcDbEntity
  8
MAIN0
  6
HIDDEN
 62
3
100
AcDbLine
 10
265.8021132083263
 20
359.7162572181473
 30
0.0000000000000000
 11
272.8021132083263
 21
359.7162572181473
 31
0.0000000000000000
  0
LINE
  5
32B
100
AcDbEntity
  8
MAIN0
  6
HIDDEN
 62
3
100
AcDbLine
 10
257.3021132083263
 20
349.6106882181473
 30
0.0000000000000000
 11
265.8021132083263
 21
349.6106882181473
 31
0.0000000000000000
  0
LINE
  5
32C
100
AcDbEntity
  8
MAIN0
  6
HIDDEN
 62
3
100
AcDbLine
 10
265.8021132083263
 20
349.6106882181473
 30
0.0000000000000000
 11
272.8021132083263
 21
349.6106882181473
 31
0.0000000000000000
  0
LINE
  5
32D
100
AcDbEntity
  8
MAIN0
  6
HIDDEN
 62
3
100
AcDbLine
 10
257.3021132083263
 20
348.6634727181473
 30
0.0000000000000000
 11
265.8021132083263
 21
348.6634727181473
 31
0.0000000000000000
  0
LINE
  5
32E
100
AcDbEntity
  8
MAIN0
  6
HIDDEN
 62
3
100
AcDbLine
 10
265.8021132083263
 20
348.6634727181473
 30
0.0000000000000000
 11
272.8021132083263
 21
348.6634727181473
 31
0.0000000000000000
  0
LINE
  5
32F
100
AcDbEntity
  8
MAIN0
  6
HIDDEN
 62
3
100
AcDbLine
 10
282.8021132083262
 20
281.6634727181473
 30
0.0000000000000000
 11
269.8021132083263
 21
281.6634727181473
 31
0.0000000000000000
  0
LINE
  5
330
100
AcDbEntity
  8
MAIN0
  6
HIDDEN
 62
3
100
AcDbLine
 10
269.8021132083263
 20
281.6634727181473
 30
0.0000000000000000
 11
269.8021132083263
 21
300.6634727181473
 31
0.0000000000000000
  0
LINE
  5
331
100
AcDbEntity
  8
MAIN0
  6
HIDDEN
 62
3
100
AcDbLine
 10
269.8021132083263
 20
300.6634727181473
 30
0.0000000000000000
 11
282.7021132083263
 21
300.6634727181473
 31
0.0000000000000000
  0
LINE
  5
332
100
AcDbEntity
  8
MAIN0
  6
HIDDEN
 62
3
100
AcDbLine
 10
282.7021132083263
 20
300.6634727181473
 30
0.0000000000000000
 11
283.3021132083263
 21
301.2634727181473
 31
0.0000000000000000
  0
LINE
  5
333
100
AcDbEntity
  8
MAIN0
  6
HIDDEN
 62
3
100
AcDbLine
 10
269.8021132083263
 20
284.6634727181473
 30
0.0000000000000000
 11
266.4021132083262
 21
284.6634727181473
 31
0.0000000000000000
  0
LINE
  5
334
100
AcDbEntity
  8
MAIN0
  6
HIDDEN
 62
3
100
AcDbLine
 10
266.4021132083262
 20
284.6634727181472
 30
0.0000000000000000
 11
265.8021132083262
 21
284.0634727181472
 31
0.0000000000000000
  0
LINE
  5
335
100
AcDbEntity
  8
MAIN0
  6
HIDDEN
 62
3
100
AcDbLine
 10
269.8021132083263
 20
297.6634727181473
 30
0.0000000000000000
 11
266.4021132083262
 21
297.6634727181473
 31
0.0000000000000000
  0
LINE
  5
336
100
AcDbEntity
  8
MAIN0
  6
HIDDEN
 62
3
100
AcDbLine
 10
266.4021132083262
 20
297.6634727181473
 30
0.0000000000000000
 11
265.8021132083262
 21
298.2634727181472
 31
0.0000000000000000
  0
LINE
  5
337
100
AcDbEntity
  8
MAIN0
  6
HIDDEN
 62
3
100
AcDbLine
 10
269.8021132083263
 20
282.1634727181473
 30
0.0000000000000000
 11
280.6021132083263
 21
282.1634727181473
 31
0.0000000000000000
  0
LINE
  5
338
100
AcDbEntity
  8
MAIN0
  6
HIDDEN
 62
3
100
AcDbLine
 10
280.6021132083263
 20
282.1634727181472
 30
0.0000000000000000
 11
281.8021132083263
 21
284.2419336872299
 31
0.0000000000000000
  0
LINE
  5
339
100
AcDbEntity
  8
MAIN0
  6
HIDDEN
 62
3
100
AcDbLine
 10
281.8021132083263
 20
284.2419336872299
 30
0.0000000000000000
 11
281.8021132083263
 21
298.0850117490646
 31
0.0000000000000000
  0
LINE
  5
33A
100
AcDbEntity
  8
MAIN0
  6
HIDDEN
 62
3
100
AcDbLine
 10
281.8021132083263
 20
298.0850117490646
 30
0.0000000000000000
 11
280.6021132083263
 21
300.1634727181473
 31
0.0000000000000000
  0
LINE
  5
33B
100
AcDbEntity
  8
MAIN0
  6
HIDDEN
 62
3
100
AcDbLine
 10
280.6021132083263
 20
300.1634727181473
 30
0.0000000000000000
 11
269.8021132083263
 21
300.1634727181473
 31
0.0000000000000000
  0
LINE
  5
33C
100
AcDbEntity
  8
MAIN0
  6
HIDDEN
 62
3
100
AcDbLine
 10
280.6021132083263
 20
282.1634727181473
 30
0.0000000000000000
 11
280.6021132083263
 21
300.1634727181473
 31
0.0000000000000000
  0
LINE
  5
33D
100
AcDbEntity
  8
MAIN0
  6
HIDDEN
 62
3
100
AcDbLine
 10
257.3021132083263
 20
297.1634727181473
 30
0.0000000000000000
 11
265.8021132083263
 21
297.1634727181473
 31
0.0000000000000000
  0
LINE
  5
33E
100
AcDbEntity
  8
MAIN0
  6
HIDDEN
 62
3
100
AcDbLine
 10
265.8021132083263
 20
297.1634727181473
 30
0.0000000000000000
 11
269.8021132083263
 21
297.1634727181473
 31
0.0000000000000000
  0
LINE
  5
33F
100
AcDbEntity
  8
MAIN0
  6
HIDDEN
 62
3
100
AcDbLine
 10
257.3021132083262
 20
296.2162572181473
 30
0.0000000000000000
 11
265.8021132083263
 21
296.2162572181473
 31
0.0000000000000000
  0
LINE
  5
340
100
AcDbEntity
  8
MAIN0
  6
HIDDEN
 62
3
100
AcDbLine
 10
265.8021132083263
 20
296.2162572181473
 30
0.0000000000000000
 11
269.8021132083263
 21
296.2162572181473
 31
0.0000000000000000
  0
LINE
  5
341
100
AcDbEntity
  8
MAIN0
  6
HIDDEN
 62
3
100
AcDbLine
 10
257.3021132083262
 20
286.1106882181473
 30
0.0000000000000000
 11
265.8021132083262
 21
286.1106882181473
 31
0.0000000000000000
  0
LINE
  5
342
100
AcDbEntity
  8
MAIN0
  6
HIDDEN
 62
3
100
AcDbLine
 10
265.8021132083262
 20
286.1106882181473
 30
0.0000000000000000
 11
269.8021132083263
 21
286.1106882181473
 31
0.0000000000000000
  0
LINE
  5
343
100
AcDbEntity
  8
MAIN0
  6
HIDDEN
 62
3
100
AcDbLine
 10
257.3021132083262
 20
285.1634727181473
 30
0.0000000000000000
 11
265.8021132083263
 21
285.1634727181473
 31
0.0000000000000000
  0
LINE
  5
344
100
AcDbEntity
  8
MAIN0
  6
HIDDEN
 62
3
100
AcDbLine
 10
265.8021132083263
 20
285.1634727181473
 30
0.0000000000000000
 11
269.8021132083263
 21
285.1634727181473
 31
0.0000000000000000
  0
LINE
  5
345
100
AcDbEntity
  8
MAIN0
  6
CONTINUOUS
 62
3
100
AcDbLine
 10
300.9021132083263
 20
346.4134727181473
 30
0.0000000000000000
 11
298.9811310813551
 21
347.4134727181473
 31
0.0000000000000000
  0
LINE
  5
346
100
AcDbEntity
  8
MAIN0
  6
CONTINUOUS
 62
3
100
AcDbLine
 10
298.9811310813552
 20
347.4134727181473
 30
0.0000000000000000
 11
298.7021132083263
 21
347.4134727181473
 31
0.0000000000000000
  0
LINE
  5
347
100
AcDbEntity
  8
MAIN0
  6
CONTINUOUS
 62
3
100
AcDbLine
 10
297.5021132083263
 20
346.2134727181473
 30
0.0000000000000000
 11
297.5021132083263
 21
344.4502584197242
 31
0.0000000000000000
  0
LINE
  5
348
100
AcDbEntity
  8
MAIN0
  6
CONTINUOUS
 62
3
100
AcDbLine
 10
297.5021132083263
 20
344.4502584197242
 30
0.0000000000000000
 11
298.3021132083263
 21
342.9134727181473
 31
0.0000000000000000
  0
ARC
  5
349
100
AcDbEntity
  8
MAIN0
  6
CONTINUOUS
 62
3
100
AcDbCircle
 10
298.7021132083263
 20
346.2134727181473
 30
0.0000000000000000
 40
1.200000000000000
100
AcDbArc
 50
90.00000000000000
 51
180.0000000000000
  0
LINE
  5
34A
100
AcDbEntity
  8
MAIN0
  6
PHANTOM
 62
3
100
AcDbLine
 10
653.2685575446712
 20
414.9134727183385
 30
0.0000000000000000
 11
653.2685575446720
 21
429.9134727183385
 31
0.0000000000000000
  0
LINE
  5
34B
100
AcDbEntity
  8
MAIN0
  6
PHANTOM
 62
3
100
AcDbLine
 10
656.7685575446712
 20
414.9134727183400
 30
0.0000000000000000
 11
656.7685575446720
 21
429.9134727183399
 31
0.0000000000000000
  0
LINE
  5
34C
100
AcDbEntity
  8
MAIN0
  6
PHANTOM
 62
3
100
AcDbLine
 10
656.7685575446712
 20
414.9134727183399
 30
0.0000000000000000
 11
653.2685575446719
 21
414.9134727183385
 31
0.0000000000000000
  0
LINE
  5
34D
100
AcDbEntity
  8
MAIN0
  6
PHANTOM
 62
3
100
AcDbLine
 10
656.7685575446720
 20
429.9134727183399
 30
0.0000000000000000
 11
653.2685575446716
 21
429.9134727183385
 31
0.0000000000000000
  0
CIRCLE
  5
34E
100
AcDbEntity
  8
MAIN0
  6
CONTINUOUS
 62
3
100
AcDbCircle
 10
530.6926950298866
 20
354.6634727181475
 30
0.0000000000000000
 40
9.500000000000000
  0
CIRCLE
  5
34F
100
AcDbEntity
  8
MAIN0
  6
CONTINUOUS
 62
3
100
AcDbCircle
 10
530.6926950298866
 20
354.6634727181475
 30
0.0000000000000000
 40
6.500000000000000
  0
CIRCLE
  5
350
100
AcDbEntity
  8
MAIN0
  6
CONTINUOUS
 62
3
100
AcDbCircle
 10
530.6926950298865
 20
291.1634727181475
 30
0.0000000000000000
 40
9.500000000000000
  0
CIRCLE
  5
351
100
AcDbEntity
  8
MAIN0
  6
CONTINUOUS
 62
3
100
AcDbCircle
 10
530.6926950298865
 20
291.1634727181475
 30
0.0000000000000000
 40
6.500000000000000
  0
LINE
  5
352
100
AcDbEntity
  8
MAIN0
  6
CONTINUOUS
 62
3
100
AcDbLine
 10
813.3827288270259
 20
249.2414615759920
 30
0.0000000000000000
 11
812.7827288270258
 21
248.6414615759920
 31
0.0000000000000000
  0
LINE
  5
353
100
AcDbEntity
  8
MAIN0
  6
CONTINUOUS
 62
3
100
AcDbLine
 10
812.7827288270257
 20
248.6414615759920
 30
0.0000000000000000
 11
812.7827288270257
 21
208.7414615759920
 31
0.0000000000000000
  0
LINE
  5
354
100
AcDbEntity
  8
MAIN0
  6
CONTINUOUS
 62
3
100
AcDbLine
 10
812.7827288270257
 20
208.7414615759920
 30
0.0000000000000000
 11
793.7827288270257
 21
208.7414615759920
 31
0.0000000000000000
  0
LINE
  5
355
100
AcDbEntity
  8
MAIN0
  6
CONTINUOUS
 62
3
100
AcDbLine
 10
793.7827288270257
 20
208.7414615759920
 30
0.0000000000000000
 11
793.7827288270257
 21
248.6414615759920
 31
0.0000000000000000
  0
LINE
  5
356
100
AcDbEntity
  8
MAIN0
  6
CONTINUOUS
 62
3
100
AcDbLine
 10
793.7827288270258
 20
248.6414615759920
 30
0.0000000000000000
 11
793.1827288270259
 21
249.2414615759919
 31
0.0000000000000000
  0
LINE
  5
357
100
AcDbEntity
  8
MAIN0
  6
CONTINUOUS
 62
3
100
AcDbLine
 10
809.7827288270257
 20
208.7414615759920
 30
0.0000000000000000
 11
809.7827288270257
 21
201.7414615759852
 31
0.0000000000000000
  0
LINE
  5
358
100
AcDbEntity
  8
MAIN0
  6
CONTINUOUS
 62
3
100
AcDbLine
 10
796.7827288270257
 20
208.7414615759920
 30
0.0000000000000000
 11
796.7827288270257
 21
201.7414615759988
 31
0.0000000000000000
  0
LINE
  5
359
100
AcDbEntity
  8
MAIN0
  6
CONTINUOUS
 62
3
100
AcDbLine
 10
749.8827288270260
 20
249.2414615760583
 30
0.0000000000000000
 11
749.2827288270260
 21
248.6414615760583
 31
0.0000000000000000
  0
LINE
  5
35A
100
AcDbEntity
  8
MAIN0
  6
CONTINUOUS
 62
3
100
AcDbLine
 10
749.2827288270257
 20
248.6414615760584
 30
0.0000000000000000
 11
749.2827288270257
 21
208.7414615760129
 31
0.0000000000000000
  0
LINE
  5
35B
100
AcDbEntity
  8
MAIN0
  6
CONTINUOUS
 62
3
100
AcDbLine
 10
749.2827288270257
 20
208.7414615760129
 30
0.0000000000000000
 11
730.2827288270257
 21
208.7414615760129
 31
0.0000000000000000
  0
LINE
  5
35C
100
AcDbEntity
  8
MAIN0
  6
CONTINUOUS
 62
3
100
AcDbLine
 10
730.2827288270257
 20
208.7414615760129
 30
0.0000000000000000
 11
730.2827288270257
 21
248.6414615760584
 31
0.0000000000000000
  0
LINE
  5
35D
100
AcDbEntity
  8
MAIN0
  6
CONTINUOUS
 62
3
100
AcDbLine
 10
730.2827288270260
 20
248.6414615760583
 30
0.0000000000000000
 11
729.6827288270259
 21
249.2414615760584
 31
0.0000000000000000
  0
LINE
  5
35E
100
AcDbEntity
  8
MAIN0
  6
CONTINUOUS
 62
3
100
AcDbLine
 10
746.2827288270257
 20
208.7414615760129
 30
0.0000000000000000
 11
746.2827288270257
 21
201.7414615760516
 31
0.0000000000000000
  0
LINE
  5
35F
100
AcDbEntity
  8
MAIN0
  6
CONTINUOUS
 62
3
100
AcDbLine
 10
733.2827288270257
 20
208.7414615760129
 30
0.0000000000000000
 11
733.2827288270257
 21
201.7414615760652
 31
0.0000000000000000
  0
LINE
  5
360
100
AcDbEntity
  8
MAIN0
  6
HIDDEN
 62
3
100
AcDbLine
 10
257.3021132083266
 20
552.8134727181473
 30
0.0000000000000000
 11
256.7021132083266
 21
553.4134727181473
 31
0.0000000000000000
  0
LINE
  5
361
100
AcDbEntity
  8
MAIN0
  6
HIDDEN
 62
3
100
AcDbLine
 10
256.7021132083266
 20
553.4134727181473
 30
0.0000000000000000
 11
242.8021132083266
 21
553.4134727181473
 31
0.0000000000000000
  0
LINE
  5
362
100
AcDbEntity
  8
MAIN0
  6
HIDDEN
 62
3
100
AcDbLine
 10
242.8021132083266
 20
554.4134727181473
 30
0.0000000000000000
 11
242.8021132083266
 21
573.4134727181473
 31
0.0000000000000000
  0
LINE
  5
363
100
AcDbEntity
  8
MAIN0
  6
HIDDEN
 62
3
100
AcDbLine
 10
242.8021132083266
 20
573.4134727181473
 30
0.0000000000000000
 11
256.7021132083266
 21
573.4134727181473
 31
0.0000000000000000
  0
LINE
  5
364
100
AcDbEntity
  8
MAIN0
  6
HIDDEN
 62
3
100
AcDbLine
 10
256.7021132083266
 20
573.4134727181473
 30
0.0000000000000000
 11
257.3021132083266
 21
574.0134727181473
 31
0.0000000000000000
  0
LINE
  5
365
100
AcDbEntity
  8
MAIN0
  6
HIDDEN
 62
3
100
AcDbLine
 10
242.8021132083266
 20
556.6634727181473
 30
0.0000000000000000
 11
161.9021132083266
 21
556.6634727181473
 31
0.0000000000000000
  0
LINE
  5
366
100
AcDbEntity
  8
MAIN0
  6
HIDDEN
 62
3
100
AcDbLine
 10
161.9021132083266
 20
556.6634727181473
 30
0.0000000000000000
 11
161.3021132083266
 21
556.0634727181473
 31
0.0000000000000000
  0
LINE
  5
367
100
AcDbEntity
  8
MAIN0
  6
HIDDEN
 62
3
100
AcDbLine
 10
242.8021132083266
 20
570.1634727181473
 30
0.0000000000000000
 11
161.9021132083266
 21
570.1634727181473
 31
0.0000000000000000
  0
LINE
  5
368
100
AcDbEntity
  8
MAIN0
  6
HIDDEN
 62
3
100
AcDbLine
 10
161.9021132083266
 20
570.1634727181473
 30
0.0000000000000000
 11
161.3021132083266
 21
570.7634727181473
 31
0.0000000000000000
  0
LINE
  5
369
100
AcDbEntity
  8
MAIN0
  6
CONTINUOUS
 62
3
100
AcDbLine
 10
716.2754728042471
 20
143.4970361124879
 30
0.0000000000000000
 11
852.5969521210830
 21
143.4970361125634
 31
0.0000000000000000
  0
MTEXT
  5
36A
100
AcDbEntity
  8
MAIN0
  6
CONTINUOUS
 62
3
100
AcDbMText
 10
721.5640924320863
 20
154.1851570593075
 30
0.0000000000000000
 40
7.749999761581421
 41
0.0000000000000000
 71
     1
 72
     1
  1
{\H0.94x;{ソフトジョー　ＳＯＦＴ　ＪＡＷ}}
 11
1.000000000000000
 21
0.0000000000000000
 31
0.0000000000000000
  7
KNJYOKO
  0
LINE
  5
36B
100
AcDbEntity
  8
MAIN0
  6
CONTINUOUS
 62
3
100
AcDbLine
 10
716.2754728042471
 20
141.9970361124879
 30
0.0000000000000000
 11
852.5969521210838
 21
141.9970361125634
 31
0.0000000000000000
  0
LINE
  5
36C
100
AcDbEntity
  8
MAIN0
  6
HIDDEN
 62
3
100
AcDbLine
 10
239.2521132083266
 20
577.4134727181473
 30
0.0000000000000000
 11
238.0521132083266
 21
576.2134727181474
 31
0.0000000000000000
  0
LINE
  5
36D
100
AcDbEntity
  8
MAIN0
  6
HIDDEN
 62
3
100
AcDbLine
 10
238.0521132083266
 20
576.2134727181474
 30
0.0000000000000000
 11
229.5521132083266
 21
576.2134727181474
 31
0.0000000000000000
  0
LINE
  5
36E
100
AcDbEntity
  8
MAIN0
  6
HIDDEN
 62
3
100
AcDbLine
 10
229.5521132083266
 20
576.2134727181474
 30
0.0000000000000000
 11
228.3521132083266
 21
577.4134727181473
 31
0.0000000000000000
  0
LINE
  5
36F
100
AcDbEntity
  8
MAIN0
  6
HIDDEN
 62
3
100
AcDbLine
 10
238.8021132083266
 20
576.9634727181474
 30
0.0000000000000000
 11
238.8021132083266
 21
554.4134727181473
 31
0.0000000000000000
  0
LINE
  5
370
100
AcDbEntity
  8
MAIN0
  6
HIDDEN
 62
3
100
AcDbLine
 10
238.8021132083266
 20
554.4134727181473
 30
0.0000000000000000
 11
228.8021132083266
 21
554.4134727181473
 31
0.0000000000000000
  0
LINE
  5
371
100
AcDbEntity
  8
MAIN0
  6
HIDDEN
 62
3
100
AcDbLine
 10
228.8021132083266
 20
554.4134727181473
 30
0.0000000000000000
 11
228.8021132083266
 21
576.9634727181474
 31
0.0000000000000000
  0
LINE
  5
372
100
AcDbEntity
  8
MAIN0
  6
HIDDEN
 62
3
100
AcDbLine
 10
238.0521132083266
 20
576.2134727181474
 30
0.0000000000000000
 11
238.0521132083266
 21
545.4134727181473
 31
0.0000000000000000
  0
LINE
  5
373
100
AcDbEntity
  8
MAIN0
  6
HIDDEN
 62
3
100
AcDbLine
 10
238.0521132083266
 20
545.4134727181473
 30
0.0000000000000000
 11
229.5521132083266
 21
545.4134727181473
 31
0.0000000000000000
  0
LINE
  5
374
100
AcDbEntity
  8
MAIN0
  6
HIDDEN
 62
3
100
AcDbLine
 10
229.5521132083266
 20
545.4134727181473
 30
0.0000000000000000
 11
229.5521132083266
 21
576.2134727181474
 31
0.0000000000000000
  0
LINE
  5
375
100
AcDbEntity
  8
MAIN0
  6
HIDDEN
 62
3
100
AcDbLine
 10
238.0521132083266
 20
545.4134727181473
 30
0.0000000000000000
 11
233.8021132083266
 21
542.9597340740914
 31
0.0000000000000000
  0
LINE
  5
376
100
AcDbEntity
  8
MAIN0
  6
HIDDEN
 62
3
100
AcDbLine
 10
233.8021132083266
 20
542.9597340740914
 30
0.0000000000000000
 11
229.5521132083266
 21
545.4134727181473
 31
0.0000000000000000
  0
LINE
  5
377
100
AcDbEntity
  8
MAIN0
  6
HIDDEN
 62
3
100
AcDbLine
 10
565.5453512675024
 20
573.5425395887617
 30
0.0000000000000000
 11
566.3938794049262
 21
572.0728457430919
 31
0.0000000000000000
  0
LINE
  5
378
100
AcDbEntity
  8
MAIN0
  6
HIDDEN
 62
3
100
AcDbLine
 10
566.3938794049263
 20
572.0728457430919
 30
0.0000000000000000
 11
574.6042489283833
 21
569.8728838597205
 31
0.0000000000000000
  0
LINE
  5
379
100
AcDbEntity
  8
MAIN0
  6
HIDDEN
 62
3
100
AcDbLine
 10
574.6042489283832
 20
569.8728838597203
 30
0.0000000000000000
 11
576.0739427740531
 21
570.7214119971442
 31
0.0000000000000000
  0
LINE
  5
37A
100
AcDbEntity
  8
MAIN0
  6
HIDDEN
 62
3
100
AcDbLine
 10
565.8635493190365
 20
572.9914043966355
 30
0.0000000000000000
 11
560.0271798519744
 21
551.2097770138171
 31
0.0000000000000000
  0
LINE
  5
37B
100
AcDbEntity
  8
MAIN0
  6
HIDDEN
 62
3
100
AcDbLine
 10
560.0271798519744
 20
551.2097770138171
 30
0.0000000000000000
 11
569.6864381148650
 21
548.6215865627919
 31
0.0000000000000000
  0
LINE
  5
37C
100
AcDbEntity
  8
MAIN0
  6
HIDDEN
 62
3
100
AcDbLine
 10
569.6864381148652
 20
548.6215865627919
 30
0.0000000000000000
 11
575.5228075819271
 21
570.4032139456103
 31
0.0000000000000000
  0
LINE
  5
37D
100
AcDbEntity
  8
MAIN0
  6
HIDDEN
 62
3
100
AcDbLine
 10
566.3938794049263
 20
572.0728457430919
 30
0.0000000000000000
 11
558.4222528157685
 21
542.3223302933886
 31
0.0000000000000000
  0
LINE
  5
37E
100
AcDbEntity
  8
MAIN0
  6
HIDDEN
 62
3
100
AcDbLine
 10
558.4222528157685
 20
542.3223302933886
 30
0.0000000000000000
 11
566.6326223392256
 21
540.1223684100171
 31
0.0000000000000000
  0
LINE
  5
37F
100
AcDbEntity
  8
MAIN0
  6
HIDDEN
 62
3
100
AcDbLine
 10
566.6326223392256
 20
540.1223684100172
 30
0.0000000000000000
 11
574.6042489283834
 21
569.8728838597203
 31
0.0000000000000000
  0
LINE
  5
380
100
AcDbEntity
  8
MAIN0
  6
HIDDEN
 62
3
100
AcDbLine
 10
558.4222528157685
 20
542.3223302933885
 30
0.0000000000000000
 11
561.8923632847112
 21
538.8522198244457
 31
0.0000000000000000
  0
LINE
  5
381
100
AcDbEntity
  8
MAIN0
  6
HIDDEN
 62
3
100
AcDbLine
 10
561.8923632847112
 20
538.8522198244457
 30
0.0000000000000000
 11
566.6326223392254
 21
540.1223684100171
 31
0.0000000000000000
  0
LINE
  5
382
100
AcDbEntity
  8
MAIN0
  6
HIDDEN
 62
3
100
AcDbLine
 10
495.8400387922708
 20
271.2844058475329
 30
0.0000000000000000
 11
494.9915106548469
 21
272.7540996932028
 31
0.0000000000000000
  0
LINE
  5
383
100
AcDbEntity
  8
MAIN0
  6
HIDDEN
 62
3
100
AcDbLine
 10
494.9915106548469
 20
272.7540996932027
 30
0.0000000000000000
 11
486.7811411313899
 21
274.9540615765742
 31
0.0000000000000000
  0
LINE
  5
384
100
AcDbEntity
  8
MAIN0
  6
HIDDEN
 62
3
100
AcDbLine
 10
486.7811411313899
 20
274.9540615765743
 30
0.0000000000000000
 11
485.3114472857201
 21
274.1055334391505
 31
0.0000000000000000
  0
LINE
  5
385
100
AcDbEntity
  8
MAIN0
  6
HIDDEN
 62
3
100
AcDbLine
 10
495.5218407407369
 20
271.8355410396591
 30
0.0000000000000000
 11
501.3582102077990
 21
293.6171684224775
 31
0.0000000000000000
  0
LINE
  5
386
100
AcDbEntity
  8
MAIN0
  6
HIDDEN
 62
3
100
AcDbLine
 10
501.3582102077988
 20
293.6171684224776
 30
0.0000000000000000
 11
491.6989519449082
 21
296.2053588735028
 31
0.0000000000000000
  0
LINE
  5
387
100
AcDbEntity
  8
MAIN0
  6
HIDDEN
 62
3
100
AcDbLine
 10
491.6989519449082
 20
296.2053588735028
 30
0.0000000000000000
 11
485.8625824778463
 21
274.4237314906843
 31
0.0000000000000000
  0
LINE
  5
388
100
AcDbEntity
  8
MAIN0
  6
HIDDEN
 62
3
100
AcDbLine
 10
494.9915106548471
 20
272.7540996932028
 30
0.0000000000000000
 11
502.9631372440048
 21
302.5046151429060
 31
0.0000000000000000
  0
LINE
  5
389
100
AcDbEntity
  8
MAIN0
  6
HIDDEN
 62
3
100
AcDbLine
 10
502.9631372440048
 20
302.5046151429060
 30
0.0000000000000000
 11
494.7527677205477
 21
304.7045770262775
 31
0.0000000000000000
  0
LINE
  5
38A
100
AcDbEntity
  8
MAIN0
  6
HIDDEN
 62
3
100
AcDbLine
 10
494.7527677205477
 20
304.7045770262774
 30
0.0000000000000000
 11
486.7811411313900
 21
274.9540615765742
 31
0.0000000000000000
  0
LINE
  5
38B
100
AcDbEntity
  8
MAIN0
  6
HIDDEN
 62
3
100
AcDbLine
 10
502.9631372440048
 20
302.5046151429061
 30
0.0000000000000000
 11
499.4930267750619
 21
305.9747256118489
 31
0.0000000000000000
  0
LINE
  5
38C
100
AcDbEntity
  8
MAIN0
  6
HIDDEN
 62
3
100
AcDbLine
 10
499.4930267750618
 20
305.9747256118490
 30
0.0000000000000000
 11
494.7527677205476
 21
304.7045770262776
 31
0.0000000000000000
  0
MTEXT
  5
38D
100
AcDbEntity
  8
MAIN0
  6
CONTINUOUS
 62
3
100
AcDbMText
 10
334.6779858990507
 20
84.90282275771187
 30
0.0000000000000000
 40
6.250000000000000
 41
0.0000000000000000
 71
     1
 72
     1
  1
{\H0.63x;{EXTERNAL\PGRIPPING}}
 11
1.000000000000000
 21
0.0000000000000000
 31
0.0000000000000000
  7
STANDARD
  0
MTEXT
  5
38E
100
AcDbEntity
  8
MAIN0
  6
CONTINUOUS
 62
3
100
AcDbMText
 10
334.5486289944236
 20
67.18102505214881
 30
0.0000000000000000
 40
6.250000000000000
 41
0.0000000000000000
 71
     1
 72
     1
  1
{\H0.63x;{INTERNAL\PGRIPPING}}
 11
1.000000000000000
 21
0.0000000000000000
 31
0.0000000000000000
  7
STANDARD
  0
MTEXT
  5
38F
100
AcDbEntity
  8
MAIN0
  6
CONTINUOUS
 62
3
100
AcDbMText
 10
362.6530541546536
 20
216.5551562852410
 30
0.0000000000000000
 40
7.749999761581421
 41
0.0000000000000000
 71
     1
 72
     1
  1
{\H0.93x;{SPECIFICATIONS}}
 11
1.000000000000000
 21
0.0000000000000000
 31
0.0000000000000000
  7
STANDARD
  0
MTEXT
  5
390
100
AcDbEntity
  8
MAIN0
  6
CONTINUOUS
 62
3
100
AcDbMText
 10
290.1552023723750
 20
188.4834725498133
 30
0.0000000000000000
 40
6.250000000000000
 41
0.0000000000000000
 71
     1
 72
     1
  1
{\H0.62x;{MAX.PERMISSIBLE HANDLE TORQUE}}
 11
1.000000000000000
 21
0.0000000000000000
 31
0.0000000000000000
  7
STANDARD
  0
MTEXT
  5
391
100
AcDbEntity
  8
MAIN0
  6
CONTINUOUS
 62
3
100
AcDbMText
 10
290.1552023723748
 20
163.4834725498059
 30
0.0000000000000000
 40
6.250000000000000
 41
0.0000000000000000
 71
     1
 72
     1
  1
{\H0.63x;{MAX STATIC GRIPPING FORCE}}
 11
1.000000000000000
 21
0.0000000000000000
 31
0.0000000000000000
  7
STANDARD
  0
MTEXT
  5
392
100
AcDbEntity
  8
MAIN0
  6
CONTINUOUS
 62
3
100
AcDbMText
 10
290.1552023723748
 20
137.6501392164675
 30
0.0000000000000000
 40
6.250000000000000
 41
0.0000000000000000
 71
     1
 72
     1
  1
{\H0.63x;{MAX PERMISSIBLE SPEED}}
 11
1.000000000000000
 21
0.0000000000000000
 31
0.0000000000000000
  7
STANDARD
  0
MTEXT
  5
393
100
AcDbEntity
  8
MAIN0
  6
CONTINUOUS
 62
3
100
AcDbMText
 10
285.6601612563326
 20
70.18695103487579
 30
0.0000000000000000
 40
6.250000000000000
 41
0.0000000000000000
 71
     1
 72
     1
  1
{\H0.54x;{GRIPPING RANGE}}
 11
1.000000000000000
 21
0.0000000000000000
 31
0.0000000000000000
  7
STANDARD
  0
MTEXT
  5
394
100
AcDbEntity
  8
MAIN0
  6
CONTINUOUS
 62
3
100
AcDbMText
 10
331.1610138441234
 20
123.6471097769091
 30
0.0000000000000000
 40
7.750000953674316
 41
0.0000000000000000
 71
     1
 72
     1
  1
{\H0.91x;{MASS}}
 11
1.000000000000000
 21
0.0000000000000000
 31
0.0000000000000000
  7
STANDARD
  0
MTEXT
  5
395
100
AcDbEntity
  8
MAIN0
  6
CONTINUOUS
 62
3
100
AcDbMText
 10
421.6129737912221
 20
188.5068745636464
 30
0.0000000000000000
 40
7.749999761581421
 41
0.0000000000000000
 71
     1
 72
     1
  1
{\H0.81x;{21.0}}
 11
1.000000000000000
 21
0.0000000000000000
 31
0.0000000000000000
  7
STANDARD
  0
MTEXT
  5
396
100
AcDbEntity
  8
MAIN0
  6
CONTINUOUS
 62
3
100
AcDbMText
 10
413.9052023723757
 20
175.6084723113283
 30
0.0000000000000000
 40
7.749999761581421
 41
0.0000000000000000
 71
     1
 72
     1
  1
{\H0.88x;{55}}
 11
1.000000000000000
 21
0.0000000000000000
 31
0.0000000000000000
  7
STANDARD
  0
MTEXT
  5
397
100
AcDbEntity
  8
MAIN0
  6
CONTINUOUS
 62
3
100
AcDbMText
 10
421.4052023723757
 20
164.3584723113283
 30
0.0000000000000000
 40
7.749999761581421
 41
0.0000000000000000
 71
     1
 72
     1
  1
{\H0.91x;{5608}}
 11
1.000000000000000
 21
0.0000000000000000
 31
0.0000000000000000
  7
STANDARD
  0
MTEXT
  5
398
100
AcDbEntity
  8
MAIN0
  6
CONTINUOUS
 62
3
100
AcDbMText
 10
413.9052023723757
 20
123.5251389779949
 30
0.0000000000000000
 40
7.749999761581421
 41
0.0000000000000000
 71
     1
 72
     1
  1
{\H0.88x;{43}}
 11
1.000000000000000
 21
0.0000000000000000
 31
0.0000000000000000
  7
STANDARD
  0
MTEXT
  5
399
100
AcDbEntity
  8
MAIN0
  6
CONTINUOUS
 62
3
100
AcDbMText
 10
414.4467622672980
 20
102.7315732734256
 30
0.0000000000000000
 40
7.749999761581421
 41
0.0000000000000000
 71
     1
 72
     1
  1
{\H0.84x;{0.588}}
 11
1.000000000000000
 21
0.0000000000000000
 31
0.0000000000000000
  7
STANDARD
  0
MTEXT
  5
39A
100
AcDbEntity
  8
MAIN0
  6
CONTINUOUS
 62
3
100
AcDbMText
 10
413.9052023723757
 20
200.6084723113286
 30
0.0000000000000000
 40
7.749999761581421
 41
0.0000000000000000
 71
     1
 72
     1
  1
{\H0.90x;{206}}
 11
1.000000000000000
 21
0.0000000000000000
 31
0.0000000000000000
  7
STANDARD
  0
LINE
  5
39B
100
AcDbEntity
  8
MAIN0
  6
CONTINUOUS
 62
3
100
AcDbLine
 10
283.9052023723758
 20
50.77513921640525
 30
0.0000000000000000
 11
483.9052023723757
 21
50.77513921640536
 31
0.0000000000000000
  0
LINE
  5
39C
100
AcDbEntity
  8
MAIN0
  6
CONTINUOUS
 62
3
100
AcDbLine
 10
332.6552023723757
 20
50.77513921640536
 30
0.0000000000000000
 11
332.6552023723757
 21
85.77513921640536
 31
0.0000000000000000
  0
MTEXT
  5
39D
100
AcDbEntity
  8
MAIN0
  6
CONTINUOUS
 62
3
100
AcDbMText
 10
373.6142030008557
 20
81.09921889808709
 30
0.0000000000000000
 40
7.749999761581421
 41
0.0000000000000000
 71
     1
 72
     1
  1
{\H0.92x;{外径把握}}
 11
1.000000000000000
 21
0.0000000000000000
 31
0.0000000000000000
  7
KNJYOKO
  0
MTEXT
  5
39E
100
AcDbEntity
  8
MAIN0
  6
CONTINUOUS
 62
3
100
AcDbMText
 10
373.6142030008557
 20
63.24806428789691
 30
0.0000000000000000
 40
7.749999761581421
 41
0.0000000000000000
 71
     1
 72
     1
  1
{\H0.92x;{内径把握}}
 11
1.000000000000000
 21
0.0000000000000000
 31
0.0000000000000000
  7
KNJYOKO
  0
MTEXT
  5
39F
100
AcDbEntity
  8
MAIN0
  6
CONTINUOUS
 62
3
100
AcDbMText
 10
305.0554143605133
 20
60.02287045414482
 30
0.0000000000000000
 40
7.500000000000000
 41
0.0000000000000000
 71
     1
 72
     1
  1
{\H0.63x;{(mm)}}
 11
1.000000000000000
 21
0.0000000000000000
 31
0.0000000000000000
  7
STANDARD
  0
MTEXT
  5
3A0
100
AcDbEntity
  8
MAIN0
  6
CONTINUOUS
 62
3
100
AcDbMText
 10
413.9052023723034
 20
63.52513897798679
 30
0.0000000000000000
 40
7.749999761581421
 41
0.0000000000000000
 71
     1
 72
     1
  1
{\H0.93x;{\U+220590～\U+2205290}}
 11
1.000000000000000
 21
0.0000000000000000
 31
0.0000000000000000
  7
KNJYOKO
  0
MTEXT
  5
3A1
100
AcDbEntity
  8
MAIN0
  6
CONTINUOUS
 62
3
100
AcDbMText
 10
290.1552023723783
 20
150.4001389780654
 30
0.0000000000000000
 40
7.749999761581421
 41
0.0000000000000000
 71
     1
 72
     1
  1
{\H0.94x;{許容最高回転速度　}}
 11
1.000000000000000
 21
0.0000000000000000
 31
0.0000000000000000
  7
KNJYOKO
  0
MTEXT
  5
3A2
100
AcDbEntity
  8
MAIN0
  6
CONTINUOUS
 62
3
100
AcDbMText
 10
413.9052023723757
 20
141.6084725497468
 30
0.0000000000000000
 40
7.749999761581421
 41
0.0000000000000000
 71
     7
 72
     1
  1
{2200 min}
 11
1.000000000000000
 21
0.0000000000000000
 31
0.0000000000000000
  7
STANDARD
  0
MTEXT
  5
3A3
100
AcDbEntity
  8
MAIN0
  6
CONTINUOUS
 62
3
100
AcDbMText
 10
469.1352040007746
 20
145.4834724305375
 30
0.0000000000000000
 40
3.874999880790710
 41
0.0000000000000000
 71
     7
 72
     1
  1
{-1}
 11
1.000000000000000
 21
0.0000000000000000
 31
0.0000000000000000
  7
STANDARD
  0
MTEXT
  5
3A4
100
AcDbEntity
  8
MAIN0
  6
CONTINUOUS
 62
3
100
AcDbMText
 10
446.1484127537223
 20
140.0916844760202
 30
0.0000000000000000
 40
7.749999761581421
 41
0.0000000000000000
 71
     1
 72
     1
  1
{\H0.92x;{(rpm)}}
 11
1.000000000000000
 21
0.0000000000000000
 31
0.0000000000000000
  7
STANDARD
  0
MTEXT
  5
3A5
100
AcDbEntity
  8
MAIN0
  6
CONTINUOUS
 62
3
100
AcDbMText
 10
413.9052023723034
 20
81.02513897798679
 30
0.0000000000000000
 40
7.749999761581421
 41
0.0000000000000000
 71
     1
 72
     1
  1
{\H0.93x;{\U+220510～\U+2205300}}
 11
1.000000000000000
 21
0.0000000000000000
 31
0.0000000000000000
  7
KNJYOKO
  0
LINE
  5
3A6
100
AcDbEntity
  8
MAIN0
  6
CONTINUOUS
 62
3
100
AcDbLine
 10
332.6552023723758
 20
68.27513921640531
 30
0.0000000000000000
 11
483.9052023723756
 21
68.27513921640548
 31
0.0000000000000000
  0
LINE
  5
3A7
100
AcDbEntity
  8
MAIN0
  6
CONTINUOUS
 62
3
100
AcDbLine
 10
283.9052023723756
 20
221.6084725498347
 30
0.0000000000000000
 11
483.9052023723756
 21
221.6084725498953
 31
0.0000000000000000
  0
LINE
  5
3A8
100
AcDbEntity
  8
MAIN0
  6
CONTINUOUS
 62
3
100
AcDbLine
 10
283.9052023723756
 20
204.1084725498299
 30
0.0000000000000000
 11
483.9052023723756
 21
204.1084725498870
 31
0.0000000000000000
  0
LINE
  5
3A9
100
AcDbEntity
  8
MAIN0
  6
CONTINUOUS
 62
3
100
AcDbLine
 10
283.9052023723758
 20
179.1084725498132
 30
0.0000000000000000
 11
483.9052023723757
 21
179.1084725498587
 31
0.0000000000000000
  0
LINE
  5
3AA
100
AcDbEntity
  8
MAIN0
  6
CONTINUOUS
 62
3
100
AcDbLine
 10
283.9052023723755
 20
154.1084725498059
 30
0.0000000000000000
 11
483.9052023723756
 21
154.1084725498463
 31
0.0000000000000000
  0
LINE
  5
3AB
100
AcDbEntity
  8
MAIN0
  6
CONTINUOUS
 62
3
100
AcDbLine
 10
283.9052023723755
 20
128.2751392164677
 30
0.0000000000000000
 11
483.9052023723756
 21
128.2751392165048
 31
0.0000000000000000
  0
LINE
  5
3AC
100
AcDbEntity
  8
MAIN0
  6
CONTINUOUS
 62
3
100
AcDbLine
 10
283.9052023723755
 20
110.7751392164624
 30
0.0000000000000000
 11
483.9052023723756
 21
110.7751392164960
 31
0.0000000000000000
  0
LINE
  5
3AD
100
AcDbEntity
  8
MAIN0
  6
CONTINUOUS
 62
3
100
AcDbLine
 10
283.9052023723758
 20
85.77513921640548
 30
0.0000000000000000
 11
483.9052023723757
 21
85.77513921640554
 31
0.0000000000000000
  0
LINE
  5
3AE
100
AcDbEntity
  8
MAIN0
  6
CONTINUOUS
 62
3
100
AcDbLine
 10
283.9052023723757
 20
50.77513921640536
 30
0.0000000000000000
 11
283.9052023723757
 21
221.6084725497472
 31
0.0000000000000000
  0
LINE
  5
3AF
100
AcDbEntity
  8
MAIN0
  6
CONTINUOUS
 62
3
100
AcDbLine
 10
408.9052023723757
 20
50.77513921640536
 30
0.0000000000000000
 11
408.9052023723757
 21
204.1084725498648
 31
0.0000000000000000
  0
LINE
  5
3B0
100
AcDbEntity
  8
MAIN0
  6
CONTINUOUS
 62
3
100
AcDbLine
 10
483.9052023723756
 20
50.77513921640536
 30
0.0000000000000000
 11
483.9052023723756
 21
221.6084725497472
 31
0.0000000000000000
  0
MTEXT
  5
3B1
100
AcDbEntity
  8
MAIN0
  6
CONTINUOUS
 62
3
100
AcDbMText
 10
290.1552023723785
 20
201.2334735035041
 30
0.0000000000000000
 40
7.750000953674316
 41
0.0000000000000000
 71
     1
 72
     1
  1
{\H0.94x;{許容最大ハンドルトルク}}
 11
1.000000000000000
 21
0.0000000000000000
 31
0.0000000000000000
  7
KNJYOKO
  0
MTEXT
  5
3B2
100
AcDbEntity
  8
MAIN0
  6
CONTINUOUS
 62
3
100
AcDbMText
 10
290.1552023723783
 20
176.2334735034967
 30
0.0000000000000000
 40
7.750000953674316
 41
0.0000000000000000
 71
     1
 72
     1
  1
{\H0.94x;{最大静的把握力}}
 11
1.000000000000000
 21
0.0000000000000000
 31
0.0000000000000000
  7
KNJYOKO
  0
MTEXT
  5
3B3
100
AcDbEntity
  8
MAIN0
  6
CONTINUOUS
 62
3
100
AcDbMText
 10
288.9052023723759
 20
123.5251401701369
 30
0.0000000000000000
 40
7.750000953674316
 41
0.0000000000000000
 71
     1
 72
     1
  1
{\H0.90x;{質量}}
 11
1.000000000000000
 21
0.0000000000000000
 31
0.0000000000000000
  7
KNJYOKO
  0
MTEXT
  5
3B4
100
AcDbEntity
  8
MAIN0
  6
CONTINUOUS
 62
3
100
AcDbMText
 10
289.6074653465360
 20
108.8064772364887
 30
0.0000000000000000
 40
7.750000953674316
 41
0.0000000000000000
 71
     1
 72
     1
  1
{\H0.94x;{慣性モーメント\P}
 11
1.000000000000000
 21
0.0000000000000000
 31
0.0000000000000000
  7
KNJYOKO
  0
MTEXT
  5
3B5
100
AcDbEntity
  8
MAIN0
  6
CONTINUOUS
 62
3
100
AcDbMText
 10
291.9918139807884
 20
82.83066232215981
 30
0.0000000000000000
 40
7.750000953674316
 41
0.0000000000000000
 71
     1
 72
     1
  1
{\H0.96x;{把握径}}
 11
1.000000000000000
 21
0.0000000000000000
 31
0.0000000000000000
  7
KNJYOKO
  0
MTEXT
  5
3B6
100
AcDbEntity
  8
MAIN0
  6
CONTINUOUS
 62
3
100
AcDbMText
 10
298.0702040580429
 20
218.7725012035056
 30
0.0000000000000000
 40
12.50000000000000
 41
0.0000000000000000
 71
     1
 72
     1
  1
{\H0.91x;{仕　様}}
 11
1.000000000000000
 21
0.0000000000000000
 31
0.0000000000000000
  7
KNJYOKO
  0
MTEXT
  5
3B7
100
AcDbEntity
  8
MAIN0
  6
CONTINUOUS
 62
3
100
AcDbMText
 10
446.4052023723757
 20
197.3584706423985
 30
0.0000000000000000
 40
6.999998092651367
 41
0.0000000000000000
 71
     1
 72
     1
  1
{\H0.58x;{　　　Ｎ・ｍ}}
 11
1.000000000000000
 21
0.0000000000000000
 31
0.0000000000000000
  7
KNJYOKO
  0
MTEXT
  5
3B8
100
AcDbEntity
  8
MAIN0
  6
CONTINUOUS
 62
3
100
AcDbMText
 10
413.9052023723757
 20
187.3584706423985
 30
0.0000000000000000
 40
6.999998092651367
 41
0.0000000000000000
 71
     1
 72
     1
  1
{\H0.48x;{（}}
 11
1.000000000000000
 21
0.0000000000000000
 31
0.0000000000000000
  7
KNJYOKO
  0
MTEXT
  5
3B9
100
AcDbEntity
  8
MAIN0
  6
CONTINUOUS
 62
3
100
AcDbMText
 10
443.9052023723757
 20
187.3584706423985
 30
0.0000000000000000
 40
6.999998092651367
 41
0.0000000000000000
 71
     1
 72
     1
  1
{\H0.58x;{　ｋｇｆ・ｍ）}}
 11
1.000000000000000
 21
0.0000000000000000
 31
0.0000000000000000
  7
KNJYOKO
  0
MTEXT
  5
3BA
100
AcDbEntity
  8
MAIN0
  6
CONTINUOUS
 62
3
100
AcDbMText
 10
446.4052023723757
 20
120.2751373090649
 30
0.0000000000000000
 40
6.999998092651367
 41
0.0000000000000000
 71
     1
 72
     1
  1
{\H0.58x;{　　　　ｋｇ}}
 11
1.000000000000000
 21
0.0000000000000000
 31
0.0000000000000000
  7
KNJYOKO
  0
MTEXT
  5
3BB
100
AcDbEntity
  8
MAIN0
  6
CONTINUOUS
 62
3
100
AcDbMText
 10
441.7838189703402
 20
94.98157351184420
 30
0.0000000000000000
 40
6.999998092651367
 41
0.0000000000000000
 71
     7
 72
     1
  1
{　ｋｇ・ｍ}
 11
1.000000000000000
 21
0.0000000000000000
 31
0.0000000000000000
  7
KNJYOKO
  0
MTEXT
  5
3BC
100
AcDbEntity
  8
MAIN0
  6
CONTINUOUS
 62
3
100
AcDbMText
 10
466.1838181120334
 20
98.48157255816989
 30
0.0000000000000000
 40
3.499999046325684
 41
0.0000000000000000
 71
     7
 72
     1
  1
{2}
 11
1.000000000000000
 21
0.0000000000000000
 31
0.0000000000000000
  7
STANDARD
  0
MTEXT
  5
3BD
100
AcDbEntity
  8
MAIN0
  6
CONTINUOUS
 62
3
100
AcDbMText
 10
468.9838185411868
 20
94.98157351184420
 30
0.0000000000000000
 40
6.999998092651367
 41
0.0000000000000000
 71
     7
 72
     1
  1
{　}
 11
1.000000000000000
 21
0.0000000000000000
 31
0.0000000000000000
  7
KNJYOKO
  0
MTEXT
  5
3BE
100
AcDbEntity
  8
MAIN0
  6
CONTINUOUS
 62
3
100
AcDbMText
 10
446.4052023723757
 20
172.3584706423982
 30
0.0000000000000000
 40
6.999998092651367
 41
0.0000000000000000
 71
     1
 72
     1
  1
{\H0.58x;{　　　　ｋＮ}}
 11
1.000000000000000
 21
0.0000000000000000
 31
0.0000000000000000
  7
KNJYOKO
  0
MTEXT
  5
3BF
100
AcDbEntity
  8
MAIN0
  6
CONTINUOUS
 62
3
100
AcDbMText
 10
413.9052023723757
 20
162.3584706423982
 30
0.0000000000000000
 40
6.999998092651367
 41
0.0000000000000000
 71
     1
 72
     1
  1
{\H0.48x;{（}}
 11
1.000000000000000
 21
0.0000000000000000
 31
0.0000000000000000
  7
KNJYOKO
  0
MTEXT
  5
3C0
100
AcDbEntity
  8
MAIN0
  6
CONTINUOUS
 62
3
100
AcDbMText
 10
443.9052023723757
 20
162.3584706423982
 30
0.0000000000000000
 40
6.999998092651367
 41
0.0000000000000000
 71
     1
 72
     1
  1
{\H0.58x;{　　　ｋｇｆ）}}
 11
1.000000000000000
 21
0.0000000000000000
 31
0.0000000000000000
  7
KNJYOKO
  0
LINE
  5
3C1
100
AcDbEntity
  8
WAKU0
  6
CONTINUOUS
 62
3
100
AcDbLine
 10
254.8944733953612
 20
-35.04060412828045
 30
0.0000000000000000
 11
424.8944733953612
 21
-35.04060412828045
 31
0.0000000000000000
  0
LINE
  5
3C2
100
AcDbEntity
  8
WAKU0
  6
CONTINUOUS
 62
3
100
AcDbLine
 10
254.8944733953612
 20
-35.04060412828045
 30
0.0000000000000000
 11
254.8944733953612
 21
-74.04060412828045
 31
0.0000000000000000
  0
LINE
  5
3C3
100
AcDbEntity
  8
WAKU0
  6
CONTINUOUS
 62
3
100
AcDbLine
 10
326.8944733953612
 20
-35.04060412828045
 30
0.0000000000000000
 11
326.8944733953612
 21
-74.04060412828045
 31
0.0000000000000000
  0
LINE
  5
3C4
100
AcDbEntity
  8
WAKU0
  6
CONTINUOUS
 62
3
100
AcDbLine
 10
346.8944733953612
 20
-35.04060412828045
 30
0.0000000000000000
 11
346.8944733953612
 21
-74.04060412828045
 31
0.0000000000000000
  0
LINE
  5
3C5
100
AcDbEntity
  8
WAKU0
  6
CONTINUOUS
 62
3
100
AcDbLine
 10
358.8944733953612
 20
-35.04060412828045
 30
0.0000000000000000
 11
358.8944733953612
 21
-74.04060412828045
 31
0.0000000000000000
  0
LINE
  5
3C6
100
AcDbEntity
  8
WAKU0
  6
CONTINUOUS
 62
3
100
AcDbLine
 10
358.8944733953612
 20
-49.04060412828045
 30
0.0000000000000000
 11
424.8944733953612
 21
-49.04060412828045
 31
0.0000000000000000
  0
LINE
  5
3C7
100
AcDbEntity
  8
WAKU0
  6
CONTINUOUS
 62
3
100
AcDbLine
 10
346.8944733953612
 20
-63.04060412828045
 30
0.0000000000000000
 11
424.8944733953612
 21
-63.04060412828045
 31
0.0000000000000000
  0
LINE
  5
3C8
100
AcDbEntity
  8
WAKU0
  6
CONTINUOUS
 62
3
100
AcDbLine
 10
389.8944733953612
 20
-35.04060412828045
 30
0.0000000000000000
 11
389.8944733953612
 21
-42.04060412828045
 31
0.0000000000000000
  0
LINE
  5
3C9
100
AcDbEntity
  8
WAKU0
  6
CONTINUOUS
 62
3
100
AcDbLine
 10
401.8944733953612
 20
-35.04060412828045
 30
0.0000000000000000
 11
401.8944733953612
 21
-42.04060412828045
 31
0.0000000000000000
  0
LINE
  5
3CA
100
AcDbEntity
  8
WAKU0
  6
CONTINUOUS
 62
3
100
AcDbLine
 10
326.8944733953612
 20
-54.54060412828045
 30
0.0000000000000000
 11
346.8944733953612
 21
-54.54060412828045
 31
0.0000000000000000
  0
LINE
  5
3CB
100
AcDbEntity
  8
WAKU0
  6
CONTINUOUS
 62
3
100
AcDbLine
 10
346.8944733953612
 20
-42.04060412828045
 30
0.0000000000000000
 11
424.8944733953612
 21
-42.04060412828045
 31
0.0000000000000000
  0
LINE
  5
3CC
100
AcDbEntity
  8
WAKU0
  6
CONTINUOUS
 62
3
100
AcDbLine
 10
254.8944733953612
 20
-49.04060412828045
 30
0.0000000000000000
 11
326.8944733953612
 21
-49.04060412828045
 31
0.0000000000000000
  0
LINE
  5
3CD
100
AcDbEntity
  8
WAKU0
  6
CONTINUOUS
 62
3
100
AcDbLine
 10
254.8944733953612
 20
-63.04060412828045
 30
0.0000000000000000
 11
326.8944733953612
 21
-63.04060412828045
 31
0.0000000000000000
  0
LINE
  5
3CE
100
AcDbEntity
  8
WAKU0
  6
CONTINUOUS
 62
3
100
AcDbLine
 10
302.8944733953612
 20
-49.04060412828045
 30
0.0000000000000000
 11
302.8944733953612
 21
-74.04060412828045
 31
0.0000000000000000
  0
LINE
  5
3CF
100
AcDbEntity
  8
WAKU0
  6
CONTINUOUS
 62
3
100
AcDbLine
 10
278.8944733953612
 20
-49.04060412828045
 30
0.0000000000000000
 11
278.8944733953612
 21
-63.04060412828045
 31
0.0000000000000000
  0
LINE
  5
3D0
100
AcDbEntity
  8
WAKU0
  6
CONTINUOUS
 62
3
100
AcDbLine
 10
314.8944733953612
 20
-60.04060412828045
 30
0.0000000000000000
 11
314.8944733953612
 21
-63.04060412828045
 31
0.0000000000000000
  0
LINE
  5
3D1
100
AcDbEntity
  8
WAKU0
  6
CONTINUOUS
 62
3
100
AcDbLine
 10
290.8944733953612
 20
-60.04060412828045
 30
0.0000000000000000
 11
290.8944733953612
 21
-63.04060412828045
 31
0.0000000000000000
  0
LINE
  5
3D2
100
AcDbEntity
  8
WAKU0
  6
CONTINUOUS
 62
3
100
AcDbLine
 10
266.8944733953612
 20
-60.04060412828045
 30
0.0000000000000000
 11
266.8944733953612
 21
-63.04060412828045
 31
0.0000000000000000
  0
LINE
  5
3D3
100
AcDbEntity
  8
WAKU0
  6
CONTINUOUS
 62
3
100
AcDbLine
 10
272.8944733953612
 20
-35.04060412828045
 30
0.0000000000000000
 11
272.8944733953612
 21
-49.04060412828045
 31
0.0000000000000000
  0
LINE
  5
3D4
100
AcDbEntity
  8
WAKU0
  6
CONTINUOUS
 62
3
100
AcDbLine
 10
254.8944733953612
 20
-41.04060412828045
 30
0.0000000000000000
 11
326.8944733953612
 21
-41.04060412828045
 31
0.0000000000000000
  0
LINE
  5
3D5
100
AcDbEntity
  8
WAKU0
  6
HIDDEN
 62
3
100
AcDbLine
 10
375.3944733953612
 20
-63.04060412828045
 30
0.0000000000000000
 11
375.3944733953612
 21
-74.04060412828045
 31
0.0000000000000000
  0
LINE
  5
3D6
100
AcDbEntity
  8
WAKU0
  6
HIDDEN
 62
3
100
AcDbLine
 10
387.7944733953612
 20
-63.04060412828045
 30
0.0000000000000000
 11
387.7944733953612
 21
-74.04060412828045
 31
0.0000000000000000
  0
MTEXT
  5
3D7
100
AcDbEntity
  8
WAKU0
  6
CONTINUOUS
 62
3
100
AcDbMText
 10
324.0024732851820
 20
-36.49060417596417
 30
0.0000000000000000
 40
3.099999904632568
 41
0.0000000000000000
 71
     1
 72
     1
  1
{\H0.81x;{ }}
 11
1.000000000000000
 21
0.0000000000000000
 31
0.0000000000000000
  7
STANDARD
  0
MTEXT
  5
3D8
100
AcDbEntity
  8
WAKU0
  6
CONTINUOUS
 62
3
100
AcDbMText
 10
359.3764734197097
 20
-36.99060417596417
 30
0.0000000000000000
 40
3.099999904632568
 41
0.0000000000000000
 71
     1
 72
     1
  1
{\H0.93x;{JN12T102}}
 11
1.000000000000000
 21
0.0000000000000000
 31
0.0000000000000000
  7
STANDARD
  0
MTEXT
  5
3D9
100
AcDbEntity
  8
WAKU0
  6
CONTINUOUS
 62
3
100
AcDbMText
 10
359.3604733870463
 20
-42.54060412828045
 30
0.0000000000000000
 40
3.000000000000000
 41
0.0000000000000000
 71
     1
 72
     1
  1
{\H0.94x;{スクロールチャック　１２\PＳＣＲＯＬＬ　ＣＨＵＣＫ　１２}}
 11
1.000000000000000
 21
0.0000000000000000
 31
0.0000000000000000
  7
KNJYOKO
  0
MTEXT
  5
3DA
100
AcDbEntity
  8
WAKU0
  6
CONTINUOUS
 62
3
100
AcDbMText
 10
359.2944734013217
 20
-51.80727085852541
 30
0.0000000000000000
 40
3.099999904632568
 41
0.0000000000000000
 71
     1
 72
     1
  1
{\H0.70x;{ＪＮ１２Ｔ１０２　ガイケイ\PＪＮ１２Ｔ１０２　ＯＵＴＳＩＤＥ　ＶＩＥＷ}}
 11
1.000000000000000
 21
0.0000000000000000
 31
0.0000000000000000
  7
KNJYOKO
  0
MTEXT
  5
3DB
100
AcDbEntity
  8
WAKU0
  6
CONTINUOUS
 62
3
100
AcDbMText
 10
332.8994732713836
 20
-46.74060417596417
 30
0.0000000000000000
 40
3.099999904632568
 41
0.0000000000000000
 71
     1
 72
     1
  1
{\H0.90x;{2:5}}
 11
1.000000000000000
 21
0.0000000000000000
 31
0.0000000000000000
  7
STANDARD
  0
MTEXT
  5
3DC
100
AcDbEntity
  8
WAKU0
  6
CONTINUOUS
 62
3
100
AcDbMText
 10
389.2944735503333
 20
-65.89060403291302
 30
0.0000000000000000
 40
5.300000190734863
 41
0.0000000000000000
 71
     1
 72
     1
  1
{\H0.90x;{1139}}
 11
1.000000000000000
 21
0.0000000000000000
 31
0.0000000000000000
  7
STANDARD
  0
MTEXT
  5
3DD
100
AcDbEntity
  8
WAKU0
  6
CONTINUOUS
 62
3
100
AcDbMText
 10
377.1944734788077
 20
-65.89060403291302
 30
0.0000000000000000
 40
5.300000190734863
 41
0.0000000000000000
 71
     1
 72
     1
  1
{\H0.87x;{36}}
 11
1.000000000000000
 21
0.0000000000000000
 31
0.0000000000000000
  7
STANDARD
  0
MTEXT
  5
3DE
100
AcDbEntity
  8
WAKU0
  6
CONTINUOUS
 62
3
100
AcDbMText
 10
360.3944735145705
 20
-65.89060403291302
 30
0.0000000000000000
 40
5.300000190734863
 41
0.0000000000000000
 71
     1
 72
     1
  1
{\H0.89x;{61S}}
 11
1.000000000000000
 21
0.0000000000000000
 31
0.0000000000000000
  7
STANDARD
  0
MTEXT
  5
3DF
100
AcDbEntity
  8
WAKU0
  6
CONTINUOUS
 62
3
100
AcDbMText
 10
414.8944734430449
 20
-65.89060403291302
 30
0.0000000000000000
 40
5.300000190734863
 41
0.0000000000000000
 71
     1
 72
     1
  1
{\H0.81x;{3}}
 11
1.000000000000000
 21
0.0000000000000000
 31
0.0000000000000000
  7
STANDARD
  0
MTEXT
  5
3E0
100
AcDbEntity
  8
WAKU0
  6
CONTINUOUS
 62
3
100
AcDbMText
 10
304.2794736838477
 20
-53.04060412828045
 30
0.0000000000000000
 40
3.000000000000000
 41
0.0000000000000000
 71
     7
 72
     1
  1
{\H0.93x;{DRAWN BY}}
 11
1.000000000000000
 21
0.0000000000000000
 31
0.0000000000000000
  7
STANDARD
  0
MTEXT
  5
3E1
100
AcDbEntity
  8
WAKU0
  6
CONTINUOUS
 62
3
100
AcDbMText
 10
284.1094731903212
 20
-53.09060408059673
 30
0.0000000000000000
 40
3.099999904632568
 41
0.0000000000000000
 71
     7
 72
     1
  1
{\H0.92x;{CHIEF}}
 11
1.000000000000000
 21
0.0000000000000000
 31
0.0000000000000000
  7
STANDARD
  0
MTEXT
  5
3E2
100
AcDbEntity
  8
WAKU0
  6
CONTINUOUS
 62
3
100
AcDbMText
 10
257.3194731092589
 20
-53.09060408059673
 30
0.0000000000000000
 40
3.099999904632568
 41
0.0000000000000000
 71
     7
 72
     1
  1
{\H0.92x;{MANAGER}}
 11
1.000000000000000
 21
0.0000000000000000
 31
0.0000000000000000
  7
STANDARD
  0
MTEXT
  5
3E3
100
AcDbEntity
  8
WAKU0
  6
CONTINUOUS
 62
3
100
AcDbMText
 10
259.5544728255408
 20
-67.90727076315797
 30
0.0000000000000000
 40
3.099999904632568
 41
0.0000000000000000
 71
     7
 72
     1
  1
{\H0.93x;{KITAGAWA IRON\PWORKS CO.,LTD.}}
 11
1.000000000000000
 21
0.0000000000000000
 31
0.0000000000000000
  7
STANDARD
  0
MTEXT
  5
3E4
100
AcDbEntity
  8
WAKU0
  6
CONTINUOUS
 62
3
100
AcDbMText
 10
255.9794736123221
 20
-39.54060412828045
 30
0.0000000000000000
 40
3.000000000000000
 41
0.0000000000000000
 71
     7
 72
     1
  1
{\H0.92x;{CAREER}}
 11
1.000000000000000
 21
0.0000000000000000
 31
0.0000000000000000
  7
STANDARD
  0
MTEXT
  5
3E5
100
AcDbEntity
  8
WAKU0
  6
CONTINUOUS
 62
3
100
AcDbMText
 10
309.5044732308524
 20
-67.09060408059673
 30
0.0000000000000000
 40
3.099999904632568
 41
0.0000000000000000
 71
     7
 72
     1
  1
{\H0.91x;{DATE}}
 11
1.000000000000000
 21
0.0000000000000000
 31
0.0000000000000000
  7
STANDARD
  0
MTEXT
  5
3E6
100
AcDbEntity
  8
WAKU0
  6
CONTINUOUS
 62
3
100
AcDbMText
 10
328.7944736099379
 20
-59.54060412828045
 30
0.0000000000000000
 40
3.000000000000000
 41
0.0000000000000000
 71
     7
 72
     1
  1
{\H0.63x;{3RD ANGLE}}
 11
1.000000000000000
 21
0.0000000000000000
 31
0.0000000000000000
  7
STANDARD
  0
MTEXT
  5
3E7
100
AcDbEntity
  8
WAKU0
  6
CONTINUOUS
 62
3
100
AcDbMText
 10
330.1094731903212
 20
-40.09060408059673
 30
0.0000000000000000
 40
3.099999904632568
 41
0.0000000000000000
 71
     7
 72
     1
  1
{\H0.92x;{SCALE}}
 11
1.000000000000000
 21
0.0000000000000000
 31
0.0000000000000000
  7
STANDARD
  0
MTEXT
  5
3E8
100
AcDbEntity
  8
WAKU0
  6
CONTINUOUS
 62
3
100
AcDbMText
 10
420.5944734430449
 20
-40.04060412828045
 30
0.0000000000000000
 40
3.000000000000000
 41
0.0000000000000000
 71
     7
 72
     1
  1
{\H0.63x;{kg}}
 11
1.000000000000000
 21
0.0000000000000000
 31
0.0000000000000000
  7
STANDARD
  0
MTEXT
  5
3E9
100
AcDbEntity
  8
WAKU0
  6
CONTINUOUS
 62
3
100
AcDbMText
 10
390.4944735384124
 20
-40.04060412828045
 30
0.0000000000000000
 40
3.000000000000000
 41
0.0000000000000000
 71
     7
 72
     1
  1
{\H0.63x;{WEIGHT}}
 11
1.000000000000000
 21
0.0000000000000000
 31
0.0000000000000000
  7
STANDARD
  0
MTEXT
  5
3EA
100
AcDbEntity
  8
WAKU0
  6
CONTINUOUS
 62
3
100
AcDbMText
 10
348.8994732713836
 20
-67.90727076315797
 30
0.0000000000000000
 40
3.099999904632568
 41
0.0000000000000000
 71
     7
 72
     1
  1
{\H0.90x;{DRW\PNO.}}
 11
1.000000000000000
 21
0.0000000000000000
 31
0.0000000000000000
  7
STANDARD
  0
MTEXT
  5
3EB
100
AcDbEntity
  8
WAKU0
  6
CONTINUOUS
 62
3
100
AcDbMText
 10
347.5044732308524
 20
-54.09060408059673
 30
0.0000000000000000
 40
3.099999904632568
 41
0.0000000000000000
 71
     7
 72
     1
  1
{\H0.91x;{NAME}}
 11
1.000000000000000
 21
0.0000000000000000
 31
0.0000000000000000
  7
STANDARD
  0
MTEXT
  5
3EC
100
AcDbEntity
  8
WAKU0
  6
CONTINUOUS
 62
3
100
AcDbMText
 10
347.5044732308524
 20
-40.09060408059673
 30
0.0000000000000000
 40
3.099999904632568
 41
0.0000000000000000
 71
     7
 72
     1
  1
{\H0.91x;{TYPE}}
 11
1.000000000000000
 21
0.0000000000000000
 31
0.0000000000000000
  7
STANDARD
  0
LINE
  5
3ED
100
AcDbEntity
  8
WAKU0
  6
HIDDEN
 62
3
100
AcDbLine
 10
422.0544298697497
 20
-72.19060422364788
 30
0.0000000000000000
 11
411.8345170163402
 21
-72.19060422364788
 31
0.0000000000000000
  0
LINE
  5
3EE
100
AcDbEntity
  8
WAKU0
  6
HIDDEN
 62
3
100
AcDbLine
 10
422.0544298697497
 20
-72.19060422364795
 30
0.0000000000000000
 11
416.9444734430464
 21
-63.33990006813144
 31
0.0000000000000000
  0
LINE
  5
3EF
100
AcDbEntity
  8
WAKU0
  6
HIDDEN
 62
3
100
AcDbLine
 10
416.9444734430464
 20
-63.33990006813144
 30
0.0000000000000000
 11
411.8345170163401
 21
-72.19060422364797
 31
0.0000000000000000
  0
LINE
  5
3F0
100
AcDbEntity
  8
WAKU0
  6
CONTINUOUS
 62
3
100
AcDbLine
 10
345.3658611707412
 20
-70.26018991565232
 30
0.0000000000000000
 11
345.3658611707412
 21
-64.26018991565231
 31
0.0000000000000000
  0
LINE
  5
3F1
100
AcDbEntity
  8
WAKU0
  6
CONTINUOUS
 62
3
100
AcDbLine
 10
338.8281675181837
 20
-68.76018991565235
 30
0.0000000000000000
 11
338.8281675181837
 21
-65.76018991565221
 31
0.0000000000000000
  0
LINE
  5
3F2
100
AcDbEntity
  8
WAKU0
  6
CENTER
 62
12
100
AcDbLine
 10
328.3266539468607
 20
-67.26018991565232
 30
0.0000000000000000
 11
346.1710522918306
 21
-67.26018991565232
 31
0.0000000000000000
  0
LINE
  5
3F3
100
AcDbEntity
  8
WAKU0
  6
CENTER
 62
12
100
AcDbLine
 10
332.3419299811598
 20
-71.48138749909597
 30
0.0000000000000000
 11
332.3419299811598
 21
-63.14195310678102
 31
0.0000000000000000
  0
LINE
  5
3F4
100
AcDbEntity
  8
WAKU0
  6
CONTINUOUS
 62
3
100
AcDbLine
 10
338.8281675181838
 20
-65.76018991565248
 30
0.0000000000000000
 11
345.3658611707413
 21
-64.26018991565250
 31
0.0000000000000000
  0
LINE
  5
3F5
100
AcDbEntity
  8
WAKU0
  6
CONTINUOUS
 62
3
100
AcDbLine
 10
338.8281675181837
 20
-68.76018991565233
 30
0.0000000000000000
 11
345.3658611707411
 21
-70.26018991565233
 31
0.0000000000000000
  0
CIRCLE
  5
3F6
100
AcDbEntity
  8
WAKU0
  6
CONTINUOUS
 62
3
100
AcDbCircle
 10
332.3419299811598
 20
-67.26018991565232
 30
0.0000000000000000
 40
1.499999999999972
  0
CIRCLE
  5
3F7
100
AcDbEntity
  8
WAKU0
  6
CONTINUOUS
 62
3
100
AcDbCircle
 10
332.3419299811598
 20
-67.26018991565232
 30
0.0000000000000000
 40
2.999999999999979
  0
ENDSEC
  0
SECTION
  2
OBJECTS
  0
DICTIONARY
  5
43F
100
AcDbDictionary
  3
ACAD_GROUP
350
440
  3
ACAD_MLINESTYLE
350
441
  3
DWGPROPS
350
442
  0
DICTIONARY
  5
440
102
{ACAD_REACTORS
330
43F
102
}
100
AcDbDictionary
  0
DICTIONARY
  5
441
102
{ACAD_REACTORS
330
43F
102
}
100
AcDbDictionary
  3
STANDARD
350
443
  0
MLINESTYLE
  5
443
102
{ACAD_REACTORS
330
441
102
}
100
AcDbMlineStyle
  2
STANDARD
 70
     0
  3

 62
   256
 51
90.00
 52
90.00
 71
     2
 49
0.50
 62
   256
  6
BYLAYER
 49
-0.50
 62
   256
  6
BYLAYER
  0
XRECORD
  5
442
102
{ACAD_REACTORS
330
43F
102
}
100
AcDbXrecord
280
     1
  1
DWGPROPS COOKIE
  2
ＪＮ１２Ｔ－１０２　ＯＵＴＳＩＤＥ　ＶＩＥＷ
  3

  4

  6
ＳＣＲＯＬＬ　ＣＨＵＣＫ
  7

  8

  9

300
=
301
=
302
=
303
=
304
=
305
=
306
=
307
=
308
=
309
=
 40
0.000000
 41
0.000000
 42
0.000000
  1

 90
        0
  0
ENDSEC
  0
EOF
