  0
SECTION
  2
HEADER
  9
$ACADVER
  1
AC1014
  9
$DWGCODEPAGE
  3
ANSI_932
  9
$LTSCALE
 40
20.0
  9
$FILLMODE
 70
     1
  9
$CLAYER
  8
0
  9
$PDMODE
 70
     0
  9
$SPLFRAME
 70
     0
  9
$SPLINETYPE
 70
     6
  9
$SPLINESEGS
 70
     8
  9
$DIMASZ
 40
2.000000
  9
$DIMEXE
 40
2.000000
  9
$DIMEXO
 40
0.800000
  9
$DIMTAD
 70
     1
  9
$DIMTIH
 70
     0
  9
$DIMTOH
 70
     0
  9
$DIMTVP
 40
0.500000
  9
$DIMTXT
 40
3.100000
  9
$EXTMIN
 10
0.000000
 20
0.000000
 30
0.000000
  9
$EXTMAX
 10
297.000000
 20
420.000000
 30
0.000000
  9
$MEASUREMENT
 70
  1
  9
$LIMMIN
 10
0.000000
 20
0.000000
  9
$LIMMAX
 10
297.000000
 20
420.000000
  9
$HANDLING
 70
     1
  9
$HANDSEED
  5
444
  9
$DIMBLK
  1
_OPEN
  9
$DIMDEC
 70
     3
  9
$DIMAUNIT
 70
     1
  9
$DIMZIN
 70
     8
  9
$DIMTOFL
 70
     1
  0
ENDSEC
  0
SECTION
  2
CLASSES
  0
ENDSEC
  0
SECTION
  2
TABLES
  0
TABLE
  2
VPORT
  5
3FA
100
AcDbSymbolTable
 70
     1
  0
VPORT
  5
3FB
100
AcDbSymbolTableRecord
100
AcDbViewportTableRecord
  2
*ACTIVE
 70
     0
 12
401.843723
 22
313.610537
 40
627.221074
 41
1.281346
  0
ENDTAB
  0
TABLE
  2
LTYPE
  5
3FC
100
AcDbSymbolTable
 70
     4
  0
LTYPE
  5
3FD
100
AcDbSymbolTableRecord
100
AcDbLinetypeTableRecord
  2
BYBLOCK
 70
     0
  3

 72
    65
 73
     0
 40
0.0
  0
LTYPE
  5
3FE
100
AcDbSymbolTableRecord
100
AcDbLinetypeTableRecord
  2
BYLAYER
 70
     0
  3

 72
    65
 73
     0
 40
0.0
  0
LTYPE
  5
3FF
100
AcDbSymbolTableRecord
100
AcDbLinetypeTableRecord
  2
CONTINUOUS
 70
     0
  3
Solid line (NEC CAE2D for Win R12.1 : 2019.02.20)
 72
    65
 73
     0
 40
0.0
  0
LTYPE
  5
400
100
AcDbSymbolTableRecord
100
AcDbLinetypeTableRecord
  2
HIDDEN
 70
     0
  3
__ __ __ __ __ __ __ __ __ __ __ __ __ __
 72
    65
 73
     2
 40
0.375
 49
0.25
 74
     0
 49
-0.125
 74
     0
  0
LTYPE
  5
401
100
AcDbSymbolTableRecord
100
AcDbLinetypeTableRecord
  2
CENTER
 70
     0
  3
____ _ ____ _ ____ _ ____ _ ____ _ ____
 72
    65
 73
     4
 40
2.0
 49
1.25
 74
     0
 49
-0.25
 74
     0
 49
0.25
 74
     0
 49
-0.25
 74
     0
  0
LTYPE
  5
402
100
AcDbSymbolTableRecord
100
AcDbLinetypeTableRecord
  2
PHANTOM
 70
     0
  3
______  __  __  ______  __  __  ______ 
 72
    65
 73
     6
 40
2.5
 49
1.25
 74
     0
 49
-0.25
 74
     0
 49
0.25
 74
     0
 49
-0.25
 74
     0
 49
0.25
 74
     0
 49
-0.25
 74
     0
  0
ENDTAB
  0
TABLE
  2
LAYER
  5
403
100
AcDbSymbolTable
 70
     8
  0
LAYER
  5
404
100
AcDbSymbolTableRecord
100
AcDbLayerTableRecord
  2
0
 70
     0
 62
     7
  6
CONTINUOUS
  0
LAYER
  5
405
100
AcDbSymbolTableRecord
100
AcDbLayerTableRecord
  2
MAIN0
 70
     0
 62
     7
  6
CONTINUOUS
  0
LAYER
  5
406
100
AcDbSymbolTableRecord
100
AcDbLayerTableRecord
  2
MAIN1
 70
     0
 62
     7
  6
CONTINUOUS
  0
LAYER
  5
407
100
AcDbSymbolTableRecord
100
AcDbLayerTableRecord
  2
MAIN2
 70
     0
 62
     7
  6
CONTINUOUS
  0
LAYER
  5
408
100
AcDbSymbolTableRecord
100
AcDbLayerTableRecord
  2
MAIN1023
 70
     0
 62
    16
  6
CONTINUOUS
  0
LAYER
  5
409
100
AcDbSymbolTableRecord
100
AcDbLayerTableRecord
  2
WAKU0
 70
     0
 62
     7
  6
CONTINUOUS
  0
LAYER
  5
40A
100
AcDbSymbolTableRecord
100
AcDbLayerTableRecord
  2
WAKU2
 70
     0
 62
     7
  6
CONTINUOUS
  0
LAYER
  5
40B
100
AcDbSymbolTableRecord
100
AcDbLayerTableRecord
  2
WAKU1023
 70
     0
 62
    16
  6
CONTINUOUS
  0
ENDTAB
  0
TABLE
  2
STYLE
  5
40C
100
AcDbSymbolTable
 70
     4
  0
STYLE
  5
40D
100
AcDbSymbolTableRecord
100
AcDbTextStyleTableRecord
  2
STANDARD
 70
    64
 40
0.0
 41
1.0
 50
0.0
 71
     0
 42
3.099999904632568
  3
TXT
  4

  0
STYLE
  5
40E
100
AcDbSymbolTableRecord
100
AcDbTextStyleTableRecord
  2
ANKTATE
 70
    68
 40
0.0
 41
1.0
 50
0.0
 71
     0
 42
3.099999904632568
  3
TXT
  4

  0
STYLE
  5
2FD
100
AcDbSymbolTableRecord
100
AcDbTextStyleTableRecord
  2
KNJYOKO
 70
    64
 40
0.0
 41
1.0
 50
0.0
 71
     0
 42
3.099999904632568
  3
TXT
  4
BIGFONT
  0
STYLE
  5
40F
100
AcDbSymbolTableRecord
100
AcDbTextStyleTableRecord
  2
KNJTATE
 70
    68
 40
0.0
 41
1.0
 50
0.0
 71
     0
 42
3.099999904632568
  3
TXT
  4
BIGFONT
  0
ENDTAB
  0
TABLE
  2
VIEW
  5
410
100
AcDbSymbolTable
 70
     0
  0
ENDTAB
  0
TABLE
  2
UCS
  5
411
100
AcDbSymbolTable
 70
     0
  0
ENDTAB
  0
TABLE
  2
APPID
  5
412
100
AcDbSymbolTable
 70
     1
  0
APPID
  5
413
100
AcDbSymbolTableRecord
100
AcDbRegAppTableRecord
  2
ACAD
 70
     0
  0
ENDTAB
  0
TABLE
  2
DIMSTYLE
  5
414
100
AcDbSymbolTable
 70
     1
  0
DIMSTYLE
105
415
100
AcDbSymbolTableRecord
100
AcDbDimStyleTableRecord
  2
STANDARD
 70
     0
 41
2.000000
 44
2.000000
 42
0.800000
145
0.661290
140
3.100000
144
1.000000
146
0.903226
340
40D
  0
DIMSTYLE
105
416
100
AcDbSymbolTableRecord
100
AcDbDimStyleTableRecord
  2
MAIN001
 70
     0
 41
4.000000
 44
4.000000
 42
1.600000
145
0.580645
140
6.200000
144
1.000000
146
0.903226
 77
     1
 73
     0
 74
     0
271
     3
275
     1
 78
     8
172
     1
340
40D
  0
DIMSTYLE
105
417
100
AcDbSymbolTableRecord
100
AcDbDimStyleTableRecord
  2
WAKU002
 70
     0
 41
2.000000
 44
2.000000
 42
0.800000
145
0.661290
140
3.100000
144
1.000000
146
0.903226
 77
     1
 73
     0
 74
     0
271
     3
275
     1
 78
     8
172
     1
340
40D
  0
ENDTAB
  0
TABLE
  2
BLOCK_RECORD
  5
418
100
AcDbSymbolTable
 70
    44
  0
BLOCK_RECORD
  5
419
100
AcDbSymbolTableRecord
100
AcDbBlockTableRecord
  2
*MODEL_SPACE
  0
BLOCK_RECORD
  5
41A
100
AcDbSymbolTableRecord
100
AcDbBlockTableRecord
  2
*PAPER_SPACE
  0
BLOCK_RECORD
  5
1
100
AcDbSymbolTableRecord
100
AcDbBlockTableRecord
  2
_NONE
  0
BLOCK_RECORD
  5
4
100
AcDbSymbolTableRecord
100
AcDbBlockTableRecord
  2
_CLOSED
  0
BLOCK_RECORD
  5
B
100
AcDbSymbolTableRecord
100
AcDbBlockTableRecord
  2
_DOT
  0
BLOCK_RECORD
  5
13
100
AcDbSymbolTableRecord
100
AcDbBlockTableRecord
  2
_OPEN
  0
BLOCK_RECORD
  5
19
100
AcDbSymbolTableRecord
100
AcDbBlockTableRecord
  2
_ORIGIN
  0
BLOCK_RECORD
  5
1E
100
AcDbSymbolTableRecord
100
AcDbBlockTableRecord
  2
_OPEN30
  0
BLOCK_RECORD
  5
24
100
AcDbSymbolTableRecord
100
AcDbBlockTableRecord
  2
_BOXFILLED
  0
BLOCK_RECORD
  5
29
100
AcDbSymbolTableRecord
100
AcDbBlockTableRecord
  2
_BOXBLANK
  0
BLOCK_RECORD
  5
31
100
AcDbSymbolTableRecord
100
AcDbBlockTableRecord
  2
_OBLIQUE
  0
BLOCK_RECORD
  5
35
100
AcDbSymbolTableRecord
100
AcDbBlockTableRecord
  2
_OPEN90
  0
BLOCK_RECORD
  5
3B
100
AcDbSymbolTableRecord
100
AcDbBlockTableRecord
  2
_CLOSEDBLANK
  0
BLOCK_RECORD
  5
41
100
AcDbSymbolTableRecord
100
AcDbBlockTableRecord
  2
_DOTBLANK
  0
BLOCK_RECORD
  5
41B
100
AcDbSymbolTableRecord
100
AcDbBlockTableRecord
  2
*D0
  0
BLOCK_RECORD
  5
41C
100
AcDbSymbolTableRecord
100
AcDbBlockTableRecord
  2
*D1
  0
BLOCK_RECORD
  5
41D
100
AcDbSymbolTableRecord
100
AcDbBlockTableRecord
  2
*D2
  0
BLOCK_RECORD
  5
41E
100
AcDbSymbolTableRecord
100
AcDbBlockTableRecord
  2
*D3
  0
BLOCK_RECORD
  5
41F
100
AcDbSymbolTableRecord
100
AcDbBlockTableRecord
  2
*D4
  0
BLOCK_RECORD
  5
420
100
AcDbSymbolTableRecord
100
AcDbBlockTableRecord
  2
*D5
  0
BLOCK_RECORD
  5
421
100
AcDbSymbolTableRecord
100
AcDbBlockTableRecord
  2
*D6
  0
BLOCK_RECORD
  5
422
100
AcDbSymbolTableRecord
100
AcDbBlockTableRecord
  2
*D7
  0
BLOCK_RECORD
  5
423
100
AcDbSymbolTableRecord
100
AcDbBlockTableRecord
  2
*D8
  0
BLOCK_RECORD
  5
424
100
AcDbSymbolTableRecord
100
AcDbBlockTableRecord
  2
*D9
  0
BLOCK_RECORD
  5
425
100
AcDbSymbolTableRecord
100
AcDbBlockTableRecord
  2
*D10
  0
BLOCK_RECORD
  5
426
100
AcDbSymbolTableRecord
100
AcDbBlockTableRecord
  2
*D11
  0
BLOCK_RECORD
  5
427
100
AcDbSymbolTableRecord
100
AcDbBlockTableRecord
  2
*D12
  0
BLOCK_RECORD
  5
428
100
AcDbSymbolTableRecord
100
AcDbBlockTableRecord
  2
*D13
  0
BLOCK_RECORD
  5
429
100
AcDbSymbolTableRecord
100
AcDbBlockTableRecord
  2
*D14
  0
BLOCK_RECORD
  5
42A
100
AcDbSymbolTableRecord
100
AcDbBlockTableRecord
  2
*D15
  0
BLOCK_RECORD
  5
42B
100
AcDbSymbolTableRecord
100
AcDbBlockTableRecord
  2
*D16
  0
BLOCK_RECORD
  5
42C
100
AcDbSymbolTableRecord
100
AcDbBlockTableRecord
  2
*D17
  0
BLOCK_RECORD
  5
42D
100
AcDbSymbolTableRecord
100
AcDbBlockTableRecord
  2
*D18
  0
BLOCK_RECORD
  5
42E
100
AcDbSymbolTableRecord
100
AcDbBlockTableRecord
  2
*D19
  0
BLOCK_RECORD
  5
42F
100
AcDbSymbolTableRecord
100
AcDbBlockTableRecord
  2
*D20
  0
BLOCK_RECORD
  5
430
100
AcDbSymbolTableRecord
100
AcDbBlockTableRecord
  2
*D21
  0
BLOCK_RECORD
  5
431
100
AcDbSymbolTableRecord
100
AcDbBlockTableRecord
  2
*D22
  0
BLOCK_RECORD
  5
432
100
AcDbSymbolTableRecord
100
AcDbBlockTableRecord
  2
*D23
  0
BLOCK_RECORD
  5
433
100
AcDbSymbolTableRecord
100
AcDbBlockTableRecord
  2
*D24
  0
BLOCK_RECORD
  5
434
100
AcDbSymbolTableRecord
100
AcDbBlockTableRecord
  2
*D25
  0
BLOCK_RECORD
  5
435
100
AcDbSymbolTableRecord
100
AcDbBlockTableRecord
  2
*D26
  0
BLOCK_RECORD
  5
436
100
AcDbSymbolTableRecord
100
AcDbBlockTableRecord
  2
*D27
  0
BLOCK_RECORD
  5
437
100
AcDbSymbolTableRecord
100
AcDbBlockTableRecord
  2
*D28
  0
BLOCK_RECORD
  5
438
100
AcDbSymbolTableRecord
100
AcDbBlockTableRecord
  2
*D29
  0
BLOCK_RECORD
  5
439
100
AcDbSymbolTableRecord
100
AcDbBlockTableRecord
  2
*D30
  0
BLOCK_RECORD
  5
43A
100
AcDbSymbolTableRecord
100
AcDbBlockTableRecord
  2
*D31
  0
ENDTAB
  0
ENDSEC
  0
SECTION
  2
BLOCKS
  0
BLOCK
  5
43B
100
AcDbEntity
  8
0
100
AcDbBlockBegin
  2
*MODEL_SPACE
 70
     0
 10
0.0
 20
0.0
 30
0.0
  3
*MODEL_SPACE
  1

  0
ENDBLK
  5
43C
100
AcDbEntity
  8
0
100
AcDbBlockEnd
  0
BLOCK
  5
43D
100
AcDbEntity
  8
0
100
AcDbBlockBegin
  2
*PAPER_SPACE
 70
     0
 10
0.0
 20
0.0
 30
0.0
  3
*PAPER_SPACE
  1

  0
ENDBLK
  5
43E
100
AcDbEntity
  8
0
100
AcDbBlockEnd
  0
BLOCK
  5
2
100
AcDbEntity
  8
0
100
AcDbBlockBegin
  2
_NONE
 70
     0
 10
0.0
 20
0.0
 30
0.0
  3
_NONE
  1

  0
ENDBLK
  5
3
100
AcDbEntity
  8
0
100
AcDbBlockEnd
  0
BLOCK
  5
5
100
AcDbEntity
  8
0
100
AcDbBlockBegin
  2
_CLOSED
 70
     0
 10
0.0
 20
0.0
 30
0.0
  3
_CLOSED
  1

  0
LINE
  5
6
100
AcDbEntity
  8
0
  6
BYBLOCK
 62
     0
100
AcDbLine
 10
-1.0
 20
0.166667
 30
0.0
 11
0.0
 21
0.0
 31
0.0
  0
LINE
  5
7
100
AcDbEntity
  8
0
  6
BYBLOCK
 62
     0
100
AcDbLine
 10
0.0
 20
0.0
 30
0.0
 11
-1.0
 21
-0.166667
 31
0.0
  0
LINE
  5
8
100
AcDbEntity
  8
0
  6
BYBLOCK
 62
     0
100
AcDbLine
 10
-1.0
 20
0.166667
 30
0.0
 11
-1.0
 21
-0.166667
 31
0.0
  0
LINE
  5
9
100
AcDbEntity
  8
0
  6
BYBLOCK
 62
     0
100
AcDbLine
 10
0.0
 20
0.0
 30
0.0
 11
-1.0
 21
0.0
 31
0.0
  0
ENDBLK
  5
A
100
AcDbEntity
  8
0
100
AcDbBlockEnd
  0
BLOCK
  5
C
100
AcDbEntity
  8
0
100
AcDbBlockBegin
  2
_DOT
 70
     0
 10
0.0
 20
0.0
 30
0.0
  3
_DOT
  1

  0
POLYLINE
  5
D
100
AcDbEntity
  8
0
  6
BYBLOCK
 62
     0
100
AcDb2dPolyline
 66
     1
 10
0.0
 20
0.0
 30
0.0
 70
     1
 40
0.5
 41
0.5
  0
VERTEX
  5
E
100
AcDbEntity
  8
0
  6
BYBLOCK
 62
     0
100
AcDbVertex
100
AcDb2dVertex
 10
-0.25
 20
0.0
 30
0.0
 42
1.0
  0
VERTEX
  5
F
100
AcDbEntity
  8
0
  6
BYBLOCK
 62
     0
100
AcDbVertex
100
AcDb2dVertex
 10
0.25
 20
0.0
 30
0.0
 42
1.0
  0
SEQEND
  5
10
100
AcDbEntity
  8
0
  6
BYBLOCK
 62
     0
  0
LINE
  5
11
100
AcDbEntity
  8
0
  6
BYBLOCK
 62
     0
100
AcDbLine
 10
-0.5
 20
0.0
 30
0.0
 11
-1.0
 21
0.0
 31
0.0
  0
ENDBLK
  5
12
100
AcDbEntity
  8
0
100
AcDbBlockEnd
  0
BLOCK
  5
14
100
AcDbEntity
  8
0
100
AcDbBlockBegin
  2
_OPEN
 70
     0
 10
0.0
 20
0.0
 30
0.0
  3
_OPEN
  1

  0
LINE
  5
15
100
AcDbEntity
  8
0
  6
BYBLOCK
 62
     0
100
AcDbLine
 10
-1.0
 20
0.166667
 30
0.0
 11
0.0
 21
0.0
 31
0.0
  0
LINE
  5
16
100
AcDbEntity
  8
0
  6
BYBLOCK
 62
     0
100
AcDbLine
 10
0.0
 20
0.0
 30
0.0
 11
-1.0
 21
-0.166667
 31
0.0
  0
LINE
  5
17
100
AcDbEntity
  8
0
  6
BYBLOCK
 62
     0
100
AcDbLine
 10
0.0
 20
0.0
 30
0.0
 11
-1.0
 21
0.0
 31
0.0
  0
ENDBLK
  5
18
100
AcDbEntity
  8
0
100
AcDbBlockEnd
  0
BLOCK
  5
1A
100
AcDbEntity
  8
0
100
AcDbBlockBegin
  2
_ORIGIN
 70
     0
 10
0.0
 20
0.0
 30
0.0
  3
_ORIGIN
  1

  0
CIRCLE
  5
1B
100
AcDbEntity
  8
0
  6
BYBLOCK
 62
     0
100
AcDbCircle
 10
0.0
 20
0.0
 30
0.0
 40
0.5
  0
LINE
  5
1C
100
AcDbEntity
  8
0
  6
BYBLOCK
 62
     0
100
AcDbLine
 10
0.0
 20
0.0
 30
0.0
 11
-1.0
 21
0.0
 31
0.0
  0
ENDBLK
  5
1D
100
AcDbEntity
  8
0
100
AcDbBlockEnd
  0
BLOCK
  5
1F
100
AcDbEntity
  8
0
100
AcDbBlockBegin
  2
_OPEN30
 70
     0
 10
0.0
 20
0.0
 30
0.0
  3
_OPEN30
  1

  0
LINE
  5
20
100
AcDbEntity
  8
0
  6
BYBLOCK
 62
     0
100
AcDbLine
 10
-1.0
 20
0.267949
 30
0.0
 11
0.0
 21
0.0
 31
0.0
  0
LINE
  5
21
100
AcDbEntity
  8
0
  6
BYBLOCK
 62
     0
100
AcDbLine
 10
0.0
 20
0.0
 30
0.0
 11
-1.0
 21
-0.267949
 31
0.0
  0
LINE
  5
22
100
AcDbEntity
  8
0
  6
BYBLOCK
 62
     0
100
AcDbLine
 10
0.0
 20
0.0
 30
0.0
 11
-1.0
 21
0.0
 31
0.0
  0
ENDBLK
  5
23
100
AcDbEntity
  8
0
100
AcDbBlockEnd
  0
BLOCK
  5
25
100
AcDbEntity
  8
0
100
AcDbBlockBegin
  2
_BOXFILLED
 70
     0
 10
0.0
 20
0.0
 30
0.0
  3
_BOXFILLED
  1

  0
SOLID
  5
26
100
AcDbEntity
  8
0
  6
BYBLOCK
 62
     0
100
AcDbTrace
 10
-0.5
 20
0.5
 30
0.0
 11
0.5
 21
0.5
 31
0.0
 12
-0.5
 22
-0.5
 32
0.0
 13
0.5
 23
-0.5
 33
0.0
  0
LINE
  5
27
100
AcDbEntity
  8
0
  6
BYBLOCK
 62
     0
100
AcDbLine
 10
-0.5
 20
0.0
 30
0.0
 11
-1.0
 21
0.0
 31
0.0
  0
ENDBLK
  5
28
100
AcDbEntity
  8
0
100
AcDbBlockEnd
  0
BLOCK
  5
2A
100
AcDbEntity
  8
0
100
AcDbBlockBegin
  2
_BOXBLANK
 70
     0
 10
0.0
 20
0.0
 30
0.0
  3
_BOXBLANK
  1

  0
LINE
  5
2B
100
AcDbEntity
  8
0
  6
BYBLOCK
 62
     0
100
AcDbLine
 10
-0.5
 20
-0.5
 30
0.0
 11
0.5
 21
-0.5
 31
0.0
  0
LINE
  5
2C
100
AcDbEntity
  8
0
  6
BYBLOCK
 62
     0
100
AcDbLine
 10
0.5
 20
-0.5
 30
0.0
 11
0.5
 21
0.5
 31
0.0
  0
LINE
  5
2D
100
AcDbEntity
  8
0
  6
BYBLOCK
 62
     0
100
AcDbLine
 10
0.5
 20
0.5
 30
0.0
 11
-0.5
 21
0.5
 31
0.0
  0
LINE
  5
2E
100
AcDbEntity
  8
0
  6
BYBLOCK
 62
     0
100
AcDbLine
 10
-0.5
 20
0.5
 30
0.0
 11
-0.5
 21
-0.5
 31
0.0
  0
LINE
  5
2F
100
AcDbEntity
  8
0
  6
BYBLOCK
 62
     0
100
AcDbLine
 10
-0.5
 20
0.0
 30
0.0
 11
-1.0
 21
0.0
 31
0.0
  0
ENDBLK
  5
30
100
AcDbEntity
  8
0
100
AcDbBlockEnd
  0
BLOCK
  5
32
100
AcDbEntity
  8
0
100
AcDbBlockBegin
  2
_OBLIQUE
 70
     0
 10
0.0
 20
0.0
 30
0.0
  3
_OBLIQUE
  1

  0
LINE
  5
33
100
AcDbEntity
  8
0
  6
BYBLOCK
 62
     0
100
AcDbLine
 10
-0.5
 20
-0.5
 30
0.0
 11
0.5
 21
0.5
 31
0.0
  0
ENDBLK
  5
34
100
AcDbEntity
  8
0
100
AcDbBlockEnd
  0
BLOCK
  5
36
100
AcDbEntity
  8
0
100
AcDbBlockBegin
  2
_OPEN90
 70
     0
 10
0.0
 20
0.0
 30
0.0
  3
_OPEN90
  1

  0
LINE
  5
37
100
AcDbEntity
  8
0
  6
BYBLOCK
 62
     0
100
AcDbLine
 10
-0.5
 20
0.5
 30
0.0
 11
0.0
 21
0.0
 31
0.0
  0
LINE
  5
38
100
AcDbEntity
  8
0
  6
BYBLOCK
 62
     0
100
AcDbLine
 10
0.0
 20
0.0
 30
0.0
 11
-0.5
 21
-0.5
 31
0.0
  0
LINE
  5
39
100
AcDbEntity
  8
0
  6
BYBLOCK
 62
     0
100
AcDbLine
 10
0.0
 20
0.0
 30
0.0
 11
-1.0
 21
0.0
 31
0.0
  0
ENDBLK
  5
3A
100
AcDbEntity
  8
0
100
AcDbBlockEnd
  0
BLOCK
  5
3C
100
AcDbEntity
  8
0
100
AcDbBlockBegin
  2
_CLOSEDBLANK
 70
     0
 10
0.0
 20
0.0
 30
0.0
  3
_CLOSEDBLANK
  1

  0
LINE
  5
3D
100
AcDbEntity
  8
0
  6
BYBLOCK
 62
     0
100
AcDbLine
 10
-1.0
 20
0.1666666666666666
 30
0.0
 11
0.0
 21
0.0
 31
0.0
  0
LINE
  5
3E
100
AcDbEntity
  8
0
  6
BYBLOCK
 62
     0
100
AcDbLine
 10
0.0
 20
0.0
 30
0.0
 11
-1.0
 21
-0.1666666666666666
 31
0.0
  0
LINE
  5
3F
100
AcDbEntity
  8
0
  6
BYBLOCK
 62
     0
100
AcDbLine
 10
-1.0
 20
0.1666666666666666
 30
0.0
 11
-1.0
 21
-0.1666666666666666
 31
0.0
  0
ENDBLK
  5
40
100
AcDbEntity
  8
0
100
AcDbBlockEnd
  0
BLOCK
  5
42
100
AcDbEntity
  8
0
100
AcDbBlockBegin
  2
_DOTBLANK
 70
     0
 10
0.0
 20
0.0
 30
0.0
  3
_DOTBLANK
  1

  0
CIRCLE
  5
43
100
AcDbEntity
  8
0
  6
BYBLOCK
 62
     0
100
AcDbCircle
 10
0.0
 20
0.0
 30
0.0
 40
0.5
  0
LINE
  5
44
100
AcDbEntity
  8
0
  6
BYBLOCK
 62
     0
100
AcDbLine
 10
-0.5
 20
0.0
 30
0.0
 11
-1.0
 21
0.0
 31
0.0
  0
ENDBLK
  5
45
100
AcDbEntity
  8
0
100
AcDbBlockEnd
  0
BLOCK
  5
20C
100
AcDbEntity
  8
MAIN0
  6
CONTINUOUS
 62
3
100
AcDbBlockBegin
  2
*D0
 70
    65
 10
0.0
 20
0.0
 30
0.0
  0
LINE
  5
20D
100
AcDbEntity
  8
MAIN0
  6
BYBLOCK
 62
0
100
AcDbLine
 10
221.4214971444665
 20
164.4396466190426
 30
0.0000000000000000
 11
221.4214971444664
 21
142.8373063080001
 31
0.0000000000000000
  0
LINE
  5
20E
100
AcDbEntity
  8
MAIN0
  6
BYBLOCK
 62
0
100
AcDbLine
 10
225.4214971444664
 20
146.8373063080001
 30
0.0000000000000000
 11
244.4114971444642
 21
146.8373063080001
 31
0.0000000000000000
  0
INSERT
  5
20F
100
AcDbEntity
  8
MAIN0
  6
BYBLOCK
 62
0
100
AcDbBlockReference
  2
_OPEN
 10
221.4214971444664
 20
146.8373063080001
 30
0.0000000000000000
 41
4.000000000000000
 42
4.000000000000000
 43
4.000000000000000
 50
180.0000000000000
  0
INSERT
  5
210
100
AcDbEntity
  8
MAIN0
  6
BYBLOCK
 62
0
100
AcDbBlockReference
  2
_OPEN
 10
248.4114971444642
 20
146.8373063080001
 30
0.0000000000000000
 41
4.000000000000000
 42
4.000000000000000
 43
4.000000000000000
 50
0.0000000000000000
  0
LINE
  5
211
100
AcDbEntity
  8
MAIN0
  6
BYBLOCK
 62
0
100
AcDbLine
 10
248.4114971444642
 20
155.8263482439982
 30
0.0000000000000000
 11
248.4114971444642
 21
142.8373063080001
 31
0.0000000000000000
  0
MTEXT
  5
212
100
AcDbEntity
  8
MAIN0
  6
BYBLOCK
 62
0
100
AcDbMText
 10
234.9164971444653
 20
150.4373062126326
 30
0.0000000000000000
 40
6.199999809265137
 41
0.0000000000000000
 71
     5
 72
     1
  1
\A1;26.99
 11
1.000000000000000
 21
0.0000000000000000
 31
0.0000000000000000
  7
STANDARD
  0
ENDBLK
  5
213
100
AcDbEntity
  8
MAIN0
  6
CONTINUOUS
 62
3
100
AcDbBlockEnd
  0
BLOCK
  5
215
100
AcDbEntity
  8
MAIN0
  6
CONTINUOUS
 62
3
100
AcDbBlockBegin
  2
*D1
 70
    65
 10
0.0
 20
0.0
 30
0.0
  0
LINE
  5
216
100
AcDbEntity
  8
MAIN0
  6
BYBLOCK
 62
0
100
AcDbLine
 10
248.4114971444657
 20
161.6211960169784
 30
0.0000000000000000
 11
248.4114971444657
 21
142.8373063080001
 31
0.0000000000000000
  0
LINE
  5
217
100
AcDbEntity
  8
MAIN0
  6
BYBLOCK
 62
0
100
AcDbLine
 10
252.4114971444657
 20
146.8373063080001
 30
0.0000000000000000
 11
271.4014971444664
 21
146.8373063080001
 31
0.0000000000000000
  0
INSERT
  5
218
100
AcDbEntity
  8
MAIN0
  6
BYBLOCK
 62
0
100
AcDbBlockReference
  2
_OPEN
 10
248.4114971444657
 20
146.8373063080001
 30
0.0000000000000000
 41
4.000000000000000
 42
4.000000000000000
 43
4.000000000000000
 50
180.0000000000000
  0
INSERT
  5
219
100
AcDbEntity
  8
MAIN0
  6
BYBLOCK
 62
0
100
AcDbBlockReference
  2
_OPEN
 10
275.4014971444664
 20
146.8373063080001
 30
0.0000000000000000
 41
4.000000000000000
 42
4.000000000000000
 43
4.000000000000000
 50
0.0000000000000000
  0
LINE
  5
21A
100
AcDbEntity
  8
MAIN0
  6
BYBLOCK
 62
0
100
AcDbLine
 10
275.4014971444664
 20
163.9699033587561
 30
0.0000000000000000
 11
275.4014971444664
 21
142.8373063080001
 31
0.0000000000000000
  0
MTEXT
  5
21B
100
AcDbEntity
  8
MAIN0
  6
BYBLOCK
 62
0
100
AcDbMText
 10
261.9064971444660
 20
150.4373062126326
 30
0.0000000000000000
 40
6.199999809265137
 41
0.0000000000000000
 71
     5
 72
     1
  1
\A1;26.99
 11
1.000000000000000
 21
0.0000000000000000
 31
0.0000000000000000
  7
STANDARD
  0
ENDBLK
  5
21C
100
AcDbEntity
  8
MAIN0
  6
CONTINUOUS
 62
3
100
AcDbBlockEnd
  0
BLOCK
  5
21E
100
AcDbEntity
  8
MAIN0
  6
CONTINUOUS
 62
3
100
AcDbBlockBegin
  2
*D2
 70
    65
 10
0.0
 20
0.0
 30
0.0
  0
LINE
  5
21F
100
AcDbEntity
  8
MAIN0
  6
BYBLOCK
 62
0
100
AcDbLine
 10
259.5264971683087
 20
167.4263482678482
 30
0.0000000000000000
 11
335.5908472158390
 21
167.4263482678482
 31
0.0000000000000000
  0
LINE
  5
220
100
AcDbEntity
  8
MAIN0
  6
BYBLOCK
 62
0
100
AcDbLine
 10
331.5908472158390
 20
171.4263482678482
 30
0.0000000000000000
 11
331.5908472158390
 21
215.4263482678900
 31
0.0000000000000000
  0
INSERT
  5
221
100
AcDbEntity
  8
MAIN0
  6
BYBLOCK
 62
0
100
AcDbBlockReference
  2
_OPEN
 10
331.5908472158390
 20
167.4263482678482
 30
0.0000000000000000
 41
4.000000000000000
 42
4.000000000000000
 43
4.000000000000000
 50
270.0000000000000
  0
INSERT
  5
222
100
AcDbEntity
  8
MAIN0
  6
BYBLOCK
 62
0
100
AcDbBlockReference
  2
_OPEN
 10
331.5908472158390
 20
219.4263482678900
 30
0.0000000000000000
 41
4.000000000000000
 42
4.000000000000000
 43
4.000000000000000
 50
90.00000000000000
  0
LINE
  5
223
100
AcDbEntity
  8
MAIN0
  6
BYBLOCK
 62
0
100
AcDbLine
 10
308.5114971683223
 20
219.4263482678900
 30
0.0000000000000000
 11
335.5908472158390
 21
219.4263482678900
 31
0.0000000000000000
  0
MTEXT
  5
224
100
AcDbEntity
  8
MAIN0
  6
BYBLOCK
 62
0
100
AcDbMText
 10
327.9908473112064
 20
193.4263482678691
 30
0.0000000000000000
 40
6.199999809265137
 41
0.0000000000000000
 71
     5
 72
     1
  1
\A1;52
 11
6.123233995736766e-017
 21
1.000000000000000
 31
0.0000000000000000
  7
STANDARD
  0
ENDBLK
  5
225
100
AcDbEntity
  8
MAIN0
  6
CONTINUOUS
 62
3
100
AcDbBlockEnd
  0
BLOCK
  5
227
100
AcDbEntity
  8
MAIN0
  6
CONTINUOUS
 62
3
100
AcDbBlockBegin
  2
*D3
 70
    65
 10
0.0
 20
0.0
 30
0.0
  0
LINE
  5
228
100
AcDbEntity
  8
MAIN0
  6
BYBLOCK
 62
0
100
AcDbLine
 10
308.4114971444800
 20
219.5263482917332
 30
0.0000000000000000
 11
308.4114971444800
 21
240.8373063080001
 31
0.0000000000000000
  0
LINE
  5
229
100
AcDbEntity
  8
MAIN0
  6
BYBLOCK
 62
0
100
AcDbLine
 10
304.4114971444800
 20
236.8373063080001
 30
0.0000000000000000
 11
202.4114971444800
 21
236.8373063080001
 31
0.0000000000000000
  0
INSERT
  5
22A
100
AcDbEntity
  8
MAIN0
  6
BYBLOCK
 62
0
100
AcDbBlockReference
  2
_OPEN
 10
308.4114971444800
 20
236.8373063080001
 30
0.0000000000000000
 41
4.000000000000000
 42
4.000000000000000
 43
4.000000000000000
 50
360.0000000000000
  0
INSERT
  5
22B
100
AcDbEntity
  8
MAIN0
  6
BYBLOCK
 62
0
100
AcDbBlockReference
  2
_OPEN
 10
198.4114971444800
 20
236.8373063080001
 30
0.0000000000000000
 41
4.000000000000000
 42
4.000000000000000
 43
4.000000000000000
 50
180.0000000000000
  0
LINE
  5
22C
100
AcDbEntity
  8
MAIN0
  6
BYBLOCK
 62
0
100
AcDbLine
 10
198.4114971444800
 20
219.5263482916390
 30
0.0000000000000000
 11
198.4114971444800
 21
240.8373063080001
 31
0.0000000000000000
  0
MTEXT
  5
22D
100
AcDbEntity
  8
MAIN0
  6
BYBLOCK
 62
0
100
AcDbMText
 10
253.4114971444800
 20
240.4373062126326
 30
0.0000000000000000
 40
6.199999809265137
 41
0.0000000000000000
 71
     5
 72
     1
  1
\A1;110
 11
1.000000000000000
 21
0.0000000000000000
 31
0.0000000000000000
  7
STANDARD
  0
ENDBLK
  5
22E
100
AcDbEntity
  8
MAIN0
  6
CONTINUOUS
 62
3
100
AcDbBlockEnd
  0
BLOCK
  5
230
100
AcDbEntity
  8
MAIN0
  6
CONTINUOUS
 62
3
100
AcDbBlockBegin
  2
*D4
 70
    65
 10
0.0
 20
0.0
 30
0.0
  0
LINE
  5
231
100
AcDbEntity
  8
MAIN0
  6
BYBLOCK
 62
0
100
AcDbLine
 10
218.5394414952139
 20
565.3061730662910
 30
0.0000000000000000
 11
218.5394414952139
 21
624.0210745606862
 31
0.0000000000000000
  0
LINE
  5
232
100
AcDbEntity
  8
MAIN0
  6
BYBLOCK
 62
0
100
AcDbLine
 10
214.5394414952139
 20
620.0210745606862
 30
0.0000000000000000
 11
136.5394414952139
 21
620.0210745606862
 31
0.0000000000000000
  0
INSERT
  5
233
100
AcDbEntity
  8
MAIN0
  6
BYBLOCK
 62
0
100
AcDbBlockReference
  2
_OPEN
 10
218.5394414952139
 20
620.0210745606862
 30
0.0000000000000000
 41
4.000000000000000
 42
4.000000000000000
 43
4.000000000000000
 50
360.0000000000000
  0
INSERT
  5
234
100
AcDbEntity
  8
MAIN0
  6
BYBLOCK
 62
0
100
AcDbBlockReference
  2
_OPEN
 10
132.5394414952139
 20
620.0210745606862
 30
0.0000000000000000
 41
4.000000000000000
 42
4.000000000000000
 43
4.000000000000000
 50
180.0000000000000
  0
LINE
  5
235
100
AcDbEntity
  8
MAIN0
  6
BYBLOCK
 62
0
100
AcDbLine
 10
132.5394414952139
 20
566.3061730662910
 30
0.0000000000000000
 11
132.5394414952139
 21
624.0210745606862
 31
0.0000000000000000
  0
MTEXT
  5
236
100
AcDbEntity
  8
MAIN0
  6
BYBLOCK
 62
0
100
AcDbMText
 10
175.5394414952139
 20
623.6210744653188
 30
0.0000000000000000
 40
6.199999809265137
 41
0.0000000000000000
 71
     5
 72
     1
  1
\A1;86
 11
1.000000000000000
 21
0.0000000000000000
 31
0.0000000000000000
  7
STANDARD
  0
ENDBLK
  5
237
100
AcDbEntity
  8
MAIN0
  6
CONTINUOUS
 62
3
100
AcDbBlockEnd
  0
BLOCK
  5
239
100
AcDbEntity
  8
MAIN0
  6
CONTINUOUS
 62
3
100
AcDbBlockBegin
  2
*D5
 70
    65
 10
0.0
 20
0.0
 30
0.0
  0
LINE
  5
23A
100
AcDbEntity
  8
MAIN0
  6
BYBLOCK
 62
0
100
AcDbLine
 10
218.5394414952139
 20
565.3061730662910
 30
0.0000000000000000
 11
218.5394414952139
 21
612.6573967302415
 31
0.0000000000000000
  0
LINE
  5
23B
100
AcDbEntity
  8
MAIN0
  6
BYBLOCK
 62
0
100
AcDbLine
 10
214.5394414952139
 20
608.6573967302415
 30
0.0000000000000000
 11
168.0394414952139
 21
608.6573967302415
 31
0.0000000000000000
  0
INSERT
  5
23C
100
AcDbEntity
  8
MAIN0
  6
BYBLOCK
 62
0
100
AcDbBlockReference
  2
_OPEN
 10
218.5394414952139
 20
608.6573967302415
 30
0.0000000000000000
 41
4.000000000000000
 42
4.000000000000000
 43
4.000000000000000
 50
360.0000000000000
  0
INSERT
  5
23D
100
AcDbEntity
  8
MAIN0
  6
BYBLOCK
 62
0
100
AcDbBlockReference
  2
_OPEN
 10
164.0394414952139
 20
608.6573967302415
 30
0.0000000000000000
 41
4.000000000000000
 42
4.000000000000000
 43
4.000000000000000
 50
180.0000000000000
  0
LINE
  5
23E
100
AcDbEntity
  8
MAIN0
  6
BYBLOCK
 62
0
100
AcDbLine
 10
164.0394414952139
 20
573.9351901558764
 30
0.0000000000000000
 11
164.0394414952139
 21
612.6573967302415
 31
0.0000000000000000
  0
MTEXT
  5
23F
100
AcDbEntity
  8
MAIN0
  6
BYBLOCK
 62
0
100
AcDbMText
 10
191.2894414952139
 20
612.2573966348741
 30
0.0000000000000000
 40
6.199999809265137
 41
0.0000000000000000
 71
     5
 72
     1
  1
\A1;54.5
 11
1.000000000000000
 21
0.0000000000000000
 31
0.0000000000000000
  7
STANDARD
  0
ENDBLK
  5
240
100
AcDbEntity
  8
MAIN0
  6
CONTINUOUS
 62
3
100
AcDbBlockEnd
  0
BLOCK
  5
242
100
AcDbEntity
  8
MAIN0
  6
CONTINUOUS
 62
3
100
AcDbBlockBegin
  2
*D6
 70
    65
 10
0.0
 20
0.0
 30
0.0
  0
LINE
  5
243
100
AcDbEntity
  8
MAIN0
  6
BYBLOCK
 62
0
100
AcDbLine
 10
164.0394414952139
 20
573.9351901558764
 30
0.0000000000000000
 11
164.0394414952139
 21
612.6573967302415
 31
0.0000000000000000
  0
LINE
  5
244
100
AcDbEntity
  8
MAIN0
  6
BYBLOCK
 62
0
100
AcDbLine
 10
160.0394414952139
 20
608.6573967302415
 30
0.0000000000000000
 11
136.5394414952139
 21
608.6573967302415
 31
0.0000000000000000
  0
INSERT
  5
245
100
AcDbEntity
  8
MAIN0
  6
BYBLOCK
 62
0
100
AcDbBlockReference
  2
_OPEN
 10
164.0394414952139
 20
608.6573967302415
 30
0.0000000000000000
 41
4.000000000000000
 42
4.000000000000000
 43
4.000000000000000
 50
360.0000000000000
  0
INSERT
  5
246
100
AcDbEntity
  8
MAIN0
  6
BYBLOCK
 62
0
100
AcDbBlockReference
  2
_OPEN
 10
132.5394414952139
 20
608.6573967302415
 30
0.0000000000000000
 41
4.000000000000000
 42
4.000000000000000
 43
4.000000000000000
 50
180.0000000000000
  0
LINE
  5
247
100
AcDbEntity
  8
MAIN0
  6
BYBLOCK
 62
0
100
AcDbLine
 10
132.5394414952139
 20
566.3061730662910
 30
0.0000000000000000
 11
132.5394414952139
 21
612.6573967302415
 31
0.0000000000000000
  0
MTEXT
  5
248
100
AcDbEntity
  8
MAIN0
  6
BYBLOCK
 62
0
100
AcDbMText
 10
148.2894414952139
 20
612.2573966348741
 30
0.0000000000000000
 40
6.199999809265137
 41
0.0000000000000000
 71
     5
 72
     1
  1
\A1;31.5
 11
1.000000000000000
 21
0.0000000000000000
 31
0.0000000000000000
  7
STANDARD
  0
ENDBLK
  5
249
100
AcDbEntity
  8
MAIN0
  6
CONTINUOUS
 62
3
100
AcDbBlockEnd
  0
BLOCK
  5
24B
100
AcDbEntity
  8
MAIN0
  6
CONTINUOUS
 62
3
100
AcDbBlockBegin
  2
*D7
 70
    65
 10
0.0
 20
0.0
 30
0.0
  0
LINE
  5
24C
100
AcDbEntity
  8
MAIN0
  6
BYBLOCK
 62
0
100
AcDbLine
 10
131.9394414713720
 20
565.7061730424491
 30
0.0000000000000000
 11
60.17146085015241
 21
565.7061730424491
 31
0.0000000000000000
  0
LINE
  5
24D
100
AcDbEntity
  8
MAIN0
  6
BYBLOCK
 62
0
100
AcDbLine
 10
64.17146085015241
 20
561.7061730424491
 30
0.0000000000000000
 11
64.17146085015241
 21
296.7061730424491
 31
0.0000000000000000
  0
INSERT
  5
24E
100
AcDbEntity
  8
MAIN0
  6
BYBLOCK
 62
0
100
AcDbBlockReference
  2
_OPEN
 10
64.17146085015241
 20
565.7061730424491
 30
0.0000000000000000
 41
4.000000000000000
 42
4.000000000000000
 43
4.000000000000000
 50
90.00000000000000
  0
INSERT
  5
24F
100
AcDbEntity
  8
MAIN0
  6
BYBLOCK
 62
0
100
AcDbBlockReference
  2
_OPEN
 10
64.17146085015241
 20
292.7061730424491
 30
0.0000000000000000
 41
4.000000000000000
 42
4.000000000000000
 43
4.000000000000000
 50
270.0000000000000
  0
LINE
  5
250
100
AcDbEntity
  8
MAIN0
  6
BYBLOCK
 62
0
100
AcDbLine
 10
132.9394414713720
 20
292.7061730424491
 30
0.0000000000000000
 11
60.17146085015241
 21
292.7061730424491
 31
0.0000000000000000
  0
MTEXT
  5
251
100
AcDbEntity
  8
MAIN0
  6
BYBLOCK
 62
0
100
AcDbMText
 10
60.57146094551985
 20
429.2061730424491
 30
0.0000000000000000
 40
6.199999809265137
 41
0.0000000000000000
 71
     5
 72
     1
  1
\A1;\U+2205273
 11
6.123233995736766e-017
 21
1.000000000000000
 31
0.0000000000000000
  7
STANDARD
  0
ENDBLK
  5
252
100
AcDbEntity
  8
MAIN0
  6
CONTINUOUS
 62
3
100
AcDbBlockEnd
  0
BLOCK
  5
254
100
AcDbEntity
  8
MAIN0
  6
CONTINUOUS
 62
3
100
AcDbBlockBegin
  2
*D8
 70
    65
 10
0.0
 20
0.0
 30
0.0
  0
LINE
  5
255
100
AcDbEntity
  8
MAIN0
  6
BYBLOCK
 62
0
100
AcDbLine
 10
132.5394414952139
 20
409.2061730424491
 30
0.0000000000000000
 11
138.5394414952139
 21
409.2061730424491
 31
0.0000000000000000
  0
INSERT
  5
256
100
AcDbEntity
  8
MAIN0
  6
BYBLOCK
 62
0
100
AcDbBlockReference
  2
_OPEN
 10
132.5394414952139
 20
409.2061730424491
 30
0.0000000000000000
 41
4.000000000000000
 42
4.000000000000000
 43
4.000000000000000
 50
0.0000000000000000
  0
INSERT
  5
257
100
AcDbEntity
  8
MAIN0
  6
BYBLOCK
 62
0
100
AcDbBlockReference
  2
_OPEN
 10
138.5394414952139
 20
409.2061730424491
 30
0.0000000000000000
 41
4.000000000000000
 42
4.000000000000000
 43
4.000000000000000
 50
180.0000000000000
  0
LINE
  5
258
100
AcDbEntity
  8
MAIN0
  6
BYBLOCK
 62
0
100
AcDbLine
 10
128.5394414952139
 20
409.2061730424491
 30
0.0000000000000000
 11
124.7589883811003
 21
409.2061730424491
 31
0.0000000000000000
  0
LINE
  5
259
100
AcDbEntity
  8
MAIN0
  6
BYBLOCK
 62
0
100
AcDbLine
 10
142.5394414952139
 20
409.2061730424491
 30
0.0000000000000000
 11
144.5394414952139
 21
409.2061730424491
 31
0.0000000000000000
  0
MTEXT
  5
25A
100
AcDbEntity
  8
MAIN0
  6
BYBLOCK
 62
0
100
AcDbMText
 10
126.7589883811003
 20
413.0561729470816
 30
0.0000000000000000
 40
6.199999809265137
 41
0.0000000000000000
 71
     5
 72
     1
  1
\A1;6
 11
1.000000000000000
 21
0.0000000000000000
 31
0.0000000000000000
  7
STANDARD
  0
ENDBLK
  5
25B
100
AcDbEntity
  8
MAIN0
  6
CONTINUOUS
 62
3
100
AcDbBlockEnd
  0
BLOCK
  5
25D
100
AcDbEntity
  8
MAIN0
  6
CONTINUOUS
 62
3
100
AcDbBlockBegin
  2
*D9
 70
    65
 10
0.0
 20
0.0
 30
0.0
  0
LINE
  5
25E
100
AcDbEntity
  8
MAIN0
  6
BYBLOCK
 62
0
100
AcDbLine
 10
799.8523626258575
 20
543.8312927974957
 30
0.0000000000000000
 11
799.8523626258575
 21
603.5167040107838
 31
0.0000000000000000
  0
LINE
  5
25F
100
AcDbEntity
  8
MAIN0
  6
BYBLOCK
 62
0
100
AcDbLine
 10
795.8523626258575
 20
599.5167040107838
 30
0.0000000000000000
 11
583.8523626258586
 21
599.5167040107838
 31
0.0000000000000000
  0
INSERT
  5
260
100
AcDbEntity
  8
MAIN0
  6
BYBLOCK
 62
0
100
AcDbBlockReference
  2
_OPEN
 10
799.8523626258575
 20
599.5167040107838
 30
0.0000000000000000
 41
4.000000000000000
 42
4.000000000000000
 43
4.000000000000000
 50
360.0000000000000
  0
INSERT
  5
261
100
AcDbEntity
  8
MAIN0
  6
BYBLOCK
 62
0
100
AcDbBlockReference
  2
_OPEN
 10
579.8523626258586
 20
599.5167040107838
 30
0.0000000000000000
 41
4.000000000000000
 42
4.000000000000000
 43
4.000000000000000
 50
180.0000000000000
  0
LINE
  5
262
100
AcDbEntity
  8
MAIN0
  6
BYBLOCK
 62
0
100
AcDbLine
 10
579.8523626258586
 20
543.8312927974957
 30
0.0000000000000000
 11
579.8523626258586
 21
603.5167040107838
 31
0.0000000000000000
  0
MTEXT
  5
263
100
AcDbEntity
  8
MAIN0
  6
BYBLOCK
 62
0
100
AcDbMText
 10
689.8523626258581
 20
603.1167039154163
 30
0.0000000000000000
 40
6.199999809265137
 41
0.0000000000000000
 71
     5
 72
     1
  1
\A1;360
 11
1.000000000000000
 21
0.0000000000000000
 31
0.0000000000000000
  7
STANDARD
  0
ENDBLK
  5
264
100
AcDbEntity
  8
MAIN0
  6
CONTINUOUS
 62
3
100
AcDbBlockEnd
  0
BLOCK
  5
266
100
AcDbEntity
  8
MAIN0
  6
CONTINUOUS
 62
3
100
AcDbBlockBegin
  2
*D10
 70
    65
 10
0.0
 20
0.0
 30
0.0
  0
LINE
  5
267
100
AcDbEntity
  8
MAIN0
  6
BYBLOCK
 62
0
100
AcDbLine
 10
676.8523626258575
 20
556.8312927974956
 30
0.0000000000000000
 11
676.8523626258575
 21
583.5167040107838
 31
0.0000000000000000
  0
LINE
  5
268
100
AcDbEntity
  8
MAIN0
  6
BYBLOCK
 62
0
100
AcDbLine
 10
680.8523626258575
 20
579.5167040107838
 30
0.0000000000000000
 11
698.8523626258575
 21
579.5167040107838
 31
0.0000000000000000
  0
INSERT
  5
269
100
AcDbEntity
  8
MAIN0
  6
BYBLOCK
 62
0
100
AcDbBlockReference
  2
_OPEN
 10
676.8523626258575
 20
579.5167040107838
 30
0.0000000000000000
 41
4.000000000000000
 42
4.000000000000000
 43
4.000000000000000
 50
180.0000000000000
  0
INSERT
  5
26A
100
AcDbEntity
  8
MAIN0
  6
BYBLOCK
 62
0
100
AcDbBlockReference
  2
_OPEN
 10
702.8523626258575
 20
579.5167040107838
 30
0.0000000000000000
 41
4.000000000000000
 42
4.000000000000000
 43
4.000000000000000
 50
0.0000000000000000
  0
LINE
  5
26B
100
AcDbEntity
  8
MAIN0
  6
BYBLOCK
 62
0
100
AcDbLine
 10
702.8523626258575
 20
556.8312927974956
 30
0.0000000000000000
 11
702.8523626258575
 21
583.5167040107838
 31
0.0000000000000000
  0
MTEXT
  5
26C
100
AcDbEntity
  8
MAIN0
  6
BYBLOCK
 62
0
100
AcDbMText
 10
689.8523626258575
 20
583.1167039154163
 30
0.0000000000000000
 40
6.199999809265137
 41
0.0000000000000000
 71
     5
 72
     1
  1
\A1;\U+220526
 11
1.000000000000000
 21
0.0000000000000000
 31
0.0000000000000000
  7
STANDARD
  0
ENDBLK
  5
26D
100
AcDbEntity
  8
MAIN0
  6
CONTINUOUS
 62
3
100
AcDbBlockEnd
  0
BLOCK
  5
26F
100
AcDbEntity
  8
MAIN0
  6
CONTINUOUS
 62
3
100
AcDbBlockBegin
  2
*D11
 70
    65
 10
0.0
 20
0.0
 30
0.0
  0
LINE
  5
270
100
AcDbEntity
  8
MAIN0
  6
BYBLOCK
 62
0
100
AcDbLine
 10
647.6075703954302
 20
548.2312927736539
 30
0.0000000000000000
 11
647.6075703954302
 21
536.2312927736539
 31
0.0000000000000000
  0
INSERT
  5
271
100
AcDbEntity
  8
MAIN0
  6
BYBLOCK
 62
0
100
AcDbBlockReference
  2
_OPEN
 10
647.6075703954302
 20
548.2312927736539
 30
0.0000000000000000
 41
4.000000000000000
 42
4.000000000000000
 43
4.000000000000000
 50
270.0000000000000
  0
INSERT
  5
272
100
AcDbEntity
  8
MAIN0
  6
BYBLOCK
 62
0
100
AcDbBlockReference
  2
_OPEN
 10
647.6075703954302
 20
536.2312927736539
 30
0.0000000000000000
 41
4.000000000000000
 42
4.000000000000000
 43
4.000000000000000
 50
90.00000000000000
  0
LINE
  5
273
100
AcDbEntity
  8
MAIN0
  6
BYBLOCK
 62
0
100
AcDbLine
 10
647.6075703954302
 20
552.2312927736539
 30
0.0000000000000000
 11
647.6075703954302
 21
574.2744631306214
 31
0.0000000000000000
  0
LINE
  5
274
100
AcDbEntity
  8
MAIN0
  6
BYBLOCK
 62
0
100
AcDbLine
 10
647.6075703954302
 20
532.2312927736539
 30
0.0000000000000000
 11
647.6075703954302
 21
530.2312927736539
 31
0.0000000000000000
  0
MTEXT
  5
275
100
AcDbEntity
  8
MAIN0
  6
BYBLOCK
 62
0
100
AcDbMText
 10
643.5075704907977
 20
567.5744633213562
 30
0.0000000000000000
 40
6.199999809265137
 41
0.0000000000000000
 71
     5
 72
     1
  1
\A1;\U+220512
 11
6.123233995736766e-017
 21
1.000000000000000
 31
0.0000000000000000
  7
STANDARD
  0
ENDBLK
  5
276
100
AcDbEntity
  8
MAIN0
  6
CONTINUOUS
 62
3
100
AcDbBlockEnd
  0
BLOCK
  5
278
100
AcDbEntity
  8
MAIN0
  6
CONTINUOUS
 62
3
100
AcDbBlockBegin
  2
*D12
 70
    65
 10
0.0
 20
0.0
 30
0.0
  0
LINE
  5
279
100
AcDbEntity
  8
MAIN0
  6
BYBLOCK
 62
0
100
AcDbLine
 10
677.2523626020156
 20
557.2312927736539
 30
0.0000000000000000
 11
612.0303878574758
 21
557.2312927736539
 31
0.0000000000000000
  0
LINE
  5
27A
100
AcDbEntity
  8
MAIN0
  6
BYBLOCK
 62
0
100
AcDbLine
 10
616.0303878574758
 20
553.2312927736539
 30
0.0000000000000000
 11
616.0303878574758
 21
546.2312927736539
 31
0.0000000000000000
  0
INSERT
  5
27B
100
AcDbEntity
  8
MAIN0
  6
BYBLOCK
 62
0
100
AcDbBlockReference
  2
_OPEN
 10
616.0303878574758
 20
557.2312927736539
 30
0.0000000000000000
 41
4.000000000000000
 42
4.000000000000000
 43
4.000000000000000
 50
90.00000000000000
  0
INSERT
  5
27C
100
AcDbEntity
  8
MAIN0
  6
BYBLOCK
 62
0
100
AcDbBlockReference
  2
_OPEN
 10
616.0303878574758
 20
542.2312927736539
 30
0.0000000000000000
 41
4.000000000000000
 42
4.000000000000000
 43
4.000000000000000
 50
270.0000000000000
  0
LINE
  5
27D
100
AcDbEntity
  8
MAIN0
  6
BYBLOCK
 62
0
100
AcDbLine
 10
616.0303878574758
 20
557.2312927736539
 30
0.0000000000000000
 11
616.0303878574758
 21
566.2852182773713
 31
0.0000000000000000
  0
MTEXT
  5
27E
100
AcDbEntity
  8
MAIN0
  6
BYBLOCK
 62
0
100
AcDbMText
 10
612.1803879528433
 20
562.1852183727388
 30
0.0000000000000000
 40
6.199999809265137
 41
0.0000000000000000
 71
     5
 72
     1
  1
\A1;15
 11
6.123233995736766e-017
 21
1.000000000000000
 31
0.0000000000000000
  7
STANDARD
  0
ENDBLK
  5
27F
100
AcDbEntity
  8
MAIN0
  6
CONTINUOUS
 62
3
100
AcDbBlockEnd
  0
BLOCK
  5
281
100
AcDbEntity
  8
MAIN0
  6
CONTINUOUS
 62
3
100
AcDbBlockBegin
  2
*D13
 70
    65
 10
0.0
 20
0.0
 30
0.0
  0
LINE
  5
282
100
AcDbEntity
  8
MAIN0
  6
BYBLOCK
 62
0
100
AcDbLine
 10
702.4523626496994
 20
557.2312927736539
 30
0.0000000000000000
 11
751.6075703954302
 21
557.2312927736539
 31
0.0000000000000000
  0
LINE
  5
283
100
AcDbEntity
  8
MAIN0
  6
BYBLOCK
 62
0
100
AcDbLine
 10
747.6075703954302
 20
553.2312927736539
 30
0.0000000000000000
 11
747.6075703954302
 21
401.2312927736538
 31
0.0000000000000000
  0
INSERT
  5
284
100
AcDbEntity
  8
MAIN0
  6
BYBLOCK
 62
0
100
AcDbBlockReference
  2
_OPEN
 10
747.6075703954302
 20
557.2312927736539
 30
0.0000000000000000
 41
4.000000000000000
 42
4.000000000000000
 43
4.000000000000000
 50
90.00000000000000
  0
INSERT
  5
285
100
AcDbEntity
  8
MAIN0
  6
BYBLOCK
 62
0
100
AcDbBlockReference
  2
_OPEN
 10
747.6075703954302
 20
397.2312927736538
 30
0.0000000000000000
 41
4.000000000000000
 42
4.000000000000000
 43
4.000000000000000
 50
270.0000000000000
  0
LINE
  5
286
100
AcDbEntity
  8
MAIN0
  6
BYBLOCK
 62
0
100
AcDbLine
 10
698.6023626496994
 20
397.2312927736538
 30
0.0000000000000000
 11
751.6075703954302
 21
397.2312927736538
 31
0.0000000000000000
  0
MTEXT
  5
287
100
AcDbEntity
  8
MAIN0
  6
BYBLOCK
 62
0
100
AcDbMText
 10
744.0075704907977
 20
477.2312927736538
 30
0.0000000000000000
 40
6.199999809265137
 41
0.0000000000000000
 71
     5
 72
     1
  1
\A1;160
 11
6.123233995736766e-017
 21
1.000000000000000
 31
0.0000000000000000
  7
STANDARD
  0
ENDBLK
  5
288
100
AcDbEntity
  8
MAIN0
  6
CONTINUOUS
 62
3
100
AcDbBlockEnd
  0
BLOCK
  5
28A
100
AcDbEntity
  8
MAIN0
  6
CONTINUOUS
 62
3
100
AcDbBlockBegin
  2
*D14
 70
    65
 10
0.0
 20
0.0
 30
0.0
  0
LINE
  5
28B
100
AcDbEntity
  8
MAIN0
  6
BYBLOCK
 62
0
100
AcDbLine
 10
698.6023626496994
 20
397.2312927736538
 30
0.0000000000000000
 11
721.6075703954302
 21
397.2312927736538
 31
0.0000000000000000
  0
LINE
  5
28C
100
AcDbEntity
  8
MAIN0
  6
BYBLOCK
 62
0
100
AcDbLine
 10
717.6075703954302
 20
401.2312927736538
 30
0.0000000000000000
 11
717.6075703954302
 21
409.2312927736538
 31
0.0000000000000000
  0
INSERT
  5
28D
100
AcDbEntity
  8
MAIN0
  6
BYBLOCK
 62
0
100
AcDbBlockReference
  2
_OPEN
 10
717.6075703954302
 20
397.2312927736538
 30
0.0000000000000000
 41
4.000000000000000
 42
4.000000000000000
 43
4.000000000000000
 50
270.0000000000000
  0
INSERT
  5
28E
100
AcDbEntity
  8
MAIN0
  6
BYBLOCK
 62
0
100
AcDbBlockReference
  2
_OPEN
 10
717.6075703954302
 20
413.2312927736538
 30
0.0000000000000000
 41
4.000000000000000
 42
4.000000000000000
 43
4.000000000000000
 50
90.00000000000000
  0
LINE
  5
28F
100
AcDbEntity
  8
MAIN0
  6
BYBLOCK
 62
0
100
AcDbLine
 10
699.3023626496994
 20
413.2312927736538
 30
0.0000000000000000
 11
721.6075703954302
 21
413.2312927736538
 31
0.0000000000000000
  0
MTEXT
  5
290
100
AcDbEntity
  8
MAIN0
  6
BYBLOCK
 62
0
100
AcDbMText
 10
714.0075704907977
 20
405.2312927736538
 30
0.0000000000000000
 40
6.199999809265137
 41
0.0000000000000000
 71
     5
 72
     1
  1
\A1;16
 11
6.123233995736766e-017
 21
1.000000000000000
 31
0.0000000000000000
  7
STANDARD
  0
ENDBLK
  5
291
100
AcDbEntity
  8
MAIN0
  6
CONTINUOUS
 62
3
100
AcDbBlockEnd
  0
BLOCK
  5
293
100
AcDbEntity
  8
MAIN0
  6
CONTINUOUS
 62
3
100
AcDbBlockBegin
  2
*D15
 70
    65
 10
0.0
 20
0.0
 30
0.0
  0
LINE
  5
294
100
AcDbEntity
  8
MAIN0
  6
BYBLOCK
 62
0
100
AcDbLine
 10
682.8523626258575
 20
489.5167040107837
 30
0.0000000000000000
 11
696.8523626258575
 21
489.5167040107837
 31
0.0000000000000000
  0
INSERT
  5
295
100
AcDbEntity
  8
MAIN0
  6
BYBLOCK
 62
0
100
AcDbBlockReference
  2
_OPEN
 10
678.8523626258575
 20
489.5167040107837
 30
0.0000000000000000
 41
4.000000000000000
 42
4.000000000000000
 43
4.000000000000000
 50
180.0000000000000
  0
INSERT
  5
296
100
AcDbEntity
  8
MAIN0
  6
BYBLOCK
 62
0
100
AcDbBlockReference
  2
_OPEN
 10
700.8523626258575
 20
489.5167040107837
 30
0.0000000000000000
 41
4.000000000000000
 42
4.000000000000000
 43
4.000000000000000
 50
0.0000000000000000
  0
MTEXT
  5
297
100
AcDbEntity
  8
MAIN0
  6
BYBLOCK
 62
0
100
AcDbMText
 10
689.8523626258575
 20
493.1167039154163
 30
0.0000000000000000
 40
6.199999809265137
 41
0.0000000000000000
 71
     5
 72
     1
  1
\A1;\U+220522
 11
1.000000000000000
 21
0.0000000000000000
 31
0.0000000000000000
  7
STANDARD
  0
ENDBLK
  5
298
100
AcDbEntity
  8
MAIN0
  6
CONTINUOUS
 62
3
100
AcDbBlockEnd
  0
BLOCK
  5
29A
100
AcDbEntity
  8
MAIN0
  6
CONTINUOUS
 62
3
100
AcDbBlockBegin
  2
*D16
 70
    65
 10
0.0
 20
0.0
 30
0.0
  0
LINE
  5
29B
100
AcDbEntity
  8
MAIN0
  6
BYBLOCK
 62
0
100
AcDbLine
 10
698.8337334926171
 20
363.7516070279095
 30
0.0000000000000000
 11
715.8774474532678
 21
346.7078930673239
 31
0.0000000000000000
  0
LINE
  5
29C
100
AcDbEntity
  8
MAIN0
  6
BYBLOCK
 62
0
100
AcDbLine
 10
713.0490203285160
 20
349.5363201920650
 30
0.0000000000000000
 11
704.5637389542939
 21
341.0510388178104
 31
0.0000000000000000
  0
INSERT
  5
29D
100
AcDbEntity
  8
MAIN0
  6
BYBLOCK
 62
0
100
AcDbBlockReference
  2
_OPEN
 10
713.0490203285160
 20
349.5363201920650
 30
0.0000000000000000
 41
4.000000000000000
 42
4.000000000000000
 43
4.000000000000000
 50
225.0000000001096
  0
INSERT
  5
29E
100
AcDbEntity
  8
MAIN0
  6
BYBLOCK
 62
0
100
AcDbBlockReference
  2
_OPEN
 10
704.5637389542939
 20
341.0510388178104
 30
0.0000000000000000
 41
4.000000000000000
 42
4.000000000000000
 43
4.000000000000000
 50
45.00000000010959
  0
LINE
  5
29F
100
AcDbEntity
  8
MAIN0
  6
BYBLOCK
 62
0
100
AcDbLine
 10
715.8774474532568
 20
352.3647473168166
 30
0.0000000000000000
 11
736.7679046233999
 21
373.2552044870394
 31
0.0000000000000000
  0
LINE
  5
2A0
100
AcDbEntity
  8
MAIN0
  6
BYBLOCK
 62
0
100
AcDbLine
 10
701.7353118295530
 20
338.2226116930588
 30
0.0000000000000000
 11
700.3210982671826
 21
336.8083981306830
 31
0.0000000000000000
  0
LINE
  5
2A1
100
AcDbEntity
  8
MAIN0
  6
BYBLOCK
 62
0
100
AcDbLine
 10
690.3484521184449
 20
355.2663256536049
 30
0.0000000000000000
 11
707.3921660790454
 21
338.2226116930696
 31
0.0000000000000000
  0
MTEXT
  5
2A2
100
AcDbEntity
  8
MAIN0
  6
BYBLOCK
 62
0
100
AcDbMText
 10
725.2067087051762
 20
367.4922840396424
 30
0.0000000000000000
 40
6.199999809265137
 41
0.0000000000000000
 71
     5
 72
     1
  1
\A1;12\H0.903226x;\S 0^ -0.15;
 11
0.7071067811851975
 21
0.7071067811878975
 31
0.0000000000000000
  7
STANDARD
  0
ENDBLK
  5
2A3
100
AcDbEntity
  8
MAIN0
  6
CONTINUOUS
 62
3
100
AcDbBlockEnd
  0
BLOCK
  5
2A5
100
AcDbEntity
  8
MAIN0
  6
CONTINUOUS
 62
3
100
AcDbBlockBegin
  2
*D17
 70
    65
 10
0.0
 20
0.0
 30
0.0
  0
LINE
  5
2A6
100
AcDbEntity
  8
MAIN0
  6
BYBLOCK
 62
0
100
AcDbLine
 10
423.7595741249946
 20
505.1801182358289
 30
0.0000000000000000
 11
398.3595827401579
 21
574.9660210200470
 31
0.0000000000000000
  0
ARC
  5
2A7
100
AcDbEntity
  8
MAIN0
  6
BYBLOCK
 62
0
100
AcDbCircle
 10
451.4118287556914
 20
429.2061730409388
 30
0.0000000000000000
 40
151.1143903388251
100
AcDbArc
 50
91.51662007528510
 51
108.4833799247050
  0
INSERT
  5
2A8
100
AcDbEntity
  8
MAIN0
  6
BYBLOCK
 62
0
100
AcDbBlockReference
  2
_OPEN
 10
451.4118287556914
 20
580.3205633797639
 30
0.0000000000000000
 41
4.000000000000000
 42
4.000000000000000
 43
4.000000000000000
 50
360.0000000000000
  0
INSERT
  5
2A9
100
AcDbEntity
  8
MAIN0
  6
BYBLOCK
 62
0
100
AcDbBlockReference
  2
_OPEN
 10
399.7276633134600
 20
571.2072505369031
 30
0.0000000000000000
 41
4.000000000000000
 42
4.000000000000000
 43
4.000000000000000
 50
199.9999999999901
  0
MTEXT
  5
2AA
100
AcDbEntity
  8
MAIN0
  6
BYBLOCK
 62
0
100
AcDbMText
 10
424.5459568310779
 20
581.5701040552546
 30
0.0000000000000000
 40
6.199999809265137
 41
0.0000000000000000
 71
     5
 72
     1
  1
\A1;20\U+00B0
 11
0.9848077530122230
 21
0.1736481776668453
 31
0.0000000000000000
  7
STANDARD
  0
ENDBLK
  5
2AB
100
AcDbEntity
  8
MAIN0
  6
CONTINUOUS
 62
3
100
AcDbBlockEnd
  0
BLOCK
  5
2AD
100
AcDbEntity
  8
MAIN0
  6
CONTINUOUS
 62
3
100
AcDbBlockBegin
  2
*D18
 70
    65
 10
0.0
 20
0.0
 30
0.0
  0
LINE
  5
2AE
100
AcDbEntity
  8
MAIN0
  6
BYBLOCK
 62
0
100
AcDbLine
 10
273.1394415190557
 20
390.7061730424491
 30
0.0000000000000000
 11
297.7824695010797
 21
390.7061730424491
 31
0.0000000000000000
  0
LINE
  5
2AF
100
AcDbEntity
  8
MAIN0
  6
BYBLOCK
 62
0
100
AcDbLine
 10
293.7824695010797
 20
386.7061730424491
 30
0.0000000000000000
 11
293.7824695010797
 21
294.7061730424491
 31
0.0000000000000000
  0
INSERT
  5
2B0
100
AcDbEntity
  8
MAIN0
  6
BYBLOCK
 62
0
100
AcDbBlockReference
  2
_OPEN
 10
293.7824695010797
 20
390.7061730424491
 30
0.0000000000000000
 41
4.000000000000000
 42
4.000000000000000
 43
4.000000000000000
 50
90.00000000000000
  0
INSERT
  5
2B1
100
AcDbEntity
  8
MAIN0
  6
BYBLOCK
 62
0
100
AcDbBlockReference
  2
_OPEN
 10
293.7824695010797
 20
290.7061730424491
 30
0.0000000000000000
 41
4.000000000000000
 42
4.000000000000000
 43
4.000000000000000
 50
270.0000000000000
  0
LINE
  5
2B2
100
AcDbEntity
  8
MAIN0
  6
BYBLOCK
 62
0
100
AcDbLine
 10
244.6394415190557
 20
290.7061730424491
 30
0.0000000000000000
 11
297.7824695010797
 21
290.7061730424491
 31
0.0000000000000000
  0
MTEXT
  5
2B3
100
AcDbEntity
  8
MAIN0
  6
BYBLOCK
 62
0
100
AcDbMText
 10
290.1824695964471
 20
340.7061730424491
 30
0.0000000000000000
 40
6.199999809265137
 41
0.0000000000000000
 71
     5
 72
     1
  1
\A1;100
 11
6.123233995736766e-017
 21
1.000000000000000
 31
0.0000000000000000
  7
STANDARD
  0
ENDBLK
  5
2B4
100
AcDbEntity
  8
MAIN0
  6
CONTINUOUS
 62
3
100
AcDbBlockEnd
  0
BLOCK
  5
2B6
100
AcDbEntity
  8
MAIN0
  6
CONTINUOUS
 62
3
100
AcDbBlockBegin
  2
*D19
 70
    65
 10
0.0
 20
0.0
 30
0.0
  0
LINE
  5
2B7
100
AcDbEntity
  8
MAIN0
  6
BYBLOCK
 62
0
100
AcDbLine
 10
222.5394414952139
 20
460.0086161520449
 30
0.0000000000000000
 11
268.5394414952139
 21
460.0086161520449
 31
0.0000000000000000
  0
INSERT
  5
2B8
100
AcDbEntity
  8
MAIN0
  6
BYBLOCK
 62
0
100
AcDbBlockReference
  2
_OPEN
 10
218.5394414952139
 20
460.0086161520449
 30
0.0000000000000000
 41
4.000000000000000
 42
4.000000000000000
 43
4.000000000000000
 50
180.0000000000000
  0
INSERT
  5
2B9
100
AcDbEntity
  8
MAIN0
  6
BYBLOCK
 62
0
100
AcDbBlockReference
  2
_OPEN
 10
272.5394414952139
 20
460.0086161520449
 30
0.0000000000000000
 41
4.000000000000000
 42
4.000000000000000
 43
4.000000000000000
 50
0.0000000000000000
  0
LINE
  5
2BA
100
AcDbEntity
  8
MAIN0
  6
BYBLOCK
 62
0
100
AcDbLine
 10
272.5394414952139
 20
447.3061730662909
 30
0.0000000000000000
 11
272.5394414952139
 21
464.0086161520449
 31
0.0000000000000000
  0
MTEXT
  5
2BB
100
AcDbEntity
  8
MAIN0
  6
BYBLOCK
 62
0
100
AcDbMText
 10
245.5394414952139
 20
463.6086160566774
 30
0.0000000000000000
 40
6.199999809265137
 41
0.0000000000000000
 71
     5
 72
     1
  1
\A1;54
 11
1.000000000000000
 21
0.0000000000000000
 31
0.0000000000000000
  7
STANDARD
  0
ENDBLK
  5
2BC
100
AcDbEntity
  8
MAIN0
  6
CONTINUOUS
 62
3
100
AcDbBlockEnd
  0
BLOCK
  5
2BE
100
AcDbEntity
  8
MAIN0
  6
CONTINUOUS
 62
3
100
AcDbBlockBegin
  2
*D20
 70
    65
 10
0.0
 20
0.0
 30
0.0
  0
LINE
  5
2BF
100
AcDbEntity
  8
MAIN0
  6
BYBLOCK
 62
0
100
AcDbLine
 10
148.4394414713720
 20
471.7061730424491
 30
0.0000000000000000
 11
111.0299214967289
 21
471.7061730424491
 31
0.0000000000000000
  0
LINE
  5
2C0
100
AcDbEntity
  8
MAIN0
  6
BYBLOCK
 62
0
100
AcDbLine
 10
115.0299214967289
 20
467.7061730424491
 30
0.0000000000000000
 11
115.0299214967289
 21
390.7061730424491
 31
0.0000000000000000
  0
INSERT
  5
2C1
100
AcDbEntity
  8
MAIN0
  6
BYBLOCK
 62
0
100
AcDbBlockReference
  2
_OPEN
 10
115.0299214967289
 20
471.7061730424491
 30
0.0000000000000000
 41
4.000000000000000
 42
4.000000000000000
 43
4.000000000000000
 50
90.00000000000000
  0
INSERT
  5
2C2
100
AcDbEntity
  8
MAIN0
  6
BYBLOCK
 62
0
100
AcDbBlockReference
  2
_OPEN
 10
115.0299214967289
 20
386.7061730424491
 30
0.0000000000000000
 41
4.000000000000000
 42
4.000000000000000
 43
4.000000000000000
 50
270.0000000000000
  0
LINE
  5
2C3
100
AcDbEntity
  8
MAIN0
  6
BYBLOCK
 62
0
100
AcDbLine
 10
148.4394414713720
 20
386.7061730424491
 30
0.0000000000000000
 11
111.0299214967289
 21
386.7061730424491
 31
0.0000000000000000
  0
MTEXT
  5
2C4
100
AcDbEntity
  8
MAIN0
  6
BYBLOCK
 62
0
100
AcDbMText
 10
111.4299215920963
 20
429.2061730424491
 30
0.0000000000000000
 40
6.199999809265137
 41
0.0000000000000000
 71
     5
 72
     1
  1
\A1;\U+220585
 11
6.123233995736766e-017
 21
1.000000000000000
 31
0.0000000000000000
  7
STANDARD
  0
ENDBLK
  5
2C5
100
AcDbEntity
  8
MAIN0
  6
CONTINUOUS
 62
3
100
AcDbBlockEnd
  0
BLOCK
  5
2C7
100
AcDbEntity
  8
MAIN0
  6
CONTINUOUS
 62
3
100
AcDbBlockBegin
  2
*D21
 70
    65
 10
0.0
 20
0.0
 30
0.0
  0
LINE
  5
2C8
100
AcDbEntity
  8
MAIN0
  6
BYBLOCK
 62
0
100
AcDbLine
 10
273.1394415190557
 20
446.7061730424491
 30
0.0000000000000000
 11
297.7824695010797
 21
446.7061730424491
 31
0.0000000000000000
  0
LINE
  5
2C9
100
AcDbEntity
  8
MAIN0
  6
BYBLOCK
 62
0
100
AcDbLine
 10
293.7824695010797
 20
442.7061730424491
 30
0.0000000000000000
 11
293.7824695010797
 21
415.7061730424491
 31
0.0000000000000000
  0
INSERT
  5
2CA
100
AcDbEntity
  8
MAIN0
  6
BYBLOCK
 62
0
100
AcDbBlockReference
  2
_OPEN
 10
293.7824695010797
 20
446.7061730424491
 30
0.0000000000000000
 41
4.000000000000000
 42
4.000000000000000
 43
4.000000000000000
 50
90.00000000000000
  0
INSERT
  5
2CB
100
AcDbEntity
  8
MAIN0
  6
BYBLOCK
 62
0
100
AcDbBlockReference
  2
_OPEN
 10
293.7824695010797
 20
411.7061730424491
 30
0.0000000000000000
 41
4.000000000000000
 42
4.000000000000000
 43
4.000000000000000
 50
270.0000000000000
  0
LINE
  5
2CC
100
AcDbEntity
  8
MAIN0
  6
BYBLOCK
 62
0
100
AcDbLine
 10
273.1394415190557
 20
411.7061730424491
 30
0.0000000000000000
 11
297.7824695010797
 21
411.7061730424491
 31
0.0000000000000000
  0
MTEXT
  5
2CD
100
AcDbEntity
  8
MAIN0
  6
BYBLOCK
 62
0
100
AcDbMText
 10
290.1824695964471
 20
429.2061730424491
 30
0.0000000000000000
 40
6.199999809265137
 41
0.0000000000000000
 71
     5
 72
     1
  1
\A1;35
 11
6.123233995736766e-017
 21
1.000000000000000
 31
0.0000000000000000
  7
STANDARD
  0
ENDBLK
  5
2CE
100
AcDbEntity
  8
MAIN0
  6
CONTINUOUS
 62
3
100
AcDbBlockEnd
  0
BLOCK
  5
2D0
100
AcDbEntity
  8
MAIN0
  6
CONTINUOUS
 62
3
100
AcDbBlockBegin
  2
*D22
 70
    65
 10
0.0
 20
0.0
 30
0.0
  0
LINE
  5
2D1
100
AcDbEntity
  8
MAIN0
  6
BYBLOCK
 62
0
100
AcDbLine
 10
219.5394415190557
 20
563.2061730424491
 30
0.0000000000000000
 11
241.7013678450272
 21
563.2061730424491
 31
0.0000000000000000
  0
LINE
  5
2D2
100
AcDbEntity
  8
MAIN0
  6
BYBLOCK
 62
0
100
AcDbLine
 10
237.7013678450272
 20
559.2061730424491
 30
0.0000000000000000
 11
237.7013678450272
 21
547.2061730424491
 31
0.0000000000000000
  0
INSERT
  5
2D3
100
AcDbEntity
  8
MAIN0
  6
BYBLOCK
 62
0
100
AcDbBlockReference
  2
_OPEN
 10
237.7013678450272
 20
563.2061730424491
 30
0.0000000000000000
 41
4.000000000000000
 42
4.000000000000000
 43
4.000000000000000
 50
90.00000000000000
  0
INSERT
  5
2D4
100
AcDbEntity
  8
MAIN0
  6
BYBLOCK
 62
0
100
AcDbBlockReference
  2
_OPEN
 10
237.7013678450272
 20
543.2061730424491
 30
0.0000000000000000
 41
4.000000000000000
 42
4.000000000000000
 43
4.000000000000000
 50
270.0000000000000
  0
LINE
  5
2D5
100
AcDbEntity
  8
MAIN0
  6
BYBLOCK
 62
0
100
AcDbLine
 10
219.5394415190557
 20
543.2061730424491
 30
0.0000000000000000
 11
241.7013678450272
 21
543.2061730424491
 31
0.0000000000000000
  0
MTEXT
  5
2D6
100
AcDbEntity
  8
MAIN0
  6
BYBLOCK
 62
0
100
AcDbMText
 10
234.1013679403946
 20
553.2061730424491
 30
0.0000000000000000
 40
6.199999809265137
 41
0.0000000000000000
 71
     5
 72
     1
  1
\A1;\U+220520
 11
6.123233995736766e-017
 21
1.000000000000000
 31
0.0000000000000000
  7
STANDARD
  0
ENDBLK
  5
2D7
100
AcDbEntity
  8
MAIN0
  6
CONTINUOUS
 62
3
100
AcDbBlockEnd
  0
BLOCK
  5
2D9
100
AcDbEntity
  8
MAIN0
  6
CONTINUOUS
 62
3
100
AcDbBlockBegin
  2
*D23
 70
    65
 10
0.0
 20
0.0
 30
0.0
  0
LINE
  5
2DA
100
AcDbEntity
  8
MAIN0
  6
BYBLOCK
 62
0
100
AcDbLine
 10
218.5394414952139
 20
565.3061730662910
 30
0.0000000000000000
 11
218.5394414952139
 21
583.6290640715047
 31
0.0000000000000000
  0
LINE
  5
2DB
100
AcDbEntity
  8
MAIN0
  6
BYBLOCK
 62
0
100
AcDbLine
 10
218.5394414952139
 20
579.6290640715047
 30
0.0000000000000000
 11
204.0394414952139
 21
579.6290640715047
 31
0.0000000000000000
  0
INSERT
  5
2DC
100
AcDbEntity
  8
MAIN0
  6
BYBLOCK
 62
0
100
AcDbBlockReference
  2
_OPEN
 10
218.5394414952139
 20
579.6290640715047
 30
0.0000000000000000
 41
4.000000000000000
 42
4.000000000000000
 43
4.000000000000000
 50
180.0000000000000
  0
INSERT
  5
2DD
100
AcDbEntity
  8
MAIN0
  6
BYBLOCK
 62
0
100
AcDbBlockReference
  2
_OPEN
 10
204.0394414952139
 20
579.6290640715047
 30
0.0000000000000000
 41
4.000000000000000
 42
4.000000000000000
 43
4.000000000000000
 50
360.0000000000000
  0
LINE
  5
2DE
100
AcDbEntity
  8
MAIN0
  6
BYBLOCK
 62
0
100
AcDbLine
 10
222.5394414952139
 20
579.6290640715047
 30
0.0000000000000000
 11
224.5394414952139
 21
579.6290640715047
 31
0.0000000000000000
  0
LINE
  5
2DF
100
AcDbEntity
  8
MAIN0
  6
BYBLOCK
 62
0
100
AcDbLine
 10
200.0394414952139
 20
579.6290640715047
 30
0.0000000000000000
 11
184.0386107745531
 21
579.6290640715047
 31
0.0000000000000000
  0
LINE
  5
2E0
100
AcDbEntity
  8
MAIN0
  6
BYBLOCK
 62
0
100
AcDbLine
 10
204.0394414952139
 20
564.3061730662910
 30
0.0000000000000000
 11
204.0394414952139
 21
583.6290640715047
 31
0.0000000000000000
  0
MTEXT
  5
2E1
100
AcDbEntity
  8
MAIN0
  6
BYBLOCK
 62
0
100
AcDbMText
 10
191.3386109652880
 20
583.7290639761372
 30
0.0000000000000000
 40
6.199999809265137
 41
0.0000000000000000
 71
     5
 72
     1
  1
\A1;14.5
 11
1.000000000000000
 21
0.0000000000000000
 31
0.0000000000000000
  7
STANDARD
  0
ENDBLK
  5
2E2
100
AcDbEntity
  8
MAIN0
  6
CONTINUOUS
 62
3
100
AcDbBlockEnd
  0
BLOCK
  5
2F4
100
AcDbEntity
  8
MAIN0
  6
CONTINUOUS
 62
3
100
AcDbBlockBegin
  2
*D24
 70
    65
 10
0.0
 20
0.0
 30
0.0
  0
LINE
  5
2F5
100
AcDbEntity
  8
MAIN0
  6
BYBLOCK
 62
0
100
AcDbLine
 10
130.9394414713720
 20
544.2061730424491
 30
0.0000000000000000
 11
78.54796641898304
 21
544.2061730424491
 31
0.0000000000000000
  0
LINE
  5
2F6
100
AcDbEntity
  8
MAIN0
  6
BYBLOCK
 62
0
100
AcDbLine
 10
82.54796641898304
 20
540.2061730424491
 30
0.0000000000000000
 11
82.54796641898304
 21
318.2061730424491
 31
0.0000000000000000
  0
INSERT
  5
2F7
100
AcDbEntity
  8
MAIN0
  6
BYBLOCK
 62
0
100
AcDbBlockReference
  2
_OPEN
 10
82.54796641898304
 20
544.2061730424491
 30
0.0000000000000000
 41
4.000000000000000
 42
4.000000000000000
 43
4.000000000000000
 50
90.00000000000000
  0
INSERT
  5
2F8
100
AcDbEntity
  8
MAIN0
  6
BYBLOCK
 62
0
100
AcDbBlockReference
  2
_OPEN
 10
82.54796641898304
 20
314.2061730424491
 30
0.0000000000000000
 41
4.000000000000000
 42
4.000000000000000
 43
4.000000000000000
 50
270.0000000000000
  0
LINE
  5
2F9
100
AcDbEntity
  8
MAIN0
  6
BYBLOCK
 62
0
100
AcDbLine
 10
130.9394414713720
 20
314.2061730424491
 30
0.0000000000000000
 11
78.54796641898304
 21
314.2061730424491
 31
0.0000000000000000
  0
MTEXT
  5
2FA
100
AcDbEntity
  8
MAIN0
  6
BYBLOCK
 62
0
100
AcDbMText
 10
78.94796651435047
 20
429.2061730238226
 30
0.0000000000000000
 40
6.199999809265137
 41
0.0000000000000000
 71
     5
 72
     1
  1
\A1;\U+2205230H6\H0.903226x;\S＋0.029^ 　0;
 11
6.123233995736766e-017
 21
1.000000000000000
 31
0.0000000000000000
  7
KNJYOKO
  0
ENDBLK
  5
2FB
100
AcDbEntity
  8
MAIN0
  6
CONTINUOUS
 62
3
100
AcDbBlockEnd
  0
BLOCK
  5
2FE
100
AcDbEntity
  8
MAIN0
  6
CONTINUOUS
 62
3
100
AcDbBlockBegin
  2
*D25
 70
    65
 10
0.0
 20
0.0
 30
0.0
  0
LINE
  5
2FF
100
AcDbEntity
  8
MAIN0
  6
BYBLOCK
 62
0
100
AcDbLine
 10
131.5394414713720
 20
559.9561730424491
 30
0.0000000000000000
 11
78.54796641898304
 21
559.9561730424491
 31
0.0000000000000000
  0
LINE
  5
300
100
AcDbEntity
  8
MAIN0
  6
BYBLOCK
 62
0
100
AcDbLine
 10
82.54796641898304
 20
555.9561730424491
 30
0.0000000000000000
 11
82.54796641898304
 21
550.4561730424491
 31
0.0000000000000000
  0
INSERT
  5
301
100
AcDbEntity
  8
MAIN0
  6
BYBLOCK
 62
0
100
AcDbBlockReference
  2
_OPEN
 10
82.54796641898304
 20
559.9561730424491
 30
0.0000000000000000
 41
4.000000000000000
 42
4.000000000000000
 43
4.000000000000000
 50
90.00000000000000
  0
INSERT
  5
302
100
AcDbEntity
  8
MAIN0
  6
BYBLOCK
 62
0
100
AcDbBlockReference
  2
_OPEN
 10
82.54796641898304
 20
546.4561730424491
 30
0.0000000000000000
 41
4.000000000000000
 42
4.000000000000000
 43
4.000000000000000
 50
270.0000000000000
  0
LINE
  5
303
100
AcDbEntity
  8
MAIN0
  6
BYBLOCK
 62
0
100
AcDbLine
 10
82.54796641898304
 20
559.9561730424491
 30
0.0000000000000000
 11
82.54796641898304
 21
590.1005207955977
 31
0.0000000000000000
  0
LINE
  5
304
100
AcDbEntity
  8
MAIN0
  6
BYBLOCK
 62
0
100
AcDbLine
 10
131.5394414713720
 20
546.4561730424491
 30
0.0000000000000000
 11
78.54796641898304
 21
546.4561730424491
 31
0.0000000000000000
  0
MTEXT
  5
305
100
AcDbEntity
  8
MAIN0
  6
BYBLOCK
 62
0
100
AcDbMText
 10
78.44796651435047
 20
580.2005211770675
 30
0.0000000000000000
 40
6.199999809265137
 41
0.0000000000000000
 71
     5
 72
     1
  1
\A1;\U+220513.5
 11
6.123233995736766e-017
 21
1.000000000000000
 31
0.0000000000000000
  7
STANDARD
  0
ENDBLK
  5
306
100
AcDbEntity
  8
MAIN0
  6
CONTINUOUS
 62
3
100
AcDbBlockEnd
  0
BLOCK
  5
331
100
AcDbEntity
  8
MAIN0
  6
CONTINUOUS
 62
3
100
AcDbBlockBegin
  2
*D26
 70
    65
 10
0.0
 20
0.0
 30
0.0
  0
LINE
  5
332
100
AcDbEntity
  8
MAIN0
  6
BYBLOCK
 62
0
100
AcDbLine
 10
570.2128053193289
 20
446.1274013526538
 30
0.0000000000000000
 11
332.6108521920542
 21
412.2849447322443
 31
0.0000000000000000
  0
INSERT
  5
333
100
AcDbEntity
  8
MAIN0
  6
BYBLOCK
 62
0
100
AcDbBlockReference
  2
_OPEN
 10
574.1728378714502
 20
446.6914422963273
 30
0.0000000000000000
 41
4.000000000000000
 42
4.000000000000000
 43
4.000000000000000
 50
8.106308452274902
  0
INSERT
  5
334
100
AcDbEntity
  8
MAIN0
  6
BYBLOCK
 62
0
100
AcDbBlockReference
  2
_OPEN
 10
328.6508196399329
 20
411.7209037885708
 30
0.0000000000000000
 41
4.000000000000000
 42
4.000000000000000
 43
4.000000000000000
 50
188.1063084522749
  0
MTEXT
  5
335
100
AcDbEntity
  8
MAIN0
  6
BYBLOCK
 62
0
100
AcDbMText
 10
540.3266918143918
 20
446.0120002695787
 30
0.0000000000000000
 40
6.199999809265137
 41
0.0000000000000000
 71
     5
 72
     1
  1
\A1;\U+2205248\H0.903226x;\U+00B10.2
 11
0.9900081380303117
 21
0.1410102359183728
 31
0.0000000000000000
  7
STANDARD
  0
ENDBLK
  5
336
100
AcDbEntity
  8
MAIN0
  6
CONTINUOUS
 62
3
100
AcDbBlockEnd
  0
BLOCK
  5
338
100
AcDbEntity
  8
MAIN0
  6
CONTINUOUS
 62
3
100
AcDbBlockBegin
  2
*D27
 70
    65
 10
0.0
 20
0.0
 30
0.0
  0
LINE
  5
339
100
AcDbEntity
  8
MAIN0
  6
BYBLOCK
 62
0
100
AcDbLine
 10
136.9394414713719
 20
494.2061730424491
 30
0.0000000000000000
 11
94.40823956958525
 21
494.2061730424491
 31
0.0000000000000000
  0
LINE
  5
33A
100
AcDbEntity
  8
MAIN0
  6
BYBLOCK
 62
0
100
AcDbLine
 10
98.40823956958525
 20
490.2061730424491
 30
0.0000000000000000
 11
98.40823956958525
 21
368.2061730424491
 31
0.0000000000000000
  0
INSERT
  5
33B
100
AcDbEntity
  8
MAIN0
  6
BYBLOCK
 62
0
100
AcDbBlockReference
  2
_OPEN
 10
98.40823956958525
 20
494.2061730424491
 30
0.0000000000000000
 41
4.000000000000000
 42
4.000000000000000
 43
4.000000000000000
 50
90.00000000000000
  0
INSERT
  5
33C
100
AcDbEntity
  8
MAIN0
  6
BYBLOCK
 62
0
100
AcDbBlockReference
  2
_OPEN
 10
98.40823956958525
 20
364.2061730424491
 30
0.0000000000000000
 41
4.000000000000000
 42
4.000000000000000
 43
4.000000000000000
 50
270.0000000000000
  0
LINE
  5
33D
100
AcDbEntity
  8
MAIN0
  6
BYBLOCK
 62
0
100
AcDbLine
 10
136.9394414713719
 20
364.2061730424491
 30
0.0000000000000000
 11
94.40823956958525
 21
364.2061730424491
 31
0.0000000000000000
  0
MTEXT
  5
33E
100
AcDbEntity
  8
MAIN0
  6
BYBLOCK
 62
0
100
AcDbMText
 10
94.80823966495268
 20
429.2061730424491
 30
0.0000000000000000
 40
6.199999809265137
 41
0.0000000000000000
 71
     5
 72
     1
  1
\A1;\U+2205130
 11
6.123233995736766e-017
 21
1.000000000000000
 31
0.0000000000000000
  7
STANDARD
  0
ENDBLK
  5
33F
100
AcDbEntity
  8
MAIN0
  6
CONTINUOUS
 62
3
100
AcDbBlockEnd
  0
BLOCK
  5
342
100
AcDbEntity
  8
MAIN0
  6
CONTINUOUS
 62
3
100
AcDbBlockBegin
  2
*D28
 70
    65
 10
0.0
 20
0.0
 30
0.0
  0
LINE
  5
343
100
AcDbEntity
  8
MAIN0
  6
BYBLOCK
 62
0
100
AcDbLine
 10
379.7611457025635
 20
553.3087964885214
 30
0.0000000000000000
 11
367.7111859437518
 21
574.1799390201260
 31
0.0000000000000000
  0
ARC
  5
344
100
AcDbEntity
  8
MAIN0
  6
BYBLOCK
 62
0
100
AcDbCircle
 10
451.4118287556914
 20
429.2061730424047
 30
0.0000000000000000
 40
163.4012856249766
100
AcDbArc
 50
91.40257842633092
 51
118.5974215734522
  0
INSERT
  5
345
100
AcDbEntity
  8
MAIN0
  6
BYBLOCK
 62
0
100
AcDbBlockReference
  2
_OPEN
 10
451.4118287556914
 20
592.6074586673813
 30
0.0000000000000000
 41
4.000000000000000
 42
4.000000000000000
 43
4.000000000000000
 50
360.0000000000000
  0
INSERT
  5
346
100
AcDbEntity
  8
MAIN0
  6
BYBLOCK
 62
0
100
AcDbBlockReference
  2
_OPEN
 10
369.7111859437387
 20
570.7158374049807
 30
0.0000000000000000
 41
4.000000000000000
 42
4.000000000000000
 43
4.000000000000000
 50
209.9999999997831
  0
MTEXT
  5
347
100
AcDbEntity
  8
MAIN0
  6
BYBLOCK
 62
0
100
AcDbMText
 10
408.1887155043298
 20
590.5170277590108
 30
0.0000000000000000
 40
6.199999809265137
 41
0.0000000000000000
 71
     5
 72
     1
  1
\A1;30\U+00B0
 11
0.9659258262895580
 21
0.2588190451006929
 31
0.0000000000000000
  7
STANDARD
  0
ENDBLK
  5
348
100
AcDbEntity
  8
MAIN0
  6
CONTINUOUS
 62
3
100
AcDbBlockEnd
  0
BLOCK
  5
34A
100
AcDbEntity
  8
MAIN0
  6
CONTINUOUS
 62
3
100
AcDbBlockBegin
  2
*D29
 70
    65
 10
0.0
 20
0.0
 30
0.0
  0
LINE
  5
34B
100
AcDbEntity
  8
MAIN0
  6
BYBLOCK
 62
0
100
AcDbLine
 10
451.4118287556914
 20
429.2061730424491
 30
0.0000000000000000
 11
421.3697124203267
 21
481.1433586236144
 31
0.0000000000000000
  0
INSERT
  5
34C
100
AcDbEntity
  8
MAIN0
  6
BYBLOCK
 62
0
100
AcDbBlockReference
  2
_OPEN
 10
419.3669046646357
 20
484.6058376623588
 30
0.0000000000000000
 41
4.000000000000000
 42
4.000000000000000
 43
4.000000000000000
 50
120.0464507814821
  0
MTEXT
  5
34D
100
AcDbEntity
  8
MAIN0
  6
BYBLOCK
 62
0
100
AcDbMText
 10
438.5055977624816
 20
458.7085322847751
 30
0.0000000000000000
 40
6.199999809265137
 41
0.0000000000000000
 71
     5
 72
     1
  1
\A1;Ｒ64
 11
0.5007019389227455
 21
-0.8656197596860894
 31
0.0000000000000000
  7
KNJYOKO
  0
ENDBLK
  5
34E
100
AcDbEntity
  8
MAIN0
  6
CONTINUOUS
 62
3
100
AcDbBlockEnd
  0
BLOCK
  5
357
100
AcDbEntity
  8
MAIN0
  6
CONTINUOUS
 62
3
100
AcDbBlockBegin
  2
*D30
 70
    65
 10
0.0
 20
0.0
 30
0.0
  0
LINE
  5
358
100
AcDbEntity
  8
MAIN0
  6
BYBLOCK
 62
0
100
AcDbLine
 10
218.5394414952139
 20
566.3061730662910
 30
0.0000000000000000
 11
218.5394414952139
 21
596.7482181818989
 31
0.0000000000000000
  0
LINE
  5
359
100
AcDbEntity
  8
MAIN0
  6
BYBLOCK
 62
0
100
AcDbLine
 10
218.5394414952139
 20
592.7482181818989
 30
0.0000000000000000
 11
202.0394414952139
 21
592.7482181818989
 31
0.0000000000000000
  0
INSERT
  5
35A
100
AcDbEntity
  8
MAIN0
  6
BYBLOCK
 62
0
100
AcDbBlockReference
  2
_OPEN
 10
218.5394414952139
 20
592.7482181818989
 30
0.0000000000000000
 41
4.000000000000000
 42
4.000000000000000
 43
4.000000000000000
 50
180.0000000000000
  0
INSERT
  5
35B
100
AcDbEntity
  8
MAIN0
  6
BYBLOCK
 62
0
100
AcDbBlockReference
  2
_OPEN
 10
202.0394414952139
 20
592.7482181818989
 30
0.0000000000000000
 41
4.000000000000000
 42
4.000000000000000
 43
4.000000000000000
 50
360.0000000000000
  0
LINE
  5
35C
100
AcDbEntity
  8
MAIN0
  6
BYBLOCK
 62
0
100
AcDbLine
 10
222.5394414952139
 20
592.7482181818989
 30
0.0000000000000000
 11
224.5394414952139
 21
592.7482181818989
 31
0.0000000000000000
  0
LINE
  5
35D
100
AcDbEntity
  8
MAIN0
  6
BYBLOCK
 62
0
100
AcDbLine
 10
198.0394414952139
 20
592.7482181818989
 30
0.0000000000000000
 11
196.0394414952139
 21
592.7482181818989
 31
0.0000000000000000
  0
LINE
  5
35E
100
AcDbEntity
  8
MAIN0
  6
BYBLOCK
 62
0
100
AcDbLine
 10
202.0394414952139
 20
571.8550689483016
 30
0.0000000000000000
 11
202.0394414952139
 21
596.7482181818989
 31
0.0000000000000000
  0
MTEXT
  5
35F
100
AcDbEntity
  8
MAIN0
  6
BYBLOCK
 62
0
100
AcDbMText
 10
210.2894414952139
 20
596.3482180865315
 30
0.0000000000000000
 40
6.199999809265137
 41
0.0000000000000000
 71
     5
 72
     1
  1
\A1;16.5
 11
1.000000000000000
 21
0.0000000000000000
 31
0.0000000000000000
  7
STANDARD
  0
ENDBLK
  5
360
100
AcDbEntity
  8
MAIN0
  6
CONTINUOUS
 62
3
100
AcDbBlockEnd
  0
BLOCK
  5
364
100
AcDbEntity
  8
MAIN0
  6
CONTINUOUS
 62
3
100
AcDbBlockBegin
  2
*D31
 70
    65
 10
0.0
 20
0.0
 30
0.0
  0
LINE
  5
365
100
AcDbEntity
  8
MAIN0
  6
BYBLOCK
 62
0
100
AcDbLine
 10
487.9838847432423
 20
565.6949441231733
 30
0.0000000000000000
 11
494.7384696505980
 21
590.9033981815035
 31
0.0000000000000000
  0
ARC
  5
366
100
AcDbEntity
  8
MAIN0
  6
BYBLOCK
 62
0
100
AcDbCircle
 10
451.4118287556913
 20
429.2061730401586
 30
0.0000000000000000
 40
163.4012856272228
100
AcDbArc
 50
76.40257842633483
 51
88.59742157368834
  0
INSERT
  5
367
100
AcDbEntity
  8
MAIN0
  6
BYBLOCK
 62
0
100
AcDbBlockReference
  2
_OPEN
 10
493.7031934701895
 20
587.0396948763469
 30
0.0000000000000000
 41
4.000000000000000
 42
4.000000000000000
 43
4.000000000000000
 50
345.0000000000232
  0
INSERT
  5
368
100
AcDbEntity
  8
MAIN0
  6
BYBLOCK
 62
0
100
AcDbBlockReference
  2
_OPEN
 10
451.4118287556914
 20
592.6074586673813
 30
0.0000000000000000
 41
4.000000000000000
 42
4.000000000000000
 43
4.000000000000000
 50
180.0000000000000
  0
MTEXT
  5
369
100
AcDbEntity
  8
MAIN0
  6
BYBLOCK
 62
0
100
AcDbMText
 10
473.2098706519845
 20
594.7787394235413
 30
0.0000000000000000
 40
6.199999809265137
 41
0.0000000000000000
 71
     5
 72
     1
  1
\A1;15\U+00B0
 11
0.9914448613738367
 21
-0.1305261922198518
 31
0.0000000000000000
  7
STANDARD
  0
ENDBLK
  5
36A
100
AcDbEntity
  8
MAIN0
  6
CONTINUOUS
 62
3
100
AcDbBlockEnd
  0
ENDSEC
  0
SECTION
  2
ENTITIES
  0
LINE
  5
46
100
AcDbEntity
  8
MAIN0
  6
CONTINUOUS
 62
3
100
AcDbLine
 10
196.3767266777267
 20
116.5938149748845
 30
0.0000000000000000
 11
309.2534473457914
 21
116.5938149749470
 31
0.0000000000000000
  0
MTEXT
  5
47
100
AcDbEntity
  8
MAIN0
  6
CONTINUOUS
 62
3
100
AcDbMText
 10
201.6653463055661
 20
125.7319359693878
 30
0.0000000000000000
 40
6.199999809265137
 41
0.0000000000000000
 71
     1
 72
     1
  1
{\H0.94x;{ソフトジョー　ＳＯＦＴ　ＪＡＷ}}
 11
1.000000000000000
 21
0.0000000000000000
 31
0.0000000000000000
  7
KNJYOKO
  0
LINE
  5
48
100
AcDbEntity
  8
MAIN0
  6
CONTINUOUS
 62
3
100
AcDbLine
 10
196.3767266777267
 20
115.0938149748845
 30
0.0000000000000000
 11
309.2534473457923
 21
115.0938149749470
 31
0.0000000000000000
  0
LINE
  5
49
100
AcDbEntity
  8
MAIN0
  6
CONTINUOUS
 62
3
100
AcDbLine
 10
132.5394414952139
 20
293.7061730424491
 30
0.0000000000000000
 11
132.5394414952139
 21
564.7061730424491
 31
0.0000000000000000
  0
LINE
  5
4A
100
AcDbEntity
  8
MAIN0
  6
CONTINUOUS
 62
3
100
AcDbLine
 10
133.5394414952139
 20
565.7061730424491
 30
0.0000000000000000
 11
217.5394414952139
 21
565.7061730424491
 31
0.0000000000000000
  0
LINE
  5
4B
100
AcDbEntity
  8
MAIN0
  6
HIDDEN
 62
3
100
AcDbLine
 10
132.5394414952139
 20
544.2061730424491
 30
0.0000000000000000
 11
138.5394414952137
 21
544.2061730424491
 31
0.0000000000000000
  0
LINE
  5
4C
100
AcDbEntity
  8
MAIN0
  6
HIDDEN
 62
3
100
AcDbLine
 10
132.5394414952139
 20
314.2061730424491
 30
0.0000000000000000
 11
138.5394414952139
 21
314.2061730424491
 31
0.0000000000000000
  0
LINE
  5
4D
100
AcDbEntity
  8
MAIN0
  6
HIDDEN
 62
3
100
AcDbLine
 10
138.5394414952139
 20
314.2061730424491
 30
0.0000000000000000
 11
138.5394414952139
 21
544.2061730424491
 31
0.0000000000000000
  0
LINE
  5
4E
100
AcDbEntity
  8
MAIN0
  6
HIDDEN
 62
3
100
AcDbLine
 10
138.5394414952137
 20
494.2061730424491
 30
0.0000000000000000
 11
150.0394414952137
 21
494.2061730424491
 31
0.0000000000000000
  0
LINE
  5
4F
100
AcDbEntity
  8
MAIN0
  6
CENTER
 62
3
100
AcDbLine
 10
451.4118287556914
 20
284.8135182526099
 30
0.0000000000000000
 11
451.4118287556914
 21
602.0388168105549
 31
0.0000000000000000
  0
LINE
  5
50
100
AcDbEntity
  8
MAIN0
  6
CENTER
 62
3
100
AcDbLine
 10
164.0394414952139
 20
492.1412463408946
 30
0.0000000000000000
 11
164.0394414952139
 21
572.3351901320345
 31
0.0000000000000000
  0
LINE
  5
51
100
AcDbEntity
  8
MAIN0
  6
CONTINUOUS
 62
3
100
AcDbLine
 10
219.5590567375105
 20
389.4411095330276
 30
0.0000000000000000
 11
220.2894414952169
 21
390.7061730424491
 31
0.0000000000000000
  0
ARC
  5
52
100
AcDbEntity
  8
MAIN0
  6
CONTINUOUS
 62
3
100
AcDbCircle
 10
219.0394414952398
 20
389.7411095330276
 30
0.0000000000000000
 40
0.6000000000000001
100
AcDbArc
 50
209.9999999999930
 51
330.0000000000017
  0
LINE
  5
53
100
AcDbEntity
  8
MAIN0
  6
CENTER
 62
3
100
AcDbLine
 10
216.6161626267344
 20
340.7061730424491
 30
0.0000000000000000
 11
230.9550284992727
 21
340.7061730424491
 31
0.0000000000000000
  0
LINE
  5
54
100
AcDbEntity
  8
MAIN0
  6
CONTINUOUS
 62
3
100
AcDbLine
 10
220.0394414952139
 20
331.1911730424490
 30
0.0000000000000000
 11
220.0394414952139
 21
350.2211730424490
 31
0.0000000000000000
  0
LINE
  5
55
100
AcDbEntity
  8
MAIN0
  6
CENTER
 62
3
100
AcDbLine
 10
204.4591484582372
 20
367.6961730424491
 30
0.0000000000000000
 11
279.8198270237073
 21
367.6961730424491
 31
0.0000000000000000
  0
LINE
  5
56
100
AcDbEntity
  8
MAIN0
  6
CENTER
 62
3
100
AcDbLine
 10
202.7990383290245
 20
313.7161730424490
 30
0.0000000000000000
 11
254.2368469589510
 21
313.7161730424490
 31
0.0000000000000000
  0
LINE
  5
57
100
AcDbEntity
  8
MAIN0
  6
CONTINUOUS
 62
3
100
AcDbLine
 10
227.0394414952139
 20
290.7061730424491
 30
0.0000000000000000
 11
243.0394414952139
 21
290.7061730424491
 31
0.0000000000000000
  0
LINE
  5
58
100
AcDbEntity
  8
MAIN0
  6
CONTINUOUS
 62
3
100
AcDbLine
 10
257.5590567375933
 20
389.4411095327378
 30
0.0000000000000000
 11
258.2894414954670
 21
390.7061730424489
 31
0.0000000000000000
  0
LINE
  5
59
100
AcDbEntity
  8
MAIN0
  6
CONTINUOUS
 62
3
100
AcDbLine
 10
255.7894414951778
 20
390.7061730424491
 30
0.0000000000000000
 11
256.5198262530520
 21
389.4411095327377
 31
0.0000000000000000
  0
LINE
  5
5A
100
AcDbEntity
  8
MAIN0
  6
CONTINUOUS
 62
3
100
AcDbLine
 10
250.0590567375933
 20
389.4411095327378
 30
0.0000000000000000
 11
250.7894414954670
 21
390.7061730424490
 31
0.0000000000000000
  0
LINE
  5
5B
100
AcDbEntity
  8
MAIN0
  6
CONTINUOUS
 62
3
100
AcDbLine
 10
248.2894414951778
 20
390.7061730424491
 30
0.0000000000000000
 11
249.0198262530521
 21
389.4411095327376
 31
0.0000000000000000
  0
ARC
  5
5C
100
AcDbEntity
  8
MAIN0
  6
CONTINUOUS
 62
3
100
AcDbCircle
 10
257.0394414953227
 20
389.7411095327378
 30
0.0000000000000000
 40
0.6000000000000001
100
AcDbArc
 50
210.0000000000132
 51
329.9999999999993
  0
ARC
  5
5D
100
AcDbEntity
  8
MAIN0
  6
CONTINUOUS
 62
3
100
AcDbCircle
 10
249.5394414953226
 20
389.7411095327378
 30
0.0000000000000000
 40
0.6000000000000001
100
AcDbArc
 50
210.0000000000132
 51
329.9999999999996
  0
LINE
  5
5E
100
AcDbEntity
  8
MAIN0
  6
CONTINUOUS
 62
3
100
AcDbLine
 10
250.7894414954671
 20
390.7061730424491
 30
0.0000000000000000
 11
255.7894414951778
 21
390.7061730424491
 31
0.0000000000000000
  0
LINE
  5
5F
100
AcDbEntity
  8
MAIN0
  6
HIDDEN
 62
3
100
AcDbLine
 10
470.6618287555912
 20
391.3157059035517
 30
0.0000000000000000
 11
470.6618287553467
 21
294.0703617265241
 31
0.0000000000000000
  0
LINE
  5
60
100
AcDbEntity
  8
MAIN0
  6
HIDDEN
 62
3
100
AcDbLine
 10
432.1618287555912
 20
391.3157059036536
 30
0.0000000000000000
 11
432.1618287553467
 21
294.0703617266224
 31
0.0000000000000000
  0
LINE
  5
61
100
AcDbEntity
  8
MAIN0
  6
CONTINUOUS
 62
3
100
AcDbLine
 10
468.9118287556914
 20
299.9169830891667
 30
0.0000000000000000
 11
468.9118287556914
 21
390.4763395803749
 31
0.0000000000000000
  0
LINE
  5
62
100
AcDbEntity
  8
MAIN0
  6
HIDDEN
 62
3
100
AcDbLine
 10
258.0240801151676
 20
358.1961730424491
 30
0.0000000000000000
 11
234.0394414952139
 21
358.1961730424491
 31
0.0000000000000000
  0
LINE
  5
63
100
AcDbEntity
  8
MAIN0
  6
HIDDEN
 62
3
100
AcDbLine
 10
234.0394414952139
 20
358.1961730424491
 30
0.0000000000000000
 11
234.0394414952139
 21
377.1961730424491
 31
0.0000000000000000
  0
LINE
  5
64
100
AcDbEntity
  8
MAIN0
  6
HIDDEN
 62
3
100
AcDbLine
 10
234.0394414952139
 20
377.1961730424491
 30
0.0000000000000000
 11
271.9394414952139
 21
377.1961730424491
 31
0.0000000000000000
  0
LINE
  5
65
100
AcDbEntity
  8
MAIN0
  6
CONTINUOUS
 62
3
100
AcDbLine
 10
271.9394414952138
 20
377.1961730424491
 30
0.0000000000000000
 11
272.5394414952139
 21
377.7961730424490
 31
0.0000000000000000
  0
LINE
  5
66
100
AcDbEntity
  8
MAIN0
  6
HIDDEN
 62
3
100
AcDbLine
 10
234.0394414952139
 20
361.1961730424491
 30
0.0000000000000000
 11
227.6394414952139
 21
361.1961730424491
 31
0.0000000000000000
  0
LINE
  5
67
100
AcDbEntity
  8
MAIN0
  6
HIDDEN
 62
3
100
AcDbLine
 10
227.6394414952138
 20
361.1961730424490
 30
0.0000000000000000
 11
227.0394414952139
 21
360.5961730424491
 31
0.0000000000000000
  0
LINE
  5
68
100
AcDbEntity
  8
MAIN0
  6
HIDDEN
 62
3
100
AcDbLine
 10
234.0394414952139
 20
374.1961730424491
 30
0.0000000000000000
 11
227.6394414952139
 21
374.1961730424491
 31
0.0000000000000000
  0
LINE
  5
69
100
AcDbEntity
  8
MAIN0
  6
HIDDEN
 62
3
100
AcDbLine
 10
227.6394414952138
 20
374.1961730424490
 30
0.0000000000000000
 11
227.0394414952138
 21
374.7961730424490
 31
0.0000000000000000
  0
LINE
  5
6A
100
AcDbEntity
  8
MAIN0
  6
HIDDEN
 62
3
100
AcDbLine
 10
243.4394414952139
 20
304.2161730424490
 30
0.0000000000000000
 11
231.3394414952139
 21
304.2161730424490
 31
0.0000000000000000
  0
LINE
  5
6B
100
AcDbEntity
  8
MAIN0
  6
HIDDEN
 62
3
100
AcDbLine
 10
231.3394414952138
 20
304.2161730424490
 30
0.0000000000000000
 11
231.3394414952138
 21
323.2161730424490
 31
0.0000000000000000
  0
LINE
  5
6C
100
AcDbEntity
  8
MAIN0
  6
HIDDEN
 62
3
100
AcDbLine
 10
231.3394414952139
 20
323.2161730424490
 30
0.0000000000000000
 11
243.4394414952139
 21
323.2161730424490
 31
0.0000000000000000
  0
LINE
  5
6D
100
AcDbEntity
  8
MAIN0
  6
HIDDEN
 62
3
100
AcDbLine
 10
231.3394414952139
 20
307.2161730424490
 30
0.0000000000000000
 11
227.6394414952138
 21
307.2161730424490
 31
0.0000000000000000
  0
LINE
  5
6E
100
AcDbEntity
  8
MAIN0
  6
HIDDEN
 62
3
100
AcDbLine
 10
227.6394414952138
 20
307.2161730424490
 30
0.0000000000000000
 11
227.0394414952139
 21
306.6161730424491
 31
0.0000000000000000
  0
LINE
  5
6F
100
AcDbEntity
  8
MAIN0
  6
HIDDEN
 62
3
100
AcDbLine
 10
231.3394414952139
 20
320.2161730424490
 30
0.0000000000000000
 11
227.6394414952138
 21
320.2161730424490
 31
0.0000000000000000
  0
LINE
  5
70
100
AcDbEntity
  8
MAIN0
  6
CONTINUOUS
 62
3
100
AcDbLine
 10
227.6394414952138
 20
320.2161730424490
 30
0.0000000000000000
 11
227.0394414952138
 21
320.8161730424490
 31
0.0000000000000000
  0
LINE
  5
71
100
AcDbEntity
  8
MAIN0
  6
HIDDEN
 62
3
100
AcDbLine
 10
234.0394414952139
 20
358.6961730424491
 30
0.0000000000000000
 11
244.8394414952139
 21
358.6961730424491
 31
0.0000000000000000
  0
LINE
  5
72
100
AcDbEntity
  8
MAIN0
  6
HIDDEN
 62
3
100
AcDbLine
 10
244.8394414952139
 20
358.6961730424491
 30
0.0000000000000000
 11
246.0394414952138
 21
360.7746340115317
 31
0.0000000000000000
  0
LINE
  5
73
100
AcDbEntity
  8
MAIN0
  6
HIDDEN
 62
3
100
AcDbLine
 10
246.0394414952139
 20
360.7746340115317
 30
0.0000000000000000
 11
246.0394414952139
 21
374.6177120733664
 31
0.0000000000000000
  0
LINE
  5
74
100
AcDbEntity
  8
MAIN0
  6
HIDDEN
 62
3
100
AcDbLine
 10
246.0394414952139
 20
374.6177120733664
 30
0.0000000000000000
 11
244.8394414952139
 21
376.6961730424491
 31
0.0000000000000000
  0
LINE
  5
75
100
AcDbEntity
  8
MAIN0
  6
HIDDEN
 62
3
100
AcDbLine
 10
244.8394414952139
 20
376.6961730424491
 30
0.0000000000000000
 11
234.0394414952139
 21
376.6961730424491
 31
0.0000000000000000
  0
LINE
  5
76
100
AcDbEntity
  8
MAIN0
  6
HIDDEN
 62
3
100
AcDbLine
 10
244.8394414952139
 20
358.6961730424491
 30
0.0000000000000000
 11
244.8394414952139
 21
376.6961730424491
 31
0.0000000000000000
  0
LINE
  5
77
100
AcDbEntity
  8
MAIN0
  6
CONTINUOUS
 62
3
100
AcDbLine
 10
231.3394414952139
 20
304.7161730424490
 30
0.0000000000000000
 11
242.1394414952138
 21
304.7161730424490
 31
0.0000000000000000
  0
LINE
  5
78
100
AcDbEntity
  8
MAIN0
  6
HIDDEN
 62
3
100
AcDbLine
 10
242.1394414952138
 20
304.7161730424490
 30
0.0000000000000000
 11
243.3394414952139
 21
306.7946340115317
 31
0.0000000000000000
  0
LINE
  5
79
100
AcDbEntity
  8
MAIN0
  6
HIDDEN
 62
3
100
AcDbLine
 10
243.3394414952139
 20
306.7946340115317
 30
0.0000000000000000
 11
243.3394414952139
 21
320.6377120733664
 31
0.0000000000000000
  0
LINE
  5
7A
100
AcDbEntity
  8
MAIN0
  6
HIDDEN
 62
3
100
AcDbLine
 10
243.3394414952138
 20
320.6377120733664
 30
0.0000000000000000
 11
242.1394414952138
 21
322.7161730424490
 31
0.0000000000000000
  0
LINE
  5
7B
100
AcDbEntity
  8
MAIN0
  6
HIDDEN
 62
3
100
AcDbLine
 10
242.1394414952138
 20
322.7161730424490
 30
0.0000000000000000
 11
231.3394414952139
 21
322.7161730424490
 31
0.0000000000000000
  0
LINE
  5
7C
100
AcDbEntity
  8
MAIN0
  6
HIDDEN
 62
3
100
AcDbLine
 10
242.1394414952138
 20
304.7161730424490
 30
0.0000000000000000
 11
242.1394414952138
 21
322.7161730424490
 31
0.0000000000000000
  0
LINE
  5
7D
100
AcDbEntity
  8
MAIN0
  6
HIDDEN
 62
3
100
AcDbLine
 10
218.5394414952139
 20
373.6961730424491
 30
0.0000000000000000
 11
227.0394414952139
 21
373.6961730424491
 31
0.0000000000000000
  0
LINE
  5
7E
100
AcDbEntity
  8
MAIN0
  6
HIDDEN
 62
3
100
AcDbLine
 10
227.0394414952139
 20
373.6961730424491
 30
0.0000000000000000
 11
234.0394414952139
 21
373.6961730424491
 31
0.0000000000000000
  0
LINE
  5
7F
100
AcDbEntity
  8
MAIN0
  6
HIDDEN
 62
3
100
AcDbLine
 10
218.5394414952139
 20
372.7489575424491
 30
0.0000000000000000
 11
227.0394414952139
 21
372.7489575424491
 31
0.0000000000000000
  0
LINE
  5
80
100
AcDbEntity
  8
MAIN0
  6
HIDDEN
 62
3
100
AcDbLine
 10
227.0394414952139
 20
372.7489575424491
 30
0.0000000000000000
 11
234.0394414952139
 21
372.7489575424490
 31
0.0000000000000000
  0
LINE
  5
81
100
AcDbEntity
  8
MAIN0
  6
HIDDEN
 62
3
100
AcDbLine
 10
218.5394414952139
 20
362.6433885424491
 30
0.0000000000000000
 11
227.0394414952139
 21
362.6433885424491
 31
0.0000000000000000
  0
LINE
  5
82
100
AcDbEntity
  8
MAIN0
  6
HIDDEN
 62
3
100
AcDbLine
 10
227.0394414952139
 20
362.6433885424491
 30
0.0000000000000000
 11
234.0394414952139
 21
362.6433885424491
 31
0.0000000000000000
  0
LINE
  5
83
100
AcDbEntity
  8
MAIN0
  6
HIDDEN
 62
3
100
AcDbLine
 10
218.5394414952139
 20
361.6961730424491
 30
0.0000000000000000
 11
227.0394414952139
 21
361.6961730424491
 31
0.0000000000000000
  0
LINE
  5
84
100
AcDbEntity
  8
MAIN0
  6
HIDDEN
 62
3
100
AcDbLine
 10
227.0394414952139
 20
361.6961730424491
 30
0.0000000000000000
 11
234.0394414952139
 21
361.6961730424491
 31
0.0000000000000000
  0
LINE
  5
85
100
AcDbEntity
  8
MAIN0
  6
HIDDEN
 62
3
100
AcDbLine
 10
218.5394414952139
 20
319.7161730424490
 30
0.0000000000000000
 11
227.0394414952139
 21
319.7161730424490
 31
0.0000000000000000
  0
LINE
  5
86
100
AcDbEntity
  8
MAIN0
  6
HIDDEN
 62
3
100
AcDbLine
 10
227.0394414952139
 20
319.7161730424490
 30
0.0000000000000000
 11
231.3394414952139
 21
319.7161730424490
 31
0.0000000000000000
  0
LINE
  5
87
100
AcDbEntity
  8
MAIN0
  6
HIDDEN
 62
3
100
AcDbLine
 10
218.5394414952139
 20
318.7689575424491
 30
0.0000000000000000
 11
227.0394414952139
 21
318.7689575424491
 31
0.0000000000000000
  0
LINE
  5
88
100
AcDbEntity
  8
MAIN0
  6
HIDDEN
 62
3
100
AcDbLine
 10
227.0394414952139
 20
318.7689575424491
 30
0.0000000000000000
 11
231.3394414952139
 21
318.7689575424491
 31
0.0000000000000000
  0
LINE
  5
89
100
AcDbEntity
  8
MAIN0
  6
HIDDEN
 62
3
100
AcDbLine
 10
218.5394414952139
 20
308.6633885424491
 30
0.0000000000000000
 11
227.0394414952139
 21
308.6633885424490
 31
0.0000000000000000
  0
LINE
  5
8A
100
AcDbEntity
  8
MAIN0
  6
HIDDEN
 62
3
100
AcDbLine
 10
227.0394414952139
 20
308.6633885424490
 30
0.0000000000000000
 11
231.3394414952139
 21
308.6633885424490
 31
0.0000000000000000
  0
LINE
  5
8B
100
AcDbEntity
  8
MAIN0
  6
HIDDEN
 62
3
100
AcDbLine
 10
218.5394414952139
 20
307.7161730424490
 30
0.0000000000000000
 11
227.0394414952139
 21
307.7161730424490
 31
0.0000000000000000
  0
LINE
  5
8C
100
AcDbEntity
  8
MAIN0
  6
HIDDEN
 62
3
100
AcDbLine
 10
227.0394414952139
 20
307.7161730424490
 30
0.0000000000000000
 11
231.3394414952139
 21
307.7161730424490
 31
0.0000000000000000
  0
LINE
  5
8D
100
AcDbEntity
  8
MAIN0
  6
CENTER
 62
3
100
AcDbLine
 10
439.5564129156451
 20
367.6961730424640
 30
0.0000000000000000
 11
462.6171403641023
 21
367.6961730424640
 31
0.0000000000000000
  0
LINE
  5
8E
100
AcDbEntity
  8
MAIN0
  6
CENTER
 62
3
100
AcDbLine
 10
439.5564129156168
 20
313.7161730424132
 30
0.0000000000000000
 11
462.6171403640741
 21
313.7161730424011
 31
0.0000000000000000
  0
LINE
  5
8F
100
AcDbEntity
  8
MAIN0
  6
CONTINUOUS
 62
3
100
AcDbLine
 10
227.0394414952139
 20
290.7061730424491
 30
0.0000000000000000
 11
227.0394414952139
 21
331.1911730424491
 31
0.0000000000000000
  0
CIRCLE
  5
90
100
AcDbEntity
  8
MAIN0
  6
CONTINUOUS
 62
3
100
AcDbCircle
 10
451.4118287556914
 20
367.6961730424639
 30
0.0000000000000000
 40
9.000000000000000
  0
LINE
  5
91
100
AcDbEntity
  8
MAIN0
  6
CONTINUOUS
 62
3
100
AcDbLine
 10
451.4118287556915
 20
373.4696757343602
 30
0.0000000000000000
 11
446.4118287556915
 21
370.5829243884120
 31
0.0000000000000000
  0
LINE
  5
92
100
AcDbEntity
  8
MAIN0
  6
CONTINUOUS
 62
3
100
AcDbLine
 10
446.4118287556914
 20
370.5829243884120
 30
0.0000000000000000
 11
446.4118287556914
 21
364.8094216965158
 31
0.0000000000000000
  0
LINE
  5
93
100
AcDbEntity
  8
MAIN0
  6
CONTINUOUS
 62
3
100
AcDbLine
 10
446.4118287556914
 20
364.8094216965158
 30
0.0000000000000000
 11
451.4118287556915
 21
361.9226703505677
 31
0.0000000000000000
  0
LINE
  5
94
100
AcDbEntity
  8
MAIN0
  6
CONTINUOUS
 62
3
100
AcDbLine
 10
451.4118287556915
 20
361.9226703505677
 30
0.0000000000000000
 11
456.4118287556914
 21
364.8094216965158
 31
0.0000000000000000
  0
LINE
  5
95
100
AcDbEntity
  8
MAIN0
  6
CONTINUOUS
 62
3
100
AcDbLine
 10
456.4118287556914
 20
364.8094216965158
 30
0.0000000000000000
 11
456.4118287556914
 21
370.5829243884120
 31
0.0000000000000000
  0
LINE
  5
96
100
AcDbEntity
  8
MAIN0
  6
CONTINUOUS
 62
3
100
AcDbLine
 10
456.4118287556914
 20
370.5829243884120
 30
0.0000000000000000
 11
451.4118287556914
 21
373.4696757343602
 31
0.0000000000000000
  0
CIRCLE
  5
97
100
AcDbEntity
  8
MAIN0
  6
CONTINUOUS
 62
3
100
AcDbCircle
 10
451.4118287556914
 20
313.7161730424070
 30
0.0000000000000000
 40
9.000000000000000
  0
LINE
  5
98
100
AcDbEntity
  8
MAIN0
  6
CONTINUOUS
 62
3
100
AcDbLine
 10
451.4118287556914
 20
319.4896757343033
 30
0.0000000000000000
 11
446.4118287556914
 21
316.6029243883551
 31
0.0000000000000000
  0
LINE
  5
99
100
AcDbEntity
  8
MAIN0
  6
CONTINUOUS
 62
3
100
AcDbLine
 10
446.4118287556914
 20
316.6029243883551
 30
0.0000000000000000
 11
446.4118287556914
 21
310.8294216964588
 31
0.0000000000000000
  0
LINE
  5
9A
100
AcDbEntity
  8
MAIN0
  6
CONTINUOUS
 62
3
100
AcDbLine
 10
446.4118287556914
 20
310.8294216964588
 30
0.0000000000000000
 11
451.4118287556914
 21
307.9426703505107
 31
0.0000000000000000
  0
LINE
  5
9B
100
AcDbEntity
  8
MAIN0
  6
CONTINUOUS
 62
3
100
AcDbLine
 10
451.4118287556914
 20
307.9426703505108
 30
0.0000000000000000
 11
456.4118287556914
 21
310.8294216964589
 31
0.0000000000000000
  0
LINE
  5
9C
100
AcDbEntity
  8
MAIN0
  6
CONTINUOUS
 62
3
100
AcDbLine
 10
456.4118287556914
 20
310.8294216964588
 30
0.0000000000000000
 11
456.4118287556914
 21
316.6029243883551
 31
0.0000000000000000
  0
LINE
  5
9D
100
AcDbEntity
  8
MAIN0
  6
CONTINUOUS
 62
3
100
AcDbLine
 10
456.4118287556914
 20
316.6029243883551
 30
0.0000000000000000
 11
451.4118287556914
 21
319.4896757343032
 31
0.0000000000000000
  0
ARC
  5
9E
100
AcDbEntity
  8
MAIN0
  6
CENTER
 62
3
100
AcDbCircle
 10
451.4118287556914
 20
429.2061730424491
 30
0.0000000000000000
 40
64.00000000000000
100
AcDbArc
 50
98.22351831645283
 51
122.2969610140995
  0
LINE
  5
9F
100
AcDbEntity
  8
MAIN0
  6
CENTER
 62
3
100
AcDbLine
 10
424.3068063624697
 20
503.6766100201674
 30
0.0000000000000000
 11
434.1100642782220
 21
476.7423802595338
 31
0.0000000000000000
  0
CIRCLE
  5
A0
100
AcDbEntity
  8
MAIN0
  6
CONTINUOUS
 62
3
100
AcDbCircle
 10
429.5225395823737
 20
489.3465007725743
 30
0.0000000000000000
 40
3.000000000000000
  0
CIRCLE
  5
A1
100
AcDbEntity
  8
MAIN0
  6
CONTINUOUS
 62
3
100
AcDbCircle
 10
429.5225395823737
 20
489.3465007725743
 30
0.0000000000000000
 40
2.500000000000000
  0
LINE
  5
A2
100
AcDbEntity
  8
MAIN0
  6
CENTER
 62
3
100
AcDbLine
 10
803.6874460059900
 20
542.2312927736539
 30
0.0000000000000000
 11
573.2405091735726
 21
542.2312927736539
 31
0.0000000000000000
  0
ARC
  5
A3
100
AcDbEntity
  8
MAIN0
  6
CONTINUOUS
 62
3
100
AcDbCircle
 10
793.8523626258575
 20
542.2312927736539
 30
0.0000000000000000
 40
5.999999999999943
100
AcDbArc
 50
270.0000000000000
 51
450.0000000000000
  0
ARC
  5
A4
100
AcDbEntity
  8
MAIN0
  6
CONTINUOUS
 62
3
100
AcDbCircle
 10
585.8523626258575
 20
542.2312927736539
 30
0.0000000000000000
 40
6.000000000000000
100
AcDbArc
 50
90.00000000000000
 51
270.0000000000000
  0
LINE
  5
A5
100
AcDbEntity
  8
MAIN0
  6
CONTINUOUS
 62
3
100
AcDbLine
 10
700.8523626258575
 20
557.2312927736539
 30
0.0000000000000000
 11
678.8523626258575
 21
557.2312927736539
 31
0.0000000000000000
  0
LINE
  5
A6
100
AcDbEntity
  8
MAIN0
  6
CONTINUOUS
 62
3
100
AcDbLine
 10
697.0023626258576
 20
397.2312927736538
 30
0.0000000000000000
 11
682.7023626258575
 21
397.2312927736538
 31
0.0000000000000000
  0
LINE
  5
A7
100
AcDbEntity
  8
MAIN0
  6
CONTINUOUS
 62
3
100
AcDbLine
 10
700.8523626258575
 20
438.2312927736533
 30
0.0000000000000000
 11
700.8523626258575
 21
527.2312927736539
 31
0.0000000000000000
  0
LINE
  5
A8
100
AcDbEntity
  8
MAIN0
  6
CONTINUOUS
 62
3
100
AcDbLine
 10
678.8523626258575
 20
438.2312927736538
 30
0.0000000000000000
 11
678.8523626258575
 21
527.2312927736539
 31
0.0000000000000000
  0
LINE
  5
A9
100
AcDbEntity
  8
MAIN0
  6
CONTINUOUS
 62
3
100
AcDbLine
 10
676.8523626258575
 20
555.2312927736538
 30
0.0000000000000000
 11
678.8523626258575
 21
557.2312927736538
 31
0.0000000000000000
  0
LINE
  5
AA
100
AcDbEntity
  8
MAIN0
  6
CONTINUOUS
 62
3
100
AcDbLine
 10
700.8523626258575
 20
557.2312927736539
 30
0.0000000000000000
 11
702.8523626258575
 21
555.2312927736539
 31
0.0000000000000000
  0
LINE
  5
AB
100
AcDbEntity
  8
MAIN0
  6
CONTINUOUS
 62
3
100
AcDbLine
 10
702.8523626258575
 20
555.2312927736539
 30
0.0000000000000000
 11
676.8523626258575
 21
555.2312927736539
 31
0.0000000000000000
  0
LINE
  5
AC
100
AcDbEntity
  8
MAIN0
  6
CONTINUOUS
 62
3
100
AcDbLine
 10
700.8523626258575
 20
527.2312927736539
 30
0.0000000000000000
 11
678.8523626258575
 21
527.2312927736539
 31
0.0000000000000000
  0
LINE
  5
AD
100
AcDbEntity
  8
MAIN0
  6
CONTINUOUS
 62
3
100
AcDbLine
 10
676.8523626258575
 20
529.2312927736539
 30
0.0000000000000000
 11
678.8523626258575
 21
527.2312927736539
 31
0.0000000000000000
  0
LINE
  5
AE
100
AcDbEntity
  8
MAIN0
  6
CONTINUOUS
 62
3
100
AcDbLine
 10
700.8523626258574
 20
527.2312927736538
 30
0.0000000000000000
 11
702.8523626258574
 21
529.2312927736538
 31
0.0000000000000000
  0
LINE
  5
AF
100
AcDbEntity
  8
MAIN0
  6
CONTINUOUS
 62
3
100
AcDbLine
 10
700.8523626258575
 20
438.2312927736538
 30
0.0000000000000000
 11
678.8523626258575
 21
438.2312927736538
 31
0.0000000000000000
  0
LINE
  5
B0
100
AcDbEntity
  8
MAIN0
  6
CENTER
 62
3
100
AcDbLine
 10
678.3625660211574
 20
364.2476965210256
 30
0.0000000000000000
 11
700.4570411477916
 21
364.2476965210285
 31
0.0000000000000000
  0
LINE
  5
B1
100
AcDbEntity
  8
MAIN0
  6
CONTINUOUS
 62
3
100
AcDbLine
 10
682.0023626258577
 20
364.8829778946044
 30
0.0000000000000000
 11
689.2170812516281
 21
372.0976965203599
 31
0.0000000000000000
  0
LINE
  5
B2
100
AcDbEntity
  8
MAIN0
  6
CONTINUOUS
 62
3
100
AcDbLine
 10
690.4876440000869
 20
356.3976965203571
 30
0.0000000000000000
 11
697.7023626258576
 21
363.6124151461127
 31
0.0000000000000000
  0
LINE
  5
B3
100
AcDbEntity
  8
MAIN0
  6
CONTINUOUS
 62
3
100
AcDbLine
 10
690.4876440001376
 20
372.0976965203571
 30
0.0000000000000000
 11
697.7023626258574
 21
364.8829778946647
 31
0.0000000000000000
  0
LINE
  5
B4
100
AcDbEntity
  8
MAIN0
  6
CONTINUOUS
 62
3
100
AcDbLine
 10
682.0023626258576
 20
363.6124151461604
 30
0.0000000000000000
 11
689.2170812516855
 21
356.3976965203598
 31
0.0000000000000000
  0
LINE
  5
B5
100
AcDbEntity
  8
MAIN0
  6
CONTINUOUS
 62
3
100
AcDbLine
 10
697.7023626258575
 20
363.6124151461124
 30
0.0000000000000000
 11
697.7023626258575
 21
364.8829778946646
 31
0.0000000000000000
  0
LINE
  5
B6
100
AcDbEntity
  8
MAIN0
  6
CONTINUOUS
 62
3
100
AcDbLine
 10
697.7023626258575
 20
397.9312927736538
 30
0.0000000000000000
 11
697.7023626258575
 21
418.2418580642878
 31
0.0000000000000000
  0
LINE
  5
B7
100
AcDbEntity
  8
MAIN0
  6
CONTINUOUS
 62
3
100
AcDbLine
 10
682.0023626258576
 20
363.6124151461604
 30
0.0000000000000000
 11
682.0023626258576
 21
364.8829778946046
 31
0.0000000000000000
  0
LINE
  5
B8
100
AcDbEntity
  8
MAIN0
  6
CONTINUOUS
 62
3
100
AcDbLine
 10
682.0023626258576
 20
397.9312927736538
 30
0.0000000000000000
 11
682.0023626258576
 21
418.2418580642878
 31
0.0000000000000000
  0
ARC
  5
B9
100
AcDbEntity
  8
MAIN0
  6
CONTINUOUS
 62
3
100
AcDbCircle
 10
617.0023626258576
 20
418.2418580642878
 30
0.0000000000000000
 40
65.00000000000000
100
AcDbArc
 50
0.0000000000000000
 51
17.91042553589133
  0
ARC
  5
BA
100
AcDbEntity
  8
MAIN0
  6
CONTINUOUS
 62
3
100
AcDbCircle
 10
762.7023626258576
 20
418.2418580642878
 30
0.0000000000000000
 40
65.00000000000000
100
AcDbArc
 50
162.0895744641087
 51
180.0000000000000
  0
LINE
  5
BB
100
AcDbEntity
  8
MAIN0
  6
CONTINUOUS
 62
3
100
AcDbLine
 10
689.2170812516275
 20
372.0976965203599
 30
0.0000000000000000
 11
690.4876440001798
 21
372.0976965203572
 31
0.0000000000000000
  0
LINE
  5
BC
100
AcDbEntity
  8
MAIN0
  6
CONTINUOUS
 62
3
100
AcDbLine
 10
689.2170812516431
 20
356.3976965203599
 30
0.0000000000000000
 11
690.4876440000872
 21
356.3976965203573
 31
0.0000000000000000
  0
LINE
  5
BD
100
AcDbEntity
  8
MAIN0
  6
CONTINUOUS
 62
3
100
AcDbLine
 10
690.4876439995220
 20
397.9312927736546
 30
0.0000000000000000
 11
690.4876439994768
 21
413.2312927736538
 31
0.0000000000000000
  0
LINE
  5
BE
100
AcDbEntity
  8
MAIN0
  6
CONTINUOUS
 62
3
100
AcDbLine
 10
689.2170812511795
 20
397.9312927736544
 30
0.0000000000000000
 11
689.2170812511795
 21
413.2312927736538
 31
0.0000000000000000
  0
LINE
  5
BF
100
AcDbEntity
  8
MAIN0
  6
CONTINUOUS
 62
3
100
AcDbLine
 10
682.0023626258576
 20
397.9312927736539
 30
0.0000000000000000
 11
682.7023626258576
 21
397.2312927736538
 31
0.0000000000000000
  0
LINE
  5
C0
100
AcDbEntity
  8
MAIN0
  6
CONTINUOUS
 62
3
100
AcDbLine
 10
697.0023626258576
 20
397.2312927736538
 30
0.0000000000000000
 11
697.7023626258576
 21
397.9312927736538
 31
0.0000000000000000
  0
LINE
  5
C1
100
AcDbEntity
  8
MAIN0
  6
CONTINUOUS
 62
3
100
AcDbLine
 10
682.0023626258576
 20
397.9312927736540
 30
0.0000000000000000
 11
697.7023626258576
 21
397.9312927736550
 31
0.0000000000000000
  0
LINE
  5
C2
100
AcDbEntity
  8
MAIN0
  6
CONTINUOUS
 62
3
100
AcDbLine
 10
689.2170812511795
 20
413.2312927736538
 30
0.0000000000000000
 11
682.0023626258575
 21
413.2312927736538
 31
0.0000000000000000
  0
LINE
  5
C3
100
AcDbEntity
  8
MAIN0
  6
CONTINUOUS
 62
3
100
AcDbLine
 10
697.7023626258575
 20
413.2312927736538
 30
0.0000000000000000
 11
690.4876439994768
 21
413.2312927736538
 31
0.0000000000000000
  0
LINE
  5
C4
100
AcDbEntity
  8
MAIN0
  6
CONTINUOUS
 62
3
100
AcDbLine
 10
682.0023626258574
 20
413.2312927736538
 30
0.0000000000000000
 11
689.2170812511795
 21
397.9312927736544
 31
0.0000000000000000
  0
LINE
  5
C5
100
AcDbEntity
  8
MAIN0
  6
CONTINUOUS
 62
3
100
AcDbLine
 10
689.2170812511795
 20
413.2312927736539
 30
0.0000000000000000
 11
682.0023626258575
 21
397.9312927736538
 31
0.0000000000000000
  0
LINE
  5
C6
100
AcDbEntity
  8
MAIN0
  6
CONTINUOUS
 62
3
100
AcDbLine
 10
697.7023626258574
 20
413.2312927736538
 30
0.0000000000000000
 11
690.4876439995219
 21
397.9312927736546
 31
0.0000000000000000
  0
LINE
  5
C7
100
AcDbEntity
  8
MAIN0
  6
CONTINUOUS
 62
3
100
AcDbLine
 10
690.4876439994766
 20
413.2312927736538
 30
0.0000000000000000
 11
697.7023626258576
 21
397.9312927736550
 31
0.0000000000000000
  0
ARC
  5
C8
100
AcDbEntity
  8
MAIN0
  6
CONTINUOUS
 62
3
100
AcDbCircle
 10
668.8523626258573
 20
542.2312927736539
 30
0.0000000000000000
 40
10.00000000000018
100
AcDbArc
 50
323.1301023541568
 51
396.8698976458433
  0
ARC
  5
C9
100
AcDbEntity
  8
MAIN0
  6
CONTINUOUS
 62
3
100
AcDbCircle
 10
710.8523626258575
 20
542.2312927736538
 30
0.0000000000000000
 40
10.00000000000002
100
AcDbArc
 50
143.1301023541559
 51
216.8698976458442
  0
LINE
  5
CA
100
AcDbEntity
  8
MAIN0
  6
CONTINUOUS
 62
3
100
AcDbLine
 10
702.8523626258575
 20
529.2312927736538
 30
0.0000000000000000
 11
702.8523626258575
 21
536.2312927736538
 31
0.0000000000000000
  0
LINE
  5
CB
100
AcDbEntity
  8
MAIN0
  6
CONTINUOUS
 62
3
100
AcDbLine
 10
702.8523626258575
 20
548.2312927736539
 30
0.0000000000000000
 11
702.8523626258575
 21
555.2312927736538
 31
0.0000000000000000
  0
LINE
  5
CC
100
AcDbEntity
  8
MAIN0
  6
CONTINUOUS
 62
3
100
AcDbLine
 10
676.8523626258575
 20
529.2312927736539
 30
0.0000000000000000
 11
676.8523626258575
 21
536.2312927736539
 31
0.0000000000000000
  0
LINE
  5
CD
100
AcDbEntity
  8
MAIN0
  6
CONTINUOUS
 62
3
100
AcDbLine
 10
676.8523626258575
 20
548.2312927736539
 30
0.0000000000000000
 11
676.8523626258575
 21
555.2312927736538
 31
0.0000000000000000
  0
ARC
  5
CE
100
AcDbEntity
  8
MAIN0
  6
CONTINUOUS
 62
3
100
AcDbCircle
 10
757.3911875383974
 20
545.2312927736539
 30
0.0000000000000000
 40
4.500000000000000
100
AcDbArc
 50
138.1896851042214
 51
221.8103148957786
  0
ARC
  5
CF
100
AcDbEntity
  8
MAIN0
  6
CONTINUOUS
 62
3
100
AcDbCircle
 10
750.6829836058980
 20
545.2312927736539
 30
0.0000000000000000
 40
4.500000000000000
100
AcDbArc
 50
318.1896851042214
 51
401.8103148957786
  0
ARC
  5
D0
100
AcDbEntity
  8
MAIN0
  6
CONTINUOUS
 62
3
100
AcDbCircle
 10
761.8911875383974
 20
545.2312927736539
 30
0.0000000000000000
 40
4.500000000000000
100
AcDbArc
 50
138.1896851042214
 51
221.8103148957786
  0
ARC
  5
D1
100
AcDbEntity
  8
MAIN0
  6
CONTINUOUS
 62
3
100
AcDbCircle
 10
750.6829836058980
 20
539.2312927736539
 30
0.0000000000000000
 40
4.500000000000000
100
AcDbArc
 50
318.1896851042214
 51
401.8103148957786
  0
ARC
  5
D2
100
AcDbEntity
  8
MAIN0
  6
CONTINUOUS
 62
3
100
AcDbCircle
 10
761.8911875383974
 20
539.2312927736539
 30
0.0000000000000000
 40
4.500000000000000
100
AcDbArc
 50
138.1896851042214
 51
221.8103148957786
  0
ARC
  5
D3
100
AcDbEntity
  8
MAIN0
  6
CONTINUOUS
 62
3
100
AcDbCircle
 10
755.1829836058980
 20
539.2312927736539
 30
0.0000000000000000
 40
4.500000000000000
100
AcDbArc
 50
318.1896851042214
 51
401.8103148957786
  0
LINE
  5
D4
100
AcDbEntity
  8
MAIN0
  6
CONTINUOUS
 62
3
100
AcDbLine
 10
754.0370855721476
 20
548.2312927736539
 30
0.0000000000000000
 11
702.8523626258575
 21
548.2312927736539
 31
0.0000000000000000
  0
LINE
  5
D5
100
AcDbEntity
  8
MAIN0
  6
CONTINUOUS
 62
3
100
AcDbLine
 10
793.8523626258575
 20
548.2312927736539
 30
0.0000000000000000
 11
758.5370855721476
 21
548.2312927736539
 31
0.0000000000000000
  0
LINE
  5
D6
100
AcDbEntity
  8
MAIN0
  6
CONTINUOUS
 62
3
100
AcDbLine
 10
754.0370855721476
 20
536.2312927736539
 30
0.0000000000000000
 11
702.8523626258575
 21
536.2312927736539
 31
0.0000000000000000
  0
LINE
  5
D7
100
AcDbEntity
  8
MAIN0
  6
CONTINUOUS
 62
3
100
AcDbLine
 10
793.8523626258575
 20
536.2312927736539
 30
0.0000000000000000
 11
758.5370855721476
 21
536.2312927736539
 31
0.0000000000000000
  0
ARC
  5
D8
100
AcDbEntity
  8
MAIN0
  6
CONTINUOUS
 62
3
100
AcDbCircle
 10
629.2474246768971
 20
545.2312927736539
 30
0.0000000000000000
 40
4.500000000000000
100
AcDbArc
 50
138.1896851042214
 51
221.8103148957786
  0
ARC
  5
D9
100
AcDbEntity
  8
MAIN0
  6
CONTINUOUS
 62
3
100
AcDbCircle
 10
622.5392207443978
 20
545.2312927736539
 30
0.0000000000000000
 40
4.500000000000000
100
AcDbArc
 50
318.1896851042214
 51
401.8103148957786
  0
ARC
  5
DA
100
AcDbEntity
  8
MAIN0
  6
CONTINUOUS
 62
3
100
AcDbCircle
 10
633.7474246768971
 20
545.2312927736539
 30
0.0000000000000000
 40
4.500000000000000
100
AcDbArc
 50
138.1896851042214
 51
221.8103148957786
  0
ARC
  5
DB
100
AcDbEntity
  8
MAIN0
  6
CONTINUOUS
 62
3
100
AcDbCircle
 10
622.5392207443978
 20
539.2312927736539
 30
0.0000000000000000
 40
4.500000000000000
100
AcDbArc
 50
318.1896851042214
 51
401.8103148957786
  0
ARC
  5
DC
100
AcDbEntity
  8
MAIN0
  6
CONTINUOUS
 62
3
100
AcDbCircle
 10
633.7474246768971
 20
539.2312927736539
 30
0.0000000000000000
 40
4.500000000000000
100
AcDbArc
 50
138.1896851042214
 51
221.8103148957786
  0
ARC
  5
DD
100
AcDbEntity
  8
MAIN0
  6
CONTINUOUS
 62
3
100
AcDbCircle
 10
627.0392207443978
 20
539.2312927736539
 30
0.0000000000000000
 40
4.500000000000000
100
AcDbArc
 50
318.1896851042214
 51
401.8103148957786
  0
LINE
  5
DE
100
AcDbEntity
  8
MAIN0
  6
CONTINUOUS
 62
3
100
AcDbLine
 10
625.8933227106475
 20
548.2312927736539
 30
0.0000000000000000
 11
585.8523626258575
 21
548.2312927736539
 31
0.0000000000000000
  0
LINE
  5
DF
100
AcDbEntity
  8
MAIN0
  6
CONTINUOUS
 62
3
100
AcDbLine
 10
676.8523626258576
 20
548.2312927736539
 30
0.0000000000000000
 11
630.3933227106475
 21
548.2312927736539
 31
0.0000000000000000
  0
LINE
  5
E0
100
AcDbEntity
  8
MAIN0
  6
CONTINUOUS
 62
3
100
AcDbLine
 10
625.8933227106475
 20
536.2312927736539
 30
0.0000000000000000
 11
585.8523626258575
 21
536.2312927736539
 31
0.0000000000000000
  0
LINE
  5
E1
100
AcDbEntity
  8
MAIN0
  6
CONTINUOUS
 62
3
100
AcDbLine
 10
676.8523626258576
 20
536.2312927736539
 30
0.0000000000000000
 11
630.3933227106475
 21
536.2312927736539
 31
0.0000000000000000
  0
LINE
  5
E2
100
AcDbEntity
  8
MAIN0
  6
CONTINUOUS
 62
3
100
AcDbLine
 10
238.8964971444668
 20
167.4263482678319
 30
0.0000000000000000
 11
257.9264971444667
 21
167.4263482678482
 31
0.0000000000000000
  0
LINE
  5
E3
100
AcDbEntity
  8
MAIN0
  6
CONTINUOUS
 62
3
100
AcDbLine
 10
199.9114971444804
 20
219.4263482677985
 30
0.0000000000000000
 11
306.9114971444803
 21
219.4263482678901
 31
0.0000000000000000
  0
LINE
  5
E4
100
AcDbEntity
  8
MAIN0
  6
CENTER
 62
3
100
AcDbLine
 10
248.4114971444709
 20
182.9503412956368
 30
0.0000000000000000
 11
248.4114971444657
 21
163.2211960408201
 31
0.0000000000000000
  0
LINE
  5
E5
100
AcDbEntity
  8
MAIN0
  6
CENTER
 62
3
100
AcDbLine
 10
221.4214971444815
 20
223.6968077483990
 30
0.0000000000000000
 11
221.4214971444664
 21
166.0396466428844
 31
0.0000000000000000
  0
LINE
  5
E6
100
AcDbEntity
  8
MAIN0
  6
CENTER
 62
3
100
AcDbLine
 10
275.4014971444818
 20
225.1060464888320
 30
0.0000000000000000
 11
275.4014971444664
 21
165.5699033825979
 31
0.0000000000000000
  0
LINE
  5
E7
100
AcDbEntity
  8
MAIN0
  6
CONTINUOUS
 62
3
100
AcDbLine
 10
198.4114971444685
 20
173.9263482677972
 30
0.0000000000000000
 11
308.4114971444685
 21
173.9263482678914
 31
0.0000000000000000
  0
LINE
  5
E8
100
AcDbEntity
  8
MAIN0
  6
CONTINUOUS
 62
3
100
AcDbLine
 10
257.9264971444677
 20
171.1263482678481
 30
0.0000000000000000
 11
257.9264971444668
 21
167.4263482678481
 31
0.0000000000000000
  0
LINE
  5
E9
100
AcDbEntity
  8
MAIN0
  6
CONTINUOUS
 62
3
100
AcDbLine
 10
238.8964971444678
 20
171.1263482678318
 30
0.0000000000000000
 11
238.8964971444668
 21
167.4263482678318
 31
0.0000000000000000
  0
LINE
  5
EA
100
AcDbEntity
  8
MAIN0
  6
CONTINUOUS
 62
3
100
AcDbLine
 10
260.9264971444677
 20
171.1263482678508
 30
0.0000000000000000
 11
260.9264971444676
 21
170.4263482678506
 31
0.0000000000000000
  0
LINE
  5
EB
100
AcDbEntity
  8
MAIN0
  6
CONTINUOUS
 62
3
100
AcDbLine
 10
235.8964971444678
 20
171.1263482678293
 30
0.0000000000000000
 11
235.8964971444676
 21
170.4263482678294
 31
0.0000000000000000
  0
LINE
  5
EC
100
AcDbEntity
  8
MAIN0
  6
CONTINUOUS
 62
3
100
AcDbLine
 10
198.7114971444676
 20
170.4263482677976
 30
0.0000000000000000
 11
235.8964971444684
 21
170.4263482678293
 31
0.0000000000000000
  0
LINE
  5
ED
100
AcDbEntity
  8
MAIN0
  6
CONTINUOUS
 62
3
100
AcDbLine
 10
260.9264971444676
 20
170.4263482678507
 30
0.0000000000000000
 11
308.1114971444675
 21
170.4263482678911
 31
0.0000000000000000
  0
LINE
  5
EE
100
AcDbEntity
  8
MAIN0
  6
CONTINUOUS
 62
3
100
AcDbLine
 10
235.8964971444677
 20
171.1263482678293
 30
0.0000000000000000
 11
238.8964971444677
 21
171.1263482678318
 31
0.0000000000000000
  0
LINE
  5
EF
100
AcDbEntity
  8
MAIN0
  6
CONTINUOUS
 62
3
100
AcDbLine
 10
257.9264971444677
 20
171.1263482678482
 30
0.0000000000000000
 11
260.9264971444669
 21
171.1263482678507
 31
0.0000000000000000
  0
LINE
  5
F0
100
AcDbEntity
  8
MAIN0
  6
CONTINUOUS
 62
3
100
AcDbLine
 10
232.0214971444804
 20
219.4263482678170
 30
0.0000000000000000
 11
231.4214971444804
 21
218.8263482678170
 31
0.0000000000000000
  0
LINE
  5
F1
100
AcDbEntity
  8
MAIN0
  6
CONTINUOUS
 62
3
100
AcDbLine
 10
231.4214971444804
 20
218.8263482678169
 30
0.0000000000000000
 11
231.4214971444809
 21
180.9263482678169
 31
0.0000000000000000
  0
LINE
  5
F2
100
AcDbEntity
  8
MAIN0
  6
CONTINUOUS
 62
3
100
AcDbLine
 10
231.4214971444809
 20
180.9263482678169
 30
0.0000000000000000
 11
211.4214971444809
 21
180.9263482678169
 31
0.0000000000000000
  0
LINE
  5
F3
100
AcDbEntity
  8
MAIN0
  6
CONTINUOUS
 62
3
100
AcDbLine
 10
211.4214971444809
 20
180.9263482678169
 30
0.0000000000000000
 11
211.4214971444804
 21
218.8263482678169
 31
0.0000000000000000
  0
LINE
  5
F4
100
AcDbEntity
  8
MAIN0
  6
CONTINUOUS
 62
3
100
AcDbLine
 10
211.4214971444803
 20
218.8263482678169
 30
0.0000000000000000
 11
210.8214971444804
 21
219.4263482678169
 31
0.0000000000000000
  0
LINE
  5
F5
100
AcDbEntity
  8
MAIN0
  6
CONTINUOUS
 62
3
100
AcDbLine
 10
228.1714971444809
 20
180.9263482678169
 30
0.0000000000000000
 11
228.1714971444809
 21
174.5263482678168
 31
0.0000000000000000
  0
LINE
  5
F6
100
AcDbEntity
  8
MAIN0
  6
CONTINUOUS
 62
3
100
AcDbLine
 10
228.1714971444808
 20
174.5263482678168
 30
0.0000000000000000
 11
228.7714971444809
 21
173.9263482678168
 31
0.0000000000000000
  0
LINE
  5
F7
100
AcDbEntity
  8
MAIN0
  6
CONTINUOUS
 62
3
100
AcDbLine
 10
214.6714971444809
 20
180.9263482678169
 30
0.0000000000000000
 11
214.6714971444809
 21
174.5263482678168
 31
0.0000000000000000
  0
LINE
  5
F8
100
AcDbEntity
  8
MAIN0
  6
CONTINUOUS
 62
3
100
AcDbLine
 10
214.6714971444809
 20
174.5263482678167
 30
0.0000000000000000
 11
214.0714971444809
 21
173.9263482678167
 31
0.0000000000000000
  0
LINE
  5
F9
100
AcDbEntity
  8
MAIN0
  6
CONTINUOUS
 62
3
100
AcDbLine
 10
286.0014971444803
 20
219.4263482678633
 30
0.0000000000000000
 11
285.4014971444802
 21
218.8263482678633
 31
0.0000000000000000
  0
LINE
  5
FA
100
AcDbEntity
  8
MAIN0
  6
CONTINUOUS
 62
3
100
AcDbLine
 10
285.4014971444804
 20
218.8263482678632
 30
0.0000000000000000
 11
285.4014971444809
 21
180.9263482678632
 31
0.0000000000000000
  0
LINE
  5
FB
100
AcDbEntity
  8
MAIN0
  6
CONTINUOUS
 62
3
100
AcDbLine
 10
285.4014971444809
 20
180.9263482678632
 30
0.0000000000000000
 11
265.4014971444809
 21
180.9263482678632
 31
0.0000000000000000
  0
LINE
  5
FC
100
AcDbEntity
  8
MAIN0
  6
CONTINUOUS
 62
3
100
AcDbLine
 10
265.4014971444809
 20
180.9263482678632
 30
0.0000000000000000
 11
265.4014971444804
 21
218.8263482678631
 31
0.0000000000000000
  0
LINE
  5
FD
100
AcDbEntity
  8
MAIN0
  6
CONTINUOUS
 62
3
100
AcDbLine
 10
265.4014971444804
 20
218.8263482678632
 30
0.0000000000000000
 11
264.8014971444803
 21
219.4263482678632
 31
0.0000000000000000
  0
LINE
  5
FE
100
AcDbEntity
  8
MAIN0
  6
CONTINUOUS
 62
3
100
AcDbLine
 10
282.1514971444809
 20
180.9263482678632
 30
0.0000000000000000
 11
282.1514971444809
 21
174.5263482678631
 31
0.0000000000000000
  0
LINE
  5
FF
100
AcDbEntity
  8
MAIN0
  6
CONTINUOUS
 62
3
100
AcDbLine
 10
282.1514971444809
 20
174.5263482678630
 30
0.0000000000000000
 11
282.7514971444809
 21
173.9263482678630
 31
0.0000000000000000
  0
LINE
  5
100
100
AcDbEntity
  8
MAIN0
  6
CONTINUOUS
 62
3
100
AcDbLine
 10
268.6514971444809
 20
180.9263482678632
 30
0.0000000000000000
 11
268.6514971444809
 21
174.5263482678631
 31
0.0000000000000000
  0
LINE
  5
101
100
AcDbEntity
  8
MAIN0
  6
CONTINUOUS
 62
3
100
AcDbLine
 10
268.6514971444809
 20
174.5263482678632
 30
0.0000000000000000
 11
268.0514971444810
 21
173.9263482678632
 31
0.0000000000000000
  0
LINE
  5
102
100
AcDbEntity
  8
MAIN0
  6
CONTINUOUS
 62
3
100
AcDbLine
 10
308.4114971444800
 20
217.9263482678914
 30
0.0000000000000000
 11
308.4114971444677
 21
170.7263482678913
 31
0.0000000000000000
  0
LINE
  5
103
100
AcDbEntity
  8
MAIN0
  6
CONTINUOUS
 62
3
100
AcDbLine
 10
198.4114971444800
 20
217.9263482677972
 30
0.0000000000000000
 11
198.4114971444677
 21
170.7263482677973
 31
0.0000000000000000
  0
LINE
  5
104
100
AcDbEntity
  8
MAIN0
  6
CONTINUOUS
 62
3
100
AcDbLine
 10
306.9114971444805
 20
219.4263482678900
 30
0.0000000000000000
 11
308.4114971444800
 21
217.9263482678913
 31
0.0000000000000000
  0
LINE
  5
105
100
AcDbEntity
  8
MAIN0
  6
CONTINUOUS
 62
3
100
AcDbLine
 10
199.9114971444802
 20
219.4263482677984
 30
0.0000000000000000
 11
198.4114971444799
 21
217.9263482677972
 31
0.0000000000000000
  0
LINE
  5
106
100
AcDbEntity
  8
MAIN0
  6
CONTINUOUS
 62
3
100
AcDbLine
 10
308.4114971444676
 20
170.7263482678913
 30
0.0000000000000000
 11
308.1114971444675
 21
170.4263482678910
 31
0.0000000000000000
  0
LINE
  5
107
100
AcDbEntity
  8
MAIN0
  6
CONTINUOUS
 62
3
100
AcDbLine
 10
198.4114971444677
 20
170.7263482677973
 30
0.0000000000000000
 11
198.7114971444676
 21
170.4263482677976
 31
0.0000000000000000
  0
MTEXT
  5
108
100
AcDbEntity
  8
MAIN0
  6
CONTINUOUS
 62
3
100
AcDbMText
 10
474.5053198143105
 20
306.1166763399389
 30
0.0000000000000000
 40
6.199999809265137
 41
0.0000000000000000
 71
     1
 72
     1
  1
{\H0.81x;{1}}
 11
1.000000000000000
 21
0.0000000000000000
 31
0.0000000000000000
  7
STANDARD
  0
MTEXT
  5
109
100
AcDbEntity
  8
MAIN0
  6
CONTINUOUS
 62
3
100
AcDbMText
 10
549.7233483517724
 20
510.3903454137962
 30
0.0000000000000000
 40
6.199999809265137
 41
0.0000000000000000
 71
     1
 72
     1
  1
{\H0.81x;{2}}
 11
-0.4999999999983780
 21
0.8660254037853751
 31
0.0000000000000000
  7
STANDARD
  0
MTEXT
  5
10A
100
AcDbEntity
  8
MAIN0
  6
CONTINUOUS
 62
3
100
AcDbMText
 10
331.2492564770384
 20
474.1170052425600
 30
0.0000000000000000
 40
6.199999809265137
 41
0.0000000000000000
 71
     1
 72
     1
  1
{\H0.81x;{3}}
 11
-0.5000000000000142
 21
-0.8660254037844304
 31
0.0000000000000000
  7
STANDARD
  0
CIRCLE
  5
10B
100
AcDbEntity
  8
MAIN0
  6
CONTINUOUS
 62
3
100
AcDbCircle
 10
451.4118287554306
 20
313.7161730424584
 30
0.0000000000000000
 40
9.500000000000000
  0
CIRCLE
  5
10C
100
AcDbEntity
  8
MAIN0
  6
CONTINUOUS
 62
3
100
AcDbCircle
 10
451.4118287555664
 20
367.6961730425155
 30
0.0000000000000000
 40
9.500000000000000
  0
LINE
  5
10D
100
AcDbEntity
  8
MAIN0
  6
CONTINUOUS
 62
3
100
AcDbLine
 10
194.0394414952139
 20
292.7061730424342
 30
0.0000000000000000
 11
223.5394414952139
 21
292.7061730424342
 31
0.0000000000000000
  0
LINE
  5
10E
100
AcDbEntity
  8
MAIN0
  6
CONTINUOUS
 62
3
100
AcDbLine
 10
244.0394414952139
 20
291.7061730424491
 30
0.0000000000000000
 11
243.0394414952139
 21
290.7061730424491
 31
0.0000000000000000
  0
LINE
  5
10F
100
AcDbEntity
  8
MAIN0
  6
HIDDEN
 62
3
100
AcDbLine
 10
474.6009358592863
 20
464.8223956346614
 30
0.0000000000000000
 11
558.8178743164756
 21
513.4450677229634
 31
0.0000000000000000
  0
LINE
  5
110
100
AcDbEntity
  8
MAIN0
  6
HIDDEN
 62
3
100
AcDbLine
 10
493.8509358591980
 20
431.4804175889095
 30
0.0000000000000000
 11
578.0678743163904
 21
480.1030896772133
 31
0.0000000000000000
  0
LINE
  5
111
100
AcDbEntity
  8
MAIN0
  6
HIDDEN
 62
3
100
AcDbLine
 10
408.9727216521972
 20
431.4804175891342
 30
0.0000000000000000
 11
324.7557831952524
 21
480.1030896778597
 31
0.0000000000000000
  0
LINE
  5
112
100
AcDbEntity
  8
MAIN0
  6
HIDDEN
 62
3
100
AcDbLine
 10
428.2227216522853
 20
464.8223956347841
 30
0.0000000000000000
 11
344.0057831953374
 21
513.4450677235116
 31
0.0000000000000000
  0
LINE
  5
113
100
AcDbEntity
  8
MAIN0
  6
CONTINUOUS
 62
3
100
AcDbLine
 10
227.0394414952139
 20
350.2211730424490
 30
0.0000000000000000
 11
227.0394414952139
 21
390.7061730424491
 31
0.0000000000000000
  0
LINE
  5
114
100
AcDbEntity
  8
MAIN0
  6
CONTINUOUS
 62
3
100
AcDbLine
 10
220.0394414952139
 20
350.2211730424490
 30
0.0000000000000000
 11
226.5394414952139
 21
350.2211730424490
 31
0.0000000000000000
  0
LINE
  5
115
100
AcDbEntity
  8
MAIN0
  6
CONTINUOUS
 62
3
100
AcDbLine
 10
226.5394414952139
 20
350.2211730424490
 30
0.0000000000000000
 11
227.0394414952139
 21
350.2211730424490
 31
0.0000000000000000
  0
LINE
  5
116
100
AcDbEntity
  8
MAIN0
  6
CONTINUOUS
 62
3
100
AcDbLine
 10
220.0394414952139
 20
331.1911730424491
 30
0.0000000000000000
 11
226.5394414952139
 21
331.1911730424491
 31
0.0000000000000000
  0
LINE
  5
117
100
AcDbEntity
  8
MAIN0
  6
CONTINUOUS
 62
3
100
AcDbLine
 10
226.5394414952139
 20
331.1911730424491
 30
0.0000000000000000
 11
227.0394414952139
 21
331.1911730424491
 31
0.0000000000000000
  0
LINE
  5
118
100
AcDbEntity
  8
MAIN0
  6
CONTINUOUS
 62
3
100
AcDbLine
 10
223.5394414952137
 20
293.5063218480524
 30
0.0000000000000000
 11
226.5394414952139
 21
293.5063218480524
 31
0.0000000000000000
  0
LINE
  5
119
100
AcDbEntity
  8
MAIN0
  6
CONTINUOUS
 62
3
100
AcDbLine
 10
226.5394414952139
 20
293.5063218480524
 30
0.0000000000000000
 11
227.0394414952139
 21
293.5063218480524
 31
0.0000000000000000
  0
LINE
  5
11A
100
AcDbEntity
  8
MAIN0
  6
CONTINUOUS
 62
3
100
AcDbLine
 10
223.5394414952139
 20
292.7061730424491
 30
0.0000000000000000
 11
223.5394414952139
 21
293.5063218480524
 31
0.0000000000000000
  0
LINE
  5
11B
100
AcDbEntity
  8
MAIN0
  6
CONTINUOUS
 62
3
100
AcDbLine
 10
223.5394414952139
 20
293.5063218480524
 30
0.0000000000000000
 11
223.5394414952139
 21
331.1911730424491
 31
0.0000000000000000
  0
LINE
  5
11C
100
AcDbEntity
  8
MAIN0
  6
CONTINUOUS
 62
3
100
AcDbLine
 10
433.9118287556914
 20
299.9169830883190
 30
0.0000000000000000
 11
433.9118287556914
 21
390.4763395803749
 31
0.0000000000000000
  0
ARC
  5
11D
100
AcDbEntity
  8
MAIN0
  6
HIDDEN
 62
3
100
AcDbCircle
 10
451.4118287556915
 20
432.7061730424491
 30
0.0000000000000000
 40
42.00000000000000
100
AcDbArc
 50
267.9532869016993
 51
272.0467130981292
  0
LINE
  5
11E
100
AcDbEntity
  8
MAIN0
  6
HIDDEN
 62
3
100
AcDbLine
 10
437.9118287556914
 20
383.8047640735346
 30
0.0000000000000000
 11
449.9118287552313
 21
390.7329673035658
 31
0.0000000000000000
  0
LINE
  5
11F
100
AcDbEntity
  8
MAIN0
  6
HIDDEN
 62
3
100
AcDbLine
 10
452.9118287560260
 20
390.7329673035614
 30
0.0000000000000000
 11
464.9118287556917
 21
383.8047640734957
 31
0.0000000000000000
  0
LINE
  5
120
100
AcDbEntity
  8
MAIN0
  6
CONTINUOUS
 62
3
100
AcDbLine
 10
464.9118287556914
 20
293.3753959703878
 30
0.0000000000000000
 11
464.9118287556914
 21
297.6075820124064
 31
0.0000000000000000
  0
LINE
  5
121
100
AcDbEntity
  8
MAIN0
  6
CONTINUOUS
 62
3
100
AcDbLine
 10
437.9118287556914
 20
293.3753959703878
 30
0.0000000000000000
 11
437.9118287556914
 21
297.6075820115617
 31
0.0000000000000000
  0
LINE
  5
122
100
AcDbEntity
  8
MAIN0
  6
PHANTOM
 62
3
100
AcDbLine
 10
208.0394414952139
 20
442.7061730424491
 30
0.0000000000000000
 11
223.5394414952139
 21
442.7061730424491
 31
0.0000000000000000
  0
LINE
  5
123
100
AcDbEntity
  8
MAIN0
  6
PHANTOM
 62
3
100
AcDbLine
 10
208.0394414952139
 20
442.7061730424491
 30
0.0000000000000000
 11
208.0394414952139
 21
448.4561730424491
 31
0.0000000000000000
  0
LINE
  5
124
100
AcDbEntity
  8
MAIN0
  6
PHANTOM
 62
3
100
AcDbLine
 10
198.5394414952139
 20
448.2061730424491
 30
0.0000000000000000
 11
208.0394414952139
 21
448.2061730424491
 31
0.0000000000000000
  0
LINE
  5
125
100
AcDbEntity
  8
MAIN0
  6
PHANTOM
 62
3
100
AcDbLine
 10
198.5394414952139
 20
448.4561730424491
 30
0.0000000000000000
 11
208.0394414952139
 21
448.4561730424491
 31
0.0000000000000000
  0
LINE
  5
126
100
AcDbEntity
  8
MAIN0
  6
PHANTOM
 62
3
100
AcDbLine
 10
198.5394414952139
 20
442.9561730424491
 30
0.0000000000000000
 11
198.5394414952139
 21
448.4561730424491
 31
0.0000000000000000
  0
LINE
  5
127
100
AcDbEntity
  8
MAIN0
  6
PHANTOM
 62
3
100
AcDbLine
 10
188.7394414952138
 20
442.9561730424491
 30
0.0000000000000000
 11
198.5394414952139
 21
442.9561730424491
 31
0.0000000000000000
  0
LINE
  5
128
100
AcDbEntity
  8
MAIN0
  6
PHANTOM
 62
3
100
AcDbLine
 10
194.0394414952139
 20
415.4561730424491
 30
0.0000000000000000
 11
194.0394414952139
 21
442.9561730424491
 31
0.0000000000000000
  0
LINE
  5
129
100
AcDbEntity
  8
MAIN0
  6
PHANTOM
 62
3
100
AcDbLine
 10
188.7394414952138
 20
415.4561730424491
 30
0.0000000000000000
 11
188.7394414952138
 21
442.9561730424491
 31
0.0000000000000000
  0
LINE
  5
12A
100
AcDbEntity
  8
MAIN0
  6
PHANTOM
 62
3
100
AcDbLine
 10
189.0394414952139
 20
415.4561730424491
 30
0.0000000000000000
 11
189.0394414952139
 21
442.9561730424491
 31
0.0000000000000000
  0
LINE
  5
12B
100
AcDbEntity
  8
MAIN0
  6
PHANTOM
 62
3
100
AcDbLine
 10
188.7394414952138
 20
415.4561730424491
 30
0.0000000000000000
 11
198.5394414952139
 21
415.4561730424491
 31
0.0000000000000000
  0
LINE
  5
12C
100
AcDbEntity
  8
MAIN0
  6
PHANTOM
 62
3
100
AcDbLine
 10
198.5394414952139
 20
409.9561730424491
 30
0.0000000000000000
 11
198.5394414952139
 21
415.4561730424491
 31
0.0000000000000000
  0
LINE
  5
12D
100
AcDbEntity
  8
MAIN0
  6
PHANTOM
 62
3
100
AcDbLine
 10
198.5394414952139
 20
409.9561730424491
 30
0.0000000000000000
 11
208.0394414952139
 21
409.9561730424491
 31
0.0000000000000000
  0
LINE
  5
12E
100
AcDbEntity
  8
MAIN0
  6
PHANTOM
 62
3
100
AcDbLine
 10
198.5394414952139
 20
410.2061730424491
 30
0.0000000000000000
 11
208.0394414952139
 21
410.2061730424491
 31
0.0000000000000000
  0
LINE
  5
12F
100
AcDbEntity
  8
MAIN0
  6
PHANTOM
 62
3
100
AcDbLine
 10
208.0394414952139
 20
409.9561730424491
 30
0.0000000000000000
 11
208.0394414952139
 21
415.7061730424491
 31
0.0000000000000000
  0
LINE
  5
130
100
AcDbEntity
  8
MAIN0
  6
PHANTOM
 62
3
100
AcDbLine
 10
208.0394414952139
 20
415.7061730424491
 30
0.0000000000000000
 11
223.5394414952139
 21
415.7061730424491
 31
0.0000000000000000
  0
LINE
  5
131
100
AcDbEntity
  8
MAIN0
  6
CONTINUOUS
 62
3
100
AcDbLine
 10
133.5394414952139
 20
292.7061730424491
 30
0.0000000000000000
 11
216.5394414952138
 21
292.7061730424491
 31
0.0000000000000000
  0
LINE
  5
132
100
AcDbEntity
  8
MAIN0
  6
CONTINUOUS
 62
3
100
AcDbLine
 10
218.5394414952139
 20
292.7061730424342
 30
0.0000000000000000
 11
218.5394414952139
 21
389.4071349368570
 31
0.0000000000000000
  0
LINE
  5
133
100
AcDbEntity
  8
MAIN0
  6
CONTINUOUS
 62
3
100
AcDbLine
 10
243.4394414952138
 20
323.2161730424490
 30
0.0000000000000000
 11
244.0394414952139
 21
323.8161730424491
 31
0.0000000000000000
  0
LINE
  5
134
100
AcDbEntity
  8
MAIN0
  6
HIDDEN
 62
3
100
AcDbLine
 10
243.4394414952139
 20
304.2161730424490
 30
0.0000000000000000
 11
244.0394414952139
 21
303.6161730424491
 31
0.0000000000000000
  0
LINE
  5
135
100
AcDbEntity
  8
MAIN0
  6
CONTINUOUS
 62
3
100
AcDbLine
 10
562.2947323158775
 20
508.8129045295695
 30
0.0000000000000000
 11
558.6295516899475
 21
506.6968115085602
 31
0.0000000000000000
  0
LINE
  5
136
100
AcDbEntity
  8
MAIN0
  6
CONTINUOUS
 62
3
100
AcDbLine
 10
575.7947323158776
 20
485.4302186273897
 30
0.0000000000000000
 11
572.1295516906789
 21
483.3141256068027
 31
0.0000000000000000
  0
LINE
  5
137
100
AcDbEntity
  8
MAIN0
  6
CONTINUOUS
 62
3
100
AcDbLine
 10
327.0289251955057
 20
485.4302186273899
 30
0.0000000000000000
 11
330.6941058214358
 21
483.3141256063806
 31
0.0000000000000000
  0
LINE
  5
138
100
AcDbEntity
  8
MAIN0
  6
CONTINUOUS
 62
3
100
AcDbLine
 10
340.5289251955057
 20
508.8129045295698
 30
0.0000000000000000
 11
344.1941058207043
 21
506.6968115089828
 31
0.0000000000000000
  0
LINE
  5
139
100
AcDbEntity
  8
MAIN0
  6
CENTER
 62
3
100
AcDbLine
 10
319.2663495693245
 20
505.5004010228781
 30
0.0000000000000000
 11
451.4118287556429
 21
429.2061730424491
 31
0.0000000000000000
  0
LINE
  5
13A
100
AcDbEntity
  8
MAIN0
  6
CENTER
 62
3
100
AcDbLine
 10
451.4118287556321
 20
429.2061730424491
 30
0.0000000000000000
 11
587.7523938287370
 21
507.9224349884148
 31
0.0000000000000000
  0
LINE
  5
13B
100
AcDbEntity
  8
MAIN0
  6
CENTER
 62
3
100
AcDbLine
 10
125.2938299605756
 20
553.2061730424491
 30
0.0000000000000000
 11
222.1426076614000
 21
553.2061730424491
 31
0.0000000000000000
  0
LINE
  5
13C
100
AcDbEntity
  8
MAIN0
  6
HIDDEN
 62
3
100
AcDbLine
 10
218.5394414952138
 20
542.6061730424491
 30
0.0000000000000000
 11
217.9394414952138
 21
543.2061730424491
 31
0.0000000000000000
  0
LINE
  5
13D
100
AcDbEntity
  8
MAIN0
  6
HIDDEN
 62
3
100
AcDbLine
 10
217.9394414952139
 20
543.2061730424491
 30
0.0000000000000000
 11
204.0394414952139
 21
543.2061730424491
 31
0.0000000000000000
  0
LINE
  5
13E
100
AcDbEntity
  8
MAIN0
  6
HIDDEN
 62
3
100
AcDbLine
 10
204.0394414952139
 20
543.2061730424491
 30
0.0000000000000000
 11
204.0394414952139
 21
563.2061730424491
 31
0.0000000000000000
  0
LINE
  5
13F
100
AcDbEntity
  8
MAIN0
  6
HIDDEN
 62
3
100
AcDbLine
 10
204.0394414952139
 20
563.2061730424491
 30
0.0000000000000000
 11
217.9394414952139
 21
563.2061730424491
 31
0.0000000000000000
  0
LINE
  5
140
100
AcDbEntity
  8
MAIN0
  6
HIDDEN
 62
3
100
AcDbLine
 10
217.9394414952138
 20
563.2061730424491
 30
0.0000000000000000
 11
218.5394414952138
 21
563.8061730424490
 31
0.0000000000000000
  0
LINE
  5
141
100
AcDbEntity
  8
MAIN0
  6
HIDDEN
 62
3
100
AcDbLine
 10
204.0394414952139
 20
546.4561730424491
 30
0.0000000000000000
 11
133.1394414952138
 21
546.4561730424491
 31
0.0000000000000000
  0
LINE
  5
142
100
AcDbEntity
  8
MAIN0
  6
HIDDEN
 62
3
100
AcDbLine
 10
133.1394414952138
 20
546.4561730424491
 30
0.0000000000000000
 11
132.5394414952137
 21
545.8561730424492
 31
0.0000000000000000
  0
LINE
  5
143
100
AcDbEntity
  8
MAIN0
  6
HIDDEN
 62
3
100
AcDbLine
 10
204.0394414952139
 20
559.9561730424491
 30
0.0000000000000000
 11
133.1394414952139
 21
559.9561730424491
 31
0.0000000000000000
  0
LINE
  5
144
100
AcDbEntity
  8
MAIN0
  6
HIDDEN
 62
3
100
AcDbLine
 10
133.1394414952138
 20
559.9561730424491
 30
0.0000000000000000
 11
132.5394414952138
 21
560.5561730424490
 31
0.0000000000000000
  0
CIRCLE
  5
145
100
AcDbEntity
  8
MAIN0
  6
CONTINUOUS
 62
3
100
AcDbCircle
 10
575.4118287556915
 20
429.2061730424491
 30
0.0000000000000000
 40
9.500000000000000
  0
CIRCLE
  5
146
100
AcDbEntity
  8
MAIN0
  6
CONTINUOUS
 62
3
100
AcDbCircle
 10
389.4118287556916
 20
536.5933231117194
 30
0.0000000000000000
 40
9.500000000000000
  0
CIRCLE
  5
147
100
AcDbEntity
  8
MAIN0
  6
CONTINUOUS
 62
3
100
AcDbCircle
 10
389.4118287556915
 20
321.8190229731787
 30
0.0000000000000000
 40
9.500000000000000
  0
LINE
  5
148
100
AcDbEntity
  8
MAIN0
  6
CENTER
 62
3
100
AcDbLine
 10
380.5611457144792
 20
551.9231558218155
 30
0.0000000000000000
 11
396.1831762091537
 21
524.8650052874124
 31
0.0000000000000000
  0
LINE
  5
149
100
AcDbEntity
  8
MAIN0
  6
CENTER
 62
3
100
AcDbLine
 10
379.2408566212120
 20
304.2023824749405
 30
0.0000000000000000
 11
397.3338079590689
 21
335.5402934507060
 31
0.0000000000000000
  0
CIRCLE
  5
14A
100
AcDbEntity
  8
MAIN0
  6
CONTINUOUS
 62
3
100
AcDbCircle
 10
575.4118287556915
 20
429.2061730424491
 30
0.0000000000000000
 40
9.000000000000000
  0
LINE
  5
14B
100
AcDbEntity
  8
MAIN0
  6
CONTINUOUS
 62
3
100
AcDbLine
 10
575.4118287556917
 20
434.9796757343453
 30
0.0000000000000000
 11
570.4118287556917
 21
432.0929243883972
 31
0.0000000000000000
  0
LINE
  5
14C
100
AcDbEntity
  8
MAIN0
  6
CONTINUOUS
 62
3
100
AcDbLine
 10
570.4118287556915
 20
432.0929243883972
 30
0.0000000000000000
 11
570.4118287556915
 21
426.3194216965009
 31
0.0000000000000000
  0
LINE
  5
14D
100
AcDbEntity
  8
MAIN0
  6
CONTINUOUS
 62
3
100
AcDbLine
 10
570.4118287556917
 20
426.3194216965009
 30
0.0000000000000000
 11
575.4118287556917
 21
423.4326703505528
 31
0.0000000000000000
  0
LINE
  5
14E
100
AcDbEntity
  8
MAIN0
  6
CONTINUOUS
 62
3
100
AcDbLine
 10
575.4118287556917
 20
423.4326703505528
 30
0.0000000000000000
 11
580.4118287556915
 21
426.3194216965009
 31
0.0000000000000000
  0
LINE
  5
14F
100
AcDbEntity
  8
MAIN0
  6
CONTINUOUS
 62
3
100
AcDbLine
 10
580.4118287556915
 20
426.3194216965009
 30
0.0000000000000000
 11
580.4118287556915
 21
432.0929243883972
 31
0.0000000000000000
  0
LINE
  5
150
100
AcDbEntity
  8
MAIN0
  6
CONTINUOUS
 62
3
100
AcDbLine
 10
580.4118287556915
 20
432.0929243883972
 30
0.0000000000000000
 11
575.4118287556917
 21
434.9796757343453
 31
0.0000000000000000
  0
CIRCLE
  5
151
100
AcDbEntity
  8
MAIN0
  6
CONTINUOUS
 62
3
100
AcDbCircle
 10
389.4118287556916
 20
536.5933231117194
 30
0.0000000000000000
 40
9.000000000000000
  0
LINE
  5
152
100
AcDbEntity
  8
MAIN0
  6
CONTINUOUS
 62
3
100
AcDbLine
 10
384.4118287556915
 20
533.7065717657714
 30
0.0000000000000000
 11
389.4118287556915
 21
530.8198204198233
 31
0.0000000000000000
  0
LINE
  5
153
100
AcDbEntity
  8
MAIN0
  6
CONTINUOUS
 62
3
100
AcDbLine
 10
389.4118287556915
 20
530.8198204198233
 30
0.0000000000000000
 11
394.4118287556915
 21
533.7065717657714
 31
0.0000000000000000
  0
LINE
  5
154
100
AcDbEntity
  8
MAIN0
  6
CONTINUOUS
 62
3
100
AcDbLine
 10
394.4118287556915
 20
533.7065717657713
 30
0.0000000000000000
 11
394.4118287556915
 21
539.4800744576676
 31
0.0000000000000000
  0
LINE
  5
155
100
AcDbEntity
  8
MAIN0
  6
CONTINUOUS
 62
3
100
AcDbLine
 10
394.4118287556915
 20
539.4800744576677
 30
0.0000000000000000
 11
389.4118287556915
 21
542.3668258036157
 31
0.0000000000000000
  0
LINE
  5
156
100
AcDbEntity
  8
MAIN0
  6
CONTINUOUS
 62
3
100
AcDbLine
 10
389.4118287556915
 20
542.3668258036157
 30
0.0000000000000000
 11
384.4118287556915
 21
539.4800744576676
 31
0.0000000000000000
  0
LINE
  5
157
100
AcDbEntity
  8
MAIN0
  6
CONTINUOUS
 62
3
100
AcDbLine
 10
384.4118287556915
 20
539.4800744576676
 30
0.0000000000000000
 11
384.4118287556915
 21
533.7065717657713
 31
0.0000000000000000
  0
CIRCLE
  5
158
100
AcDbEntity
  8
MAIN0
  6
CONTINUOUS
 62
3
100
AcDbCircle
 10
389.4118287556915
 20
321.8190229731787
 30
0.0000000000000000
 40
9.000000000000000
  0
LINE
  5
159
100
AcDbEntity
  8
MAIN0
  6
CONTINUOUS
 62
3
100
AcDbLine
 10
394.4118287556915
 20
318.9322716272305
 30
0.0000000000000000
 11
394.4118287556915
 21
324.7057743191268
 31
0.0000000000000000
  0
LINE
  5
15A
100
AcDbEntity
  8
MAIN0
  6
CONTINUOUS
 62
3
100
AcDbLine
 10
394.4118287556915
 20
324.7057743191269
 30
0.0000000000000000
 11
389.4118287556915
 21
327.5925256650750
 31
0.0000000000000000
  0
LINE
  5
15B
100
AcDbEntity
  8
MAIN0
  6
CONTINUOUS
 62
3
100
AcDbLine
 10
389.4118287556914
 20
327.5925256650749
 30
0.0000000000000000
 11
384.4118287556914
 21
324.7057743191268
 31
0.0000000000000000
  0
LINE
  5
15C
100
AcDbEntity
  8
MAIN0
  6
CONTINUOUS
 62
3
100
AcDbLine
 10
384.4118287556915
 20
324.7057743191268
 30
0.0000000000000000
 11
384.4118287556915
 21
318.9322716272305
 31
0.0000000000000000
  0
LINE
  5
15D
100
AcDbEntity
  8
MAIN0
  6
CONTINUOUS
 62
3
100
AcDbLine
 10
384.4118287556915
 20
318.9322716272307
 30
0.0000000000000000
 11
389.4118287556915
 21
316.0455202812825
 31
0.0000000000000000
  0
LINE
  5
15E
100
AcDbEntity
  8
MAIN0
  6
HIDDEN
 62
3
100
AcDbLine
 10
389.4118287556915
 20
316.0455202812824
 30
0.0000000000000000
 11
394.4118287556914
 21
318.9322716272305
 31
0.0000000000000000
  0
LINE
  5
15F
100
AcDbEntity
  8
MAIN0
  6
CONTINUOUS
 62
3
100
AcDbLine
 10
218.5394414952139
 20
503.3942740424491
 30
0.0000000000000000
 11
218.5394414952139
 21
564.7061730424491
 31
0.0000000000000000
  0
LINE
  5
160
100
AcDbEntity
  8
MAIN0
  6
CONTINUOUS
 62
3
100
AcDbLine
 10
218.5394414952139
 20
389.4071349368570
 30
0.0000000000000000
 11
218.5394414952139
 21
503.3942740424491
 31
0.0000000000000000
  0
ARC
  5
161
100
AcDbEntity
  8
MAIN0
  6
CENTER
 62
3
100
AcDbCircle
 10
451.4118287556915
 20
429.2061730424491
 30
0.0000000000000000
 40
124.0000000000000
100
AcDbArc
 50
348.7198985870712
 51
374.3125922880166
  0
ARC
  5
162
100
AcDbEntity
  8
MAIN0
  6
CENTER
 62
3
100
AcDbCircle
 10
451.4118287556915
 20
429.2061730424491
 30
0.0000000000000000
 40
124.0000000000000
100
AcDbArc
 50
112.1897217206521
 51
129.6349983539123
  0
ARC
  5
163
100
AcDbEntity
  8
MAIN0
  6
CENTER
 62
3
100
AcDbCircle
 10
451.4118287556915
 20
429.2061730424491
 30
0.0000000000000000
 40
124.0000000000000
100
AcDbArc
 50
182.4000668774730
 51
248.8239027487655
  0
LINE
  5
164
100
AcDbEntity
  8
MAIN0
  6
HIDDEN
 62
3
100
AcDbLine
 10
150.0394414952139
 20
364.2061730424491
 30
0.0000000000000000
 11
150.0394414952139
 21
494.2061730424491
 31
0.0000000000000000
  0
LINE
  5
165
100
AcDbEntity
  8
MAIN0
  6
HIDDEN
 62
3
100
AcDbLine
 10
150.0394414952139
 20
471.7061730424491
 30
0.0000000000000000
 11
218.5394414952139
 21
471.7061730424491
 31
0.0000000000000000
  0
LINE
  5
166
100
AcDbEntity
  8
MAIN0
  6
CONTINUOUS
 62
3
100
AcDbLine
 10
272.5394414952139
 20
361.7061730424491
 30
0.0000000000000000
 11
272.5394414952139
 21
389.7061730424491
 31
0.0000000000000000
  0
LINE
  5
167
100
AcDbEntity
  8
MAIN0
  6
CONTINUOUS
 62
3
100
AcDbLine
 10
271.5394414952139
 20
390.7061730424491
 30
0.0000000000000000
 11
272.5394414952139
 21
389.7061730424491
 31
0.0000000000000000
  0
LINE
  5
168
100
AcDbEntity
  8
MAIN0
  6
CONTINUOUS
 62
3
100
AcDbLine
 10
272.5394414952139
 20
361.7061730424491
 30
0.0000000000000000
 11
271.5394414952139
 21
360.7061730424491
 31
0.0000000000000000
  0
LINE
  5
169
100
AcDbEntity
  8
MAIN0
  6
CONTINUOUS
 62
3
100
AcDbLine
 10
258.5394414952139
 20
336.7061730424491
 30
0.0000000000000000
 11
258.5394414952139
 21
357.2061730424491
 31
0.0000000000000000
  0
LINE
  5
16A
100
AcDbEntity
  8
MAIN0
  6
CONTINUOUS
 62
3
100
AcDbLine
 10
244.5394414952139
 20
300.7061730424491
 30
0.0000000000000000
 11
244.5394414952139
 21
325.2061730424491
 31
0.0000000000000000
  0
LINE
  5
16B
100
AcDbEntity
  8
MAIN0
  6
CENTER
 62
3
100
AcDbLine
 10
264.5394414952139
 20
385.9106251563206
 30
0.0000000000000000
 11
264.5394414952139
 21
393.2686222136498
 31
0.0000000000000000
  0
LINE
  5
16C
100
AcDbEntity
  8
MAIN0
  6
CENTER
 62
3
100
AcDbLine
 10
257.0394414952139
 20
385.9106251563206
 30
0.0000000000000000
 11
257.0394414952139
 21
393.2686222136498
 31
0.0000000000000000
  0
LINE
  5
16D
100
AcDbEntity
  8
MAIN0
  6
CENTER
 62
3
100
AcDbLine
 10
249.5394414952139
 20
385.9106251563206
 30
0.0000000000000000
 11
249.5394414952139
 21
393.2686222136498
 31
0.0000000000000000
  0
LINE
  5
16E
100
AcDbEntity
  8
MAIN0
  6
CENTER
 62
3
100
AcDbLine
 10
242.0394414952139
 20
385.9106251563206
 30
0.0000000000000000
 11
242.0394414952139
 21
393.2686222136498
 31
0.0000000000000000
  0
LINE
  5
16F
100
AcDbEntity
  8
MAIN0
  6
CONTINUOUS
 62
3
100
AcDbLine
 10
265.0590567373678
 20
389.4411095330327
 30
0.0000000000000000
 11
265.7894414950711
 21
390.7061730424491
 31
0.0000000000000000
  0
LINE
  5
170
100
AcDbEntity
  8
MAIN0
  6
CONTINUOUS
 62
3
100
AcDbLine
 10
263.2894414951225
 20
390.7061730424489
 30
0.0000000000000000
 11
264.0198262528265
 21
389.4411095330324
 31
0.0000000000000000
  0
ARC
  5
171
100
AcDbEntity
  8
MAIN0
  6
CONTINUOUS
 62
3
100
AcDbCircle
 10
264.5394414950970
 20
389.7411095330326
 30
0.0000000000000000
 40
0.6000000000000001
100
AcDbArc
 50
210.0000000000213
 51
330.0000000000164
  0
LINE
  5
172
100
AcDbEntity
  8
MAIN0
  6
CONTINUOUS
 62
3
100
AcDbLine
 10
258.2894414954670
 20
390.7061730424491
 30
0.0000000000000000
 11
263.2894414951225
 21
390.7061730424491
 31
0.0000000000000000
  0
LINE
  5
173
100
AcDbEntity
  8
MAIN0
  6
CONTINUOUS
 62
3
100
AcDbLine
 10
265.7894414950710
 20
390.7061730424491
 30
0.0000000000000000
 11
271.5394414952139
 21
390.7061730424491
 31
0.0000000000000000
  0
LINE
  5
174
100
AcDbEntity
  8
MAIN0
  6
CENTER
 62
3
100
AcDbLine
 10
234.4594414952138
 20
385.9106251563206
 30
0.0000000000000000
 11
234.4594414952138
 21
393.2686222136498
 31
0.0000000000000000
  0
LINE
  5
175
100
AcDbEntity
  8
MAIN0
  6
CONTINUOUS
 62
3
100
AcDbLine
 10
242.5590567375933
 20
389.4411095327378
 30
0.0000000000000000
 11
243.2894414954670
 21
390.7061730424489
 31
0.0000000000000000
  0
LINE
  5
176
100
AcDbEntity
  8
MAIN0
  6
CONTINUOUS
 62
3
100
AcDbLine
 10
240.7894414951778
 20
390.7061730424490
 30
0.0000000000000000
 11
241.5198262530520
 21
389.4411095327376
 31
0.0000000000000000
  0
ARC
  5
177
100
AcDbEntity
  8
MAIN0
  6
CONTINUOUS
 62
3
100
AcDbCircle
 10
242.0394414953226
 20
389.7411095327378
 30
0.0000000000000000
 40
0.6000000000000001
100
AcDbArc
 50
210.0000000000132
 51
329.9999999999996
  0
LINE
  5
178
100
AcDbEntity
  8
MAIN0
  6
CONTINUOUS
 62
3
100
AcDbLine
 10
234.9790567375933
 20
389.4411095327378
 30
0.0000000000000000
 11
235.7094414954670
 21
390.7061730424490
 31
0.0000000000000000
  0
LINE
  5
179
100
AcDbEntity
  8
MAIN0
  6
CONTINUOUS
 62
3
100
AcDbLine
 10
233.2094414951778
 20
390.7061730424491
 30
0.0000000000000000
 11
233.9398262530521
 21
389.4411095327376
 31
0.0000000000000000
  0
ARC
  5
17A
100
AcDbEntity
  8
MAIN0
  6
CONTINUOUS
 62
3
100
AcDbCircle
 10
234.4594414953226
 20
389.7411095327378
 30
0.0000000000000000
 40
0.6000000000000001
100
AcDbArc
 50
210.0000000000132
 51
329.9999999999996
  0
LINE
  5
17B
100
AcDbEntity
  8
MAIN0
  6
CONTINUOUS
 62
3
100
AcDbLine
 10
243.2894414954670
 20
390.7061730424491
 30
0.0000000000000000
 11
248.2894414951778
 21
390.7061730424491
 31
0.0000000000000000
  0
LINE
  5
17C
100
AcDbEntity
  8
MAIN0
  6
CONTINUOUS
 62
3
100
AcDbLine
 10
220.2894414952170
 20
390.7061730424491
 30
0.0000000000000000
 11
233.2094414951778
 21
390.7061730424491
 31
0.0000000000000000
  0
LINE
  5
17D
100
AcDbEntity
  8
MAIN0
  6
CONTINUOUS
 62
3
100
AcDbLine
 10
235.7094414954670
 20
390.7061730424491
 30
0.0000000000000000
 11
240.7894414951778
 21
390.7061730424491
 31
0.0000000000000000
  0
LINE
  5
17E
100
AcDbEntity
  8
MAIN0
  6
CENTER
 62
3
100
AcDbLine
 10
265.7394414952138
 20
355.4843986969736
 30
0.0000000000000000
 11
265.7394414952138
 21
365.4158964416171
 31
0.0000000000000000
  0
LINE
  5
17F
100
AcDbEntity
  8
MAIN0
  6
CONTINUOUS
 62
3
100
AcDbLine
 10
266.2590567372776
 20
361.9712365517218
 30
0.0000000000000000
 11
266.9894414948986
 21
360.7061730424491
 31
0.0000000000000000
  0
LINE
  5
180
100
AcDbEntity
  8
MAIN0
  6
CONTINUOUS
 62
3
100
AcDbLine
 10
264.4894414951156
 20
360.7061730424491
 30
0.0000000000000000
 11
265.2198262527366
 21
361.9712365517219
 31
0.0000000000000000
  0
ARC
  5
181
100
AcDbEntity
  8
MAIN0
  6
CONTINUOUS
 62
3
100
AcDbCircle
 10
265.7394414950071
 20
361.6712365517217
 30
0.0000000000000000
 40
0.6000000000000001
100
AcDbArc
 50
30.00000000001460
 51
149.9999999999787
  0
LINE
  5
182
100
AcDbEntity
  8
MAIN0
  6
CONTINUOUS
 62
3
100
AcDbLine
 10
261.1394414952139
 20
360.7061730424491
 30
0.0000000000000000
 11
264.4894414952138
 21
360.7061730424491
 31
0.0000000000000000
  0
LINE
  5
183
100
AcDbEntity
  8
MAIN0
  6
CONTINUOUS
 62
3
100
AcDbLine
 10
266.9894414952138
 20
360.7061730424491
 30
0.0000000000000000
 11
271.5394414952139
 21
360.7061730424491
 31
0.0000000000000000
  0
LINE
  5
184
100
AcDbEntity
  8
MAIN0
  6
CENTER
 62
3
100
AcDbLine
 10
252.0394414952139
 20
326.2036095631742
 30
0.0000000000000000
 11
252.0394414952139
 21
331.9399064589551
 31
0.0000000000000000
  0
LINE
  5
185
100
AcDbEntity
  8
MAIN0
  6
CONTINUOUS
 62
3
100
AcDbLine
 10
250.7894414952718
 20
328.7061730424491
 30
0.0000000000000000
 11
251.5198262529128
 21
329.9712365517567
 31
0.0000000000000000
  0
LINE
  5
186
100
AcDbEntity
  8
MAIN0
  6
CONTINUOUS
 62
3
100
AcDbLine
 10
252.5590567374542
 20
329.9712365517562
 30
0.0000000000000000
 11
253.2894414950937
 21
328.7061730424491
 31
0.0000000000000000
  0
ARC
  5
187
100
AcDbEntity
  8
MAIN0
  6
CONTINUOUS
 62
3
100
AcDbCircle
 10
252.0394414951834
 20
329.6712365517565
 30
0.0000000000000000
 40
0.6000000000000001
100
AcDbArc
 50
29.99999999997147
 51
149.9999999999787
  0
LINE
  5
188
100
AcDbEntity
  8
MAIN0
  6
CONTINUOUS
 62
3
100
AcDbLine
 10
247.1394414952138
 20
328.7061730424491
 30
0.0000000000000000
 11
250.7894414952719
 21
328.7061730424491
 31
0.0000000000000000
  0
LINE
  5
189
100
AcDbEntity
  8
MAIN0
  6
CONTINUOUS
 62
3
100
AcDbLine
 10
253.2894414950937
 20
328.7061730424491
 30
0.0000000000000000
 11
257.0394414952139
 21
328.7061730424491
 31
0.0000000000000000
  0
LINE
  5
18A
100
AcDbEntity
  8
MAIN0
  6
CONTINUOUS
 62
3
100
AcDbLine
 10
258.0394414952139
 20
336.7061730424491
 30
0.0000000000000000
 11
258.5394414952139
 21
336.7061730424491
 31
0.0000000000000000
  0
LINE
  5
18B
100
AcDbEntity
  8
MAIN0
  6
CONTINUOUS
 62
3
100
AcDbLine
 10
258.0394414952139
 20
329.7061730424491
 30
0.0000000000000000
 11
258.0394414952139
 21
336.7061730424491
 31
0.0000000000000000
  0
LINE
  5
18C
100
AcDbEntity
  8
MAIN0
  6
CONTINUOUS
 62
3
100
AcDbLine
 10
258.0394414952139
 20
329.7061730424491
 30
0.0000000000000000
 11
257.0394414952139
 21
328.7061730424491
 31
0.0000000000000000
  0
LINE
  5
18D
100
AcDbEntity
  8
MAIN0
  6
CONTINUOUS
 62
3
100
AcDbLine
 10
247.1394414952138
 20
328.7061730424491
 30
0.0000000000000000
 11
245.2184593682427
 21
329.7061730424491
 31
0.0000000000000000
  0
LINE
  5
18E
100
AcDbEntity
  8
MAIN0
  6
CONTINUOUS
 62
3
100
AcDbLine
 10
245.2184593682427
 20
329.7061730424491
 30
0.0000000000000000
 11
244.9394414952138
 21
329.7061730424491
 31
0.0000000000000000
  0
LINE
  5
18F
100
AcDbEntity
  8
MAIN0
  6
CONTINUOUS
 62
3
100
AcDbLine
 10
243.7394414952138
 20
328.5061730424491
 30
0.0000000000000000
 11
243.7394414952138
 21
326.7429587440260
 31
0.0000000000000000
  0
LINE
  5
190
100
AcDbEntity
  8
MAIN0
  6
CONTINUOUS
 62
3
100
AcDbLine
 10
243.7394414952138
 20
326.7429587440260
 30
0.0000000000000000
 11
244.5394414952139
 21
325.2061730424491
 31
0.0000000000000000
  0
ARC
  5
191
100
AcDbEntity
  8
MAIN0
  6
CONTINUOUS
 62
3
100
AcDbCircle
 10
244.9394414952138
 20
328.5061730424491
 30
0.0000000000000000
 40
1.200000000000000
100
AcDbArc
 50
90.00000000000000
 51
180.0000000000000
  0
LINE
  5
192
100
AcDbEntity
  8
MAIN0
  6
CONTINUOUS
 62
3
100
AcDbLine
 10
244.0394414952139
 20
300.7061730424491
 30
0.0000000000000000
 11
244.5394414952139
 21
300.7061730424491
 31
0.0000000000000000
  0
LINE
  5
193
100
AcDbEntity
  8
MAIN0
  6
CONTINUOUS
 62
3
100
AcDbLine
 10
244.0394414952139
 20
291.7061730424491
 30
0.0000000000000000
 11
244.0394414952139
 21
300.7061730424491
 31
0.0000000000000000
  0
LINE
  5
194
100
AcDbEntity
  8
MAIN0
  6
CONTINUOUS
 62
3
100
AcDbLine
 10
261.1394414952138
 20
360.7061730424491
 30
0.0000000000000000
 11
259.2184593682426
 21
361.7061730424490
 31
0.0000000000000000
  0
LINE
  5
195
100
AcDbEntity
  8
MAIN0
  6
CONTINUOUS
 62
3
100
AcDbLine
 10
259.2184593682427
 20
361.7061730424491
 30
0.0000000000000000
 11
258.9394414952138
 21
361.7061730424491
 31
0.0000000000000000
  0
LINE
  5
196
100
AcDbEntity
  8
MAIN0
  6
CONTINUOUS
 62
3
100
AcDbLine
 10
257.7394414952138
 20
360.5061730424491
 30
0.0000000000000000
 11
257.7394414952138
 21
358.7429587440260
 31
0.0000000000000000
  0
LINE
  5
197
100
AcDbEntity
  8
MAIN0
  6
CONTINUOUS
 62
3
100
AcDbLine
 10
257.7394414952139
 20
358.7429587440260
 30
0.0000000000000000
 11
258.5394414952139
 21
357.2061730424491
 31
0.0000000000000000
  0
ARC
  5
198
100
AcDbEntity
  8
MAIN0
  6
CONTINUOUS
 62
3
100
AcDbCircle
 10
258.9394414952138
 20
360.5061730424491
 30
0.0000000000000000
 40
1.200000000000000
100
AcDbArc
 50
90.00000000000000
 51
180.0000000000000
  0
LINE
  5
199
100
AcDbEntity
  8
MAIN0
  6
PHANTOM
 62
3
100
AcDbLine
 10
218.5394414952139
 20
563.7061730424490
 30
0.0000000000000000
 11
218.5394414952139
 21
565.7061730424491
 31
0.0000000000000000
  0
LINE
  5
19A
100
AcDbEntity
  8
MAIN0
  6
CENTER
 62
3
100
AcDbLine
 10
120.6942106317977
 20
429.2061730424491
 30
0.0000000000000000
 11
279.0763569765850
 21
429.2061730424491
 31
0.0000000000000000
  0
LINE
  5
19B
100
AcDbEntity
  8
MAIN0
  6
PHANTOM
 62
3
100
AcDbLine
 10
226.5394414952139
 20
435.5561730424491
 30
0.0000000000000000
 11
226.5394414952139
 21
422.8561730424490
 31
0.0000000000000000
  0
LINE
  5
19C
100
AcDbEntity
  8
MAIN0
  6
PHANTOM
 62
3
100
AcDbLine
 10
223.5394414952139
 20
435.5561730424491
 30
0.0000000000000000
 11
226.5394414952139
 21
435.5561730424491
 31
0.0000000000000000
  0
LINE
  5
19D
100
AcDbEntity
  8
MAIN0
  6
PHANTOM
 62
3
100
AcDbLine
 10
223.5394414952139
 20
422.8561730424490
 30
0.0000000000000000
 11
226.5394414952139
 21
422.8561730424490
 31
0.0000000000000000
  0
LINE
  5
19E
100
AcDbEntity
  8
MAIN0
  6
PHANTOM
 62
3
100
AcDbLine
 10
220.5394414952139
 20
446.7061730424491
 30
0.0000000000000000
 11
271.5394414952139
 21
446.7061730424491
 31
0.0000000000000000
  0
LINE
  5
19F
100
AcDbEntity
  8
MAIN0
  6
PHANTOM
 62
3
100
AcDbLine
 10
220.5394414952139
 20
411.7061730424491
 30
0.0000000000000000
 11
271.5394414952139
 21
411.7061730424491
 31
0.0000000000000000
  0
LINE
  5
1A0
100
AcDbEntity
  8
MAIN0
  6
PHANTOM
 62
3
100
AcDbLine
 10
220.5394414952139
 20
411.7061730424491
 30
0.0000000000000000
 11
220.5394414952139
 21
415.7061730424491
 31
0.0000000000000000
  0
LINE
  5
1A1
100
AcDbEntity
  8
MAIN0
  6
PHANTOM
 62
3
100
AcDbLine
 10
220.5394414952139
 20
442.7061730424491
 30
0.0000000000000000
 11
220.5394414952139
 21
446.7061730424491
 31
0.0000000000000000
  0
LINE
  5
1A2
100
AcDbEntity
  8
MAIN0
  6
PHANTOM
 62
3
100
AcDbLine
 10
223.5394414952139
 20
422.8561730424490
 30
0.0000000000000000
 11
223.5394414952139
 21
411.7061730424491
 31
0.0000000000000000
  0
LINE
  5
1A3
100
AcDbEntity
  8
MAIN0
  6
PHANTOM
 62
3
100
AcDbLine
 10
223.5394414952139
 20
446.7061730424491
 30
0.0000000000000000
 11
223.5394414952139
 21
435.5561730424491
 31
0.0000000000000000
  0
LINE
  5
1A4
100
AcDbEntity
  8
MAIN0
  6
PHANTOM
 62
3
100
AcDbLine
 10
272.5394414952139
 20
412.7061730424491
 30
0.0000000000000000
 11
272.5394414952139
 21
445.7061730424491
 31
0.0000000000000000
  0
LINE
  5
1A5
100
AcDbEntity
  8
MAIN0
  6
PHANTOM
 62
3
100
AcDbLine
 10
271.5394414952139
 20
446.7061730424491
 30
0.0000000000000000
 11
272.5394414952139
 21
445.7061730424491
 31
0.0000000000000000
  0
LINE
  5
1A6
100
AcDbEntity
  8
MAIN0
  6
PHANTOM
 62
3
100
AcDbLine
 10
272.5394414952139
 20
412.7061730424491
 30
0.0000000000000000
 11
271.5394414952139
 21
411.7061730424491
 31
0.0000000000000000
  0
LINE
  5
1A7
100
AcDbEntity
  8
MAIN0
  6
CONTINUOUS
 62
3
100
AcDbLine
 10
452.9582377759231
 20
290.7061730424490
 30
0.0000000000000000
 11
468.9118287556913
 21
299.9169830891667
 31
0.0000000000000000
  0
LINE
  5
1A8
100
AcDbEntity
  8
MAIN0
  6
CONTINUOUS
 62
3
100
AcDbLine
 10
433.9118287556914
 20
299.9169830883189
 30
0.0000000000000000
 11
449.8654197340131
 21
290.7061730424490
 31
0.0000000000000000
  0
ARC
  5
1A9
100
AcDbEntity
  8
MAIN0
  6
CONTINUOUS
 62
3
100
AcDbCircle
 10
451.4118287556914
 20
432.7061730424491
 30
0.0000000000000000
 40
42.00000000000000
100
AcDbArc
 50
267.9532869023274
 51
272.0467130976726
  0
LINE
  5
1AA
100
AcDbEntity
  8
MAIN0
  6
CONTINUOUS
 62
3
100
AcDbLine
 10
433.9118287556917
 20
381.4953629961853
 30
0.0000000000000000
 11
449.9118287556915
 21
390.7329673032286
 31
0.0000000000000000
  0
LINE
  5
1AB
100
AcDbEntity
  8
MAIN0
  6
CONTINUOUS
 62
3
100
AcDbLine
 10
452.9118287556915
 20
390.7329673039819
 30
0.0000000000000000
 11
468.9118287556912
 21
381.4953629969386
 31
0.0000000000000000
  0
ARC
  5
1AC
100
AcDbEntity
  8
MAIN0
  6
CONTINUOUS
 62
3
100
AcDbCircle
 10
451.4118287556914
 20
248.7061730424491
 30
0.0000000000000000
 40
76.50000000000000
100
AcDbArc
 50
76.77602895197120
 51
103.2239710480288
  0
ARC
  5
1AD
100
AcDbEntity
  8
MAIN0
  6
CONTINUOUS
 62
3
100
AcDbCircle
 10
451.4118287556914
 20
248.7061730424491
 30
0.0000000000000000
 40
80.00000000000000
100
AcDbArc
 50
77.36437490697888
 51
102.6356250930211
  0
ARC
  5
1AE
100
AcDbEntity
  8
MAIN0
  6
CONTINUOUS
 62
3
100
AcDbCircle
 10
451.4118287556914
 20
248.7061730424491
 30
0.0000000000000000
 40
108.5000000000000
100
AcDbArc
 50
80.71820091332246
 51
99.28179908667752
  0
ARC
  5
1AF
100
AcDbEntity
  8
MAIN0
  6
CONTINUOUS
 62
3
100
AcDbCircle
 10
451.4118287556914
 20
248.7061730424491
 30
0.0000000000000000
 40
112.0000000000000
100
AcDbArc
 50
81.01070065483719
 51
86.80653769858408
  0
ARC
  5
1B0
100
AcDbEntity
  8
MAIN0
  6
CONTINUOUS
 62
3
100
AcDbCircle
 10
451.4118287556914
 20
248.7061730424491
 30
0.0000000000000000
 40
112.0000000000000
100
AcDbArc
 50
93.19346230153633
 51
98.98929934516281
  0
LINE
  5
1B1
100
AcDbEntity
  8
MAIN0
  6
CENTER
 62
3
100
AcDbLine
 10
510.6087592624826
 20
449.6940817525329
 30
0.0000000000000000
 11
499.0783955382540
 21
469.6652575526459
 31
0.0000000000000000
  0
LINE
  5
1B2
100
AcDbEntity
  8
MAIN0
  6
CENTER
 62
3
100
AcDbLine
 10
557.3568105588247
 20
476.6840817525339
 30
0.0000000000000000
 11
545.8264468346066
 21
496.6552575526530
 31
0.0000000000000000
  0
CIRCLE
  5
1B3
100
AcDbEntity
  8
MAIN0
  6
CONTINUOUS
 62
3
100
AcDbCircle
 10
504.6810513424596
 20
459.9611730424415
 30
0.0000000000000000
 40
9.000000000000000
  0
LINE
  5
1B4
100
AcDbEntity
  8
MAIN0
  6
CONTINUOUS
 62
3
100
AcDbLine
 10
499.6810513424595
 20
457.0744216964935
 30
0.0000000000000000
 11
504.6810513424595
 21
454.1876703505453
 31
0.0000000000000000
  0
LINE
  5
1B5
100
AcDbEntity
  8
MAIN0
  6
CONTINUOUS
 62
3
100
AcDbLine
 10
504.6810513424596
 20
454.1876703505453
 30
0.0000000000000000
 11
509.6810513424596
 21
457.0744216964934
 31
0.0000000000000000
  0
LINE
  5
1B6
100
AcDbEntity
  8
MAIN0
  6
CONTINUOUS
 62
3
100
AcDbLine
 10
509.6810513424595
 20
457.0744216964934
 30
0.0000000000000000
 11
509.6810513424595
 21
462.8479243883897
 31
0.0000000000000000
  0
LINE
  5
1B7
100
AcDbEntity
  8
MAIN0
  6
CONTINUOUS
 62
3
100
AcDbLine
 10
509.6810513424595
 20
462.8479243883897
 30
0.0000000000000000
 11
504.6810513424596
 21
465.7346757343378
 31
0.0000000000000000
  0
LINE
  5
1B8
100
AcDbEntity
  8
MAIN0
  6
CONTINUOUS
 62
3
100
AcDbLine
 10
504.6810513424596
 20
465.7346757343378
 30
0.0000000000000000
 11
499.6810513424596
 21
462.8479243883896
 31
0.0000000000000000
  0
LINE
  5
1B9
100
AcDbEntity
  8
MAIN0
  6
CONTINUOUS
 62
3
100
AcDbLine
 10
499.6810513424595
 20
462.8479243883896
 30
0.0000000000000000
 11
499.6810513424595
 21
457.0744216964934
 31
0.0000000000000000
  0
CIRCLE
  5
1BA
100
AcDbEntity
  8
MAIN0
  6
CONTINUOUS
 62
3
100
AcDbCircle
 10
551.4291026387929
 20
486.9511730424700
 30
0.0000000000000000
 40
9.000000000000000
  0
LINE
  5
1BB
100
AcDbEntity
  8
MAIN0
  6
CONTINUOUS
 62
3
100
AcDbLine
 10
546.4291026387929
 20
484.0644216965219
 30
0.0000000000000000
 11
551.4291026387929
 21
481.1776703505738
 31
0.0000000000000000
  0
LINE
  5
1BC
100
AcDbEntity
  8
MAIN0
  6
CONTINUOUS
 62
3
100
AcDbLine
 10
551.4291026387930
 20
481.1776703505738
 30
0.0000000000000000
 11
556.4291026387930
 21
484.0644216965219
 31
0.0000000000000000
  0
LINE
  5
1BD
100
AcDbEntity
  8
MAIN0
  6
CONTINUOUS
 62
3
100
AcDbLine
 10
556.4291026387928
 20
484.0644216965219
 30
0.0000000000000000
 11
556.4291026387928
 21
489.8379243884181
 31
0.0000000000000000
  0
LINE
  5
1BE
100
AcDbEntity
  8
MAIN0
  6
CONTINUOUS
 62
3
100
AcDbLine
 10
556.4291026387929
 20
489.8379243884181
 30
0.0000000000000000
 11
551.4291026387929
 21
492.7246757343663
 31
0.0000000000000000
  0
LINE
  5
1BF
100
AcDbEntity
  8
MAIN0
  6
CONTINUOUS
 62
3
100
AcDbLine
 10
551.4291026387930
 20
492.7246757343663
 30
0.0000000000000000
 11
546.4291026387930
 21
489.8379243884181
 31
0.0000000000000000
  0
LINE
  5
1C0
100
AcDbEntity
  8
MAIN0
  6
CONTINUOUS
 62
3
100
AcDbLine
 10
546.4291026387929
 20
489.8379243884181
 30
0.0000000000000000
 11
546.4291026387929
 21
484.0644216965219
 31
0.0000000000000000
  0
CIRCLE
  5
1C1
100
AcDbEntity
  8
MAIN0
  6
CONTINUOUS
 62
3
100
AcDbCircle
 10
551.4291026388788
 20
486.9511730422183
 30
0.0000000000000000
 40
9.500000000000000
  0
CIRCLE
  5
1C2
100
AcDbEntity
  8
MAIN0
  6
CONTINUOUS
 62
3
100
AcDbCircle
 10
504.6810513424774
 20
459.9611730423074
 30
0.0000000000000000
 40
9.500000000000000
  0
ARC
  5
1C3
100
AcDbEntity
  8
MAIN0
  6
HIDDEN
 62
3
100
AcDbCircle
 10
448.3807398424460
 20
427.4561730424490
 30
0.0000000000000000
 40
42.00000000000000
100
AcDbArc
 50
27.95328690169932
 51
32.04671309812912
  0
LINE
  5
1C4
100
AcDbEntity
  8
MAIN0
  6
HIDDEN
 62
3
100
AcDbLine
 10
497.4806022903782
 20
440.2155345758163
 30
0.0000000000000000
 11
485.4806022908198
 21
447.1437378058155
 31
0.0000000000000000
  0
LINE
  5
1C5
100
AcDbEntity
  8
MAIN0
  6
HIDDEN
 62
3
100
AcDbLine
 10
483.9806022904263
 20
449.7418140178592
 30
0.0000000000000000
 11
483.9806022904117
 21
463.5982204780157
 31
0.0000000000000000
  0
LINE
  5
1C6
100
AcDbEntity
  8
MAIN0
  6
CONTINUOUS
 62
3
100
AcDbLine
 10
562.2947323158776
 20
508.8129045295695
 30
0.0000000000000000
 11
558.6295516899475
 21
506.6968115085602
 31
0.0000000000000000
  0
LINE
  5
1C7
100
AcDbEntity
  8
MAIN0
  6
CONTINUOUS
 62
3
100
AcDbLine
 10
575.7947323158776
 20
485.4302186273897
 30
0.0000000000000000
 11
572.1295516906790
 21
483.3141256068027
 31
0.0000000000000000
  0
LINE
  5
1C8
100
AcDbEntity
  8
MAIN0
  6
HIDDEN
 62
3
100
AcDbLine
 10
558.6295516899475
 20
506.6968115085602
 30
0.0000000000000000
 11
483.9806022904119
 21
463.5982204780156
 31
0.0000000000000000
  0
LINE
  5
1C9
100
AcDbEntity
  8
MAIN0
  6
CONTINUOUS
 62
3
100
AcDbLine
 10
570.5831426697205
 20
499.7954025386110
 30
0.0000000000000000
 11
554.6295516899461
 21
509.0062125853177
 31
0.0000000000000000
  0
LINE
  5
1CA
100
AcDbEntity
  8
MAIN0
  6
CONTINUOUS
 62
3
100
AcDbLine
 10
572.1295516906802
 20
478.6953234532864
 30
0.0000000000000000
 11
572.1295516906755
 21
497.1169435450341
 31
0.0000000000000000
  0
LINE
  5
1CB
100
AcDbEntity
  8
MAIN0
  6
CONTINUOUS
 62
3
100
AcDbLine
 10
572.1295516906756
 20
497.1169435450341
 30
0.0000000000000000
 11
570.5831426697206
 21
499.7954025386110
 31
0.0000000000000000
  0
ARC
  5
1CC
100
AcDbEntity
  8
MAIN0
  6
CONTINUOUS
 62
3
100
AcDbCircle
 10
448.3807398424460
 20
427.4561730424490
 30
0.0000000000000000
 40
42.00000000000000
100
AcDbArc
 50
27.95328690232739
 51
32.04671309767254
  0
LINE
  5
1CD
100
AcDbEntity
  8
MAIN0
  6
CONTINUOUS
 62
3
100
AcDbLine
 10
501.4806022908897
 20
437.9061334993534
 30
0.0000000000000000
 11
485.4806022908816
 21
447.1437378063827
 31
0.0000000000000000
  0
LINE
  5
1CE
100
AcDbEntity
  8
MAIN0
  6
CONTINUOUS
 62
3
100
AcDbLine
 10
483.9806022902294
 20
449.7418140173593
 30
0.0000000000000000
 11
483.9806022902375
 21
468.2170226314316
 31
0.0000000000000000
  0
ARC
  5
1CF
100
AcDbEntity
  8
MAIN0
  6
CONTINUOUS
 62
3
100
AcDbCircle
 10
607.7294141387828
 20
519.4561730424489
 30
0.0000000000000000
 40
76.50000000000000
100
AcDbArc
 50
196.7760289519712
 51
223.2239710480288
  0
ARC
  5
1D0
100
AcDbEntity
  8
MAIN0
  6
CONTINUOUS
 62
3
100
AcDbCircle
 10
607.7294141387828
 20
519.4561730424489
 30
0.0000000000000000
 40
80.00000000000000
100
AcDbArc
 50
197.3643749069789
 51
222.6356250930211
  0
ARC
  5
1D1
100
AcDbEntity
  8
MAIN0
  6
CONTINUOUS
 62
3
100
AcDbCircle
 10
607.7294141387828
 20
519.4561730424489
 30
0.0000000000000000
 40
108.5000000000000
100
AcDbArc
 50
200.7182009133225
 51
219.2817990866775
  0
ARC
  5
1D2
100
AcDbEntity
  8
MAIN0
  6
CONTINUOUS
 62
3
100
AcDbCircle
 10
607.7294141387828
 20
519.4561730424489
 30
0.0000000000000000
 40
112.0000000000000
100
AcDbArc
 50
201.0107006548372
 51
206.8065376985841
  0
ARC
  5
1D3
100
AcDbEntity
  8
MAIN0
  6
CONTINUOUS
 62
3
100
AcDbCircle
 10
607.7294141387828
 20
519.4561730424489
 30
0.0000000000000000
 40
112.0000000000000
100
AcDbArc
 50
213.1934623015363
 51
218.9892993451628
  0
LINE
  5
1D4
100
AcDbEntity
  8
MAIN0
  6
CENTER
 62
3
100
AcDbLine
 10
404.0703140889469
 20
470.2282643323503
 30
0.0000000000000000
 11
392.5399503647183
 21
450.2570885322372
 31
0.0000000000000000
  0
LINE
  5
1D5
100
AcDbEntity
  8
MAIN0
  6
CENTER
 62
3
100
AcDbLine
 10
357.3222627926331
 20
497.2182643324002
 30
0.0000000000000000
 11
345.7918990683940
 21
477.2470885322931
 31
0.0000000000000000
  0
CIRCLE
  5
1D6
100
AcDbEntity
  8
MAIN0
  6
CONTINUOUS
 62
3
100
AcDbCircle
 10
398.1426061689237
 20
459.9611730424417
 30
0.0000000000000000
 40
9.000000000000000
  0
LINE
  5
1D7
100
AcDbEntity
  8
MAIN0
  6
CONTINUOUS
 62
3
100
AcDbLine
 10
403.1426061689236
 20
457.0744216964935
 30
0.0000000000000000
 11
403.1426061689236
 21
462.8479243883898
 31
0.0000000000000000
  0
LINE
  5
1D8
100
AcDbEntity
  8
MAIN0
  6
CONTINUOUS
 62
3
100
AcDbLine
 10
403.1426061689237
 20
462.8479243883899
 30
0.0000000000000000
 11
398.1426061689236
 21
465.7346757343380
 31
0.0000000000000000
  0
LINE
  5
1D9
100
AcDbEntity
  8
MAIN0
  6
CONTINUOUS
 62
3
100
AcDbLine
 10
398.1426061689236
 20
465.7346757343380
 30
0.0000000000000000
 11
393.1426061689236
 21
462.8479243883899
 31
0.0000000000000000
  0
LINE
  5
1DA
100
AcDbEntity
  8
MAIN0
  6
CONTINUOUS
 62
3
100
AcDbLine
 10
393.1426061689236
 20
462.8479243883898
 30
0.0000000000000000
 11
393.1426061689236
 21
457.0744216964936
 31
0.0000000000000000
  0
LINE
  5
1DB
100
AcDbEntity
  8
MAIN0
  6
CONTINUOUS
 62
3
100
AcDbLine
 10
393.1426061689236
 20
457.0744216964936
 30
0.0000000000000000
 11
398.1426061689237
 21
454.1876703505454
 31
0.0000000000000000
  0
LINE
  5
1DC
100
AcDbEntity
  8
MAIN0
  6
CONTINUOUS
 62
3
100
AcDbLine
 10
398.1426061689236
 20
454.1876703505455
 30
0.0000000000000000
 11
403.1426061689236
 21
457.0744216964936
 31
0.0000000000000000
  0
CIRCLE
  5
1DD
100
AcDbEntity
  8
MAIN0
  6
CONTINUOUS
 62
3
100
AcDbCircle
 10
351.3945548725903
 20
486.9511730424703
 30
0.0000000000000000
 40
9.000000000000000
  0
LINE
  5
1DE
100
AcDbEntity
  8
MAIN0
  6
CONTINUOUS
 62
3
100
AcDbLine
 10
356.3945548725903
 20
484.0644216965221
 30
0.0000000000000000
 11
356.3945548725903
 21
489.8379243884183
 31
0.0000000000000000
  0
LINE
  5
1DF
100
AcDbEntity
  8
MAIN0
  6
CONTINUOUS
 62
3
100
AcDbLine
 10
356.3945548725903
 20
489.8379243884183
 30
0.0000000000000000
 11
351.3945548725903
 21
492.7246757343665
 31
0.0000000000000000
  0
LINE
  5
1E0
100
AcDbEntity
  8
MAIN0
  6
CONTINUOUS
 62
3
100
AcDbLine
 10
351.3945548725903
 20
492.7246757343665
 30
0.0000000000000000
 11
346.3945548725903
 21
489.8379243884184
 31
0.0000000000000000
  0
LINE
  5
1E1
100
AcDbEntity
  8
MAIN0
  6
CONTINUOUS
 62
3
100
AcDbLine
 10
346.3945548725904
 20
489.8379243884183
 30
0.0000000000000000
 11
346.3945548725904
 21
484.0644216965221
 31
0.0000000000000000
  0
LINE
  5
1E2
100
AcDbEntity
  8
MAIN0
  6
CONTINUOUS
 62
3
100
AcDbLine
 10
346.3945548725903
 20
484.0644216965221
 30
0.0000000000000000
 11
351.3945548725903
 21
481.1776703505740
 31
0.0000000000000000
  0
LINE
  5
1E3
100
AcDbEntity
  8
MAIN0
  6
CONTINUOUS
 62
3
100
AcDbLine
 10
351.3945548725903
 20
481.1776703505740
 30
0.0000000000000000
 11
356.3945548725903
 21
484.0644216965221
 31
0.0000000000000000
  0
CIRCLE
  5
1E4
100
AcDbEntity
  8
MAIN0
  6
CONTINUOUS
 62
3
100
AcDbCircle
 10
351.3945548727653
 20
486.9511730426705
 30
0.0000000000000000
 40
9.500000000000000
  0
CIRCLE
  5
1E5
100
AcDbEntity
  8
MAIN0
  6
CONTINUOUS
 62
3
100
AcDbCircle
 10
398.1426061690308
 20
459.9611730425243
 30
0.0000000000000000
 40
9.500000000000000
  0
ARC
  5
1E6
100
AcDbEntity
  8
MAIN0
  6
HIDDEN
 62
3
100
AcDbCircle
 10
454.4429176689371
 20
427.4561730424491
 30
0.0000000000000000
 40
42.00000000000000
100
AcDbArc
 50
147.9532869016993
 51
152.0467130981292
  0
LINE
  5
1E7
100
AcDbEntity
  8
MAIN0
  6
HIDDEN
 62
3
100
AcDbLine
 10
418.8430552210050
 20
463.5982204779963
 30
0.0000000000000000
 11
418.8430552210234
 21
449.7418140179659
 31
0.0000000000000000
  0
LINE
  5
1E8
100
AcDbEntity
  8
MAIN0
  6
HIDDEN
 62
3
100
AcDbLine
 10
417.3430552206224
 20
447.1437378059267
 30
0.0000000000000000
 11
405.3430552209712
 21
440.2155345758358
 31
0.0000000000000000
  0
LINE
  5
1E9
100
AcDbEntity
  8
MAIN0
  6
CONTINUOUS
 62
3
100
AcDbLine
 10
327.0289251955057
 20
485.4302186273899
 30
0.0000000000000000
 11
330.6941058214358
 21
483.3141256063806
 31
0.0000000000000000
  0
LINE
  5
1EA
100
AcDbEntity
  8
MAIN0
  6
CONTINUOUS
 62
3
100
AcDbLine
 10
340.5289251955057
 20
508.8129045295698
 30
0.0000000000000000
 11
344.1941058207042
 21
506.6968115089828
 31
0.0000000000000000
  0
LINE
  5
1EB
100
AcDbEntity
  8
MAIN0
  6
HIDDEN
 62
3
100
AcDbLine
 10
330.6941058214358
 20
483.3141256063806
 30
0.0000000000000000
 11
405.3430552209714
 21
440.2155345758359
 31
0.0000000000000000
  0
LINE
  5
1EC
100
AcDbEntity
  8
MAIN0
  6
CONTINUOUS
 62
3
100
AcDbLine
 10
330.6941058214310
 20
497.1169435462872
 30
0.0000000000000000
 11
330.6941058214374
 21
478.6953234528629
 31
0.0000000000000000
  0
LINE
  5
1ED
100
AcDbEntity
  8
MAIN0
  6
CONTINUOUS
 62
3
100
AcDbLine
 10
348.1941058207031
 20
509.0062125857420
 30
0.0000000000000000
 11
332.2405148423860
 21
499.7954025398641
 31
0.0000000000000000
  0
LINE
  5
1EE
100
AcDbEntity
  8
MAIN0
  6
CONTINUOUS
 62
3
100
AcDbLine
 10
332.2405148423860
 20
499.7954025398641
 30
0.0000000000000000
 11
330.6941058214310
 21
497.1169435462872
 31
0.0000000000000000
  0
ARC
  5
1EF
100
AcDbEntity
  8
MAIN0
  6
CONTINUOUS
 62
3
100
AcDbCircle
 10
454.4429176689372
 20
427.4561730424491
 30
0.0000000000000000
 40
42.00000000000000
100
AcDbArc
 50
147.9532869023275
 51
152.0467130976726
  0
LINE
  5
1F0
100
AcDbEntity
  8
MAIN0
  6
CONTINUOUS
 62
3
100
AcDbLine
 10
418.8430552204932
 20
468.2170226318085
 30
0.0000000000000000
 11
418.8430552205014
 21
449.7418140177359
 31
0.0000000000000000
  0
LINE
  5
1F1
100
AcDbEntity
  8
MAIN0
  6
CONTINUOUS
 62
3
100
AcDbLine
 10
417.3430552211538
 20
447.1437378060060
 30
0.0000000000000000
 11
401.3430552211460
 21
437.9061334989769
 31
0.0000000000000000
  0
ARC
  5
1F2
100
AcDbEntity
  8
MAIN0
  6
CONTINUOUS
 62
3
100
AcDbCircle
 10
295.0942433726005
 20
519.4561730424492
 30
0.0000000000000000
 40
76.50000000000000
100
AcDbArc
 50
316.7760289519712
 51
343.2239710480288
  0
ARC
  5
1F3
100
AcDbEntity
  8
MAIN0
  6
CONTINUOUS
 62
3
100
AcDbCircle
 10
295.0942433726005
 20
519.4561730424492
 30
0.0000000000000000
 40
80.00000000000000
100
AcDbArc
 50
317.3643749069789
 51
342.6356250930211
  0
ARC
  5
1F4
100
AcDbEntity
  8
MAIN0
  6
CONTINUOUS
 62
3
100
AcDbCircle
 10
295.0942433726005
 20
519.4561730424492
 30
0.0000000000000000
 40
108.5000000000000
100
AcDbArc
 50
320.7182009133225
 51
339.2817990866775
  0
ARC
  5
1F5
100
AcDbEntity
  8
MAIN0
  6
CONTINUOUS
 62
3
100
AcDbCircle
 10
295.0942433726005
 20
519.4561730424492
 30
0.0000000000000000
 40
112.0000000000000
100
AcDbArc
 50
321.0107006548372
 51
326.8065376985841
  0
ARC
  5
1F6
100
AcDbEntity
  8
MAIN0
  6
CONTINUOUS
 62
3
100
AcDbCircle
 10
295.0942433726005
 20
519.4561730424492
 30
0.0000000000000000
 40
112.0000000000000
100
AcDbArc
 50
333.1934623015363
 51
338.9892993451628
  0
LINE
  5
1F7
100
AcDbEntity
  8
MAIN0
  6
CONTINUOUS
 62
3
100
AcDbLine
 10
554.6295516899461
 20
509.0062125853178
 30
0.0000000000000000
 11
476.2028484181885
 21
463.7265343397137
 31
0.0000000000000000
  0
LINE
  5
1F8
100
AcDbEntity
  8
MAIN0
  6
CONTINUOUS
 62
3
100
AcDbLine
 10
572.1295516906801
 20
478.6953234532863
 30
0.0000000000000000
 11
493.7028484181885
 21
433.4156452072584
 31
0.0000000000000000
  0
LINE
  5
1F9
100
AcDbEntity
  8
MAIN0
  6
CONTINUOUS
 62
3
100
AcDbLine
 10
330.6941058214372
 20
478.6953234528627
 30
0.0000000000000000
 11
409.1208090931947
 21
433.4156452072586
 31
0.0000000000000000
  0
LINE
  5
1FA
100
AcDbEntity
  8
MAIN0
  6
CONTINUOUS
 62
3
100
AcDbLine
 10
348.1941058207032
 20
509.0062125857419
 30
0.0000000000000000
 11
426.6208090931947
 21
463.7265343397139
 31
0.0000000000000000
  0
ARC
  5
1FB
100
AcDbEntity
  8
MAIN0
  6
CONTINUOUS
 62
3
100
AcDbCircle
 10
451.4118287556916
 20
429.2061730424490
 30
0.0000000000000000
 40
42.50000000000000
100
AcDbArc
 50
39.97506742415028
 51
140.0249325757439
  0
ARC
  5
1FC
100
AcDbEntity
  8
MAIN0
  6
CONTINUOUS
 62
3
100
AcDbCircle
 10
451.4118287556916
 20
429.2061730424490
 30
0.0000000000000000
 40
42.50000000000000
100
AcDbArc
 50
159.9750674245420
 51
260.0249325768263
  0
ARC
  5
1FD
100
AcDbEntity
  8
MAIN0
  6
CONTINUOUS
 62
3
100
AcDbCircle
 10
451.4118287556916
 20
429.2061730424490
 30
0.0000000000000000
 40
42.50000000000000
100
AcDbArc
 50
279.9750674241503
 51
380.0249325768266
  0
ARC
  5
1FE
100
AcDbEntity
  8
MAIN0
  6
CONTINUOUS
 62
3
100
AcDbCircle
 10
451.4118287556914
 20
429.2061730424491
 30
0.0000000000000000
 40
136.5000000000000
100
AcDbArc
 50
272.1751879463472
 51
387.8248120530000
  0
ARC
  5
1FF
100
AcDbEntity
  8
MAIN0
  6
CONTINUOUS
 62
3
100
AcDbCircle
 10
451.4118287556914
 20
429.2061730424491
 30
0.0000000000000000
 40
136.5000000000000
100
AcDbArc
 50
32.17518794634722
 51
147.8248120530001
  0
LINE
  5
200
100
AcDbEntity
  8
MAIN0
  6
HIDDEN
 62
3
100
AcDbLine
 10
464.9118287556914
 20
297.6075820124064
 30
0.0000000000000000
 11
464.9118287556914
 21
383.8047640734957
 31
0.0000000000000000
  0
LINE
  5
201
100
AcDbEntity
  8
MAIN0
  6
CONTINUOUS
 62
3
100
AcDbLine
 10
464.9118287556914
 20
383.8047640734957
 30
0.0000000000000000
 11
464.9118287556914
 21
388.9072896832292
 31
0.0000000000000000
  0
LINE
  5
202
100
AcDbEntity
  8
MAIN0
  6
HIDDEN
 62
3
100
AcDbLine
 10
437.9118287556914
 20
297.6075820115617
 30
0.0000000000000000
 11
437.9118287556914
 21
383.8047640735346
 31
0.0000000000000000
  0
LINE
  5
203
100
AcDbEntity
  8
MAIN0
  6
CONTINUOUS
 62
3
100
AcDbLine
 10
437.9118287556914
 20
383.8047640735346
 30
0.0000000000000000
 11
437.9118287556914
 21
388.9072896832293
 31
0.0000000000000000
  0
LINE
  5
204
100
AcDbEntity
  8
MAIN0
  6
CONTINUOUS
 62
3
100
AcDbLine
 10
483.9806022904119
 20
463.5982204780156
 30
0.0000000000000000
 11
479.5616854889220
 21
461.0469576731488
 31
0.0000000000000000
  0
LINE
  5
205
100
AcDbEntity
  8
MAIN0
  6
CONTINUOUS
 62
3
100
AcDbLine
 10
497.4806022903782
 20
440.2155345758163
 30
0.0000000000000000
 11
493.0616854889220
 21
437.6642717709689
 31
0.0000000000000000
  0
LINE
  5
206
100
AcDbEntity
  8
MAIN0
  6
CONTINUOUS
 62
3
100
AcDbLine
 10
405.3430552209713
 20
440.2155345758359
 30
0.0000000000000000
 11
409.7619720224612
 21
437.6642717709692
 31
0.0000000000000000
  0
LINE
  5
207
100
AcDbEntity
  8
MAIN0
  6
CONTINUOUS
 62
3
100
AcDbLine
 10
418.8430552210051
 20
463.5982204779963
 30
0.0000000000000000
 11
423.2619720224613
 21
461.0469576731490
 31
0.0000000000000000
  0
ARC
  5
208
100
AcDbEntity
  8
MAIN0
  6
CONTINUOUS
 62
3
100
AcDbCircle
 10
451.4118287556914
 20
429.2061730424491
 30
0.0000000000000000
 40
136.5000000000000
100
AcDbArc
 50
152.1751879463470
 51
187.2453260115836
  0
ARC
  5
209
100
AcDbEntity
  8
MAIN0
  6
CONTINUOUS
 62
3
100
AcDbCircle
 10
451.4118287556914
 20
429.2061730424491
 30
0.0000000000000000
 40
136.5000000000000
100
AcDbArc
 50
187.2453260115836
 51
267.8248120530001
  0
CIRCLE
  5
20A
100
AcDbEntity
  8
MAIN0
  6
CONTINUOUS
 62
3
100
AcDbCircle
 10
429.5225395823737
 20
489.3465007725743
 30
0.0000000000000000
 40
7.500000000000000
  0
LINE
  5
20B
100
AcDbEntity
  8
MAIN0
  6
CENTER
 62
3
100
AcDbLine
 10
304.3568491091326
 20
429.2061730424491
 30
0.0000000000000000
 11
604.2445033222743
 21
429.2061730424491
 31
0.0000000000000000
  0
DIMENSION
  5
214
100
AcDbEntity
  8
MAIN0
  6
CONTINUOUS
 62
3
100
AcDbDimension
  2
*D0
 10
221.4214971444664
 20
146.8373063080001
 30
0.0000000000000000
 11
234.9164971444653
 21
147.3373063080001
 31
0.0000000000000000
 70
32
  3
MAIN001
100
AcDbAlignedDimension
 13
248.4114971444642
 23
157.4263482678400
 33
0.0000000000000000
 14
221.4214971444665
 24
166.0396466428845
 34
0.0000000000000000
100
AcDbRotatedDimension
1001
ACAD
1000
DSTYLE
1002
{
1070
   173
1070
     1
1070
     6
1000
_OPEN
1070
     7
1000
_OPEN
1070
    41
1040
4.000000
1002
}
  0
DIMENSION
  5
21D
100
AcDbEntity
  8
MAIN0
  6
CONTINUOUS
 62
3
100
AcDbDimension
  2
*D1
 10
248.4114971444657
 20
146.8373063080001
 30
0.0000000000000000
 11
261.9064971444660
 21
147.3373063080001
 31
0.0000000000000000
 70
32
  3
MAIN001
100
AcDbAlignedDimension
 13
275.4014971444664
 23
165.5699033825980
 33
0.0000000000000000
 14
248.4114971444657
 24
163.2211960408203
 34
0.0000000000000000
100
AcDbRotatedDimension
1001
ACAD
1000
DSTYLE
1002
{
1070
   173
1070
     1
1070
     6
1000
_OPEN
1070
     7
1000
_OPEN
1070
    41
1040
4.000000
1002
}
  0
DIMENSION
  5
226
100
AcDbEntity
  8
MAIN0
  6
CONTINUOUS
 62
3
100
AcDbDimension
  2
*D2
 10
331.5908472158390
 20
167.4263482678482
 30
0.0000000000000000
 11
331.0908472158390
 21
193.4263482678691
 31
0.0000000000000000
 70
32
  3
MAIN001
100
AcDbAlignedDimension
 13
306.9114971444804
 23
219.4263482678900
 33
0.0000000000000000
 14
257.9264971444668
 24
167.4263482678482
 34
0.0000000000000000
 50
90.00000000000000
100
AcDbRotatedDimension
1001
ACAD
1000
DSTYLE
1002
{
1070
   173
1070
     1
1070
     6
1000
_OPEN
1070
     7
1000
_OPEN
1070
    41
1040
4.000000
1002
}
  0
DIMENSION
  5
22F
100
AcDbEntity
  8
MAIN0
  6
CONTINUOUS
 62
3
100
AcDbDimension
  2
*D3
 10
308.4114971444800
 20
236.8373063080001
 30
0.0000000000000000
 11
253.4114971444800
 21
237.3373063080001
 31
0.0000000000000000
 70
32
  3
MAIN001
100
AcDbAlignedDimension
 13
198.4114971444800
 23
217.9263482677972
 33
0.0000000000000000
 14
308.4114971444800
 24
217.9263482678913
 34
0.0000000000000000
100
AcDbRotatedDimension
1001
ACAD
1000
DSTYLE
1002
{
1070
   173
1070
     1
1070
     6
1000
_OPEN
1070
     7
1000
_OPEN
1070
    41
1040
4.000000
1002
}
  0
DIMENSION
  5
238
100
AcDbEntity
  8
MAIN0
  6
CONTINUOUS
 62
3
100
AcDbDimension
  2
*D4
 10
218.5394414952139
 20
620.0210745606862
 30
0.0000000000000000
 11
175.5394414952139
 21
620.5210745606862
 31
0.0000000000000000
 70
32
  3
MAIN001
100
AcDbAlignedDimension
 13
132.5394414952139
 23
564.7061730424491
 33
0.0000000000000000
 14
218.5394414952139
 24
563.7061730424491
 34
0.0000000000000000
100
AcDbRotatedDimension
1001
ACAD
1000
DSTYLE
1002
{
1070
   173
1070
     1
1070
     6
1000
_OPEN
1070
     7
1000
_OPEN
1070
    41
1040
4.000000
1002
}
  0
DIMENSION
  5
241
100
AcDbEntity
  8
MAIN0
  6
CONTINUOUS
 62
3
100
AcDbDimension
  2
*D5
 10
218.5394414952139
 20
608.6573967302415
 30
0.0000000000000000
 11
191.2894414952139
 21
609.1573967302415
 31
0.0000000000000000
 70
32
  3
MAIN001
100
AcDbAlignedDimension
 13
164.0394414952139
 23
572.3351901320345
 33
0.0000000000000000
 14
218.5394414952139
 24
563.7061730424491
 34
0.0000000000000000
100
AcDbRotatedDimension
1001
ACAD
1000
DSTYLE
1002
{
1070
   173
1070
     1
1070
     6
1000
_OPEN
1070
     7
1000
_OPEN
1070
    41
1040
4.000000
1002
}
  0
DIMENSION
  5
24A
100
AcDbEntity
  8
MAIN0
  6
CONTINUOUS
 62
3
100
AcDbDimension
  2
*D6
 10
164.0394414952139
 20
608.6573967302415
 30
0.0000000000000000
 11
148.2894414952139
 21
609.1573967302415
 31
0.0000000000000000
 70
32
  3
MAIN001
100
AcDbAlignedDimension
 13
132.5394414952139
 23
564.7061730424491
 33
0.0000000000000000
 14
164.0394414952139
 24
572.3351901320345
 34
0.0000000000000000
100
AcDbRotatedDimension
1001
ACAD
1000
DSTYLE
1002
{
1070
   173
1070
     1
1070
     6
1000
_OPEN
1070
     7
1000
_OPEN
1070
    41
1040
4.000000
1002
}
  0
DIMENSION
  5
253
100
AcDbEntity
  8
MAIN0
  6
CONTINUOUS
 62
3
100
AcDbDimension
  2
*D7
 10
64.17146085015241
 20
565.7061730424491
 30
0.0000000000000000
 11
63.67146085015241
 21
429.2061730424491
 31
0.0000000000000000
 70
32
  1
\A1;\U+2205273
  3
MAIN001
100
AcDbAlignedDimension
 13
134.5394414952139
 23
292.7061730424491
 33
0.0000000000000000
 14
133.5394414952139
 24
565.7061730424491
 34
0.0000000000000000
 50
90.00000000000000
100
AcDbRotatedDimension
1001
ACAD
1000
DSTYLE
1002
{
1070
   173
1070
     1
1070
     6
1000
_OPEN
1070
     7
1000
_OPEN
1070
    41
1040
4.000000
1002
}
  0
DIMENSION
  5
25C
100
AcDbEntity
  8
MAIN0
  6
CONTINUOUS
 62
3
100
AcDbDimension
  2
*D8
 10
132.5394414952139
 20
409.2061730424491
 30
0.0000000000000000
 11
126.7589883811003
 21
409.9561730424491
 31
0.0000000000000000
 70
160
  3
MAIN001
100
AcDbAlignedDimension
 13
138.5394414952139
 23
314.2061730424491
 33
0.0000000000000000
 14
132.5394414952139
 24
294.7061730424491
 34
0.0000000000000000
100
AcDbRotatedDimension
1001
ACAD
1000
DSTYLE
1002
{
1070
   173
1070
     1
1070
     6
1000
_OPEN
1070
     7
1000
_OPEN
1070
    41
1040
4.000000
1070
   287
1070
     0
1002
}
  0
DIMENSION
  5
265
100
AcDbEntity
  8
MAIN0
  6
CONTINUOUS
 62
3
100
AcDbDimension
  2
*D9
 10
799.8523626258575
 20
599.5167040107838
 30
0.0000000000000000
 11
689.8523626258581
 21
600.0167040107838
 31
0.0000000000000000
 70
32
  1
\A1;360
  3
MAIN001
100
AcDbAlignedDimension
 13
579.8523626258586
 23
542.2312927736539
 33
0.0000000000000000
 14
799.8523626258575
 24
542.2312927736539
 34
0.0000000000000000
100
AcDbRotatedDimension
1001
ACAD
1000
DSTYLE
1002
{
1070
   173
1070
     1
1070
     6
1000
_OPEN
1070
     7
1000
_OPEN
1070
    41
1040
4.000000
1002
}
  0
DIMENSION
  5
26E
100
AcDbEntity
  8
MAIN0
  6
CONTINUOUS
 62
3
100
AcDbDimension
  2
*D10
 10
676.8523626258575
 20
579.5167040107838
 30
0.0000000000000000
 11
689.8523626258575
 21
580.0167040107838
 31
0.0000000000000000
 70
32
  1
\A1;\U+220526
  3
MAIN001
100
AcDbAlignedDimension
 13
702.8523626258575
 23
555.2312927736538
 33
0.0000000000000000
 14
676.8523626258575
 24
555.2312927736538
 34
0.0000000000000000
100
AcDbRotatedDimension
1001
ACAD
1000
DSTYLE
1002
{
1070
   173
1070
     1
1070
     6
1000
_OPEN
1070
     7
1000
_OPEN
1070
    41
1040
4.000000
1002
}
  0
DIMENSION
  5
277
100
AcDbEntity
  8
MAIN0
  6
CONTINUOUS
 62
3
100
AcDbDimension
  2
*D11
 10
647.6075703954302
 20
548.2312927736539
 30
0.0000000000000000
 11
646.6075703954302
 21
567.5744633213562
 31
0.0000000000000000
 70
160
  1
\A1;\U+220512
  3
MAIN001
100
AcDbAlignedDimension
 13
630.3933227106475
 23
536.2312927736539
 33
0.0000000000000000
 14
630.3933227106475
 24
548.2312927736539
 34
0.0000000000000000
 50
90.00000000000000
100
AcDbRotatedDimension
1001
ACAD
1000
DSTYLE
1002
{
1070
   173
1070
     1
1070
     6
1000
_OPEN
1070
     7
1000
_OPEN
1070
    41
1040
4.000000
1070
   287
1070
     0
1002
}
  0
DIMENSION
  5
280
100
AcDbEntity
  8
MAIN0
  6
CONTINUOUS
 62
3
100
AcDbDimension
  2
*D12
 10
616.0303878574758
 20
557.2312927736539
 30
0.0000000000000000
 11
615.2803878574758
 21
562.1852183727388
 31
0.0000000000000000
 70
160
  3
MAIN001
100
AcDbAlignedDimension
 13
803.6874460059900
 23
542.2312927736539
 33
0.0000000000000000
 14
678.8523626258575
 24
557.2312927736539
 34
0.0000000000000000
 50
90.00000000000000
100
AcDbRotatedDimension
1001
ACAD
1000
DSTYLE
1002
{
1070
   173
1070
     1
1070
     6
1000
_OPEN
1070
     7
1000
_OPEN
1070
    41
1040
4.000000
1002
}
  0
DIMENSION
  5
289
100
AcDbEntity
  8
MAIN0
  6
CONTINUOUS
 62
3
100
AcDbDimension
  2
*D13
 10
747.6075703954302
 20
557.2312927736539
 30
0.0000000000000000
 11
747.1075703954302
 21
477.2312927736538
 31
0.0000000000000000
 70
32
  3
MAIN001
100
AcDbAlignedDimension
 13
697.0023626258576
 23
397.2312927736538
 33
0.0000000000000000
 14
700.8523626258575
 24
557.2312927736539
 34
0.0000000000000000
 50
90.00000000000000
100
AcDbRotatedDimension
1001
ACAD
1000
DSTYLE
1002
{
1070
   173
1070
     1
1070
     6
1000
_OPEN
1070
     7
1000
_OPEN
1070
    41
1040
4.000000
1002
}
  0
DIMENSION
  5
292
100
AcDbEntity
  8
MAIN0
  6
CONTINUOUS
 62
3
100
AcDbDimension
  2
*D14
 10
717.6075703954302
 20
397.2312927736538
 30
0.0000000000000000
 11
717.1075703954302
 21
405.2312927736538
 31
0.0000000000000000
 70
32
  3
MAIN001
100
AcDbAlignedDimension
 13
697.7023626258575
 23
413.2312927736538
 33
0.0000000000000000
 14
697.0023626258576
 24
397.2312927736538
 34
0.0000000000000000
 50
90.00000000000000
100
AcDbRotatedDimension
1001
ACAD
1000
DSTYLE
1002
{
1070
   173
1070
     1
1070
     6
1000
_OPEN
1070
     7
1000
_OPEN
1070
    41
1040
4.000000
1002
}
  0
DIMENSION
  5
299
100
AcDbEntity
  8
MAIN0
  6
CONTINUOUS
 62
3
100
AcDbDimension
  2
*D15
 10
678.8523626258575
 20
489.5167040107837
 30
0.0000000000000000
 11
689.8523626258575
 21
490.0167040107837
 31
0.0000000000000000
 70
32
  1
\A1;\U+220522
  3
MAIN001
100
AcDbAlignedDimension
 13
700.8523626258575
 23
438.2312927736533
 33
0.0000000000000000
 14
678.8523626258575
 24
438.2312927736538
 34
0.0000000000000000
100
AcDbRotatedDimension
1001
ACAD
1000
DSTYLE
1002
{
1070
   173
1070
     1
1070
     6
1000
_OPEN
1070
     7
1000
_OPEN
1070
    41
1040
4.000000
1002
}
  0
DIMENSION
  5
2A4
100
AcDbEntity
  8
MAIN0
  6
CONTINUOUS
 62
3
100
AcDbDimension
  2
*D16
 10
713.0490203285160
 20
349.5363201920650
 30
0.0000000000000000
 11
721.6358192120597
 21
359.5373326380173
 31
0.0000000000000000
 70
161
  3
MAIN001
100
AcDbAlignedDimension
 13
689.2170812516856
 23
356.3976965203599
 33
0.0000000000000000
 14
697.7023626258576
 24
364.8829778946646
 34
0.0000000000000000
 50
45.00000000010959
1001
ACAD
1000
DSTYLE
1002
{
1070
   173
1070
     1
1070
     6
1000
_OPEN
1070
     7
1000
_OPEN
1070
    41
1040
4.000000
1070
   287
1070
     0
1070
   272
1070
     2
1070
    47
1040
0.000000
1070
    48
1040
0.150000
1070
    71
1070
     1
1002
}
  0
DIMENSION
  5
2AC
100
AcDbEntity
  8
MAIN0
  6
CONTINUOUS
 62
3
100
AcDbDimension
  2
*D17
 10
424.3068063624698
 20
503.6766100201674
 30
0.0000000000000000
 11
425.0842661652847
 21
578.5172001148353
 31
0.0000000000000000
 70
162
  3
MAIN001
100
AcDb2LineAngularDimension
 13
451.4118287556914
 23
580.3205633797639
 33
0.0000000000000000
 14
451.4118287556914
 24
429.2061730409388
 34
0.0000000000000000
 15
424.6488265057953
 25
502.7369173993814
 35
0.0000000000000000
 16
425.1710902541182
 26
578.0247962383292
 36
0.0000000000000000
1001
ACAD
1000
DSTYLE
1002
{
1070
   173
1070
     1
1070
     6
1000
_OPEN
1070
     7
1000
_OPEN
1070
    41
1040
4.000000
1002
}
  0
DIMENSION
  5
2B5
100
AcDbEntity
  8
MAIN0
  6
CONTINUOUS
 62
3
100
AcDbDimension
  2
*D18
 10
293.7824695010797
 20
390.7061730424491
 30
0.0000000000000000
 11
293.2824695010797
 21
340.7061730424491
 31
0.0000000000000000
 70
32
  3
MAIN001
100
AcDbAlignedDimension
 13
243.0394414952139
 23
290.7061730424491
 33
0.0000000000000000
 14
271.5394414952139
 24
390.7061730424491
 34
0.0000000000000000
 50
90.00000000000000
100
AcDbRotatedDimension
1001
ACAD
1000
DSTYLE
1002
{
1070
   173
1070
     1
1070
     6
1000
_OPEN
1070
     7
1000
_OPEN
1070
    41
1040
4.000000
1002
}
  0
DIMENSION
  5
2BD
100
AcDbEntity
  8
MAIN0
  6
CONTINUOUS
 62
3
100
AcDbDimension
  2
*D19
 10
218.5394414952139
 20
460.0086161520449
 30
0.0000000000000000
 11
245.5394414952139
 21
460.5086161520449
 31
0.0000000000000000
 70
32
  3
MAIN001
100
AcDbAlignedDimension
 13
272.5394414952139
 23
445.7061730424491
 33
0.0000000000000000
 14
218.5394414952139
 24
495.0180720424490
 34
0.0000000000000000
100
AcDbRotatedDimension
1001
ACAD
1000
DSTYLE
1002
{
1070
   173
1070
     1
1070
     6
1000
_OPEN
1070
     7
1000
_OPEN
1070
    41
1040
4.000000
1002
}
  0
DIMENSION
  5
2C6
100
AcDbEntity
  8
MAIN0
  6
CONTINUOUS
 62
3
100
AcDbDimension
  2
*D20
 10
115.0299214967289
 20
471.7061730424491
 30
0.0000000000000000
 11
114.5299214967289
 21
429.2061730424491
 31
0.0000000000000000
 70
32
  1
\A1;\U+220585
  3
MAIN001
100
AcDbAlignedDimension
 13
150.0394414952139
 23
386.7061730424491
 33
0.0000000000000000
 14
150.0394414952139
 24
471.7061730424491
 34
0.0000000000000000
 50
90.00000000000000
100
AcDbRotatedDimension
1001
ACAD
1000
DSTYLE
1002
{
1070
   173
1070
     1
1070
     6
1000
_OPEN
1070
     7
1000
_OPEN
1070
    41
1040
4.000000
1002
}
  0
DIMENSION
  5
2CF
100
AcDbEntity
  8
MAIN0
  6
CONTINUOUS
 62
3
100
AcDbDimension
  2
*D21
 10
293.7824695010797
 20
446.7061730424491
 30
0.0000000000000000
 11
293.2824695010797
 21
429.2061730424491
 31
0.0000000000000000
 70
32
  3
MAIN001
100
AcDbAlignedDimension
 13
271.5394414952139
 23
411.7061730424491
 33
0.0000000000000000
 14
271.5394414952139
 24
446.7061730424491
 34
0.0000000000000000
 50
90.00000000000000
100
AcDbRotatedDimension
1001
ACAD
1000
DSTYLE
1002
{
1070
   173
1070
     1
1070
     6
1000
_OPEN
1070
     7
1000
_OPEN
1070
    41
1040
4.000000
1002
}
  0
DIMENSION
  5
2D8
100
AcDbEntity
  8
MAIN0
  6
CONTINUOUS
 62
3
100
AcDbDimension
  2
*D22
 10
237.7013678450272
 20
563.2061730424491
 30
0.0000000000000000
 11
237.2013678450272
 21
553.2061730424491
 31
0.0000000000000000
 70
32
  1
\A1;\U+220520
  3
MAIN001
100
AcDbAlignedDimension
 13
217.9394414952139
 23
543.2061730424491
 33
0.0000000000000000
 14
217.9394414952139
 24
563.2061730424491
 34
0.0000000000000000
 50
90.00000000000000
100
AcDbRotatedDimension
1001
ACAD
1000
DSTYLE
1002
{
1070
   173
1070
     1
1070
     6
1000
_OPEN
1070
     7
1000
_OPEN
1070
    41
1040
4.000000
1002
}
  0
DIMENSION
  5
2E3
100
AcDbEntity
  8
MAIN0
  6
CONTINUOUS
 62
3
100
AcDbDimension
  2
*D23
 10
218.5394414952139
 20
579.6290640715047
 30
0.0000000000000000
 11
191.3386109652880
 21
580.6290640715047
 31
0.0000000000000000
 70
160
  3
MAIN001
100
AcDbAlignedDimension
 13
204.0394414952139
 23
562.7061730424491
 33
0.0000000000000000
 14
218.5394414952139
 24
563.7061730424491
 34
0.0000000000000000
100
AcDbRotatedDimension
1001
ACAD
1000
DSTYLE
1002
{
1070
   173
1070
     1
1070
     6
1000
_OPEN
1070
     7
1000
_OPEN
1070
    41
1040
4.000000
1070
   287
1070
     0
1002
}
  0
LINE
  5
2E4
100
AcDbEntity
  8
MAIN0
  6
HIDDEN
 62
3
100
AcDbLine
 10
150.0394414952139
 20
386.7061730424491
 30
0.0000000000000000
 11
218.5394414952139
 21
386.7061730424491
 31
0.0000000000000000
  0
LINE
  5
2E5
100
AcDbEntity
  8
MAIN0
  6
HIDDEN
 62
3
100
AcDbLine
 10
138.5394414952137
 20
364.2061730424491
 30
0.0000000000000000
 11
150.0394414952137
 21
364.2061730424491
 31
0.0000000000000000
  0
LINE
  5
2E6
100
AcDbEntity
  8
MAIN0
  6
HIDDEN
 62
3
100
AcDbLine
 10
217.7894414952628
 20
390.7061730424492
 30
0.0000000000000000
 11
218.5198262529692
 21
389.4411095330276
 31
0.0000000000000000
  0
LINE
  5
2E7
100
AcDbEntity
  8
MAIN0
  6
HIDDEN
 62
3
100
AcDbLine
 10
212.7894414952169
 20
390.7061730424491
 30
0.0000000000000000
 11
217.7894414952628
 21
390.7061730424491
 31
0.0000000000000000
  0
LINE
  5
2E8
100
AcDbEntity
  8
MAIN0
  6
HIDDEN
 62
3
100
AcDbLine
 10
212.0590567375105
 20
389.4411095330275
 30
0.0000000000000000
 11
212.7894414952170
 21
390.7061730424490
 31
0.0000000000000000
  0
LINE
  5
2E9
100
AcDbEntity
  8
MAIN0
  6
HIDDEN
 62
3
100
AcDbLine
 10
210.2894414952627
 20
390.7061730424493
 30
0.0000000000000000
 11
211.0198262529692
 21
389.4411095330275
 31
0.0000000000000000
  0
ARC
  5
2EA
100
AcDbEntity
  8
MAIN0
  6
HIDDEN
 62
3
100
AcDbCircle
 10
211.5394414952399
 20
389.7411095330276
 30
0.0000000000000000
 40
0.6000000000000001
100
AcDbArc
 50
209.9999999999930
 51
330.0000000000017
  0
LINE
  5
2EB
100
AcDbEntity
  8
MAIN0
  6
HIDDEN
 62
3
100
AcDbLine
 10
205.2894414952169
 20
390.7061730424491
 30
0.0000000000000000
 11
210.2894414952628
 21
390.7061730424491
 31
0.0000000000000000
  0
LINE
  5
2EC
100
AcDbEntity
  8
MAIN0
  6
HIDDEN
 62
3
100
AcDbLine
 10
204.5590567375105
 20
389.4411095330277
 30
0.0000000000000000
 11
205.2894414952170
 21
390.7061730424491
 31
0.0000000000000000
  0
LINE
  5
2ED
100
AcDbEntity
  8
MAIN0
  6
HIDDEN
 62
3
100
AcDbLine
 10
202.7894414952627
 20
390.7061730424492
 30
0.0000000000000000
 11
203.5198262529692
 21
389.4411095330274
 31
0.0000000000000000
  0
ARC
  5
2EE
100
AcDbEntity
  8
MAIN0
  6
HIDDEN
 62
3
100
AcDbCircle
 10
204.0394414952398
 20
389.7411095330276
 30
0.0000000000000000
 40
0.6000000000000001
100
AcDbArc
 50
209.9999999999930
 51
330.0000000000017
  0
LINE
  5
2EF
100
AcDbEntity
  8
MAIN0
  6
HIDDEN
 62
3
100
AcDbLine
 10
193.5394414952139
 20
390.7061730424491
 30
0.0000000000000000
 11
202.7894414952628
 21
390.7061730424491
 31
0.0000000000000000
  0
LINE
  5
2F0
100
AcDbEntity
  8
MAIN0
  6
HIDDEN
 62
3
100
AcDbLine
 10
193.5394414952139
 20
387.4391730424491
 30
0.0000000000000000
 11
193.5394414952139
 21
390.7061730424491
 31
0.0000000000000000
  0
LINE
  5
2F1
100
AcDbEntity
  8
MAIN0
  6
CONTINUOUS
 62
3
100
AcDbLine
 10
223.5394414952138
 20
387.9328184980994
 30
0.0000000000000000
 11
227.0394414952138
 21
387.9328184980989
 31
0.0000000000000000
  0
LINE
  5
2F2
100
AcDbEntity
  8
MAIN0
  6
CONTINUOUS
 62
3
100
AcDbLine
 10
223.5394414952139
 20
350.2211730424492
 30
0.0000000000000000
 11
223.5394414952139
 21
387.9328184980994
 31
0.0000000000000000
  0
LINE
  5
2F3
100
AcDbEntity
  8
MAIN0
  6
CONTINUOUS
 62
3
100
AcDbLine
 10
218.5394414952139
 20
383.8047640732575
 30
0.0000000000000000
 11
223.5394414952139
 21
383.8047640732575
 31
0.0000000000000000
  0
DIMENSION
  5
2FC
100
AcDbEntity
  8
MAIN0
  6
CONTINUOUS
 62
3
100
AcDbDimension
  2
*D24
 10
82.54796641898304
 20
544.2061730424491
 30
0.0000000000000000
 11
82.04796641898304
 21
422.1311729053584
 31
0.0000000000000000
 70
32
  1
\A1;\U+2205230H6\H0.903226x;\S＋0.029^ 　0;
  3
MAIN001
100
AcDbAlignedDimension
 13
132.5394414952139
 23
314.2061730424491
 33
0.0000000000000000
 14
132.5394414952139
 24
544.2061730424491
 34
0.0000000000000000
 50
90.00000000000000
100
AcDbRotatedDimension
1001
ACAD
1000
DSTYLE
1002
{
1070
   173
1070
     1
1070
     6
1000
_OPEN
1070
     7
1000
_OPEN
1070
    41
1040
4.000000
1070
   272
1070
     3
1070
    47
1040
0.029000
1070
    48
1040
0.000000
1070
    71
1070
     1
1070
   340
1005
2FD
1002
}
  0
DIMENSION
  5
307
100
AcDbEntity
  8
MAIN0
  6
CONTINUOUS
 62
3
100
AcDbDimension
  2
*D25
 10
82.54796641898304
 20
559.9561730424491
 30
0.0000000000000000
 11
81.54796641898304
 21
580.2005211770675
 31
0.0000000000000000
 70
160
  1
\A1;\U+220513.5
  3
MAIN001
100
AcDbAlignedDimension
 13
133.1394414952138
 23
546.4561730424491
 33
0.0000000000000000
 14
133.1394414952139
 24
559.9561730424491
 34
0.0000000000000000
 50
90.00000000000000
100
AcDbRotatedDimension
1001
ACAD
1000
DSTYLE
1002
{
1070
   173
1070
     1
1070
     6
1000
_OPEN
1070
     7
1000
_OPEN
1070
    41
1040
4.000000
1002
}
  0
LINE
  5
308
100
AcDbEntity
  8
MAIN0
  6
HIDDEN
 62
3
100
AcDbLine
 10
497.4806022903782
 20
440.2155345758163
 30
0.0000000000000000
 11
572.1295516906789
 21
483.3141256068027
 31
0.0000000000000000
  0
LINE
  5
309
100
AcDbEntity
  8
MAIN0
  6
HIDDEN
 62
3
100
AcDbLine
 10
344.1941058214253
 20
506.6968115085374
 30
0.0000000000000000
 11
418.8430552209532
 21
463.5982204779793
 31
0.0000000000000000
  0
MTEXT
  5
30A
100
AcDbEntity
  8
MAIN0
  6
CONTINUOUS
 62
3
100
AcDbMText
 10
515.8072120114421
 20
367.5912321196676
 30
0.0000000000000000
 40
6.000000000000000
 41
0.0000000000000000
 71
     1
 72
     1
  1
{\H0.93x;{JN10T102}}
 11
0.5000000000000001
 21
0.8660254037844386
 31
0.0000000000000000
  7
STANDARD
  0
MTEXT
  5
30B
100
AcDbEntity
  8
MAIN0
  6
CONTINUOUS
 62
3
100
AcDbMText
 10
521.0090997091331
 20
358.3191008884737
 30
0.0000000000000000
 40
6.000000000000000
 41
0.0000000000000000
 71
     1
 72
     1
  1
{\H0.93x;{ＫＩＴＡＧＡＷＡ}}
 11
0.5000000000000001
 21
0.8660254037844386
 31
0.0000000000000000
  7
KNJYOKO
  0
LINE
  5
30C
100
AcDbEntity
  8
MAIN0
  6
CONTINUOUS
 62
3
100
AcDbLine
 10
524.5313479160709
 20
347.8528952532928
 30
0.0000000000000000
 11
558.5120495166414
 21
406.7091969022425
 31
0.0000000000000000
  0
LINE
  5
30D
100
AcDbEntity
  8
MAIN0
  6
HIDDEN
 62
3
100
AcDbLine
 10
433.6618287556914
 20
564.4061730424492
 30
0.0000000000000000
 11
433.6618287556914
 21
564.5471775458884
 31
0.0000000000000000
  0
LINE
  5
30E
100
AcDbEntity
  8
MAIN0
  6
HIDDEN
 62
3
100
AcDbLine
 10
433.6618287556914
 20
564.4061730424492
 30
0.0000000000000000
 11
469.1618287556914
 21
564.4061730424492
 31
0.0000000000000000
  0
LINE
  5
30F
100
AcDbEntity
  8
MAIN0
  6
HIDDEN
 62
3
100
AcDbLine
 10
469.1618287556914
 20
543.3341165970405
 30
0.0000000000000000
 11
469.1618287556914
 21
564.4061730424492
 31
0.0000000000000000
  0
LINE
  5
310
100
AcDbEntity
  8
MAIN0
  6
HIDDEN
 62
3
100
AcDbLine
 10
469.1618287556914
 20
564.4061730424492
 30
0.0000000000000000
 11
469.1618287556914
 21
564.5471775458884
 31
0.0000000000000000
  0
LINE
  5
311
100
AcDbEntity
  8
MAIN0
  6
HIDDEN
 62
3
100
AcDbLine
 10
459.2618287555237
 20
563.5978826656858
 30
0.0000000000000000
 11
460.6618287553463
 21
564.4061730424487
 31
0.0000000000000000
  0
LINE
  5
312
100
AcDbEntity
  8
MAIN0
  6
HIDDEN
 62
3
100
AcDbLine
 10
443.5618287557203
 20
563.5978826656938
 30
0.0000000000000000
 11
459.2618287556628
 21
563.5978826656856
 31
0.0000000000000000
  0
LINE
  5
313
100
AcDbEntity
  8
MAIN0
  6
HIDDEN
 62
3
100
AcDbLine
 10
459.2618287555237
 20
563.5978826656858
 30
0.0000000000000000
 11
452.0751887884101
 21
548.4061730424490
 31
0.0000000000000000
  0
LINE
  5
314
100
AcDbEntity
  8
MAIN0
  6
HIDDEN
 62
3
100
AcDbLine
 10
459.2618287556626
 20
563.5978826656858
 30
0.0000000000000000
 11
459.2618287556592
 21
548.4061730424492
 31
0.0000000000000000
  0
LINE
  5
315
100
AcDbEntity
  8
MAIN0
  6
HIDDEN
 62
3
100
AcDbLine
 10
452.0751887884101
 20
563.5978826656893
 30
0.0000000000000000
 11
459.2618287556591
 21
548.4061730424492
 31
0.0000000000000000
  0
LINE
  5
316
100
AcDbEntity
  8
MAIN0
  6
HIDDEN
 62
3
100
AcDbLine
 10
452.0751887884101
 20
563.5978826656894
 30
0.0000000000000000
 11
452.0751887884101
 21
548.4061730424492
 31
0.0000000000000000
  0
LINE
  5
317
100
AcDbEntity
  8
MAIN0
  6
HIDDEN
 62
3
100
AcDbLine
 10
443.5618287557239
 20
548.4061730424492
 30
0.0000000000000000
 11
459.2618287556592
 21
548.4061730424492
 31
0.0000000000000000
  0
LINE
  5
318
100
AcDbEntity
  8
MAIN0
  6
HIDDEN
 62
3
100
AcDbLine
 10
450.7484687220415
 20
563.5978826656901
 30
0.0000000000000000
 11
450.7484687220415
 21
548.4061730424489
 31
0.0000000000000000
  0
LINE
  5
319
100
AcDbEntity
  8
MAIN0
  6
HIDDEN
 62
3
100
AcDbLine
 10
443.5618287557203
 20
563.5978826656939
 30
0.0000000000000000
 11
450.7484687220415
 21
548.4061730424489
 31
0.0000000000000000
  0
LINE
  5
31A
100
AcDbEntity
  8
MAIN0
  6
HIDDEN
 62
3
100
AcDbLine
 10
450.7484687220416
 20
563.5978826656902
 30
0.0000000000000000
 11
443.5618287557239
 21
548.4061730424493
 31
0.0000000000000000
  0
LINE
  5
31B
100
AcDbEntity
  8
MAIN0
  6
HIDDEN
 62
3
100
AcDbLine
 10
442.1618287561250
 20
564.4061730424495
 30
0.0000000000000000
 11
443.5618287559296
 21
563.5978826656942
 31
0.0000000000000000
  0
LINE
  5
31C
100
AcDbEntity
  8
MAIN0
  6
HIDDEN
 62
3
100
AcDbLine
 10
443.5618287557203
 20
563.5978826656938
 30
0.0000000000000000
 11
443.5618287557238
 21
548.4061730424492
 31
0.0000000000000000
  0
LINE
  5
31D
100
AcDbEntity
  8
MAIN0
  6
HIDDEN
 62
3
100
AcDbLine
 10
435.6618287556915
 20
557.9061730424489
 30
0.0000000000000000
 11
433.6618287556916
 21
557.9061730424489
 31
0.0000000000000000
  0
ARC
  5
31E
100
AcDbEntity
  8
MAIN0
  6
HIDDEN
 62
3
100
AcDbCircle
 10
435.6618287556915
 20
555.1561730424492
 30
0.0000000000000000
 40
2.749999999999986
100
AcDbArc
 50
270.0000000000000
 51
450.0000000000000
  0
LINE
  5
31F
100
AcDbEntity
  8
MAIN0
  6
HIDDEN
 62
3
100
AcDbLine
 10
435.6618287556915
 20
552.4061730424489
 30
0.0000000000000000
 11
433.6618287556916
 21
552.4061730424489
 31
0.0000000000000000
  0
LINE
  5
320
100
AcDbEntity
  8
MAIN0
  6
HIDDEN
 62
3
100
AcDbLine
 10
433.6618287556914
 20
543.3341165970404
 30
0.0000000000000000
 11
433.6618287556914
 21
564.4061730424492
 31
0.0000000000000000
  0
ARC
  5
321
100
AcDbEntity
  8
MAIN0
  6
HIDDEN
 62
3
100
AcDbCircle
 10
467.1618287556914
 20
555.1561730424492
 30
0.0000000000000000
 40
2.749999999999986
100
AcDbArc
 50
90.00000000000000
 51
270.0000000000000
  0
LINE
  5
322
100
AcDbEntity
  8
MAIN0
  6
HIDDEN
 62
3
100
AcDbLine
 10
467.1618287556914
 20
557.9061730424492
 30
0.0000000000000000
 11
469.1618287556913
 21
557.9061730424492
 31
0.0000000000000000
  0
LINE
  5
323
100
AcDbEntity
  8
MAIN0
  6
HIDDEN
 62
3
100
AcDbLine
 10
467.1618287556914
 20
552.4061730424492
 30
0.0000000000000000
 11
469.1618287556913
 21
552.4061730424492
 31
0.0000000000000000
  0
LINE
  5
324
100
AcDbEntity
  8
MAIN0
  6
HIDDEN
 62
3
100
AcDbLine
 10
445.5118287556915
 20
542.4061730424489
 30
0.0000000000000000
 11
445.5118287556915
 21
548.4061730424492
 31
0.0000000000000000
  0
LINE
  5
325
100
AcDbEntity
  8
MAIN0
  6
HIDDEN
 62
3
100
AcDbLine
 10
445.5118287556915
 20
542.4061730424492
 30
0.0000000000000000
 11
457.3118287556914
 21
542.4061730424492
 31
0.0000000000000000
  0
LINE
  5
326
100
AcDbEntity
  8
MAIN0
  6
HIDDEN
 62
3
100
AcDbLine
 10
451.4118287555735
 20
538.9998064544005
 30
0.0000000000000000
 11
457.3118287552827
 21
542.4061730424492
 31
0.0000000000000000
  0
LINE
  5
327
100
AcDbEntity
  8
MAIN0
  6
HIDDEN
 62
3
100
AcDbLine
 10
457.3118287556915
 20
542.4061730424492
 30
0.0000000000000000
 11
457.3118287556915
 21
548.4061730424492
 31
0.0000000000000000
  0
LINE
  5
328
100
AcDbEntity
  8
MAIN0
  6
HIDDEN
 62
3
100
AcDbLine
 10
445.5118287558735
 20
542.4061730424493
 30
0.0000000000000000
 11
451.4118287555737
 21
538.9998064544009
 31
0.0000000000000000
  0
LINE
  5
329
100
AcDbEntity
  8
MAIN0
  6
HIDDEN
 62
3
100
AcDbLine
 10
433.6618287556952
 20
545.6061730414618
 30
0.0000000000000000
 11
434.9489452861187
 21
536.6372444904538
 31
0.0000000000000000
  0
LINE
  5
32A
100
AcDbEntity
  8
MAIN0
  6
HIDDEN
 62
3
100
AcDbLine
 10
469.1618287556877
 20
545.6061730414619
 30
0.0000000000000000
 11
467.8747122252594
 21
536.6372444904204
 31
0.0000000000000000
  0
LINE
  5
32B
100
AcDbEntity
  8
MAIN0
  6
CONTINUOUS
 62
3
100
AcDbLine
 10
218.5394414952139
 20
564.7061730424490
 30
0.0000000000000000
 11
217.5394414952139
 21
565.7061730424490
 31
0.0000000000000000
  0
LINE
  5
32C
100
AcDbEntity
  8
MAIN0
  6
CONTINUOUS
 62
3
100
AcDbLine
 10
132.5394414952139
 20
564.7061730424491
 30
0.0000000000000000
 11
133.5394414952139
 21
565.7061730424491
 31
0.0000000000000000
  0
LINE
  5
32D
100
AcDbEntity
  8
MAIN0
  6
CONTINUOUS
 62
3
100
AcDbLine
 10
132.5394414952139
 20
293.7061730424491
 30
0.0000000000000000
 11
133.5394414952139
 21
292.7061730424491
 31
0.0000000000000000
  0
LINE
  5
32E
100
AcDbEntity
  8
MAIN0
  6
CONTINUOUS
 62
3
100
AcDbLine
 10
217.5394414952139
 20
292.7061730424342
 30
0.0000000000000000
 11
218.5394414952139
 21
293.7061730424342
 31
0.0000000000000000
  0
LINE
  5
32F
100
AcDbEntity
  8
MAIN0
  6
CENTER
 62
3
100
AcDbLine
 10
689.8523626258575
 20
350.5409340223460
 30
0.0000000000000000
 11
689.8523626258575
 21
487.7046646058111
 31
0.0000000000000000
  0
LINE
  5
330
100
AcDbEntity
  8
MAIN0
  6
CENTER
 62
3
100
AcDbLine
 10
689.8523626258575
 20
498.8257728902308
 30
0.0000000000000000
 11
689.8523626258575
 21
562.5037918961316
 31
0.0000000000000000
  0
DIMENSION
  5
337
100
AcDbEntity
  8
MAIN0
  6
CONTINUOUS
 62
3
100
AcDbDimension
  2
*D26
 10
574.1728378714502
 20
446.6914422963273
 30
0.0000000000000000
 11
534.4772718616994
 21
442.0475601388581
 31
0.0000000000000000
 70
163
  3
MAIN001
100
AcDbDiametricDimension
 15
328.6508196399329
 25
411.7209037885708
 35
0.0000000000000000
1001
ACAD
1000
DSTYLE
1002
{
1070
   287
1070
     2
1070
   173
1070
     1
1070
     6
1000
_OPEN
1070
     7
1000
_OPEN
1070
    41
1040
4.000000
1070
   272
1070
     1
1070
    47
1040
0.200000
1070
    48
1040
0.200000
1070
    71
1070
     1
1002
}
  0
DIMENSION
  5
340
100
AcDbEntity
  8
MAIN0
  6
CONTINUOUS
 62
3
100
AcDbDimension
  2
*D27
 10
98.40823956958525
 20
494.2061730424491
 30
0.0000000000000000
 11
97.90823956958525
 21
429.2061730424491
 31
0.0000000000000000
 70
32
  1
\A1;\U+2205130
  3
MAIN001
100
AcDbAlignedDimension
 13
138.5394414952137
 23
364.2061730424491
 33
0.0000000000000000
 14
138.5394414952137
 24
494.2061730424491
 34
0.0000000000000000
 50
90.00000000000000
100
AcDbRotatedDimension
1001
ACAD
1000
DSTYLE
1002
{
1070
   173
1070
     1
1070
     6
1000
_OPEN
1070
     7
1000
_OPEN
1070
    41
1040
4.000000
1002
}
  0
LINE
  5
341
100
AcDbEntity
  8
MAIN0
  6
CONTINUOUS
 62
3
100
AcDbLine
 10
449.8654197340131
 20
290.7061730424490
 30
0.0000000000000000
 11
452.9582377759231
 21
290.7061730424490
 31
0.0000000000000000
  0
DIMENSION
  5
349
100
AcDbEntity
  8
MAIN0
  6
CONTINUOUS
 62
3
100
AcDbDimension
  2
*D28
 10
380.5611457144792
 20
551.9231558218155
 30
0.0000000000000000
 11
408.9910545194591
 21
587.5226577896310
 31
0.0000000000000000
 70
162
  3
MAIN001
100
AcDb2LineAngularDimension
 13
451.4118287556914
 23
592.6074586673813
 33
0.0000000000000000
 14
451.4118287556914
 24
429.2061730424047
 34
0.0000000000000000
 15
381.0611457144759
 25
551.0571304180292
 35
0.0000000000000000
 16
409.1204640420094
 26
587.0396948764862
 36
0.0000000000000000
1001
ACAD
1000
DSTYLE
1002
{
1070
   173
1070
     1
1070
     6
1000
_OPEN
1070
     7
1000
_OPEN
1070
    41
1040
4.000000
1002
}
  0
DIMENSION
  5
34F
100
AcDbEntity
  8
MAIN0
  6
CONTINUOUS
 62
3
100
AcDbDimension
  2
*D29
 10
451.4118287556914
 20
429.2061730424491
 30
0.0000000000000000
 11
435.8221765900066
 21
457.1563563218653
 31
0.0000000000000000
 70
164
  3
MAIN001
100
AcDbRadialDimension
 15
419.3669046646357
 25
484.6058376623588
 35
0.0000000000000000
1001
ACAD
1000
DSTYLE
1002
{
1070
   173
1070
     1
1070
     6
1000
_OPEN
1070
     7
1000
_OPEN
1070
    41
1040
4.000000
1070
   340
1005
2FD
1002
}
  0
LINE
  5
350
100
AcDbEntity
  8
MAIN0
  6
CENTER
 62
3
100
AcDbLine
 10
554.1563057665089
 20
369.8866215824658
 30
0.0000000000000000
 11
579.9619930657138
 21
354.9877010736434
 31
0.0000000000000000
  0
LINE
  5
351
100
AcDbEntity
  8
MAIN0
  6
PHANTOM
 62
3
100
AcDbLine
 10
550.7678899116977
 20
360.2959190045746
 30
0.0000000000000000
 11
555.0980169306191
 21
357.7959190045745
 31
0.0000000000000000
  0
LINE
  5
352
100
AcDbEntity
  8
MAIN0
  6
PHANTOM
 62
3
100
AcDbLine
 10
555.0980169306195
 20
357.7959190045743
 30
0.0000000000000000
 11
565.0980169306209
 21
375.1164270802623
 31
0.0000000000000000
  0
LINE
  5
353
100
AcDbEntity
  8
MAIN0
  6
PHANTOM
 62
3
100
AcDbLine
 10
550.7678899116979
 20
360.2959190045746
 30
0.0000000000000000
 11
560.7678899116994
 21
377.6164270802625
 31
0.0000000000000000
  0
LINE
  5
354
100
AcDbEntity
  8
MAIN0
  6
PHANTOM
 62
3
100
AcDbLine
 10
560.7678899116991
 20
377.6164270802626
 30
0.0000000000000000
 11
565.0980169306210
 21
375.1164270802623
 31
0.0000000000000000
  0
MTEXT
  5
355
100
AcDbEntity
  8
MAIN0
  6
CONTINUOUS
 62
3
100
AcDbMText
 10
543.5328600702202
 20
365.8644796294887
 30
0.0000000000000000
 40
3.099999904632568
 41
0.0000000000000000
 71
     1
 72
     1
  1
{\H0.92x;{JAPAN}}
 11
0.5000000000000009
 21
0.8660254037844382
 31
0.0000000000000000
  7
STANDARD
  0
MTEXT
  5
356
100
AcDbEntity
  8
MAIN0
  6
CONTINUOUS
 62
3
100
AcDbMText
 10
534.5451420947086
 20
361.1918998963066
 30
0.0000000000000000
 40
2.994604349136353
 41
0.0000000000000000
 71
     1
 72
     1
  1
{\H0.90x;{MAX.2500/min\P}
 11
0.5000000000000009
 21
0.8660254037844382
 31
0.0000000000000000
  7
STANDARD
  0
DIMENSION
  5
361
100
AcDbEntity
  8
MAIN0
  6
CONTINUOUS
 62
3
100
AcDbDimension
  2
*D30
 10
218.5394414952139
 20
592.7482181818989
 30
0.0000000000000000
 11
210.2894414952139
 21
593.2482181818989
 31
0.0000000000000000
 70
32
  3
MAIN001
100
AcDbAlignedDimension
 13
202.0394414952139
 23
570.2550689244597
 33
0.0000000000000000
 14
218.5394414952139
 24
564.7061730424491
 34
0.0000000000000000
100
AcDbRotatedDimension
1001
ACAD
1000
DSTYLE
1002
{
1070
   173
1070
     1
1070
     6
1000
_OPEN
1070
     7
1000
_OPEN
1070
    41
1040
4.000000
1070
   287
1070
     0
1002
}
  0
MTEXT
  5
362
100
AcDbEntity
  8
MAIN0
  6
CONTINUOUS
 62
3
100
AcDbMText
 10
571.6410341884183
 20
234.9529096291441
 30
0.0000000000000000
 40
6.199999809265137
 41
0.0000000000000000
 71
     1
 72
     1
  1
{\H0.93x;{慣性モーメント}}
 11
1.000000000000000
 21
0.0000000000000000
 31
0.0000000000000000
  7
KNJYOKO
  0
MTEXT
  5
363
100
AcDbEntity
  8
MAIN0
  6
CONTINUOUS
 62
3
100
AcDbMText
 10
571.6410341884156
 20
224.7529098198657
 30
0.0000000000000000
 40
5.000000000000000
 41
0.0000000000000000
 71
     1
 72
     1
  1
{\H0.63x;{MOMENT OF INERTIA}}
 11
1.000000000000000
 21
0.0000000000000000
 31
0.0000000000000000
  7
STANDARD
  0
DIMENSION
  5
36B
100
AcDbEntity
  8
MAIN0
  6
CONTINUOUS
 62
3
100
AcDbDimension
  2
*D31
 10
451.4118287556914
 20
592.6074586673813
 30
0.0000000000000000
 11
472.8052394685509
 21
591.7052604478340
 31
0.0000000000000000
 70
162
  3
MAIN001
100
AcDb2LineAngularDimension
 13
487.5697742649082
 23
564.1494627780811
 33
0.0000000000000000
 14
487.3109552198060
 24
563.1835369517919
 34
0.0000000000000000
 15
451.4118287556913
 25
429.2061730401586
 35
0.0000000000000000
 16
472.7399763724410
 26
591.2095380171471
 36
0.0000000000000000
1001
ACAD
1000
DSTYLE
1002
{
1070
   173
1070
     1
1070
     6
1000
_OPEN
1070
     7
1000
_OPEN
1070
    41
1040
4.000000
1002
}
  0
MTEXT
  5
36C
100
AcDbEntity
  8
MAIN0
  6
CONTINUOUS
 62
3
100
AcDbMText
 10
607.2592610097563
 20
217.2217233195359
 30
0.0000000000000000
 40
5.000000000000000
 41
0.0000000000000000
 71
     1
 72
     1
  1
{\H0.63x;{EXTERNAL\PGRIPPING}}
 11
1.000000000000000
 21
0.0000000000000000
 31
0.0000000000000000
  7
STANDARD
  0
MTEXT
  5
36D
100
AcDbEntity
  8
MAIN0
  6
CONTINUOUS
 62
3
100
AcDbMText
 10
607.1557754860546
 20
203.0442851550854
 30
0.0000000000000000
 40
5.000000000000000
 41
0.0000000000000000
 71
     1
 72
     1
  1
{\H0.63x;{INTERNALLY\PGRIPPING}}
 11
1.000000000000000
 21
0.0000000000000000
 31
0.0000000000000000
  7
STANDARD
  0
MTEXT
  5
36E
100
AcDbEntity
  8
MAIN0
  6
CONTINUOUS
 62
3
100
AcDbMText
 10
629.6393156142385
 20
322.5435901415591
 30
0.0000000000000000
 40
6.199999809265137
 41
0.0000000000000000
 71
     1
 72
     1
  1
{\H0.93x;{SPECIFICATIONS}}
 11
1.000000000000000
 21
0.0000000000000000
 31
0.0000000000000000
  7
STANDARD
  0
MTEXT
  5
36F
100
AcDbEntity
  8
MAIN0
  6
CONTINUOUS
 62
3
100
AcDbMText
 10
571.6410341884157
 20
300.0862431532170
 30
0.0000000000000000
 40
5.000000000000000
 41
0.0000000000000000
 71
     1
 72
     1
  1
{\H0.62x;{MAX.PERMISSIBLE HANDLE TORQUE}}
 11
1.000000000000000
 21
0.0000000000000000
 31
0.0000000000000000
  7
STANDARD
  0
MTEXT
  5
370
100
AcDbEntity
  8
MAIN0
  6
CONTINUOUS
 62
3
100
AcDbMText
 10
571.6410341884157
 20
280.0862431532111
 30
0.0000000000000000
 40
5.000000000000000
 41
0.0000000000000000
 71
     1
 72
     1
  1
{\H0.63x;{MAX STATIC GRIPPING FORCE}}
 11
1.000000000000000
 21
0.0000000000000000
 31
0.0000000000000000
  7
STANDARD
  0
MTEXT
  5
371
100
AcDbEntity
  8
MAIN0
  6
CONTINUOUS
 62
3
100
AcDbMText
 10
571.6410341884157
 20
259.4195764865403
 30
0.0000000000000000
 40
5.000000000000000
 41
0.0000000000000000
 71
     1
 72
     1
  1
{\H0.63x;{MAX PREMISSIBLE SPEED}}
 11
1.000000000000000
 21
0.0000000000000000
 31
0.0000000000000000
  7
STANDARD
  0
MTEXT
  5
372
100
AcDbEntity
  8
MAIN0
  6
CONTINUOUS
 62
3
100
AcDbMText
 10
568.0450012955819
 20
205.4490259412670
 30
0.0000000000000000
 40
5.000000000000000
 41
0.0000000000000000
 71
     1
 72
     1
  1
{\H0.54x;{GRIPPING RANGE}}
 11
1.000000000000000
 21
0.0000000000000000
 31
0.0000000000000000
  7
STANDARD
  0
MTEXT
  5
373
100
AcDbEntity
  8
MAIN0
  6
CONTINUOUS
 62
3
100
AcDbMText
 10
604.4456833658146
 20
248.2171529348937
 30
0.0000000000000000
 40
6.200000762939453
 41
0.0000000000000000
 71
     1
 72
     1
  1
{\H0.91x;{MASS}}
 11
1.000000000000000
 21
0.0000000000000000
 31
0.0000000000000000
  7
STANDARD
  0
LINE
  5
374
100
AcDbEntity
  8
MAIN0
  6
CENTER
 62
3
100
AcDbLine
 10
425.8121202901452
 20
333.6667603922149
 30
0.0000000000000000
 11
415.2538832464747
 21
294.2628833068170
 31
0.0000000000000000
  0
LINE
  5
375
100
AcDbEntity
  8
MAIN0
  6
HIDDEN
 62
3
100
AcDbLine
 10
410.8187333459218
 20
298.7678615498001
 30
0.0000000000000000
 11
412.2884271915918
 21
299.6163896872239
 31
0.0000000000000000
  0
LINE
  5
376
100
AcDbEntity
  8
MAIN0
  6
HIDDEN
 62
3
100
AcDbLine
 10
412.2884271915917
 20
299.6163896872239
 30
0.0000000000000000
 11
420.4987967150488
 21
297.4164278038525
 31
0.0000000000000000
  0
LINE
  5
377
100
AcDbEntity
  8
MAIN0
  6
HIDDEN
 62
3
100
AcDbLine
 10
420.4987967150489
 20
297.4164278038525
 30
0.0000000000000000
 11
421.3473248524728
 21
295.9467339581826
 31
0.0000000000000000
  0
LINE
  5
378
100
AcDbEntity
  8
MAIN0
  6
HIDDEN
 62
3
100
AcDbLine
 10
411.3698685380480
 20
299.0860596013339
 30
0.0000000000000000
 11
417.2062380051099
 21
320.8676869841525
 31
0.0000000000000000
  0
LINE
  5
379
100
AcDbEntity
  8
MAIN0
  6
HIDDEN
 62
3
100
AcDbLine
 10
417.2062380051099
 20
320.8676869841524
 30
0.0000000000000000
 11
426.8654962680006
 21
318.2794965331273
 31
0.0000000000000000
  0
LINE
  5
37A
100
AcDbEntity
  8
MAIN0
  6
HIDDEN
 62
3
100
AcDbLine
 10
426.8654962680006
 20
318.2794965331273
 30
0.0000000000000000
 11
421.0291268009387
 21
296.4978691503087
 31
0.0000000000000000
  0
LINE
  5
37B
100
AcDbEntity
  8
MAIN0
  6
HIDDEN
 62
3
100
AcDbLine
 10
412.2884271915917
 20
299.6163896872238
 30
0.0000000000000000
 11
420.2600537807494
 21
329.3669051369272
 31
0.0000000000000000
  0
LINE
  5
37C
100
AcDbEntity
  8
MAIN0
  6
HIDDEN
 62
3
100
AcDbLine
 10
420.2600537807494
 20
329.3669051369272
 30
0.0000000000000000
 11
428.4704233042065
 21
327.1669432535558
 31
0.0000000000000000
  0
LINE
  5
37D
100
AcDbEntity
  8
MAIN0
  6
HIDDEN
 62
3
100
AcDbLine
 10
428.4704233042065
 20
327.1669432535558
 30
0.0000000000000000
 11
420.4987967150488
 21
297.4164278038524
 31
0.0000000000000000
  0
LINE
  5
37E
100
AcDbEntity
  8
MAIN0
  6
HIDDEN
 62
3
100
AcDbLine
 10
420.2600537807494
 20
329.3669051369271
 30
0.0000000000000000
 11
425.0003128352636
 21
330.6370537224985
 31
0.0000000000000000
  0
LINE
  5
37F
100
AcDbEntity
  8
MAIN0
  6
HIDDEN
 62
3
100
AcDbLine
 10
425.0003128352636
 20
330.6370537224986
 30
0.0000000000000000
 11
428.4704233042065
 21
327.1669432535557
 31
0.0000000000000000
  0
LINE
  5
380
100
AcDbEntity
  8
MAIN0
  6
CENTER
 62
3
100
AcDbLine
 10
202.0394414952139
 20
570.2550689244597
 30
0.0000000000000000
 11
202.0394414952139
 21
527.7089779543737
 31
0.0000000000000000
  0
LINE
  5
381
100
AcDbEntity
  8
MAIN0
  6
HIDDEN
 62
3
100
AcDbLine
 10
207.4894414952139
 20
565.7061730424491
 30
0.0000000000000000
 11
206.2894414952139
 21
564.5061730424491
 31
0.0000000000000000
  0
LINE
  5
382
100
AcDbEntity
  8
MAIN0
  6
HIDDEN
 62
3
100
AcDbLine
 10
206.2894414952139
 20
564.5061730424491
 30
0.0000000000000000
 11
197.7894414952139
 21
564.5061730424491
 31
0.0000000000000000
  0
LINE
  5
383
100
AcDbEntity
  8
MAIN0
  6
HIDDEN
 62
3
100
AcDbLine
 10
197.7894414952138
 20
564.5061730424491
 30
0.0000000000000000
 11
196.5894414952139
 21
565.7061730424490
 31
0.0000000000000000
  0
LINE
  5
384
100
AcDbEntity
  8
MAIN0
  6
HIDDEN
 62
3
100
AcDbLine
 10
207.0394414952139
 20
565.2561730424491
 30
0.0000000000000000
 11
207.0394414952139
 21
542.7061730424490
 31
0.0000000000000000
  0
LINE
  5
385
100
AcDbEntity
  8
MAIN0
  6
HIDDEN
 62
3
100
AcDbLine
 10
207.0394414952139
 20
542.7061730424490
 30
0.0000000000000000
 11
197.0394414952139
 21
542.7061730424490
 31
0.0000000000000000
  0
LINE
  5
386
100
AcDbEntity
  8
MAIN0
  6
HIDDEN
 62
3
100
AcDbLine
 10
197.0394414952139
 20
542.7061730424490
 30
0.0000000000000000
 11
197.0394414952139
 21
565.2561730424491
 31
0.0000000000000000
  0
LINE
  5
387
100
AcDbEntity
  8
MAIN0
  6
HIDDEN
 62
3
100
AcDbLine
 10
206.2894414952139
 20
564.5061730424491
 30
0.0000000000000000
 11
206.2894414952139
 21
533.7061730424490
 31
0.0000000000000000
  0
LINE
  5
388
100
AcDbEntity
  8
MAIN0
  6
HIDDEN
 62
3
100
AcDbLine
 10
206.2894414952139
 20
533.7061730424490
 30
0.0000000000000000
 11
197.7894414952139
 21
533.7061730424490
 31
0.0000000000000000
  0
LINE
  5
389
100
AcDbEntity
  8
MAIN0
  6
HIDDEN
 62
3
100
AcDbLine
 10
197.7894414952139
 20
533.7061730424490
 30
0.0000000000000000
 11
197.7894414952139
 21
564.5061730424491
 31
0.0000000000000000
  0
LINE
  5
38A
100
AcDbEntity
  8
MAIN0
  6
HIDDEN
 62
3
100
AcDbLine
 10
206.2894414952139
 20
533.7061730424490
 30
0.0000000000000000
 11
202.0394414952139
 21
531.2524343983931
 31
0.0000000000000000
  0
LINE
  5
38B
100
AcDbEntity
  8
MAIN0
  6
HIDDEN
 62
3
100
AcDbLine
 10
202.0394414952139
 20
531.2524343983931
 30
0.0000000000000000
 11
197.7894414952138
 21
533.7061730424490
 31
0.0000000000000000
  0
LEADER
  5
38C
100
AcDbEntity
  8
MAIN0
  6
CONTINUOUS
 62
3
100
AcDbLeader
  3
MAIN001
 73
     0
 74
     0
 75
     1
 40
6.199999809265137
 41
64.76100177860263
 76
     3
 10
207.0394414952139
 20
555.9989553335635
 30
0.0000000000000000
 10
256.6887018164211
 20
616.7141141914456
 30
0.0000000000000000
 10
260.5397017048412
 20
616.7141141914456
 30
0.0000000000000000
340
38D
213
0.0000000000000000
223
-1.000000000000000
233
0.0000000000000000
1001
ACAD
1000
DSTYLE
1002
{
1070
   147
1040
0.0
1070
    77
1070
     1
1070
   173
1070
     1
1070
     6
1000
_OPEN
1070
     7
1000
_OPEN
1002
}
  0
MTEXT
  5
38D
102
{ACAD_REACTORS
330
38C
102
}
100
AcDbEntity
  8
MAIN0
  6
CONTINUOUS
 62
3
100
AcDbMText
 10
260.5407017048412
 20
623.9141140007107
 30
0.0000000000000000
 40
6.199999809265137
 41
0.0000000000000000
 71
     1
 72
     1
  1
{\H0.93x;{2-M10 ねじ深23}}
 11
1.000000000000000
 21
0.0000000000000000
 31
0.0000000000000000
  7
KNJYOKO
  0
LINE
  5
38E
100
AcDbEntity
  8
MAIN0
  6
CENTER
 62
3
100
AcDbLine
 10
477.0115372212377
 20
524.7455856926832
 30
0.0000000000000000
 11
487.5697742649082
 21
564.1494627780812
 31
0.0000000000000000
  0
LINE
  5
38F
100
AcDbEntity
  8
MAIN0
  6
HIDDEN
 62
3
100
AcDbLine
 10
492.0049241654610
 20
559.6444845350981
 30
0.0000000000000000
 11
490.5352303197911
 21
558.7959563976742
 31
0.0000000000000000
  0
LINE
  5
390
100
AcDbEntity
  8
MAIN0
  6
HIDDEN
 62
3
100
AcDbLine
 10
490.5352303197911
 20
558.7959563976742
 30
0.0000000000000000
 11
482.3248607963341
 21
560.9959182810457
 31
0.0000000000000000
  0
LINE
  5
391
100
AcDbEntity
  8
MAIN0
  6
HIDDEN
 62
3
100
AcDbLine
 10
482.3248607963340
 20
560.9959182810458
 30
0.0000000000000000
 11
481.4763326589101
 21
562.4656121267155
 31
0.0000000000000000
  0
LINE
  5
392
100
AcDbEntity
  8
MAIN0
  6
HIDDEN
 62
3
100
AcDbLine
 10
491.4537889733348
 20
559.3262864835642
 30
0.0000000000000000
 11
485.6174195062729
 21
537.5446591007457
 31
0.0000000000000000
  0
LINE
  5
393
100
AcDbEntity
  8
MAIN0
  6
HIDDEN
 62
3
100
AcDbLine
 10
485.6174195062730
 20
537.5446591007457
 30
0.0000000000000000
 11
475.9581612433823
 21
540.1328495517709
 31
0.0000000000000000
  0
LINE
  5
394
100
AcDbEntity
  8
MAIN0
  6
HIDDEN
 62
3
100
AcDbLine
 10
475.9581612433823
 20
540.1328495517710
 30
0.0000000000000000
 11
481.7945307104441
 21
561.9144769345894
 31
0.0000000000000000
  0
LINE
  5
395
100
AcDbEntity
  8
MAIN0
  6
HIDDEN
 62
3
100
AcDbLine
 10
490.5352303197911
 20
558.7959563976743
 30
0.0000000000000000
 11
482.5636037306334
 21
529.0454409479710
 31
0.0000000000000000
  0
LINE
  5
396
100
AcDbEntity
  8
MAIN0
  6
HIDDEN
 62
3
100
AcDbLine
 10
482.5636037306335
 20
529.0454409479710
 30
0.0000000000000000
 11
474.3532342071764
 21
531.2454028313424
 31
0.0000000000000000
  0
LINE
  5
397
100
AcDbEntity
  8
MAIN0
  6
HIDDEN
 62
3
100
AcDbLine
 10
474.3532342071763
 20
531.2454028313424
 30
0.0000000000000000
 11
482.3248607963341
 21
560.9959182810458
 31
0.0000000000000000
  0
LINE
  5
398
100
AcDbEntity
  8
MAIN0
  6
HIDDEN
 62
3
100
AcDbLine
 10
482.5636037306335
 20
529.0454409479710
 30
0.0000000000000000
 11
477.8233446761192
 21
527.7752923623996
 31
0.0000000000000000
  0
LINE
  5
399
100
AcDbEntity
  8
MAIN0
  6
HIDDEN
 62
3
100
AcDbLine
 10
477.8233446761193
 20
527.7752923623996
 30
0.0000000000000000
 11
474.3532342071764
 21
531.2454028313424
 31
0.0000000000000000
  0
MTEXT
  5
39A
100
AcDbEntity
  8
MAIN0
  6
CONTINUOUS
 62
3
100
AcDbMText
 10
676.8072513234934
 20
300.1049647642835
 30
0.0000000000000000
 40
6.199999809265137
 41
0.0000000000000000
 71
     1
 72
     1
  1
{\H0.81x;{18.0}}
 11
1.000000000000000
 21
0.0000000000000000
 31
0.0000000000000000
  7
STANDARD
  0
MTEXT
  5
39B
100
AcDbEntity
  8
MAIN0
  6
CONTINUOUS
 62
3
100
AcDbMText
 10
670.6410341884164
 20
289.7862429624290
 30
0.0000000000000000
 40
6.199999809265137
 41
0.0000000000000000
 71
     1
 72
     1
  1
{\H0.88x;{46}}
 11
1.000000000000000
 21
0.0000000000000000
 31
0.0000000000000000
  7
STANDARD
  0
MTEXT
  5
39C
100
AcDbEntity
  8
MAIN0
  6
CONTINUOUS
 62
3
100
AcDbMText
 10
676.6410341884164
 20
280.7862429624290
 30
0.0000000000000000
 40
6.199999809265137
 41
0.0000000000000000
 71
     1
 72
     1
  1
{\H0.91x;{4691}}
 11
1.000000000000000
 21
0.0000000000000000
 31
0.0000000000000000
  7
STANDARD
  0
MTEXT
  5
39D
100
AcDbEntity
  8
MAIN0
  6
CONTINUOUS
 62
3
100
AcDbMText
 10
670.6410341884164
 20
248.1195762957623
 30
0.0000000000000000
 40
6.199999809265137
 41
0.0000000000000000
 71
     1
 72
     1
  1
{\H0.88x;{29}}
 11
1.000000000000000
 21
0.0000000000000000
 31
0.0000000000000000
  7
STANDARD
  0
MTEXT
  5
39E
100
AcDbEntity
  8
MAIN0
  6
CONTINUOUS
 62
3
100
AcDbMText
 10
670.6410341884164
 20
309.7862429624292
 30
0.0000000000000000
 40
6.199999809265137
 41
0.0000000000000000
 71
     1
 72
     1
  1
{\H0.84x;{176.5}}
 11
1.000000000000000
 21
0.0000000000000000
 31
0.0000000000000000
  7
STANDARD
  0
MTEXT
  5
39F
100
AcDbEntity
  8
MAIN0
  6
CONTINUOUS
 62
3
100
AcDbMText
 10
670.6410341884164
 20
231.1195762957623
 30
0.0000000000000000
 40
6.199999809265137
 41
0.0000000000000000
 71
     1
 72
     1
  1
{\H0.84x;{0.265}}
 11
1.000000000000000
 21
0.0000000000000000
 31
0.0000000000000000
  7
STANDARD
  0
LINE
  5
3A0
100
AcDbEntity
  8
MAIN0
  6
CONTINUOUS
 62
3
100
AcDbLine
 10
566.6410341884164
 20
189.9195764864906
 30
0.0000000000000000
 11
726.6410341884164
 21
189.9195764864907
 31
0.0000000000000000
  0
LINE
  5
3A1
100
AcDbEntity
  8
MAIN0
  6
CONTINUOUS
 62
3
100
AcDbLine
 10
605.6410341884164
 20
189.9195764864907
 30
0.0000000000000000
 11
605.6410341884164
 21
217.9195764864907
 31
0.0000000000000000
  0
MTEXT
  5
3A2
100
AcDbEntity
  8
MAIN0
  6
CONTINUOUS
 62
3
100
AcDbMText
 10
638.4082346912003
 20
214.1788402318360
 30
0.0000000000000000
 40
6.199999809265137
 41
0.0000000000000000
 71
     1
 72
     1
  1
{\H0.92x;{外径把握}}
 11
1.000000000000000
 21
0.0000000000000000
 31
0.0000000000000000
  7
KNJYOKO
  0
MTEXT
  5
3A3
100
AcDbEntity
  8
MAIN0
  6
CONTINUOUS
 62
3
100
AcDbMText
 10
638.4082346912003
 20
199.8979165436840
 30
0.0000000000000000
 40
6.199999809265137
 41
0.0000000000000000
 71
     1
 72
     1
  1
{\H0.92x;{内径把握}}
 11
1.000000000000000
 21
0.0000000000000000
 31
0.0000000000000000
  7
KNJYOKO
  0
MTEXT
  5
3A4
100
AcDbEntity
  8
MAIN0
  6
CONTINUOUS
 62
3
100
AcDbMText
 10
583.5612037789265
 20
197.3177614766823
 30
0.0000000000000000
 40
6.000000000000000
 41
0.0000000000000000
 71
     1
 72
     1
  1
{\H0.63x;{(mm)}}
 11
1.000000000000000
 21
0.0000000000000000
 31
0.0000000000000000
  7
STANDARD
  0
MTEXT
  5
3A5
100
AcDbEntity
  8
MAIN0
  6
CONTINUOUS
 62
3
100
AcDbMText
 10
670.6410341883584
 20
200.1195762957558
 30
0.0000000000000000
 40
6.199999809265137
 41
0.0000000000000000
 71
     1
 72
     1
  1
{\H0.93x;{\U+220580～\U+2205250}}
 11
1.000000000000000
 21
0.0000000000000000
 31
0.0000000000000000
  7
KNJYOKO
  0
MTEXT
  5
3A6
100
AcDbEntity
  8
MAIN0
  6
CONTINUOUS
 62
3
100
AcDbMText
 10
571.6410341884184
 20
269.6195762958187
 30
0.0000000000000000
 40
6.199999809265137
 41
0.0000000000000000
 71
     1
 72
     1
  1
{\H0.94x;{許容最高回転速度　}}
 11
1.000000000000000
 21
0.0000000000000000
 31
0.0000000000000000
  7
KNJYOKO
  0
MTEXT
  5
3A7
100
AcDbEntity
  8
MAIN0
  6
CONTINUOUS
 62
3
100
AcDbMText
 10
670.6410341884164
 20
262.5862431531639
 30
0.0000000000000000
 40
6.199999809265137
 41
0.0000000000000000
 71
     7
 72
     1
  1
{2500 min}
 11
1.000000000000000
 21
0.0000000000000000
 31
0.0000000000000000
  7
STANDARD
  0
MTEXT
  5
3A8
100
AcDbEntity
  8
MAIN0
  6
CONTINUOUS
 62
3
100
AcDbMText
 10
714.9010354901818
 20
265.6862430577965
 30
0.0000000000000000
 40
3.099999904632568
 41
0.0000000000000000
 71
     7
 72
     1
  1
{-1}
 11
1.000000000000000
 21
0.0000000000000000
 31
0.0000000000000000
  7
STANDARD
  0
MTEXT
  5
3A9
100
AcDbEntity
  8
MAIN0
  6
CONTINUOUS
 62
3
100
AcDbMText
 10
696.4356024934937
 20
261.3728126941825
 30
0.0000000000000000
 40
6.199999809265137
 41
0.0000000000000000
 71
     1
 72
     1
  1
{\H0.92x;{(rpm)}}
 11
1.000000000000000
 21
0.0000000000000000
 31
0.0000000000000000
  7
STANDARD
  0
MTEXT
  5
3AA
100
AcDbEntity
  8
MAIN0
  6
CONTINUOUS
 62
3
100
AcDbMText
 10
670.6410341883584
 20
214.1195762957558
 30
0.0000000000000000
 40
6.199999809265137
 41
0.0000000000000000
 71
     1
 72
     1
  1
{\H0.93x;{\U+22055～\U+2205260}}
 11
1.000000000000000
 21
0.0000000000000000
 31
0.0000000000000000
  7
KNJYOKO
  0
LINE
  5
3AB
100
AcDbEntity
  8
MAIN0
  6
CONTINUOUS
 62
3
100
AcDbLine
 10
605.6410341884164
 20
203.9195764864906
 30
0.0000000000000000
 11
726.6410341884164
 21
203.9195764864907
 31
0.0000000000000000
  0
LINE
  5
3AC
100
AcDbEntity
  8
MAIN0
  6
CONTINUOUS
 62
3
100
AcDbLine
 10
566.6410341884164
 20
326.5862431532341
 30
0.0000000000000000
 11
726.6410341884164
 21
326.5862431532826
 31
0.0000000000000000
  0
LINE
  5
3AD
100
AcDbEntity
  8
MAIN0
  6
CONTINUOUS
 62
3
100
AcDbLine
 10
566.6410341884161
 20
312.5862431532302
 30
0.0000000000000000
 11
726.6410341884164
 21
312.5862431532759
 31
0.0000000000000000
  0
LINE
  5
3AE
100
AcDbEntity
  8
MAIN0
  6
CONTINUOUS
 62
3
100
AcDbLine
 10
566.6410341884164
 20
292.5862431532170
 30
0.0000000000000000
 11
726.6410341884164
 21
292.5862431532534
 31
0.0000000000000000
  0
LINE
  5
3AF
100
AcDbEntity
  8
MAIN0
  6
CONTINUOUS
 62
3
100
AcDbLine
 10
566.6410341884163
 20
272.5862431532111
 30
0.0000000000000000
 11
726.6410341884161
 21
272.5862431532435
 31
0.0000000000000000
  0
LINE
  5
3B0
100
AcDbEntity
  8
MAIN0
  6
CONTINUOUS
 62
3
100
AcDbLine
 10
566.6410341884161
 20
251.9195764865404
 30
0.0000000000000000
 11
726.6410341884164
 21
251.9195764865700
 31
0.0000000000000000
  0
LINE
  5
3B1
100
AcDbEntity
  8
MAIN0
  6
CONTINUOUS
 62
3
100
AcDbLine
 10
566.6410341884161
 20
237.9195764865364
 30
0.0000000000000000
 11
726.6410341884164
 21
237.9195764865632
 31
0.0000000000000000
  0
LINE
  5
3B2
100
AcDbEntity
  8
MAIN0
  6
CONTINUOUS
 62
3
100
AcDbLine
 10
566.6410341884165
 20
217.9195764864907
 30
0.0000000000000000
 11
726.6410341884164
 21
217.9195764864908
 31
0.0000000000000000
  0
LINE
  5
3B3
100
AcDbEntity
  8
MAIN0
  6
CONTINUOUS
 62
3
100
AcDbLine
 10
566.6410341884164
 20
189.9195764864906
 30
0.0000000000000000
 11
566.6410341884164
 21
326.5862431531641
 31
0.0000000000000000
  0
LINE
  5
3B4
100
AcDbEntity
  8
MAIN0
  6
CONTINUOUS
 62
3
100
AcDbLine
 10
666.6410341884164
 20
189.9195764864907
 30
0.0000000000000000
 11
666.6410341884164
 21
312.5862431532581
 31
0.0000000000000000
  0
LINE
  5
3B5
100
AcDbEntity
  8
MAIN0
  6
CONTINUOUS
 62
3
100
AcDbLine
 10
726.6410341884164
 20
189.9195764864907
 30
0.0000000000000000
 11
726.6410341884164
 21
326.5862431531641
 31
0.0000000000000000
  0
MTEXT
  5
3B6
100
AcDbEntity
  8
MAIN0
  6
CONTINUOUS
 62
3
100
AcDbMText
 10
571.6410341884186
 20
310.2862439161696
 30
0.0000000000000000
 40
6.200000762939453
 41
0.0000000000000000
 71
     1
 72
     1
  1
{\H0.94x;{許容最大ハンドルトルク}}
 11
1.000000000000000
 21
0.0000000000000000
 31
0.0000000000000000
  7
KNJYOKO
  0
MTEXT
  5
3B7
100
AcDbEntity
  8
MAIN0
  6
CONTINUOUS
 62
3
100
AcDbMText
 10
571.6410341884184
 20
290.2862439161638
 30
0.0000000000000000
 40
6.200000762939453
 41
0.0000000000000000
 71
     1
 72
     1
  1
{\H0.94x;{最大静的把握力}}
 11
1.000000000000000
 21
0.0000000000000000
 31
0.0000000000000000
  7
KNJYOKO
  0
MTEXT
  5
3B8
100
AcDbEntity
  8
MAIN0
  6
CONTINUOUS
 62
3
100
AcDbMText
 10
570.6410341884166
 20
248.1195772494759
 30
0.0000000000000000
 40
6.200000762939453
 41
0.0000000000000000
 71
     1
 72
     1
  1
{\H0.90x;{質量}}
 11
1.000000000000000
 21
0.0000000000000000
 31
0.0000000000000000
  7
KNJYOKO
  0
MTEXT
  5
3B9
100
AcDbEntity
  8
MAIN0
  6
CONTINUOUS
 62
3
100
AcDbMText
 10
573.1103234751465
 20
215.5639949710942
 30
0.0000000000000000
 40
6.200000762939453
 41
0.0000000000000000
 71
     1
 72
     1
  1
{\H0.96x;{把握径}}
 11
1.000000000000000
 21
0.0000000000000000
 31
0.0000000000000000
  7
KNJYOKO
  0
MTEXT
  5
3BA
100
AcDbEntity
  8
MAIN0
  6
CONTINUOUS
 62
3
100
AcDbMText
 10
577.9730355369502
 20
324.3174660761709
 30
0.0000000000000000
 40
10.00000000000000
 41
0.0000000000000000
 71
     1
 72
     1
  1
{\H0.91x;{仕　様}}
 11
1.000000000000000
 21
0.0000000000000000
 31
0.0000000000000000
  7
KNJYOKO
  0
MTEXT
  5
3BB
100
AcDbEntity
  8
MAIN0
  6
CONTINUOUS
 62
3
100
AcDbMText
 10
696.6410341884164
 20
307.1862416272852
 30
0.0000000000000000
 40
5.599998474121094
 41
0.0000000000000000
 71
     1
 72
     1
  1
{\H0.58x;{　　　Ｎ・ｍ}}
 11
1.000000000000000
 21
0.0000000000000000
 31
0.0000000000000000
  7
KNJYOKO
  0
MTEXT
  5
3BC
100
AcDbEntity
  8
MAIN0
  6
CONTINUOUS
 62
3
100
AcDbMText
 10
670.6410341884164
 20
299.1862416272852
 30
0.0000000000000000
 40
5.599998474121094
 41
0.0000000000000000
 71
     1
 72
     1
  1
{\H0.48x;{（}}
 11
1.000000000000000
 21
0.0000000000000000
 31
0.0000000000000000
  7
KNJYOKO
  0
MTEXT
  5
3BD
100
AcDbEntity
  8
MAIN0
  6
CONTINUOUS
 62
3
100
AcDbMText
 10
694.6410341884164
 20
299.1862416272852
 30
0.0000000000000000
 40
5.599998474121094
 41
0.0000000000000000
 71
     1
 72
     1
  1
{\H0.58x;{　ｋｇｆ・ｍ）}}
 11
1.000000000000000
 21
0.0000000000000000
 31
0.0000000000000000
  7
KNJYOKO
  0
MTEXT
  5
3BE
100
AcDbEntity
  8
MAIN0
  6
CONTINUOUS
 62
3
100
AcDbMText
 10
696.6410341884164
 20
245.5195749606183
 30
0.0000000000000000
 40
5.599998474121094
 41
0.0000000000000000
 71
     1
 72
     1
  1
{\H0.58x;{　　　　ｋｇ}}
 11
1.000000000000000
 21
0.0000000000000000
 31
0.0000000000000000
  7
KNJYOKO
  0
MTEXT
  5
3BF
100
AcDbEntity
  8
MAIN0
  6
CONTINUOUS
 62
3
100
AcDbMText
 10
696.6410341884164
 20
230.5195749606183
 30
0.0000000000000000
 40
5.599998474121094
 41
0.0000000000000000
 71
     1
 72
     1
  1
{\H0.64x;{　　kg・m}}
 11
1.000000000000000
 21
0.0000000000000000
 31
0.0000000000000000
  7
KNJYOKO
  0
MTEXT
  5
3C0
100
AcDbEntity
  8
MAIN0
  6
CONTINUOUS
 62
3
100
AcDbMText
 10
696.6410341884164
 20
287.1862416272850
 30
0.0000000000000000
 40
5.599998474121094
 41
0.0000000000000000
 71
     1
 72
     1
  1
{\H0.58x;{　　　　ｋＮ}}
 11
1.000000000000000
 21
0.0000000000000000
 31
0.0000000000000000
  7
KNJYOKO
  0
MTEXT
  5
3C1
100
AcDbEntity
  8
MAIN0
  6
CONTINUOUS
 62
3
100
AcDbMText
 10
670.6410341884164
 20
279.1862416272850
 30
0.0000000000000000
 40
5.599998474121094
 41
0.0000000000000000
 71
     1
 72
     1
  1
{\H0.48x;{（}}
 11
1.000000000000000
 21
0.0000000000000000
 31
0.0000000000000000
  7
KNJYOKO
  0
MTEXT
  5
3C2
100
AcDbEntity
  8
MAIN0
  6
CONTINUOUS
 62
3
100
AcDbMText
 10
694.6410341884164
 20
279.1862416272850
 30
0.0000000000000000
 40
5.599998474121094
 41
0.0000000000000000
 71
     1
 72
     1
  1
{\H0.58x;{　　　ｋｇｆ）}}
 11
1.000000000000000
 21
0.0000000000000000
 31
0.0000000000000000
  7
KNJYOKO
  0
MTEXT
  5
3C3
100
AcDbEntity
  8
MAIN0
  6
CONTINUOUS
 62
3
100
AcDbMText
 10
720.4621261376633
 20
231.0307161428819
 30
0.0000000000000000
 40
4.000000000000000
 41
0.0000000000000000
 71
     1
 72
     1
  1
{\H0.81x;{2}}
 11
1.000000000000000
 21
0.0000000000000000
 31
0.0000000000000000
  7
STANDARD
  0
LINE
  5
3C4
100
AcDbEntity
  8
WAKU0
  6
CONTINUOUS
 62
3
100
AcDbLine
 10
240.0000000000000
 20
51.00000000000000
 30
0.0000000000000000
 11
410.0000000000000
 21
51.00000000000000
 31
0.0000000000000000
  0
LINE
  5
3C5
100
AcDbEntity
  8
WAKU0
  6
CONTINUOUS
 62
3
100
AcDbLine
 10
240.0000000000000
 20
51.00000000000000
 30
0.0000000000000000
 11
240.0000000000000
 21
12.00000000000000
 31
0.0000000000000000
  0
LINE
  5
3C6
100
AcDbEntity
  8
WAKU0
  6
CONTINUOUS
 62
3
100
AcDbLine
 10
312.0000000000000
 20
51.00000000000000
 30
0.0000000000000000
 11
312.0000000000000
 21
12.00000000000000
 31
0.0000000000000000
  0
LINE
  5
3C7
100
AcDbEntity
  8
WAKU0
  6
CONTINUOUS
 62
3
100
AcDbLine
 10
332.0000000000000
 20
51.00000000000000
 30
0.0000000000000000
 11
332.0000000000000
 21
12.00000000000000
 31
0.0000000000000000
  0
LINE
  5
3C8
100
AcDbEntity
  8
WAKU0
  6
CONTINUOUS
 62
3
100
AcDbLine
 10
344.0000000000000
 20
51.00000000000000
 30
0.0000000000000000
 11
344.0000000000000
 21
12.00000000000000
 31
0.0000000000000000
  0
LINE
  5
3C9
100
AcDbEntity
  8
WAKU0
  6
CONTINUOUS
 62
3
100
AcDbLine
 10
344.0000000000000
 20
37.00000000000000
 30
0.0000000000000000
 11
410.0000000000000
 21
37.00000000000000
 31
0.0000000000000000
  0
LINE
  5
3CA
100
AcDbEntity
  8
WAKU0
  6
CONTINUOUS
 62
3
100
AcDbLine
 10
332.0000000000000
 20
23.00000000000000
 30
0.0000000000000000
 11
410.0000000000000
 21
23.00000000000000
 31
0.0000000000000000
  0
LINE
  5
3CB
100
AcDbEntity
  8
WAKU0
  6
CONTINUOUS
 62
3
100
AcDbLine
 10
375.0000000000000
 20
51.00000000000000
 30
0.0000000000000000
 11
375.0000000000000
 21
44.00000000000000
 31
0.0000000000000000
  0
LINE
  5
3CC
100
AcDbEntity
  8
WAKU0
  6
CONTINUOUS
 62
3
100
AcDbLine
 10
387.0000000000000
 20
51.00000000000000
 30
0.0000000000000000
 11
387.0000000000000
 21
44.00000000000000
 31
0.0000000000000000
  0
LINE
  5
3CD
100
AcDbEntity
  8
WAKU0
  6
CONTINUOUS
 62
3
100
AcDbLine
 10
312.0000000000000
 20
31.50000000000000
 30
0.0000000000000000
 11
332.0000000000000
 21
31.50000000000000
 31
0.0000000000000000
  0
LINE
  5
3CE
100
AcDbEntity
  8
WAKU0
  6
CONTINUOUS
 62
3
100
AcDbLine
 10
332.0000000000000
 20
44.00000000000000
 30
0.0000000000000000
 11
410.0000000000000
 21
44.00000000000000
 31
0.0000000000000000
  0
LINE
  5
3CF
100
AcDbEntity
  8
WAKU0
  6
CONTINUOUS
 62
3
100
AcDbLine
 10
240.0000000000000
 20
37.00000000000000
 30
0.0000000000000000
 11
312.0000000000000
 21
37.00000000000000
 31
0.0000000000000000
  0
LINE
  5
3D0
100
AcDbEntity
  8
WAKU0
  6
CONTINUOUS
 62
3
100
AcDbLine
 10
240.0000000000000
 20
23.00000000000000
 30
0.0000000000000000
 11
312.0000000000000
 21
23.00000000000000
 31
0.0000000000000000
  0
LINE
  5
3D1
100
AcDbEntity
  8
WAKU0
  6
CONTINUOUS
 62
3
100
AcDbLine
 10
288.0000000000000
 20
37.00000000000000
 30
0.0000000000000000
 11
288.0000000000000
 21
12.00000000000000
 31
0.0000000000000000
  0
LINE
  5
3D2
100
AcDbEntity
  8
WAKU0
  6
CONTINUOUS
 62
3
100
AcDbLine
 10
264.0000000000000
 20
37.00000000000000
 30
0.0000000000000000
 11
264.0000000000000
 21
23.00000000000000
 31
0.0000000000000000
  0
LINE
  5
3D3
100
AcDbEntity
  8
WAKU0
  6
CONTINUOUS
 62
3
100
AcDbLine
 10
300.0000000000000
 20
26.00000000000000
 30
0.0000000000000000
 11
300.0000000000000
 21
23.00000000000000
 31
0.0000000000000000
  0
LINE
  5
3D4
100
AcDbEntity
  8
WAKU0
  6
CONTINUOUS
 62
3
100
AcDbLine
 10
276.0000000000000
 20
26.00000000000000
 30
0.0000000000000000
 11
276.0000000000000
 21
23.00000000000000
 31
0.0000000000000000
  0
LINE
  5
3D5
100
AcDbEntity
  8
WAKU0
  6
CONTINUOUS
 62
3
100
AcDbLine
 10
252.0000000000000
 20
26.00000000000000
 30
0.0000000000000000
 11
252.0000000000000
 21
23.00000000000000
 31
0.0000000000000000
  0
LINE
  5
3D6
100
AcDbEntity
  8
WAKU0
  6
CONTINUOUS
 62
3
100
AcDbLine
 10
258.0000000000000
 20
51.00000000000000
 30
0.0000000000000000
 11
258.0000000000000
 21
37.00000000000000
 31
0.0000000000000000
  0
LINE
  5
3D7
100
AcDbEntity
  8
WAKU0
  6
CONTINUOUS
 62
3
100
AcDbLine
 10
240.0000000000000
 20
45.00000000000000
 30
0.0000000000000000
 11
312.0000000000000
 21
45.00000000000000
 31
0.0000000000000000
  0
LINE
  5
3D8
100
AcDbEntity
  8
WAKU0
  6
HIDDEN
 62
3
100
AcDbLine
 10
360.5000000000000
 20
23.00000000000000
 30
0.0000000000000000
 11
360.5000000000000
 21
12.00000000000000
 31
0.0000000000000000
  0
LINE
  5
3D9
100
AcDbEntity
  8
WAKU0
  6
HIDDEN
 62
3
100
AcDbLine
 10
372.9000000000000
 20
23.00000000000000
 30
0.0000000000000000
 11
372.9000000000000
 21
12.00000000000000
 31
0.0000000000000000
  0
MTEXT
  5
3DA
100
AcDbEntity
  8
WAKU0
  6
CONTINUOUS
 62
3
100
AcDbMText
 10
344.4820000243485
 20
49.04999995231628
 30
0.0000000000000000
 40
3.099999904632568
 41
0.0000000000000000
 71
     1
 72
     1
  1
{\H0.93x;{JN10T102}}
 11
1.000000000000000
 21
0.0000000000000000
 31
0.0000000000000000
  7
STANDARD
  0
MTEXT
  5
3DB
100
AcDbEntity
  8
WAKU0
  6
CONTINUOUS
 62
3
100
AcDbMText
 10
344.4659999916852
 20
43.50000000000000
 30
0.0000000000000000
 40
3.000000000000000
 41
0.0000000000000000
 71
     1
 72
     1
  1
{\H0.94x;{スクロールチャック　１０\PＳＣＲＯＬＬ　ＣＨＵＣＫ　１０}}
 11
1.000000000000000
 21
0.0000000000000000
 31
0.0000000000000000
  7
KNJYOKO
  0
MTEXT
  5
3DC
100
AcDbEntity
  8
WAKU0
  6
CONTINUOUS
 62
3
100
AcDbMText
 10
344.4000000059605
 20
34.23333326975504
 30
0.0000000000000000
 40
3.099999904632568
 41
0.0000000000000000
 71
     1
 72
     1
  1
{\H0.70x;{ＪＮ１０Ｔ１０２　ガイケイ\PＪＮ１０Ｔ１０２　ＯＵＴＳＩＤＥ　ＶＩＥＷ}}
 11
1.000000000000000
 21
0.0000000000000000
 31
0.0000000000000000
  7
KNJYOKO
  0
MTEXT
  5
3DD
100
AcDbEntity
  8
WAKU0
  6
CONTINUOUS
 62
3
100
AcDbMText
 10
318.0049998760223
 20
39.29999995231628
 30
0.0000000000000000
 40
3.099999904632568
 41
0.0000000000000000
 71
     1
 72
     1
  1
{\H0.90x;{1:2}}
 11
1.000000000000000
 21
0.0000000000000000
 31
0.0000000000000000
  7
STANDARD
  0
MTEXT
  5
3DE
100
AcDbEntity
  8
WAKU0
  6
CONTINUOUS
 62
3
100
AcDbMText
 10
374.4000001549721
 20
20.15000009536743
 30
0.0000000000000000
 40
5.300000190734863
 41
0.0000000000000000
 71
     1
 72
     1
  1
{\H0.90x;{1536}}
 11
1.000000000000000
 21
0.0000000000000000
 31
0.0000000000000000
  7
STANDARD
  0
MTEXT
  5
3DF
100
AcDbEntity
  8
WAKU0
  6
CONTINUOUS
 62
3
100
AcDbMText
 10
362.3000000834465
 20
20.15000009536743
 30
0.0000000000000000
 40
5.300000190734863
 41
0.0000000000000000
 71
     1
 72
     1
  1
{\H0.87x;{36}}
 11
1.000000000000000
 21
0.0000000000000000
 31
0.0000000000000000
  7
STANDARD
  0
MTEXT
  5
3E0
100
AcDbEntity
  8
WAKU0
  6
CONTINUOUS
 62
3
100
AcDbMText
 10
345.5000001192093
 20
20.15000009536743
 30
0.0000000000000000
 40
5.300000190734863
 41
0.0000000000000000
 71
     1
 72
     1
  1
{\H0.89x;{61S}}
 11
1.000000000000000
 21
0.0000000000000000
 31
0.0000000000000000
  7
STANDARD
  0
MTEXT
  5
3E1
100
AcDbEntity
  8
WAKU0
  6
CONTINUOUS
 62
3
100
AcDbMText
 10
400.0000000476837
 20
20.15000009536743
 30
0.0000000000000000
 40
5.300000190734863
 41
0.0000000000000000
 71
     1
 72
     1
  1
{\H0.81x;{2}}
 11
1.000000000000000
 21
0.0000000000000000
 31
0.0000000000000000
  7
STANDARD
  0
MTEXT
  5
3E2
100
AcDbEntity
  8
WAKU0
  6
CONTINUOUS
 62
3
100
AcDbMText
 10
289.3850002884865
 20
33.00000000000000
 30
0.0000000000000000
 40
3.000000000000000
 41
0.0000000000000000
 71
     7
 72
     1
  1
{\H0.93x;{DRAWN BY}}
 11
1.000000000000000
 21
0.0000000000000000
 31
0.0000000000000000
  7
STANDARD
  0
MTEXT
  5
3E3
100
AcDbEntity
  8
WAKU0
  6
CONTINUOUS
 62
3
100
AcDbMText
 10
269.2149997949600
 20
32.95000004768372
 30
0.0000000000000000
 40
3.099999904632568
 41
0.0000000000000000
 71
     7
 72
     1
  1
{\H0.92x;{CHIEF}}
 11
1.000000000000000
 21
0.0000000000000000
 31
0.0000000000000000
  7
STANDARD
  0
MTEXT
  5
3E4
100
AcDbEntity
  8
WAKU0
  6
CONTINUOUS
 62
3
100
AcDbMText
 10
242.4249997138977
 20
32.95000004768372
 30
0.0000000000000000
 40
3.099999904632568
 41
0.0000000000000000
 71
     7
 72
     1
  1
{\H0.92x;{MANAGER}}
 11
1.000000000000000
 21
0.0000000000000000
 31
0.0000000000000000
  7
STANDARD
  0
MTEXT
  5
3E5
100
AcDbEntity
  8
WAKU0
  6
CONTINUOUS
 62
3
100
AcDbMText
 10
244.6599994301796
 20
18.13333336512248
 30
0.0000000000000000
 40
3.099999904632568
 41
0.0000000000000000
 71
     7
 72
     1
  1
{\H0.93x;{KITAGAWA IRON\PWORKS CO.,LTD.}}
 11
1.000000000000000
 21
0.0000000000000000
 31
0.0000000000000000
  7
STANDARD
  0
MTEXT
  5
3E6
100
AcDbEntity
  8
WAKU0
  6
CONTINUOUS
 62
3
100
AcDbMText
 10
241.0850002169609
 20
46.50000000000000
 30
0.0000000000000000
 40
3.000000000000000
 41
0.0000000000000000
 71
     7
 72
     1
  1
{\H0.92x;{CAREER}}
 11
1.000000000000000
 21
0.0000000000000000
 31
0.0000000000000000
  7
STANDARD
  0
MTEXT
  5
3E7
100
AcDbEntity
  8
WAKU0
  6
CONTINUOUS
 62
3
100
AcDbMText
 10
294.6099998354912
 20
18.95000004768372
 30
0.0000000000000000
 40
3.099999904632568
 41
0.0000000000000000
 71
     7
 72
     1
  1
{\H0.91x;{DATE}}
 11
1.000000000000000
 21
0.0000000000000000
 31
0.0000000000000000
  7
STANDARD
  0
MTEXT
  5
3E8
100
AcDbEntity
  8
WAKU0
  6
CONTINUOUS
 62
3
100
AcDbMText
 10
313.9000002145767
 20
26.50000000000000
 30
0.0000000000000000
 40
3.000000000000000
 41
0.0000000000000000
 71
     7
 72
     1
  1
{\H0.63x;{3RD ANGLE}}
 11
1.000000000000000
 21
0.0000000000000000
 31
0.0000000000000000
  7
STANDARD
  0
MTEXT
  5
3E9
100
AcDbEntity
  8
WAKU0
  6
CONTINUOUS
 62
3
100
AcDbMText
 10
315.2149997949600
 20
45.95000004768372
 30
0.0000000000000000
 40
3.099999904632568
 41
0.0000000000000000
 71
     7
 72
     1
  1
{\H0.92x;{SCALE}}
 11
1.000000000000000
 21
0.0000000000000000
 31
0.0000000000000000
  7
STANDARD
  0
MTEXT
  5
3EA
100
AcDbEntity
  8
WAKU0
  6
CONTINUOUS
 62
3
100
AcDbMText
 10
405.7000000476837
 20
46.00000000000000
 30
0.0000000000000000
 40
3.000000000000000
 41
0.0000000000000000
 71
     7
 72
     1
  1
{\H0.63x;{kg}}
 11
1.000000000000000
 21
0.0000000000000000
 31
0.0000000000000000
  7
STANDARD
  0
MTEXT
  5
3EB
100
AcDbEntity
  8
WAKU0
  6
CONTINUOUS
 62
3
100
AcDbMText
 10
375.6000001430512
 20
46.00000000000000
 30
0.0000000000000000
 40
3.000000000000000
 41
0.0000000000000000
 71
     7
 72
     1
  1
{\H0.63x;{WEIGHT}}
 11
1.000000000000000
 21
0.0000000000000000
 31
0.0000000000000000
  7
STANDARD
  0
MTEXT
  5
3EC
100
AcDbEntity
  8
WAKU0
  6
CONTINUOUS
 62
3
100
AcDbMText
 10
334.0049998760223
 20
18.13333336512248
 30
0.0000000000000000
 40
3.099999904632568
 41
0.0000000000000000
 71
     7
 72
     1
  1
{\H0.90x;{DRW\PNO.}}
 11
1.000000000000000
 21
0.0000000000000000
 31
0.0000000000000000
  7
STANDARD
  0
MTEXT
  5
3ED
100
AcDbEntity
  8
WAKU0
  6
CONTINUOUS
 62
3
100
AcDbMText
 10
332.6099998354912
 20
31.95000004768372
 30
0.0000000000000000
 40
3.099999904632568
 41
0.0000000000000000
 71
     7
 72
     1
  1
{\H0.91x;{NAME}}
 11
1.000000000000000
 21
0.0000000000000000
 31
0.0000000000000000
  7
STANDARD
  0
MTEXT
  5
3EE
100
AcDbEntity
  8
WAKU0
  6
CONTINUOUS
 62
3
100
AcDbMText
 10
332.6099998354912
 20
45.95000004768372
 30
0.0000000000000000
 40
3.099999904632568
 41
0.0000000000000000
 71
     7
 72
     1
  1
{\H0.91x;{TYPE}}
 11
1.000000000000000
 21
0.0000000000000000
 31
0.0000000000000000
  7
STANDARD
  0
LINE
  5
3EF
100
AcDbEntity
  8
WAKU0
  6
HIDDEN
 62
3
100
AcDbLine
 10
407.1599564743885
 20
13.84999990463257
 30
0.0000000000000000
 11
396.9400436209789
 21
13.84999990463257
 31
0.0000000000000000
  0
LINE
  5
3F0
100
AcDbEntity
  8
WAKU0
  6
HIDDEN
 62
3
100
AcDbLine
 10
407.1599564743885
 20
13.84999990463250
 30
0.0000000000000000
 11
402.0500000476852
 21
22.70070406014901
 31
0.0000000000000000
  0
LINE
  5
3F1
100
AcDbEntity
  8
WAKU0
  6
HIDDEN
 62
3
100
AcDbLine
 10
402.0500000476852
 20
22.70070406014902
 30
0.0000000000000000
 11
396.9400436209789
 21
13.84999990463248
 31
0.0000000000000000
  0
LINE
  5
3F2
100
AcDbEntity
  8
WAKU0
  6
CONTINUOUS
 62
3
100
AcDbLine
 10
330.4713877753800
 20
15.78041421262812
 30
0.0000000000000000
 11
330.4713877753800
 21
21.78041421262815
 31
0.0000000000000000
  0
LINE
  5
3F3
100
AcDbEntity
  8
WAKU0
  6
CONTINUOUS
 62
3
100
AcDbLine
 10
323.9336941228225
 20
17.28041421262811
 30
0.0000000000000000
 11
323.9336941228225
 21
20.28041421262824
 31
0.0000000000000000
  0
LINE
  5
3F4
100
AcDbEntity
  8
WAKU0
  6
CENTER
 62
12
100
AcDbLine
 10
313.4321805514995
 20
18.78041421262813
 30
0.0000000000000000
 11
331.2765788964694
 21
18.78041421262813
 31
0.0000000000000000
  0
LINE
  5
3F5
100
AcDbEntity
  8
WAKU0
  6
CENTER
 62
12
100
AcDbLine
 10
317.4474565857986
 20
14.55921662918448
 30
0.0000000000000000
 11
317.4474565857986
 21
22.89865102149943
 31
0.0000000000000000
  0
LINE
  5
3F6
100
AcDbEntity
  8
WAKU0
  6
CONTINUOUS
 62
3
100
AcDbLine
 10
323.9336941228225
 20
20.28041421262797
 30
0.0000000000000000
 11
330.4713877753800
 21
21.78041421262795
 31
0.0000000000000000
  0
LINE
  5
3F7
100
AcDbEntity
  8
WAKU0
  6
CONTINUOUS
 62
3
100
AcDbLine
 10
323.9336941228225
 20
17.28041421262811
 30
0.0000000000000000
 11
330.4713877753799
 21
15.78041421262812
 31
0.0000000000000000
  0
CIRCLE
  5
3F8
100
AcDbEntity
  8
WAKU0
  6
CONTINUOUS
 62
3
100
AcDbCircle
 10
317.4474565857986
 20
18.78041421262813
 30
0.0000000000000000
 40
1.499999999999972
  0
CIRCLE
  5
3F9
100
AcDbEntity
  8
WAKU0
  6
CONTINUOUS
 62
3
100
AcDbCircle
 10
317.4474565857986
 20
18.78041421262813
 30
0.0000000000000000
 40
2.999999999999979
  0
ENDSEC
  0
SECTION
  2
OBJECTS
  0
DICTIONARY
  5
43F
100
AcDbDictionary
  3
ACAD_GROUP
350
440
  3
ACAD_MLINESTYLE
350
441
  3
DWGPROPS
350
442
  0
DICTIONARY
  5
440
102
{ACAD_REACTORS
330
43F
102
}
100
AcDbDictionary
  0
DICTIONARY
  5
441
102
{ACAD_REACTORS
330
43F
102
}
100
AcDbDictionary
  3
STANDARD
350
443
  0
MLINESTYLE
  5
443
102
{ACAD_REACTORS
330
441
102
}
100
AcDbMlineStyle
  2
STANDARD
 70
     0
  3

 62
   256
 51
90.00
 52
90.00
 71
     2
 49
0.50
 62
   256
  6
BYLAYER
 49
-0.50
 62
   256
  6
BYLAYER
  0
XRECORD
  5
442
102
{ACAD_REACTORS
330
43F
102
}
100
AcDbXrecord
280
     1
  1
DWGPROPS COOKIE
  2
ＪＮ１０Ｔ－１０２　ＯＵＴＳＩＤＥ　ＶＩＥＷ
  3

  4

  6
ＳＣＲＯＬＬ　ＣＨＵＣＫ　１０
  7

  8

  9

300
=
301
=
302
=
303
=
304
=
305
=
306
=
307
=
308
=
309
=
 40
0.000000
 41
0.000000
 42
0.000000
  1

 90
        0
  0
ENDSEC
  0
EOF
