  0
SECTION
  2
HEADER
  9
$ACADVER
  1
AC1014
  9
$DWGCODEPAGE
  3
ANSI_932
  9
$LTSCALE
 40
20.0
  9
$FILLMODE
 70
     1
  9
$CLAYER
  8
0
  9
$PDMODE
 70
     0
  9
$SPLFRAME
 70
     0
  9
$SPLINETYPE
 70
     6
  9
$SPLINESEGS
 70
     8
  9
$DIMASZ
 40
2.000000
  9
$DIMEXE
 40
2.000000
  9
$DIMEXO
 40
0.800000
  9
$DIMTAD
 70
     1
  9
$DIMTIH
 70
     0
  9
$DIMTOH
 70
     0
  9
$DIMTVP
 40
0.500000
  9
$DIMTXT
 40
3.100000
  9
$EXTMIN
 10
0.000000
 20
0.000000
 30
0.000000
  9
$EXTMAX
 10
297.000000
 20
420.000000
 30
0.000000
  9
$MEASUREMENT
 70
  1
  9
$LIMMIN
 10
0.000000
 20
0.000000
  9
$LIMMAX
 10
297.000000
 20
420.000000
  9
$HANDLING
 70
     1
  9
$HANDSEED
  5
4D0
  9
$DIMBLK
  1
_OPEN
  9
$DIMDEC
 70
     3
  9
$DIMAUNIT
 70
     1
  9
$DIMZIN
 70
     8
  9
$DIMTOFL
 70
     1
  0
ENDSEC
  0
SECTION
  2
CLASSES
  0
ENDSEC
  0
SECTION
  2
TABLES
  0
TABLE
  2
VPORT
  5
473
100
AcDbSymbolTable
 70
     1
  0
VPORT
  5
474
100
AcDbSymbolTableRecord
100
AcDbViewportTableRecord
  2
*ACTIVE
 70
     0
 12
174.955753
 22
112.143798
 40
304.536505
 41
1.543620
  0
ENDTAB
  0
TABLE
  2
LTYPE
  5
475
100
AcDbSymbolTable
 70
     4
  0
LTYPE
  5
476
100
AcDbSymbolTableRecord
100
AcDbLinetypeTableRecord
  2
BYBLOCK
 70
     0
  3

 72
    65
 73
     0
 40
0.0
  0
LTYPE
  5
477
100
AcDbSymbolTableRecord
100
AcDbLinetypeTableRecord
  2
BYLAYER
 70
     0
  3

 72
    65
 73
     0
 40
0.0
  0
LTYPE
  5
478
100
AcDbSymbolTableRecord
100
AcDbLinetypeTableRecord
  2
CONTINUOUS
 70
     0
  3
Solid line (NEC CAE2D for Win R14.2 : 2022.01.12)
 72
    65
 73
     0
 40
0.0
  0
LTYPE
  5
479
100
AcDbSymbolTableRecord
100
AcDbLinetypeTableRecord
  2
HIDDEN
 70
     0
  3
__ __ __ __ __ __ __ __ __ __ __ __ __ __
 72
    65
 73
     2
 40
0.375
 49
0.25
 74
     0
 49
-0.125
 74
     0
  0
LTYPE
  5
47A
100
AcDbSymbolTableRecord
100
AcDbLinetypeTableRecord
  2
CENTER
 70
     0
  3
____ _ ____ _ ____ _ ____ _ ____ _ ____
 72
    65
 73
     4
 40
2.0
 49
1.25
 74
     0
 49
-0.25
 74
     0
 49
0.25
 74
     0
 49
-0.25
 74
     0
  0
LTYPE
  5
47B
100
AcDbSymbolTableRecord
100
AcDbLinetypeTableRecord
  2
PHANTOM
 70
     0
  3
______  __  __  ______  __  __  ______ 
 72
    65
 73
     6
 40
2.5
 49
1.25
 74
     0
 49
-0.25
 74
     0
 49
0.25
 74
     0
 49
-0.25
 74
     0
 49
0.25
 74
     0
 49
-0.25
 74
     0
  0
ENDTAB
  0
TABLE
  2
LAYER
  5
47C
100
AcDbSymbolTable
 70
     9
  0
LAYER
  5
47D
100
AcDbSymbolTableRecord
100
AcDbLayerTableRecord
  2
0
 70
     0
 62
     7
  6
CONTINUOUS
  0
LAYER
  5
47E
100
AcDbSymbolTableRecord
100
AcDbLayerTableRecord
  2
MAIN0
 70
     0
 62
     7
  6
CONTINUOUS
  0
LAYER
  5
47F
100
AcDbSymbolTableRecord
100
AcDbLayerTableRecord
  2
MAIN1
 70
     0
 62
     7
  6
CONTINUOUS
  0
LAYER
  5
480
100
AcDbSymbolTableRecord
100
AcDbLayerTableRecord
  2
MAIN1023
 70
     0
 62
    16
  6
CONTINUOUS
  0
LAYER
  5
481
100
AcDbSymbolTableRecord
100
AcDbLayerTableRecord
  2
A0
 70
     0
 62
     7
  6
CONTINUOUS
  0
LAYER
  5
482
100
AcDbSymbolTableRecord
100
AcDbLayerTableRecord
  2
A1
 70
     0
 62
     7
  6
CONTINUOUS
  0
LAYER
  5
483
100
AcDbSymbolTableRecord
100
AcDbLayerTableRecord
  2
A1023
 70
     0
 62
    16
  6
CONTINUOUS
  0
LAYER
  5
484
100
AcDbSymbolTableRecord
100
AcDbLayerTableRecord
  2
WAKU0
 70
     0
 62
     7
  6
CONTINUOUS
  0
LAYER
  5
485
100
AcDbSymbolTableRecord
100
AcDbLayerTableRecord
  2
WAKU1023
 70
     0
 62
    16
  6
CONTINUOUS
  0
ENDTAB
  0
TABLE
  2
STYLE
  5
486
100
AcDbSymbolTable
 70
     4
  0
STYLE
  5
487
100
AcDbSymbolTableRecord
100
AcDbTextStyleTableRecord
  2
STANDARD
 70
    64
 40
0.0
 41
1.0
 50
0.0
 71
     0
 42
3.099999904632568
  3
TXT
  4

  0
STYLE
  5
488
100
AcDbSymbolTableRecord
100
AcDbTextStyleTableRecord
  2
ANKTATE
 70
    68
 40
0.0
 41
1.0
 50
0.0
 71
     0
 42
3.099999904632568
  3
TXT
  4

  0
STYLE
  5
1CD
100
AcDbSymbolTableRecord
100
AcDbTextStyleTableRecord
  2
KNJYOKO
 70
    64
 40
0.0
 41
1.0
 50
0.0
 71
     0
 42
3.099999904632568
  3
TXT
  4
BIGFONT
  0
STYLE
  5
489
100
AcDbSymbolTableRecord
100
AcDbTextStyleTableRecord
  2
KNJTATE
 70
    68
 40
0.0
 41
1.0
 50
0.0
 71
     0
 42
3.099999904632568
  3
TXT
  4
BIGFONT
  0
ENDTAB
  0
TABLE
  2
VIEW
  5
48A
100
AcDbSymbolTable
 70
     0
  0
ENDTAB
  0
TABLE
  2
UCS
  5
48B
100
AcDbSymbolTable
 70
     0
  0
ENDTAB
  0
TABLE
  2
APPID
  5
48C
100
AcDbSymbolTable
 70
     1
  0
APPID
  5
48D
100
AcDbSymbolTableRecord
100
AcDbRegAppTableRecord
  2
ACAD
 70
     0
  0
ENDTAB
  0
TABLE
  2
DIMSTYLE
  5
48E
100
AcDbSymbolTable
 70
     1
  0
DIMSTYLE
105
48F
100
AcDbSymbolTableRecord
100
AcDbDimStyleTableRecord
  2
STANDARD
 70
     0
 41
2.000000
 44
2.000000
 42
0.800000
145
0.661290
140
3.100000
144
1.000000
146
0.903226
340
487
  0
DIMSTYLE
105
490
100
AcDbSymbolTableRecord
100
AcDbDimStyleTableRecord
  2
MAIN001
 70
     0
 41
2.000000
 44
2.000000
 42
0.800000
145
0.661290
140
3.100000
144
1.000000
146
0.903226
 77
     1
 73
     0
 74
     0
271
     3
275
     1
 78
     8
172
     1
340
487
  0
DIMSTYLE
105
491
100
AcDbSymbolTableRecord
100
AcDbDimStyleTableRecord
  2
A002
 70
     0
 41
3.000000
 44
3.000000
 42
1.200000
145
0.607527
140
4.650000
144
1.000000
146
0.903226
 77
     1
 73
     0
 74
     0
271
     3
275
     1
 78
     8
172
     1
340
487
  0
DIMSTYLE
105
492
100
AcDbSymbolTableRecord
100
AcDbDimStyleTableRecord
  2
WAKU003
 70
     0
 41
2.000000
 44
2.000000
 42
0.800000
145
0.661290
140
3.100000
144
1.000000
146
0.903226
 77
     1
 73
     0
 74
     0
271
     3
275
     1
 78
     8
172
     1
340
487
  0
ENDTAB
  0
TABLE
  2
BLOCK_RECORD
  5
493
100
AcDbSymbolTable
 70
    61
  0
BLOCK_RECORD
  5
494
100
AcDbSymbolTableRecord
100
AcDbBlockTableRecord
  2
*MODEL_SPACE
  0
BLOCK_RECORD
  5
495
100
AcDbSymbolTableRecord
100
AcDbBlockTableRecord
  2
*PAPER_SPACE
  0
BLOCK_RECORD
  5
1
100
AcDbSymbolTableRecord
100
AcDbBlockTableRecord
  2
_NONE
  0
BLOCK_RECORD
  5
4
100
AcDbSymbolTableRecord
100
AcDbBlockTableRecord
  2
_CLOSED
  0
BLOCK_RECORD
  5
B
100
AcDbSymbolTableRecord
100
AcDbBlockTableRecord
  2
_DOT
  0
BLOCK_RECORD
  5
13
100
AcDbSymbolTableRecord
100
AcDbBlockTableRecord
  2
_OPEN
  0
BLOCK_RECORD
  5
19
100
AcDbSymbolTableRecord
100
AcDbBlockTableRecord
  2
_ORIGIN
  0
BLOCK_RECORD
  5
1E
100
AcDbSymbolTableRecord
100
AcDbBlockTableRecord
  2
_OPEN30
  0
BLOCK_RECORD
  5
24
100
AcDbSymbolTableRecord
100
AcDbBlockTableRecord
  2
_BOXFILLED
  0
BLOCK_RECORD
  5
29
100
AcDbSymbolTableRecord
100
AcDbBlockTableRecord
  2
_BOXBLANK
  0
BLOCK_RECORD
  5
31
100
AcDbSymbolTableRecord
100
AcDbBlockTableRecord
  2
_OBLIQUE
  0
BLOCK_RECORD
  5
35
100
AcDbSymbolTableRecord
100
AcDbBlockTableRecord
  2
_OPEN90
  0
BLOCK_RECORD
  5
3B
100
AcDbSymbolTableRecord
100
AcDbBlockTableRecord
  2
_CLOSEDBLANK
  0
BLOCK_RECORD
  5
41
100
AcDbSymbolTableRecord
100
AcDbBlockTableRecord
  2
_DOTBLANK
  0
BLOCK_RECORD
  5
496
100
AcDbSymbolTableRecord
100
AcDbBlockTableRecord
  2
*D0
  0
BLOCK_RECORD
  5
497
100
AcDbSymbolTableRecord
100
AcDbBlockTableRecord
  2
*D1
  0
BLOCK_RECORD
  5
498
100
AcDbSymbolTableRecord
100
AcDbBlockTableRecord
  2
*D2
  0
BLOCK_RECORD
  5
499
100
AcDbSymbolTableRecord
100
AcDbBlockTableRecord
  2
*D3
  0
BLOCK_RECORD
  5
49A
100
AcDbSymbolTableRecord
100
AcDbBlockTableRecord
  2
*D4
  0
BLOCK_RECORD
  5
49B
100
AcDbSymbolTableRecord
100
AcDbBlockTableRecord
  2
*D5
  0
BLOCK_RECORD
  5
49C
100
AcDbSymbolTableRecord
100
AcDbBlockTableRecord
  2
*D6
  0
BLOCK_RECORD
  5
49D
100
AcDbSymbolTableRecord
100
AcDbBlockTableRecord
  2
*D7
  0
BLOCK_RECORD
  5
49E
100
AcDbSymbolTableRecord
100
AcDbBlockTableRecord
  2
*D8
  0
BLOCK_RECORD
  5
49F
100
AcDbSymbolTableRecord
100
AcDbBlockTableRecord
  2
*D9
  0
BLOCK_RECORD
  5
4A0
100
AcDbSymbolTableRecord
100
AcDbBlockTableRecord
  2
*D10
  0
BLOCK_RECORD
  5
4A1
100
AcDbSymbolTableRecord
100
AcDbBlockTableRecord
  2
*D11
  0
BLOCK_RECORD
  5
4A2
100
AcDbSymbolTableRecord
100
AcDbBlockTableRecord
  2
*D12
  0
BLOCK_RECORD
  5
4A3
100
AcDbSymbolTableRecord
100
AcDbBlockTableRecord
  2
*D13
  0
BLOCK_RECORD
  5
4A4
100
AcDbSymbolTableRecord
100
AcDbBlockTableRecord
  2
*D14
  0
BLOCK_RECORD
  5
4A5
100
AcDbSymbolTableRecord
100
AcDbBlockTableRecord
  2
*D15
  0
BLOCK_RECORD
  5
4A6
100
AcDbSymbolTableRecord
100
AcDbBlockTableRecord
  2
*D16
  0
BLOCK_RECORD
  5
4A7
100
AcDbSymbolTableRecord
100
AcDbBlockTableRecord
  2
*D17
  0
BLOCK_RECORD
  5
4A8
100
AcDbSymbolTableRecord
100
AcDbBlockTableRecord
  2
*D18
  0
BLOCK_RECORD
  5
4A9
100
AcDbSymbolTableRecord
100
AcDbBlockTableRecord
  2
*D19
  0
BLOCK_RECORD
  5
4AA
100
AcDbSymbolTableRecord
100
AcDbBlockTableRecord
  2
*D20
  0
BLOCK_RECORD
  5
4AB
100
AcDbSymbolTableRecord
100
AcDbBlockTableRecord
  2
*D21
  0
BLOCK_RECORD
  5
4AC
100
AcDbSymbolTableRecord
100
AcDbBlockTableRecord
  2
*D22
  0
BLOCK_RECORD
  5
4AD
100
AcDbSymbolTableRecord
100
AcDbBlockTableRecord
  2
*D23
  0
BLOCK_RECORD
  5
4AE
100
AcDbSymbolTableRecord
100
AcDbBlockTableRecord
  2
*D24
  0
BLOCK_RECORD
  5
4AF
100
AcDbSymbolTableRecord
100
AcDbBlockTableRecord
  2
*D25
  0
BLOCK_RECORD
  5
4B0
100
AcDbSymbolTableRecord
100
AcDbBlockTableRecord
  2
*D26
  0
BLOCK_RECORD
  5
4B1
100
AcDbSymbolTableRecord
100
AcDbBlockTableRecord
  2
*D27
  0
BLOCK_RECORD
  5
4B2
100
AcDbSymbolTableRecord
100
AcDbBlockTableRecord
  2
*D28
  0
BLOCK_RECORD
  5
4B3
100
AcDbSymbolTableRecord
100
AcDbBlockTableRecord
  2
*D29
  0
BLOCK_RECORD
  5
4B4
100
AcDbSymbolTableRecord
100
AcDbBlockTableRecord
  2
*D30
  0
BLOCK_RECORD
  5
4B5
100
AcDbSymbolTableRecord
100
AcDbBlockTableRecord
  2
*D31
  0
BLOCK_RECORD
  5
4B6
100
AcDbSymbolTableRecord
100
AcDbBlockTableRecord
  2
*D32
  0
BLOCK_RECORD
  5
4B7
100
AcDbSymbolTableRecord
100
AcDbBlockTableRecord
  2
*D33
  0
BLOCK_RECORD
  5
4B8
100
AcDbSymbolTableRecord
100
AcDbBlockTableRecord
  2
*D34
  0
BLOCK_RECORD
  5
4B9
100
AcDbSymbolTableRecord
100
AcDbBlockTableRecord
  2
*D35
  0
BLOCK_RECORD
  5
4BA
100
AcDbSymbolTableRecord
100
AcDbBlockTableRecord
  2
*D36
  0
BLOCK_RECORD
  5
4BB
100
AcDbSymbolTableRecord
100
AcDbBlockTableRecord
  2
*D37
  0
BLOCK_RECORD
  5
4BC
100
AcDbSymbolTableRecord
100
AcDbBlockTableRecord
  2
*D38
  0
BLOCK_RECORD
  5
4BD
100
AcDbSymbolTableRecord
100
AcDbBlockTableRecord
  2
*D39
  0
BLOCK_RECORD
  5
4BE
100
AcDbSymbolTableRecord
100
AcDbBlockTableRecord
  2
*X0
  0
BLOCK_RECORD
  5
4BF
100
AcDbSymbolTableRecord
100
AcDbBlockTableRecord
  2
*D40
  0
BLOCK_RECORD
  5
4C0
100
AcDbSymbolTableRecord
100
AcDbBlockTableRecord
  2
*D41
  0
BLOCK_RECORD
  5
4C1
100
AcDbSymbolTableRecord
100
AcDbBlockTableRecord
  2
*D42
  0
BLOCK_RECORD
  5
4C2
100
AcDbSymbolTableRecord
100
AcDbBlockTableRecord
  2
*D43
  0
BLOCK_RECORD
  5
4C3
100
AcDbSymbolTableRecord
100
AcDbBlockTableRecord
  2
*D44
  0
BLOCK_RECORD
  5
4C4
100
AcDbSymbolTableRecord
100
AcDbBlockTableRecord
  2
*D45
  0
BLOCK_RECORD
  5
4C5
100
AcDbSymbolTableRecord
100
AcDbBlockTableRecord
  2
*D46
  0
BLOCK_RECORD
  5
4C6
100
AcDbSymbolTableRecord
100
AcDbBlockTableRecord
  2
*D47
  0
ENDTAB
  0
ENDSEC
  0
SECTION
  2
BLOCKS
  0
BLOCK
  5
4C7
100
AcDbEntity
  8
0
100
AcDbBlockBegin
  2
*MODEL_SPACE
 70
     0
 10
0.0
 20
0.0
 30
0.0
  3
*MODEL_SPACE
  1

  0
ENDBLK
  5
4C8
100
AcDbEntity
  8
0
100
AcDbBlockEnd
  0
BLOCK
  5
4C9
100
AcDbEntity
  8
0
100
AcDbBlockBegin
  2
*PAPER_SPACE
 70
     0
 10
0.0
 20
0.0
 30
0.0
  3
*PAPER_SPACE
  1

  0
ENDBLK
  5
4CA
100
AcDbEntity
  8
0
100
AcDbBlockEnd
  0
BLOCK
  5
2
100
AcDbEntity
  8
0
100
AcDbBlockBegin
  2
_NONE
 70
     0
 10
0.0
 20
0.0
 30
0.0
  3
_NONE
  1

  0
ENDBLK
  5
3
100
AcDbEntity
  8
0
100
AcDbBlockEnd
  0
BLOCK
  5
5
100
AcDbEntity
  8
0
100
AcDbBlockBegin
  2
_CLOSED
 70
     0
 10
0.0
 20
0.0
 30
0.0
  3
_CLOSED
  1

  0
LINE
  5
6
100
AcDbEntity
  8
0
  6
BYBLOCK
 62
     0
100
AcDbLine
 10
-1.0
 20
0.166667
 30
0.0
 11
0.0
 21
0.0
 31
0.0
  0
LINE
  5
7
100
AcDbEntity
  8
0
  6
BYBLOCK
 62
     0
100
AcDbLine
 10
0.0
 20
0.0
 30
0.0
 11
-1.0
 21
-0.166667
 31
0.0
  0
LINE
  5
8
100
AcDbEntity
  8
0
  6
BYBLOCK
 62
     0
100
AcDbLine
 10
-1.0
 20
0.166667
 30
0.0
 11
-1.0
 21
-0.166667
 31
0.0
  0
LINE
  5
9
100
AcDbEntity
  8
0
  6
BYBLOCK
 62
     0
100
AcDbLine
 10
0.0
 20
0.0
 30
0.0
 11
-1.0
 21
0.0
 31
0.0
  0
ENDBLK
  5
A
100
AcDbEntity
  8
0
100
AcDbBlockEnd
  0
BLOCK
  5
C
100
AcDbEntity
  8
0
100
AcDbBlockBegin
  2
_DOT
 70
     0
 10
0.0
 20
0.0
 30
0.0
  3
_DOT
  1

  0
POLYLINE
  5
D
100
AcDbEntity
  8
0
  6
BYBLOCK
 62
     0
100
AcDb2dPolyline
 66
     1
 10
0.0
 20
0.0
 30
0.0
 70
     1
 40
0.5
 41
0.5
  0
VERTEX
  5
E
100
AcDbEntity
  8
0
  6
BYBLOCK
 62
     0
100
AcDbVertex
100
AcDb2dVertex
 10
-0.25
 20
0.0
 30
0.0
 42
1.0
  0
VERTEX
  5
F
100
AcDbEntity
  8
0
  6
BYBLOCK
 62
     0
100
AcDbVertex
100
AcDb2dVertex
 10
0.25
 20
0.0
 30
0.0
 42
1.0
  0
SEQEND
  5
10
100
AcDbEntity
  8
0
  6
BYBLOCK
 62
     0
  0
LINE
  5
11
100
AcDbEntity
  8
0
  6
BYBLOCK
 62
     0
100
AcDbLine
 10
-0.5
 20
0.0
 30
0.0
 11
-1.0
 21
0.0
 31
0.0
  0
ENDBLK
  5
12
100
AcDbEntity
  8
0
100
AcDbBlockEnd
  0
BLOCK
  5
14
100
AcDbEntity
  8
0
100
AcDbBlockBegin
  2
_OPEN
 70
     0
 10
0.0
 20
0.0
 30
0.0
  3
_OPEN
  1

  0
LINE
  5
15
100
AcDbEntity
  8
0
  6
BYBLOCK
 62
     0
100
AcDbLine
 10
-1.0
 20
0.166667
 30
0.0
 11
0.0
 21
0.0
 31
0.0
  0
LINE
  5
16
100
AcDbEntity
  8
0
  6
BYBLOCK
 62
     0
100
AcDbLine
 10
0.0
 20
0.0
 30
0.0
 11
-1.0
 21
-0.166667
 31
0.0
  0
LINE
  5
17
100
AcDbEntity
  8
0
  6
BYBLOCK
 62
     0
100
AcDbLine
 10
0.0
 20
0.0
 30
0.0
 11
-1.0
 21
0.0
 31
0.0
  0
ENDBLK
  5
18
100
AcDbEntity
  8
0
100
AcDbBlockEnd
  0
BLOCK
  5
1A
100
AcDbEntity
  8
0
100
AcDbBlockBegin
  2
_ORIGIN
 70
     0
 10
0.0
 20
0.0
 30
0.0
  3
_ORIGIN
  1

  0
CIRCLE
  5
1B
100
AcDbEntity
  8
0
  6
BYBLOCK
 62
     0
100
AcDbCircle
 10
0.0
 20
0.0
 30
0.0
 40
0.5
  0
LINE
  5
1C
100
AcDbEntity
  8
0
  6
BYBLOCK
 62
     0
100
AcDbLine
 10
0.0
 20
0.0
 30
0.0
 11
-1.0
 21
0.0
 31
0.0
  0
ENDBLK
  5
1D
100
AcDbEntity
  8
0
100
AcDbBlockEnd
  0
BLOCK
  5
1F
100
AcDbEntity
  8
0
100
AcDbBlockBegin
  2
_OPEN30
 70
     0
 10
0.0
 20
0.0
 30
0.0
  3
_OPEN30
  1

  0
LINE
  5
20
100
AcDbEntity
  8
0
  6
BYBLOCK
 62
     0
100
AcDbLine
 10
-1.0
 20
0.267949
 30
0.0
 11
0.0
 21
0.0
 31
0.0
  0
LINE
  5
21
100
AcDbEntity
  8
0
  6
BYBLOCK
 62
     0
100
AcDbLine
 10
0.0
 20
0.0
 30
0.0
 11
-1.0
 21
-0.267949
 31
0.0
  0
LINE
  5
22
100
AcDbEntity
  8
0
  6
BYBLOCK
 62
     0
100
AcDbLine
 10
0.0
 20
0.0
 30
0.0
 11
-1.0
 21
0.0
 31
0.0
  0
ENDBLK
  5
23
100
AcDbEntity
  8
0
100
AcDbBlockEnd
  0
BLOCK
  5
25
100
AcDbEntity
  8
0
100
AcDbBlockBegin
  2
_BOXFILLED
 70
     0
 10
0.0
 20
0.0
 30
0.0
  3
_BOXFILLED
  1

  0
SOLID
  5
26
100
AcDbEntity
  8
0
  6
BYBLOCK
 62
     0
100
AcDbTrace
 10
-0.5
 20
0.5
 30
0.0
 11
0.5
 21
0.5
 31
0.0
 12
-0.5
 22
-0.5
 32
0.0
 13
0.5
 23
-0.5
 33
0.0
  0
LINE
  5
27
100
AcDbEntity
  8
0
  6
BYBLOCK
 62
     0
100
AcDbLine
 10
-0.5
 20
0.0
 30
0.0
 11
-1.0
 21
0.0
 31
0.0
  0
ENDBLK
  5
28
100
AcDbEntity
  8
0
100
AcDbBlockEnd
  0
BLOCK
  5
2A
100
AcDbEntity
  8
0
100
AcDbBlockBegin
  2
_BOXBLANK
 70
     0
 10
0.0
 20
0.0
 30
0.0
  3
_BOXBLANK
  1

  0
LINE
  5
2B
100
AcDbEntity
  8
0
  6
BYBLOCK
 62
     0
100
AcDbLine
 10
-0.5
 20
-0.5
 30
0.0
 11
0.5
 21
-0.5
 31
0.0
  0
LINE
  5
2C
100
AcDbEntity
  8
0
  6
BYBLOCK
 62
     0
100
AcDbLine
 10
0.5
 20
-0.5
 30
0.0
 11
0.5
 21
0.5
 31
0.0
  0
LINE
  5
2D
100
AcDbEntity
  8
0
  6
BYBLOCK
 62
     0
100
AcDbLine
 10
0.5
 20
0.5
 30
0.0
 11
-0.5
 21
0.5
 31
0.0
  0
LINE
  5
2E
100
AcDbEntity
  8
0
  6
BYBLOCK
 62
     0
100
AcDbLine
 10
-0.5
 20
0.5
 30
0.0
 11
-0.5
 21
-0.5
 31
0.0
  0
LINE
  5
2F
100
AcDbEntity
  8
0
  6
BYBLOCK
 62
     0
100
AcDbLine
 10
-0.5
 20
0.0
 30
0.0
 11
-1.0
 21
0.0
 31
0.0
  0
ENDBLK
  5
30
100
AcDbEntity
  8
0
100
AcDbBlockEnd
  0
BLOCK
  5
32
100
AcDbEntity
  8
0
100
AcDbBlockBegin
  2
_OBLIQUE
 70
     0
 10
0.0
 20
0.0
 30
0.0
  3
_OBLIQUE
  1

  0
LINE
  5
33
100
AcDbEntity
  8
0
  6
BYBLOCK
 62
     0
100
AcDbLine
 10
-0.5
 20
-0.5
 30
0.0
 11
0.5
 21
0.5
 31
0.0
  0
ENDBLK
  5
34
100
AcDbEntity
  8
0
100
AcDbBlockEnd
  0
BLOCK
  5
36
100
AcDbEntity
  8
0
100
AcDbBlockBegin
  2
_OPEN90
 70
     0
 10
0.0
 20
0.0
 30
0.0
  3
_OPEN90
  1

  0
LINE
  5
37
100
AcDbEntity
  8
0
  6
BYBLOCK
 62
     0
100
AcDbLine
 10
-0.5
 20
0.5
 30
0.0
 11
0.0
 21
0.0
 31
0.0
  0
LINE
  5
38
100
AcDbEntity
  8
0
  6
BYBLOCK
 62
     0
100
AcDbLine
 10
0.0
 20
0.0
 30
0.0
 11
-0.5
 21
-0.5
 31
0.0
  0
LINE
  5
39
100
AcDbEntity
  8
0
  6
BYBLOCK
 62
     0
100
AcDbLine
 10
0.0
 20
0.0
 30
0.0
 11
-1.0
 21
0.0
 31
0.0
  0
ENDBLK
  5
3A
100
AcDbEntity
  8
0
100
AcDbBlockEnd
  0
BLOCK
  5
3C
100
AcDbEntity
  8
0
100
AcDbBlockBegin
  2
_CLOSEDBLANK
 70
     0
 10
0.0
 20
0.0
 30
0.0
  3
_CLOSEDBLANK
  1

  0
LINE
  5
3D
100
AcDbEntity
  8
0
  6
BYBLOCK
 62
     0
100
AcDbLine
 10
-1.0
 20
0.1666666666666666
 30
0.0
 11
0.0
 21
0.0
 31
0.0
  0
LINE
  5
3E
100
AcDbEntity
  8
0
  6
BYBLOCK
 62
     0
100
AcDbLine
 10
0.0
 20
0.0
 30
0.0
 11
-1.0
 21
-0.1666666666666666
 31
0.0
  0
LINE
  5
3F
100
AcDbEntity
  8
0
  6
BYBLOCK
 62
     0
100
AcDbLine
 10
-1.0
 20
0.1666666666666666
 30
0.0
 11
-1.0
 21
-0.1666666666666666
 31
0.0
  0
ENDBLK
  5
40
100
AcDbEntity
  8
0
100
AcDbBlockEnd
  0
BLOCK
  5
42
100
AcDbEntity
  8
0
100
AcDbBlockBegin
  2
_DOTBLANK
 70
     0
 10
0.0
 20
0.0
 30
0.0
  3
_DOTBLANK
  1

  0
CIRCLE
  5
43
100
AcDbEntity
  8
0
  6
BYBLOCK
 62
     0
100
AcDbCircle
 10
0.0
 20
0.0
 30
0.0
 40
0.5
  0
LINE
  5
44
100
AcDbEntity
  8
0
  6
BYBLOCK
 62
     0
100
AcDbLine
 10
-0.5
 20
0.0
 30
0.0
 11
-1.0
 21
0.0
 31
0.0
  0
ENDBLK
  5
45
100
AcDbEntity
  8
0
100
AcDbBlockEnd
  0
BLOCK
  5
46
100
AcDbEntity
  8
MAIN0
  6
CONTINUOUS
 62
3
100
AcDbBlockBegin
  2
*D0
 70
    65
 10
0.0
 20
0.0
 30
0.0
  0
LINE
  5
47
100
AcDbEntity
  8
MAIN0
  6
BYBLOCK
 62
0
100
AcDbLine
 10
233.3648926605001
 20
97.39595892463220
 30
0.0000000000000000
 11
233.3648926605001
 21
103.2835706311234
 31
0.0000000000000000
  0
LINE
  5
48
100
AcDbEntity
  8
MAIN0
  6
BYBLOCK
 62
0
100
AcDbLine
 10
235.3648926605001
 20
101.2835706311234
 30
0.0000000000000000
 11
266.3648926605001
 21
101.2835706311234
 31
0.0000000000000000
  0
INSERT
  5
49
100
AcDbEntity
  8
MAIN0
  6
BYBLOCK
 62
0
100
AcDbBlockReference
  2
_OPEN
 10
233.3648926605001
 20
101.2835706311234
 30
0.0000000000000000
 41
2.000000000000000
 42
2.000000000000000
 43
2.000000000000000
 50
180.0000000000000
  0
INSERT
  5
4A
100
AcDbEntity
  8
MAIN0
  6
BYBLOCK
 62
0
100
AcDbBlockReference
  2
_OPEN
 10
268.3648926605001
 20
101.2835706311234
 30
0.0000000000000000
 41
2.000000000000000
 42
2.000000000000000
 43
2.000000000000000
 50
0.0000000000000000
  0
LINE
  5
4B
100
AcDbEntity
  8
MAIN0
  6
BYBLOCK
 62
0
100
AcDbLine
 10
268.3648926605001
 20
97.39595892462253
 30
0.0000000000000000
 11
268.3648926605001
 21
103.2835706311234
 31
0.0000000000000000
  0
MTEXT
  5
4C
100
AcDbEntity
  8
MAIN0
  6
BYBLOCK
 62
0
100
AcDbMText
 10
250.8648926605001
 20
103.3335705834396
 30
0.0000000000000000
 40
3.099999904632568
 41
0.0000000000000000
 71
     5
 72
     1
  1
\A1;35
 11
1.000000000000000
 21
0.0000000000000000
 31
0.0000000000000000
  7
STANDARD
  0
ENDBLK
  5
4D
100
AcDbEntity
  8
MAIN0
  6
CONTINUOUS
 62
3
100
AcDbBlockEnd
  0
BLOCK
  5
51
100
AcDbEntity
  8
MAIN0
  6
CONTINUOUS
 62
3
100
AcDbBlockBegin
  2
*D1
 70
    65
 10
0.0
 20
0.0
 30
0.0
  0
LINE
  5
52
100
AcDbEntity
  8
MAIN0
  6
BYBLOCK
 62
0
100
AcDbLine
 10
268.6648926724211
 20
96.59595891270173
 30
0.0000000000000000
 11
280.1364553640724
 21
96.59595891270158
 31
0.0000000000000000
  0
LINE
  5
53
100
AcDbEntity
  8
MAIN0
  6
BYBLOCK
 62
0
100
AcDbLine
 10
278.1364553640724
 20
94.59595891270161
 30
0.0000000000000000
 11
278.1364553640724
 21
69.59595891270267
 31
0.0000000000000000
  0
INSERT
  5
54
100
AcDbEntity
  8
MAIN0
  6
BYBLOCK
 62
0
100
AcDbBlockReference
  2
_OPEN
 10
278.1364553640724
 20
96.59595891270161
 30
0.0000000000000000
 41
2.000000000000000
 42
2.000000000000000
 43
2.000000000000000
 50
90.00000000000000
  0
INSERT
  5
55
100
AcDbEntity
  8
MAIN0
  6
BYBLOCK
 62
0
100
AcDbBlockReference
  2
_OPEN
 10
278.1364553640724
 20
67.59595891270267
 30
0.0000000000000000
 41
2.000000000000000
 42
2.000000000000000
 43
2.000000000000000
 50
270.0000000000000
  0
LINE
  5
56
100
AcDbEntity
  8
MAIN0
  6
BYBLOCK
 62
0
100
AcDbLine
 10
265.1648926724211
 20
67.59595891270267
 30
0.0000000000000000
 11
280.1364553640724
 21
67.59595891270267
 31
0.0000000000000000
  0
MTEXT
  5
57
100
AcDbEntity
  8
MAIN0
  6
BYBLOCK
 62
0
100
AcDbMText
 10
276.0864554117561
 20
82.09595891270215
 30
0.0000000000000000
 40
3.099999904632568
 41
0.0000000000000000
 71
     5
 72
     1
  1
\A1;29
 11
6.123233995736766e-017
 21
1.000000000000000
 31
0.0000000000000000
  7
STANDARD
  0
ENDBLK
  5
58
100
AcDbEntity
  8
MAIN0
  6
CONTINUOUS
 62
3
100
AcDbBlockEnd
  0
BLOCK
  5
5A
100
AcDbEntity
  8
MAIN0
  6
CONTINUOUS
 62
3
100
AcDbBlockBegin
  2
*D2
 70
    65
 10
0.0
 20
0.0
 30
0.0
  0
LINE
  5
5B
100
AcDbEntity
  8
MAIN0
  6
BYBLOCK
 62
0
100
AcDbLine
 10
226.6048588743821
 20
81.59595891271292
 30
0.0000000000000000
 11
217.7860371481242
 21
81.59595891271276
 31
0.0000000000000000
  0
LINE
  5
5C
100
AcDbEntity
  8
MAIN0
  6
BYBLOCK
 62
0
100
AcDbLine
 10
219.7860371481242
 20
83.59595891271279
 30
0.0000000000000000
 11
219.7860371481242
 21
94.59595891271117
 31
0.0000000000000000
  0
INSERT
  5
5D
100
AcDbEntity
  8
MAIN0
  6
BYBLOCK
 62
0
100
AcDbBlockReference
  2
_OPEN
 10
219.7860371481242
 20
81.59595891271279
 30
0.0000000000000000
 41
2.000000000000000
 42
2.000000000000000
 43
2.000000000000000
 50
270.0000000000000
  0
INSERT
  5
5E
100
AcDbEntity
  8
MAIN0
  6
BYBLOCK
 62
0
100
AcDbBlockReference
  2
_OPEN
 10
219.7860371481242
 20
96.59595891271117
 30
0.0000000000000000
 41
2.000000000000000
 42
2.000000000000000
 43
2.000000000000000
 50
90.00000000000000
  0
LINE
  5
5F
100
AcDbEntity
  8
MAIN0
  6
BYBLOCK
 62
0
100
AcDbLine
 10
233.0648926485792
 20
96.59595891271117
 30
0.0000000000000000
 11
217.7860371481242
 21
96.59595891271117
 31
0.0000000000000000
  0
MTEXT
  5
60
100
AcDbEntity
  8
MAIN0
  6
BYBLOCK
 62
0
100
AcDbMText
 10
217.7360371958079
 20
89.09595891271198
 30
0.0000000000000000
 40
3.099999904632568
 41
0.0000000000000000
 71
     5
 72
     1
  1
\A1;15
 11
6.123233995736766e-017
 21
1.000000000000000
 31
0.0000000000000000
  7
STANDARD
  0
ENDBLK
  5
61
100
AcDbEntity
  8
MAIN0
  6
CONTINUOUS
 62
3
100
AcDbBlockEnd
  0
BLOCK
  5
63
100
AcDbEntity
  8
MAIN0
  6
CONTINUOUS
 62
3
100
AcDbBlockBegin
  2
*D3
 70
    65
 10
0.0
 20
0.0
 30
0.0
  0
LINE
  5
64
100
AcDbEntity
  8
MAIN0
  6
BYBLOCK
 62
0
100
AcDbLine
 10
232.5648926485762
 20
85.59595891271131
 30
0.0000000000000000
 11
224.9349314136948
 21
85.59595891271131
 31
0.0000000000000000
  0
LINE
  5
65
100
AcDbEntity
  8
MAIN0
  6
BYBLOCK
 62
0
100
AcDbLine
 10
226.9349314136948
 20
87.59595891271131
 30
0.0000000000000000
 11
226.9349314136948
 21
94.59595891271131
 31
0.0000000000000000
  0
INSERT
  5
66
100
AcDbEntity
  8
MAIN0
  6
BYBLOCK
 62
0
100
AcDbBlockReference
  2
_OPEN
 10
226.9349314136948
 20
85.59595891271131
 30
0.0000000000000000
 41
2.000000000000000
 42
2.000000000000000
 43
2.000000000000000
 50
270.0000000000000
  0
INSERT
  5
67
100
AcDbEntity
  8
MAIN0
  6
BYBLOCK
 62
0
100
AcDbBlockReference
  2
_OPEN
 10
226.9349314136948
 20
96.59595891271131
 30
0.0000000000000000
 41
2.000000000000000
 42
2.000000000000000
 43
2.000000000000000
 50
90.00000000000000
  0
LINE
  5
68
100
AcDbEntity
  8
MAIN0
  6
BYBLOCK
 62
0
100
AcDbLine
 10
233.0648926485792
 20
96.59595891271118
 30
0.0000000000000000
 11
224.9349314136948
 21
96.59595891271135
 31
0.0000000000000000
  0
MTEXT
  5
69
100
AcDbEntity
  8
MAIN0
  6
BYBLOCK
 62
0
100
AcDbMText
 10
224.8849314613786
 20
91.09595891271131
 30
0.0000000000000000
 40
3.099999904632568
 41
0.0000000000000000
 71
     5
 72
     1
  1
\A1;11
 11
6.123233995736766e-017
 21
1.000000000000000
 31
0.0000000000000000
  7
STANDARD
  0
ENDBLK
  5
6A
100
AcDbEntity
  8
MAIN0
  6
CONTINUOUS
 62
3
100
AcDbBlockEnd
  0
BLOCK
  5
70
100
AcDbEntity
  8
MAIN0
  6
CONTINUOUS
 62
3
100
AcDbBlockBegin
  2
*D4
 70
    65
 10
0.0
 20
0.0
 30
0.0
  0
LINE
  5
71
100
AcDbEntity
  8
MAIN0
  6
BYBLOCK
 62
0
100
AcDbLine
 10
233.0648926485792
 20
119.8658790839614
 30
0.0000000000000000
 11
223.4623916034703
 21
119.8658790839614
 31
0.0000000000000000
  0
LINE
  5
72
100
AcDbEntity
  8
MAIN0
  6
BYBLOCK
 62
0
100
AcDbLine
 10
225.4623916034703
 20
117.8658790839614
 30
0.0000000000000000
 11
225.4623916034703
 21
110.8658790839614
 31
0.0000000000000000
  0
INSERT
  5
73
100
AcDbEntity
  8
MAIN0
  6
BYBLOCK
 62
0
100
AcDbBlockReference
  2
_OPEN
 10
225.4623916034703
 20
119.8658790839614
 30
0.0000000000000000
 41
2.000000000000000
 42
2.000000000000000
 43
2.000000000000000
 50
90.00000000000000
  0
INSERT
  5
74
100
AcDbEntity
  8
MAIN0
  6
BYBLOCK
 62
0
100
AcDbBlockReference
  2
_OPEN
 10
225.4623916034703
 20
108.8658790839614
 30
0.0000000000000000
 41
2.000000000000000
 42
2.000000000000000
 43
2.000000000000000
 50
270.0000000000000
  0
LINE
  5
75
100
AcDbEntity
  8
MAIN0
  6
BYBLOCK
 62
0
100
AcDbLine
 10
233.0648926485792
 20
108.8658790839614
 30
0.0000000000000000
 11
223.4623916034703
 21
108.8658790839614
 31
0.0000000000000000
  0
MTEXT
  5
76
100
AcDbEntity
  8
MAIN0
  6
BYBLOCK
 62
0
100
AcDbMText
 10
223.4123916511541
 20
114.3658790839614
 30
0.0000000000000000
 40
3.099999904632568
 41
0.0000000000000000
 71
     5
 72
     1
  1
\A1;11
 11
6.123233995736766e-017
 21
1.000000000000000
 31
0.0000000000000000
  7
STANDARD
  0
ENDBLK
  5
77
100
AcDbEntity
  8
MAIN0
  6
CONTINUOUS
 62
3
100
AcDbBlockEnd
  0
BLOCK
  5
15A
100
AcDbEntity
  8
MAIN0
  6
CONTINUOUS
 62
3
100
AcDbBlockBegin
  2
*D5
 70
    65
 10
0.0
 20
0.0
 30
0.0
  0
LINE
  5
15B
100
AcDbEntity
  8
MAIN0
  6
BYBLOCK
 62
0
100
AcDbLine
 10
133.2412307439662
 20
231.5236232079726
 30
0.0000000000000000
 11
133.2412307439927
 21
240.2946573354301
 31
0.0000000000000000
  0
LINE
  5
15C
100
AcDbEntity
  8
MAIN0
  6
BYBLOCK
 62
0
100
AcDbLine
 10
135.2412307439867
 20
238.2946573354241
 30
0.0000000000000000
 11
146.2412307439867
 21
238.2946573353909
 31
0.0000000000000000
  0
INSERT
  5
15D
100
AcDbEntity
  8
MAIN0
  6
BYBLOCK
 62
0
100
AcDbBlockReference
  2
_OPEN
 10
133.2412307439867
 20
238.2946573354301
 30
0.0000000000000000
 41
2.000000000000000
 42
2.000000000000000
 43
2.000000000000000
 50
179.9999999998271
  0
INSERT
  5
15E
100
AcDbEntity
  8
MAIN0
  6
BYBLOCK
 62
0
100
AcDbBlockReference
  2
_OPEN
 10
148.2412307439867
 20
238.2946573353849
 30
0.0000000000000000
 41
2.000000000000000
 42
2.000000000000000
 43
2.000000000000000
 50
359.9999999998271
  0
LINE
  5
15F
100
AcDbEntity
  8
MAIN0
  6
BYBLOCK
 62
0
100
AcDbLine
 10
148.2412307438959
 20
208.2236232079274
 30
0.0000000000000000
 11
148.2412307439927
 21
240.2946573353849
 31
0.0000000000000000
  0
MTEXT
  5
160
100
AcDbEntity
  8
MAIN0
  6
BYBLOCK
 62
0
100
AcDbMText
 10
140.7412307439882
 20
240.3446572877238
 30
0.0000000000000000
 40
3.099999904632568
 41
0.0000000000000000
 71
     5
 72
     1
  1
\A1;15
 11
1.000000000000000
 21
0.0000000000000000
 31
0.0000000000000000
  7
STANDARD
  0
ENDBLK
  5
161
100
AcDbEntity
  8
MAIN0
  6
CONTINUOUS
 62
3
100
AcDbBlockEnd
  0
BLOCK
  5
163
100
AcDbEntity
  8
MAIN0
  6
CONTINUOUS
 62
3
100
AcDbBlockBegin
  2
*D6
 70
    65
 10
0.0
 20
0.0
 30
0.0
  0
LINE
  5
164
100
AcDbEntity
  8
MAIN0
  6
BYBLOCK
 62
0
100
AcDbLine
 10
148.7412307557821
 20
196.7236231960049
 30
0.0000000000000000
 11
157.7119892176185
 21
196.7236231959779
 31
0.0000000000000000
  0
LINE
  5
165
100
AcDbEntity
  8
MAIN0
  6
BYBLOCK
 62
0
100
AcDbLine
 10
155.7119892176245
 20
198.7236231959839
 30
0.0000000000000000
 11
155.7119892176457
 21
205.7236231959839
 31
0.0000000000000000
  0
INSERT
  5
166
100
AcDbEntity
  8
MAIN0
  6
BYBLOCK
 62
0
100
AcDbBlockReference
  2
_OPEN
 10
155.7119892176185
 20
196.7236231959839
 30
0.0000000000000000
 41
2.000000000000000
 42
2.000000000000000
 43
2.000000000000000
 50
269.9999999998269
  0
INSERT
  5
167
100
AcDbEntity
  8
MAIN0
  6
BYBLOCK
 62
0
100
AcDbBlockReference
  2
_OPEN
 10
155.7119892176517
 20
207.7236231959839
 30
0.0000000000000000
 41
2.000000000000000
 42
2.000000000000000
 43
2.000000000000000
 50
89.99999999982693
  0
LINE
  5
168
100
AcDbEntity
  8
MAIN0
  6
BYBLOCK
 62
0
100
AcDbLine
 10
148.7412307558153
 20
207.7236231960050
 30
0.0000000000000000
 11
157.7119892176517
 21
207.7236231959779
 31
0.0000000000000000
  0
MTEXT
  5
169
100
AcDbEntity
  8
MAIN0
  6
BYBLOCK
 62
0
100
AcDbMText
 10
153.6619892653188
 20
202.2236231959854
 30
0.0000000000000000
 40
3.099999904632568
 41
0.0000000000000000
 71
     5
 72
     1
  1
\A1;11
 11
6.123233995736766e-017
 21
1.000000000000000
 31
0.0000000000000000
  7
STANDARD
  0
ENDBLK
  5
16A
100
AcDbEntity
  8
MAIN0
  6
CONTINUOUS
 62
3
100
AcDbBlockEnd
  0
BLOCK
  5
16C
100
AcDbEntity
  8
MAIN0
  6
CONTINUOUS
 62
3
100
AcDbBlockBegin
  2
*D7
 70
    65
 10
0.0
 20
0.0
 30
0.0
  0
LINE
  5
16D
100
AcDbEntity
  8
MAIN0
  6
BYBLOCK
 62
0
100
AcDbLine
 10
148.7412307558153
 20
207.7236231960050
 30
0.0000000000000000
 11
157.7119892176517
 21
207.7236231959779
 31
0.0000000000000000
  0
LINE
  5
16E
100
AcDbEntity
  8
MAIN0
  6
BYBLOCK
 62
0
100
AcDbLine
 10
155.7119892176578
 20
209.7236231959839
 30
0.0000000000000000
 11
155.7119892176759
 21
215.7236231959839
 31
0.0000000000000000
  0
INSERT
  5
16F
100
AcDbEntity
  8
MAIN0
  6
BYBLOCK
 62
0
100
AcDbBlockReference
  2
_OPEN
 10
155.7119892176517
 20
207.7236231959839
 30
0.0000000000000000
 41
2.000000000000000
 42
2.000000000000000
 43
2.000000000000000
 50
269.9999999998271
  0
INSERT
  5
170
100
AcDbEntity
  8
MAIN0
  6
BYBLOCK
 62
0
100
AcDbBlockReference
  2
_OPEN
 10
155.7119892176819
 20
217.7236231959839
 30
0.0000000000000000
 41
2.000000000000000
 42
2.000000000000000
 43
2.000000000000000
 50
89.99999999982713
  0
LINE
  5
171
100
AcDbEntity
  8
MAIN0
  6
BYBLOCK
 62
0
100
AcDbLine
 10
142.7412307558455
 20
217.7236231960230
 30
0.0000000000000000
 11
157.7119892176819
 21
217.7236231959779
 31
0.0000000000000000
  0
MTEXT
  5
172
100
AcDbEntity
  8
MAIN0
  6
BYBLOCK
 62
0
100
AcDbMText
 10
153.6619892653505
 20
212.7236231959854
 30
0.0000000000000000
 40
3.099999904632568
 41
0.0000000000000000
 71
     5
 72
     1
  1
\A1;10
 11
6.123233995736766e-017
 21
1.000000000000000
 31
0.0000000000000000
  7
STANDARD
  0
ENDBLK
  5
173
100
AcDbEntity
  8
MAIN0
  6
CONTINUOUS
 62
3
100
AcDbBlockEnd
  0
BLOCK
  5
175
100
AcDbEntity
  8
MAIN0
  6
CONTINUOUS
 62
3
100
AcDbBlockBegin
  2
*D8
 70
    65
 10
0.0
 20
0.0
 30
0.0
  0
LINE
  5
176
100
AcDbEntity
  8
MAIN0
  6
BYBLOCK
 62
0
100
AcDbLine
 10
142.7412307558455
 20
217.7236231960230
 30
0.0000000000000000
 11
157.7119892176819
 21
217.7236231959779
 31
0.0000000000000000
  0
LINE
  5
177
100
AcDbEntity
  8
MAIN0
  6
BYBLOCK
 62
0
100
AcDbLine
 10
155.7119892176879
 20
219.7236231959839
 30
0.0000000000000000
 11
155.7119892177181
 21
229.7236231959839
 31
0.0000000000000000
  0
INSERT
  5
178
100
AcDbEntity
  8
MAIN0
  6
BYBLOCK
 62
0
100
AcDbBlockReference
  2
_OPEN
 10
155.7119892176819
 20
217.7236231959839
 30
0.0000000000000000
 41
2.000000000000000
 42
2.000000000000000
 43
2.000000000000000
 50
269.9999999998272
  0
INSERT
  5
179
100
AcDbEntity
  8
MAIN0
  6
BYBLOCK
 62
0
100
AcDbBlockReference
  2
_OPEN
 10
155.7119892177242
 20
231.7236231959839
 30
0.0000000000000000
 41
2.000000000000000
 42
2.000000000000000
 43
2.000000000000000
 50
89.99999999982722
  0
LINE
  5
17A
100
AcDbEntity
  8
MAIN0
  6
BYBLOCK
 62
0
100
AcDbLine
 10
136.2412307558878
 20
231.7236231960427
 30
0.0000000000000000
 11
157.7119892177242
 21
231.7236231959779
 31
0.0000000000000000
  0
MTEXT
  5
17B
100
AcDbEntity
  8
MAIN0
  6
BYBLOCK
 62
0
100
AcDbMText
 10
153.6619892653868
 20
224.7236231959854
 30
0.0000000000000000
 40
3.099999904632568
 41
0.0000000000000000
 71
     5
 72
     1
  1
\A1;14
 11
6.123233995736766e-017
 21
1.000000000000000
 31
0.0000000000000000
  7
STANDARD
  0
ENDBLK
  5
17C
100
AcDbEntity
  8
MAIN0
  6
CONTINUOUS
 62
3
100
AcDbBlockEnd
  0
BLOCK
  5
17E
100
AcDbEntity
  8
MAIN0
  6
CONTINUOUS
 62
3
100
AcDbBlockBegin
  2
*D9
 70
    65
 10
0.0
 20
0.0
 30
0.0
  0
LINE
  5
17F
100
AcDbEntity
  8
MAIN0
  6
BYBLOCK
 62
0
100
AcDbLine
 10
148.7412307557821
 20
196.7236231960049
 30
0.0000000000000000
 11
167.2346166728897
 21
196.7236231959491
 31
0.0000000000000000
  0
LINE
  5
180
100
AcDbEntity
  8
MAIN0
  6
BYBLOCK
 62
0
100
AcDbLine
 10
165.2346166728958
 20
198.7236231959552
 30
0.0000000000000000
 11
165.2346166729893
 21
229.7236231959552
 31
0.0000000000000000
  0
INSERT
  5
181
100
AcDbEntity
  8
MAIN0
  6
BYBLOCK
 62
0
100
AcDbBlockReference
  2
_OPEN
 10
165.2346166728897
 20
196.7236231959552
 30
0.0000000000000000
 41
2.000000000000000
 42
2.000000000000000
 43
2.000000000000000
 50
269.9999999998271
  0
INSERT
  5
182
100
AcDbEntity
  8
MAIN0
  6
BYBLOCK
 62
0
100
AcDbBlockReference
  2
_OPEN
 10
165.2346166729953
 20
231.7236231959552
 30
0.0000000000000000
 41
2.000000000000000
 42
2.000000000000000
 43
2.000000000000000
 50
89.99999999982713
  0
LINE
  5
183
100
AcDbEntity
  8
MAIN0
  6
BYBLOCK
 62
0
100
AcDbLine
 10
136.2412307558878
 20
231.7236231960426
 30
0.0000000000000000
 11
167.2346166729953
 21
231.7236231959491
 31
0.0000000000000000
  0
MTEXT
  5
184
100
AcDbEntity
  8
MAIN0
  6
BYBLOCK
 62
0
100
AcDbMText
 10
163.1846167206262
 20
214.2236231959567
 30
0.0000000000000000
 40
3.099999904632568
 41
0.0000000000000000
 71
     5
 72
     1
  1
\A1;35
 11
6.123233995736766e-017
 21
1.000000000000000
 31
0.0000000000000000
  7
STANDARD
  0
ENDBLK
  5
185
100
AcDbEntity
  8
MAIN0
  6
CONTINUOUS
 62
3
100
AcDbBlockEnd
  0
BLOCK
  5
187
100
AcDbEntity
  8
MAIN0
  6
CONTINUOUS
 62
3
100
AcDbBlockBegin
  2
*D10
 70
    65
 10
0.0
 20
0.0
 30
0.0
  0
LINE
  5
188
100
AcDbEntity
  8
MAIN0
  6
BYBLOCK
 62
0
100
AcDbLine
 10
148.2412307438959
 20
208.2236232079274
 30
0.0000000000000000
 11
148.2412307439132
 21
213.9492902881858
 31
0.0000000000000000
  0
LINE
  5
189
100
AcDbEntity
  8
MAIN0
  6
BYBLOCK
 62
0
100
AcDbLine
 10
146.2412307439071
 20
211.9492902881918
 30
0.0000000000000000
 11
144.2412307439071
 21
211.9492902881978
 31
0.0000000000000000
  0
INSERT
  5
18A
100
AcDbEntity
  8
MAIN0
  6
BYBLOCK
 62
0
100
AcDbBlockReference
  2
_OPEN
 10
148.2412307439071
 20
211.9492902881858
 30
0.0000000000000000
 41
2.000000000000000
 42
2.000000000000000
 43
2.000000000000000
 50
359.9999999998274
  0
INSERT
  5
18B
100
AcDbEntity
  8
MAIN0
  6
BYBLOCK
 62
0
100
AcDbBlockReference
  2
_OPEN
 10
142.2412307439071
 20
211.9492902882039
 30
0.0000000000000000
 41
2.000000000000000
 42
2.000000000000000
 43
2.000000000000000
 50
179.9999999998274
  0
MTEXT
  5
18C
100
AcDbEntity
  8
MAIN0
  6
BYBLOCK
 62
0
100
AcDbMText
 10
145.2412307439087
 20
213.9992902405110
 30
0.0000000000000000
 40
3.099999904632568
 41
0.0000000000000000
 71
     5
 72
     1
  1
\A1;6
 11
1.000000000000000
 21
0.0000000000000000
 31
0.0000000000000000
  7
STANDARD
  0
ENDBLK
  5
18D
100
AcDbEntity
  8
MAIN0
  6
CONTINUOUS
 62
3
100
AcDbBlockEnd
  0
BLOCK
  5
18F
100
AcDbEntity
  8
MAIN0
  6
CONTINUOUS
 62
3
100
AcDbBlockBegin
  2
*D11
 70
    65
 10
0.0
 20
0.0
 30
0.0
  0
LINE
  5
190
100
AcDbEntity
  8
MAIN0
  6
BYBLOCK
 62
0
100
AcDbLine
 10
138.2412307439394
 20
222.6224448887912
 30
0.0000000000000000
 11
140.2412307439394
 21
222.6224448887852
 31
0.0000000000000000
  0
INSERT
  5
191
100
AcDbEntity
  8
MAIN0
  6
BYBLOCK
 62
0
100
AcDbBlockReference
  2
_OPEN
 10
136.2412307439394
 20
222.6224448887973
 30
0.0000000000000000
 41
2.000000000000000
 42
2.000000000000000
 43
2.000000000000000
 50
179.9999999998274
  0
INSERT
  5
192
100
AcDbEntity
  8
MAIN0
  6
BYBLOCK
 62
0
100
AcDbBlockReference
  2
_OPEN
 10
142.2412307439394
 20
222.6224448887791
 30
0.0000000000000000
 41
2.000000000000000
 42
2.000000000000000
 43
2.000000000000000
 50
359.9999999998274
  0
LINE
  5
193
100
AcDbEntity
  8
MAIN0
  6
BYBLOCK
 62
0
100
AcDbLine
 10
142.2412307439261
 20
218.2236232079455
 30
0.0000000000000000
 11
142.2412307439454
 21
224.6224448887791
 31
0.0000000000000000
  0
MTEXT
  5
194
100
AcDbEntity
  8
MAIN0
  6
BYBLOCK
 62
0
100
AcDbMText
 10
139.2412307439409
 20
224.6724448411044
 30
0.0000000000000000
 40
3.099999904632568
 41
0.0000000000000000
 71
     5
 72
     1
  1
\A1;6
 11
1.000000000000000
 21
0.0000000000000000
 31
0.0000000000000000
  7
STANDARD
  0
ENDBLK
  5
195
100
AcDbEntity
  8
MAIN0
  6
CONTINUOUS
 62
3
100
AcDbBlockEnd
  0
BLOCK
  5
197
100
AcDbEntity
  8
MAIN0
  6
CONTINUOUS
 62
3
100
AcDbBlockBegin
  2
*D12
 70
    65
 10
0.0
 20
0.0
 30
0.0
  0
LINE
  5
198
100
AcDbEntity
  8
MAIN0
  6
BYBLOCK
 62
0
100
AcDbLine
 10
148.5412307557761
 20
194.7236231960056
 30
0.0000000000000000
 11
167.2346166728837
 21
194.7236231959491
 31
0.0000000000000000
  0
LINE
  5
199
100
AcDbEntity
  8
MAIN0
  6
BYBLOCK
 62
0
100
AcDbLine
 10
165.2346166728776
 20
192.7236231959552
 30
0.0000000000000000
 11
165.2346166728565
 21
185.7236231959552
 31
0.0000000000000000
  0
INSERT
  5
19A
100
AcDbEntity
  8
MAIN0
  6
BYBLOCK
 62
0
100
AcDbBlockReference
  2
_OPEN
 10
165.2346166728837
 20
194.7236231959552
 30
0.0000000000000000
 41
2.000000000000000
 42
2.000000000000000
 43
2.000000000000000
 50
89.99999999982714
  0
INSERT
  5
19B
100
AcDbEntity
  8
MAIN0
  6
BYBLOCK
 62
0
100
AcDbBlockReference
  2
_OPEN
 10
165.2346166728505
 20
183.7236231959552
 30
0.0000000000000000
 41
2.000000000000000
 42
2.000000000000000
 43
2.000000000000000
 50
269.9999999998271
  0
LINE
  5
19C
100
AcDbEntity
  8
MAIN0
  6
BYBLOCK
 62
0
100
AcDbLine
 10
148.5412307557429
 20
183.7236231960056
 30
0.0000000000000000
 11
167.2346166728505
 21
183.7236231959491
 31
0.0000000000000000
  0
MTEXT
  5
19D
100
AcDbEntity
  8
MAIN0
  6
BYBLOCK
 62
0
100
AcDbMText
 10
163.1846167205508
 20
189.2236231959567
 30
0.0000000000000000
 40
3.099999904632568
 41
0.0000000000000000
 71
     5
 72
     1
  1
\A1;11
 11
6.123233995736766e-017
 21
1.000000000000000
 31
0.0000000000000000
  7
STANDARD
  0
ENDBLK
  5
19E
100
AcDbEntity
  8
MAIN0
  6
CONTINUOUS
 62
3
100
AcDbBlockEnd
  0
BLOCK
  5
1A0
100
AcDbEntity
  8
MAIN0
  6
CONTINUOUS
 62
3
100
AcDbBlockBegin
  2
*D13
 70
    65
 10
0.0
 20
0.0
 30
0.0
  0
LINE
  5
1A1
100
AcDbEntity
  8
MAIN0
  6
BYBLOCK
 62
0
100
AcDbLine
 10
148.8412307556317
 20
146.7236231960012
 30
0.0000000000000000
 11
157.7119892174677
 21
146.7236231959745
 31
0.0000000000000000
  0
LINE
  5
1A2
100
AcDbEntity
  8
MAIN0
  6
BYBLOCK
 62
0
100
AcDbLine
 10
155.7119892174737
 20
148.7236231959805
 30
0.0000000000000000
 11
155.7119892174888
 21
153.7236231960135
 31
0.0000000000000000
  0
INSERT
  5
1A3
100
AcDbEntity
  8
MAIN0
  6
BYBLOCK
 62
0
100
AcDbBlockReference
  2
_OPEN
 10
155.7119892174677
 20
146.7236231959805
 30
0.0000000000000000
 41
2.000000000000000
 42
2.000000000000000
 43
2.000000000000000
 50
269.9999999998271
  0
INSERT
  5
1A4
100
AcDbEntity
  8
MAIN0
  6
BYBLOCK
 62
0
100
AcDbBlockReference
  2
_OPEN
 10
155.7119892174948
 20
155.7236231960135
 30
0.0000000000000000
 41
2.000000000000000
 42
2.000000000000000
 43
2.000000000000000
 50
89.99999999982707
  0
LINE
  5
1A5
100
AcDbEntity
  8
MAIN0
  6
BYBLOCK
 62
0
100
AcDbLine
 10
148.8412307556604
 20
155.7236231960342
 30
0.0000000000000000
 11
157.7119892174948
 21
155.7236231960074
 31
0.0000000000000000
  0
MTEXT
  5
1A6
100
AcDbEntity
  8
MAIN0
  6
BYBLOCK
 62
0
100
AcDbMText
 10
153.6619892651650
 20
151.2236231959985
 30
0.0000000000000000
 40
3.099999904632568
 41
0.0000000000000000
 71
     5
 72
     1
  1
\A1;9
 11
6.123233995736766e-017
 21
1.000000000000000
 31
0.0000000000000000
  7
STANDARD
  0
ENDBLK
  5
1A7
100
AcDbEntity
  8
MAIN0
  6
CONTINUOUS
 62
3
100
AcDbBlockEnd
  0
BLOCK
  5
1A9
100
AcDbEntity
  8
MAIN0
  6
CONTINUOUS
 62
3
100
AcDbBlockBegin
  2
*D14
 70
    65
 10
0.0
 20
0.0
 30
0.0
  0
LINE
  5
1AA
100
AcDbEntity
  8
MAIN0
  6
BYBLOCK
 62
0
100
AcDbLine
 10
148.8412307556604
 20
155.7236231960342
 30
0.0000000000000000
 11
157.7119892174948
 21
155.7236231960074
 31
0.0000000000000000
  0
LINE
  5
1AB
100
AcDbEntity
  8
MAIN0
  6
BYBLOCK
 62
0
100
AcDbLine
 10
155.7119892175008
 20
157.7236231960135
 30
0.0000000000000000
 11
155.7119892175189
 21
163.7236231960146
 31
0.0000000000000000
  0
INSERT
  5
1AC
100
AcDbEntity
  8
MAIN0
  6
BYBLOCK
 62
0
100
AcDbBlockReference
  2
_OPEN
 10
155.7119892174948
 20
155.7236231960135
 30
0.0000000000000000
 41
2.000000000000000
 42
2.000000000000000
 43
2.000000000000000
 50
269.9999999998269
  0
INSERT
  5
1AD
100
AcDbEntity
  8
MAIN0
  6
BYBLOCK
 62
0
100
AcDbBlockReference
  2
_OPEN
 10
155.7119892175249
 20
165.7236231960146
 30
0.0000000000000000
 41
2.000000000000000
 42
2.000000000000000
 43
2.000000000000000
 50
89.99999999982686
  0
LINE
  5
1AE
100
AcDbEntity
  8
MAIN0
  6
BYBLOCK
 62
0
100
AcDbLine
 10
142.8412307556922
 20
165.7236231960535
 30
0.0000000000000000
 11
157.7119892175249
 21
165.7236231960086
 31
0.0000000000000000
  0
MTEXT
  5
1AF
100
AcDbEntity
  8
MAIN0
  6
BYBLOCK
 62
0
100
AcDbMText
 10
153.6619892651936
 20
160.7236231960156
 30
0.0000000000000000
 40
3.099999904632568
 41
0.0000000000000000
 71
     5
 72
     1
  1
\A1;10
 11
6.123233995736766e-017
 21
1.000000000000000
 31
0.0000000000000000
  7
STANDARD
  0
ENDBLK
  5
1B0
100
AcDbEntity
  8
MAIN0
  6
CONTINUOUS
 62
3
100
AcDbBlockEnd
  0
BLOCK
  5
1B2
100
AcDbEntity
  8
MAIN0
  6
CONTINUOUS
 62
3
100
AcDbBlockBegin
  2
*D15
 70
    65
 10
0.0
 20
0.0
 30
0.0
  0
LINE
  5
1B3
100
AcDbEntity
  8
MAIN0
  6
BYBLOCK
 62
0
100
AcDbLine
 10
142.8412307556922
 20
165.7236231960535
 30
0.0000000000000000
 11
157.7119892175249
 21
165.7236231960086
 31
0.0000000000000000
  0
LINE
  5
1B4
100
AcDbEntity
  8
MAIN0
  6
BYBLOCK
 62
0
100
AcDbLine
 10
155.7119892175310
 20
167.7236231960146
 30
0.0000000000000000
 11
155.7119892175672
 21
179.7236231960159
 31
0.0000000000000000
  0
INSERT
  5
1B5
100
AcDbEntity
  8
MAIN0
  6
BYBLOCK
 62
0
100
AcDbBlockReference
  2
_OPEN
 10
155.7119892175249
 20
165.7236231960146
 30
0.0000000000000000
 41
2.000000000000000
 42
2.000000000000000
 43
2.000000000000000
 50
269.9999999998271
  0
INSERT
  5
1B6
100
AcDbEntity
  8
MAIN0
  6
BYBLOCK
 62
0
100
AcDbBlockReference
  2
_OPEN
 10
155.7119892175733
 20
181.7236231960159
 30
0.0000000000000000
 41
2.000000000000000
 42
2.000000000000000
 43
2.000000000000000
 50
89.99999999982713
  0
LINE
  5
1B7
100
AcDbEntity
  8
MAIN0
  6
BYBLOCK
 62
0
100
AcDbLine
 10
136.3412307557438
 20
181.7236231960743
 30
0.0000000000000000
 11
157.7119892175733
 21
181.7236231960098
 31
0.0000000000000000
  0
MTEXT
  5
1B8
100
AcDbEntity
  8
MAIN0
  6
BYBLOCK
 62
0
100
AcDbMText
 10
153.6619892652328
 20
173.7236231960167
 30
0.0000000000000000
 40
3.099999904632568
 41
0.0000000000000000
 71
     5
 72
     1
  1
\A1;16
 11
6.123233995736766e-017
 21
1.000000000000000
 31
0.0000000000000000
  7
STANDARD
  0
ENDBLK
  5
1B9
100
AcDbEntity
  8
MAIN0
  6
CONTINUOUS
 62
3
100
AcDbBlockEnd
  0
BLOCK
  5
1BB
100
AcDbEntity
  8
MAIN0
  6
CONTINUOUS
 62
3
100
AcDbBlockBegin
  2
*D16
 70
    65
 10
0.0
 20
0.0
 30
0.0
  0
LINE
  5
1BC
100
AcDbEntity
  8
MAIN0
  6
BYBLOCK
 62
0
100
AcDbLine
 10
91.94123073189348
 20
181.2236231961764
 30
0.0000000000000000
 11
79.55118894251586
 21
181.2236231962138
 31
0.0000000000000000
  0
LINE
  5
1BD
100
AcDbEntity
  8
MAIN0
  6
BYBLOCK
 62
0
100
AcDbLine
 10
81.55118894252189
 20
183.2236231962077
 30
0.0000000000000000
 11
81.55118894255813
 21
195.2236231962077
 31
0.0000000000000000
  0
INSERT
  5
1BE
100
AcDbEntity
  8
MAIN0
  6
BYBLOCK
 62
0
100
AcDbBlockReference
  2
_OPEN
 10
81.55118894251586
 20
181.2236231962077
 30
0.0000000000000000
 41
2.000000000000000
 42
2.000000000000000
 43
2.000000000000000
 50
269.9999999998270
  0
INSERT
  5
1BF
100
AcDbEntity
  8
MAIN0
  6
BYBLOCK
 62
0
100
AcDbBlockReference
  2
_OPEN
 10
81.55118894256418
 20
197.2236231962077
 30
0.0000000000000000
 41
2.000000000000000
 42
2.000000000000000
 43
2.000000000000000
 50
89.99999999982698
  0
LINE
  5
1C0
100
AcDbEntity
  8
MAIN0
  6
BYBLOCK
 62
0
100
AcDbLine
 10
91.94123073194180
 20
197.2236231961764
 30
0.0000000000000000
 11
79.55118894256418
 21
197.2236231962138
 31
0.0000000000000000
  0
MTEXT
  5
1C1
100
AcDbEntity
  8
MAIN0
  6
BYBLOCK
 62
0
100
AcDbMText
 10
79.50118899022374
 20
189.2236231962093
 30
0.0000000000000000
 40
3.099999904632568
 41
0.0000000000000000
 71
     5
 72
     1
  1
\A1;\U+220516
 11
6.123233995736766e-017
 21
1.000000000000000
 31
0.0000000000000000
  7
STANDARD
  0
ENDBLK
  5
1C2
100
AcDbEntity
  8
MAIN0
  6
CONTINUOUS
 62
3
100
AcDbBlockEnd
  0
BLOCK
  5
1C4
100
AcDbEntity
  8
MAIN0
  6
CONTINUOUS
 62
3
100
AcDbBlockBegin
  2
*D17
 70
    65
 10
0.0
 20
0.0
 30
0.0
  0
LINE
  5
1C5
100
AcDbEntity
  8
MAIN0
  6
BYBLOCK
 62
0
100
AcDbLine
 10
87.44123073200819
 20
219.2236231961900
 30
0.0000000000000000
 11
71.90498685108088
 21
219.2236231962368
 31
0.0000000000000000
  0
LINE
  5
1C6
100
AcDbEntity
  8
MAIN0
  6
BYBLOCK
 62
0
100
AcDbLine
 10
73.90498685107485
 20
217.2236231962308
 30
0.0000000000000000
 11
73.90498685090580
 21
161.2236231962308
 31
0.0000000000000000
  0
INSERT
  5
1C7
100
AcDbEntity
  8
MAIN0
  6
BYBLOCK
 62
0
100
AcDbBlockReference
  2
_OPEN
 10
73.90498685108088
 20
219.2236231962308
 30
0.0000000000000000
 41
2.000000000000000
 42
2.000000000000000
 43
2.000000000000000
 50
89.99999999982703
  0
INSERT
  5
1C8
100
AcDbEntity
  8
MAIN0
  6
BYBLOCK
 62
0
100
AcDbBlockReference
  2
_OPEN
 10
73.90498685089978
 20
159.2236231962308
 30
0.0000000000000000
 41
2.000000000000000
 42
2.000000000000000
 43
2.000000000000000
 50
269.9999999998270
  0
LINE
  5
1C9
100
AcDbEntity
  8
MAIN0
  6
BYBLOCK
 62
0
100
AcDbLine
 10
87.44123073182709
 20
159.2236231961900
 30
0.0000000000000000
 11
71.90498685089978
 21
159.2236231962368
 31
0.0000000000000000
  0
MTEXT
  5
1CA
100
AcDbEntity
  8
MAIN0
  6
BYBLOCK
 62
0
100
AcDbMText
 10
71.85498689865270
 20
189.2236232726050
 30
0.0000000000000000
 40
3.099999904632568
 41
0.0000000000000000
 71
     5
 72
     1
  1
\A1;\U+220560H6\H0.903226x;\S＋0.019^ 　0;
 11
6.123233995736766e-017
 21
1.000000000000000
 31
0.0000000000000000
  7
KNJYOKO
  0
ENDBLK
  5
1CB
100
AcDbEntity
  8
MAIN0
  6
CONTINUOUS
 62
3
100
AcDbBlockEnd
  0
BLOCK
  5
1CE
100
AcDbEntity
  8
MAIN0
  6
CONTINUOUS
 62
3
100
AcDbBlockBegin
  2
*D18
 70
    65
 10
0.0
 20
0.0
 30
0.0
  0
LINE
  5
1CF
100
AcDbEntity
  8
MAIN0
  6
BYBLOCK
 62
0
100
AcDbLine
 10
88.44123073204591
 20
231.7236231961869
 30
0.0000000000000000
 11
58.94892443595921
 21
231.7236231962759
 31
0.0000000000000000
  0
LINE
  5
1D0
100
AcDbEntity
  8
MAIN0
  6
BYBLOCK
 62
0
100
AcDbLine
 10
60.94892443595319
 20
229.7236231962699
 30
0.0000000000000000
 11
60.94892443570871
 21
148.7236231962699
 31
0.0000000000000000
  0
INSERT
  5
1D1
100
AcDbEntity
  8
MAIN0
  6
BYBLOCK
 62
0
100
AcDbBlockReference
  2
_OPEN
 10
60.94892443595921
 20
231.7236231962699
 30
0.0000000000000000
 41
2.000000000000000
 42
2.000000000000000
 43
2.000000000000000
 50
89.99999999982708
  0
INSERT
  5
1D2
100
AcDbEntity
  8
MAIN0
  6
BYBLOCK
 62
0
100
AcDbBlockReference
  2
_OPEN
 10
60.94892443570268
 20
146.7236231962699
 30
0.0000000000000000
 41
2.000000000000000
 42
2.000000000000000
 43
2.000000000000000
 50
269.9999999998271
  0
LINE
  5
1D3
100
AcDbEntity
  8
MAIN0
  6
BYBLOCK
 62
0
100
AcDbLine
 10
88.44123073178938
 20
146.7236231961869
 30
0.0000000000000000
 11
58.94892443570268
 21
146.7236231962759
 31
0.0000000000000000
  0
MTEXT
  5
1D4
100
AcDbEntity
  8
MAIN0
  6
BYBLOCK
 62
0
100
AcDbMText
 10
58.89892448351466
 20
189.2236231962714
 30
0.0000000000000000
 40
3.099999904632568
 41
0.0000000000000000
 71
     5
 72
     1
  1
\A1;\U+220585
 11
6.123233995736766e-017
 21
1.000000000000000
 31
0.0000000000000000
  7
STANDARD
  0
ENDBLK
  5
1D5
100
AcDbEntity
  8
MAIN0
  6
CONTINUOUS
 62
3
100
AcDbBlockEnd
  0
BLOCK
  5
1D7
100
AcDbEntity
  8
MAIN0
  6
CONTINUOUS
 62
3
100
AcDbBlockBegin
  2
*D19
 70
    65
 10
0.0
 20
0.0
 30
0.0
  0
LINE
  5
1D8
100
AcDbEntity
  8
MAIN0
  6
BYBLOCK
 62
0
100
AcDbLine
 10
88.24123074396624
 20
231.5236232081084
 30
0.0000000000000000
 11
88.24123074399270
 21
240.2946573355659
 31
0.0000000000000000
  0
LINE
  5
1D9
100
AcDbEntity
  8
MAIN0
  6
BYBLOCK
 62
0
100
AcDbLine
 10
90.24123074398668
 20
238.2946573355599
 30
0.0000000000000000
 11
99.24123074398668
 21
238.2946573355328
 31
0.0000000000000000
  0
INSERT
  5
1DA
100
AcDbEntity
  8
MAIN0
  6
BYBLOCK
 62
0
100
AcDbBlockReference
  2
_OPEN
 10
88.24123074398668
 20
238.2946573355659
 30
0.0000000000000000
 41
2.000000000000000
 42
2.000000000000000
 43
2.000000000000000
 50
179.9999999998270
  0
INSERT
  5
1DB
100
AcDbEntity
  8
MAIN0
  6
BYBLOCK
 62
0
100
AcDbBlockReference
  2
_OPEN
 10
101.2412307439867
 20
238.2946573355267
 30
0.0000000000000000
 41
2.000000000000000
 42
2.000000000000000
 43
2.000000000000000
 50
359.9999999998270
  0
LINE
  5
1DC
100
AcDbEntity
  8
MAIN0
  6
BYBLOCK
 62
0
100
AcDbLine
 10
101.2412307439602
 20
229.5236232080692
 30
0.0000000000000000
 11
101.2412307439927
 21
240.2946573355267
 31
0.0000000000000000
  0
MTEXT
  5
1DD
100
AcDbEntity
  8
MAIN0
  6
BYBLOCK
 62
0
100
AcDbMText
 10
94.74123074398818
 20
240.3446572878626
 30
0.0000000000000000
 40
3.099999904632568
 41
0.0000000000000000
 71
     5
 72
     1
  1
\A1;13
 11
1.000000000000000
 21
0.0000000000000000
 31
0.0000000000000000
  7
STANDARD
  0
ENDBLK
  5
1DE
100
AcDbEntity
  8
MAIN0
  6
CONTINUOUS
 62
3
100
AcDbBlockEnd
  0
BLOCK
  5
1E0
100
AcDbEntity
  8
MAIN0
  6
CONTINUOUS
 62
3
100
AcDbBlockBegin
  2
*D20
 70
    65
 10
0.0
 20
0.0
 30
0.0
  0
LINE
  5
1E1
100
AcDbEntity
  8
MAIN0
  6
BYBLOCK
 62
0
100
AcDbLine
 10
94.24123074371306
 20
147.6336231842399
 30
0.0000000000000000
 11
94.24123074368009
 21
136.7042026566091
 31
0.0000000000000000
  0
LINE
  5
1E2
100
AcDbEntity
  8
MAIN0
  6
BYBLOCK
 62
0
100
AcDbLine
 10
96.24123074368612
 20
138.7042026566031
 30
0.0000000000000000
 11
114.2412307436861
 21
138.7042026565487
 31
0.0000000000000000
  0
INSERT
  5
1E3
100
AcDbEntity
  8
MAIN0
  6
BYBLOCK
 62
0
100
AcDbBlockReference
  2
_OPEN
 10
94.24123074368612
 20
138.7042026566091
 30
0.0000000000000000
 41
2.000000000000000
 42
2.000000000000000
 43
2.000000000000000
 50
179.9999999998272
  0
INSERT
  5
1E4
100
AcDbEntity
  8
MAIN0
  6
BYBLOCK
 62
0
100
AcDbBlockReference
  2
_OPEN
 10
116.2412307436861
 20
138.7042026565427
 30
0.0000000000000000
 41
2.000000000000000
 42
2.000000000000000
 43
2.000000000000000
 50
359.9999999998271
  0
LINE
  5
1E5
100
AcDbEntity
  8
MAIN0
  6
BYBLOCK
 62
0
100
AcDbLine
 10
116.2412307437130
 20
147.6336231841735
 30
0.0000000000000000
 11
116.2412307436800
 21
136.7042026565427
 31
0.0000000000000000
  0
MTEXT
  5
1E6
100
AcDbEntity
  8
MAIN0
  6
BYBLOCK
 62
0
100
AcDbMText
 10
105.2412307436876
 20
140.7542026088922
 30
0.0000000000000000
 40
3.099999904632568
 41
0.0000000000000000
 71
     5
 72
     1
  1
\A1;\U+220522
 11
1.000000000000000
 21
0.0000000000000000
 31
0.0000000000000000
  7
STANDARD
  0
ENDBLK
  5
1E7
100
AcDbEntity
  8
MAIN0
  6
CONTINUOUS
 62
3
100
AcDbBlockEnd
  0
BLOCK
  5
1E9
100
AcDbEntity
  8
MAIN0
  6
CONTINUOUS
 62
3
100
AcDbBlockBegin
  2
*D21
 70
    65
 10
0.0
 20
0.0
 30
0.0
  0
LINE
  5
1EA
100
AcDbEntity
  8
MAIN0
  6
BYBLOCK
 62
0
100
AcDbLine
 10
105.5501497441728
 20
107.1588344695681
 30
0.0000000000000000
 11
111.7982970084925
 21
100.9106872052106
 31
0.0000000000000000
  0
LINE
  5
1EB
100
AcDbEntity
  8
MAIN0
  6
BYBLOCK
 62
0
100
AcDbLine
 10
110.3840834461236
 20
102.3249007675879
 30
0.0000000000000000
 11
115.3338309144444
 21
107.2746482358788
 31
0.0000000000000000
  0
INSERT
  5
1EC
100
AcDbEntity
  8
MAIN0
  6
BYBLOCK
 62
0
100
AcDbBlockReference
  2
_OPEN
 10
110.3840834461236
 20
102.3249007675879
 30
0.0000000000000000
 41
2.000000000000000
 42
2.000000000000000
 43
2.000000000000000
 50
44.99999999982712
  0
INSERT
  5
1ED
100
AcDbEntity
  8
MAIN0
  6
BYBLOCK
 62
0
100
AcDbBlockReference
  2
_OPEN
 10
115.3338309144444
 20
107.2746482358788
 30
0.0000000000000000
 41
2.000000000000000
 42
2.000000000000000
 43
2.000000000000000
 50
224.9999999998271
  0
LINE
  5
1EE
100
AcDbEntity
  8
MAIN0
  6
BYBLOCK
 62
0
100
AcDbLine
 10
108.9698698837463
 20
100.9106872052191
 30
0.0000000000000000
 11
108.2627631025576
 21
100.2035804240347
 31
0.0000000000000000
  0
LINE
  5
1EF
100
AcDbEntity
  8
MAIN0
  6
BYBLOCK
 62
0
100
AcDbLine
 10
116.7480444768217
 20
108.6888617982476
 30
0.0000000000000000
 11
124.8878450992680
 21
116.8286624206447
 31
0.0000000000000000
  0
LINE
  5
1F0
100
AcDbEntity
  8
MAIN0
  6
BYBLOCK
 62
0
100
AcDbLine
 10
110.4998972124470
 20
112.1085819379053
 30
0.0000000000000000
 11
116.7480444768133
 21
105.8604346735014
 31
0.0000000000000000
  0
MTEXT
  5
1F1
100
AcDbEntity
  8
MAIN0
  6
BYBLOCK
 62
0
100
AcDbMText
 10
119.8143538592848
 20
114.6543089161133
 30
0.0000000000000000
 40
3.099999904632568
 41
0.0000000000000000
 71
     5
 72
     1
  1
\A1;7\H0.903226x;\S+0.15^ +0.05;
 11
0.7071067811886811
 21
0.7071067811844140
 31
0.0000000000000000
  7
STANDARD
  0
ENDBLK
  5
1F2
100
AcDbEntity
  8
MAIN0
  6
CONTINUOUS
 62
3
100
AcDbBlockEnd
  0
BLOCK
  5
1F4
100
AcDbEntity
  8
MAIN0
  6
CONTINUOUS
 62
3
100
AcDbBlockBegin
  2
*D22
 70
    65
 10
0.0
 20
0.0
 30
0.0
  0
LINE
  5
1F5
100
AcDbEntity
  8
MAIN0
  6
BYBLOCK
 62
0
100
AcDbLine
 10
88.24123074371090
 20
146.9236231842666
 30
0.0000000000000000
 11
88.24123074363843
 21
122.9227723157497
 31
0.0000000000000000
  0
LINE
  5
1F6
100
AcDbEntity
  8
MAIN0
  6
BYBLOCK
 62
0
100
AcDbLine
 10
90.24123074364448
 20
124.9227723157437
 30
0.0000000000000000
 11
131.2412307436445
 21
124.9227723156200
 31
0.0000000000000000
  0
INSERT
  5
1F7
100
AcDbEntity
  8
MAIN0
  6
BYBLOCK
 62
0
100
AcDbBlockReference
  2
_OPEN
 10
88.24123074364448
 20
124.9227723157497
 30
0.0000000000000000
 41
2.000000000000000
 42
2.000000000000000
 43
2.000000000000000
 50
179.9999999998271
  0
INSERT
  5
1F8
100
AcDbEntity
  8
MAIN0
  6
BYBLOCK
 62
0
100
AcDbBlockReference
  2
_OPEN
 10
133.2412307436445
 20
124.9227723156139
 30
0.0000000000000000
 41
2.000000000000000
 42
2.000000000000000
 43
2.000000000000000
 50
359.9999999998271
  0
LINE
  5
1F9
100
AcDbEntity
  8
MAIN0
  6
BYBLOCK
 62
0
100
AcDbLine
 10
133.2412307437109
 20
146.9236231841308
 30
0.0000000000000000
 11
133.2412307436384
 21
122.9227723156139
 31
0.0000000000000000
  0
MTEXT
  5
1FA
100
AcDbEntity
  8
MAIN0
  6
BYBLOCK
 62
0
100
AcDbMText
 10
110.7412307436460
 20
126.9727722679981
 30
0.0000000000000000
 40
3.099999904632568
 41
0.0000000000000000
 71
     5
 72
     1
  1
\A1;45
 11
1.000000000000000
 21
0.0000000000000000
 31
0.0000000000000000
  7
STANDARD
  0
ENDBLK
  5
1FB
100
AcDbEntity
  8
MAIN0
  6
CONTINUOUS
 62
3
100
AcDbBlockEnd
  0
BLOCK
  5
1FD
100
AcDbEntity
  8
MAIN0
  6
CONTINUOUS
 62
3
100
AcDbBlockBegin
  2
*D23
 70
    65
 10
0.0
 20
0.0
 30
0.0
  0
LINE
  5
1FE
100
AcDbEntity
  8
MAIN0
  6
BYBLOCK
 62
0
100
AcDbLine
 10
133.2412307437109
 20
146.9236231841308
 30
0.0000000000000000
 11
133.2412307436587
 21
129.6321553222939
 31
0.0000000000000000
  0
LINE
  5
1FF
100
AcDbEntity
  8
MAIN0
  6
BYBLOCK
 62
0
100
AcDbLine
 10
131.2412307436647
 20
131.6321553222999
 30
0.0000000000000000
 11
107.2412307436648
 21
131.6321553223723
 31
0.0000000000000000
  0
INSERT
  5
200
100
AcDbEntity
  8
MAIN0
  6
BYBLOCK
 62
0
100
AcDbBlockReference
  2
_OPEN
 10
133.2412307436647
 20
131.6321553222939
 30
0.0000000000000000
 41
2.000000000000000
 42
2.000000000000000
 43
2.000000000000000
 50
359.9999999998271
  0
INSERT
  5
201
100
AcDbEntity
  8
MAIN0
  6
BYBLOCK
 62
0
100
AcDbBlockReference
  2
_OPEN
 10
105.2412307436648
 20
131.6321553223784
 30
0.0000000000000000
 41
2.000000000000000
 42
2.000000000000000
 43
2.000000000000000
 50
179.9999999998271
  0
LINE
  5
202
100
AcDbEntity
  8
MAIN0
  6
BYBLOCK
 62
0
100
AcDbLine
 10
105.2412307436812
 20
137.0723500361231
 30
0.0000000000000000
 11
105.2412307436587
 21
129.6321553223784
 31
0.0000000000000000
  0
MTEXT
  5
203
100
AcDbEntity
  8
MAIN0
  6
BYBLOCK
 62
0
100
AcDbMText
 10
119.2412307436663
 20
133.6821552746524
 30
0.0000000000000000
 40
3.099999904632568
 41
0.0000000000000000
 71
     5
 72
     1
  1
\A1;28
 11
1.000000000000000
 21
0.0000000000000000
 31
0.0000000000000000
  7
STANDARD
  0
ENDBLK
  5
204
100
AcDbEntity
  8
MAIN0
  6
CONTINUOUS
 62
3
100
AcDbBlockEnd
  0
BLOCK
  5
206
100
AcDbEntity
  8
MAIN0
  6
CONTINUOUS
 62
3
100
AcDbBlockBegin
  2
*D24
 70
    65
 10
0.0
 20
0.0
 30
0.0
  0
LINE
  5
207
100
AcDbEntity
  8
MAIN0
  6
BYBLOCK
 62
0
100
AcDbLine
 10
105.2412307436812
 20
137.0723500361231
 30
0.0000000000000000
 11
105.2412307436587
 21
129.6321553223784
 31
0.0000000000000000
  0
LINE
  5
208
100
AcDbEntity
  8
MAIN0
  6
BYBLOCK
 62
0
100
AcDbLine
 10
103.2412307436647
 20
131.6321553223844
 30
0.0000000000000000
 11
90.24123074366474
 21
131.6321553224237
 31
0.0000000000000000
  0
INSERT
  5
209
100
AcDbEntity
  8
MAIN0
  6
BYBLOCK
 62
0
100
AcDbBlockReference
  2
_OPEN
 10
105.2412307436647
 20
131.6321553223784
 30
0.0000000000000000
 41
2.000000000000000
 42
2.000000000000000
 43
2.000000000000000
 50
359.9999999998270
  0
INSERT
  5
20A
100
AcDbEntity
  8
MAIN0
  6
BYBLOCK
 62
0
100
AcDbBlockReference
  2
_OPEN
 10
88.24123074366474
 20
131.6321553224297
 30
0.0000000000000000
 41
2.000000000000000
 42
2.000000000000000
 43
2.000000000000000
 50
179.9999999998270
  0
LINE
  5
20B
100
AcDbEntity
  8
MAIN0
  6
BYBLOCK
 62
0
100
AcDbLine
 10
88.24123074371093
 20
146.9236231842666
 30
0.0000000000000000
 11
88.24123074365872
 21
129.6321553224297
 31
0.0000000000000000
  0
MTEXT
  5
20C
100
AcDbEntity
  8
MAIN0
  6
BYBLOCK
 62
0
100
AcDbMText
 10
96.74123074366625
 20
133.6821552747203
 30
0.0000000000000000
 40
3.099999904632568
 41
0.0000000000000000
 71
     5
 72
     1
  1
\A1;17
 11
1.000000000000000
 21
0.0000000000000000
 31
0.0000000000000000
  7
STANDARD
  0
ENDBLK
  5
20D
100
AcDbEntity
  8
MAIN0
  6
CONTINUOUS
 62
3
100
AcDbBlockEnd
  0
BLOCK
  5
20F
100
AcDbEntity
  8
MAIN0
  6
CONTINUOUS
 62
3
100
AcDbBlockBegin
  2
*D25
 70
    65
 10
0.0
 20
0.0
 30
0.0
  0
LINE
  5
210
100
AcDbEntity
  8
MAIN0
  6
BYBLOCK
 62
0
100
AcDbLine
 10
144.2412307437525
 20
159.5096324800648
 30
0.0000000000000000
 11
146.2412307437508
 21
159.5096324800588
 31
0.0000000000000000
  0
INSERT
  5
211
100
AcDbEntity
  8
MAIN0
  6
BYBLOCK
 62
0
100
AcDbBlockReference
  2
_OPEN
 10
142.2412307437525
 20
159.5096324800709
 30
0.0000000000000000
 41
2.000000000000000
 42
2.000000000000000
 43
2.000000000000000
 50
179.9999999998274
  0
INSERT
  5
212
100
AcDbEntity
  8
MAIN0
  6
BYBLOCK
 62
0
100
AcDbBlockReference
  2
_OPEN
 10
148.2412307437508
 20
159.5096324800527
 30
0.0000000000000000
 41
2.000000000000000
 42
2.000000000000000
 43
2.000000000000000
 50
359.9999999998274
  0
LINE
  5
213
100
AcDbEntity
  8
MAIN0
  6
BYBLOCK
 62
0
100
AcDbLine
 10
148.2412307437412
 20
156.3236232079569
 30
0.0000000000000000
 11
148.2412307437568
 21
161.5096324800527
 31
0.0000000000000000
  0
MTEXT
  5
214
100
AcDbEntity
  8
MAIN0
  6
BYBLOCK
 62
0
100
AcDbMText
 10
145.2412307437532
 20
161.5596324323781
 30
0.0000000000000000
 40
3.099999904632568
 41
0.0000000000000000
 71
     5
 72
     1
  1
\A1;6
 11
1.000000000000000
 21
0.0000000000000000
 31
0.0000000000000000
  7
STANDARD
  0
ENDBLK
  5
215
100
AcDbEntity
  8
MAIN0
  6
CONTINUOUS
 62
3
100
AcDbBlockEnd
  0
BLOCK
  5
217
100
AcDbEntity
  8
MAIN0
  6
CONTINUOUS
 62
3
100
AcDbBlockBegin
  2
*D26
 70
    65
 10
0.0
 20
0.0
 30
0.0
  0
LINE
  5
218
100
AcDbEntity
  8
MAIN0
  6
BYBLOCK
 62
0
100
AcDbLine
 10
138.2412307437857
 20
170.3979004991047
 30
0.0000000000000000
 11
140.2412307437854
 21
170.3979004990986
 31
0.0000000000000000
  0
INSERT
  5
219
100
AcDbEntity
  8
MAIN0
  6
BYBLOCK
 62
0
100
AcDbBlockReference
  2
_OPEN
 10
136.2412307437857
 20
170.3979004991107
 30
0.0000000000000000
 41
2.000000000000000
 42
2.000000000000000
 43
2.000000000000000
 50
179.9999999998274
  0
INSERT
  5
21A
100
AcDbEntity
  8
MAIN0
  6
BYBLOCK
 62
0
100
AcDbBlockReference
  2
_OPEN
 10
142.2412307437854
 20
170.3979004990926
 30
0.0000000000000000
 41
2.000000000000000
 42
2.000000000000000
 43
2.000000000000000
 50
359.9999999998274
  0
LINE
  5
21B
100
AcDbEntity
  8
MAIN0
  6
BYBLOCK
 62
0
100
AcDbLine
 10
142.2412307437731
 20
166.3236232079761
 30
0.0000000000000000
 11
142.2412307437914
 21
172.3979004990926
 31
0.0000000000000000
  0
MTEXT
  5
21C
100
AcDbEntity
  8
MAIN0
  6
BYBLOCK
 62
0
100
AcDbMText
 10
139.2412307437870
 20
172.4479004514179
 30
0.0000000000000000
 40
3.099999904632568
 41
0.0000000000000000
 71
     5
 72
     1
  1
\A1;6
 11
1.000000000000000
 21
0.0000000000000000
 31
0.0000000000000000
  7
STANDARD
  0
ENDBLK
  5
21D
100
AcDbEntity
  8
MAIN0
  6
CONTINUOUS
 62
3
100
AcDbBlockEnd
  0
BLOCK
  5
2A6
100
AcDbEntity
  8
MAIN0
  6
CONTINUOUS
 62
3
100
AcDbBlockBegin
  2
*D27
 70
    65
 10
0.0
 20
0.0
 30
0.0
  0
LINE
  5
2A7
100
AcDbEntity
  8
MAIN0
  6
BYBLOCK
 62
0
100
AcDbLine
 10
206.2565570704955
 20
212.1119081196105
 30
0.0000000000000000
 11
198.3239105664091
 21
216.6918237141432
 31
0.0000000000000000
  0
LINE
  5
2A8
100
AcDbEntity
  8
MAIN0
  6
BYBLOCK
 62
0
100
AcDbLine
 10
192.3604433823996
 20
189.2236231959547
 30
0.0000000000000000
 11
190.9638284199913
 21
189.2236231959565
 31
0.0000000000000000
  0
ARC
  5
2A9
100
AcDbEntity
  8
MAIN0
  6
BYBLOCK
 62
0
100
AcDbCircle
 10
245.9002294563771
 20
189.2236231958952
 30
0.0000000000000000
 40
52.93640103638580
100
AcDbArc
 50
152.1647024878757
 51
177.8352975119944
  0
INSERT
  5
2AA
100
AcDbEntity
  8
MAIN0
  6
BYBLOCK
 62
0
100
AcDbBlockReference
  2
_OPEN
 10
200.0559613739768
 20
215.6918237141412
 30
0.0000000000000000
 41
2.000000000000000
 42
2.000000000000000
 43
2.000000000000000
 50
59.99999999993355
  0
INSERT
  5
2AB
100
AcDbEntity
  8
MAIN0
  6
BYBLOCK
 62
0
100
AcDbBlockReference
  2
_OPEN
 10
192.9638284199913
 20
189.2236231959539
 30
0.0000000000000000
 41
2.000000000000000
 42
2.000000000000000
 43
2.000000000000000
 50
269.9999999999365
  0
MTEXT
  5
2AC
100
AcDbEntity
  8
MAIN0
  6
BYBLOCK
 62
0
100
AcDbMText
 10
192.3044817335748
 20
203.5845605160274
 30
0.0000000000000000
 40
3.099999904632568
 41
0.0000000000000000
 71
     5
 72
     1
  1
\A1;30\U+00B0
 11
0.2588190451036161
 21
0.9659258262887748
 31
0.0000000000000000
  7
STANDARD
  0
ENDBLK
  5
2AD
100
AcDbEntity
  8
MAIN0
  6
CONTINUOUS
 62
3
100
AcDbBlockEnd
  0
BLOCK
  5
2AF
100
AcDbEntity
  8
MAIN0
  6
CONTINUOUS
 62
3
100
AcDbBlockBegin
  2
*D28
 70
    65
 10
0.0
 20
0.0
 30
0.0
  0
LINE
  5
2B0
100
AcDbEntity
  8
MAIN0
  6
BYBLOCK
 62
0
100
AcDbLine
 10
192.3604433823996
 20
189.2236231959547
 30
0.0000000000000000
 11
190.9638284199913
 21
189.2236231959565
 31
0.0000000000000000
  0
LINE
  5
2B1
100
AcDbEntity
  8
MAIN0
  6
BYBLOCK
 62
0
100
AcDbLine
 10
206.9796707578946
 20
166.7528281542130
 30
0.0000000000000000
 11
198.3239105664316
 21
161.7554226776082
 31
0.0000000000000000
  0
ARC
  5
2B2
100
AcDbEntity
  8
MAIN0
  6
BYBLOCK
 62
0
100
AcDbCircle
 10
245.9002294563771
 20
189.2236231958952
 30
0.0000000000000000
 40
52.93640103638580
100
AcDbArc
 50
182.1647024878786
 51
207.8352975121713
  0
INSERT
  5
2B3
100
AcDbEntity
  8
MAIN0
  6
BYBLOCK
 62
0
100
AcDbBlockReference
  2
_OPEN
 10
192.9638284199913
 20
189.2236231959539
 30
0.0000000000000000
 41
2.000000000000000
 42
2.000000000000000
 43
2.000000000000000
 50
89.99999999993651
  0
INSERT
  5
2B4
100
AcDbEntity
  8
MAIN0
  6
BYBLOCK
 62
0
100
AcDbBlockReference
  2
_OPEN
 10
200.0559613739985
 20
162.7554226776116
 30
0.0000000000000000
 41
2.000000000000000
 42
2.000000000000000
 43
2.000000000000000
 50
300.0000000001134
  0
MTEXT
  5
2B5
100
AcDbEntity
  8
MAIN0
  6
BYBLOCK
 62
0
100
AcDbMText
 10
192.3044817335647
 20
174.8626858758004
 30
0.0000000000000000
 40
3.099999904632568
 41
0.0000000000000000
 71
     5
 72
     1
  1
\A1;30\U+00B0
 11
-0.2588190451029408
 21
0.9659258262889557
 31
0.0000000000000000
  7
STANDARD
  0
ENDBLK
  5
2B6
100
AcDbEntity
  8
MAIN0
  6
CONTINUOUS
 62
3
100
AcDbBlockEnd
  0
BLOCK
  5
2B8
100
AcDbEntity
  8
MAIN0
  6
CONTINUOUS
 62
3
100
AcDbBlockBegin
  2
*D29
 70
    65
 10
0.0
 20
0.0
 30
0.0
  0
LINE
  5
2B9
100
AcDbEntity
  8
MAIN0
  6
BYBLOCK
 62
0
100
AcDbLine
 10
206.9796707578946
 20
166.7528281542130
 30
0.0000000000000000
 11
198.3239105664316
 21
161.7554226776082
 31
0.0000000000000000
  0
LINE
  5
2BA
100
AcDbEntity
  8
MAIN0
  6
BYBLOCK
 62
0
100
AcDbLine
 10
224.8580194702520
 20
152.7774463966866
 30
0.0000000000000000
 11
218.4320289380185
 21
141.6473043059910
 31
0.0000000000000000
  0
ARC
  5
2BB
100
AcDbEntity
  8
MAIN0
  6
BYBLOCK
 62
0
100
AcDbCircle
 10
245.9002294563771
 20
189.2236231958952
 30
0.0000000000000000
 40
52.93640103638580
100
AcDbArc
 50
212.1647024880554
 51
237.8352975118582
  0
INSERT
  5
2BC
100
AcDbEntity
  8
MAIN0
  6
BYBLOCK
 62
0
100
AcDbBlockReference
  2
_OPEN
 10
200.0559613739985
 20
162.7554226776116
 30
0.0000000000000000
 41
2.000000000000000
 42
2.000000000000000
 43
2.000000000000000
 50
120.0000000001134
  0
INSERT
  5
2BD
100
AcDbEntity
  8
MAIN0
  6
BYBLOCK
 62
0
100
AcDbBlockReference
  2
_OPEN
 10
219.4320289380245
 20
143.3793551135564
 30
0.0000000000000000
 41
2.000000000000000
 42
2.000000000000000
 43
2.000000000000000
 50
329.9999999998004
  0
MTEXT
  5
2BE
100
AcDbEntity
  8
MAIN0
  6
BYBLOCK
 62
0
100
AcDbMText
 10
210.2716635702195
 20
153.5950573097912
 30
0.0000000000000000
 40
3.099999904632568
 41
0.0000000000000000
 71
     5
 72
     1
  1
\A1;30\U+00B0
 11
0.7071067811860148
 21
-0.7071067811870803
 31
0.0000000000000000
  7
STANDARD
  0
ENDBLK
  5
2BF
100
AcDbEntity
  8
MAIN0
  6
CONTINUOUS
 62
3
100
AcDbBlockEnd
  0
BLOCK
  5
2C1
100
AcDbEntity
  8
MAIN0
  6
CONTINUOUS
 62
3
100
AcDbBlockBegin
  2
*D30
 70
    65
 10
0.0
 20
0.0
 30
0.0
  0
LINE
  5
2C2
100
AcDbEntity
  8
MAIN0
  6
BYBLOCK
 62
0
100
AcDbLine
 10
224.8580194702520
 20
152.7774463966866
 30
0.0000000000000000
 11
218.4320289380185
 21
141.6473043059910
 31
0.0000000000000000
  0
LINE
  5
2C3
100
AcDbEntity
  8
MAIN0
  6
BYBLOCK
 62
0
100
AcDbLine
 10
245.9002294564597
 20
140.7445841751209
 30
0.0000000000000000
 11
245.9002294564707
 21
134.2872221595094
 31
0.0000000000000000
  0
ARC
  5
2C4
100
AcDbEntity
  8
MAIN0
  6
BYBLOCK
 62
0
100
AcDbCircle
 10
245.9002294563771
 20
189.2236231958952
 30
0.0000000000000000
 40
52.93640103638580
100
AcDbArc
 50
242.1647024877424
 51
267.8352975121555
  0
INSERT
  5
2C5
100
AcDbEntity
  8
MAIN0
  6
BYBLOCK
 62
0
100
AcDbBlockReference
  2
_OPEN
 10
219.4320289380245
 20
143.3793551135564
 30
0.0000000000000000
 41
2.000000000000000
 42
2.000000000000000
 43
2.000000000000000
 50
149.9999999998004
  0
INSERT
  5
2C6
100
AcDbEntity
  8
MAIN0
  6
BYBLOCK
 62
0
100
AcDbBlockReference
  2
_OPEN
 10
245.9002294564673
 20
136.2872221595094
 30
0.0000000000000000
 41
2.000000000000000
 42
2.000000000000000
 43
2.000000000000000
 50
9.760015018400736e-011
  0
MTEXT
  5
2C7
100
AcDbEntity
  8
MAIN0
  6
BYBLOCK
 62
0
100
AcDbMText
 10
232.8592692416023
 20
140.5540970950445
 30
0.0000000000000000
 40
3.099999904632568
 41
0.0000000000000000
 71
     5
 72
     1
  1
\A1;30\U+00B0
 11
0.9659258262888377
 21
-0.2588190451033812
 31
0.0000000000000000
  7
STANDARD
  0
ENDBLK
  5
2C8
100
AcDbEntity
  8
MAIN0
  6
CONTINUOUS
 62
3
100
AcDbBlockEnd
  0
BLOCK
  5
2CA
100
AcDbEntity
  8
MAIN0
  6
CONTINUOUS
 62
3
100
AcDbBlockBegin
  2
*D31
 70
    65
 10
0.0
 20
0.0
 30
0.0
  0
LINE
  5
2CB
100
AcDbEntity
  8
MAIN0
  6
BYBLOCK
 62
0
100
AcDbLine
 10
245.9002294564597
 20
140.7445841751209
 30
0.0000000000000000
 11
245.9002294564707
 21
134.2872221595094
 31
0.0000000000000000
  0
LINE
  5
2CC
100
AcDbEntity
  8
MAIN0
  6
BYBLOCK
 62
0
100
AcDbLine
 10
266.9895190418414
 20
152.6959021384809
 30
0.0000000000000000
 11
273.3684299746508
 21
141.6473043059419
 31
0.0000000000000000
  0
ARC
  5
2CD
100
AcDbEntity
  8
MAIN0
  6
BYBLOCK
 62
0
100
AcDbCircle
 10
245.9002294563771
 20
189.2236231958952
 30
0.0000000000000000
 40
52.93640103638580
100
AcDbArc
 50
272.1647024880397
 51
297.8352975121551
  0
INSERT
  5
2CE
100
AcDbEntity
  8
MAIN0
  6
BYBLOCK
 62
0
100
AcDbBlockReference
  2
_OPEN
 10
245.9002294564673
 20
136.2872221595094
 30
0.0000000000000000
 41
2.000000000000000
 42
2.000000000000000
 43
2.000000000000000
 50
180.0000000000975
  0
INSERT
  5
2CF
100
AcDbEntity
  8
MAIN0
  6
BYBLOCK
 62
0
100
AcDbBlockReference
  2
_OPEN
 10
272.3684299746478
 20
143.3793551135091
 30
0.0000000000000000
 41
2.000000000000000
 42
2.000000000000000
 43
2.000000000000000
 50
30.00000000009726
  0
MTEXT
  5
2D0
100
AcDbEntity
  8
MAIN0
  6
BYBLOCK
 62
0
100
AcDbMText
 10
258.9411896711914
 20
140.5540970950551
 30
0.0000000000000000
 40
3.099999904632568
 41
0.0000000000000000
 71
     5
 72
     1
  1
\A1;30\U+00B0
 11
0.9659258262886281
 21
0.2588190451041634
 31
0.0000000000000000
  7
STANDARD
  0
ENDBLK
  5
2D1
100
AcDbEntity
  8
MAIN0
  6
CONTINUOUS
 62
3
100
AcDbBlockEnd
  0
BLOCK
  5
2D3
100
AcDbEntity
  8
MAIN0
  6
CONTINUOUS
 62
3
100
AcDbBlockBegin
  2
*D32
 70
    65
 10
0.0
 20
0.0
 30
0.0
  0
LINE
  5
2D4
100
AcDbEntity
  8
MAIN0
  6
BYBLOCK
 62
0
100
AcDbLine
 10
245.9002294565639
 20
236.8048440721726
 30
0.0000000000000000
 11
245.9002294565721
 21
244.1600242321972
 31
0.0000000000000000
  0
LINE
  5
2D5
100
AcDbEntity
  8
MAIN0
  6
BYBLOCK
 62
0
100
AcDbLine
 10
224.8570388358995
 20
225.6714985036346
 30
0.0000000000000000
 11
218.4320289380941
 21
236.7999420857307
 31
0.0000000000000000
  0
ARC
  5
2D6
100
AcDbEntity
  8
MAIN0
  6
BYBLOCK
 62
0
100
AcDbCircle
 10
245.9002294565112
 20
189.2236231954954
 30
0.0000000000000000
 40
52.93640103670180
100
AcDbArc
 50
92.16470248786561
 51
117.8352975121505
  0
INSERT
  5
2D7
100
AcDbEntity
  8
MAIN0
  6
BYBLOCK
 62
0
100
AcDbBlockReference
  2
_OPEN
 10
245.9002294565699
 20
242.1600242321972
 30
0.0000000000000000
 41
2.000000000000000
 42
2.000000000000000
 43
2.000000000000000
 50
359.9999999999365
  0
INSERT
  5
2D8
100
AcDbEntity
  8
MAIN0
  6
BYBLOCK
 62
0
100
AcDbBlockReference
  2
_OPEN
 10
219.4320289380966
 20
235.0678912781632
 30
0.0000000000000000
 41
2.000000000000000
 42
2.000000000000000
 43
2.000000000000000
 50
210.0000000000796
  0
MTEXT
  5
2D9
100
AcDbEntity
  8
MAIN0
  6
BYBLOCK
 62
0
100
AcDbMText
 10
231.6687016589018
 20
242.3364080054727
 30
0.0000000000000000
 40
3.099999904632568
 41
0.0000000000000000
 71
     5
 72
     1
  1
\A1;30\U+00B0
 11
0.9659258262890320
 21
0.2588190451026560
 31
0.0000000000000000
  7
STANDARD
  0
ENDBLK
  5
2DA
100
AcDbEntity
  8
MAIN0
  6
CONTINUOUS
 62
3
100
AcDbBlockEnd
  0
BLOCK
  5
2DC
100
AcDbEntity
  8
MAIN0
  6
CONTINUOUS
 62
3
100
AcDbBlockBegin
  2
*D33
 70
    65
 10
0.0
 20
0.0
 30
0.0
  0
LINE
  5
2DD
100
AcDbEntity
  8
MAIN0
  6
BYBLOCK
 62
0
100
AcDbLine
 10
224.8570388358995
 20
225.6714985036346
 30
0.0000000000000000
 11
218.4320289380941
 21
236.7999420857307
 31
0.0000000000000000
  0
LINE
  5
2DE
100
AcDbEntity
  8
MAIN0
  6
BYBLOCK
 62
0
100
AcDbLine
 10
206.2565570704955
 20
212.1119081196105
 30
0.0000000000000000
 11
198.3239105664738
 21
216.6918237141059
 31
0.0000000000000000
  0
ARC
  5
2DF
100
AcDbEntity
  8
MAIN0
  6
BYBLOCK
 62
0
100
AcDbCircle
 10
245.9002294562320
 20
189.2236231959790
 30
0.0000000000000000
 40
52.93640103614339
100
AcDbArc
 50
122.1647024880316
 51
147.8352975119816
  0
INSERT
  5
2E0
100
AcDbEntity
  8
MAIN0
  6
BYBLOCK
 62
0
100
AcDbBlockReference
  2
_OPEN
 10
219.4320289380966
 20
235.0678912781632
 30
0.0000000000000000
 41
2.000000000000000
 42
2.000000000000000
 43
2.000000000000000
 50
30.00000000007958
  0
INSERT
  5
2E1
100
AcDbEntity
  8
MAIN0
  6
BYBLOCK
 62
0
100
AcDbBlockReference
  2
_OPEN
 10
200.0559613740416
 20
215.6918237141038
 30
0.0000000000000000
 41
2.000000000000000
 42
2.000000000000000
 43
2.000000000000000
 50
239.9999999999336
  0
MTEXT
  5
2E2
100
AcDbEntity
  8
MAIN0
  6
BYBLOCK
 62
0
100
AcDbMText
 10
207.0189724442450
 20
228.1048802079570
 30
0.0000000000000000
 40
3.099999904632568
 41
0.0000000000000000
 71
     5
 72
     1
  1
\A1;30\U+00B0
 11
0.7071067811864662
 21
0.7071067811866288
 31
0.0000000000000000
  7
STANDARD
  0
ENDBLK
  5
2E3
100
AcDbEntity
  8
MAIN0
  6
CONTINUOUS
 62
3
100
AcDbBlockEnd
  0
BLOCK
  5
2E5
100
AcDbEntity
  8
MAIN0
  6
CONTINUOUS
 62
3
100
AcDbBlockBegin
  2
*D34
 70
    65
 10
0.0
 20
0.0
 30
0.0
  0
LINE
  5
2E6
100
AcDbEntity
  8
MAIN0
  6
BYBLOCK
 62
0
100
AcDbLine
 10
214.3864813922582
 20
177.8599229647737
 30
0.0000000000000000
 11
277.4139775207642
 21
200.5873234270166
 31
0.0000000000000000
  0
INSERT
  5
2E7
100
AcDbEntity
  8
MAIN0
  6
BYBLOCK
 62
0
100
AcDbBlockReference
  2
_OPEN
 10
212.5050635973774
 20
177.1814931002291
 30
0.0000000000000000
 41
2.000000000000000
 42
2.000000000000000
 43
2.000000000000000
 50
199.8290507285687
  0
INSERT
  5
2E8
100
AcDbEntity
  8
MAIN0
  6
BYBLOCK
 62
0
100
AcDbBlockReference
  2
_OPEN
 10
279.2953953156450
 20
201.2657532915611
 30
0.0000000000000000
 41
2.000000000000000
 42
2.000000000000000
 43
2.000000000000000
 50
19.82905072856866
  0
MTEXT
  5
2E9
100
AcDbEntity
  8
MAIN0
  6
BYBLOCK
 62
0
100
AcDbMText
 10
268.0408672829321
 20
199.1208772118866
 30
0.0000000000000000
 40
3.099999904632568
 41
0.0000000000000000
 71
     5
 72
     1
  1
\A1;\U+220571\H0.903226x;\U+00B10.2
 11
0.9407088974403884
 21
0.3392149322722818
 31
0.0000000000000000
  7
STANDARD
  0
ENDBLK
  5
2EA
100
AcDbEntity
  8
MAIN0
  6
CONTINUOUS
 62
3
100
AcDbBlockEnd
  0
BLOCK
  5
2EC
100
AcDbEntity
  8
MAIN0
  6
CONTINUOUS
 62
3
100
AcDbBlockBegin
  2
*D35
 70
    65
 10
0.0
 20
0.0
 30
0.0
  0
LINE
  5
2ED
100
AcDbEntity
  8
MAIN0
  6
BYBLOCK
 62
0
100
AcDbLine
 10
280.0193377519443
 20
194.3360051382490
 30
0.0000000000000000
 11
211.7811211610780
 21
184.1112412535413
 31
0.0000000000000000
  0
INSERT
  5
2EE
100
AcDbEntity
  8
MAIN0
  6
BYBLOCK
 62
0
100
AcDbBlockReference
  2
_OPEN
 10
281.9972570734187
 20
194.6323751059217
 30
0.0000000000000000
 41
2.000000000000000
 42
2.000000000000000
 43
2.000000000000000
 50
8.521758338741051
  0
INSERT
  5
2EF
100
AcDbEntity
  8
MAIN0
  6
BYBLOCK
 62
0
100
AcDbBlockReference
  2
_OPEN
 10
209.8032018396037
 20
183.8148712858686
 30
0.0000000000000000
 41
2.000000000000000
 42
2.000000000000000
 43
2.000000000000000
 50
188.5217583387411
  0
MTEXT
  5
2F0
100
AcDbEntity
  8
MAIN0
  6
BYBLOCK
 62
0
100
AcDbMText
 10
269.0947023720384
 20
194.5191602681478
 30
0.0000000000000000
 40
3.099999904632568
 41
0.0000000000000000
 71
     5
 72
     1
  1
\A1;\U+220573\H0.903226x;\U+00B10.2
 11
0.9889596607371923
 21
0.1481849838363435
 31
0.0000000000000000
  7
STANDARD
  0
ENDBLK
  5
2F1
100
AcDbEntity
  8
MAIN0
  6
CONTINUOUS
 62
3
100
AcDbBlockEnd
  0
BLOCK
  5
311
100
AcDbEntity
  8
MAIN0
  6
CONTINUOUS
 62
3
100
AcDbBlockBegin
  2
*D36
 70
    65
 10
0.0
 20
0.0
 30
0.0
  0
LINE
  5
312
100
AcDbEntity
  8
MAIN0
  6
BYBLOCK
 62
0
100
AcDbLine
 10
133.6412307555917
 20
159.2236231960493
 30
0.0000000000000000
 11
141.3918672741090
 21
159.2236231960025
 31
0.0000000000000000
  0
LINE
  5
313
100
AcDbEntity
  8
MAIN0
  6
BYBLOCK
 62
0
100
AcDbLine
 10
139.3918672740970
 20
157.2236231960146
 30
0.0000000000000000
 11
139.3918672740547
 21
150.2236231960146
 31
0.0000000000000000
  0
INSERT
  5
314
100
AcDbEntity
  8
MAIN0
  6
BYBLOCK
 62
0
100
AcDbBlockReference
  2
_OPEN
 10
139.3918672741090
 20
159.2236231960146
 30
0.0000000000000000
 41
2.000000000000000
 42
2.000000000000000
 43
2.000000000000000
 50
89.99999999965428
  0
INSERT
  5
315
100
AcDbEntity
  8
MAIN0
  6
BYBLOCK
 62
0
100
AcDbBlockReference
  2
_OPEN
 10
139.3918672740426
 20
148.2236231960146
 30
0.0000000000000000
 41
2.000000000000000
 42
2.000000000000000
 43
2.000000000000000
 50
269.9999999996543
  0
LINE
  5
316
100
AcDbEntity
  8
MAIN0
  6
BYBLOCK
 62
0
100
AcDbLine
 10
133.6412307555302
 20
148.2236231960493
 30
0.0000000000000000
 11
141.3918672740426
 21
148.2236231960025
 31
0.0000000000000000
  0
MTEXT
  5
317
100
AcDbEntity
  8
MAIN0
  6
BYBLOCK
 62
0
100
AcDbMText
 10
137.3418673217595
 20
153.7236231960176
 30
0.0000000000000000
 40
3.099999904632568
 41
0.0000000000000000
 71
     5
 72
     1
  1
\A1;\U+220511
 11
6.123233995736766e-017
 21
1.000000000000000
 31
0.0000000000000000
  7
STANDARD
  0
ENDBLK
  5
318
100
AcDbEntity
  8
MAIN0
  6
CONTINUOUS
 62
3
100
AcDbBlockEnd
  0
BLOCK
  5
31A
100
AcDbEntity
  8
MAIN0
  6
CONTINUOUS
 62
3
100
AcDbBlockBegin
  2
*D37
 70
    65
 10
0.0
 20
0.0
 30
0.0
  0
LINE
  5
31B
100
AcDbEntity
  8
MAIN0
  6
BYBLOCK
 62
0
100
AcDbLine
 10
87.84123073173757
 20
157.0236231963258
 30
0.0000000000000000
 11
66.38273292086765
 21
157.0236231964553
 31
0.0000000000000000
  0
LINE
  5
31C
100
AcDbEntity
  8
MAIN0
  6
BYBLOCK
 62
0
100
AcDbLine
 10
68.38273292086765
 20
157.0236231964432
 30
0.0000000000000000
 11
68.38273292082783
 21
150.4236231964432
 31
0.0000000000000000
  0
INSERT
  5
31D
100
AcDbEntity
  8
MAIN0
  6
BYBLOCK
 62
0
100
AcDbBlockReference
  2
_OPEN
 10
68.38273292086765
 20
157.0236231964432
 30
0.0000000000000000
 41
2.000000000000000
 42
2.000000000000000
 43
2.000000000000000
 50
269.9999999996543
  0
INSERT
  5
31E
100
AcDbEntity
  8
MAIN0
  6
BYBLOCK
 62
0
100
AcDbBlockReference
  2
_OPEN
 10
68.38273292082783
 20
150.4236231964432
 30
0.0000000000000000
 41
2.000000000000000
 42
2.000000000000000
 43
2.000000000000000
 50
89.99999999965434
  0
LINE
  5
31F
100
AcDbEntity
  8
MAIN0
  6
BYBLOCK
 62
0
100
AcDbLine
 10
68.38273292087970
 20
159.0236231964432
 30
0.0000000000000000
 11
68.38273292088576
 21
160.0236231964432
 31
0.0000000000000000
  0
LINE
  5
320
100
AcDbEntity
  8
MAIN0
  6
BYBLOCK
 62
0
100
AcDbLine
 10
68.38273292081576
 20
148.4236231964432
 30
0.0000000000000000
 11
68.38273292080973
 21
147.4236231964432
 31
0.0000000000000000
  0
LINE
  5
321
100
AcDbEntity
  8
MAIN0
  6
BYBLOCK
 62
0
100
AcDbLine
 10
87.84123073170065
 20
150.4236231963258
 30
0.0000000000000000
 11
66.38273292082783
 21
150.4236231964553
 31
0.0000000000000000
  0
MTEXT
  5
322
100
AcDbEntity
  8
MAIN0
  6
BYBLOCK
 62
0
100
AcDbMText
 10
66.33273296853145
 20
153.7236231964462
 30
0.0000000000000000
 40
3.099999904632568
 41
0.0000000000000000
 71
     5
 72
     1
  1
\A1;\U+22056.6
 11
6.123233995736766e-017
 21
1.000000000000000
 31
0.0000000000000000
  7
STANDARD
  0
ENDBLK
  5
323
100
AcDbEntity
  8
MAIN0
  6
CONTINUOUS
 62
3
100
AcDbBlockEnd
  0
BLOCK
  5
325
100
AcDbEntity
  8
MAIN0
  6
CONTINUOUS
 62
3
100
AcDbBlockBegin
  2
*D38
 70
    65
 10
0.0
 20
0.0
 30
0.0
  0
LINE
  5
326
100
AcDbEntity
  8
MAIN0
  6
BYBLOCK
 62
0
100
AcDbLine
 10
126.2412307436045
 20
147.4236231841731
 30
0.0000000000000000
 11
126.2412307435398
 21
136.7042026564823
 31
0.0000000000000000
  0
LINE
  5
327
100
AcDbEntity
  8
MAIN0
  6
BYBLOCK
 62
0
100
AcDbLine
 10
128.2412307435519
 20
138.7042026564703
 30
0.0000000000000000
 11
131.2412307436589
 21
138.7042026564521
 31
0.0000000000000000
  0
INSERT
  5
328
100
AcDbEntity
  8
MAIN0
  6
BYBLOCK
 62
0
100
AcDbBlockReference
  2
_OPEN
 10
126.2412307435518
 20
138.7042026564823
 30
0.0000000000000000
 41
2.000000000000000
 42
2.000000000000000
 43
2.000000000000000
 50
179.9999999996537
  0
INSERT
  5
329
100
AcDbEntity
  8
MAIN0
  6
BYBLOCK
 62
0
100
AcDbBlockReference
  2
_OPEN
 10
133.2412307436589
 20
138.7042026564401
 30
0.0000000000000000
 41
2.000000000000000
 42
2.000000000000000
 43
2.000000000000000
 50
359.9999999996537
  0
LINE
  5
32A
100
AcDbEntity
  8
MAIN0
  6
BYBLOCK
 62
0
100
AcDbLine
 10
133.2412307437085
 20
146.9236231841308
 30
0.0000000000000000
 11
133.2412307436468
 21
136.7042026564401
 31
0.0000000000000000
  0
MTEXT
  5
32B
100
AcDbEntity
  8
MAIN0
  6
BYBLOCK
 62
0
100
AcDbMText
 10
129.7412307436084
 20
140.7542026087775
 30
0.0000000000000000
 40
3.099999904632568
 41
0.0000000000000000
 71
     5
 72
     1
  1
\A1;7
 11
1.000000000000000
 21
0.0000000000000000
 31
0.0000000000000000
  7
STANDARD
  0
ENDBLK
  5
32C
100
AcDbEntity
  8
MAIN0
  6
CONTINUOUS
 62
3
100
AcDbBlockEnd
  0
BLOCK
  5
32E
100
AcDbEntity
  8
MAIN0
  6
CONTINUOUS
 62
3
100
AcDbBlockBegin
  2
*D39
 70
    65
 10
0.0
 20
0.0
 30
0.0
  0
LINE
  5
32F
100
AcDbEntity
  8
MAIN0
  6
BYBLOCK
 62
0
100
AcDbLine
 10
88.24123074371153
 20
146.9236231842666
 30
0.0000000000000000
 11
88.24123074367262
 21
129.6321553224297
 31
0.0000000000000000
  0
LINE
  5
330
100
AcDbEntity
  8
MAIN0
  6
BYBLOCK
 62
0
100
AcDbLine
 10
86.24123074367711
 20
131.6321553224297
 30
0.0000000000000000
 11
78.24123074362194
 21
131.6321553224297
 31
0.0000000000000000
  0
INSERT
  5
331
100
AcDbEntity
  8
MAIN0
  6
BYBLOCK
 62
0
100
AcDbBlockReference
  2
_OPEN
 10
88.24123074367711
 20
131.6321553224297
 30
0.0000000000000000
 41
2.000000000000000
 42
2.000000000000000
 43
2.000000000000000
 50
360.0000000000000
  0
INSERT
  5
332
100
AcDbEntity
  8
MAIN0
  6
BYBLOCK
 62
0
100
AcDbBlockReference
  2
_OPEN
 10
76.24123074362194
 20
131.6321553224297
 30
0.0000000000000000
 41
2.000000000000000
 42
2.000000000000000
 43
2.000000000000000
 50
180.0000000000000
  0
LINE
  5
333
100
AcDbEntity
  8
MAIN0
  6
BYBLOCK
 62
0
100
AcDbLine
 10
76.24123074362191
 20
149.9236231844749
 30
0.0000000000000000
 11
76.24123074362194
 21
129.6321553224297
 31
0.0000000000000000
  0
MTEXT
  5
334
100
AcDbEntity
  8
MAIN0
  6
BYBLOCK
 62
0
100
AcDbMText
 10
82.24123074364951
 20
133.6821552747460
 30
0.0000000000000000
 40
3.099999904632568
 41
0.0000000000000000
 71
     5
 72
     1
  1
\A1;12
 11
1.000000000000000
 21
0.0000000000000000
 31
0.0000000000000000
  7
STANDARD
  0
ENDBLK
  5
335
100
AcDbEntity
  8
MAIN0
  6
CONTINUOUS
 62
3
100
AcDbBlockEnd
  0
BLOCK
  5
36E
100
AcDbEntity
  8
MAIN0
  6
BYBLOCK
 62
3
100
AcDbBlockBegin
  2
*X0
 70
     1
 10
0.0
 20
0.0
 30
0.0
  0
LINE
  5
36F
100
AcDbEntity
  8
MAIN0
  6
BYBLOCK
 62
0
100
AcDbLine
 10
265.5364655357539
 20
85.59595891270203
 30
0.0000000000000000
 11
268.3648926604997
 21
88.42438603744778
 31
0.0000000000000000
  0
LINE
  5
370
100
AcDbEntity
  8
MAIN0
  6
BYBLOCK
 62
0
100
AcDbLine
 10
262.7080384110077
 20
85.59595891270247
 30
0.0000000000000000
 11
268.3648926605010
 21
91.25281316219582
 31
0.0000000000000000
  0
LINE
  5
371
100
AcDbEntity
  8
MAIN0
  6
BYBLOCK
 62
0
100
AcDbLine
 10
259.8796112862611
 20
85.59595891270251
 30
0.0000000000000000
 11
268.3648926605001
 21
94.08124028694206
 31
0.0000000000000000
  0
LINE
  5
372
100
AcDbEntity
  8
MAIN0
  6
BYBLOCK
 62
0
100
AcDbLine
 10
257.0511841615166
 20
85.59595891270473
 30
0.0000000000000000
 11
268.0511841615144
 21
96.59595891270247
 31
0.0000000000000000
  0
LINE
  5
373
100
AcDbEntity
  8
MAIN0
  6
BYBLOCK
 62
0
100
AcDbLine
 10
254.2227570367704
 20
85.59595891270520
 30
0.0000000000000000
 11
265.2227570367681
 21
96.59595891270294
 31
0.0000000000000000
  0
LINE
  5
374
100
AcDbEntity
  8
MAIN0
  6
BYBLOCK
 62
0
100
AcDbLine
 10
251.3943299120251
 20
85.59595891270658
 30
0.0000000000000000
 11
262.3943299120219
 21
96.59595891270341
 31
0.0000000000000000
  0
LINE
  5
375
100
AcDbEntity
  8
MAIN0
  6
BYBLOCK
 62
0
100
AcDbLine
 10
248.5659027872780
 20
85.59595891270611
 30
0.0000000000000000
 11
259.5659027872775
 21
96.59595891270566
 31
0.0000000000000000
  0
LINE
  5
376
100
AcDbEntity
  8
MAIN0
  6
BYBLOCK
 62
0
100
AcDbLine
 10
245.7374756625331
 20
85.59595891270794
 30
0.0000000000000000
 11
256.7374756625291
 21
96.59595891270385
 31
0.0000000000000000
  0
LINE
  5
377
100
AcDbEntity
  8
MAIN0
  6
BYBLOCK
 62
0
100
AcDbLine
 10
242.9090485377869
 20
85.59595891270840
 30
0.0000000000000000
 11
253.9090485377847
 21
96.59595891270612
 31
0.0000000000000000
  0
LINE
  5
378
100
AcDbEntity
  8
MAIN0
  6
BYBLOCK
 62
0
100
AcDbLine
 10
240.0806214130407
 20
85.59595891270885
 30
0.0000000000000000
 11
251.0806214130384
 21
96.59595891270659
 31
0.0000000000000000
  0
LINE
  5
379
100
AcDbEntity
  8
MAIN0
  6
BYBLOCK
 62
0
100
AcDbLine
 10
237.2521942882945
 20
85.59595891270935
 30
0.0000000000000000
 11
248.2521942882931
 21
96.59595891270844
 31
0.0000000000000000
  0
LINE
  5
37A
100
AcDbEntity
  8
MAIN0
  6
BYBLOCK
 62
0
100
AcDbLine
 10
234.4237671635496
 20
85.59595891271070
 30
0.0000000000000000
 11
245.4237671635469
 21
96.59595891270844
 31
0.0000000000000000
  0
LINE
  5
37B
100
AcDbEntity
  8
MAIN0
  6
BYBLOCK
 62
0
100
AcDbLine
 10
233.3648926604988
 20
87.36551153440689
 30
0.0000000000000000
 11
242.5953400388012
 21
96.59595891270931
 31
0.0000000000000000
  0
LINE
  5
37C
100
AcDbEntity
  8
MAIN0
  6
BYBLOCK
 62
0
100
AcDbLine
 10
233.3648926604997
 20
90.19393865915450
 30
0.0000000000000000
 11
239.7669129140545
 21
96.59595891270979
 31
0.0000000000000000
  0
LINE
  5
37D
100
AcDbEntity
  8
MAIN0
  6
BYBLOCK
 62
0
100
AcDbLine
 10
233.3648926604978
 20
93.02236578389935
 30
0.0000000000000000
 11
236.9384857893088
 21
96.59595891271027
 31
0.0000000000000000
  0
LINE
  5
37E
100
AcDbEntity
  8
MAIN0
  6
BYBLOCK
 62
0
100
AcDbLine
 10
233.3648926605001
 20
95.85079290864827
 30
0.0000000000000000
 11
234.1100586645630
 21
96.59595891271069
 31
0.0000000000000000
  0
ENDBLK
  5
37F
100
AcDbEntity
  8
MAIN0
  6
BYBLOCK
 62
3
100
AcDbBlockEnd
  0
BLOCK
  5
3AA
100
AcDbEntity
  8
MAIN0
  6
CONTINUOUS
 62
3
100
AcDbBlockBegin
  2
*D40
 70
    65
 10
0.0
 20
0.0
 30
0.0
  0
LINE
  5
3AB
100
AcDbEntity
  8
MAIN0
  6
BYBLOCK
 62
0
100
AcDbLine
 10
372.1742433835452
 20
243.8842608000863
 30
0.0000000000000000
 11
372.1742433835452
 21
262.8120509145440
 31
0.0000000000000000
  0
LINE
  5
3AC
100
AcDbEntity
  8
MAIN0
  6
BYBLOCK
 62
0
100
AcDbLine
 10
370.1742433835452
 20
260.8120509145440
 30
0.0000000000000000
 11
294.1742433835420
 21
260.8120509145440
 31
0.0000000000000000
  0
INSERT
  5
3AD
100
AcDbEntity
  8
MAIN0
  6
BYBLOCK
 62
0
100
AcDbBlockReference
  2
_OPEN
 10
372.1742433835452
 20
260.8120509145440
 30
0.0000000000000000
 41
2.000000000000000
 42
2.000000000000000
 43
2.000000000000000
 50
360.0000000000000
  0
INSERT
  5
3AE
100
AcDbEntity
  8
MAIN0
  6
BYBLOCK
 62
0
100
AcDbBlockReference
  2
_OPEN
 10
292.1742433835420
 20
260.8120509145440
 30
0.0000000000000000
 41
2.000000000000000
 42
2.000000000000000
 43
2.000000000000000
 50
180.0000000000000
  0
LINE
  5
3AF
100
AcDbEntity
  8
MAIN0
  6
BYBLOCK
 62
0
100
AcDbLine
 10
292.1742433835420
 20
243.8842608001176
 30
0.0000000000000000
 11
292.1742433835420
 21
262.8120509145440
 31
0.0000000000000000
  0
MTEXT
  5
3B0
100
AcDbEntity
  8
MAIN0
  6
BYBLOCK
 62
0
100
AcDbMText
 10
332.1742433835436
 20
262.8620508668603
 30
0.0000000000000000
 40
3.099999904632568
 41
0.0000000000000000
 71
     5
 72
     1
  1
\A1;110
 11
1.000000000000000
 21
0.0000000000000000
 31
0.0000000000000000
  7
STANDARD
  0
ENDBLK
  5
3B1
100
AcDbEntity
  8
MAIN0
  6
CONTINUOUS
 62
3
100
AcDbBlockEnd
  0
BLOCK
  5
3B3
100
AcDbEntity
  8
MAIN0
  6
CONTINUOUS
 62
3
100
AcDbBlockBegin
  2
*D41
 70
    65
 10
0.0
 20
0.0
 30
0.0
  0
LINE
  5
3B4
100
AcDbEntity
  8
MAIN0
  6
BYBLOCK
 62
0
100
AcDbLine
 10
318.5884235496764
 20
245.0842607881980
 30
0.0000000000000000
 11
318.5884235496764
 21
253.0842607881810
 31
0.0000000000000000
  0
INSERT
  5
3B5
100
AcDbEntity
  8
MAIN0
  6
BYBLOCK
 62
0
100
AcDbBlockReference
  2
_OPEN
 10
318.5884235496764
 20
243.0842607881980
 30
0.0000000000000000
 41
2.000000000000000
 42
2.000000000000000
 43
2.000000000000000
 50
270.0000000000000
  0
INSERT
  5
3B6
100
AcDbEntity
  8
MAIN0
  6
BYBLOCK
 62
0
100
AcDbBlockReference
  2
_OPEN
 10
318.5884235496764
 20
255.0842607881810
 30
0.0000000000000000
 41
2.000000000000000
 42
2.000000000000000
 43
2.000000000000000
 50
90.00000000000000
  0
LINE
  5
3B7
100
AcDbEntity
  8
MAIN0
  6
BYBLOCK
 62
0
100
AcDbLine
 10
324.9180931378771
 20
255.0842607881810
 30
0.0000000000000000
 11
316.5884235496764
 21
255.0842607881810
 31
0.0000000000000000
  0
MTEXT
  5
3B8
100
AcDbEntity
  8
MAIN0
  6
BYBLOCK
 62
0
100
AcDbMText
 10
316.5384235973601
 20
249.0842607881895
 30
0.0000000000000000
 40
3.099999904632568
 41
0.0000000000000000
 71
     5
 72
     1
  1
\A1;12
 11
6.123233995736766e-017
 21
1.000000000000000
 31
0.0000000000000000
  7
STANDARD
  0
ENDBLK
  5
3B9
100
AcDbEntity
  8
MAIN0
  6
CONTINUOUS
 62
3
100
AcDbBlockEnd
  0
BLOCK
  5
3C3
100
AcDbEntity
  8
MAIN0
  6
CONTINUOUS
 62
3
100
AcDbBlockBegin
  2
*D42
 70
    65
 10
0.0
 20
0.0
 30
0.0
  0
LINE
  5
3C4
100
AcDbEntity
  8
MAIN0
  6
BYBLOCK
 62
0
100
AcDbLine
 10
326.6742433835436
 20
225.2315374774606
 30
0.0000000000000000
 11
337.6742433835436
 21
225.2315374774606
 31
0.0000000000000000
  0
INSERT
  5
3C5
100
AcDbEntity
  8
MAIN0
  6
BYBLOCK
 62
0
100
AcDbBlockReference
  2
_OPEN
 10
324.6742433835436
 20
225.2315374774606
 30
0.0000000000000000
 41
2.000000000000000
 42
2.000000000000000
 43
2.000000000000000
 50
180.0000000000000
  0
INSERT
  5
3C6
100
AcDbEntity
  8
MAIN0
  6
BYBLOCK
 62
0
100
AcDbBlockReference
  2
_OPEN
 10
339.6742433835436
 20
225.2315374774606
 30
0.0000000000000000
 41
2.000000000000000
 42
2.000000000000000
 43
2.000000000000000
 50
0.0000000000000000
  0
MTEXT
  5
3C7
100
AcDbEntity
  8
MAIN0
  6
BYBLOCK
 62
0
100
AcDbMText
 10
332.1742433835436
 20
227.2815374297769
 30
0.0000000000000000
 40
3.099999904632568
 41
0.0000000000000000
 71
     5
 72
     1
  1
\A1;\U+220515
 11
1.000000000000000
 21
0.0000000000000000
 31
0.0000000000000000
  7
STANDARD
  0
ENDBLK
  5
3C8
100
AcDbEntity
  8
MAIN0
  6
CONTINUOUS
 62
3
100
AcDbBlockEnd
  0
BLOCK
  5
3CC
100
AcDbEntity
  8
MAIN0
  6
CONTINUOUS
 62
3
100
AcDbBlockBegin
  2
*D43
 70
    65
 10
0.0
 20
0.0
 30
0.0
  0
LINE
  5
3CD
100
AcDbEntity
  8
MAIN0
  6
BYBLOCK
 62
0
100
AcDbLine
 10
337.1742433954645
 20
190.0842607881793
 30
0.0000000000000000
 11
345.9483982941623
 21
190.0842607881793
 31
0.0000000000000000
  0
LINE
  5
3CE
100
AcDbEntity
  8
MAIN0
  6
BYBLOCK
 62
0
100
AcDbLine
 10
343.9483982941623
 20
192.0842607881793
 30
0.0000000000000000
 11
343.9483982941623
 21
198.0842607881792
 31
0.0000000000000000
  0
INSERT
  5
3CF
100
AcDbEntity
  8
MAIN0
  6
BYBLOCK
 62
0
100
AcDbBlockReference
  2
_OPEN
 10
343.9483982941623
 20
190.0842607881793
 30
0.0000000000000000
 41
2.000000000000000
 42
2.000000000000000
 43
2.000000000000000
 50
270.0000000000000
  0
INSERT
  5
3D0
100
AcDbEntity
  8
MAIN0
  6
BYBLOCK
 62
0
100
AcDbBlockReference
  2
_OPEN
 10
343.9483982941623
 20
200.0842607881792
 30
0.0000000000000000
 41
2.000000000000000
 42
2.000000000000000
 43
2.000000000000000
 50
90.00000000000000
  0
LINE
  5
3D1
100
AcDbEntity
  8
MAIN0
  6
BYBLOCK
 62
0
100
AcDbLine
 10
337.6742433954645
 20
200.0842607881792
 30
0.0000000000000000
 11
345.9483982941623
 21
200.0842607881792
 31
0.0000000000000000
  0
MTEXT
  5
3D2
100
AcDbEntity
  8
MAIN0
  6
BYBLOCK
 62
0
100
AcDbMText
 10
341.8983983418460
 20
195.0842607881793
 30
0.0000000000000000
 40
3.099999904632568
 41
0.0000000000000000
 71
     5
 72
     1
  1
\A1;10
 11
6.123233995736766e-017
 21
1.000000000000000
 31
0.0000000000000000
  7
STANDARD
  0
ENDBLK
  5
3D3
100
AcDbEntity
  8
MAIN0
  6
CONTINUOUS
 62
3
100
AcDbBlockEnd
  0
BLOCK
  5
3D5
100
AcDbEntity
  8
MAIN0
  6
CONTINUOUS
 62
3
100
AcDbBlockBegin
  2
*D44
 70
    65
 10
0.0
 20
0.0
 30
0.0
  0
LINE
  5
3D6
100
AcDbEntity
  8
MAIN0
  6
BYBLOCK
 62
0
100
AcDbLine
 10
337.1742433954645
 20
190.0842607881793
 30
0.0000000000000000
 11
351.6206563401732
 21
190.0842607881793
 31
0.0000000000000000
  0
LINE
  5
3D7
100
AcDbEntity
  8
MAIN0
  6
BYBLOCK
 62
0
100
AcDbLine
 10
349.6206563401732
 20
192.0842607881793
 30
0.0000000000000000
 11
349.6206563401732
 21
253.0842607881810
 31
0.0000000000000000
  0
INSERT
  5
3D8
100
AcDbEntity
  8
MAIN0
  6
BYBLOCK
 62
0
100
AcDbBlockReference
  2
_OPEN
 10
349.6206563401732
 20
190.0842607881793
 30
0.0000000000000000
 41
2.000000000000000
 42
2.000000000000000
 43
2.000000000000000
 50
270.0000000000000
  0
INSERT
  5
3D9
100
AcDbEntity
  8
MAIN0
  6
BYBLOCK
 62
0
100
AcDbBlockReference
  2
_OPEN
 10
349.6206563401732
 20
255.0842607881810
 30
0.0000000000000000
 41
2.000000000000000
 42
2.000000000000000
 43
2.000000000000000
 50
90.00000000000000
  0
LINE
  5
3DA
100
AcDbEntity
  8
MAIN0
  6
BYBLOCK
 62
0
100
AcDbLine
 10
339.1918567944933
 20
255.0842607881810
 30
0.0000000000000000
 11
351.6206563401732
 21
255.0842607881810
 31
0.0000000000000000
  0
MTEXT
  5
3DB
100
AcDbEntity
  8
MAIN0
  6
BYBLOCK
 62
0
100
AcDbMText
 10
347.5706563878569
 20
222.5842607881802
 30
0.0000000000000000
 40
3.099999904632568
 41
0.0000000000000000
 71
     5
 72
     1
  1
\A1;65
 11
6.123233995736766e-017
 21
1.000000000000000
 31
0.0000000000000000
  7
STANDARD
  0
ENDBLK
  5
3DC
100
AcDbEntity
  8
MAIN0
  6
CONTINUOUS
 62
3
100
AcDbBlockEnd
  0
BLOCK
  5
3DE
100
AcDbEntity
  8
MAIN0
  6
CONTINUOUS
 62
3
100
AcDbBlockBegin
  2
*D45
 70
    65
 10
0.0
 20
0.0
 30
0.0
  0
LINE
  5
3DF
100
AcDbEntity
  8
MAIN0
  6
BYBLOCK
 62
0
100
AcDbLine
 10
302.8245397548672
 20
245.0842607881912
 30
0.0000000000000000
 11
302.8245397548672
 21
241.0842607881912
 31
0.0000000000000000
  0
INSERT
  5
3E0
100
AcDbEntity
  8
MAIN0
  6
BYBLOCK
 62
0
100
AcDbBlockReference
  2
_OPEN
 10
302.8245397548672
 20
247.0842607881912
 30
0.0000000000000000
 41
2.000000000000000
 42
2.000000000000000
 43
2.000000000000000
 50
90.00000000000000
  0
INSERT
  5
3E1
100
AcDbEntity
  8
MAIN0
  6
BYBLOCK
 62
0
100
AcDbBlockReference
  2
_OPEN
 10
302.8245397548672
 20
239.0842607881912
 30
0.0000000000000000
 41
2.000000000000000
 42
2.000000000000000
 43
2.000000000000000
 50
270.0000000000000
  0
MTEXT
  5
3E2
100
AcDbEntity
  8
MAIN0
  6
BYBLOCK
 62
0
100
AcDbMText
 10
300.7745398025509
 20
243.0842607881912
 30
0.0000000000000000
 40
3.099999904632568
 41
0.0000000000000000
 71
     5
 72
     1
  1
\A1;\U+22058
 11
6.123233995736766e-017
 21
1.000000000000000
 31
0.0000000000000000
  7
STANDARD
  0
ENDBLK
  5
3E3
100
AcDbEntity
  8
MAIN0
  6
CONTINUOUS
 62
3
100
AcDbBlockEnd
  0
BLOCK
  5
3EB
100
AcDbEntity
  8
MAIN0
  6
CONTINUOUS
 62
3
100
AcDbBlockBegin
  2
*D46
 70
    65
 10
0.0
 20
0.0
 30
0.0
  0
LINE
  5
3EC
100
AcDbEntity
  8
MAIN0
  6
BYBLOCK
 62
0
100
AcDbLine
 10
334.0684931165104
 20
173.2685521482270
 30
0.0000000000000000
 11
330.2799936505768
 21
169.4205303451933
 31
0.0000000000000000
  0
INSERT
  5
3ED
100
AcDbEntity
  8
MAIN0
  6
BYBLOCK
 62
0
100
AcDbBlockReference
  2
_OPEN
 10
335.4716410668561
 20
174.6937454086097
 30
0.0000000000000000
 41
2.000000000000000
 42
2.000000000000000
 43
2.000000000000000
 50
45.44657894887530
  0
INSERT
  5
3EE
100
AcDbEntity
  8
MAIN0
  6
BYBLOCK
 62
0
100
AcDbBlockReference
  2
_OPEN
 10
328.8768457002311
 20
167.9953370848105
 30
0.0000000000000000
 41
2.000000000000000
 42
2.000000000000000
 43
2.000000000000000
 50
225.4465789488753
  0
LINE
  5
3EF
100
AcDbEntity
  8
MAIN0
  6
BYBLOCK
 62
0
100
AcDbLine
 10
335.4716410668561
 20
174.6937454086097
 30
0.0000000000000000
 11
342.2938922433110
 21
181.6231831738336
 31
0.0000000000000000
  0
MTEXT
  5
3F0
100
AcDbEntity
  8
MAIN0
  6
BYBLOCK
 62
0
100
AcDbMText
 10
338.0618517531696
 20
180.2466528663146
 30
0.0000000000000000
 40
3.099999904632568
 41
0.0000000000000000
 71
     5
 72
     1
  1
\A1;\U+22059.4
 11
0.7015739751728634
 21
0.7125966301914054
 31
0.0000000000000000
  7
STANDARD
  0
ENDBLK
  5
3F1
100
AcDbEntity
  8
MAIN0
  6
CONTINUOUS
 62
3
100
AcDbBlockEnd
  0
BLOCK
  5
3F3
100
AcDbEntity
  8
MAIN0
  6
CONTINUOUS
 62
3
100
AcDbBlockBegin
  2
*D47
 70
    65
 10
0.0
 20
0.0
 30
0.0
  0
LINE
  5
3F4
100
AcDbEntity
  8
MAIN0
  6
BYBLOCK
 62
0
100
AcDbLine
 10
332.4831623838606
 20
166.0858747779077
 30
0.0000000000000000
 11
338.6852200936172
 21
159.8838170681640
 31
0.0000000000000000
  0
LINE
  5
3F5
100
AcDbEntity
  8
MAIN0
  6
BYBLOCK
 62
0
100
AcDbLine
 10
338.6852200936143
 20
162.7122441929102
 30
0.0000000000000000
 11
340.8065404371719
 21
164.8335645364722
 31
0.0000000000000000
  0
INSERT
  5
3F6
100
AcDbEntity
  8
MAIN0
  6
BYBLOCK
 62
0
100
AcDbBlockReference
  2
_OPEN
 10
337.2710065312427
 20
161.2980306305356
 30
0.0000000000000000
 41
2.000000000000000
 42
2.000000000000000
 43
2.000000000000000
 50
225.0000000000599
  0
INSERT
  5
3F7
100
AcDbEntity
  8
MAIN0
  6
BYBLOCK
 62
0
100
AcDbBlockReference
  2
_OPEN
 10
342.2207539995436
 20
166.2477780988468
 30
0.0000000000000000
 41
2.000000000000000
 42
2.000000000000000
 43
2.000000000000000
 50
45.00000000005989
  0
LINE
  5
3F8
100
AcDbEntity
  8
MAIN0
  6
BYBLOCK
 62
0
100
AcDbLine
 10
342.2207539995436
 20
166.2477780988468
 30
0.0000000000000000
 11
349.2078632661193
 21
173.2348873654372
 31
0.0000000000000000
  0
LINE
  5
3F9
100
AcDbEntity
  8
MAIN0
  6
BYBLOCK
 62
0
100
AcDbLine
 10
337.4329098523680
 20
171.0356222460123
 30
0.0000000000000000
 11
343.6349675619180
 21
164.8335645364752
 31
0.0000000000000000
  0
MTEXT
  5
3FA
100
AcDbEntity
  8
MAIN0
  6
BYBLOCK
 62
0
100
AcDbMText
 10
344.7707679998426
 20
171.6969298345841
 30
0.0000000000000000
 40
3.099999904632568
 41
0.0000000000000000
 71
     5
 72
     1
  1
\A1;7\H0.903226x;\S 0^ -0.1;
 11
0.7071067811858092
 21
0.7071067811872859
 31
0.0000000000000000
  7
STANDARD
  0
ENDBLK
  5
3FB
100
AcDbEntity
  8
MAIN0
  6
CONTINUOUS
 62
3
100
AcDbBlockEnd
  0
ENDSEC
  0
SECTION
  2
ENTITIES
  0
DIMENSION
  5
4E
100
AcDbEntity
  8
MAIN0
  6
CONTINUOUS
 62
3
100
AcDbDimension
  2
*D0
 10
233.3648926605001
 20
101.2835706311234
 30
0.0000000000000000
 11
250.8648926605001
 21
101.7835706311234
 31
0.0000000000000000
 70
32
  3
MAIN001
100
AcDbAlignedDimension
 13
268.3648926605001
 23
96.59595891270161
 33
0.0000000000000000
 14
233.3648926605001
 24
96.59595891271127
 34
0.0000000000000000
100
AcDbRotatedDimension
1001
ACAD
1000
DSTYLE
1002
{
1070
   173
1070
     1
1070
     6
1000
_OPEN
1070
     7
1000
_OPEN
1070
    41
1040
2.000000
1002
}
  0
LINE
  5
4F
100
AcDbEntity
  8
MAIN0
  6
HIDDEN
 62
3
100
AcDbLine
 10
233.3648926605002
 20
111.5158790838897
 30
0.0000000000000000
 11
267.0081195278382
 21
111.5158790838897
 31
0.0000000000000000
  0
LINE
  5
50
100
AcDbEntity
  8
MAIN0
  6
HIDDEN
 62
3
100
AcDbLine
 10
233.3648926605002
 20
117.2158790840759
 30
0.0000000000000000
 11
267.0081195278225
 21
117.2158790840759
 31
0.0000000000000000
  0
DIMENSION
  5
59
100
AcDbEntity
  8
MAIN0
  6
CONTINUOUS
 62
3
100
AcDbDimension
  2
*D1
 10
278.1364553640724
 20
96.59595891270161
 30
0.0000000000000000
 11
277.6364553640724
 21
82.09595891270215
 31
0.0000000000000000
 70
32
  3
MAIN001
100
AcDbAlignedDimension
 13
264.3648926605001
 23
67.59595891270267
 33
0.0000000000000000
 14
267.8648926605001
 24
96.59595891270175
 34
0.0000000000000000
 50
90.00000000000000
100
AcDbRotatedDimension
1001
ACAD
1000
DSTYLE
1002
{
1070
   173
1070
     1
1070
     6
1000
_OPEN
1070
     7
1000
_OPEN
1070
    41
1040
2.000000
1002
}
  0
DIMENSION
  5
62
100
AcDbEntity
  8
MAIN0
  6
CONTINUOUS
 62
3
100
AcDbDimension
  2
*D2
 10
219.7860371481242
 20
81.59595891271279
 30
0.0000000000000000
 11
219.2860371481242
 21
89.09595891271198
 31
0.0000000000000000
 70
32
  3
MAIN001
100
AcDbAlignedDimension
 13
233.8648926605001
 23
96.59595891271117
 33
0.0000000000000000
 14
227.4048588863031
 24
81.59595891271293
 34
0.0000000000000000
 50
90.00000000000000
100
AcDbRotatedDimension
1001
ACAD
1000
DSTYLE
1002
{
1070
   173
1070
     1
1070
     6
1000
_OPEN
1070
     7
1000
_OPEN
1070
    41
1040
2.000000
1002
}
  0
DIMENSION
  5
6B
100
AcDbEntity
  8
MAIN0
  6
CONTINUOUS
 62
3
100
AcDbDimension
  2
*D3
 10
226.9349314136948
 20
85.59595891271131
 30
0.0000000000000000
 11
226.4349314136948
 21
91.09595891271131
 31
0.0000000000000000
 70
32
  3
MAIN001
100
AcDbAlignedDimension
 13
233.8648926605001
 23
96.59595891271117
 33
0.0000000000000000
 14
233.3648926604971
 24
85.59595891271131
 34
0.0000000000000000
 50
90.00000000000000
100
AcDbRotatedDimension
1001
ACAD
1000
DSTYLE
1002
{
1070
   173
1070
     1
1070
     6
1000
_OPEN
1070
     7
1000
_OPEN
1070
    41
1040
2.000000
1002
}
  0
LEADER
  5
6C
100
AcDbEntity
  8
MAIN0
  6
CONTINUOUS
 62
3
100
AcDbLeader
  3
MAIN001
 73
     0
 74
     0
 75
     1
 40
3.099999904632568
 41
20.29533554277532
 76
     3
 10
230.0636935555723
 20
81.59595891271219
 30
0.0000000000000000
 10
220.3656801977463
 20
55.54810761079565
 30
0.0000000000000000
 10
222.2906801419564
 20
55.54810761079565
 30
0.0000000000000000
340
6D
213
0.2046649340618387
223
-0.5000000000000000
233
0.0000000000000000
1001
ACAD
1000
DSTYLE
1002
{
1070
   147
1040
0.0
1070
    77
1070
     1
1070
   173
1070
     1
1070
     6
1000
_OPEN
1070
     7
1000
_OPEN
1002
}
  0
MTEXT
  5
6D
102
{ACAD_REACTORS
330
6C
102
}
100
AcDbEntity
  8
MAIN0
  6
CONTINUOUS
 62
3
100
AcDbMText
 10
222.0860152078945
 20
59.14810751542822
 30
0.0000000000000000
 40
3.099999904632568
 41
0.0000000000000000
 71
     1
 72
     1
  1
{\H0.93x;{チャック表面}}
 11
1.000000000000000
 21
0.0000000000000000
 31
0.0000000000000000
  7
KNJYOKO
  0
LEADER
  5
6E
100
AcDbEntity
  8
MAIN0
  6
CONTINUOUS
 62
3
100
AcDbLeader
  3
MAIN001
 73
     0
 74
     0
 75
     1
 40
3.099999904632568
 41
34.42100079154966
 76
     3
 10
257.9197992661308
 20
93.49525789800541
 30
0.0000000000000000
 10
272.7264829114143
 20
110.8071109006668
 30
0.0000000000000000
 10
274.6514828556244
 20
110.8071109006668
 30
0.0000000000000000
340
6F
213
0.0000000000000000
223
-0.5000000000000000
233
0.0000000000000000
1001
ACAD
1000
DSTYLE
1002
{
1070
   147
1040
0.0
1070
    77
1070
     1
1070
   173
1070
     1
1070
     6
1000
_DOT
1070
     7
1000
_DOT
1002
}
  0
MTEXT
  5
6F
102
{ACAD_REACTORS
330
6E
102
}
100
AcDbEntity
  8
MAIN0
  6
CONTINUOUS
 62
3
100
AcDbMText
 10
274.6524828556244
 20
114.4071108052993
 30
0.0000000000000000
 40
3.099999904632568
 41
0.0000000000000000
 71
     1
 72
     1
  1
{\H0.94x;{斜線部内成形可能範囲}}
 11
1.000000000000000
 21
0.0000000000000000
 31
0.0000000000000000
  7
KNJYOKO
  0
DIMENSION
  5
78
100
AcDbEntity
  8
MAIN0
  6
CONTINUOUS
 62
3
100
AcDbDimension
  2
*D4
 10
225.4623916034703
 20
119.8658790839614
 30
0.0000000000000000
 11
224.9623916034703
 21
114.3658790839614
 31
0.0000000000000000
 70
32
  3
MAIN001
100
AcDbAlignedDimension
 13
233.8648926605001
 23
108.8658790839614
 33
0.0000000000000000
 14
233.8648926605001
 24
119.8658790839614
 34
0.0000000000000000
 50
90.00000000000000
100
AcDbRotatedDimension
1001
ACAD
1000
DSTYLE
1002
{
1070
   173
1070
     1
1070
     6
1000
_OPEN
1070
     7
1000
_OPEN
1070
    41
1040
2.000000
1002
}
  0
LINE
  5
79
100
AcDbEntity
  8
MAIN0
  6
CONTINUOUS
 62
3
100
AcDbLine
 10
88.24123074371332
 20
147.7236231961875
 30
0.0000000000000000
 11
88.24123074396383
 21
230.7236231961875
 31
0.0000000000000000
  0
LINE
  5
7A
100
AcDbEntity
  8
MAIN0
  6
CONTINUOUS
 62
3
100
AcDbLine
 10
99.24123074379330
 20
174.2236231961543
 30
0.0000000000000000
 11
99.24123074388385
 21
204.2236231961543
 31
0.0000000000000000
  0
LINE
  5
7B
100
AcDbEntity
  8
MAIN0
  6
CONTINUOUS
 62
3
100
AcDbLine
 10
99.24123074388234
 20
203.7236231961543
 30
0.0000000000000000
 11
103.3783594921173
 21
203.7236231961418
 31
0.0000000000000000
  0
LINE
  5
7C
100
AcDbEntity
  8
MAIN0
  6
CONTINUOUS
 62
3
100
AcDbLine
 10
93.24123074393063
 20
219.7236231961724
 30
0.0000000000000000
 11
104.7572174504643
 21
219.7236231961377
 31
0.0000000000000000
  0
LINE
  5
7D
100
AcDbEntity
  8
MAIN0
  6
CONTINUOUS
 62
3
100
AcDbLine
 10
89.24123074396684
 20
231.7236231961845
 30
0.0000000000000000
 11
132.2412307439668
 21
231.7236231960547
 31
0.0000000000000000
  0
LINE
  5
7E
100
AcDbEntity
  8
MAIN0
  6
CONTINUOUS
 62
3
100
AcDbLine
 10
88.24123074396380
 20
230.7236231961875
 30
0.0000000000000000
 11
89.24123074396678
 21
231.7236231961845
 31
0.0000000000000000
  0
ARC
  5
7F
100
AcDbEntity
  8
MAIN0
  6
CONTINUOUS
 62
3
100
AcDbCircle
 10
132.2412307439639
 20
230.7236231960547
 30
0.0000000000000000
 40
1.000000000000000
100
AcDbArc
 50
359.9999999998271
 51
449.9999999998271
  0
LINE
  5
80
100
AcDbEntity
  8
MAIN0
  6
CONTINUOUS
 62
3
100
AcDbLine
 10
88.24123074392912
 20
219.2236231961875
 30
0.0000000000000000
 11
93.24123074392918
 21
219.2236231961724
 31
0.0000000000000000
  0
LINE
  5
81
100
AcDbEntity
  8
MAIN0
  6
PHANTOM
 62
3
100
AcDbLine
 10
133.2412307438552
 20
194.7236231960517
 30
0.0000000000000000
 11
147.7412307438552
 21
194.7236231960080
 31
0.0000000000000000
  0
LINE
  5
82
100
AcDbEntity
  8
MAIN0
  6
CONTINUOUS
 62
3
100
AcDbLine
 10
88.24123074371329
 20
147.7236231961875
 30
0.0000000000000000
 11
89.24123074371028
 21
146.7236231961845
 31
0.0000000000000000
  0
ARC
  5
83
100
AcDbEntity
  8
MAIN0
  6
CONTINUOUS
 62
3
100
AcDbCircle
 10
132.2412307437133
 20
147.7236231960547
 30
0.0000000000000000
 40
1.000000000000000
100
AcDbArc
 50
269.9999999998271
 51
359.9999999998271
  0
LINE
  5
84
100
AcDbEntity
  8
MAIN0
  6
CONTINUOUS
 62
3
100
AcDbLine
 10
88.24123074374802
 20
159.2236231961875
 30
0.0000000000000000
 11
93.24123074374808
 21
159.2236231961724
 31
0.0000000000000000
  0
LINE
  5
85
100
AcDbEntity
  8
MAIN0
  6
PHANTOM
 62
3
100
AcDbLine
 10
133.2412307438220
 20
183.7236231960517
 30
0.0000000000000000
 11
147.7412307438220
 21
183.7236231960080
 31
0.0000000000000000
  0
LINE
  5
86
100
AcDbEntity
  8
MAIN0
  6
CENTER
 62
3
100
AcDbLine
 10
86.63289551107363
 20
225.7236231961924
 30
0.0000000000000000
 11
108.2414037469489
 21
225.7236231961272
 31
0.0000000000000000
  0
LINE
  5
87
100
AcDbEntity
  8
MAIN0
  6
PHANTOM
 62
3
100
AcDbLine
 10
88.24123074395862
 20
229.0236231961875
 30
0.0000000000000000
 11
89.04123074395631
 21
228.2236231961850
 31
0.0000000000000000
  0
LINE
  5
88
100
AcDbEntity
  8
MAIN0
  6
PHANTOM
 62
3
100
AcDbLine
 10
89.04123074395628
 20
228.2236231961851
 30
0.0000000000000000
 11
89.04123074394119
 21
223.2236231961851
 31
0.0000000000000000
  0
LINE
  5
89
100
AcDbEntity
  8
MAIN0
  6
PHANTOM
 62
3
100
AcDbLine
 10
89.04123074394124
 20
223.2236231961851
 30
0.0000000000000000
 11
88.24123074393884
 21
222.4236231961876
 31
0.0000000000000000
  0
LINE
  5
8A
100
AcDbEntity
  8
MAIN0
  6
PHANTOM
 62
3
100
AcDbLine
 10
88.54123074395778
 20
228.7236231961866
 30
0.0000000000000000
 11
101.2412307439578
 21
228.7236231961483
 31
0.0000000000000000
  0
LINE
  5
8B
100
AcDbEntity
  8
MAIN0
  6
PHANTOM
 62
3
100
AcDbLine
 10
101.2412307439578
 20
228.7236231961483
 30
0.0000000000000000
 11
101.2412307439397
 21
222.7236231961483
 31
0.0000000000000000
  0
LINE
  5
8C
100
AcDbEntity
  8
MAIN0
  6
PHANTOM
 62
3
100
AcDbLine
 10
101.2412307439397
 20
222.7236231961483
 30
0.0000000000000000
 11
88.54123074393968
 21
222.7236231961866
 31
0.0000000000000000
  0
LINE
  5
8D
100
AcDbEntity
  8
MAIN0
  6
PHANTOM
 62
3
100
AcDbLine
 10
89.04123074395628
 20
228.2236231961851
 30
0.0000000000000000
 11
105.2412307439563
 21
228.2236231961362
 31
0.0000000000000000
  0
LINE
  5
8E
100
AcDbEntity
  8
MAIN0
  6
PHANTOM
 62
3
100
AcDbLine
 10
105.2412307439563
 20
228.2236231961362
 30
0.0000000000000000
 11
105.2412307439412
 21
223.2236231961362
 31
0.0000000000000000
  0
LINE
  5
8F
100
AcDbEntity
  8
MAIN0
  6
PHANTOM
 62
3
100
AcDbLine
 10
105.2412307439412
 20
223.2236231961362
 30
0.0000000000000000
 11
89.04123074394119
 21
223.2236231961851
 31
0.0000000000000000
  0
LINE
  5
90
100
AcDbEntity
  8
MAIN0
  6
PHANTOM
 62
3
100
AcDbLine
 10
105.2412307439563
 20
228.2236231961363
 30
0.0000000000000000
 11
106.6846064169229
 21
225.7236231961319
 31
0.0000000000000000
  0
LINE
  5
91
100
AcDbEntity
  8
MAIN0
  6
PHANTOM
 62
3
100
AcDbLine
 10
106.6846064169228
 20
225.7236231961319
 30
0.0000000000000000
 11
105.2412307439412
 21
223.2236231961362
 31
0.0000000000000000
  0
LINE
  5
92
100
AcDbEntity
  8
MAIN0
  6
CONTINUOUS
 62
3
100
AcDbLine
 10
99.24123074388385
 20
204.2236231961543
 30
0.0000000000000000
 11
103.3986964954038
 21
204.2236231961418
 31
0.0000000000000000
  0
LINE
  5
93
100
AcDbEntity
  8
MAIN0
  6
CONTINUOUS
 62
3
100
AcDbLine
 10
96.74123074389442
 20
207.7236231961619
 30
0.0000000000000000
 11
103.4786481936146
 21
207.7236231961416
 31
0.0000000000000000
  0
LINE
  5
94
100
AcDbEntity
  8
MAIN0
  6
CONTINUOUS
 62
3
100
AcDbLine
 10
91.74123074374802
 20
159.2236231961770
 30
0.0000000000000000
 11
91.74123074392912
 21
219.2236231961770
 31
0.0000000000000000
  0
LINE
  5
95
100
AcDbEntity
  8
MAIN0
  6
CONTINUOUS
 62
3
100
AcDbLine
 10
91.74123074392912
 20
219.2236231961770
 30
0.0000000000000000
 11
95.74123074392912
 21
219.2236231961649
 31
0.0000000000000000
  0
LINE
  5
96
100
AcDbEntity
  8
MAIN0
  6
CONTINUOUS
 62
3
100
AcDbLine
 10
95.74123074389522
 20
207.9915723885960
 30
0.0000000000000000
 11
95.74123074392912
 21
219.2236231961649
 31
0.0000000000000000
  0
LINE
  5
97
100
AcDbEntity
  8
MAIN0
  6
CONTINUOUS
 62
3
100
AcDbLine
 10
94.74123074390045
 20
209.7236231961679
 30
0.0000000000000000
 11
94.74123074391477
 21
214.4736231961679
 31
0.0000000000000000
  0
ARC
  5
98
100
AcDbEntity
  8
MAIN0
  6
CONTINUOUS
 62
3
100
AcDbCircle
 10
95.74123074391480
 20
214.4736231961649
 30
0.0000000000000000
 40
1.000000000000000
100
AcDbArc
 50
89.99999999982708
 51
179.9999999998271
  0
ARC
  5
99
100
AcDbEntity
  8
MAIN0
  6
CONTINUOUS
 62
3
100
AcDbCircle
 10
96.74123074390047
 20
209.7236231961619
 30
0.0000000000000000
 40
2.000000000000000
100
AcDbArc
 50
179.9999999998271
 51
269.9999999998271
  0
ARC
  5
9A
100
AcDbEntity
  8
MAIN0
  6
CONTINUOUS
 62
3
100
AcDbCircle
 10
96.74123074377673
 20
168.7236231961619
 30
0.0000000000000000
 40
2.000000000000000
100
AcDbArc
 50
89.99999999982708
 51
179.9999999998271
  0
LINE
  5
9B
100
AcDbEntity
  8
MAIN0
  6
CONTINUOUS
 62
3
100
AcDbLine
 10
95.74123074378193
 20
170.4556740037338
 30
0.0000000000000000
 11
95.74123074376138
 21
163.6464968104674
 31
0.0000000000000000
  0
LINE
  5
9C
100
AcDbEntity
  8
MAIN0
  6
CONTINUOUS
 62
3
100
AcDbLine
 10
94.74123074377670
 20
168.7236231961679
 30
0.0000000000000000
 11
94.74123074376237
 21
163.9736231961679
 31
0.0000000000000000
  0
ARC
  5
9D
100
AcDbEntity
  8
MAIN0
  6
CONTINUOUS
 62
3
100
AcDbCircle
 10
95.74123074376240
 20
163.9736231961649
 30
0.0000000000000000
 40
1.000000000000000
100
AcDbArc
 50
179.9999999998271
 51
253.7109381157311
  0
LINE
  5
9E
100
AcDbEntity
  8
MAIN0
  6
CONTINUOUS
 62
3
100
AcDbLine
 10
91.74123074374802
 20
159.2236231961770
 30
0.0000000000000000
 11
94.26368566456173
 21
159.2236231961693
 31
0.0000000000000000
  0
LINE
  5
9F
100
AcDbEntity
  8
MAIN0
  6
CONTINUOUS
 62
3
100
AcDbLine
 10
93.24123074374651
 20
158.7236231961724
 30
0.0000000000000000
 11
93.24123074374802
 21
159.2236231961724
 31
0.0000000000000000
  0
LINE
  5
A0
100
AcDbEntity
  8
MAIN0
  6
CONTINUOUS
 62
3
100
AcDbLine
 10
93.24123074392912
 20
219.2236231961724
 30
0.0000000000000000
 11
93.24123074393063
 21
219.7236231961724
 31
0.0000000000000000
  0
LINE
  5
A1
100
AcDbEntity
  8
MAIN0
  6
CENTER
 62
3
100
AcDbLine
 10
85.11892577007913
 20
200.7236231961969
 30
0.0000000000000000
 11
105.7570763300040
 21
200.7236231961347
 31
0.0000000000000000
  0
LINE
  5
A2
100
AcDbEntity
  8
MAIN0
  6
PHANTOM
 62
3
100
AcDbLine
 10
92.74123074388143
 20
203.4236231961739
 30
0.0000000000000000
 11
96.24123074388143
 21
203.4236231961634
 31
0.0000000000000000
  0
LINE
  5
A3
100
AcDbEntity
  8
MAIN0
  6
PHANTOM
 62
3
100
AcDbLine
 10
96.24123074387902
 20
202.6236231961634
 30
0.0000000000000000
 11
99.24123074387902
 21
202.6236231961543
 31
0.0000000000000000
  0
LINE
  5
A4
100
AcDbEntity
  8
MAIN0
  6
CONTINUOUS
 62
3
100
AcDbLine
 10
92.74123074379480
 20
174.7236231961612
 30
0.0000000000000000
 11
92.74123074388234
 21
203.7236231961867
 31
0.0000000000000000
  0
LINE
  5
A5
100
AcDbEntity
  8
MAIN0
  6
PHANTOM
 62
3
100
AcDbLine
 10
96.24123074386512
 20
198.0236231961634
 30
0.0000000000000000
 11
96.24123074388143
 21
203.4236231961634
 31
0.0000000000000000
  0
LINE
  5
A6
100
AcDbEntity
  8
MAIN0
  6
CONTINUOUS
 62
3
100
AcDbLine
 10
91.74123074388524
 20
204.7236231961896
 30
0.0000000000000000
 11
92.74123074388226
 21
203.7236231961866
 31
0.0000000000000000
  0
LINE
  5
A7
100
AcDbEntity
  8
MAIN0
  6
PHANTOM
 62
3
100
AcDbLine
 10
92.74123074386512
 20
198.0236231961740
 30
0.0000000000000000
 11
96.24123074386512
 21
198.0236231961634
 31
0.0000000000000000
  0
LINE
  5
A8
100
AcDbEntity
  8
MAIN0
  6
PHANTOM
 62
3
100
AcDbLine
 10
96.24123074386753
 20
198.8236231961634
 30
0.0000000000000000
 11
99.24123074386753
 21
198.8236231961543
 31
0.0000000000000000
  0
LINE
  5
A9
100
AcDbEntity
  8
MAIN0
  6
CONTINUOUS
 62
3
100
AcDbLine
 10
91.74123074379173
 20
173.7236231961643
 30
0.0000000000000000
 11
92.74123074379475
 21
174.7236231961612
 31
0.0000000000000000
  0
LINE
  5
AA
100
AcDbEntity
  8
MAIN0
  6
CONTINUOUS
 62
3
100
AcDbLine
 10
121.7412307439668
 20
231.7236231960864
 30
0.0000000000000000
 11
135.4412307439669
 21
231.7236231960451
 31
0.0000000000000000
  0
LINE
  5
AB
100
AcDbEntity
  8
MAIN0
  6
CONTINUOUS
 62
3
100
AcDbLine
 10
135.7412307439518
 20
226.7236231960442
 30
0.0000000000000000
 11
136.2412307439518
 21
226.7236231960426
 31
0.0000000000000000
  0
LINE
  5
AC
100
AcDbEntity
  8
MAIN0
  6
CONTINUOUS
 62
3
100
AcDbLine
 10
148.2412307438621
 20
197.0236231960065
 30
0.0000000000000000
 11
148.2412307438935
 21
207.4236231960064
 31
0.0000000000000000
  0
LINE
  5
AD
100
AcDbEntity
  8
MAIN0
  6
CONTINUOUS
 62
3
100
AcDbLine
 10
136.2412307439282
 20
218.9236231957796
 30
0.0000000000000000
 11
136.2412307439518
 21
226.7236231960426
 31
0.0000000000000000
  0
LINE
  5
AE
100
AcDbEntity
  8
MAIN0
  6
CONTINUOUS
 62
3
100
AcDbLine
 10
142.2412307438980
 20
208.9236231957615
 30
0.0000000000000000
 11
142.2412307439237
 21
217.4236231960246
 31
0.0000000000000000
  0
LINE
  5
AF
100
AcDbEntity
  8
MAIN0
  6
CONTINUOUS
 62
3
100
AcDbLine
 10
135.7412307439518
 20
226.7236231960442
 30
0.0000000000000000
 11
135.7412307439659
 21
231.4236231960442
 31
0.0000000000000000
  0
LINE
  5
B0
100
AcDbEntity
  8
MAIN0
  6
CONTINUOUS
 62
3
100
AcDbLine
 10
147.9412307438613
 20
196.7236231960073
 30
0.0000000000000000
 11
148.2412307438622
 21
197.0236231960064
 31
0.0000000000000000
  0
LINE
  5
B1
100
AcDbEntity
  8
MAIN0
  6
CONTINUOUS
 62
3
100
AcDbLine
 10
147.9412307438944
 20
207.7236231960073
 30
0.0000000000000000
 11
148.2412307438935
 21
207.4236231960064
 31
0.0000000000000000
  0
LINE
  5
B2
100
AcDbEntity
  8
MAIN0
  6
CONTINUOUS
 62
3
100
AcDbLine
 10
141.9412307439245
 20
217.7236231960254
 30
0.0000000000000000
 11
142.2412307439237
 21
217.4236231960245
 31
0.0000000000000000
  0
LINE
  5
B3
100
AcDbEntity
  8
MAIN0
  6
CONTINUOUS
 62
3
100
AcDbLine
 10
135.4412307439669
 20
231.7236231960449
 30
0.0000000000000000
 11
135.7412307439659
 21
231.4236231960441
 31
0.0000000000000000
  0
LINE
  5
B4
100
AcDbEntity
  8
MAIN0
  6
CONTINUOUS
 62
3
100
AcDbLine
 10
136.5412307441753
 20
217.2040079539456
 30
0.0000000000000000
 11
137.4412307438763
 21
217.7236231960390
 31
0.0000000000000000
  0
LINE
  5
B5
100
AcDbEntity
  8
MAIN0
  6
CONTINUOUS
 62
3
100
AcDbLine
 10
135.7216155019074
 20
218.0236231962192
 30
0.0000000000000000
 11
136.2412307439281
 21
218.9236231957797
 31
0.0000000000000000
  0
ARC
  5
B6
100
AcDbEntity
  8
MAIN0
  6
CONTINUOUS
 62
3
100
AcDbCircle
 10
136.2412307441772
 20
217.7236231962174
 30
0.0000000000000000
 40
0.6000000000000000
100
AcDbArc
 50
149.9999999998169
 51
299.9999999997853
  0
LINE
  5
B7
100
AcDbEntity
  8
MAIN0
  6
CONTINUOUS
 62
3
100
AcDbLine
 10
141.7216155018773
 20
208.0236231962011
 30
0.0000000000000000
 11
142.2412307438979
 21
208.9236231957616
 31
0.0000000000000000
  0
ARC
  5
B8
100
AcDbEntity
  8
MAIN0
  6
CONTINUOUS
 62
3
100
AcDbCircle
 10
142.2412307441471
 20
207.7236231961993
 30
0.0000000000000000
 40
0.6000000000000000
100
AcDbArc
 50
149.9999999998169
 51
299.9999999997853
  0
LINE
  5
B9
100
AcDbEntity
  8
MAIN0
  6
CONTINUOUS
 62
3
100
AcDbLine
 10
142.5412307441451
 20
207.2040079539275
 30
0.0000000000000000
 11
143.4412307438461
 21
207.7236231960209
 31
0.0000000000000000
  0
LINE
  5
BA
100
AcDbEntity
  8
MAIN0
  6
CONTINUOUS
 62
3
100
AcDbLine
 10
133.2412307438698
 20
199.5936893155104
 30
0.0000000000000000
 11
148.2412307438699
 21
199.5936893154534
 31
0.0000000000000000
  0
LINE
  5
BB
100
AcDbEntity
  8
MAIN0
  6
CENTER
 62
3
100
AcDbLine
 10
145.6412307438883
 20
205.7082900931009
 30
0.0000000000000000
 11
145.6412307438969
 21
208.5463088947329
 31
0.0000000000000000
  0
LINE
  5
BC
100
AcDbEntity
  8
MAIN0
  6
CONTINUOUS
 62
3
100
AcDbLine
 10
145.8144358245497
 20
206.9843927114733
 30
0.0000000000000000
 11
146.2412307437941
 21
207.7236231960123
 31
0.0000000000000000
  0
LINE
  5
BD
100
AcDbEntity
  8
MAIN0
  6
CONTINUOUS
 62
3
100
AcDbLine
 10
145.0412307437963
 20
207.7236231960162
 30
0.0000000000000000
 11
145.4680256630360
 21
206.9843927114745
 31
0.0000000000000000
  0
ARC
  5
BE
100
AcDbEntity
  8
MAIN0
  6
CONTINUOUS
 62
3
100
AcDbCircle
 10
145.6412307437931
 20
207.0843927114738
 30
0.0000000000000000
 40
0.2000000000000000
100
AcDbArc
 50
209.9999999998021
 51
329.9999999998340
  0
LINE
  5
BF
100
AcDbEntity
  8
MAIN0
  6
CONTINUOUS
 62
3
100
AcDbLine
 10
143.4412307438460
 20
207.7236231960209
 30
0.0000000000000000
 11
145.0412307437962
 21
207.7236231960161
 31
0.0000000000000000
  0
LINE
  5
C0
100
AcDbEntity
  8
MAIN0
  6
CONTINUOUS
 62
3
100
AcDbLine
 10
146.2412307437941
 20
207.7236231960125
 30
0.0000000000000000
 11
147.9412307438944
 21
207.7236231960073
 31
0.0000000000000000
  0
LINE
  5
C1
100
AcDbEntity
  8
MAIN0
  6
CENTER
 62
3
100
AcDbLine
 10
139.9412307439185
 20
215.7082900931181
 30
0.0000000000000000
 11
139.9412307439270
 21
218.5463088947501
 31
0.0000000000000000
  0
LINE
  5
C2
100
AcDbEntity
  8
MAIN0
  6
CONTINUOUS
 62
3
100
AcDbLine
 10
140.1144358245799
 20
216.9843927114905
 30
0.0000000000000000
 11
140.5412307438243
 21
217.7236231960296
 31
0.0000000000000000
  0
LINE
  5
C3
100
AcDbEntity
  8
MAIN0
  6
CONTINUOUS
 62
3
100
AcDbLine
 10
139.3412307438265
 20
217.7236231960334
 30
0.0000000000000000
 11
139.7680256630661
 21
216.9843927114917
 31
0.0000000000000000
  0
ARC
  5
C4
100
AcDbEntity
  8
MAIN0
  6
CONTINUOUS
 62
3
100
AcDbCircle
 10
139.9412307438233
 20
217.0843927114910
 30
0.0000000000000000
 40
0.2000000000000000
100
AcDbArc
 50
209.9999999998021
 51
329.9999999998340
  0
LINE
  5
C5
100
AcDbEntity
  8
MAIN0
  6
CONTINUOUS
 62
3
100
AcDbLine
 10
137.4412307438763
 20
217.7236231960390
 30
0.0000000000000000
 11
139.3412307438264
 21
217.7236231960333
 31
0.0000000000000000
  0
LINE
  5
C6
100
AcDbEntity
  8
MAIN0
  6
CONTINUOUS
 62
3
100
AcDbLine
 10
140.5412307438243
 20
217.7236231960297
 30
0.0000000000000000
 11
141.9412307439246
 21
217.7236231960255
 31
0.0000000000000000
  0
LINE
  5
C7
100
AcDbEntity
  8
MAIN0
  6
CENTER
 62
3
100
AcDbLine
 10
144.7412307438673
 20
198.7389562989304
 30
0.0000000000000000
 11
144.7412307438587
 21
195.9009374972984
 31
0.0000000000000000
  0
LINE
  5
C8
100
AcDbEntity
  8
MAIN0
  6
CONTINUOUS
 62
3
100
AcDbLine
 10
144.5680256632059
 20
197.4628536805580
 30
0.0000000000000000
 11
144.1412307439615
 21
196.7236231960189
 31
0.0000000000000000
  0
LINE
  5
C9
100
AcDbEntity
  8
MAIN0
  6
CONTINUOUS
 62
3
100
AcDbLine
 10
145.3412307439594
 20
196.7236231960152
 30
0.0000000000000000
 11
144.9144358247198
 21
197.4628536805569
 31
0.0000000000000000
  0
ARC
  5
CA
100
AcDbEntity
  8
MAIN0
  6
CONTINUOUS
 62
3
100
AcDbCircle
 10
144.7412307439625
 20
197.3628536805575
 30
0.0000000000000000
 40
0.2000000000000000
100
AcDbArc
 50
29.99999999980206
 51
149.9999999998339
  0
LINE
  5
CB
100
AcDbEntity
  8
MAIN0
  6
CENTER
 62
3
100
AcDbLine
 10
141.2412307438673
 20
198.7389562989409
 30
0.0000000000000000
 11
141.2412307438587
 21
195.9009374973090
 31
0.0000000000000000
  0
LINE
  5
CC
100
AcDbEntity
  8
MAIN0
  6
CONTINUOUS
 62
3
100
AcDbLine
 10
141.0680256632059
 20
197.4628536805685
 30
0.0000000000000000
 11
140.6412307439615
 21
196.7236231960295
 31
0.0000000000000000
  0
LINE
  5
CD
100
AcDbEntity
  8
MAIN0
  6
CONTINUOUS
 62
3
100
AcDbLine
 10
141.8412307439594
 20
196.7236231960258
 30
0.0000000000000000
 11
141.4144358247198
 21
197.4628536805674
 31
0.0000000000000000
  0
ARC
  5
CE
100
AcDbEntity
  8
MAIN0
  6
CONTINUOUS
 62
3
100
AcDbCircle
 10
141.2412307439625
 20
197.3628536805680
 30
0.0000000000000000
 40
0.2000000000000000
100
AcDbArc
 50
29.99999999980206
 51
149.9999999998339
  0
LINE
  5
CF
100
AcDbEntity
  8
MAIN0
  6
CENTER
 62
3
100
AcDbLine
 10
137.7412307438673
 20
198.7389562989515
 30
0.0000000000000000
 11
137.7412307438587
 21
195.9009374973196
 31
0.0000000000000000
  0
LINE
  5
D0
100
AcDbEntity
  8
MAIN0
  6
CONTINUOUS
 62
3
100
AcDbLine
 10
137.5680256632058
 20
197.4628536805791
 30
0.0000000000000000
 11
137.1412307439614
 21
196.7236231960400
 31
0.0000000000000000
  0
LINE
  5
D1
100
AcDbEntity
  8
MAIN0
  6
CONTINUOUS
 62
3
100
AcDbLine
 10
138.3412307439594
 20
196.7236231960363
 30
0.0000000000000000
 11
137.9144358247198
 21
197.4628536805780
 31
0.0000000000000000
  0
ARC
  5
D2
100
AcDbEntity
  8
MAIN0
  6
CONTINUOUS
 62
3
100
AcDbCircle
 10
137.7412307439625
 20
197.3628536805786
 30
0.0000000000000000
 40
0.2000000000000000
100
AcDbArc
 50
29.99999999980206
 51
149.9999999998339
  0
LINE
  5
D3
100
AcDbEntity
  8
MAIN0
  6
CENTER
 62
3
100
AcDbLine
 10
134.2412307438673
 20
198.7389562989621
 30
0.0000000000000000
 11
134.2412307438587
 21
195.9009374973301
 31
0.0000000000000000
  0
LINE
  5
D4
100
AcDbEntity
  8
MAIN0
  6
CONTINUOUS
 62
3
100
AcDbLine
 10
134.0680256632058
 20
197.4628536805897
 30
0.0000000000000000
 11
133.6412307439614
 21
196.7236231960506
 31
0.0000000000000000
  0
LINE
  5
D5
100
AcDbEntity
  8
MAIN0
  6
CONTINUOUS
 62
3
100
AcDbLine
 10
134.8412307439594
 20
196.7236231960469
 30
0.0000000000000000
 11
134.4144358247198
 21
197.4628536805886
 31
0.0000000000000000
  0
ARC
  5
D6
100
AcDbEntity
  8
MAIN0
  6
CONTINUOUS
 62
3
100
AcDbCircle
 10
134.2412307439625
 20
197.3628536805892
 30
0.0000000000000000
 40
0.2000000000000000
100
AcDbArc
 50
29.99999999980206
 51
149.9999999998339
  0
LINE
  5
D7
100
AcDbEntity
  8
MAIN0
  6
CONTINUOUS
 62
3
100
AcDbLine
 10
145.3412307439593
 20
196.7236231960152
 30
0.0000000000000000
 11
147.9412307438612
 21
196.7236231960073
 31
0.0000000000000000
  0
LINE
  5
D8
100
AcDbEntity
  8
MAIN0
  6
CONTINUOUS
 62
3
100
AcDbLine
 10
141.8412307439593
 20
196.7236231960258
 30
0.0000000000000000
 11
144.1412307439614
 21
196.7236231960188
 31
0.0000000000000000
  0
LINE
  5
D9
100
AcDbEntity
  8
MAIN0
  6
CONTINUOUS
 62
3
100
AcDbLine
 10
138.3412307439594
 20
196.7236231960363
 30
0.0000000000000000
 11
140.6412307439614
 21
196.7236231960294
 31
0.0000000000000000
  0
LINE
  5
DA
100
AcDbEntity
  8
MAIN0
  6
CONTINUOUS
 62
3
100
AcDbLine
 10
134.8412307439594
 20
196.7236231960469
 30
0.0000000000000000
 11
137.1412307439614
 21
196.7236231960399
 31
0.0000000000000000
  0
LINE
  5
DB
100
AcDbEntity
  8
MAIN0
  6
CONTINUOUS
 62
3
100
AcDbLine
 10
133.2412307438612
 20
196.7236231960517
 30
0.0000000000000000
 11
133.6412307439614
 21
196.7236231960505
 31
0.0000000000000000
  0
LINE
  5
DC
100
AcDbEntity
  8
MAIN0
  6
PHANTOM
 62
3
100
AcDbLine
 10
129.9674202990225
 20
146.7236231960617
 30
0.0000000000000000
 11
148.0412307437108
 21
146.7236231960036
 31
0.0000000000000000
  0
LINE
  5
DD
100
AcDbEntity
  8
MAIN0
  6
PHANTOM
 62
3
100
AcDbLine
 10
135.7412307438003
 20
174.7236231960761
 30
0.0000000000000000
 11
136.2412307438003
 21
174.7236231960745
 31
0.0000000000000000
  0
LINE
  5
DE
100
AcDbEntity
  8
MAIN0
  6
PHANTOM
 62
3
100
AcDbLine
 10
148.2412307437388
 20
155.5236231960359
 30
0.0000000000000000
 11
148.2412307437113
 21
146.9236231960031
 31
0.0000000000000000
  0
LINE
  5
DF
100
AcDbEntity
  8
MAIN0
  6
PHANTOM
 62
3
100
AcDbLine
 10
142.2412307437707
 20
165.5236231960552
 30
0.0000000000000000
 11
142.2412307437430
 21
156.9236231956976
 31
0.0000000000000000
  0
LINE
  5
E0
100
AcDbEntity
  8
MAIN0
  6
PHANTOM
 62
3
100
AcDbLine
 10
136.2412307438003
 20
174.7236231960745
 30
0.0000000000000000
 11
136.2412307437752
 21
166.9236231957168
 31
0.0000000000000000
  0
LINE
  5
E1
100
AcDbEntity
  8
MAIN0
  6
PHANTOM
 62
3
100
AcDbLine
 10
135.7412307438222
 20
181.5236231960761
 30
0.0000000000000000
 11
135.7412307438003
 21
174.7236231960761
 31
0.0000000000000000
  0
LINE
  5
E2
100
AcDbEntity
  8
MAIN0
  6
PHANTOM
 62
3
100
AcDbLine
 10
135.7412307438221
 20
181.5236231960761
 30
0.0000000000000000
 11
135.5412307438228
 21
181.7236231960767
 31
0.0000000000000000
  0
LINE
  5
E3
100
AcDbEntity
  8
MAIN0
  6
PHANTOM
 62
3
100
AcDbLine
 10
148.2412307437114
 20
146.9236231960031
 30
0.0000000000000000
 11
148.0412307437108
 21
146.7236231960037
 31
0.0000000000000000
  0
LINE
  5
E4
100
AcDbEntity
  8
MAIN0
  6
PHANTOM
 62
3
100
AcDbLine
 10
148.2412307437388
 20
155.5236231960359
 30
0.0000000000000000
 11
148.0412307437394
 21
155.7236231960366
 31
0.0000000000000000
  0
LINE
  5
E5
100
AcDbEntity
  8
MAIN0
  6
PHANTOM
 62
3
100
AcDbLine
 10
142.0412307437713
 20
165.7236231960559
 30
0.0000000000000000
 11
142.2412307437707
 21
165.5236231960552
 31
0.0000000000000000
  0
LINE
  5
E6
100
AcDbEntity
  8
MAIN0
  6
PHANTOM
 62
3
100
AcDbLine
 10
142.5412307439612
 20
155.2040079538117
 30
0.0000000000000000
 11
143.4412307439119
 21
155.7236231960515
 31
0.0000000000000000
  0
LINE
  5
E7
100
AcDbEntity
  8
MAIN0
  6
PHANTOM
 62
3
100
AcDbLine
 10
141.7216155016923
 20
156.0236231960845
 30
0.0000000000000000
 11
142.2412307437431
 21
156.9236231956976
 31
0.0000000000000000
  0
ARC
  5
E8
100
AcDbEntity
  8
MAIN0
  6
PHANTOM
 62
3
100
AcDbCircle
 10
142.2412307439622
 20
155.7236231960831
 30
0.0000000000000000
 40
0.6000000000000000
100
AcDbArc
 50
149.9999999998393
 51
299.9999999998805
  0
LINE
  5
E9
100
AcDbEntity
  8
MAIN0
  6
PHANTOM
 62
3
100
AcDbLine
 10
135.7216155017245
 20
166.0236231961039
 30
0.0000000000000000
 11
136.2412307437752
 21
166.9236231957168
 31
0.0000000000000000
  0
LINE
  5
EA
100
AcDbEntity
  8
MAIN0
  6
PHANTOM
 62
3
100
AcDbLine
 10
136.5412307439934
 20
165.2040079538310
 30
0.0000000000000000
 11
137.4412307439441
 21
165.7236231960707
 31
0.0000000000000000
  0
ARC
  5
EB
100
AcDbEntity
  8
MAIN0
  6
PHANTOM
 62
3
100
AcDbCircle
 10
136.2412307439944
 20
165.7236231961024
 30
0.0000000000000000
 40
0.6000000000000000
100
AcDbArc
 50
149.9999999998393
 51
299.9999999998805
  0
LINE
  5
EC
100
AcDbEntity
  8
MAIN0
  6
PHANTOM
 62
3
100
AcDbLine
 10
133.2412307438159
 20
181.7236231960841
 30
0.0000000000000000
 11
135.5412307438229
 21
181.7236231960767
 31
0.0000000000000000
  0
LINE
  5
ED
100
AcDbEntity
  8
MAIN0
  6
CENTER
 62
3
100
AcDbLine
 10
139.4412307437768
 20
166.4503798066619
 30
0.0000000000000000
 11
139.4412307437685
 21
163.8708336846307
 31
0.0000000000000000
  0
LINE
  5
EE
100
AcDbEntity
  8
MAIN0
  6
PHANTOM
 62
3
100
AcDbLine
 10
139.6144358244043
 20
164.9843927114549
 30
0.0000000000000000
 11
140.0412307436900
 21
165.7236231960638
 31
0.0000000000000000
  0
LINE
  5
EF
100
AcDbEntity
  8
MAIN0
  6
PHANTOM
 62
3
100
AcDbLine
 10
138.8412307436096
 20
165.7236231960676
 30
0.0000000000000000
 11
139.2680256628908
 21
164.9843927114562
 31
0.0000000000000000
  0
ARC
  5
F0
100
AcDbEntity
  8
MAIN0
  6
PHANTOM
 62
3
100
AcDbCircle
 10
139.4412307436479
 20
165.0843927114556
 30
0.0000000000000000
 40
0.2000000000000000
100
AcDbArc
 50
209.9999999998369
 51
329.9999999997789
  0
LINE
  5
F1
100
AcDbEntity
  8
MAIN0
  6
CENTER
 62
3
100
AcDbLine
 10
145.1412307437466
 20
156.4503798066447
 30
0.0000000000000000
 11
145.1412307437383
 21
153.8708336846134
 31
0.0000000000000000
  0
LINE
  5
F2
100
AcDbEntity
  8
MAIN0
  6
PHANTOM
 62
3
100
AcDbLine
 10
145.3144358243741
 20
154.9843927114377
 30
0.0000000000000000
 11
145.7412307436598
 21
155.7236231960466
 31
0.0000000000000000
  0
LINE
  5
F3
100
AcDbEntity
  8
MAIN0
  6
PHANTOM
 62
3
100
AcDbLine
 10
144.5412307435795
 20
155.7236231960504
 30
0.0000000000000000
 11
144.9680256628606
 21
154.9843927114390
 31
0.0000000000000000
  0
ARC
  5
F4
100
AcDbEntity
  8
MAIN0
  6
PHANTOM
 62
3
100
AcDbCircle
 10
145.1412307436177
 20
155.0843927114384
 30
0.0000000000000000
 40
0.2000000000000000
100
AcDbArc
 50
209.9999999998369
 51
329.9999999997789
  0
LINE
  5
F5
100
AcDbEntity
  8
MAIN0
  6
PHANTOM
 62
3
100
AcDbLine
 10
137.4412307439440
 20
165.7236231960707
 30
0.0000000000000000
 11
138.8412307436095
 21
165.7236231960661
 31
0.0000000000000000
  0
LINE
  5
F6
100
AcDbEntity
  8
MAIN0
  6
PHANTOM
 62
3
100
AcDbLine
 10
140.0412307436900
 20
165.7236231960623
 30
0.0000000000000000
 11
142.0412307437713
 21
165.7236231960559
 31
0.0000000000000000
  0
LINE
  5
F7
100
AcDbEntity
  8
MAIN0
  6
PHANTOM
 62
3
100
AcDbLine
 10
143.4412307439119
 20
155.7236231960514
 30
0.0000000000000000
 11
144.5412307435794
 21
155.7236231960478
 31
0.0000000000000000
  0
LINE
  5
F8
100
AcDbEntity
  8
MAIN0
  6
PHANTOM
 62
3
100
AcDbLine
 10
145.7412307436598
 20
155.7236231960440
 30
0.0000000000000000
 11
148.0412307437395
 21
155.7236231960366
 31
0.0000000000000000
  0
LINE
  5
F9
100
AcDbEntity
  8
MAIN0
  6
HIDDEN
 62
3
100
AcDbLine
 10
99.49123074371494
 20
148.2336231962887
 30
0.0000000000000000
 11
100.5412307437168
 21
148.8398409789348
 31
0.0000000000000000
  0
LINE
  5
FA
100
AcDbEntity
  8
MAIN0
  6
HIDDEN
 62
3
100
AcDbLine
 10
100.5412307437167
 20
148.8398409789627
 30
0.0000000000000000
 11
109.9412307437171
 21
148.8398409789344
 31
0.0000000000000000
  0
LINE
  5
FB
100
AcDbEntity
  8
MAIN0
  6
HIDDEN
 62
3
100
AcDbLine
 10
100.5412307437163
 20
148.8398409789627
 30
0.0000000000000000
 11
100.5412307437188
 21
149.6117556499444
 31
0.0000000000000000
  0
LINE
  5
FC
100
AcDbEntity
  8
MAIN0
  6
CONTINUOUS
 62
3
100
AcDbLine
 10
100.5482497082006
 20
112.6742673712259
 30
0.0000000000000000
 11
104.9844643108243
 21
117.1104819738228
 31
0.0000000000000000
  0
LINE
  5
FD
100
AcDbEntity
  8
MAIN0
  6
CONTINUOUS
 62
3
100
AcDbLine
 10
105.4979971765379
 20
107.7245199029515
 30
0.0000000000000000
 11
109.9342117790685
 21
112.1607345054553
 31
0.0000000000000000
  0
LINE
  5
FE
100
AcDbEntity
  8
MAIN0
  6
CONTINUOUS
 62
3
100
AcDbLine
 10
100.5482497081989
 20
112.1607345055720
 30
0.0000000000000000
 11
104.9844643107958
 21
107.7245199029483
 31
0.0000000000000000
  0
LINE
  5
FF
100
AcDbEntity
  8
MAIN0
  6
CONTINUOUS
 62
3
100
AcDbLine
 10
105.4979971765662
 20
117.1104819738162
 30
0.0000000000000000
 11
109.9342117790700
 21
112.6742673712856
 31
0.0000000000000000
  0
ARC
  5
100
100
AcDbEntity
  8
MAIN0
  6
CONTINUOUS
 62
3
100
AcDbCircle
 10
105.2412307436370
 20
112.4175009383847
 30
0.0000000000000000
 40
4.700000000000000
100
AcDbArc
 50
176.8683062266588
 51
183.1316937729961
  0
ARC
  5
101
100
AcDbEntity
  8
MAIN0
  6
CONTINUOUS
 62
3
100
AcDbCircle
 10
105.2412307436370
 20
112.4175009383847
 30
0.0000000000000000
 40
4.700000000000000
100
AcDbArc
 50
266.8683062266583
 51
273.1316937740741
  0
ARC
  5
102
100
AcDbEntity
  8
MAIN0
  6
CONTINUOUS
 62
3
100
AcDbCircle
 10
105.2412307436370
 20
112.4175009383847
 30
0.0000000000000000
 40
4.700000000000000
100
AcDbArc
 50
356.8683062255803
 51
363.1316937740725
  0
LINE
  5
103
100
AcDbEntity
  8
MAIN0
  6
HIDDEN
 62
3
100
AcDbLine
 10
104.9844643108675
 20
148.8398409789493
 30
0.0000000000000000
 11
104.9844643108696
 21
149.6117556499270
 31
0.0000000000000000
  0
LINE
  5
104
100
AcDbEntity
  8
MAIN0
  6
HIDDEN
 62
3
100
AcDbLine
 10
105.4979971766600
 20
148.8398409789478
 30
0.0000000000000000
 11
105.4979971766621
 21
149.6117556499256
 31
0.0000000000000000
  0
LINE
  5
105
100
AcDbEntity
  8
MAIN0
  6
HIDDEN
 62
3
100
AcDbLine
 10
110.9912307437149
 20
148.2336231962539
 30
0.0000000000000000
 11
109.9412307437167
 21
148.8398409789063
 31
0.0000000000000000
  0
LINE
  5
106
100
AcDbEntity
  8
MAIN0
  6
HIDDEN
 62
3
100
AcDbLine
 10
109.9412307437171
 20
148.8398409789344
 30
0.0000000000000000
 11
109.9412307437193
 21
149.6117556499134
 31
0.0000000000000000
  0
LINE
  5
107
100
AcDbEntity
  8
MAIN0
  6
CONTINUOUS
 62
3
100
AcDbLine
 10
99.24123074379480
 20
174.7236231961543
 30
0.0000000000000000
 11
100.6682228806884
 21
174.7236231961500
 31
0.0000000000000000
  0
LINE
  5
108
100
AcDbEntity
  8
MAIN0
  6
CONTINUOUS
 62
3
100
AcDbLine
 10
99.24123074379330
 20
174.2236231961543
 30
0.0000000000000000
 11
100.6682228806869
 21
174.2236231961500
 31
0.0000000000000000
  0
LINE
  5
109
100
AcDbEntity
  8
MAIN0
  6
CONTINUOUS
 62
3
100
AcDbLine
 10
96.74123074378272
 20
170.7236231961619
 30
0.0000000000000000
 11
99.70016093634143
 21
170.7236231961529
 31
0.0000000000000000
  0
LINE
  5
10A
100
AcDbEntity
  8
MAIN0
  6
CONTINUOUS
 62
3
100
AcDbLine
 10
93.24123074374654
 20
158.7236231961724
 30
0.0000000000000000
 11
94.14746773980002
 21
158.7236231961697
 31
0.0000000000000000
  0
LINE
  5
10B
100
AcDbEntity
  8
MAIN0
  6
CONTINUOUS
 62
3
100
AcDbLine
 10
92.50698625742587
 20
159.2236231961747
 30
0.0000000000000000
 11
94.74123074376391
 21
164.4871733550962
 31
0.0000000000000000
  0
LINE
  5
10C
100
AcDbEntity
  8
MAIN0
  6
CONTINUOUS
 62
3
100
AcDbLine
 10
97.38844664387329
 20
170.7236231961599
 30
0.0000000000000000
 11
99.24123074379588
 21
175.0885090012844
 31
0.0000000000000000
  0
LINE
  5
10D
100
AcDbEntity
  8
MAIN0
  6
HIDDEN
 62
3
100
AcDbLine
 10
116.2412307437149
 20
148.2336231961568
 30
0.0000000000000000
 11
116.2412307437190
 21
149.6117556498961
 31
0.0000000000000000
  0
LINE
  5
10E
100
AcDbEntity
  8
MAIN0
  6
HIDDEN
 62
3
100
AcDbLine
 10
94.24123074371488
 20
148.2336231961826
 30
0.0000000000000000
 11
94.24123074371903
 21
149.6117556499634
 31
0.0000000000000000
  0
LINE
  5
10F
100
AcDbEntity
  8
MAIN0
  6
HIDDEN
 62
3
100
AcDbLine
 10
92.73123074369767
 20
146.7236231961738
 30
0.0000000000000000
 11
94.24123074371499
 21
148.2336231961826
 31
0.0000000000000000
  0
LINE
  5
110
100
AcDbEntity
  8
MAIN0
  6
HIDDEN
 62
3
100
AcDbLine
 10
116.2412307437150
 20
148.2336231961567
 30
0.0000000000000000
 11
117.7512307437648
 21
146.7236231960983
 31
0.0000000000000000
  0
LINE
  5
111
100
AcDbEntity
  8
MAIN0
  6
HIDDEN
 62
3
100
AcDbLine
 10
116.2412307437151
 20
148.2336231961568
 30
0.0000000000000000
 11
94.24123074371497
 21
148.2336231961826
 31
0.0000000000000000
  0
ARC
  5
112
100
AcDbEntity
  8
MAIN0
  6
HIDDEN
 62
3
100
AcDbCircle
 10
105.2412307435771
 20
95.65739803029730
 30
0.0000000000000000
 40
52.57622516583884
100
AcDbArc
 50
76.23499610530760
 51
103.7650038943465
  0
LINE
  5
113
100
AcDbEntity
  8
MAIN0
  6
PHANTOM
 62
3
100
AcDbLine
 10
147.9412307438225
 20
183.9236231960073
 30
0.0000000000000000
 11
147.9412307438545
 21
194.5236231960074
 31
0.0000000000000000
  0
LINE
  5
114
100
AcDbEntity
  8
MAIN0
  6
PHANTOM
 62
3
100
AcDbLine
 10
147.7412307438551
 20
194.7236231960079
 30
0.0000000000000000
 11
147.9412307438545
 21
194.5236231960074
 31
0.0000000000000000
  0
LINE
  5
115
100
AcDbEntity
  8
MAIN0
  6
PHANTOM
 62
3
100
AcDbLine
 10
147.7412307438220
 20
183.7236231960080
 30
0.0000000000000000
 11
147.9412307438226
 21
183.9236231960074
 31
0.0000000000000000
  0
LINE
  5
116
100
AcDbEntity
  8
MAIN0
  6
CENTER
 62
3
100
AcDbLine
 10
144.4412307438310
 20
186.7304787202927
 30
0.0000000000000000
 11
144.4412307438462
 21
191.7716445215708
 31
0.0000000000000000
  0
LINE
  5
117
100
AcDbEntity
  8
MAIN0
  6
PHANTOM
 62
3
100
AcDbLine
 10
145.0412307438371
 20
188.7236231960161
 30
0.0000000000000000
 11
145.0412307438401
 21
189.7236231960161
 31
0.0000000000000000
  0
LINE
  5
118
100
AcDbEntity
  8
MAIN0
  6
PHANTOM
 62
3
100
AcDbLine
 10
143.8412307438371
 20
188.7236231960197
 30
0.0000000000000000
 11
143.8412307438401
 21
189.7236231960197
 31
0.0000000000000000
  0
LINE
  5
119
100
AcDbEntity
  8
MAIN0
  6
PHANTOM
 62
3
100
AcDbLine
 10
143.8412307438401
 20
189.7236231960197
 30
0.0000000000000000
 11
144.2514940842331
 21
190.9544132172272
 31
0.0000000000000000
  0
LINE
  5
11A
100
AcDbEntity
  8
MAIN0
  6
PHANTOM
 62
3
100
AcDbLine
 10
144.6309674034545
 20
190.9544132172262
 30
0.0000000000000000
 11
145.0412307438401
 21
189.7236231960161
 31
0.0000000000000000
  0
ARC
  5
11B
100
AcDbEntity
  8
MAIN0
  6
PHANTOM
 62
3
100
AcDbCircle
 10
144.4412307438436
 20
190.8911676640252
 30
0.0000000000000000
 40
0.2000000000000000
100
AcDbArc
 50
18.43494882217674
 51
161.5650511774782
  0
LINE
  5
11C
100
AcDbEntity
  8
MAIN0
  6
PHANTOM
 62
3
100
AcDbLine
 10
145.0412307438401
 20
189.7236231960161
 30
0.0000000000000000
 11
147.9412307438400
 21
189.7236231960073
 31
0.0000000000000000
  0
LINE
  5
11D
100
AcDbEntity
  8
MAIN0
  6
PHANTOM
 62
3
100
AcDbLine
 10
145.0412307438371
 20
188.7236231960161
 30
0.0000000000000000
 11
147.9412307438370
 21
188.7236231960073
 31
0.0000000000000000
  0
LINE
  5
11E
100
AcDbEntity
  8
MAIN0
  6
PHANTOM
 62
3
100
AcDbLine
 10
143.8412307438371
 20
188.7236231960197
 30
0.0000000000000000
 11
144.2514940842227
 21
187.4928331748097
 31
0.0000000000000000
  0
LINE
  5
11F
100
AcDbEntity
  8
MAIN0
  6
PHANTOM
 62
3
100
AcDbLine
 10
144.6309674034441
 20
187.4928331748085
 30
0.0000000000000000
 11
145.0412307438371
 21
188.7236231960161
 31
0.0000000000000000
  0
ARC
  5
120
100
AcDbEntity
  8
MAIN0
  6
PHANTOM
 62
3
100
AcDbCircle
 10
144.4412307438336
 20
187.5560787280105
 30
0.0000000000000000
 40
0.2000000000000000
100
AcDbArc
 50
198.4349488221760
 51
341.5650511774774
  0
LINE
  5
121
100
AcDbEntity
  8
MAIN0
  6
CENTER
 62
3
100
AcDbLine
 10
140.9412307438310
 20
186.7304787203033
 30
0.0000000000000000
 11
140.9412307438462
 21
191.7716445215813
 31
0.0000000000000000
  0
LINE
  5
122
100
AcDbEntity
  8
MAIN0
  6
PHANTOM
 62
3
100
AcDbLine
 10
141.5412307438371
 20
188.7236231960267
 30
0.0000000000000000
 11
141.5412307438401
 21
189.7236231960267
 31
0.0000000000000000
  0
LINE
  5
123
100
AcDbEntity
  8
MAIN0
  6
PHANTOM
 62
3
100
AcDbLine
 10
140.3412307438371
 20
188.7236231960303
 30
0.0000000000000000
 11
140.3412307438401
 21
189.7236231960303
 31
0.0000000000000000
  0
LINE
  5
124
100
AcDbEntity
  8
MAIN0
  6
PHANTOM
 62
3
100
AcDbLine
 10
140.3412307438402
 20
189.7236231960302
 30
0.0000000000000000
 11
140.7514940842331
 21
190.9544132172378
 31
0.0000000000000000
  0
LINE
  5
125
100
AcDbEntity
  8
MAIN0
  6
PHANTOM
 62
3
100
AcDbLine
 10
141.1309674034545
 20
190.9544132172368
 30
0.0000000000000000
 11
141.5412307438401
 21
189.7236231960267
 31
0.0000000000000000
  0
ARC
  5
126
100
AcDbEntity
  8
MAIN0
  6
PHANTOM
 62
3
100
AcDbCircle
 10
140.9412307438436
 20
190.8911676640358
 30
0.0000000000000000
 40
0.2000000000000000
100
AcDbArc
 50
18.43494882217674
 51
161.5650511774782
  0
LINE
  5
127
100
AcDbEntity
  8
MAIN0
  6
PHANTOM
 62
3
100
AcDbLine
 10
140.3412307438371
 20
188.7236231960303
 30
0.0000000000000000
 11
140.7514940842227
 21
187.4928331748203
 31
0.0000000000000000
  0
LINE
  5
128
100
AcDbEntity
  8
MAIN0
  6
PHANTOM
 62
3
100
AcDbLine
 10
141.1309674034441
 20
187.4928331748191
 30
0.0000000000000000
 11
141.5412307438371
 21
188.7236231960266
 31
0.0000000000000000
  0
ARC
  5
129
100
AcDbEntity
  8
MAIN0
  6
PHANTOM
 62
3
100
AcDbCircle
 10
140.9412307438336
 20
187.5560787280211
 30
0.0000000000000000
 40
0.2000000000000000
100
AcDbArc
 50
198.4349488221760
 51
341.5650511774774
  0
LINE
  5
12A
100
AcDbEntity
  8
MAIN0
  6
CENTER
 62
3
100
AcDbLine
 10
137.4412307438310
 20
186.7304787203138
 30
0.0000000000000000
 11
137.4412307438462
 21
191.7716445215919
 31
0.0000000000000000
  0
LINE
  5
12B
100
AcDbEntity
  8
MAIN0
  6
PHANTOM
 62
3
100
AcDbLine
 10
138.0412307438371
 20
188.7236231960372
 30
0.0000000000000000
 11
138.0412307438401
 21
189.7236231960372
 31
0.0000000000000000
  0
LINE
  5
12C
100
AcDbEntity
  8
MAIN0
  6
PHANTOM
 62
3
100
AcDbLine
 10
136.8412307438371
 20
188.7236231960409
 30
0.0000000000000000
 11
136.8412307438401
 21
189.7236231960409
 31
0.0000000000000000
  0
LINE
  5
12D
100
AcDbEntity
  8
MAIN0
  6
PHANTOM
 62
3
100
AcDbLine
 10
136.8412307438401
 20
189.7236231960408
 30
0.0000000000000000
 11
137.2514940842331
 21
190.9544132172484
 31
0.0000000000000000
  0
LINE
  5
12E
100
AcDbEntity
  8
MAIN0
  6
PHANTOM
 62
3
100
AcDbLine
 10
137.6309674034545
 20
190.9544132172474
 30
0.0000000000000000
 11
138.0412307438401
 21
189.7236231960373
 31
0.0000000000000000
  0
ARC
  5
12F
100
AcDbEntity
  8
MAIN0
  6
PHANTOM
 62
3
100
AcDbCircle
 10
137.4412307438436
 20
190.8911676640464
 30
0.0000000000000000
 40
0.2000000000000000
100
AcDbArc
 50
18.43494882217674
 51
161.5650511774782
  0
LINE
  5
130
100
AcDbEntity
  8
MAIN0
  6
PHANTOM
 62
3
100
AcDbLine
 10
136.8412307438371
 20
188.7236231960408
 30
0.0000000000000000
 11
137.2514940842226
 21
187.4928331748308
 31
0.0000000000000000
  0
LINE
  5
131
100
AcDbEntity
  8
MAIN0
  6
PHANTOM
 62
3
100
AcDbLine
 10
137.6309674034441
 20
187.4928331748296
 30
0.0000000000000000
 11
138.0412307438371
 21
188.7236231960372
 31
0.0000000000000000
  0
ARC
  5
132
100
AcDbEntity
  8
MAIN0
  6
PHANTOM
 62
3
100
AcDbCircle
 10
137.4412307438336
 20
187.5560787280317
 30
0.0000000000000000
 40
0.2000000000000000
100
AcDbArc
 50
198.4349488221760
 51
341.5650511774774
  0
LINE
  5
133
100
AcDbEntity
  8
MAIN0
  6
CENTER
 62
3
100
AcDbLine
 10
133.9412307438310
 20
186.7304787203244
 30
0.0000000000000000
 11
133.9412307438462
 21
191.7716445216024
 31
0.0000000000000000
  0
LINE
  5
134
100
AcDbEntity
  8
MAIN0
  6
PHANTOM
 62
3
100
AcDbLine
 10
134.5412307438371
 20
188.7236231960478
 30
0.0000000000000000
 11
134.5412307438401
 21
189.7236231960478
 31
0.0000000000000000
  0
LINE
  5
135
100
AcDbEntity
  8
MAIN0
  6
PHANTOM
 62
3
100
AcDbLine
 10
133.3412307438371
 20
188.7236231960514
 30
0.0000000000000000
 11
133.3412307438401
 21
189.7236231960514
 31
0.0000000000000000
  0
LINE
  5
136
100
AcDbEntity
  8
MAIN0
  6
PHANTOM
 62
3
100
AcDbLine
 10
133.3412307438401
 20
189.7236231960514
 30
0.0000000000000000
 11
133.7514940842331
 21
190.9544132172589
 31
0.0000000000000000
  0
LINE
  5
137
100
AcDbEntity
  8
MAIN0
  6
PHANTOM
 62
3
100
AcDbLine
 10
134.1309674034545
 20
190.9544132172579
 30
0.0000000000000000
 11
134.5412307438401
 21
189.7236231960478
 31
0.0000000000000000
  0
ARC
  5
138
100
AcDbEntity
  8
MAIN0
  6
PHANTOM
 62
3
100
AcDbCircle
 10
133.9412307438436
 20
190.8911676640570
 30
0.0000000000000000
 40
0.2000000000000000
100
AcDbArc
 50
18.43494882217674
 51
161.5650511774782
  0
LINE
  5
139
100
AcDbEntity
  8
MAIN0
  6
PHANTOM
 62
3
100
AcDbLine
 10
133.3412307438371
 20
188.7236231960514
 30
0.0000000000000000
 11
133.7514940842226
 21
187.4928331748413
 31
0.0000000000000000
  0
LINE
  5
13A
100
AcDbEntity
  8
MAIN0
  6
PHANTOM
 62
3
100
AcDbLine
 10
134.1309674034441
 20
187.4928331748402
 30
0.0000000000000000
 11
134.5412307438371
 21
188.7236231960478
 31
0.0000000000000000
  0
ARC
  5
13B
100
AcDbEntity
  8
MAIN0
  6
PHANTOM
 62
3
100
AcDbCircle
 10
133.9412307438336
 20
187.5560787280423
 30
0.0000000000000000
 40
0.2000000000000000
100
AcDbArc
 50
198.4349488221760
 51
341.5650511774774
  0
LINE
  5
13C
100
AcDbEntity
  8
MAIN0
  6
PHANTOM
 62
3
100
AcDbLine
 10
141.5412307438371
 20
188.7236231960267
 30
0.0000000000000000
 11
143.8412307438371
 21
188.7236231960197
 31
0.0000000000000000
  0
LINE
  5
13D
100
AcDbEntity
  8
MAIN0
  6
PHANTOM
 62
3
100
AcDbLine
 10
141.5412307438401
 20
189.7236231960267
 30
0.0000000000000000
 11
143.8412307438401
 21
189.7236231960197
 31
0.0000000000000000
  0
LINE
  5
13E
100
AcDbEntity
  8
MAIN0
  6
PHANTOM
 62
3
100
AcDbLine
 10
138.0412307438401
 20
189.7236231960372
 30
0.0000000000000000
 11
140.3412307438400
 21
189.7236231960303
 31
0.0000000000000000
  0
LINE
  5
13F
100
AcDbEntity
  8
MAIN0
  6
PHANTOM
 62
3
100
AcDbLine
 10
138.0412307438371
 20
188.7236231960372
 30
0.0000000000000000
 11
140.3412307438371
 21
188.7236231960303
 31
0.0000000000000000
  0
LINE
  5
140
100
AcDbEntity
  8
MAIN0
  6
PHANTOM
 62
3
100
AcDbLine
 10
134.5412307438371
 20
188.7236231960478
 30
0.0000000000000000
 11
136.8412307438370
 21
188.7236231960409
 31
0.0000000000000000
  0
LINE
  5
141
100
AcDbEntity
  8
MAIN0
  6
PHANTOM
 62
3
100
AcDbLine
 10
134.5412307438401
 20
189.7236231960478
 30
0.0000000000000000
 11
136.8412307438401
 21
189.7236231960409
 31
0.0000000000000000
  0
LINE
  5
142
100
AcDbEntity
  8
MAIN0
  6
PHANTOM
 62
3
100
AcDbLine
 10
133.2412307438401
 20
189.7236231960517
 30
0.0000000000000000
 11
133.3412307438401
 21
189.7236231960514
 31
0.0000000000000000
  0
LINE
  5
143
100
AcDbEntity
  8
MAIN0
  6
PHANTOM
 62
3
100
AcDbLine
 10
133.2412307438370
 20
188.7236231960517
 30
0.0000000000000000
 11
133.3412307438370
 21
188.7236231960514
 31
0.0000000000000000
  0
LINE
  5
144
100
AcDbEntity
  8
MAIN0
  6
CENTER
 62
3
100
AcDbLine
 10
85.11892577004443
 20
189.2236231961969
 30
0.0000000000000000
 11
152.6073709389103
 21
189.2236231959933
 31
0.0000000000000000
  0
LINE
  5
145
100
AcDbEntity
  8
MAIN0
  6
CENTER
 62
3
100
AcDbLine
 10
75.22806289171083
 20
153.9816028232270
 30
0.0000000000000000
 11
135.2987594231904
 21
153.9816028230457
 31
0.0000000000000000
  0
LINE
  5
146
100
AcDbEntity
  8
MAIN0
  6
CONTINUOUS
 62
3
100
AcDbLine
 10
133.2412307437133
 20
147.7236231960517
 30
0.0000000000000000
 11
133.2412307438612
 21
196.7236231960517
 31
0.0000000000000000
  0
LINE
  5
147
100
AcDbEntity
  8
MAIN0
  6
CONTINUOUS
 62
3
100
AcDbLine
 10
133.2412307438612
 20
196.7236231960517
 30
0.0000000000000000
 11
133.2412307439638
 21
230.7236231960517
 31
0.0000000000000000
  0
LINE
  5
148
100
AcDbEntity
  8
MAIN0
  6
CENTER
 62
3
100
AcDbLine
 10
105.2412307436183
 20
106.2483913602559
 30
0.0000000000000000
 11
105.2412307436588
 21
119.6538168597608
 31
0.0000000000000000
  0
LINE
  5
149
100
AcDbEntity
  8
MAIN0
  6
CENTER
 62
3
100
AcDbLine
 10
105.2412307437000
 20
143.3195428957727
 30
0.0000000000000000
 11
105.2412307437448
 21
158.1471727624112
 31
0.0000000000000000
  0
LINE
  5
14A
100
AcDbEntity
  8
MAIN0
  6
CENTER
 62
3
100
AcDbLine
 10
98.03885256736285
 20
112.4175009384093
 30
0.0000000000000000
 11
112.6156279987390
 21
112.4175009383739
 31
0.0000000000000000
  0
LINE
  5
14B
100
AcDbEntity
  8
MAIN0
  6
PHANTOM
 62
3
100
AcDbLine
 10
93.24123074388223
 20
203.2236231961701
 30
0.0000000000000000
 11
96.24123074388228
 21
203.2236231961634
 31
0.0000000000000000
  0
LINE
  5
14C
100
AcDbEntity
  8
MAIN0
  6
PHANTOM
 62
3
100
AcDbLine
 10
93.24123074387501
 20
201.2236231961701
 30
0.0000000000000000
 11
93.24123074388217
 21
203.2236231961701
 31
0.0000000000000000
  0
LINE
  5
14D
100
AcDbEntity
  8
MAIN0
  6
PHANTOM
 62
3
100
AcDbLine
 10
96.24123074386429
 20
198.2236231961634
 30
0.0000000000000000
 11
96.24123074388217
 21
203.2236231961634
 31
0.0000000000000000
  0
LINE
  5
14E
100
AcDbEntity
  8
MAIN0
  6
PHANTOM
 62
3
100
AcDbLine
 10
94.49123074387146
 20
200.2236231961673
 30
0.0000000000000000
 11
94.49123074387501
 21
201.2236231961673
 31
0.0000000000000000
  0
LINE
  5
14F
100
AcDbEntity
  8
MAIN0
  6
PHANTOM
 62
3
100
AcDbLine
 10
93.24123074387512
 20
201.2236231961701
 30
0.0000000000000000
 11
94.49123074387512
 21
201.2236231961673
 31
0.0000000000000000
  0
LINE
  5
150
100
AcDbEntity
  8
MAIN0
  6
PHANTOM
 62
3
100
AcDbLine
 10
96.24123074387958
 20
202.4736231961634
 30
0.0000000000000000
 11
103.3131623672297
 21
202.4736231961475
 31
0.0000000000000000
  0
LINE
  5
151
100
AcDbEntity
  8
MAIN0
  6
PHANTOM
 62
3
100
AcDbLine
 10
98.24123074386705
 20
198.9736231961589
 30
0.0000000000000000
 11
98.24123074387956
 21
202.4736231961589
 31
0.0000000000000000
  0
LINE
  5
152
100
AcDbEntity
  8
MAIN0
  6
PHANTOM
 62
3
100
AcDbLine
 10
98.24123074387842
 20
202.1486231961589
 30
0.0000000000000000
 11
103.2924288613343
 21
202.1486231961476
 31
0.0000000000000000
  0
LINE
  5
153
100
AcDbEntity
  8
MAIN0
  6
PHANTOM
 62
3
100
AcDbLine
 10
97.91623074392157
 20
202.4736231961596
 30
0.0000000000000000
 11
98.24123074387831
 21
202.1486231962010
 31
0.0000000000000000
  0
LINE
  5
154
100
AcDbEntity
  8
MAIN0
  6
PHANTOM
 62
3
100
AcDbLine
 10
93.24123074387111
 20
198.2236231961701
 30
0.0000000000000000
 11
96.24123074387117
 21
198.2236231961634
 31
0.0000000000000000
  0
LINE
  5
155
100
AcDbEntity
  8
MAIN0
  6
PHANTOM
 62
3
100
AcDbLine
 10
93.24123074387276
 20
200.2236231961701
 30
0.0000000000000000
 11
93.24123074387097
 21
198.2236231961701
 31
0.0000000000000000
  0
LINE
  5
156
100
AcDbEntity
  8
MAIN0
  6
PHANTOM
 62
3
100
AcDbLine
 10
93.24123074387279
 20
200.2236231961701
 30
0.0000000000000000
 11
94.49123074387285
 21
200.2236231961673
 31
0.0000000000000000
  0
LINE
  5
157
100
AcDbEntity
  8
MAIN0
  6
PHANTOM
 62
3
100
AcDbLine
 10
96.24123074387168
 20
198.9736231961634
 30
0.0000000000000000
 11
102.9863111507625
 21
198.9736231961483
 31
0.0000000000000000
  0
LINE
  5
158
100
AcDbEntity
  8
MAIN0
  6
PHANTOM
 62
3
100
AcDbLine
 10
98.24123074387200
 20
199.2986231961589
 30
0.0000000000000000
 11
103.0274929390715
 21
199.2986231961482
 31
0.0000000000000000
  0
LINE
  5
159
100
AcDbEntity
  8
MAIN0
  6
PHANTOM
 62
3
100
AcDbLine
 10
97.91623074391379
 20
198.9736231961596
 30
0.0000000000000000
 11
98.24123074387194
 21
199.2986231961169
 31
0.0000000000000000
  0
DIMENSION
  5
162
100
AcDbEntity
  8
MAIN0
  6
CONTINUOUS
 62
3
100
AcDbDimension
  2
*D5
 10
133.2412307439867
 20
238.2946573354301
 30
0.0000000000000000
 11
140.7412307439882
 21
238.7946573354075
 31
0.0000000000000000
 70
32
  3
MAIN001
100
AcDbAlignedDimension
 13
148.2412307438935
 23
207.4236231960064
 33
0.0000000000000000
 14
133.2412307439638
 24
230.7236231960517
 34
0.0000000000000000
 50
179.9999999998271
100
AcDbRotatedDimension
1001
ACAD
1000
DSTYLE
1002
{
1070
   173
1070
     1
1070
     6
1000
_OPEN
1070
     7
1000
_OPEN
1070
    41
1040
2.000000
1002
}
  0
DIMENSION
  5
16B
100
AcDbEntity
  8
MAIN0
  6
CONTINUOUS
 62
3
100
AcDbDimension
  2
*D6
 10
155.7119892176185
 20
196.7236231959839
 30
0.0000000000000000
 11
155.2119892176351
 21
202.2236231959854
 31
0.0000000000000000
 70
32
  3
MAIN001
100
AcDbAlignedDimension
 13
147.9412307438944
 23
207.7236231960073
 33
0.0000000000000000
 14
147.9412307438612
 24
196.7236231960073
 34
0.0000000000000000
 50
89.99999999982710
100
AcDbRotatedDimension
1001
ACAD
1000
DSTYLE
1002
{
1070
   173
1070
     1
1070
     6
1000
_OPEN
1070
     7
1000
_OPEN
1070
    41
1040
2.000000
1002
}
  0
DIMENSION
  5
174
100
AcDbEntity
  8
MAIN0
  6
CONTINUOUS
 62
3
100
AcDbDimension
  2
*D7
 10
155.7119892176517
 20
207.7236231959839
 30
0.0000000000000000
 11
155.2119892176668
 21
212.7236231959854
 31
0.0000000000000000
 70
32
  3
MAIN001
100
AcDbAlignedDimension
 13
141.9412307439246
 23
217.7236231960255
 33
0.0000000000000000
 14
147.9412307438944
 24
207.7236231960073
 34
0.0000000000000000
 50
89.99999999982707
100
AcDbRotatedDimension
1001
ACAD
1000
DSTYLE
1002
{
1070
   173
1070
     1
1070
     6
1000
_OPEN
1070
     7
1000
_OPEN
1070
    41
1040
2.000000
1002
}
  0
DIMENSION
  5
17D
100
AcDbEntity
  8
MAIN0
  6
CONTINUOUS
 62
3
100
AcDbDimension
  2
*D8
 10
155.7119892176819
 20
217.7236231959839
 30
0.0000000000000000
 11
155.2119892177030
 21
224.7236231959854
 31
0.0000000000000000
 70
32
  3
MAIN001
100
AcDbAlignedDimension
 13
135.4412307439669
 23
231.7236231960451
 33
0.0000000000000000
 14
141.9412307439246
 24
217.7236231960255
 34
0.0000000000000000
 50
89.99999999982704
100
AcDbRotatedDimension
1001
ACAD
1000
DSTYLE
1002
{
1070
   173
1070
     1
1070
     6
1000
_OPEN
1070
     7
1000
_OPEN
1070
    41
1040
2.000000
1002
}
  0
DIMENSION
  5
186
100
AcDbEntity
  8
MAIN0
  6
CONTINUOUS
 62
3
100
AcDbDimension
  2
*D9
 10
165.2346166728897
 20
196.7236231959552
 30
0.0000000000000000
 11
164.7346166729425
 21
214.2236231959567
 31
0.0000000000000000
 70
32
  3
MAIN001
100
AcDbAlignedDimension
 13
135.4412307439669
 23
231.7236231960451
 33
0.0000000000000000
 14
147.9412307438612
 24
196.7236231960073
 34
0.0000000000000000
 50
89.99999999982707
100
AcDbRotatedDimension
1001
ACAD
1000
DSTYLE
1002
{
1070
   173
1070
     1
1070
     6
1000
_OPEN
1070
     7
1000
_OPEN
1070
    41
1040
2.000000
1002
}
  0
DIMENSION
  5
18E
100
AcDbEntity
  8
MAIN0
  6
CONTINUOUS
 62
3
100
AcDbDimension
  2
*D10
 10
148.2412307439071
 20
211.9492902881858
 30
0.0000000000000000
 11
145.2412307439087
 21
212.4492902881947
 31
0.0000000000000000
 70
32
  3
MAIN001
100
AcDbAlignedDimension
 13
142.2412307438980
 23
208.9236231957615
 33
0.0000000000000000
 14
148.2412307438935
 24
207.4236231960064
 34
0.0000000000000000
 50
179.9999999998271
100
AcDbRotatedDimension
1001
ACAD
1000
DSTYLE
1002
{
1070
   173
1070
     1
1070
     6
1000
_OPEN
1070
     7
1000
_OPEN
1070
    41
1040
2.000000
1002
}
  0
DIMENSION
  5
196
100
AcDbEntity
  8
MAIN0
  6
CONTINUOUS
 62
3
100
AcDbDimension
  2
*D11
 10
136.2412307439394
 20
222.6224448887973
 30
0.0000000000000000
 11
139.2412307439409
 21
223.1224448887881
 31
0.0000000000000000
 70
32
  3
MAIN001
100
AcDbAlignedDimension
 13
142.2412307439237
 23
217.4236231960246
 33
0.0000000000000000
 14
136.2412307439282
 24
218.9236231957796
 34
0.0000000000000000
 50
179.9999999998268
100
AcDbRotatedDimension
1001
ACAD
1000
DSTYLE
1002
{
1070
   173
1070
     1
1070
     6
1000
_OPEN
1070
     7
1000
_OPEN
1070
    41
1040
2.000000
1002
}
  0
DIMENSION
  5
19F
100
AcDbEntity
  8
MAIN0
  6
CONTINUOUS
 62
3
100
AcDbDimension
  2
*D12
 10
165.2346166728837
 20
194.7236231959552
 30
0.0000000000000000
 11
164.7346166728671
 21
189.2236231959567
 31
0.0000000000000000
 70
32
  3
MAIN001
100
AcDbAlignedDimension
 13
147.7412307438220
 23
183.7236231960080
 33
0.0000000000000000
 14
147.7412307438552
 24
194.7236231960080
 34
0.0000000000000000
 50
89.99999999982708
100
AcDbRotatedDimension
1001
ACAD
1000
DSTYLE
1002
{
1070
   173
1070
     1
1070
     6
1000
_OPEN
1070
     7
1000
_OPEN
1070
    41
1040
2.000000
1002
}
  0
DIMENSION
  5
1A8
100
AcDbEntity
  8
MAIN0
  6
CONTINUOUS
 62
3
100
AcDbDimension
  2
*D13
 10
155.7119892174677
 20
146.7236231959805
 30
0.0000000000000000
 11
155.2119892174812
 21
151.2236231959985
 31
0.0000000000000000
 70
32
  3
MAIN001
100
AcDbAlignedDimension
 13
148.0412307437395
 23
155.7236231960366
 33
0.0000000000000000
 14
148.0412307437108
 24
146.7236231960036
 34
0.0000000000000000
 50
89.99999999982703
100
AcDbRotatedDimension
1001
ACAD
1000
DSTYLE
1002
{
1070
   173
1070
     1
1070
     6
1000
_OPEN
1070
     7
1000
_OPEN
1070
    41
1040
2.000000
1002
}
  0
DIMENSION
  5
1B1
100
AcDbEntity
  8
MAIN0
  6
CONTINUOUS
 62
3
100
AcDbDimension
  2
*D14
 10
155.7119892174948
 20
155.7236231960135
 30
0.0000000000000000
 11
155.2119892175099
 21
160.7236231960156
 31
0.0000000000000000
 70
32
  3
MAIN001
100
AcDbAlignedDimension
 13
142.0412307437713
 23
165.7236231960559
 33
0.0000000000000000
 14
148.0412307437395
 24
155.7236231960366
 34
0.0000000000000000
 50
89.99999999982707
100
AcDbRotatedDimension
1001
ACAD
1000
DSTYLE
1002
{
1070
   173
1070
     1
1070
     6
1000
_OPEN
1070
     7
1000
_OPEN
1070
    41
1040
2.000000
1002
}
  0
DIMENSION
  5
1BA
100
AcDbEntity
  8
MAIN0
  6
CONTINUOUS
 62
3
100
AcDbDimension
  2
*D15
 10
155.7119892175249
 20
165.7236231960146
 30
0.0000000000000000
 11
155.2119892175491
 21
173.7236231960167
 31
0.0000000000000000
 70
32
  3
MAIN001
100
AcDbAlignedDimension
 13
135.5412307438229
 23
181.7236231960767
 33
0.0000000000000000
 14
142.0412307437713
 24
165.7236231960559
 34
0.0000000000000000
 50
89.99999999982697
100
AcDbRotatedDimension
1001
ACAD
1000
DSTYLE
1002
{
1070
   173
1070
     1
1070
     6
1000
_OPEN
1070
     7
1000
_OPEN
1070
    41
1040
2.000000
1002
}
  0
DIMENSION
  5
1C3
100
AcDbEntity
  8
MAIN0
  6
CONTINUOUS
 62
3
100
AcDbDimension
  2
*D16
 10
81.55118894251586
 20
181.2236231962077
 30
0.0000000000000000
 11
81.05118894254002
 21
189.2236231962093
 31
0.0000000000000000
 70
32
  1
\A1;\U+220516
  3
MAIN001
100
AcDbAlignedDimension
 13
92.74123074386273
 23
197.2236231961740
 33
0.0000000000000000
 14
92.74123074381441
 24
181.2236231961740
 34
0.0000000000000000
 50
89.99999999982697
100
AcDbRotatedDimension
1001
ACAD
1000
DSTYLE
1002
{
1070
   173
1070
     1
1070
     6
1000
_OPEN
1070
     7
1000
_OPEN
1070
    41
1040
2.000000
1002
}
  0
DIMENSION
  5
1CC
100
AcDbEntity
  8
MAIN0
  6
CONTINUOUS
 62
3
100
AcDbDimension
  2
*D17
 10
73.90498685108088
 20
219.2236231962308
 30
0.0000000000000000
 11
73.40498685096898
 21
182.1486230591416
 31
0.0000000000000000
 70
32
  1
\A1;\U+220560H6\H0.903226x;\S＋0.019^ 　0;
  3
MAIN001
100
AcDbAlignedDimension
 13
88.24123074374802
 23
159.2236231961875
 33
0.0000000000000000
 14
88.24123074392912
 24
219.2236231961875
 34
0.0000000000000000
 50
89.99999999982708
100
AcDbRotatedDimension
1001
ACAD
1000
DSTYLE
1002
{
1070
   173
1070
     1
1070
     6
1000
_OPEN
1070
     7
1000
_OPEN
1070
    41
1040
2.000000
1070
   272
1070
     3
1070
    47
1040
0.019000
1070
    48
1040
0.000000
1070
    71
1070
     1
1070
   340
1005
1CD
1002
}
  0
DIMENSION
  5
1D6
100
AcDbEntity
  8
MAIN0
  6
CONTINUOUS
 62
3
100
AcDbDimension
  2
*D18
 10
60.94892443595921
 20
231.7236231962699
 30
0.0000000000000000
 11
60.44892443583095
 21
189.2236231962714
 31
0.0000000000000000
 70
32
  1
\A1;\U+220585
  3
MAIN001
100
AcDbAlignedDimension
 13
89.24123074371030
 23
146.7236231961845
 33
0.0000000000000000
 14
89.24123074396684
 24
231.7236231961845
 34
0.0000000000000000
 50
89.99999999982708
100
AcDbRotatedDimension
1001
ACAD
1000
DSTYLE
1002
{
1070
   173
1070
     1
1070
     6
1000
_OPEN
1070
     7
1000
_OPEN
1070
    41
1040
2.000000
1002
}
  0
DIMENSION
  5
1DF
100
AcDbEntity
  8
MAIN0
  6
CONTINUOUS
 62
3
100
AcDbDimension
  2
*D19
 10
88.24123074398668
 20
238.2946573355659
 30
0.0000000000000000
 11
94.74123074398818
 21
238.7946573355463
 31
0.0000000000000000
 70
32
  3
MAIN001
100
AcDbAlignedDimension
 13
101.2412307439578
 23
228.7236231961483
 33
0.0000000000000000
 14
88.24123074396383
 24
230.7236231961875
 34
0.0000000000000000
 50
179.9999999998271
100
AcDbRotatedDimension
1001
ACAD
1000
DSTYLE
1002
{
1070
   173
1070
     1
1070
     6
1000
_OPEN
1070
     7
1000
_OPEN
1070
    41
1040
2.000000
1002
}
  0
DIMENSION
  5
1E8
100
AcDbEntity
  8
MAIN0
  6
CONTINUOUS
 62
3
100
AcDbDimension
  2
*D20
 10
94.24123074368612
 20
138.7042026566091
 30
0.0000000000000000
 11
105.2412307436876
 21
139.2042026565759
 31
0.0000000000000000
 70
32
  1
\A1;\U+220522
  3
MAIN001
100
AcDbAlignedDimension
 13
116.2412307437155
 23
148.4336231960944
 33
0.0000000000000000
 14
94.24123074371548
 24
148.4336231961608
 34
0.0000000000000000
 50
179.9999999998271
100
AcDbRotatedDimension
1001
ACAD
1000
DSTYLE
1002
{
1070
   173
1070
     1
1070
     6
1000
_OPEN
1070
     7
1000
_OPEN
1070
    41
1040
2.000000
1002
}
  0
DIMENSION
  5
1F3
100
AcDbEntity
  8
MAIN0
  6
CONTINUOUS
 62
3
100
AcDbDimension
  2
*D21
 10
110.3840834461236
 20
102.3249007675879
 30
0.0000000000000000
 11
118.0289091298291
 21
110.6768332324317
 31
0.0000000000000000
 70
161
  3
MAIN001
100
AcDbAlignedDimension
 13
109.9342117790701
 23
112.6742673712856
 33
0.0000000000000000
 14
104.9844643107959
 24
107.7245199029484
 34
0.0000000000000000
 50
44.99999999982712
1001
ACAD
1000
DSTYLE
1002
{
1070
   173
1070
     1
1070
     6
1000
_OPEN
1070
     7
1000
_OPEN
1070
    41
1040
2.000000
1070
   287
1070
     0
1070
   272
1070
     2
1070
    47
1040
0.150000
1070
    48
1040
-0.050000
1070
    71
1070
     1
1002
}
  0
DIMENSION
  5
1FC
100
AcDbEntity
  8
MAIN0
  6
CONTINUOUS
 62
3
100
AcDbDimension
  2
*D22
 10
88.24123074364448
 20
124.9227723157497
 30
0.0000000000000000
 11
110.7412307436460
 21
125.4227723156818
 31
0.0000000000000000
 70
32
  3
MAIN001
100
AcDbAlignedDimension
 13
133.2412307437133
 23
147.7236231960517
 33
0.0000000000000000
 14
88.24123074371332
 24
147.7236231961875
 34
0.0000000000000000
 50
179.9999999998271
100
AcDbRotatedDimension
1001
ACAD
1000
DSTYLE
1002
{
1070
   173
1070
     1
1070
     6
1000
_OPEN
1070
     7
1000
_OPEN
1070
    41
1040
2.000000
1002
}
  0
DIMENSION
  5
205
100
AcDbEntity
  8
MAIN0
  6
CONTINUOUS
 62
3
100
AcDbDimension
  2
*D23
 10
133.2412307436647
 20
131.6321553222939
 30
0.0000000000000000
 11
119.2412307436663
 21
132.1321553223361
 31
0.0000000000000000
 70
32
  3
MAIN001
100
AcDbAlignedDimension
 13
105.2412307437000
 23
143.3195428957727
 33
0.0000000000000000
 14
133.2412307437133
 24
147.7236231960517
 34
0.0000000000000000
 50
179.9999999998271
100
AcDbRotatedDimension
1001
ACAD
1000
DSTYLE
1002
{
1070
   173
1070
     1
1070
     6
1000
_OPEN
1070
     7
1000
_OPEN
1070
    41
1040
2.000000
1002
}
  0
DIMENSION
  5
20E
100
AcDbEntity
  8
MAIN0
  6
CONTINUOUS
 62
3
100
AcDbDimension
  2
*D24
 10
105.2412307436647
 20
131.6321553223784
 30
0.0000000000000000
 11
96.74123074366625
 21
132.1321553224040
 31
0.0000000000000000
 70
32
  3
MAIN001
100
AcDbAlignedDimension
 13
88.24123074371332
 23
147.7236231961875
 33
0.0000000000000000
 14
105.2412307437000
 24
143.3195428957727
 34
0.0000000000000000
 50
179.9999999998271
100
AcDbRotatedDimension
1001
ACAD
1000
DSTYLE
1002
{
1070
   173
1070
     1
1070
     6
1000
_OPEN
1070
     7
1000
_OPEN
1070
    41
1040
2.000000
1002
}
  0
DIMENSION
  5
216
100
AcDbEntity
  8
MAIN0
  6
CONTINUOUS
 62
3
100
AcDbDimension
  2
*D25
 10
142.2412307437525
 20
159.5096324800709
 30
0.0000000000000000
 11
145.2412307437532
 21
160.0096324800618
 31
0.0000000000000000
 70
32
  3
MAIN001
100
AcDbAlignedDimension
 13
148.2412307437388
 23
155.5236231960359
 33
0.0000000000000000
 14
142.2412307437707
 24
165.5236231960552
 34
0.0000000000000000
 50
179.9999999998268
100
AcDbRotatedDimension
1001
ACAD
1000
DSTYLE
1002
{
1070
   173
1070
     1
1070
     6
1000
_OPEN
1070
     7
1000
_OPEN
1070
    41
1040
2.000000
1002
}
  0
DIMENSION
  5
21E
100
AcDbEntity
  8
MAIN0
  6
CONTINUOUS
 62
3
100
AcDbDimension
  2
*D26
 10
136.2412307437857
 20
170.3979004991107
 30
0.0000000000000000
 11
139.2412307437870
 21
170.8979004991016
 31
0.0000000000000000
 70
32
  3
MAIN001
100
AcDbAlignedDimension
 13
142.2412307437707
 23
165.5236231960552
 33
0.0000000000000000
 14
136.2412307437752
 24
166.9236231957168
 34
0.0000000000000000
 50
179.9999999998271
100
AcDbRotatedDimension
1001
ACAD
1000
DSTYLE
1002
{
1070
   173
1070
     1
1070
     6
1000
_OPEN
1070
     7
1000
_OPEN
1070
    41
1040
2.000000
1002
}
  0
LINE
  5
21F
100
AcDbEntity
  8
MAIN0
  6
CENTER
 62
3
100
AcDbLine
 10
245.9002294564583
 20
141.5445841870418
 30
0.0000000000000000
 11
245.9002294565630
 21
236.0048440602517
 31
0.0000000000000000
  0
LINE
  5
220
100
AcDbEntity
  8
MAIN0
  6
CONTINUOUS
 62
3
100
AcDbLine
 10
251.4002294565579
 20
231.3662382073000
 30
0.0000000000000000
 11
251.4002294565176
 21
195.0330982152002
 31
0.0000000000000000
  0
LINE
  5
221
100
AcDbEntity
  8
MAIN0
  6
CONTINUOUS
 62
3
100
AcDbLine
 10
240.4002294565579
 20
231.3662382073122
 30
0.0000000000000000
 11
240.4002294565176
 21
195.0330982152124
 31
0.0000000000000000
  0
LINE
  5
222
100
AcDbEntity
  8
MAIN0
  6
CENTER
 62
3
100
AcDbLine
 10
193.1604433943205
 20
189.2236231959536
 30
0.0000000000000000
 11
295.9564151146045
 21
189.2236231958396
 31
0.0000000000000000
  0
CIRCLE
  5
223
100
AcDbEntity
  8
MAIN0
  6
CONTINUOUS
 62
3
100
AcDbCircle
 10
245.9002294565112
 20
189.2236231958951
 30
0.0000000000000000
 40
42.50000000000000
  0
ARC
  5
224
100
AcDbEntity
  8
MAIN0
  6
CENTER
 62
3
100
AcDbCircle
 10
245.9002294565112
 20
189.2236231958951
 30
0.0000000000000000
 40
15.00000000000000
100
AcDbArc
 50
246.5299542456506
 51
295.1895952697302
  0
CIRCLE
  5
225
100
AcDbEntity
  8
MAIN0
  6
CONTINUOUS
 62
3
100
AcDbCircle
 10
245.9002294564945
 20
174.2236231958951
 30
0.0000000000000000
 40
4.500000000000000
  0
LINE
  5
226
100
AcDbEntity
  8
MAIN0
  6
CONTINUOUS
 62
3
100
AcDbLine
 10
251.1002294565572
 20
230.7236231958318
 30
0.0000000000000000
 11
240.7002294565572
 21
230.7236231958424
 31
0.0000000000000000
  0
LINE
  5
227
100
AcDbEntity
  8
MAIN0
  6
CONTINUOUS
 62
3
100
AcDbLine
 10
240.7002294565572
 20
230.7236231958424
 30
0.0000000000000000
 11
240.4002294565569
 21
230.4236231958427
 31
0.0000000000000000
  0
LINE
  5
228
100
AcDbEntity
  8
MAIN0
  6
CONTINUOUS
 62
3
100
AcDbLine
 10
251.1002294565572
 20
230.7236231958318
 30
0.0000000000000000
 11
251.4002294565568
 21
230.4236231958315
 31
0.0000000000000000
  0
ARC
  5
229
100
AcDbEntity
  8
MAIN0
  6
CONTINUOUS
 62
3
100
AcDbCircle
 10
245.9002294564907
 20
170.7236231958753
 30
0.0000000000000000
 40
25.00000000000000
100
AcDbArc
 50
89.14053107508148
 51
90.85946892479150
  0
ARC
  5
22A
100
AcDbEntity
  8
MAIN0
  6
CONTINUOUS
 62
3
100
AcDbCircle
 10
245.9002294564907
 20
170.7236231958753
 30
0.0000000000000000
 40
35.99999999998045
100
AcDbArc
 50
81.21206267729576
 51
98.78793732257722
  0
ARC
  5
22B
100
AcDbEntity
  8
MAIN0
  6
CONTINUOUS
 62
3
100
AcDbCircle
 10
245.9002294564907
 20
170.7236231958753
 30
0.0000000000000000
 40
46.00000000000035
100
AcDbArc
 50
83.13298928709830
 51
96.86701071277469
  0
LINE
  5
22C
100
AcDbEntity
  8
MAIN0
  6
CONTINUOUS
 62
3
100
AcDbLine
 10
206.6536542747038
 20
172.9154554110476
 30
0.0000000000000000
 11
238.1190765071387
 21
191.0820254070626
 31
0.0000000000000000
  0
LINE
  5
22D
100
AcDbEntity
  8
MAIN0
  6
CONTINUOUS
 62
3
100
AcDbLine
 10
212.1536542746932
 20
163.3891759694127
 30
0.0000000000000000
 11
243.6190765071281
 21
181.5557459654277
 31
0.0000000000000000
  0
LINE
  5
22E
100
AcDbEntity
  8
MAIN0
  6
CONTINUOUS
 62
3
100
AcDbLine
 10
207.3601751994888
 20
172.9769552956458
 30
0.0000000000000000
 11
212.5601751994797
 21
163.9702910962823
 31
0.0000000000000000
  0
LINE
  5
22F
100
AcDbEntity
  8
MAIN0
  6
CONTINUOUS
 62
3
100
AcDbLine
 10
212.5601751994797
 20
163.9702910962823
 30
0.0000000000000000
 11
212.9699828206149
 21
163.8604834751465
 31
0.0000000000000000
  0
LINE
  5
230
100
AcDbEntity
  8
MAIN0
  6
CONTINUOUS
 62
3
100
AcDbLine
 10
207.3601751994888
 20
172.9769552956458
 30
0.0000000000000000
 11
207.4699828206246
 21
173.3867629167810
 31
0.0000000000000000
  0
ARC
  5
231
100
AcDbEntity
  8
MAIN0
  6
CONTINUOUS
 62
3
100
AcDbCircle
 10
261.9216994265507
 20
198.4736231958873
 30
0.0000000000000000
 40
35.99999999998045
100
AcDbArc
 50
201.2120626772957
 51
218.7879373225772
  0
ARC
  5
232
100
AcDbEntity
  8
MAIN0
  6
CONTINUOUS
 62
3
100
AcDbCircle
 10
261.9216994265507
 20
198.4736231958873
 30
0.0000000000000000
 40
46.00000000000035
100
AcDbArc
 50
203.1329892870982
 51
216.8670107127746
  0
LINE
  5
233
100
AcDbEntity
  8
MAIN0
  6
CONTINUOUS
 62
3
100
AcDbLine
 10
279.6468046382718
 20
163.3891759693378
 30
0.0000000000000000
 11
248.1813824058772
 21
181.5557459654226
 31
0.0000000000000000
  0
LINE
  5
234
100
AcDbEntity
  8
MAIN0
  6
CONTINUOUS
 62
3
100
AcDbLine
 10
285.1468046382824
 20
172.9154554109605
 30
0.0000000000000000
 11
253.6813824058877
 21
191.0820254070454
 31
0.0000000000000000
  0
LINE
  5
235
100
AcDbEntity
  8
MAIN0
  6
CONTINUOUS
 62
3
100
AcDbLine
 10
279.2402837134874
 20
163.9702910962079
 30
0.0000000000000000
 11
284.4402837134966
 21
172.9769552955607
 31
0.0000000000000000
  0
LINE
  5
236
100
AcDbEntity
  8
MAIN0
  6
CONTINUOUS
 62
3
100
AcDbLine
 10
284.4402837134967
 20
172.9769552955607
 30
0.0000000000000000
 11
284.3304760923618
 21
173.3867629166962
 31
0.0000000000000000
  0
LINE
  5
237
100
AcDbEntity
  8
MAIN0
  6
CONTINUOUS
 62
3
100
AcDbLine
 10
279.2402837134874
 20
163.9702910962079
 30
0.0000000000000000
 11
278.8304760923521
 21
163.8604834750730
 31
0.0000000000000000
  0
ARC
  5
238
100
AcDbEntity
  8
MAIN0
  6
CONTINUOUS
 62
3
100
AcDbCircle
 10
229.8787594864921
 20
198.4736231959228
 30
0.0000000000000000
 40
35.99999999998045
100
AcDbArc
 50
321.2120626772958
 51
338.7879373225773
  0
ARC
  5
239
100
AcDbEntity
  8
MAIN0
  6
CONTINUOUS
 62
3
100
AcDbCircle
 10
229.8787594864921
 20
198.4736231959228
 30
0.0000000000000000
 40
46.00000000000035
100
AcDbArc
 50
323.1329892870983
 51
336.8670107127747
  0
ARC
  5
23A
100
AcDbEntity
  8
MAIN0
  6
HIDDEN
 62
3
100
AcDbCircle
 10
245.9002294565112
 20
189.2236231958951
 30
0.0000000000000000
 40
8.000000000000000
100
AcDbArc
 50
92.28227134146457
 51
102.2394024062258
  0
ARC
  5
23B
100
AcDbEntity
  8
MAIN0
  6
HIDDEN
 62
3
100
AcDbCircle
 10
245.9002294565112
 20
189.2236231958951
 30
0.0000000000000000
 40
8.000000000000000
100
AcDbArc
 50
77.76059759364706
 51
87.96130753134032
  0
ARC
  5
23C
100
AcDbEntity
  8
MAIN0
  6
CONTINUOUS
 62
3
100
AcDbCircle
 10
245.9002294565112
 20
189.2236231958951
 30
0.0000000000000000
 40
8.000000000000000
100
AcDbArc
 50
342.2394024062259
 51
437.7605975936471
  0
ARC
  5
23D
100
AcDbEntity
  8
MAIN0
  6
HIDDEN
 62
3
100
AcDbCircle
 10
245.9002294565112
 20
189.2236231958951
 30
0.0000000000000000
 40
8.000000000000000
100
AcDbArc
 50
317.7605975936471
 51
342.2394024062259
  0
ARC
  5
23E
100
AcDbEntity
  8
MAIN0
  6
CONTINUOUS
 62
3
100
AcDbCircle
 10
245.9002294565112
 20
189.2236231958951
 30
0.0000000000000000
 40
8.000000000000000
100
AcDbArc
 50
222.2394024062259
 51
317.7605975936471
  0
ARC
  5
23F
100
AcDbEntity
  8
MAIN0
  6
CONTINUOUS
 62
3
100
AcDbCircle
 10
245.9002294565112
 20
189.2236231958951
 30
0.0000000000000000
 40
8.000000000000000
100
AcDbArc
 50
102.2394024062258
 51
197.7605975936470
  0
ARC
  5
240
100
AcDbEntity
  8
MAIN0
  6
HIDDEN
 62
3
100
AcDbCircle
 10
245.9002294565112
 20
189.2236231958951
 30
0.0000000000000000
 40
8.000000000000000
100
AcDbArc
 50
197.7605975936470
 51
222.2394024062259
  0
LINE
  5
241
100
AcDbEntity
  8
MAIN0
  6
HIDDEN
 62
3
100
AcDbLine
 10
234.9002294564650
 20
148.1718266456955
 30
0.0000000000000000
 11
234.9002294564713
 21
157.5279993999521
 31
0.0000000000000000
  0
LINE
  5
242
100
AcDbEntity
  8
MAIN0
  6
CENTER
 62
3
100
AcDbLine
 10
206.9493774038464
 20
211.7119081136493
 30
0.0000000000000000
 11
284.1279678217282
 21
167.1528281600901
 31
0.0000000000000000
  0
CIRCLE
  5
243
100
AcDbEntity
  8
MAIN0
  6
CONTINUOUS
 62
3
100
AcDbCircle
 10
245.9002294564945
 20
174.2236231958951
 30
0.0000000000000000
 40
5.500000000000000
  0
CIRCLE
  5
244
100
AcDbEntity
  8
MAIN0
  6
CONTINUOUS
 62
3
100
AcDbCircle
 10
245.9002294564945
 20
174.2236231958951
 30
0.0000000000000000
 40
4.500000000000000
  0
CIRCLE
  5
245
100
AcDbEntity
  8
MAIN0
  6
CONTINUOUS
 62
3
100
AcDbCircle
 10
245.9002294564945
 20
174.2236231958951
 30
0.0000000000000000
 40
1.732100000000000
  0
CIRCLE
  5
246
100
AcDbEntity
  8
MAIN0
  6
HIDDEN
 62
3
100
AcDbCircle
 10
227.6502294562750
 20
157.6136959572073
 30
0.0000000000000000
 40
3.000000000000000
  0
CIRCLE
  5
247
100
AcDbEntity
  8
MAIN0
  6
HIDDEN
 62
3
100
AcDbCircle
 10
227.6502294562750
 20
157.6136959572073
 30
0.0000000000000000
 40
2.500000000000000
  0
LINE
  5
248
100
AcDbEntity
  8
MAIN0
  6
CENTER
 62
3
100
AcDbLine
 10
225.2580194762149
 20
153.4702667300366
 30
0.0000000000000000
 11
230.0162763432191
 21
161.7118093791423
 31
0.0000000000000000
  0
ARC
  5
249
100
AcDbEntity
  8
MAIN0
  6
CENTER
 62
3
100
AcDbCircle
 10
245.9002294565112
 20
189.2236231958951
 30
0.0000000000000000
 40
36.50000000000000
100
AcDbArc
 50
223.3361975571348
 51
247.0122461834712
  0
LINE
  5
24A
100
AcDbEntity
  8
MAIN0
  6
HIDDEN
 62
3
100
AcDbLine
 10
234.9002294562234
 20
160.7763034630237
 30
0.0000000000000000
 11
234.9002294562136
 21
148.1718266459843
 31
0.0000000000000000
  0
LINE
  5
24B
100
AcDbEntity
  8
MAIN0
  6
CENTER
 62
3
100
AcDbLine
 10
255.4002294562229
 20
160.2408697039205
 30
0.0000000000000000
 11
255.4002294562132
 21
147.7989928418638
 31
0.0000000000000000
  0
LINE
  5
24C
100
AcDbEntity
  8
MAIN0
  6
HIDDEN
 62
3
100
AcDbLine
 10
256.9002294562234
 20
160.7763034631611
 30
0.0000000000000000
 11
256.9002294562136
 21
148.1718266460742
 31
0.0000000000000000
  0
LINE
  5
24D
100
AcDbEntity
  8
MAIN0
  6
HIDDEN
 62
3
100
AcDbLine
 10
256.0002294566185
 20
156.4085350416229
 30
0.0000000000000000
 11
256.0002294566147
 21
151.5546706018183
 31
0.0000000000000000
  0
LINE
  5
24E
100
AcDbEntity
  8
MAIN0
  6
HIDDEN
 62
3
100
AcDbLine
 10
254.8002294566185
 20
156.4085350416239
 30
0.0000000000000000
 11
254.8002294566147
 21
151.5546706018193
 31
0.0000000000000000
  0
ARC
  5
24F
100
AcDbEntity
  8
MAIN0
  6
CENTER
 62
3
100
AcDbCircle
 10
245.9002294565112
 20
189.2236231958951
 30
0.0000000000000000
 40
36.50000000000000
100
AcDbArc
 50
278.2560496441187
 51
292.2069570446682
  0
CIRCLE
  5
250
100
AcDbEntity
  8
MAIN0
  6
HIDDEN
 62
3
100
AcDbCircle
 10
255.4002294562181
 20
153.9816028228756
 30
0.0000000000000000
 40
2.500000000000000
  0
CIRCLE
  5
251
100
AcDbEntity
  8
MAIN0
  6
HIDDEN
 62
3
100
AcDbCircle
 10
255.4002294562181
 20
153.9816028228756
 30
0.0000000000000000
 40
3.000000000000000
  0
CIRCLE
  5
252
100
AcDbEntity
  8
MAIN0
  6
HIDDEN
 62
3
100
AcDbCircle
 10
282.4002294565112
 20
189.2236231958545
 30
0.0000000000000000
 40
2.500000000000000
  0
CIRCLE
  5
253
100
AcDbEntity
  8
MAIN0
  6
HIDDEN
 62
3
100
AcDbCircle
 10
282.4002294565112
 20
189.2236231958545
 30
0.0000000000000000
 40
3.000000000000000
  0
ARC
  5
254
100
AcDbEntity
  8
MAIN0
  6
CENTER
 62
3
100
AcDbCircle
 10
245.9002294565112
 20
189.2236231958951
 30
0.0000000000000000
 40
36.50000000000000
100
AcDbArc
 50
351.7967070397917
 51
371.1253004698668
  0
LINE
  5
255
100
AcDbEntity
  8
MAIN0
  6
HIDDEN
 62
3
100
AcDbLine
 10
276.0363310149671
 20
193.9210036210290
 30
0.0000000000000000
 11
286.9521281399402
 21
200.2232420295402
 31
0.0000000000000000
  0
LINE
  5
256
100
AcDbEntity
  8
MAIN0
  6
HIDDEN
 62
3
100
AcDbLine
 10
265.0363310148481
 20
212.9735625042180
 30
0.0000000000000000
 11
275.9521281398622
 21
219.2758009127529
 31
0.0000000000000000
  0
LINE
  5
257
100
AcDbEntity
  8
MAIN0
  6
HIDDEN
 62
3
100
AcDbLine
 10
269.8689294247487
 20
213.3387933664590
 30
0.0000000000000000
 11
274.0724993361473
 21
215.7657255863581
 31
0.0000000000000000
  0
LINE
  5
258
100
AcDbEntity
  8
MAIN0
  6
HIDDEN
 62
3
100
AcDbLine
 10
269.2689294247496
 20
214.3780238510009
 30
0.0000000000000000
 11
273.4724993361482
 21
216.8049560708999
 31
0.0000000000000000
  0
LINE
  5
259
100
AcDbEntity
  8
MAIN0
  6
CENTER
 62
3
100
AcDbLine
 10
266.2500302523945
 20
211.9422412781612
 30
0.0000000000000000
 11
277.0250116856983
 21
218.1631797091812
 31
0.0000000000000000
  0
ARC
  5
25A
100
AcDbEntity
  8
MAIN0
  6
CENTER
 62
3
100
AcDbCircle
 10
245.9002294565112
 20
189.2236231958951
 30
0.0000000000000000
 40
36.50000000000000
100
AcDbArc
 50
37.68984857957864
 51
52.01730427860942
  0
CIRCLE
  5
25B
100
AcDbEntity
  8
MAIN0
  6
HIDDEN
 62
3
100
AcDbCircle
 10
271.6707143804484
 20
215.0718747186795
 30
0.0000000000000000
 40
2.500000000000000
  0
CIRCLE
  5
25C
100
AcDbEntity
  8
MAIN0
  6
HIDDEN
 62
3
100
AcDbCircle
 10
271.6707143804484
 20
215.0718747186795
 30
0.0000000000000000
 40
3.000000000000000
  0
LINE
  5
25D
100
AcDbEntity
  8
MAIN0
  6
CENTER
 62
3
100
AcDbLine
 10
216.0504286603836
 20
195.4877586058338
 30
0.0000000000000000
 11
205.2754472270895
 21
201.7086970368706
 31
0.0000000000000000
  0
LINE
  5
25E
100
AcDbEntity
  8
MAIN0
  6
HIDDEN
 62
3
100
AcDbLine
 10
215.7641278979296
 20
193.9210036205364
 30
0.0000000000000000
 11
204.8483307729252
 21
200.2232420290884
 31
0.0000000000000000
  0
LINE
  5
25F
100
AcDbEntity
  8
MAIN0
  6
HIDDEN
 62
3
100
AcDbLine
 10
226.7641278978106
 20
212.9735625038628
 30
0.0000000000000000
 11
215.8483307728474
 21
219.2758009123910
 31
0.0000000000000000
  0
CIRCLE
  5
260
100
AcDbEntity
  8
MAIN0
  6
HIDDEN
 62
3
100
AcDbCircle
 10
227.6502294559468
 20
220.8335504343936
 30
0.0000000000000000
 40
3.000000000000000
  0
CIRCLE
  5
261
100
AcDbEntity
  8
MAIN0
  6
HIDDEN
 62
3
100
AcDbCircle
 10
227.6502294559468
 20
220.8335504343936
 30
0.0000000000000000
 40
2.500000000000000
  0
ARC
  5
262
100
AcDbEntity
  8
MAIN0
  6
CENTER
 62
3
100
AcDbCircle
 10
245.9002294565112
 20
189.2236231958951
 30
0.0000000000000000
 40
36.50000000000000
100
AcDbArc
 50
112.7727711238248
 51
127.2851786777586
  0
LINE
  5
263
100
AcDbEntity
  8
MAIN0
  6
CENTER
 62
3
100
AcDbLine
 10
225.2570388418610
 20
224.9786781702838
 30
0.0000000000000000
 11
230.1136694457699
 21
216.5667472107466
 31
0.0000000000000000
  0
CIRCLE
  5
264
100
AcDbEntity
  8
MAIN0
  6
HIDDEN
 62
3
100
AcDbCircle
 10
210.6297445323345
 20
198.6173920463604
 30
0.0000000000000000
 40
2.500000000000000
  0
CIRCLE
  5
265
100
AcDbEntity
  8
MAIN0
  6
HIDDEN
 62
3
100
AcDbCircle
 10
210.6297445323345
 20
198.6173920463604
 30
0.0000000000000000
 40
3.000000000000000
  0
ARC
  5
266
100
AcDbEntity
  8
MAIN0
  6
CENTER
 62
3
100
AcDbCircle
 10
245.9002294565112
 20
189.2236231958951
 30
0.0000000000000000
 40
36.50000000000000
100
AcDbArc
 50
158.4895630444275
 51
192.0541146714504
  0
LINE
  5
267
100
AcDbEntity
  8
MAIN0
  6
HIDDEN
 62
3
100
AcDbLine
 10
212.4315294874990
 20
196.8843106945995
 30
0.0000000000000000
 11
208.2279595761042
 21
199.3112429145050
 31
0.0000000000000000
  0
LINE
  5
268
100
AcDbEntity
  8
MAIN0
  6
HIDDEN
 62
3
100
AcDbLine
 10
213.0315294874998
 20
197.9235411791403
 30
0.0000000000000000
 11
208.8279595761050
 21
200.3504733990459
 31
0.0000000000000000
  0
LINE
  5
269
100
AcDbEntity
  8
MAIN0
  6
CENTER
 62
3
100
AcDbLine
 10
284.8510815092258
 20
211.7119081135629
 30
0.0000000000000000
 11
207.6724910912452
 21
167.1528281601748
 31
0.0000000000000000
  0
LINE
  5
26A
100
AcDbEntity
  8
MAIN0
  6
CONTINUOUS
 62
3
100
AcDbLine
 10
245.5252294565098
 20
195.7208105376549
 30
0.0000000000000000
 11
240.4002294565241
 21
200.8458105376520
 31
0.0000000000000000
  0
LINE
  5
26B
100
AcDbEntity
  8
MAIN0
  6
CONTINUOUS
 62
3
100
AcDbLine
 10
246.2752294565269
 20
195.7208105376540
 30
0.0000000000000000
 11
251.4002294565240
 21
200.8458105376398
 31
0.0000000000000000
  0
LINE
  5
26C
100
AcDbEntity
  8
MAIN0
  6
CONTINUOUS
 62
3
100
AcDbLine
 10
240.4610001654013
 20
185.6502699985950
 30
0.0000000000000000
 11
238.5851199710014
 21
178.6493898042135
 31
0.0000000000000000
  0
ARC
  5
26D
100
AcDbEntity
  8
MAIN0
  6
CONTINUOUS
 62
3
100
AcDbCircle
 10
261.9216994265507
 20
198.4736231958873
 30
0.0000000000000000
 40
25.00000000000000
100
AcDbArc
 50
209.1405310750815
 51
210.8594689247915
  0
LINE
  5
26E
100
AcDbEntity
  8
MAIN0
  6
CONTINUOUS
 62
3
100
AcDbLine
 10
240.0860001653934
 20
186.2997890514485
 30
0.0000000000000000
 11
233.0851199710120
 21
188.1756692458484
 31
0.0000000000000000
  0
LINE
  5
26F
100
AcDbEntity
  8
MAIN0
  6
CONTINUOUS
 62
3
100
AcDbLine
 10
251.7144587476225
 20
186.2997890514356
 30
0.0000000000000000
 11
258.7153389420081
 21
188.1756692458199
 31
0.0000000000000000
  0
ARC
  5
270
100
AcDbEntity
  8
MAIN0
  6
CONTINUOUS
 62
3
100
AcDbCircle
 10
229.8787594864921
 20
198.4736231959228
 30
0.0000000000000000
 40
25.00000000000000
100
AcDbArc
 50
329.1405310750814
 51
330.8594689247914
  0
LINE
  5
271
100
AcDbEntity
  8
MAIN0
  6
CONTINUOUS
 62
3
100
AcDbLine
 10
251.3394587476132
 20
185.6502699985829
 30
0.0000000000000000
 11
253.2153389419975
 21
178.6493898041973
 31
0.0000000000000000
  0
LINE
  5
272
100
AcDbEntity
  8
MAIN0
  6
CONTINUOUS
 62
3
100
AcDbLine
 10
249.1002294565572
 20
230.7236231958338
 30
0.0000000000000000
 11
249.1002294565581
 21
231.6029813788561
 31
0.0000000000000000
  0
LINE
  5
273
100
AcDbEntity
  8
MAIN0
  6
CONTINUOUS
 62
3
100
AcDbLine
 10
249.1002294565193
 20
196.5557443078209
 30
0.0000000000000000
 11
249.1002294565215
 21
198.5458105376424
 31
0.0000000000000000
  0
LINE
  5
274
100
AcDbEntity
  8
MAIN0
  6
CONTINUOUS
 62
3
100
AcDbLine
 10
242.7002294565193
 20
196.5557443078280
 30
0.0000000000000000
 11
242.7002294565215
 21
198.5458105376495
 31
0.0000000000000000
  0
LINE
  5
275
100
AcDbEntity
  8
MAIN0
  6
CONTINUOUS
 62
3
100
AcDbLine
 10
242.7002294565572
 20
230.7236231958409
 30
0.0000000000000000
 11
242.7002294565582
 21
231.6029813788632
 31
0.0000000000000000
  0
LINE
  5
276
100
AcDbEntity
  8
MAIN0
  6
CONTINUOUS
 62
3
100
AcDbLine
 10
237.9504263098881
 20
188.3288439319342
 30
0.0000000000000000
 11
236.2269783996480
 21
187.3338108170256
 31
0.0000000000000000
  0
LINE
  5
277
100
AcDbEntity
  8
MAIN0
  6
CONTINUOUS
 62
3
100
AcDbLine
 10
208.3601751994183
 20
171.2449044879636
 30
0.0000000000000000
 11
207.5986286738947
 21
170.8052253964534
 31
0.0000000000000000
  0
LINE
  5
278
100
AcDbEntity
  8
MAIN0
  6
CONTINUOUS
 62
3
100
AcDbLine
 10
241.1504263098833
 20
182.7862813477085
 30
0.0000000000000000
 11
239.4269783996436
 21
181.7912482327994
 31
0.0000000000000000
  0
LINE
  5
279
100
AcDbEntity
  8
MAIN0
  6
CONTINUOUS
 62
3
100
AcDbLine
 10
211.5601751994186
 20
165.7023419037289
 30
0.0000000000000000
 11
210.7986286738953
 21
165.2626628122185
 31
0.0000000000000000
  0
LINE
  5
27A
100
AcDbEntity
  8
MAIN0
  6
CONTINUOUS
 62
3
100
AcDbLine
 10
250.6500326031247
 20
182.7862813476980
 30
0.0000000000000000
 11
252.3734805133623
 21
181.7912482327850
 31
0.0000000000000000
  0
LINE
  5
27B
100
AcDbEntity
  8
MAIN0
  6
CONTINUOUS
 62
3
100
AcDbLine
 10
280.2402837135515
 20
165.7023419036528
 30
0.0000000000000000
 11
281.0018302390740
 21
165.2626628121406
 31
0.0000000000000000
  0
LINE
  5
27C
100
AcDbEntity
  8
MAIN0
  6
CONTINUOUS
 62
3
100
AcDbLine
 10
253.8500326031323
 20
188.3288439319166
 30
0.0000000000000000
 11
255.5734805133701
 21
187.3338108170042
 31
0.0000000000000000
  0
LINE
  5
27D
100
AcDbEntity
  8
MAIN0
  6
CONTINUOUS
 62
3
100
AcDbLine
 10
283.4402837135642
 20
171.2449044878804
 30
0.0000000000000000
 11
284.2018302390868
 21
170.8052253963684
 31
0.0000000000000000
  0
ARC
  5
27E
100
AcDbEntity
  8
MAIN0
  6
CENTER
 62
3
100
AcDbCircle
 10
245.9002294565112
 20
189.2236231958951
 30
0.0000000000000000
 40
35.50000000000000
100
AcDbArc
 50
290.4594315930694
 51
317.0043490483427
  0
LINE
  5
27F
100
AcDbEntity
  8
MAIN0
  6
CENTER
 62
3
100
AcDbLine
 10
266.5895190358798
 20
153.3887224718317
 30
0.0000000000000000
 11
253.5902694547345
 21
175.9040832067014
 31
0.0000000000000000
  0
CIRCLE
  5
280
100
AcDbEntity
  8
MAIN0
  6
CONTINUOUS
 62
3
100
AcDbCircle
 10
263.6502294564771
 20
158.4797213615279
 30
0.0000000000000000
 40
3.300000000000000
  0
CIRCLE
  5
281
100
AcDbEntity
  8
MAIN0
  6
CONTINUOUS
 62
3
100
AcDbCircle
 10
263.6502294564771
 20
158.4797213615279
 30
0.0000000000000000
 40
5.500000000000000
  0
CIRCLE
  5
282
100
AcDbEntity
  8
MAIN0
  6
CONTINUOUS
 62
3
100
AcDbCircle
 10
263.6502294565452
 20
219.9675250302230
 30
0.0000000000000000
 40
5.500000000000000
  0
CIRCLE
  5
283
100
AcDbEntity
  8
MAIN0
  6
CONTINUOUS
 62
3
100
AcDbCircle
 10
263.6502294565452
 20
219.9675250302230
 30
0.0000000000000000
 40
3.300000000000000
  0
LINE
  5
284
100
AcDbEntity
  8
MAIN0
  6
CENTER
 62
3
100
AcDbLine
 10
266.5895190359592
 20
225.0585239199128
 30
0.0000000000000000
 11
260.3277672692622
 21
214.2128517156370
 31
0.0000000000000000
  0
ARC
  5
285
100
AcDbEntity
  8
MAIN0
  6
CENTER
 62
3
100
AcDbCircle
 10
245.9002294565112
 20
189.2236231958951
 30
0.0000000000000000
 40
35.50000000000000
100
AcDbArc
 50
18.73190082597808
 51
70.04259413093325
  0
CIRCLE
  5
286
100
AcDbEntity
  8
MAIN0
  6
CONTINUOUS
 62
3
100
AcDbCircle
 10
210.4002294565112
 20
189.2236231959345
 30
0.0000000000000000
 40
5.500000000000000
  0
CIRCLE
  5
287
100
AcDbEntity
  8
MAIN0
  6
CONTINUOUS
 62
3
100
AcDbCircle
 10
210.4002294565112
 20
189.2236231959345
 30
0.0000000000000000
 40
3.300000000000000
  0
ARC
  5
288
100
AcDbEntity
  8
MAIN0
  6
CENTER
 62
3
100
AcDbCircle
 10
245.9002294565112
 20
189.2236231958951
 30
0.0000000000000000
 40
35.50000000000000
100
AcDbArc
 50
170.4594315930694
 51
202.6779879663629
  0
ARC
  5
289
100
AcDbEntity
  8
MAIN0
  6
CENTER
 62
3
100
AcDbCircle
 10
245.9002294565112
 20
189.2236231958951
 30
0.0000000000000000
 40
11.50000000000000
100
AcDbArc
 50
343.2895786364629
 51
379.6592699552705
  0
CIRCLE
  5
28A
100
AcDbEntity
  8
MAIN0
  6
HIDDEN
 62
3
100
AcDbCircle
 10
257.4002294565111
 20
189.2236231958824
 30
0.0000000000000000
 40
1.900000000000000
  0
CIRCLE
  5
28B
100
AcDbEntity
  8
MAIN0
  6
HIDDEN
 62
3
100
AcDbCircle
 10
257.4002294565111
 20
189.2236231958824
 30
0.0000000000000000
 40
2.700000000000000
  0
ARC
  5
28C
100
AcDbEntity
  8
MAIN0
  6
HIDDEN
 62
3
100
AcDbCircle
 10
240.1502294565223
 20
199.1829153394225
 30
0.0000000000000000
 40
2.700000000000000
100
AcDbArc
 50
225.2986182116253
 51
458.7590352626022
  0
ARC
  5
28D
100
AcDbEntity
  8
MAIN0
  6
HIDDEN
 62
3
100
AcDbCircle
 10
240.1502294565223
 20
199.1829153394225
 30
0.0000000000000000
 40
1.900000000000000
100
AcDbArc
 50
225.2986182116254
 51
458.7590352626022
  0
ARC
  5
28E
100
AcDbEntity
  8
MAIN0
  6
CENTER
 62
3
100
AcDbCircle
 10
245.9002294565112
 20
189.2236231958951
 30
0.0000000000000000
 40
11.50000000000000
100
AcDbArc
 50
103.2895786364629
 51
133.4848172422647
  0
CIRCLE
  5
28F
100
AcDbEntity
  8
MAIN0
  6
HIDDEN
 62
3
100
AcDbCircle
 10
240.1502294565001
 20
179.2643310523805
 30
0.0000000000000000
 40
2.700000000000000
  0
CIRCLE
  5
290
100
AcDbEntity
  8
MAIN0
  6
HIDDEN
 62
3
100
AcDbCircle
 10
240.1502294565001
 20
179.2643310523805
 30
0.0000000000000000
 40
1.900000000000000
  0
ARC
  5
291
100
AcDbEntity
  8
MAIN0
  6
CENTER
 62
3
100
AcDbCircle
 10
245.9002294565112
 20
189.2236231958951
 30
0.0000000000000000
 40
11.50000000000000
100
AcDbArc
 50
223.2895786364629
 51
259.6592699552705
  0
LINE
  5
292
100
AcDbEntity
  8
MAIN0
  6
CENTER
 62
3
100
AcDbLine
 10
241.8067942574951
 20
182.1335854537266
 30
0.0000000000000000
 11
238.2999010871768
 21
176.0594683060346
 31
0.0000000000000000
  0
LINE
  5
293
100
AcDbEntity
  8
MAIN0
  6
CENTER
 62
3
100
AcDbLine
 10
253.6273634540430
 20
175.8398345152430
 30
0.0000000000000000
 11
250.2647140052307
 21
181.6641142086442
 31
0.0000000000000000
  0
LINE
  5
294
100
AcDbEntity
  8
MAIN0
  6
CENTER
 62
3
100
AcDbLine
 10
242.6715266940241
 20
194.8159004230751
 30
0.0000000000000000
 11
238.3674382141543
 21
202.2708003505005
 31
0.0000000000000000
  0
ARC
  5
295
100
AcDbEntity
  8
MAIN0
  6
CENTER
 62
3
100
AcDbCircle
 10
245.9002294565112
 20
189.2236231958951
 30
0.0000000000000000
 40
20.75000000000000
100
AcDbArc
 50
117.4060494722762
 51
183.0847175033334
  0
ARC
  5
296
100
AcDbEntity
  8
MAIN0
  6
HIDDEN
 62
3
100
AcDbCircle
 10
245.9002294565112
 20
189.2236231958951
 30
0.0000000000000000
 40
14.50000000000000
100
AcDbArc
 50
182.1255819900710
 51
477.0380016130634
  0
LINE
  5
297
100
AcDbEntity
  8
MAIN0
  6
HIDDEN
 62
3
100
AcDbLine
 10
238.4899754187488
 20
196.3886867049323
 30
0.0000000000000000
 11
238.4251358219138
 21
196.4261218636192
 31
0.0000000000000000
  0
LINE
  5
298
100
AcDbEntity
  8
MAIN0
  6
HIDDEN
 62
3
100
AcDbLine
 10
235.9899754185380
 20
192.0585596861318
 30
0.0000000000000000
 11
235.7156068577958
 21
192.2169664485338
 31
0.0000000000000000
  0
LINE
  5
299
100
AcDbEntity
  8
MAIN0
  6
HIDDEN
 62
3
100
AcDbLine
 10
235.9899754186094
 20
192.0585596860907
 30
0.0000000000000000
 11
238.4899754186168
 21
196.3886867050085
 31
0.0000000000000000
  0
LINE
  5
29A
100
AcDbEntity
  8
MAIN0
  6
HIDDEN
 62
3
100
AcDbLine
 10
238.4899754187447
 20
193.5019353592216
 30
0.0000000000000000
 11
235.9899754185379
 21
192.0585596861319
 31
0.0000000000000000
  0
LINE
  5
29B
100
AcDbEntity
  8
MAIN0
  6
HIDDEN
 62
3
100
AcDbLine
 10
238.4899754187448
 20
193.5019353592218
 30
0.0000000000000000
 11
238.4899754187489
 21
196.3886867049324
 31
0.0000000000000000
  0
LINE
  5
29C
100
AcDbEntity
  8
MAIN0
  6
HIDDEN
 62
3
100
AcDbLine
 10
253.3104834942221
 20
193.5019353593178
 30
0.0000000000000000
 11
253.3104834942253
 21
196.3886867055028
 31
0.0000000000000000
  0
LINE
  5
29D
100
AcDbEntity
  8
MAIN0
  6
HIDDEN
 62
3
100
AcDbLine
 10
253.3104834941539
 20
196.3886867054616
 30
0.0000000000000000
 11
255.8104834941464
 21
192.0585596865352
 31
0.0000000000000000
  0
LINE
  5
29E
100
AcDbEntity
  8
MAIN0
  6
HIDDEN
 62
3
100
AcDbLine
 10
253.3104834942221
 20
193.5019353593178
 30
0.0000000000000000
 11
255.8104834940144
 21
192.0585596864589
 31
0.0000000000000000
  0
LINE
  5
29F
100
AcDbEntity
  8
MAIN0
  6
HIDDEN
 62
3
100
AcDbLine
 10
255.8104834940145
 20
192.0585596864589
 30
0.0000000000000000
 11
259.5195463332984
 21
194.1999881151568
 31
0.0000000000000000
  0
LINE
  5
2A0
100
AcDbEntity
  8
MAIN0
  6
HIDDEN
 62
3
100
AcDbLine
 10
253.3104834942253
 20
196.3886867055028
 30
0.0000000000000000
 11
257.0195463332412
 21
198.5301151340460
 31
0.0000000000000000
  0
LINE
  5
2A1
100
AcDbEntity
  8
MAIN0
  6
HIDDEN
 62
3
100
AcDbLine
 10
243.4002294566363
 20
179.2236231962942
 30
0.0000000000000000
 11
243.4002294566329
 21
174.9407663388925
 31
0.0000000000000000
  0
LINE
  5
2A2
100
AcDbEntity
  8
MAIN0
  6
HIDDEN
 62
3
100
AcDbLine
 10
245.9002294564327
 20
180.6669988691459
 30
0.0000000000000000
 11
243.4002294566362
 21
179.2236231962941
 31
0.0000000000000000
  0
LINE
  5
2A3
100
AcDbEntity
  8
MAIN0
  6
HIDDEN
 62
3
100
AcDbLine
 10
248.4002294566363
 20
179.2236231961332
 30
0.0000000000000000
 11
243.4002294566363
 21
179.2236231961419
 31
0.0000000000000000
  0
LINE
  5
2A4
100
AcDbEntity
  8
MAIN0
  6
HIDDEN
 62
3
100
AcDbLine
 10
245.9002294564327
 20
180.6669988691459
 30
0.0000000000000000
 11
248.4002294566362
 21
179.2236231960507
 31
0.0000000000000000
  0
LINE
  5
2A5
100
AcDbEntity
  8
MAIN0
  6
HIDDEN
 62
3
100
AcDbLine
 10
248.4002294566363
 20
179.2236231960507
 30
0.0000000000000000
 11
248.4002294566330
 21
174.9407663389586
 31
0.0000000000000000
  0
DIMENSION
  5
2AE
100
AcDbEntity
  8
MAIN0
  6
CONTINUOUS
 62
3
100
AcDbDimension
  2
*D27
 10
193.1604433943205
 20
189.2236231959536
 30
0.0000000000000000
 11
193.8016667182635
 21
203.1833910084582
 31
0.0000000000000000
 70
162
  3
MAIN001
100
AcDb2LineAngularDimension
 13
206.9493774038464
 23
211.7119081136493
 33
0.0000000000000000
 14
207.8154028076303
 24
211.2119081136483
 34
0.0000000000000000
 15
194.1604433943205
 25
189.2236231959525
 35
0.0000000000000000
 16
194.7675925445522
 26
202.9245719633546
 36
0.0000000000000000
1001
ACAD
1000
DSTYLE
1002
{
1070
   173
1070
     1
1070
     6
1000
_OPEN
1070
     7
1000
_OPEN
1070
    41
1040
2.000000
1002
}
  0
DIMENSION
  5
2B7
100
AcDbEntity
  8
MAIN0
  6
CONTINUOUS
 62
3
100
AcDbDimension
  2
*D28
 10
207.6724910912452
 20
167.1528281601748
 30
0.0000000000000000
 11
193.8016667182537
 21
175.2638553833685
 31
0.0000000000000000
 70
162
  3
MAIN001
100
AcDb2LineAngularDimension
 13
193.1604433943205
 23
189.2236231959536
 33
0.0000000000000000
 14
194.1604433943205
 24
189.2236231959525
 34
0.0000000000000000
 15
208.5385164950286
 25
167.6528281601765
 35
0.0000000000000000
 16
194.7675925445427
 26
175.5226744284715
 36
0.0000000000000000
1001
ACAD
1000
DSTYLE
1002
{
1070
   173
1070
     1
1070
     6
1000
_OPEN
1070
     7
1000
_OPEN
1070
    41
1040
2.000000
1002
}
  0
DIMENSION
  5
2C0
100
AcDbEntity
  8
MAIN0
  6
CONTINUOUS
 62
3
100
AcDbDimension
  2
*D29
 10
225.2580194762149
 20
153.4702667300365
 30
0.0000000000000000
 11
209.1756480930970
 21
152.4990418326704
 31
0.0000000000000000
 70
162
  3
MAIN001
100
AcDb2LineAngularDimension
 13
207.6724910912452
 23
167.1528281601748
 33
0.0000000000000000
 14
208.5385164950286
 24
167.6528281601765
 34
0.0000000000000000
 15
225.7580194762179
 25
154.3362921338193
 35
0.0000000000000000
 16
208.4685413119100
 26
151.7919350514844
 36
0.0000000000000000
1001
ACAD
1000
DSTYLE
1002
{
1070
   173
1070
     1
1070
     6
1000
_OPEN
1070
     7
1000
_OPEN
1070
    41
1040
2.000000
1002
}
  0
DIMENSION
  5
2C9
100
AcDbEntity
  8
MAIN0
  6
CONTINUOUS
 62
3
100
AcDbDimension
  2
*D30
 10
245.9002294564583
 20
141.5445841870418
 30
0.0000000000000000
 11
232.4580997340335
 21
139.0569121103557
 31
0.0000000000000000
 70
162
  3
MAIN001
100
AcDb2LineAngularDimension
 13
225.2580194762149
 23
153.4702667300365
 33
0.0000000000000000
 14
225.7580194762179
 24
154.3362921338193
 34
0.0000000000000000
 15
245.9002294564566
 25
142.5445841870418
 35
0.0000000000000000
 16
232.1992806889301
 26
138.0909862840669
 36
0.0000000000000000
1001
ACAD
1000
DSTYLE
1002
{
1070
   173
1070
     1
1070
     6
1000
_OPEN
1070
     7
1000
_OPEN
1070
    41
1040
2.000000
1002
}
  0
DIMENSION
  5
2D2
100
AcDbEntity
  8
MAIN0
  6
CONTINUOUS
 62
3
100
AcDbDimension
  2
*D31
 10
266.5895190358798
 20
153.3887224718316
 30
0.0000000000000000
 11
259.3423591787614
 21
139.0569121103667
 31
0.0000000000000000
 70
162
  3
MAIN001
100
AcDb2LineAngularDimension
 13
245.9002294564583
 23
141.5445841870418
 33
0.0000000000000000
 14
245.9002294564566
 24
142.5445841870418
 34
0.0000000000000000
 15
266.0895190358783
 25
154.2547478756152
 35
0.0000000000000000
 16
259.6011782238655
 26
138.0909862840780
 36
0.0000000000000000
1001
ACAD
1000
DSTYLE
1002
{
1070
   173
1070
     1
1070
     6
1000
_OPEN
1070
     7
1000
_OPEN
1070
    41
1040
2.000000
1002
}
  0
DIMENSION
  5
2DB
100
AcDbEntity
  8
MAIN0
  6
CONTINUOUS
 62
3
100
AcDbDimension
  2
*D32
 10
225.2570388418610
 20
224.9786781702838
 30
0.0000000000000000
 11
232.0698711664695
 21
240.8392230207836
 31
0.0000000000000000
 70
162
  3
MAIN001
100
AcDb2LineAngularDimension
 13
245.9002294565630
 23
236.0048440602517
 33
0.0000000000000000
 14
245.9002294565619
 24
235.0048440602517
 34
0.0000000000000000
 15
225.7570388418621
 25
224.1126527665000
 35
0.0000000000000000
 16
232.1992806890208
 26
240.3562601076391
 36
0.0000000000000000
1001
ACAD
1000
DSTYLE
1002
{
1070
   173
1070
     1
1070
     6
1000
_OPEN
1070
     7
1000
_OPEN
1070
    41
1040
2.000000
1002
}
  0
DIMENSION
  5
2E4
100
AcDbEntity
  8
MAIN0
  6
CONTINUOUS
 62
3
100
AcDbDimension
  2
*D33
 10
206.9493774038464
 20
211.7119081136493
 30
0.0000000000000000
 11
208.1149879213668
 21
227.0088647308355
 31
0.0000000000000000
 70
162
  3
MAIN001
100
AcDb2LineAngularDimension
 13
225.2570388418610
 23
224.9786781702838
 33
0.0000000000000000
 14
225.7570388418622
 24
224.1126527665000
 34
0.0000000000000000
 15
207.8154028076303
 25
211.2119081136482
 35
0.0000000000000000
 16
208.4685413119601
 26
226.6553113402423
 36
0.0000000000000000
1001
ACAD
1000
DSTYLE
1002
{
1070
   173
1070
     1
1070
     6
1000
_OPEN
1070
     7
1000
_OPEN
1070
    41
1040
2.000000
1002
}
  0
DIMENSION
  5
2EB
100
AcDbEntity
  8
MAIN0
  6
CONTINUOUS
 62
3
100
AcDbDimension
  2
*D34
 10
212.5050635973774
 20
177.1814931002291
 30
0.0000000000000000
 11
265.5798995758469
 21
196.5857710245332
 31
0.0000000000000000
 70
163
  3
MAIN001
100
AcDbDiametricDimension
 15
279.2953953156450
 25
201.2657532915611
 35
0.0000000000000000
1001
ACAD
1000
DSTYLE
1002
{
1070
   287
1070
     2
1070
   173
1070
     1
1070
     6
1000
_OPEN
1070
     7
1000
_OPEN
1070
    41
1040
2.000000
1070
   272
1070
     1
1070
    47
1040
0.200000
1070
    48
1040
0.200000
1070
    71
1070
     1
1002
}
  0
DIMENSION
  5
2F2
100
AcDbEntity
  8
MAIN0
  6
CONTINUOUS
 62
3
100
AcDbDimension
  2
*D35
 10
281.9972570734187
 20
194.6323751059217
 30
0.0000000000000000
 11
266.1844420760793
 21
192.5157855038468
 31
0.0000000000000000
 70
163
  3
MAIN001
100
AcDbDiametricDimension
 15
209.8032018396037
 25
183.8148712858686
 35
0.0000000000000000
1001
ACAD
1000
DSTYLE
1002
{
1070
   287
1070
     2
1070
   173
1070
     1
1070
     6
1000
_OPEN
1070
     7
1000
_OPEN
1070
    41
1040
2.000000
1070
   272
1070
     1
1070
    47
1040
0.200000
1070
    48
1040
0.200000
1070
    71
1070
     1
1002
}
  0
MTEXT
  5
2F3
100
AcDbEntity
  8
MAIN0
  6
CONTINUOUS
 62
3
100
AcDbMText
 10
240.5209904704333
 20
200.2168036664669
 30
0.0000000000000000
 40
4.000000000000000
 41
0.0000000000000000
 71
     1
 72
     1
  1
{\H0.91x;{SC-3}}
 11
-0.4999999999999635
 21
-0.8660254037844597
 31
0.0000000000000000
  7
STANDARD
  0
MTEXT
  5
2F4
100
AcDbEntity
  8
MAIN0
  6
CONTINUOUS
 62
3
100
AcDbMText
 10
240.7107021069110
 20
211.9380007661954
 30
0.0000000000000000
 40
5.000000000000000
 41
0.0000000000000000
 71
     1
 72
     1
  1
{\H0.93x;{KITAGAWA}}
 11
-0.4999999999999635
 21
-0.8660254037844597
 31
0.0000000000000000
  7
STANDARD
  0
LINE
  5
2F5
100
AcDbEntity
  8
MAIN0
  6
CONTINUOUS
 62
3
100
AcDbLine
 10
235.8453787449399
 20
214.8081109009238
 30
0.0000000000000000
 11
217.8384802712194
 21
183.6192478577735
 31
0.0000000000000000
  0
MTEXT
  5
2F6
100
AcDbEntity
  8
MAIN0
  6
CONTINUOUS
 62
3
100
AcDbMText
 10
240.8432688102155
 20
224.3516466467120
 30
0.0000000000000000
 40
4.000000000000000
 41
0.0000000000000000
 71
     1
 72
     1
  1
{\H0.90x;{MAX.2500/min}}
 11
-0.4999999999999635
 21
-0.8660254037844597
 31
0.0000000000000000
  7
STANDARD
  0
MTEXT
  5
2F7
100
AcDbEntity
  8
MAIN0
  6
CONTINUOUS
 62
3
100
AcDbMText
 10
224.7464927909737
 20
208.8067595589860
 30
0.0000000000000000
 40
3.000000000000000
 41
0.0000000000000000
 71
     1
 72
     1
  1
{\H0.92x;{JAPAN}}
 11
-0.4999999999999635
 21
-0.8660254037844597
 31
0.0000000000000000
  7
STANDARD
  0
LINE
  5
2F8
100
AcDbEntity
  8
MAIN0
  6
PHANTOM
 62
3
100
AcDbLine
 10
214.6337028973434
 20
198.7826106190722
 30
0.0000000000000000
 11
221.9886402339557
 21
211.5217357726029
 31
0.0000000000000000
  0
LINE
  5
2F9
100
AcDbEntity
  8
MAIN0
  6
PHANTOM
 62
3
100
AcDbLine
 10
221.9886402339557
 20
211.5217357726029
 30
0.0000000000000000
 11
219.3905640226024
 21
213.0217357726028
 31
0.0000000000000000
  0
LINE
  5
2FA
100
AcDbEntity
  8
MAIN0
  6
PHANTOM
 62
3
100
AcDbLine
 10
212.0356266859936
 20
200.2826106190782
 30
0.0000000000000000
 11
219.3905640226024
 21
213.0217357726028
 31
0.0000000000000000
  0
LINE
  5
2FB
100
AcDbEntity
  8
MAIN0
  6
PHANTOM
 62
3
100
AcDbLine
 10
214.6337028973144
 20
198.7826106190889
 30
0.0000000000000000
 11
212.0356266859646
 21
200.2826106190950
 31
0.0000000000000000
  0
LINE
  5
2FC
100
AcDbEntity
  8
MAIN0
  6
CONTINUOUS
 62
3
100
AcDbLine
 10
325.6742433835436
 20
255.0842607881885
 30
0.0000000000000000
 11
338.6742433835436
 21
255.0842607881961
 31
0.0000000000000000
  0
LINE
  5
2FD
100
AcDbEntity
  8
MAIN0
  6
CONTINUOUS
 62
3
100
AcDbLine
 10
325.6742433835436
 20
255.0842607881885
 30
0.0000000000000000
 11
324.6742433835436
 21
254.0842607881879
 31
0.0000000000000000
  0
LINE
  5
2FE
100
AcDbEntity
  8
MAIN0
  6
CONTINUOUS
 62
3
100
AcDbLine
 10
338.6742433835436
 20
255.0842607881961
 30
0.0000000000000000
 11
339.6742433835436
 21
254.0842607881967
 31
0.0000000000000000
  0
LINE
  5
2FF
100
AcDbEntity
  8
MAIN0
  6
CONTINUOUS
 62
3
100
AcDbLine
 10
324.6742433835436
 20
254.0842607881857
 30
0.0000000000000000
 11
339.6742433835436
 21
254.0842607881799
 31
0.0000000000000000
  0
LINE
  5
300
100
AcDbEntity
  8
MAIN0
  6
CONTINUOUS
 62
3
100
AcDbLine
 10
92.74123074386273
 20
197.2236231961740
 30
0.0000000000000000
 11
102.7184474926410
 21
197.2236231963365
 31
0.0000000000000000
  0
LINE
  5
301
100
AcDbEntity
  8
MAIN0
  6
HIDDEN
 62
3
100
AcDbLine
 10
102.7184474926410
 20
197.2236231963365
 30
0.0000000000000000
 11
133.2412307438627
 21
197.2236231959352
 31
0.0000000000000000
  0
LINE
  5
302
100
AcDbEntity
  8
MAIN0
  6
CONTINUOUS
 62
3
100
AcDbLine
 10
92.74123074381441
 20
181.2236231961740
 30
0.0000000000000000
 11
100.4703479343092
 21
181.2236231950154
 31
0.0000000000000000
  0
LINE
  5
303
100
AcDbEntity
  8
MAIN0
  6
HIDDEN
 62
3
100
AcDbLine
 10
100.4703479343092
 20
181.2236231950154
 30
0.0000000000000000
 11
133.2412307438144
 21
181.2236231960875
 31
0.0000000000000000
  0
SPLINE
  5
304
100
AcDbEntity
  8
MAIN0
  6
CONTINUOUS
 62
3
100
AcDbSpline
210
0.0000000000000000
220
0.0000000000000000
230
1.000000000000000
 70
     8
 71
     3
 72
    16
 73
    12
 74
     0
 42
1.000000000000000e-007
 43
1.000000000000000e-007
 12
-0.5787258364512020
 22
-0.8490784228352766
 32
0.0000000000000000
 13
-0.2524865629023267
 23
-0.9655785182815180
 33
0.0000000000000000
 40
0.0000000000000000
 40
0.0000000000000000
 40
0.0000000000000000
 40
0.0000000000000000
 40
14.44146016248586
 40
27.20349705641637
 40
36.28801764958274
 40
47.95865994389582
 40
52.51009058355417
 40
61.62689443123489
 40
71.19819310975861
 40
81.19349584233976
 40
88.66250317177712
 40
88.66250317177712
 40
88.66250317177712
 40
88.66250317177712
 10
111.3627671384049
 20
231.7236231961177
 30
0.0000000000000000
 10
108.5768851010344
 20
227.6363124567171
 30
0.0000000000000000
 10
103.3290962382437
 20
219.9370116646283
 30
0.0000000000000000
 10
103.6087243575265
 20
207.4518847210098
 30
0.0000000000000000
 10
103.0513843903657
 20
196.3317660441390
 30
0.0000000000000000
 10
100.2379498712370
 20
188.1511462671722
 30
0.0000000000000000
 10
100.4577559647957
 20
179.7344510868882
 30
0.0000000000000000
 10
101.4596882418386
 20
171.5966867574691
 30
0.0000000000000000
 10
94.76301671504160
 20
163.8402113433224
 30
0.0000000000000000
 10
93.52807028609425
 20
154.7486484170728
 30
0.0000000000000000
 10
92.05823574575442
 20
149.1275942062419
 30
0.0000000000000000
 10
91.42962774945377
 20
146.7236231961779
 30
0.0000000000000000
  0
LINE
  5
305
100
AcDbEntity
  8
MAIN0
  6
CONTINUOUS
 62
3
100
AcDbLine
 10
89.24123074371030
 20
146.7236231961845
 30
0.0000000000000000
 11
132.2412307437103
 21
146.7236231960548
 31
0.0000000000000000
  0
LINE
  5
306
100
AcDbEntity
  8
MAIN0
  6
HIDDEN
 62
3
100
AcDbLine
 10
126.2412307436093
 20
148.2236231960940
 30
0.0000000000000000
 11
132.8412307436092
 21
148.2236231960542
 31
0.0000000000000000
  0
LINE
  5
307
100
AcDbEntity
  8
MAIN0
  6
HIDDEN
 62
3
100
AcDbLine
 10
132.8412307436092
 20
148.2236231960542
 30
0.0000000000000000
 11
133.2412307436070
 21
147.8236231960518
 31
0.0000000000000000
  0
LINE
  5
308
100
AcDbEntity
  8
MAIN0
  6
HIDDEN
 62
3
100
AcDbLine
 10
132.8412307436708
 20
159.2236231960541
 30
0.0000000000000000
 11
133.2412307436730
 21
159.6236231960517
 31
0.0000000000000000
  0
LINE
  5
309
100
AcDbEntity
  8
MAIN0
  6
HIDDEN
 62
3
100
AcDbLine
 10
126.2412307436708
 20
159.2236231960940
 30
0.0000000000000000
 11
132.8412307436708
 21
159.2236231960542
 31
0.0000000000000000
  0
LINE
  5
30A
100
AcDbEntity
  8
MAIN0
  6
HIDDEN
 62
3
100
AcDbLine
 10
126.2412307436708
 20
159.2236231960940
 30
0.0000000000000000
 11
126.2412307436093
 21
148.2236231960940
 31
0.0000000000000000
  0
LINE
  5
30B
100
AcDbEntity
  8
MAIN0
  6
HIDDEN
 62
3
100
AcDbLine
 10
88.64123074362158
 20
150.4236231963210
 30
0.0000000000000000
 11
126.2412307436186
 21
150.4236231960940
 31
0.0000000000000000
  0
LINE
  5
30C
100
AcDbEntity
  8
MAIN0
  6
HIDDEN
 62
3
100
AcDbLine
 10
88.64123074365850
 20
157.0236231963210
 30
0.0000000000000000
 11
126.2412307436585
 21
157.0236231960940
 31
0.0000000000000000
  0
LINE
  5
30D
100
AcDbEntity
  8
MAIN0
  6
HIDDEN
 62
3
100
AcDbLine
 10
88.64123074362158
 20
150.4236231963209
 30
0.0000000000000000
 11
88.24123074361935
 21
150.0236231963234
 31
0.0000000000000000
  0
LINE
  5
30E
100
AcDbEntity
  8
MAIN0
  6
HIDDEN
 62
3
100
AcDbLine
 10
88.64123074365847
 20
157.0236231963210
 30
0.0000000000000000
 11
88.24123074366071
 21
157.4236231963234
 31
0.0000000000000000
  0
LEADER
  5
30F
100
AcDbEntity
  8
MAIN0
  6
CONTINUOUS
 62
3
100
AcDbLeader
  3
MAIN001
 73
     0
 75
     1
 40
3.099999904632568
 41
10.77900032901764
 76
     3
 10
82.11092988910562
 20
150.7236231963603
 30
0.0000000000000000
 10
71.39137983087278
 20
138.3415348865258
 30
0.0000000000000000
 10
69.46437988666273
 20
138.3415348865258
 30
0.0000000000000000
340
310
213
0.0000000000000000
223
-0.5000000000000000
233
0.0000000000000000
1001
ACAD
1000
DSTYLE
1002
{
1070
   147
1040
0.0
1070
    77
1070
     1
1070
   173
1070
     1
1070
     6
1000
_OPEN
1070
     7
1000
_OPEN
1002
}
  0
MTEXT
  5
310
102
{ACAD_REACTORS
330
30F
102
}
100
AcDbEntity
  8
MAIN0
  6
CONTINUOUS
 62
3
100
AcDbMText
 10
58.68537955764509
 20
141.9415347911584
 30
0.0000000000000000
 40
3.099999904632568
 41
0.0000000000000000
 71
     1
 72
     1
  1
{\H0.91x;{3-M6}}
 11
1.000000000000000
 21
0.0000000000000000
 31
0.0000000000000000
  7
STANDARD
  0
DIMENSION
  5
319
100
AcDbEntity
  8
MAIN0
  6
CONTINUOUS
 62
3
100
AcDbDimension
  2
*D36
 10
139.3918672741090
 20
159.2236231960146
 30
0.0000000000000000
 11
138.8918672740758
 21
153.7236231960176
 31
0.0000000000000000
 70
32
  1
\A1;\U+220511
  3
MAIN001
100
AcDbAlignedDimension
 13
132.8412307436092
 23
148.2236231960542
 33
0.0000000000000000
 14
132.8412307436708
 24
159.2236231960542
 34
0.0000000000000000
 50
89.99999999965415
100
AcDbRotatedDimension
1001
ACAD
1000
DSTYLE
1002
{
1070
   173
1070
     1
1070
     6
1000
_OPEN
1070
     7
1000
_OPEN
1070
    41
1040
2.000000
1002
}
  0
DIMENSION
  5
324
100
AcDbEntity
  8
MAIN0
  6
CONTINUOUS
 62
3
100
AcDbDimension
  2
*D37
 10
68.38273292086765
 20
157.0236231964432
 30
0.0000000000000000
 11
67.88273292084773
 21
153.7236231964462
 31
0.0000000000000000
 70
32
  1
\A1;\U+22056.6
  3
MAIN001
100
AcDbAlignedDimension
 13
88.64123074362158
 23
150.4236231963210
 33
0.0000000000000000
 14
88.64123074365850
 24
157.0236231963210
 34
0.0000000000000000
 50
89.99999999965432
100
AcDbRotatedDimension
1001
ACAD
1000
DSTYLE
1002
{
1070
   173
1070
     1
1070
     6
1000
_OPEN
1070
     7
1000
_OPEN
1070
    41
1040
2.000000
1070
   287
1070
     0
1002
}
  0
DIMENSION
  5
32D
100
AcDbEntity
  8
MAIN0
  6
CONTINUOUS
 62
3
100
AcDbDimension
  2
*D38
 10
126.2412307435518
 20
138.7042026564823
 30
0.0000000000000000
 11
129.7412307436084
 21
139.2042026564612
 31
0.0000000000000000
 70
32
  3
MAIN001
100
AcDbAlignedDimension
 13
133.2412307437133
 23
147.7236231960517
 33
0.0000000000000000
 14
126.2412307436093
 24
148.2236231960940
 34
0.0000000000000000
 50
179.9999999996543
100
AcDbRotatedDimension
1001
ACAD
1000
DSTYLE
1002
{
1070
   173
1070
     1
1070
     6
1000
_OPEN
1070
     7
1000
_OPEN
1070
    41
1040
2.000000
1002
}
  0
DIMENSION
  5
336
100
AcDbEntity
  8
MAIN0
  6
CONTINUOUS
 62
3
100
AcDbDimension
  2
*D39
 10
88.24123074367711
 20
131.6321553224297
 30
0.0000000000000000
 11
82.24123074364951
 21
132.1321553224297
 31
0.0000000000000000
 70
32
  3
MAIN001
100
AcDbAlignedDimension
 13
76.24123074362191
 23
150.7236231963958
 33
0.0000000000000000
 14
88.24123074371332
 24
147.7236231961875
 34
0.0000000000000000
100
AcDbRotatedDimension
1001
ACAD
1000
DSTYLE
1002
{
1070
   173
1070
     1
1070
     6
1000
_OPEN
1070
     7
1000
_OPEN
1070
    41
1040
2.000000
1002
}
  0
LEADER
  5
337
100
AcDbEntity
  8
MAIN0
  6
CONTINUOUS
 62
3
100
AcDbLeader
  3
MAIN001
 73
     0
 74
     0
 75
     1
 40
3.099999904632568
 41
10.78100032901763
 76
     3
 10
95.78273658877893
 20
228.7236231961648
 30
0.0000000000000000
 10
105.3009591918132
 20
238.2569237917523
 30
0.0000000000000000
 10
107.2259591360232
 20
238.2569237917523
 30
0.0000000000000000
340
338
213
0.0000000000000000
223
-0.5000000000000000
233
0.0000000000000000
1001
ACAD
1000
DSTYLE
1002
{
1070
   147
1040
0.0
1070
    77
1070
     1
1070
   173
1070
     1
1070
     6
1000
_OPEN
1070
     7
1000
_OPEN
1002
}
  0
MTEXT
  5
338
102
{ACAD_REACTORS
330
337
102
}
100
AcDbEntity
  8
MAIN0
  6
CONTINUOUS
 62
3
100
AcDbMText
 10
107.2269591360232
 20
241.8569236963849
 30
0.0000000000000000
 40
3.099999904632568
 41
0.0000000000000000
 71
     1
 72
     1
  1
{\H0.91x;{3-M6}}
 11
1.000000000000000
 21
0.0000000000000000
 31
0.0000000000000000
  7
STANDARD
  0
ARC
  5
339
100
AcDbEntity
  8
MAIN0
  6
CONTINUOUS
 62
3
100
AcDbCircle
 10
105.2412307436370
 20
112.4175009383847
 30
0.0000000000000000
 40
4.700000000000000
100
AcDbArc
 50
86.86830622665885
 51
93.13169377299614
  0
LINE
  5
33A
100
AcDbEntity
  8
MAIN0
  6
CONTINUOUS
 62
3
100
AcDbLine
 10
233.8648926605001
 20
119.8658790839614
 30
0.0000000000000000
 11
265.4781413145229
 21
119.8658790839701
 31
0.0000000000000000
  0
LINE
  5
33B
100
AcDbEntity
  8
MAIN0
  6
CONTINUOUS
 62
3
100
AcDbLine
 10
233.8648926605001
 20
108.8658790839614
 30
0.0000000000000000
 11
265.4781413145259
 21
108.8658790839701
 31
0.0000000000000000
  0
LINE
  5
33C
100
AcDbEntity
  8
MAIN0
  6
CONTINUOUS
 62
3
100
AcDbLine
 10
267.8648926605001
 20
96.59595891270175
 30
0.0000000000000000
 11
233.8648926605001
 21
96.59595891271117
 31
0.0000000000000000
  0
LINE
  5
33D
100
AcDbEntity
  8
MAIN0
  6
CONTINUOUS
 62
3
100
AcDbLine
 10
233.3648926605001
 20
70.59595891271128
 30
0.0000000000000000
 11
233.3648926605001
 21
96.09595891271131
 31
0.0000000000000000
  0
LINE
  5
33E
100
AcDbEntity
  8
MAIN0
  6
CONTINUOUS
 62
3
100
AcDbLine
 10
233.3648926605001
 20
109.3658790839612
 30
0.0000000000000000
 11
233.3648926605001
 21
119.3658790839612
 31
0.0000000000000000
  0
LINE
  5
33F
100
AcDbEntity
  8
MAIN0
  6
CONTINUOUS
 62
3
100
AcDbLine
 10
268.3648926605001
 20
70.59595891270155
 30
0.0000000000000000
 11
268.3648926605001
 21
96.09595891270161
 31
0.0000000000000000
  0
LINE
  5
340
100
AcDbEntity
  8
MAIN0
  6
CONTINUOUS
 62
3
100
AcDbLine
 10
268.3648926605001
 20
113.8658790839950
 30
0.0000000000000000
 11
268.3648926605001
 21
114.8658790839468
 31
0.0000000000000000
  0
LINE
  5
341
100
AcDbEntity
  8
MAIN0
  6
CONTINUOUS
 62
3
100
AcDbLine
 10
265.4781413145259
 20
108.8658790839701
 30
0.0000000000000000
 11
268.3648926605001
 21
113.8658790839950
 31
0.0000000000000000
  0
LINE
  5
342
100
AcDbEntity
  8
MAIN0
  6
CENTER
 62
3
100
AcDbLine
 10
230.6833820311631
 20
114.3658790839605
 30
0.0000000000000000
 11
272.0291952257570
 21
114.3658790839720
 31
0.0000000000000000
  0
LINE
  5
343
100
AcDbEntity
  8
MAIN0
  6
CONTINUOUS
 62
3
100
AcDbLine
 10
265.4781413145229
 20
119.8658790839702
 30
0.0000000000000000
 11
268.3648926604998
 21
114.8658790839469
 31
0.0000000000000000
  0
LINE
  5
344
100
AcDbEntity
  8
MAIN0
  6
PHANTOM
 62
3
100
AcDbLine
 10
273.3041811773232
 20
81.59595891270021
 30
0.0000000000000000
 11
227.4048588863031
 21
81.59595891271293
 31
0.0000000000000000
  0
LINE
  5
345
100
AcDbEntity
  8
MAIN0
  6
PHANTOM
 62
3
100
AcDbLine
 10
268.3648926604971
 20
85.59595891270161
 30
0.0000000000000000
 11
233.3648926604971
 21
85.59595891271131
 31
0.0000000000000000
  0
LINE
  5
346
100
AcDbEntity
  8
MAIN0
  6
CONTINUOUS
 62
3
100
AcDbLine
 10
267.0081195278090
 20
72.29595891270196
 30
0.0000000000000000
 11
233.3648926605015
 21
72.29595891271130
 31
0.0000000000000000
  0
LINE
  5
347
100
AcDbEntity
  8
MAIN0
  6
CONTINUOUS
 62
3
100
AcDbLine
 10
267.0081195278090
 20
78.84595891270195
 30
0.0000000000000000
 11
233.3648926605033
 21
78.84595891271128
 31
0.0000000000000000
  0
LINE
  5
348
100
AcDbEntity
  8
MAIN0
  6
CONTINUOUS
 62
3
100
AcDbLine
 10
265.4781413145852
 20
72.29595891270239
 30
0.0000000000000000
 11
265.4781413145843
 21
70.09595891270237
 31
0.0000000000000000
  0
LINE
  5
349
100
AcDbEntity
  8
MAIN0
  6
CONTINUOUS
 62
3
100
AcDbLine
 10
265.4781413145947
 20
96.59595891270234
 30
0.0000000000000000
 11
265.4781413145878
 21
78.84595891270240
 31
0.0000000000000000
  0
LINE
  5
34A
100
AcDbEntity
  8
MAIN0
  6
CONTINUOUS
 62
3
100
AcDbLine
 10
267.0081195278090
 20
72.29595891270193
 30
0.0000000000000000
 11
267.0081195278090
 21
78.84595891270195
 31
0.0000000000000000
  0
LINE
  5
34B
100
AcDbEntity
  8
MAIN0
  6
CONTINUOUS
 62
3
100
AcDbLine
 10
264.3648926605001
 20
67.59595891270161
 30
0.0000000000000000
 11
264.3648926605001
 21
70.09595891270269
 31
0.0000000000000000
  0
LINE
  5
34C
100
AcDbEntity
  8
MAIN0
  6
CONTINUOUS
 62
3
100
AcDbLine
 10
262.2548926605001
 20
67.59595891270161
 30
0.0000000000000000
 11
262.2548926605001
 21
70.09595891270269
 31
0.0000000000000000
  0
LINE
  5
34D
100
AcDbEntity
  8
MAIN0
  6
CONTINUOUS
 62
3
100
AcDbLine
 10
260.1448926605001
 20
67.59595891270161
 30
0.0000000000000000
 11
260.1448926605001
 21
70.09595891270269
 31
0.0000000000000000
  0
LINE
  5
34E
100
AcDbEntity
  8
MAIN0
  6
CONTINUOUS
 62
3
100
AcDbLine
 10
255.9248926605001
 20
67.59595891270161
 30
0.0000000000000000
 11
255.9248926605001
 21
70.09595891270269
 31
0.0000000000000000
  0
LINE
  5
34F
100
AcDbEntity
  8
MAIN0
  6
CONTINUOUS
 62
3
100
AcDbLine
 10
258.0348926605001
 20
67.59595891270161
 30
0.0000000000000000
 11
258.0348926605001
 21
70.09595891270269
 31
0.0000000000000000
  0
LINE
  5
350
100
AcDbEntity
  8
MAIN0
  6
CONTINUOUS
 62
3
100
AcDbLine
 10
253.8148926605001
 20
67.59595891270161
 30
0.0000000000000000
 11
253.8148926605001
 21
70.09595891270269
 31
0.0000000000000000
  0
LINE
  5
351
100
AcDbEntity
  8
MAIN0
  6
CONTINUOUS
 62
3
100
AcDbLine
 10
251.7048926605001
 20
67.59595891270161
 30
0.0000000000000000
 11
251.7048926605001
 21
70.09595891270269
 31
0.0000000000000000
  0
LINE
  5
352
100
AcDbEntity
  8
MAIN0
  6
CONTINUOUS
 62
3
100
AcDbLine
 10
249.5948926605001
 20
67.59595891270161
 30
0.0000000000000000
 11
249.5948926605001
 21
70.09595891270269
 31
0.0000000000000000
  0
LINE
  5
353
100
AcDbEntity
  8
MAIN0
  6
CONTINUOUS
 62
3
100
AcDbLine
 10
247.4848926605001
 20
67.59595891270161
 30
0.0000000000000000
 11
247.4848926605001
 21
70.09595891270269
 31
0.0000000000000000
  0
LINE
  5
354
100
AcDbEntity
  8
MAIN0
  6
CONTINUOUS
 62
3
100
AcDbLine
 10
243.2648926605001
 20
67.59595891270161
 30
0.0000000000000000
 11
243.2648926605001
 21
70.09595891270269
 31
0.0000000000000000
  0
LINE
  5
355
100
AcDbEntity
  8
MAIN0
  6
CONTINUOUS
 62
3
100
AcDbLine
 10
241.1548926605001
 20
67.59595891270161
 30
0.0000000000000000
 11
241.1548926605001
 21
70.09595891270269
 31
0.0000000000000000
  0
LINE
  5
356
100
AcDbEntity
  8
MAIN0
  6
CONTINUOUS
 62
3
100
AcDbLine
 10
239.0448926605001
 20
67.59595891270161
 30
0.0000000000000000
 11
239.0448926605001
 21
70.09595891270269
 31
0.0000000000000000
  0
LINE
  5
357
100
AcDbEntity
  8
MAIN0
  6
CONTINUOUS
 62
3
100
AcDbLine
 10
236.9348926605001
 20
67.59595891270161
 30
0.0000000000000000
 11
236.9348926605001
 21
70.09595891270269
 31
0.0000000000000000
  0
LINE
  5
358
100
AcDbEntity
  8
MAIN0
  6
CONTINUOUS
 62
3
100
AcDbLine
 10
245.3748926605001
 20
67.59595891270161
 30
0.0000000000000000
 11
245.3748926605001
 21
70.09595891270269
 31
0.0000000000000000
  0
LINE
  5
359
100
AcDbEntity
  8
MAIN0
  6
CONTINUOUS
 62
3
100
AcDbLine
 10
264.3648926605001
 20
67.59595891270267
 30
0.0000000000000000
 11
262.2548926605001
 21
67.59595891270325
 31
0.0000000000000000
  0
LINE
  5
35A
100
AcDbEntity
  8
MAIN0
  6
CONTINUOUS
 62
3
100
AcDbLine
 10
260.1448926605001
 20
67.59595891270384
 30
0.0000000000000000
 11
258.0348926605001
 21
67.59595891270442
 31
0.0000000000000000
  0
LINE
  5
35B
100
AcDbEntity
  8
MAIN0
  6
CONTINUOUS
 62
3
100
AcDbLine
 10
255.9248926605001
 20
67.59595891270500
 30
0.0000000000000000
 11
253.8148926605001
 21
67.59595891270558
 31
0.0000000000000000
  0
LINE
  5
35C
100
AcDbEntity
  8
MAIN0
  6
CONTINUOUS
 62
3
100
AcDbLine
 10
251.7048926605001
 20
67.59595891270617
 30
0.0000000000000000
 11
249.5948926605001
 21
67.59595891270675
 31
0.0000000000000000
  0
LINE
  5
35D
100
AcDbEntity
  8
MAIN0
  6
CONTINUOUS
 62
3
100
AcDbLine
 10
247.4848926605001
 20
67.59595891270736
 30
0.0000000000000000
 11
245.3748926605001
 21
67.59595891270794
 31
0.0000000000000000
  0
LINE
  5
35E
100
AcDbEntity
  8
MAIN0
  6
CONTINUOUS
 62
3
100
AcDbLine
 10
239.0448926605001
 20
67.59595891270972
 30
0.0000000000000000
 11
236.9348926605001
 21
67.59595891271030
 31
0.0000000000000000
  0
LINE
  5
35F
100
AcDbEntity
  8
MAIN0
  6
CONTINUOUS
 62
3
100
AcDbLine
 10
243.2648926605001
 20
67.59595891270853
 30
0.0000000000000000
 11
241.1548926605001
 21
67.59595891270911
 31
0.0000000000000000
  0
LINE
  5
360
100
AcDbEntity
  8
MAIN0
  6
CONTINUOUS
 62
3
100
AcDbLine
 10
236.9348926605001
 20
70.09595891271029
 30
0.0000000000000000
 11
233.8648926605001
 21
70.09595891271114
 31
0.0000000000000000
  0
LINE
  5
361
100
AcDbEntity
  8
MAIN0
  6
CONTINUOUS
 62
3
100
AcDbLine
 10
241.1548926605001
 20
70.09595891270914
 30
0.0000000000000000
 11
239.0448926605001
 21
70.09595891270972
 31
0.0000000000000000
  0
LINE
  5
362
100
AcDbEntity
  8
MAIN0
  6
CONTINUOUS
 62
3
100
AcDbLine
 10
245.3748926605001
 20
70.09595891270797
 30
0.0000000000000000
 11
243.2648926605001
 21
70.09595891270855
 31
0.0000000000000000
  0
LINE
  5
363
100
AcDbEntity
  8
MAIN0
  6
CONTINUOUS
 62
3
100
AcDbLine
 10
249.5948926605001
 20
70.09595891270681
 30
0.0000000000000000
 11
247.4848926605001
 21
70.09595891270739
 31
0.0000000000000000
  0
LINE
  5
364
100
AcDbEntity
  8
MAIN0
  6
CONTINUOUS
 62
3
100
AcDbLine
 10
253.8148926605001
 20
70.09595891270564
 30
0.0000000000000000
 11
251.7048926605001
 21
70.09595891270622
 31
0.0000000000000000
  0
LINE
  5
365
100
AcDbEntity
  8
MAIN0
  6
CONTINUOUS
 62
3
100
AcDbLine
 10
258.0348926605001
 20
70.09595891270445
 30
0.0000000000000000
 11
255.9248926605001
 21
70.09595891270503
 31
0.0000000000000000
  0
LINE
  5
366
100
AcDbEntity
  8
MAIN0
  6
CONTINUOUS
 62
3
100
AcDbLine
 10
262.2548926605001
 20
70.09595891270328
 30
0.0000000000000000
 11
260.1448926605001
 21
70.09595891270386
 31
0.0000000000000000
  0
LINE
  5
367
100
AcDbEntity
  8
MAIN0
  6
CONTINUOUS
 62
3
100
AcDbLine
 10
267.8648926605001
 20
70.09595891270169
 30
0.0000000000000000
 11
264.3648926605001
 21
70.09595891270266
 31
0.0000000000000000
  0
LINE
  5
368
100
AcDbEntity
  8
MAIN0
  6
CONTINUOUS
 62
3
100
AcDbLine
 10
267.8648926605001
 20
70.09595891270166
 30
0.0000000000000000
 11
268.3648926605001
 21
70.59595891270152
 31
0.0000000000000000
  0
LINE
  5
369
100
AcDbEntity
  8
MAIN0
  6
CONTINUOUS
 62
3
100
AcDbLine
 10
233.3648926605001
 20
96.09595891271130
 30
0.0000000000000000
 11
233.8648926605001
 21
96.59595891271115
 31
0.0000000000000000
  0
LINE
  5
36A
100
AcDbEntity
  8
MAIN0
  6
CONTINUOUS
 62
3
100
AcDbLine
 10
267.8648926605001
 20
96.59595891270178
 30
0.0000000000000000
 11
268.3648926605001
 21
96.09595891270163
 31
0.0000000000000000
  0
LINE
  5
36B
100
AcDbEntity
  8
MAIN0
  6
CONTINUOUS
 62
3
100
AcDbLine
 10
233.3648926605001
 20
119.3658790839612
 30
0.0000000000000000
 11
233.8648926605001
 21
119.8658790839614
 31
0.0000000000000000
  0
LINE
  5
36C
100
AcDbEntity
  8
MAIN0
  6
CONTINUOUS
 62
3
100
AcDbLine
 10
233.3648926605001
 20
109.3658790839612
 30
0.0000000000000000
 11
233.8648926605001
 21
108.8658790839614
 31
0.0000000000000000
  0
LINE
  5
36D
100
AcDbEntity
  8
MAIN0
  6
CONTINUOUS
 62
3
100
AcDbLine
 10
233.3648926605001
 20
70.59595891271131
 30
0.0000000000000000
 11
233.8648926605001
 21
70.09595891271115
 31
0.0000000000000000
  0
INSERT
  5
380
100
AcDbEntity
  8
MAIN0
  6
CONTINUOUS
 62
3
100
AcDbBlockReference
  2
*X0
 10
0.0000000000000000
 20
0.0000000000000000
 30
0.0000000000000000
 50
0.0000000000000000
  0
LINE
  5
381
100
AcDbEntity
  8
MAIN0
  6
CONTINUOUS
 62
3
100
AcDbLine
 10
327.9742433835436
 20
190.0842607881826
 30
0.0000000000000000
 11
336.3742433835436
 21
190.0842607881793
 31
0.0000000000000000
  0
ARC
  5
382
100
AcDbEntity
  8
MAIN0
  6
CONTINUOUS
 62
3
100
AcDbCircle
 10
296.1742433835436
 20
243.0842607881967
 30
0.0000000000000000
 40
4.000000000001551
100
AcDbArc
 50
90.00000000000000
 51
270.0000000000000
  0
ARC
  5
383
100
AcDbEntity
  8
MAIN0
  6
CONTINUOUS
 62
3
100
AcDbCircle
 10
368.1742433835436
 20
243.0842607881654
 30
0.0000000000000000
 40
4.000000000001565
100
AcDbArc
 50
270.0000000000000
 51
450.0000000000000
  0
ARC
  5
384
100
AcDbEntity
  8
MAIN0
  6
CONTINUOUS
 62
3
100
AcDbCircle
 10
348.8393947734553
 20
243.0842607881780
 30
0.0000000000000000
 40
10.00000000000000
100
AcDbArc
 50
156.4218215217992
 51
203.5781784782008
  0
ARC
  5
385
100
AcDbEntity
  8
MAIN0
  6
CONTINUOUS
 62
3
100
AcDbCircle
 10
315.5090919936319
 20
243.0842607881839
 30
0.0000000000000000
 40
10.00000000000000
100
AcDbArc
 50
336.4218215218040
 51
383.5781784781957
  0
LINE
  5
386
100
AcDbEntity
  8
MAIN0
  6
CONTINUOUS
 62
3
100
AcDbLine
 10
339.6742433835436
 20
215.0842607881780
 30
0.0000000000000000
 11
339.6742433835436
 21
239.0842607881780
 31
0.0000000000000000
  0
LINE
  5
387
100
AcDbEntity
  8
MAIN0
  6
CONTINUOUS
 62
3
100
AcDbLine
 10
339.6742433835436
 20
247.0842607881780
 30
0.0000000000000000
 11
339.6742433835436
 21
254.0842607881967
 31
0.0000000000000000
  0
LINE
  5
388
100
AcDbEntity
  8
MAIN0
  6
CONTINUOUS
 62
3
100
AcDbLine
 10
324.6742433835436
 20
215.0842607881839
 30
0.0000000000000000
 11
324.6742433835436
 21
239.0842607881839
 31
0.0000000000000000
  0
LINE
  5
389
100
AcDbEntity
  8
MAIN0
  6
CONTINUOUS
 62
3
100
AcDbLine
 10
324.6742433835436
 20
247.0842607881839
 30
0.0000000000000000
 11
324.6742433835436
 21
254.0842607881879
 31
0.0000000000000000
  0
LINE
  5
38A
100
AcDbEntity
  8
MAIN0
  6
CONTINUOUS
 62
3
100
AcDbLine
 10
327.4742433835436
 20
190.5842607881829
 30
0.0000000000000000
 11
327.4742433835436
 21
202.0842607881827
 31
0.0000000000000000
  0
LINE
  5
38B
100
AcDbEntity
  8
MAIN0
  6
CONTINUOUS
 62
3
100
AcDbLine
 10
336.8742433835436
 20
190.5842607881792
 30
0.0000000000000000
 11
336.8742433835436
 21
202.0842607881827
 31
0.0000000000000000
  0
LINE
  5
38C
100
AcDbEntity
  8
MAIN0
  6
CONTINUOUS
 62
3
100
AcDbLine
 10
327.4742433835436
 20
190.5842607881829
 30
0.0000000000000000
 11
327.9742433835436
 21
190.0842607881827
 31
0.0000000000000000
  0
LINE
  5
38D
100
AcDbEntity
  8
MAIN0
  6
CONTINUOUS
 62
3
100
AcDbLine
 10
336.3742433835436
 20
190.0842607881793
 30
0.0000000000000000
 11
336.8742433835436
 21
190.5842607881791
 31
0.0000000000000000
  0
LINE
  5
38E
100
AcDbEntity
  8
MAIN0
  6
CONTINUOUS
 62
3
100
AcDbLine
 10
327.4742433835435
 20
190.5842607881829
 30
0.0000000000000000
 11
336.8742433835435
 21
190.5842607881792
 31
0.0000000000000000
  0
LINE
  5
38F
100
AcDbEntity
  8
MAIN0
  6
CONTINUOUS
 62
3
100
AcDbLine
 10
324.6742433835435
 20
215.0842607881840
 30
0.0000000000000000
 11
339.6742433835435
 21
215.0842607881781
 31
0.0000000000000000
  0
ARC
  5
390
100
AcDbEntity
  8
MAIN0
  6
CONTINUOUS
 62
3
100
AcDbCircle
 10
287.5149925841288
 20
200.2791913852331
 30
0.0000000000000000
 40
40.00000000000000
100
AcDbArc
 50
2.586449820615914
 51
21.72343357382672
  0
ARC
  5
391
100
AcDbEntity
  8
MAIN0
  6
CONTINUOUS
 62
3
100
AcDbCircle
 10
376.8334941829585
 20
200.2791913852331
 30
0.0000000000000000
 40
40.00000000000000
100
AcDbArc
 50
158.2765664261733
 51
177.4135501793841
  0
LINE
  5
392
100
AcDbEntity
  8
MAIN0
  6
CENTER
 62
3
100
AcDbLine
 10
325.5551201146473
 20
171.3445412467101
 30
0.0000000000000000
 11
338.3232125626072
 21
171.3445412467101
 31
0.0000000000000000
  0
LINE
  5
393
100
AcDbEntity
  8
MAIN0
  6
CONTINUOUS
 62
3
100
AcDbLine
 10
327.4812623481192
 20
171.6013076797708
 30
0.0000000000000000
 11
331.9174769504730
 21
176.0375222821339
 31
0.0000000000000000
  0
LINE
  5
394
100
AcDbEntity
  8
MAIN0
  6
CONTINUOUS
 62
3
100
AcDbLine
 10
332.4310098162251
 20
166.6515602112649
 30
0.0000000000000000
 11
336.8672244189893
 21
171.0877748140384
 31
0.0000000000000000
  0
LINE
  5
395
100
AcDbEntity
  8
MAIN0
  6
CONTINUOUS
 62
3
100
AcDbLine
 10
332.4310098162204
 20
176.0375222821555
 30
0.0000000000000000
 11
336.8672244189888
 21
171.6013076793902
 31
0.0000000000000000
  0
LINE
  5
396
100
AcDbEntity
  8
MAIN0
  6
CONTINUOUS
 62
3
100
AcDbLine
 10
327.4812623481195
 20
171.0877748136444
 30
0.0000000000000000
 11
331.9174769504814
 21
166.6515602112858
 31
0.0000000000000000
  0
ARC
  5
397
100
AcDbEntity
  8
MAIN0
  6
CONTINUOUS
 62
3
100
AcDbCircle
 10
332.1742433835436
 20
171.3445412467101
 30
0.0000000000000000
 40
4.700000000000000
100
AcDbArc
 50
176.8683062239763
 51
183.1316937760834
  0
ARC
  5
398
100
AcDbEntity
  8
MAIN0
  6
CONTINUOUS
 62
3
100
AcDbCircle
 10
332.1742433835436
 20
171.3445412467101
 30
0.0000000000000000
 40
4.700000000000000
100
AcDbArc
 50
356.8683062287272
 51
363.1316937713772
  0
LINE
  5
399
100
AcDbEntity
  8
MAIN0
  6
CENTER
 62
3
100
AcDbLine
 10
332.1742433835436
 20
164.7994948083764
 30
0.0000000000000000
 11
332.1742433835436
 21
179.3026759333350
 31
0.0000000000000000
  0
SPLINE
  5
39A
100
AcDbEntity
  8
MAIN0
  6
CONTINUOUS
 62
3
100
AcDbSpline
210
0.0000000000000000
220
0.0000000000000000
230
1.000000000000000
 70
     8
 71
     3
 72
    11
 73
     7
 74
     0
 42
1.000000000000000e-007
 43
1.000000000000000e-007
 12
-0.6708203932499259
 22
-0.8944271909998633
 32
0.0000000000000000
 13
-0.6708203932499828
 23
-0.8944271909998633
 33
0.0000000000000000
 40
0.0000000000000000
 40
0.0000000000000000
 40
0.0000000000000000
 40
0.0000000000000000
 40
2.236067977499434
 40
4.472135954999580
 40
6.708203932499712
 40
8.944271909999145
 40
8.944271909999145
 40
8.944271909999145
 40
8.944271909999145
 10
309.1742433835436
 20
247.0842607881900
 30
0.0000000000000000
 10
308.6742433835436
 20
246.4175941215235
 30
0.0000000000000000
 10
307.6742433835436
 20
245.0842607881903
 30
0.0000000000000000
 10
309.1742433835436
 20
243.0842607881900
 30
0.0000000000000000
 10
310.6742433835436
 20
241.0842607881898
 30
0.0000000000000000
 10
309.6742433835435
 20
239.7509274548565
 30
0.0000000000000000
 10
309.1742433835436
 20
239.0842607881900
 30
0.0000000000000000
  0
SPLINE
  5
39B
100
AcDbEntity
  8
MAIN0
  6
CONTINUOUS
 62
3
100
AcDbSpline
210
0.0000000000000000
220
0.0000000000000000
230
1.000000000000000
 70
     8
 71
     3
 72
     9
 73
     5
 74
     0
 42
1.000000000000000e-007
 43
1.000000000000000e-007
 12
-0.2236067977500227
 22
-0.2981423970000350
 32
0.0000000000000000
 13
0.6708203932499259
 23
-0.8944271909998633
 33
0.0000000000000000
 40
0.0000000000000000
 40
0.0000000000000000
 40
0.0000000000000000
 40
0.0000000000000000
 40
6.708203932499712
 40
8.944271909999145
 40
8.944271909999145
 40
8.944271909999145
 40
8.944271909999145
 10
309.1742433835436
 20
243.0842607881900
 30
0.0000000000000000
 10
308.6742433835435
 20
242.4175941215232
 30
0.0000000000000000
 10
307.6742433835436
 20
241.0842607881898
 30
0.0000000000000000
 10
308.6742433835437
 20
239.7509274548565
 30
0.0000000000000000
 10
309.1742433835436
 20
239.0842607881900
 30
0.0000000000000000
  0
SPLINE
  5
39C
100
AcDbEntity
  8
MAIN0
  6
CONTINUOUS
 62
3
100
AcDbSpline
210
0.0000000000000000
220
0.0000000000000000
230
1.000000000000000
 70
     8
 71
     3
 72
    11
 73
     7
 74
     0
 42
1.000000000000000e-007
 43
1.000000000000000e-007
 12
0.6708203932499828
 22
0.8944271909998633
 32
0.0000000000000000
 13
0.6708203932499259
 23
0.8944271909998065
 33
0.0000000000000000
 40
0.0000000000000000
 40
0.0000000000000000
 40
0.0000000000000000
 40
0.0000000000000000
 40
2.236067977499434
 40
4.472135954999580
 40
6.708203932499712
 40
8.944271909999145
 40
8.944271909999145
 40
8.944271909999145
 40
8.944271909999145
 10
306.1742433835436
 20
239.0842607881912
 30
0.0000000000000000
 10
306.6742433835435
 20
239.7509274548577
 30
0.0000000000000000
 10
307.6742433835435
 20
241.0842607881909
 30
0.0000000000000000
 10
306.1742433835435
 20
243.0842607881912
 30
0.0000000000000000
 10
304.6742433835436
 20
245.0842607881914
 30
0.0000000000000000
 10
305.6742433835436
 20
246.4175941215246
 30
0.0000000000000000
 10
306.1742433835436
 20
247.0842607881912
 30
0.0000000000000000
  0
SPLINE
  5
39D
100
AcDbEntity
  8
MAIN0
  6
CONTINUOUS
 62
3
100
AcDbSpline
210
0.0000000000000000
220
0.0000000000000000
230
1.000000000000000
 70
     8
 71
     3
 72
     9
 73
     5
 74
     0
 42
1.000000000000000e-007
 43
1.000000000000000e-007
 12
0.2236067977500227
 22
0.2981423970000350
 32
0.0000000000000000
 13
-0.6708203932499259
 23
0.8944271909998065
 33
0.0000000000000000
 40
0.0000000000000000
 40
0.0000000000000000
 40
0.0000000000000000
 40
0.0000000000000000
 40
6.708203932499712
 40
8.944271909999145
 40
8.944271909999145
 40
8.944271909999145
 40
8.944271909999145
 10
306.1742433835435
 20
243.0842607881912
 30
0.0000000000000000
 10
306.6742433835436
 20
243.7509274548580
 30
0.0000000000000000
 10
307.6742433835435
 20
245.0842607881914
 30
0.0000000000000000
 10
306.6742433835434
 20
246.4175941215246
 30
0.0000000000000000
 10
306.1742433835435
 20
247.0842607881912
 30
0.0000000000000000
  0
SPLINE
  5
39E
100
AcDbEntity
  8
MAIN0
  6
CONTINUOUS
 62
3
100
AcDbSpline
210
0.0000000000000000
220
0.0000000000000000
230
1.000000000000000
 70
     8
 71
     3
 72
     9
 73
     5
 74
     0
 42
1.000000000000000e-007
 43
1.000000000000000e-007
 12
-0.2236067977499943
 22
0.2981423970000350
 32
0.0000000000000000
 13
0.6708203932499259
 23
0.8944271909998065
 33
0.0000000000000000
 40
0.0000000000000000
 40
0.0000000000000000
 40
0.0000000000000000
 40
0.0000000000000000
 40
6.708203932499712
 40
8.944271909999145
 40
8.944271909999145
 40
8.944271909999145
 40
8.944271909999145
 10
358.1742433835436
 20
243.0842607881912
 30
0.0000000000000000
 10
357.6742433835435
 20
243.7509274548580
 30
0.0000000000000000
 10
356.6742433835436
 20
245.0842607881914
 30
0.0000000000000000
 10
357.6742433835437
 20
246.4175941215246
 30
0.0000000000000000
 10
358.1742433835436
 20
247.0842607881912
 30
0.0000000000000000
  0
SPLINE
  5
39F
100
AcDbEntity
  8
MAIN0
  6
CONTINUOUS
 62
3
100
AcDbSpline
210
0.0000000000000000
220
0.0000000000000000
230
1.000000000000000
 70
     8
 71
     3
 72
    11
 73
     7
 74
     0
 42
1.000000000000000e-007
 43
1.000000000000000e-007
 12
-0.6708203932499259
 22
0.8944271909998633
 32
0.0000000000000000
 13
-0.6708203932500396
 23
0.8944271909998065
 33
0.0000000000000000
 40
0.0000000000000000
 40
0.0000000000000000
 40
0.0000000000000000
 40
0.0000000000000000
 40
2.236067977499434
 40
4.472135954999580
 40
6.708203932499712
 40
8.944271909999145
 40
8.944271909999145
 40
8.944271909999145
 40
8.944271909999145
 10
358.1742433835436
 20
239.0842607881912
 30
0.0000000000000000
 10
357.6742433835436
 20
239.7509274548577
 30
0.0000000000000000
 10
356.6742433835436
 20
241.0842607881909
 30
0.0000000000000000
 10
358.1742433835436
 20
243.0842607881912
 30
0.0000000000000000
 10
359.6742433835436
 20
245.0842607881914
 30
0.0000000000000000
 10
358.6742433835435
 20
246.4175941215246
 30
0.0000000000000000
 10
358.1742433835436
 20
247.0842607881912
 30
0.0000000000000000
  0
SPLINE
  5
3A0
100
AcDbEntity
  8
MAIN0
  6
CONTINUOUS
 62
3
100
AcDbSpline
210
0.0000000000000000
220
0.0000000000000000
230
1.000000000000000
 70
     8
 71
     3
 72
    11
 73
     7
 74
     0
 42
1.000000000000000e-007
 43
1.000000000000000e-007
 12
0.6708203932500396
 22
-0.8944271909998633
 32
0.0000000000000000
 13
0.6708203932499259
 23
-0.8944271909998633
 33
0.0000000000000000
 40
0.0000000000000000
 40
0.0000000000000000
 40
0.0000000000000000
 40
0.0000000000000000
 40
2.236067977499434
 40
4.472135954999580
 40
6.708203932499712
 40
8.944271909999145
 40
8.944271909999145
 40
8.944271909999145
 40
8.944271909999145
 10
355.1742433835436
 20
247.0842607881900
 30
0.0000000000000000
 10
355.6742433835435
 20
246.4175941215235
 30
0.0000000000000000
 10
356.6742433835435
 20
245.0842607881903
 30
0.0000000000000000
 10
355.1742433835435
 20
243.0842607881900
 30
0.0000000000000000
 10
353.6742433835436
 20
241.0842607881898
 30
0.0000000000000000
 10
354.6742433835436
 20
239.7509274548565
 30
0.0000000000000000
 10
355.1742433835436
 20
239.0842607881900
 30
0.0000000000000000
  0
SPLINE
  5
3A1
100
AcDbEntity
  8
MAIN0
  6
CONTINUOUS
 62
3
100
AcDbSpline
210
0.0000000000000000
220
0.0000000000000000
230
1.000000000000000
 70
     8
 71
     3
 72
     9
 73
     5
 74
     0
 42
1.000000000000000e-007
 43
1.000000000000000e-007
 12
0.2236067977500227
 22
-0.2981423970000350
 32
0.0000000000000000
 13
-0.6708203932498122
 23
-0.8944271909998633
 33
0.0000000000000000
 40
0.0000000000000000
 40
0.0000000000000000
 40
0.0000000000000000
 40
0.0000000000000000
 40
6.708203932499712
 40
8.944271909999145
 40
8.944271909999145
 40
8.944271909999145
 40
8.944271909999145
 10
355.1742433835435
 20
243.0842607881900
 30
0.0000000000000000
 10
355.6742433835436
 20
242.4175941215232
 30
0.0000000000000000
 10
356.6742433835435
 20
241.0842607881898
 30
0.0000000000000000
 10
355.6742433835434
 20
239.7509274548565
 30
0.0000000000000000
 10
355.1742433835435
 20
239.0842607881900
 30
0.0000000000000000
  0
LINE
  5
3A2
100
AcDbEntity
  8
MAIN0
  6
CONTINUOUS
 62
3
100
AcDbLine
 10
296.1742433835436
 20
239.0842607881951
 30
0.0000000000000000
 11
306.1742433835436
 21
239.0842607881912
 31
0.0000000000000000
  0
LINE
  5
3A3
100
AcDbEntity
  8
MAIN0
  6
CONTINUOUS
 62
3
100
AcDbLine
 10
309.1742433835436
 20
239.0842607881900
 30
0.0000000000000000
 11
324.6742433835440
 21
239.0842607881840
 31
0.0000000000000000
  0
LINE
  5
3A4
100
AcDbEntity
  8
MAIN0
  6
CONTINUOUS
 62
3
100
AcDbLine
 10
296.1742433835436
 20
247.0842607881951
 30
0.0000000000000000
 11
306.1742433835435
 21
247.0842607881912
 31
0.0000000000000000
  0
LINE
  5
3A5
100
AcDbEntity
  8
MAIN0
  6
CONTINUOUS
 62
3
100
AcDbLine
 10
309.1742433835436
 20
247.0842607881900
 30
0.0000000000000000
 11
324.6742433835436
 21
247.0842607881840
 31
0.0000000000000000
  0
LINE
  5
3A6
100
AcDbEntity
  8
MAIN0
  6
CONTINUOUS
 62
3
100
AcDbLine
 10
339.6742433835436
 20
247.0842607881781
 30
0.0000000000000000
 11
355.1742433835436
 21
247.0842607881720
 31
0.0000000000000000
  0
LINE
  5
3A7
100
AcDbEntity
  8
MAIN0
  6
CONTINUOUS
 62
3
100
AcDbLine
 10
358.1742433835436
 20
247.0842607881708
 30
0.0000000000000000
 11
368.1742433835436
 21
247.0842607881669
 31
0.0000000000000000
  0
LINE
  5
3A8
100
AcDbEntity
  8
MAIN0
  6
CONTINUOUS
 62
3
100
AcDbLine
 10
339.6742433835435
 20
239.0842607881781
 30
0.0000000000000000
 11
355.1742433835435
 21
239.0842607881720
 31
0.0000000000000000
  0
LINE
  5
3A9
100
AcDbEntity
  8
MAIN0
  6
CONTINUOUS
 62
3
100
AcDbLine
 10
358.1742433835436
 20
239.0842607881708
 30
0.0000000000000000
 11
368.1742433835436
 21
239.0842607881669
 31
0.0000000000000000
  0
DIMENSION
  5
3B2
100
AcDbEntity
  8
MAIN0
  6
CONTINUOUS
 62
3
100
AcDbDimension
  2
*D40
 10
372.1742433835452
 20
260.8120509145440
 30
0.0000000000000000
 11
332.1742433835436
 21
261.3120509145440
 31
0.0000000000000000
 70
32
  1
\A1;110
  3
MAIN001
100
AcDbAlignedDimension
 13
292.1742433835420
 23
243.0842607881967
 33
0.0000000000000000
 14
372.1742433835452
 24
243.0842607881654
 34
0.0000000000000000
100
AcDbRotatedDimension
1001
ACAD
1000
DSTYLE
1002
{
1070
   173
1070
     1
1070
     6
1000
_OPEN
1070
     7
1000
_OPEN
1070
    41
1040
2.000000
1002
}
  0
DIMENSION
  5
3BA
100
AcDbEntity
  8
MAIN0
  6
CONTINUOUS
 62
3
100
AcDbDimension
  2
*D41
 10
318.5884235496764
 20
243.0842607881980
 30
0.0000000000000000
 11
318.0884235496764
 21
249.0842607881895
 31
0.0000000000000000
 70
32
  3
MAIN001
100
AcDbAlignedDimension
 13
332.1742433835436
 23
255.0842607881810
 33
0.0000000000000000
 14
288.8458374552595
 24
243.0842607881980
 34
0.0000000000000000
 50
90.00000000000000
100
AcDbRotatedDimension
1001
ACAD
1000
DSTYLE
1002
{
1070
   173
1070
     1
1070
     6
1000
_OPEN
1070
     7
1000
_OPEN
1070
    41
1040
2.000000
1002
}
  0
LINE
  5
3BB
100
AcDbEntity
  8
MAIN0
  6
CONTINUOUS
 62
3
100
AcDbLine
 10
331.9174769503042
 20
190.5842607881811
 30
0.0000000000000000
 11
331.9174769503147
 21
200.0842607881811
 31
0.0000000000000000
  0
LINE
  5
3BC
100
AcDbEntity
  8
MAIN0
  6
CONTINUOUS
 62
3
100
AcDbLine
 10
332.4310098162915
 20
190.5842607881809
 30
0.0000000000000000
 11
332.4310098162809
 21
200.0842607881809
 31
0.0000000000000000
  0
LINE
  5
3BD
100
AcDbEntity
  8
MAIN0
  6
CONTINUOUS
 62
3
100
AcDbLine
 10
332.4310098162810
 20
200.0842607881809
 30
0.0000000000000000
 11
336.8742433835436
 21
190.5842607881792
 31
0.0000000000000000
  0
LINE
  5
3BE
100
AcDbEntity
  8
MAIN0
  6
CONTINUOUS
 62
3
100
AcDbLine
 10
332.4310098162914
 20
190.5842607881809
 30
0.0000000000000000
 11
336.8742433835435
 21
200.0842607881791
 31
0.0000000000000000
  0
LINE
  5
3BF
100
AcDbEntity
  8
MAIN0
  6
CONTINUOUS
 62
3
100
AcDbLine
 10
331.9174769503147
 20
200.0842607881811
 30
0.0000000000000000
 11
327.4742433835436
 21
190.5842607881828
 31
0.0000000000000000
  0
LINE
  5
3C0
100
AcDbEntity
  8
MAIN0
  6
CONTINUOUS
 62
3
100
AcDbLine
 10
327.4742433835435
 20
200.0842607881828
 30
0.0000000000000000
 11
331.9174769503042
 21
190.5842607881811
 31
0.0000000000000000
  0
LINE
  5
3C1
100
AcDbEntity
  8
MAIN0
  6
CONTINUOUS
 62
3
100
AcDbLine
 10
327.4742433835436
 20
200.0842607881828
 30
0.0000000000000000
 11
331.9174769503147
 21
200.0842607881811
 31
0.0000000000000000
  0
LINE
  5
3C2
100
AcDbEntity
  8
MAIN0
  6
CONTINUOUS
 62
3
100
AcDbLine
 10
332.4310098162808
 20
200.0842607881809
 30
0.0000000000000000
 11
336.8742433835436
 21
200.0842607881791
 31
0.0000000000000000
  0
DIMENSION
  5
3C9
100
AcDbEntity
  8
MAIN0
  6
CONTINUOUS
 62
3
100
AcDbDimension
  2
*D42
 10
324.6742433835436
 20
225.2315374774606
 30
0.0000000000000000
 11
332.1742433835436
 21
225.7315374774606
 31
0.0000000000000000
 70
32
  1
\A1;\U+220515
  3
MAIN001
100
AcDbAlignedDimension
 13
339.6742433835436
 23
215.0842607881780
 33
0.0000000000000000
 14
324.6742433835436
 24
239.0842607881839
 34
0.0000000000000000
100
AcDbRotatedDimension
1001
ACAD
1000
DSTYLE
1002
{
1070
   173
1070
     1
1070
     6
1000
_OPEN
1070
     7
1000
_OPEN
1070
    41
1040
2.000000
1002
}
  0
LINE
  5
3CA
100
AcDbEntity
  8
MAIN0
  6
CENTER
 62
3
100
AcDbLine
 10
332.1742433835436
 20
186.8380495383104
 30
0.0000000000000000
 11
332.1742433835436
 21
224.4815374774607
 31
0.0000000000000000
  0
LINE
  5
3CB
100
AcDbEntity
  8
MAIN0
  6
CENTER
 62
3
100
AcDbLine
 10
332.1742433835436
 20
229.4461485516738
 30
0.0000000000000000
 11
332.1742433835436
 21
259.7697272470214
 31
0.0000000000000000
  0
DIMENSION
  5
3D4
100
AcDbEntity
  8
MAIN0
  6
CONTINUOUS
 62
3
100
AcDbDimension
  2
*D43
 10
343.9483982941623
 20
190.0842607881793
 30
0.0000000000000000
 11
343.4483982941623
 21
195.0842607881793
 31
0.0000000000000000
 70
32
  3
MAIN001
100
AcDbAlignedDimension
 13
336.8742433835436
 23
200.0842607881792
 33
0.0000000000000000
 14
336.3742433835436
 24
190.0842607881793
 34
0.0000000000000000
 50
90.00000000000000
100
AcDbRotatedDimension
1001
ACAD
1000
DSTYLE
1002
{
1070
   173
1070
     1
1070
     6
1000
_OPEN
1070
     7
1000
_OPEN
1070
    41
1040
2.000000
1002
}
  0
DIMENSION
  5
3DD
100
AcDbEntity
  8
MAIN0
  6
CONTINUOUS
 62
3
100
AcDbDimension
  2
*D44
 10
349.6206563401732
 20
190.0842607881793
 30
0.0000000000000000
 11
349.1206563401732
 21
222.5842607881802
 31
0.0000000000000000
 70
32
  3
MAIN001
100
AcDbAlignedDimension
 13
332.1742433835436
 23
255.0842607881810
 33
0.0000000000000000
 14
336.3742433835436
 24
190.0842607881793
 34
0.0000000000000000
 50
90.00000000000000
100
AcDbRotatedDimension
1001
ACAD
1000
DSTYLE
1002
{
1070
   173
1070
     1
1070
     6
1000
_OPEN
1070
     7
1000
_OPEN
1070
    41
1040
2.000000
1002
}
  0
DIMENSION
  5
3E4
100
AcDbEntity
  8
MAIN0
  6
CONTINUOUS
 62
3
100
AcDbDimension
  2
*D45
 10
302.8245397548672
 20
247.0842607881912
 30
0.0000000000000000
 11
302.3245397548672
 21
243.0842607881912
 31
0.0000000000000000
 70
32
  1
\A1;\U+22058
  3
MAIN001
100
AcDbAlignedDimension
 13
306.1742433835436
 23
239.0842607881912
 33
0.0000000000000000
 14
306.1742433835435
 24
247.0842607881912
 34
0.0000000000000000
 50
90.00000000000000
100
AcDbRotatedDimension
1001
ACAD
1000
DSTYLE
1002
{
1070
   173
1070
     1
1070
     6
1000
_OPEN
1070
     7
1000
_OPEN
1070
    41
1040
2.000000
1002
}
  0
LINE
  5
3E5
100
AcDbEntity
  8
MAIN0
  6
CENTER
 62
3
100
AcDbLine
 10
303.5745397548672
 20
243.0842607881922
 30
0.0000000000000000
 11
374.1570465155714
 21
243.0842607881646
 31
0.0000000000000000
  0
LINE
  5
3E6
100
AcDbEntity
  8
MAIN0
  6
CENTER
 62
3
100
AcDbLine
 10
288.8458374552595
 20
243.0842607881980
 30
0.0000000000000000
 11
300.2745398025510
 21
243.0842607881935
 31
0.0000000000000000
  0
ARC
  5
3E7
100
AcDbEntity
  8
MAIN0
  6
CONTINUOUS
 62
3
100
AcDbCircle
 10
332.1742433835436
 20
171.3445412467101
 30
0.0000000000000000
 40
4.700000000000000
100
AcDbArc
 50
32.78768916362177
 51
86.86830622866397
  0
ARC
  5
3E8
100
AcDbEntity
  8
MAIN0
  6
CONTINUOUS
 62
3
100
AcDbCircle
 10
332.1742433835436
 20
171.3445412467101
 30
0.0000000000000000
 40
4.700000000000000
100
AcDbArc
 50
86.86830622866397
 51
93.13169377614329
  0
ARC
  5
3E9
100
AcDbEntity
  8
MAIN0
  6
CONTINUOUS
 62
3
100
AcDbCircle
 10
332.1742433835436
 20
171.3445412467101
 30
0.0000000000000000
 40
4.700000000000000
100
AcDbArc
 50
215.5697428816894
 51
266.8683062239591
  0
ARC
  5
3EA
100
AcDbEntity
  8
MAIN0
  6
CONTINUOUS
 62
3
100
AcDbCircle
 10
332.1742433835436
 20
171.3445412467101
 30
0.0000000000000000
 40
4.700000000000000
100
AcDbArc
 50
266.8683062239591
 51
273.1316937713929
  0
DIMENSION
  5
3F2
100
AcDbEntity
  8
MAIN0
  6
CONTINUOUS
 62
3
100
AcDbDimension
  2
*D46
 10
335.4716410668561
 20
174.6937454086097
 30
0.0000000000000000
 11
339.1663764959870
 21
179.1592132382504
 31
0.0000000000000000
 70
163
  3
MAIN001
100
AcDbDiametricDimension
 15
328.8768457002311
 25
167.9953370848105
 35
0.0000000000000000
1001
ACAD
1000
DSTYLE
1002
{
1070
   287
1070
     2
1070
   173
1070
     1
1070
     6
1000
_OPEN
1070
     7
1000
_OPEN
1070
    41
1040
2.000000
1002
}
  0
DIMENSION
  5
3FC
100
AcDbEntity
  8
MAIN0
  6
CONTINUOUS
 62
3
100
AcDbDimension
  2
*D47
 10
337.2710065312427
 20
161.2980306305356
 30
0.0000000000000000
 11
343.6217194158806
 21
168.3558502963741
 31
0.0000000000000000
 70
161
  3
MAIN001
100
AcDbAlignedDimension
 13
336.8672244189888
 23
171.6013076793903
 33
0.0000000000000000
 14
331.9174769504814
 24
166.6515602112857
 34
0.0000000000000000
 50
45.00000000005987
1001
ACAD
1000
DSTYLE
1002
{
1070
   173
1070
     1
1070
     6
1000
_OPEN
1070
     7
1000
_OPEN
1070
    41
1040
2.000000
1070
   272
1070
     1
1070
    47
1040
0.000000
1070
    48
1040
0.100000
1070
    71
1070
     1
1002
}
  0
LINE
  5
3FD
100
AcDbEntity
  8
MAIN0
  6
HIDDEN
 62
3
100
AcDbLine
 10
324.6742433835436
 20
247.0842607881839
 30
0.0000000000000000
 11
339.6742433835436
 21
247.0842607881781
 31
0.0000000000000000
  0
LINE
  5
3FE
100
AcDbEntity
  8
MAIN0
  6
HIDDEN
 62
3
100
AcDbLine
 10
324.6742433835436
 20
239.0842607881840
 30
0.0000000000000000
 11
339.6742433835436
 21
239.0842607881781
 31
0.0000000000000000
  0
LINE
  5
3FF
100
AcDbEntity
  8
MAIN0
  6
HIDDEN
 62
3
100
AcDbLine
 10
126.2412307436702
 20
158.7236231960940
 30
0.0000000000000000
 11
131.6412307436702
 21
158.7236231960614
 31
0.0000000000000000
  0
LINE
  5
400
100
AcDbEntity
  8
MAIN0
  6
HIDDEN
 62
3
100
AcDbLine
 10
131.6412307436702
 20
158.7236231960614
 30
0.0000000000000000
 11
132.2412307436640
 21
157.6843927115164
 31
0.0000000000000000
  0
LINE
  5
401
100
AcDbEntity
  8
MAIN0
  6
HIDDEN
 62
3
100
AcDbLine
 10
132.2412307436640
 20
157.6843927115164
 30
0.0000000000000000
 11
132.2412307436161
 21
149.7628536805991
 31
0.0000000000000000
  0
LINE
  5
402
100
AcDbEntity
  8
MAIN0
  6
HIDDEN
 62
3
100
AcDbLine
 10
132.2412307436161
 20
149.7628536805991
 30
0.0000000000000000
 11
131.6412307436099
 21
148.7236231960614
 31
0.0000000000000000
  0
LINE
  5
403
100
AcDbEntity
  8
MAIN0
  6
HIDDEN
 62
3
100
AcDbLine
 10
131.6412307436099
 20
148.7236231960614
 30
0.0000000000000000
 11
126.2412307436099
 21
148.7236231960940
 31
0.0000000000000000
  0
LINE
  5
404
100
AcDbEntity
  8
MAIN0
  6
HIDDEN
 62
3
100
AcDbLine
 10
131.6412307436702
 20
158.7236231960614
 30
0.0000000000000000
 11
131.6412307436099
 21
148.7236231960614
 31
0.0000000000000000
  0
LINE
  5
405
100
AcDbEntity
  8
MAIN0
  6
HIDDEN
 62
3
100
AcDbLine
 10
126.2412307436582
 20
156.7236231960940
 30
0.0000000000000000
 11
76.24123074365815
 21
156.7236231963958
 31
0.0000000000000000
  0
LINE
  5
406
100
AcDbEntity
  8
MAIN0
  6
HIDDEN
 62
3
100
AcDbLine
 10
76.24123074365815
 20
156.7236231963958
 30
0.0000000000000000
 11
76.24123074362191
 21
150.7236231963958
 31
0.0000000000000000
  0
LINE
  5
407
100
AcDbEntity
  8
MAIN0
  6
HIDDEN
 62
3
100
AcDbLine
 10
76.24123074362194
 20
150.7236231963958
 30
0.0000000000000000
 11
126.2412307436219
 21
150.7236231960940
 31
0.0000000000000000
  0
LINE
  5
408
100
AcDbEntity
  8
MAIN0
  6
HIDDEN
 62
3
100
AcDbLine
 10
100.2412307436549
 20
156.1823571962509
 30
0.0000000000000000
 11
76.24123074365488
 21
156.1823571963958
 31
0.0000000000000000
  0
LINE
  5
409
100
AcDbEntity
  8
MAIN0
  6
HIDDEN
 62
3
100
AcDbLine
 10
100.2412307436252
 20
151.2648891962509
 30
0.0000000000000000
 11
76.24123074362521
 21
151.2648891963958
 31
0.0000000000000000
  0
LINE
  5
40A
100
AcDbEntity
  8
MAIN0
  6
HIDDEN
 62
3
100
AcDbLine
 10
100.2412307436582
 20
156.7236231962509
 30
0.0000000000000000
 11
100.2412307436219
 21
150.7236231962509
 31
0.0000000000000000
  0
MTEXT
  5
40B
100
AcDbEntity
  8
A0
  6
CONTINUOUS
 62
3
100
AcDbMText
 10
31.68849795634753
 20
-7.929352184753256
 30
0.0000000000000000
 40
4.199998855590820
 41
0.0000000000000000
 71
     7
 72
     1
  1
{　　　ｋｇ・ｍ}
 11
1.000000000000000
 21
0.0000000000000000
 31
0.0000000000000000
  7
KNJYOKO
  0
MTEXT
  5
40C
100
AcDbEntity
  8
A0
  6
CONTINUOUS
 62
3
100
AcDbMText
 10
52.48849767024524
 20
-5.829352756957846
 30
0.0000000000000000
 40
2.099999427795410
 41
0.0000000000000000
 71
     7
 72
     1
  1
{2}
 11
1.000000000000000
 21
0.0000000000000000
 31
0.0000000000000000
  7
STANDARD
  0
MTEXT
  5
40D
100
AcDbEntity
  8
A0
  6
CONTINUOUS
 62
3
100
AcDbMText
 10
13.41150681284078
 20
-2.198539130521212
 30
0.0000000000000000
 40
6.000000000000000
 41
0.0000000000000000
 71
     1
 72
     1
  1
{\H0.56x;{0.001}}
 11
1.000000000000000
 21
0.0000000000000000
 31
0.0000000000000000
  7
STANDARD
  0
MTEXT
  5
40E
100
AcDbEntity
  8
A0
  6
CONTINUOUS
 62
3
100
AcDbMText
 10
13.41150681284080
 20
51.05516869629611
 30
0.0000000000000000
 40
4.649999856948853
 41
0.0000000000000000
 71
     1
 72
     1
  1
{\H0.81x;{29.4}}
 11
1.000000000000000
 21
0.0000000000000000
 31
0.0000000000000000
  7
STANDARD
  0
MTEXT
  5
40F
100
AcDbEntity
  8
A0
  6
CONTINUOUS
 62
3
100
AcDbMText
 10
17.91150681284080
 20
44.30516869629611
 30
0.0000000000000000
 40
4.649999856948853
 41
0.0000000000000000
 71
     1
 72
     1
  1
{\H0.76x;{3.0}}
 11
1.000000000000000
 21
0.0000000000000000
 31
0.0000000000000000
  7
STANDARD
  0
MTEXT
  5
410
100
AcDbEntity
  8
A0
  6
CONTINUOUS
 62
3
100
AcDbMText
 10
13.41150681284080
 20
36.05516869629594
 30
0.0000000000000000
 40
4.649999856948853
 41
0.0000000000000000
 71
     1
 72
     1
  1
{\H0.81x;{9}}
 11
1.000000000000000
 21
0.0000000000000000
 31
0.0000000000000000
  7
STANDARD
  0
MTEXT
  5
411
100
AcDbEntity
  8
A0
  6
CONTINUOUS
 62
3
100
AcDbMText
 10
17.91150681284080
 20
29.30516869629594
 30
0.0000000000000000
 40
4.649999856948853
 41
0.0000000000000000
 71
     1
 72
     1
  1
{\H0.90x;{918}}
 11
1.000000000000000
 21
0.0000000000000000
 31
0.0000000000000000
  7
STANDARD
  0
MTEXT
  5
412
100
AcDbEntity
  8
A0
  6
CONTINUOUS
 62
3
100
AcDbMText
 10
13.41150681284080
 20
20.30516869629594
 30
0.0000000000000000
 40
4.649999856948853
 41
0.0000000000000000
 71
     1
 72
     1
  1
{\H0.91x;{2500}}
 11
1.000000000000000
 21
0.0000000000000000
 31
0.0000000000000000
  7
STANDARD
  0
MTEXT
  5
413
100
AcDbEntity
  8
A0
  6
CONTINUOUS
 62
3
100
AcDbMText
 10
13.41150681284080
 20
9.805168696295944
 30
0.0000000000000000
 40
4.649999856948853
 41
0.0000000000000000
 71
     1
 72
     1
  1
{\H0.76x;{1.5}}
 11
1.000000000000000
 21
0.0000000000000000
 31
0.0000000000000000
  7
STANDARD
  0
LINE
  5
414
100
AcDbEntity
  8
A0
  6
CONTINUOUS
 62
3
100
AcDbLine
 10
-60.08849318715927
 20
63.65516883939974
 30
0.0000000000000000
 11
55.41150681284076
 21
63.65516883943610
 31
0.0000000000000000
  0
LINE
  5
415
100
AcDbEntity
  8
A0
  6
CONTINUOUS
 62
3
100
AcDbLine
 10
-60.08849318715928
 20
53.15516883939684
 30
0.0000000000000000
 11
55.41150681284080
 21
53.15516883943111
 31
0.0000000000000000
  0
LINE
  5
416
100
AcDbEntity
  8
A0
  6
CONTINUOUS
 62
3
100
AcDbLine
 10
-60.08849318715912
 20
38.15516883938695
 30
0.0000000000000000
 11
55.41150681284083
 21
38.15516883941420
 31
0.0000000000000000
  0
LINE
  5
417
100
AcDbEntity
  8
A0
  6
CONTINUOUS
 62
3
100
AcDbLine
 10
-60.08849318715933
 20
23.15516883938252
 30
0.0000000000000000
 11
55.41150681284073
 21
23.15516883940680
 31
0.0000000000000000
  0
LINE
  5
418
100
AcDbEntity
  8
A0
  6
CONTINUOUS
 62
3
100
AcDbLine
 10
-60.08849318715929
 20
12.65516883937956
 30
0.0000000000000000
 11
55.41150681284078
 21
12.65516883940175
 31
0.0000000000000000
  0
LINE
  5
419
100
AcDbEntity
  8
A0
  6
CONTINUOUS
 62
3
100
AcDbLine
 10
-60.08849318715924
 20
2.155168839376515
 30
0.0000000000000000
 11
55.41150681284081
 21
2.155168839396637
 31
0.0000000000000000
  0
LINE
  5
41A
100
AcDbEntity
  8
A0
  6
CONTINUOUS
 62
3
100
AcDbLine
 10
-60.08849318715912
 20
-12.84483116065778
 30
0.0000000000000000
 11
55.41150681284083
 21
-12.84483116065773
 31
0.0000000000000000
  0
LINE
  5
41B
100
AcDbEntity
  8
A0
  6
CONTINUOUS
 62
3
100
AcDbLine
 10
-60.08849318715920
 20
-33.84483116065778
 30
0.0000000000000000
 11
-60.08849318715920
 21
63.65516883934726
 31
0.0000000000000000
  0
LINE
  5
41C
100
AcDbEntity
  8
A0
  6
CONTINUOUS
 62
3
100
AcDbLine
 10
10.41150681284080
 20
-33.84483116065775
 30
0.0000000000000000
 11
10.41150681284080
 21
53.15516883941780
 31
0.0000000000000000
  0
LINE
  5
41D
100
AcDbEntity
  8
A0
  6
CONTINUOUS
 62
3
100
AcDbLine
 10
55.41150681284080
 20
-33.84483116065773
 30
0.0000000000000000
 11
55.41150681284080
 21
63.65516883934726
 31
0.0000000000000000
  0
MTEXT
  5
41E
100
AcDbEntity
  8
A0
  6
CONTINUOUS
 62
3
100
AcDbMText
 10
-57.08849318715909
 20
48.05516941155179
 30
0.0000000000000000
 40
4.650000572204590
 41
0.0000000000000000
 71
     1
 72
     1
  1
{\H0.94x;{許容最大ハンドルトルク}}
 11
1.000000000000000
 21
0.0000000000000000
 31
0.0000000000000000
  7
KNJYOKO
  0
MTEXT
  5
41F
100
AcDbEntity
  8
A0
  6
CONTINUOUS
 62
3
100
AcDbMText
 10
-57.08849318715909
 20
33.05516941155157
 30
0.0000000000000000
 40
4.650000572204590
 41
0.0000000000000000
 71
     1
 72
     1
  1
{\H0.94x;{最大静的把握力}}
 11
1.000000000000000
 21
0.0000000000000000
 31
0.0000000000000000
  7
KNJYOKO
  0
MTEXT
  5
420
100
AcDbEntity
  8
A0
  6
CONTINUOUS
 62
3
100
AcDbMText
 10
-57.08849318715920
 20
20.30516941158420
 30
0.0000000000000000
 40
4.650000572204590
 41
0.0000000000000000
 71
     1
 72
     1
  1
{\H0.94x;{許容最高回転速度}}
 11
1.000000000000000
 21
0.0000000000000000
 31
0.0000000000000000
  7
KNJYOKO
  0
MTEXT
  5
421
100
AcDbEntity
  8
A0
  6
CONTINUOUS
 62
3
100
AcDbMText
 10
-57.08849318715909
 20
9.805169411581126
 30
0.0000000000000000
 40
4.650000572204590
 41
0.0000000000000000
 71
     1
 72
     1
  1
{\H0.90x;{質量}}
 11
1.000000000000000
 21
0.0000000000000000
 31
0.0000000000000000
  7
KNJYOKO
  0
MTEXT
  5
422
100
AcDbEntity
  8
A0
  6
CONTINUOUS
 62
3
100
AcDbMText
 10
-57.08849318715909
 20
-2.944830588448411
 30
0.0000000000000000
 40
4.650000572204590
 41
0.0000000000000000
 71
     1
 72
     1
  1
{\H0.94x;{慣性モーメント}}
 11
1.000000000000000
 21
0.0000000000000000
 31
0.0000000000000000
  7
KNJYOKO
  0
MTEXT
  5
423
100
AcDbEntity
  8
A0
  6
CONTINUOUS
 62
3
100
AcDbMText
 10
-55.28849347326150
 20
-21.01983087455548
 30
0.0000000000000000
 40
4.650000572204590
 41
0.0000000000000000
 71
     1
 72
     1
  1
{\H0.96x;{把握径}}
 11
1.000000000000000
 21
0.0000000000000000
 31
0.0000000000000000
  7
KNJYOKO
  0
MTEXT
  5
424
100
AcDbEntity
  8
A0
  6
CONTINUOUS
 62
3
100
AcDbMText
 10
-23.43092724163785
 20
62.68109660754841
 30
0.0000000000000000
 40
7.950000286102295
 41
0.0000000000000000
 71
     1
 72
     1
  1
{\H0.93x;{仕　　　様}}
 11
1.000000000000000
 21
0.0000000000000000
 31
0.0000000000000000
  7
KNJYOKO
  0
MTEXT
  5
425
100
AcDbEntity
  8
A0
  6
CONTINUOUS
 62
3
100
AcDbMText
 10
32.91150681284080
 20
49.10516769493808
 30
0.0000000000000000
 40
4.199998855590820
 41
0.0000000000000000
 71
     1
 72
     1
  1
{\H0.58x;{　　　Ｎ・ｍ}}
 11
1.000000000000000
 21
0.0000000000000000
 31
0.0000000000000000
  7
KNJYOKO
  0
MTEXT
  5
426
100
AcDbEntity
  8
A0
  6
CONTINUOUS
 62
3
100
AcDbMText
 10
13.41150681284080
 20
43.10516769493808
 30
0.0000000000000000
 40
4.199998855590820
 41
0.0000000000000000
 71
     1
 72
     1
  1
{\H0.48x;{（}}
 11
1.000000000000000
 21
0.0000000000000000
 31
0.0000000000000000
  7
KNJYOKO
  0
MTEXT
  5
427
100
AcDbEntity
  8
A0
  6
CONTINUOUS
 62
3
100
AcDbMText
 10
31.41150681284080
 20
43.10516769493808
 30
0.0000000000000000
 40
4.199998855590820
 41
0.0000000000000000
 71
     1
 72
     1
  1
{\H0.58x;{　ｋｇｆ・ｍ）}}
 11
1.000000000000000
 21
0.0000000000000000
 31
0.0000000000000000
  7
KNJYOKO
  0
MTEXT
  5
428
100
AcDbEntity
  8
A0
  6
CONTINUOUS
 62
3
100
AcDbMText
 10
32.91150681284080
 20
18.35516769493791
 30
0.0000000000000000
 40
4.199998855590820
 41
0.0000000000000000
 71
     1
 72
     1
  1
{\H0.57x;{　ｍｉｎ}}
 11
1.000000000000000
 21
0.0000000000000000
 31
0.0000000000000000
  7
KNJYOKO
  0
MTEXT
  5
429
100
AcDbEntity
  8
A0
  6
CONTINUOUS
 62
3
100
AcDbMText
 10
32.91150681284080
 20
7.855167694937911
 30
0.0000000000000000
 40
4.199998855590820
 41
0.0000000000000000
 71
     1
 72
     1
  1
{\H0.58x;{　　　　ｋｇ}}
 11
1.000000000000000
 21
0.0000000000000000
 31
0.0000000000000000
  7
KNJYOKO
  0
MTEXT
  5
42A
100
AcDbEntity
  8
A0
  6
CONTINUOUS
 62
3
100
AcDbMText
 10
32.91150681284080
 20
34.10516769493791
 30
0.0000000000000000
 40
4.199998855590820
 41
0.0000000000000000
 71
     1
 72
     1
  1
{\H0.58x;{　　　　ｋＮ}}
 11
1.000000000000000
 21
0.0000000000000000
 31
0.0000000000000000
  7
KNJYOKO
  0
MTEXT
  5
42B
100
AcDbEntity
  8
A0
  6
CONTINUOUS
 62
3
100
AcDbMText
 10
13.41150681284080
 20
28.10516769493791
 30
0.0000000000000000
 40
4.199998855590820
 41
0.0000000000000000
 71
     1
 72
     1
  1
{\H0.48x;{（}}
 11
1.000000000000000
 21
0.0000000000000000
 31
0.0000000000000000
  7
KNJYOKO
  0
MTEXT
  5
42C
100
AcDbEntity
  8
A0
  6
CONTINUOUS
 62
3
100
AcDbMText
 10
31.41150681284080
 20
28.10516769493791
 30
0.0000000000000000
 40
4.199998855590820
 41
0.0000000000000000
 71
     1
 72
     1
  1
{\H0.58x;{　　　ｋｇｆ）}}
 11
1.000000000000000
 21
0.0000000000000000
 31
0.0000000000000000
  7
KNJYOKO
  0
MTEXT
  5
42D
100
AcDbEntity
  8
A0
  6
CONTINUOUS
 62
3
100
AcDbMText
 10
48.14350918532068
 20
19.35948452428006
 30
0.0000000000000000
 40
3.000000000000000
 41
0.0000000000000000
 71
     1
 72
     1
  1
{\H0.88x;{-1}}
 11
1.000000000000000
 21
0.0000000000000000
 31
0.0000000000000000
  7
STANDARD
  0
MTEXT
  5
42E
100
AcDbEntity
  8
A0
  6
CONTINUOUS
 62
3
100
AcDbMText
 10
-60.02057929569922
 20
-35.47445365641787
 30
0.0000000000000000
 40
4.650000572204590
 41
0.0000000000000000
 71
     1
 72
     1
  1
{\H0.95x;{○上記仕様は許容最大ハンドルトルク締込時の場合}}
 11
1.000000000000000
 21
0.0000000000000000
 31
0.0000000000000000
  7
KNJYOKO
  0
MTEXT
  5
42F
100
AcDbEntity
  8
A0
  6
CONTINUOUS
 62
3
100
AcDbMText
 10
13.41150681279744
 20
-15.69483130370894
 30
0.0000000000000000
 40
4.649999856948853
 41
0.0000000000000000
 71
     1
 72
     1
  1
{\H0.93x;{\U+22052～\U+220570}}
 11
1.000000000000000
 21
0.0000000000000000
 31
0.0000000000000000
  7
KNJYOKO
  0
MTEXT
  5
430
100
AcDbEntity
  8
A0
  6
CONTINUOUS
 62
3
100
AcDbMText
 10
13.41150681279744
 20
-26.19483130370894
 30
0.0000000000000000
 40
4.649999856948853
 41
0.0000000000000000
 71
     1
 72
     1
  1
{\H0.93x;{\U+220524～\U+220564}}
 11
1.000000000000000
 21
0.0000000000000000
 31
0.0000000000000000
  7
KNJYOKO
  0
LINE
  5
431
100
AcDbEntity
  8
A0
  6
CONTINUOUS
 62
3
100
AcDbLine
 10
-60.08849318715911
 20
-33.84483116065778
 30
0.0000000000000000
 11
55.41150681284084
 21
-33.84483116065773
 31
0.0000000000000000
  0
LINE
  5
432
100
AcDbEntity
  8
A0
  6
CONTINUOUS
 62
3
100
AcDbLine
 10
-34.58849318715920
 20
-33.84483116065775
 30
0.0000000000000000
 11
-34.58849318715920
 21
-12.84483116065776
 31
0.0000000000000000
  0
MTEXT
  5
433
100
AcDbEntity
  8
A0
  6
CONTINUOUS
 62
3
100
AcDbMText
 10
-25.78099312278619
 20
-15.76983123218334
 30
0.0000000000000000
 40
4.649999856948853
 41
0.0000000000000000
 71
     1
 72
     1
  1
{外径把握}
 11
1.000000000000000
 21
0.0000000000000000
 31
0.0000000000000000
  7
KNJYOKO
  0
MTEXT
  5
434
100
AcDbEntity
  8
A0
  6
CONTINUOUS
 62
3
100
AcDbMText
 10
-25.78099312278619
 20
-26.26983123218334
 30
0.0000000000000000
 40
4.649999856948853
 41
0.0000000000000000
 71
     1
 72
     1
  1
{内径把握}
 11
1.000000000000000
 21
0.0000000000000000
 31
0.0000000000000000
  7
KNJYOKO
  0
MTEXT
  5
435
100
AcDbEntity
  8
A0
  6
CONTINUOUS
 62
3
100
AcDbMText
 10
-47.25946962526474
 20
-26.99005801597993
 30
0.0000000000000000
 40
4.500000000000000
 41
0.0000000000000000
 71
     1
 72
     1
  1
{\H0.63x;{(mm)}}
 11
1.000000000000000
 21
0.0000000000000000
 31
0.0000000000000000
  7
STANDARD
  0
LINE
  5
436
100
AcDbEntity
  8
A0
  6
CONTINUOUS
 62
3
100
AcDbLine
 10
-34.58849318715920
 20
-23.34483116065776
 30
0.0000000000000000
 11
55.41150681284083
 21
-23.34483116065773
 31
0.0000000000000000
  0
LINE
  5
437
100
AcDbEntity
  8
WAKU0
  6
CONTINUOUS
 62
3
100
AcDbLine
 10
240.0000000000000
 20
51.00000000000000
 30
0.0000000000000000
 11
410.0000000000000
 21
51.00000000000000
 31
0.0000000000000000
  0
LINE
  5
438
100
AcDbEntity
  8
WAKU0
  6
CONTINUOUS
 62
3
100
AcDbLine
 10
240.0000000000000
 20
51.00000000000000
 30
0.0000000000000000
 11
240.0000000000000
 21
12.00000000000000
 31
0.0000000000000000
  0
LINE
  5
439
100
AcDbEntity
  8
WAKU0
  6
CONTINUOUS
 62
3
100
AcDbLine
 10
312.0000000000000
 20
51.00000000000000
 30
0.0000000000000000
 11
312.0000000000000
 21
12.00000000000000
 31
0.0000000000000000
  0
LINE
  5
43A
100
AcDbEntity
  8
WAKU0
  6
CONTINUOUS
 62
3
100
AcDbLine
 10
332.0000000000000
 20
51.00000000000000
 30
0.0000000000000000
 11
332.0000000000000
 21
12.00000000000000
 31
0.0000000000000000
  0
LINE
  5
43B
100
AcDbEntity
  8
WAKU0
  6
CONTINUOUS
 62
3
100
AcDbLine
 10
344.0000000000000
 20
51.00000000000000
 30
0.0000000000000000
 11
344.0000000000000
 21
12.00000000000000
 31
0.0000000000000000
  0
LINE
  5
43C
100
AcDbEntity
  8
WAKU0
  6
CONTINUOUS
 62
3
100
AcDbLine
 10
344.0000000000000
 20
37.00000000000000
 30
0.0000000000000000
 11
410.0000000000000
 21
37.00000000000000
 31
0.0000000000000000
  0
LINE
  5
43D
100
AcDbEntity
  8
WAKU0
  6
CONTINUOUS
 62
3
100
AcDbLine
 10
332.0000000000000
 20
23.00000000000000
 30
0.0000000000000000
 11
410.0000000000000
 21
23.00000000000000
 31
0.0000000000000000
  0
LINE
  5
43E
100
AcDbEntity
  8
WAKU0
  6
CONTINUOUS
 62
3
100
AcDbLine
 10
375.0000000000000
 20
51.00000000000000
 30
0.0000000000000000
 11
375.0000000000000
 21
44.00000000000000
 31
0.0000000000000000
  0
LINE
  5
43F
100
AcDbEntity
  8
WAKU0
  6
CONTINUOUS
 62
3
100
AcDbLine
 10
387.0000000000000
 20
51.00000000000000
 30
0.0000000000000000
 11
387.0000000000000
 21
44.00000000000000
 31
0.0000000000000000
  0
LINE
  5
440
100
AcDbEntity
  8
WAKU0
  6
CONTINUOUS
 62
3
100
AcDbLine
 10
312.0000000000000
 20
31.50000000000000
 30
0.0000000000000000
 11
332.0000000000000
 21
31.50000000000000
 31
0.0000000000000000
  0
LINE
  5
441
100
AcDbEntity
  8
WAKU0
  6
CONTINUOUS
 62
3
100
AcDbLine
 10
332.0000000000000
 20
44.00000000000000
 30
0.0000000000000000
 11
410.0000000000000
 21
44.00000000000000
 31
0.0000000000000000
  0
LINE
  5
442
100
AcDbEntity
  8
WAKU0
  6
CONTINUOUS
 62
3
100
AcDbLine
 10
240.0000000000000
 20
37.00000000000000
 30
0.0000000000000000
 11
312.0000000000000
 21
37.00000000000000
 31
0.0000000000000000
  0
LINE
  5
443
100
AcDbEntity
  8
WAKU0
  6
CONTINUOUS
 62
3
100
AcDbLine
 10
240.0000000000000
 20
23.00000000000000
 30
0.0000000000000000
 11
312.0000000000000
 21
23.00000000000000
 31
0.0000000000000000
  0
LINE
  5
444
100
AcDbEntity
  8
WAKU0
  6
CONTINUOUS
 62
3
100
AcDbLine
 10
288.0000000000000
 20
37.00000000000000
 30
0.0000000000000000
 11
288.0000000000000
 21
12.00000000000000
 31
0.0000000000000000
  0
LINE
  5
445
100
AcDbEntity
  8
WAKU0
  6
CONTINUOUS
 62
3
100
AcDbLine
 10
264.0000000000000
 20
37.00000000000000
 30
0.0000000000000000
 11
264.0000000000000
 21
23.00000000000000
 31
0.0000000000000000
  0
LINE
  5
446
100
AcDbEntity
  8
WAKU0
  6
CONTINUOUS
 62
3
100
AcDbLine
 10
300.0000000000000
 20
26.00000000000000
 30
0.0000000000000000
 11
300.0000000000000
 21
23.00000000000000
 31
0.0000000000000000
  0
LINE
  5
447
100
AcDbEntity
  8
WAKU0
  6
CONTINUOUS
 62
3
100
AcDbLine
 10
276.0000000000000
 20
26.00000000000000
 30
0.0000000000000000
 11
276.0000000000000
 21
23.00000000000000
 31
0.0000000000000000
  0
LINE
  5
448
100
AcDbEntity
  8
WAKU0
  6
CONTINUOUS
 62
3
100
AcDbLine
 10
252.0000000000000
 20
26.00000000000000
 30
0.0000000000000000
 11
252.0000000000000
 21
23.00000000000000
 31
0.0000000000000000
  0
LINE
  5
449
100
AcDbEntity
  8
WAKU0
  6
CONTINUOUS
 62
3
100
AcDbLine
 10
258.0000000000000
 20
51.00000000000000
 30
0.0000000000000000
 11
258.0000000000000
 21
37.00000000000000
 31
0.0000000000000000
  0
LINE
  5
44A
100
AcDbEntity
  8
WAKU0
  6
CONTINUOUS
 62
3
100
AcDbLine
 10
240.0000000000000
 20
45.00000000000000
 30
0.0000000000000000
 11
312.0000000000000
 21
45.00000000000000
 31
0.0000000000000000
  0
LINE
  5
44B
100
AcDbEntity
  8
WAKU0
  6
HIDDEN
 62
3
100
AcDbLine
 10
360.5000000000000
 20
23.00000000000000
 30
0.0000000000000000
 11
360.5000000000000
 21
12.00000000000000
 31
0.0000000000000000
  0
LINE
  5
44C
100
AcDbEntity
  8
WAKU0
  6
HIDDEN
 62
3
100
AcDbLine
 10
372.9000000000000
 20
23.00000000000000
 30
0.0000000000000000
 11
372.9000000000000
 21
12.00000000000000
 31
0.0000000000000000
  0
MTEXT
  5
44D
100
AcDbEntity
  8
WAKU0
  6
CONTINUOUS
 62
3
100
AcDbMText
 10
344.4820000243485
 20
49.04999995231628
 30
0.0000000000000000
 40
3.099999904632568
 41
0.0000000000000000
 71
     1
 72
     1
  1
{\H0.93x;{SC-3F-113}}
 11
1.000000000000000
 21
0.0000000000000000
 31
0.0000000000000000
  7
STANDARD
  0
MTEXT
  5
44E
100
AcDbEntity
  8
WAKU0
  6
CONTINUOUS
 62
3
100
AcDbMText
 10
344.6199999901652
 20
34.83333333333333
 30
0.0000000000000000
 40
4.000000000000000
 41
0.0000000000000000
 71
     1
 72
     1
  1
{\H0.94x;{ＳＣ－３Ｆ－１１３\P　ガイケイ}}
 11
1.000000000000000
 21
0.0000000000000000
 31
0.0000000000000000
  7
KNJYOKO
  0
MTEXT
  5
44F
100
AcDbEntity
  8
WAKU0
  6
CONTINUOUS
 62
3
100
AcDbMText
 10
318.0049998760223
 20
39.29999995231628
 30
0.0000000000000000
 40
3.099999904632568
 41
0.0000000000000000
 71
     1
 72
     1
  1
{\H0.90x;{1:1}}
 11
1.000000000000000
 21
0.0000000000000000
 31
0.0000000000000000
  7
STANDARD
  0
MTEXT
  5
450
100
AcDbEntity
  8
WAKU0
  6
CONTINUOUS
 62
3
100
AcDbMText
 10
374.4000001549721
 20
20.15000009536743
 30
0.0000000000000000
 40
5.300000190734863
 41
0.0000000000000000
 71
     1
 72
     1
  1
{\H0.90x;{7377}}
 11
1.000000000000000
 21
0.0000000000000000
 31
0.0000000000000000
  7
STANDARD
  0
MTEXT
  5
451
100
AcDbEntity
  8
WAKU0
  6
CONTINUOUS
 62
3
100
AcDbMText
 10
362.3000000834465
 20
20.15000009536743
 30
0.0000000000000000
 40
5.300000190734863
 41
0.0000000000000000
 71
     1
 72
     1
  1
{\H0.87x;{80}}
 11
1.000000000000000
 21
0.0000000000000000
 31
0.0000000000000000
  7
STANDARD
  0
MTEXT
  5
452
100
AcDbEntity
  8
WAKU0
  6
CONTINUOUS
 62
3
100
AcDbMText
 10
345.5000001192093
 20
20.15000009536743
 30
0.0000000000000000
 40
5.300000190734863
 41
0.0000000000000000
 71
     1
 72
     1
  1
{\H0.89x;{61S}}
 11
1.000000000000000
 21
0.0000000000000000
 31
0.0000000000000000
  7
STANDARD
  0
MTEXT
  5
453
100
AcDbEntity
  8
WAKU0
  6
CONTINUOUS
 62
3
100
AcDbMText
 10
400.0000000476837
 20
20.15000009536743
 30
0.0000000000000000
 40
5.300000190734863
 41
0.0000000000000000
 71
     1
 72
     1
  1
{\H0.81x;{0}}
 11
1.000000000000000
 21
0.0000000000000000
 31
0.0000000000000000
  7
STANDARD
  0
MTEXT
  5
454
100
AcDbEntity
  8
WAKU0
  6
CONTINUOUS
 62
3
100
AcDbMText
 10
258.4820000243485
 20
49.54999995231628
 30
0.0000000000000000
 40
3.099999904632568
 41
0.0000000000000000
 71
     1
 72
     1
  1
{\H0.93x;{61S2426841}}
 11
1.000000000000000
 21
0.0000000000000000
 31
0.0000000000000000
  7
STANDARD
  0
MTEXT
  5
455
100
AcDbEntity
  8
WAKU0
  6
CONTINUOUS
 62
3
100
AcDbMText
 10
344.6199999901652
 20
42.50000000000000
 30
0.0000000000000000
 40
4.000000000000000
 41
0.0000000000000000
 71
     1
 72
     1
  1
{\H0.94x;{スクロールチャック　３}}
 11
1.000000000000000
 21
0.0000000000000000
 31
0.0000000000000000
  7
KNJYOKO
  0
MTEXT
  5
456
100
AcDbEntity
  8
WAKU0
  6
CONTINUOUS
 62
3
100
AcDbMText
 10
400.0000000819564
 20
50.15000009536743
 30
0.0000000000000000
 40
5.300000190734863
 41
0.0000000000000000
 71
     1
 72
     1
  1
{\H0.81x;{ }}
 11
1.000000000000000
 21
0.0000000000000000
 31
0.0000000000000000
  7
STANDARD
  0
MTEXT
  5
457
100
AcDbEntity
  8
WAKU0
  6
CONTINUOUS
 62
3
100
AcDbMText
 10
242.2299998402596
 20
49.54999995231628
 30
0.0000000000000000
 40
3.099999904632568
 41
0.0000000000000000
 71
     1
 72
     1
  1
{\H0.92x;{図面来歴}}
 11
1.000000000000000
 21
0.0000000000000000
 31
0.0000000000000000
  7
KNJYOKO
  0
MTEXT
  5
458
100
AcDbEntity
  8
WAKU0
  6
CONTINUOUS
 62
3
100
AcDbMText
 10
302.0049998760223
 20
36.04999995231628
 30
0.0000000000000000
 40
3.099999904632568
 41
0.0000000000000000
 71
     1
 72
     1
  1
{\H0.90x;{CAD}}
 11
1.000000000000000
 21
0.0000000000000000
 31
0.0000000000000000
  7
STANDARD
  0
MTEXT
  5
459
100
AcDbEntity
  8
WAKU0
  6
CONTINUOUS
 62
3
100
AcDbMText
 10
290.7099999189377
 20
36.04999995231628
 30
0.0000000000000000
 40
3.099999904632568
 41
0.0000000000000000
 71
     1
 72
     1
  1
{\H0.89x;{設計}}
 11
1.000000000000000
 21
0.0000000000000000
 31
0.0000000000000000
  7
KNJYOKO
  0
MTEXT
  5
45A
100
AcDbEntity
  8
WAKU0
  6
CONTINUOUS
 62
3
100
AcDbMText
 10
278.7099999189377
 20
36.04999995231628
 30
0.0000000000000000
 40
3.099999904632568
 41
0.0000000000000000
 71
     1
 72
     1
  1
{\H0.89x;{主任}}
 11
1.000000000000000
 21
0.0000000000000000
 31
0.0000000000000000
  7
KNJYOKO
  0
MTEXT
  5
45B
100
AcDbEntity
  8
WAKU0
  6
CONTINUOUS
 62
3
100
AcDbMText
 10
266.7099999189377
 20
36.04999995231628
 30
0.0000000000000000
 40
3.099999904632568
 41
0.0000000000000000
 71
     1
 72
     1
  1
{\H0.89x;{係長}}
 11
1.000000000000000
 21
0.0000000000000000
 31
0.0000000000000000
  7
KNJYOKO
  0
MTEXT
  5
45C
100
AcDbEntity
  8
WAKU0
  6
CONTINUOUS
 62
3
100
AcDbMText
 10
254.7099999189377
 20
36.04999995231628
 30
0.0000000000000000
 40
3.099999904632568
 41
0.0000000000000000
 71
     1
 72
     1
  1
{\H0.89x;{課長}}
 11
1.000000000000000
 21
0.0000000000000000
 31
0.0000000000000000
  7
KNJYOKO
  0
MTEXT
  5
45D
100
AcDbEntity
  8
WAKU0
  6
CONTINUOUS
 62
3
100
AcDbMText
 10
242.7099999189377
 20
36.04999995231628
 30
0.0000000000000000
 40
3.099999904632568
 41
0.0000000000000000
 71
     1
 72
     1
  1
{\H0.89x;{部長}}
 11
1.000000000000000
 21
0.0000000000000000
 31
0.0000000000000000
  7
KNJYOKO
  0
MTEXT
  5
45E
100
AcDbEntity
  8
WAKU0
  6
CONTINUOUS
 62
3
100
AcDbMText
 10
291.4899998009205
 20
22.04999995231628
 30
0.0000000000000000
 40
3.099999904632568
 41
0.0000000000000000
 71
     1
 72
     1
  1
{\H0.93x;{作成年月日}}
 11
1.000000000000000
 21
0.0000000000000000
 31
0.0000000000000000
  7
KNJYOKO
  0
MTEXT
  5
45F
100
AcDbEntity
  8
WAKU0
  6
CONTINUOUS
 62
3
100
AcDbMText
 10
255.5500000715256
 20
20.15000009536743
 30
0.0000000000000000
 40
5.300000190734863
 41
0.0000000000000000
 71
     1
 72
     1
  1
{\H0.92x;{北川鉄工所}}
 11
1.000000000000000
 21
0.0000000000000000
 31
0.0000000000000000
  7
KNJYOKO
  0
MTEXT
  5
460
100
AcDbEntity
  8
WAKU0
  6
CONTINUOUS
 62
3
100
AcDbMText
 10
244.8199998289347
 20
21.23333326975505
 30
0.0000000000000000
 40
3.099999904632568
 41
0.0000000000000000
 71
     1
 72
     1
  1
{\H0.89x;{株式\P会社}}
 11
1.000000000000000
 21
0.0000000000000000
 31
0.0000000000000000
  7
KNJYOKO
  0
MTEXT
  5
461
100
AcDbEntity
  8
WAKU0
  6
CONTINUOUS
 62
3
100
AcDbMText
 10
316.9699998795986
 20
29.54999995231628
 30
0.0000000000000000
 40
3.099999904632568
 41
0.0000000000000000
 71
     1
 72
     1
  1
{\H0.91x;{三角法}}
 11
1.000000000000000
 21
0.0000000000000000
 31
0.0000000000000000
  7
KNJYOKO
  0
MTEXT
  5
462
100
AcDbEntity
  8
WAKU0
  6
CONTINUOUS
 62
3
100
AcDbMText
 10
316.9699998795986
 20
49.04999995231628
 30
0.0000000000000000
 40
3.099999904632568
 41
0.0000000000000000
 71
     1
 72
     1
  1
{\H0.91x;{尺　度}}
 11
1.000000000000000
 21
0.0000000000000000
 31
0.0000000000000000
  7
KNJYOKO
  0
MTEXT
  5
463
100
AcDbEntity
  8
WAKU0
  6
CONTINUOUS
 62
3
100
AcDbMText
 10
405.7000000476837
 20
49.00000000000000
 30
0.0000000000000000
 40
3.000000000000000
 41
0.0000000000000000
 71
     1
 72
     1
  1
{\H0.63x;{kg}}
 11
1.000000000000000
 21
0.0000000000000000
 31
0.0000000000000000
  7
STANDARD
  0
MTEXT
  5
464
100
AcDbEntity
  8
WAKU0
  6
CONTINUOUS
 62
3
100
AcDbMText
 10
377.7099999189377
 20
49.04999995231628
 30
0.0000000000000000
 40
3.099999904632568
 41
0.0000000000000000
 71
     1
 72
     1
  1
{\H0.89x;{重量}}
 11
1.000000000000000
 21
0.0000000000000000
 31
0.0000000000000000
  7
KNJYOKO
  0
MTEXT
  5
465
100
AcDbEntity
  8
WAKU0
  6
CONTINUOUS
 62
3
100
AcDbMText
 10
334.7099999189377
 20
21.23333326975504
 30
0.0000000000000000
 40
3.099999904632568
 41
0.0000000000000000
 71
     1
 72
     1
  1
{\H0.89x;{図面\P番号}}
 11
1.000000000000000
 21
0.0000000000000000
 31
0.0000000000000000
  7
KNJYOKO
  0
MTEXT
  5
466
100
AcDbEntity
  8
WAKU0
  6
CONTINUOUS
 62
3
100
AcDbMText
 10
334.7099999189377
 20
35.04999995231628
 30
0.0000000000000000
 40
3.099999904632568
 41
0.0000000000000000
 71
     1
 72
     1
  1
{\H0.89x;{名称}}
 11
1.000000000000000
 21
0.0000000000000000
 31
0.0000000000000000
  7
KNJYOKO
  0
MTEXT
  5
467
100
AcDbEntity
  8
WAKU0
  6
CONTINUOUS
 62
3
100
AcDbMText
 10
334.7099999189377
 20
49.04999995231628
 30
0.0000000000000000
 40
3.099999904632568
 41
0.0000000000000000
 71
     1
 72
     1
  1
{\H0.89x;{形式}}
 11
1.000000000000000
 21
0.0000000000000000
 31
0.0000000000000000
  7
KNJYOKO
  0
LINE
  5
468
100
AcDbEntity
  8
WAKU0
  6
HIDDEN
 62
3
100
AcDbLine
 10
407.1599564743885
 20
13.84999990463257
 30
0.0000000000000000
 11
396.9400436209789
 21
13.84999990463257
 31
0.0000000000000000
  0
LINE
  5
469
100
AcDbEntity
  8
WAKU0
  6
HIDDEN
 62
3
100
AcDbLine
 10
407.1599564743885
 20
13.84999990463250
 30
0.0000000000000000
 11
402.0500000476851
 21
22.70070406014901
 31
0.0000000000000000
  0
LINE
  5
46A
100
AcDbEntity
  8
WAKU0
  6
HIDDEN
 62
3
100
AcDbLine
 10
402.0500000476852
 20
22.70070406014902
 30
0.0000000000000000
 11
396.9400436209789
 21
13.84999990463249
 31
0.0000000000000000
  0
LINE
  5
46B
100
AcDbEntity
  8
WAKU0
  6
CONTINUOUS
 62
3
100
AcDbLine
 10
330.4713877753800
 20
15.78041421262812
 30
0.0000000000000000
 11
330.4713877753800
 21
21.78041421262815
 31
0.0000000000000000
  0
LINE
  5
46C
100
AcDbEntity
  8
WAKU0
  6
CONTINUOUS
 62
3
100
AcDbLine
 10
323.9336941228225
 20
17.28041421262811
 30
0.0000000000000000
 11
323.9336941228225
 21
20.28041421262824
 31
0.0000000000000000
  0
LINE
  5
46D
100
AcDbEntity
  8
WAKU0
  6
CENTER
 62
12
100
AcDbLine
 10
313.4321805514995
 20
18.78041421262813
 30
0.0000000000000000
 11
331.2765788964694
 21
18.78041421262813
 31
0.0000000000000000
  0
LINE
  5
46E
100
AcDbEntity
  8
WAKU0
  6
CENTER
 62
12
100
AcDbLine
 10
317.4474565857986
 20
14.55921662918448
 30
0.0000000000000000
 11
317.4474565857986
 21
22.89865102149943
 31
0.0000000000000000
  0
LINE
  5
46F
100
AcDbEntity
  8
WAKU0
  6
CONTINUOUS
 62
3
100
AcDbLine
 10
323.9336941228225
 20
20.28041421262797
 30
0.0000000000000000
 11
330.4713877753800
 21
21.78041421262795
 31
0.0000000000000000
  0
LINE
  5
470
100
AcDbEntity
  8
WAKU0
  6
CONTINUOUS
 62
3
100
AcDbLine
 10
323.9336941228225
 20
17.28041421262811
 30
0.0000000000000000
 11
330.4713877753799
 21
15.78041421262812
 31
0.0000000000000000
  0
CIRCLE
  5
471
100
AcDbEntity
  8
WAKU0
  6
CONTINUOUS
 62
3
100
AcDbCircle
 10
317.4474565857986
 20
18.78041421262813
 30
0.0000000000000000
 40
1.499999999999972
  0
CIRCLE
  5
472
100
AcDbEntity
  8
WAKU0
  6
CONTINUOUS
 62
3
100
AcDbCircle
 10
317.4474565857986
 20
18.78041421262813
 30
0.0000000000000000
 40
2.999999999999979
  0
ENDSEC
  0
SECTION
  2
OBJECTS
  0
DICTIONARY
  5
4CB
100
AcDbDictionary
  3
ACAD_GROUP
350
4CC
  3
ACAD_MLINESTYLE
350
4CD
  3
DWGPROPS
350
4CE
  0
DICTIONARY
  5
4CC
102
{ACAD_REACTORS
330
4CB
102
}
100
AcDbDictionary
  0
DICTIONARY
  5
4CD
102
{ACAD_REACTORS
330
4CB
102
}
100
AcDbDictionary
  3
STANDARD
350
4CF
  0
MLINESTYLE
  5
4CF
102
{ACAD_REACTORS
330
4CD
102
}
100
AcDbMlineStyle
  2
STANDARD
 70
     0
  3

 62
   256
 51
90.00
 52
90.00
 71
     2
 49
0.50
 62
   256
  6
BYLAYER
 49
-0.50
 62
   256
  6
BYLAYER
  0
XRECORD
  5
4CE
102
{ACAD_REACTORS
330
4CB
102
}
100
AcDbXrecord
280
     1
  1
DWGPROPS COOKIE
  2
ＳＣ－３Ｆ－１１３　クミタテ
  3

  4

  6
スクロールチャック　３
  7

  8

  9

300
=
301
=
302
=
303
=
304
=
305
=
306
=
307
=
308
=
309
=
 40
0.000000
 41
0.000000
 42
0.000000
  1

 90
        0
  0
ENDSEC
  0
EOF
