  0
SECTION
  2
HEADER
  9
$ACADVER
  1
AC1014
  9
$DWGCODEPAGE
  3
ANSI_932
  9
$LTSCALE
 40
20.0
  9
$FILLMODE
 70
     1
  9
$CLAYER
  8
0
  9
$PDMODE
 70
     0
  9
$SPLFRAME
 70
     0
  9
$SPLINETYPE
 70
     6
  9
$SPLINESEGS
 70
     8
  9
$DIMASZ
 40
2.000000
  9
$DIMEXE
 40
2.000000
  9
$DIMEXO
 40
0.800000
  9
$DIMTAD
 70
     1
  9
$DIMTIH
 70
     0
  9
$DIMTOH
 70
     0
  9
$DIMTVP
 40
0.500000
  9
$DIMTXT
 40
3.100000
  9
$EXTMIN
 10
0.000000
 20
0.000000
 30
0.000000
  9
$EXTMAX
 10
297.000000
 20
420.000000
 30
0.000000
  9
$MEASUREMENT
 70
  1
  9
$LIMMIN
 10
0.000000
 20
0.000000
  9
$LIMMAX
 10
297.000000
 20
420.000000
  9
$HANDLING
 70
     1
  9
$HANDSEED
  5
402
  9
$DIMBLK
  1
_OPEN
  9
$DIMDEC
 70
     3
  9
$DIMAUNIT
 70
     1
  9
$DIMZIN
 70
     8
  9
$DIMTOFL
 70
     1
  0
ENDSEC
  0
SECTION
  2
CLASSES
  0
ENDSEC
  0
SECTION
  2
TABLES
  0
TABLE
  2
VPORT
  5
3B0
100
AcDbSymbolTable
 70
     1
  0
VPORT
  5
3B1
100
AcDbSymbolTableRecord
100
AcDbViewportTableRecord
  2
*ACTIVE
 70
     0
 12
231.757374
 22
149.780116
 40
300.518531
 41
1.186234
  0
ENDTAB
  0
TABLE
  2
LTYPE
  5
3B2
100
AcDbSymbolTable
 70
     4
  0
LTYPE
  5
3B3
100
AcDbSymbolTableRecord
100
AcDbLinetypeTableRecord
  2
BYBLOCK
 70
     0
  3

 72
    65
 73
     0
 40
0.0
  0
LTYPE
  5
3B4
100
AcDbSymbolTableRecord
100
AcDbLinetypeTableRecord
  2
BYLAYER
 70
     0
  3

 72
    65
 73
     0
 40
0.0
  0
LTYPE
  5
3B5
100
AcDbSymbolTableRecord
100
AcDbLinetypeTableRecord
  2
CONTINUOUS
 70
     0
  3
Solid line (NEC CAE2D for Win R12.1 : 2019.02.25)
 72
    65
 73
     0
 40
0.0
  0
LTYPE
  5
3B6
100
AcDbSymbolTableRecord
100
AcDbLinetypeTableRecord
  2
HIDDEN
 70
     0
  3
__ __ __ __ __ __ __ __ __ __ __ __ __ __
 72
    65
 73
     2
 40
0.375
 49
0.25
 74
     0
 49
-0.125
 74
     0
  0
LTYPE
  5
3B7
100
AcDbSymbolTableRecord
100
AcDbLinetypeTableRecord
  2
CENTER
 70
     0
  3
____ _ ____ _ ____ _ ____ _ ____ _ ____
 72
    65
 73
     4
 40
2.0
 49
1.25
 74
     0
 49
-0.25
 74
     0
 49
0.25
 74
     0
 49
-0.25
 74
     0
  0
LTYPE
  5
3B8
100
AcDbSymbolTableRecord
100
AcDbLinetypeTableRecord
  2
PHANTOM
 70
     0
  3
______  __  __  ______  __  __  ______ 
 72
    65
 73
     6
 40
2.5
 49
1.25
 74
     0
 49
-0.25
 74
     0
 49
0.25
 74
     0
 49
-0.25
 74
     0
 49
0.25
 74
     0
 49
-0.25
 74
     0
  0
ENDTAB
  0
TABLE
  2
LAYER
  5
3B9
100
AcDbSymbolTable
 70
    13
  0
LAYER
  5
3BA
100
AcDbSymbolTableRecord
100
AcDbLayerTableRecord
  2
0
 70
     0
 62
     7
  6
CONTINUOUS
  0
LAYER
  5
3BB
100
AcDbSymbolTableRecord
100
AcDbLayerTableRecord
  2
MAIN0
 70
     0
 62
     7
  6
CONTINUOUS
  0
LAYER
  5
3BC
100
AcDbSymbolTableRecord
100
AcDbLayerTableRecord
  2
MAIN1
 70
     0
 62
     7
  6
CONTINUOUS
  0
LAYER
  5
3BD
100
AcDbSymbolTableRecord
100
AcDbLayerTableRecord
  2
MAIN2
 70
     0
 62
     7
  6
CONTINUOUS
  0
LAYER
  5
3BE
100
AcDbSymbolTableRecord
100
AcDbLayerTableRecord
  2
MAIN3
 70
     0
 62
     7
  6
CONTINUOUS
  0
LAYER
  5
3BF
100
AcDbSymbolTableRecord
100
AcDbLayerTableRecord
  2
MAIN4
 70
     0
 62
     7
  6
CONTINUOUS
  0
LAYER
  5
3C0
100
AcDbSymbolTableRecord
100
AcDbLayerTableRecord
  2
MAIN1023
 70
     0
 62
    16
  6
CONTINUOUS
  0
LAYER
  5
3C1
100
AcDbSymbolTableRecord
100
AcDbLayerTableRecord
  2
A0
 70
     0
 62
     7
  6
CONTINUOUS
  0
LAYER
  5
3C2
100
AcDbSymbolTableRecord
100
AcDbLayerTableRecord
  2
A1
 70
     0
 62
     7
  6
CONTINUOUS
  0
LAYER
  5
3C3
100
AcDbSymbolTableRecord
100
AcDbLayerTableRecord
  2
A2
 70
     0
 62
     7
  6
CONTINUOUS
  0
LAYER
  5
3C4
100
AcDbSymbolTableRecord
100
AcDbLayerTableRecord
  2
A1023
 70
     0
 62
    16
  6
CONTINUOUS
  0
LAYER
  5
3C5
100
AcDbSymbolTableRecord
100
AcDbLayerTableRecord
  2
WAKU0
 70
     0
 62
     7
  6
CONTINUOUS
  0
LAYER
  5
3C6
100
AcDbSymbolTableRecord
100
AcDbLayerTableRecord
  2
WAKU1023
 70
     0
 62
    16
  6
CONTINUOUS
  0
ENDTAB
  0
TABLE
  2
STYLE
  5
3C7
100
AcDbSymbolTable
 70
     4
  0
STYLE
  5
3C8
100
AcDbSymbolTableRecord
100
AcDbTextStyleTableRecord
  2
STANDARD
 70
    64
 40
0.0
 41
1.0
 50
0.0
 71
     0
 42
3.140094041824341
  3
TXT
  4

  0
STYLE
  5
3C9
100
AcDbSymbolTableRecord
100
AcDbTextStyleTableRecord
  2
ANKTATE
 70
    68
 40
0.0
 41
1.0
 50
0.0
 71
     0
 42
3.140094041824341
  3
TXT
  4

  0
STYLE
  5
1AD
100
AcDbSymbolTableRecord
100
AcDbTextStyleTableRecord
  2
KNJYOKO
 70
    64
 40
0.0
 41
1.0
 50
0.0
 71
     0
 42
3.140094041824341
  3
TXT
  4
BIGFONT
  0
STYLE
  5
3CA
100
AcDbSymbolTableRecord
100
AcDbTextStyleTableRecord
  2
KNJTATE
 70
    68
 40
0.0
 41
1.0
 50
0.0
 71
     0
 42
3.140094041824341
  3
TXT
  4
BIGFONT
  0
ENDTAB
  0
TABLE
  2
VIEW
  5
3CB
100
AcDbSymbolTable
 70
     0
  0
ENDTAB
  0
TABLE
  2
UCS
  5
3CC
100
AcDbSymbolTable
 70
     0
  0
ENDTAB
  0
TABLE
  2
APPID
  5
3CD
100
AcDbSymbolTable
 70
     1
  0
APPID
  5
3CE
100
AcDbSymbolTableRecord
100
AcDbRegAppTableRecord
  2
ACAD
 70
     0
  0
ENDTAB
  0
TABLE
  2
DIMSTYLE
  5
3CF
100
AcDbSymbolTable
 70
     1
  0
DIMSTYLE
105
3D0
100
AcDbSymbolTableRecord
100
AcDbDimStyleTableRecord
  2
STANDARD
 70
     0
 41
2.000000
 44
2.000000
 42
0.800000
145
0.661290
140
3.100000
144
1.000000
146
0.903226
340
3C8
  0
DIMSTYLE
105
3D1
100
AcDbSymbolTableRecord
100
AcDbDimStyleTableRecord
  2
MAIN001
 70
     0
 41
2.000000
 44
2.000000
 42
0.800000
145
0.661290
140
3.100000
144
1.000000
146
0.903226
 77
     1
 73
     0
 74
     0
271
     3
275
     1
 78
     8
172
     1
340
3C8
  0
DIMSTYLE
105
3D2
100
AcDbSymbolTableRecord
100
AcDbDimStyleTableRecord
  2
A002
 70
     0
 41
3.000000
 44
3.000000
 42
1.200000
145
0.607527
140
4.650000
144
1.000000
146
0.903226
 77
     1
 73
     0
 74
     0
271
     3
275
     1
 78
     8
172
     1
340
3C8
  0
DIMSTYLE
105
3D3
100
AcDbSymbolTableRecord
100
AcDbDimStyleTableRecord
  2
WAKU003
 70
     0
 41
2.000000
 44
2.000000
 42
0.800000
145
0.661290
140
3.100000
144
1.000000
146
0.903226
 77
     1
 73
     0
 74
     0
271
     3
275
     1
 78
     8
172
     1
340
3C8
  0
ENDTAB
  0
TABLE
  2
BLOCK_RECORD
  5
3D4
100
AcDbSymbolTable
 70
    46
  0
BLOCK_RECORD
  5
3D5
100
AcDbSymbolTableRecord
100
AcDbBlockTableRecord
  2
*MODEL_SPACE
  0
BLOCK_RECORD
  5
3D6
100
AcDbSymbolTableRecord
100
AcDbBlockTableRecord
  2
*PAPER_SPACE
  0
BLOCK_RECORD
  5
1
100
AcDbSymbolTableRecord
100
AcDbBlockTableRecord
  2
_NONE
  0
BLOCK_RECORD
  5
4
100
AcDbSymbolTableRecord
100
AcDbBlockTableRecord
  2
_CLOSED
  0
BLOCK_RECORD
  5
B
100
AcDbSymbolTableRecord
100
AcDbBlockTableRecord
  2
_DOT
  0
BLOCK_RECORD
  5
13
100
AcDbSymbolTableRecord
100
AcDbBlockTableRecord
  2
_OPEN
  0
BLOCK_RECORD
  5
19
100
AcDbSymbolTableRecord
100
AcDbBlockTableRecord
  2
_ORIGIN
  0
BLOCK_RECORD
  5
1E
100
AcDbSymbolTableRecord
100
AcDbBlockTableRecord
  2
_OPEN30
  0
BLOCK_RECORD
  5
24
100
AcDbSymbolTableRecord
100
AcDbBlockTableRecord
  2
_BOXFILLED
  0
BLOCK_RECORD
  5
29
100
AcDbSymbolTableRecord
100
AcDbBlockTableRecord
  2
_BOXBLANK
  0
BLOCK_RECORD
  5
31
100
AcDbSymbolTableRecord
100
AcDbBlockTableRecord
  2
_OBLIQUE
  0
BLOCK_RECORD
  5
35
100
AcDbSymbolTableRecord
100
AcDbBlockTableRecord
  2
_OPEN90
  0
BLOCK_RECORD
  5
3B
100
AcDbSymbolTableRecord
100
AcDbBlockTableRecord
  2
_CLOSEDBLANK
  0
BLOCK_RECORD
  5
41
100
AcDbSymbolTableRecord
100
AcDbBlockTableRecord
  2
_DOTBLANK
  0
BLOCK_RECORD
  5
3D7
100
AcDbSymbolTableRecord
100
AcDbBlockTableRecord
  2
*D0
  0
BLOCK_RECORD
  5
3D8
100
AcDbSymbolTableRecord
100
AcDbBlockTableRecord
  2
*D1
  0
BLOCK_RECORD
  5
3D9
100
AcDbSymbolTableRecord
100
AcDbBlockTableRecord
  2
*D2
  0
BLOCK_RECORD
  5
3DA
100
AcDbSymbolTableRecord
100
AcDbBlockTableRecord
  2
*D3
  0
BLOCK_RECORD
  5
3DB
100
AcDbSymbolTableRecord
100
AcDbBlockTableRecord
  2
*D4
  0
BLOCK_RECORD
  5
3DC
100
AcDbSymbolTableRecord
100
AcDbBlockTableRecord
  2
*D5
  0
BLOCK_RECORD
  5
3DD
100
AcDbSymbolTableRecord
100
AcDbBlockTableRecord
  2
*D6
  0
BLOCK_RECORD
  5
3DE
100
AcDbSymbolTableRecord
100
AcDbBlockTableRecord
  2
*D7
  0
BLOCK_RECORD
  5
3DF
100
AcDbSymbolTableRecord
100
AcDbBlockTableRecord
  2
*D8
  0
BLOCK_RECORD
  5
3E0
100
AcDbSymbolTableRecord
100
AcDbBlockTableRecord
  2
*D9
  0
BLOCK_RECORD
  5
3E1
100
AcDbSymbolTableRecord
100
AcDbBlockTableRecord
  2
*D10
  0
BLOCK_RECORD
  5
3E2
100
AcDbSymbolTableRecord
100
AcDbBlockTableRecord
  2
*D11
  0
BLOCK_RECORD
  5
3E3
100
AcDbSymbolTableRecord
100
AcDbBlockTableRecord
  2
*D12
  0
BLOCK_RECORD
  5
3E4
100
AcDbSymbolTableRecord
100
AcDbBlockTableRecord
  2
*D13
  0
BLOCK_RECORD
  5
3E5
100
AcDbSymbolTableRecord
100
AcDbBlockTableRecord
  2
*D14
  0
BLOCK_RECORD
  5
3E6
100
AcDbSymbolTableRecord
100
AcDbBlockTableRecord
  2
*D15
  0
BLOCK_RECORD
  5
3E7
100
AcDbSymbolTableRecord
100
AcDbBlockTableRecord
  2
*D16
  0
BLOCK_RECORD
  5
3E8
100
AcDbSymbolTableRecord
100
AcDbBlockTableRecord
  2
*D17
  0
BLOCK_RECORD
  5
3E9
100
AcDbSymbolTableRecord
100
AcDbBlockTableRecord
  2
*D18
  0
BLOCK_RECORD
  5
3EA
100
AcDbSymbolTableRecord
100
AcDbBlockTableRecord
  2
*D19
  0
BLOCK_RECORD
  5
3EB
100
AcDbSymbolTableRecord
100
AcDbBlockTableRecord
  2
*D20
  0
BLOCK_RECORD
  5
3EC
100
AcDbSymbolTableRecord
100
AcDbBlockTableRecord
  2
*D21
  0
BLOCK_RECORD
  5
3ED
100
AcDbSymbolTableRecord
100
AcDbBlockTableRecord
  2
*D22
  0
BLOCK_RECORD
  5
3EE
100
AcDbSymbolTableRecord
100
AcDbBlockTableRecord
  2
*D23
  0
BLOCK_RECORD
  5
3EF
100
AcDbSymbolTableRecord
100
AcDbBlockTableRecord
  2
*D24
  0
BLOCK_RECORD
  5
3F0
100
AcDbSymbolTableRecord
100
AcDbBlockTableRecord
  2
*D25
  0
BLOCK_RECORD
  5
3F1
100
AcDbSymbolTableRecord
100
AcDbBlockTableRecord
  2
*D26
  0
BLOCK_RECORD
  5
3F2
100
AcDbSymbolTableRecord
100
AcDbBlockTableRecord
  2
*D27
  0
BLOCK_RECORD
  5
3F3
100
AcDbSymbolTableRecord
100
AcDbBlockTableRecord
  2
*D28
  0
BLOCK_RECORD
  5
3F4
100
AcDbSymbolTableRecord
100
AcDbBlockTableRecord
  2
*D29
  0
BLOCK_RECORD
  5
3F5
100
AcDbSymbolTableRecord
100
AcDbBlockTableRecord
  2
*D30
  0
BLOCK_RECORD
  5
3F6
100
AcDbSymbolTableRecord
100
AcDbBlockTableRecord
  2
*D31
  0
BLOCK_RECORD
  5
3F7
100
AcDbSymbolTableRecord
100
AcDbBlockTableRecord
  2
*D32
  0
BLOCK_RECORD
  5
3F8
100
AcDbSymbolTableRecord
100
AcDbBlockTableRecord
  2
*D33
  0
ENDTAB
  0
ENDSEC
  0
SECTION
  2
BLOCKS
  0
BLOCK
  5
3F9
100
AcDbEntity
  8
0
100
AcDbBlockBegin
  2
*MODEL_SPACE
 70
     0
 10
0.0
 20
0.0
 30
0.0
  3
*MODEL_SPACE
  1

  0
ENDBLK
  5
3FA
100
AcDbEntity
  8
0
100
AcDbBlockEnd
  0
BLOCK
  5
3FB
100
AcDbEntity
  8
0
100
AcDbBlockBegin
  2
*PAPER_SPACE
 70
     0
 10
0.0
 20
0.0
 30
0.0
  3
*PAPER_SPACE
  1

  0
ENDBLK
  5
3FC
100
AcDbEntity
  8
0
100
AcDbBlockEnd
  0
BLOCK
  5
2
100
AcDbEntity
  8
0
100
AcDbBlockBegin
  2
_NONE
 70
     0
 10
0.0
 20
0.0
 30
0.0
  3
_NONE
  1

  0
ENDBLK
  5
3
100
AcDbEntity
  8
0
100
AcDbBlockEnd
  0
BLOCK
  5
5
100
AcDbEntity
  8
0
100
AcDbBlockBegin
  2
_CLOSED
 70
     0
 10
0.0
 20
0.0
 30
0.0
  3
_CLOSED
  1

  0
LINE
  5
6
100
AcDbEntity
  8
0
  6
BYBLOCK
 62
     0
100
AcDbLine
 10
-1.0
 20
0.166667
 30
0.0
 11
0.0
 21
0.0
 31
0.0
  0
LINE
  5
7
100
AcDbEntity
  8
0
  6
BYBLOCK
 62
     0
100
AcDbLine
 10
0.0
 20
0.0
 30
0.0
 11
-1.0
 21
-0.166667
 31
0.0
  0
LINE
  5
8
100
AcDbEntity
  8
0
  6
BYBLOCK
 62
     0
100
AcDbLine
 10
-1.0
 20
0.166667
 30
0.0
 11
-1.0
 21
-0.166667
 31
0.0
  0
LINE
  5
9
100
AcDbEntity
  8
0
  6
BYBLOCK
 62
     0
100
AcDbLine
 10
0.0
 20
0.0
 30
0.0
 11
-1.0
 21
0.0
 31
0.0
  0
ENDBLK
  5
A
100
AcDbEntity
  8
0
100
AcDbBlockEnd
  0
BLOCK
  5
C
100
AcDbEntity
  8
0
100
AcDbBlockBegin
  2
_DOT
 70
     0
 10
0.0
 20
0.0
 30
0.0
  3
_DOT
  1

  0
POLYLINE
  5
D
100
AcDbEntity
  8
0
  6
BYBLOCK
 62
     0
100
AcDb2dPolyline
 66
     1
 10
0.0
 20
0.0
 30
0.0
 70
     1
 40
0.5
 41
0.5
  0
VERTEX
  5
E
100
AcDbEntity
  8
0
  6
BYBLOCK
 62
     0
100
AcDbVertex
100
AcDb2dVertex
 10
-0.25
 20
0.0
 30
0.0
 42
1.0
  0
VERTEX
  5
F
100
AcDbEntity
  8
0
  6
BYBLOCK
 62
     0
100
AcDbVertex
100
AcDb2dVertex
 10
0.25
 20
0.0
 30
0.0
 42
1.0
  0
SEQEND
  5
10
100
AcDbEntity
  8
0
  6
BYBLOCK
 62
     0
  0
LINE
  5
11
100
AcDbEntity
  8
0
  6
BYBLOCK
 62
     0
100
AcDbLine
 10
-0.5
 20
0.0
 30
0.0
 11
-1.0
 21
0.0
 31
0.0
  0
ENDBLK
  5
12
100
AcDbEntity
  8
0
100
AcDbBlockEnd
  0
BLOCK
  5
14
100
AcDbEntity
  8
0
100
AcDbBlockBegin
  2
_OPEN
 70
     0
 10
0.0
 20
0.0
 30
0.0
  3
_OPEN
  1

  0
LINE
  5
15
100
AcDbEntity
  8
0
  6
BYBLOCK
 62
     0
100
AcDbLine
 10
-1.0
 20
0.166667
 30
0.0
 11
0.0
 21
0.0
 31
0.0
  0
LINE
  5
16
100
AcDbEntity
  8
0
  6
BYBLOCK
 62
     0
100
AcDbLine
 10
0.0
 20
0.0
 30
0.0
 11
-1.0
 21
-0.166667
 31
0.0
  0
LINE
  5
17
100
AcDbEntity
  8
0
  6
BYBLOCK
 62
     0
100
AcDbLine
 10
0.0
 20
0.0
 30
0.0
 11
-1.0
 21
0.0
 31
0.0
  0
ENDBLK
  5
18
100
AcDbEntity
  8
0
100
AcDbBlockEnd
  0
BLOCK
  5
1A
100
AcDbEntity
  8
0
100
AcDbBlockBegin
  2
_ORIGIN
 70
     0
 10
0.0
 20
0.0
 30
0.0
  3
_ORIGIN
  1

  0
CIRCLE
  5
1B
100
AcDbEntity
  8
0
  6
BYBLOCK
 62
     0
100
AcDbCircle
 10
0.0
 20
0.0
 30
0.0
 40
0.5
  0
LINE
  5
1C
100
AcDbEntity
  8
0
  6
BYBLOCK
 62
     0
100
AcDbLine
 10
0.0
 20
0.0
 30
0.0
 11
-1.0
 21
0.0
 31
0.0
  0
ENDBLK
  5
1D
100
AcDbEntity
  8
0
100
AcDbBlockEnd
  0
BLOCK
  5
1F
100
AcDbEntity
  8
0
100
AcDbBlockBegin
  2
_OPEN30
 70
     0
 10
0.0
 20
0.0
 30
0.0
  3
_OPEN30
  1

  0
LINE
  5
20
100
AcDbEntity
  8
0
  6
BYBLOCK
 62
     0
100
AcDbLine
 10
-1.0
 20
0.267949
 30
0.0
 11
0.0
 21
0.0
 31
0.0
  0
LINE
  5
21
100
AcDbEntity
  8
0
  6
BYBLOCK
 62
     0
100
AcDbLine
 10
0.0
 20
0.0
 30
0.0
 11
-1.0
 21
-0.267949
 31
0.0
  0
LINE
  5
22
100
AcDbEntity
  8
0
  6
BYBLOCK
 62
     0
100
AcDbLine
 10
0.0
 20
0.0
 30
0.0
 11
-1.0
 21
0.0
 31
0.0
  0
ENDBLK
  5
23
100
AcDbEntity
  8
0
100
AcDbBlockEnd
  0
BLOCK
  5
25
100
AcDbEntity
  8
0
100
AcDbBlockBegin
  2
_BOXFILLED
 70
     0
 10
0.0
 20
0.0
 30
0.0
  3
_BOXFILLED
  1

  0
SOLID
  5
26
100
AcDbEntity
  8
0
  6
BYBLOCK
 62
     0
100
AcDbTrace
 10
-0.5
 20
0.5
 30
0.0
 11
0.5
 21
0.5
 31
0.0
 12
-0.5
 22
-0.5
 32
0.0
 13
0.5
 23
-0.5
 33
0.0
  0
LINE
  5
27
100
AcDbEntity
  8
0
  6
BYBLOCK
 62
     0
100
AcDbLine
 10
-0.5
 20
0.0
 30
0.0
 11
-1.0
 21
0.0
 31
0.0
  0
ENDBLK
  5
28
100
AcDbEntity
  8
0
100
AcDbBlockEnd
  0
BLOCK
  5
2A
100
AcDbEntity
  8
0
100
AcDbBlockBegin
  2
_BOXBLANK
 70
     0
 10
0.0
 20
0.0
 30
0.0
  3
_BOXBLANK
  1

  0
LINE
  5
2B
100
AcDbEntity
  8
0
  6
BYBLOCK
 62
     0
100
AcDbLine
 10
-0.5
 20
-0.5
 30
0.0
 11
0.5
 21
-0.5
 31
0.0
  0
LINE
  5
2C
100
AcDbEntity
  8
0
  6
BYBLOCK
 62
     0
100
AcDbLine
 10
0.5
 20
-0.5
 30
0.0
 11
0.5
 21
0.5
 31
0.0
  0
LINE
  5
2D
100
AcDbEntity
  8
0
  6
BYBLOCK
 62
     0
100
AcDbLine
 10
0.5
 20
0.5
 30
0.0
 11
-0.5
 21
0.5
 31
0.0
  0
LINE
  5
2E
100
AcDbEntity
  8
0
  6
BYBLOCK
 62
     0
100
AcDbLine
 10
-0.5
 20
0.5
 30
0.0
 11
-0.5
 21
-0.5
 31
0.0
  0
LINE
  5
2F
100
AcDbEntity
  8
0
  6
BYBLOCK
 62
     0
100
AcDbLine
 10
-0.5
 20
0.0
 30
0.0
 11
-1.0
 21
0.0
 31
0.0
  0
ENDBLK
  5
30
100
AcDbEntity
  8
0
100
AcDbBlockEnd
  0
BLOCK
  5
32
100
AcDbEntity
  8
0
100
AcDbBlockBegin
  2
_OBLIQUE
 70
     0
 10
0.0
 20
0.0
 30
0.0
  3
_OBLIQUE
  1

  0
LINE
  5
33
100
AcDbEntity
  8
0
  6
BYBLOCK
 62
     0
100
AcDbLine
 10
-0.5
 20
-0.5
 30
0.0
 11
0.5
 21
0.5
 31
0.0
  0
ENDBLK
  5
34
100
AcDbEntity
  8
0
100
AcDbBlockEnd
  0
BLOCK
  5
36
100
AcDbEntity
  8
0
100
AcDbBlockBegin
  2
_OPEN90
 70
     0
 10
0.0
 20
0.0
 30
0.0
  3
_OPEN90
  1

  0
LINE
  5
37
100
AcDbEntity
  8
0
  6
BYBLOCK
 62
     0
100
AcDbLine
 10
-0.5
 20
0.5
 30
0.0
 11
0.0
 21
0.0
 31
0.0
  0
LINE
  5
38
100
AcDbEntity
  8
0
  6
BYBLOCK
 62
     0
100
AcDbLine
 10
0.0
 20
0.0
 30
0.0
 11
-0.5
 21
-0.5
 31
0.0
  0
LINE
  5
39
100
AcDbEntity
  8
0
  6
BYBLOCK
 62
     0
100
AcDbLine
 10
0.0
 20
0.0
 30
0.0
 11
-1.0
 21
0.0
 31
0.0
  0
ENDBLK
  5
3A
100
AcDbEntity
  8
0
100
AcDbBlockEnd
  0
BLOCK
  5
3C
100
AcDbEntity
  8
0
100
AcDbBlockBegin
  2
_CLOSEDBLANK
 70
     0
 10
0.0
 20
0.0
 30
0.0
  3
_CLOSEDBLANK
  1

  0
LINE
  5
3D
100
AcDbEntity
  8
0
  6
BYBLOCK
 62
     0
100
AcDbLine
 10
-1.0
 20
0.1666666666666666
 30
0.0
 11
0.0
 21
0.0
 31
0.0
  0
LINE
  5
3E
100
AcDbEntity
  8
0
  6
BYBLOCK
 62
     0
100
AcDbLine
 10
0.0
 20
0.0
 30
0.0
 11
-1.0
 21
-0.1666666666666666
 31
0.0
  0
LINE
  5
3F
100
AcDbEntity
  8
0
  6
BYBLOCK
 62
     0
100
AcDbLine
 10
-1.0
 20
0.1666666666666666
 30
0.0
 11
-1.0
 21
-0.1666666666666666
 31
0.0
  0
ENDBLK
  5
40
100
AcDbEntity
  8
0
100
AcDbBlockEnd
  0
BLOCK
  5
42
100
AcDbEntity
  8
0
100
AcDbBlockBegin
  2
_DOTBLANK
 70
     0
 10
0.0
 20
0.0
 30
0.0
  3
_DOTBLANK
  1

  0
CIRCLE
  5
43
100
AcDbEntity
  8
0
  6
BYBLOCK
 62
     0
100
AcDbCircle
 10
0.0
 20
0.0
 30
0.0
 40
0.5
  0
LINE
  5
44
100
AcDbEntity
  8
0
  6
BYBLOCK
 62
     0
100
AcDbLine
 10
-0.5
 20
0.0
 30
0.0
 11
-1.0
 21
0.0
 31
0.0
  0
ENDBLK
  5
45
100
AcDbEntity
  8
0
100
AcDbBlockEnd
  0
BLOCK
  5
143
100
AcDbEntity
  8
MAIN0
  6
CONTINUOUS
 62
3
100
AcDbBlockBegin
  2
*D0
 70
    65
 10
0.0
 20
0.0
 30
0.0
  0
LINE
  5
144
100
AcDbEntity
  8
MAIN0
  6
BYBLOCK
 62
0
100
AcDbLine
 10
156.6417487129500
 20
228.9393816191247
 30
0.0000000000000000
 11
165.8007474136112
 21
228.9393816190970
 31
0.0000000000000000
  0
LINE
  5
145
100
AcDbEntity
  8
MAIN0
  6
BYBLOCK
 62
0
100
AcDbLine
 10
163.8007474136172
 20
230.9393816191031
 30
0.0000000000000000
 11
163.8007474136383
 21
237.9393816191031
 31
0.0000000000000000
  0
INSERT
  5
146
100
AcDbEntity
  8
MAIN0
  6
BYBLOCK
 62
0
100
AcDbBlockReference
  2
_OPEN
 10
163.8007474136112
 20
228.9393816191031
 30
0.0000000000000000
 41
2.000000000000000
 42
2.000000000000000
 43
2.000000000000000
 50
269.9999999998271
  0
INSERT
  5
147
100
AcDbEntity
  8
MAIN0
  6
BYBLOCK
 62
0
100
AcDbBlockReference
  2
_OPEN
 10
163.8007474136444
 20
239.9393816191031
 30
0.0000000000000000
 41
2.000000000000000
 42
2.000000000000000
 43
2.000000000000000
 50
89.99999999982715
  0
LINE
  5
148
100
AcDbEntity
  8
MAIN0
  6
BYBLOCK
 62
0
100
AcDbLine
 10
156.6417487129832
 20
239.9393816191247
 30
0.0000000000000000
 11
165.8007474136444
 21
239.9393816190970
 31
0.0000000000000000
  0
MTEXT
  5
149
100
AcDbEntity
  8
MAIN0
  6
BYBLOCK
 62
0
100
AcDbMText
 10
161.7507474613115
 20
234.4393816191046
 30
0.0000000000000000
 40
3.099999904632568
 41
0.0000000000000000
 71
     5
 72
     1
  1
\A1;11
 11
6.123233995736766e-017
 21
1.000000000000000
 31
0.0000000000000000
  7
STANDARD
  0
ENDBLK
  5
14A
100
AcDbEntity
  8
MAIN0
  6
CONTINUOUS
 62
3
100
AcDbBlockEnd
  0
BLOCK
  5
14C
100
AcDbEntity
  8
MAIN0
  6
CONTINUOUS
 62
3
100
AcDbBlockBegin
  2
*D1
 70
    65
 10
0.0
 20
0.0
 30
0.0
  0
LINE
  5
14D
100
AcDbEntity
  8
MAIN0
  6
BYBLOCK
 62
0
100
AcDbLine
 10
156.6417487129832
 20
239.9393816191247
 30
0.0000000000000000
 11
165.8007474136444
 21
239.9393816190970
 31
0.0000000000000000
  0
LINE
  5
14E
100
AcDbEntity
  8
MAIN0
  6
BYBLOCK
 62
0
100
AcDbLine
 10
163.8007474136504
 20
241.9393816191031
 30
0.0000000000000000
 11
163.8007474136685
 21
247.9393816191031
 31
0.0000000000000000
  0
INSERT
  5
14F
100
AcDbEntity
  8
MAIN0
  6
BYBLOCK
 62
0
100
AcDbBlockReference
  2
_OPEN
 10
163.8007474136444
 20
239.9393816191031
 30
0.0000000000000000
 41
2.000000000000000
 42
2.000000000000000
 43
2.000000000000000
 50
269.9999999998271
  0
INSERT
  5
150
100
AcDbEntity
  8
MAIN0
  6
BYBLOCK
 62
0
100
AcDbBlockReference
  2
_OPEN
 10
163.8007474136745
 20
249.9393816191031
 30
0.0000000000000000
 41
2.000000000000000
 42
2.000000000000000
 43
2.000000000000000
 50
89.99999999982713
  0
LINE
  5
151
100
AcDbEntity
  8
MAIN0
  6
BYBLOCK
 62
0
100
AcDbLine
 10
150.6417487130134
 20
249.9393816191428
 30
0.0000000000000000
 11
165.8007474136745
 21
249.9393816190970
 31
0.0000000000000000
  0
MTEXT
  5
152
100
AcDbEntity
  8
MAIN0
  6
BYBLOCK
 62
0
100
AcDbMText
 10
161.7507474613432
 20
244.9393816191046
 30
0.0000000000000000
 40
3.099999904632568
 41
0.0000000000000000
 71
     5
 72
     1
  1
\A1;10
 11
6.123233995736766e-017
 21
1.000000000000000
 31
0.0000000000000000
  7
STANDARD
  0
ENDBLK
  5
153
100
AcDbEntity
  8
MAIN0
  6
CONTINUOUS
 62
3
100
AcDbBlockEnd
  0
BLOCK
  5
155
100
AcDbEntity
  8
MAIN0
  6
CONTINUOUS
 62
3
100
AcDbBlockBegin
  2
*D2
 70
    65
 10
0.0
 20
0.0
 30
0.0
  0
LINE
  5
156
100
AcDbEntity
  8
MAIN0
  6
BYBLOCK
 62
0
100
AcDbLine
 10
150.6417487130134
 20
249.9393816191428
 30
0.0000000000000000
 11
165.8007474136745
 21
249.9393816190970
 31
0.0000000000000000
  0
LINE
  5
157
100
AcDbEntity
  8
MAIN0
  6
BYBLOCK
 62
0
100
AcDbLine
 10
163.8007474136806
 20
251.9393816191031
 30
0.0000000000000000
 11
163.8007474137108
 21
261.9393816191031
 31
0.0000000000000000
  0
INSERT
  5
158
100
AcDbEntity
  8
MAIN0
  6
BYBLOCK
 62
0
100
AcDbBlockReference
  2
_OPEN
 10
163.8007474136745
 20
249.9393816191031
 30
0.0000000000000000
 41
2.000000000000000
 42
2.000000000000000
 43
2.000000000000000
 50
269.9999999998271
  0
INSERT
  5
159
100
AcDbEntity
  8
MAIN0
  6
BYBLOCK
 62
0
100
AcDbBlockReference
  2
_OPEN
 10
163.8007474137168
 20
263.9393816191031
 30
0.0000000000000000
 41
2.000000000000000
 42
2.000000000000000
 43
2.000000000000000
 50
89.99999999982707
  0
LINE
  5
15A
100
AcDbEntity
  8
MAIN0
  6
BYBLOCK
 62
0
100
AcDbLine
 10
144.1417487130557
 20
263.9393816191624
 30
0.0000000000000000
 11
165.8007474137168
 21
263.9393816190970
 31
0.0000000000000000
  0
MTEXT
  5
15B
100
AcDbEntity
  8
MAIN0
  6
BYBLOCK
 62
0
100
AcDbMText
 10
161.7507474613794
 20
256.9393816191046
 30
0.0000000000000000
 40
3.099999904632568
 41
0.0000000000000000
 71
     5
 72
     1
  1
\A1;14
 11
6.123233995736766e-017
 21
1.000000000000000
 31
0.0000000000000000
  7
STANDARD
  0
ENDBLK
  5
15C
100
AcDbEntity
  8
MAIN0
  6
CONTINUOUS
 62
3
100
AcDbBlockEnd
  0
BLOCK
  5
15E
100
AcDbEntity
  8
MAIN0
  6
CONTINUOUS
 62
3
100
AcDbBlockBegin
  2
*D3
 70
    65
 10
0.0
 20
0.0
 30
0.0
  0
LINE
  5
15F
100
AcDbEntity
  8
MAIN0
  6
BYBLOCK
 62
0
100
AcDbLine
 10
156.6417487129500
 20
228.9393816191247
 30
0.0000000000000000
 11
175.8007474136715
 21
228.9393816190668
 31
0.0000000000000000
  0
LINE
  5
160
100
AcDbEntity
  8
MAIN0
  6
BYBLOCK
 62
0
100
AcDbLine
 10
173.8007474136776
 20
230.9393816190729
 30
0.0000000000000000
 11
173.8007474137711
 21
261.9393816190728
 31
0.0000000000000000
  0
INSERT
  5
161
100
AcDbEntity
  8
MAIN0
  6
BYBLOCK
 62
0
100
AcDbBlockReference
  2
_OPEN
 10
173.8007474136715
 20
228.9393816190729
 30
0.0000000000000000
 41
2.000000000000000
 42
2.000000000000000
 43
2.000000000000000
 50
269.9999999998271
  0
INSERT
  5
162
100
AcDbEntity
  8
MAIN0
  6
BYBLOCK
 62
0
100
AcDbBlockReference
  2
_OPEN
 10
173.8007474137772
 20
263.9393816190728
 30
0.0000000000000000
 41
2.000000000000000
 42
2.000000000000000
 43
2.000000000000000
 50
89.99999999982713
  0
LINE
  5
163
100
AcDbEntity
  8
MAIN0
  6
BYBLOCK
 62
0
100
AcDbLine
 10
144.1417487130557
 20
263.9393816191624
 30
0.0000000000000000
 11
175.8007474137772
 21
263.9393816190668
 31
0.0000000000000000
  0
MTEXT
  5
164
100
AcDbEntity
  8
MAIN0
  6
BYBLOCK
 62
0
100
AcDbMText
 10
171.7507474614081
 20
246.4393816190744
 30
0.0000000000000000
 40
3.099999904632568
 41
0.0000000000000000
 71
     5
 72
     1
  1
\A1;35
 11
6.123233995736766e-017
 21
1.000000000000000
 31
0.0000000000000000
  7
STANDARD
  0
ENDBLK
  5
165
100
AcDbEntity
  8
MAIN0
  6
CONTINUOUS
 62
3
100
AcDbBlockEnd
  0
BLOCK
  5
167
100
AcDbEntity
  8
MAIN0
  6
CONTINUOUS
 62
3
100
AcDbBlockBegin
  2
*D4
 70
    65
 10
0.0
 20
0.0
 30
0.0
  0
LINE
  5
168
100
AcDbEntity
  8
MAIN0
  6
BYBLOCK
 62
0
100
AcDbLine
 10
156.1417487010638
 20
240.4393816310471
 30
0.0000000000000000
 11
156.1417487010848
 21
247.3893816189946
 31
0.0000000000000000
  0
LINE
  5
169
100
AcDbEntity
  8
MAIN0
  6
BYBLOCK
 62
0
100
AcDbLine
 10
154.1417487010787
 20
245.3893816190007
 30
0.0000000000000000
 11
152.1417487010787
 21
245.3893816190067
 31
0.0000000000000000
  0
INSERT
  5
16A
100
AcDbEntity
  8
MAIN0
  6
BYBLOCK
 62
0
100
AcDbBlockReference
  2
_OPEN
 10
156.1417487010787
 20
245.3893816189946
 30
0.0000000000000000
 41
2.000000000000000
 42
2.000000000000000
 43
2.000000000000000
 50
359.9999999998274
  0
INSERT
  5
16B
100
AcDbEntity
  8
MAIN0
  6
BYBLOCK
 62
0
100
AcDbBlockReference
  2
_OPEN
 10
150.1417487010787
 20
245.3893816190127
 30
0.0000000000000000
 41
2.000000000000000
 42
2.000000000000000
 43
2.000000000000000
 50
179.9999999998274
  0
MTEXT
  5
16C
100
AcDbEntity
  8
MAIN0
  6
BYBLOCK
 62
0
100
AcDbMText
 10
153.1417487010803
 20
247.4393815713200
 30
0.0000000000000000
 40
3.099999904632568
 41
0.0000000000000000
 71
     5
 72
     1
  1
\A1;6
 11
1.000000000000000
 21
0.0000000000000000
 31
0.0000000000000000
  7
STANDARD
  0
ENDBLK
  5
16D
100
AcDbEntity
  8
MAIN0
  6
CONTINUOUS
 62
3
100
AcDbBlockEnd
  0
BLOCK
  5
16F
100
AcDbEntity
  8
MAIN0
  6
CONTINUOUS
 62
3
100
AcDbBlockBegin
  2
*D5
 70
    65
 10
0.0
 20
0.0
 30
0.0
  0
LINE
  5
170
100
AcDbEntity
  8
MAIN0
  6
BYBLOCK
 62
0
100
AcDbLine
 10
146.1417487011121
 20
256.4393816190832
 30
0.0000000000000000
 11
148.1417487011121
 21
256.4393816190772
 31
0.0000000000000000
  0
INSERT
  5
171
100
AcDbEntity
  8
MAIN0
  6
BYBLOCK
 62
0
100
AcDbBlockReference
  2
_OPEN
 10
144.1417487011121
 20
256.4393816190893
 30
0.0000000000000000
 41
2.000000000000000
 42
2.000000000000000
 43
2.000000000000000
 50
179.9999999998274
  0
INSERT
  5
172
100
AcDbEntity
  8
MAIN0
  6
BYBLOCK
 62
0
100
AcDbBlockReference
  2
_OPEN
 10
150.1417487011121
 20
256.4393816190712
 30
0.0000000000000000
 41
2.000000000000000
 42
2.000000000000000
 43
2.000000000000000
 50
359.9999999998274
  0
LINE
  5
173
100
AcDbEntity
  8
MAIN0
  6
BYBLOCK
 62
0
100
AcDbLine
 10
150.1417487010940
 20
250.4393816310652
 30
0.0000000000000000
 11
150.1417487011181
 21
258.4393816190712
 31
0.0000000000000000
  0
MTEXT
  5
174
100
AcDbEntity
  8
MAIN0
  6
BYBLOCK
 62
0
100
AcDbMText
 10
147.1417487011136
 20
258.4893815713965
 30
0.0000000000000000
 40
3.099999904632568
 41
0.0000000000000000
 71
     5
 72
     1
  1
\A1;6
 11
1.000000000000000
 21
0.0000000000000000
 31
0.0000000000000000
  7
STANDARD
  0
ENDBLK
  5
175
100
AcDbEntity
  8
MAIN0
  6
CONTINUOUS
 62
3
100
AcDbBlockEnd
  0
BLOCK
  5
177
100
AcDbEntity
  8
MAIN0
  6
CONTINUOUS
 62
3
100
AcDbBlockBegin
  2
*D6
 70
    65
 10
0.0
 20
0.0
 30
0.0
  0
LINE
  5
178
100
AcDbEntity
  8
MAIN0
  6
BYBLOCK
 62
0
100
AcDbLine
 10
156.7417487129440
 20
226.9393816191244
 30
0.0000000000000000
 11
175.8007474137108
 21
226.9393816190668
 31
0.0000000000000000
  0
LINE
  5
179
100
AcDbEntity
  8
MAIN0
  6
BYBLOCK
 62
0
100
AcDbLine
 10
173.8007474137047
 20
224.9393816190729
 30
0.0000000000000000
 11
173.8007474136836
 21
217.9393816190729
 31
0.0000000000000000
  0
INSERT
  5
17A
100
AcDbEntity
  8
MAIN0
  6
BYBLOCK
 62
0
100
AcDbBlockReference
  2
_OPEN
 10
173.8007474137108
 20
226.9393816190729
 30
0.0000000000000000
 41
2.000000000000000
 42
2.000000000000000
 43
2.000000000000000
 50
89.99999999982691
  0
INSERT
  5
17B
100
AcDbEntity
  8
MAIN0
  6
BYBLOCK
 62
0
100
AcDbBlockReference
  2
_OPEN
 10
173.8007474136776
 20
215.9393816190729
 30
0.0000000000000000
 41
2.000000000000000
 42
2.000000000000000
 43
2.000000000000000
 50
269.9999999998269
  0
LINE
  5
17C
100
AcDbEntity
  8
MAIN0
  6
BYBLOCK
 62
0
100
AcDbLine
 10
156.7417487129108
 20
215.9393816191244
 30
0.0000000000000000
 11
175.8007474136776
 21
215.9393816190668
 31
0.0000000000000000
  0
MTEXT
  5
17D
100
AcDbEntity
  8
MAIN0
  6
BYBLOCK
 62
0
100
AcDbMText
 10
171.7507474613779
 20
221.4393816190744
 30
0.0000000000000000
 40
3.099999904632568
 41
0.0000000000000000
 71
     5
 72
     1
  1
\A1;11
 11
6.123233995736766e-017
 21
1.000000000000000
 31
0.0000000000000000
  7
STANDARD
  0
ENDBLK
  5
17E
100
AcDbEntity
  8
MAIN0
  6
CONTINUOUS
 62
3
100
AcDbBlockEnd
  0
BLOCK
  5
180
100
AcDbEntity
  8
MAIN0
  6
CONTINUOUS
 62
3
100
AcDbBlockBegin
  2
*D7
 70
    65
 10
0.0
 20
0.0
 30
0.0
  0
LINE
  5
181
100
AcDbEntity
  8
MAIN0
  6
BYBLOCK
 62
0
100
AcDbLine
 10
156.7417487127996
 20
178.9393816191210
 30
0.0000000000000000
 11
165.8007474136112
 21
178.9393816190936
 31
0.0000000000000000
  0
LINE
  5
182
100
AcDbEntity
  8
MAIN0
  6
BYBLOCK
 62
0
100
AcDbLine
 10
163.8007474136172
 20
180.9393816190996
 30
0.0000000000000000
 11
163.8007474136323
 21
185.9393816191326
 31
0.0000000000000000
  0
INSERT
  5
183
100
AcDbEntity
  8
MAIN0
  6
BYBLOCK
 62
0
100
AcDbBlockReference
  2
_OPEN
 10
163.8007474136112
 20
178.9393816190996
 30
0.0000000000000000
 41
2.000000000000000
 42
2.000000000000000
 43
2.000000000000000
 50
269.9999999998271
  0
INSERT
  5
184
100
AcDbEntity
  8
MAIN0
  6
BYBLOCK
 62
0
100
AcDbBlockReference
  2
_OPEN
 10
163.8007474136383
 20
187.9393816191326
 30
0.0000000000000000
 41
2.000000000000000
 42
2.000000000000000
 43
2.000000000000000
 50
89.99999999982707
  0
LINE
  5
185
100
AcDbEntity
  8
MAIN0
  6
BYBLOCK
 62
0
100
AcDbLine
 10
156.7417487128283
 20
187.9393816191539
 30
0.0000000000000000
 11
165.8007474136383
 21
187.9393816191266
 31
0.0000000000000000
  0
MTEXT
  5
186
100
AcDbEntity
  8
MAIN0
  6
BYBLOCK
 62
0
100
AcDbMText
 10
161.7507474613084
 20
183.4393816191176
 30
0.0000000000000000
 40
3.099999904632568
 41
0.0000000000000000
 71
     5
 72
     1
  1
\A1;9
 11
6.123233995736766e-017
 21
1.000000000000000
 31
0.0000000000000000
  7
STANDARD
  0
ENDBLK
  5
187
100
AcDbEntity
  8
MAIN0
  6
CONTINUOUS
 62
3
100
AcDbBlockEnd
  0
BLOCK
  5
189
100
AcDbEntity
  8
MAIN0
  6
CONTINUOUS
 62
3
100
AcDbBlockBegin
  2
*D8
 70
    65
 10
0.0
 20
0.0
 30
0.0
  0
LINE
  5
18A
100
AcDbEntity
  8
MAIN0
  6
BYBLOCK
 62
0
100
AcDbLine
 10
156.7417487128283
 20
187.9393816191539
 30
0.0000000000000000
 11
165.8007474136383
 21
187.9393816191266
 31
0.0000000000000000
  0
LINE
  5
18B
100
AcDbEntity
  8
MAIN0
  6
BYBLOCK
 62
0
100
AcDbLine
 10
163.8007474136444
 20
189.9393816191326
 30
0.0000000000000000
 11
163.8007474136625
 21
195.9393816191338
 31
0.0000000000000000
  0
INSERT
  5
18C
100
AcDbEntity
  8
MAIN0
  6
BYBLOCK
 62
0
100
AcDbBlockReference
  2
_OPEN
 10
163.8007474136383
 20
187.9393816191326
 30
0.0000000000000000
 41
2.000000000000000
 42
2.000000000000000
 43
2.000000000000000
 50
269.9999999998271
  0
INSERT
  5
18D
100
AcDbEntity
  8
MAIN0
  6
BYBLOCK
 62
0
100
AcDbBlockReference
  2
_OPEN
 10
163.8007474136685
 20
197.9393816191338
 30
0.0000000000000000
 41
2.000000000000000
 42
2.000000000000000
 43
2.000000000000000
 50
89.99999999982713
  0
LINE
  5
18E
100
AcDbEntity
  8
MAIN0
  6
BYBLOCK
 62
0
100
AcDbLine
 10
150.7417487128601
 20
197.9393816191732
 30
0.0000000000000000
 11
165.8007474136685
 21
197.9393816191277
 31
0.0000000000000000
  0
MTEXT
  5
18F
100
AcDbEntity
  8
MAIN0
  6
BYBLOCK
 62
0
100
AcDbMText
 10
161.7507474613371
 20
192.9393816191347
 30
0.0000000000000000
 40
3.099999904632568
 41
0.0000000000000000
 71
     5
 72
     1
  1
\A1;10
 11
6.123233995736766e-017
 21
1.000000000000000
 31
0.0000000000000000
  7
STANDARD
  0
ENDBLK
  5
190
100
AcDbEntity
  8
MAIN0
  6
CONTINUOUS
 62
3
100
AcDbBlockEnd
  0
BLOCK
  5
192
100
AcDbEntity
  8
MAIN0
  6
CONTINUOUS
 62
3
100
AcDbBlockBegin
  2
*D9
 70
    65
 10
0.0
 20
0.0
 30
0.0
  0
LINE
  5
193
100
AcDbEntity
  8
MAIN0
  6
BYBLOCK
 62
0
100
AcDbLine
 10
150.7417487128601
 20
197.9393816191732
 30
0.0000000000000000
 11
165.8007474136685
 21
197.9393816191277
 31
0.0000000000000000
  0
LINE
  5
194
100
AcDbEntity
  8
MAIN0
  6
BYBLOCK
 62
0
100
AcDbLine
 10
163.8007474136745
 20
199.9393816191337
 30
0.0000000000000000
 11
163.8007474137108
 21
211.9393816191350
 31
0.0000000000000000
  0
INSERT
  5
195
100
AcDbEntity
  8
MAIN0
  6
BYBLOCK
 62
0
100
AcDbBlockReference
  2
_OPEN
 10
163.8007474136685
 20
197.9393816191337
 30
0.0000000000000000
 41
2.000000000000000
 42
2.000000000000000
 43
2.000000000000000
 50
269.9999999998271
  0
INSERT
  5
196
100
AcDbEntity
  8
MAIN0
  6
BYBLOCK
 62
0
100
AcDbBlockReference
  2
_OPEN
 10
163.8007474137168
 20
213.9393816191350
 30
0.0000000000000000
 41
2.000000000000000
 42
2.000000000000000
 43
2.000000000000000
 50
89.99999999982713
  0
LINE
  5
197
100
AcDbEntity
  8
MAIN0
  6
BYBLOCK
 62
0
100
AcDbLine
 10
144.2417487129117
 20
213.9393816191941
 30
0.0000000000000000
 11
165.8007474137168
 21
213.9393816191290
 31
0.0000000000000000
  0
MTEXT
  5
198
100
AcDbEntity
  8
MAIN0
  6
BYBLOCK
 62
0
100
AcDbMText
 10
161.7507474613764
 20
205.9393816191359
 30
0.0000000000000000
 40
3.099999904632568
 41
0.0000000000000000
 71
     5
 72
     1
  1
\A1;16
 11
6.123233995736766e-017
 21
1.000000000000000
 31
0.0000000000000000
  7
STANDARD
  0
ENDBLK
  5
199
100
AcDbEntity
  8
MAIN0
  6
CONTINUOUS
 62
3
100
AcDbBlockEnd
  0
BLOCK
  5
19B
100
AcDbEntity
  8
MAIN0
  6
CONTINUOUS
 62
3
100
AcDbBlockBegin
  2
*D10
 70
    65
 10
0.0
 20
0.0
 30
0.0
  0
LINE
  5
19C
100
AcDbEntity
  8
MAIN0
  6
BYBLOCK
 62
0
100
AcDbLine
 10
99.84174868906139
 20
213.4393816192961
 30
0.0000000000000000
 11
86.80074741368509
 21
213.4393816193354
 31
0.0000000000000000
  0
LINE
  5
19D
100
AcDbEntity
  8
MAIN0
  6
BYBLOCK
 62
0
100
AcDbLine
 10
88.80074741369111
 20
215.4393816193294
 30
0.0000000000000000
 11
88.80074741372735
 21
227.4393816193294
 31
0.0000000000000000
  0
INSERT
  5
19E
100
AcDbEntity
  8
MAIN0
  6
BYBLOCK
 62
0
100
AcDbBlockReference
  2
_OPEN
 10
88.80074741368509
 20
213.4393816193294
 30
0.0000000000000000
 41
2.000000000000000
 42
2.000000000000000
 43
2.000000000000000
 50
269.9999999998270
  0
INSERT
  5
19F
100
AcDbEntity
  8
MAIN0
  6
BYBLOCK
 62
0
100
AcDbBlockReference
  2
_OPEN
 10
88.80074741373340
 20
229.4393816193294
 30
0.0000000000000000
 41
2.000000000000000
 42
2.000000000000000
 43
2.000000000000000
 50
89.99999999982698
  0
LINE
  5
1A0
100
AcDbEntity
  8
MAIN0
  6
BYBLOCK
 62
0
100
AcDbLine
 10
99.84174868910968
 20
229.4393816192961
 30
0.0000000000000000
 11
86.80074741373340
 21
229.4393816193355
 31
0.0000000000000000
  0
MTEXT
  5
1A1
100
AcDbEntity
  8
MAIN0
  6
BYBLOCK
 62
0
100
AcDbMText
 10
86.75074746139296
 20
221.4393816193309
 30
0.0000000000000000
 40
3.099999904632568
 41
0.0000000000000000
 71
     5
 72
     1
  1
\A1;\U+220516
 11
6.123233995736766e-017
 21
1.000000000000000
 31
0.0000000000000000
  7
STANDARD
  0
ENDBLK
  5
1A2
100
AcDbEntity
  8
MAIN0
  6
CONTINUOUS
 62
3
100
AcDbBlockEnd
  0
BLOCK
  5
1A4
100
AcDbEntity
  8
MAIN0
  6
CONTINUOUS
 62
3
100
AcDbBlockBegin
  2
*D11
 70
    65
 10
0.0
 20
0.0
 30
0.0
  0
LINE
  5
1A5
100
AcDbEntity
  8
MAIN0
  6
BYBLOCK
 62
0
100
AcDbLine
 10
95.34174868917607
 20
251.4393816193096
 30
0.0000000000000000
 11
76.80074741381489
 21
251.4393816193656
 31
0.0000000000000000
  0
LINE
  5
1A6
100
AcDbEntity
  8
MAIN0
  6
BYBLOCK
 62
0
100
AcDbLine
 10
78.80074741380886
 20
249.4393816193596
 30
0.0000000000000000
 11
78.80074741363981
 21
193.4393816193596
 31
0.0000000000000000
  0
INSERT
  5
1A7
100
AcDbEntity
  8
MAIN0
  6
BYBLOCK
 62
0
100
AcDbBlockReference
  2
_OPEN
 10
78.80074741381489
 20
251.4393816193596
 30
0.0000000000000000
 41
2.000000000000000
 42
2.000000000000000
 43
2.000000000000000
 50
89.99999999982703
  0
INSERT
  5
1A8
100
AcDbEntity
  8
MAIN0
  6
BYBLOCK
 62
0
100
AcDbBlockReference
  2
_OPEN
 10
78.80074741363379
 20
191.4393816193596
 30
0.0000000000000000
 41
2.000000000000000
 42
2.000000000000000
 43
2.000000000000000
 50
269.9999999998270
  0
LINE
  5
1A9
100
AcDbEntity
  8
MAIN0
  6
BYBLOCK
 62
0
100
AcDbLine
 10
95.34174868899500
 20
191.4393816193096
 30
0.0000000000000000
 11
76.80074741363379
 21
191.4393816193656
 31
0.0000000000000000
  0
MTEXT
  5
1AA
100
AcDbEntity
  8
MAIN0
  6
BYBLOCK
 62
0
100
AcDbMText
 10
76.75074746138671
 20
221.4393816957338
 30
0.0000000000000000
 40
3.099999904632568
 41
0.0000000000000000
 71
     5
 72
     1
  1
\A1;\U+220560H6\H0.903226x;\S＋0.019^ 　0;
 11
6.123233995736766e-017
 21
1.000000000000000
 31
0.0000000000000000
  7
KNJYOKO
  0
ENDBLK
  5
1AB
100
AcDbEntity
  8
MAIN0
  6
CONTINUOUS
 62
3
100
AcDbBlockEnd
  0
BLOCK
  5
1AE
100
AcDbEntity
  8
MAIN0
  6
CONTINUOUS
 62
3
100
AcDbBlockBegin
  2
*D12
 70
    65
 10
0.0
 20
0.0
 30
0.0
  0
LINE
  5
1AF
100
AcDbEntity
  8
MAIN0
  6
BYBLOCK
 62
0
100
AcDbLine
 10
96.34174868921380
 20
263.9393816193066
 30
0.0000000000000000
 11
66.80074741383751
 21
263.9393816193958
 31
0.0000000000000000
  0
LINE
  5
1B0
100
AcDbEntity
  8
MAIN0
  6
BYBLOCK
 62
0
100
AcDbLine
 10
68.80074741383149
 20
261.9393816193897
 30
0.0000000000000000
 11
68.80074741358700
 21
180.9393816193898
 31
0.0000000000000000
  0
INSERT
  5
1B1
100
AcDbEntity
  8
MAIN0
  6
BYBLOCK
 62
0
100
AcDbBlockReference
  2
_OPEN
 10
68.80074741383751
 20
263.9393816193897
 30
0.0000000000000000
 41
2.000000000000000
 42
2.000000000000000
 43
2.000000000000000
 50
89.99999999982708
  0
INSERT
  5
1B2
100
AcDbEntity
  8
MAIN0
  6
BYBLOCK
 62
0
100
AcDbBlockReference
  2
_OPEN
 10
68.80074741358098
 20
178.9393816193898
 30
0.0000000000000000
 41
2.000000000000000
 42
2.000000000000000
 43
2.000000000000000
 50
269.9999999998271
  0
LINE
  5
1B3
100
AcDbEntity
  8
MAIN0
  6
BYBLOCK
 62
0
100
AcDbLine
 10
96.34174868895725
 20
178.9393816193066
 30
0.0000000000000000
 11
66.80074741358098
 21
178.9393816193958
 31
0.0000000000000000
  0
MTEXT
  5
1B4
100
AcDbEntity
  8
MAIN0
  6
BYBLOCK
 62
0
100
AcDbMText
 10
66.75074746139296
 20
221.4393816193913
 30
0.0000000000000000
 40
3.099999904632568
 41
0.0000000000000000
 71
     5
 72
     1
  1
\A1;\U+220585
 11
6.123233995736766e-017
 21
1.000000000000000
 31
0.0000000000000000
  7
STANDARD
  0
ENDBLK
  5
1B5
100
AcDbEntity
  8
MAIN0
  6
CONTINUOUS
 62
3
100
AcDbBlockEnd
  0
BLOCK
  5
1B7
100
AcDbEntity
  8
MAIN0
  6
CONTINUOUS
 62
3
100
AcDbBlockBegin
  2
*D13
 70
    65
 10
0.0
 20
0.0
 30
0.0
  0
LINE
  5
1B8
100
AcDbEntity
  8
MAIN0
  6
BYBLOCK
 62
0
100
AcDbLine
 10
96.14174870113413
 20
263.7393816312281
 30
0.0000000000000000
 11
96.14174870116339
 21
273.4393816191134
 31
0.0000000000000000
  0
LINE
  5
1B9
100
AcDbEntity
  8
MAIN0
  6
BYBLOCK
 62
0
100
AcDbLine
 10
98.14174870115737
 20
271.4393816191074
 30
0.0000000000000000
 11
107.1417487011574
 21
271.4393816190802
 31
0.0000000000000000
  0
INSERT
  5
1BA
100
AcDbEntity
  8
MAIN0
  6
BYBLOCK
 62
0
100
AcDbBlockReference
  2
_OPEN
 10
96.14174870115737
 20
271.4393816191134
 30
0.0000000000000000
 41
2.000000000000000
 42
2.000000000000000
 43
2.000000000000000
 50
179.9999999998270
  0
INSERT
  5
1BB
100
AcDbEntity
  8
MAIN0
  6
BYBLOCK
 62
0
100
AcDbBlockReference
  2
_OPEN
 10
109.1417487011574
 20
271.4393816190742
 30
0.0000000000000000
 41
2.000000000000000
 42
2.000000000000000
 43
2.000000000000000
 50
359.9999999998270
  0
LINE
  5
1BC
100
AcDbEntity
  8
MAIN0
  6
BYBLOCK
 62
0
100
AcDbLine
 10
109.1417487011281
 20
261.7393816311890
 30
0.0000000000000000
 11
109.1417487011634
 21
273.4393816190742
 31
0.0000000000000000
  0
MTEXT
  5
1BD
100
AcDbEntity
  8
MAIN0
  6
BYBLOCK
 62
0
100
AcDbMText
 10
102.6417487011589
 20
273.4893815714101
 30
0.0000000000000000
 40
3.099999904632568
 41
0.0000000000000000
 71
     5
 72
     1
  1
\A1;13
 11
1.000000000000000
 21
0.0000000000000000
 31
0.0000000000000000
  7
STANDARD
  0
ENDBLK
  5
1BE
100
AcDbEntity
  8
MAIN0
  6
CONTINUOUS
 62
3
100
AcDbBlockEnd
  0
BLOCK
  5
1C0
100
AcDbEntity
  8
MAIN0
  6
CONTINUOUS
 62
3
100
AcDbBlockBegin
  2
*D14
 70
    65
 10
0.0
 20
0.0
 30
0.0
  0
LINE
  5
1C1
100
AcDbEntity
  8
MAIN0
  6
BYBLOCK
 62
0
100
AcDbLine
 10
113.4506677013159
 20
131.1807151502987
 30
0.0000000000000000
 11
119.9105878854620
 21
124.7207949661138
 31
0.0000000000000000
  0
LINE
  5
1C2
100
AcDbEntity
  8
MAIN0
  6
BYBLOCK
 62
0
100
AcDbLine
 10
118.4963743230932
 20
126.1350085284911
 30
0.0000000000000000
 11
123.4461217914139
 21
131.0847559967820
 31
0.0000000000000000
  0
INSERT
  5
1C3
100
AcDbEntity
  8
MAIN0
  6
BYBLOCK
 62
0
100
AcDbBlockReference
  2
_OPEN
 10
118.4963743230932
 20
126.1350085284911
 30
0.0000000000000000
 41
2.000000000000000
 42
2.000000000000000
 43
2.000000000000000
 50
44.99999999982712
  0
INSERT
  5
1C4
100
AcDbEntity
  8
MAIN0
  6
BYBLOCK
 62
0
100
AcDbBlockReference
  2
_OPEN
 10
123.4461217914139
 20
131.0847559967820
 30
0.0000000000000000
 41
2.000000000000000
 42
2.000000000000000
 43
2.000000000000000
 50
224.9999999998271
  0
LINE
  5
1C5
100
AcDbEntity
  8
MAIN0
  6
BYBLOCK
 62
0
100
AcDbLine
 10
117.0821607607158
 20
124.7207949661223
 30
0.0000000000000000
 11
116.3750539795271
 21
124.0136881849379
 31
0.0000000000000000
  0
LINE
  5
1C6
100
AcDbEntity
  8
MAIN0
  6
BYBLOCK
 62
0
100
AcDbLine
 10
124.8603353537912
 20
132.4989695591508
 30
0.0000000000000000
 11
133.3439086005789
 21
140.9825428058873
 31
0.0000000000000000
  0
LINE
  5
1C7
100
AcDbEntity
  8
MAIN0
  6
BYBLOCK
 62
0
100
AcDbLine
 10
118.4004151695901
 20
136.1304626186360
 30
0.0000000000000000
 11
124.8603353537827
 21
129.6705424344046
 31
0.0000000000000000
  0
MTEXT
  5
1C8
100
AcDbEntity
  8
MAIN0
  6
BYBLOCK
 62
0
100
AcDbMText
 10
127.3511785578525
 20
137.8889504986182
 30
0.0000000000000000
 40
3.099999904632568
 41
0.0000000000000000
 71
     5
 72
     1
  1
\A1;□7\H0.903226x;\S+0.15^ +0.05;
 11
0.7071067811886802
 21
0.7071067811844148
 31
0.0000000000000000
  7
KNJYOKO
  0
ENDBLK
  5
1C9
100
AcDbEntity
  8
MAIN0
  6
CONTINUOUS
 62
3
100
AcDbBlockEnd
  0
BLOCK
  5
1CB
100
AcDbEntity
  8
MAIN0
  6
CONTINUOUS
 62
3
100
AcDbBlockBegin
  2
*D15
 70
    65
 10
0.0
 20
0.0
 30
0.0
  0
LINE
  5
1CC
100
AcDbEntity
  8
MAIN0
  6
BYBLOCK
 62
0
100
AcDbLine
 10
96.14174870087881
 20
179.1393816073863
 30
0.0000000000000000
 11
96.14174870078918
 21
149.4393816191738
 31
0.0000000000000000
  0
LINE
  5
1CD
100
AcDbEntity
  8
MAIN0
  6
BYBLOCK
 62
0
100
AcDbLine
 10
98.14174870079521
 20
151.4393816191678
 30
0.0000000000000000
 11
139.1417487007952
 21
151.4393816190440
 31
0.0000000000000000
  0
INSERT
  5
1CE
100
AcDbEntity
  8
MAIN0
  6
BYBLOCK
 62
0
100
AcDbBlockReference
  2
_OPEN
 10
96.14174870079521
 20
151.4393816191738
 30
0.0000000000000000
 41
2.000000000000000
 42
2.000000000000000
 43
2.000000000000000
 50
179.9999999998271
  0
INSERT
  5
1CF
100
AcDbEntity
  8
MAIN0
  6
BYBLOCK
 62
0
100
AcDbBlockReference
  2
_OPEN
 10
141.1417487007952
 20
151.4393816190380
 30
0.0000000000000000
 41
2.000000000000000
 42
2.000000000000000
 43
2.000000000000000
 50
359.9999999998271
  0
LINE
  5
1D0
100
AcDbEntity
  8
MAIN0
  6
BYBLOCK
 62
0
100
AcDbLine
 10
141.1417487008788
 20
179.1393816072505
 30
0.0000000000000000
 11
141.1417487007892
 21
149.4393816190380
 31
0.0000000000000000
  0
MTEXT
  5
1D1
100
AcDbEntity
  8
MAIN0
  6
BYBLOCK
 62
0
100
AcDbMText
 10
118.6417487007967
 20
153.4893815714221
 30
0.0000000000000000
 40
3.099999904632568
 41
0.0000000000000000
 71
     5
 72
     1
  1
\A1;45
 11
1.000000000000000
 21
0.0000000000000000
 31
0.0000000000000000
  7
STANDARD
  0
ENDBLK
  5
1D2
100
AcDbEntity
  8
MAIN0
  6
CONTINUOUS
 62
3
100
AcDbBlockEnd
  0
BLOCK
  5
1D4
100
AcDbEntity
  8
MAIN0
  6
CONTINUOUS
 62
3
100
AcDbBlockBegin
  2
*D16
 70
    65
 10
0.0
 20
0.0
 30
0.0
  0
LINE
  5
1D5
100
AcDbEntity
  8
MAIN0
  6
BYBLOCK
 62
0
100
AcDbLine
 10
141.1417487008788
 20
179.1393816072505
 30
0.0000000000000000
 11
141.1417487008193
 21
159.4393816190380
 31
0.0000000000000000
  0
LINE
  5
1D6
100
AcDbEntity
  8
MAIN0
  6
BYBLOCK
 62
0
100
AcDbLine
 10
139.1417487008254
 20
161.4393816190440
 30
0.0000000000000000
 11
115.1417487008254
 21
161.4393816191164
 31
0.0000000000000000
  0
INSERT
  5
1D7
100
AcDbEntity
  8
MAIN0
  6
BYBLOCK
 62
0
100
AcDbBlockReference
  2
_OPEN
 10
141.1417487008254
 20
161.4393816190380
 30
0.0000000000000000
 41
2.000000000000000
 42
2.000000000000000
 43
2.000000000000000
 50
359.9999999998271
  0
INSERT
  5
1D8
100
AcDbEntity
  8
MAIN0
  6
BYBLOCK
 62
0
100
AcDbBlockReference
  2
_OPEN
 10
113.1417487008254
 20
161.4393816191225
 30
0.0000000000000000
 41
2.000000000000000
 42
2.000000000000000
 43
2.000000000000000
 50
179.9999999998271
  0
LINE
  5
1D9
100
AcDbEntity
  8
MAIN0
  6
BYBLOCK
 62
0
100
AcDbLine
 10
113.1417487008491
 20
169.2881084592428
 30
0.0000000000000000
 11
113.1417487008193
 21
159.4393816191225
 31
0.0000000000000000
  0
MTEXT
  5
1DA
100
AcDbEntity
  8
MAIN0
  6
BYBLOCK
 62
0
100
AcDbMText
 10
127.1417487008269
 20
163.4893815713965
 30
0.0000000000000000
 40
3.099999904632568
 41
0.0000000000000000
 71
     5
 72
     1
  1
\A1;28
 11
1.000000000000000
 21
0.0000000000000000
 31
0.0000000000000000
  7
STANDARD
  0
ENDBLK
  5
1DB
100
AcDbEntity
  8
MAIN0
  6
CONTINUOUS
 62
3
100
AcDbBlockEnd
  0
BLOCK
  5
1DD
100
AcDbEntity
  8
MAIN0
  6
CONTINUOUS
 62
3
100
AcDbBlockBegin
  2
*D17
 70
    65
 10
0.0
 20
0.0
 30
0.0
  0
LINE
  5
1DE
100
AcDbEntity
  8
MAIN0
  6
BYBLOCK
 62
0
100
AcDbLine
 10
113.1417487008491
 20
169.2881084592428
 30
0.0000000000000000
 11
113.1417487008193
 21
159.4393816191225
 31
0.0000000000000000
  0
LINE
  5
1DF
100
AcDbEntity
  8
MAIN0
  6
BYBLOCK
 62
0
100
AcDbLine
 10
111.1417487008254
 20
161.4393816191285
 30
0.0000000000000000
 11
98.14174870082537
 21
161.4393816191678
 31
0.0000000000000000
  0
INSERT
  5
1E0
100
AcDbEntity
  8
MAIN0
  6
BYBLOCK
 62
0
100
AcDbBlockReference
  2
_OPEN
 10
113.1417487008254
 20
161.4393816191225
 30
0.0000000000000000
 41
2.000000000000000
 42
2.000000000000000
 43
2.000000000000000
 50
359.9999999998270
  0
INSERT
  5
1E1
100
AcDbEntity
  8
MAIN0
  6
BYBLOCK
 62
0
100
AcDbBlockReference
  2
_OPEN
 10
96.14174870082537
 20
161.4393816191738
 30
0.0000000000000000
 41
2.000000000000000
 42
2.000000000000000
 43
2.000000000000000
 50
179.9999999998270
  0
LINE
  5
1E2
100
AcDbEntity
  8
MAIN0
  6
BYBLOCK
 62
0
100
AcDbLine
 10
96.14174870087879
 20
179.1393816073863
 30
0.0000000000000000
 11
96.14174870081935
 21
159.4393816191738
 31
0.0000000000000000
  0
MTEXT
  5
1E3
100
AcDbEntity
  8
MAIN0
  6
BYBLOCK
 62
0
100
AcDbMText
 10
104.6417487008269
 20
163.4893815714644
 30
0.0000000000000000
 40
3.099999904632568
 41
0.0000000000000000
 71
     5
 72
     1
  1
\A1;17
 11
1.000000000000000
 21
0.0000000000000000
 31
0.0000000000000000
  7
STANDARD
  0
ENDBLK
  5
1E4
100
AcDbEntity
  8
MAIN0
  6
CONTINUOUS
 62
3
100
AcDbBlockEnd
  0
BLOCK
  5
1E6
100
AcDbEntity
  8
MAIN0
  6
CONTINUOUS
 62
3
100
AcDbBlockBegin
  2
*D18
 70
    65
 10
0.0
 20
0.0
 30
0.0
  0
LINE
  5
1E7
100
AcDbEntity
  8
MAIN0
  6
BYBLOCK
 62
0
100
AcDbLine
 10
152.1417487009256
 20
193.4393816189901
 30
0.0000000000000000
 11
154.1417487009239
 21
193.4393816189840
 31
0.0000000000000000
  0
INSERT
  5
1E8
100
AcDbEntity
  8
MAIN0
  6
BYBLOCK
 62
0
100
AcDbBlockReference
  2
_OPEN
 10
150.1417487009256
 20
193.4393816189961
 30
0.0000000000000000
 41
2.000000000000000
 42
2.000000000000000
 43
2.000000000000000
 50
179.9999999998274
  0
INSERT
  5
1E9
100
AcDbEntity
  8
MAIN0
  6
BYBLOCK
 62
0
100
AcDbBlockReference
  2
_OPEN
 10
156.1417487009239
 20
193.4393816189780
 30
0.0000000000000000
 41
2.000000000000000
 42
2.000000000000000
 43
2.000000000000000
 50
359.9999999998274
  0
LINE
  5
1EA
100
AcDbEntity
  8
MAIN0
  6
BYBLOCK
 62
0
100
AcDbLine
 10
156.1417487009091
 20
188.5393816310766
 30
0.0000000000000000
 11
156.1417487009300
 21
195.4393816189780
 31
0.0000000000000000
  0
MTEXT
  5
1EB
100
AcDbEntity
  8
MAIN0
  6
BYBLOCK
 62
0
100
AcDbMText
 10
153.1417487009263
 20
195.4893815713033
 30
0.0000000000000000
 40
3.099999904632568
 41
0.0000000000000000
 71
     5
 72
     1
  1
\A1;6
 11
1.000000000000000
 21
0.0000000000000000
 31
0.0000000000000000
  7
STANDARD
  0
ENDBLK
  5
1EC
100
AcDbEntity
  8
MAIN0
  6
CONTINUOUS
 62
3
100
AcDbBlockEnd
  0
BLOCK
  5
1EE
100
AcDbEntity
  8
MAIN0
  6
CONTINUOUS
 62
3
100
AcDbBlockBegin
  2
*D19
 70
    65
 10
0.0
 20
0.0
 30
0.0
  0
LINE
  5
1EF
100
AcDbEntity
  8
MAIN0
  6
BYBLOCK
 62
0
100
AcDbLine
 10
146.1417487009549
 20
203.0393816190093
 30
0.0000000000000000
 11
148.1417487009546
 21
203.0393816190033
 31
0.0000000000000000
  0
INSERT
  5
1F0
100
AcDbEntity
  8
MAIN0
  6
BYBLOCK
 62
0
100
AcDbBlockReference
  2
_OPEN
 10
144.1417487009549
 20
203.0393816190154
 30
0.0000000000000000
 41
2.000000000000000
 42
2.000000000000000
 43
2.000000000000000
 50
179.9999999998265
  0
INSERT
  5
1F1
100
AcDbEntity
  8
MAIN0
  6
BYBLOCK
 62
0
100
AcDbBlockReference
  2
_OPEN
 10
150.1417487009546
 20
203.0393816189973
 30
0.0000000000000000
 41
2.000000000000000
 42
2.000000000000000
 43
2.000000000000000
 50
359.9999999998266
  0
LINE
  5
1F2
100
AcDbEntity
  8
MAIN0
  6
BYBLOCK
 62
0
100
AcDbLine
 10
150.1417487009410
 20
198.5393816310959
 30
0.0000000000000000
 11
150.1417487009606
 21
205.0393816189973
 31
0.0000000000000000
  0
MTEXT
  5
1F3
100
AcDbEntity
  8
MAIN0
  6
BYBLOCK
 62
0
100
AcDbMText
 10
147.1417487009562
 20
205.0893815713226
 30
0.0000000000000000
 40
3.099999904632568
 41
0.0000000000000000
 71
     5
 72
     1
  1
\A1;6
 11
1.000000000000000
 21
0.0000000000000000
 31
0.0000000000000000
  7
STANDARD
  0
ENDBLK
  5
1F4
100
AcDbEntity
  8
MAIN0
  6
CONTINUOUS
 62
3
100
AcDbBlockEnd
  0
BLOCK
  5
1F6
100
AcDbEntity
  8
MAIN0
  6
CONTINUOUS
 62
3
100
AcDbBlockBegin
  2
*D20
 70
    65
 10
0.0
 20
0.0
 30
0.0
  0
LINE
  5
1F7
100
AcDbEntity
  8
MAIN0
  6
BYBLOCK
 62
0
100
AcDbLine
 10
141.5417487127596
 20
191.4393816191690
 30
0.0000000000000000
 11
150.8007474137696
 21
191.4393816191131
 31
0.0000000000000000
  0
LINE
  5
1F8
100
AcDbEntity
  8
MAIN0
  6
BYBLOCK
 62
0
100
AcDbLine
 10
148.8007474137575
 20
189.4393816191252
 30
0.0000000000000000
 11
148.8007474137153
 21
182.4393816191252
 31
0.0000000000000000
  0
INSERT
  5
1F9
100
AcDbEntity
  8
MAIN0
  6
BYBLOCK
 62
0
100
AcDbBlockReference
  2
_OPEN
 10
148.8007474137696
 20
191.4393816191252
 30
0.0000000000000000
 41
2.000000000000000
 42
2.000000000000000
 43
2.000000000000000
 50
89.99999999965405
  0
INSERT
  5
1FA
100
AcDbEntity
  8
MAIN0
  6
BYBLOCK
 62
0
100
AcDbBlockReference
  2
_OPEN
 10
148.8007474137032
 20
180.4393816191252
 30
0.0000000000000000
 41
2.000000000000000
 42
2.000000000000000
 43
2.000000000000000
 50
269.9999999996541
  0
LINE
  5
1FB
100
AcDbEntity
  8
MAIN0
  6
BYBLOCK
 62
0
100
AcDbLine
 10
141.5417487126981
 20
180.4393816191690
 30
0.0000000000000000
 11
150.8007474137032
 21
180.4393816191132
 31
0.0000000000000000
  0
MTEXT
  5
1FC
100
AcDbEntity
  8
MAIN0
  6
BYBLOCK
 62
0
100
AcDbMText
 10
146.7507474614201
 20
185.9393816191283
 30
0.0000000000000000
 40
3.099999904632568
 41
0.0000000000000000
 71
     5
 72
     1
  1
\A1;\U+220511
 11
6.123233995736766e-017
 21
1.000000000000000
 31
0.0000000000000000
  7
STANDARD
  0
ENDBLK
  5
1FD
100
AcDbEntity
  8
MAIN0
  6
CONTINUOUS
 62
3
100
AcDbBlockEnd
  0
BLOCK
  5
1FF
100
AcDbEntity
  8
MAIN0
  6
CONTINUOUS
 62
3
100
AcDbBlockBegin
  2
*D21
 70
    65
 10
0.0
 20
0.0
 30
0.0
  0
LINE
  5
200
100
AcDbEntity
  8
MAIN0
  6
BYBLOCK
 62
0
100
AcDbLine
 10
95.74174868890547
 20
189.2393816194455
 30
0.0000000000000000
 11
86.80074741369597
 21
189.2393816194994
 31
0.0000000000000000
  0
LINE
  5
201
100
AcDbEntity
  8
MAIN0
  6
BYBLOCK
 62
0
100
AcDbLine
 10
88.80074741369597
 20
189.2393816194874
 30
0.0000000000000000
 11
88.80074741365615
 21
182.6393816194874
 31
0.0000000000000000
  0
INSERT
  5
202
100
AcDbEntity
  8
MAIN0
  6
BYBLOCK
 62
0
100
AcDbBlockReference
  2
_OPEN
 10
88.80074741369597
 20
189.2393816194874
 30
0.0000000000000000
 41
2.000000000000000
 42
2.000000000000000
 43
2.000000000000000
 50
269.9999999996543
  0
INSERT
  5
203
100
AcDbEntity
  8
MAIN0
  6
BYBLOCK
 62
0
100
AcDbBlockReference
  2
_OPEN
 10
88.80074741365615
 20
182.6393816194874
 30
0.0000000000000000
 41
2.000000000000000
 42
2.000000000000000
 43
2.000000000000000
 50
89.99999999965434
  0
LINE
  5
204
100
AcDbEntity
  8
MAIN0
  6
BYBLOCK
 62
0
100
AcDbLine
 10
88.80074741370802
 20
191.2393816194874
 30
0.0000000000000000
 11
88.80074741371408
 21
192.2393816194874
 31
0.0000000000000000
  0
LINE
  5
205
100
AcDbEntity
  8
MAIN0
  6
BYBLOCK
 62
0
100
AcDbLine
 10
88.80074741364408
 20
180.6393816194874
 30
0.0000000000000000
 11
88.80074741363805
 21
179.6393816194874
 31
0.0000000000000000
  0
LINE
  5
206
100
AcDbEntity
  8
MAIN0
  6
BYBLOCK
 62
0
100
AcDbLine
 10
95.74174868886854
 20
182.6393816194455
 30
0.0000000000000000
 11
86.80074741365615
 21
182.6393816194994
 31
0.0000000000000000
  0
MTEXT
  5
207
100
AcDbEntity
  8
MAIN0
  6
BYBLOCK
 62
0
100
AcDbMText
 10
86.75074746135977
 20
185.9393816194904
 30
0.0000000000000000
 40
3.099999904632568
 41
0.0000000000000000
 71
     5
 72
     1
  1
\A1;\U+22056.6
 11
6.123233995736766e-017
 21
1.000000000000000
 31
0.0000000000000000
  7
STANDARD
  0
ENDBLK
  5
208
100
AcDbEntity
  8
MAIN0
  6
CONTINUOUS
 62
3
100
AcDbBlockEnd
  0
BLOCK
  5
28D
100
AcDbEntity
  8
MAIN0
  6
CONTINUOUS
 62
3
100
AcDbBlockBegin
  2
*D22
 70
    65
 10
0.0
 20
0.0
 30
0.0
  0
LINE
  5
28E
100
AcDbEntity
  8
MAIN0
  6
BYBLOCK
 62
0
100
AcDbLine
 10
206.8791235889030
 20
211.2776921734272
 30
0.0000000000000000
 11
270.7223712384551
 21
231.6010710646931
 31
0.0000000000000000
  0
INSERT
  5
28F
100
AcDbEntity
  8
MAIN0
  6
BYBLOCK
 62
0
100
AcDbBlockReference
  2
_OPEN
 10
204.9733550023492
 20
210.6710241468222
 30
0.0000000000000000
 41
2.000000000000000
 42
2.000000000000000
 43
2.000000000000000
 50
197.6579621993699
  0
INSERT
  5
290
100
AcDbEntity
  8
MAIN0
  6
BYBLOCK
 62
0
100
AcDbBlockReference
  2
_OPEN
 10
272.6281398250090
 20
232.2077390912980
 30
0.0000000000000000
 41
2.000000000000000
 42
2.000000000000000
 43
2.000000000000000
 50
17.65796219936988
  0
MTEXT
  5
291
100
AcDbEntity
  8
MAIN0
  6
BYBLOCK
 62
0
100
AcDbMText
 10
262.3696601993142
 20
231.0934948431573
 30
0.0000000000000000
 40
3.099999904632568
 41
0.0000000000000000
 71
     5
 72
     1
  1
\A1;\U+220571\H0.903226x;\U+00B10.2
 11
0.9528842932768981
 21
0.3033340133024759
 31
0.0000000000000000
  7
STANDARD
  0
ENDBLK
  5
292
100
AcDbEntity
  8
MAIN0
  6
CONTINUOUS
 62
3
100
AcDbBlockEnd
  0
BLOCK
  5
294
100
AcDbEntity
  8
MAIN0
  6
CONTINUOUS
 62
3
100
AcDbBlockBegin
  2
*D23
 70
    65
 10
0.0
 20
0.0
 30
0.0
  0
LINE
  5
295
100
AcDbEntity
  8
MAIN0
  6
BYBLOCK
 62
0
100
AcDbLine
 10
272.8313377858880
 20
215.7676165570253
 30
0.0000000000000000
 11
204.7701570414701
 21
227.1111466810950
 31
0.0000000000000000
  0
INSERT
  5
296
100
AcDbEntity
  8
MAIN0
  6
BYBLOCK
 62
0
100
AcDbBlockReference
  2
_OPEN
 10
274.8041256335523
 20
215.4388185824145
 30
0.0000000000000000
 41
2.000000000000000
 42
2.000000000000000
 43
2.000000000000000
 50
350.5376777919744
  0
INSERT
  5
297
100
AcDbEntity
  8
MAIN0
  6
BYBLOCK
 62
0
100
AcDbBlockReference
  2
_OPEN
 10
202.7973691938058
 20
227.4399446557057
 30
0.0000000000000000
 41
2.000000000000000
 42
2.000000000000000
 43
2.000000000000000
 50
170.5376777919744
  0
MTEXT
  5
298
100
AcDbEntity
  8
MAIN0
  6
BYBLOCK
 62
0
100
AcDbMText
 10
268.3854804413228
 20
218.5868699306299
 30
0.0000000000000000
 40
3.099999904632568
 41
0.0000000000000000
 71
     5
 72
     1
  1
\A1;\U+220573
 11
0.9863939238321435
 21
-0.1643989873053585
 31
0.0000000000000000
  7
STANDARD
  0
ENDBLK
  5
299
100
AcDbEntity
  8
MAIN0
  6
CONTINUOUS
 62
3
100
AcDbBlockEnd
  0
BLOCK
  5
2A9
100
AcDbEntity
  8
MAIN0
  6
CONTINUOUS
 62
3
100
AcDbBlockBegin
  2
*D24
 70
    65
 10
0.0
 20
0.0
 30
0.0
  0
LINE
  5
2AA
100
AcDbEntity
  8
MAIN0
  6
BYBLOCK
 62
0
100
AcDbLine
 10
356.3007474136791
 20
283.2393816309968
 30
0.0000000000000000
 11
356.3007474136791
 21
290.9393816190601
 31
0.0000000000000000
  0
LINE
  5
2AB
100
AcDbEntity
  8
MAIN0
  6
BYBLOCK
 62
0
100
AcDbLine
 10
354.3007474136791
 20
288.9393816190601
 30
0.0000000000000000
 11
343.3007474136791
 21
288.9393816190601
 31
0.0000000000000000
  0
INSERT
  5
2AC
100
AcDbEntity
  8
MAIN0
  6
BYBLOCK
 62
0
100
AcDbBlockReference
  2
_OPEN
 10
356.3007474136791
 20
288.9393816190601
 30
0.0000000000000000
 41
2.000000000000000
 42
2.000000000000000
 43
2.000000000000000
 50
360.0000000000000
  0
INSERT
  5
2AD
100
AcDbEntity
  8
MAIN0
  6
BYBLOCK
 62
0
100
AcDbBlockReference
  2
_OPEN
 10
341.3007474136791
 20
288.9393816190601
 30
0.0000000000000000
 41
2.000000000000000
 42
2.000000000000000
 43
2.000000000000000
 50
180.0000000000000
  0
LINE
  5
2AE
100
AcDbEntity
  8
MAIN0
  6
BYBLOCK
 62
0
100
AcDbLine
 10
341.3007474136791
 20
283.2393816309880
 30
0.0000000000000000
 11
341.3007474136791
 21
290.9393816190601
 31
0.0000000000000000
  0
MTEXT
  5
2AF
100
AcDbEntity
  8
MAIN0
  6
BYBLOCK
 62
0
100
AcDbMText
 10
348.8007474136791
 20
290.9893815713764
 30
0.0000000000000000
 40
3.099999904632568
 41
0.0000000000000000
 71
     5
 72
     1
  1
\A1;\U+220515
 11
1.000000000000000
 21
0.0000000000000000
 31
0.0000000000000000
  7
STANDARD
  0
ENDBLK
  5
2B0
100
AcDbEntity
  8
MAIN0
  6
CONTINUOUS
 62
3
100
AcDbBlockEnd
  0
BLOCK
  5
2B5
100
AcDbEntity
  8
MAIN0
  6
CONTINUOUS
 62
3
100
AcDbBlockBegin
  2
*D25
 70
    65
 10
0.0
 20
0.0
 30
0.0
  0
LINE
  5
2B6
100
AcDbEntity
  8
MAIN0
  6
BYBLOCK
 62
0
100
AcDbLine
 10
341.5007474017581
 20
283.4393816190676
 30
0.0000000000000000
 11
331.8007474136791
 21
283.4393816190676
 31
0.0000000000000000
  0
LINE
  5
2B7
100
AcDbEntity
  8
MAIN0
  6
BYBLOCK
 62
0
100
AcDbLine
 10
333.8007474136791
 20
281.4393816190676
 30
0.0000000000000000
 11
333.8007474136791
 21
273.4393816190714
 31
0.0000000000000000
  0
INSERT
  5
2B8
100
AcDbEntity
  8
MAIN0
  6
BYBLOCK
 62
0
100
AcDbBlockReference
  2
_OPEN
 10
333.8007474136791
 20
283.4393816190676
 30
0.0000000000000000
 41
2.000000000000000
 42
2.000000000000000
 43
2.000000000000000
 50
90.00000000000000
  0
INSERT
  5
2B9
100
AcDbEntity
  8
MAIN0
  6
BYBLOCK
 62
0
100
AcDbBlockReference
  2
_OPEN
 10
333.8007474136791
 20
271.4393816190714
 30
0.0000000000000000
 41
2.000000000000000
 42
2.000000000000000
 43
2.000000000000000
 50
270.0000000000000
  0
MTEXT
  5
2BA
100
AcDbEntity
  8
MAIN0
  6
BYBLOCK
 62
0
100
AcDbMText
 10
331.7507474613628
 20
278.9393816190651
 30
0.0000000000000000
 40
3.099999904632568
 41
0.0000000000000000
 71
     5
 72
     1
  1
\A1;12
 11
6.123233995736766e-017
 21
1.000000000000000
 31
0.0000000000000000
  7
STANDARD
  0
ENDBLK
  5
2BB
100
AcDbEntity
  8
MAIN0
  6
CONTINUOUS
 62
3
100
AcDbBlockEnd
  0
BLOCK
  5
2BD
100
AcDbEntity
  8
MAIN0
  6
CONTINUOUS
 62
3
100
AcDbBlockBegin
  2
*D26
 70
    65
 10
0.0
 20
0.0
 30
0.0
  0
LINE
  5
2BE
100
AcDbEntity
  8
MAIN0
  6
BYBLOCK
 62
0
100
AcDbLine
 10
353.8007474256000
 20
218.4393816190586
 30
0.0000000000000000
 11
370.8007474136791
 21
218.4393816190622
 31
0.0000000000000000
  0
LINE
  5
2BF
100
AcDbEntity
  8
MAIN0
  6
BYBLOCK
 62
0
100
AcDbLine
 10
368.8007474136791
 20
220.4393816190618
 30
0.0000000000000000
 11
368.8007474136791
 21
281.4393816190676
 31
0.0000000000000000
  0
INSERT
  5
2C0
100
AcDbEntity
  8
MAIN0
  6
BYBLOCK
 62
0
100
AcDbBlockReference
  2
_OPEN
 10
368.8007474136791
 20
218.4393816190618
 30
0.0000000000000000
 41
2.000000000000000
 42
2.000000000000000
 43
2.000000000000000
 50
270.0000000000000
  0
INSERT
  5
2C1
100
AcDbEntity
  8
MAIN0
  6
BYBLOCK
 62
0
100
AcDbBlockReference
  2
_OPEN
 10
368.8007474136791
 20
283.4393816190676
 30
0.0000000000000000
 41
2.000000000000000
 42
2.000000000000000
 43
2.000000000000000
 50
90.00000000000000
  0
LINE
  5
2C2
100
AcDbEntity
  8
MAIN0
  6
BYBLOCK
 62
0
100
AcDbLine
 10
356.1007474255999
 20
283.4393816190748
 30
0.0000000000000000
 11
370.8007474136790
 21
283.4393816190665
 31
0.0000000000000000
  0
MTEXT
  5
2C3
100
AcDbEntity
  8
MAIN0
  6
BYBLOCK
 62
0
100
AcDbMText
 10
366.7507474613628
 20
250.9393816190647
 30
0.0000000000000000
 40
3.099999904632568
 41
0.0000000000000000
 71
     5
 72
     1
  1
\A1;65
 11
6.123233995736766e-017
 21
1.000000000000000
 31
0.0000000000000000
  7
STANDARD
  0
ENDBLK
  5
2C4
100
AcDbEntity
  8
MAIN0
  6
CONTINUOUS
 62
3
100
AcDbBlockEnd
  0
BLOCK
  5
2C6
100
AcDbEntity
  8
MAIN0
  6
CONTINUOUS
 62
3
100
AcDbBlockBegin
  2
*D27
 70
    65
 10
0.0
 20
0.0
 30
0.0
  0
LINE
  5
2C7
100
AcDbEntity
  8
MAIN0
  6
BYBLOCK
 62
0
100
AcDbLine
 10
260.9507474196820
 20
259.8043070170101
 30
0.0000000000000000
 11
264.8007474137290
 21
266.4727026158221
 31
0.0000000000000000
  0
LINE
  5
2C8
100
AcDbEntity
  8
MAIN0
  6
BYBLOCK
 62
0
100
AcDbLine
 10
238.8007474137326
 20
269.7393816309810
 30
0.0000000000000000
 11
238.8007474137368
 21
273.4393816190601
 31
0.0000000000000000
  0
ARC
  5
2C9
100
AcDbEntity
  8
MAIN0
  6
BYBLOCK
 62
0
100
AcDbCircle
 10
238.8007474136791
 20
221.4393816190602
 30
0.0000000000000000
 40
49.99999999999999
100
AcDbArc
 50
62.29183118045980
 51
87.70816881941317
  0
INSERT
  5
2CA
100
AcDbEntity
  8
MAIN0
  6
BYBLOCK
 62
0
100
AcDbBlockReference
  2
_OPEN
 10
263.8007474137270
 20
264.7406518082544
 30
0.0000000000000000
 41
2.000000000000000
 42
2.000000000000000
 43
2.000000000000000
 50
329.9999999999365
  0
INSERT
  5
2CB
100
AcDbEntity
  8
MAIN0
  6
BYBLOCK
 62
0
100
AcDbBlockReference
  2
_OPEN
 10
238.8007474137345
 20
271.4393816190602
 30
0.0000000000000000
 41
2.000000000000000
 42
2.000000000000000
 43
2.000000000000000
 50
179.9999999999365
  0
MTEXT
  5
2CC
100
AcDbEntity
  8
MAIN0
  6
BYBLOCK
 62
0
100
AcDbMText
 10
252.2722786989796
 20
271.7158208313322
 30
0.0000000000000000
 40
3.099999904632568
 41
0.0000000000000000
 71
     5
 72
     1
  1
\A1;30\U+00B0
 11
0.9659258262887814
 21
-0.2588190451035914
 31
0.0000000000000000
  7
STANDARD
  0
ENDBLK
  5
2CD
100
AcDbEntity
  8
MAIN0
  6
CONTINUOUS
 62
3
100
AcDbBlockEnd
  0
BLOCK
  5
2CF
100
AcDbEntity
  8
MAIN0
  6
CONTINUOUS
 62
3
100
AcDbBlockBegin
  2
*D28
 70
    65
 10
0.0
 20
0.0
 30
0.0
  0
LINE
  5
2D0
100
AcDbEntity
  8
MAIN0
  6
BYBLOCK
 62
0
100
AcDbLine
 10
141.1417487009106
 20
179.1393816072505
 30
0.0000000000000000
 11
141.1417487012666
 21
169.4393816190601
 31
0.0000000000000000
  0
LINE
  5
2D1
100
AcDbEntity
  8
MAIN0
  6
BYBLOCK
 62
0
100
AcDbLine
 10
139.1417487011932
 20
171.4393816190601
 30
0.0000000000000000
 11
136.1417487008387
 21
171.4393816190601
 31
0.0000000000000000
  0
INSERT
  5
2D2
100
AcDbEntity
  8
MAIN0
  6
BYBLOCK
 62
0
100
AcDbBlockReference
  2
_OPEN
 10
141.1417487011932
 20
171.4393816190601
 30
0.0000000000000000
 41
2.000000000000000
 42
2.000000000000000
 43
2.000000000000000
 50
360.0000000000000
  0
INSERT
  5
2D3
100
AcDbEntity
  8
MAIN0
  6
BYBLOCK
 62
0
100
AcDbBlockReference
  2
_OPEN
 10
134.1417487008387
 20
171.4393816190601
 30
0.0000000000000000
 41
2.000000000000000
 42
2.000000000000000
 43
2.000000000000000
 50
180.0000000000000
  0
LINE
  5
2D4
100
AcDbEntity
  8
MAIN0
  6
BYBLOCK
 62
0
100
AcDbLine
 10
134.1417487007827
 20
179.6393816072928
 30
0.0000000000000000
 11
134.1417487008524
 21
169.4393816190601
 31
0.0000000000000000
  0
MTEXT
  5
2D5
100
AcDbEntity
  8
MAIN0
  6
BYBLOCK
 62
0
100
AcDbMText
 10
137.6417487010160
 20
173.4893815713764
 30
0.0000000000000000
 40
3.099999904632568
 41
0.0000000000000000
 71
     5
 72
     1
  1
\A1;7
 11
1.000000000000000
 21
0.0000000000000000
 31
0.0000000000000000
  7
STANDARD
  0
ENDBLK
  5
2D6
100
AcDbEntity
  8
MAIN0
  6
CONTINUOUS
 62
3
100
AcDbBlockEnd
  0
BLOCK
  5
2DD
100
AcDbEntity
  8
MAIN0
  6
CONTINUOUS
 62
3
100
AcDbBlockBegin
  2
*D29
 70
    65
 10
0.0
 20
0.0
 30
0.0
  0
LINE
  5
2DE
100
AcDbEntity
  8
MAIN0
  6
BYBLOCK
 62
0
100
AcDbLine
 10
102.1417487008828
 20
179.6493816073814
 30
0.0000000000000000
 11
102.1417487008828
 21
169.4393816190742
 31
0.0000000000000000
  0
LINE
  5
2DF
100
AcDbEntity
  8
MAIN0
  6
BYBLOCK
 62
0
100
AcDbLine
 10
104.1417487008828
 20
171.4393816190742
 30
0.0000000000000000
 11
122.1417487008827
 21
171.4393816190742
 31
0.0000000000000000
  0
INSERT
  5
2E0
100
AcDbEntity
  8
MAIN0
  6
BYBLOCK
 62
0
100
AcDbBlockReference
  2
_OPEN
 10
102.1417487008828
 20
171.4393816190742
 30
0.0000000000000000
 41
2.000000000000000
 42
2.000000000000000
 43
2.000000000000000
 50
180.0000000000000
  0
INSERT
  5
2E1
100
AcDbEntity
  8
MAIN0
  6
BYBLOCK
 62
0
100
AcDbBlockReference
  2
_OPEN
 10
124.1417487008827
 20
171.4393816190742
 30
0.0000000000000000
 41
2.000000000000000
 42
2.000000000000000
 43
2.000000000000000
 50
0.0000000000000000
  0
LINE
  5
2E2
100
AcDbEntity
  8
MAIN0
  6
BYBLOCK
 62
0
100
AcDbLine
 10
124.1417487008827
 20
179.6493816073556
 30
0.0000000000000000
 11
124.1417487008827
 21
169.4393816190742
 31
0.0000000000000000
  0
MTEXT
  5
2E3
100
AcDbEntity
  8
MAIN0
  6
BYBLOCK
 62
0
100
AcDbMText
 10
113.1417487008827
 20
173.4893815713905
 30
0.0000000000000000
 40
3.099999904632568
 41
0.0000000000000000
 71
     5
 72
     1
  1
\A1;\U+220522
 11
1.000000000000000
 21
0.0000000000000000
 31
0.0000000000000000
  7
STANDARD
  0
ENDBLK
  5
2E4
100
AcDbEntity
  8
MAIN0
  6
CONTINUOUS
 62
3
100
AcDbBlockEnd
  0
BLOCK
  5
311
100
AcDbEntity
  8
MAIN0
  6
CONTINUOUS
 62
1
100
AcDbBlockBegin
  2
*D30
 70
    65
 10
0.0
 20
0.0
 30
0.0
  0
LINE
  5
312
100
AcDbEntity
  8
MAIN0
  6
BYBLOCK
 62
0
100
AcDbLine
 10
388.8007474136807
 20
272.2393816309654
 30
0.0000000000000000
 11
388.8007474136807
 21
298.4393816190601
 31
0.0000000000000000
  0
LINE
  5
313
100
AcDbEntity
  8
MAIN0
  6
BYBLOCK
 62
0
100
AcDbLine
 10
386.8007474136807
 20
296.4393816190601
 30
0.0000000000000000
 11
310.8007474136775
 21
296.4393816190601
 31
0.0000000000000000
  0
INSERT
  5
314
100
AcDbEntity
  8
MAIN0
  6
BYBLOCK
 62
0
100
AcDbBlockReference
  2
_OPEN
 10
388.8007474136807
 20
296.4393816190601
 30
0.0000000000000000
 41
2.000000000000000
 42
2.000000000000000
 43
2.000000000000000
 50
360.0000000000000
  0
INSERT
  5
315
100
AcDbEntity
  8
MAIN0
  6
BYBLOCK
 62
0
100
AcDbBlockReference
  2
_OPEN
 10
308.8007474136775
 20
296.4393816190601
 30
0.0000000000000000
 41
2.000000000000000
 42
2.000000000000000
 43
2.000000000000000
 50
180.0000000000000
  0
LINE
  5
316
100
AcDbEntity
  8
MAIN0
  6
BYBLOCK
 62
0
100
AcDbLine
 10
308.8007474136775
 20
272.2393816309967
 30
0.0000000000000000
 11
308.8007474136775
 21
298.4393816190601
 31
0.0000000000000000
  0
MTEXT
  5
317
100
AcDbEntity
  8
MAIN0
  6
BYBLOCK
 62
0
100
AcDbMText
 10
348.8007474136791
 20
298.4893815713764
 30
0.0000000000000000
 40
3.099999904632568
 41
0.0000000000000000
 71
     5
 72
     1
  1
\A1;110
 11
1.000000000000000
 21
0.0000000000000000
 31
0.0000000000000000
  7
STANDARD
  0
ENDBLK
  5
318
100
AcDbEntity
  8
MAIN0
  6
CONTINUOUS
 62
1
100
AcDbBlockEnd
  0
BLOCK
  5
322
100
AcDbEntity
  8
MAIN0
  6
CONTINUOUS
 62
3
100
AcDbBlockBegin
  2
*D31
 70
    65
 10
0.0
 20
0.0
 30
0.0
  0
LINE
  5
323
100
AcDbEntity
  8
MAIN0
  6
BYBLOCK
 62
0
100
AcDbLine
 10
353.8007474256000
 20
218.4393816190585
 30
0.0000000000000000
 11
363.3007474136791
 21
218.4393816190585
 31
0.0000000000000000
  0
LINE
  5
324
100
AcDbEntity
  8
MAIN0
  6
BYBLOCK
 62
0
100
AcDbLine
 10
361.3007474136791
 20
220.4393816190585
 30
0.0000000000000000
 11
361.3007474136791
 21
226.4393816190583
 31
0.0000000000000000
  0
INSERT
  5
325
100
AcDbEntity
  8
MAIN0
  6
BYBLOCK
 62
0
100
AcDbBlockReference
  2
_OPEN
 10
361.3007474136791
 20
218.4393816190585
 30
0.0000000000000000
 41
2.000000000000000
 42
2.000000000000000
 43
2.000000000000000
 50
270.0000000000000
  0
INSERT
  5
326
100
AcDbEntity
  8
MAIN0
  6
BYBLOCK
 62
0
100
AcDbBlockReference
  2
_OPEN
 10
361.3007474136791
 20
228.4393816190583
 30
0.0000000000000000
 41
2.000000000000000
 42
2.000000000000000
 43
2.000000000000000
 50
90.00000000000000
  0
LINE
  5
327
100
AcDbEntity
  8
MAIN0
  6
BYBLOCK
 62
0
100
AcDbLine
 10
354.3007474256000
 20
228.4393816190583
 30
0.0000000000000000
 11
363.3007474136791
 21
228.4393816190583
 31
0.0000000000000000
  0
MTEXT
  5
328
100
AcDbEntity
  8
MAIN0
  6
BYBLOCK
 62
0
100
AcDbMText
 10
359.2507474613628
 20
223.4393816190584
 30
0.0000000000000000
 40
3.099999904632568
 41
0.0000000000000000
 71
     5
 72
     1
  1
\A1;10
 11
6.123233995736766e-017
 21
1.000000000000000
 31
0.0000000000000000
  7
STANDARD
  0
ENDBLK
  5
329
100
AcDbEntity
  8
MAIN0
  6
CONTINUOUS
 62
3
100
AcDbBlockEnd
  0
BLOCK
  5
32B
100
AcDbEntity
  8
MAIN0
  6
CONTINUOUS
 62
3
100
AcDbBlockBegin
  2
*D32
 70
    65
 10
0.0
 20
0.0
 30
0.0
  0
LINE
  5
32C
100
AcDbEntity
  8
MAIN0
  6
BYBLOCK
 62
0
100
AcDbLine
 10
318.8007474136791
 20
273.4393816190703
 30
0.0000000000000000
 11
318.8007474136791
 21
269.4393816190703
 31
0.0000000000000000
  0
INSERT
  5
32D
100
AcDbEntity
  8
MAIN0
  6
BYBLOCK
 62
0
100
AcDbBlockReference
  2
_OPEN
 10
318.8007474136791
 20
275.4393816190703
 30
0.0000000000000000
 41
2.000000000000000
 42
2.000000000000000
 43
2.000000000000000
 50
90.00000000000000
  0
INSERT
  5
32E
100
AcDbEntity
  8
MAIN0
  6
BYBLOCK
 62
0
100
AcDbBlockReference
  2
_OPEN
 10
318.8007474136791
 20
267.4393816190703
 30
0.0000000000000000
 41
2.000000000000000
 42
2.000000000000000
 43
2.000000000000000
 50
270.0000000000000
  0
MTEXT
  5
32F
100
AcDbEntity
  8
MAIN0
  6
BYBLOCK
 62
0
100
AcDbMText
 10
316.7507474613628
 20
271.4393816190703
 30
0.0000000000000000
 40
3.099999904632568
 41
0.0000000000000000
 71
     5
 72
     1
  1
\A1;\U+22058
 11
6.123233995736766e-017
 21
1.000000000000000
 31
0.0000000000000000
  7
STANDARD
  0
ENDBLK
  5
330
100
AcDbEntity
  8
MAIN0
  6
CONTINUOUS
 62
3
100
AcDbBlockEnd
  0
BLOCK
  5
336
100
AcDbEntity
  8
MAIN0
  6
CONTINUOUS
 62
3
100
AcDbBlockBegin
  2
*D33
 70
    65
 10
0.0
 20
0.0
 30
0.0
  0
LINE
  5
337
100
AcDbEntity
  8
MAIN0
  6
BYBLOCK
 62
0
100
AcDbLine
 10
349.1096664139961
 20
194.4409956087868
 30
0.0000000000000000
 11
355.3117241237528
 21
188.2389378990432
 31
0.0000000000000000
  0
LINE
  5
338
100
AcDbEntity
  8
MAIN0
  6
BYBLOCK
 62
0
100
AcDbLine
 10
355.3117241237497
 20
191.0673650237893
 30
0.0000000000000000
 11
357.4330444673074
 21
193.1886853673514
 31
0.0000000000000000
  0
INSERT
  5
339
100
AcDbEntity
  8
MAIN0
  6
BYBLOCK
 62
0
100
AcDbBlockReference
  2
_OPEN
 10
353.8975105613782
 20
189.6531514614147
 30
0.0000000000000000
 41
2.000000000000000
 42
2.000000000000000
 43
2.000000000000000
 50
225.0000000000591
  0
INSERT
  5
33A
100
AcDbEntity
  8
MAIN0
  6
BYBLOCK
 62
0
100
AcDbBlockReference
  2
_OPEN
 10
358.8472580296790
 20
194.6028989297259
 30
0.0000000000000000
 41
2.000000000000000
 42
2.000000000000000
 43
2.000000000000000
 50
45.00000000005911
  0
LINE
  5
33B
100
AcDbEntity
  8
MAIN0
  6
BYBLOCK
 62
0
100
AcDbLine
 10
358.8472580296790
 20
194.6028989297259
 30
0.0000000000000000
 11
367.3990093672826
 21
203.1546502673474
 31
0.0000000000000000
  0
LINE
  5
33C
100
AcDbEntity
  8
MAIN0
  6
BYBLOCK
 62
0
100
AcDbLine
 10
354.0594138825035
 20
199.3907430768914
 30
0.0000000000000000
 11
360.2614715920535
 21
193.1886853673543
 31
0.0000000000000000
  0
MTEXT
  5
33D
100
AcDbEntity
  8
MAIN0
  6
BYBLOCK
 62
0
100
AcDbMText
 10
362.0426751854536
 20
200.6974538209401
 30
0.0000000000000000
 40
3.099999904632568
 41
0.0000000000000000
 71
     5
 72
     1
  1
\A1;□7\H0.903226x;\S 0^ -0.1;
 11
0.7071067811858092
 21
0.7071067811872859
 31
0.0000000000000000
  7
KNJYOKO
  0
ENDBLK
  5
33E
100
AcDbEntity
  8
MAIN0
  6
CONTINUOUS
 62
3
100
AcDbBlockEnd
  0
ENDSEC
  0
SECTION
  2
ENTITIES
  0
LINE
  5
46
100
AcDbEntity
  8
MAIN0
  6
CONTINUOUS
 62
3
100
AcDbLine
 10
96.14174870088121
 20
179.9393816193073
 30
0.0000000000000000
 11
96.14174870113172
 21
262.9393816193072
 31
0.0000000000000000
  0
LINE
  5
47
100
AcDbEntity
  8
MAIN0
  6
CONTINUOUS
 62
3
100
AcDbLine
 10
107.1417487009612
 20
206.4393816192741
 30
0.0000000000000000
 11
107.1417487010517
 21
236.4393816192741
 31
0.0000000000000000
  0
LINE
  5
48
100
AcDbEntity
  8
MAIN0
  6
CONTINUOUS
 62
3
100
AcDbLine
 10
107.1417487010502
 20
235.9393816192741
 30
0.0000000000000000
 11
110.6702070470758
 21
235.9393816192634
 31
0.0000000000000000
  0
LINE
  5
49
100
AcDbEntity
  8
MAIN0
  6
CONTINUOUS
 62
3
100
AcDbLine
 10
101.1417487010985
 20
251.9393816192922
 30
0.0000000000000000
 11
114.5918144232662
 21
251.9393816192516
 31
0.0000000000000000
  0
LINE
  5
4A
100
AcDbEntity
  8
MAIN0
  6
CONTINUOUS
 62
3
100
AcDbLine
 10
97.14174870113473
 20
263.9393816193042
 30
0.0000000000000000
 11
140.1417487011347
 21
263.9393816191745
 31
0.0000000000000000
  0
LINE
  5
4B
100
AcDbEntity
  8
MAIN0
  6
CONTINUOUS
 62
3
100
AcDbLine
 10
96.14174870113168
 20
262.9393816193073
 30
0.0000000000000000
 11
97.14174870113466
 21
263.9393816193042
 31
0.0000000000000000
  0
ARC
  5
4C
100
AcDbEntity
  8
MAIN0
  6
CONTINUOUS
 62
3
100
AcDbCircle
 10
140.1417487011318
 20
262.9393816191744
 30
0.0000000000000000
 40
1.000000000000000
100
AcDbArc
 50
359.9999999998271
 51
449.9999999998271
  0
LINE
  5
4D
100
AcDbEntity
  8
MAIN0
  6
CONTINUOUS
 62
3
100
AcDbLine
 10
96.14174870109700
 20
251.4393816193073
 30
0.0000000000000000
 11
101.1417487010971
 21
251.4393816192922
 31
0.0000000000000000
  0
LINE
  5
4E
100
AcDbEntity
  8
MAIN0
  6
CONTINUOUS
 62
3
100
AcDbLine
 10
100.6417487010306
 20
229.4393816192937
 30
0.0000000000000000
 11
108.7787028102400
 21
229.4393816192691
 31
0.0000000000000000
  0
LINE
  5
4F
100
AcDbEntity
  8
MAIN0
  6
PHANTOM
 62
3
100
AcDbLine
 10
141.1417487010231
 20
226.9393816191714
 30
0.0000000000000000
 11
155.9417487010230
 21
226.9393816191268
 31
0.0000000000000000
  0
LINE
  5
50
100
AcDbEntity
  8
MAIN0
  6
CONTINUOUS
 62
3
100
AcDbLine
 10
96.14174870088118
 20
179.9393816193072
 30
0.0000000000000000
 11
97.14174870087818
 21
178.9393816193042
 31
0.0000000000000000
  0
ARC
  5
51
100
AcDbEntity
  8
MAIN0
  6
CONTINUOUS
 62
3
100
AcDbCircle
 10
140.1417487008812
 20
179.9393816191744
 30
0.0000000000000000
 40
1.000000000000000
100
AcDbArc
 50
269.9999999998271
 51
359.9999999998271
  0
LINE
  5
52
100
AcDbEntity
  8
MAIN0
  6
CONTINUOUS
 62
3
100
AcDbLine
 10
96.14174870091593
 20
191.4393816193073
 30
0.0000000000000000
 11
101.1417487009160
 21
191.4393816192922
 31
0.0000000000000000
  0
LINE
  5
53
100
AcDbEntity
  8
MAIN0
  6
CONTINUOUS
 62
3
100
AcDbLine
 10
100.6417487009823
 20
213.4393816192937
 30
0.0000000000000000
 11
109.3103935119114
 21
213.4393816192675
 31
0.0000000000000000
  0
LINE
  5
54
100
AcDbEntity
  8
MAIN0
  6
PHANTOM
 62
3
100
AcDbLine
 10
141.1417487009899
 20
215.9393816191714
 30
0.0000000000000000
 11
155.9417487009899
 21
215.9393816191268
 31
0.0000000000000000
  0
LINE
  5
55
100
AcDbEntity
  8
MAIN0
  6
CENTER
 62
3
100
AcDbLine
 10
93.80074741368360
 20
257.9393816193143
 30
0.0000000000000000
 11
116.3007474136761
 21
257.9393816192464
 31
0.0000000000000000
  0
LINE
  5
56
100
AcDbEntity
  8
MAIN0
  6
PHANTOM
 62
3
100
AcDbLine
 10
96.14174870112657
 20
261.2393816193072
 30
0.0000000000000000
 11
96.94174870112420
 21
260.4393816193048
 31
0.0000000000000000
  0
LINE
  5
57
100
AcDbEntity
  8
MAIN0
  6
PHANTOM
 62
3
100
AcDbLine
 10
96.94174870112418
 20
260.4393816193048
 30
0.0000000000000000
 11
96.94174870110909
 21
255.4393816193048
 31
0.0000000000000000
  0
LINE
  5
58
100
AcDbEntity
  8
MAIN0
  6
PHANTOM
 62
3
100
AcDbLine
 10
96.94174870110913
 20
255.4393816193048
 30
0.0000000000000000
 11
96.14174870110676
 21
254.6393816193073
 31
0.0000000000000000
  0
LINE
  5
59
100
AcDbEntity
  8
MAIN0
  6
PHANTOM
 62
3
100
AcDbLine
 10
96.44174870112569
 20
260.9393816193064
 30
0.0000000000000000
 11
109.1417487011257
 21
260.9393816192680
 31
0.0000000000000000
  0
LINE
  5
5A
100
AcDbEntity
  8
MAIN0
  6
PHANTOM
 62
3
100
AcDbLine
 10
109.1417487011257
 20
260.9393816192680
 30
0.0000000000000000
 11
109.1417487011076
 21
254.9393816192680
 31
0.0000000000000000
  0
LINE
  5
5B
100
AcDbEntity
  8
MAIN0
  6
PHANTOM
 62
3
100
AcDbLine
 10
109.1417487011076
 20
254.9393816192680
 30
0.0000000000000000
 11
96.44174870110759
 21
254.9393816193064
 31
0.0000000000000000
  0
LINE
  5
5C
100
AcDbEntity
  8
MAIN0
  6
PHANTOM
 62
3
100
AcDbLine
 10
96.94174870112418
 20
260.4393816193048
 30
0.0000000000000000
 11
113.1417487011242
 21
260.4393816192559
 31
0.0000000000000000
  0
LINE
  5
5D
100
AcDbEntity
  8
MAIN0
  6
PHANTOM
 62
3
100
AcDbLine
 10
113.1417487011242
 20
260.4393816192559
 30
0.0000000000000000
 11
113.1417487011091
 21
255.4393816192559
 31
0.0000000000000000
  0
LINE
  5
5E
100
AcDbEntity
  8
MAIN0
  6
PHANTOM
 62
3
100
AcDbLine
 10
113.1417487011091
 20
255.4393816192559
 30
0.0000000000000000
 11
96.94174870110909
 21
255.4393816193048
 31
0.0000000000000000
  0
LINE
  5
5F
100
AcDbEntity
  8
MAIN0
  6
PHANTOM
 62
3
100
AcDbLine
 10
113.1417487011242
 20
260.4393816192560
 30
0.0000000000000000
 11
114.5851243740908
 21
257.9393816192516
 31
0.0000000000000000
  0
LINE
  5
60
100
AcDbEntity
  8
MAIN0
  6
PHANTOM
 62
3
100
AcDbLine
 10
114.5851243740907
 20
257.9393816192516
 30
0.0000000000000000
 11
113.1417487011091
 21
255.4393816192559
 31
0.0000000000000000
  0
LINE
  5
61
100
AcDbEntity
  8
MAIN0
  6
CONTINUOUS
 62
3
100
AcDbLine
 10
107.1417487010517
 20
236.4393816192741
 30
0.0000000000000000
 11
110.8211840872542
 21
236.4393816192630
 31
0.0000000000000000
  0
LINE
  5
62
100
AcDbEntity
  8
MAIN0
  6
CONTINUOUS
 62
3
100
AcDbLine
 10
104.6417487010623
 20
239.9393816192816
 30
0.0000000000000000
 11
111.7538521493233
 21
239.9393816192601
 31
0.0000000000000000
  0
LINE
  5
63
100
AcDbEntity
  8
MAIN0
  6
CONTINUOUS
 62
3
100
AcDbLine
 10
99.64174870091593
 20
191.4393816192967
 30
0.0000000000000000
 11
99.64174870109700
 21
251.4393816192967
 31
0.0000000000000000
  0
LINE
  5
64
100
AcDbEntity
  8
MAIN0
  6
CONTINUOUS
 62
3
100
AcDbLine
 10
99.64174870109700
 20
251.4393816192967
 30
0.0000000000000000
 11
103.6417487010970
 21
251.4393816192846
 31
0.0000000000000000
  0
LINE
  5
65
100
AcDbEntity
  8
MAIN0
  6
CONTINUOUS
 62
3
100
AcDbLine
 10
103.6417487010631
 20
240.2073308117157
 30
0.0000000000000000
 11
103.6417487010970
 21
251.4393816192846
 31
0.0000000000000000
  0
LINE
  5
66
100
AcDbEntity
  8
MAIN0
  6
CONTINUOUS
 62
3
100
AcDbLine
 10
102.6417487010683
 20
241.9393816192876
 30
0.0000000000000000
 11
102.6417487010827
 21
246.6893816192876
 31
0.0000000000000000
  0
ARC
  5
67
100
AcDbEntity
  8
MAIN0
  6
CONTINUOUS
 62
3
100
AcDbCircle
 10
103.6417487010827
 20
246.6893816192846
 30
0.0000000000000000
 40
1.000000000000000
100
AcDbArc
 50
89.99999999982708
 51
179.9999999998271
  0
ARC
  5
68
100
AcDbEntity
  8
MAIN0
  6
CONTINUOUS
 62
3
100
AcDbCircle
 10
104.6417487010684
 20
241.9393816192816
 30
0.0000000000000000
 40
2.000000000000000
100
AcDbArc
 50
179.9999999998271
 51
269.9999999998271
  0
ARC
  5
69
100
AcDbEntity
  8
MAIN0
  6
CONTINUOUS
 62
3
100
AcDbCircle
 10
104.6417487009446
 20
200.9393816192816
 30
0.0000000000000000
 40
2.000000000000000
100
AcDbArc
 50
89.99999999982708
 51
179.9999999998271
  0
LINE
  5
6A
100
AcDbEntity
  8
MAIN0
  6
CONTINUOUS
 62
3
100
AcDbLine
 10
103.6417487009498
 20
202.6714324268535
 30
0.0000000000000000
 11
103.6417487009223
 21
193.5599008211559
 31
0.0000000000000000
  0
LINE
  5
6B
100
AcDbEntity
  8
MAIN0
  6
CONTINUOUS
 62
3
100
AcDbLine
 10
102.6417487009446
 20
200.9393816192876
 30
0.0000000000000000
 11
102.6417487009303
 21
196.1893816192876
 31
0.0000000000000000
  0
ARC
  5
6C
100
AcDbEntity
  8
MAIN0
  6
CONTINUOUS
 62
3
100
AcDbCircle
 10
103.6417487009303
 20
196.1893816192846
 30
0.0000000000000000
 40
1.000000000000000
100
AcDbArc
 50
179.9999999998271
 51
269.9999999998271
  0
LINE
  5
6D
100
AcDbEntity
  8
MAIN0
  6
CONTINUOUS
 62
3
100
AcDbLine
 10
99.64174870091593
 20
191.4393816192967
 30
0.0000000000000000
 11
102.9191766930616
 21
191.4393816192868
 31
0.0000000000000000
  0
LINE
  5
6E
100
AcDbEntity
  8
MAIN0
  6
CONTINUOUS
 62
3
100
AcDbLine
 10
101.1417487009144
 20
190.9393816192922
 30
0.0000000000000000
 11
101.1417487009159
 21
191.4393816192922
 31
0.0000000000000000
  0
LINE
  5
6F
100
AcDbEntity
  8
MAIN0
  6
CONTINUOUS
 62
3
100
AcDbLine
 10
101.1417487010970
 20
251.4393816192922
 30
0.0000000000000000
 11
101.1417487010985
 21
251.9393816192922
 31
0.0000000000000000
  0
LINE
  5
70
100
AcDbEntity
  8
MAIN0
  6
CENTER
 62
3
100
AcDbLine
 10
93.80074741367605
 20
232.9393816193143
 30
0.0000000000000000
 11
111.3007474136761
 21
232.9393816192615
 31
0.0000000000000000
  0
LINE
  5
71
100
AcDbEntity
  8
MAIN0
  6
PHANTOM
 62
3
100
AcDbLine
 10
100.6417487010493
 20
235.6393816192937
 30
0.0000000000000000
 11
104.1417487010493
 21
235.6393816192831
 31
0.0000000000000000
  0
LINE
  5
72
100
AcDbEntity
  8
MAIN0
  6
PHANTOM
 62
3
100
AcDbLine
 10
104.1417487010469
 20
234.8393816192831
 30
0.0000000000000000
 11
107.1417487010469
 21
234.8393816192740
 31
0.0000000000000000
  0
LINE
  5
73
100
AcDbEntity
  8
MAIN0
  6
CONTINUOUS
 62
3
100
AcDbLine
 10
100.6417487009627
 20
206.9393816192809
 30
0.0000000000000000
 11
100.6417487010502
 21
235.9393816193064
 31
0.0000000000000000
  0
LINE
  5
74
100
AcDbEntity
  8
MAIN0
  6
PHANTOM
 62
3
100
AcDbLine
 10
104.1417487010330
 20
230.2393816192831
 30
0.0000000000000000
 11
104.1417487010493
 21
235.6393816192831
 31
0.0000000000000000
  0
LINE
  5
75
100
AcDbEntity
  8
MAIN0
  6
CONTINUOUS
 62
3
100
AcDbLine
 10
99.64174870105313
 20
236.9393816193093
 30
0.0000000000000000
 11
100.6417487010502
 21
235.9393816193064
 31
0.0000000000000000
  0
LINE
  5
76
100
AcDbEntity
  8
MAIN0
  6
PHANTOM
 62
3
100
AcDbLine
 10
100.6417487010330
 20
230.2393816192937
 30
0.0000000000000000
 11
104.1417487010330
 21
230.2393816192831
 31
0.0000000000000000
  0
LINE
  5
77
100
AcDbEntity
  8
MAIN0
  6
PHANTOM
 62
3
100
AcDbLine
 10
104.1417487010354
 20
231.0393816192831
 30
0.0000000000000000
 11
107.1417487010354
 21
231.0393816192740
 31
0.0000000000000000
  0
LINE
  5
78
100
AcDbEntity
  8
MAIN0
  6
CONTINUOUS
 62
3
100
AcDbLine
 10
99.64174870095962
 20
205.9393816192840
 30
0.0000000000000000
 11
100.6417487009626
 21
206.9393816192809
 31
0.0000000000000000
  0
LINE
  5
79
100
AcDbEntity
  8
MAIN0
  6
CONTINUOUS
 62
3
100
AcDbLine
 10
129.6417487011347
 20
263.9393816192061
 30
0.0000000000000000
 11
143.3417487011348
 21
263.9393816191648
 31
0.0000000000000000
  0
LINE
  5
7A
100
AcDbEntity
  8
MAIN0
  6
CONTINUOUS
 62
3
100
AcDbLine
 10
143.6417487011196
 20
258.9393816191639
 30
0.0000000000000000
 11
144.1417487011196
 21
258.9393816191624
 31
0.0000000000000000
  0
LINE
  5
7B
100
AcDbEntity
  8
MAIN0
  6
CONTINUOUS
 62
3
100
AcDbLine
 10
156.1417487010300
 20
229.2393816191262
 30
0.0000000000000000
 11
156.1417487010614
 21
239.6393816191261
 31
0.0000000000000000
  0
LINE
  5
7C
100
AcDbEntity
  8
MAIN0
  6
CONTINUOUS
 62
3
100
AcDbLine
 10
144.1417487010961
 20
251.1393816188993
 30
0.0000000000000000
 11
144.1417487011196
 21
258.9393816191624
 31
0.0000000000000000
  0
LINE
  5
7D
100
AcDbEntity
  8
MAIN0
  6
CONTINUOUS
 62
3
100
AcDbLine
 10
150.1417487010659
 20
241.1393816188812
 30
0.0000000000000000
 11
150.1417487010916
 21
249.6393816191443
 31
0.0000000000000000
  0
LINE
  5
7E
100
AcDbEntity
  8
MAIN0
  6
CONTINUOUS
 62
3
100
AcDbLine
 10
143.6417487011196
 20
258.9393816191639
 30
0.0000000000000000
 11
143.6417487011338
 21
263.6393816191639
 31
0.0000000000000000
  0
LINE
  5
7F
100
AcDbEntity
  8
MAIN0
  6
CONTINUOUS
 62
3
100
AcDbLine
 10
155.8417487010292
 20
228.9393816191271
 30
0.0000000000000000
 11
156.1417487010301
 21
229.2393816191261
 31
0.0000000000000000
  0
LINE
  5
80
100
AcDbEntity
  8
MAIN0
  6
CONTINUOUS
 62
3
100
AcDbLine
 10
155.8417487010623
 20
239.9393816191270
 30
0.0000000000000000
 11
156.1417487010614
 21
239.6393816191261
 31
0.0000000000000000
  0
LINE
  5
81
100
AcDbEntity
  8
MAIN0
  6
CONTINUOUS
 62
3
100
AcDbLine
 10
149.8417487010924
 20
249.9393816191451
 30
0.0000000000000000
 11
150.1417487010916
 21
249.6393816191442
 31
0.0000000000000000
  0
LINE
  5
82
100
AcDbEntity
  8
MAIN0
  6
CONTINUOUS
 62
3
100
AcDbLine
 10
143.3417487011348
 20
263.9393816191647
 30
0.0000000000000000
 11
143.6417487011338
 21
263.6393816191638
 31
0.0000000000000000
  0
LINE
  5
83
100
AcDbEntity
  8
MAIN0
  6
CONTINUOUS
 62
3
100
AcDbLine
 10
144.4417487013432
 20
249.4197663770653
 30
0.0000000000000000
 11
145.3417487010441
 21
249.9393816191588
 31
0.0000000000000000
  0
LINE
  5
84
100
AcDbEntity
  8
MAIN0
  6
CONTINUOUS
 62
3
100
AcDbLine
 10
143.6221334590753
 20
250.2393816193388
 30
0.0000000000000000
 11
144.1417487010961
 21
251.1393816188994
 31
0.0000000000000000
  0
ARC
  5
85
100
AcDbEntity
  8
MAIN0
  6
CONTINUOUS
 62
3
100
AcDbCircle
 10
144.1417487013451
 20
249.9393816193371
 30
0.0000000000000000
 40
0.6000000000000000
100
AcDbArc
 50
149.9999999998169
 51
299.9999999997853
  0
LINE
  5
86
100
AcDbEntity
  8
MAIN0
  6
CONTINUOUS
 62
3
100
AcDbLine
 10
149.6221334590452
 20
240.2393816193208
 30
0.0000000000000000
 11
150.1417487010659
 21
241.1393816188813
 31
0.0000000000000000
  0
ARC
  5
87
100
AcDbEntity
  8
MAIN0
  6
CONTINUOUS
 62
3
100
AcDbCircle
 10
150.1417487013150
 20
239.9393816193191
 30
0.0000000000000000
 40
0.6000000000000000
100
AcDbArc
 50
149.9999999998169
 51
299.9999999997853
  0
LINE
  5
88
100
AcDbEntity
  8
MAIN0
  6
CONTINUOUS
 62
3
100
AcDbLine
 10
150.4417487013130
 20
239.4197663770472
 30
0.0000000000000000
 11
151.3417487010140
 21
239.9393816191407
 31
0.0000000000000000
  0
LINE
  5
89
100
AcDbEntity
  8
MAIN0
  6
CONTINUOUS
 62
3
100
AcDbLine
 10
141.1417487010378
 20
231.8094477386301
 30
0.0000000000000000
 11
156.1417487010378
 21
231.8094477385731
 31
0.0000000000000000
  0
LINE
  5
8A
100
AcDbEntity
  8
MAIN0
  6
CENTER
 62
3
100
AcDbLine
 10
153.5417487010562
 20
237.9240485162206
 30
0.0000000000000000
 11
153.5417487010648
 21
240.7620673178526
 31
0.0000000000000000
  0
LINE
  5
8B
100
AcDbEntity
  8
MAIN0
  6
CONTINUOUS
 62
3
100
AcDbLine
 10
153.7149537817176
 20
239.2001511345930
 30
0.0000000000000000
 11
154.1417487009620
 21
239.9393816191321
 31
0.0000000000000000
  0
LINE
  5
8C
100
AcDbEntity
  8
MAIN0
  6
CONTINUOUS
 62
3
100
AcDbLine
 10
152.9417487009642
 20
239.9393816191359
 30
0.0000000000000000
 11
153.3685436202038
 21
239.2001511345942
 31
0.0000000000000000
  0
ARC
  5
8D
100
AcDbEntity
  8
MAIN0
  6
CONTINUOUS
 62
3
100
AcDbCircle
 10
153.5417487009610
 20
239.3001511345936
 30
0.0000000000000000
 40
0.2000000000000000
100
AcDbArc
 50
209.9999999998021
 51
329.9999999998340
  0
LINE
  5
8E
100
AcDbEntity
  8
MAIN0
  6
CONTINUOUS
 62
3
100
AcDbLine
 10
151.3417487010139
 20
239.9393816191407
 30
0.0000000000000000
 11
152.9417487009641
 21
239.9393816191358
 31
0.0000000000000000
  0
LINE
  5
8F
100
AcDbEntity
  8
MAIN0
  6
CONTINUOUS
 62
3
100
AcDbLine
 10
154.1417487009620
 20
239.9393816191322
 30
0.0000000000000000
 11
155.8417487010623
 21
239.9393816191271
 31
0.0000000000000000
  0
LINE
  5
90
100
AcDbEntity
  8
MAIN0
  6
CENTER
 62
3
100
AcDbLine
 10
147.8417487010864
 20
247.9240485162379
 30
0.0000000000000000
 11
147.8417487010949
 21
250.7620673178698
 31
0.0000000000000000
  0
LINE
  5
91
100
AcDbEntity
  8
MAIN0
  6
CONTINUOUS
 62
3
100
AcDbLine
 10
148.0149537817478
 20
249.2001511346102
 30
0.0000000000000000
 11
148.4417487009922
 21
249.9393816191493
 31
0.0000000000000000
  0
LINE
  5
92
100
AcDbEntity
  8
MAIN0
  6
CONTINUOUS
 62
3
100
AcDbLine
 10
147.2417487009944
 20
249.9393816191531
 30
0.0000000000000000
 11
147.6685436202340
 21
249.2001511346114
 31
0.0000000000000000
  0
ARC
  5
93
100
AcDbEntity
  8
MAIN0
  6
CONTINUOUS
 62
3
100
AcDbCircle
 10
147.8417487009912
 20
249.3001511346107
 30
0.0000000000000000
 40
0.2000000000000000
100
AcDbArc
 50
209.9999999998021
 51
329.9999999998340
  0
LINE
  5
94
100
AcDbEntity
  8
MAIN0
  6
CONTINUOUS
 62
3
100
AcDbLine
 10
145.3417487010441
 20
249.9393816191588
 30
0.0000000000000000
 11
147.2417487009943
 21
249.9393816191530
 31
0.0000000000000000
  0
LINE
  5
95
100
AcDbEntity
  8
MAIN0
  6
CONTINUOUS
 62
3
100
AcDbLine
 10
148.4417487009922
 20
249.9393816191494
 30
0.0000000000000000
 11
149.8417487010925
 21
249.9393816191452
 31
0.0000000000000000
  0
LINE
  5
96
100
AcDbEntity
  8
MAIN0
  6
CENTER
 62
3
100
AcDbLine
 10
152.6417487010352
 20
230.9547147220501
 30
0.0000000000000000
 11
152.6417487010266
 21
228.1166959204182
 31
0.0000000000000000
  0
LINE
  5
97
100
AcDbEntity
  8
MAIN0
  6
CONTINUOUS
 62
3
100
AcDbLine
 10
152.4685436203738
 20
229.6786121036777
 30
0.0000000000000000
 11
152.0417487011294
 21
228.9393816191386
 31
0.0000000000000000
  0
LINE
  5
98
100
AcDbEntity
  8
MAIN0
  6
CONTINUOUS
 62
3
100
AcDbLine
 10
153.2417487011273
 20
228.9393816191349
 30
0.0000000000000000
 11
152.8149537818877
 21
229.6786121036766
 31
0.0000000000000000
  0
ARC
  5
99
100
AcDbEntity
  8
MAIN0
  6
CONTINUOUS
 62
3
100
AcDbCircle
 10
152.6417487011304
 20
229.5786121036772
 30
0.0000000000000000
 40
0.2000000000000000
100
AcDbArc
 50
29.99999999980206
 51
149.9999999998339
  0
LINE
  5
9A
100
AcDbEntity
  8
MAIN0
  6
CENTER
 62
3
100
AcDbLine
 10
149.1417487010352
 20
230.9547147220607
 30
0.0000000000000000
 11
149.1417487010266
 21
228.1166959204287
 31
0.0000000000000000
  0
LINE
  5
9B
100
AcDbEntity
  8
MAIN0
  6
CONTINUOUS
 62
3
100
AcDbLine
 10
148.9685436203738
 20
229.6786121036882
 30
0.0000000000000000
 11
148.5417487011293
 21
228.9393816191492
 31
0.0000000000000000
  0
LINE
  5
9C
100
AcDbEntity
  8
MAIN0
  6
CONTINUOUS
 62
3
100
AcDbLine
 10
149.7417487011273
 20
228.9393816191455
 30
0.0000000000000000
 11
149.3149537818877
 21
229.6786121036871
 31
0.0000000000000000
  0
ARC
  5
9D
100
AcDbEntity
  8
MAIN0
  6
CONTINUOUS
 62
3
100
AcDbCircle
 10
149.1417487011304
 20
229.5786121036877
 30
0.0000000000000000
 40
0.2000000000000000
100
AcDbArc
 50
29.99999999980206
 51
149.9999999998339
  0
LINE
  5
9E
100
AcDbEntity
  8
MAIN0
  6
CENTER
 62
3
100
AcDbLine
 10
145.6417487010352
 20
230.9547147220712
 30
0.0000000000000000
 11
145.6417487010266
 21
228.1166959204393
 31
0.0000000000000000
  0
LINE
  5
9F
100
AcDbEntity
  8
MAIN0
  6
CONTINUOUS
 62
3
100
AcDbLine
 10
145.4685436203738
 20
229.6786121036988
 30
0.0000000000000000
 11
145.0417487011293
 21
228.9393816191597
 31
0.0000000000000000
  0
LINE
  5
A0
100
AcDbEntity
  8
MAIN0
  6
CONTINUOUS
 62
3
100
AcDbLine
 10
146.2417487011273
 20
228.9393816191560
 30
0.0000000000000000
 11
145.8149537818877
 21
229.6786121036977
 31
0.0000000000000000
  0
ARC
  5
A1
100
AcDbEntity
  8
MAIN0
  6
CONTINUOUS
 62
3
100
AcDbCircle
 10
145.6417487011304
 20
229.5786121036983
 30
0.0000000000000000
 40
0.2000000000000000
100
AcDbArc
 50
29.99999999980206
 51
149.9999999998339
  0
LINE
  5
A2
100
AcDbEntity
  8
MAIN0
  6
CENTER
 62
3
100
AcDbLine
 10
142.1417487010352
 20
230.9547147220818
 30
0.0000000000000000
 11
142.1417487010266
 21
228.1166959204498
 31
0.0000000000000000
  0
LINE
  5
A3
100
AcDbEntity
  8
MAIN0
  6
CONTINUOUS
 62
3
100
AcDbLine
 10
141.9685436203737
 20
229.6786121037094
 30
0.0000000000000000
 11
141.5417487011293
 21
228.9393816191703
 31
0.0000000000000000
  0
LINE
  5
A4
100
AcDbEntity
  8
MAIN0
  6
CONTINUOUS
 62
3
100
AcDbLine
 10
142.7417487011273
 20
228.9393816191666
 30
0.0000000000000000
 11
142.3149537818877
 21
229.6786121037083
 31
0.0000000000000000
  0
ARC
  5
A5
100
AcDbEntity
  8
MAIN0
  6
CONTINUOUS
 62
3
100
AcDbCircle
 10
142.1417487011304
 20
229.5786121037089
 30
0.0000000000000000
 40
0.2000000000000000
100
AcDbArc
 50
29.99999999980206
 51
149.9999999998339
  0
LINE
  5
A6
100
AcDbEntity
  8
MAIN0
  6
CONTINUOUS
 62
3
100
AcDbLine
 10
153.2417487011272
 20
228.9393816191349
 30
0.0000000000000000
 11
155.8417487010291
 21
228.9393816191271
 31
0.0000000000000000
  0
LINE
  5
A7
100
AcDbEntity
  8
MAIN0
  6
CONTINUOUS
 62
3
100
AcDbLine
 10
149.7417487011272
 20
228.9393816191455
 30
0.0000000000000000
 11
152.0417487011293
 21
228.9393816191385
 31
0.0000000000000000
  0
LINE
  5
A8
100
AcDbEntity
  8
MAIN0
  6
CONTINUOUS
 62
3
100
AcDbLine
 10
146.2417487011273
 20
228.9393816191561
 30
0.0000000000000000
 11
148.5417487011293
 21
228.9393816191491
 31
0.0000000000000000
  0
LINE
  5
A9
100
AcDbEntity
  8
MAIN0
  6
CONTINUOUS
 62
3
100
AcDbLine
 10
142.7417487011273
 20
228.9393816191666
 30
0.0000000000000000
 11
145.0417487011293
 21
228.9393816191597
 31
0.0000000000000000
  0
LINE
  5
AA
100
AcDbEntity
  8
MAIN0
  6
PHANTOM
 62
3
100
AcDbLine
 10
129.6417487008782
 20
178.9393816192079
 30
0.0000000000000000
 11
155.9417487008787
 21
178.9393816191234
 31
0.0000000000000000
  0
LINE
  5
AB
100
AcDbEntity
  8
MAIN0
  6
PHANTOM
 62
3
100
AcDbLine
 10
141.1417487009751
 20
211.0693154997122
 30
0.0000000000000000
 11
143.6417487009815
 21
211.0693154997061
 31
0.0000000000000000
  0
LINE
  5
AC
100
AcDbEntity
  8
MAIN0
  6
PHANTOM
 62
3
100
AcDbLine
 10
143.6417487009682
 20
206.9393816191958
 30
0.0000000000000000
 11
144.1417487009682
 21
206.9393816191942
 31
0.0000000000000000
  0
LINE
  5
AD
100
AcDbEntity
  8
MAIN0
  6
PHANTOM
 62
3
100
AcDbLine
 10
156.1417487009067
 20
187.7393816191557
 30
0.0000000000000000
 11
156.1417487008792
 21
179.1393816191228
 31
0.0000000000000000
  0
LINE
  5
AE
100
AcDbEntity
  8
MAIN0
  6
PHANTOM
 62
3
100
AcDbLine
 10
150.1417487009386
 20
197.7393816191750
 30
0.0000000000000000
 11
150.1417487009109
 21
189.1393816188173
 31
0.0000000000000000
  0
LINE
  5
AF
100
AcDbEntity
  8
MAIN0
  6
PHANTOM
 62
3
100
AcDbLine
 10
144.1417487009682
 20
206.9393816191942
 30
0.0000000000000000
 11
144.1417487009431
 21
199.1393816188365
 31
0.0000000000000000
  0
LINE
  5
B0
100
AcDbEntity
  8
MAIN0
  6
PHANTOM
 62
3
100
AcDbLine
 10
143.6417487009901
 20
213.7393816191958
 30
0.0000000000000000
 11
143.6417487009682
 21
206.9393816191958
 31
0.0000000000000000
  0
LINE
  5
B1
100
AcDbEntity
  8
MAIN0
  6
PHANTOM
 62
3
100
AcDbLine
 10
143.6417487009900
 20
213.7393816191958
 30
0.0000000000000000
 11
143.4417487009907
 21
213.9393816191964
 31
0.0000000000000000
  0
LINE
  5
B2
100
AcDbEntity
  8
MAIN0
  6
PHANTOM
 62
3
100
AcDbLine
 10
156.1417487008793
 20
179.1393816191228
 30
0.0000000000000000
 11
155.9417487008787
 21
178.9393816191234
 31
0.0000000000000000
  0
LINE
  5
B3
100
AcDbEntity
  8
MAIN0
  6
PHANTOM
 62
3
100
AcDbLine
 10
156.1417487009067
 20
187.7393816191556
 30
0.0000000000000000
 11
155.9417487009073
 21
187.9393816191563
 31
0.0000000000000000
  0
LINE
  5
B4
100
AcDbEntity
  8
MAIN0
  6
PHANTOM
 62
3
100
AcDbLine
 10
149.9417487009392
 20
197.9393816191756
 30
0.0000000000000000
 11
150.1417487009386
 21
197.7393816191750
 31
0.0000000000000000
  0
LINE
  5
B5
100
AcDbEntity
  8
MAIN0
  6
PHANTOM
 62
3
100
AcDbLine
 10
150.4417487011291
 20
187.4197663769315
 30
0.0000000000000000
 11
151.3417487010798
 21
187.9393816191712
 31
0.0000000000000000
  0
LINE
  5
B6
100
AcDbEntity
  8
MAIN0
  6
PHANTOM
 62
3
100
AcDbLine
 10
149.6221334588602
 20
188.2393816192043
 30
0.0000000000000000
 11
150.1417487009110
 21
189.1393816188173
 31
0.0000000000000000
  0
ARC
  5
B7
100
AcDbEntity
  8
MAIN0
  6
PHANTOM
 62
3
100
AcDbCircle
 10
150.1417487011301
 20
187.9393816192028
 30
0.0000000000000000
 40
0.6000000000000000
100
AcDbArc
 50
149.9999999998393
 51
299.9999999998805
  0
LINE
  5
B8
100
AcDbEntity
  8
MAIN0
  6
PHANTOM
 62
3
100
AcDbLine
 10
143.6221334588924
 20
198.2393816192236
 30
0.0000000000000000
 11
144.1417487009431
 21
199.1393816188365
 31
0.0000000000000000
  0
LINE
  5
B9
100
AcDbEntity
  8
MAIN0
  6
PHANTOM
 62
3
100
AcDbLine
 10
144.4417487011613
 20
197.4197663769507
 30
0.0000000000000000
 11
145.3417487011120
 21
197.9393816191904
 31
0.0000000000000000
  0
ARC
  5
BA
100
AcDbEntity
  8
MAIN0
  6
PHANTOM
 62
3
100
AcDbCircle
 10
144.1417487011623
 20
197.9393816192221
 30
0.0000000000000000
 40
0.6000000000000000
100
AcDbArc
 50
149.9999999998393
 51
299.9999999998805
  0
LINE
  5
BB
100
AcDbEntity
  8
MAIN0
  6
PHANTOM
 62
3
100
AcDbLine
 10
141.1417487009838
 20
213.9393816192039
 30
0.0000000000000000
 11
143.4417487009908
 21
213.9393816191965
 31
0.0000000000000000
  0
LINE
  5
BC
100
AcDbEntity
  8
MAIN0
  6
CENTER
 62
3
100
AcDbLine
 10
147.3417487009456
 20
198.9393816190568
 30
0.0000000000000000
 11
147.3417487009375
 21
196.4393816190648
 31
0.0000000000000000
  0
LINE
  5
BD
100
AcDbEntity
  8
MAIN0
  6
PHANTOM
 62
3
100
AcDbLine
 10
147.5149537815722
 20
197.2001511345746
 30
0.0000000000000000
 11
147.9417487008579
 21
197.9393816191835
 31
0.0000000000000000
  0
LINE
  5
BE
100
AcDbEntity
  8
MAIN0
  6
PHANTOM
 62
3
100
AcDbLine
 10
146.7417487007775
 20
197.9393816191873
 30
0.0000000000000000
 11
147.1685436200586
 21
197.2001511345760
 31
0.0000000000000000
  0
ARC
  5
BF
100
AcDbEntity
  8
MAIN0
  6
PHANTOM
 62
3
100
AcDbCircle
 10
147.3417487008158
 20
197.3001511345753
 30
0.0000000000000000
 40
0.2000000000000000
100
AcDbArc
 50
209.9999999998369
 51
329.9999999997789
  0
LINE
  5
C0
100
AcDbEntity
  8
MAIN0
  6
CENTER
 62
3
100
AcDbLine
 10
153.0417487009154
 20
188.9393816190626
 30
0.0000000000000000
 11
153.0417487009074
 21
186.4393816190626
 31
0.0000000000000000
  0
LINE
  5
C1
100
AcDbEntity
  8
MAIN0
  6
PHANTOM
 62
3
100
AcDbLine
 10
153.2149537815420
 20
187.2001511345574
 30
0.0000000000000000
 11
153.6417487008276
 21
187.9393816191663
 31
0.0000000000000000
  0
LINE
  5
C2
100
AcDbEntity
  8
MAIN0
  6
PHANTOM
 62
3
100
AcDbLine
 10
152.4417487007473
 20
187.9393816191701
 30
0.0000000000000000
 11
152.8685436200285
 21
187.2001511345587
 31
0.0000000000000000
  0
ARC
  5
C3
100
AcDbEntity
  8
MAIN0
  6
PHANTOM
 62
3
100
AcDbCircle
 10
153.0417487007856
 20
187.3001511345581
 30
0.0000000000000000
 40
0.2000000000000000
100
AcDbArc
 50
209.9999999998369
 51
329.9999999997789
  0
LINE
  5
C4
100
AcDbEntity
  8
MAIN0
  6
PHANTOM
 62
3
100
AcDbLine
 10
145.3417487011118
 20
197.9393816191904
 30
0.0000000000000000
 11
146.7417487007774
 21
197.9393816191859
 31
0.0000000000000000
  0
LINE
  5
C5
100
AcDbEntity
  8
MAIN0
  6
PHANTOM
 62
3
100
AcDbLine
 10
147.9417487008579
 20
197.9393816191820
 30
0.0000000000000000
 11
149.9417487009392
 21
197.9393816191756
 31
0.0000000000000000
  0
LINE
  5
C6
100
AcDbEntity
  8
MAIN0
  6
PHANTOM
 62
3
100
AcDbLine
 10
151.3417487010798
 20
187.9393816191711
 30
0.0000000000000000
 11
152.4417487007472
 21
187.9393816191676
 31
0.0000000000000000
  0
LINE
  5
C7
100
AcDbEntity
  8
MAIN0
  6
PHANTOM
 62
3
100
AcDbLine
 10
153.6417487008277
 20
187.9393816191637
 30
0.0000000000000000
 11
155.9417487009074
 21
187.9393816191563
 31
0.0000000000000000
  0
LINE
  5
C8
100
AcDbEntity
  8
MAIN0
  6
HIDDEN
 62
3
100
AcDbLine
 10
102.1417487009068
 20
188.3993816192805
 30
0.0000000000000000
 11
104.1417487009068
 21
188.3993816192760
 31
0.0000000000000000
  0
LINE
  5
C9
100
AcDbEntity
  8
MAIN0
  6
HIDDEN
 62
3
100
AcDbLine
 10
102.1417487008834
 20
180.6493816192805
 30
0.0000000000000000
 11
102.3417487008828
 21
180.4493816192800
 31
0.0000000000000000
  0
LINE
  5
CA
100
AcDbEntity
  8
MAIN0
  6
CONTINUOUS
 62
3
100
AcDbLine
 10
102.1417487009066
 20
188.3588346845832
 30
0.0000000000000000
 11
102.1417487009090
 21
189.1578775373470
 31
0.0000000000000000
  0
ARC
  5
CB
100
AcDbEntity
  8
MAIN0
  6
HIDDEN
 62
3
100
AcDbCircle
 10
104.1417487009000
 20
186.1493816192778
 30
0.0000000000000000
 40
2.249999999998211
100
AcDbArc
 50
269.9999999998271
 51
450.0000000000000
  0
LINE
  5
CC
100
AcDbEntity
  8
MAIN0
  6
HIDDEN
 62
3
100
AcDbLine
 10
102.1417487008932
 20
183.8993816192805
 30
0.0000000000000000
 11
104.1417487008949
 21
183.8993816192760
 31
0.0000000000000000
  0
LINE
  5
CD
100
AcDbEntity
  8
MAIN0
  6
CONTINUOUS
 62
3
100
AcDbLine
 10
102.1417487009093
 20
189.1578775373470
 30
0.0000000000000000
 11
105.3078510189671
 21
198.4493816192734
 31
0.0000000000000000
  0
ARC
  5
CE
100
AcDbEntity
  8
MAIN0
  6
CONTINUOUS
 62
3
100
AcDbCircle
 10
103.6417487009576
 20
205.2482126265808
 30
0.0000000000000000
 40
7.000000000000000
100
AcDbArc
 50
283.7693910149597
 51
286.6475145933193
  0
LINE
  5
CF
100
AcDbEntity
  8
MAIN0
  6
HIDDEN
 62
3
100
AcDbLine
 10
102.5037181342816
 20
183.8993816192796
 30
0.0000000000000000
 11
102.1417487008903
 21
182.9493816192805
 31
0.0000000000000000
  0
LINE
  5
D0
100
AcDbEntity
  8
MAIN0
  6
HIDDEN
 62
3
100
AcDbLine
 10
107.3917487008828
 20
180.4493816194084
 30
0.0000000000000000
 11
108.4417487008847
 21
181.0555994020545
 31
0.0000000000000000
  0
LINE
  5
D1
100
AcDbEntity
  8
MAIN0
  6
HIDDEN
 62
3
100
AcDbLine
 10
108.4417487008845
 20
181.0555994020825
 30
0.0000000000000000
 11
117.8417487008850
 21
181.0555994020541
 31
0.0000000000000000
  0
LINE
  5
D2
100
AcDbEntity
  8
MAIN0
  6
HIDDEN
 62
3
100
AcDbLine
 10
108.4417487008842
 20
181.0555994020825
 30
0.0000000000000000
 11
108.4417487009011
 21
186.1973612462703
 31
0.0000000000000000
  0
LINE
  5
D3
100
AcDbEntity
  8
MAIN0
  6
CONTINUOUS
 62
3
100
AcDbLine
 10
108.4487676653438
 20
136.6961480519566
 30
0.0000000000000000
 11
112.8849822679675
 21
141.1323626545535
 31
0.0000000000000000
  0
LINE
  5
D4
100
AcDbEntity
  8
MAIN0
  6
CONTINUOUS
 62
3
100
AcDbLine
 10
113.3985151336811
 20
131.7464005836823
 30
0.0000000000000000
 11
117.8347297362116
 21
136.1826151861860
 31
0.0000000000000000
  0
LINE
  5
D5
100
AcDbEntity
  8
MAIN0
  6
CONTINUOUS
 62
3
100
AcDbLine
 10
108.4487676653421
 20
136.1826151863027
 30
0.0000000000000000
 11
112.8849822679390
 21
131.7464005836791
 31
0.0000000000000000
  0
LINE
  5
D6
100
AcDbEntity
  8
MAIN0
  6
CONTINUOUS
 62
3
100
AcDbLine
 10
113.3985151337093
 20
141.1323626545469
 30
0.0000000000000000
 11
117.8347297362132
 21
136.6961480520163
 31
0.0000000000000000
  0
ARC
  5
D7
100
AcDbEntity
  8
MAIN0
  6
CONTINUOUS
 62
3
100
AcDbCircle
 10
113.1417487007801
 20
136.4393816191154
 30
0.0000000000000000
 40
4.700000000000000
100
AcDbArc
 50
176.8683062266588
 51
183.1316937729961
  0
ARC
  5
D8
100
AcDbEntity
  8
MAIN0
  6
CONTINUOUS
 62
3
100
AcDbCircle
 10
113.1417487007801
 20
136.4393816191154
 30
0.0000000000000000
 40
4.700000000000000
100
AcDbArc
 50
266.8683062266583
 51
273.1316937740741
  0
ARC
  5
D9
100
AcDbEntity
  8
MAIN0
  6
CONTINUOUS
 62
3
100
AcDbCircle
 10
113.1417487007801
 20
136.4393816191154
 30
0.0000000000000000
 40
4.700000000000000
100
AcDbArc
 50
356.8683062255803
 51
363.1316937740725
  0
ARC
  5
DA
100
AcDbEntity
  8
MAIN0
  6
CONTINUOUS
 62
3
100
AcDbCircle
 10
113.1417487007801
 20
136.4393816191154
 30
0.0000000000000000
 40
4.700000000000000
100
AcDbArc
 50
86.86830622558169
 51
93.13169377299541
  0
LINE
  5
DB
100
AcDbEntity
  8
MAIN0
  6
HIDDEN
 62
3
100
AcDbLine
 10
112.8849822680353
 20
181.0555994020691
 30
0.0000000000000000
 11
112.8849822680494
 21
186.1973612462569
 31
0.0000000000000000
  0
LINE
  5
DC
100
AcDbEntity
  8
MAIN0
  6
HIDDEN
 62
3
100
AcDbLine
 10
113.3985151338279
 20
181.0555994020675
 30
0.0000000000000000
 11
113.3985151338420
 21
186.1973612462553
 31
0.0000000000000000
  0
LINE
  5
DD
100
AcDbEntity
  8
MAIN0
  6
HIDDEN
 62
3
100
AcDbLine
 10
124.1417487009068
 20
188.3993816192141
 30
0.0000000000000000
 11
122.1417487009068
 21
188.3993816192217
 31
0.0000000000000000
  0
LINE
  5
DE
100
AcDbEntity
  8
MAIN0
  6
HIDDEN
 62
3
100
AcDbLine
 10
124.1417487008834
 20
180.6493816192141
 30
0.0000000000000000
 11
123.9417487008827
 21
180.4493816192148
 31
0.0000000000000000
  0
ARC
  5
DF
100
AcDbEntity
  8
MAIN0
  6
HIDDEN
 62
3
100
AcDbCircle
 10
122.1417487009000
 20
186.1493816192235
 30
0.0000000000000000
 40
2.249999999998211
100
AcDbArc
 50
90.00000000000000
 51
269.9999999998271
  0
LINE
  5
E0
100
AcDbEntity
  8
MAIN0
  6
HIDDEN
 62
3
100
AcDbLine
 10
124.1417487008932
 20
183.8993816192141
 30
0.0000000000000000
 11
122.1417487008914
 21
183.8993816192217
 31
0.0000000000000000
  0
LINE
  5
E1
100
AcDbEntity
  8
MAIN0
  6
HIDDEN
 62
3
100
AcDbLine
 10
123.7797792675048
 20
183.8993816192155
 30
0.0000000000000000
 11
124.1417487008904
 21
182.9493816192141
 31
0.0000000000000000
  0
LINE
  5
E2
100
AcDbEntity
  8
MAIN0
  6
HIDDEN
 62
3
100
AcDbLine
 10
118.8917487008828
 20
180.4493816193736
 30
0.0000000000000000
 11
117.8417487008846
 21
181.0555994020260
 31
0.0000000000000000
  0
LINE
  5
E3
100
AcDbEntity
  8
MAIN0
  6
HIDDEN
 62
3
100
AcDbLine
 10
117.8417487008850
 20
181.0555994020541
 30
0.0000000000000000
 11
117.8417487008991
 21
186.1973612462419
 31
0.0000000000000000
  0
LINE
  5
E4
100
AcDbEntity
  8
MAIN0
  6
HIDDEN
 62
3
100
AcDbLine
 10
110.6869326704167
 20
186.1973612462635
 30
0.0000000000000000
 11
112.8849822680353
 21
181.0555994020690
 31
0.0000000000000000
  0
LINE
  5
E5
100
AcDbEntity
  8
MAIN0
  6
HIDDEN
 62
3
100
AcDbLine
 10
113.3985151338279
 20
181.0555994020675
 30
0.0000000000000000
 11
115.5965647314310
 21
186.1973612462487
 31
0.0000000000000000
  0
LINE
  5
E6
100
AcDbEntity
  8
MAIN0
  6
HIDDEN
 62
3
100
AcDbLine
 10
115.6436991033047
 20
186.1973612462486
 30
0.0000000000000000
 11
117.8417487008846
 21
181.0555994020261
 31
0.0000000000000000
  0
LINE
  5
E7
100
AcDbEntity
  8
MAIN0
  6
HIDDEN
 62
3
100
AcDbLine
 10
108.4417487008846
 20
181.0555994020544
 30
0.0000000000000000
 11
110.6397982985394
 21
186.1973612462637
 31
0.0000000000000000
  0
LINE
  5
E8
100
AcDbEntity
  8
MAIN0
  6
CONTINUOUS
 62
3
100
AcDbLine
 10
107.1417487009627
 20
206.9393816192741
 30
0.0000000000000000
 11
108.2206071000613
 21
206.9393816192708
 31
0.0000000000000000
  0
LINE
  5
E9
100
AcDbEntity
  8
MAIN0
  6
CONTINUOUS
 62
3
100
AcDbLine
 10
107.1417487009612
 20
206.4393816192741
 30
0.0000000000000000
 11
108.0486772467015
 21
206.4393816192713
 31
0.0000000000000000
  0
LINE
  5
EA
100
AcDbEntity
  8
MAIN0
  6
CONTINUOUS
 62
3
100
AcDbLine
 10
104.6417487009506
 20
202.9393816192816
 30
0.0000000000000000
 11
106.7730639822305
 21
202.9393816192752
 31
0.0000000000000000
  0
LINE
  5
EB
100
AcDbEntity
  8
MAIN0
  6
CONTINUOUS
 62
3
100
AcDbLine
 10
101.1417487009144
 20
190.9393816192922
 30
0.0000000000000000
 11
102.1417487009144
 21
190.9393816192891
 31
0.0000000000000000
  0
LINE
  5
EC
100
AcDbEntity
  8
MAIN0
  6
CONTINUOUS
 62
3
100
AcDbLine
 10
100.4075042145937
 20
191.4393816192944
 30
0.0000000000000000
 11
102.6417487009318
 21
196.7029317782159
 31
0.0000000000000000
  0
LINE
  5
ED
100
AcDbEntity
  8
MAIN0
  6
CONTINUOUS
 62
3
100
AcDbLine
 10
105.2889646010412
 20
202.9393816192796
 30
0.0000000000000000
 11
107.1417487009638
 21
207.3042674244041
 31
0.0000000000000000
  0
LINE
  5
EE
100
AcDbEntity
  8
MAIN0
  6
HIDDEN
 62
3
100
AcDbLine
 10
102.1417487008828
 20
180.4493816193023
 30
0.0000000000000000
 11
102.1417487009068
 21
188.3993816192805
 31
0.0000000000000000
  0
LINE
  5
EF
100
AcDbEntity
  8
MAIN0
  6
HIDDEN
 62
3
100
AcDbLine
 10
100.6317487008655
 20
178.9393816192936
 30
0.0000000000000000
 11
102.1417487008829
 21
180.4493816193023
 31
0.0000000000000000
  0
LINE
  5
F0
100
AcDbEntity
  8
MAIN0
  6
HIDDEN
 62
3
100
AcDbLine
 10
124.1417487008829
 20
180.4493816192764
 30
0.0000000000000000
 11
125.6517487009327
 21
178.9393816192180
 31
0.0000000000000000
  0
LINE
  5
F1
100
AcDbEntity
  8
MAIN0
  6
HIDDEN
 62
3
100
AcDbLine
 10
124.1417487008830
 20
180.4493816192765
 30
0.0000000000000000
 11
102.1417487008829
 21
180.4493816193023
 31
0.0000000000000000
  0
LINE
  5
F2
100
AcDbEntity
  8
MAIN0
  6
CONTINUOUS
 62
3
100
AcDbLine
 10
97.14174870087820
 20
178.9393816193042
 30
0.0000000000000000
 11
100.6317487008662
 21
178.9393816192937
 31
0.0000000000000000
  0
LINE
  5
F3
100
AcDbEntity
  8
MAIN0
  6
CONTINUOUS
 62
3
100
AcDbLine
 10
125.6517487009321
 20
178.9393816192182
 30
0.0000000000000000
 11
140.1417487008782
 21
178.9393816191745
 31
0.0000000000000000
  0
ARC
  5
F4
100
AcDbEntity
  8
MAIN0
  6
CONTINUOUS
 62
3
100
AcDbCircle
 10
113.1417487007450
 20
127.8731564534170
 30
0.0000000000000000
 40
52.57622516583884
100
AcDbArc
 50
76.23499610530760
 51
103.7650038943465
  0
LINE
  5
F5
100
AcDbEntity
  8
MAIN0
  6
PHANTOM
 62
3
100
AcDbLine
 10
156.1417487009904
 20
216.1393816191261
 30
0.0000000000000000
 11
156.1417487010224
 21
226.7393816191262
 31
0.0000000000000000
  0
LINE
  5
F6
100
AcDbEntity
  8
MAIN0
  6
PHANTOM
 62
3
100
AcDbLine
 10
155.9417487010230
 20
226.9393816191268
 30
0.0000000000000000
 11
156.1417487010223
 21
226.7393816191262
 31
0.0000000000000000
  0
LINE
  5
F7
100
AcDbEntity
  8
MAIN0
  6
PHANTOM
 62
3
100
AcDbLine
 10
155.9417487009899
 20
215.9393816191268
 30
0.0000000000000000
 11
156.1417487009904
 21
216.1393816191262
 31
0.0000000000000000
  0
LINE
  5
F8
100
AcDbEntity
  8
MAIN0
  6
CENTER
 62
3
100
AcDbLine
 10
152.3417487009989
 20
218.9462371434124
 30
0.0000000000000000
 11
152.3417487010141
 21
223.9874029446905
 31
0.0000000000000000
  0
LINE
  5
F9
100
AcDbEntity
  8
MAIN0
  6
PHANTOM
 62
3
100
AcDbLine
 10
152.9417487010049
 20
220.9393816191358
 30
0.0000000000000000
 11
152.9417487010080
 21
221.9393816191358
 31
0.0000000000000000
  0
LINE
  5
FA
100
AcDbEntity
  8
MAIN0
  6
PHANTOM
 62
3
100
AcDbLine
 10
151.7417487010050
 20
220.9393816191395
 30
0.0000000000000000
 11
151.7417487010080
 21
221.9393816191395
 31
0.0000000000000000
  0
LINE
  5
FB
100
AcDbEntity
  8
MAIN0
  6
PHANTOM
 62
3
100
AcDbLine
 10
151.7417487010080
 20
221.9393816191394
 30
0.0000000000000000
 11
152.1520120414010
 21
223.1701716403470
 31
0.0000000000000000
  0
LINE
  5
FC
100
AcDbEntity
  8
MAIN0
  6
PHANTOM
 62
3
100
AcDbLine
 10
152.5314853606224
 20
223.1701716403459
 30
0.0000000000000000
 11
152.9417487010080
 21
221.9393816191358
 31
0.0000000000000000
  0
ARC
  5
FD
100
AcDbEntity
  8
MAIN0
  6
PHANTOM
 62
3
100
AcDbCircle
 10
152.3417487010115
 20
223.1069260871450
 30
0.0000000000000000
 40
0.2000000000000000
100
AcDbArc
 50
18.43494882217674
 51
161.5650511774782
  0
LINE
  5
FE
100
AcDbEntity
  8
MAIN0
  6
PHANTOM
 62
3
100
AcDbLine
 10
152.9417487010080
 20
221.9393816191358
 30
0.0000000000000000
 11
156.1417487010079
 21
221.9393816191262
 31
0.0000000000000000
  0
LINE
  5
FF
100
AcDbEntity
  8
MAIN0
  6
PHANTOM
 62
3
100
AcDbLine
 10
152.9417487010049
 20
220.9393816191358
 30
0.0000000000000000
 11
156.1417487010049
 21
220.9393816191262
 31
0.0000000000000000
  0
LINE
  5
100
100
AcDbEntity
  8
MAIN0
  6
PHANTOM
 62
3
100
AcDbLine
 10
151.7417487010050
 20
220.9393816191395
 30
0.0000000000000000
 11
152.1520120413906
 21
219.7085915979294
 31
0.0000000000000000
  0
LINE
  5
101
100
AcDbEntity
  8
MAIN0
  6
PHANTOM
 62
3
100
AcDbLine
 10
152.5314853606120
 20
219.7085915979282
 30
0.0000000000000000
 11
152.9417487010050
 21
220.9393816191358
 31
0.0000000000000000
  0
ARC
  5
102
100
AcDbEntity
  8
MAIN0
  6
PHANTOM
 62
3
100
AcDbCircle
 10
152.3417487010015
 20
219.7718371511303
 30
0.0000000000000000
 40
0.2000000000000000
100
AcDbArc
 50
198.4349488221760
 51
341.5650511774774
  0
LINE
  5
103
100
AcDbEntity
  8
MAIN0
  6
CENTER
 62
3
100
AcDbLine
 10
148.8417487009989
 20
218.9462371434230
 30
0.0000000000000000
 11
148.8417487010141
 21
223.9874029447010
 31
0.0000000000000000
  0
LINE
  5
104
100
AcDbEntity
  8
MAIN0
  6
PHANTOM
 62
3
100
AcDbLine
 10
149.4417487010049
 20
220.9393816191464
 30
0.0000000000000000
 11
149.4417487010080
 21
221.9393816191464
 31
0.0000000000000000
  0
LINE
  5
105
100
AcDbEntity
  8
MAIN0
  6
PHANTOM
 62
3
100
AcDbLine
 10
148.2417487010050
 20
220.9393816191500
 30
0.0000000000000000
 11
148.2417487010080
 21
221.9393816191500
 31
0.0000000000000000
  0
LINE
  5
106
100
AcDbEntity
  8
MAIN0
  6
PHANTOM
 62
3
100
AcDbLine
 10
148.2417487010081
 20
221.9393816191499
 30
0.0000000000000000
 11
148.6520120414010
 21
223.1701716403575
 31
0.0000000000000000
  0
LINE
  5
107
100
AcDbEntity
  8
MAIN0
  6
PHANTOM
 62
3
100
AcDbLine
 10
149.0314853606224
 20
223.1701716403565
 30
0.0000000000000000
 11
149.4417487010080
 21
221.9393816191465
 31
0.0000000000000000
  0
ARC
  5
108
100
AcDbEntity
  8
MAIN0
  6
PHANTOM
 62
3
100
AcDbCircle
 10
148.8417487010115
 20
223.1069260871555
 30
0.0000000000000000
 40
0.2000000000000000
100
AcDbArc
 50
18.43494882217674
 51
161.5650511774782
  0
LINE
  5
109
100
AcDbEntity
  8
MAIN0
  6
PHANTOM
 62
3
100
AcDbLine
 10
148.2417487010050
 20
220.9393816191500
 30
0.0000000000000000
 11
148.6520120413906
 21
219.7085915979400
 31
0.0000000000000000
  0
LINE
  5
10A
100
AcDbEntity
  8
MAIN0
  6
PHANTOM
 62
3
100
AcDbLine
 10
149.0314853606120
 20
219.7085915979388
 30
0.0000000000000000
 11
149.4417487010050
 21
220.9393816191463
 31
0.0000000000000000
  0
ARC
  5
10B
100
AcDbEntity
  8
MAIN0
  6
PHANTOM
 62
3
100
AcDbCircle
 10
148.8417487010015
 20
219.7718371511408
 30
0.0000000000000000
 40
0.2000000000000000
100
AcDbArc
 50
198.4349488221760
 51
341.5650511774774
  0
LINE
  5
10C
100
AcDbEntity
  8
MAIN0
  6
CENTER
 62
3
100
AcDbLine
 10
145.3417487009989
 20
218.9462371434335
 30
0.0000000000000000
 11
145.3417487010141
 21
223.9874029447116
 31
0.0000000000000000
  0
LINE
  5
10D
100
AcDbEntity
  8
MAIN0
  6
PHANTOM
 62
3
100
AcDbLine
 10
145.9417487010049
 20
220.9393816191569
 30
0.0000000000000000
 11
145.9417487010080
 21
221.9393816191569
 31
0.0000000000000000
  0
LINE
  5
10E
100
AcDbEntity
  8
MAIN0
  6
PHANTOM
 62
3
100
AcDbLine
 10
144.7417487010050
 20
220.9393816191606
 30
0.0000000000000000
 11
144.7417487010080
 21
221.9393816191606
 31
0.0000000000000000
  0
LINE
  5
10F
100
AcDbEntity
  8
MAIN0
  6
PHANTOM
 62
3
100
AcDbLine
 10
144.7417487010080
 20
221.9393816191605
 30
0.0000000000000000
 11
145.1520120414010
 21
223.1701716403681
 31
0.0000000000000000
  0
LINE
  5
110
100
AcDbEntity
  8
MAIN0
  6
PHANTOM
 62
3
100
AcDbLine
 10
145.5314853606224
 20
223.1701716403671
 30
0.0000000000000000
 11
145.9417487010080
 21
221.9393816191570
 31
0.0000000000000000
  0
ARC
  5
111
100
AcDbEntity
  8
MAIN0
  6
PHANTOM
 62
3
100
AcDbCircle
 10
145.3417487010115
 20
223.1069260871661
 30
0.0000000000000000
 40
0.2000000000000000
100
AcDbArc
 50
18.43494882217674
 51
161.5650511774782
  0
LINE
  5
112
100
AcDbEntity
  8
MAIN0
  6
PHANTOM
 62
3
100
AcDbLine
 10
144.7417487010050
 20
220.9393816191605
 30
0.0000000000000000
 11
145.1520120413905
 21
219.7085915979505
 31
0.0000000000000000
  0
LINE
  5
113
100
AcDbEntity
  8
MAIN0
  6
PHANTOM
 62
3
100
AcDbLine
 10
145.5314853606120
 20
219.7085915979493
 30
0.0000000000000000
 11
145.9417487010050
 21
220.9393816191569
 31
0.0000000000000000
  0
ARC
  5
114
100
AcDbEntity
  8
MAIN0
  6
PHANTOM
 62
3
100
AcDbCircle
 10
145.3417487010015
 20
219.7718371511514
 30
0.0000000000000000
 40
0.2000000000000000
100
AcDbArc
 50
198.4349488221760
 51
341.5650511774774
  0
LINE
  5
115
100
AcDbEntity
  8
MAIN0
  6
CENTER
 62
3
100
AcDbLine
 10
141.8417487009989
 20
218.9462371434441
 30
0.0000000000000000
 11
141.8417487010141
 21
223.9874029447222
 31
0.0000000000000000
  0
LINE
  5
116
100
AcDbEntity
  8
MAIN0
  6
PHANTOM
 62
3
100
AcDbLine
 10
142.4417487010049
 20
220.9393816191675
 30
0.0000000000000000
 11
142.4417487010080
 21
221.9393816191675
 31
0.0000000000000000
  0
LINE
  5
117
100
AcDbEntity
  8
MAIN0
  6
PHANTOM
 62
3
100
AcDbLine
 10
141.2417487010050
 20
220.9393816191711
 30
0.0000000000000000
 11
141.2417487010080
 21
221.9393816191711
 31
0.0000000000000000
  0
LINE
  5
118
100
AcDbEntity
  8
MAIN0
  6
PHANTOM
 62
3
100
AcDbLine
 10
141.2417487010080
 20
221.9393816191711
 30
0.0000000000000000
 11
141.6520120414010
 21
223.1701716403786
 31
0.0000000000000000
  0
LINE
  5
119
100
AcDbEntity
  8
MAIN0
  6
PHANTOM
 62
3
100
AcDbLine
 10
142.0314853606224
 20
223.1701716403776
 30
0.0000000000000000
 11
142.4417487010080
 21
221.9393816191675
 31
0.0000000000000000
  0
ARC
  5
11A
100
AcDbEntity
  8
MAIN0
  6
PHANTOM
 62
3
100
AcDbCircle
 10
141.8417487010115
 20
223.1069260871767
 30
0.0000000000000000
 40
0.2000000000000000
100
AcDbArc
 50
18.43494882217674
 51
161.5650511774782
  0
LINE
  5
11B
100
AcDbEntity
  8
MAIN0
  6
PHANTOM
 62
3
100
AcDbLine
 10
141.2417487010050
 20
220.9393816191711
 30
0.0000000000000000
 11
141.6520120413906
 21
219.7085915979610
 31
0.0000000000000000
  0
LINE
  5
11C
100
AcDbEntity
  8
MAIN0
  6
PHANTOM
 62
3
100
AcDbLine
 10
142.0314853606120
 20
219.7085915979599
 30
0.0000000000000000
 11
142.4417487010050
 21
220.9393816191675
 31
0.0000000000000000
  0
ARC
  5
11D
100
AcDbEntity
  8
MAIN0
  6
PHANTOM
 62
3
100
AcDbCircle
 10
141.8417487010015
 20
219.7718371511620
 30
0.0000000000000000
 40
0.2000000000000000
100
AcDbArc
 50
198.4349488221760
 51
341.5650511774774
  0
LINE
  5
11E
100
AcDbEntity
  8
MAIN0
  6
PHANTOM
 62
3
100
AcDbLine
 10
149.4417487010049
 20
220.9393816191464
 30
0.0000000000000000
 11
151.7417487010050
 21
220.9393816191395
 31
0.0000000000000000
  0
LINE
  5
11F
100
AcDbEntity
  8
MAIN0
  6
PHANTOM
 62
3
100
AcDbLine
 10
149.4417487010080
 20
221.9393816191464
 30
0.0000000000000000
 11
151.7417487010080
 21
221.9393816191395
 31
0.0000000000000000
  0
LINE
  5
120
100
AcDbEntity
  8
MAIN0
  6
PHANTOM
 62
3
100
AcDbLine
 10
145.9417487010080
 20
221.9393816191569
 30
0.0000000000000000
 11
148.2417487010079
 21
221.9393816191500
 31
0.0000000000000000
  0
LINE
  5
121
100
AcDbEntity
  8
MAIN0
  6
PHANTOM
 62
3
100
AcDbLine
 10
145.9417487010049
 20
220.9393816191569
 30
0.0000000000000000
 11
148.2417487010050
 21
220.9393816191500
 31
0.0000000000000000
  0
LINE
  5
122
100
AcDbEntity
  8
MAIN0
  6
PHANTOM
 62
3
100
AcDbLine
 10
142.4417487010049
 20
220.9393816191675
 30
0.0000000000000000
 11
144.7417487010049
 21
220.9393816191606
 31
0.0000000000000000
  0
LINE
  5
123
100
AcDbEntity
  8
MAIN0
  6
PHANTOM
 62
3
100
AcDbLine
 10
142.4417487010080
 20
221.9393816191675
 30
0.0000000000000000
 11
144.7417487010080
 21
221.9393816191606
 31
0.0000000000000000
  0
LINE
  5
124
100
AcDbEntity
  8
MAIN0
  6
PHANTOM
 62
3
100
AcDbLine
 10
141.1417487010079
 20
221.9393816191714
 30
0.0000000000000000
 11
141.2417487010080
 21
221.9393816191711
 31
0.0000000000000000
  0
LINE
  5
125
100
AcDbEntity
  8
MAIN0
  6
PHANTOM
 62
3
100
AcDbLine
 10
141.1417487010049
 20
220.9393816191714
 30
0.0000000000000000
 11
141.2417487010049
 21
220.9393816191711
 31
0.0000000000000000
  0
LINE
  5
126
100
AcDbEntity
  8
MAIN0
  6
CENTER
 62
3
100
AcDbLine
 10
91.30074741368661
 20
221.4393816193219
 30
0.0000000000000000
 11
161.3007474136866
 21
221.4393816191106
 31
0.0000000000000000
  0
LINE
  5
127
100
AcDbEntity
  8
MAIN0
  6
CONTINUOUS
 62
3
100
AcDbLine
 10
141.1417487008812
 20
179.9393816191714
 30
0.0000000000000000
 11
141.1417487011317
 21
262.9393816191714
 31
0.0000000000000000
  0
LINE
  5
128
100
AcDbEntity
  8
MAIN0
  6
CENTER
 62
3
100
AcDbLine
 10
113.1417487007615
 20
130.2702720409866
 30
0.0000000000000000
 11
113.1417487008020
 21
143.6756975404915
 31
0.0000000000000000
  0
LINE
  5
129
100
AcDbEntity
  8
MAIN0
  6
CENTER
 62
3
100
AcDbLine
 10
113.1417487008679
 20
175.5353013188924
 30
0.0000000000000000
 11
113.1417487009084
 21
188.9393816190621
 31
0.0000000000000000
  0
LINE
  5
12A
100
AcDbEntity
  8
MAIN0
  6
CENTER
 62
3
100
AcDbLine
 10
105.9393705245060
 20
136.4393816191400
 30
0.0000000000000000
 11
120.5161459558821
 21
136.4393816191046
 31
0.0000000000000000
  0
LINE
  5
12B
100
AcDbEntity
  8
MAIN0
  6
PHANTOM
 62
3
100
AcDbLine
 10
101.1417487010501
 20
235.4393816192898
 30
0.0000000000000000
 11
104.1417487010502
 21
235.4393816192831
 31
0.0000000000000000
  0
LINE
  5
12C
100
AcDbEntity
  8
MAIN0
  6
PHANTOM
 62
3
100
AcDbLine
 10
101.1417487010429
 20
233.4393816192898
 30
0.0000000000000000
 11
101.1417487010501
 21
235.4393816192898
 31
0.0000000000000000
  0
LINE
  5
12D
100
AcDbEntity
  8
MAIN0
  6
PHANTOM
 62
3
100
AcDbLine
 10
104.1417487010322
 20
230.4393816192831
 30
0.0000000000000000
 11
104.1417487010501
 21
235.4393816192831
 31
0.0000000000000000
  0
LINE
  5
12E
100
AcDbEntity
  8
MAIN0
  6
PHANTOM
 62
3
100
AcDbLine
 10
102.3917487010393
 20
232.4393816192870
 30
0.0000000000000000
 11
102.3917487010429
 21
233.4393816192870
 31
0.0000000000000000
  0
LINE
  5
12F
100
AcDbEntity
  8
MAIN0
  6
PHANTOM
 62
3
100
AcDbLine
 10
101.1417487010430
 20
233.4393816192898
 30
0.0000000000000000
 11
102.3917487010430
 21
233.4393816192870
 31
0.0000000000000000
  0
LINE
  5
130
100
AcDbEntity
  8
MAIN0
  6
PHANTOM
 62
3
100
AcDbLine
 10
104.1417487010475
 20
234.6893816192831
 30
0.0000000000000000
 11
110.2676378198857
 21
234.6893816192694
 31
0.0000000000000000
  0
LINE
  5
131
100
AcDbEntity
  8
MAIN0
  6
PHANTOM
 62
3
100
AcDbLine
 10
106.1417487010349
 20
231.1893816192786
 30
0.0000000000000000
 11
106.1417487010475
 21
234.6893816192786
 31
0.0000000000000000
  0
LINE
  5
132
100
AcDbEntity
  8
MAIN0
  6
PHANTOM
 62
3
100
AcDbLine
 10
106.1417487010463
 20
234.3643816192786
 30
0.0000000000000000
 11
110.1567058266081
 21
234.3643816192696
 31
0.0000000000000000
  0
LINE
  5
133
100
AcDbEntity
  8
MAIN0
  6
PHANTOM
 62
3
100
AcDbLine
 10
105.8167487010895
 20
234.6893816192794
 30
0.0000000000000000
 11
106.1417487010462
 21
234.3643816193207
 31
0.0000000000000000
  0
LINE
  5
134
100
AcDbEntity
  8
MAIN0
  6
PHANTOM
 62
3
100
AcDbLine
 10
101.1417487010390
 20
230.4393816192898
 30
0.0000000000000000
 11
104.1417487010391
 21
230.4393816192831
 31
0.0000000000000000
  0
LINE
  5
135
100
AcDbEntity
  8
MAIN0
  6
PHANTOM
 62
3
100
AcDbLine
 10
101.1417487010407
 20
232.4393816192898
 30
0.0000000000000000
 11
101.1417487010389
 21
230.4393816192898
 31
0.0000000000000000
  0
LINE
  5
136
100
AcDbEntity
  8
MAIN0
  6
PHANTOM
 62
3
100
AcDbLine
 10
101.1417487010407
 20
232.4393816192898
 30
0.0000000000000000
 11
102.3917487010407
 21
232.4393816192870
 31
0.0000000000000000
  0
LINE
  5
137
100
AcDbEntity
  8
MAIN0
  6
PHANTOM
 62
3
100
AcDbLine
 10
104.1417487010396
 20
231.1893816192831
 30
0.0000000000000000
 11
109.1282072286973
 21
231.1893816192719
 31
0.0000000000000000
  0
LINE
  5
138
100
AcDbEntity
  8
MAIN0
  6
PHANTOM
 62
3
100
AcDbLine
 10
106.1417487010399
 20
231.5143816192787
 30
0.0000000000000000
 11
109.2151986078936
 21
231.5143816192718
 31
0.0000000000000000
  0
LINE
  5
139
100
AcDbEntity
  8
MAIN0
  6
PHANTOM
 62
3
100
AcDbLine
 10
105.8167487010817
 20
231.1893816192794
 30
0.0000000000000000
 11
106.1417487010398
 21
231.5143816192366
 31
0.0000000000000000
  0
LINE
  5
13A
100
AcDbEntity
  8
MAIN0
  6
HIDDEN
 62
3
100
AcDbLine
 10
96.54174870082640
 20
189.2393816194407
 30
0.0000000000000000
 11
134.1417487008264
 21
189.2393816192137
 31
0.0000000000000000
  0
LINE
  5
13B
100
AcDbEntity
  8
MAIN0
  6
HIDDEN
 62
3
100
AcDbLine
 10
96.54174870078947
 20
182.6393816194407
 30
0.0000000000000000
 11
134.1417487007865
 21
182.6393816192137
 31
0.0000000000000000
  0
LINE
  5
13C
100
AcDbEntity
  8
MAIN0
  6
HIDDEN
 62
3
100
AcDbLine
 10
134.1417487008387
 20
191.4393816192137
 30
0.0000000000000000
 11
140.7417487008387
 21
191.4393816191738
 31
0.0000000000000000
  0
LINE
  5
13D
100
AcDbEntity
  8
MAIN0
  6
HIDDEN
 62
3
100
AcDbLine
 10
140.7417487008387
 20
191.4393816191738
 30
0.0000000000000000
 11
141.1417487008409
 21
191.8393816191714
 31
0.0000000000000000
  0
LINE
  5
13E
100
AcDbEntity
  8
MAIN0
  6
HIDDEN
 62
3
100
AcDbLine
 10
134.1417487008387
 20
191.4393816192137
 30
0.0000000000000000
 11
134.1417487007772
 21
180.4393816192137
 31
0.0000000000000000
  0
LINE
  5
13F
100
AcDbEntity
  8
MAIN0
  6
HIDDEN
 62
3
100
AcDbLine
 10
134.1417487007772
 20
180.4393816192137
 30
0.0000000000000000
 11
140.7417487007771
 21
180.4393816191738
 31
0.0000000000000000
  0
LINE
  5
140
100
AcDbEntity
  8
MAIN0
  6
HIDDEN
 62
3
100
AcDbLine
 10
140.7417487007771
 20
180.4393816191739
 30
0.0000000000000000
 11
141.1417487007749
 21
180.0393816191715
 31
0.0000000000000000
  0
LINE
  5
141
100
AcDbEntity
  8
MAIN0
  6
HIDDEN
 62
3
100
AcDbLine
 10
96.54174870082639
 20
189.2393816194407
 30
0.0000000000000000
 11
96.14174870082863
 21
189.6393816194431
 31
0.0000000000000000
  0
LINE
  5
142
100
AcDbEntity
  8
MAIN0
  6
HIDDEN
 62
3
100
AcDbLine
 10
96.54174870078947
 20
182.6393816194407
 30
0.0000000000000000
 11
96.14174870078725
 21
182.2393816194431
 31
0.0000000000000000
  0
DIMENSION
  5
14B
100
AcDbEntity
  8
MAIN0
  6
CONTINUOUS
 62
3
100
AcDbDimension
  2
*D0
 10
163.8007474136112
 20
228.9393816191031
 30
0.0000000000000000
 11
163.3007474136278
 21
234.4393816191046
 31
0.0000000000000000
 70
32
  3
MAIN001
100
AcDbAlignedDimension
 13
155.8417487010623
 23
239.9393816191271
 33
0.0000000000000000
 14
155.8417487010291
 24
228.9393816191271
 34
0.0000000000000000
 50
89.99999999982710
100
AcDbRotatedDimension
1001
ACAD
1000
DSTYLE
1002
{
1070
   173
1070
     1
1070
     6
1000
_OPEN
1070
     7
1000
_OPEN
1070
    41
1040
2.000000
1002
}
  0
DIMENSION
  5
154
100
AcDbEntity
  8
MAIN0
  6
CONTINUOUS
 62
3
100
AcDbDimension
  2
*D1
 10
163.8007474136444
 20
239.9393816191031
 30
0.0000000000000000
 11
163.3007474136595
 21
244.9393816191046
 31
0.0000000000000000
 70
32
  3
MAIN001
100
AcDbAlignedDimension
 13
149.8417487010925
 23
249.9393816191452
 33
0.0000000000000000
 14
155.8417487010623
 24
239.9393816191271
 34
0.0000000000000000
 50
89.99999999982722
100
AcDbRotatedDimension
1001
ACAD
1000
DSTYLE
1002
{
1070
   173
1070
     1
1070
     6
1000
_OPEN
1070
     7
1000
_OPEN
1070
    41
1040
2.000000
1002
}
  0
DIMENSION
  5
15D
100
AcDbEntity
  8
MAIN0
  6
CONTINUOUS
 62
3
100
AcDbDimension
  2
*D2
 10
163.8007474136745
 20
249.9393816191031
 30
0.0000000000000000
 11
163.3007474136957
 21
256.9393816191046
 31
0.0000000000000000
 70
32
  3
MAIN001
100
AcDbAlignedDimension
 13
143.3417487011348
 23
263.9393816191648
 33
0.0000000000000000
 14
149.8417487010925
 24
249.9393816191452
 34
0.0000000000000000
 50
89.99999999982704
100
AcDbRotatedDimension
1001
ACAD
1000
DSTYLE
1002
{
1070
   173
1070
     1
1070
     6
1000
_OPEN
1070
     7
1000
_OPEN
1070
    41
1040
2.000000
1002
}
  0
DIMENSION
  5
166
100
AcDbEntity
  8
MAIN0
  6
CONTINUOUS
 62
3
100
AcDbDimension
  2
*D3
 10
173.8007474136715
 20
228.9393816190729
 30
0.0000000000000000
 11
173.3007474137243
 21
246.4393816190744
 31
0.0000000000000000
 70
32
  3
MAIN001
100
AcDbAlignedDimension
 13
143.3417487011348
 23
263.9393816191648
 33
0.0000000000000000
 14
155.8417487010291
 24
228.9393816191271
 34
0.0000000000000000
 50
89.99999999982707
100
AcDbRotatedDimension
1001
ACAD
1000
DSTYLE
1002
{
1070
   173
1070
     1
1070
     6
1000
_OPEN
1070
     7
1000
_OPEN
1070
    41
1040
2.000000
1002
}
  0
DIMENSION
  5
16E
100
AcDbEntity
  8
MAIN0
  6
CONTINUOUS
 62
3
100
AcDbDimension
  2
*D4
 10
156.1417487010787
 20
245.3893816189946
 30
0.0000000000000000
 11
153.1417487010803
 21
245.8893816190037
 31
0.0000000000000000
 70
32
  3
MAIN001
100
AcDbAlignedDimension
 13
150.1417487010659
 23
241.1393816188812
 33
0.0000000000000000
 14
156.1417487010614
 24
239.6393816191261
 34
0.0000000000000000
 50
179.9999999998271
100
AcDbRotatedDimension
1001
ACAD
1000
DSTYLE
1002
{
1070
   173
1070
     1
1070
     6
1000
_OPEN
1070
     7
1000
_OPEN
1070
    41
1040
2.000000
1002
}
  0
DIMENSION
  5
176
100
AcDbEntity
  8
MAIN0
  6
CONTINUOUS
 62
3
100
AcDbDimension
  2
*D5
 10
144.1417487011121
 20
256.4393816190893
 30
0.0000000000000000
 11
147.1417487011136
 21
256.9393816190802
 31
0.0000000000000000
 70
32
  3
MAIN001
100
AcDbAlignedDimension
 13
150.1417487010916
 23
249.6393816191443
 33
0.0000000000000000
 14
144.1417487010961
 24
251.1393816188993
 34
0.0000000000000000
 50
179.9999999998274
100
AcDbRotatedDimension
1001
ACAD
1000
DSTYLE
1002
{
1070
   173
1070
     1
1070
     6
1000
_OPEN
1070
     7
1000
_OPEN
1070
    41
1040
2.000000
1002
}
  0
DIMENSION
  5
17F
100
AcDbEntity
  8
MAIN0
  6
CONTINUOUS
 62
3
100
AcDbDimension
  2
*D6
 10
173.8007474137108
 20
226.9393816190729
 30
0.0000000000000000
 11
173.3007474136942
 21
221.4393816190744
 31
0.0000000000000000
 70
32
  3
MAIN001
100
AcDbAlignedDimension
 13
155.9417487009899
 23
215.9393816191268
 33
0.0000000000000000
 14
155.9417487010230
 24
226.9393816191268
 34
0.0000000000000000
 50
89.99999999982708
100
AcDbRotatedDimension
1001
ACAD
1000
DSTYLE
1002
{
1070
   173
1070
     1
1070
     6
1000
_OPEN
1070
     7
1000
_OPEN
1070
    41
1040
2.000000
1002
}
  0
DIMENSION
  5
188
100
AcDbEntity
  8
MAIN0
  6
CONTINUOUS
 62
3
100
AcDbDimension
  2
*D7
 10
163.8007474136112
 20
178.9393816190996
 30
0.0000000000000000
 11
163.3007474136247
 21
183.4393816191176
 31
0.0000000000000000
 70
32
  3
MAIN001
100
AcDbAlignedDimension
 13
155.9417487009074
 23
187.9393816191563
 33
0.0000000000000000
 14
155.9417487008787
 24
178.9393816191234
 34
0.0000000000000000
 50
89.99999999982721
100
AcDbRotatedDimension
1001
ACAD
1000
DSTYLE
1002
{
1070
   173
1070
     1
1070
     6
1000
_OPEN
1070
     7
1000
_OPEN
1070
    41
1040
2.000000
1002
}
  0
DIMENSION
  5
191
100
AcDbEntity
  8
MAIN0
  6
CONTINUOUS
 62
3
100
AcDbDimension
  2
*D8
 10
163.8007474136383
 20
187.9393816191326
 30
0.0000000000000000
 11
163.3007474136534
 21
192.9393816191347
 31
0.0000000000000000
 70
32
  3
MAIN001
100
AcDbAlignedDimension
 13
149.9417487009392
 23
197.9393816191756
 33
0.0000000000000000
 14
155.9417487009074
 24
187.9393816191563
 34
0.0000000000000000
 50
89.99999999982722
100
AcDbRotatedDimension
1001
ACAD
1000
DSTYLE
1002
{
1070
   173
1070
     1
1070
     6
1000
_OPEN
1070
     7
1000
_OPEN
1070
    41
1040
2.000000
1002
}
  0
DIMENSION
  5
19A
100
AcDbEntity
  8
MAIN0
  6
CONTINUOUS
 62
3
100
AcDbDimension
  2
*D9
 10
163.8007474136685
 20
197.9393816191337
 30
0.0000000000000000
 11
163.3007474136927
 21
205.9393816191359
 31
0.0000000000000000
 70
32
  3
MAIN001
100
AcDbAlignedDimension
 13
143.4417487009908
 23
213.9393816191965
 33
0.0000000000000000
 14
149.9417487009392
 24
197.9393816191756
 34
0.0000000000000000
 50
89.99999999982708
100
AcDbRotatedDimension
1001
ACAD
1000
DSTYLE
1002
{
1070
   173
1070
     1
1070
     6
1000
_OPEN
1070
     7
1000
_OPEN
1070
    41
1040
2.000000
1002
}
  0
DIMENSION
  5
1A3
100
AcDbEntity
  8
MAIN0
  6
CONTINUOUS
 62
3
100
AcDbDimension
  2
*D10
 10
88.80074741368509
 20
213.4393816193294
 30
0.0000000000000000
 11
88.30074741370925
 21
221.4393816193309
 31
0.0000000000000000
 70
32
  1
\A1;\U+220516
  3
MAIN001
100
AcDbAlignedDimension
 13
100.6417487010306
 23
229.4393816192937
 33
0.0000000000000000
 14
100.6417487009823
 24
213.4393816192937
 34
0.0000000000000000
 50
89.99999999982698
100
AcDbRotatedDimension
1001
ACAD
1000
DSTYLE
1002
{
1070
   173
1070
     1
1070
     6
1000
_OPEN
1070
     7
1000
_OPEN
1070
    41
1040
2.000000
1002
}
  0
DIMENSION
  5
1AC
100
AcDbEntity
  8
MAIN0
  6
CONTINUOUS
 62
3
100
AcDbDimension
  2
*D11
 10
78.80074741381489
 20
251.4393816193596
 30
0.0000000000000000
 11
78.30074741370299
 21
214.3643814822704
 31
0.0000000000000000
 70
32
  1
\A1;\U+220560H6\H0.903226x;\S＋0.019^ 　0;
  3
MAIN001
100
AcDbAlignedDimension
 13
96.14174870091593
 23
191.4393816193073
 33
0.0000000000000000
 14
96.14174870109700
 24
251.4393816193073
 34
0.0000000000000000
 50
89.99999999982708
100
AcDbRotatedDimension
1001
ACAD
1000
DSTYLE
1002
{
1070
   173
1070
     1
1070
     6
1000
_OPEN
1070
     7
1000
_OPEN
1070
    41
1040
2.000000
1070
   272
1070
     3
1070
    47
1040
0.019000
1070
    48
1040
0.000000
1070
    71
1070
     1
1070
   340
1005
1AD
1002
}
  0
DIMENSION
  5
1B6
100
AcDbEntity
  8
MAIN0
  6
CONTINUOUS
 62
3
100
AcDbDimension
  2
*D12
 10
68.80074741383751
 20
263.9393816193897
 30
0.0000000000000000
 11
68.30074741370925
 21
221.4393816193913
 31
0.0000000000000000
 70
32
  1
\A1;\U+220585
  3
MAIN001
100
AcDbAlignedDimension
 13
97.14174870087818
 23
178.9393816193042
 33
0.0000000000000000
 14
97.14174870113473
 24
263.9393816193042
 34
0.0000000000000000
 50
89.99999999982708
100
AcDbRotatedDimension
1001
ACAD
1000
DSTYLE
1002
{
1070
   173
1070
     1
1070
     6
1000
_OPEN
1070
     7
1000
_OPEN
1070
    41
1040
2.000000
1002
}
  0
DIMENSION
  5
1BF
100
AcDbEntity
  8
MAIN0
  6
CONTINUOUS
 62
3
100
AcDbDimension
  2
*D13
 10
96.14174870115737
 20
271.4393816191134
 30
0.0000000000000000
 11
102.6417487011589
 21
271.9393816190938
 31
0.0000000000000000
 70
32
  3
MAIN001
100
AcDbAlignedDimension
 13
109.1417487011257
 23
260.9393816192680
 33
0.0000000000000000
 14
96.14174870113172
 24
262.9393816193072
 34
0.0000000000000000
 50
179.9999999998271
100
AcDbRotatedDimension
1001
ACAD
1000
DSTYLE
1002
{
1070
   173
1070
     1
1070
     6
1000
_OPEN
1070
     7
1000
_OPEN
1070
    41
1040
2.000000
1002
}
  0
DIMENSION
  5
1CA
100
AcDbEntity
  8
MAIN0
  6
CONTINUOUS
 62
3
100
AcDbDimension
  2
*D14
 10
118.4963743230932
 20
126.1350085284911
 30
0.0000000000000000
 11
125.5657338112747
 21
133.9114747978144
 31
0.0000000000000000
 70
161
  1
\A1;□7\H0.903226x;\S+0.15^ +0.05;
  3
MAIN001
100
AcDbAlignedDimension
 13
117.8347297362132
 23
136.6961480520163
 33
0.0000000000000000
 14
112.8849822679389
 24
131.7464005836791
 34
0.0000000000000000
 50
44.99999999982712
1001
ACAD
1000
DSTYLE
1002
{
1070
   173
1070
     1
1070
     6
1000
_OPEN
1070
     7
1000
_OPEN
1070
    41
1040
2.000000
1070
   287
1070
     0
1070
   272
1070
     2
1070
    47
1040
0.150000
1070
    48
1040
-0.050000
1070
    71
1070
     1
1070
   340
1005
1AD
1002
}
  0
DIMENSION
  5
1D3
100
AcDbEntity
  8
MAIN0
  6
CONTINUOUS
 62
3
100
AcDbDimension
  2
*D15
 10
96.14174870079521
 20
151.4393816191738
 30
0.0000000000000000
 11
118.6417487007967
 21
151.9393816191059
 31
0.0000000000000000
 70
32
  3
MAIN001
100
AcDbAlignedDimension
 13
141.1417487008812
 23
179.9393816191714
 33
0.0000000000000000
 14
96.14174870088121
 24
179.9393816193073
 34
0.0000000000000000
 50
179.9999999998271
100
AcDbRotatedDimension
1001
ACAD
1000
DSTYLE
1002
{
1070
   173
1070
     1
1070
     6
1000
_OPEN
1070
     7
1000
_OPEN
1070
    41
1040
2.000000
1002
}
  0
DIMENSION
  5
1DC
100
AcDbEntity
  8
MAIN0
  6
CONTINUOUS
 62
3
100
AcDbDimension
  2
*D16
 10
141.1417487008254
 20
161.4393816190380
 30
0.0000000000000000
 11
127.1417487008269
 21
161.9393816190802
 31
0.0000000000000000
 70
32
  3
MAIN001
100
AcDbAlignedDimension
 13
113.1417487008679
 23
175.5353013188924
 33
0.0000000000000000
 14
141.1417487008812
 24
179.9393816191714
 34
0.0000000000000000
 50
179.9999999998271
100
AcDbRotatedDimension
1001
ACAD
1000
DSTYLE
1002
{
1070
   173
1070
     1
1070
     6
1000
_OPEN
1070
     7
1000
_OPEN
1070
    41
1040
2.000000
1002
}
  0
DIMENSION
  5
1E5
100
AcDbEntity
  8
MAIN0
  6
CONTINUOUS
 62
3
100
AcDbDimension
  2
*D17
 10
113.1417487008254
 20
161.4393816191225
 30
0.0000000000000000
 11
104.6417487008269
 21
161.9393816191482
 31
0.0000000000000000
 70
32
  3
MAIN001
100
AcDbAlignedDimension
 13
96.14174870088121
 23
179.9393816193073
 33
0.0000000000000000
 14
113.1417487008679
 24
175.5353013188924
 34
0.0000000000000000
 50
179.9999999998271
100
AcDbRotatedDimension
1001
ACAD
1000
DSTYLE
1002
{
1070
   173
1070
     1
1070
     6
1000
_OPEN
1070
     7
1000
_OPEN
1070
    41
1040
2.000000
1002
}
  0
DIMENSION
  5
1ED
100
AcDbEntity
  8
MAIN0
  6
CONTINUOUS
 62
3
100
AcDbDimension
  2
*D18
 10
150.1417487009256
 20
193.4393816189961
 30
0.0000000000000000
 11
153.1417487009263
 21
193.9393816189871
 31
0.0000000000000000
 70
32
  3
MAIN001
100
AcDbAlignedDimension
 13
156.1417487009067
 23
187.7393816191557
 33
0.0000000000000000
 14
150.1417487009386
 24
197.7393816191750
 34
0.0000000000000000
 50
179.9999999998271
100
AcDbRotatedDimension
1001
ACAD
1000
DSTYLE
1002
{
1070
   173
1070
     1
1070
     6
1000
_OPEN
1070
     7
1000
_OPEN
1070
    41
1040
2.000000
1002
}
  0
DIMENSION
  5
1F5
100
AcDbEntity
  8
MAIN0
  6
CONTINUOUS
 62
3
100
AcDbDimension
  2
*D19
 10
144.1417487009549
 20
203.0393816190154
 30
0.0000000000000000
 11
147.1417487009562
 21
203.5393816190063
 31
0.0000000000000000
 70
32
  3
MAIN001
100
AcDbAlignedDimension
 13
150.1417487009386
 23
197.7393816191750
 33
0.0000000000000000
 14
144.1417487009682
 24
206.9393816191942
 34
0.0000000000000000
 50
179.9999999998271
100
AcDbRotatedDimension
1001
ACAD
1000
DSTYLE
1002
{
1070
   173
1070
     1
1070
     6
1000
_OPEN
1070
     7
1000
_OPEN
1070
    41
1040
2.000000
1002
}
  0
DIMENSION
  5
1FE
100
AcDbEntity
  8
MAIN0
  6
CONTINUOUS
 62
3
100
AcDbDimension
  2
*D20
 10
148.8007474137696
 20
191.4393816191252
 30
0.0000000000000000
 11
148.3007474137364
 21
185.9393816191283
 31
0.0000000000000000
 70
32
  1
\A1;\U+220511
  3
MAIN001
100
AcDbAlignedDimension
 13
140.7417487007771
 23
180.4393816191738
 33
0.0000000000000000
 14
140.7417487008387
 24
191.4393816191738
 34
0.0000000000000000
 50
89.99999999965415
100
AcDbRotatedDimension
1001
ACAD
1000
DSTYLE
1002
{
1070
   173
1070
     1
1070
     6
1000
_OPEN
1070
     7
1000
_OPEN
1070
    41
1040
2.000000
1002
}
  0
DIMENSION
  5
209
100
AcDbEntity
  8
MAIN0
  6
CONTINUOUS
 62
3
100
AcDbDimension
  2
*D21
 10
88.80074741369597
 20
189.2393816194874
 30
0.0000000000000000
 11
88.30074741367605
 21
185.9393816194904
 31
0.0000000000000000
 70
32
  1
\A1;\U+22056.6
  3
MAIN001
100
AcDbAlignedDimension
 13
96.54174870078947
 23
182.6393816194407
 33
0.0000000000000000
 14
96.54174870082640
 24
189.2393816194407
 34
0.0000000000000000
 50
89.99999999965432
100
AcDbRotatedDimension
1001
ACAD
1000
DSTYLE
1002
{
1070
   173
1070
     1
1070
     6
1000
_OPEN
1070
     7
1000
_OPEN
1070
    41
1040
2.000000
1070
   287
1070
     0
1002
}
  0
LINE
  5
20A
100
AcDbEntity
  8
MAIN0
  6
CENTER
 62
3
100
AcDbLine
 10
238.8007474136264
 20
173.9393816190629
 30
0.0000000000000000
 11
238.8007474137317
 21
268.9393816190601
 31
0.0000000000000000
  0
LINE
  5
20B
100
AcDbEntity
  8
MAIN0
  6
CONTINUOUS
 62
3
100
AcDbLine
 10
244.3007474137258
 20
263.5819966304650
 30
0.0000000000000000
 11
244.3007474136855
 21
227.2488566383652
 31
0.0000000000000000
  0
LINE
  5
20C
100
AcDbEntity
  8
MAIN0
  6
CONTINUOUS
 62
3
100
AcDbLine
 10
233.3007474137258
 20
263.5819966304772
 30
0.0000000000000000
 11
233.3007474136855
 21
227.2488566383773
 31
0.0000000000000000
  0
LINE
  5
20D
100
AcDbEntity
  8
MAIN0
  6
CENTER
 62
3
100
AcDbLine
 10
191.3007474136819
 20
221.4393816191128
 30
0.0000000000000000
 11
286.3007474136791
 21
221.4393816190074
 31
0.0000000000000000
  0
CIRCLE
  5
20E
100
AcDbEntity
  8
MAIN0
  6
CONTINUOUS
 62
3
100
AcDbCircle
 10
238.8007474136791
 20
221.4393816190601
 30
0.0000000000000000
 40
42.50000000000000
  0
ARC
  5
20F
100
AcDbEntity
  8
MAIN0
  6
CENTER
 62
3
100
AcDbCircle
 10
238.8007474136791
 20
221.4393816190601
 30
0.0000000000000000
 40
15.00000000000000
100
AcDbArc
 50
239.0679800930953
 51
300.9320199067775
  0
CIRCLE
  5
210
100
AcDbEntity
  8
MAIN0
  6
CONTINUOUS
 62
3
100
AcDbCircle
 10
238.8007474136624
 20
206.4393816190601
 30
0.0000000000000000
 40
4.500000000000000
  0
LINE
  5
211
100
AcDbEntity
  8
MAIN0
  6
CONTINUOUS
 62
3
100
AcDbLine
 10
244.0007474137251
 20
262.9393816189968
 30
0.0000000000000000
 11
233.6007474137251
 21
262.9393816190074
 31
0.0000000000000000
  0
LINE
  5
212
100
AcDbEntity
  8
MAIN0
  6
CONTINUOUS
 62
3
100
AcDbLine
 10
233.6007474137251
 20
262.9393816190074
 30
0.0000000000000000
 11
233.3007474137248
 21
262.6393816190077
 31
0.0000000000000000
  0
LINE
  5
213
100
AcDbEntity
  8
MAIN0
  6
CONTINUOUS
 62
3
100
AcDbLine
 10
244.0007474137251
 20
262.9393816189968
 30
0.0000000000000000
 11
244.3007474137247
 21
262.6393816189965
 31
0.0000000000000000
  0
ARC
  5
214
100
AcDbEntity
  8
MAIN0
  6
CONTINUOUS
 62
3
100
AcDbCircle
 10
238.8007474136585
 20
202.9393816190403
 30
0.0000000000000000
 40
25.00000000000000
100
AcDbArc
 50
89.14053107508148
 51
90.85946892479150
  0
ARC
  5
215
100
AcDbEntity
  8
MAIN0
  6
CONTINUOUS
 62
3
100
AcDbCircle
 10
238.8007474136585
 20
202.9393816190403
 30
0.0000000000000000
 40
35.99999999998045
100
AcDbArc
 50
81.21206267729576
 51
98.78793732257722
  0
ARC
  5
216
100
AcDbEntity
  8
MAIN0
  6
CONTINUOUS
 62
3
100
AcDbCircle
 10
238.8007474136585
 20
202.9393816190403
 30
0.0000000000000000
 40
46.00000000000035
100
AcDbArc
 50
83.13298928709830
 51
96.86701071277469
  0
LINE
  5
217
100
AcDbEntity
  8
MAIN0
  6
CONTINUOUS
 62
3
100
AcDbLine
 10
199.5541722318717
 20
205.1312138342126
 30
0.0000000000000000
 11
231.0195944643066
 21
223.2977838302276
 31
0.0000000000000000
  0
LINE
  5
218
100
AcDbEntity
  8
MAIN0
  6
CONTINUOUS
 62
3
100
AcDbLine
 10
205.0541722318611
 20
195.6049343925777
 30
0.0000000000000000
 11
236.5195944642960
 21
213.7715043885927
 31
0.0000000000000000
  0
LINE
  5
219
100
AcDbEntity
  8
MAIN0
  6
CONTINUOUS
 62
3
100
AcDbLine
 10
200.2606931566567
 20
205.1927137188107
 30
0.0000000000000000
 11
205.4606931566476
 21
196.1860495194473
 31
0.0000000000000000
  0
LINE
  5
21A
100
AcDbEntity
  8
MAIN0
  6
CONTINUOUS
 62
3
100
AcDbLine
 10
205.4606931566475
 20
196.1860495194473
 30
0.0000000000000000
 11
205.8705007777828
 21
196.0762418983115
 31
0.0000000000000000
  0
LINE
  5
21B
100
AcDbEntity
  8
MAIN0
  6
CONTINUOUS
 62
3
100
AcDbLine
 10
200.2606931566567
 20
205.1927137188108
 30
0.0000000000000000
 11
200.3705007777925
 21
205.6025213399460
 31
0.0000000000000000
  0
ARC
  5
21C
100
AcDbEntity
  8
MAIN0
  6
CONTINUOUS
 62
3
100
AcDbCircle
 10
254.8222173837186
 20
230.6893816190523
 30
0.0000000000000000
 40
35.99999999998045
100
AcDbArc
 50
201.2120626772957
 51
218.7879373225772
  0
ARC
  5
21D
100
AcDbEntity
  8
MAIN0
  6
CONTINUOUS
 62
3
100
AcDbCircle
 10
254.8222173837186
 20
230.6893816190523
 30
0.0000000000000000
 40
46.00000000000035
100
AcDbArc
 50
203.1329892870982
 51
216.8670107127746
  0
LINE
  5
21E
100
AcDbEntity
  8
MAIN0
  6
CONTINUOUS
 62
3
100
AcDbLine
 10
272.5473225954397
 20
195.6049343925028
 30
0.0000000000000000
 11
241.0819003630451
 21
213.7715043885876
 31
0.0000000000000000
  0
LINE
  5
21F
100
AcDbEntity
  8
MAIN0
  6
CONTINUOUS
 62
3
100
AcDbLine
 10
278.0473225954503
 20
205.1312138341255
 30
0.0000000000000000
 11
246.5819003630556
 21
223.2977838302103
 31
0.0000000000000000
  0
LINE
  5
220
100
AcDbEntity
  8
MAIN0
  6
CONTINUOUS
 62
3
100
AcDbLine
 10
272.1408016706553
 20
196.1860495193729
 30
0.0000000000000000
 11
277.3408016706645
 21
205.1927137187257
 31
0.0000000000000000
  0
LINE
  5
221
100
AcDbEntity
  8
MAIN0
  6
CONTINUOUS
 62
3
100
AcDbLine
 10
277.3408016706646
 20
205.1927137187257
 30
0.0000000000000000
 11
277.2309940495297
 21
205.6025213398612
 31
0.0000000000000000
  0
LINE
  5
222
100
AcDbEntity
  8
MAIN0
  6
CONTINUOUS
 62
3
100
AcDbLine
 10
272.1408016706553
 20
196.1860495193729
 30
0.0000000000000000
 11
271.7309940495200
 21
196.0762418982380
 31
0.0000000000000000
  0
ARC
  5
223
100
AcDbEntity
  8
MAIN0
  6
CONTINUOUS
 62
3
100
AcDbCircle
 10
222.7792774436600
 20
230.6893816190878
 30
0.0000000000000000
 40
35.99999999998045
100
AcDbArc
 50
321.2120626772958
 51
338.7879373225773
  0
ARC
  5
224
100
AcDbEntity
  8
MAIN0
  6
CONTINUOUS
 62
3
100
AcDbCircle
 10
222.7792774436600
 20
230.6893816190878
 30
0.0000000000000000
 40
46.00000000000035
100
AcDbArc
 50
323.1329892870983
 51
336.8670107127747
  0
ARC
  5
225
100
AcDbEntity
  8
MAIN0
  6
CONTINUOUS
 62
3
100
AcDbCircle
 10
238.8007474136791
 20
221.4393816190601
 30
0.0000000000000000
 40
8.000000000000000
100
AcDbArc
 50
342.2394024062259
 51
437.7605975936471
  0
ARC
  5
226
100
AcDbEntity
  8
MAIN0
  6
HIDDEN
 62
3
100
AcDbCircle
 10
238.8007474136791
 20
221.4393816190601
 30
0.0000000000000000
 40
8.000000000000000
100
AcDbArc
 50
317.7605975936471
 51
342.2394024062259
  0
ARC
  5
227
100
AcDbEntity
  8
MAIN0
  6
CONTINUOUS
 62
3
100
AcDbCircle
 10
238.8007474136791
 20
221.4393816190601
 30
0.0000000000000000
 40
8.000000000000000
100
AcDbArc
 50
222.2394024062259
 51
317.7605975936471
  0
ARC
  5
228
100
AcDbEntity
  8
MAIN0
  6
CONTINUOUS
 62
3
100
AcDbCircle
 10
238.8007474136791
 20
221.4393816190601
 30
0.0000000000000000
 40
8.000000000000000
100
AcDbArc
 50
102.2394024062258
 51
197.7605975936470
  0
ARC
  5
229
100
AcDbEntity
  8
MAIN0
  6
HIDDEN
 62
3
100
AcDbCircle
 10
238.8007474136791
 20
221.4393816190601
 30
0.0000000000000000
 40
8.000000000000000
100
AcDbArc
 50
197.7605975936470
 51
222.2394024062259
  0
LINE
  5
22A
100
AcDbEntity
  8
MAIN0
  6
CENTER
 62
3
100
AcDbLine
 10
199.8498953610143
 20
243.9276665368142
 30
0.0000000000000000
 11
277.0284857788961
 21
199.3685865832551
 31
0.0000000000000000
  0
CIRCLE
  5
22B
100
AcDbEntity
  8
MAIN0
  6
CONTINUOUS
 62
3
100
AcDbCircle
 10
238.8007474136624
 20
206.4393816190601
 30
0.0000000000000000
 40
5.500000000000000
  0
CIRCLE
  5
22C
100
AcDbEntity
  8
MAIN0
  6
CONTINUOUS
 62
3
100
AcDbCircle
 10
238.8007474136624
 20
206.4393816190601
 30
0.0000000000000000
 40
4.500000000000000
  0
CIRCLE
  5
22D
100
AcDbEntity
  8
MAIN0
  6
CONTINUOUS
 62
3
100
AcDbCircle
 10
238.8007474136624
 20
206.4393816190601
 30
0.0000000000000000
 40
1.732100000000000
  0
CIRCLE
  5
22E
100
AcDbEntity
  8
MAIN0
  6
HIDDEN
 62
3
100
AcDbCircle
 10
220.5507474134429
 20
189.8294543803722
 30
0.0000000000000000
 40
3.000000000000000
  0
CIRCLE
  5
22F
100
AcDbEntity
  8
MAIN0
  6
HIDDEN
 62
3
100
AcDbCircle
 10
220.5507474134429
 20
189.8294543803722
 30
0.0000000000000000
 40
2.500000000000000
  0
LINE
  5
230
100
AcDbEntity
  8
MAIN0
  6
CENTER
 62
3
100
AcDbLine
 10
218.0507474131541
 20
185.4993273616168
 30
0.0000000000000000
 11
223.0507474131582
 21
194.1595813994588
 31
0.0000000000000000
  0
ARC
  5
231
100
AcDbEntity
  8
MAIN0
  6
CENTER
 62
3
100
AcDbCircle
 10
238.8007474136791
 20
221.4393816190601
 30
0.0000000000000000
 40
36.50000000000000
100
AcDbArc
 50
232.1451132770445
 51
247.8548867231858
  0
LINE
  5
232
100
AcDbEntity
  8
MAIN0
  6
HIDDEN
 62
3
100
AcDbLine
 10
227.8007474133913
 20
192.9920618861887
 30
0.0000000000000000
 11
227.8007474133815
 21
180.3875850691493
 31
0.0000000000000000
  0
LINE
  5
233
100
AcDbEntity
  8
MAIN0
  6
CENTER
 62
3
100
AcDbLine
 10
248.3007474133898
 20
191.1973612460406
 30
0.0000000000000000
 11
248.3007474133820
 21
181.1973612460406
 31
0.0000000000000000
  0
LINE
  5
234
100
AcDbEntity
  8
MAIN0
  6
HIDDEN
 62
3
100
AcDbLine
 10
249.8007474133913
 20
192.9920618863261
 30
0.0000000000000000
 11
249.8007474133815
 21
180.3875850692392
 31
0.0000000000000000
  0
LINE
  5
235
100
AcDbEntity
  8
MAIN0
  6
HIDDEN
 62
3
100
AcDbLine
 10
248.9007474137864
 20
188.6242934647879
 30
0.0000000000000000
 11
248.9007474137826
 21
183.7704290249833
 31
0.0000000000000000
  0
LINE
  5
236
100
AcDbEntity
  8
MAIN0
  6
HIDDEN
 62
3
100
AcDbLine
 10
247.7007474137864
 20
188.6242934647889
 30
0.0000000000000000
 11
247.7007474137826
 21
183.7704290249843
 31
0.0000000000000000
  0
ARC
  5
237
100
AcDbEntity
  8
MAIN0
  6
CENTER
 62
3
100
AcDbCircle
 10
238.8007474136791
 20
221.4393816190601
 30
0.0000000000000000
 40
36.50000000000000
100
AcDbArc
 50
277.2314326020757
 51
292.9412060484444
  0
CIRCLE
  5
238
100
AcDbEntity
  8
MAIN0
  6
HIDDEN
 62
3
100
AcDbCircle
 10
248.3007474133860
 20
186.1973612460406
 30
0.0000000000000000
 40
2.500000000000000
  0
CIRCLE
  5
239
100
AcDbEntity
  8
MAIN0
  6
HIDDEN
 62
3
100
AcDbCircle
 10
248.3007474133860
 20
186.1973612460406
 30
0.0000000000000000
 40
3.000000000000000
  0
CIRCLE
  5
23A
100
AcDbEntity
  8
MAIN0
  6
HIDDEN
 62
3
100
AcDbCircle
 10
275.3007474136791
 20
221.4393816190195
 30
0.0000000000000000
 40
2.500000000000000
  0
CIRCLE
  5
23B
100
AcDbEntity
  8
MAIN0
  6
HIDDEN
 62
3
100
AcDbCircle
 10
275.3007474136791
 20
221.4393816190195
 30
0.0000000000000000
 40
3.000000000000000
  0
ARC
  5
23C
100
AcDbEntity
  8
MAIN0
  6
CENTER
 62
3
100
AcDbCircle
 10
238.8007474136791
 20
221.4393816190601
 30
0.0000000000000000
 40
36.50000000000000
100
AcDbArc
 50
349.3803447238449
 51
367.8548867230716
  0
LINE
  5
23D
100
AcDbEntity
  8
MAIN0
  6
HIDDEN
 62
3
100
AcDbLine
 10
268.9368489721350
 20
226.1367620441940
 30
0.0000000000000000
 11
279.8526460971081
 21
232.4390004527052
 31
0.0000000000000000
  0
LINE
  5
23E
100
AcDbEntity
  8
MAIN0
  6
HIDDEN
 62
3
100
AcDbLine
 10
257.9368489720160
 20
245.1893209273829
 30
0.0000000000000000
 11
268.8526460970301
 21
251.4915593359179
 31
0.0000000000000000
  0
LINE
  5
23F
100
AcDbEntity
  8
MAIN0
  6
HIDDEN
 62
3
100
AcDbLine
 10
262.7694473819166
 20
245.5545517896240
 30
0.0000000000000000
 11
266.9730172933152
 21
247.9814840095231
 31
0.0000000000000000
  0
LINE
  5
240
100
AcDbEntity
  8
MAIN0
  6
HIDDEN
 62
3
100
AcDbLine
 10
262.1694473819175
 20
246.5937822741659
 30
0.0000000000000000
 11
266.3730172933161
 21
249.0207144940649
 31
0.0000000000000000
  0
LINE
  5
241
100
AcDbEntity
  8
MAIN0
  6
CENTER
 62
3
100
AcDbLine
 10
260.2411053186921
 20
244.7876331418478
 30
0.0000000000000000
 11
268.9013593565404
 21
249.7876331418411
 31
0.0000000000000000
  0
ARC
  5
242
100
AcDbEntity
  8
MAIN0
  6
CENTER
 62
3
100
AcDbCircle
 10
238.8007474136791
 20
221.4393816190601
 30
0.0000000000000000
 40
36.50000000000000
100
AcDbArc
 50
37.23143260268889
 51
52.94120604895948
  0
CIRCLE
  5
243
100
AcDbEntity
  8
MAIN0
  6
HIDDEN
 62
3
100
AcDbCircle
 10
264.5712323376163
 20
247.2876331418445
 30
0.0000000000000000
 40
2.500000000000000
  0
CIRCLE
  5
244
100
AcDbEntity
  8
MAIN0
  6
HIDDEN
 62
3
100
AcDbCircle
 10
264.5712323376163
 20
247.2876331418445
 30
0.0000000000000000
 40
3.000000000000000
  0
LINE
  5
245
100
AcDbEntity
  8
MAIN0
  6
CENTER
 62
3
100
AcDbLine
 10
207.8603895084227
 20
228.3331504695221
 30
0.0000000000000000
 11
199.2001354705822
 21
233.3331504695288
 31
0.0000000000000000
  0
LINE
  5
246
100
AcDbEntity
  8
MAIN0
  6
HIDDEN
 62
3
100
AcDbLine
 10
208.6646458550975
 20
226.1367620437014
 30
0.0000000000000000
 11
197.7488487300931
 21
232.4390004522534
 31
0.0000000000000000
  0
LINE
  5
247
100
AcDbEntity
  8
MAIN0
  6
HIDDEN
 62
3
100
AcDbLine
 10
219.6646458549785
 20
245.1893209270278
 30
0.0000000000000000
 11
208.7488487300153
 21
251.4915593355560
 31
0.0000000000000000
  0
CIRCLE
  5
248
100
AcDbEntity
  8
MAIN0
  6
HIDDEN
 62
3
100
AcDbCircle
 10
220.5507474131147
 20
253.0493088575586
 30
0.0000000000000000
 40
3.000000000000000
  0
CIRCLE
  5
249
100
AcDbEntity
  8
MAIN0
  6
HIDDEN
 62
3
100
AcDbCircle
 10
220.5507474131147
 20
253.0493088575586
 30
0.0000000000000000
 40
2.500000000000000
  0
ARC
  5
24A
100
AcDbEntity
  8
MAIN0
  6
CENTER
 62
3
100
AcDbCircle
 10
238.8007474136791
 20
221.4393816190601
 30
0.0000000000000000
 40
36.50000000000000
100
AcDbArc
 50
112.7727711238248
 51
127.2851786777586
  0
LINE
  5
24B
100
AcDbEntity
  8
MAIN0
  6
CENTER
 62
3
100
AcDbLine
 10
218.1575567990288
 20
257.1944365934488
 30
0.0000000000000000
 11
223.0141874029378
 21
248.7825056339115
 31
0.0000000000000000
  0
CIRCLE
  5
24C
100
AcDbEntity
  8
MAIN0
  6
HIDDEN
 62
3
100
AcDbCircle
 10
203.5302624895024
 20
230.8331504695254
 30
0.0000000000000000
 40
2.500000000000000
  0
CIRCLE
  5
24D
100
AcDbEntity
  8
MAIN0
  6
HIDDEN
 62
3
100
AcDbCircle
 10
203.5302624895024
 20
230.8331504695254
 30
0.0000000000000000
 40
3.000000000000000
  0
ARC
  5
24E
100
AcDbEntity
  8
MAIN0
  6
CENTER
 62
3
100
AcDbCircle
 10
238.8007474136791
 20
221.4393816190601
 30
0.0000000000000000
 40
36.50000000000000
100
AcDbArc
 50
157.2314326028957
 51
173.6598082540901
  0
LINE
  5
24F
100
AcDbEntity
  8
MAIN0
  6
HIDDEN
 62
3
100
AcDbLine
 10
205.3320474446669
 20
229.1000691177644
 30
0.0000000000000000
 11
201.1284775332721
 21
231.5270013376700
 31
0.0000000000000000
  0
LINE
  5
250
100
AcDbEntity
  8
MAIN0
  6
HIDDEN
 62
3
100
AcDbLine
 10
205.9320474446677
 20
230.1392996023053
 30
0.0000000000000000
 11
201.7284775332729
 21
232.5662318222109
 31
0.0000000000000000
  0
LINE
  5
251
100
AcDbEntity
  8
MAIN0
  6
CENTER
 62
3
100
AcDbLine
 10
277.7515994663937
 20
243.9276665367279
 30
0.0000000000000000
 11
200.5730090484131
 21
199.3685865833398
 31
0.0000000000000000
  0
LINE
  5
252
100
AcDbEntity
  8
MAIN0
  6
CONTINUOUS
 62
3
100
AcDbLine
 10
238.4257474136777
 20
227.9365689608198
 30
0.0000000000000000
 11
233.3007474136920
 21
233.0615689608169
 31
0.0000000000000000
  0
LINE
  5
253
100
AcDbEntity
  8
MAIN0
  6
CONTINUOUS
 62
3
100
AcDbLine
 10
239.1757474136948
 20
227.9365689608190
 30
0.0000000000000000
 11
244.3007474136919
 21
233.0615689608048
 31
0.0000000000000000
  0
LINE
  5
254
100
AcDbEntity
  8
MAIN0
  6
CONTINUOUS
 62
3
100
AcDbLine
 10
233.3615181225692
 20
217.8660284217599
 30
0.0000000000000000
 11
231.4856379281693
 21
210.8651482273785
 31
0.0000000000000000
  0
ARC
  5
255
100
AcDbEntity
  8
MAIN0
  6
CONTINUOUS
 62
3
100
AcDbCircle
 10
254.8222173837186
 20
230.6893816190523
 30
0.0000000000000000
 40
25.00000000000000
100
AcDbArc
 50
209.1405310750815
 51
210.8594689247915
  0
LINE
  5
256
100
AcDbEntity
  8
MAIN0
  6
CONTINUOUS
 62
3
100
AcDbLine
 10
232.9865181225613
 20
218.5155474746135
 30
0.0000000000000000
 11
225.9856379281798
 21
220.3914276690134
 31
0.0000000000000000
  0
LINE
  5
257
100
AcDbEntity
  8
MAIN0
  6
CONTINUOUS
 62
3
100
AcDbLine
 10
244.6149767047904
 20
218.5155474746006
 30
0.0000000000000000
 11
251.6158568991760
 21
220.3914276689849
 31
0.0000000000000000
  0
ARC
  5
258
100
AcDbEntity
  8
MAIN0
  6
CONTINUOUS
 62
3
100
AcDbCircle
 10
222.7792774436600
 20
230.6893816190878
 30
0.0000000000000000
 40
25.00000000000000
100
AcDbArc
 50
329.1405310750814
 51
330.8594689247914
  0
LINE
  5
259
100
AcDbEntity
  8
MAIN0
  6
CONTINUOUS
 62
3
100
AcDbLine
 10
244.2399767047810
 20
217.8660284217479
 30
0.0000000000000000
 11
246.1158568991654
 21
210.8651482273623
 31
0.0000000000000000
  0
LINE
  5
25A
100
AcDbEntity
  8
MAIN0
  6
CONTINUOUS
 62
3
100
AcDbLine
 10
242.0007474137251
 20
262.9393816189988
 30
0.0000000000000000
 11
242.0007474137260
 21
263.8187398020211
 31
0.0000000000000000
  0
LINE
  5
25B
100
AcDbEntity
  8
MAIN0
  6
CONTINUOUS
 62
3
100
AcDbLine
 10
242.0007474136872
 20
228.7715027309859
 30
0.0000000000000000
 11
242.0007474136894
 21
230.7615689608074
 31
0.0000000000000000
  0
LINE
  5
25C
100
AcDbEntity
  8
MAIN0
  6
CONTINUOUS
 62
3
100
AcDbLine
 10
235.6007474136872
 20
228.7715027309930
 30
0.0000000000000000
 11
235.6007474136894
 21
230.7615689608144
 31
0.0000000000000000
  0
LINE
  5
25D
100
AcDbEntity
  8
MAIN0
  6
CONTINUOUS
 62
3
100
AcDbLine
 10
235.6007474137251
 20
262.9393816190059
 30
0.0000000000000000
 11
235.6007474137261
 21
263.8187398020282
 31
0.0000000000000000
  0
LINE
  5
25E
100
AcDbEntity
  8
MAIN0
  6
CONTINUOUS
 62
3
100
AcDbLine
 10
230.8509442670560
 20
220.5446023550992
 30
0.0000000000000000
 11
229.1274963568159
 21
219.5495692401906
 31
0.0000000000000000
  0
LINE
  5
25F
100
AcDbEntity
  8
MAIN0
  6
CONTINUOUS
 62
3
100
AcDbLine
 10
201.2606931565861
 20
203.4606629111285
 30
0.0000000000000000
 11
200.4991466310626
 21
203.0209838196184
 31
0.0000000000000000
  0
LINE
  5
260
100
AcDbEntity
  8
MAIN0
  6
CONTINUOUS
 62
3
100
AcDbLine
 10
234.0509442670512
 20
215.0020397708735
 30
0.0000000000000000
 11
232.3274963568115
 21
214.0070066559644
 31
0.0000000000000000
  0
LINE
  5
261
100
AcDbEntity
  8
MAIN0
  6
CONTINUOUS
 62
3
100
AcDbLine
 10
204.4606931565865
 20
197.9181003268939
 30
0.0000000000000000
 11
203.6991466310631
 21
197.4784212353835
 31
0.0000000000000000
  0
LINE
  5
262
100
AcDbEntity
  8
MAIN0
  6
CONTINUOUS
 62
3
100
AcDbLine
 10
243.5505505602926
 20
215.0020397708630
 30
0.0000000000000000
 11
245.2739984705302
 21
214.0070066559500
 31
0.0000000000000000
  0
LINE
  5
263
100
AcDbEntity
  8
MAIN0
  6
CONTINUOUS
 62
3
100
AcDbLine
 10
273.1408016707194
 20
197.9181003268178
 30
0.0000000000000000
 11
273.9023481962419
 21
197.4784212353056
 31
0.0000000000000000
  0
LINE
  5
264
100
AcDbEntity
  8
MAIN0
  6
CONTINUOUS
 62
3
100
AcDbLine
 10
246.7505505603002
 20
220.5446023550816
 30
0.0000000000000000
 11
248.4739984705381
 21
219.5495692401692
 31
0.0000000000000000
  0
LINE
  5
265
100
AcDbEntity
  8
MAIN0
  6
CONTINUOUS
 62
3
100
AcDbLine
 10
276.3408016707321
 20
203.4606629110453
 30
0.0000000000000000
 11
277.1023481962546
 21
203.0209838195334
 31
0.0000000000000000
  0
ARC
  5
266
100
AcDbEntity
  8
MAIN0
  6
CENTER
 62
3
100
AcDbCircle
 10
238.8007474136791
 20
221.4393816190601
 30
0.0000000000000000
 40
35.50000000000000
100
AcDbArc
 50
287.0607967792513
 51
312.9392032206218
  0
LINE
  5
267
100
AcDbEntity
  8
MAIN0
  6
CENTER
 62
3
100
AcDbLine
 10
260.5507474136373
 20
183.7672765544129
 30
0.0000000000000000
 11
252.5507474136527
 21
197.6236830149728
 31
0.0000000000000000
  0
CIRCLE
  5
268
100
AcDbEntity
  8
MAIN0
  6
CONTINUOUS
 62
3
100
AcDbCircle
 10
256.5507474136450
 20
190.6954797846929
 30
0.0000000000000000
 40
3.300000000000000
  0
CIRCLE
  5
269
100
AcDbEntity
  8
MAIN0
  6
CONTINUOUS
 62
3
100
AcDbCircle
 10
256.5507474136450
 20
190.6954797846929
 30
0.0000000000000000
 40
5.500000000000000
  0
CIRCLE
  5
26A
100
AcDbEntity
  8
MAIN0
  6
CONTINUOUS
 62
3
100
AcDbCircle
 10
256.5507474137131
 20
252.1832834533880
 30
0.0000000000000000
 40
5.500000000000000
  0
CIRCLE
  5
26B
100
AcDbEntity
  8
MAIN0
  6
CONTINUOUS
 62
3
100
AcDbCircle
 10
256.5507474137131
 20
252.1832834533880
 30
0.0000000000000000
 40
3.300000000000000
  0
LINE
  5
26C
100
AcDbEntity
  8
MAIN0
  6
CENTER
 62
3
100
AcDbLine
 10
260.5507474137208
 20
259.1114866836591
 30
0.0000000000000000
 11
252.5507474137054
 21
245.2550802231170
 31
0.0000000000000000
  0
ARC
  5
26D
100
AcDbEntity
  8
MAIN0
  6
CENTER
 62
3
100
AcDbCircle
 10
238.8007474136791
 20
221.4393816190601
 30
0.0000000000000000
 40
35.50000000000000
100
AcDbArc
 50
15.94539590092286
 51
72.93920322062182
  0
CIRCLE
  5
26E
100
AcDbEntity
  8
MAIN0
  6
CONTINUOUS
 62
3
100
AcDbCircle
 10
203.3007474136791
 20
221.4393816190995
 30
0.0000000000000000
 40
5.500000000000000
  0
CIRCLE
  5
26F
100
AcDbEntity
  8
MAIN0
  6
CONTINUOUS
 62
3
100
AcDbCircle
 10
203.3007474136791
 20
221.4393816190995
 30
0.0000000000000000
 40
3.300000000000000
  0
ARC
  5
270
100
AcDbEntity
  8
MAIN0
  6
CENTER
 62
3
100
AcDbCircle
 10
238.8007474136791
 20
221.4393816190601
 30
0.0000000000000000
 40
35.50000000000000
100
AcDbArc
 50
167.0607967792512
 51
199.6119792351120
  0
ARC
  5
271
100
AcDbEntity
  8
MAIN0
  6
CENTER
 62
3
100
AcDbCircle
 10
238.8007474136791
 20
221.4393816190601
 30
0.0000000000000000
 40
11.50000000000000
100
AcDbArc
 50
338.9565080680006
 51
381.0434919318724
  0
CIRCLE
  5
272
100
AcDbEntity
  8
MAIN0
  6
HIDDEN
 62
3
100
AcDbCircle
 10
250.3007474136790
 20
221.4393816190474
 30
0.0000000000000000
 40
1.900000000000000
  0
CIRCLE
  5
273
100
AcDbEntity
  8
MAIN0
  6
HIDDEN
 62
3
100
AcDbCircle
 10
250.3007474136790
 20
221.4393816190474
 30
0.0000000000000000
 40
2.700000000000000
  0
CIRCLE
  5
274
100
AcDbEntity
  8
MAIN0
  6
HIDDEN
 62
3
100
AcDbCircle
 10
233.0507474136902
 20
231.3986737625875
 30
0.0000000000000000
 40
2.700000000000000
  0
CIRCLE
  5
275
100
AcDbEntity
  8
MAIN0
  6
HIDDEN
 62
3
100
AcDbCircle
 10
233.0507474136902
 20
231.3986737625875
 30
0.0000000000000000
 40
1.900000000000000
  0
ARC
  5
276
100
AcDbEntity
  8
MAIN0
  6
CENTER
 62
3
100
AcDbCircle
 10
238.8007474136791
 20
221.4393816190601
 30
0.0000000000000000
 40
11.50000000000000
100
AcDbArc
 50
98.95650806800050
 51
141.0434919318722
  0
CIRCLE
  5
277
100
AcDbEntity
  8
MAIN0
  6
HIDDEN
 62
3
100
AcDbCircle
 10
233.0507474136680
 20
211.4800894755455
 30
0.0000000000000000
 40
2.700000000000000
  0
CIRCLE
  5
278
100
AcDbEntity
  8
MAIN0
  6
HIDDEN
 62
3
100
AcDbCircle
 10
233.0507474136680
 20
211.4800894755455
 30
0.0000000000000000
 40
1.900000000000000
  0
ARC
  5
279
100
AcDbEntity
  8
MAIN0
  6
CENTER
 62
3
100
AcDbCircle
 10
238.8007474136791
 20
221.4393816190601
 30
0.0000000000000000
 40
11.50000000000000
100
AcDbArc
 50
218.9565080680006
 51
261.0434919318723
  0
LINE
  5
27A
100
AcDbEntity
  8
MAIN0
  6
CENTER
 62
3
100
AcDbLine
 10
235.1507474136721
 20
215.1173961714378
 30
0.0000000000000000
 11
230.9507474136640
 21
207.8427827796532
 31
0.0000000000000000
  0
LINE
  5
27B
100
AcDbEntity
  8
MAIN0
  6
CENTER
 62
3
100
AcDbLine
 10
235.1507474136861
 20
227.7613670666905
 30
0.0000000000000000
 11
230.9507474136941
 21
235.0359804584845
 31
0.0000000000000000
  0
ARC
  5
27C
100
AcDbEntity
  8
MAIN0
  6
CENTER
 62
3
100
AcDbCircle
 10
238.8007474136791
 20
221.4393816190601
 30
0.0000000000000000
 40
20.75000000000000
100
AcDbArc
 50
117.4060494722762
 51
183.0847175033334
  0
CIRCLE
  5
27D
100
AcDbEntity
  8
MAIN0
  6
HIDDEN
 62
3
100
AcDbCircle
 10
238.8007474136791
 20
221.4393816190601
 30
0.0000000000000000
 40
14.50000000000000
  0
LINE
  5
27E
100
AcDbEntity
  8
MAIN0
  6
HIDDEN
 62
3
100
AcDbLine
 10
231.3904933759167
 20
228.6044451280973
 30
0.0000000000000000
 11
227.6814305366158
 21
230.7458735568128
 31
0.0000000000000000
  0
LINE
  5
27F
100
AcDbEntity
  8
MAIN0
  6
HIDDEN
 62
3
100
AcDbLine
 10
228.8904933757059
 20
224.2743181092968
 30
0.0000000000000000
 11
225.1814305367136
 21
226.4157465378341
 31
0.0000000000000000
  0
LINE
  5
280
100
AcDbEntity
  8
MAIN0
  6
HIDDEN
 62
3
100
AcDbLine
 10
228.8904933757773
 20
224.2743181092557
 30
0.0000000000000000
 11
231.3904933757847
 21
228.6044451281735
 31
0.0000000000000000
  0
LINE
  5
281
100
AcDbEntity
  8
MAIN0
  6
HIDDEN
 62
3
100
AcDbLine
 10
231.3904933759126
 20
225.7176937823866
 30
0.0000000000000000
 11
228.8904933757058
 21
224.2743181092969
 31
0.0000000000000000
  0
LINE
  5
282
100
AcDbEntity
  8
MAIN0
  6
HIDDEN
 62
3
100
AcDbLine
 10
231.3904933759127
 20
225.7176937823867
 30
0.0000000000000000
 11
231.3904933759168
 21
228.6044451280974
 31
0.0000000000000000
  0
LINE
  5
283
100
AcDbEntity
  8
MAIN0
  6
HIDDEN
 62
3
100
AcDbLine
 10
246.2110014513900
 20
225.7176937824828
 30
0.0000000000000000
 11
246.2110014513932
 21
228.6044451286678
 31
0.0000000000000000
  0
LINE
  5
284
100
AcDbEntity
  8
MAIN0
  6
HIDDEN
 62
3
100
AcDbLine
 10
246.2110014513218
 20
228.6044451286266
 30
0.0000000000000000
 11
248.7110014513143
 21
224.2743181097002
 31
0.0000000000000000
  0
LINE
  5
285
100
AcDbEntity
  8
MAIN0
  6
HIDDEN
 62
3
100
AcDbLine
 10
246.2110014513901
 20
225.7176937824828
 30
0.0000000000000000
 11
248.7110014511823
 21
224.2743181096239
 31
0.0000000000000000
  0
LINE
  5
286
100
AcDbEntity
  8
MAIN0
  6
HIDDEN
 62
3
100
AcDbLine
 10
248.7110014511824
 20
224.2743181096238
 30
0.0000000000000000
 11
252.4200642904663
 21
226.4157465383218
 31
0.0000000000000000
  0
LINE
  5
287
100
AcDbEntity
  8
MAIN0
  6
HIDDEN
 62
3
100
AcDbLine
 10
246.2110014513932
 20
228.6044451286678
 30
0.0000000000000000
 11
249.9200642904091
 21
230.7458735572110
 31
0.0000000000000000
  0
LINE
  5
288
100
AcDbEntity
  8
MAIN0
  6
HIDDEN
 62
3
100
AcDbLine
 10
236.3007474138042
 20
211.4393816194592
 30
0.0000000000000000
 11
236.3007474138008
 21
207.1565247620575
 31
0.0000000000000000
  0
LINE
  5
289
100
AcDbEntity
  8
MAIN0
  6
HIDDEN
 62
3
100
AcDbLine
 10
238.8007474136006
 20
212.8827572923109
 30
0.0000000000000000
 11
236.3007474138041
 21
211.4393816194591
 31
0.0000000000000000
  0
LINE
  5
28A
100
AcDbEntity
  8
MAIN0
  6
HIDDEN
 62
3
100
AcDbLine
 10
241.3007474138042
 20
211.4393816192982
 30
0.0000000000000000
 11
236.3007474138042
 21
211.4393816193069
 31
0.0000000000000000
  0
LINE
  5
28B
100
AcDbEntity
  8
MAIN0
  6
HIDDEN
 62
3
100
AcDbLine
 10
238.8007474136006
 20
212.8827572923109
 30
0.0000000000000000
 11
241.3007474138041
 21
211.4393816192157
 31
0.0000000000000000
  0
LINE
  5
28C
100
AcDbEntity
  8
MAIN0
  6
HIDDEN
 62
3
100
AcDbLine
 10
241.3007474138042
 20
211.4393816192157
 30
0.0000000000000000
 11
241.3007474138009
 21
207.1565247621236
 31
0.0000000000000000
  0
DIMENSION
  5
293
100
AcDbEntity
  8
MAIN0
  6
CONTINUOUS
 62
3
100
AcDbDimension
  2
*D22
 10
204.9733550023492
 20
210.6710241468222
 30
0.0000000000000000
 11
259.8144201866354
 21
228.6534387138686
 31
0.0000000000000000
 70
163
  3
MAIN001
100
AcDbDiametricDimension
 15
272.6281398250090
 25
232.2077390912980
 35
0.0000000000000000
1001
ACAD
1000
DSTYLE
1002
{
1070
   287
1070
     2
1070
   173
1070
     1
1070
     6
1000
_OPEN
1070
     7
1000
_OPEN
1070
    41
1040
2.000000
1070
   272
1070
     1
1070
    47
1040
0.200000
1070
    48
1040
0.200000
1070
    71
1070
     1
1002
}
  0
DIMENSION
  5
29A
100
AcDbEntity
  8
MAIN0
  6
CONTINUOUS
 62
3
100
AcDbDimension
  2
*D23
 10
274.8041256335523
 20
215.4388185824145
 30
0.0000000000000000
 11
268.1306620188386
 21
217.0579593957250
 31
0.0000000000000000
 70
163
  3
MAIN001
100
AcDbDiametricDimension
 15
202.7973691938058
 25
227.4399446557057
 35
0.0000000000000000
1001
ACAD
1000
DSTYLE
1002
{
1070
   287
1070
     2
1070
   173
1070
     1
1070
     6
1000
_OPEN
1070
     7
1000
_OPEN
1070
    41
1040
2.000000
1002
}
  0
LEADER
  5
29B
100
AcDbEntity
  8
MAIN0
  6
CONTINUOUS
 62
3
100
AcDbLeader
  3
MAIN001
 73
     0
 74
     0
 75
     1
 40
3.099999904632568
 41
33.50100002235172
 76
     3
 10
260.9442370777086
 20
255.4919461095627
 30
0.0000000000000000
 10
273.8007474136791
 20
266.4393816190602
 30
0.0000000000000000
 10
275.5857473610184
 20
266.4393816190602
 30
0.0000000000000000
340
29C
213
0.0000000000000000
223
-0.5000000000000000
233
0.0000000000000000
1001
ACAD
1000
DSTYLE
1002
{
1070
   147
1040
0.0
1070
    77
1070
     1
1070
   173
1070
     1
1070
     6
1000
_OPEN
1070
     7
1000
_OPEN
1002
}
  0
MTEXT
  5
29C
102
{ACAD_REACTORS
330
29B
102
}
100
AcDbEntity
  8
MAIN0
  6
CONTINUOUS
 62
3
100
AcDbMText
 10
275.5867473610184
 20
270.0393815236927
 30
0.0000000000000000
 40
3.099999904632568
 41
0.0000000000000000
 71
     1
 72
     1
  1
{\H0.71x;{3等配\P3 EQUALLY SPACED}}
 11
1.000000000000000
 21
0.0000000000000000
 31
0.0000000000000000
  7
KNJYOKO
  0
MTEXT
  5
29D
100
AcDbEntity
  8
MAIN0
  6
CONTINUOUS
 62
3
100
AcDbMText
 10
233.6112200640789
 20
244.1537591893604
 30
0.0000000000000000
 40
5.000000000000000
 41
0.0000000000000000
 71
     1
 72
     1
  1
{\H0.93x;{KITAGAWA}}
 11
-0.4999999999999635
 21
-0.8660254037844597
 31
0.0000000000000000
  7
STANDARD
  0
LINE
  5
29E
100
AcDbEntity
  8
MAIN0
  6
CONTINUOUS
 62
3
100
AcDbLine
 10
228.7458967021078
 20
247.0238693240888
 30
0.0000000000000000
 11
210.7389982283873
 21
215.8350062809385
 31
0.0000000000000000
  0
MTEXT
  5
29F
100
AcDbEntity
  8
MAIN0
  6
CONTINUOUS
 62
3
100
AcDbMText
 10
217.6470107481416
 20
241.0225179821510
 30
0.0000000000000000
 40
3.000000000000000
 41
0.0000000000000000
 71
     1
 72
     1
  1
{\H0.92x;{JAPAN}}
 11
-0.4999999999999635
 21
-0.8660254037844597
 31
0.0000000000000000
  7
STANDARD
  0
LINE
  5
2A0
100
AcDbEntity
  8
MAIN0
  6
PHANTOM
 62
3
100
AcDbLine
 10
207.5342208545113
 20
230.9983690422371
 30
0.0000000000000000
 11
214.8891581911236
 21
243.7374941957679
 31
0.0000000000000000
  0
LINE
  5
2A1
100
AcDbEntity
  8
MAIN0
  6
PHANTOM
 62
3
100
AcDbLine
 10
214.8891581911236
 20
243.7374941957679
 30
0.0000000000000000
 11
212.2910819797702
 21
245.2374941957678
 31
0.0000000000000000
  0
LINE
  5
2A2
100
AcDbEntity
  8
MAIN0
  6
PHANTOM
 62
3
100
AcDbLine
 10
204.9361446431615
 20
232.4983690422432
 30
0.0000000000000000
 11
212.2910819797702
 21
245.2374941957678
 31
0.0000000000000000
  0
LINE
  5
2A3
100
AcDbEntity
  8
MAIN0
  6
PHANTOM
 62
3
100
AcDbLine
 10
207.5342208544822
 20
230.9983690422539
 30
0.0000000000000000
 11
204.9361446431325
 21
232.4983690422600
 31
0.0000000000000000
  0
LINE
  5
2A4
100
AcDbEntity
  8
MAIN0
  6
CONTINUOUS
 62
3
100
AcDbLine
 10
342.3007474136791
 20
283.4393816190676
 30
0.0000000000000000
 11
355.3007474136791
 21
283.4393816190753
 31
0.0000000000000000
  0
LINE
  5
2A5
100
AcDbEntity
  8
MAIN0
  6
CONTINUOUS
 62
3
100
AcDbLine
 10
342.3007474136791
 20
283.4393816190676
 30
0.0000000000000000
 11
341.3007474136791
 21
282.4393816190670
 31
0.0000000000000000
  0
LINE
  5
2A6
100
AcDbEntity
  8
MAIN0
  6
CONTINUOUS
 62
3
100
AcDbLine
 10
355.3007474136791
 20
283.4393816190753
 30
0.0000000000000000
 11
356.3007474136791
 21
282.4393816190759
 31
0.0000000000000000
  0
LINE
  5
2A7
100
AcDbEntity
  8
MAIN0
  6
CONTINUOUS
 62
3
100
AcDbLine
 10
341.3007474136791
 20
282.4393816190648
 30
0.0000000000000000
 11
356.3007474136791
 21
282.4393816190590
 31
0.0000000000000000
  0
MTEXT
  5
2A8
100
AcDbEntity
  8
MAIN0
  6
CONTINUOUS
 62
3
100
AcDbMText
 10
233.7437867673834
 20
256.5674050698770
 30
0.0000000000000000
 40
4.000000000000000
 41
0.0000000000000000
 71
     1
 72
     1
  1
{\H0.90x;{MAX.2500/min}}
 11
-0.4999999999999635
 21
-0.8660254037844597
 31
0.0000000000000000
  7
STANDARD
  0
DIMENSION
  5
2B1
100
AcDbEntity
  8
MAIN0
  6
CONTINUOUS
 62
3
100
AcDbDimension
  2
*D24
 10
356.3007474136791
 20
288.9393816190601
 30
0.0000000000000000
 11
348.8007474136791
 21
289.4393816190601
 31
0.0000000000000000
 70
32
  1
\A1;\U+220515
  3
MAIN001
100
AcDbAlignedDimension
 13
341.3007474136791
 23
282.4393816190670
 33
0.0000000000000000
 14
356.3007474136791
 24
282.4393816190759
 34
0.0000000000000000
100
AcDbRotatedDimension
1001
ACAD
1000
DSTYLE
1002
{
1070
   173
1070
     1
1070
     6
1000
_OPEN
1070
     7
1000
_OPEN
1070
    41
1040
2.000000
1002
}
  0
LEADER
  5
2B2
100
AcDbEntity
  8
MAIN0
  6
CONTINUOUS
 62
3
100
AcDbLeader
  3
MAIN001
 73
     0
 75
     1
 40
3.099999904632568
 41
33.49900002235174
 76
     3
 10
102.1120817055318
 20
260.9393816192892
 30
0.0000000000000000
 10
88.80074741367906
 20
271.4393816190602
 30
0.0000000000000000
 10
87.01374746633977
 20
271.4393816190602
 30
0.0000000000000000
340
2B3
213
0.0000000000000000
223
-0.5000000000000000
233
0.0000000000000000
1001
ACAD
1000
DSTYLE
1002
{
1070
   147
1040
0.0
1070
    77
1070
     1
1070
   173
1070
     1
1070
     6
1000
_OPEN
1070
     7
1000
_OPEN
1002
}
  0
MTEXT
  5
2B3
102
{ACAD_REACTORS
330
2B2
102
}
100
AcDbEntity
  8
MAIN0
  6
CONTINUOUS
 62
3
100
AcDbMText
 10
53.51474744398803
 20
275.0393815236927
 30
0.0000000000000000
 40
3.099999904632568
 41
0.0000000000000000
 71
     1
 72
     1
  1
{\H0.71x;{3-M6 (等配)\P(EQUALLY SPACED)}}
 11
1.000000000000000
 21
0.0000000000000000
 31
0.0000000000000000
  7
KNJYOKO
  0
MTEXT
  5
2B4
100
AcDbEntity
  8
MAIN4
  6
CONTINUOUS
 62
3
100
AcDbMText
 10
221.9699933507994
 20
196.2842337688142
 30
0.0000000000000000
 40
4.000000000000000
 41
0.0000000000000000
 71
     1
 72
     1
  1
{\H0.93x;{SC-3-106}}
 11
1.000000000000000
 21
4.085620730620576e-014
 31
0.0000000000000000
  7
STANDARD
  0
DIMENSION
  5
2BC
100
AcDbEntity
  8
MAIN0
  6
CONTINUOUS
 62
3
100
AcDbDimension
  2
*D25
 10
333.8007474136791
 20
283.4393816190676
 30
0.0000000000000000
 11
333.3007474136791
 21
278.9393816190651
 31
0.0000000000000000
 70
160
  3
MAIN001
100
AcDbAlignedDimension
 13
320.2010437849831
 23
271.4393816190714
 33
0.0000000000000000
 14
342.3007474136791
 24
283.4393816190676
 34
0.0000000000000000
 50
90.00000000000000
100
AcDbRotatedDimension
1001
ACAD
1000
DSTYLE
1002
{
1070
   173
1070
     1
1070
     6
1000
_OPEN
1070
     7
1000
_OPEN
1070
    41
1040
2.000000
1002
}
  0
DIMENSION
  5
2C5
100
AcDbEntity
  8
MAIN0
  6
CONTINUOUS
 62
3
100
AcDbDimension
  2
*D26
 10
368.8007474136791
 20
218.4393816190618
 30
0.0000000000000000
 11
368.3007474136791
 21
250.9393816190647
 31
0.0000000000000000
 70
32
  3
MAIN001
100
AcDbAlignedDimension
 13
355.3007474136790
 23
283.4393816190753
 33
0.0000000000000000
 14
353.0007474136791
 24
218.4393816190585
 34
0.0000000000000000
 50
90.00000000000000
100
AcDbRotatedDimension
1001
ACAD
1000
DSTYLE
1002
{
1070
   173
1070
     1
1070
     6
1000
_OPEN
1070
     7
1000
_OPEN
1070
    41
1040
2.000000
1002
}
  0
DIMENSION
  5
2CE
100
AcDbEntity
  8
MAIN0
  6
CONTINUOUS
 62
3
100
AcDbDimension
  2
*D27
 10
238.8007474137317
 20
268.9393816190601
 30
0.0000000000000000
 11
251.8711091914104
 21
270.2186358466436
 31
0.0000000000000000
 70
162
  3
MAIN001
100
AcDb2LineAngularDimension
 13
260.5507474137208
 23
259.1114866836591
 33
0.0000000000000000
 14
260.0507474137198
 24
258.2454612798752
 34
0.0000000000000000
 15
238.8007474137306
 25
267.9393816190601
 35
0.0000000000000000
 16
251.7416996688586
 26
269.7356729334992
 36
0.0000000000000000
1001
ACAD
1000
DSTYLE
1002
{
1070
   173
1070
     1
1070
     6
1000
_OPEN
1070
     7
1000
_OPEN
1070
    41
1040
2.000000
1002
}
  0
DIMENSION
  5
2D7
100
AcDbEntity
  8
MAIN0
  6
CONTINUOUS
 62
3
100
AcDbDimension
  2
*D28
 10
141.1417487011932
 20
171.4393816190601
 30
0.0000000000000000
 11
137.6417487010160
 21
171.9393816190601
 31
0.0000000000000000
 70
32
  3
MAIN001
100
AcDbAlignedDimension
 13
134.1417487007772
 23
180.4393816192137
 33
0.0000000000000000
 14
141.1417487008812
 24
179.9393816191714
 34
0.0000000000000000
100
AcDbRotatedDimension
1001
ACAD
1000
DSTYLE
1002
{
1070
   173
1070
     1
1070
     6
1000
_OPEN
1070
     7
1000
_OPEN
1070
    41
1040
2.000000
1002
}
  0
SPLINE
  5
2D8
100
AcDbEntity
  8
MAIN0
  6
CONTINUOUS
 62
3
100
AcDbSpline
210
0.0000000000000000
220
0.0000000000000000
230
1.000000000000000
 70
     8
 71
     3
 72
    18
 73
    14
 74
     0
 42
1.000000000000000e-007
 43
1.000000000000000e-007
 12
-0.3743255782327566
 22
-0.9272669726481695
 32
0.0000000000000000
 13
0.1479245356332655
 23
-1.036495722266878
 33
0.0000000000000000
 40
0.0000000000000000
 40
0.0000000000000000
 40
0.0000000000000000
 40
0.0000000000000000
 40
3.979504088757789
 40
15.81950727140074
 40
25.04933827262663
 40
30.50564956938347
 40
34.18645139393263
 40
43.94194881510928
 40
56.44194881510928
 40
64.34764296553023
 40
74.65540702957438
 40
80.24557697332385
 40
87.74557697332385
 40
87.74557697332385
 40
87.74557697332385
 40
87.74557697332385
 10
118.8007474136791
 20
263.9393816190601
 30
0.0000000000000000
 10
118.3042040239778
 20
262.7093607160523
 30
0.0000000000000000
 10
116.3303219550697
 20
257.8197251772731
 30
0.0000000000000000
 10
113.8191498752879
 20
249.8285942831690
 30
0.0000000000000000
 10
112.1297933859845
 20
241.1409736389257
 30
0.0000000000000000
 10
110.5306517622700
 20
235.2341266222927
 30
0.0000000000000000
 10
108.2570475589645
 20
229.3105027398298
 30
0.0000000000000000
 10
108.7396513244558
 20
220.5149596317040
 30
0.0000000000000000
 10
110.0919838757510
 20
210.2422570322530
 30
0.0000000000000000
 10
105.4635839067396
 20
200.8320142693632
 30
0.0000000000000000
 10
105.1726755384278
 20
192.6468065659403
 30
0.0000000000000000
 10
100.2854836378327
 20
186.0532559748750
 30
0.0000000000000000
 10
100.9309360745959
 20
181.5306209247273
 30
0.0000000000000000
 10
101.3007474136791
 20
178.9393816190601
 30
0.0000000000000000
  0
LINE
  5
2D9
100
AcDbEntity
  8
MAIN0
  6
CONTINUOUS
 62
3
100
AcDbLine
 10
141.1417487010291
 20
228.9393816191714
 30
0.0000000000000000
 11
141.5417487011293
 21
228.9393816191702
 31
0.0000000000000000
  0
LINE
  5
2DA
100
AcDbEntity
  8
MAIN0
  6
CENTER
 62
3
100
AcDbLine
 10
93.80074741367605
 20
185.9393816194572
 30
0.0000000000000000
 11
143.8007474136911
 21
185.9393816191554
 31
0.0000000000000000
  0
ARC
  5
2DB
100
AcDbEntity
  8
MAIN0
  6
HIDDEN
 62
3
100
AcDbCircle
 10
238.8007474136791
 20
221.4393816190601
 30
0.0000000000000000
 40
8.000000000000000
100
AcDbArc
 50
77.76059759364706
 51
102.2394024062258
  0
LINE
  5
2DC
100
AcDbEntity
  8
MAIN0
  6
HIDDEN
 62
3
100
AcDbLine
 10
124.1417487008827
 20
180.4493816192765
 30
0.0000000000000000
 11
124.1417487009090
 21
189.1578775372806
 31
0.0000000000000000
  0
DIMENSION
  5
2E5
100
AcDbEntity
  8
MAIN0
  6
CONTINUOUS
 62
3
100
AcDbDimension
  2
*D29
 10
102.1417487008828
 20
171.4393816190742
 30
0.0000000000000000
 11
113.1417487008827
 21
171.9393816190742
 31
0.0000000000000000
 70
32
  1
\A1;\U+220522
  3
MAIN001
100
AcDbAlignedDimension
 13
124.1417487008827
 23
180.4493816192765
 33
0.0000000000000000
 14
102.1417487008828
 24
180.4493816193023
 34
0.0000000000000000
100
AcDbRotatedDimension
1001
ACAD
1000
DSTYLE
1002
{
1070
   173
1070
     1
1070
     6
1000
_OPEN
1070
     7
1000
_OPEN
1070
    41
1040
2.000000
1002
}
  0
LINE
  5
2E6
100
AcDbEntity
  8
MAIN0
  6
HIDDEN
 62
3
100
AcDbLine
 10
108.7787028102408
 20
229.4393816192746
 30
0.0000000000000000
 11
141.1417487010306
 21
229.4393816192735
 31
0.0000000000000000
  0
LINE
  5
2E7
100
AcDbEntity
  8
MAIN0
  6
HIDDEN
 62
3
100
AcDbLine
 10
109.3103935119113
 20
213.4393816192604
 30
0.0000000000000000
 11
141.1417487009823
 21
213.4393816190694
 31
0.0000000000000000
  0
LINE
  5
2E8
100
AcDbEntity
  8
MAIN0
  6
CONTINUOUS
 62
3
100
AcDbLine
 10
344.6007474136791
 20
218.4393816190618
 30
0.0000000000000000
 11
353.0007474136791
 21
218.4393816190585
 31
0.0000000000000000
  0
ARC
  5
2E9
100
AcDbEntity
  8
MAIN0
  6
CONTINUOUS
 62
3
100
AcDbCircle
 10
312.8007474136791
 20
271.4393816190758
 30
0.0000000000000000
 40
4.000000000001551
100
AcDbArc
 50
90.00000000000000
 51
270.0000000000000
  0
ARC
  5
2EA
100
AcDbEntity
  8
MAIN0
  6
CONTINUOUS
 62
3
100
AcDbCircle
 10
384.8007474136791
 20
271.4393816190445
 30
0.0000000000000000
 40
4.000000000001565
100
AcDbArc
 50
270.0000000000000
 51
450.0000000000000
  0
ARC
  5
2EB
100
AcDbEntity
  8
MAIN0
  6
CONTINUOUS
 62
3
100
AcDbCircle
 10
365.4658988035908
 20
271.4393816190571
 30
0.0000000000000000
 40
10.00000000000000
100
AcDbArc
 50
156.4218215217992
 51
203.5781784782008
  0
ARC
  5
2EC
100
AcDbEntity
  8
MAIN0
  6
CONTINUOUS
 62
3
100
AcDbCircle
 10
332.1355960237674
 20
271.4393816190631
 30
0.0000000000000000
 40
10.00000000000000
100
AcDbArc
 50
336.4218215218040
 51
383.5781784781957
  0
LINE
  5
2ED
100
AcDbEntity
  8
MAIN0
  6
CONTINUOUS
 62
3
100
AcDbLine
 10
356.3007474136791
 20
243.4393816190572
 30
0.0000000000000000
 11
356.3007474136791
 21
267.4393816190571
 31
0.0000000000000000
  0
LINE
  5
2EE
100
AcDbEntity
  8
MAIN0
  6
CONTINUOUS
 62
3
100
AcDbLine
 10
356.3007474136791
 20
275.4393816190571
 30
0.0000000000000000
 11
356.3007474136791
 21
282.4393816190759
 31
0.0000000000000000
  0
LINE
  5
2EF
100
AcDbEntity
  8
MAIN0
  6
CONTINUOUS
 62
3
100
AcDbLine
 10
341.3007474136791
 20
243.4393816190630
 30
0.0000000000000000
 11
341.3007474136791
 21
267.4393816190631
 31
0.0000000000000000
  0
LINE
  5
2F0
100
AcDbEntity
  8
MAIN0
  6
CONTINUOUS
 62
3
100
AcDbLine
 10
341.3007474136791
 20
275.4393816190631
 30
0.0000000000000000
 11
341.3007474136791
 21
282.4393816190670
 31
0.0000000000000000
  0
LINE
  5
2F1
100
AcDbEntity
  8
MAIN0
  6
CONTINUOUS
 62
3
100
AcDbLine
 10
344.1007474136791
 20
218.9393816190620
 30
0.0000000000000000
 11
344.1007474136791
 21
230.4393816190618
 31
0.0000000000000000
  0
LINE
  5
2F2
100
AcDbEntity
  8
MAIN0
  6
CONTINUOUS
 62
3
100
AcDbLine
 10
353.5007474136791
 20
218.9393816190583
 30
0.0000000000000000
 11
353.5007474136791
 21
230.4393816190618
 31
0.0000000000000000
  0
LINE
  5
2F3
100
AcDbEntity
  8
MAIN0
  6
CONTINUOUS
 62
3
100
AcDbLine
 10
344.1007474136791
 20
218.9393816190620
 30
0.0000000000000000
 11
344.6007474136791
 21
218.4393816190618
 31
0.0000000000000000
  0
LINE
  5
2F4
100
AcDbEntity
  8
MAIN0
  6
CONTINUOUS
 62
3
100
AcDbLine
 10
353.0007474136791
 20
218.4393816190585
 30
0.0000000000000000
 11
353.5007474136791
 21
218.9393816190582
 31
0.0000000000000000
  0
LINE
  5
2F5
100
AcDbEntity
  8
MAIN0
  6
CONTINUOUS
 62
3
100
AcDbLine
 10
344.1007474136790
 20
218.9393816190620
 30
0.0000000000000000
 11
353.5007474136790
 21
218.9393816190583
 31
0.0000000000000000
  0
LINE
  5
2F6
100
AcDbEntity
  8
MAIN0
  6
CONTINUOUS
 62
3
100
AcDbLine
 10
341.3007474136790
 20
243.4393816190631
 30
0.0000000000000000
 11
356.3007474136790
 21
243.4393816190572
 31
0.0000000000000000
  0
ARC
  5
2F7
100
AcDbEntity
  8
MAIN0
  6
CONTINUOUS
 62
3
100
AcDbCircle
 10
304.1414966142643
 20
228.6343122161122
 30
0.0000000000000000
 40
40.00000000000000
100
AcDbArc
 50
2.586449820615914
 51
21.72343357382672
  0
ARC
  5
2F8
100
AcDbEntity
  8
MAIN0
  6
CONTINUOUS
 62
3
100
AcDbCircle
 10
393.4599982130940
 20
228.6343122161122
 30
0.0000000000000000
 40
40.00000000000000
100
AcDbArc
 50
158.2765664261733
 51
177.4135501793841
  0
LINE
  5
2F9
100
AcDbEntity
  8
MAIN0
  6
CENTER
 62
3
100
AcDbLine
 10
342.1816241447828
 20
199.6996620775892
 30
0.0000000000000000
 11
354.9497165927427
 21
199.6996620775892
 31
0.0000000000000000
  0
LINE
  5
2FA
100
AcDbEntity
  8
MAIN0
  6
CONTINUOUS
 62
3
100
AcDbLine
 10
344.1077663782547
 20
199.9564285106500
 30
0.0000000000000000
 11
348.5439809806085
 21
204.3926431130131
 31
0.0000000000000000
  0
LINE
  5
2FB
100
AcDbEntity
  8
MAIN0
  6
CONTINUOUS
 62
3
100
AcDbLine
 10
349.0575138463606
 20
195.0066810421440
 30
0.0000000000000000
 11
353.4937284491248
 21
199.4428956449175
 31
0.0000000000000000
  0
LINE
  5
2FC
100
AcDbEntity
  8
MAIN0
  6
CONTINUOUS
 62
3
100
AcDbLine
 10
349.0575138463559
 20
204.3926431130346
 30
0.0000000000000000
 11
353.4937284491243
 21
199.9564285102694
 31
0.0000000000000000
  0
LINE
  5
2FD
100
AcDbEntity
  8
MAIN0
  6
CONTINUOUS
 62
3
100
AcDbLine
 10
344.1077663782550
 20
199.4428956445235
 30
0.0000000000000000
 11
348.5439809806169
 21
195.0066810421649
 31
0.0000000000000000
  0
ARC
  5
2FE
100
AcDbEntity
  8
MAIN0
  6
CONTINUOUS
 62
3
100
AcDbCircle
 10
348.8007474136791
 20
199.6996620775892
 30
0.0000000000000000
 40
4.700000000000000
100
AcDbArc
 50
176.8683062239763
 51
183.1316937760834
  0
ARC
  5
2FF
100
AcDbEntity
  8
MAIN0
  6
CONTINUOUS
 62
3
100
AcDbCircle
 10
348.8007474136791
 20
199.6996620775892
 30
0.0000000000000000
 40
4.700000000000000
100
AcDbArc
 50
356.8683062287272
 51
363.1316937713772
  0
LINE
  5
300
100
AcDbEntity
  8
MAIN0
  6
CENTER
 62
3
100
AcDbLine
 10
348.8007474136791
 20
193.1546156392556
 30
0.0000000000000000
 11
348.8007474136791
 21
207.6577967642141
 31
0.0000000000000000
  0
SPLINE
  5
301
100
AcDbEntity
  8
MAIN0
  6
CONTINUOUS
 62
3
100
AcDbSpline
210
0.0000000000000000
220
0.0000000000000000
230
1.000000000000000
 70
     8
 71
     3
 72
    11
 73
     7
 74
     0
 42
1.000000000000000e-007
 43
1.000000000000000e-007
 12
-0.6708203932499828
 22
-0.8944271909998065
 32
0.0000000000000000
 13
-0.6708203932499828
 23
-0.8944271909998633
 33
0.0000000000000000
 40
0.0000000000000000
 40
0.0000000000000000
 40
0.0000000000000000
 40
0.0000000000000000
 40
2.236067977499434
 40
4.472135954999580
 40
6.708203932499712
 40
8.944271909999145
 40
8.944271909999145
 40
8.944271909999145
 40
8.944271909999145
 10
325.8007474136791
 20
275.4393816190691
 30
0.0000000000000000
 10
325.3007474136791
 20
274.7727149524026
 30
0.0000000000000000
 10
324.3007474136791
 20
273.4393816190694
 30
0.0000000000000000
 10
325.8007474136791
 20
271.4393816190691
 30
0.0000000000000000
 10
327.3007474136791
 20
269.4393816190689
 30
0.0000000000000000
 10
326.3007474136790
 20
268.1060482857357
 30
0.0000000000000000
 10
325.8007474136791
 20
267.4393816190691
 30
0.0000000000000000
  0
SPLINE
  5
302
100
AcDbEntity
  8
MAIN0
  6
CONTINUOUS
 62
3
100
AcDbSpline
210
0.0000000000000000
220
0.0000000000000000
230
1.000000000000000
 70
     8
 71
     3
 72
     9
 73
     5
 74
     0
 42
1.000000000000000e-007
 43
1.000000000000000e-007
 12
-0.2236067977500227
 22
-0.2981423970000634
 32
0.0000000000000000
 13
0.6708203932498691
 23
-0.8944271909998633
 33
0.0000000000000000
 40
0.0000000000000000
 40
0.0000000000000000
 40
0.0000000000000000
 40
0.0000000000000000
 40
6.708203932499712
 40
8.944271909999145
 40
8.944271909999145
 40
8.944271909999145
 40
8.944271909999145
 10
325.8007474136791
 20
271.4393816190691
 30
0.0000000000000000
 10
325.3007474136790
 20
270.7727149524023
 30
0.0000000000000000
 10
324.3007474136791
 20
269.4393816190689
 30
0.0000000000000000
 10
325.3007474136792
 20
268.1060482857357
 30
0.0000000000000000
 10
325.8007474136791
 20
267.4393816190691
 30
0.0000000000000000
  0
SPLINE
  5
303
100
AcDbEntity
  8
MAIN0
  6
CONTINUOUS
 62
3
100
AcDbSpline
210
0.0000000000000000
220
0.0000000000000000
230
1.000000000000000
 70
     8
 71
     3
 72
    11
 73
     7
 74
     0
 42
1.000000000000000e-007
 43
1.000000000000000e-007
 12
0.6708203932499828
 22
0.8944271909998633
 32
0.0000000000000000
 13
0.6708203932499259
 23
0.8944271909998633
 33
0.0000000000000000
 40
0.0000000000000000
 40
0.0000000000000000
 40
0.0000000000000000
 40
0.0000000000000000
 40
2.236067977499434
 40
4.472135954999580
 40
6.708203932499712
 40
8.944271909999145
 40
8.944271909999145
 40
8.944271909999145
 40
8.944271909999145
 10
322.8007474136791
 20
267.4393816190703
 30
0.0000000000000000
 10
323.3007474136790
 20
268.1060482857368
 30
0.0000000000000000
 10
324.3007474136790
 20
269.4393816190701
 30
0.0000000000000000
 10
322.8007474136790
 20
271.4393816190703
 30
0.0000000000000000
 10
321.3007474136791
 20
273.4393816190705
 30
0.0000000000000000
 10
322.3007474136791
 20
274.7727149524038
 30
0.0000000000000000
 10
322.8007474136791
 20
275.4393816190703
 30
0.0000000000000000
  0
SPLINE
  5
304
100
AcDbEntity
  8
MAIN0
  6
CONTINUOUS
 62
3
100
AcDbSpline
210
0.0000000000000000
220
0.0000000000000000
230
1.000000000000000
 70
     8
 71
     3
 72
     9
 73
     5
 74
     0
 42
1.000000000000000e-007
 43
1.000000000000000e-007
 12
0.2236067977499943
 22
0.2981423970000208
 32
0.0000000000000000
 13
-0.6708203932499259
 23
0.8944271909998633
 33
0.0000000000000000
 40
0.0000000000000000
 40
0.0000000000000000
 40
0.0000000000000000
 40
0.0000000000000000
 40
6.708203932499712
 40
8.944271909999145
 40
8.944271909999145
 40
8.944271909999145
 40
8.944271909999145
 10
322.8007474136790
 20
271.4393816190703
 30
0.0000000000000000
 10
323.3007474136791
 20
272.1060482857371
 30
0.0000000000000000
 10
324.3007474136790
 20
273.4393816190705
 30
0.0000000000000000
 10
323.3007474136789
 20
274.7727149524038
 30
0.0000000000000000
 10
322.8007474136790
 20
275.4393816190703
 30
0.0000000000000000
  0
SPLINE
  5
305
100
AcDbEntity
  8
MAIN0
  6
CONTINUOUS
 62
3
100
AcDbSpline
210
0.0000000000000000
220
0.0000000000000000
230
1.000000000000000
 70
     8
 71
     3
 72
     9
 73
     5
 74
     0
 42
1.000000000000000e-007
 43
1.000000000000000e-007
 12
-0.2236067977500227
 22
0.2981423970000208
 32
0.0000000000000000
 13
0.6708203932499259
 23
0.8944271909998633
 33
0.0000000000000000
 40
0.0000000000000000
 40
0.0000000000000000
 40
0.0000000000000000
 40
0.0000000000000000
 40
6.708203932499712
 40
8.944271909999145
 40
8.944271909999145
 40
8.944271909999145
 40
8.944271909999145
 10
374.8007474136791
 20
271.4393816190703
 30
0.0000000000000000
 10
374.3007474136790
 20
272.1060482857371
 30
0.0000000000000000
 10
373.3007474136791
 20
273.4393816190705
 30
0.0000000000000000
 10
374.3007474136792
 20
274.7727149524038
 30
0.0000000000000000
 10
374.8007474136791
 20
275.4393816190703
 30
0.0000000000000000
  0
SPLINE
  5
306
100
AcDbEntity
  8
MAIN0
  6
CONTINUOUS
 62
3
100
AcDbSpline
210
0.0000000000000000
220
0.0000000000000000
230
1.000000000000000
 70
     8
 71
     3
 72
    11
 73
     7
 74
     0
 42
1.000000000000000e-007
 43
1.000000000000000e-007
 12
-0.6708203932499828
 22
0.8944271909998633
 32
0.0000000000000000
 13
-0.6708203932500396
 23
0.8944271909998633
 33
0.0000000000000000
 40
0.0000000000000000
 40
0.0000000000000000
 40
0.0000000000000000
 40
0.0000000000000000
 40
2.236067977499434
 40
4.472135954999580
 40
6.708203932499712
 40
8.944271909999145
 40
8.944271909999145
 40
8.944271909999145
 40
8.944271909999145
 10
374.8007474136791
 20
267.4393816190703
 30
0.0000000000000000
 10
374.3007474136791
 20
268.1060482857368
 30
0.0000000000000000
 10
373.3007474136791
 20
269.4393816190701
 30
0.0000000000000000
 10
374.8007474136791
 20
271.4393816190703
 30
0.0000000000000000
 10
376.3007474136791
 20
273.4393816190705
 30
0.0000000000000000
 10
375.3007474136790
 20
274.7727149524038
 30
0.0000000000000000
 10
374.8007474136791
 20
275.4393816190703
 30
0.0000000000000000
  0
SPLINE
  5
307
100
AcDbEntity
  8
MAIN0
  6
CONTINUOUS
 62
3
100
AcDbSpline
210
0.0000000000000000
220
0.0000000000000000
230
1.000000000000000
 70
     8
 71
     3
 72
    11
 73
     7
 74
     0
 42
1.000000000000000e-007
 43
1.000000000000000e-007
 12
0.6708203932500396
 22
-0.8944271909998065
 32
0.0000000000000000
 13
0.6708203932499828
 23
-0.8944271909998633
 33
0.0000000000000000
 40
0.0000000000000000
 40
0.0000000000000000
 40
0.0000000000000000
 40
0.0000000000000000
 40
2.236067977499434
 40
4.472135954999580
 40
6.708203932499712
 40
8.944271909999145
 40
8.944271909999145
 40
8.944271909999145
 40
8.944271909999145
 10
371.8007474136791
 20
275.4393816190691
 30
0.0000000000000000
 10
372.3007474136790
 20
274.7727149524026
 30
0.0000000000000000
 10
373.3007474136790
 20
273.4393816190694
 30
0.0000000000000000
 10
371.8007474136790
 20
271.4393816190691
 30
0.0000000000000000
 10
370.3007474136791
 20
269.4393816190689
 30
0.0000000000000000
 10
371.3007474136791
 20
268.1060482857357
 30
0.0000000000000000
 10
371.8007474136791
 20
267.4393816190691
 30
0.0000000000000000
  0
SPLINE
  5
308
100
AcDbEntity
  8
MAIN0
  6
CONTINUOUS
 62
3
100
AcDbSpline
210
0.0000000000000000
220
0.0000000000000000
230
1.000000000000000
 70
     8
 71
     3
 72
     9
 73
     5
 74
     0
 42
1.000000000000000e-007
 43
1.000000000000000e-007
 12
0.2236067977499943
 22
-0.2981423970000634
 32
0.0000000000000000
 13
-0.6708203932498122
 23
-0.8944271909998633
 33
0.0000000000000000
 40
0.0000000000000000
 40
0.0000000000000000
 40
0.0000000000000000
 40
0.0000000000000000
 40
6.708203932499712
 40
8.944271909999145
 40
8.944271909999145
 40
8.944271909999145
 40
8.944271909999145
 10
371.8007474136790
 20
271.4393816190691
 30
0.0000000000000000
 10
372.3007474136791
 20
270.7727149524023
 30
0.0000000000000000
 10
373.3007474136790
 20
269.4393816190689
 30
0.0000000000000000
 10
372.3007474136789
 20
268.1060482857357
 30
0.0000000000000000
 10
371.8007474136790
 20
267.4393816190691
 30
0.0000000000000000
  0
LINE
  5
309
100
AcDbEntity
  8
MAIN0
  6
CONTINUOUS
 62
3
100
AcDbLine
 10
312.8007474136791
 20
267.4393816190742
 30
0.0000000000000000
 11
322.8007474136791
 21
267.4393816190703
 31
0.0000000000000000
  0
LINE
  5
30A
100
AcDbEntity
  8
MAIN0
  6
CONTINUOUS
 62
3
100
AcDbLine
 10
325.8007474136791
 20
267.4393816190692
 30
0.0000000000000000
 11
341.3007474136795
 21
267.4393816190631
 31
0.0000000000000000
  0
LINE
  5
30B
100
AcDbEntity
  8
MAIN0
  6
CONTINUOUS
 62
3
100
AcDbLine
 10
312.8007474136791
 20
275.4393816190742
 30
0.0000000000000000
 11
322.8007474136790
 21
275.4393816190703
 31
0.0000000000000000
  0
LINE
  5
30C
100
AcDbEntity
  8
MAIN0
  6
CONTINUOUS
 62
3
100
AcDbLine
 10
325.8007474136791
 20
275.4393816190691
 30
0.0000000000000000
 11
341.3007474136791
 21
275.4393816190631
 31
0.0000000000000000
  0
LINE
  5
30D
100
AcDbEntity
  8
MAIN0
  6
CONTINUOUS
 62
3
100
AcDbLine
 10
356.3007474136791
 20
275.4393816190572
 30
0.0000000000000000
 11
371.8007474136791
 21
275.4393816190511
 31
0.0000000000000000
  0
LINE
  5
30E
100
AcDbEntity
  8
MAIN0
  6
CONTINUOUS
 62
3
100
AcDbLine
 10
374.8007474136791
 20
275.4393816190499
 30
0.0000000000000000
 11
384.8007474136791
 21
275.4393816190460
 31
0.0000000000000000
  0
LINE
  5
30F
100
AcDbEntity
  8
MAIN0
  6
CONTINUOUS
 62
3
100
AcDbLine
 10
356.3007474136790
 20
267.4393816190572
 30
0.0000000000000000
 11
371.8007474136790
 21
267.4393816190512
 31
0.0000000000000000
  0
LINE
  5
310
100
AcDbEntity
  8
MAIN0
  6
CONTINUOUS
 62
3
100
AcDbLine
 10
374.8007474136791
 20
267.4393816190500
 30
0.0000000000000000
 11
384.8007474136791
 21
267.4393816190460
 31
0.0000000000000000
  0
DIMENSION
  5
319
100
AcDbEntity
  8
MAIN0
  6
CONTINUOUS
 62
1
100
AcDbDimension
  2
*D30
 10
388.8007474136807
 20
296.4393816190601
 30
0.0000000000000000
 11
348.8007474136791
 21
296.9393816190601
 31
0.0000000000000000
 70
32
  1
\A1;110
  3
MAIN001
100
AcDbAlignedDimension
 13
308.8007474136775
 23
271.4393816190758
 33
0.0000000000000000
 14
388.8007474136807
 24
271.4393816190445
 34
0.0000000000000000
100
AcDbRotatedDimension
1001
ACAD
1000
DSTYLE
1002
{
1070
   173
1070
     1
1070
     6
1000
_OPEN
1070
     7
1000
_OPEN
1070
    41
1040
2.000000
1002
}
  0
LINE
  5
31A
100
AcDbEntity
  8
MAIN0
  6
CONTINUOUS
 62
3
100
AcDbLine
 10
348.5439809804396
 20
218.9393816190602
 30
0.0000000000000000
 11
348.5439809804502
 21
228.4393816190602
 31
0.0000000000000000
  0
LINE
  5
31B
100
AcDbEntity
  8
MAIN0
  6
CONTINUOUS
 62
3
100
AcDbLine
 10
349.0575138464270
 20
218.9393816190600
 30
0.0000000000000000
 11
349.0575138464164
 21
228.4393816190600
 31
0.0000000000000000
  0
LINE
  5
31C
100
AcDbEntity
  8
MAIN0
  6
CONTINUOUS
 62
3
100
AcDbLine
 10
349.0575138464164
 20
228.4393816190600
 30
0.0000000000000000
 11
353.5007474136791
 21
218.9393816190583
 31
0.0000000000000000
  0
LINE
  5
31D
100
AcDbEntity
  8
MAIN0
  6
CONTINUOUS
 62
3
100
AcDbLine
 10
349.0575138464269
 20
218.9393816190600
 30
0.0000000000000000
 11
353.5007474136790
 21
228.4393816190583
 31
0.0000000000000000
  0
LINE
  5
31E
100
AcDbEntity
  8
MAIN0
  6
CONTINUOUS
 62
3
100
AcDbLine
 10
348.5439809804502
 20
228.4393816190602
 30
0.0000000000000000
 11
344.1007474136791
 21
218.9393816190620
 31
0.0000000000000000
  0
LINE
  5
31F
100
AcDbEntity
  8
MAIN0
  6
CONTINUOUS
 62
3
100
AcDbLine
 10
344.1007474136790
 20
228.4393816190620
 30
0.0000000000000000
 11
348.5439809804396
 21
218.9393816190602
 31
0.0000000000000000
  0
LINE
  5
320
100
AcDbEntity
  8
MAIN0
  6
CONTINUOUS
 62
3
100
AcDbLine
 10
344.1007474136791
 20
228.4393816190620
 30
0.0000000000000000
 11
348.5439809804502
 21
228.4393816190602
 31
0.0000000000000000
  0
LINE
  5
321
100
AcDbEntity
  8
MAIN0
  6
CONTINUOUS
 62
3
100
AcDbLine
 10
349.0575138464163
 20
228.4393816190600
 30
0.0000000000000000
 11
353.5007474136790
 21
228.4393816190583
 31
0.0000000000000000
  0
DIMENSION
  5
32A
100
AcDbEntity
  8
MAIN0
  6
CONTINUOUS
 62
3
100
AcDbDimension
  2
*D31
 10
361.3007474136791
 20
218.4393816190585
 30
0.0000000000000000
 11
360.8007474136791
 21
223.4393816190584
 31
0.0000000000000000
 70
32
  3
MAIN001
100
AcDbAlignedDimension
 13
353.5007474136791
 23
228.4393816190583
 33
0.0000000000000000
 14
353.0007474136791
 24
218.4393816190585
 34
0.0000000000000000
 50
90.00000000000000
100
AcDbRotatedDimension
1001
ACAD
1000
DSTYLE
1002
{
1070
   173
1070
     1
1070
     6
1000
_OPEN
1070
     7
1000
_OPEN
1070
    41
1040
2.000000
1002
}
  0
DIMENSION
  5
331
100
AcDbEntity
  8
MAIN0
  6
CONTINUOUS
 62
3
100
AcDbDimension
  2
*D32
 10
318.8007474136791
 20
275.4393816190703
 30
0.0000000000000000
 11
318.3007474136791
 21
271.4393816190703
 31
0.0000000000000000
 70
32
  1
\A1;\U+22058
  3
MAIN001
100
AcDbAlignedDimension
 13
312.8007474136791
 23
267.4393816190742
 33
0.0000000000000000
 14
312.8007474136791
 24
275.4393816190742
 34
0.0000000000000000
 50
90.00000000000000
100
AcDbRotatedDimension
1001
ACAD
1000
DSTYLE
1002
{
1070
   173
1070
     1
1070
     6
1000
_OPEN
1070
     7
1000
_OPEN
1070
    41
1040
2.000000
1002
}
  0
LINE
  5
332
100
AcDbEntity
  8
MAIN0
  6
CENTER
 62
3
100
AcDbLine
 10
320.2010437850028
 20
271.4393816190714
 30
0.0000000000000000
 11
391.3007474136800
 21
271.4393816190435
 31
0.0000000000000000
  0
LINE
  5
333
100
AcDbEntity
  8
MAIN0
  6
CENTER
 62
3
100
AcDbLine
 10
306.3007474136800
 20
271.4393816190768
 30
0.0000000000000000
 11
316.9010438326865
 21
271.4393816190726
 31
0.0000000000000000
  0
ARC
  5
334
100
AcDbEntity
  8
MAIN0
  6
CONTINUOUS
 62
3
100
AcDbCircle
 10
348.8007474136791
 20
199.6996620775892
 30
0.0000000000000000
 40
4.700000000000000
100
AcDbArc
 50
86.86830622866397
 51
93.13169377614329
  0
ARC
  5
335
100
AcDbEntity
  8
MAIN0
  6
CONTINUOUS
 62
3
100
AcDbCircle
 10
348.8007474136791
 20
199.6996620775892
 30
0.0000000000000000
 40
4.700000000000000
100
AcDbArc
 50
266.8683062239591
 51
273.1316937713929
  0
DIMENSION
  5
33F
100
AcDbEntity
  8
MAIN0
  6
CONTINUOUS
 62
3
100
AcDbDimension
  2
*D33
 10
353.8975105613782
 20
189.6531514614147
 30
0.0000000000000000
 11
360.8936265843695
 21
197.3563742656079
 31
0.0000000000000000
 70
161
  1
\A1;□7\H0.903226x;\S 0^ -0.1;
  3
MAIN001
100
AcDbAlignedDimension
 13
353.4937284491243
 23
199.9564285102694
 33
0.0000000000000000
 14
348.5439809806169
 24
195.0066810421648
 34
0.0000000000000000
 50
45.00000000005989
1001
ACAD
1000
DSTYLE
1002
{
1070
   173
1070
     1
1070
     6
1000
_OPEN
1070
     7
1000
_OPEN
1070
    41
1040
2.000000
1070
   272
1070
     1
1070
    47
1040
0.000000
1070
    48
1040
0.100000
1070
    71
1070
     1
1070
   340
1005
1AD
1002
}
  0
LINE
  5
340
100
AcDbEntity
  8
MAIN0
  6
HIDDEN
 62
3
100
AcDbLine
 10
341.3007474136791
 20
275.4393816190631
 30
0.0000000000000000
 11
356.3007474136791
 21
275.4393816190572
 31
0.0000000000000000
  0
LINE
  5
341
100
AcDbEntity
  8
MAIN0
  6
HIDDEN
 62
3
100
AcDbLine
 10
341.3007474136791
 20
267.4393816190631
 30
0.0000000000000000
 11
356.3007474136791
 21
267.4393816190572
 31
0.0000000000000000
  0
LINE
  5
342
100
AcDbEntity
  8
MAIN0
  6
CENTER
 62
3
100
AcDbLine
 10
348.8007474136791
 20
215.1931703691896
 30
0.0000000000000000
 11
348.8007474136791
 21
286.4393816190601
 31
0.0000000000000000
  0
MTEXT
  5
343
100
AcDbEntity
  8
A0
  6
CONTINUOUS
 62
3
100
AcDbMText
 10
161.6835179070531
 20
43.37847938562332
 30
0.0000000000000000
 40
6.000000000000000
 41
0.0000000000000000
 71
     1
 72
     1
  1
{\H0.56x;{0.001}}
 11
1.000000000000000
 21
0.0000000000000000
 31
0.0000000000000000
  7
STANDARD
  0
MTEXT
  5
344
100
AcDbEntity
  8
A0
  6
CONTINUOUS
 62
3
100
AcDbMText
 10
79.18351790705317
 20
4.020850810052323
 30
0.0000000000000000
 40
4.500000000000000
 41
0.0000000000000000
 71
     1
 72
     1
  1
{\H0.63x;{ABOVE SPECS :AT MAX PERMISSIBLE HANDLE TORQUE}}
 11
1.000000000000000
 21
0.0000000000000000
 31
0.0000000000000000
  7
STANDARD
  0
MTEXT
  5
345
100
AcDbEntity
  8
A0
  6
CONTINUOUS
 62
3
100
AcDbMText
 10
109.6471880230581
 20
31.77708400280089
 30
0.0000000000000000
 40
3.750000000000000
 41
0.0000000000000000
 71
     1
 72
     1
  1
{\H0.63x;{EXTERNAL\PGRIPPING}}
 11
1.000000000000000
 21
0.0000000000000000
 31
0.0000000000000000
  7
STANDARD
  0
MTEXT
  5
346
100
AcDbEntity
  8
A0
  6
CONTINUOUS
 62
3
100
AcDbMText
 10
109.5695738802818
 20
21.14400537946305
 30
0.0000000000000000
 40
3.750000000000000
 41
0.0000000000000000
 71
     1
 72
     1
  1
{\H0.63x;{INTERNALLY\PGRIPPING}}
 11
1.000000000000000
 21
0.0000000000000000
 31
0.0000000000000000
  7
STANDARD
  0
LINE
  5
347
100
AcDbEntity
  8
A0
  6
CONTINUOUS
 62
3
100
AcDbLine
 10
79.18351790705317
 20
11.30047387801697
 30
0.0000000000000000
 11
199.1835179070532
 21
11.30047387801706
 31
0.0000000000000000
  0
LINE
  5
348
100
AcDbEntity
  8
A0
  6
CONTINUOUS
 62
3
100
AcDbLine
 10
108.4335179070531
 20
11.30047387801709
 30
0.0000000000000000
 11
108.4335179070531
 21
32.30047387801697
 31
0.0000000000000000
  0
MTEXT
  5
349
100
AcDbEntity
  8
A0
  6
CONTINUOUS
 62
3
100
AcDbMText
 10
133.0089182841411
 20
29.49492168702601
 30
0.0000000000000000
 40
4.649999856948853
 41
0.0000000000000000
 71
     1
 72
     1
  1
{\H0.92x;{外径把握}}
 11
1.000000000000000
 21
0.0000000000000000
 31
0.0000000000000000
  7
KNJYOKO
  0
MTEXT
  5
34A
100
AcDbEntity
  8
A0
  6
CONTINUOUS
 62
3
100
AcDbMText
 10
133.0089182841411
 20
18.78422892091201
 30
0.0000000000000000
 40
4.649999856948853
 41
0.0000000000000000
 71
     1
 72
     1
  1
{\H0.92x;{内径把握}}
 11
1.000000000000000
 21
0.0000000000000000
 31
0.0000000000000000
  7
KNJYOKO
  0
MTEXT
  5
34B
100
AcDbEntity
  8
A0
  6
CONTINUOUS
 62
3
100
AcDbMText
 10
91.87364509993569
 20
16.84911262066065
 30
0.0000000000000000
 40
4.500000000000000
 41
0.0000000000000000
 71
     1
 72
     1
  1
{\H0.63x;{(mm)}}
 11
1.000000000000000
 21
0.0000000000000000
 31
0.0000000000000000
  7
STANDARD
  0
MTEXT
  5
34C
100
AcDbEntity
  8
A0
  6
CONTINUOUS
 62
3
100
AcDbMText
 10
82.93351790705469
 20
71.07547373501306
 30
0.0000000000000000
 40
4.649999856948853
 41
0.0000000000000000
 71
     1
 72
     1
  1
{\H0.94x;{許容最高回転速度　}}
 11
1.000000000000000
 21
0.0000000000000000
 31
0.0000000000000000
  7
KNJYOKO
  0
LINE
  5
34D
100
AcDbEntity
  8
A0
  6
CONTINUOUS
 62
3
100
AcDbLine
 10
108.4335179070532
 20
21.80047387801700
 30
0.0000000000000000
 11
199.1835179070531
 21
21.80047387801709
 31
0.0000000000000000
  0
LINE
  5
34E
100
AcDbEntity
  8
A0
  6
CONTINUOUS
 62
3
100
AcDbLine
 10
79.18351790705306
 20
113.8004738780746
 30
0.0000000000000000
 11
199.1835179070531
 21
113.8004738781110
 31
0.0000000000000000
  0
LINE
  5
34F
100
AcDbEntity
  8
A0
  6
CONTINUOUS
 62
3
100
AcDbLine
 10
79.18351790705304
 20
103.3004738780716
 30
0.0000000000000000
 11
199.1835179070532
 21
103.3004738781059
 31
0.0000000000000000
  0
LINE
  5
350
100
AcDbEntity
  8
A0
  6
CONTINUOUS
 62
3
100
AcDbLine
 10
79.18351790705307
 20
88.30047387806171
 30
0.0000000000000000
 11
199.1835179070532
 21
88.30047387808899
 31
0.0000000000000000
  0
LINE
  5
351
100
AcDbEntity
  8
A0
  6
CONTINUOUS
 62
3
100
AcDbLine
 10
79.18351790705296
 20
73.30047387805736
 30
0.0000000000000000
 11
199.1835179070530
 21
73.30047387808162
 31
0.0000000000000000
  0
LINE
  5
352
100
AcDbEntity
  8
A0
  6
CONTINUOUS
 62
3
100
AcDbLine
 10
79.18351790705295
 20
57.80047387805429
 30
0.0000000000000000
 11
199.1835179070532
 21
57.80047387807655
 31
0.0000000000000000
  0
LINE
  5
353
100
AcDbEntity
  8
A0
  6
CONTINUOUS
 62
3
100
AcDbLine
 10
79.18351790705297
 20
47.30047387805128
 30
0.0000000000000000
 11
199.1835179070531
 21
47.30047387807140
 31
0.0000000000000000
  0
LINE
  5
354
100
AcDbEntity
  8
A0
  6
CONTINUOUS
 62
3
100
AcDbLine
 10
79.18351790705319
 20
32.30047387801697
 30
0.0000000000000000
 11
199.1835179070531
 21
32.30047387801702
 31
0.0000000000000000
  0
LINE
  5
355
100
AcDbEntity
  8
A0
  6
CONTINUOUS
 62
3
100
AcDbLine
 10
79.18351790705310
 20
11.30047387801697
 30
0.0000000000000000
 11
79.18351790705310
 21
113.8004738780221
 31
0.0000000000000000
  0
LINE
  5
356
100
AcDbEntity
  8
A0
  6
CONTINUOUS
 62
3
100
AcDbLine
 10
154.1835179070531
 20
11.30047387801709
 30
0.0000000000000000
 11
154.1835179070531
 21
103.3004738780926
 31
0.0000000000000000
  0
LINE
  5
357
100
AcDbEntity
  8
A0
  6
CONTINUOUS
 62
3
100
AcDbLine
 10
199.1835179070531
 20
11.30047387801709
 30
0.0000000000000000
 11
199.1835179070531
 21
113.8004738780221
 31
0.0000000000000000
  0
MTEXT
  5
358
100
AcDbEntity
  8
A0
  6
CONTINUOUS
 62
3
100
AcDbMText
 10
82.93351790705481
 20
101.5754744502763
 30
0.0000000000000000
 40
4.650000572204590
 41
0.0000000000000000
 71
     1
 72
     1
  1
{\H0.94x;{許容最大ハンドルトルク}}
 11
1.000000000000000
 21
0.0000000000000000
 31
0.0000000000000000
  7
KNJYOKO
  0
MTEXT
  5
359
100
AcDbEntity
  8
A0
  6
CONTINUOUS
 62
3
100
AcDbMText
 10
82.93351790705469
 20
86.57547445027181
 30
0.0000000000000000
 40
4.650000572204590
 41
0.0000000000000000
 71
     1
 72
     1
  1
{\H0.94x;{最大静的把握力}}
 11
1.000000000000000
 21
0.0000000000000000
 31
0.0000000000000000
  7
KNJYOKO
  0
MTEXT
  5
35A
100
AcDbEntity
  8
A0
  6
CONTINUOUS
 62
3
100
AcDbMText
 10
82.18351790705322
 20
54.95047445025590
 30
0.0000000000000000
 40
4.650000572204590
 41
0.0000000000000000
 71
     1
 72
     1
  1
{\H0.90x;{質量}}
 11
1.000000000000000
 21
0.0000000000000000
 31
0.0000000000000000
  7
KNJYOKO
  0
MTEXT
  5
35B
100
AcDbEntity
  8
A0
  6
CONTINUOUS
 62
3
100
AcDbMText
 10
84.03548487210071
 20
30.53378774146965
 30
0.0000000000000000
 40
4.650000572204590
 41
0.0000000000000000
 71
     1
 72
     1
  1
{\H0.96x;{把握径}}
 11
1.000000000000000
 21
0.0000000000000000
 31
0.0000000000000000
  7
KNJYOKO
  0
MTEXT
  5
35C
100
AcDbEntity
  8
A0
  6
CONTINUOUS
 62
3
100
AcDbMText
 10
87.68251891845341
 20
112.0988910702772
 30
0.0000000000000000
 40
7.500000000000000
 41
0.0000000000000000
 71
     1
 72
     1
  1
{\H0.91x;{仕　様}}
 11
1.000000000000000
 21
0.0000000000000000
 31
0.0000000000000000
  7
KNJYOKO
  0
MTEXT
  5
35D
100
AcDbEntity
  8
A0
  6
CONTINUOUS
 62
3
100
AcDbMText
 10
176.6835179070531
 20
100.7504727336129
 30
0.0000000000000000
 40
4.199998855590820
 41
0.0000000000000000
 71
     1
 72
     1
  1
{\H0.58x;{　　　Ｎ・ｍ}}
 11
1.000000000000000
 21
0.0000000000000000
 31
0.0000000000000000
  7
KNJYOKO
  0
MTEXT
  5
35E
100
AcDbEntity
  8
A0
  6
CONTINUOUS
 62
3
100
AcDbMText
 10
157.1835179070531
 20
94.00047273361288
 30
0.0000000000000000
 40
4.199998855590820
 41
0.0000000000000000
 71
     1
 72
     1
  1
{\H0.48x;{（}}
 11
1.000000000000000
 21
0.0000000000000000
 31
0.0000000000000000
  7
KNJYOKO
  0
MTEXT
  5
35F
100
AcDbEntity
  8
A0
  6
CONTINUOUS
 62
3
100
AcDbMText
 10
175.1835179070531
 20
94.00047273361288
 30
0.0000000000000000
 40
4.199998855590820
 41
0.0000000000000000
 71
     1
 72
     1
  1
{\H0.58x;{　ｋｇｆ・ｍ）}}
 11
1.000000000000000
 21
0.0000000000000000
 31
0.0000000000000000
  7
KNJYOKO
  0
MTEXT
  5
360
100
AcDbEntity
  8
A0
  6
CONTINUOUS
 62
3
100
AcDbMText
 10
176.6835179070531
 20
54.50047273361268
 30
0.0000000000000000
 40
4.199998855590820
 41
0.0000000000000000
 71
     1
 72
     1
  1
{\H0.58x;{　　　　ｋｇ}}
 11
1.000000000000000
 21
0.0000000000000000
 31
0.0000000000000000
  7
KNJYOKO
  0
MTEXT
  5
361
100
AcDbEntity
  8
A0
  6
CONTINUOUS
 62
3
100
AcDbMText
 10
176.6835179070531
 20
85.75047273361271
 30
0.0000000000000000
 40
4.199998855590820
 41
0.0000000000000000
 71
     1
 72
     1
  1
{\H0.58x;{　　　　ｋＮ}}
 11
1.000000000000000
 21
0.0000000000000000
 31
0.0000000000000000
  7
KNJYOKO
  0
MTEXT
  5
362
100
AcDbEntity
  8
A0
  6
CONTINUOUS
 62
3
100
AcDbMText
 10
157.1835179070531
 20
79.00047273361271
 30
0.0000000000000000
 40
4.199998855590820
 41
0.0000000000000000
 71
     1
 72
     1
  1
{\H0.48x;{（}}
 11
1.000000000000000
 21
0.0000000000000000
 31
0.0000000000000000
  7
KNJYOKO
  0
MTEXT
  5
363
100
AcDbEntity
  8
A0
  6
CONTINUOUS
 62
3
100
AcDbMText
 10
175.1835179070531
 20
79.00047273361271
 30
0.0000000000000000
 40
4.199998855590820
 41
0.0000000000000000
 71
     1
 72
     1
  1
{\H0.58x;{　　　ｋｇｆ）}}
 11
1.000000000000000
 21
0.0000000000000000
 31
0.0000000000000000
  7
KNJYOKO
  0
MTEXT
  5
364
100
AcDbEntity
  8
A0
  6
CONTINUOUS
 62
3
100
AcDbMText
 10
126.4322289764198
 20
110.7684841193184
 30
0.0000000000000000
 40
4.649999856948853
 41
0.0000000000000000
 71
     1
 72
     1
  1
{\H0.93x;{SPECIFICATIONS}}
 11
1.000000000000000
 21
0.0000000000000000
 31
0.0000000000000000
  7
STANDARD
  0
MTEXT
  5
365
100
AcDbEntity
  8
A0
  6
CONTINUOUS
 62
3
100
AcDbMText
 10
82.93351790705270
 20
93.92547387806174
 30
0.0000000000000000
 40
3.750000000000000
 41
0.0000000000000000
 71
     1
 72
     1
  1
{\H0.62x;{MAX.PERMISSIBLE HANDLE TORQUE}}
 11
1.000000000000000
 21
0.0000000000000000
 31
0.0000000000000000
  7
STANDARD
  0
MTEXT
  5
366
100
AcDbEntity
  8
A0
  6
CONTINUOUS
 62
3
100
AcDbMText
 10
82.93351790705259
 20
78.92547387805733
 30
0.0000000000000000
 40
3.750000000000000
 41
0.0000000000000000
 71
     1
 72
     1
  1
{\H0.63x;{MAX STATIC GRIPPING FORCE}}
 11
1.000000000000000
 21
0.0000000000000000
 31
0.0000000000000000
  7
STANDARD
  0
MTEXT
  5
367
100
AcDbEntity
  8
A0
  6
CONTINUOUS
 62
3
100
AcDbMText
 10
82.93351790705259
 20
63.42547387805426
 30
0.0000000000000000
 40
3.750000000000000
 41
0.0000000000000000
 71
     1
 72
     1
  1
{\H0.63x;{MAX PREMISSIBLE SPEED}}
 11
1.000000000000000
 21
0.0000000000000000
 31
0.0000000000000000
  7
STANDARD
  0
MTEXT
  5
368
100
AcDbEntity
  8
A0
  6
CONTINUOUS
 62
3
100
AcDbMText
 10
80.23649323742728
 20
22.94756096909929
 30
0.0000000000000000
 40
3.750000000000000
 41
0.0000000000000000
 71
     1
 72
     1
  1
{\H0.54x;{GRIPPING RANGE}}
 11
1.000000000000000
 21
0.0000000000000000
 31
0.0000000000000000
  7
STANDARD
  0
MTEXT
  5
369
100
AcDbEntity
  8
A0
  6
CONTINUOUS
 62
3
100
AcDbMText
 10
107.5370047901017
 20
55.02365621431925
 30
0.0000000000000000
 40
4.650000572204590
 41
0.0000000000000000
 71
     1
 72
     1
  1
{\H0.91x;{MASS}}
 11
1.000000000000000
 21
0.0000000000000000
 31
0.0000000000000000
  7
STANDARD
  0
MTEXT
  5
36A
100
AcDbEntity
  8
A0
  6
CONTINUOUS
 62
3
100
AcDbMText
 10
179.6835179070532
 20
67.00047273361271
 30
0.0000000000000000
 40
4.199998855590820
 41
0.0000000000000000
 71
     1
 72
     1
  1
{\H0.57x;{　ｍｉｎ}}
 11
1.000000000000000
 21
0.0000000000000000
 31
0.0000000000000000
  7
KNJYOKO
  0
MTEXT
  5
36B
100
AcDbEntity
  8
A0
  6
CONTINUOUS
 62
3
100
AcDbMText
 10
191.9155202795330
 20
68.00478956295486
 30
0.0000000000000000
 40
3.000000000000000
 41
0.0000000000000000
 71
     1
 72
     1
  1
{\H0.88x;{-1}}
 11
1.000000000000000
 21
0.0000000000000000
 31
0.0000000000000000
  7
STANDARD
  0
MTEXT
  5
36C
100
AcDbEntity
  8
A0
  6
CONTINUOUS
 62
3
100
AcDbMText
 10
176.6835179070531
 20
43.25047273361268
 30
0.0000000000000000
 40
4.199998855590820
 41
0.0000000000000000
 71
     1
 72
     1
  1
{\H0.64x;{　　kg・m}}
 11
1.000000000000000
 21
0.0000000000000000
 31
0.0000000000000000
  7
KNJYOKO
  0
MTEXT
  5
36D
100
AcDbEntity
  8
A0
  6
CONTINUOUS
 62
3
100
AcDbMText
 10
194.5493368689884
 20
43.63382862031038
 30
0.0000000000000000
 40
3.000000000000000
 41
0.0000000000000000
 71
     1
 72
     1
  1
{\H0.81x;{2}}
 11
1.000000000000000
 21
0.0000000000000000
 31
0.0000000000000000
  7
STANDARD
  0
MTEXT
  5
36E
100
AcDbEntity
  8
A0
  6
CONTINUOUS
 62
3
100
AcDbMText
 10
82.93351790705464
 20
45.57547445026141
 30
0.0000000000000000
 40
4.650000572204590
 41
0.0000000000000000
 71
     1
 72
     1
  1
{\H0.94x;{慣性モーメント}}
 11
1.000000000000000
 21
0.0000000000000000
 31
0.0000000000000000
  7
KNJYOKO
  0
MTEXT
  5
36F
100
AcDbEntity
  8
A0
  6
CONTINUOUS
 62
3
100
AcDbMText
 10
82.93351790705253
 20
37.92547387804693
 30
0.0000000000000000
 40
3.750000000000000
 41
0.0000000000000000
 71
     1
 72
     1
  1
{\H0.63x;{MOMENT OF INERTIA}}
 11
1.000000000000000
 21
0.0000000000000000
 31
0.0000000000000000
  7
STANDARD
  0
MTEXT
  5
370
100
AcDbEntity
  8
A0
  6
CONTINUOUS
 62
3
100
AcDbMText
 10
161.6835179070531
 20
101.2004737349709
 30
0.0000000000000000
 40
4.649999856948853
 41
0.0000000000000000
 71
     1
 72
     1
  1
{\H0.81x;{29.4}}
 11
1.000000000000000
 21
0.0000000000000000
 31
0.0000000000000000
  7
STANDARD
  0
MTEXT
  5
371
100
AcDbEntity
  8
A0
  6
CONTINUOUS
 62
3
100
AcDbMText
 10
161.6835179070531
 20
94.45047373497091
 30
0.0000000000000000
 40
4.649999856948853
 41
0.0000000000000000
 71
     1
 72
     1
  1
{\H0.76x;{3.0}}
 11
1.000000000000000
 21
0.0000000000000000
 31
0.0000000000000000
  7
STANDARD
  0
MTEXT
  5
372
100
AcDbEntity
  8
A0
  6
CONTINUOUS
 62
3
100
AcDbMText
 10
161.6835179070531
 20
86.20047373497074
 30
0.0000000000000000
 40
4.649999856948853
 41
0.0000000000000000
 71
     1
 72
     1
  1
{\H0.81x;{8.83}}
 11
1.000000000000000
 21
0.0000000000000000
 31
0.0000000000000000
  7
STANDARD
  0
MTEXT
  5
373
100
AcDbEntity
  8
A0
  6
CONTINUOUS
 62
3
100
AcDbMText
 10
161.6835179070531
 20
79.45047373497074
 30
0.0000000000000000
 40
4.649999856948853
 41
0.0000000000000000
 71
     1
 72
     1
  1
{\H0.90x;{900}}
 11
1.000000000000000
 21
0.0000000000000000
 31
0.0000000000000000
  7
STANDARD
  0
MTEXT
  5
374
100
AcDbEntity
  8
A0
  6
CONTINUOUS
 62
3
100
AcDbMText
 10
161.6835179070531
 20
67.45047373497074
 30
0.0000000000000000
 40
4.649999856948853
 41
0.0000000000000000
 71
     1
 72
     1
  1
{\H0.91x;{3000}}
 11
1.000000000000000
 21
0.0000000000000000
 31
0.0000000000000000
  7
STANDARD
  0
MTEXT
  5
375
100
AcDbEntity
  8
A0
  6
CONTINUOUS
 62
3
100
AcDbMText
 10
161.6835179070531
 20
54.95047373497071
 30
0.0000000000000000
 40
4.649999856948853
 41
0.0000000000000000
 71
     1
 72
     1
  1
{\H0.81x;{1.74}}
 11
1.000000000000000
 21
0.0000000000000000
 31
0.0000000000000000
  7
STANDARD
  0
MTEXT
  5
376
100
AcDbEntity
  8
A0
  6
CONTINUOUS
 62
3
100
AcDbMText
 10
79.18351790705317
 20
10.17085138225691
 30
0.0000000000000000
 40
4.650000572204590
 41
0.0000000000000000
 71
     1
 72
     1
  1
{\H0.95x;{○上記仕様は許容最大ハンドルトルク締込時の場合}}
 11
1.000000000000000
 21
0.0000000000000000
 31
0.0000000000000000
  7
KNJYOKO
  0
MTEXT
  5
377
100
AcDbEntity
  8
A0
  6
CONTINUOUS
 62
3
100
AcDbMText
 10
157.1835179070097
 20
29.45047373496583
 30
0.0000000000000000
 40
4.649999856948853
 41
0.0000000000000000
 71
     1
 72
     1
  1
{\H0.93x;{\U+22052～\U+220570}}
 11
1.000000000000000
 21
0.0000000000000000
 31
0.0000000000000000
  7
KNJYOKO
  0
MTEXT
  5
378
100
AcDbEntity
  8
A0
  6
CONTINUOUS
 62
3
100
AcDbMText
 10
157.1835179070097
 20
18.95047373496583
 30
0.0000000000000000
 40
4.649999856948853
 41
0.0000000000000000
 71
     1
 72
     1
  1
{\H0.93x;{\U+220524～\U+220564}}
 11
1.000000000000000
 21
0.0000000000000000
 31
0.0000000000000000
  7
KNJYOKO
  0
LINE
  5
379
100
AcDbEntity
  8
WAKU0
  6
CONTINUOUS
 62
3
100
AcDbLine
 10
240.0000000000000
 20
51.00000000000000
 30
0.0000000000000000
 11
410.0000000000000
 21
51.00000000000000
 31
0.0000000000000000
  0
LINE
  5
37A
100
AcDbEntity
  8
WAKU0
  6
CONTINUOUS
 62
3
100
AcDbLine
 10
240.0000000000000
 20
51.00000000000000
 30
0.0000000000000000
 11
240.0000000000000
 21
12.00000000000000
 31
0.0000000000000000
  0
LINE
  5
37B
100
AcDbEntity
  8
WAKU0
  6
CONTINUOUS
 62
3
100
AcDbLine
 10
312.0000000000000
 20
51.00000000000000
 30
0.0000000000000000
 11
312.0000000000000
 21
12.00000000000000
 31
0.0000000000000000
  0
LINE
  5
37C
100
AcDbEntity
  8
WAKU0
  6
CONTINUOUS
 62
3
100
AcDbLine
 10
332.0000000000000
 20
51.00000000000000
 30
0.0000000000000000
 11
332.0000000000000
 21
12.00000000000000
 31
0.0000000000000000
  0
LINE
  5
37D
100
AcDbEntity
  8
WAKU0
  6
CONTINUOUS
 62
3
100
AcDbLine
 10
344.0000000000000
 20
51.00000000000000
 30
0.0000000000000000
 11
344.0000000000000
 21
12.00000000000000
 31
0.0000000000000000
  0
LINE
  5
37E
100
AcDbEntity
  8
WAKU0
  6
CONTINUOUS
 62
3
100
AcDbLine
 10
344.0000000000000
 20
37.00000000000000
 30
0.0000000000000000
 11
410.0000000000000
 21
37.00000000000000
 31
0.0000000000000000
  0
LINE
  5
37F
100
AcDbEntity
  8
WAKU0
  6
CONTINUOUS
 62
3
100
AcDbLine
 10
332.0000000000000
 20
23.00000000000000
 30
0.0000000000000000
 11
410.0000000000000
 21
23.00000000000000
 31
0.0000000000000000
  0
LINE
  5
380
100
AcDbEntity
  8
WAKU0
  6
CONTINUOUS
 62
3
100
AcDbLine
 10
375.0000000000000
 20
51.00000000000000
 30
0.0000000000000000
 11
375.0000000000000
 21
44.00000000000000
 31
0.0000000000000000
  0
LINE
  5
381
100
AcDbEntity
  8
WAKU0
  6
CONTINUOUS
 62
3
100
AcDbLine
 10
387.0000000000000
 20
51.00000000000000
 30
0.0000000000000000
 11
387.0000000000000
 21
44.00000000000000
 31
0.0000000000000000
  0
LINE
  5
382
100
AcDbEntity
  8
WAKU0
  6
CONTINUOUS
 62
3
100
AcDbLine
 10
312.0000000000000
 20
31.50000000000000
 30
0.0000000000000000
 11
332.0000000000000
 21
31.50000000000000
 31
0.0000000000000000
  0
LINE
  5
383
100
AcDbEntity
  8
WAKU0
  6
CONTINUOUS
 62
3
100
AcDbLine
 10
332.0000000000000
 20
44.00000000000000
 30
0.0000000000000000
 11
410.0000000000000
 21
44.00000000000000
 31
0.0000000000000000
  0
LINE
  5
384
100
AcDbEntity
  8
WAKU0
  6
CONTINUOUS
 62
3
100
AcDbLine
 10
240.0000000000000
 20
37.00000000000000
 30
0.0000000000000000
 11
312.0000000000000
 21
37.00000000000000
 31
0.0000000000000000
  0
LINE
  5
385
100
AcDbEntity
  8
WAKU0
  6
CONTINUOUS
 62
3
100
AcDbLine
 10
240.0000000000000
 20
23.00000000000000
 30
0.0000000000000000
 11
312.0000000000000
 21
23.00000000000000
 31
0.0000000000000000
  0
LINE
  5
386
100
AcDbEntity
  8
WAKU0
  6
CONTINUOUS
 62
3
100
AcDbLine
 10
288.0000000000000
 20
37.00000000000000
 30
0.0000000000000000
 11
288.0000000000000
 21
12.00000000000000
 31
0.0000000000000000
  0
LINE
  5
387
100
AcDbEntity
  8
WAKU0
  6
CONTINUOUS
 62
3
100
AcDbLine
 10
264.0000000000000
 20
37.00000000000000
 30
0.0000000000000000
 11
264.0000000000000
 21
23.00000000000000
 31
0.0000000000000000
  0
LINE
  5
388
100
AcDbEntity
  8
WAKU0
  6
CONTINUOUS
 62
3
100
AcDbLine
 10
300.0000000000000
 20
26.00000000000000
 30
0.0000000000000000
 11
300.0000000000000
 21
23.00000000000000
 31
0.0000000000000000
  0
LINE
  5
389
100
AcDbEntity
  8
WAKU0
  6
CONTINUOUS
 62
3
100
AcDbLine
 10
276.0000000000000
 20
26.00000000000000
 30
0.0000000000000000
 11
276.0000000000000
 21
23.00000000000000
 31
0.0000000000000000
  0
LINE
  5
38A
100
AcDbEntity
  8
WAKU0
  6
CONTINUOUS
 62
3
100
AcDbLine
 10
252.0000000000000
 20
26.00000000000000
 30
0.0000000000000000
 11
252.0000000000000
 21
23.00000000000000
 31
0.0000000000000000
  0
LINE
  5
38B
100
AcDbEntity
  8
WAKU0
  6
CONTINUOUS
 62
3
100
AcDbLine
 10
258.0000000000000
 20
51.00000000000000
 30
0.0000000000000000
 11
258.0000000000000
 21
37.00000000000000
 31
0.0000000000000000
  0
LINE
  5
38C
100
AcDbEntity
  8
WAKU0
  6
CONTINUOUS
 62
3
100
AcDbLine
 10
240.0000000000000
 20
45.00000000000000
 30
0.0000000000000000
 11
312.0000000000000
 21
45.00000000000000
 31
0.0000000000000000
  0
LINE
  5
38D
100
AcDbEntity
  8
WAKU0
  6
HIDDEN
 62
3
100
AcDbLine
 10
360.5000000000000
 20
23.00000000000000
 30
0.0000000000000000
 11
360.5000000000000
 21
12.00000000000000
 31
0.0000000000000000
  0
LINE
  5
38E
100
AcDbEntity
  8
WAKU0
  6
HIDDEN
 62
3
100
AcDbLine
 10
372.9000000000000
 20
23.00000000000000
 30
0.0000000000000000
 11
372.9000000000000
 21
12.00000000000000
 31
0.0000000000000000
  0
MTEXT
  5
38F
100
AcDbEntity
  8
WAKU0
  6
CONTINUOUS
 62
3
100
AcDbMText
 10
344.4820000243485
 20
49.04999995231628
 30
0.0000000000000000
 40
3.099999904632568
 41
0.0000000000000000
 71
     1
 72
     1
  1
{\H0.93x;{SC-3-106}}
 11
1.000000000000000
 21
0.0000000000000000
 31
0.0000000000000000
  7
STANDARD
  0
MTEXT
  5
390
100
AcDbEntity
  8
WAKU0
  6
CONTINUOUS
 62
3
100
AcDbMText
 10
344.4659999916852
 20
43.50000000000000
 30
0.0000000000000000
 40
3.000000000000000
 41
0.0000000000000000
 71
     1
 72
     1
  1
{\H0.94x;{スクロールチャック　３\PＳＣＲＯＬＬ　ＣＨＵＣＫ　３}}
 11
1.000000000000000
 21
0.0000000000000000
 31
0.0000000000000000
  7
KNJYOKO
  0
MTEXT
  5
391
100
AcDbEntity
  8
WAKU0
  6
CONTINUOUS
 62
3
100
AcDbMText
 10
344.4000000059605
 20
34.23333326975504
 30
0.0000000000000000
 40
3.099999904632568
 41
0.0000000000000000
 71
     1
 72
     1
  1
{\H0.70x;{ＳＣ－３－１０６　ガイケイ\PＳＣ－３－１０６　ＯＵＴＳＩＤＥ　ＶＩＥＷ}}
 11
1.000000000000000
 21
0.0000000000000000
 31
0.0000000000000000
  7
KNJYOKO
  0
MTEXT
  5
392
100
AcDbEntity
  8
WAKU0
  6
CONTINUOUS
 62
3
100
AcDbMText
 10
318.0049998760223
 20
39.29999995231628
 30
0.0000000000000000
 40
3.099999904632568
 41
0.0000000000000000
 71
     1
 72
     1
  1
{\H0.90x;{1:1}}
 11
1.000000000000000
 21
0.0000000000000000
 31
0.0000000000000000
  7
STANDARD
  0
MTEXT
  5
393
100
AcDbEntity
  8
WAKU0
  6
CONTINUOUS
 62
3
100
AcDbMText
 10
374.4000001549721
 20
20.15000009536743
 30
0.0000000000000000
 40
5.300000190734863
 41
0.0000000000000000
 71
     1
 72
     1
  1
{\H0.90x;{8756}}
 11
1.000000000000000
 21
0.0000000000000000
 31
0.0000000000000000
  7
STANDARD
  0
MTEXT
  5
394
100
AcDbEntity
  8
WAKU0
  6
CONTINUOUS
 62
3
100
AcDbMText
 10
362.3000000834465
 20
20.15000009536743
 30
0.0000000000000000
 40
5.300000190734863
 41
0.0000000000000000
 71
     1
 72
     1
  1
{\H0.87x;{84}}
 11
1.000000000000000
 21
0.0000000000000000
 31
0.0000000000000000
  7
STANDARD
  0
MTEXT
  5
395
100
AcDbEntity
  8
WAKU0
  6
CONTINUOUS
 62
3
100
AcDbMText
 10
345.5000001192093
 20
20.15000009536743
 30
0.0000000000000000
 40
5.300000190734863
 41
0.0000000000000000
 71
     1
 72
     1
  1
{\H0.89x;{61S}}
 11
1.000000000000000
 21
0.0000000000000000
 31
0.0000000000000000
  7
STANDARD
  0
MTEXT
  5
396
100
AcDbEntity
  8
WAKU0
  6
CONTINUOUS
 62
3
100
AcDbMText
 10
400.0000000476837
 20
20.15000009536743
 30
0.0000000000000000
 40
5.300000190734863
 41
0.0000000000000000
 71
     1
 72
     1
  1
{\H0.81x;{0}}
 11
1.000000000000000
 21
0.0000000000000000
 31
0.0000000000000000
  7
STANDARD
  0
MTEXT
  5
397
100
AcDbEntity
  8
WAKU0
  6
CONTINUOUS
 62
3
100
AcDbMText
 10
400.0000000819564
 20
44.84999990463257
 30
0.0000000000000000
 40
5.300000190734863
 41
0.0000000000000000
 71
     7
 72
     1
  1
{\H0.81x;{ }}
 11
1.000000000000000
 21
0.0000000000000000
 31
0.0000000000000000
  7
STANDARD
  0
MTEXT
  5
398
100
AcDbEntity
  8
WAKU0
  6
CONTINUOUS
 62
3
100
AcDbMText
 10
289.3850002884865
 20
33.00000000000000
 30
0.0000000000000000
 40
3.000000000000000
 41
0.0000000000000000
 71
     7
 72
     1
  1
{\H0.93x;{DRAWN BY}}
 11
1.000000000000000
 21
0.0000000000000000
 31
0.0000000000000000
  7
STANDARD
  0
MTEXT
  5
399
100
AcDbEntity
  8
WAKU0
  6
CONTINUOUS
 62
3
100
AcDbMText
 10
269.2149997949600
 20
32.95000004768372
 30
0.0000000000000000
 40
3.099999904632568
 41
0.0000000000000000
 71
     7
 72
     1
  1
{\H0.92x;{CHIEF}}
 11
1.000000000000000
 21
0.0000000000000000
 31
0.0000000000000000
  7
STANDARD
  0
MTEXT
  5
39A
100
AcDbEntity
  8
WAKU0
  6
CONTINUOUS
 62
3
100
AcDbMText
 10
242.4249997138977
 20
32.95000004768372
 30
0.0000000000000000
 40
3.099999904632568
 41
0.0000000000000000
 71
     7
 72
     1
  1
{\H0.92x;{MANAGER}}
 11
1.000000000000000
 21
0.0000000000000000
 31
0.0000000000000000
  7
STANDARD
  0
MTEXT
  5
39B
100
AcDbEntity
  8
WAKU0
  6
CONTINUOUS
 62
3
100
AcDbMText
 10
241.0850002169609
 20
46.50000000000000
 30
0.0000000000000000
 40
3.000000000000000
 41
0.0000000000000000
 71
     7
 72
     1
  1
{\H0.92x;{CAREER}}
 11
1.000000000000000
 21
0.0000000000000000
 31
0.0000000000000000
  7
STANDARD
  0
MTEXT
  5
39C
100
AcDbEntity
  8
WAKU0
  6
CONTINUOUS
 62
3
100
AcDbMText
 10
294.6099998354912
 20
18.95000004768372
 30
0.0000000000000000
 40
3.099999904632568
 41
0.0000000000000000
 71
     7
 72
     1
  1
{\H0.91x;{DATE}}
 11
1.000000000000000
 21
0.0000000000000000
 31
0.0000000000000000
  7
STANDARD
  0
MTEXT
  5
39D
100
AcDbEntity
  8
WAKU0
  6
CONTINUOUS
 62
3
100
AcDbMText
 10
313.9000002145767
 20
26.50000000000000
 30
0.0000000000000000
 40
3.000000000000000
 41
0.0000000000000000
 71
     7
 72
     1
  1
{\H0.63x;{3RD ANGLE}}
 11
1.000000000000000
 21
0.0000000000000000
 31
0.0000000000000000
  7
STANDARD
  0
MTEXT
  5
39E
100
AcDbEntity
  8
WAKU0
  6
CONTINUOUS
 62
3
100
AcDbMText
 10
315.2149997949600
 20
45.95000004768372
 30
0.0000000000000000
 40
3.099999904632568
 41
0.0000000000000000
 71
     7
 72
     1
  1
{\H0.92x;{SCALE}}
 11
1.000000000000000
 21
0.0000000000000000
 31
0.0000000000000000
  7
STANDARD
  0
MTEXT
  5
39F
100
AcDbEntity
  8
WAKU0
  6
CONTINUOUS
 62
3
100
AcDbMText
 10
405.7000000476837
 20
46.00000000000000
 30
0.0000000000000000
 40
3.000000000000000
 41
0.0000000000000000
 71
     7
 72
     1
  1
{\H0.63x;{kg}}
 11
1.000000000000000
 21
0.0000000000000000
 31
0.0000000000000000
  7
STANDARD
  0
MTEXT
  5
3A0
100
AcDbEntity
  8
WAKU0
  6
CONTINUOUS
 62
3
100
AcDbMText
 10
375.6000001430512
 20
46.00000000000000
 30
0.0000000000000000
 40
3.000000000000000
 41
0.0000000000000000
 71
     7
 72
     1
  1
{\H0.63x;{WEIGHT}}
 11
1.000000000000000
 21
0.0000000000000000
 31
0.0000000000000000
  7
STANDARD
  0
MTEXT
  5
3A1
100
AcDbEntity
  8
WAKU0
  6
CONTINUOUS
 62
3
100
AcDbMText
 10
334.0049998760223
 20
18.13333336512248
 30
0.0000000000000000
 40
3.099999904632568
 41
0.0000000000000000
 71
     7
 72
     1
  1
{\H0.90x;{DRW\PNO.}}
 11
1.000000000000000
 21
0.0000000000000000
 31
0.0000000000000000
  7
STANDARD
  0
MTEXT
  5
3A2
100
AcDbEntity
  8
WAKU0
  6
CONTINUOUS
 62
3
100
AcDbMText
 10
332.6099998354912
 20
31.95000004768372
 30
0.0000000000000000
 40
3.099999904632568
 41
0.0000000000000000
 71
     7
 72
     1
  1
{\H0.91x;{NAME}}
 11
1.000000000000000
 21
0.0000000000000000
 31
0.0000000000000000
  7
STANDARD
  0
MTEXT
  5
3A3
100
AcDbEntity
  8
WAKU0
  6
CONTINUOUS
 62
3
100
AcDbMText
 10
332.6099998354912
 20
45.95000004768372
 30
0.0000000000000000
 40
3.099999904632568
 41
0.0000000000000000
 71
     7
 72
     1
  1
{\H0.91x;{TYPE}}
 11
1.000000000000000
 21
0.0000000000000000
 31
0.0000000000000000
  7
STANDARD
  0
LINE
  5
3A4
100
AcDbEntity
  8
WAKU0
  6
HIDDEN
 62
3
100
AcDbLine
 10
407.1599564743885
 20
13.84999990463257
 30
0.0000000000000000
 11
396.9400436209789
 21
13.84999990463257
 31
0.0000000000000000
  0
LINE
  5
3A5
100
AcDbEntity
  8
WAKU0
  6
HIDDEN
 62
3
100
AcDbLine
 10
407.1599564743885
 20
13.84999990463250
 30
0.0000000000000000
 11
402.0500000476852
 21
22.70070406014901
 31
0.0000000000000000
  0
LINE
  5
3A6
100
AcDbEntity
  8
WAKU0
  6
HIDDEN
 62
3
100
AcDbLine
 10
402.0500000476852
 20
22.70070406014902
 30
0.0000000000000000
 11
396.9400436209789
 21
13.84999990463248
 31
0.0000000000000000
  0
MTEXT
  5
3A7
100
AcDbEntity
  8
WAKU0
  6
CONTINUOUS
 62
3
100
AcDbMText
 10
247.0000009614873
 20
20.63471521698214
 30
0.0000000000000000
 40
3.140094041824341
 41
0.0000000000000000
 71
     1
 72
     1
  1
{\H0.83x;{Ｋｉｔａｇａｗａ\PＣｏｒｐｏｒａｔｉｏｎ}}
 11
1.000000000000000
 21
0.0000000000000000
 31
0.0000000000000000
  7
KNJYOKO
  0
LINE
  5
3A8
100
AcDbEntity
  8
WAKU0
  6
CONTINUOUS
 62
3
100
AcDbLine
 10
330.4713877753800
 20
15.78041421262812
 30
0.0000000000000000
 11
330.4713877753800
 21
21.78041421262815
 31
0.0000000000000000
  0
LINE
  5
3A9
100
AcDbEntity
  8
WAKU0
  6
CONTINUOUS
 62
3
100
AcDbLine
 10
323.9336941228225
 20
17.28041421262811
 30
0.0000000000000000
 11
323.9336941228225
 21
20.28041421262824
 31
0.0000000000000000
  0
LINE
  5
3AA
100
AcDbEntity
  8
WAKU0
  6
CENTER
 62
12
100
AcDbLine
 10
313.4321805514995
 20
18.78041421262813
 30
0.0000000000000000
 11
331.2765788964694
 21
18.78041421262813
 31
0.0000000000000000
  0
LINE
  5
3AB
100
AcDbEntity
  8
WAKU0
  6
CENTER
 62
12
100
AcDbLine
 10
317.4474565857986
 20
14.55921662918448
 30
0.0000000000000000
 11
317.4474565857986
 21
22.89865102149943
 31
0.0000000000000000
  0
LINE
  5
3AC
100
AcDbEntity
  8
WAKU0
  6
CONTINUOUS
 62
3
100
AcDbLine
 10
323.9336941228225
 20
20.28041421262797
 30
0.0000000000000000
 11
330.4713877753800
 21
21.78041421262795
 31
0.0000000000000000
  0
LINE
  5
3AD
100
AcDbEntity
  8
WAKU0
  6
CONTINUOUS
 62
3
100
AcDbLine
 10
323.9336941228225
 20
17.28041421262811
 30
0.0000000000000000
 11
330.4713877753799
 21
15.78041421262812
 31
0.0000000000000000
  0
CIRCLE
  5
3AE
100
AcDbEntity
  8
WAKU0
  6
CONTINUOUS
 62
3
100
AcDbCircle
 10
317.4474565857986
 20
18.78041421262813
 30
0.0000000000000000
 40
1.499999999999972
  0
CIRCLE
  5
3AF
100
AcDbEntity
  8
WAKU0
  6
CONTINUOUS
 62
3
100
AcDbCircle
 10
317.4474565857986
 20
18.78041421262813
 30
0.0000000000000000
 40
2.999999999999979
  0
ENDSEC
  0
SECTION
  2
OBJECTS
  0
DICTIONARY
  5
3FD
100
AcDbDictionary
  3
ACAD_GROUP
350
3FE
  3
ACAD_MLINESTYLE
350
3FF
  3
DWGPROPS
350
400
  0
DICTIONARY
  5
3FE
102
{ACAD_REACTORS
330
3FD
102
}
100
AcDbDictionary
  0
DICTIONARY
  5
3FF
102
{ACAD_REACTORS
330
3FD
102
}
100
AcDbDictionary
  3
STANDARD
350
401
  0
MLINESTYLE
  5
401
102
{ACAD_REACTORS
330
3FF
102
}
100
AcDbMlineStyle
  2
STANDARD
 70
     0
  3

 62
   256
 51
90.00
 52
90.00
 71
     2
 49
0.50
 62
   256
  6
BYLAYER
 49
-0.50
 62
   256
  6
BYLAYER
  0
XRECORD
  5
400
102
{ACAD_REACTORS
330
3FD
102
}
100
AcDbXrecord
280
     1
  1
DWGPROPS COOKIE
  2
ＳＣ－３Ｆ－１１３　クミタテ
  3

  4

  6
スクロールチャック　３
  7

  8

  9

300
=
301
=
302
=
303
=
304
=
305
=
306
=
307
=
308
=
309
=
 40
0.000000
 41
0.000000
 42
0.000000
  1

 90
        0
  0
ENDSEC
  0
EOF
