  0
SECTION
  2
HEADER
  9
$ACADVER
  1
AC1014
  9
$DWGCODEPAGE
  3
ANSI_932
  9
$LTSCALE
 40
20.0
  9
$FILLMODE
 70
     1
  9
$CLAYER
  8
0
  9
$PDMODE
 70
     0
  9
$SPLFRAME
 70
     0
  9
$SPLINETYPE
 70
     6
  9
$SPLINESEGS
 70
     8
  9
$DIMASZ
 40
2.000000
  9
$DIMEXE
 40
2.000000
  9
$DIMEXO
 40
0.800000
  9
$DIMTAD
 70
     1
  9
$DIMTIH
 70
     0
  9
$DIMTOH
 70
     0
  9
$DIMTVP
 40
0.500000
  9
$DIMTXT
 40
3.100000
  9
$EXTMIN
 10
0.000000
 20
0.000000
 30
0.000000
  9
$EXTMAX
 10
420.000000
 20
594.000000
 30
0.000000
  9
$MEASUREMENT
 70
  1
  9
$LIMMIN
 10
0.000000
 20
0.000000
  9
$LIMMAX
 10
420.000000
 20
594.000000
  9
$HANDLING
 70
     1
  9
$HANDSEED
  5
60C
  9
$DIMBLK
  1
_OPEN
  9
$DIMDEC
 70
     3
  9
$DIMAUNIT
 70
     1
  9
$DIMZIN
 70
     8
  9
$DIMTOFL
 70
     1
  0
ENDSEC
  0
SECTION
  2
CLASSES
  0
ENDSEC
  0
SECTION
  2
TABLES
  0
TABLE
  2
VPORT
  5
5AF
100
AcDbSymbolTable
 70
     1
  0
VPORT
  5
5B0
100
AcDbSymbolTableRecord
100
AcDbViewportTableRecord
  2
*ACTIVE
 70
     0
 12
297.000000
 22
210.000000
 40
420.000000
 41
1.414286
  0
ENDTAB
  0
TABLE
  2
LTYPE
  5
5B1
100
AcDbSymbolTable
 70
     4
  0
LTYPE
  5
5B2
100
AcDbSymbolTableRecord
100
AcDbLinetypeTableRecord
  2
BYBLOCK
 70
     0
  3

 72
    65
 73
     0
 40
0.0
  0
LTYPE
  5
5B3
100
AcDbSymbolTableRecord
100
AcDbLinetypeTableRecord
  2
BYLAYER
 70
     0
  3

 72
    65
 73
     0
 40
0.0
  0
LTYPE
  5
5B4
100
AcDbSymbolTableRecord
100
AcDbLinetypeTableRecord
  2
CONTINUOUS
 70
     0
  3
Solid line (NEC CAE2D for Win R14.2 : 2021.05.17)
 72
    65
 73
     0
 40
0.0
  0
LTYPE
  5
5B5
100
AcDbSymbolTableRecord
100
AcDbLinetypeTableRecord
  2
HIDDEN
 70
     0
  3
__ __ __ __ __ __ __ __ __ __ __ __ __ __
 72
    65
 73
     2
 40
0.375
 49
0.25
 74
     0
 49
-0.125
 74
     0
  0
LTYPE
  5
5B6
100
AcDbSymbolTableRecord
100
AcDbLinetypeTableRecord
  2
CENTER
 70
     0
  3
____ _ ____ _ ____ _ ____ _ ____ _ ____
 72
    65
 73
     4
 40
2.0
 49
1.25
 74
     0
 49
-0.25
 74
     0
 49
0.25
 74
     0
 49
-0.25
 74
     0
  0
LTYPE
  5
5B7
100
AcDbSymbolTableRecord
100
AcDbLinetypeTableRecord
  2
PHANTOM
 70
     0
  3
______  __  __  ______  __  __  ______ 
 72
    65
 73
     6
 40
2.5
 49
1.25
 74
     0
 49
-0.25
 74
     0
 49
0.25
 74
     0
 49
-0.25
 74
     0
 49
0.25
 74
     0
 49
-0.25
 74
     0
  0
ENDTAB
  0
TABLE
  2
LAYER
  5
5B8
100
AcDbSymbolTable
 70
    10
  0
LAYER
  5
5B9
100
AcDbSymbolTableRecord
100
AcDbLayerTableRecord
  2
0
 70
     0
 62
     7
  6
CONTINUOUS
  0
LAYER
  5
5BA
100
AcDbSymbolTableRecord
100
AcDbLayerTableRecord
  2
MAIN0
 70
     0
 62
     7
  6
CONTINUOUS
  0
LAYER
  5
5BB
100
AcDbSymbolTableRecord
100
AcDbLayerTableRecord
  2
MAIN1
 70
     0
 62
     7
  6
CONTINUOUS
  0
LAYER
  5
5BC
100
AcDbSymbolTableRecord
100
AcDbLayerTableRecord
  2
MAIN2
 70
     0
 62
     7
  6
CONTINUOUS
  0
LAYER
  5
5BD
100
AcDbSymbolTableRecord
100
AcDbLayerTableRecord
  2
MAIN3
 70
     0
 62
     7
  6
CONTINUOUS
  0
LAYER
  5
5BE
100
AcDbSymbolTableRecord
100
AcDbLayerTableRecord
  2
MAIN4
 70
     0
 62
     7
  6
CONTINUOUS
  0
LAYER
  5
5BF
100
AcDbSymbolTableRecord
100
AcDbLayerTableRecord
  2
MAIN5
 70
     0
 62
     7
  6
CONTINUOUS
  0
LAYER
  5
5C0
100
AcDbSymbolTableRecord
100
AcDbLayerTableRecord
  2
MAIN1023
 70
     0
 62
    16
  6
CONTINUOUS
  0
LAYER
  5
5C1
100
AcDbSymbolTableRecord
100
AcDbLayerTableRecord
  2
WAKU0
 70
     0
 62
     7
  6
CONTINUOUS
  0
LAYER
  5
5C2
100
AcDbSymbolTableRecord
100
AcDbLayerTableRecord
  2
WAKU1023
 70
     0
 62
    16
  6
CONTINUOUS
  0
ENDTAB
  0
TABLE
  2
STYLE
  5
5C3
100
AcDbSymbolTable
 70
     4
  0
STYLE
  5
5C4
100
AcDbSymbolTableRecord
100
AcDbTextStyleTableRecord
  2
STANDARD
 70
    64
 40
0.0
 41
1.0
 50
0.0
 71
     0
 42
3.140094041824341
  3
TXT
  4

  0
STYLE
  5
5C5
100
AcDbSymbolTableRecord
100
AcDbTextStyleTableRecord
  2
ANKTATE
 70
    68
 40
0.0
 41
1.0
 50
0.0
 71
     0
 42
3.140094041824341
  3
TXT
  4

  0
STYLE
  5
C5
100
AcDbSymbolTableRecord
100
AcDbTextStyleTableRecord
  2
KNJYOKO
 70
    64
 40
0.0
 41
1.0
 50
0.0
 71
     0
 42
3.140094041824341
  3
TXT
  4
BIGFONT
  0
STYLE
  5
5C6
100
AcDbSymbolTableRecord
100
AcDbTextStyleTableRecord
  2
KNJTATE
 70
    68
 40
0.0
 41
1.0
 50
0.0
 71
     0
 42
3.140094041824341
  3
TXT
  4
BIGFONT
  0
ENDTAB
  0
TABLE
  2
VIEW
  5
5C7
100
AcDbSymbolTable
 70
     0
  0
ENDTAB
  0
TABLE
  2
UCS
  5
5C8
100
AcDbSymbolTable
 70
     0
  0
ENDTAB
  0
TABLE
  2
APPID
  5
5C9
100
AcDbSymbolTable
 70
     1
  0
APPID
  5
5CA
100
AcDbSymbolTableRecord
100
AcDbRegAppTableRecord
  2
ACAD
 70
     0
  0
ENDTAB
  0
TABLE
  2
DIMSTYLE
  5
5CB
100
AcDbSymbolTable
 70
     1
  0
DIMSTYLE
105
5CC
100
AcDbSymbolTableRecord
100
AcDbDimStyleTableRecord
  2
STANDARD
 70
     0
 41
2.000000
 44
2.000000
 42
0.800000
145
0.661290
140
3.100000
144
1.000000
146
0.903226
340
5C4
  0
DIMSTYLE
105
5CD
100
AcDbSymbolTableRecord
100
AcDbDimStyleTableRecord
  2
MAIN001
 70
     0
 41
2.000000
 44
2.000000
 42
0.800000
145
0.661290
140
3.100000
144
1.000000
146
0.903226
 77
     1
 73
     0
 74
     0
271
     3
275
     1
 78
     8
172
     1
340
5C4
  0
DIMSTYLE
105
5CE
100
AcDbSymbolTableRecord
100
AcDbDimStyleTableRecord
  2
WAKU002
 70
     0
 41
2.000000
 44
2.000000
 42
0.800000
145
0.661290
140
3.100000
144
1.000000
146
0.903226
 77
     1
 73
     0
 74
     0
271
     3
275
     1
 78
     8
172
     1
340
5C4
  0
ENDTAB
  0
TABLE
  2
BLOCK_RECORD
  5
5CF
100
AcDbSymbolTable
 70
    62
  0
BLOCK_RECORD
  5
5D0
100
AcDbSymbolTableRecord
100
AcDbBlockTableRecord
  2
*MODEL_SPACE
  0
BLOCK_RECORD
  5
5D1
100
AcDbSymbolTableRecord
100
AcDbBlockTableRecord
  2
*PAPER_SPACE
  0
BLOCK_RECORD
  5
1
100
AcDbSymbolTableRecord
100
AcDbBlockTableRecord
  2
_NONE
  0
BLOCK_RECORD
  5
4
100
AcDbSymbolTableRecord
100
AcDbBlockTableRecord
  2
_CLOSED
  0
BLOCK_RECORD
  5
B
100
AcDbSymbolTableRecord
100
AcDbBlockTableRecord
  2
_DOT
  0
BLOCK_RECORD
  5
13
100
AcDbSymbolTableRecord
100
AcDbBlockTableRecord
  2
_OPEN
  0
BLOCK_RECORD
  5
19
100
AcDbSymbolTableRecord
100
AcDbBlockTableRecord
  2
_ORIGIN
  0
BLOCK_RECORD
  5
1E
100
AcDbSymbolTableRecord
100
AcDbBlockTableRecord
  2
_OPEN30
  0
BLOCK_RECORD
  5
24
100
AcDbSymbolTableRecord
100
AcDbBlockTableRecord
  2
_BOXFILLED
  0
BLOCK_RECORD
  5
29
100
AcDbSymbolTableRecord
100
AcDbBlockTableRecord
  2
_BOXBLANK
  0
BLOCK_RECORD
  5
31
100
AcDbSymbolTableRecord
100
AcDbBlockTableRecord
  2
_OBLIQUE
  0
BLOCK_RECORD
  5
35
100
AcDbSymbolTableRecord
100
AcDbBlockTableRecord
  2
_OPEN90
  0
BLOCK_RECORD
  5
3B
100
AcDbSymbolTableRecord
100
AcDbBlockTableRecord
  2
_CLOSEDBLANK
  0
BLOCK_RECORD
  5
41
100
AcDbSymbolTableRecord
100
AcDbBlockTableRecord
  2
_DOTBLANK
  0
BLOCK_RECORD
  5
5D2
100
AcDbSymbolTableRecord
100
AcDbBlockTableRecord
  2
*D0
  0
BLOCK_RECORD
  5
5D3
100
AcDbSymbolTableRecord
100
AcDbBlockTableRecord
  2
*D1
  0
BLOCK_RECORD
  5
5D4
100
AcDbSymbolTableRecord
100
AcDbBlockTableRecord
  2
*D2
  0
BLOCK_RECORD
  5
5D5
100
AcDbSymbolTableRecord
100
AcDbBlockTableRecord
  2
*D3
  0
BLOCK_RECORD
  5
5D6
100
AcDbSymbolTableRecord
100
AcDbBlockTableRecord
  2
*D4
  0
BLOCK_RECORD
  5
5D7
100
AcDbSymbolTableRecord
100
AcDbBlockTableRecord
  2
*D5
  0
BLOCK_RECORD
  5
5D8
100
AcDbSymbolTableRecord
100
AcDbBlockTableRecord
  2
*D6
  0
BLOCK_RECORD
  5
5D9
100
AcDbSymbolTableRecord
100
AcDbBlockTableRecord
  2
*D7
  0
BLOCK_RECORD
  5
5DA
100
AcDbSymbolTableRecord
100
AcDbBlockTableRecord
  2
*D8
  0
BLOCK_RECORD
  5
5DB
100
AcDbSymbolTableRecord
100
AcDbBlockTableRecord
  2
*D9
  0
BLOCK_RECORD
  5
5DC
100
AcDbSymbolTableRecord
100
AcDbBlockTableRecord
  2
*D10
  0
BLOCK_RECORD
  5
5DD
100
AcDbSymbolTableRecord
100
AcDbBlockTableRecord
  2
*D11
  0
BLOCK_RECORD
  5
5DE
100
AcDbSymbolTableRecord
100
AcDbBlockTableRecord
  2
*D12
  0
BLOCK_RECORD
  5
5DF
100
AcDbSymbolTableRecord
100
AcDbBlockTableRecord
  2
*D13
  0
BLOCK_RECORD
  5
5E0
100
AcDbSymbolTableRecord
100
AcDbBlockTableRecord
  2
*D14
  0
BLOCK_RECORD
  5
5E1
100
AcDbSymbolTableRecord
100
AcDbBlockTableRecord
  2
*D15
  0
BLOCK_RECORD
  5
5E2
100
AcDbSymbolTableRecord
100
AcDbBlockTableRecord
  2
*D16
  0
BLOCK_RECORD
  5
5E3
100
AcDbSymbolTableRecord
100
AcDbBlockTableRecord
  2
*D17
  0
BLOCK_RECORD
  5
5E4
100
AcDbSymbolTableRecord
100
AcDbBlockTableRecord
  2
*D18
  0
BLOCK_RECORD
  5
5E5
100
AcDbSymbolTableRecord
100
AcDbBlockTableRecord
  2
*D19
  0
BLOCK_RECORD
  5
5E6
100
AcDbSymbolTableRecord
100
AcDbBlockTableRecord
  2
*D20
  0
BLOCK_RECORD
  5
5E7
100
AcDbSymbolTableRecord
100
AcDbBlockTableRecord
  2
*D21
  0
BLOCK_RECORD
  5
5E8
100
AcDbSymbolTableRecord
100
AcDbBlockTableRecord
  2
*D22
  0
BLOCK_RECORD
  5
5E9
100
AcDbSymbolTableRecord
100
AcDbBlockTableRecord
  2
*D23
  0
BLOCK_RECORD
  5
5EA
100
AcDbSymbolTableRecord
100
AcDbBlockTableRecord
  2
*D24
  0
BLOCK_RECORD
  5
5EB
100
AcDbSymbolTableRecord
100
AcDbBlockTableRecord
  2
*D25
  0
BLOCK_RECORD
  5
5EC
100
AcDbSymbolTableRecord
100
AcDbBlockTableRecord
  2
*D26
  0
BLOCK_RECORD
  5
5ED
100
AcDbSymbolTableRecord
100
AcDbBlockTableRecord
  2
*D27
  0
BLOCK_RECORD
  5
5EE
100
AcDbSymbolTableRecord
100
AcDbBlockTableRecord
  2
*D28
  0
BLOCK_RECORD
  5
5EF
100
AcDbSymbolTableRecord
100
AcDbBlockTableRecord
  2
*D29
  0
BLOCK_RECORD
  5
5F0
100
AcDbSymbolTableRecord
100
AcDbBlockTableRecord
  2
*D30
  0
BLOCK_RECORD
  5
5F1
100
AcDbSymbolTableRecord
100
AcDbBlockTableRecord
  2
*D31
  0
BLOCK_RECORD
  5
5F2
100
AcDbSymbolTableRecord
100
AcDbBlockTableRecord
  2
*D32
  0
BLOCK_RECORD
  5
5F3
100
AcDbSymbolTableRecord
100
AcDbBlockTableRecord
  2
*D33
  0
BLOCK_RECORD
  5
5F4
100
AcDbSymbolTableRecord
100
AcDbBlockTableRecord
  2
*D34
  0
BLOCK_RECORD
  5
5F5
100
AcDbSymbolTableRecord
100
AcDbBlockTableRecord
  2
*D35
  0
BLOCK_RECORD
  5
5F6
100
AcDbSymbolTableRecord
100
AcDbBlockTableRecord
  2
*D36
  0
BLOCK_RECORD
  5
5F7
100
AcDbSymbolTableRecord
100
AcDbBlockTableRecord
  2
*D37
  0
BLOCK_RECORD
  5
5F8
100
AcDbSymbolTableRecord
100
AcDbBlockTableRecord
  2
*D38
  0
BLOCK_RECORD
  5
5F9
100
AcDbSymbolTableRecord
100
AcDbBlockTableRecord
  2
*D39
  0
BLOCK_RECORD
  5
5FA
100
AcDbSymbolTableRecord
100
AcDbBlockTableRecord
  2
*D40
  0
BLOCK_RECORD
  5
5FB
100
AcDbSymbolTableRecord
100
AcDbBlockTableRecord
  2
*D41
  0
BLOCK_RECORD
  5
5FC
100
AcDbSymbolTableRecord
100
AcDbBlockTableRecord
  2
*D42
  0
BLOCK_RECORD
  5
5FD
100
AcDbSymbolTableRecord
100
AcDbBlockTableRecord
  2
*D43
  0
BLOCK_RECORD
  5
5FE
100
AcDbSymbolTableRecord
100
AcDbBlockTableRecord
  2
*D44
  0
BLOCK_RECORD
  5
5FF
100
AcDbSymbolTableRecord
100
AcDbBlockTableRecord
  2
*D45
  0
BLOCK_RECORD
  5
600
100
AcDbSymbolTableRecord
100
AcDbBlockTableRecord
  2
*X0
  0
BLOCK_RECORD
  5
601
100
AcDbSymbolTableRecord
100
AcDbBlockTableRecord
  2
*X1
  0
BLOCK_RECORD
  5
602
100
AcDbSymbolTableRecord
100
AcDbBlockTableRecord
  2
*X2
  0
BLOCK_RECORD
  5
603
100
AcDbSymbolTableRecord
100
AcDbBlockTableRecord
  2
*X3
  0
ENDTAB
  0
ENDSEC
  0
SECTION
  2
BLOCKS
  0
BLOCK
  5
604
100
AcDbEntity
  8
0
100
AcDbBlockBegin
  2
*MODEL_SPACE
 70
     0
 10
0.0
 20
0.0
 30
0.0
  3
*MODEL_SPACE
  1

  0
ENDBLK
  5
605
100
AcDbEntity
  8
0
100
AcDbBlockEnd
  0
BLOCK
  5
606
100
AcDbEntity
  8
0
100
AcDbBlockBegin
  2
*PAPER_SPACE
 70
     0
 10
0.0
 20
0.0
 30
0.0
  3
*PAPER_SPACE
  1

  0
ENDBLK
  5
607
100
AcDbEntity
  8
0
100
AcDbBlockEnd
  0
BLOCK
  5
2
100
AcDbEntity
  8
0
100
AcDbBlockBegin
  2
_NONE
 70
     0
 10
0.0
 20
0.0
 30
0.0
  3
_NONE
  1

  0
ENDBLK
  5
3
100
AcDbEntity
  8
0
100
AcDbBlockEnd
  0
BLOCK
  5
5
100
AcDbEntity
  8
0
100
AcDbBlockBegin
  2
_CLOSED
 70
     0
 10
0.0
 20
0.0
 30
0.0
  3
_CLOSED
  1

  0
LINE
  5
6
100
AcDbEntity
  8
0
  6
BYBLOCK
 62
     0
100
AcDbLine
 10
-1.0
 20
0.166667
 30
0.0
 11
0.0
 21
0.0
 31
0.0
  0
LINE
  5
7
100
AcDbEntity
  8
0
  6
BYBLOCK
 62
     0
100
AcDbLine
 10
0.0
 20
0.0
 30
0.0
 11
-1.0
 21
-0.166667
 31
0.0
  0
LINE
  5
8
100
AcDbEntity
  8
0
  6
BYBLOCK
 62
     0
100
AcDbLine
 10
-1.0
 20
0.166667
 30
0.0
 11
-1.0
 21
-0.166667
 31
0.0
  0
LINE
  5
9
100
AcDbEntity
  8
0
  6
BYBLOCK
 62
     0
100
AcDbLine
 10
0.0
 20
0.0
 30
0.0
 11
-1.0
 21
0.0
 31
0.0
  0
ENDBLK
  5
A
100
AcDbEntity
  8
0
100
AcDbBlockEnd
  0
BLOCK
  5
C
100
AcDbEntity
  8
0
100
AcDbBlockBegin
  2
_DOT
 70
     0
 10
0.0
 20
0.0
 30
0.0
  3
_DOT
  1

  0
POLYLINE
  5
D
100
AcDbEntity
  8
0
  6
BYBLOCK
 62
     0
100
AcDb2dPolyline
 66
     1
 10
0.0
 20
0.0
 30
0.0
 70
     1
 40
0.5
 41
0.5
  0
VERTEX
  5
E
100
AcDbEntity
  8
0
  6
BYBLOCK
 62
     0
100
AcDbVertex
100
AcDb2dVertex
 10
-0.25
 20
0.0
 30
0.0
 42
1.0
  0
VERTEX
  5
F
100
AcDbEntity
  8
0
  6
BYBLOCK
 62
     0
100
AcDbVertex
100
AcDb2dVertex
 10
0.25
 20
0.0
 30
0.0
 42
1.0
  0
SEQEND
  5
10
100
AcDbEntity
  8
0
  6
BYBLOCK
 62
     0
  0
LINE
  5
11
100
AcDbEntity
  8
0
  6
BYBLOCK
 62
     0
100
AcDbLine
 10
-0.5
 20
0.0
 30
0.0
 11
-1.0
 21
0.0
 31
0.0
  0
ENDBLK
  5
12
100
AcDbEntity
  8
0
100
AcDbBlockEnd
  0
BLOCK
  5
14
100
AcDbEntity
  8
0
100
AcDbBlockBegin
  2
_OPEN
 70
     0
 10
0.0
 20
0.0
 30
0.0
  3
_OPEN
  1

  0
LINE
  5
15
100
AcDbEntity
  8
0
  6
BYBLOCK
 62
     0
100
AcDbLine
 10
-1.0
 20
0.166667
 30
0.0
 11
0.0
 21
0.0
 31
0.0
  0
LINE
  5
16
100
AcDbEntity
  8
0
  6
BYBLOCK
 62
     0
100
AcDbLine
 10
0.0
 20
0.0
 30
0.0
 11
-1.0
 21
-0.166667
 31
0.0
  0
LINE
  5
17
100
AcDbEntity
  8
0
  6
BYBLOCK
 62
     0
100
AcDbLine
 10
0.0
 20
0.0
 30
0.0
 11
-1.0
 21
0.0
 31
0.0
  0
ENDBLK
  5
18
100
AcDbEntity
  8
0
100
AcDbBlockEnd
  0
BLOCK
  5
1A
100
AcDbEntity
  8
0
100
AcDbBlockBegin
  2
_ORIGIN
 70
     0
 10
0.0
 20
0.0
 30
0.0
  3
_ORIGIN
  1

  0
CIRCLE
  5
1B
100
AcDbEntity
  8
0
  6
BYBLOCK
 62
     0
100
AcDbCircle
 10
0.0
 20
0.0
 30
0.0
 40
0.5
  0
LINE
  5
1C
100
AcDbEntity
  8
0
  6
BYBLOCK
 62
     0
100
AcDbLine
 10
0.0
 20
0.0
 30
0.0
 11
-1.0
 21
0.0
 31
0.0
  0
ENDBLK
  5
1D
100
AcDbEntity
  8
0
100
AcDbBlockEnd
  0
BLOCK
  5
1F
100
AcDbEntity
  8
0
100
AcDbBlockBegin
  2
_OPEN30
 70
     0
 10
0.0
 20
0.0
 30
0.0
  3
_OPEN30
  1

  0
LINE
  5
20
100
AcDbEntity
  8
0
  6
BYBLOCK
 62
     0
100
AcDbLine
 10
-1.0
 20
0.267949
 30
0.0
 11
0.0
 21
0.0
 31
0.0
  0
LINE
  5
21
100
AcDbEntity
  8
0
  6
BYBLOCK
 62
     0
100
AcDbLine
 10
0.0
 20
0.0
 30
0.0
 11
-1.0
 21
-0.267949
 31
0.0
  0
LINE
  5
22
100
AcDbEntity
  8
0
  6
BYBLOCK
 62
     0
100
AcDbLine
 10
0.0
 20
0.0
 30
0.0
 11
-1.0
 21
0.0
 31
0.0
  0
ENDBLK
  5
23
100
AcDbEntity
  8
0
100
AcDbBlockEnd
  0
BLOCK
  5
25
100
AcDbEntity
  8
0
100
AcDbBlockBegin
  2
_BOXFILLED
 70
     0
 10
0.0
 20
0.0
 30
0.0
  3
_BOXFILLED
  1

  0
SOLID
  5
26
100
AcDbEntity
  8
0
  6
BYBLOCK
 62
     0
100
AcDbTrace
 10
-0.5
 20
0.5
 30
0.0
 11
0.5
 21
0.5
 31
0.0
 12
-0.5
 22
-0.5
 32
0.0
 13
0.5
 23
-0.5
 33
0.0
  0
LINE
  5
27
100
AcDbEntity
  8
0
  6
BYBLOCK
 62
     0
100
AcDbLine
 10
-0.5
 20
0.0
 30
0.0
 11
-1.0
 21
0.0
 31
0.0
  0
ENDBLK
  5
28
100
AcDbEntity
  8
0
100
AcDbBlockEnd
  0
BLOCK
  5
2A
100
AcDbEntity
  8
0
100
AcDbBlockBegin
  2
_BOXBLANK
 70
     0
 10
0.0
 20
0.0
 30
0.0
  3
_BOXBLANK
  1

  0
LINE
  5
2B
100
AcDbEntity
  8
0
  6
BYBLOCK
 62
     0
100
AcDbLine
 10
-0.5
 20
-0.5
 30
0.0
 11
0.5
 21
-0.5
 31
0.0
  0
LINE
  5
2C
100
AcDbEntity
  8
0
  6
BYBLOCK
 62
     0
100
AcDbLine
 10
0.5
 20
-0.5
 30
0.0
 11
0.5
 21
0.5
 31
0.0
  0
LINE
  5
2D
100
AcDbEntity
  8
0
  6
BYBLOCK
 62
     0
100
AcDbLine
 10
0.5
 20
0.5
 30
0.0
 11
-0.5
 21
0.5
 31
0.0
  0
LINE
  5
2E
100
AcDbEntity
  8
0
  6
BYBLOCK
 62
     0
100
AcDbLine
 10
-0.5
 20
0.5
 30
0.0
 11
-0.5
 21
-0.5
 31
0.0
  0
LINE
  5
2F
100
AcDbEntity
  8
0
  6
BYBLOCK
 62
     0
100
AcDbLine
 10
-0.5
 20
0.0
 30
0.0
 11
-1.0
 21
0.0
 31
0.0
  0
ENDBLK
  5
30
100
AcDbEntity
  8
0
100
AcDbBlockEnd
  0
BLOCK
  5
32
100
AcDbEntity
  8
0
100
AcDbBlockBegin
  2
_OBLIQUE
 70
     0
 10
0.0
 20
0.0
 30
0.0
  3
_OBLIQUE
  1

  0
LINE
  5
33
100
AcDbEntity
  8
0
  6
BYBLOCK
 62
     0
100
AcDbLine
 10
-0.5
 20
-0.5
 30
0.0
 11
0.5
 21
0.5
 31
0.0
  0
ENDBLK
  5
34
100
AcDbEntity
  8
0
100
AcDbBlockEnd
  0
BLOCK
  5
36
100
AcDbEntity
  8
0
100
AcDbBlockBegin
  2
_OPEN90
 70
     0
 10
0.0
 20
0.0
 30
0.0
  3
_OPEN90
  1

  0
LINE
  5
37
100
AcDbEntity
  8
0
  6
BYBLOCK
 62
     0
100
AcDbLine
 10
-0.5
 20
0.5
 30
0.0
 11
0.0
 21
0.0
 31
0.0
  0
LINE
  5
38
100
AcDbEntity
  8
0
  6
BYBLOCK
 62
     0
100
AcDbLine
 10
0.0
 20
0.0
 30
0.0
 11
-0.5
 21
-0.5
 31
0.0
  0
LINE
  5
39
100
AcDbEntity
  8
0
  6
BYBLOCK
 62
     0
100
AcDbLine
 10
0.0
 20
0.0
 30
0.0
 11
-1.0
 21
0.0
 31
0.0
  0
ENDBLK
  5
3A
100
AcDbEntity
  8
0
100
AcDbBlockEnd
  0
BLOCK
  5
3C
100
AcDbEntity
  8
0
100
AcDbBlockBegin
  2
_CLOSEDBLANK
 70
     0
 10
0.0
 20
0.0
 30
0.0
  3
_CLOSEDBLANK
  1

  0
LINE
  5
3D
100
AcDbEntity
  8
0
  6
BYBLOCK
 62
     0
100
AcDbLine
 10
-1.0
 20
0.1666666666666666
 30
0.0
 11
0.0
 21
0.0
 31
0.0
  0
LINE
  5
3E
100
AcDbEntity
  8
0
  6
BYBLOCK
 62
     0
100
AcDbLine
 10
0.0
 20
0.0
 30
0.0
 11
-1.0
 21
-0.1666666666666666
 31
0.0
  0
LINE
  5
3F
100
AcDbEntity
  8
0
  6
BYBLOCK
 62
     0
100
AcDbLine
 10
-1.0
 20
0.1666666666666666
 30
0.0
 11
-1.0
 21
-0.1666666666666666
 31
0.0
  0
ENDBLK
  5
40
100
AcDbEntity
  8
0
100
AcDbBlockEnd
  0
BLOCK
  5
42
100
AcDbEntity
  8
0
100
AcDbBlockBegin
  2
_DOTBLANK
 70
     0
 10
0.0
 20
0.0
 30
0.0
  3
_DOTBLANK
  1

  0
CIRCLE
  5
43
100
AcDbEntity
  8
0
  6
BYBLOCK
 62
     0
100
AcDbCircle
 10
0.0
 20
0.0
 30
0.0
 40
0.5
  0
LINE
  5
44
100
AcDbEntity
  8
0
  6
BYBLOCK
 62
     0
100
AcDbLine
 10
-0.5
 20
0.0
 30
0.0
 11
-1.0
 21
0.0
 31
0.0
  0
ENDBLK
  5
45
100
AcDbEntity
  8
0
100
AcDbBlockEnd
  0
BLOCK
  5
57
100
AcDbEntity
  8
MAIN0
  6
CONTINUOUS
 62
3
100
AcDbBlockBegin
  2
*D0
 70
    65
 10
0.0
 20
0.0
 30
0.0
  0
LINE
  5
58
100
AcDbEntity
  8
MAIN0
  6
BYBLOCK
 62
0
100
AcDbLine
 10
390.5548612920350
 20
52.24931095800707
 30
0.0000000000000000
 11
390.5548612920350
 21
50.06666666811933
 31
0.0000000000000000
  0
LINE
  5
59
100
AcDbEntity
  8
MAIN0
  6
BYBLOCK
 62
0
100
AcDbLine
 10
388.5548612920350
 20
52.06666666811933
 30
0.0000000000000000
 11
366.0548612918850
 21
52.06666666811933
 31
0.0000000000000000
  0
INSERT
  5
5A
100
AcDbEntity
  8
MAIN0
  6
BYBLOCK
 62
0
100
AcDbBlockReference
  2
_OPEN
 10
390.5548612920350
 20
52.06666666811933
 30
0.0000000000000000
 41
2.000000000000000
 42
2.000000000000000
 43
2.000000000000000
 50
360.0000000000000
  0
INSERT
  5
5B
100
AcDbEntity
  8
MAIN0
  6
BYBLOCK
 62
0
100
AcDbBlockReference
  2
_OPEN
 10
364.0548612918850
 20
52.06666666811933
 30
0.0000000000000000
 41
2.000000000000000
 42
2.000000000000000
 43
2.000000000000000
 50
180.0000000000000
  0
LINE
  5
5C
100
AcDbEntity
  8
MAIN0
  6
BYBLOCK
 62
0
100
AcDbLine
 10
364.0548612918850
 20
62.20771528733278
 30
0.0000000000000000
 11
364.0548612918850
 21
50.06666666811933
 31
0.0000000000000000
  0
MTEXT
  5
5D
100
AcDbEntity
  8
MAIN0
  6
BYBLOCK
 62
0
100
AcDbMText
 10
377.3048612919599
 20
54.11666662043561
 30
0.0000000000000000
 40
3.099999904632568
 41
0.0000000000000000
 71
     5
 72
     1
  1
\A1;26.5
 11
1.000000000000000
 21
0.0000000000000000
 31
0.0000000000000000
  7
STANDARD
  0
ENDBLK
  5
5E
100
AcDbEntity
  8
MAIN0
  6
CONTINUOUS
 62
3
100
AcDbBlockEnd
  0
BLOCK
  5
60
100
AcDbEntity
  8
MAIN0
  6
CONTINUOUS
 62
3
100
AcDbBlockBegin
  2
*D1
 70
    65
 10
0.0
 20
0.0
 30
0.0
  0
LINE
  5
61
100
AcDbEntity
  8
MAIN0
  6
BYBLOCK
 62
0
100
AcDbLine
 10
390.5548612920350
 20
52.24931095800707
 30
0.0000000000000000
 11
390.5548612920350
 21
42.95145978742565
 31
0.0000000000000000
  0
LINE
  5
62
100
AcDbEntity
  8
MAIN0
  6
BYBLOCK
 62
0
100
AcDbLine
 10
388.5548612920350
 20
44.95145978742565
 30
0.0000000000000000
 11
360.0548612922038
 21
44.95145978742565
 31
0.0000000000000000
  0
INSERT
  5
63
100
AcDbEntity
  8
MAIN0
  6
BYBLOCK
 62
0
100
AcDbBlockReference
  2
_OPEN
 10
390.5548612920350
 20
44.95145978742565
 30
0.0000000000000000
 41
2.000000000000000
 42
2.000000000000000
 43
2.000000000000000
 50
360.0000000000000
  0
INSERT
  5
64
100
AcDbEntity
  8
MAIN0
  6
BYBLOCK
 62
0
100
AcDbBlockReference
  2
_OPEN
 10
358.0548612922038
 20
44.95145978742565
 30
0.0000000000000000
 41
2.000000000000000
 42
2.000000000000000
 43
2.000000000000000
 50
180.0000000000000
  0
LINE
  5
65
100
AcDbEntity
  8
MAIN0
  6
BYBLOCK
 62
0
100
AcDbLine
 10
358.0548612922038
 20
74.69046127883809
 30
0.0000000000000000
 11
358.0548612922038
 21
42.95145978742565
 31
0.0000000000000000
  0
MTEXT
  5
66
100
AcDbEntity
  8
MAIN0
  6
BYBLOCK
 62
0
100
AcDbMText
 10
374.3048612921194
 20
47.00145973974193
 30
0.0000000000000000
 40
3.099999904632568
 41
0.0000000000000000
 71
     5
 72
     1
  1
\A1;32.5
 11
1.000000000000000
 21
0.0000000000000000
 31
0.0000000000000000
  7
STANDARD
  0
ENDBLK
  5
67
100
AcDbEntity
  8
MAIN0
  6
CONTINUOUS
 62
3
100
AcDbBlockEnd
  0
BLOCK
  5
69
100
AcDbEntity
  8
MAIN0
  6
CONTINUOUS
 62
3
100
AcDbBlockBegin
  2
*D2
 70
    65
 10
0.0
 20
0.0
 30
0.0
  0
LINE
  5
6A
100
AcDbEntity
  8
MAIN0
  6
BYBLOCK
 62
0
100
AcDbLine
 10
358.0548612922038
 20
74.69046127883809
 30
0.0000000000000000
 11
358.0548612922038
 21
42.95145978742565
 31
0.0000000000000000
  0
LINE
  5
6B
100
AcDbEntity
  8
MAIN0
  6
BYBLOCK
 62
0
100
AcDbLine
 10
356.0548612922038
 20
44.95145978742565
 30
0.0000000000000000
 11
334.2548612920398
 21
44.95145978742565
 31
0.0000000000000000
  0
INSERT
  5
6C
100
AcDbEntity
  8
MAIN0
  6
BYBLOCK
 62
0
100
AcDbBlockReference
  2
_OPEN
 10
358.0548612922038
 20
44.95145978742565
 30
0.0000000000000000
 41
2.000000000000000
 42
2.000000000000000
 43
2.000000000000000
 50
360.0000000000000
  0
INSERT
  5
6D
100
AcDbEntity
  8
MAIN0
  6
BYBLOCK
 62
0
100
AcDbBlockReference
  2
_OPEN
 10
332.2548612920398
 20
44.95145978742565
 30
0.0000000000000000
 41
2.000000000000000
 42
2.000000000000000
 43
2.000000000000000
 50
180.0000000000000
  0
LINE
  5
6E
100
AcDbEntity
  8
MAIN0
  6
BYBLOCK
 62
0
100
AcDbLine
 10
332.2548612920398
 20
74.25173324983601
 30
0.0000000000000000
 11
332.2548612920398
 21
42.95145978742565
 31
0.0000000000000000
  0
MTEXT
  5
6F
100
AcDbEntity
  8
MAIN0
  6
BYBLOCK
 62
0
100
AcDbMText
 10
345.1548612921218
 20
47.00145973974193
 30
0.0000000000000000
 40
3.099999904632568
 41
0.0000000000000000
 71
     5
 72
     1
  1
\A1;25.8
 11
1.000000000000000
 21
0.0000000000000000
 31
0.0000000000000000
  7
STANDARD
  0
ENDBLK
  5
70
100
AcDbEntity
  8
MAIN0
  6
CONTINUOUS
 62
3
100
AcDbBlockEnd
  0
BLOCK
  5
72
100
AcDbEntity
  8
MAIN0
  6
CONTINUOUS
 62
3
100
AcDbBlockBegin
  2
*D3
 70
    65
 10
0.0
 20
0.0
 30
0.0
  0
LINE
  5
73
100
AcDbEntity
  8
MAIN0
  6
BYBLOCK
 62
0
100
AcDbLine
 10
332.2548612920398
 20
74.25173324983601
 30
0.0000000000000000
 11
332.2548612920398
 21
42.95145978742565
 31
0.0000000000000000
  0
LINE
  5
74
100
AcDbEntity
  8
MAIN0
  6
BYBLOCK
 62
0
100
AcDbLine
 10
332.2548612920398
 20
44.95145978742565
 30
0.0000000000000000
 11
326.0548612918239
 21
44.95145978742565
 31
0.0000000000000000
  0
INSERT
  5
75
100
AcDbEntity
  8
MAIN0
  6
BYBLOCK
 62
0
100
AcDbBlockReference
  2
_OPEN
 10
332.2548612920398
 20
44.95145978742565
 30
0.0000000000000000
 41
2.000000000000000
 42
2.000000000000000
 43
2.000000000000000
 50
180.0000000000000
  0
INSERT
  5
76
100
AcDbEntity
  8
MAIN0
  6
BYBLOCK
 62
0
100
AcDbBlockReference
  2
_OPEN
 10
326.0548612918239
 20
44.95145978742565
 30
0.0000000000000000
 41
2.000000000000000
 42
2.000000000000000
 43
2.000000000000000
 50
360.0000000000000
  0
LINE
  5
77
100
AcDbEntity
  8
MAIN0
  6
BYBLOCK
 62
0
100
AcDbLine
 10
334.2548612920398
 20
44.95145978742565
 30
0.0000000000000000
 11
335.2548612920398
 21
44.95145978742565
 31
0.0000000000000000
  0
LINE
  5
78
100
AcDbEntity
  8
MAIN0
  6
BYBLOCK
 62
0
100
AcDbLine
 10
324.0548612918239
 20
44.95145978742565
 30
0.0000000000000000
 11
318.8836748446803
 21
44.95145978742565
 31
0.0000000000000000
  0
LINE
  5
79
100
AcDbEntity
  8
MAIN0
  6
BYBLOCK
 62
0
100
AcDbLine
 10
326.0548612918239
 20
58.93983933418983
 30
0.0000000000000000
 11
326.0548612918239
 21
42.95145978742565
 31
0.0000000000000000
  0
MTEXT
  5
7A
100
AcDbEntity
  8
MAIN0
  6
BYBLOCK
 62
0
100
AcDbMText
 10
321.5336746427698
 20
47.00145973974193
 30
0.0000000000000000
 40
3.099999904632568
 41
0.0000000000000000
 71
     5
 72
     1
  1
\A1;6.2
 11
1.000000000000000
 21
0.0000000000000000
 31
0.0000000000000000
  7
STANDARD
  0
ENDBLK
  5
7B
100
AcDbEntity
  8
MAIN0
  6
CONTINUOUS
 62
3
100
AcDbBlockEnd
  0
BLOCK
  5
7D
100
AcDbEntity
  8
MAIN0
  6
CONTINUOUS
 62
3
100
AcDbBlockBegin
  2
*D4
 70
    65
 10
0.0
 20
0.0
 30
0.0
  0
LINE
  5
7E
100
AcDbEntity
  8
MAIN0
  6
BYBLOCK
 62
0
100
AcDbLine
 10
349.9944943360187
 20
61.73983934611081
 30
0.0000000000000000
 11
349.9944943360187
 21
65.73983934614836
 31
0.0000000000000000
  0
INSERT
  5
7F
100
AcDbEntity
  8
MAIN0
  6
BYBLOCK
 62
0
100
AcDbBlockReference
  2
_OPEN
 10
349.9944943360187
 20
59.73983934611081
 30
0.0000000000000000
 41
2.000000000000000
 42
2.000000000000000
 43
2.000000000000000
 50
270.0000000000000
  0
INSERT
  5
80
100
AcDbEntity
  8
MAIN0
  6
BYBLOCK
 62
0
100
AcDbBlockReference
  2
_OPEN
 10
349.9944943360187
 20
67.73983934614836
 30
0.0000000000000000
 41
2.000000000000000
 42
2.000000000000000
 43
2.000000000000000
 50
90.00000000000000
  0
LINE
  5
81
100
AcDbEntity
  8
MAIN0
  6
BYBLOCK
 62
0
100
AcDbLine
 10
359.1218636225152
 20
67.73983934614836
 30
0.0000000000000000
 11
347.9944943360187
 21
67.73983934614836
 31
0.0000000000000000
  0
MTEXT
  5
82
100
AcDbEntity
  8
MAIN0
  6
BYBLOCK
 62
0
100
AcDbMText
 10
347.9444943837024
 20
63.73983934612960
 30
0.0000000000000000
 40
3.099999904632568
 41
0.0000000000000000
 71
     5
 72
     1
  1
\A1;8
 11
6.123233995736766e-017
 21
1.000000000000000
 31
0.0000000000000000
  7
STANDARD
  0
ENDBLK
  5
83
100
AcDbEntity
  8
MAIN0
  6
CONTINUOUS
 62
3
100
AcDbBlockEnd
  0
BLOCK
  5
85
100
AcDbEntity
  8
MAIN0
  6
CONTINUOUS
 62
3
100
AcDbBlockBegin
  2
*D5
 70
    65
 10
0.0
 20
0.0
 30
0.0
  0
LINE
  5
86
100
AcDbEntity
  8
MAIN0
  6
BYBLOCK
 62
0
100
AcDbLine
 10
325.2548612799029
 20
59.73983934611081
 30
0.0000000000000000
 11
310.7764987502682
 21
59.73983934611081
 31
0.0000000000000000
  0
LINE
  5
87
100
AcDbEntity
  8
MAIN0
  6
BYBLOCK
 62
0
100
AcDbLine
 10
312.7764987502682
 20
61.73983934611081
 30
0.0000000000000000
 11
312.7764987502682
 21
77.23983934615058
 31
0.0000000000000000
  0
INSERT
  5
88
100
AcDbEntity
  8
MAIN0
  6
BYBLOCK
 62
0
100
AcDbBlockReference
  2
_OPEN
 10
312.7764987502682
 20
59.73983934611081
 30
0.0000000000000000
 41
2.000000000000000
 42
2.000000000000000
 43
2.000000000000000
 50
270.0000000000000
  0
INSERT
  5
89
100
AcDbEntity
  8
MAIN0
  6
BYBLOCK
 62
0
100
AcDbBlockReference
  2
_OPEN
 10
312.7764987502682
 20
79.23983934615058
 30
0.0000000000000000
 41
2.000000000000000
 42
2.000000000000000
 43
2.000000000000000
 50
90.00000000000000
  0
LINE
  5
8A
100
AcDbEntity
  8
MAIN0
  6
BYBLOCK
 62
0
100
AcDbLine
 10
316.6149463924753
 20
79.23983934610973
 30
0.0000000000000000
 11
310.7764987502682
 21
79.23983934617183
 31
0.0000000000000000
  0
MTEXT
  5
8B
100
AcDbEntity
  8
MAIN0
  6
BYBLOCK
 62
0
100
AcDbMText
 10
310.7264987979519
 20
69.48983934613068
 30
0.0000000000000000
 40
3.099999904632568
 41
0.0000000000000000
 71
     5
 72
     1
  1
\A1;19.5
 11
6.123233995736766e-017
 21
1.000000000000000
 31
0.0000000000000000
  7
STANDARD
  0
ENDBLK
  5
8C
100
AcDbEntity
  8
MAIN0
  6
CONTINUOUS
 62
3
100
AcDbBlockEnd
  0
BLOCK
  5
94
100
AcDbEntity
  8
MAIN0
  6
CONTINUOUS
 62
3
100
AcDbBlockBegin
  2
*D6
 70
    65
 10
0.0
 20
0.0
 30
0.0
  0
LINE
  5
95
100
AcDbEntity
  8
MAIN0
  6
BYBLOCK
 62
0
100
AcDbLine
 10
517.5548612920347
 20
169.9398393342959
 30
0.0000000000000000
 11
517.5548612920347
 21
156.0961863360750
 31
0.0000000000000000
  0
LINE
  5
96
100
AcDbEntity
  8
MAIN0
  6
BYBLOCK
 62
0
100
AcDbLine
 10
515.5548612920347
 20
158.0961863360750
 30
0.0000000000000000
 11
509.5548612918733
 21
158.0961863360750
 31
0.0000000000000000
  0
INSERT
  5
97
100
AcDbEntity
  8
MAIN0
  6
BYBLOCK
 62
0
100
AcDbBlockReference
  2
_OPEN
 10
517.5548612920347
 20
158.0961863360750
 30
0.0000000000000000
 41
2.000000000000000
 42
2.000000000000000
 43
2.000000000000000
 50
360.0000000000000
  0
INSERT
  5
98
100
AcDbEntity
  8
MAIN0
  6
BYBLOCK
 62
0
100
AcDbBlockReference
  2
_OPEN
 10
507.5548612918733
 20
158.0961863360750
 30
0.0000000000000000
 41
2.000000000000000
 42
2.000000000000000
 43
2.000000000000000
 50
180.0000000000000
  0
LINE
  5
99
100
AcDbEntity
  8
MAIN0
  6
BYBLOCK
 62
0
100
AcDbLine
 10
507.5548612918733
 20
170.1614601651678
 30
0.0000000000000000
 11
507.5548612918733
 21
156.0961863360750
 31
0.0000000000000000
  0
MTEXT
  5
9A
100
AcDbEntity
  8
MAIN0
  6
BYBLOCK
 62
0
100
AcDbMText
 10
512.5548612919540
 20
160.1461862883913
 30
0.0000000000000000
 40
3.099999904632568
 41
0.0000000000000000
 71
     5
 72
     1
  1
\A1;10
 11
1.000000000000000
 21
0.0000000000000000
 31
0.0000000000000000
  7
STANDARD
  0
ENDBLK
  5
9B
100
AcDbEntity
  8
MAIN0
  6
CONTINUOUS
 62
3
100
AcDbBlockEnd
  0
BLOCK
  5
9D
100
AcDbEntity
  8
MAIN0
  6
CONTINUOUS
 62
3
100
AcDbBlockBegin
  2
*D7
 70
    65
 10
0.0
 20
0.0
 30
0.0
  0
LINE
  5
9E
100
AcDbEntity
  8
MAIN0
  6
BYBLOCK
 62
0
100
AcDbLine
 10
514.2022533976846
 20
282.7398393459774
 30
0.0000000000000000
 11
531.7570018916463
 21
282.7398393459235
 31
0.0000000000000000
  0
LINE
  5
9F
100
AcDbEntity
  8
MAIN0
  6
BYBLOCK
 62
0
100
AcDbLine
 10
529.7570018916463
 20
280.7398393459297
 30
0.0000000000000000
 11
529.7570018916463
 21
178.7398393464801
 31
0.0000000000000000
  0
INSERT
  5
A0
100
AcDbEntity
  8
MAIN0
  6
BYBLOCK
 62
0
100
AcDbBlockReference
  2
_OPEN
 10
529.7570018916463
 20
282.7398393459297
 30
0.0000000000000000
 41
2.000000000000000
 42
2.000000000000000
 43
2.000000000000000
 50
90.00000000000000
  0
INSERT
  5
A1
100
AcDbEntity
  8
MAIN0
  6
BYBLOCK
 62
0
100
AcDbBlockReference
  2
_OPEN
 10
529.7570018916463
 20
176.7398393464801
 30
0.0000000000000000
 41
2.000000000000000
 42
2.000000000000000
 43
2.000000000000000
 50
270.0000000000000
  0
LINE
  5
A2
100
AcDbEntity
  8
MAIN0
  6
BYBLOCK
 62
0
100
AcDbLine
 10
514.2022533976846
 20
176.7398393464800
 30
0.0000000000000000
 11
531.7570018916463
 21
176.7398393464801
 31
0.0000000000000000
  0
MTEXT
  5
A3
100
AcDbEntity
  8
MAIN0
  6
BYBLOCK
 62
0
100
AcDbMText
 10
527.7070019393300
 20
229.7398393462049
 30
0.0000000000000000
 40
3.099999904632568
 41
0.0000000000000000
 71
     5
 72
     1
  1
\A1;106
 11
6.123233995736766e-017
 21
1.000000000000000
 31
0.0000000000000000
  7
STANDARD
  0
ENDBLK
  5
A4
100
AcDbEntity
  8
MAIN0
  6
CONTINUOUS
 62
3
100
AcDbBlockEnd
  0
BLOCK
  5
A6
100
AcDbEntity
  8
MAIN0
  6
CONTINUOUS
 62
3
100
AcDbBlockBegin
  2
*D8
 70
    65
 10
0.0
 20
0.0
 30
0.0
  0
LINE
  5
A7
100
AcDbEntity
  8
MAIN0
  6
BYBLOCK
 62
0
100
AcDbLine
 10
514.5797118555615
 20
245.7398393462294
 30
0.0000000000000000
 11
526.1742785415604
 21
245.7398393461976
 31
0.0000000000000000
  0
LINE
  5
A8
100
AcDbEntity
  8
MAIN0
  6
BYBLOCK
 62
0
100
AcDbLine
 10
524.1742785415604
 20
243.7398393462031
 30
0.0000000000000000
 11
524.1742785415604
 21
215.7398393462283
 31
0.0000000000000000
  0
INSERT
  5
A9
100
AcDbEntity
  8
MAIN0
  6
BYBLOCK
 62
0
100
AcDbBlockReference
  2
_OPEN
 10
524.1742785415604
 20
245.7398393462031
 30
0.0000000000000000
 41
2.000000000000000
 42
2.000000000000000
 43
2.000000000000000
 50
90.00000000000000
  0
INSERT
  5
AA
100
AcDbEntity
  8
MAIN0
  6
BYBLOCK
 62
0
100
AcDbBlockReference
  2
_OPEN
 10
524.1742785415604
 20
213.7398393462283
 30
0.0000000000000000
 41
2.000000000000000
 42
2.000000000000000
 43
2.000000000000000
 50
270.0000000000000
  0
LINE
  5
AB
100
AcDbEntity
  8
MAIN0
  6
BYBLOCK
 62
0
100
AcDbLine
 10
514.5797118555615
 20
213.7398393462283
 30
0.0000000000000000
 11
526.1742785415604
 21
213.7398393462283
 31
0.0000000000000000
  0
MTEXT
  5
AC
100
AcDbEntity
  8
MAIN0
  6
BYBLOCK
 62
0
100
AcDbMText
 10
522.1242785892441
 20
229.7398393629795
 30
0.0000000000000000
 40
3.099999904632568
 41
0.0000000000000000
 71
     5
 72
     1
  1
\A1;32\H0.903226x;\U+00B10.02
 11
6.123233995736766e-017
 21
1.000000000000000
 31
0.0000000000000000
  7
STANDARD
  0
ENDBLK
  5
AD
100
AcDbEntity
  8
MAIN0
  6
CONTINUOUS
 62
3
100
AcDbBlockEnd
  0
BLOCK
  5
B1
100
AcDbEntity
  8
MAIN0
  6
CONTINUOUS
 62
3
100
AcDbBlockBegin
  2
*D9
 70
    65
 10
0.0
 20
0.0
 30
0.0
  0
LINE
  5
B2
100
AcDbEntity
  8
MAIN0
  6
BYBLOCK
 62
0
100
AcDbLine
 10
517.5548612919885
 20
289.5398393582146
 30
0.0000000000000000
 11
517.5548612919886
 21
309.9802956500797
 31
0.0000000000000000
  0
LINE
  5
B3
100
AcDbEntity
  8
MAIN0
  6
BYBLOCK
 62
0
100
AcDbLine
 10
515.5548612919886
 20
307.9802956500797
 30
0.0000000000000000
 11
479.5548612920271
 21
307.9802956500797
 31
0.0000000000000000
  0
INSERT
  5
B4
100
AcDbEntity
  8
MAIN0
  6
BYBLOCK
 62
0
100
AcDbBlockReference
  2
_OPEN
 10
517.5548612919886
 20
307.9802956500797
 30
0.0000000000000000
 41
2.000000000000000
 42
2.000000000000000
 43
2.000000000000000
 50
360.0000000000000
  0
INSERT
  5
B5
100
AcDbEntity
  8
MAIN0
  6
BYBLOCK
 62
0
100
AcDbBlockReference
  2
_OPEN
 10
477.5548612920271
 20
307.9802956500797
 30
0.0000000000000000
 41
2.000000000000000
 42
2.000000000000000
 43
2.000000000000000
 50
180.0000000000000
  0
LINE
  5
B6
100
AcDbEntity
  8
MAIN0
  6
BYBLOCK
 62
0
100
AcDbLine
 10
477.5548612920271
 20
289.5398393586069
 30
0.0000000000000000
 11
477.5548612920271
 21
309.9802956500797
 31
0.0000000000000000
  0
MTEXT
  5
B7
100
AcDbEntity
  8
MAIN0
  6
BYBLOCK
 62
0
100
AcDbMText
 10
497.5548612920078
 20
310.0302956023960
 30
0.0000000000000000
 40
3.099999904632568
 41
0.0000000000000000
 71
     5
 72
     1
  1
\A1;40
 11
1.000000000000000
 21
0.0000000000000000
 31
0.0000000000000000
  7
STANDARD
  0
ENDBLK
  5
B8
100
AcDbEntity
  8
MAIN0
  6
CONTINUOUS
 62
3
100
AcDbBlockEnd
  0
BLOCK
  5
BA
100
AcDbEntity
  8
MAIN0
  6
CONTINUOUS
 62
3
100
AcDbBlockBegin
  2
*D10
 70
    65
 10
0.0
 20
0.0
 30
0.0
  0
LINE
  5
BB
100
AcDbEntity
  8
MAIN0
  6
BYBLOCK
 62
0
100
AcDbLine
 10
477.5548612920271
 20
289.5398393586069
 30
0.0000000000000000
 11
477.5548612920271
 21
309.9802956500797
 31
0.0000000000000000
  0
LINE
  5
BC
100
AcDbEntity
  8
MAIN0
  6
BYBLOCK
 62
0
100
AcDbLine
 10
477.5548612920351
 20
307.9802956500797
 30
0.0000000000000000
 11
476.5548612920239
 21
307.9802956500797
 31
0.0000000000000000
  0
INSERT
  5
BD
100
AcDbEntity
  8
MAIN0
  6
BYBLOCK
 62
0
100
AcDbBlockReference
  2
_OPEN
 10
477.5548612920351
 20
307.9802956500797
 30
0.0000000000000000
 41
2.000000000000000
 42
2.000000000000000
 43
2.000000000000000
 50
180.0000000000000
  0
INSERT
  5
BE
100
AcDbEntity
  8
MAIN0
  6
BYBLOCK
 62
0
100
AcDbBlockReference
  2
_OPEN
 10
476.5548612920239
 20
307.9802956500797
 30
0.0000000000000000
 41
2.000000000000000
 42
2.000000000000000
 43
2.000000000000000
 50
360.0000000000000
  0
LINE
  5
BF
100
AcDbEntity
  8
MAIN0
  6
BYBLOCK
 62
0
100
AcDbLine
 10
479.5548612920351
 20
307.9802956500797
 30
0.0000000000000000
 11
480.5548612920351
 21
307.9802956500797
 31
0.0000000000000000
  0
LINE
  5
C0
100
AcDbEntity
  8
MAIN0
  6
BYBLOCK
 62
0
100
AcDbLine
 10
474.5548612920239
 20
307.9802956500797
 30
0.0000000000000000
 11
465.8924906102612
 21
307.9802956500797
 31
0.0000000000000000
  0
LINE
  5
C1
100
AcDbEntity
  8
MAIN0
  6
BYBLOCK
 62
0
100
AcDbLine
 10
476.5548612920239
 20
290.7121611284911
 30
0.0000000000000000
 11
476.5548612920239
 21
309.9802956500797
 31
0.0000000000000000
  0
MTEXT
  5
C2
100
AcDbEntity
  8
MAIN0
  6
BYBLOCK
 62
0
100
AcDbMText
 10
469.5424902517715
 20
310.0302956023960
 30
0.0000000000000000
 40
3.099999904632568
 41
0.0000000000000000
 71
     5
 72
     1
  1
\A1;（1）
 11
1.000000000000000
 21
0.0000000000000000
 31
0.0000000000000000
  7
KNJYOKO
  0
ENDBLK
  5
C3
100
AcDbEntity
  8
MAIN0
  6
CONTINUOUS
 62
3
100
AcDbBlockEnd
  0
BLOCK
  5
C6
100
AcDbEntity
  8
MAIN0
  6
CONTINUOUS
 62
3
100
AcDbBlockBegin
  2
*D11
 70
    65
 10
0.0
 20
0.0
 30
0.0
  0
LINE
  5
C7
100
AcDbEntity
  8
MAIN0
  6
BYBLOCK
 62
0
100
AcDbLine
 10
477.5548612920148
 20
250.4411157054078
 30
0.0000000000000000
 11
477.0548612920036
 21
250.4411157054078
 31
0.0000000000000000
  0
INSERT
  5
C8
100
AcDbEntity
  8
MAIN0
  6
BYBLOCK
 62
0
100
AcDbBlockReference
  2
_OPEN
 10
477.5548612920148
 20
250.4411157054078
 30
0.0000000000000000
 41
2.000000000000000
 42
2.000000000000000
 43
2.000000000000000
 50
180.0000000000000
  0
INSERT
  5
C9
100
AcDbEntity
  8
MAIN0
  6
BYBLOCK
 62
0
100
AcDbBlockReference
  2
_OPEN
 10
477.0548612920036
 20
250.4411157054078
 30
0.0000000000000000
 41
2.000000000000000
 42
2.000000000000000
 43
2.000000000000000
 50
360.0000000000000
  0
LINE
  5
CA
100
AcDbEntity
  8
MAIN0
  6
BYBLOCK
 62
0
100
AcDbLine
 10
479.5548612920148
 20
250.4411157054078
 30
0.0000000000000000
 11
480.5548612920148
 21
250.4411157054078
 31
0.0000000000000000
  0
LINE
  5
CB
100
AcDbEntity
  8
MAIN0
  6
BYBLOCK
 62
0
100
AcDbLine
 10
475.0548612920036
 20
250.4411157054078
 30
0.0000000000000000
 11
469.2508265820732
 21
250.4411157054078
 31
0.0000000000000000
  0
LINE
  5
CC
100
AcDbEntity
  8
MAIN0
  6
BYBLOCK
 62
0
100
AcDbLine
 10
477.0548612920036
 20
247.0398393579128
 30
0.0000000000000000
 11
477.0548612920036
 21
252.4411157054078
 31
0.0000000000000000
  0
MTEXT
  5
CD
100
AcDbEntity
  8
MAIN0
  6
BYBLOCK
 62
0
100
AcDbMText
 10
471.9008265932451
 20
252.4911156577241
 30
0.0000000000000000
 40
3.099999904632568
 41
0.0000000000000000
 71
     5
 72
     1
  1
\A1;0.5
 11
1.000000000000000
 21
0.0000000000000000
 31
0.0000000000000000
  7
STANDARD
  0
ENDBLK
  5
CE
100
AcDbEntity
  8
MAIN0
  6
CONTINUOUS
 62
3
100
AcDbBlockEnd
  0
BLOCK
  5
D0
100
AcDbEntity
  8
MAIN0
  6
CONTINUOUS
 62
3
100
AcDbBlockBegin
  2
*D12
 70
    65
 10
0.0
 20
0.0
 30
0.0
  0
LINE
  5
D1
100
AcDbEntity
  8
MAIN0
  6
BYBLOCK
 62
0
100
AcDbLine
 10
477.1548612800956
 20
191.4898393460849
 30
0.0000000000000000
 11
461.6465109024037
 21
191.4898393461034
 31
0.0000000000000000
  0
LINE
  5
D2
100
AcDbEntity
  8
MAIN0
  6
BYBLOCK
 62
0
100
AcDbLine
 10
463.6465109024037
 20
191.4898393461010
 30
0.0000000000000000
 11
463.6465109024037
 21
181.9898393460689
 31
0.0000000000000000
  0
INSERT
  5
D3
100
AcDbEntity
  8
MAIN0
  6
BYBLOCK
 62
0
100
AcDbBlockReference
  2
_OPEN
 10
463.6465109024037
 20
191.4898393461010
 30
0.0000000000000000
 41
2.000000000000000
 42
2.000000000000000
 43
2.000000000000000
 50
270.0000000000000
  0
INSERT
  5
D4
100
AcDbEntity
  8
MAIN0
  6
BYBLOCK
 62
0
100
AcDbBlockReference
  2
_OPEN
 10
463.6465109024037
 20
181.9898393460689
 30
0.0000000000000000
 41
2.000000000000000
 42
2.000000000000000
 43
2.000000000000000
 50
90.00000000000000
  0
LINE
  5
D5
100
AcDbEntity
  8
MAIN0
  6
BYBLOCK
 62
0
100
AcDbLine
 10
463.6465109024037
 20
193.4898393461010
 30
0.0000000000000000
 11
463.6465109024037
 21
194.4898393461010
 31
0.0000000000000000
  0
LINE
  5
D6
100
AcDbEntity
  8
MAIN0
  6
BYBLOCK
 62
0
100
AcDbLine
 10
463.6465109024037
 20
179.9898393460689
 30
0.0000000000000000
 11
463.6465109024037
 21
178.9898393460689
 31
0.0000000000000000
  0
LINE
  5
D7
100
AcDbEntity
  8
MAIN0
  6
BYBLOCK
 62
0
100
AcDbLine
 10
477.1548612800996
 20
181.9898393460806
 30
0.0000000000000000
 11
461.6465109024037
 21
181.9898393460671
 31
0.0000000000000000
  0
MTEXT
  5
D8
100
AcDbEntity
  8
MAIN0
  6
BYBLOCK
 62
0
100
AcDbMText
 10
461.5965109500874
 20
186.7398393460849
 30
0.0000000000000000
 40
3.099999904632568
 41
0.0000000000000000
 71
     5
 72
     1
  1
\A1;\U+22059.5
 11
6.123233995736766e-017
 21
1.000000000000000
 31
0.0000000000000000
  7
STANDARD
  0
ENDBLK
  5
D9
100
AcDbEntity
  8
MAIN0
  6
CONTINUOUS
 62
3
100
AcDbBlockEnd
  0
BLOCK
  5
DB
100
AcDbEntity
  8
MAIN0
  6
CONTINUOUS
 62
3
100
AcDbBlockBegin
  2
*D13
 70
    65
 10
0.0
 20
0.0
 30
0.0
  0
LINE
  5
DC
100
AcDbEntity
  8
MAIN0
  6
BYBLOCK
 62
0
100
AcDbLine
 10
493.0126554391393
 20
189.3398393459457
 30
0.0000000000000000
 11
493.0126554391393
 21
184.1398393459457
 31
0.0000000000000000
  0
INSERT
  5
DD
100
AcDbEntity
  8
MAIN0
  6
BYBLOCK
 62
0
100
AcDbBlockReference
  2
_OPEN
 10
493.0126554391393
 20
189.3398393459457
 30
0.0000000000000000
 41
2.000000000000000
 42
2.000000000000000
 43
2.000000000000000
 50
270.0000000000000
  0
INSERT
  5
DE
100
AcDbEntity
  8
MAIN0
  6
BYBLOCK
 62
0
100
AcDbBlockReference
  2
_OPEN
 10
493.0126554391393
 20
184.1398393459457
 30
0.0000000000000000
 41
2.000000000000000
 42
2.000000000000000
 43
2.000000000000000
 50
90.00000000000000
  0
LINE
  5
DF
100
AcDbEntity
  8
MAIN0
  6
BYBLOCK
 62
0
100
AcDbLine
 10
493.0126554391393
 20
191.3398393459457
 30
0.0000000000000000
 11
493.0126554391393
 21
192.3398393459457
 31
0.0000000000000000
  0
LINE
  5
E0
100
AcDbEntity
  8
MAIN0
  6
BYBLOCK
 62
0
100
AcDbLine
 10
493.0126554391393
 20
182.1398393459457
 30
0.0000000000000000
 11
493.0126554391393
 21
173.5466691799301
 31
0.0000000000000000
  0
MTEXT
  5
E1
100
AcDbEntity
  8
MAIN0
  6
BYBLOCK
 62
0
100
AcDbMText
 10
490.9626554868230
 20
177.4966693040176
 30
0.0000000000000000
 40
3.099999904632568
 41
0.0000000000000000
 71
     5
 72
     1
  1
\A1;\U+22055.2
 11
6.123233995736766e-017
 21
1.000000000000000
 31
0.0000000000000000
  7
STANDARD
  0
ENDBLK
  5
E2
100
AcDbEntity
  8
MAIN0
  6
CONTINUOUS
 62
3
100
AcDbBlockEnd
  0
BLOCK
  5
E4
100
AcDbEntity
  8
MAIN0
  6
CONTINUOUS
 62
3
100
AcDbBlockBegin
  2
*D14
 70
    65
 10
0.0
 20
0.0
 30
0.0
  0
LINE
  5
E5
100
AcDbEntity
  8
MAIN0
  6
BYBLOCK
 62
0
100
AcDbLine
 10
485.5548612920393
 20
192.2898393579853
 30
0.0000000000000000
 11
485.5548612920148
 21
200.9569490298492
 31
0.0000000000000000
  0
LINE
  5
E6
100
AcDbEntity
  8
MAIN0
  6
BYBLOCK
 62
0
100
AcDbLine
 10
485.5548612920204
 20
198.9569490298492
 30
0.0000000000000000
 11
477.5548612920272
 21
198.9569490298492
 31
0.0000000000000000
  0
INSERT
  5
E7
100
AcDbEntity
  8
MAIN0
  6
BYBLOCK
 62
0
100
AcDbBlockReference
  2
_OPEN
 10
485.5548612920204
 20
198.9569490298492
 30
0.0000000000000000
 41
2.000000000000000
 42
2.000000000000000
 43
2.000000000000000
 50
180.0000000000000
  0
INSERT
  5
E8
100
AcDbEntity
  8
MAIN0
  6
BYBLOCK
 62
0
100
AcDbBlockReference
  2
_OPEN
 10
477.5548612920272
 20
198.9569490298492
 30
0.0000000000000000
 41
2.000000000000000
 42
2.000000000000000
 43
2.000000000000000
 50
360.0000000000000
  0
LINE
  5
E9
100
AcDbEntity
  8
MAIN0
  6
BYBLOCK
 62
0
100
AcDbLine
 10
487.5548612920204
 20
198.9569490298492
 30
0.0000000000000000
 11
492.4901487676063
 21
198.9569490298492
 31
0.0000000000000000
  0
LINE
  5
EA
100
AcDbEntity
  8
MAIN0
  6
BYBLOCK
 62
0
100
AcDbLine
 10
475.5548612920272
 20
198.9569490298492
 30
0.0000000000000000
 11
474.5548612920272
 21
198.9569490298492
 31
0.0000000000000000
  0
MTEXT
  5
EB
100
AcDbEntity
  8
MAIN0
  6
BYBLOCK
 62
0
100
AcDbMText
 10
491.4401489031625
 20
201.0069489821655
 30
0.0000000000000000
 40
3.099999904632568
 41
0.0000000000000000
 71
     5
 72
     1
  1
\A1;8
 11
1.000000000000000
 21
0.0000000000000000
 31
0.0000000000000000
  7
STANDARD
  0
ENDBLK
  5
EC
100
AcDbEntity
  8
MAIN0
  6
CONTINUOUS
 62
3
100
AcDbBlockEnd
  0
BLOCK
  5
EE
100
AcDbEntity
  8
MAIN0
  6
CONTINUOUS
 62
3
100
AcDbBlockBegin
  2
*D15
 70
    65
 10
0.0
 20
0.0
 30
0.0
  0
LINE
  5
EF
100
AcDbEntity
  8
MAIN0
  6
BYBLOCK
 62
0
100
AcDbLine
 10
404.2548613038393
 20
289.9121611166992
 30
0.0000000000000000
 11
426.9441858973588
 21
289.9121611166992
 31
0.0000000000000000
  0
LINE
  5
F0
100
AcDbEntity
  8
MAIN0
  6
BYBLOCK
 62
0
100
AcDbLine
 10
424.9441858973588
 20
289.9121611166992
 30
0.0000000000000000
 11
424.9441858973588
 21
283.4121611166992
 31
0.0000000000000000
  0
INSERT
  5
F1
100
AcDbEntity
  8
MAIN0
  6
BYBLOCK
 62
0
100
AcDbBlockReference
  2
_OPEN
 10
424.9441858973588
 20
289.9121611166992
 30
0.0000000000000000
 41
2.000000000000000
 42
2.000000000000000
 43
2.000000000000000
 50
270.0000000000000
  0
INSERT
  5
F2
100
AcDbEntity
  8
MAIN0
  6
BYBLOCK
 62
0
100
AcDbBlockReference
  2
_OPEN
 10
424.9441858973588
 20
283.4121611166992
 30
0.0000000000000000
 41
2.000000000000000
 42
2.000000000000000
 43
2.000000000000000
 50
90.00000000000000
  0
LINE
  5
F3
100
AcDbEntity
  8
MAIN0
  6
BYBLOCK
 62
0
100
AcDbLine
 10
424.9441858973588
 20
291.9121611166992
 30
0.0000000000000000
 11
424.9441858973588
 21
292.9121611166992
 31
0.0000000000000000
  0
LINE
  5
F4
100
AcDbEntity
  8
MAIN0
  6
BYBLOCK
 62
0
100
AcDbLine
 10
424.9441858973588
 20
281.4121611166992
 30
0.0000000000000000
 11
424.9441858973588
 21
280.4121611166992
 31
0.0000000000000000
  0
LINE
  5
F5
100
AcDbEntity
  8
MAIN0
  6
BYBLOCK
 62
0
100
AcDbLine
 10
398.0072678925520
 20
283.4121611166992
 30
0.0000000000000000
 11
426.9441858973588
 21
283.4121611166992
 31
0.0000000000000000
  0
MTEXT
  5
F6
100
AcDbEntity
  8
MAIN0
  6
BYBLOCK
 62
0
100
AcDbMText
 10
422.8941859450425
 20
286.6621611166992
 30
0.0000000000000000
 40
3.099999904632568
 41
0.0000000000000000
 71
     5
 72
     1
  1
\A1;6.5
 11
6.123233995736766e-017
 21
1.000000000000000
 31
0.0000000000000000
  7
STANDARD
  0
ENDBLK
  5
F7
100
AcDbEntity
  8
MAIN0
  6
CONTINUOUS
 62
3
100
AcDbBlockEnd
  0
BLOCK
  5
F9
100
AcDbEntity
  8
MAIN0
  6
CONTINUOUS
 62
3
100
AcDbBlockBegin
  2
*D16
 70
    65
 10
0.0
 20
0.0
 30
0.0
  0
LINE
  5
FA
100
AcDbEntity
  8
MAIN0
  6
BYBLOCK
 62
0
100
AcDbLine
 10
398.0072678925520
 20
283.4121611166992
 30
0.0000000000000000
 11
426.9441858973588
 21
283.4121611166992
 31
0.0000000000000000
  0
LINE
  5
FB
100
AcDbEntity
  8
MAIN0
  6
BYBLOCK
 62
0
100
AcDbLine
 10
424.9441858973588
 20
281.4121611166992
 30
0.0000000000000000
 11
424.9441858973588
 21
265.4121611166992
 31
0.0000000000000000
  0
INSERT
  5
FC
100
AcDbEntity
  8
MAIN0
  6
BYBLOCK
 62
0
100
AcDbBlockReference
  2
_OPEN
 10
424.9441858973588
 20
283.4121611166992
 30
0.0000000000000000
 41
2.000000000000000
 42
2.000000000000000
 43
2.000000000000000
 50
90.00000000000000
  0
INSERT
  5
FD
100
AcDbEntity
  8
MAIN0
  6
BYBLOCK
 62
0
100
AcDbBlockReference
  2
_OPEN
 10
424.9441858973588
 20
263.4121611166992
 30
0.0000000000000000
 41
2.000000000000000
 42
2.000000000000000
 43
2.000000000000000
 50
270.0000000000000
  0
LINE
  5
FE
100
AcDbEntity
  8
MAIN0
  6
BYBLOCK
 62
0
100
AcDbLine
 10
398.0072678925520
 20
263.4121611166992
 30
0.0000000000000000
 11
426.9441858973588
 21
263.4121611166992
 31
0.0000000000000000
  0
MTEXT
  5
FF
100
AcDbEntity
  8
MAIN0
  6
BYBLOCK
 62
0
100
AcDbMText
 10
422.8941859450425
 20
273.4121611166992
 30
0.0000000000000000
 40
3.099999904632568
 41
0.0000000000000000
 71
     5
 72
     1
  1
\A1;20
 11
6.123233995736766e-017
 21
1.000000000000000
 31
0.0000000000000000
  7
STANDARD
  0
ENDBLK
  5
100
100
AcDbEntity
  8
MAIN0
  6
CONTINUOUS
 62
3
100
AcDbBlockEnd
  0
BLOCK
  5
102
100
AcDbEntity
  8
MAIN0
  6
CONTINUOUS
 62
3
100
AcDbBlockBegin
  2
*D17
 70
    65
 10
0.0
 20
0.0
 30
0.0
  0
LINE
  5
103
100
AcDbEntity
  8
MAIN0
  6
BYBLOCK
 62
0
100
AcDbLine
 10
398.0072678925520
 20
263.4121611166992
 30
0.0000000000000000
 11
426.9441858973588
 21
263.4121611166992
 31
0.0000000000000000
  0
LINE
  5
104
100
AcDbEntity
  8
MAIN0
  6
BYBLOCK
 62
0
100
AcDbLine
 10
424.9441858973588
 20
261.4121611166992
 30
0.0000000000000000
 11
424.9441858973588
 21
231.7398393462299
 31
0.0000000000000000
  0
INSERT
  5
105
100
AcDbEntity
  8
MAIN0
  6
BYBLOCK
 62
0
100
AcDbBlockReference
  2
_OPEN
 10
424.9441858973588
 20
263.4121611166992
 30
0.0000000000000000
 41
2.000000000000000
 42
2.000000000000000
 43
2.000000000000000
 50
90.00000000000000
  0
INSERT
  5
106
100
AcDbEntity
  8
MAIN0
  6
BYBLOCK
 62
0
100
AcDbBlockReference
  2
_OPEN
 10
424.9441858973588
 20
229.7398393462299
 30
0.0000000000000000
 41
2.000000000000000
 42
2.000000000000000
 43
2.000000000000000
 50
270.0000000000000
  0
LINE
  5
107
100
AcDbEntity
  8
MAIN0
  6
BYBLOCK
 62
0
100
AcDbLine
 10
424.0502483203117
 20
229.7398393462299
 30
0.0000000000000000
 11
426.9441858973588
 21
229.7398393462299
 31
0.0000000000000000
  0
MTEXT
  5
108
100
AcDbEntity
  8
MAIN0
  6
BYBLOCK
 62
0
100
AcDbMText
 10
422.8941859450425
 20
246.5760002314646
 30
0.0000000000000000
 40
3.099999904632568
 41
0.0000000000000000
 71
     5
 72
     1
  1
\A1;MAX 33.6
 11
6.123233995736766e-017
 21
1.000000000000000
 31
0.0000000000000000
  7
STANDARD
  0
ENDBLK
  5
109
100
AcDbEntity
  8
MAIN0
  6
CONTINUOUS
 62
3
100
AcDbBlockEnd
  0
BLOCK
  5
10C
100
AcDbEntity
  8
MAIN0
  6
CONTINUOUS
 62
3
100
AcDbBlockBegin
  2
*D18
 70
    65
 10
0.0
 20
0.0
 30
0.0
  0
LINE
  5
10D
100
AcDbEntity
  8
MAIN0
  6
BYBLOCK
 62
0
100
AcDbLine
 10
415.5548612919875
 20
169.9398393342880
 30
0.0000000000000000
 11
415.5548612919876
 21
150.7744280644897
 31
0.0000000000000000
  0
LINE
  5
10E
100
AcDbEntity
  8
MAIN0
  6
BYBLOCK
 62
0
100
AcDbLine
 10
413.5548612919876
 20
152.7744280644897
 30
0.0000000000000000
 11
392.5548612920350
 21
152.7744280644897
 31
0.0000000000000000
  0
INSERT
  5
10F
100
AcDbEntity
  8
MAIN0
  6
BYBLOCK
 62
0
100
AcDbBlockReference
  2
_OPEN
 10
415.5548612919876
 20
152.7744280644897
 30
0.0000000000000000
 41
2.000000000000000
 42
2.000000000000000
 43
2.000000000000000
 50
360.0000000000000
  0
INSERT
  5
110
100
AcDbEntity
  8
MAIN0
  6
BYBLOCK
 62
0
100
AcDbBlockReference
  2
_OPEN
 10
390.5548612920350
 20
152.7744280644897
 30
0.0000000000000000
 41
2.000000000000000
 42
2.000000000000000
 43
2.000000000000000
 50
180.0000000000000
  0
LINE
  5
111
100
AcDbEntity
  8
MAIN0
  6
BYBLOCK
 62
0
100
AcDbLine
 10
390.5548612920350
 20
164.8480632094224
 30
0.0000000000000000
 11
390.5548612920350
 21
150.7744280644897
 31
0.0000000000000000
  0
MTEXT
  5
112
100
AcDbEntity
  8
MAIN0
  6
BYBLOCK
 62
0
100
AcDbMText
 10
403.0548612920113
 20
154.8244280168060
 30
0.0000000000000000
 40
3.099999904632568
 41
0.0000000000000000
 71
     5
 72
     1
  1
\A1;25
 11
1.000000000000000
 21
0.0000000000000000
 31
0.0000000000000000
  7
STANDARD
  0
ENDBLK
  5
113
100
AcDbEntity
  8
MAIN0
  6
CONTINUOUS
 62
3
100
AcDbBlockEnd
  0
BLOCK
  5
115
100
AcDbEntity
  8
MAIN0
  6
CONTINUOUS
 62
3
100
AcDbBlockBegin
  2
*D19
 70
    65
 10
0.0
 20
0.0
 30
0.0
  0
LINE
  5
116
100
AcDbEntity
  8
MAIN0
  6
BYBLOCK
 62
0
100
AcDbLine
 10
390.5548612920350
 20
164.8480632094224
 30
0.0000000000000000
 11
390.5548612920350
 21
150.7744280644897
 31
0.0000000000000000
  0
LINE
  5
117
100
AcDbEntity
  8
MAIN0
  6
BYBLOCK
 62
0
100
AcDbLine
 10
388.5548612920350
 20
152.7744280644897
 30
0.0000000000000000
 11
322.0548612920106
 21
152.7744280644897
 31
0.0000000000000000
  0
INSERT
  5
118
100
AcDbEntity
  8
MAIN0
  6
BYBLOCK
 62
0
100
AcDbBlockReference
  2
_OPEN
 10
390.5548612920350
 20
152.7744280644897
 30
0.0000000000000000
 41
2.000000000000000
 42
2.000000000000000
 43
2.000000000000000
 50
360.0000000000000
  0
INSERT
  5
119
100
AcDbEntity
  8
MAIN0
  6
BYBLOCK
 62
0
100
AcDbBlockReference
  2
_OPEN
 10
320.0548612920106
 20
152.7744280644897
 30
0.0000000000000000
 41
2.000000000000000
 42
2.000000000000000
 43
2.000000000000000
 50
180.0000000000000
  0
LINE
  5
11A
100
AcDbEntity
  8
MAIN0
  6
BYBLOCK
 62
0
100
AcDbLine
 10
320.0548612920106
 20
172.1398393348064
 30
0.0000000000000000
 11
320.0548612920106
 21
150.7744280644897
 31
0.0000000000000000
  0
MTEXT
  5
11B
100
AcDbEntity
  8
MAIN0
  6
BYBLOCK
 62
0
100
AcDbMText
 10
355.3048612920228
 20
154.8244280168060
 30
0.0000000000000000
 40
3.099999904632568
 41
0.0000000000000000
 71
     5
 72
     1
  1
\A1;70.5
 11
1.000000000000000
 21
0.0000000000000000
 31
0.0000000000000000
  7
STANDARD
  0
ENDBLK
  5
11C
100
AcDbEntity
  8
MAIN0
  6
CONTINUOUS
 62
3
100
AcDbBlockEnd
  0
BLOCK
  5
11E
100
AcDbEntity
  8
MAIN0
  6
CONTINUOUS
 62
3
100
AcDbBlockBegin
  2
*D20
 70
    65
 10
0.0
 20
0.0
 30
0.0
  0
LINE
  5
11F
100
AcDbEntity
  8
MAIN0
  6
BYBLOCK
 62
0
100
AcDbLine
 10
320.0548612920106
 20
172.1398393348064
 30
0.0000000000000000
 11
320.0548612920106
 21
142.2254088586188
 31
0.0000000000000000
  0
LINE
  5
120
100
AcDbEntity
  8
MAIN0
  6
BYBLOCK
 62
0
100
AcDbLine
 10
322.0548612920106
 20
144.2254088586188
 30
0.0000000000000000
 11
413.5548612919875
 21
144.2254088586188
 31
0.0000000000000000
  0
INSERT
  5
121
100
AcDbEntity
  8
MAIN0
  6
BYBLOCK
 62
0
100
AcDbBlockReference
  2
_OPEN
 10
320.0548612920106
 20
144.2254088586188
 30
0.0000000000000000
 41
2.000000000000000
 42
2.000000000000000
 43
2.000000000000000
 50
180.0000000000000
  0
INSERT
  5
122
100
AcDbEntity
  8
MAIN0
  6
BYBLOCK
 62
0
100
AcDbBlockReference
  2
_OPEN
 10
415.5548612919875
 20
144.2254088586188
 30
0.0000000000000000
 41
2.000000000000000
 42
2.000000000000000
 43
2.000000000000000
 50
0.0000000000000000
  0
LINE
  5
123
100
AcDbEntity
  8
MAIN0
  6
BYBLOCK
 62
0
100
AcDbLine
 10
415.5548612919875
 20
169.9398393342880
 30
0.0000000000000000
 11
415.5548612919875
 21
142.2254088586188
 31
0.0000000000000000
  0
MTEXT
  5
124
100
AcDbEntity
  8
MAIN0
  6
BYBLOCK
 62
0
100
AcDbMText
 10
367.8048612919990
 20
146.2754088109350
 30
0.0000000000000000
 40
3.099999904632568
 41
0.0000000000000000
 71
     5
 72
     1
  1
\A1;（95.5）
 11
1.000000000000000
 21
0.0000000000000000
 31
0.0000000000000000
  7
KNJYOKO
  0
ENDBLK
  5
125
100
AcDbEntity
  8
MAIN0
  6
CONTINUOUS
 62
3
100
AcDbBlockEnd
  0
BLOCK
  5
127
100
AcDbEntity
  8
MAIN0
  6
CONTINUOUS
 62
3
100
AcDbBlockBegin
  2
*D21
 70
    65
 10
0.0
 20
0.0
 30
0.0
  0
LINE
  5
128
100
AcDbEntity
  8
MAIN0
  6
BYBLOCK
 62
0
100
AcDbLine
 10
371.5548612918699
 20
279.8060152740304
 30
0.0000000000000000
 11
371.5548612918699
 21
298.3031343439067
 31
0.0000000000000000
  0
LINE
  5
129
100
AcDbEntity
  8
MAIN0
  6
BYBLOCK
 62
0
100
AcDbLine
 10
373.5548612918699
 20
296.3031343439067
 30
0.0000000000000000
 11
407.5548612918699
 21
296.3031343439067
 31
0.0000000000000000
  0
INSERT
  5
12A
100
AcDbEntity
  8
MAIN0
  6
BYBLOCK
 62
0
100
AcDbBlockReference
  2
_OPEN
 10
371.5548612918699
 20
296.3031343439067
 30
0.0000000000000000
 41
2.000000000000000
 42
2.000000000000000
 43
2.000000000000000
 50
180.0000000000000
  0
INSERT
  5
12B
100
AcDbEntity
  8
MAIN0
  6
BYBLOCK
 62
0
100
AcDbBlockReference
  2
_OPEN
 10
409.5548612918699
 20
296.3031343439067
 30
0.0000000000000000
 41
2.000000000000000
 42
2.000000000000000
 43
2.000000000000000
 50
0.0000000000000000
  0
LINE
  5
12C
100
AcDbEntity
  8
MAIN0
  6
BYBLOCK
 62
0
100
AcDbLine
 10
409.5548612918699
 20
279.8060152740304
 30
0.0000000000000000
 11
409.5548612918699
 21
298.3031343439067
 31
0.0000000000000000
  0
MTEXT
  5
12D
100
AcDbEntity
  8
MAIN0
  6
BYBLOCK
 62
0
100
AcDbMText
 10
390.5548612918699
 20
298.3531342962230
 30
0.0000000000000000
 40
3.099999904632568
 41
0.0000000000000000
 71
     5
 72
     1
  1
\A1;38
 11
1.000000000000000
 21
0.0000000000000000
 31
0.0000000000000000
  7
STANDARD
  0
ENDBLK
  5
12E
100
AcDbEntity
  8
MAIN0
  6
CONTINUOUS
 62
3
100
AcDbBlockEnd
  0
BLOCK
  5
130
100
AcDbEntity
  8
MAIN0
  6
CONTINUOUS
 62
3
100
AcDbBlockBegin
  2
*D22
 70
    65
 10
0.0
 20
0.0
 30
0.0
  0
LINE
  5
131
100
AcDbEntity
  8
MAIN0
  6
BYBLOCK
 62
0
100
AcDbLine
 10
363.3168443189007
 20
272.7398393460824
 30
0.0000000000000000
 11
344.6078207310318
 21
272.7398393460824
 31
0.0000000000000000
  0
LINE
  5
132
100
AcDbEntity
  8
MAIN0
  6
BYBLOCK
 62
0
100
AcDbLine
 10
346.6078207310318
 20
270.7398393460824
 30
0.0000000000000000
 11
346.6078207310318
 21
188.7398393460824
 31
0.0000000000000000
  0
INSERT
  5
133
100
AcDbEntity
  8
MAIN0
  6
BYBLOCK
 62
0
100
AcDbBlockReference
  2
_OPEN
 10
346.6078207310318
 20
272.7398393460824
 30
0.0000000000000000
 41
2.000000000000000
 42
2.000000000000000
 43
2.000000000000000
 50
90.00000000000000
  0
INSERT
  5
134
100
AcDbEntity
  8
MAIN0
  6
BYBLOCK
 62
0
100
AcDbBlockReference
  2
_OPEN
 10
346.6078207310318
 20
186.7398393460824
 30
0.0000000000000000
 41
2.000000000000000
 42
2.000000000000000
 43
2.000000000000000
 50
270.0000000000000
  0
LINE
  5
135
100
AcDbEntity
  8
MAIN0
  6
BYBLOCK
 62
0
100
AcDbLine
 10
363.3168443189007
 20
186.7398393460824
 30
0.0000000000000000
 11
344.6078207310318
 21
186.7398393460824
 31
0.0000000000000000
  0
MTEXT
  5
136
100
AcDbEntity
  8
MAIN0
  6
BYBLOCK
 62
0
100
AcDbMText
 10
344.5578207787155
 20
211.6049837836646
 30
0.0000000000000000
 40
3.099999904632568
 41
0.0000000000000000
 71
     5
 72
     1
  1
\A1;86
 11
6.123233995736766e-017
 21
1.000000000000000
 31
0.0000000000000000
  7
STANDARD
  0
ENDBLK
  5
137
100
AcDbEntity
  8
MAIN0
  6
CONTINUOUS
 62
3
100
AcDbBlockEnd
  0
BLOCK
  5
139
100
AcDbEntity
  8
MAIN0
  6
CONTINUOUS
 62
3
100
AcDbBlockBegin
  2
*D23
 70
    65
 10
0.0
 20
0.0
 30
0.0
  0
LINE
  5
13A
100
AcDbEntity
  8
MAIN0
  6
BYBLOCK
 62
0
100
AcDbLine
 10
376.8548612801652
 20
289.9121611166994
 30
0.0000000000000000
 11
294.0548612920107
 21
289.9121611167237
 31
0.0000000000000000
  0
LINE
  5
13B
100
AcDbEntity
  8
MAIN0
  6
BYBLOCK
 62
0
100
AcDbLine
 10
296.0548612920107
 20
289.9121611167231
 30
0.0000000000000000
 11
296.0548612920107
 21
289.7398393462916
 31
0.0000000000000000
  0
INSERT
  5
13C
100
AcDbEntity
  8
MAIN0
  6
BYBLOCK
 62
0
100
AcDbBlockReference
  2
_OPEN
 10
296.0548612920107
 20
289.9121611167231
 30
0.0000000000000000
 41
2.000000000000000
 42
2.000000000000000
 43
2.000000000000000
 50
270.0000000000000
  0
INSERT
  5
13D
100
AcDbEntity
  8
MAIN0
  6
BYBLOCK
 62
0
100
AcDbBlockReference
  2
_OPEN
 10
296.0548612920107
 20
289.7398393462916
 30
0.0000000000000000
 41
2.000000000000000
 42
2.000000000000000
 43
2.000000000000000
 50
90.00000000000000
  0
LINE
  5
13E
100
AcDbEntity
  8
MAIN0
  6
BYBLOCK
 62
0
100
AcDbLine
 10
296.0548612920107
 20
291.9121611167231
 30
0.0000000000000000
 11
296.0548612920107
 21
298.8194658805170
 31
0.0000000000000000
  0
LINE
  5
13F
100
AcDbEntity
  8
MAIN0
  6
BYBLOCK
 62
0
100
AcDbLine
 10
296.0548612920107
 20
287.7398393462916
 30
0.0000000000000000
 11
296.0548612920107
 21
286.7398393462916
 31
0.0000000000000000
  0
LINE
  5
140
100
AcDbEntity
  8
MAIN0
  6
BYBLOCK
 62
0
100
AcDbLine
 10
365.1548612801131
 20
289.7398393462916
 30
0.0000000000000000
 11
294.0548612920107
 21
289.7398393462916
 31
0.0000000000000000
  0
MTEXT
  5
141
100
AcDbEntity
  8
MAIN0
  6
BYBLOCK
 62
0
100
AcDbMText
 10
294.0048613396945
 20
296.1694658536620
 30
0.0000000000000000
 40
3.099999904632568
 41
0.0000000000000000
 71
     5
 72
     1
  1
\A1;0.2
 11
6.123233995736766e-017
 21
1.000000000000000
 31
0.0000000000000000
  7
STANDARD
  0
ENDBLK
  5
142
100
AcDbEntity
  8
MAIN0
  6
CONTINUOUS
 62
3
100
AcDbBlockEnd
  0
BLOCK
  5
144
100
AcDbEntity
  8
MAIN0
  6
CONTINUOUS
 62
3
100
AcDbBlockBegin
  2
*D24
 70
    65
 10
0.0
 20
0.0
 30
0.0
  0
LINE
  5
145
100
AcDbEntity
  8
MAIN0
  6
BYBLOCK
 62
0
100
AcDbLine
 10
365.1548612801131
 20
289.7398393462916
 30
0.0000000000000000
 11
294.0548612920107
 21
289.7398393462916
 31
0.0000000000000000
  0
LINE
  5
146
100
AcDbEntity
  8
MAIN0
  6
BYBLOCK
 62
0
100
AcDbLine
 10
296.0548612920107
 20
287.7398393462677
 30
0.0000000000000000
 11
296.0548612920107
 21
171.7398393462409
 31
0.0000000000000000
  0
INSERT
  5
147
100
AcDbEntity
  8
MAIN0
  6
BYBLOCK
 62
0
100
AcDbBlockReference
  2
_OPEN
 10
296.0548612920107
 20
289.7398393462677
 30
0.0000000000000000
 41
2.000000000000000
 42
2.000000000000000
 43
2.000000000000000
 50
90.00000000000000
  0
INSERT
  5
148
100
AcDbEntity
  8
MAIN0
  6
BYBLOCK
 62
0
100
AcDbBlockReference
  2
_OPEN
 10
296.0548612920107
 20
169.7398393462409
 30
0.0000000000000000
 41
2.000000000000000
 42
2.000000000000000
 43
2.000000000000000
 50
270.0000000000000
  0
LINE
  5
149
100
AcDbEntity
  8
MAIN0
  6
BYBLOCK
 62
0
100
AcDbLine
 10
325.6548612800661
 20
169.7398393462409
 30
0.0000000000000000
 11
294.0548612920107
 21
169.7398393462409
 31
0.0000000000000000
  0
MTEXT
  5
14A
100
AcDbEntity
  8
MAIN0
  6
BYBLOCK
 62
0
100
AcDbMText
 10
294.0048613396945
 20
229.7398393462543
 30
0.0000000000000000
 40
3.099999904632568
 41
0.0000000000000000
 71
     5
 72
     1
  1
\A1;120
 11
6.123233995736766e-017
 21
1.000000000000000
 31
0.0000000000000000
  7
STANDARD
  0
ENDBLK
  5
14B
100
AcDbEntity
  8
MAIN0
  6
CONTINUOUS
 62
3
100
AcDbBlockEnd
  0
BLOCK
  5
14D
100
AcDbEntity
  8
MAIN0
  6
CONTINUOUS
 62
3
100
AcDbBlockBegin
  2
*D25
 70
    65
 10
0.0
 20
0.0
 30
0.0
  0
LINE
  5
14E
100
AcDbEntity
  8
MAIN0
  6
BYBLOCK
 62
0
100
AcDbLine
 10
325.6548612800661
 20
169.7398393462409
 30
0.0000000000000000
 11
294.0548612920107
 21
169.7398393462409
 31
0.0000000000000000
  0
LINE
  5
14F
100
AcDbEntity
  8
MAIN0
  6
BYBLOCK
 62
0
100
AcDbLine
 10
296.0548612920107
 20
169.7398393462409
 30
0.0000000000000000
 11
296.0548612920107
 21
169.5675175757607
 31
0.0000000000000000
  0
INSERT
  5
150
100
AcDbEntity
  8
MAIN0
  6
BYBLOCK
 62
0
100
AcDbBlockReference
  2
_OPEN
 10
296.0548612920107
 20
169.7398393462409
 30
0.0000000000000000
 41
2.000000000000000
 42
2.000000000000000
 43
2.000000000000000
 50
270.0000000000000
  0
INSERT
  5
151
100
AcDbEntity
  8
MAIN0
  6
BYBLOCK
 62
0
100
AcDbBlockReference
  2
_OPEN
 10
296.0548612920107
 20
169.5675175757607
 30
0.0000000000000000
 41
2.000000000000000
 42
2.000000000000000
 43
2.000000000000000
 50
90.00000000000000
  0
LINE
  5
152
100
AcDbEntity
  8
MAIN0
  6
BYBLOCK
 62
0
100
AcDbLine
 10
296.0548612920107
 20
171.7398393462409
 30
0.0000000000000000
 11
296.0548612920107
 21
172.7398393462409
 31
0.0000000000000000
  0
LINE
  5
153
100
AcDbEntity
  8
MAIN0
  6
BYBLOCK
 62
0
100
AcDbLine
 10
296.0548612920107
 20
167.5675175757607
 30
0.0000000000000000
 11
296.0548612920107
 21
162.2475960822304
 31
0.0000000000000000
  0
LINE
  5
154
100
AcDbEntity
  8
MAIN0
  6
BYBLOCK
 62
0
100
AcDbLine
 10
376.8548612801652
 20
169.5675175757607
 30
0.0000000000000000
 11
294.0548612920107
 21
169.5675175757607
 31
0.0000000000000000
  0
MTEXT
  5
155
100
AcDbEntity
  8
MAIN0
  6
BYBLOCK
 62
0
100
AcDbMText
 10
294.0048613396945
 20
164.8975961842094
 30
0.0000000000000000
 40
3.099999904632568
 41
0.0000000000000000
 71
     5
 72
     1
  1
\A1;0.2
 11
6.123233995736766e-017
 21
1.000000000000000
 31
0.0000000000000000
  7
STANDARD
  0
ENDBLK
  5
156
100
AcDbEntity
  8
MAIN0
  6
CONTINUOUS
 62
3
100
AcDbBlockEnd
  0
BLOCK
  5
158
100
AcDbEntity
  8
MAIN0
  6
CONTINUOUS
 62
3
100
AcDbBlockBegin
  2
*D26
 70
    65
 10
0.0
 20
0.0
 30
0.0
  0
LINE
  5
159
100
AcDbEntity
  8
MAIN0
  6
BYBLOCK
 62
0
100
AcDbLine
 10
376.8548612801652
 20
169.5675175757607
 30
0.0000000000000000
 11
286.0548612920107
 21
169.5675175757607
 31
0.0000000000000000
  0
LINE
  5
15A
100
AcDbEntity
  8
MAIN0
  6
BYBLOCK
 62
0
100
AcDbLine
 10
288.0548612920107
 20
171.5675175757607
 30
0.0000000000000000
 11
288.0548612920107
 21
287.9121611166992
 31
0.0000000000000000
  0
INSERT
  5
15B
100
AcDbEntity
  8
MAIN0
  6
BYBLOCK
 62
0
100
AcDbBlockReference
  2
_OPEN
 10
288.0548612920107
 20
169.5675175757607
 30
0.0000000000000000
 41
2.000000000000000
 42
2.000000000000000
 43
2.000000000000000
 50
270.0000000000000
  0
INSERT
  5
15C
100
AcDbEntity
  8
MAIN0
  6
BYBLOCK
 62
0
100
AcDbBlockReference
  2
_OPEN
 10
288.0548612920107
 20
289.9121611166992
 30
0.0000000000000000
 41
2.000000000000000
 42
2.000000000000000
 43
2.000000000000000
 50
90.00000000000000
  0
LINE
  5
15D
100
AcDbEntity
  8
MAIN0
  6
BYBLOCK
 62
0
100
AcDbLine
 10
376.8548612801652
 20
289.9121611166992
 30
0.0000000000000000
 11
286.0548612920107
 21
289.9121611166992
 31
0.0000000000000000
  0
MTEXT
  5
15E
100
AcDbEntity
  8
MAIN0
  6
BYBLOCK
 62
0
100
AcDbMText
 10
286.0048613396945
 20
229.7398393462299
 30
0.0000000000000000
 40
3.099999904632568
 41
0.0000000000000000
 71
     5
 72
     1
  1
\A1;（120.4）
 11
6.123233995736766e-017
 21
1.000000000000000
 31
0.0000000000000000
  7
KNJYOKO
  0
ENDBLK
  5
15F
100
AcDbEntity
  8
MAIN0
  6
CONTINUOUS
 62
3
100
AcDbBlockEnd
  0
BLOCK
  5
161
100
AcDbEntity
  8
MAIN0
  6
CONTINUOUS
 62
3
100
AcDbBlockBegin
  2
*D27
 70
    65
 10
0.0
 20
0.0
 30
0.0
  0
LINE
  5
162
100
AcDbEntity
  8
MAIN0
  6
BYBLOCK
 62
0
100
AcDbLine
 10
385.5548612919721
 20
339.1121611047800
 30
0.0000000000000000
 11
385.5548612919723
 21
328.7130487843299
 31
0.0000000000000000
  0
LINE
  5
163
100
AcDbEntity
  8
MAIN0
  6
BYBLOCK
 62
0
100
AcDbLine
 10
385.5548612919722
 20
330.7130487843299
 30
0.0000000000000000
 11
395.5548612919724
 21
330.7130487843299
 31
0.0000000000000000
  0
INSERT
  5
164
100
AcDbEntity
  8
MAIN0
  6
BYBLOCK
 62
0
100
AcDbBlockReference
  2
_OPEN
 10
385.5548612919722
 20
330.7130487843299
 30
0.0000000000000000
 41
2.000000000000000
 42
2.000000000000000
 43
2.000000000000000
 50
0.0000000000000000
  0
INSERT
  5
165
100
AcDbEntity
  8
MAIN0
  6
BYBLOCK
 62
0
100
AcDbBlockReference
  2
_OPEN
 10
395.5548612919724
 20
330.7130487843299
 30
0.0000000000000000
 41
2.000000000000000
 42
2.000000000000000
 43
2.000000000000000
 50
180.0000000000000
  0
LINE
  5
166
100
AcDbEntity
  8
MAIN0
  6
BYBLOCK
 62
0
100
AcDbLine
 10
383.5548612919722
 20
330.7130487843299
 30
0.0000000000000000
 11
382.5548612919722
 21
330.7130487843299
 31
0.0000000000000000
  0
LINE
  5
167
100
AcDbEntity
  8
MAIN0
  6
BYBLOCK
 62
0
100
AcDbLine
 10
397.5548612919724
 20
330.7130487843299
 30
0.0000000000000000
 11
418.3893644658005
 21
330.7130487843299
 31
0.0000000000000000
  0
LINE
  5
168
100
AcDbEntity
  8
MAIN0
  6
BYBLOCK
 62
0
100
AcDbLine
 10
395.5548612919724
 20
339.1121611047799
 30
0.0000000000000000
 11
395.5548612919724
 21
328.7130487843299
 31
0.0000000000000000
  0
MTEXT
  5
169
100
AcDbEntity
  8
MAIN0
  6
BYBLOCK
 62
0
100
AcDbMText
 10
410.7893652912106
 20
332.7630487366462
 30
0.0000000000000000
 40
3.099999904632568
 41
0.0000000000000000
 71
     5
 72
     1
  1
\A1;4-\U+220510h7
 11
1.000000000000000
 21
0.0000000000000000
 31
0.0000000000000000
  7
STANDARD
  0
ENDBLK
  5
16A
100
AcDbEntity
  8
MAIN0
  6
CONTINUOUS
 62
3
100
AcDbBlockEnd
  0
BLOCK
  5
16C
100
AcDbEntity
  8
MAIN0
  6
CONTINUOUS
 62
3
100
AcDbBlockBegin
  2
*D28
 70
    65
 10
0.0
 20
0.0
 30
0.0
  0
LINE
  5
16D
100
AcDbEntity
  8
MAIN0
  6
BYBLOCK
 62
0
100
AcDbLine
 10
381.3048612919722
 20
343.1121611047782
 30
0.0000000000000000
 11
381.3048612919722
 21
319.9773512522659
 31
0.0000000000000000
  0
LINE
  5
16E
100
AcDbEntity
  8
MAIN0
  6
BYBLOCK
 62
0
100
AcDbLine
 10
383.3048612919722
 20
321.9773512522659
 30
0.0000000000000000
 11
397.8048612919722
 21
321.9773512522659
 31
0.0000000000000000
  0
INSERT
  5
16F
100
AcDbEntity
  8
MAIN0
  6
BYBLOCK
 62
0
100
AcDbBlockReference
  2
_OPEN
 10
381.3048612919722
 20
321.9773512522659
 30
0.0000000000000000
 41
2.000000000000000
 42
2.000000000000000
 43
2.000000000000000
 50
180.0000000000000
  0
INSERT
  5
170
100
AcDbEntity
  8
MAIN0
  6
BYBLOCK
 62
0
100
AcDbBlockReference
  2
_OPEN
 10
399.8048612919722
 20
321.9773512522659
 30
0.0000000000000000
 41
2.000000000000000
 42
2.000000000000000
 43
2.000000000000000
 50
0.0000000000000000
  0
LINE
  5
171
100
AcDbEntity
  8
MAIN0
  6
BYBLOCK
 62
0
100
AcDbLine
 10
399.8048612919722
 20
343.1121611047782
 30
0.0000000000000000
 11
399.8048612919722
 21
319.9773512522659
 31
0.0000000000000000
  0
MTEXT
  5
172
100
AcDbEntity
  8
MAIN0
  6
BYBLOCK
 62
0
100
AcDbMText
 10
390.5548612919722
 20
324.0273512045822
 30
0.0000000000000000
 40
3.099999904632568
 41
0.0000000000000000
 71
     5
 72
     1
  1
\A1;18.5
 11
1.000000000000000
 21
0.0000000000000000
 31
0.0000000000000000
  7
STANDARD
  0
ENDBLK
  5
173
100
AcDbEntity
  8
MAIN0
  6
CONTINUOUS
 62
3
100
AcDbBlockEnd
  0
BLOCK
  5
175
100
AcDbEntity
  8
MAIN0
  6
CONTINUOUS
 62
3
100
AcDbBlockBegin
  2
*D29
 70
    65
 10
0.0
 20
0.0
 30
0.0
  0
LINE
  5
176
100
AcDbEntity
  8
MAIN0
  6
BYBLOCK
 62
0
100
AcDbLine
 10
415.3548613041793
 20
384.9121611166726
 30
0.0000000000000000
 11
436.5064319178355
 21
384.9121611166726
 31
0.0000000000000000
  0
LINE
  5
177
100
AcDbEntity
  8
MAIN0
  6
BYBLOCK
 62
0
100
AcDbLine
 10
434.5064319178355
 20
382.9121611166726
 30
0.0000000000000000
 11
434.5064319178355
 21
345.9121611166992
 31
0.0000000000000000
  0
INSERT
  5
178
100
AcDbEntity
  8
MAIN0
  6
BYBLOCK
 62
0
100
AcDbBlockReference
  2
_OPEN
 10
434.5064319178355
 20
384.9121611166726
 30
0.0000000000000000
 41
2.000000000000000
 42
2.000000000000000
 43
2.000000000000000
 50
90.00000000000000
  0
INSERT
  5
179
100
AcDbEntity
  8
MAIN0
  6
BYBLOCK
 62
0
100
AcDbBlockReference
  2
_OPEN
 10
434.5064319178355
 20
343.9121611166992
 30
0.0000000000000000
 41
2.000000000000000
 42
2.000000000000000
 43
2.000000000000000
 50
270.0000000000000
  0
LINE
  5
17A
100
AcDbEntity
  8
MAIN0
  6
BYBLOCK
 62
0
100
AcDbLine
 10
400.6048613038932
 20
343.9121611166992
 30
0.0000000000000000
 11
436.5064319178355
 21
343.9121611166992
 31
0.0000000000000000
  0
MTEXT
  5
17B
100
AcDbEntity
  8
MAIN0
  6
BYBLOCK
 62
0
100
AcDbMText
 10
432.4564319655192
 20
364.4121611166859
 30
0.0000000000000000
 40
3.099999904632568
 41
0.0000000000000000
 71
     5
 72
     1
  1
\A1;41
 11
6.123233995736766e-017
 21
1.000000000000000
 31
0.0000000000000000
  7
STANDARD
  0
ENDBLK
  5
17C
100
AcDbEntity
  8
MAIN0
  6
CONTINUOUS
 62
3
100
AcDbBlockEnd
  0
BLOCK
  5
17E
100
AcDbEntity
  8
MAIN0
  6
CONTINUOUS
 62
3
100
AcDbBlockBegin
  2
*D30
 70
    65
 10
0.0
 20
0.0
 30
0.0
  0
LINE
  5
17F
100
AcDbEntity
  8
MAIN0
  6
BYBLOCK
 62
0
100
AcDbLine
 10
400.6048613038932
 20
343.9121611166992
 30
0.0000000000000000
 11
436.5064319178355
 21
343.9121611166992
 31
0.0000000000000000
  0
LINE
  5
180
100
AcDbEntity
  8
MAIN0
  6
BYBLOCK
 62
0
100
AcDbLine
 10
434.5064319178355
 20
343.9121611166992
 30
0.0000000000000000
 11
434.5064319178355
 21
339.9121611166992
 31
0.0000000000000000
  0
INSERT
  5
181
100
AcDbEntity
  8
MAIN0
  6
BYBLOCK
 62
0
100
AcDbBlockReference
  2
_OPEN
 10
434.5064319178355
 20
343.9121611166992
 30
0.0000000000000000
 41
2.000000000000000
 42
2.000000000000000
 43
2.000000000000000
 50
270.0000000000000
  0
INSERT
  5
182
100
AcDbEntity
  8
MAIN0
  6
BYBLOCK
 62
0
100
AcDbBlockReference
  2
_OPEN
 10
434.5064319178355
 20
339.9121611166992
 30
0.0000000000000000
 41
2.000000000000000
 42
2.000000000000000
 43
2.000000000000000
 50
90.00000000000000
  0
LINE
  5
183
100
AcDbEntity
  8
MAIN0
  6
BYBLOCK
 62
0
100
AcDbLine
 10
434.5064319178355
 20
345.9121611166992
 30
0.0000000000000000
 11
434.5064319178355
 21
346.9121611166992
 31
0.0000000000000000
  0
LINE
  5
184
100
AcDbEntity
  8
MAIN0
  6
BYBLOCK
 62
0
100
AcDbLine
 10
434.5064319178355
 20
337.9121611166992
 30
0.0000000000000000
 11
434.5064319178355
 21
333.7744610358276
 31
0.0000000000000000
  0
LINE
  5
185
100
AcDbEntity
  8
MAIN0
  6
BYBLOCK
 62
0
100
AcDbLine
 10
396.3548613038933
 20
339.9121611166992
 30
0.0000000000000000
 11
436.5064319178355
 21
339.9121611166992
 31
0.0000000000000000
  0
MTEXT
  5
186
100
AcDbEntity
  8
MAIN0
  6
BYBLOCK
 62
0
100
AcDbMText
 10
432.4564319655192
 20
334.8244609998042
 30
0.0000000000000000
 40
3.099999904632568
 41
0.0000000000000000
 71
     5
 72
     1
  1
\A1;4
 11
6.123233995736766e-017
 21
1.000000000000000
 31
0.0000000000000000
  7
STANDARD
  0
ENDBLK
  5
187
100
AcDbEntity
  8
MAIN0
  6
CONTINUOUS
 62
3
100
AcDbBlockEnd
  0
BLOCK
  5
192
100
AcDbEntity
  8
MAIN0
  6
CONTINUOUS
 62
3
100
AcDbBlockBegin
  2
*D31
 70
    65
 10
0.0
 20
0.0
 30
0.0
  0
LINE
  5
193
100
AcDbEntity
  8
MAIN0
  6
BYBLOCK
 62
0
100
AcDbLine
 10
166.5287505052411
 20
227.7398393462473
 30
0.0000000000000000
 11
166.5287505052411
 21
186.7398393463814
 31
0.0000000000000000
  0
INSERT
  5
194
100
AcDbEntity
  8
MAIN0
  6
BYBLOCK
 62
0
100
AcDbBlockReference
  2
_OPEN
 10
166.5287505052411
 20
229.7398393462473
 30
0.0000000000000000
 41
2.000000000000000
 42
2.000000000000000
 43
2.000000000000000
 50
90.00000000000000
  0
INSERT
  5
195
100
AcDbEntity
  8
MAIN0
  6
BYBLOCK
 62
0
100
AcDbBlockReference
  2
_OPEN
 10
166.5287505052411
 20
184.7398393463814
 30
0.0000000000000000
 41
2.000000000000000
 42
2.000000000000000
 43
2.000000000000000
 50
270.0000000000000
  0
MTEXT
  5
196
100
AcDbEntity
  8
MAIN0
  6
BYBLOCK
 62
0
100
AcDbMText
 10
164.4787505529249
 20
207.2398393463144
 30
0.0000000000000000
 40
3.099999904632568
 41
0.0000000000000000
 71
     5
 72
     1
  1
\A1;45
 11
6.123233995736766e-017
 21
1.000000000000000
 31
0.0000000000000000
  7
STANDARD
  0
ENDBLK
  5
197
100
AcDbEntity
  8
MAIN0
  6
CONTINUOUS
 62
3
100
AcDbBlockEnd
  0
BLOCK
  5
199
100
AcDbEntity
  8
MAIN0
  6
CONTINUOUS
 62
3
100
AcDbBlockBegin
  2
*D32
 70
    65
 10
0.0
 20
0.0
 30
0.0
  0
LINE
  5
19A
100
AcDbEntity
  8
MAIN0
  6
BYBLOCK
 62
0
100
AcDbLine
 10
113.3575556745752
 20
269.7398393465888
 30
0.0000000000000000
 11
106.0871761579906
 21
269.7398393465888
 31
0.0000000000000000
  0
LINE
  5
19B
100
AcDbEntity
  8
MAIN0
  6
BYBLOCK
 62
0
100
AcDbLine
 10
108.0871761579906
 20
267.7398393465888
 30
0.0000000000000000
 11
108.0871761579906
 21
191.7398393465888
 31
0.0000000000000000
  0
INSERT
  5
19C
100
AcDbEntity
  8
MAIN0
  6
BYBLOCK
 62
0
100
AcDbBlockReference
  2
_OPEN
 10
108.0871761579906
 20
269.7398393465888
 30
0.0000000000000000
 41
2.000000000000000
 42
2.000000000000000
 43
2.000000000000000
 50
90.00000000000000
  0
INSERT
  5
19D
100
AcDbEntity
  8
MAIN0
  6
BYBLOCK
 62
0
100
AcDbBlockReference
  2
_OPEN
 10
108.0871761579906
 20
189.7398393465888
 30
0.0000000000000000
 41
2.000000000000000
 42
2.000000000000000
 43
2.000000000000000
 50
270.0000000000000
  0
LINE
  5
19E
100
AcDbEntity
  8
MAIN0
  6
BYBLOCK
 62
0
100
AcDbLine
 10
113.3575556746640
 20
189.7398393465888
 30
0.0000000000000000
 11
106.0871761579906
 21
189.7398393465888
 31
0.0000000000000000
  0
MTEXT
  5
19F
100
AcDbEntity
  8
MAIN0
  6
BYBLOCK
 62
0
100
AcDbMText
 10
106.0371762056743
 20
229.7398393633526
 30
0.0000000000000000
 40
3.099999904632568
 41
0.0000000000000000
 71
     5
 72
     1
  1
\A1;80\H0.903226x;\U+00B10.02
 11
6.123233995736766e-017
 21
1.000000000000000
 31
0.0000000000000000
  7
STANDARD
  0
ENDBLK
  5
1A0
100
AcDbEntity
  8
MAIN0
  6
CONTINUOUS
 62
3
100
AcDbBlockEnd
  0
BLOCK
  5
1AC
100
AcDbEntity
  8
MAIN0
  6
CONTINUOUS
 62
3
100
AcDbBlockBegin
  2
*D33
 70
    65
 10
0.0
 20
0.0
 30
0.0
  0
LINE
  5
1AD
100
AcDbEntity
  8
MAIN0
  6
BYBLOCK
 62
0
100
AcDbLine
 10
118.7548612919862
 20
162.9205596643798
 30
0.0000000000000000
 11
118.7548612919862
 21
146.4189796916618
 31
0.0000000000000000
  0
LINE
  5
1AE
100
AcDbEntity
  8
MAIN0
  6
BYBLOCK
 62
0
100
AcDbLine
 10
120.7548612919862
 20
148.4189796916618
 30
0.0000000000000000
 11
149.2548612918539
 21
148.4189796916618
 31
0.0000000000000000
  0
INSERT
  5
1AF
100
AcDbEntity
  8
MAIN0
  6
BYBLOCK
 62
0
100
AcDbBlockReference
  2
_OPEN
 10
118.7548612919862
 20
148.4189796916618
 30
0.0000000000000000
 41
2.000000000000000
 42
2.000000000000000
 43
2.000000000000000
 50
180.0000000000000
  0
INSERT
  5
1B0
100
AcDbEntity
  8
MAIN0
  6
BYBLOCK
 62
0
100
AcDbBlockReference
  2
_OPEN
 10
151.2548612918539
 20
148.4189796916618
 30
0.0000000000000000
 41
2.000000000000000
 42
2.000000000000000
 43
2.000000000000000
 50
0.0000000000000000
  0
LINE
  5
1B1
100
AcDbEntity
  8
MAIN0
  6
BYBLOCK
 62
0
100
AcDbLine
 10
151.2548612918539
 20
181.0092351171616
 30
0.0000000000000000
 11
151.2548612918539
 21
146.4189796916618
 31
0.0000000000000000
  0
MTEXT
  5
1B2
100
AcDbEntity
  8
MAIN0
  6
BYBLOCK
 62
0
100
AcDbMText
 10
135.0048612919201
 20
150.4689796439781
 30
0.0000000000000000
 40
3.099999904632568
 41
0.0000000000000000
 71
     5
 72
     1
  1
\A1;32.5
 11
1.000000000000000
 21
0.0000000000000000
 31
0.0000000000000000
  7
STANDARD
  0
ENDBLK
  5
1B3
100
AcDbEntity
  8
MAIN0
  6
CONTINUOUS
 62
3
100
AcDbBlockEnd
  0
BLOCK
  5
1B5
100
AcDbEntity
  8
MAIN0
  6
CONTINUOUS
 62
3
100
AcDbBlockBegin
  2
*D34
 70
    65
 10
0.0
 20
0.0
 30
0.0
  0
LINE
  5
1B6
100
AcDbEntity
  8
MAIN0
  6
BYBLOCK
 62
0
100
AcDbLine
 10
151.2548612918539
 20
181.0092351171616
 30
0.0000000000000000
 11
151.2548612918539
 21
146.4189796916618
 31
0.0000000000000000
  0
LINE
  5
1B7
100
AcDbEntity
  8
MAIN0
  6
BYBLOCK
 62
0
100
AcDbLine
 10
153.2548612918539
 20
148.4189796916618
 30
0.0000000000000000
 11
175.0548612922236
 21
148.4189796916618
 31
0.0000000000000000
  0
INSERT
  5
1B8
100
AcDbEntity
  8
MAIN0
  6
BYBLOCK
 62
0
100
AcDbBlockReference
  2
_OPEN
 10
151.2548612918539
 20
148.4189796916618
 30
0.0000000000000000
 41
2.000000000000000
 42
2.000000000000000
 43
2.000000000000000
 50
180.0000000000000
  0
INSERT
  5
1B9
100
AcDbEntity
  8
MAIN0
  6
BYBLOCK
 62
0
100
AcDbBlockReference
  2
_OPEN
 10
177.0548612922236
 20
148.4189796916618
 30
0.0000000000000000
 41
2.000000000000000
 42
2.000000000000000
 43
2.000000000000000
 50
0.0000000000000000
  0
LINE
  5
1BA
100
AcDbEntity
  8
MAIN0
  6
BYBLOCK
 62
0
100
AcDbLine
 10
177.0548612922236
 20
181.0092351171565
 30
0.0000000000000000
 11
177.0548612922236
 21
146.4189796916618
 31
0.0000000000000000
  0
MTEXT
  5
1BB
100
AcDbEntity
  8
MAIN0
  6
BYBLOCK
 62
0
100
AcDbMText
 10
164.1548612920387
 20
150.4689796439781
 30
0.0000000000000000
 40
3.099999904632568
 41
0.0000000000000000
 71
     5
 72
     1
  1
\A1;25.8
 11
1.000000000000000
 21
0.0000000000000000
 31
0.0000000000000000
  7
STANDARD
  0
ENDBLK
  5
1BC
100
AcDbEntity
  8
MAIN0
  6
CONTINUOUS
 62
3
100
AcDbBlockEnd
  0
BLOCK
  5
1CB
100
AcDbEntity
  8
MAIN0
  6
CONTINUOUS
 62
3
100
AcDbBlockBegin
  2
*D35
 70
    65
 10
0.0
 20
0.0
 30
0.0
  0
LINE
  5
1CC
100
AcDbEntity
  8
MAIN0
  6
BYBLOCK
 62
0
100
AcDbLine
 10
509.7548612801029
 20
298.7091880958582
 30
0.0000000000000000
 11
502.0472563231141
 21
298.7091880958582
 31
0.0000000000000000
  0
LINE
  5
1CD
100
AcDbEntity
  8
MAIN0
  6
BYBLOCK
 62
0
100
AcDbLine
 10
504.0472563231141
 20
296.7091880958582
 30
0.0000000000000000
 11
504.0472563231141
 21
291.7398393462917
 31
0.0000000000000000
  0
INSERT
  5
1CE
100
AcDbEntity
  8
MAIN0
  6
BYBLOCK
 62
0
100
AcDbBlockReference
  2
_OPEN
 10
504.0472563231141
 20
298.7091880958582
 30
0.0000000000000000
 41
2.000000000000000
 42
2.000000000000000
 43
2.000000000000000
 50
90.00000000000000
  0
INSERT
  5
1CF
100
AcDbEntity
  8
MAIN0
  6
BYBLOCK
 62
0
100
AcDbBlockReference
  2
_OPEN
 10
504.0472563231141
 20
289.7398393462917
 30
0.0000000000000000
 41
2.000000000000000
 42
2.000000000000000
 43
2.000000000000000
 50
270.0000000000000
  0
MTEXT
  5
1D0
100
AcDbEntity
  8
MAIN0
  6
BYBLOCK
 62
0
100
AcDbMText
 10
501.9972563707979
 20
294.2245137210750
 30
0.0000000000000000
 40
3.099999904632568
 41
0.0000000000000000
 71
     5
 72
     1
  1
\A1;9
 11
6.123233995736766e-017
 21
1.000000000000000
 31
0.0000000000000000
  7
STANDARD
  0
ENDBLK
  5
1D1
100
AcDbEntity
  8
MAIN0
  6
CONTINUOUS
 62
3
100
AcDbBlockEnd
  0
BLOCK
  5
1D6
100
AcDbEntity
  8
MAIN0
  6
CONTINUOUS
 62
3
100
AcDbBlockBegin
  2
*D36
 70
    65
 10
0.0
 20
0.0
 30
0.0
  0
LINE
  5
1D7
100
AcDbEntity
  8
MAIN0
  6
BYBLOCK
 62
0
100
AcDbLine
 10
325.2548612800947
 20
240.7398393461539
 30
0.0000000000000000
 11
310.0548612920107
 21
240.7398393461539
 31
0.0000000000000000
  0
LINE
  5
1D8
100
AcDbEntity
  8
MAIN0
  6
BYBLOCK
 62
0
100
AcDbLine
 10
312.0548612920107
 20
238.7398393461539
 30
0.0000000000000000
 11
312.0548612920107
 21
220.7398393461539
 31
0.0000000000000000
  0
INSERT
  5
1D9
100
AcDbEntity
  8
MAIN0
  6
BYBLOCK
 62
0
100
AcDbBlockReference
  2
_OPEN
 10
312.0548612920107
 20
240.7398393461539
 30
0.0000000000000000
 41
2.000000000000000
 42
2.000000000000000
 43
2.000000000000000
 50
90.00000000000000
  0
INSERT
  5
1DA
100
AcDbEntity
  8
MAIN0
  6
BYBLOCK
 62
0
100
AcDbBlockReference
  2
_OPEN
 10
312.0548612920107
 20
218.7398393461539
 30
0.0000000000000000
 41
2.000000000000000
 42
2.000000000000000
 43
2.000000000000000
 50
270.0000000000000
  0
LINE
  5
1DB
100
AcDbEntity
  8
MAIN0
  6
BYBLOCK
 62
0
100
AcDbLine
 10
325.2548612800846
 20
218.7398393461539
 30
0.0000000000000000
 11
310.0548612920107
 21
218.7398393461539
 31
0.0000000000000000
  0
MTEXT
  5
1DC
100
AcDbEntity
  8
MAIN0
  6
BYBLOCK
 62
0
100
AcDbMText
 10
310.0048613396945
 20
229.7398393461539
 30
0.0000000000000000
 40
3.099999904632568
 41
0.0000000000000000
 71
     5
 72
     1
  1
\A1;22
 11
6.123233995736766e-017
 21
1.000000000000000
 31
0.0000000000000000
  7
STANDARD
  0
ENDBLK
  5
1DD
100
AcDbEntity
  8
MAIN0
  6
CONTINUOUS
 62
3
100
AcDbBlockEnd
  0
BLOCK
  5
1DF
100
AcDbEntity
  8
MAIN0
  6
CONTINUOUS
 62
3
100
AcDbBlockBegin
  2
*D37
 70
    65
 10
0.0
 20
0.0
 30
0.0
  0
LINE
  5
1E0
100
AcDbEntity
  8
MAIN0
  6
BYBLOCK
 62
0
100
AcDbLine
 10
325.2548612800691
 20
384.9121611167707
 30
0.0000000000000000
 11
302.0548612920107
 21
384.9121611167707
 31
0.0000000000000000
  0
LINE
  5
1E1
100
AcDbEntity
  8
MAIN0
  6
BYBLOCK
 62
0
100
AcDbLine
 10
304.0548612920107
 20
382.9121611167707
 30
0.0000000000000000
 11
304.0548612920107
 21
344.9121611167707
 31
0.0000000000000000
  0
INSERT
  5
1E2
100
AcDbEntity
  8
MAIN0
  6
BYBLOCK
 62
0
100
AcDbBlockReference
  2
_OPEN
 10
304.0548612920107
 20
384.9121611167707
 30
0.0000000000000000
 41
2.000000000000000
 42
2.000000000000000
 43
2.000000000000000
 50
90.00000000000000
  0
INSERT
  5
1E3
100
AcDbEntity
  8
MAIN0
  6
BYBLOCK
 62
0
100
AcDbBlockReference
  2
_OPEN
 10
304.0548612920107
 20
342.9121611167707
 30
0.0000000000000000
 41
2.000000000000000
 42
2.000000000000000
 43
2.000000000000000
 50
270.0000000000000
  0
LINE
  5
1E4
100
AcDbEntity
  8
MAIN0
  6
BYBLOCK
 62
0
100
AcDbLine
 10
325.2548612798659
 20
342.9121611167707
 30
0.0000000000000000
 11
302.0548612920107
 21
342.9121611167707
 31
0.0000000000000000
  0
MTEXT
  5
1E5
100
AcDbEntity
  8
MAIN0
  6
BYBLOCK
 62
0
100
AcDbMText
 10
302.0048613396945
 20
363.9121611167707
 30
0.0000000000000000
 40
3.099999904632568
 41
0.0000000000000000
 71
     5
 72
     1
  1
\A1;42
 11
6.123233995736766e-017
 21
1.000000000000000
 31
0.0000000000000000
  7
STANDARD
  0
ENDBLK
  5
1E6
100
AcDbEntity
  8
MAIN0
  6
CONTINUOUS
 62
3
100
AcDbBlockEnd
  0
BLOCK
  5
1E8
100
AcDbEntity
  8
MAIN0
  6
CONTINUOUS
 62
3
100
AcDbBlockBegin
  2
*D38
 70
    65
 10
0.0
 20
0.0
 30
0.0
  0
LINE
  5
1E9
100
AcDbEntity
  8
MAIN0
  6
BYBLOCK
 62
0
100
AcDbLine
 10
400.6048613038932
 20
343.9121611166992
 30
0.0000000000000000
 11
428.3819716089965
 21
343.9121611166992
 31
0.0000000000000000
  0
LINE
  5
1EA
100
AcDbEntity
  8
MAIN0
  6
BYBLOCK
 62
0
100
AcDbLine
 10
426.3819716089965
 20
345.9121611166992
 30
0.0000000000000000
 11
426.3819716089965
 21
353.9121611167167
 31
0.0000000000000000
  0
INSERT
  5
1EB
100
AcDbEntity
  8
MAIN0
  6
BYBLOCK
 62
0
100
AcDbBlockReference
  2
_OPEN
 10
426.3819716089965
 20
343.9121611166992
 30
0.0000000000000000
 41
2.000000000000000
 42
2.000000000000000
 43
2.000000000000000
 50
270.0000000000000
  0
INSERT
  5
1EC
100
AcDbEntity
  8
MAIN0
  6
BYBLOCK
 62
0
100
AcDbBlockReference
  2
_OPEN
 10
426.3819716089965
 20
355.9121611167167
 30
0.0000000000000000
 41
2.000000000000000
 42
2.000000000000000
 43
2.000000000000000
 50
90.00000000000000
  0
LINE
  5
1ED
100
AcDbEntity
  8
MAIN0
  6
BYBLOCK
 62
0
100
AcDbLine
 10
394.3548613038931
 20
355.9121611167167
 30
0.0000000000000000
 11
428.3819716089965
 21
355.9121611167167
 31
0.0000000000000000
  0
MTEXT
  5
1EE
100
AcDbEntity
  8
MAIN0
  6
BYBLOCK
 62
0
100
AcDbMText
 10
424.3319716566803
 20
349.9121611167079
 30
0.0000000000000000
 40
3.099999904632568
 41
0.0000000000000000
 71
     5
 72
     1
  1
\A1;12
 11
6.123233995736766e-017
 21
1.000000000000000
 31
0.0000000000000000
  7
STANDARD
  0
ENDBLK
  5
1EF
100
AcDbEntity
  8
MAIN0
  6
CONTINUOUS
 62
3
100
AcDbBlockEnd
  0
BLOCK
  5
1F4
100
AcDbEntity
  8
MAIN0
  6
CONTINUOUS
 62
3
100
AcDbBlockBegin
  2
*D39
 70
    65
 10
0.0
 20
0.0
 30
0.0
  0
LINE
  5
1F5
100
AcDbEntity
  8
MAIN0
  6
BYBLOCK
 62
0
100
AcDbLine
 10
393.8124462283823
 20
231.8841668357900
 30
0.0000000000000000
 11
387.2972763556876
 21
227.5955118566699
 31
0.0000000000000000
  0
INSERT
  5
1F6
100
AcDbEntity
  8
MAIN0
  6
BYBLOCK
 62
0
100
AcDbBlockReference
  2
_OPEN
 10
393.8124462283823
 20
231.8841668357900
 30
0.0000000000000000
 41
2.000000000000000
 42
2.000000000000000
 43
2.000000000000000
 50
213.3551837677237
  0
INSERT
  5
1F7
100
AcDbEntity
  8
MAIN0
  6
BYBLOCK
 62
0
100
AcDbBlockReference
  2
_OPEN
 10
387.2972763556876
 20
227.5955118566699
 30
0.0000000000000000
 41
2.000000000000000
 42
2.000000000000000
 43
2.000000000000000
 50
33.35518376772370
  0
LINE
  5
1F8
100
AcDbEntity
  8
MAIN0
  6
BYBLOCK
 62
0
100
AcDbLine
 10
395.4830026059963
 20
232.9838219586413
 30
0.0000000000000000
 11
402.4885087260375
 21
237.5952441149365
 31
0.0000000000000000
  0
LINE
  5
1F9
100
AcDbEntity
  8
MAIN0
  6
BYBLOCK
 62
0
100
AcDbLine
 10
385.6267199780736
 20
226.4958567338186
 30
0.0000000000000000
 11
384.7914417892666
 21
225.9460291723929
 31
0.0000000000000000
  0
MTEXT
  5
1FA
100
AcDbEntity
  8
MAIN0
  6
BYBLOCK
 62
0
100
AcDbMText
 10
398.0620133476671
 20
237.1357454564318
 30
0.0000000000000000
 40
3.099999904632568
 41
0.0000000000000000
 71
     5
 72
     1
  1
\A1;\U+22057.8
 11
0.8352781888070096
 21
0.5498275614256543
 31
0.0000000000000000
  7
STANDARD
  0
ENDBLK
  5
1FB
100
AcDbEntity
  8
MAIN0
  6
CONTINUOUS
 62
3
100
AcDbBlockEnd
  0
BLOCK
  5
1FF
100
AcDbEntity
  8
MAIN0
  6
CONTINUOUS
 62
3
100
AcDbBlockBegin
  2
*D40
 70
    65
 10
0.0
 20
0.0
 30
0.0
  0
LINE
  5
200
100
AcDbEntity
  8
MAIN0
  6
BYBLOCK
 62
0
100
AcDbLine
 10
360.5548612917841
 20
176.3732814335287
 30
0.0000000000000000
 11
360.5548612917841
 21
159.4315440620575
 31
0.0000000000000000
  0
LINE
  5
201
100
AcDbEntity
  8
MAIN0
  6
BYBLOCK
 62
0
100
AcDbLine
 10
362.5548612917841
 20
161.4315440620575
 30
0.0000000000000000
 11
388.5548612920350
 21
161.4315440620575
 31
0.0000000000000000
  0
INSERT
  5
202
100
AcDbEntity
  8
MAIN0
  6
BYBLOCK
 62
0
100
AcDbBlockReference
  2
_OPEN
 10
360.5548612917841
 20
161.4315440620575
 30
0.0000000000000000
 41
2.000000000000000
 42
2.000000000000000
 43
2.000000000000000
 50
180.0000000000000
  0
INSERT
  5
203
100
AcDbEntity
  8
MAIN0
  6
BYBLOCK
 62
0
100
AcDbBlockReference
  2
_OPEN
 10
390.5548612920350
 20
161.4315440620575
 30
0.0000000000000000
 41
2.000000000000000
 42
2.000000000000000
 43
2.000000000000000
 50
0.0000000000000000
  0
LINE
  5
204
100
AcDbEntity
  8
MAIN0
  6
BYBLOCK
 62
0
100
AcDbLine
 10
390.5548612920350
 20
164.8480632094224
 30
0.0000000000000000
 11
390.5548612920350
 21
159.4315440620575
 31
0.0000000000000000
  0
MTEXT
  5
205
100
AcDbEntity
  8
MAIN0
  6
BYBLOCK
 62
0
100
AcDbMText
 10
375.5548612919095
 20
163.4815440143738
 30
0.0000000000000000
 40
3.099999904632568
 41
0.0000000000000000
 71
     5
 72
     1
  1
\A1;30
 11
1.000000000000000
 21
0.0000000000000000
 31
0.0000000000000000
  7
STANDARD
  0
ENDBLK
  5
206
100
AcDbEntity
  8
MAIN0
  6
CONTINUOUS
 62
3
100
AcDbBlockEnd
  0
BLOCK
  5
208
100
AcDbEntity
  8
MAIN0
  6
CONTINUOUS
 62
3
100
AcDbBlockBegin
  2
*D41
 70
    65
 10
0.0
 20
0.0
 30
0.0
  0
LINE
  5
209
100
AcDbEntity
  8
MAIN0
  6
BYBLOCK
 62
0
100
AcDbLine
 10
355.1173664079856
 20
277.7398393461201
 30
0.0000000000000000
 11
302.0548612920107
 21
277.7398393461201
 31
0.0000000000000000
  0
LINE
  5
20A
100
AcDbEntity
  8
MAIN0
  6
BYBLOCK
 62
0
100
AcDbLine
 10
304.0548612920107
 20
275.7398393461201
 30
0.0000000000000000
 11
304.0548612920107
 21
183.7398393461199
 31
0.0000000000000000
  0
INSERT
  5
20B
100
AcDbEntity
  8
MAIN0
  6
BYBLOCK
 62
0
100
AcDbBlockReference
  2
_OPEN
 10
304.0548612920107
 20
277.7398393461201
 30
0.0000000000000000
 41
2.000000000000000
 42
2.000000000000000
 43
2.000000000000000
 50
90.00000000000000
  0
INSERT
  5
20C
100
AcDbEntity
  8
MAIN0
  6
BYBLOCK
 62
0
100
AcDbBlockReference
  2
_OPEN
 10
304.0548612920107
 20
181.7398393461199
 30
0.0000000000000000
 41
2.000000000000000
 42
2.000000000000000
 43
2.000000000000000
 50
270.0000000000000
  0
LINE
  5
20D
100
AcDbEntity
  8
MAIN0
  6
BYBLOCK
 62
0
100
AcDbLine
 10
355.1173664078785
 20
181.7398393461199
 30
0.0000000000000000
 11
302.0548612920107
 21
181.7398393461199
 31
0.0000000000000000
  0
MTEXT
  5
20E
100
AcDbEntity
  8
MAIN0
  6
BYBLOCK
 62
0
100
AcDbMText
 10
302.0048613396945
 20
229.7398393461200
 30
0.0000000000000000
 40
3.099999904632568
 41
0.0000000000000000
 71
     5
 72
     1
  1
\A1;96
 11
6.123233995736766e-017
 21
1.000000000000000
 31
0.0000000000000000
  7
STANDARD
  0
ENDBLK
  5
20F
100
AcDbEntity
  8
MAIN0
  6
CONTINUOUS
 62
3
100
AcDbBlockEnd
  0
BLOCK
  5
211
100
AcDbEntity
  8
MAIN0
  6
CONTINUOUS
 62
3
100
AcDbBlockBegin
  2
*D42
 70
    65
 10
0.0
 20
0.0
 30
0.0
  0
LINE
  5
212
100
AcDbEntity
  8
MAIN0
  6
BYBLOCK
 62
0
100
AcDbLine
 10
325.2548612800691
 20
384.9121611167707
 30
0.0000000000000000
 11
310.0548612920107
 21
384.9121611167707
 31
0.0000000000000000
  0
LINE
  5
213
100
AcDbEntity
  8
MAIN0
  6
BYBLOCK
 62
0
100
AcDbLine
 10
312.0548612920107
 20
382.9121611167707
 30
0.0000000000000000
 11
312.0548612920107
 21
349.4121611167707
 31
0.0000000000000000
  0
INSERT
  5
214
100
AcDbEntity
  8
MAIN0
  6
BYBLOCK
 62
0
100
AcDbBlockReference
  2
_OPEN
 10
312.0548612920107
 20
384.9121611167707
 30
0.0000000000000000
 41
2.000000000000000
 42
2.000000000000000
 43
2.000000000000000
 50
90.00000000000000
  0
INSERT
  5
215
100
AcDbEntity
  8
MAIN0
  6
BYBLOCK
 62
0
100
AcDbBlockReference
  2
_OPEN
 10
312.0548612920107
 20
347.4121611167707
 30
0.0000000000000000
 41
2.000000000000000
 42
2.000000000000000
 43
2.000000000000000
 50
270.0000000000000
  0
LINE
  5
216
100
AcDbEntity
  8
MAIN0
  6
BYBLOCK
 62
0
100
AcDbLine
 10
325.2548612798796
 20
347.4121611167707
 30
0.0000000000000000
 11
310.0548612920107
 21
347.4121611167707
 31
0.0000000000000000
  0
MTEXT
  5
217
100
AcDbEntity
  8
MAIN0
  6
BYBLOCK
 62
0
100
AcDbMText
 10
310.0048613396945
 20
366.1621611167707
 30
0.0000000000000000
 40
3.099999904632568
 41
0.0000000000000000
 71
     5
 72
     1
  1
\A1;37.5
 11
6.123233995736766e-017
 21
1.000000000000000
 31
0.0000000000000000
  7
STANDARD
  0
ENDBLK
  5
218
100
AcDbEntity
  8
MAIN0
  6
CONTINUOUS
 62
3
100
AcDbBlockEnd
  0
BLOCK
  5
4F5
100
AcDbEntity
  8
MAIN0
  6
CONTINUOUS
 62
3
100
AcDbBlockBegin
  2
*D43
 70
    65
 10
0.0
 20
0.0
 30
0.0
  0
LINE
  5
4F6
100
AcDbEntity
  8
MAIN0
  6
BYBLOCK
 62
0
100
AcDbLine
 10
69.55075043528603
 20
101.2513760311927
 30
0.0000000000000000
 11
62.69585580420409
 21
101.2513760311927
 31
0.0000000000000000
  0
LINE
  5
4F7
100
AcDbEntity
  8
MAIN0
  6
BYBLOCK
 62
0
100
AcDbLine
 10
64.69585580420409
 20
101.2513760311927
 30
0.0000000000000000
 11
64.69585580420409
 21
98.25137603119273
 31
0.0000000000000000
  0
INSERT
  5
4F8
100
AcDbEntity
  8
MAIN0
  6
BYBLOCK
 62
0
100
AcDbBlockReference
  2
_OPEN
 10
64.69585580420409
 20
101.2513760311927
 30
0.0000000000000000
 41
2.000000000000000
 42
2.000000000000000
 43
2.000000000000000
 50
270.0000000000000
  0
INSERT
  5
4F9
100
AcDbEntity
  8
MAIN0
  6
BYBLOCK
 62
0
100
AcDbBlockReference
  2
_OPEN
 10
64.69585580420409
 20
98.25137603119273
 30
0.0000000000000000
 41
2.000000000000000
 42
2.000000000000000
 43
2.000000000000000
 50
90.00000000000000
  0
LINE
  5
4FA
100
AcDbEntity
  8
MAIN0
  6
BYBLOCK
 62
0
100
AcDbLine
 10
64.69585580420409
 20
103.2513760311927
 30
0.0000000000000000
 11
64.69585580420409
 21
108.6335433705177
 31
0.0000000000000000
  0
LINE
  5
4FB
100
AcDbEntity
  8
MAIN0
  6
BYBLOCK
 62
0
100
AcDbLine
 10
64.69585580420409
 20
96.25137603119273
 30
0.0000000000000000
 11
64.69585580420409
 21
95.25137603119273
 31
0.0000000000000000
  0
LINE
  5
4FC
100
AcDbEntity
  8
MAIN0
  6
BYBLOCK
 62
0
100
AcDbLine
 10
69.55075043528603
 20
98.25137603119273
 30
0.0000000000000000
 11
62.69585580420409
 21
98.25137603119273
 31
0.0000000000000000
  0
MTEXT
  5
4FD
100
AcDbEntity
  8
MAIN0
  6
BYBLOCK
 62
0
100
AcDbMText
 10
62.64585585188780
 20
106.2835435918549
 30
0.0000000000000000
 40
3.099999904632568
 41
0.0000000000000000
 71
     5
 72
     1
  1
\A1;\U+22053
 11
6.123233995736766e-017
 21
1.000000000000000
 31
0.0000000000000000
  7
STANDARD
  0
ENDBLK
  5
4FE
100
AcDbEntity
  8
MAIN0
  6
CONTINUOUS
 62
3
100
AcDbBlockEnd
  0
BLOCK
  5
500
100
AcDbEntity
  8
MAIN0
  6
CONTINUOUS
 62
3
100
AcDbBlockBegin
  2
*D44
 70
    65
 10
0.0
 20
0.0
 30
0.0
  0
LINE
  5
501
100
AcDbEntity
  8
MAIN0
  6
BYBLOCK
 62
0
100
AcDbLine
 10
78.55075043528615
 20
103.0513760311924
 30
0.0000000000000000
 11
55.15654369236364
 21
103.0513760311924
 31
0.0000000000000000
  0
LINE
  5
502
100
AcDbEntity
  8
MAIN0
  6
BYBLOCK
 62
0
100
AcDbLine
 10
57.15654369236364
 20
101.0513760311924
 30
0.0000000000000000
 11
57.15654369236364
 21
98.45137603119233
 31
0.0000000000000000
  0
INSERT
  5
503
100
AcDbEntity
  8
MAIN0
  6
BYBLOCK
 62
0
100
AcDbBlockReference
  2
_OPEN
 10
57.15654369236364
 20
103.0513760311924
 30
0.0000000000000000
 41
2.000000000000000
 42
2.000000000000000
 43
2.000000000000000
 50
90.00000000000000
  0
INSERT
  5
504
100
AcDbEntity
  8
MAIN0
  6
BYBLOCK
 62
0
100
AcDbBlockReference
  2
_OPEN
 10
57.15654369236364
 20
96.45137603119233
 30
0.0000000000000000
 41
2.000000000000000
 42
2.000000000000000
 43
2.000000000000000
 50
270.0000000000000
  0
LINE
  5
505
100
AcDbEntity
  8
MAIN0
  6
BYBLOCK
 62
0
100
AcDbLine
 10
57.15654369236364
 20
103.0513760311924
 30
0.0000000000000000
 11
57.15654369236364
 21
111.7067400677524
 31
0.0000000000000000
  0
LINE
  5
506
100
AcDbEntity
  8
MAIN0
  6
BYBLOCK
 62
0
100
AcDbLine
 10
78.55075043528592
 20
96.45137603119233
 30
0.0000000000000000
 11
55.15654369236364
 21
96.45137603119233
 31
0.0000000000000000
  0
MTEXT
  5
507
100
AcDbEntity
  8
MAIN0
  6
BYBLOCK
 62
0
100
AcDbMText
 10
55.10654374004736
 20
107.7567400594312
 30
0.0000000000000000
 40
3.099999904632568
 41
0.0000000000000000
 71
     5
 72
     1
  1
\A1;\U+22056.6
 11
6.123233995736766e-017
 21
1.000000000000000
 31
0.0000000000000000
  7
STANDARD
  0
ENDBLK
  5
508
100
AcDbEntity
  8
MAIN0
  6
CONTINUOUS
 62
3
100
AcDbBlockEnd
  0
BLOCK
  5
50A
100
AcDbEntity
  8
MAIN0
  6
CONTINUOUS
 62
3
100
AcDbBlockBegin
  2
*D45
 70
    65
 10
0.0
 20
0.0
 30
0.0
  0
LINE
  5
50B
100
AcDbEntity
  8
MAIN0
  6
BYBLOCK
 62
0
100
AcDbLine
 10
80.35075044720691
 20
92.59804193173613
 30
0.0000000000000000
 11
80.35075044720702
 21
88.05701391185107
 31
0.0000000000000000
  0
LINE
  5
50C
100
AcDbEntity
  8
MAIN0
  6
BYBLOCK
 62
0
100
AcDbLine
 10
80.35075044720696
 20
90.05701391185104
 30
0.0000000000000000
 11
79.35075044720696
 21
90.05701391185104
 31
0.0000000000000000
  0
INSERT
  5
50D
100
AcDbEntity
  8
MAIN0
  6
BYBLOCK
 62
0
100
AcDbBlockReference
  2
_OPEN
 10
80.35075044720696
 20
90.05701391185104
 30
0.0000000000000000
 41
2.000000000000000
 42
2.000000000000000
 43
2.000000000000000
 50
180.0000000000000
  0
INSERT
  5
50E
100
AcDbEntity
  8
MAIN0
  6
BYBLOCK
 62
0
100
AcDbBlockReference
  2
_OPEN
 10
79.35075044720696
 20
90.05701391185104
 30
0.0000000000000000
 41
2.000000000000000
 42
2.000000000000000
 43
2.000000000000000
 50
360.0000000000000
  0
LINE
  5
50F
100
AcDbEntity
  8
MAIN0
  6
BYBLOCK
 62
0
100
AcDbLine
 10
82.35075044720696
 20
90.05701391185104
 30
0.0000000000000000
 11
83.35075044720696
 21
90.05701391185104
 31
0.0000000000000000
  0
LINE
  5
510
100
AcDbEntity
  8
MAIN0
  6
BYBLOCK
 62
0
100
AcDbLine
 10
77.35075044720696
 20
90.05701391185104
 30
0.0000000000000000
 11
76.04191756337212
 21
90.05701391185104
 31
0.0000000000000000
  0
LINE
  5
511
100
AcDbEntity
  8
MAIN0
  6
BYBLOCK
 62
0
100
AcDbLine
 10
79.35075044720696
 20
97.26837969854691
 30
0.0000000000000000
 11
79.35075044720696
 21
88.05701391185104
 31
0.0000000000000000
  0
MTEXT
  5
512
100
AcDbEntity
  8
MAIN0
  6
BYBLOCK
 62
0
100
AcDbMText
 10
77.09191764550582
 20
91.94034719750070
 30
0.0000000000000000
 40
3.099999904632568
 41
0.0000000000000000
 71
     5
 72
     1
  1
\A1;1
 11
1.000000000000000
 21
0.0000000000000000
 31
0.0000000000000000
  7
STANDARD
  0
ENDBLK
  5
513
100
AcDbEntity
  8
MAIN0
  6
CONTINUOUS
 62
3
100
AcDbBlockEnd
  0
BLOCK
  5
515
100
AcDbEntity
  8
MAIN0
  6
BYBLOCK
 62
3
100
AcDbBlockBegin
  2
*X0
 70
     1
 10
0.0
 20
0.0
 30
0.0
  0
LINE
  5
516
100
AcDbEntity
  8
MAIN0
  6
BYBLOCK
 62
0
100
AcDbLine
 10
81.85075044720014
 20
101.2513760311923
 30
0.0000000000000000
 11
86.70408453473431
 21
106.1047101187264
 31
0.0000000000000000
  0
LINE
  5
517
100
AcDbEntity
  8
MAIN0
  6
BYBLOCK
 62
0
100
AcDbLine
 10
80.90794137751982
 20
101.2513760311923
 30
0.0000000000000000
 11
85.76127546505370
 21
106.1047101187262
 31
0.0000000000000000
  0
LINE
  5
518
100
AcDbEntity
  8
MAIN0
  6
BYBLOCK
 62
0
100
AcDbLine
 10
80.35075044720713
 20
101.6369941705596
 30
0.0000000000000000
 11
84.81846639537361
 21
106.1047101187260
 31
0.0000000000000000
  0
LINE
  5
519
100
AcDbEntity
  8
MAIN0
  6
BYBLOCK
 62
0
100
AcDbLine
 10
80.38653684268388
 20
102.6155896357160
 30
0.0000000000000000
 11
83.87565732569391
 21
106.1047101187265
 31
0.0000000000000000
  0
LINE
  5
51A
100
AcDbEntity
  8
MAIN0
  6
BYBLOCK
 62
0
100
AcDbLine
 10
80.35075044720736
 20
103.5226123099202
 30
0.0000000000000000
 11
82.93284825601194
 21
106.1047101187247
 31
0.0000000000000000
  0
LINE
  5
51B
100
AcDbEntity
  8
MAIN0
  6
BYBLOCK
 62
0
100
AcDbLine
 10
80.35075044720787
 20
104.4654213796008
 30
0.0000000000000000
 11
81.99003918633315
 21
106.1047101187261
 31
0.0000000000000000
  0
LINE
  5
51C
100
AcDbEntity
  8
MAIN0
  6
BYBLOCK
 62
0
100
AcDbLine
 10
80.35075044720782
 20
105.4082304492814
 30
0.0000000000000000
 11
81.04723011665300
 21
106.1047101187256
 31
0.0000000000000000
  0
LINE
  5
51D
100
AcDbEntity
  8
MAIN0
  6
BYBLOCK
 62
0
100
AcDbLine
 10
82.79355951688103
 20
101.2513760311923
 30
0.0000000000000000
 11
87.64689360441304
 21
106.1047101187254
 31
0.0000000000000000
  0
LINE
  5
51E
100
AcDbEntity
  8
MAIN0
  6
BYBLOCK
 62
0
100
AcDbLine
 10
83.73636858655982
 20
101.2513760311923
 30
0.0000000000000000
 11
88.58970267409188
 21
106.1047101187237
 31
0.0000000000000000
  0
LINE
  5
51F
100
AcDbEntity
  8
MAIN0
  6
BYBLOCK
 62
0
100
AcDbLine
 10
84.42917765624065
 20
101.0013760311923
 30
0.0000000000000000
 11
89.53251174377351
 21
106.1047101187257
 31
0.0000000000000000
  0
LINE
  5
520
100
AcDbEntity
  8
MAIN0
  6
BYBLOCK
 62
0
100
AcDbLine
 10
85.37198672592132
 20
101.0013760311923
 30
0.0000000000000000
 11
90.35075044720469
 21
105.9801397524762
 31
0.0000000000000000
  0
LINE
  5
521
100
AcDbEntity
  8
MAIN0
  6
BYBLOCK
 62
0
100
AcDbLine
 10
86.31479579560084
 20
101.0013760311923
 30
0.0000000000000000
 11
90.35075044720685
 21
105.0373306827983
 31
0.0000000000000000
  0
LINE
  5
522
100
AcDbEntity
  8
MAIN0
  6
BYBLOCK
 62
0
100
AcDbLine
 10
87.25760486528083
 20
101.0013760311923
 30
0.0000000000000000
 11
90.35075044720685
 21
104.0945216131178
 31
0.0000000000000000
  0
LINE
  5
523
100
AcDbEntity
  8
MAIN0
  6
BYBLOCK
 62
0
100
AcDbLine
 10
88.20041393496143
 20
101.0013760311923
 30
0.0000000000000000
 11
90.35075044720645
 21
103.1517125434380
 31
0.0000000000000000
  0
LINE
  5
524
100
AcDbEntity
  8
MAIN0
  6
BYBLOCK
 62
0
100
AcDbLine
 10
89.14322300464141
 20
101.0013760311923
 30
0.0000000000000000
 11
90.35075044720657
 21
102.2089034737574
 31
0.0000000000000000
  0
ENDBLK
  5
525
100
AcDbEntity
  8
MAIN0
  6
BYBLOCK
 62
3
100
AcDbBlockEnd
  0
BLOCK
  5
527
100
AcDbEntity
  8
MAIN0
  6
BYBLOCK
 62
3
100
AcDbBlockBegin
  2
*X1
 70
     1
 10
0.0
 20
0.0
 30
0.0
  0
LINE
  5
528
100
AcDbEntity
  8
MAIN0
  6
BYBLOCK
 62
0
100
AcDbLine
 10
80.35075044720782
 20
94.55137603119292
 30
0.0000000000000000
 11
84.05075044720729
 21
98.25137603119237
 31
0.0000000000000000
  0
LINE
  5
529
100
AcDbEntity
  8
MAIN0
  6
BYBLOCK
 62
0
100
AcDbLine
 10
80.35075044720736
 20
95.49418510087219
 30
0.0000000000000000
 11
83.10794137752680
 21
98.25137603119231
 31
0.0000000000000000
  0
LINE
  5
52A
100
AcDbEntity
  8
MAIN0
  6
BYBLOCK
 62
0
100
AcDbLine
 10
80.35075044720696
 20
96.43699417055223
 30
0.0000000000000000
 11
82.16513230784688
 21
98.25137603119214
 31
0.0000000000000000
  0
LINE
  5
52B
100
AcDbEntity
  8
MAIN0
  6
BYBLOCK
 62
0
100
AcDbLine
 10
80.35075044720691
 20
93.60856696151143
 30
0.0000000000000000
 11
85.24355951688722
 21
98.50137603119239
 31
0.0000000000000000
  0
LINE
  5
52C
100
AcDbEntity
  8
MAIN0
  6
BYBLOCK
 62
0
100
AcDbLine
 10
81.08303449903144
 20
93.39804194365624
 30
0.0000000000000000
 11
86.18636858656760
 21
98.50137603119239
 31
0.0000000000000000
  0
LINE
  5
52D
100
AcDbEntity
  8
MAIN0
  6
BYBLOCK
 62
0
100
AcDbLine
 10
82.02584356871159
 20
93.39804194365672
 30
0.0000000000000000
 11
87.12917765624832
 21
98.50137603119231
 31
0.0000000000000000
  0
LINE
  5
52E
100
AcDbEntity
  8
MAIN0
  6
BYBLOCK
 62
0
100
AcDbLine
 10
82.96865263839214
 20
93.39804194365618
 30
0.0000000000000000
 11
88.07198672592710
 21
98.50137603119225
 31
0.0000000000000000
  0
LINE
  5
52F
100
AcDbEntity
  8
MAIN0
  6
BYBLOCK
 62
0
100
AcDbLine
 10
83.91146170807281
 20
93.39804194365706
 30
0.0000000000000000
 11
89.01479579560737
 21
98.50137603119219
 31
0.0000000000000000
  0
LINE
  5
530
100
AcDbEntity
  8
MAIN0
  6
BYBLOCK
 62
0
100
AcDbLine
 10
84.85427077775296
 20
93.39804194365718
 30
0.0000000000000000
 11
89.95760486528855
 21
98.50137603119225
 31
0.0000000000000000
  0
LINE
  5
531
100
AcDbEntity
  8
MAIN0
  6
BYBLOCK
 62
0
100
AcDbLine
 10
85.79707984743163
 20
93.39804194365567
 30
0.0000000000000000
 11
90.35075044720691
 21
97.95171254343092
 31
0.0000000000000000
  0
LINE
  5
532
100
AcDbEntity
  8
MAIN0
  6
BYBLOCK
 62
0
100
AcDbLine
 10
86.73988891711190
 20
93.39804194365573
 30
0.0000000000000000
 11
90.35075044720833
 21
97.00890347375213
 31
0.0000000000000000
  0
LINE
  5
533
100
AcDbEntity
  8
MAIN0
  6
BYBLOCK
 62
0
100
AcDbLine
 10
87.68269798679194
 20
93.39804194365610
 30
0.0000000000000000
 11
90.35075044720725
 21
96.06609440407050
 31
0.0000000000000000
  0
LINE
  5
534
100
AcDbEntity
  8
MAIN0
  6
BYBLOCK
 62
0
100
AcDbLine
 10
88.62550705647232
 20
93.39804194365570
 30
0.0000000000000000
 11
90.35075044720935
 21
95.12328533439279
 31
0.0000000000000000
  0
LINE
  5
535
100
AcDbEntity
  8
MAIN0
  6
BYBLOCK
 62
0
100
AcDbLine
 10
89.56831612615241
 20
93.39804194365576
 30
0.0000000000000000
 11
90.35075044720787
 21
94.18047626471122
 31
0.0000000000000000
  0
ENDBLK
  5
536
100
AcDbEntity
  8
MAIN0
  6
BYBLOCK
 62
3
100
AcDbBlockEnd
  0
BLOCK
  5
538
100
AcDbEntity
  8
MAIN0
  6
BYBLOCK
 62
3
100
AcDbBlockBegin
  2
*X2
 70
     1
 10
0.0
 20
0.0
 30
0.0
  0
LINE
  5
539
100
AcDbEntity
  8
MAIN0
  6
BYBLOCK
 62
0
100
AcDbLine
 10
75.49741635967206
 20
101.2513760311925
 30
0.0000000000000000
 11
80.35075044720929
 21
106.1047101187298
 31
0.0000000000000000
  0
LINE
  5
53A
100
AcDbEntity
  8
MAIN0
  6
BYBLOCK
 62
0
100
AcDbLine
 10
73.61179822031238
 20
101.2513760311925
 30
0.0000000000000000
 11
78.46513230784831
 21
106.1047101187291
 31
0.0000000000000000
  0
LINE
  5
53B
100
AcDbEntity
  8
MAIN0
  6
BYBLOCK
 62
0
100
AcDbLine
 10
71.72618008095105
 20
101.2513760311927
 30
0.0000000000000000
 11
76.57951416848903
 21
106.1047101187301
 31
0.0000000000000000
  0
LINE
  5
53C
100
AcDbEntity
  8
MAIN0
  6
BYBLOCK
 62
0
100
AcDbLine
 10
70.35075044720725
 20
101.7615645368085
 30
0.0000000000000000
 11
74.69389602912759
 21
106.1047101187288
 31
0.0000000000000000
  0
LINE
  5
53D
100
AcDbEntity
  8
MAIN0
  6
BYBLOCK
 62
0
100
AcDbLine
 10
70.35075044720753
 20
103.6471826761692
 30
0.0000000000000000
 11
72.80827788976859
 21
106.1047101187302
 31
0.0000000000000000
  0
LINE
  5
53E
100
AcDbEntity
  8
MAIN0
  6
BYBLOCK
 62
0
100
AcDbLine
 10
70.35075044720776
 20
105.5328008155298
 30
0.0000000000000000
 11
70.92265975040806
 21
106.1047101187306
 31
0.0000000000000000
  0
LINE
  5
53F
100
AcDbEntity
  8
MAIN0
  6
BYBLOCK
 62
0
100
AcDbLine
 10
77.38303449903265
 20
101.2513760311924
 30
0.0000000000000000
 11
80.35075044720702
 21
104.2190919793681
 31
0.0000000000000000
  0
ENDBLK
  5
540
100
AcDbEntity
  8
MAIN0
  6
BYBLOCK
 62
3
100
AcDbBlockEnd
  0
BLOCK
  5
542
100
AcDbEntity
  8
MAIN0
  6
BYBLOCK
 62
3
100
AcDbBlockBegin
  2
*X3
 70
     1
 10
0.0
 20
0.0
 30
0.0
  0
LINE
  5
543
100
AcDbEntity
  8
MAIN0
  6
BYBLOCK
 62
0
100
AcDbLine
 10
70.99741635967547
 20
93.39804194366030
 30
0.0000000000000000
 11
75.85075044720765
 21
98.25137603119248
 31
0.0000000000000000
  0
LINE
  5
544
100
AcDbEntity
  8
MAIN0
  6
BYBLOCK
 62
0
100
AcDbLine
 10
70.35075044720560
 20
94.63699417055119
 30
0.0000000000000000
 11
73.96513230784757
 21
98.25137603119248
 31
0.0000000000000000
  0
LINE
  5
545
100
AcDbEntity
  8
MAIN0
  6
BYBLOCK
 62
0
100
AcDbLine
 10
70.35075044720867
 20
96.52261230991462
 30
0.0000000000000000
 11
72.07951416848891
 21
98.25137603119271
 31
0.0000000000000000
  0
LINE
  5
546
100
AcDbEntity
  8
MAIN0
  6
BYBLOCK
 62
0
100
AcDbLine
 10
72.88303449903532
 20
93.39804194365939
 30
0.0000000000000000
 11
77.73636858656778
 21
98.25137603119237
 31
0.0000000000000000
  0
LINE
  5
547
100
AcDbEntity
  8
MAIN0
  6
BYBLOCK
 62
0
100
AcDbLine
 10
74.76865263839426
 20
93.39804194365854
 30
0.0000000000000000
 11
79.35075044720708
 21
97.98013975247079
 31
0.0000000000000000
  0
LINE
  5
548
100
AcDbEntity
  8
MAIN0
  6
BYBLOCK
 62
0
100
AcDbLine
 10
76.65427077775598
 20
93.39804194365991
 30
0.0000000000000000
 11
79.77917765624773
 21
96.52294882215159
 31
0.0000000000000000
  0
LINE
  5
549
100
AcDbEntity
  8
MAIN0
  6
BYBLOCK
 62
0
100
AcDbLine
 10
78.53988891711623
 20
93.39804194366033
 30
0.0000000000000000
 11
80.35075044720691
 21
95.20890347374967
 31
0.0000000000000000
  0
ENDBLK
  5
54A
100
AcDbEntity
  8
MAIN0
  6
BYBLOCK
 62
3
100
AcDbBlockEnd
  0
ENDSEC
  0
SECTION
  2
ENTITIES
  0
LINE
  5
46
100
AcDbEntity
  8
MAIN0
  6
CENTER
 62
3
100
AcDbLine
 10
317.1897545834220
 20
229.7398393462299
 30
0.0000000000000000
 11
423.2502483083907
 21
229.7398393462299
 31
0.0000000000000000
  0
LINE
  5
47
100
AcDbEntity
  8
MAIN0
  6
CENTER
 62
3
100
AcDbLine
 10
390.5548612920350
 20
294.8576084590558
 30
0.0000000000000000
 11
390.5548612920350
 21
165.6480632213434
 31
0.0000000000000000
  0
LINE
  5
48
100
AcDbEntity
  8
MAIN0
  6
CENTER
 62
3
100
AcDbLine
 10
390.5548612920350
 20
105.7193556960398
 30
0.0000000000000000
 11
390.5548612920350
 21
53.04931096992800
 31
0.0000000000000000
  0
LINE
  5
49
100
AcDbEntity
  8
MAIN0
  6
CENTER
 62
3
100
AcDbLine
 10
275.3381712905064
 20
229.7398393462277
 30
0.0000000000000000
 11
224.3365738352979
 21
229.7398393462489
 31
0.0000000000000000
  0
LINE
  5
4A
100
AcDbEntity
  8
MAIN0
  6
CENTER
 62
3
100
AcDbLine
 10
390.5548612920386
 20
389.4603824765487
 30
0.0000000000000000
 11
390.5548612920347
 21
336.3846560946022
 31
0.0000000000000000
  0
LINE
  5
4B
100
AcDbEntity
  8
MAIN0
  6
CENTER
 62
3
100
AcDbLine
 10
131.9992717210872
 20
200.7398393462766
 30
0.0000000000000000
 11
114.3959540809747
 21
200.7398393462376
 31
0.0000000000000000
  0
LINE
  5
4C
100
AcDbEntity
  8
MAIN0
  6
CENTER
 62
3
100
AcDbLine
 10
131.9992717209589
 20
258.7398393462765
 30
0.0000000000000000
 11
114.3959540808465
 21
258.7398393462377
 31
0.0000000000000000
  0
LINE
  5
4D
100
AcDbEntity
  8
MAIN0
  6
CONTINUOUS
 62
3
100
AcDbLine
 10
143.7548612918716
 20
286.7398393463648
 30
0.0000000000000000
 11
143.7548612918711
 21
288.7398393463645
 31
0.0000000000000000
  0
LINE
  5
4E
100
AcDbEntity
  8
MAIN0
  6
CENTER
 62
3
100
AcDbLine
 10
129.2548612920428
 20
204.1748525257284
 30
0.0000000000000000
 11
129.2548612920580
 21
197.2726741668743
 31
0.0000000000000000
  0
LINE
  5
4F
100
AcDbEntity
  8
MAIN0
  6
CENTER
 62
3
100
AcDbLine
 10
129.2548612919149
 20
261.9883145771768
 30
0.0000000000000000
 11
129.2548612919298
 21
255.2347388489505
 31
0.0000000000000000
  0
LINE
  5
50
100
AcDbEntity
  8
MAIN0
  6
CONTINUOUS
 62
3
100
AcDbLine
 10
183.2548612919260
 20
262.2398393463900
 30
0.0000000000000000
 11
93.75486129192592
 21
262.2398393461920
 31
0.0000000000000000
  0
LINE
  5
51
100
AcDbEntity
  8
MAIN0
  6
CONTINUOUS
 62
3
100
AcDbLine
 10
183.2548612920952
 20
197.2398393463900
 30
0.0000000000000000
 11
93.75486129209520
 21
197.2398393461920
 31
0.0000000000000000
  0
LINE
  5
52
100
AcDbEntity
  8
MAIN0
  6
CENTER
 62
3
100
AcDbLine
 10
151.2548612918539
 20
181.8092351290825
 30
0.0000000000000000
 11
151.2548612918550
 21
187.3495274853543
 31
0.0000000000000000
  0
LINE
  5
53
100
AcDbEntity
  8
MAIN0
  6
CENTER
 62
3
100
AcDbLine
 10
177.0548612922236
 20
181.8092351290774
 30
0.0000000000000000
 11
177.0548612922258
 21
187.3495274853492
 31
0.0000000000000000
  0
LINE
  5
54
100
AcDbEntity
  8
MAIN0
  6
CENTER
 62
3
100
AcDbLine
 10
145.2548612922203
 20
216.6537333141852
 30
0.0000000000000000
 11
145.2548612922209
 21
208.5213046160875
 31
0.0000000000000000
  0
LINE
  5
55
100
AcDbEntity
  8
MAIN0
  6
CENTER
 62
3
100
AcDbLine
 10
148.9720167026554
 20
212.7398393463141
 30
0.0000000000000000
 11
141.9057549076707
 21
212.7398393462985
 31
0.0000000000000000
  0
CIRCLE
  5
56
100
AcDbEntity
  8
MAIN0
  6
CONTINUOUS
 62
3
100
AcDbCircle
 10
118.7548612919862
 20
229.7398393462473
 30
0.0000000000000000
 40
4.000000000000000
  0
DIMENSION
  5
5F
100
AcDbEntity
  8
MAIN0
  6
CONTINUOUS
 62
3
100
AcDbDimension
  2
*D0
 10
390.5548612920350
 20
52.06666666811933
 30
0.0000000000000000
 11
377.3048612919599
 21
52.56666666811933
 31
0.0000000000000000
 70
32
  3
MAIN001
100
AcDbAlignedDimension
 13
364.0548612918850
 23
63.00771529925370
 33
0.0000000000000000
 14
390.5548612920350
 24
53.04931096992800
 34
0.0000000000000000
100
AcDbRotatedDimension
1001
ACAD
1000
DSTYLE
1002
{
1070
   173
1070
     1
1070
     6
1000
_OPEN
1070
     7
1000
_OPEN
1070
    41
1040
2.000000
1002
}
  0
DIMENSION
  5
68
100
AcDbEntity
  8
MAIN0
  6
CONTINUOUS
 62
3
100
AcDbDimension
  2
*D1
 10
390.5548612920350
 20
44.95145978742565
 30
0.0000000000000000
 11
374.3048612921194
 21
45.45145978742565
 31
0.0000000000000000
 70
32
  3
MAIN001
100
AcDbAlignedDimension
 13
358.0548612922038
 23
75.49046129075902
 33
0.0000000000000000
 14
390.5548612920350
 24
53.04931096992800
 34
0.0000000000000000
100
AcDbRotatedDimension
1001
ACAD
1000
DSTYLE
1002
{
1070
   173
1070
     1
1070
     6
1000
_OPEN
1070
     7
1000
_OPEN
1070
    41
1040
2.000000
1002
}
  0
DIMENSION
  5
71
100
AcDbEntity
  8
MAIN0
  6
CONTINUOUS
 62
3
100
AcDbDimension
  2
*D2
 10
358.0548612922038
 20
44.95145978742565
 30
0.0000000000000000
 11
345.1548612921218
 21
45.45145978742565
 31
0.0000000000000000
 70
32
  3
MAIN001
100
AcDbAlignedDimension
 13
332.2548612920398
 23
75.05173326175694
 33
0.0000000000000000
 14
358.0548612922038
 24
75.49046129075902
 34
0.0000000000000000
100
AcDbRotatedDimension
1001
ACAD
1000
DSTYLE
1002
{
1070
   173
1070
     1
1070
     6
1000
_OPEN
1070
     7
1000
_OPEN
1070
    41
1040
2.000000
1002
}
  0
DIMENSION
  5
7C
100
AcDbEntity
  8
MAIN0
  6
CONTINUOUS
 62
3
100
AcDbDimension
  2
*D3
 10
332.2548612920398
 20
44.95145978742565
 30
0.0000000000000000
 11
321.5336746427698
 21
45.45145978742565
 31
0.0000000000000000
 70
160
  3
MAIN001
100
AcDbAlignedDimension
 13
326.0548612918239
 23
59.73983934611076
 33
0.0000000000000000
 14
332.2548612920398
 24
75.05173326175694
 34
0.0000000000000000
100
AcDbRotatedDimension
1001
ACAD
1000
DSTYLE
1002
{
1070
   173
1070
     1
1070
     6
1000
_OPEN
1070
     7
1000
_OPEN
1070
    41
1040
2.000000
1070
   287
1070
     0
1002
}
  0
DIMENSION
  5
84
100
AcDbEntity
  8
MAIN0
  6
CONTINUOUS
 62
3
100
AcDbDimension
  2
*D4
 10
349.9944943360187
 20
59.73983934611081
 30
0.0000000000000000
 11
349.4944943360187
 21
63.73983934612960
 31
0.0000000000000000
 70
32
  3
MAIN001
100
AcDbAlignedDimension
 13
359.9218636344361
 23
67.73983934614836
 33
0.0000000000000000
 14
326.0548612918238
 24
59.73983934611081
 34
0.0000000000000000
 50
90.00000000000000
100
AcDbRotatedDimension
1001
ACAD
1000
DSTYLE
1002
{
1070
   173
1070
     1
1070
     6
1000
_OPEN
1070
     7
1000
_OPEN
1070
    41
1040
2.000000
1002
}
  0
DIMENSION
  5
8D
100
AcDbEntity
  8
MAIN0
  6
CONTINUOUS
 62
3
100
AcDbDimension
  2
*D5
 10
312.7764987502682
 20
59.73983934611081
 30
0.0000000000000000
 11
312.2764987502682
 21
69.48983934613068
 31
0.0000000000000000
 70
32
  3
MAIN001
100
AcDbAlignedDimension
 13
317.4149464043962
 23
79.23983934610121
 33
0.0000000000000000
 14
326.0548612918238
 24
59.73983934611081
 34
0.0000000000000000
 50
90.00000000000000
100
AcDbRotatedDimension
1001
ACAD
1000
DSTYLE
1002
{
1070
   173
1070
     1
1070
     6
1000
_OPEN
1070
     7
1000
_OPEN
1070
    41
1040
2.000000
1002
}
  0
LEADER
  5
8E
100
AcDbEntity
  8
MAIN0
  6
CONTINUOUS
 62
3
100
AcDbLeader
  3
MAIN001
 73
     0
 75
     1
 40
3.099999904632568
 41
27.51900081539156
 76
     3
 10
330.5191374686163
 20
81.03907885459003
 30
0.0000000000000000
 10
314.7697101237571
 20
89.95995530710817
 30
0.0000000000000000
 10
312.8427101795471
 20
89.95995530710817
 30
0.0000000000000000
340
8F
213
0.0000000000000000
223
-0.5000000000000000
233
0.0000000000000000
1001
ACAD
1000
DSTYLE
1002
{
1070
   147
1040
0.0
1070
    77
1070
     1
1070
   173
1070
     1
1070
     6
1000
_OPEN
1070
     7
1000
_OPEN
1002
}
  0
MTEXT
  5
8F
102
{ACAD_REACTORS
330
8E
102
}
100
AcDbEntity
  8
MAIN0
  6
CONTINUOUS
 62
3
100
AcDbMText
 10
285.3237093641556
 20
93.55995521174074
 30
0.0000000000000000
 40
3.099999904632568
 41
0.0000000000000000
 71
     1
 72
     1
  1
{\H0.93x;{閉ポート　M5\PClose Port}}
 11
1.000000000000000
 21
0.0000000000000000
 31
0.0000000000000000
  7
KNJYOKO
  0
LEADER
  5
90
100
AcDbEntity
  8
MAIN0
  6
CONTINUOUS
 62
3
100
AcDbLeader
  3
MAIN001
 73
     0
 75
     1
 40
3.099999904632568
 41
24.72900073432919
 76
     3
 10
356.6407783080109
 20
81.30148172880203
 30
0.0000000000000000
 10
336.4862674874219
 20
122.0984037046840
 30
0.0000000000000000
 10
334.5592675432119
 20
122.0984037046840
 30
0.0000000000000000
340
91
213
0.0000000000000000
223
-0.5000000000000000
233
0.0000000000000000
1001
ACAD
1000
DSTYLE
1002
{
1070
   147
1040
0.0
1070
    77
1070
     1
1070
   173
1070
     1
1070
     6
1000
_OPEN
1070
     7
1000
_OPEN
1002
}
  0
MTEXT
  5
91
102
{ACAD_REACTORS
330
90
102
}
100
AcDbEntity
  8
MAIN0
  6
CONTINUOUS
 62
3
100
AcDbMText
 10
309.8302668088827
 20
125.6984036093166
 30
0.0000000000000000
 40
3.099999904632568
 41
0.0000000000000000
 71
     1
 72
     1
  1
{\H0.93x;{開ポート　M5\POpen Port\P\P}
 11
1.000000000000000
 21
0.0000000000000000
 31
0.0000000000000000
  7
KNJYOKO
  0
LEADER
  5
92
100
AcDbEntity
  8
MAIN0
  6
CONTINUOUS
 62
3
100
AcDbLeader
  3
MAIN001
 73
     0
 74
     0
 75
     1
 40
3.099999904632568
 41
69.37100203132627
 76
     3
 10
365.1667548453185
 20
69.97896701687714
 30
0.0000000000000000
 10
378.2699189293923
 20
122.5093920336704
 30
0.0000000000000000
 10
380.1949188736023
 20
122.5093920336704
 30
0.0000000000000000
340
93
213
0.0000000000000000
223
-0.5000000000000000
233
0.0000000000000000
1001
ACAD
1000
DSTYLE
1002
{
1070
   147
1040
0.0
1070
    77
1070
     1
1070
   173
1070
     1
1070
     6
1000
_OPEN
1070
     7
1000
_OPEN
1002
}
  0
MTEXT
  5
93
102
{ACAD_REACTORS
330
92
102
}
100
AcDbEntity
  8
MAIN0
  6
CONTINUOUS
 62
3
100
AcDbMText
 10
380.1959188736023
 20
126.1093919383029
 30
0.0000000000000000
 40
3.099999904632568
 41
0.0000000000000000
 71
     1
 72
     1
  1
{\H0.94x;{M5 ねじ深5 (エアパージ用)\PM5 Depth5 (For Air Purge)}}
 11
1.000000000000000
 21
0.0000000000000000
 31
0.0000000000000000
  7
KNJYOKO
  0
DIMENSION
  5
9C
100
AcDbEntity
  8
MAIN0
  6
CONTINUOUS
 62
3
100
AcDbDimension
  2
*D6
 10
517.5548612920347
 20
158.0961863360750
 30
0.0000000000000000
 11
512.5548612919540
 21
158.5961863360750
 31
0.0000000000000000
 70
32
  3
MAIN001
100
AcDbAlignedDimension
 13
507.5548612918733
 23
170.9614601770888
 33
0.0000000000000000
 14
517.5548612920347
 24
170.7398393462169
 34
0.0000000000000000
100
AcDbRotatedDimension
1001
ACAD
1000
DSTYLE
1002
{
1070
   173
1070
     1
1070
     6
1000
_OPEN
1070
     7
1000
_OPEN
1070
    41
1040
2.000000
1002
}
  0
DIMENSION
  5
A5
100
AcDbEntity
  8
MAIN0
  6
CONTINUOUS
 62
3
100
AcDbDimension
  2
*D7
 10
529.7570018916463
 20
282.7398393459297
 30
0.0000000000000000
 11
529.2570018916463
 21
229.7398393462049
 31
0.0000000000000000
 70
32
  3
MAIN001
100
AcDbAlignedDimension
 13
513.4022533857636
 23
176.7398393464800
 33
0.0000000000000000
 14
513.4022533857636
 24
282.7398393459798
 34
0.0000000000000000
 50
90.00000000000000
100
AcDbRotatedDimension
1001
ACAD
1000
DSTYLE
1002
{
1070
   173
1070
     1
1070
     6
1000
_OPEN
1070
     7
1000
_OPEN
1070
    41
1040
2.000000
1002
}
  0
DIMENSION
  5
AE
100
AcDbEntity
  8
MAIN0
  6
CONTINUOUS
 62
3
100
AcDbDimension
  2
*D8
 10
524.1742785415604
 20
245.7398393462031
 30
0.0000000000000000
 11
523.6742785415604
 21
225.6648392352020
 31
0.0000000000000000
 70
32
  3
MAIN001
100
AcDbAlignedDimension
 13
513.7797118436406
 23
213.7398393462283
 33
0.0000000000000000
 14
513.7797118436406
 24
245.7398393462316
 34
0.0000000000000000
 50
90.00000000000000
100
AcDbRotatedDimension
1001
ACAD
1000
DSTYLE
1002
{
1070
   173
1070
     1
1070
     6
1000
_OPEN
1070
     7
1000
_OPEN
1070
    41
1040
2.000000
1070
   272
1070
     2
1070
    47
1040
0.020000
1070
    48
1040
0.020000
1070
    71
1070
     1
1002
}
  0
LEADER
  5
AF
100
AcDbEntity
  8
MAIN0
  6
CONTINUOUS
 62
3
100
AcDbLeader
  3
MAIN001
 73
     0
 74
     0
 75
     1
 40
3.099999904632568
 41
29.59100080823896
 76
     3
 10
510.4397930155953
 20
279.9690688845931
 30
0.0000000000000000
 10
534.0086101882573
 20
264.2960654942607
 30
0.0000000000000000
 10
535.9336101324674
 20
264.2960654942607
 30
0.0000000000000000
340
B0
213
0.0000000000000000
223
-0.5000000000000000
233
0.0000000000000000
1001
ACAD
1000
DSTYLE
1002
{
1070
   147
1040
0.0
1070
    77
1070
     1
1070
   173
1070
     1
1070
     6
1000
_OPEN
1070
     7
1000
_OPEN
1002
}
  0
MTEXT
  5
B0
102
{ACAD_REACTORS
330
AF
102
}
100
AcDbEntity
  8
MAIN0
  6
CONTINUOUS
 62
3
100
AcDbMText
 10
535.9346101324674
 20
267.8960653988933
 30
0.0000000000000000
 40
3.099999904632568
 41
0.0000000000000000
 71
     1
 72
     1
  1
{\H0.93x;{2-M8 ねじ深12\PDepth 12}}
 11
1.000000000000000
 21
0.0000000000000000
 31
0.0000000000000000
  7
KNJYOKO
  0
DIMENSION
  5
B9
100
AcDbEntity
  8
MAIN0
  6
CONTINUOUS
 62
3
100
AcDbDimension
  2
*D9
 10
517.5548612919886
 20
307.9802956500797
 30
0.0000000000000000
 11
497.5548612920078
 21
308.4802956500797
 31
0.0000000000000000
 70
32
  3
MAIN001
100
AcDbAlignedDimension
 13
477.5548612920271
 23
288.7398393466859
 33
0.0000000000000000
 14
517.5548612919885
 24
288.7398393462937
 34
0.0000000000000000
100
AcDbRotatedDimension
1001
ACAD
1000
DSTYLE
1002
{
1070
   173
1070
     1
1070
     6
1000
_OPEN
1070
     7
1000
_OPEN
1070
    41
1040
2.000000
1002
}
  0
DIMENSION
  5
C4
100
AcDbEntity
  8
MAIN0
  6
CONTINUOUS
 62
3
100
AcDbDimension
  2
*D10
 10
477.5548612920351
 20
307.9802956500797
 30
0.0000000000000000
 11
469.5424902517715
 21
308.4802956500797
 31
0.0000000000000000
 70
160
  1
\A1;（1）
  3
MAIN001
100
AcDbAlignedDimension
 13
476.5548612920239
 23
289.9121611165702
 33
0.0000000000000000
 14
477.5548612920271
 24
288.7398393466859
 34
0.0000000000000000
100
AcDbRotatedDimension
1001
ACAD
1000
DSTYLE
1002
{
1070
   173
1070
     1
1070
     6
1000
_OPEN
1070
     7
1000
_OPEN
1070
    41
1040
2.000000
1070
   287
1070
     0
1070
   340
1005
C5
1002
}
  0
DIMENSION
  5
CF
100
AcDbEntity
  8
MAIN0
  6
CONTINUOUS
 62
3
100
AcDbDimension
  2
*D11
 10
477.5548612920148
 20
250.4411157054078
 30
0.0000000000000000
 11
471.9008265932451
 21
250.9411157054078
 31
0.0000000000000000
 70
160
  3
MAIN001
100
AcDbAlignedDimension
 13
477.0548612920036
 23
246.2398393459919
 33
0.0000000000000000
 14
477.5548612920148
 24
246.2398393464599
 34
0.0000000000000000
100
AcDbRotatedDimension
1001
ACAD
1000
DSTYLE
1002
{
1070
   173
1070
     1
1070
     6
1000
_OPEN
1070
     7
1000
_OPEN
1070
    41
1040
2.000000
1070
   287
1070
     0
1002
}
  0
DIMENSION
  5
DA
100
AcDbEntity
  8
MAIN0
  6
CONTINUOUS
 62
3
100
AcDbDimension
  2
*D12
 10
463.6465109024037
 20
191.4898393461010
 30
0.0000000000000000
 11
463.1465109024037
 21
186.7398393460849
 31
0.0000000000000000
 70
32
  1
\A1;\U+22059.5
  3
MAIN001
100
AcDbAlignedDimension
 13
477.9548612920205
 23
181.9898393460813
 33
0.0000000000000000
 14
477.9548612920166
 24
191.4898393460839
 34
0.0000000000000000
 50
90.00000000000000
100
AcDbRotatedDimension
1001
ACAD
1000
DSTYLE
1002
{
1070
   173
1070
     1
1070
     6
1000
_OPEN
1070
     7
1000
_OPEN
1070
    41
1040
2.000000
1070
   287
1070
     0
1002
}
  0
DIMENSION
  5
E3
100
AcDbEntity
  8
MAIN0
  6
CONTINUOUS
 62
3
100
AcDbDimension
  2
*D13
 10
493.0126554391393
 20
189.3398393459457
 30
0.0000000000000000
 11
492.5126554391393
 21
177.4966693040176
 31
0.0000000000000000
 70
160
  1
\A1;\U+22055.2
  3
MAIN001
100
AcDbAlignedDimension
 13
516.7548612920313
 23
184.1398393459457
 33
0.0000000000000000
 14
516.7548612920311
 24
189.3398393459457
 34
0.0000000000000000
 50
90.00000000000000
100
AcDbRotatedDimension
1001
ACAD
1000
DSTYLE
1002
{
1070
   173
1070
     1
1070
     6
1000
_OPEN
1070
     7
1000
_OPEN
1070
    41
1040
2.000000
1070
   287
1070
     0
1002
}
  0
DIMENSION
  5
ED
100
AcDbEntity
  8
MAIN0
  6
CONTINUOUS
 62
3
100
AcDbDimension
  2
*D14
 10
485.5548612920204
 20
198.9569490298492
 30
0.0000000000000000
 11
491.4401489031625
 21
199.4569490298492
 31
0.0000000000000000
 70
160
  3
MAIN001
100
AcDbAlignedDimension
 13
477.5548612920272
 23
170.7398393457740
 33
0.0000000000000000
 14
485.5548612920415
 24
191.4898393460644
 34
0.0000000000000000
100
AcDbRotatedDimension
1001
ACAD
1000
DSTYLE
1002
{
1070
   173
1070
     1
1070
     6
1000
_OPEN
1070
     7
1000
_OPEN
1070
    41
1040
2.000000
1070
   287
1070
     0
1002
}
  0
DIMENSION
  5
F8
100
AcDbEntity
  8
MAIN0
  6
CONTINUOUS
 62
3
100
AcDbDimension
  2
*D15
 10
424.9441858973588
 20
289.9121611166992
 30
0.0000000000000000
 11
424.4441858973588
 21
286.6621611166992
 31
0.0000000000000000
 70
32
  3
MAIN001
100
AcDbAlignedDimension
 13
397.2072678806311
 23
283.4121611166992
 33
0.0000000000000000
 14
403.4548612919184
 24
289.9121611166992
 34
0.0000000000000000
 50
90.00000000000000
100
AcDbRotatedDimension
1001
ACAD
1000
DSTYLE
1002
{
1070
   173
1070
     1
1070
     6
1000
_OPEN
1070
     7
1000
_OPEN
1070
    41
1040
2.000000
1070
   287
1070
     0
1002
}
  0
DIMENSION
  5
101
100
AcDbEntity
  8
MAIN0
  6
CONTINUOUS
 62
3
100
AcDbDimension
  2
*D16
 10
424.9441858973588
 20
283.4121611166992
 30
0.0000000000000000
 11
424.4441858973588
 21
273.4121611166992
 31
0.0000000000000000
 70
32
  3
MAIN001
100
AcDbAlignedDimension
 13
397.2072678806311
 23
263.4121611166992
 33
0.0000000000000000
 14
397.2072678806311
 24
283.4121611166992
 34
0.0000000000000000
 50
90.00000000000000
100
AcDbRotatedDimension
1001
ACAD
1000
DSTYLE
1002
{
1070
   173
1070
     1
1070
     6
1000
_OPEN
1070
     7
1000
_OPEN
1070
    41
1040
2.000000
1002
}
  0
DIMENSION
  5
10A
100
AcDbEntity
  8
MAIN0
  6
CONTINUOUS
 62
3
100
AcDbDimension
  2
*D17
 10
424.9441858973588
 20
263.4121611166992
 30
0.0000000000000000
 11
424.4441858973588
 21
246.5760002314646
 31
0.0000000000000000
 70
32
  1
\A1;MAX 33.6
  3
MAIN001
100
AcDbAlignedDimension
 13
423.2502483083907
 23
229.7398393462299
 33
0.0000000000000000
 14
397.2072678806311
 24
263.4121611166992
 34
0.0000000000000000
 50
90.00000000000000
100
AcDbRotatedDimension
1001
ACAD
1000
DSTYLE
1002
{
1070
   173
1070
     1
1070
     6
1000
_OPEN
1070
     7
1000
_OPEN
1070
    41
1040
2.000000
1002
}
  0
MTEXT
  5
10B
100
AcDbEntity
  8
MAIN0
  6
CONTINUOUS
 62
3
100
AcDbMText
 10
425.3194762173031
 20
238.4387903768748
 30
0.0000000000000000
 40
3.099999904632568
 41
0.0000000000000000
 71
     1
 72
     1
  1
{\H0.66x;{MIN 23.2}}
 11
6.123233995736766e-017
 21
1.000000000000000
 31
0.0000000000000000
  7
STANDARD
  0
DIMENSION
  5
114
100
AcDbEntity
  8
MAIN0
  6
CONTINUOUS
 62
3
100
AcDbDimension
  2
*D18
 10
415.5548612919876
 20
152.7744280644897
 30
0.0000000000000000
 11
403.0548612920113
 21
153.2744280644897
 31
0.0000000000000000
 70
32
  3
MAIN001
100
AcDbAlignedDimension
 13
390.5548612920350
 23
165.6480632213434
 33
0.0000000000000000
 14
415.5548612919875
 24
170.7398393462089
 34
0.0000000000000000
100
AcDbRotatedDimension
1001
ACAD
1000
DSTYLE
1002
{
1070
   173
1070
     1
1070
     6
1000
_OPEN
1070
     7
1000
_OPEN
1070
    41
1040
2.000000
1002
}
  0
DIMENSION
  5
11D
100
AcDbEntity
  8
MAIN0
  6
CONTINUOUS
 62
3
100
AcDbDimension
  2
*D19
 10
390.5548612920350
 20
152.7744280644897
 30
0.0000000000000000
 11
355.3048612920228
 21
153.2744280644897
 31
0.0000000000000000
 70
32
  3
MAIN001
100
AcDbAlignedDimension
 13
320.0548612920106
 23
172.9398393467273
 33
0.0000000000000000
 14
390.5548612920350
 24
165.6480632213434
 34
0.0000000000000000
100
AcDbRotatedDimension
1001
ACAD
1000
DSTYLE
1002
{
1070
   173
1070
     1
1070
     6
1000
_OPEN
1070
     7
1000
_OPEN
1070
    41
1040
2.000000
1002
}
  0
DIMENSION
  5
126
100
AcDbEntity
  8
MAIN0
  6
CONTINUOUS
 62
3
100
AcDbDimension
  2
*D20
 10
320.0548612920106
 20
144.2254088586188
 30
0.0000000000000000
 11
367.8048612919990
 21
144.7254088586188
 31
0.0000000000000000
 70
32
  1
\A1;（95.5）
  3
MAIN001
100
AcDbAlignedDimension
 13
415.5548612919875
 23
170.7398393462089
 33
0.0000000000000000
 14
320.0548612920106
 24
172.9398393467273
 34
0.0000000000000000
100
AcDbRotatedDimension
1001
ACAD
1000
DSTYLE
1002
{
1070
   173
1070
     1
1070
     6
1000
_OPEN
1070
     7
1000
_OPEN
1070
    41
1040
2.000000
1070
   340
1005
C5
1002
}
  0
DIMENSION
  5
12F
100
AcDbEntity
  8
MAIN0
  6
CONTINUOUS
 62
3
100
AcDbDimension
  2
*D21
 10
371.5548612918699
 20
296.3031343439067
 30
0.0000000000000000
 11
390.5548612918699
 21
296.8031343439067
 31
0.0000000000000000
 70
32
  3
MAIN001
100
AcDbAlignedDimension
 13
409.5548612918699
 23
279.0060152621095
 33
0.0000000000000000
 14
371.5548612918699
 24
279.0060152621095
 34
0.0000000000000000
100
AcDbRotatedDimension
1001
ACAD
1000
DSTYLE
1002
{
1070
   173
1070
     1
1070
     6
1000
_OPEN
1070
     7
1000
_OPEN
1070
    41
1040
2.000000
1002
}
  0
DIMENSION
  5
138
100
AcDbEntity
  8
MAIN0
  6
CONTINUOUS
 62
3
100
AcDbDimension
  2
*D22
 10
346.6078207310318
 20
272.7398393460824
 30
0.0000000000000000
 11
346.1078207310318
 21
211.6049837836646
 31
0.0000000000000000
 70
160
  3
MAIN001
100
AcDbAlignedDimension
 13
364.1168443308217
 23
186.7398393460824
 33
0.0000000000000000
 14
364.1168443308216
 24
272.7398393460824
 34
0.0000000000000000
 50
90.00000000000000
100
AcDbRotatedDimension
1001
ACAD
1000
DSTYLE
1002
{
1070
   173
1070
     1
1070
     6
1000
_OPEN
1070
     7
1000
_OPEN
1070
    41
1040
2.000000
1002
}
  0
DIMENSION
  5
143
100
AcDbEntity
  8
MAIN0
  6
CONTINUOUS
 62
3
100
AcDbDimension
  2
*D23
 10
296.0548612920107
 20
289.9121611167231
 30
0.0000000000000000
 11
295.5548612920107
 21
296.1694658536620
 31
0.0000000000000000
 70
160
  3
MAIN001
100
AcDbAlignedDimension
 13
365.9548612920340
 23
289.7398393462916
 33
0.0000000000000000
 14
377.6548612920861
 24
289.9121611166992
 34
0.0000000000000000
 50
90.00000000000000
100
AcDbRotatedDimension
1001
ACAD
1000
DSTYLE
1002
{
1070
   173
1070
     1
1070
     6
1000
_OPEN
1070
     7
1000
_OPEN
1070
    41
1040
2.000000
1070
   287
1070
     0
1002
}
  0
DIMENSION
  5
14C
100
AcDbEntity
  8
MAIN0
  6
CONTINUOUS
 62
3
100
AcDbDimension
  2
*D24
 10
296.0548612920107
 20
289.7398393462677
 30
0.0000000000000000
 11
295.5548612920107
 21
229.7398393462543
 31
0.0000000000000000
 70
32
  3
MAIN001
100
AcDbAlignedDimension
 13
326.4548612919871
 23
169.7398393462409
 33
0.0000000000000000
 14
365.9548612920340
 24
289.7398393462916
 34
0.0000000000000000
 50
90.00000000000000
100
AcDbRotatedDimension
1001
ACAD
1000
DSTYLE
1002
{
1070
   173
1070
     1
1070
     6
1000
_OPEN
1070
     7
1000
_OPEN
1070
    41
1040
2.000000
1002
}
  0
DIMENSION
  5
157
100
AcDbEntity
  8
MAIN0
  6
CONTINUOUS
 62
3
100
AcDbDimension
  2
*D25
 10
296.0548612920107
 20
169.7398393462409
 30
0.0000000000000000
 11
295.5548612920107
 21
164.8975961842094
 31
0.0000000000000000
 70
160
  3
MAIN001
100
AcDbAlignedDimension
 13
377.6548612920861
 23
169.5675175757607
 33
0.0000000000000000
 14
326.4548612919871
 24
169.7398393462409
 34
0.0000000000000000
 50
90.00000000000000
100
AcDbRotatedDimension
1001
ACAD
1000
DSTYLE
1002
{
1070
   173
1070
     1
1070
     6
1000
_OPEN
1070
     7
1000
_OPEN
1070
    41
1040
2.000000
1070
   287
1070
     0
1002
}
  0
DIMENSION
  5
160
100
AcDbEntity
  8
MAIN0
  6
CONTINUOUS
 62
3
100
AcDbDimension
  2
*D26
 10
288.0548612920107
 20
169.5675175757607
 30
0.0000000000000000
 11
287.5548612920107
 21
229.7398393462299
 31
0.0000000000000000
 70
32
  1
\A1;（120.4）
  3
MAIN001
100
AcDbAlignedDimension
 13
377.6548612920861
 23
289.9121611166992
 33
0.0000000000000000
 14
377.6548612920861
 24
169.5675175757607
 34
0.0000000000000000
 50
90.00000000000000
100
AcDbRotatedDimension
1001
ACAD
1000
DSTYLE
1002
{
1070
   173
1070
     1
1070
     6
1000
_OPEN
1070
     7
1000
_OPEN
1070
    41
1040
2.000000
1070
   340
1005
C5
1002
}
  0
DIMENSION
  5
16B
100
AcDbEntity
  8
MAIN0
  6
CONTINUOUS
 62
3
100
AcDbDimension
  2
*D27
 10
385.5548612919722
 20
330.7130487843299
 30
0.0000000000000000
 11
410.7893652912106
 21
331.2130487843299
 31
0.0000000000000000
 70
160
  1
\A1;4-\U+220510h7
  3
MAIN001
100
AcDbAlignedDimension
 13
395.5548612919724
 23
339.9121611167009
 33
0.0000000000000000
 14
385.5548612919721
 24
339.9121611167009
 34
0.0000000000000000
100
AcDbRotatedDimension
1001
ACAD
1000
DSTYLE
1002
{
1070
   173
1070
     1
1070
     6
1000
_OPEN
1070
     7
1000
_OPEN
1070
    41
1040
2.000000
1070
   287
1070
     0
1002
}
  0
DIMENSION
  5
174
100
AcDbEntity
  8
MAIN0
  6
CONTINUOUS
 62
3
100
AcDbDimension
  2
*D28
 10
381.3048612919722
 20
321.9773512522659
 30
0.0000000000000000
 11
390.5548612919722
 21
322.4773512522659
 31
0.0000000000000000
 70
32
  3
MAIN001
100
AcDbAlignedDimension
 13
399.8048612919722
 23
343.9121611166992
 33
0.0000000000000000
 14
381.3048612919722
 24
343.9121611166992
 34
0.0000000000000000
100
AcDbRotatedDimension
1001
ACAD
1000
DSTYLE
1002
{
1070
   173
1070
     1
1070
     6
1000
_OPEN
1070
     7
1000
_OPEN
1070
    41
1040
2.000000
1002
}
  0
DIMENSION
  5
17D
100
AcDbEntity
  8
MAIN0
  6
CONTINUOUS
 62
3
100
AcDbDimension
  2
*D29
 10
434.5064319178355
 20
384.9121611166726
 30
0.0000000000000000
 11
434.0064319178355
 21
364.4121611166859
 31
0.0000000000000000
 70
32
  3
MAIN001
100
AcDbAlignedDimension
 13
399.8048612919723
 23
343.9121611166992
 33
0.0000000000000000
 14
414.5548612922584
 24
384.9121611166726
 34
0.0000000000000000
 50
90.00000000000000
100
AcDbRotatedDimension
1001
ACAD
1000
DSTYLE
1002
{
1070
   173
1070
     1
1070
     6
1000
_OPEN
1070
     7
1000
_OPEN
1070
    41
1040
2.000000
1002
}
  0
DIMENSION
  5
188
100
AcDbEntity
  8
MAIN0
  6
CONTINUOUS
 62
3
100
AcDbDimension
  2
*D30
 10
434.5064319178355
 20
343.9121611166992
 30
0.0000000000000000
 11
434.0064319178355
 21
334.8244609998042
 31
0.0000000000000000
 70
160
  3
MAIN001
100
AcDbAlignedDimension
 13
395.5548612919724
 23
339.9121611166992
 33
0.0000000000000000
 14
399.8048612919723
 24
343.9121611166992
 34
0.0000000000000000
 50
90.00000000000000
100
AcDbRotatedDimension
1001
ACAD
1000
DSTYLE
1002
{
1070
   173
1070
     1
1070
     6
1000
_OPEN
1070
     7
1000
_OPEN
1070
    41
1040
2.000000
1070
   287
1070
     0
1002
}
  0
MTEXT
  5
189
100
AcDbEntity
  8
MAIN0
  6
CONTINUOUS
 62
3
100
AcDbMText
 10
546.2172443209449
 20
200.9514042925834
 30
0.0000000000000000
 40
2.799999952316284
 41
0.0000000000000000
 71
     1
 72
     1
  1
{\H0.63x;{0}}
 11
1.000000000000000
 21
0.0000000000000000
 31
0.0000000000000000
  7
STANDARD
  0
MTEXT
  5
18A
100
AcDbEntity
  8
MAIN0
  6
CONTINUOUS
 62
3
100
AcDbMText
 10
544.4795415098217
 20
203.6203494540742
 30
0.0000000000000000
 40
2.799999952316284
 41
0.0000000000000000
 71
     1
 72
     1
  1
{\H0.61x;{+0.025}}
 11
1.000000000000000
 21
0.0000000000000000
 31
0.0000000000000000
  7
STANDARD
  0
LEADER
  5
18B
100
AcDbEntity
  8
MAIN0
  6
CONTINUOUS
 62
3
100
AcDbLeader
  3
MAIN001
 73
     0
 74
     0
 75
     1
 40
3.099999904632568
 41
30.97100080347059
 76
     3
 10
511.0726056569440
 20
211.8357714424270
 30
0.0000000000000000
 10
530.9953117889028
 20
197.9409661676662
 30
0.0000000000000000
 10
532.9203117331128
 20
197.9409661676662
 30
0.0000000000000000
340
18C
213
0.0000000000000000
223
-0.5000000000000000
233
0.0000000000000000
1001
ACAD
1000
DSTYLE
1002
{
1070
   147
1040
0.0
1070
    77
1070
     1
1070
   173
1070
     1
1070
     6
1000
_OPEN
1070
     7
1000
_OPEN
1002
}
  0
MTEXT
  5
18C
102
{ACAD_REACTORS
330
18B
102
}
100
AcDbEntity
  8
MAIN0
  6
CONTINUOUS
 62
3
100
AcDbMText
 10
532.9213117331128
 20
201.5409660722987
 30
0.0000000000000000
 40
3.099999904632568
 41
0.0000000000000000
 71
     1
 72
     1
  1
{\H0.93x;{2-\U+22058　　　深10\PDepth 10}}
 11
1.000000000000000
 21
0.0000000000000000
 31
0.0000000000000000
  7
KNJYOKO
  0
LEADER
  5
18D
100
AcDbEntity
  8
MAIN0
  6
CONTINUOUS
 62
3
100
AcDbLeader
  3
MAIN001
 73
     0
 74
     0
 75
     1
 40
3.099999904632568
 41
41.90100002831221
 76
     3
 10
177.8644802878758
 20
183.4770974559327
 30
0.0000000000000000
 10
191.6140931712246
 20
154.0564375847092
 30
0.0000000000000000
 10
193.3990931185639
 20
154.0564375847092
 30
0.0000000000000000
340
18E
213
-0.001000000000004775
223
-0.5000000000000000
233
0.0000000000000000
1001
ACAD
1000
DSTYLE
1002
{
1070
   147
1040
0.0
1070
    77
1070
     1
1070
   173
1070
     1
1070
     6
1000
_OPEN
1070
     7
1000
_OPEN
1002
}
  0
MTEXT
  5
18E
102
{ACAD_REACTORS
330
18D
102
}
100
AcDbEntity
  8
MAIN0
  6
CONTINUOUS
 62
3
100
AcDbMText
 10
193.4000931185639
 20
157.6564374893418
 30
0.0000000000000000
 40
3.099999904632568
 41
0.0000000000000000
 71
     1
 72
     1
  1
{\H0.71x;{閉ポート M3 (ベース配管用)\PClose Port\P(For Direct Connect)}}
 11
1.000000000000000
 21
0.0000000000000000
 31
0.0000000000000000
  7
KNJYOKO
  0
LEADER
  5
18F
100
AcDbEntity
  8
MAIN0
  6
CONTINUOUS
 62
3
100
AcDbLeader
  3
MAIN001
 73
     0
 74
     0
 75
     1
 40
3.099999904632568
 41
41.90100002831221
 76
     3
 10
152.1021755139505
 20
183.5020757949760
 30
0.0000000000000000
 10
191.6140931711179
 20
133.7716256570384
 30
0.0000000000000000
 10
193.3990931184572
 20
133.7716256570384
 30
0.0000000000000000
340
190
213
-0.001000000000004775
223
-0.5000000000000000
233
0.0000000000000000
1001
ACAD
1000
DSTYLE
1002
{
1070
   147
1040
0.0
1070
    77
1070
     1
1070
   173
1070
     1
1070
     6
1000
_OPEN
1070
     7
1000
_OPEN
1002
}
  0
MTEXT
  5
190
102
{ACAD_REACTORS
330
18F
102
}
100
AcDbEntity
  8
MAIN0
  6
CONTINUOUS
 62
3
100
AcDbMText
 10
193.4000931184572
 20
137.3716255616710
 30
0.0000000000000000
 40
3.099999904632568
 41
0.0000000000000000
 71
     1
 72
     1
  1
{\H0.71x;{開ポート M3 (ベース配管用)\POpen Port\P(For Direct Connect)}}
 11
1.000000000000000
 21
0.0000000000000000
 31
0.0000000000000000
  7
KNJYOKO
  0
LINE
  5
191
100
AcDbEntity
  8
MAIN0
  6
CENTER
 62
3
100
AcDbLine
 10
149.1105132063032
 20
184.7398393463144
 30
0.0000000000000000
 11
179.4202013624559
 21
184.7398393463814
 31
0.0000000000000000
  0
DIMENSION
  5
198
100
AcDbEntity
  8
MAIN0
  6
CONTINUOUS
 62
3
100
AcDbDimension
  2
*D31
 10
166.5287505052411
 20
229.7398393462473
 30
0.0000000000000000
 11
166.0287505052411
 21
207.2398393463144
 31
0.0000000000000000
 70
32
  3
MAIN001
100
AcDbAlignedDimension
 13
179.4202013624559
 23
184.7398393463814
 33
0.0000000000000000
 14
194.4620002680223
 24
229.7398393462473
 34
0.0000000000000000
 50
90.00000000000000
100
AcDbRotatedDimension
1001
ACAD
1000
DSTYLE
1002
{
1070
   173
1070
     1
1070
     6
1000
_OPEN
1070
     7
1000
_OPEN
1070
    41
1040
2.000000
1002
}
  0
DIMENSION
  5
1A1
100
AcDbEntity
  8
MAIN0
  6
CONTINUOUS
 62
3
100
AcDbDimension
  2
*D32
 10
108.0871761579906
 20
269.7398393465888
 30
0.0000000000000000
 11
107.5871761579906
 21
225.6648392355751
 31
0.0000000000000000
 70
32
  3
MAIN001
100
AcDbAlignedDimension
 13
114.1575556865849
 23
189.7398393465888
 33
0.0000000000000000
 14
114.1575556864962
 24
269.7398393465888
 34
0.0000000000000000
 50
90.00000000000000
100
AcDbRotatedDimension
1001
ACAD
1000
DSTYLE
1002
{
1070
   173
1070
     1
1070
     6
1000
_OPEN
1070
     7
1000
_OPEN
1070
    41
1040
2.000000
1070
   272
1070
     2
1070
    47
1040
0.020000
1070
    48
1040
0.020000
1070
    71
1070
     1
1002
}
  0
LINE
  5
1A2
100
AcDbEntity
  8
MAIN0
  6
CENTER
 62
3
100
AcDbLine
 10
88.41790130720790
 20
229.7398393462473
 30
0.0000000000000000
 11
103.1976953610254
 21
229.7398393462473
 31
0.0000000000000000
  0
LINE
  5
1A3
100
AcDbEntity
  8
MAIN0
  6
CENTER
 62
3
100
AcDbLine
 10
109.6780442281523
 20
229.7398393462473
 30
0.0000000000000000
 11
194.4620002680223
 21
229.7398393462473
 31
0.0000000000000000
  0
LEADER
  5
1A4
100
AcDbEntity
  8
MAIN0
  6
CONTINUOUS
 62
3
100
AcDbLeader
  3
MAIN001
 73
     0
 75
     1
 40
3.099999904632568
 41
29.58900080823898
 76
     3
 10
97.64066036216531
 20
188.8682552895473
 30
0.0000000000000000
 10
89.90824553340491
 20
196.5987560497772
 30
0.0000000000000000
 10
87.98124558919486
 20
196.5987560497772
 30
0.0000000000000000
340
1A5
213
0.0000000000000000
223
-0.5000000000000000
233
0.0000000000000000
1001
ACAD
1000
DSTYLE
1002
{
1070
   147
1040
0.0
1070
    77
1070
     1
1070
   173
1070
     1
1070
     6
1000
_OPEN
1070
     7
1000
_OPEN
1002
}
  0
MTEXT
  5
1A5
102
{ACAD_REACTORS
330
1A4
102
}
100
AcDbEntity
  8
MAIN0
  6
CONTINUOUS
 62
3
100
AcDbMText
 10
58.39224478095588
 20
200.1987559544098
 30
0.0000000000000000
 40
3.099999904632568
 41
0.0000000000000000
 71
     1
 72
     1
  1
{\H0.93x;{4-M6 ねじ深12\PDepth 12}}
 11
1.000000000000000
 21
0.0000000000000000
 31
0.0000000000000000
  7
KNJYOKO
  0
MTEXT
  5
1A6
100
AcDbEntity
  8
MAIN0
  6
CONTINUOUS
 62
3
100
AcDbMText
 10
70.73403902023563
 20
305.3980336327631
 30
0.0000000000000000
 40
2.799999952316284
 41
0.0000000000000000
 71
     1
 72
     1
  1
{\H0.63x;{0}}
 11
1.000000000000000
 21
0.0000000000000000
 31
0.0000000000000000
  7
STANDARD
  0
MTEXT
  5
1A7
100
AcDbEntity
  8
MAIN0
  6
CONTINUOUS
 62
3
100
AcDbMText
 10
68.97288656539729
 20
308.7499036998613
 30
0.0000000000000000
 40
2.799999952316284
 41
0.0000000000000000
 71
     1
 72
     1
  1
{\H0.61x;{+0.025}}
 11
1.000000000000000
 21
0.0000000000000000
 31
0.0000000000000000
  7
STANDARD
  0
LEADER
  5
1A8
100
AcDbEntity
  8
MAIN0
  6
CONTINUOUS
 62
3
100
AcDbLeader
  3
MAIN001
 73
     0
 75
     1
 40
3.099999904632568
 41
30.96900080347061
 76
     3
 10
117.0398949026659
 20
272.2013206655229
 30
0.0000000000000000
 10
89.90824553349671
 20
302.2599547125179
 30
0.0000000000000000
 10
87.98124558928666
 20
302.2599547125180
 30
0.0000000000000000
340
1A9
213
0.0000000000000000
223
-0.5000000000000000
233
0.0000000000000000
1001
ACAD
1000
DSTYLE
1002
{
1070
   147
1040
0.0
1070
    77
1070
     1
1070
   173
1070
     1
1070
     6
1000
_OPEN
1070
     7
1000
_OPEN
1002
}
  0
MTEXT
  5
1A9
102
{ACAD_REACTORS
330
1A8
102
}
100
AcDbEntity
  8
MAIN0
  6
CONTINUOUS
 62
3
100
AcDbMText
 10
57.01224478581605
 20
305.8599546171506
 30
0.0000000000000000
 40
3.099999904632568
 41
0.0000000000000000
 71
     1
 72
     1
  1
{\H0.93x;{2-\U+22056　　　深10\PDepth 10}}
 11
1.000000000000000
 21
0.0000000000000000
 31
0.0000000000000000
  7
KNJYOKO
  0
LINE
  5
1AA
100
AcDbEntity
  8
MAIN0
  6
CENTER
 62
3
100
AcDbLine
 10
247.5548612920107
 20
294.8967255773949
 30
0.0000000000000000
 11
247.5548612920107
 21
166.8216581545138
 31
0.0000000000000000
  0
LINE
  5
1AB
100
AcDbEntity
  8
MAIN0
  6
CENTER
 62
3
100
AcDbLine
 10
118.7548612919862
 20
163.7205596763008
 30
0.0000000000000000
 11
118.7548612919862
 21
293.2099108880554
 31
0.0000000000000000
  0
DIMENSION
  5
1B4
100
AcDbEntity
  8
MAIN0
  6
CONTINUOUS
 62
3
100
AcDbDimension
  2
*D33
 10
118.7548612919862
 20
148.4189796916618
 30
0.0000000000000000
 11
135.0048612919201
 21
148.9189796916618
 31
0.0000000000000000
 70
32
  3
MAIN001
100
AcDbAlignedDimension
 13
151.2548612918539
 23
181.8092351290825
 33
0.0000000000000000
 14
118.7548612919862
 24
163.7205596763008
 34
0.0000000000000000
100
AcDbRotatedDimension
1001
ACAD
1000
DSTYLE
1002
{
1070
   173
1070
     1
1070
     6
1000
_OPEN
1070
     7
1000
_OPEN
1070
    41
1040
2.000000
1002
}
  0
DIMENSION
  5
1BD
100
AcDbEntity
  8
MAIN0
  6
CONTINUOUS
 62
3
100
AcDbDimension
  2
*D34
 10
151.2548612918539
 20
148.4189796916618
 30
0.0000000000000000
 11
164.1548612920387
 21
148.9189796916618
 31
0.0000000000000000
 70
32
  3
MAIN001
100
AcDbAlignedDimension
 13
177.0548612922236
 23
181.8092351290774
 33
0.0000000000000000
 14
151.2548612918539
 24
181.8092351290825
 34
0.0000000000000000
100
AcDbRotatedDimension
1001
ACAD
1000
DSTYLE
1002
{
1070
   173
1070
     1
1070
     6
1000
_OPEN
1070
     7
1000
_OPEN
1070
    41
1040
2.000000
1002
}
  0
LINE
  5
1BE
100
AcDbEntity
  8
MAIN0
  6
CONTINUOUS
 62
3
100
AcDbLine
 10
507.5548612919252
 20
217.7398393462443
 30
0.0000000000000000
 11
507.5548612919163
 21
209.7398393462443
 31
0.0000000000000000
  0
LINE
  5
1BF
100
AcDbEntity
  8
MAIN0
  6
CONTINUOUS
 62
3
100
AcDbLine
 10
503.5548612919208
 20
213.7398393462398
 30
0.0000000000000000
 11
511.5548612919208
 21
213.7398393462308
 31
0.0000000000000000
  0
LINE
  5
1C0
100
AcDbEntity
  8
MAIN0
  6
CONTINUOUS
 62
3
100
AcDbLine
 10
503.5548612919208
 20
245.7398393462201
 30
0.0000000000000000
 11
511.5548612919208
 21
245.7398393462291
 31
0.0000000000000000
  0
LINE
  5
1C1
100
AcDbEntity
  8
MAIN0
  6
CONTINUOUS
 62
3
100
AcDbLine
 10
507.5548612919163
 20
249.7398393462156
 30
0.0000000000000000
 11
507.5548612919252
 21
241.7398393462156
 31
0.0000000000000000
  0
LINE
  5
1C2
100
AcDbEntity
  8
MAIN0
  6
CONTINUOUS
 62
3
100
AcDbLine
 10
118.7548612919862
 20
272.7398393465938
 30
0.0000000000000000
 11
118.7548612919862
 21
266.7398393465937
 31
0.0000000000000000
  0
LINE
  5
1C3
100
AcDbEntity
  8
MAIN0
  6
CONTINUOUS
 62
3
100
AcDbLine
 10
115.7548612920050
 20
269.7398393465905
 30
0.0000000000000000
 11
121.7548612920050
 21
269.7398393465972
 31
0.0000000000000000
  0
LINE
  5
1C4
100
AcDbEntity
  8
MAIN0
  6
CONTINUOUS
 62
3
100
AcDbLine
 10
118.7548612919862
 20
192.7398393465938
 30
0.0000000000000000
 11
118.7548612919862
 21
186.7398393465939
 31
0.0000000000000000
  0
LINE
  5
1C5
100
AcDbEntity
  8
MAIN0
  6
CONTINUOUS
 62
3
100
AcDbLine
 10
115.7548612919422
 20
189.7398393465906
 30
0.0000000000000000
 11
121.7548612919422
 21
189.7398393465972
 31
0.0000000000000000
  0
MTEXT
  5
1C6
100
AcDbEntity
  8
MAIN0
  6
CONTINUOUS
 62
3
100
AcDbMText
 10
305.4354627766286
 20
125.4381445961950
 30
0.0000000000000000
 40
3.099999904632568
 41
0.0000000000000000
 71
     1
 72
     1
  1
{\H0.84x;{★}}
 11
1.000000000000000
 21
0.0000000000000000
 31
0.0000000000000000
  7
KNJYOKO
  0
MTEXT
  5
1C7
100
AcDbEntity
  8
MAIN0
  6
CONTINUOUS
 62
3
100
AcDbMText
 10
280.7908640242020
 20
93.46129053967977
 30
0.0000000000000000
 40
3.099999904632568
 41
0.0000000000000000
 71
     1
 72
     1
  1
{\H0.84x;{★}}
 11
1.000000000000000
 21
0.0000000000000000
 31
0.0000000000000000
  7
KNJYOKO
  0
CIRCLE
  5
1C8
100
AcDbEntity
  8
MAIN0
  6
CONTINUOUS
 62
3
100
AcDbCircle
 10
390.5548612920350
 20
229.7398393462299
 30
0.0000000000000000
 40
4.000000000000000
  0
LINE
  5
1C9
100
AcDbEntity
  8
MAIN0
  6
CENTER
 62
3
100
AcDbLine
 10
385.0548612921205
 20
377.9121611167133
 30
0.0000000000000000
 11
375.0548612921205
 21
377.9121611167133
 31
0.0000000000000000
  0
LINE
  5
1CA
100
AcDbEntity
  8
MAIN0
  6
CENTER
 62
3
100
AcDbLine
 10
380.0548612921205
 20
382.9121611167133
 30
0.0000000000000000
 11
380.0548612921205
 21
372.9121611167133
 31
0.0000000000000000
  0
DIMENSION
  5
1D2
100
AcDbEntity
  8
MAIN0
  6
CONTINUOUS
 62
3
100
AcDbDimension
  2
*D35
 10
504.0472563231141
 20
298.7091880958582
 30
0.0000000000000000
 11
503.5472563231141
 21
294.2245137210750
 31
0.0000000000000000
 70
32
  3
MAIN001
100
AcDbAlignedDimension
 13
516.5548612919881
 23
289.7398393462917
 33
0.0000000000000000
 14
510.5548612920239
 24
298.7091880958582
 34
0.0000000000000000
 50
90.00000000000000
100
AcDbRotatedDimension
1001
ACAD
1000
DSTYLE
1002
{
1070
   173
1070
     1
1070
     6
1000
_OPEN
1070
     7
1000
_OPEN
1070
    41
1040
2.000000
1002
}
  0
LEADER
  5
1D3
100
AcDbEntity
  8
MAIN0
  6
CONTINUOUS
 62
3
100
AcDbLeader
  3
MAIN001
 73
     0
 74
     0
 75
     1
 40
3.099999904632568
 41
51.82100118494031
 76
     3
 10
513.7142374598896
 20
296.2929092439587
 30
0.0000000000000000
 10
522.2318832926774
 20
313.5866030075727
 30
0.0000000000000000
 10
524.1568832368874
 20
313.5866030075727
 30
0.0000000000000000
340
1D4
213
0.0000000000000000
223
-0.5000000000000000
233
0.0000000000000000
1001
ACAD
1000
DSTYLE
1002
{
1070
   147
1040
0.0
1070
    77
1070
     1
1070
   173
1070
     1
1070
     6
1000
_OPEN
1070
     7
1000
_OPEN
1002
}
  0
MTEXT
  5
1D4
102
{ACAD_REACTORS
330
1D3
102
}
100
AcDbEntity
  8
MAIN0
  6
CONTINUOUS
 62
3
100
AcDbMText
 10
524.1578832368874
 20
317.1866029122052
 30
0.0000000000000000
 40
3.099999904632568
 41
0.0000000000000000
 71
     1
 72
     1
  1
{\H0.94x;{グリースニップルを取付けた場合}}
 11
1.000000000000000
 21
0.0000000000000000
 31
0.0000000000000000
  7
KNJYOKO
  0
MTEXT
  5
1D5
100
AcDbEntity
  8
MAIN0
  6
CONTINUOUS
 62
3
100
AcDbMText
 10
524.0950164862647
 20
312.6055191128356
 30
0.0000000000000000
 40
2.799999952316284
 41
0.0000000000000000
 71
     1
 72
     1
  1
{\H0.66x;{When attaching a grease nipple.}}
 11
1.000000000000000
 21
0.0000000000000000
 31
0.0000000000000000
  7
STANDARD
  0
DIMENSION
  5
1DE
100
AcDbEntity
  8
MAIN0
  6
CONTINUOUS
 62
3
100
AcDbDimension
  2
*D36
 10
312.0548612920107
 20
240.7398393461539
 30
0.0000000000000000
 11
311.5548612920107
 21
229.7398393461539
 31
0.0000000000000000
 70
32
  3
MAIN001
100
AcDbAlignedDimension
 13
326.0548612920056
 23
218.7398393461539
 33
0.0000000000000000
 14
326.0548612920156
 24
240.7398393461539
 34
0.0000000000000000
 50
90.00000000000000
100
AcDbRotatedDimension
1001
ACAD
1000
DSTYLE
1002
{
1070
   173
1070
     1
1070
     6
1000
_OPEN
1070
     7
1000
_OPEN
1070
    41
1040
2.000000
1002
}
  0
DIMENSION
  5
1E7
100
AcDbEntity
  8
MAIN0
  6
CONTINUOUS
 62
3
100
AcDbDimension
  2
*D37
 10
304.0548612920107
 20
384.9121611167707
 30
0.0000000000000000
 11
303.5548612920107
 21
363.9121611167707
 31
0.0000000000000000
 70
32
  3
MAIN001
100
AcDbAlignedDimension
 13
326.0548612917868
 23
342.9121611167707
 33
0.0000000000000000
 14
326.0548612919901
 24
384.9121611167707
 34
0.0000000000000000
 50
90.00000000000000
100
AcDbRotatedDimension
1001
ACAD
1000
DSTYLE
1002
{
1070
   173
1070
     1
1070
     6
1000
_OPEN
1070
     7
1000
_OPEN
1070
    41
1040
2.000000
1002
}
  0
DIMENSION
  5
1F0
100
AcDbEntity
  8
MAIN0
  6
CONTINUOUS
 62
3
100
AcDbDimension
  2
*D38
 10
426.3819716089965
 20
343.9121611166992
 30
0.0000000000000000
 11
425.8819716089965
 21
349.9121611167079
 31
0.0000000000000000
 70
32
  3
MAIN001
100
AcDbAlignedDimension
 13
393.5548612919722
 23
355.9121611167167
 33
0.0000000000000000
 14
399.8048612919723
 24
343.9121611166992
 34
0.0000000000000000
 50
90.00000000000000
100
AcDbRotatedDimension
1001
ACAD
1000
DSTYLE
1002
{
1070
   173
1070
     1
1070
     6
1000
_OPEN
1070
     7
1000
_OPEN
1070
    41
1040
2.000000
1002
}
  0
LEADER
  5
1F1
100
AcDbEntity
  8
MAIN0
  6
CONTINUOUS
 62
3
100
AcDbLeader
  3
MAIN001
 73
     0
 75
     1
 40
3.099999904632568
 41
17.04900048875811
 76
     3
 10
387.5548612919722
 20
353.6930274736202
 30
0.0000000000000000
 10
365.1569583535753
 20
328.5495032820690
 30
0.0000000000000000
 10
363.2299584093653
 20
328.5495032820690
 30
0.0000000000000000
340
1F2
213
0.0000000000000000
223
-0.5000000000000000
233
0.0000000000000000
1001
ACAD
1000
DSTYLE
1002
{
1070
   147
1040
0.0
1070
    77
1070
     1
1070
   173
1070
     1
1070
     6
1000
_OPEN
1070
     7
1000
_OPEN
1002
}
  0
MTEXT
  5
1F2
102
{ACAD_REACTORS
330
1F1
102
}
100
AcDbEntity
  8
MAIN0
  6
CONTINUOUS
 62
3
100
AcDbMText
 10
346.1809579206072
 20
332.1495031867016
 30
0.0000000000000000
 40
3.099999904632568
 41
0.0000000000000000
 71
     1
 72
     1
  1
{\H0.92x;{2×2-M6}}
 11
1.000000000000000
 21
0.0000000000000000
 31
0.0000000000000000
  7
KNJYOKO
  0
CIRCLE
  5
1F3
100
AcDbEntity
  8
MAIN0
  6
CONTINUOUS
 62
3
100
AcDbCircle
 10
390.5548612920350
 20
229.7398393462299
 30
0.0000000000000000
 40
3.900000000000000
  0
DIMENSION
  5
1FC
100
AcDbEntity
  8
MAIN0
  6
CONTINUOUS
 62
3
100
AcDbDimension
  2
*D39
 10
393.8124462283823
 20
231.8841668357900
 30
0.0000000000000000
 11
398.9142460416591
 21
235.8410643036101
 31
0.0000000000000000
 70
163
  3
MAIN001
100
AcDbDiametricDimension
 15
387.2972763556876
 25
227.5955118566699
 35
0.0000000000000000
1001
ACAD
1000
DSTYLE
1002
{
1070
   287
1070
     2
1070
   173
1070
     1
1070
     6
1000
_OPEN
1070
     7
1000
_OPEN
1070
    41
1040
2.000000
1002
}
  0
LEADER
  5
1FD
100
AcDbEntity
  8
MAIN0
  6
CONTINUOUS
 62
3
100
AcDbLeader
  3
MAIN001
 73
     0
 75
     1
 40
3.099999904632568
 41
26.79900072717669
 76
     3
 10
359.5001682996330
 20
280.0064718024402
 30
0.0000000000000000
 10
350.0687206807243
 20
300.2755220757729
 30
0.0000000000000000
 10
348.1417207365143
 20
300.2755220757729
 30
0.0000000000000000
340
1FE
213
0.0000000000000000
223
-0.5000000000000000
233
0.0000000000000000
1001
ACAD
1000
DSTYLE
1002
{
1070
   147
1040
0.0
1070
    77
1070
     1
1070
   173
1070
     1
1070
     6
1000
_OPEN
1070
     7
1000
_OPEN
1002
}
  0
MTEXT
  5
1FE
102
{ACAD_REACTORS
330
1FD
102
}
100
AcDbEntity
  8
MAIN0
  6
CONTINUOUS
 62
3
100
AcDbMText
 10
321.3427200093376
 20
303.8755219804054
 30
0.0000000000000000
 40
3.099999904632568
 41
0.0000000000000000
 71
     1
 72
     1
  1
{\H0.93x;{2-M5 ねじ深9\PDepth 9}}
 11
1.000000000000000
 21
0.0000000000000000
 31
0.0000000000000000
  7
KNJYOKO
  0
DIMENSION
  5
207
100
AcDbEntity
  8
MAIN0
  6
CONTINUOUS
 62
3
100
AcDbDimension
  2
*D40
 10
360.5548612917841
 20
161.4315440620575
 30
0.0000000000000000
 11
375.5548612919095
 21
161.9315440620575
 31
0.0000000000000000
 70
32
  3
MAIN001
100
AcDbAlignedDimension
 13
390.5548612920350
 23
165.6480632213434
 33
0.0000000000000000
 14
360.5548612917841
 24
177.1732814454496
 34
0.0000000000000000
100
AcDbRotatedDimension
1001
ACAD
1000
DSTYLE
1002
{
1070
   173
1070
     1
1070
     6
1000
_OPEN
1070
     7
1000
_OPEN
1070
    41
1040
2.000000
1002
}
  0
DIMENSION
  5
210
100
AcDbEntity
  8
MAIN0
  6
CONTINUOUS
 62
3
100
AcDbDimension
  2
*D41
 10
304.0548612920107
 20
277.7398393461201
 30
0.0000000000000000
 11
303.5548612920107
 21
229.7398393461200
 31
0.0000000000000000
 70
32
  3
MAIN001
100
AcDbAlignedDimension
 13
355.9173664197994
 23
181.7398393461199
 33
0.0000000000000000
 14
355.9173664199065
 24
277.7398393461201
 34
0.0000000000000000
 50
90.00000000000000
100
AcDbRotatedDimension
1001
ACAD
1000
DSTYLE
1002
{
1070
   173
1070
     1
1070
     6
1000
_OPEN
1070
     7
1000
_OPEN
1070
    41
1040
2.000000
1002
}
  0
DIMENSION
  5
219
100
AcDbEntity
  8
MAIN0
  6
CONTINUOUS
 62
3
100
AcDbDimension
  2
*D42
 10
312.0548612920107
 20
384.9121611167707
 30
0.0000000000000000
 11
311.5548612920107
 21
366.1621611167707
 31
0.0000000000000000
 70
32
  3
MAIN001
100
AcDbAlignedDimension
 13
326.0548612918005
 23
347.4121611167707
 33
0.0000000000000000
 14
326.0548612919901
 24
384.9121611167707
 34
0.0000000000000000
 50
90.00000000000000
100
AcDbRotatedDimension
1001
ACAD
1000
DSTYLE
1002
{
1070
   173
1070
     1
1070
     6
1000
_OPEN
1070
     7
1000
_OPEN
1070
    41
1040
2.000000
1002
}
  0
LEADER
  5
21A
100
AcDbEntity
  8
MAIN3
  6
CONTINUOUS
 62
3
100
AcDbLeader
  3
MAIN001
 73
     0
 74
     0
 75
     0
 40
0.0000000000000000
 41
0.0000000000000000
 76
     4
 10
378.7611521500030
 20
162.1629346056899
 30
0.0000000000000000
 10
383.2611521500030
 20
162.1629346056899
 30
0.0000000000000000
 10
381.0111521500030
 20
166.0600489227199
 30
0.0000000000000000
 10
378.7611521500030
 20
162.1629346056899
 30
0.0000000000000000
340
21B
213
-1.470000000000027
223
-0.2999999999999830
233
0.0000000000000000
1001
ACAD
1000
DSTYLE
1002
{
1070
   147
1040
0.0
1070
    77
1070
     0
1070
   173
1070
     1
1070
     6
1000
_NONE
1070
     7
1000
_NONE
1002
}
  0
MTEXT
  5
21B
102
{ACAD_REACTORS
330
21A
102
}
100
AcDbEntity
  8
MAIN3
  6
CONTINUOUS
 62
3
100
AcDbMText
 10
380.2311521500030
 20
164.4629346056899
 30
0.0000000000000000
 40
2.000000000000000
 41
0.0000000000000000
 71
     1
 72
     1
  1
{\H0.82x;{3}}
 11
1.000000000000000
 21
0.0000000000000000
 31
0.0000000000000000
  7
STANDARD
  0
LEADER
  5
21C
100
AcDbEntity
  8
MAIN0
  6
CONTINUOUS
 62
3
100
AcDbLeader
  3
MAIN001
 73
     0
 74
     0
 75
     1
 40
3.099999904632568
 41
83.32100243663786
 76
     3
 10
407.5531566358327
 20
214.9108101122767
 30
0.0000000000000000
 10
430.9454461941177
 20
148.6203366354516
 30
0.0000000000000000
 10
432.8704461383278
 20
148.6203366354516
 30
0.0000000000000000
340
21D
213
0.0000000000000000
223
-0.5000000000000000
233
0.0000000000000000
1001
ACAD
1000
DSTYLE
1002
{
1070
   147
1040
0.0
1070
    77
1070
     1
1070
   173
1070
     1
1070
     6
1000
_OPEN
1070
     7
1000
_OPEN
1002
}
  0
MTEXT
  5
21D
102
{ACAD_REACTORS
330
21C
102
}
100
AcDbEntity
  8
MAIN0
  6
CONTINUOUS
 62
3
100
AcDbMText
 10
432.8714461383278
 20
152.2203365400842
 30
0.0000000000000000
 40
3.099999904632568
 41
0.0000000000000000
 71
     1
 72
     1
  1
{\H0.94x;{十字穴付皿小ねじ 4-M3×6\PCross Recessed Flat Head Screw}}
 11
1.000000000000000
 21
0.0000000000000000
 31
0.0000000000000000
  7
KNJYOKO
  0
HATCH
  5
21E
100
AcDbEntity
  8
MAIN0
  6
CONTINUOUS
 62
3
100
AcDbHatch
 10
0.000000
 20
0.000000
 30
0.000000
210
0.000000
220
0.000000
230
1.000000
  2
SOLID
 70
1
 71
0
 91
1
 92
7
 72
1
 73
1
 93
3
 10
118.7548612919862
 20
269.7398393465939
 42
0.0000000000000000
 10
118.7548612919862
 20
272.7398393465937
 42
-0.4142135623745992
 10
121.7548612920050
 20
269.7398393465972
 42
0.0000000000000000
 97
0
 75
0
 76
1
 47
0.100000
 98
1
 10
0.000000
 20
0.000000
  0
HATCH
  5
21F
100
AcDbEntity
  8
MAIN0
  6
CONTINUOUS
 62
3
100
AcDbHatch
 10
0.000000
 20
0.000000
 30
0.000000
210
0.000000
220
0.000000
230
1.000000
  2
SOLID
 70
1
 71
0
 91
1
 92
7
 72
1
 73
1
 93
3
 10
118.7548612919862
 20
269.7398393465939
 42
0.0000000000000000
 10
118.7548612919862
 20
266.7398393465937
 42
-0.4142135623709454
 10
115.7548612920050
 20
269.7398393465905
 42
0.0000000000000000
 97
0
 75
0
 76
1
 47
0.100000
 98
1
 10
0.000000
 20
0.000000
  0
HATCH
  5
220
100
AcDbEntity
  8
MAIN0
  6
CONTINUOUS
 62
3
100
AcDbHatch
 10
0.000000
 20
0.000000
 30
0.000000
210
0.000000
220
0.000000
230
1.000000
  2
SOLID
 70
1
 71
0
 91
1
 92
7
 72
1
 73
1
 93
3
 10
121.7548612919422
 20
189.7398393465972
 42
0.0000000000000000
 10
118.7548612919862
 20
189.7398393465939
 42
0.0000000000000000
 10
118.7548612919862
 20
192.7398393465939
 42
-0.4142135623684739
 97
0
 75
0
 76
1
 47
0.100000
 98
1
 10
0.000000
 20
0.000000
  0
HATCH
  5
221
100
AcDbEntity
  8
MAIN0
  6
CONTINUOUS
 62
3
100
AcDbHatch
 10
0.000000
 20
0.000000
 30
0.000000
210
0.000000
220
0.000000
230
1.000000
  2
SOLID
 70
1
 71
0
 91
1
 92
7
 72
1
 73
1
 93
3
 10
115.7548612919422
 20
189.7398393465906
 42
0.0000000000000000
 10
118.7548612919862
 20
189.7398393465939
 42
0.0000000000000000
 10
118.7548612919862
 20
186.7398393465939
 42
-0.4142135623770706
 97
0
 75
0
 76
1
 47
0.100000
 98
1
 10
0.000000
 20
0.000000
  0
HATCH
  5
222
100
AcDbEntity
  8
MAIN0
  6
CONTINUOUS
 62
3
100
AcDbHatch
 10
0.000000
 20
0.000000
 30
0.000000
210
0.000000
220
0.000000
230
1.000000
  2
SOLID
 70
1
 71
0
 91
1
 92
7
 72
1
 73
1
 93
3
 10
507.5548612919252
 20
217.7398393462443
 42
-0.4142135623737633
 10
511.5548612919208
 20
213.7398393462308
 42
0.0000000000000000
 10
507.5548612919208
 20
213.7398393462353
 42
0.0000000000000000
 97
0
 75
0
 76
1
 47
0.100000
 98
1
 10
0.000000
 20
0.000000
  0
HATCH
  5
223
100
AcDbEntity
  8
MAIN0
  6
CONTINUOUS
 62
3
100
AcDbHatch
 10
0.000000
 20
0.000000
 30
0.000000
210
0.000000
220
0.000000
230
1.000000
  2
SOLID
 70
1
 71
0
 91
1
 92
7
 72
1
 73
1
 93
3
 10
503.5548612919208
 20
213.7398393462398
 42
0.0000000000000000
 10
507.5548612919208
 20
213.7398393462353
 42
0.0000000000000000
 10
507.5548612919163
 20
209.7398393462443
 42
-0.4142135623724391
 97
0
 75
0
 76
1
 47
0.100000
 98
1
 10
0.000000
 20
0.000000
  0
HATCH
  5
224
100
AcDbEntity
  8
MAIN0
  6
CONTINUOUS
 62
3
100
AcDbHatch
 10
0.000000
 20
0.000000
 30
0.000000
210
0.000000
220
0.000000
230
1.000000
  2
SOLID
 70
1
 71
0
 91
1
 92
7
 72
1
 73
1
 93
3
 10
507.5548612919208
 20
245.7398393462246
 42
0.0000000000000000
 10
507.5548612919163
 20
249.7398393462156
 42
-0.4142135623724356
 10
511.5548612919208
 20
245.7398393462291
 42
0.0000000000000000
 97
0
 75
0
 76
1
 47
0.100000
 98
1
 10
0.000000
 20
0.000000
  0
HATCH
  5
225
100
AcDbEntity
  8
MAIN0
  6
CONTINUOUS
 62
3
100
AcDbHatch
 10
0.000000
 20
0.000000
 30
0.000000
210
0.000000
220
0.000000
230
1.000000
  2
SOLID
 70
1
 71
0
 91
1
 92
7
 72
1
 73
1
 93
3
 10
507.5548612919208
 20
245.7398393462246
 42
0.0000000000000000
 10
507.5548612919252
 20
241.7398393462156
 42
-0.4142135623737387
 10
503.5548612919208
 20
245.7398393462201
 42
0.0000000000000000
 97
0
 75
0
 76
1
 47
0.100000
 98
1
 10
0.000000
 20
0.000000
  0
LINE
  5
226
100
AcDbEntity
  8
MAIN0
  6
CONTINUOUS
 62
3
100
AcDbLine
 10
412.5548612920433
 20
245.2398393464802
 30
0.0000000000000000
 11
411.5548612920432
 21
246.2398393464792
 31
0.0000000000000000
  0
LINE
  5
227
100
AcDbEntity
  8
MAIN0
  6
CONTINUOUS
 62
3
100
AcDbLine
 10
412.5548612920433
 20
245.2398393464802
 30
0.0000000000000000
 11
412.5548612920433
 21
214.2398393464794
 31
0.0000000000000000
  0
LINE
  5
228
100
AcDbEntity
  8
MAIN0
  6
CONTINUOUS
 62
3
100
AcDbLine
 10
412.5548612920433
 20
214.2398393464794
 30
0.0000000000000000
 11
411.5548612920433
 21
213.2398393464782
 31
0.0000000000000000
  0
LINE
  5
229
100
AcDbEntity
  8
MAIN0
  6
CONTINUOUS
 62
3
100
AcDbLine
 10
368.5548612920267
 20
245.2398393464802
 30
0.0000000000000000
 11
368.5548612920267
 21
214.2398393464793
 31
0.0000000000000000
  0
LINE
  5
22A
100
AcDbEntity
  8
MAIN0
  6
CONTINUOUS
 62
3
100
AcDbLine
 10
368.5548612920267
 20
214.2398393464794
 30
0.0000000000000000
 11
369.5548612920267
 21
213.2398393464782
 31
0.0000000000000000
  0
LINE
  5
22B
100
AcDbEntity
  8
MAIN0
  6
CONTINUOUS
 62
3
100
AcDbLine
 10
369.5548612920267
 20
246.2398393463305
 30
0.0000000000000000
 11
411.5548612920432
 21
246.2398393463305
 31
0.0000000000000000
  0
LINE
  5
22C
100
AcDbEntity
  8
MAIN0
  6
CONTINUOUS
 62
3
100
AcDbLine
 10
369.5548612920267
 20
213.2398393463296
 30
0.0000000000000000
 11
411.5548612920433
 21
213.2398393463296
 31
0.0000000000000000
  0
CIRCLE
  5
22D
100
AcDbEntity
  8
MAIN0
  6
CONTINUOUS
 62
3
100
AcDbCircle
 10
406.5548612920433
 20
217.7398393462311
 30
0.0000000000000000
 40
3.250000000000000
  0
CIRCLE
  5
22E
100
AcDbEntity
  8
MAIN0
  6
CONTINUOUS
 62
3
100
AcDbCircle
 10
374.5548612920267
 20
217.7398393462310
 30
0.0000000000000000
 40
3.250000000000000
  0
CIRCLE
  5
22F
100
AcDbEntity
  8
MAIN0
  6
CONTINUOUS
 62
3
100
AcDbCircle
 10
374.5548612920267
 20
241.7398393462288
 30
0.0000000000000000
 40
3.250000000000000
  0
CIRCLE
  5
230
100
AcDbEntity
  8
MAIN0
  6
CONTINUOUS
 62
3
100
AcDbCircle
 10
406.5548612920433
 20
241.7398393462288
 30
0.0000000000000000
 40
3.250000000000000
  0
CIRCLE
  5
231
100
AcDbEntity
  8
MAIN0
  6
CONTINUOUS
 62
3
100
AcDbCircle
 10
374.5548612920267
 20
241.7398393462288
 30
0.0000000000000000
 40
3.000000000000000
  0
LINE
  5
232
100
AcDbEntity
  8
MAIN0
  6
CONTINUOUS
 62
3
100
AcDbLine
 10
375.7922981591031
 20
242.9772762133052
 30
0.0000000000000000
 11
373.3174244249502
 21
240.5024024791523
 31
0.0000000000000000
  0
LINE
  5
233
100
AcDbEntity
  8
MAIN0
  6
CONTINUOUS
 62
3
100
AcDbLine
 10
375.7922981591031
 20
240.5024024791523
 30
0.0000000000000000
 11
373.3174244249502
 21
242.9772762133052
 31
0.0000000000000000
  0
CIRCLE
  5
234
100
AcDbEntity
  8
MAIN0
  6
CONTINUOUS
 62
3
100
AcDbCircle
 10
406.5548612920433
 20
241.7398393462288
 30
0.0000000000000000
 40
3.000000000000000
  0
LINE
  5
235
100
AcDbEntity
  8
MAIN0
  6
CONTINUOUS
 62
3
100
AcDbLine
 10
407.7922981591197
 20
242.9772762133052
 30
0.0000000000000000
 11
405.3174244249668
 21
240.5024024791523
 31
0.0000000000000000
  0
LINE
  5
236
100
AcDbEntity
  8
MAIN0
  6
CONTINUOUS
 62
3
100
AcDbLine
 10
407.7922981591197
 20
240.5024024791523
 30
0.0000000000000000
 11
405.3174244249668
 21
242.9772762133052
 31
0.0000000000000000
  0
CIRCLE
  5
237
100
AcDbEntity
  8
MAIN0
  6
CONTINUOUS
 62
3
100
AcDbCircle
 10
406.5548612920433
 20
217.7398393462311
 30
0.0000000000000000
 40
3.000000000000000
  0
LINE
  5
238
100
AcDbEntity
  8
MAIN0
  6
CONTINUOUS
 62
3
100
AcDbLine
 10
407.7922981591197
 20
218.9772762133075
 30
0.0000000000000000
 11
405.3174244249668
 21
216.5024024791546
 31
0.0000000000000000
  0
LINE
  5
239
100
AcDbEntity
  8
MAIN0
  6
CONTINUOUS
 62
3
100
AcDbLine
 10
407.7922981591197
 20
216.5024024791546
 30
0.0000000000000000
 11
405.3174244249668
 21
218.9772762133075
 31
0.0000000000000000
  0
CIRCLE
  5
23A
100
AcDbEntity
  8
MAIN0
  6
CONTINUOUS
 62
3
100
AcDbCircle
 10
374.5548612920267
 20
217.7398393462310
 30
0.0000000000000000
 40
3.000000000000000
  0
LINE
  5
23B
100
AcDbEntity
  8
MAIN0
  6
CONTINUOUS
 62
3
100
AcDbLine
 10
375.7922981591031
 20
218.9772762133075
 30
0.0000000000000000
 11
373.3174244249502
 21
216.5024024791546
 31
0.0000000000000000
  0
LINE
  5
23C
100
AcDbEntity
  8
MAIN0
  6
CONTINUOUS
 62
3
100
AcDbLine
 10
375.7922981591031
 20
216.5024024791546
 30
0.0000000000000000
 11
373.3174244249502
 21
218.9772762133075
 31
0.0000000000000000
  0
LINE
  5
23D
100
AcDbEntity
  8
MAIN0
  6
CONTINUOUS
 62
3
100
AcDbLine
 10
415.5548612920338
 20
288.7398393462090
 30
0.0000000000000000
 11
415.5548612919875
 21
170.7398393462089
 31
0.0000000000000000
  0
LINE
  5
23E
100
AcDbEntity
  8
MAIN0
  6
CONTINUOUS
 62
3
100
AcDbLine
 10
414.5548612920340
 20
289.7398393462107
 30
0.0000000000000000
 11
415.5548612920337
 21
288.7398393462091
 31
0.0000000000000000
  0
LINE
  5
23F
100
AcDbEntity
  8
MAIN0
  6
CONTINUOUS
 62
3
100
AcDbLine
 10
415.5548612919875
 20
170.7398393462091
 30
0.0000000000000000
 11
414.5548612919871
 21
169.7398393462107
 31
0.0000000000000000
  0
LINE
  5
240
100
AcDbEntity
  8
MAIN0
  6
CONTINUOUS
 62
3
100
AcDbLine
 10
326.0548612920328
 20
286.3398393463579
 30
0.0000000000000000
 11
326.0548612919873
 21
170.1398393463578
 31
0.0000000000000000
  0
LINE
  5
241
100
AcDbEntity
  8
MAIN0
  6
CONTINUOUS
 62
3
100
AcDbLine
 10
326.4548612920329
 20
286.7398393463571
 30
0.0000000000000000
 11
365.5548612920329
 21
286.7398393462921
 31
0.0000000000000000
  0
LINE
  5
242
100
AcDbEntity
  8
MAIN0
  6
CONTINUOUS
 62
3
100
AcDbLine
 10
326.0548612920056
 20
218.7398393461539
 30
0.0000000000000000
 11
359.5548612912250
 21
218.7398393461166
 31
0.0000000000000000
  0
LINE
  5
243
100
AcDbEntity
  8
MAIN0
  6
CONTINUOUS
 62
3
100
AcDbLine
 10
326.0548612920156
 20
240.7398393461539
 30
0.0000000000000000
 11
359.5548612912336
 21
240.7398393461167
 31
0.0000000000000000
  0
LINE
  5
244
100
AcDbEntity
  8
MAIN0
  6
CENTER
 62
3
100
AcDbLine
 10
409.5548612918700
 20
193.6444385845795
 30
0.0000000000000000
 11
409.5548612918700
 21
180.4736634300551
 31
0.0000000000000000
  0
LINE
  5
245
100
AcDbEntity
  8
MAIN0
  6
CENTER
 62
3
100
AcDbLine
 10
402.4770055539607
 20
186.7398393460824
 30
0.0000000000000000
 11
416.9928782529182
 21
186.7398393460824
 31
0.0000000000000000
  0
CIRCLE
  5
246
100
AcDbEntity
  8
MAIN0
  6
CONTINUOUS
 62
3
100
AcDbCircle
 10
409.5548612918699
 20
186.7398393460824
 30
0.0000000000000000
 40
4.750000000000000
  0
LINE
  5
247
100
AcDbEntity
  8
MAIN0
  6
CENTER
 62
3
100
AcDbLine
 10
371.5548612918700
 20
193.6444385845795
 30
0.0000000000000000
 11
371.5548612918700
 21
180.4736634300551
 31
0.0000000000000000
  0
LINE
  5
248
100
AcDbEntity
  8
MAIN0
  6
CENTER
 62
3
100
AcDbLine
 10
378.6327170297792
 20
186.7398393460824
 30
0.0000000000000000
 11
364.1168443308217
 21
186.7398393460824
 31
0.0000000000000000
  0
CIRCLE
  5
249
100
AcDbEntity
  8
MAIN0
  6
CONTINUOUS
 62
3
100
AcDbCircle
 10
371.5548612918700
 20
186.7398393460824
 30
0.0000000000000000
 40
4.750000000000000
  0
CIRCLE
  5
24A
100
AcDbEntity
  8
MAIN0
  6
CONTINUOUS
 62
3
100
AcDbCircle
 10
371.5548612918699
 20
272.7398393460824
 30
0.0000000000000000
 40
4.750000000000000
  0
LINE
  5
24B
100
AcDbEntity
  8
MAIN0
  6
CENTER
 62
3
100
AcDbLine
 10
378.6327170297791
 20
272.7398393460824
 30
0.0000000000000000
 11
364.1168443308216
 21
272.7398393460824
 31
0.0000000000000000
  0
LINE
  5
24C
100
AcDbEntity
  8
MAIN0
  6
CENTER
 62
3
100
AcDbLine
 10
371.5548612918699
 20
265.8352401075852
 30
0.0000000000000000
 11
371.5548612918699
 21
279.0060152621095
 31
0.0000000000000000
  0
LINE
  5
24D
100
AcDbEntity
  8
MAIN0
  6
CENTER
 62
3
100
AcDbLine
 10
409.5548612918699
 20
265.8352401075852
 30
0.0000000000000000
 11
409.5548612918699
 21
279.0060152621095
 31
0.0000000000000000
  0
LINE
  5
24E
100
AcDbEntity
  8
MAIN0
  6
CENTER
 62
3
100
AcDbLine
 10
402.4770055539606
 20
272.7398393460824
 30
0.0000000000000000
 11
416.9928782529182
 21
272.7398393460824
 31
0.0000000000000000
  0
CIRCLE
  5
24F
100
AcDbEntity
  8
MAIN0
  6
CONTINUOUS
 62
3
100
AcDbCircle
 10
409.5548612918698
 20
272.7398393460824
 30
0.0000000000000000
 40
4.750000000000000
  0
LINE
  5
250
100
AcDbEntity
  8
MAIN0
  6
CENTER
 62
3
100
AcDbLine
 10
323.2908798895455
 20
224.7398393461569
 30
0.0000000000000000
 11
360.2277791577205
 21
224.7398393461160
 31
0.0000000000000000
  0
LINE
  5
251
100
AcDbEntity
  8
MAIN0
  6
CONTINUOUS
 62
3
100
AcDbLine
 10
326.0548612920080
 20
223.1398393461538
 30
0.0000000000000000
 11
359.5548612912268
 21
223.1398393461165
 31
0.0000000000000000
  0
LINE
  5
252
100
AcDbEntity
  8
MAIN0
  6
CONTINUOUS
 62
3
100
AcDbLine
 10
326.0548612920116
 20
226.3398393461540
 30
0.0000000000000000
 11
359.5548612912280
 21
226.3398393461168
 31
0.0000000000000000
  0
LINE
  5
253
100
AcDbEntity
  8
MAIN0
  6
CENTER
 62
3
100
AcDbLine
 10
323.2908798895566
 20
234.7398393461570
 30
0.0000000000000000
 11
360.2277791577345
 21
234.7398393461160
 31
0.0000000000000000
  0
LINE
  5
254
100
AcDbEntity
  8
MAIN0
  6
CONTINUOUS
 62
3
100
AcDbLine
 10
326.0548612920255
 20
236.3398393461539
 30
0.0000000000000000
 11
359.5548612912319
 21
236.3398393461168
 31
0.0000000000000000
  0
LINE
  5
255
100
AcDbEntity
  8
MAIN0
  6
CONTINUOUS
 62
3
100
AcDbLine
 10
326.0548612920220
 20
233.1398393461534
 30
0.0000000000000000
 11
359.5548612912306
 21
233.1398393461162
 31
0.0000000000000000
  0
LINE
  5
256
100
AcDbEntity
  8
MAIN0
  6
CONTINUOUS
 62
3
100
AcDbLine
 10
326.0548612919872
 20
170.1398393463580
 30
0.0000000000000000
 11
326.4548612919871
 21
169.7398393463573
 31
0.0000000000000000
  0
LINE
  5
257
100
AcDbEntity
  8
MAIN0
  6
CONTINUOUS
 62
3
100
AcDbLine
 10
326.0548612920329
 20
286.3398393463577
 30
0.0000000000000000
 11
326.4548612920330
 21
286.7398393463571
 31
0.0000000000000000
  0
LINE
  5
258
100
AcDbEntity
  8
MAIN0
  6
CONTINUOUS
 62
3
100
AcDbLine
 10
366.5548612917127
 20
213.2398393462825
 30
0.0000000000000000
 11
381.3048612919178
 21
213.2398393462980
 31
0.0000000000000000
  0
LINE
  5
259
100
AcDbEntity
  8
MAIN0
  6
CONTINUOUS
 62
3
100
AcDbLine
 10
399.8048612919162
 20
213.2398393463174
 30
0.0000000000000000
 11
414.5548612920040
 21
213.2398393463328
 31
0.0000000000000000
  0
LINE
  5
25A
100
AcDbEntity
  8
MAIN0
  6
CONTINUOUS
 62
3
100
AcDbLine
 10
366.5548612917127
 20
246.2398393462835
 30
0.0000000000000000
 11
381.3048612919184
 21
246.2398393462989
 31
0.0000000000000000
  0
LINE
  5
25B
100
AcDbEntity
  8
MAIN0
  6
CONTINUOUS
 62
3
100
AcDbLine
 10
399.8048612919155
 20
246.2398393463182
 30
0.0000000000000000
 11
414.5548612920169
 21
246.2398393463336
 31
0.0000000000000000
  0
LINE
  5
25C
100
AcDbEntity
  8
MAIN0
  6
CONTINUOUS
 62
3
100
AcDbLine
 10
326.0548612920322
 20
284.7398393463578
 30
0.0000000000000000
 11
365.5548612920296
 21
284.7398393462921
 31
0.0000000000000000
  0
CIRCLE
  5
25D
100
AcDbEntity
  8
MAIN0
  6
CONTINUOUS
 62
3
100
AcDbCircle
 10
409.5548612918700
 20
186.7398393460824
 30
0.0000000000000000
 40
2.600000000000000
  0
CIRCLE
  5
25E
100
AcDbEntity
  8
MAIN0
  6
CONTINUOUS
 62
3
100
AcDbCircle
 10
371.5548612918700
 20
186.7398393460824
 30
0.0000000000000000
 40
2.600000000000000
  0
CIRCLE
  5
25F
100
AcDbEntity
  8
MAIN0
  6
CONTINUOUS
 62
3
100
AcDbCircle
 10
371.5548612918699
 20
272.7398393460824
 30
0.0000000000000000
 40
2.600000000000000
  0
CIRCLE
  5
260
100
AcDbEntity
  8
MAIN0
  6
CONTINUOUS
 62
3
100
AcDbCircle
 10
409.5548612918699
 20
272.7398393460824
 30
0.0000000000000000
 40
2.600000000000000
  0
LINE
  5
261
100
AcDbEntity
  8
MAIN0
  6
CONTINUOUS
 62
3
100
AcDbLine
 10
365.5548612920339
 20
289.3398393462923
 30
0.0000000000000000
 11
365.5548612920161
 21
244.1163431878499
 31
0.0000000000000000
  0
LINE
  5
262
100
AcDbEntity
  8
MAIN0
  6
CONTINUOUS
 62
3
100
AcDbLine
 10
365.5548612920048
 20
215.2757377308920
 30
0.0000000000000000
 11
365.5548612919870
 21
169.7398393462921
 31
0.0000000000000000
  0
LINE
  5
263
100
AcDbEntity
  8
MAIN0
  6
CONTINUOUS
 62
3
100
AcDbLine
 10
326.0548612919891
 20
175.2398393463544
 30
0.0000000000000000
 11
365.5548612919890
 21
175.2398393461792
 31
0.0000000000000000
  0
ARC
  5
264
100
AcDbEntity
  8
MAIN0
  6
CONTINUOUS
 62
3
100
AcDbCircle
 10
363.5548612914688
 20
240.7398393461305
 30
0.0000000000000000
 40
4.000000000243809
100
AcDbArc
 50
0.0000000000000000
 51
180.0000000000000
  0
LINE
  5
265
100
AcDbEntity
  8
MAIN0
  6
CONTINUOUS
 62
3
100
AcDbLine
 10
359.5548612912336
 20
240.7398393460661
 30
0.0000000000000000
 11
359.5548612912250
 21
218.7398393460672
 31
0.0000000000000000
  0
ARC
  5
266
100
AcDbEntity
  8
MAIN0
  6
CONTINUOUS
 62
3
100
AcDbCircle
 10
363.5548612914688
 20
218.7398393460018
 30
0.0000000000000000
 40
4.000000000243809
100
AcDbArc
 50
180.0000000000000
 51
360.0000000000000
  0
LINE
  5
267
100
AcDbEntity
  8
MAIN0
  6
CENTER
 62
3
100
AcDbLine
 10
355.9173664199065
 20
277.7398393461201
 30
0.0000000000000000
 11
364.4426707216275
 21
277.7398393461105
 31
0.0000000000000000
  0
LINE
  5
268
100
AcDbEntity
  8
MAIN0
  6
CENTER
 62
3
100
AcDbLine
 10
360.5548612919014
 20
282.3063972467800
 30
0.0000000000000000
 11
360.5548612918948
 21
273.6105851245466
 31
0.0000000000000000
  0
CIRCLE
  5
269
100
AcDbEntity
  8
MAIN0
  6
CONTINUOUS
 62
3
100
AcDbCircle
 10
360.5548612918979
 20
277.7398393461149
 30
0.0000000000000000
 40
2.500000000000000
  0
CIRCLE
  5
26A
100
AcDbEntity
  8
MAIN0
  6
CONTINUOUS
 62
3
100
AcDbCircle
 10
360.5548612918979
 20
277.7398393461149
 30
0.0000000000000000
 40
2.100000000000000
  0
LINE
  5
26B
100
AcDbEntity
  8
MAIN0
  6
CENTER
 62
3
100
AcDbLine
 10
355.9173664197994
 20
181.7398393461199
 30
0.0000000000000000
 11
364.4426707215204
 21
181.7398393461104
 31
0.0000000000000000
  0
LINE
  5
26C
100
AcDbEntity
  8
MAIN0
  6
CENTER
 62
3
100
AcDbLine
 10
360.5548612917841
 20
177.1732814454496
 30
0.0000000000000000
 11
360.5548612917969
 21
185.8690935676830
 31
0.0000000000000000
  0
CIRCLE
  5
26D
100
AcDbEntity
  8
MAIN0
  6
CONTINUOUS
 62
3
100
AcDbCircle
 10
360.5548612917908
 20
181.7398393461148
 30
0.0000000000000000
 40
2.500000000000000
  0
CIRCLE
  5
26E
100
AcDbEntity
  8
MAIN0
  6
CONTINUOUS
 62
3
100
AcDbCircle
 10
360.5548612917908
 20
181.7398393461148
 30
0.0000000000000000
 40
2.100000000000000
  0
LINE
  5
26F
100
AcDbEntity
  8
MAIN0
  6
CONTINUOUS
 62
3
100
AcDbLine
 10
367.5548612917127
 20
240.7398393461305
 30
0.0000000000000000
 11
367.5548612917127
 21
218.7398393460018
 31
0.0000000000000000
  0
LINE
  5
270
100
AcDbEntity
  8
MAIN0
  6
CENTER
 62
3
100
AcDbLine
 10
378.5962503569213
 20
241.7398393462293
 30
0.0000000000000000
 11
370.7742966976674
 21
241.7398393462293
 31
0.0000000000000000
  0
LINE
  5
271
100
AcDbEntity
  8
MAIN0
  6
CENTER
 62
3
100
AcDbLine
 10
374.5548612920264
 20
238.0185399757318
 30
0.0000000000000000
 11
374.5548612920264
 21
245.6775361005757
 31
0.0000000000000000
  0
LINE
  5
272
100
AcDbEntity
  8
MAIN0
  6
CENTER
 62
3
100
AcDbLine
 10
378.5962503569213
 20
217.7398393462311
 30
0.0000000000000000
 11
370.7742966976674
 21
217.7398393462311
 31
0.0000000000000000
  0
LINE
  5
273
100
AcDbEntity
  8
MAIN0
  6
CENTER
 62
3
100
AcDbLine
 10
374.5548612920264
 20
221.4611387167285
 30
0.0000000000000000
 11
374.5548612920264
 21
213.8021425918846
 31
0.0000000000000000
  0
LINE
  5
274
100
AcDbEntity
  8
MAIN0
  6
CENTER
 62
3
100
AcDbLine
 10
402.5134722271484
 20
217.7398393462311
 30
0.0000000000000000
 11
410.3354258864023
 21
217.7398393462311
 31
0.0000000000000000
  0
LINE
  5
275
100
AcDbEntity
  8
MAIN0
  6
CENTER
 62
3
100
AcDbLine
 10
406.5548612920433
 20
221.4611387167285
 30
0.0000000000000000
 11
406.5548612920433
 21
213.8021425918846
 31
0.0000000000000000
  0
LINE
  5
276
100
AcDbEntity
  8
MAIN0
  6
CENTER
 62
3
100
AcDbLine
 10
402.5134722271484
 20
241.7398393462293
 30
0.0000000000000000
 11
410.3354258864023
 21
241.7398393462293
 31
0.0000000000000000
  0
LINE
  5
277
100
AcDbEntity
  8
MAIN0
  6
CENTER
 62
3
100
AcDbLine
 10
406.5548612920433
 20
238.0185399757318
 30
0.0000000000000000
 11
406.5548612920433
 21
245.6775361005757
 31
0.0000000000000000
  0
LINE
  5
278
100
AcDbEntity
  8
MAIN0
  6
CONTINUOUS
 62
3
100
AcDbLine
 10
414.5548612920171
 20
246.2398393463336
 30
0.0000000000000000
 11
414.5548612920042
 21
213.2398393463328
 31
0.0000000000000000
  0
LINE
  5
279
100
AcDbEntity
  8
MAIN0
  6
CONTINUOUS
 62
3
100
AcDbLine
 10
366.5548612920052
 20
216.0940880351767
 30
0.0000000000000000
 11
366.5548612920040
 21
213.2398393462825
 31
0.0000000000000000
  0
LINE
  5
27A
100
AcDbEntity
  8
MAIN0
  6
CONTINUOUS
 62
3
100
AcDbLine
 10
367.5548612920040
 20
213.2398393462836
 30
0.0000000000000000
 11
367.5548612919947
 21
189.3015770377670
 31
0.0000000000000000
  0
LINE
  5
27B
100
AcDbEntity
  8
MAIN0
  6
CONTINUOUS
 62
3
100
AcDbLine
 10
367.5548612919927
 20
184.1781016544009
 30
0.0000000000000000
 11
367.5548612919870
 21
169.7398393462913
 31
0.0000000000000000
  0
LINE
  5
27C
100
AcDbEntity
  8
MAIN0
  6
CONTINUOUS
 62
3
100
AcDbLine
 10
413.5548612920042
 20
213.2398393463317
 30
0.0000000000000000
 11
413.5548612919948
 21
189.3015770373776
 31
0.0000000000000000
  0
LINE
  5
27D
100
AcDbEntity
  8
MAIN0
  6
CONTINUOUS
 62
3
100
AcDbLine
 10
413.5548612919928
 20
184.1781016547840
 30
0.0000000000000000
 11
413.5548612919871
 21
169.7398393462108
 31
0.0000000000000000
  0
LINE
  5
27E
100
AcDbEntity
  8
MAIN0
  6
CONTINUOUS
 62
3
100
AcDbLine
 10
366.5548612920052
 20
243.3855906572831
 30
0.0000000000000000
 11
366.5548612920040
 21
246.2398393461773
 31
0.0000000000000000
  0
LINE
  5
27F
100
AcDbEntity
  8
MAIN0
  6
CONTINUOUS
 62
3
100
AcDbLine
 10
367.5548612920040
 20
246.2398393461763
 30
0.0000000000000000
 11
367.5548612919947
 21
270.1781016546929
 31
0.0000000000000000
  0
LINE
  5
280
100
AcDbEntity
  8
MAIN0
  6
CONTINUOUS
 62
3
100
AcDbLine
 10
367.5548612919926
 20
275.3015770380590
 30
0.0000000000000000
 11
367.5548612919870
 21
289.7398393461685
 31
0.0000000000000000
  0
LINE
  5
281
100
AcDbEntity
  8
MAIN0
  6
CONTINUOUS
 62
3
100
AcDbLine
 10
413.5548612920042
 20
246.2398393461282
 30
0.0000000000000000
 11
413.5548612919948
 21
270.1781016550823
 31
0.0000000000000000
  0
LINE
  5
282
100
AcDbEntity
  8
MAIN0
  6
CONTINUOUS
 62
3
100
AcDbLine
 10
413.5548612919928
 20
275.3015770376759
 30
0.0000000000000000
 11
413.5548612919871
 21
289.7398393462490
 31
0.0000000000000000
  0
LINE
  5
283
100
AcDbEntity
  8
MAIN0
  6
CONTINUOUS
 62
3
100
AcDbLine
 10
365.5548612920339
 20
289.3398393462923
 30
0.0000000000000000
 11
365.9548612920340
 21
289.7398393462916
 31
0.0000000000000000
  0
LINE
  5
284
100
AcDbEntity
  8
MAIN0
  6
CONTINUOUS
 62
3
100
AcDbLine
 10
381.3048612919192
 20
288.7398393462660
 30
0.0000000000000000
 11
380.3048612919192
 21
289.7398393462677
 31
0.0000000000000000
  0
LINE
  5
285
100
AcDbEntity
  8
MAIN0
  6
CONTINUOUS
 62
3
100
AcDbLine
 10
399.8048612919148
 20
288.7398393462352
 30
0.0000000000000000
 11
400.8048612919148
 21
289.7398393462336
 31
0.0000000000000000
  0
LINE
  5
286
100
AcDbEntity
  8
MAIN0
  6
CONTINUOUS
 62
3
100
AcDbLine
 10
399.8048612919169
 20
170.7398393462156
 30
0.0000000000000000
 11
400.8048612919169
 21
169.7398393462152
 31
0.0000000000000000
  0
LINE
  5
287
100
AcDbEntity
  8
MAIN0
  6
CONTINUOUS
 62
3
100
AcDbLine
 10
381.3048612919171
 20
170.7398393462219
 30
0.0000000000000000
 11
380.3048612919171
 21
169.7398393462223
 31
0.0000000000000000
  0
LINE
  5
288
100
AcDbEntity
  8
MAIN0
  6
CONTINUOUS
 62
3
100
AcDbLine
 10
399.8048612919148
 20
288.7398393462352
 30
0.0000000000000000
 11
399.8048612919155
 21
246.2398393463182
 31
0.0000000000000000
  0
LINE
  5
289
100
AcDbEntity
  8
MAIN0
  6
CONTINUOUS
 62
3
100
AcDbLine
 10
399.8048612919162
 20
213.2398393463174
 30
0.0000000000000000
 11
399.8048612919169
 21
170.7398393462156
 31
0.0000000000000000
  0
LINE
  5
28A
100
AcDbEntity
  8
MAIN0
  6
CONTINUOUS
 62
3
100
AcDbLine
 10
381.3048612919192
 20
288.7398393462660
 30
0.0000000000000000
 11
381.3048612919184
 21
246.2398393462989
 31
0.0000000000000000
  0
LINE
  5
28B
100
AcDbEntity
  8
MAIN0
  6
CONTINUOUS
 62
3
100
AcDbLine
 10
381.3048612919178
 20
213.2398393462980
 30
0.0000000000000000
 11
381.3048612919171
 21
170.7398393462219
 31
0.0000000000000000
  0
LINE
  5
28C
100
AcDbEntity
  8
MAIN0
  6
CONTINUOUS
 62
3
100
AcDbLine
 10
400.8048612919169
 20
169.7398393462152
 30
0.0000000000000000
 11
414.5548612919870
 21
169.7398393462104
 31
0.0000000000000000
  0
LINE
  5
28D
100
AcDbEntity
  8
MAIN0
  6
CONTINUOUS
 62
3
100
AcDbLine
 10
326.4548612919871
 20
169.7398393462409
 30
0.0000000000000000
 11
380.3048612919171
 21
169.7398393462223
 31
0.0000000000000000
  0
LINE
  5
28E
100
AcDbEntity
  8
MAIN0
  6
CONTINUOUS
 62
3
100
AcDbLine
 10
400.8048612919148
 20
289.7398393462336
 30
0.0000000000000000
 11
414.5548612920341
 21
289.7398393462107
 31
0.0000000000000000
  0
LINE
  5
28F
100
AcDbEntity
  8
MAIN0
  6
CONTINUOUS
 62
3
100
AcDbLine
 10
365.9548612920340
 20
289.7398393462916
 30
0.0000000000000000
 11
380.3048612919192
 21
289.7398393462677
 31
0.0000000000000000
  0
LINE
  5
290
100
AcDbEntity
  8
MAIN0
  6
CONTINUOUS
 62
3
100
AcDbLine
 10
320.2548612920106
 20
172.7398393467272
 30
0.0000000000000000
 11
325.8548612920105
 21
172.7398393467229
 31
0.0000000000000000
  0
LINE
  5
291
100
AcDbEntity
  8
MAIN0
  6
CONTINUOUS
 62
3
100
AcDbLine
 10
326.0548612920104
 20
172.9398393467226
 30
0.0000000000000000
 11
325.8548612920105
 21
172.7398393467228
 31
0.0000000000000000
  0
LINE
  5
292
100
AcDbEntity
  8
MAIN0
  6
CONTINUOUS
 62
3
100
AcDbLine
 10
320.0548612920109
 20
286.5398393457326
 30
0.0000000000000000
 11
320.0548612920106
 21
172.9398393467273
 31
0.0000000000000000
  0
LINE
  5
293
100
AcDbEntity
  8
MAIN0
  6
CONTINUOUS
 62
3
100
AcDbLine
 10
320.2548612920106
 20
172.7398393467272
 30
0.0000000000000000
 11
320.0548612920106
 21
172.9398393467273
 31
0.0000000000000000
  0
LINE
  5
294
100
AcDbEntity
  8
MAIN0
  6
CONTINUOUS
 62
3
100
AcDbLine
 10
326.0548612920106
 20
286.5398393457373
 30
0.0000000000000000
 11
326.0548612920106
 21
172.9398393467228
 31
0.0000000000000000
  0
LINE
  5
295
100
AcDbEntity
  8
MAIN0
  6
CONTINUOUS
 62
3
100
AcDbLine
 10
320.0548612920106
 20
175.2398393467274
 30
0.0000000000000000
 11
326.0548612920106
 21
175.2398393467227
 31
0.0000000000000000
  0
LINE
  5
296
100
AcDbEntity
  8
MAIN0
  6
CONTINUOUS
 62
3
100
AcDbLine
 10
326.0548612920106
 20
217.2398393462299
 30
0.0000000000000000
 11
320.0548612920107
 21
217.2398393462299
 31
0.0000000000000000
  0
LINE
  5
297
100
AcDbEntity
  8
MAIN0
  6
CONTINUOUS
 62
3
100
AcDbLine
 10
326.0548612920106
 20
242.2398393462299
 30
0.0000000000000000
 11
320.0548612920107
 21
242.2398393462299
 31
0.0000000000000000
  0
LINE
  5
298
100
AcDbEntity
  8
MAIN0
  6
CONTINUOUS
 62
3
100
AcDbLine
 10
320.2548612920106
 20
286.7398393457327
 30
0.0000000000000000
 11
325.8548612920105
 21
286.7398393457370
 31
0.0000000000000000
  0
LINE
  5
299
100
AcDbEntity
  8
MAIN0
  6
CONTINUOUS
 62
3
100
AcDbLine
 10
326.0548612920104
 20
286.5398393457373
 30
0.0000000000000000
 11
325.8548612920105
 21
286.7398393457371
 31
0.0000000000000000
  0
LINE
  5
29A
100
AcDbEntity
  8
MAIN0
  6
CONTINUOUS
 62
3
100
AcDbLine
 10
320.2548612920106
 20
286.7398393457327
 30
0.0000000000000000
 11
320.0548612920106
 21
286.5398393457326
 31
0.0000000000000000
  0
LINE
  5
29B
100
AcDbEntity
  8
MAIN0
  6
CONTINUOUS
 62
3
100
AcDbLine
 10
320.0548612920106
 20
284.2398393457325
 30
0.0000000000000000
 11
326.0548612920106
 21
284.2398393457372
 31
0.0000000000000000
  0
LINE
  5
29C
100
AcDbEntity
  8
MAIN0
  6
CENTER
 62
3
100
AcDbLine
 10
397.2072678806311
 20
263.4121611166992
 30
0.0000000000000000
 11
383.1957179702183
 21
263.4121611166992
 31
0.0000000000000000
  0
LINE
  5
29D
100
AcDbEntity
  8
MAIN0
  6
CENTER
 62
3
100
AcDbLine
 10
397.2072678806311
 20
283.4121611166992
 30
0.0000000000000000
 11
383.1957179702183
 21
283.4121611166992
 31
0.0000000000000000
  0
CIRCLE
  5
29E
100
AcDbEntity
  8
MAIN0
  6
CONTINUOUS
 62
3
100
AcDbCircle
 10
390.5548612920362
 20
283.4121611166992
 30
0.0000000000000000
 40
5.000000000000000
  0
CIRCLE
  5
29F
100
AcDbEntity
  8
MAIN0
  6
CONTINUOUS
 62
3
100
AcDbCircle
 10
390.5548612920362
 20
263.4121611166992
 30
0.0000000000000000
 40
5.000000000000000
  0
CIRCLE
  5
2A0
100
AcDbEntity
  8
MAIN0
  6
CONTINUOUS
 62
3
100
AcDbCircle
 10
390.5548612920363
 20
263.4121611166992
 30
0.0000000000000000
 40
3.000000000000000
  0
CIRCLE
  5
2A1
100
AcDbEntity
  8
MAIN0
  6
CONTINUOUS
 62
3
100
AcDbCircle
 10
390.5548612920363
 20
263.4121611166992
 30
0.0000000000000000
 40
2.500000000000000
  0
CIRCLE
  5
2A2
100
AcDbEntity
  8
MAIN0
  6
CONTINUOUS
 62
3
100
AcDbCircle
 10
390.5548612920363
 20
283.4121611166992
 30
0.0000000000000000
 40
3.000000000000000
  0
CIRCLE
  5
2A3
100
AcDbEntity
  8
MAIN0
  6
CONTINUOUS
 62
3
100
AcDbCircle
 10
390.5548612920363
 20
283.4121611166992
 30
0.0000000000000000
 40
2.500000000000000
  0
LINE
  5
2A4
100
AcDbEntity
  8
MAIN0
  6
CONTINUOUS
 62
3
100
AcDbLine
 10
399.8048612920363
 20
257.4121611166992
 30
0.0000000000000000
 11
381.3048612920363
 21
257.4121611166992
 31
0.0000000000000000
  0
LINE
  5
2A5
100
AcDbEntity
  8
MAIN0
  6
CONTINUOUS
 62
3
100
AcDbLine
 10
403.4548612919184
 20
289.9121611166992
 30
0.0000000000000000
 11
377.6548612920861
 21
289.9121611166992
 31
0.0000000000000000
  0
LINE
  5
2A6
100
AcDbEntity
  8
MAIN0
  6
CONTINUOUS
 62
3
100
AcDbLine
 10
381.3048612920363
 20
289.5121611166992
 30
0.0000000000000000
 11
381.7048612920363
 21
289.9121611166991
 31
0.0000000000000000
  0
LINE
  5
2A7
100
AcDbEntity
  8
MAIN0
  6
CONTINUOUS
 62
3
100
AcDbLine
 10
399.8048612920362
 20
289.5121611166993
 30
0.0000000000000000
 11
399.4048612920362
 21
289.9121611166992
 31
0.0000000000000000
  0
CIRCLE
  5
2A8
100
AcDbEntity
  8
MAIN0
  6
CONTINUOUS
 62
3
100
AcDbCircle
 10
390.5548612920362
 20
263.4121611166992
 30
0.0000000000000000
 40
3.500000000000000
  0
CIRCLE
  5
2A9
100
AcDbEntity
  8
MAIN0
  6
CONTINUOUS
 62
3
100
AcDbCircle
 10
390.5548612920362
 20
283.4121611166992
 30
0.0000000000000000
 40
3.500000000000000
  0
LINE
  5
2AA
100
AcDbEntity
  8
MAIN0
  6
CONTINUOUS
 62
3
100
AcDbLine
 10
399.8048612920362
 20
289.5121611166992
 30
0.0000000000000000
 11
399.8048612920363
 21
246.2398393463305
 31
0.0000000000000000
  0
LINE
  5
2AB
100
AcDbEntity
  8
MAIN0
  6
CONTINUOUS
 62
3
100
AcDbLine
 10
381.3048612920363
 20
289.5121611166992
 30
0.0000000000000000
 11
381.3048612920363
 21
246.2398393463305
 31
0.0000000000000000
  0
LINE
  5
2AC
100
AcDbEntity
  8
MAIN0
  6
CONTINUOUS
 62
3
100
AcDbLine
 10
377.6548612920861
 20
289.9121611166992
 30
0.0000000000000000
 11
377.4825395216594
 21
289.7398393462724
 31
0.0000000000000000
  0
LINE
  5
2AD
100
AcDbEntity
  8
MAIN0
  6
CONTINUOUS
 62
3
100
AcDbLine
 10
403.4548612919184
 20
289.9121611166991
 30
0.0000000000000000
 11
403.6271830623886
 21
289.7398393462289
 31
0.0000000000000000
  0
LINE
  5
2AE
100
AcDbEntity
  8
MAIN0
  6
CENTER
 62
3
100
AcDbLine
 10
397.2072678806311
 20
196.0675175757607
 30
0.0000000000000000
 11
383.1957179702183
 21
196.0675175757607
 31
0.0000000000000000
  0
LINE
  5
2AF
100
AcDbEntity
  8
MAIN0
  6
CENTER
 62
3
100
AcDbLine
 10
397.2072678806311
 20
176.0675175757607
 30
0.0000000000000000
 11
383.1957179702183
 21
176.0675175757607
 31
0.0000000000000000
  0
CIRCLE
  5
2B0
100
AcDbEntity
  8
MAIN0
  6
CONTINUOUS
 62
3
100
AcDbCircle
 10
390.5548612920362
 20
176.0675175757607
 30
0.0000000000000000
 40
5.000000000000000
  0
CIRCLE
  5
2B1
100
AcDbEntity
  8
MAIN0
  6
CONTINUOUS
 62
3
100
AcDbCircle
 10
390.5548612920362
 20
196.0675175757607
 30
0.0000000000000000
 40
5.000000000000000
  0
CIRCLE
  5
2B2
100
AcDbEntity
  8
MAIN0
  6
CONTINUOUS
 62
3
100
AcDbCircle
 10
390.5548612920363
 20
196.0675175757607
 30
0.0000000000000000
 40
3.000000000000000
  0
CIRCLE
  5
2B3
100
AcDbEntity
  8
MAIN0
  6
CONTINUOUS
 62
3
100
AcDbCircle
 10
390.5548612920363
 20
196.0675175757607
 30
0.0000000000000000
 40
2.500000000000000
  0
CIRCLE
  5
2B4
100
AcDbEntity
  8
MAIN0
  6
CONTINUOUS
 62
3
100
AcDbCircle
 10
390.5548612920363
 20
176.0675175757607
 30
0.0000000000000000
 40
3.000000000000000
  0
CIRCLE
  5
2B5
100
AcDbEntity
  8
MAIN0
  6
CONTINUOUS
 62
3
100
AcDbCircle
 10
390.5548612920363
 20
176.0675175757607
 30
0.0000000000000000
 40
2.500000000000000
  0
LINE
  5
2B6
100
AcDbEntity
  8
MAIN0
  6
CONTINUOUS
 62
3
100
AcDbLine
 10
399.8048612920363
 20
202.0675175757607
 30
0.0000000000000000
 11
381.3048612920363
 21
202.0675175757607
 31
0.0000000000000000
  0
LINE
  5
2B7
100
AcDbEntity
  8
MAIN0
  6
CONTINUOUS
 62
3
100
AcDbLine
 10
403.4548612919184
 20
169.5675175757607
 30
0.0000000000000000
 11
377.6548612920861
 21
169.5675175757607
 31
0.0000000000000000
  0
LINE
  5
2B8
100
AcDbEntity
  8
MAIN0
  6
CONTINUOUS
 62
3
100
AcDbLine
 10
381.3048612920363
 20
169.9675175757607
 30
0.0000000000000000
 11
381.7048612920363
 21
169.5675175757607
 31
0.0000000000000000
  0
LINE
  5
2B9
100
AcDbEntity
  8
MAIN0
  6
CONTINUOUS
 62
3
100
AcDbLine
 10
399.8048612920362
 20
169.9675175757606
 30
0.0000000000000000
 11
399.4048612920362
 21
169.5675175757607
 31
0.0000000000000000
  0
CIRCLE
  5
2BA
100
AcDbEntity
  8
MAIN0
  6
CONTINUOUS
 62
3
100
AcDbCircle
 10
390.5548612920362
 20
196.0675175757607
 30
0.0000000000000000
 40
3.500000000000000
  0
CIRCLE
  5
2BB
100
AcDbEntity
  8
MAIN0
  6
CONTINUOUS
 62
3
100
AcDbCircle
 10
390.5548612920362
 20
176.0675175757607
 30
0.0000000000000000
 40
3.500000000000000
  0
LINE
  5
2BC
100
AcDbEntity
  8
MAIN0
  6
CONTINUOUS
 62
3
100
AcDbLine
 10
399.8048612920362
 20
169.9675175757606
 30
0.0000000000000000
 11
399.8048612920363
 21
213.2398393461293
 31
0.0000000000000000
  0
LINE
  5
2BD
100
AcDbEntity
  8
MAIN0
  6
CONTINUOUS
 62
3
100
AcDbLine
 10
381.3048612920363
 20
169.9675175757607
 30
0.0000000000000000
 11
381.3048612920363
 21
213.2398393461294
 31
0.0000000000000000
  0
LINE
  5
2BE
100
AcDbEntity
  8
MAIN0
  6
CONTINUOUS
 62
3
100
AcDbLine
 10
377.6548612920861
 20
169.5675175757607
 30
0.0000000000000000
 11
377.4825395216594
 21
169.7398393461875
 31
0.0000000000000000
  0
LINE
  5
2BF
100
AcDbEntity
  8
MAIN0
  6
CONTINUOUS
 62
3
100
AcDbLine
 10
403.4548612919184
 20
169.5675175757608
 30
0.0000000000000000
 11
403.6271830623886
 21
169.7398393462310
 31
0.0000000000000000
  0
LINE
  5
2C0
100
AcDbEntity
  8
MAIN0
  6
CONTINUOUS
 62
3
100
AcDbLine
 10
326.0548612918238
 20
59.73983934611081
 30
0.0000000000000000
 11
414.5548612920922
 21
59.73983934620898
 31
0.0000000000000000
  0
LINE
  5
2C1
100
AcDbEntity
  8
MAIN0
  6
CONTINUOUS
 62
3
100
AcDbLine
 10
415.5548612919924
 20
97.73983934621009
 30
0.0000000000000000
 11
415.5548612920896
 21
60.73983934621026
 31
0.0000000000000000
  0
LINE
  5
2C2
100
AcDbEntity
  8
MAIN0
  6
CONTINUOUS
 62
3
100
AcDbLine
 10
326.0548612917138
 20
101.7398393461108
 30
0.0000000000000000
 11
359.5548612910540
 21
101.7398393461480
 31
0.0000000000000000
  0
LINE
  5
2C3
100
AcDbEntity
  8
MAIN0
  6
CONTINUOUS
 62
3
100
AcDbLine
 10
415.5548612920896
 20
60.73983934621012
 30
0.0000000000000000
 11
414.5548612920922
 21
59.73983934620890
 31
0.0000000000000000
  0
LINE
  5
2C4
100
AcDbEntity
  8
MAIN0
  6
CONTINUOUS
 62
3
100
AcDbLine
 10
381.3048612919143
 20
99.33983934617203
 30
0.0000000000000000
 11
381.3048612919347
 21
89.13983934616175
 31
0.0000000000000000
  0
LINE
  5
2C5
100
AcDbEntity
  8
MAIN0
  6
CONTINUOUS
 62
3
100
AcDbLine
 10
380.9048612919356
 20
88.73983934616086
 30
0.0000000000000000
 11
377.5548612919354
 21
88.73983934615347
 31
0.0000000000000000
  0
LINE
  5
2C6
100
AcDbEntity
  8
MAIN0
  6
CONTINUOUS
 62
3
100
AcDbLine
 10
377.2548612919361
 20
88.43983934615267
 30
0.0000000000000000
 11
377.2548612919688
 21
77.83983934621102
 31
0.0000000000000000
  0
LINE
  5
2C7
100
AcDbEntity
  8
MAIN0
  6
CONTINUOUS
 62
3
100
AcDbLine
 10
403.8548612919362
 20
88.43983934621190
 30
0.0000000000000000
 11
403.8548612919690
 21
77.83983934621176
 31
0.0000000000000000
  0
LINE
  5
2C8
100
AcDbEntity
  8
MAIN0
  6
CONTINUOUS
 62
3
100
AcDbLine
 10
400.2048612919356
 20
88.73983934620367
 30
0.0000000000000000
 11
403.5548612919356
 21
88.73983934621106
 31
0.0000000000000000
  0
LINE
  5
2C9
100
AcDbEntity
  8
MAIN0
  6
CONTINUOUS
 62
3
100
AcDbLine
 10
399.8048612919143
 20
99.33983934619255
 30
0.0000000000000000
 11
399.8048612919347
 21
89.13983934620273
 31
0.0000000000000000
  0
LINE
  5
2CA
100
AcDbEntity
  8
MAIN0
  6
CONTINUOUS
 62
3
100
AcDbLine
 10
367.5548612918689
 20
99.73983934615680
 30
0.0000000000000000
 11
380.9048612919134
 21
99.73983934617155
 31
0.0000000000000000
  0
LINE
  5
2CB
100
AcDbEntity
  8
MAIN0
  6
CONTINUOUS
 62
3
100
AcDbLine
 10
400.2048612919134
 20
99.73983934619298
 30
0.0000000000000000
 11
413.5548612919870
 21
99.73983934620785
 31
0.0000000000000000
  0
LINE
  5
2CC
100
AcDbEntity
  8
MAIN0
  6
CONTINUOUS
 62
3
100
AcDbLine
 10
380.9048612919357
 20
88.73983934616081
 30
0.0000000000000000
 11
381.3048612919348
 21
89.13983934616169
 31
0.0000000000000000
  0
LINE
  5
2CD
100
AcDbEntity
  8
MAIN0
  6
CONTINUOUS
 62
3
100
AcDbLine
 10
400.2048612919134
 20
99.73983934619324
 30
0.0000000000000000
 11
399.8048612919142
 21
99.33983934619280
 31
0.0000000000000000
  0
LINE
  5
2CE
100
AcDbEntity
  8
MAIN0
  6
CONTINUOUS
 62
3
100
AcDbLine
 10
381.3048612919142
 20
99.33983934617220
 30
0.0000000000000000
 11
380.9048612919133
 21
99.73983934617169
 31
0.0000000000000000
  0
LINE
  5
2CF
100
AcDbEntity
  8
MAIN0
  6
CONTINUOUS
 62
3
100
AcDbLine
 10
400.2048612919355
 20
88.73983934620378
 30
0.0000000000000000
 11
399.8048612919347
 21
89.13983934620279
 31
0.0000000000000000
  0
ARC
  5
2D0
100
AcDbEntity
  8
MAIN0
  6
CONTINUOUS
 62
3
100
AcDbCircle
 10
403.5548612919689
 20
77.83983934621102
 30
0.0000000000000000
 40
0.3000000000000000
100
AcDbArc
 50
270.0000000000000
 51
360.0000000000000
  0
ARC
  5
2D1
100
AcDbEntity
  8
MAIN0
  6
CONTINUOUS
 62
3
100
AcDbCircle
 10
403.5548612919363
 20
88.43983934621116
 30
0.0000000000000000
 40
0.3000000000000000
100
AcDbArc
 50
0.0000000000000000
 51
90.00000000000000
  0
ARC
  5
2D2
100
AcDbEntity
  8
MAIN0
  6
CONTINUOUS
 62
3
100
AcDbCircle
 10
377.5548612919362
 20
88.43983934615352
 30
0.0000000000000000
 40
0.3000000000000000
100
AcDbArc
 50
90.00000000000000
 51
180.0000000000000
  0
LINE
  5
2D3
100
AcDbEntity
  8
MAIN0
  6
CONTINUOUS
 62
3
100
AcDbLine
 10
399.3048612918735
 20
77.53983934622104
 30
0.0000000000000000
 11
399.3048612918739
 21
77.43983934622102
 31
0.0000000000000000
  0
LINE
  5
2D4
100
AcDbEntity
  8
MAIN0
  6
CONTINUOUS
 62
3
100
AcDbLine
 10
399.3048612918735
 20
77.53983934620163
 30
0.0000000000000000
 11
403.5548612919696
 21
77.53983934621107
 31
0.0000000000000000
  0
LINE
  5
2D5
100
AcDbEntity
  8
MAIN0
  6
CONTINUOUS
 62
3
100
AcDbLine
 10
413.5548612919870
 20
99.73983934620782
 30
0.0000000000000000
 11
415.5548612919924
 21
97.73983934621006
 31
0.0000000000000000
  0
LINE
  5
2D6
100
AcDbEntity
  8
MAIN0
  6
CONTINUOUS
 62
3
100
AcDbLine
 10
326.0548612917175
 20
97.23983934611090
 30
0.0000000000000000
 11
365.5548612918689
 21
97.23983934615458
 31
0.0000000000000000
  0
LINE
  5
2D7
100
AcDbEntity
  8
MAIN0
  6
CONTINUOUS
 62
3
100
AcDbLine
 10
359.5548612910540
 20
101.7398393461480
 30
0.0000000000000000
 11
359.5548612910540
 21
97.23983934614790
 31
0.0000000000000000
  0
LINE
  5
2D8
100
AcDbEntity
  8
MAIN0
  6
CONTINUOUS
 62
3
100
AcDbLine
 10
365.5548612918689
 20
97.73983934615455
 30
0.0000000000000000
 11
365.5548612918689
 21
91.73983934615450
 31
0.0000000000000000
  0
LINE
  5
2D9
100
AcDbEntity
  8
MAIN0
  6
CONTINUOUS
 62
3
100
AcDbLine
 10
365.5548612918689
 20
97.73983934615455
 30
0.0000000000000000
 11
367.5548612918689
 21
99.73983934615677
 31
0.0000000000000000
  0
LINE
  5
2DA
100
AcDbEntity
  8
MAIN0
  6
CONTINUOUS
 62
3
100
AcDbLine
 10
326.0548612917237
 20
91.73983934611090
 30
0.0000000000000000
 11
365.5548612918750
 21
91.73983934615458
 31
0.0000000000000000
  0
LINE
  5
2DB
100
AcDbEntity
  8
MAIN0
  6
CENTER
 62
3
100
AcDbLine
 10
317.4149464043962
 20
79.23983934610124
 30
0.0000000000000000
 11
361.8918587430028
 21
79.23983934615058
 31
0.0000000000000000
  0
LINE
  5
2DC
100
AcDbEntity
  8
MAIN0
  6
CENTER
 62
3
100
AcDbLine
 10
332.2548612920266
 20
83.48736898871155
 30
0.0000000000000000
 11
332.2548612920398
 21
75.05173326175694
 31
0.0000000000000000
  0
CIRCLE
  5
2DD
100
AcDbEntity
  8
MAIN0
  6
CONTINUOUS
 62
3
100
AcDbCircle
 10
358.0548612922038
 20
79.23983934618178
 30
0.0000000000000000
 40
2.500000000000000
  0
CIRCLE
  5
2DE
100
AcDbEntity
  8
MAIN0
  6
CONTINUOUS
 62
3
100
AcDbCircle
 10
358.0548612922038
 20
79.23983934618178
 30
0.0000000000000000
 40
2.100000000000000
  0
LINE
  5
2DF
100
AcDbEntity
  8
MAIN0
  6
CENTER
 62
3
100
AcDbLine
 10
358.0548612922038
 20
83.27889985216319
 30
0.0000000000000000
 11
358.0548612922038
 21
75.49046129075902
 31
0.0000000000000000
  0
LINE
  5
2E0
100
AcDbEntity
  8
MAIN0
  6
CENTER
 62
3
100
AcDbLine
 10
364.0548612918595
 20
71.96319852257207
 30
0.0000000000000000
 11
364.0548612918850
 21
63.00771529925370
 31
0.0000000000000000
  0
LINE
  5
2E1
100
AcDbEntity
  8
MAIN0
  6
CENTER
 62
3
100
AcDbLine
 10
359.9218636344361
 20
67.73983934614836
 30
0.0000000000000000
 11
367.9925011095617
 21
67.73983934615731
 31
0.0000000000000000
  0
LINE
  5
2E2
100
AcDbEntity
  8
MAIN0
  6
HIDDEN
 62
3
100
AcDbLine
 10
415.5548612920659
 20
66.43983934621014
 30
0.0000000000000000
 11
414.7548612920659
 21
67.23983934621015
 31
0.0000000000000000
  0
LINE
  5
2E3
100
AcDbEntity
  8
MAIN0
  6
HIDDEN
 62
3
100
AcDbLine
 10
414.7548612920660
 20
67.23983934621009
 30
0.0000000000000000
 11
414.7548612920660
 21
72.23983934621009
 31
0.0000000000000000
  0
LINE
  5
2E4
100
AcDbEntity
  8
MAIN0
  6
HIDDEN
 62
3
100
AcDbLine
 10
414.7548612920660
 20
72.23983934621018
 30
0.0000000000000000
 11
415.5548612920660
 21
73.03983934621016
 31
0.0000000000000000
  0
LINE
  5
2E5
100
AcDbEntity
  8
MAIN0
  6
HIDDEN
 62
3
100
AcDbLine
 10
415.2548612920660
 20
66.73983934621009
 30
0.0000000000000000
 11
403.5548612920660
 21
66.73983934621009
 31
0.0000000000000000
  0
LINE
  5
2E6
100
AcDbEntity
  8
MAIN0
  6
HIDDEN
 62
3
100
AcDbLine
 10
403.5548612920660
 20
66.73983934621009
 30
0.0000000000000000
 11
403.5548612920660
 21
72.73983934621009
 31
0.0000000000000000
  0
LINE
  5
2E7
100
AcDbEntity
  8
MAIN0
  6
HIDDEN
 62
3
100
AcDbLine
 10
403.5548612920660
 20
72.73983934621009
 30
0.0000000000000000
 11
415.2548612920660
 21
72.73983934621009
 31
0.0000000000000000
  0
LINE
  5
2E8
100
AcDbEntity
  8
MAIN0
  6
HIDDEN
 62
3
100
AcDbLine
 10
414.7548612920660
 20
67.23983934621009
 30
0.0000000000000000
 11
400.5548612920660
 21
67.23983934621009
 31
0.0000000000000000
  0
LINE
  5
2E9
100
AcDbEntity
  8
MAIN0
  6
HIDDEN
 62
3
100
AcDbLine
 10
400.5548612920660
 20
67.23983934621009
 30
0.0000000000000000
 11
400.5548612920660
 21
72.23983934621009
 31
0.0000000000000000
  0
LINE
  5
2EA
100
AcDbEntity
  8
MAIN0
  6
HIDDEN
 62
3
100
AcDbLine
 10
400.5548612920660
 20
72.23983934621009
 30
0.0000000000000000
 11
414.7548612920660
 21
72.23983934621009
 31
0.0000000000000000
  0
LINE
  5
2EB
100
AcDbEntity
  8
MAIN0
  6
HIDDEN
 62
3
100
AcDbLine
 10
400.5548612920659
 20
67.23983934621015
 30
0.0000000000000000
 11
399.1114856190919
 21
69.73983934621012
 31
0.0000000000000000
  0
LINE
  5
2EC
100
AcDbEntity
  8
MAIN0
  6
HIDDEN
 62
3
100
AcDbLine
 10
399.1114856190919
 20
69.73983934621003
 30
0.0000000000000000
 11
400.5548612920659
 21
72.23983934621006
 31
0.0000000000000000
  0
LINE
  5
2ED
100
AcDbEntity
  8
MAIN0
  6
CENTER
 62
3
100
AcDbLine
 10
360.5548612917044
 20
345.1982109941774
 30
0.0000000000000000
 11
360.5548612918147
 21
361.7913419624623
 31
0.0000000000000000
  0
LINE
  5
2EE
100
AcDbEntity
  8
MAIN0
  6
HIDDEN
 62
3
100
AcDbLine
 10
363.0548612917217
 20
347.8121611166615
 30
0.0000000000000000
 11
363.0548612917789
 21
356.4121611166615
 31
0.0000000000000000
  0
LINE
  5
2EF
100
AcDbEntity
  8
MAIN0
  6
HIDDEN
 62
3
100
AcDbLine
 10
362.6548612917244
 20
348.2121611166642
 30
0.0000000000000000
 11
362.6548612917989
 21
359.4121611166642
 31
0.0000000000000000
  0
LINE
  5
2F0
100
AcDbEntity
  8
MAIN0
  6
HIDDEN
 62
3
100
AcDbLine
 10
363.0548612917789
 20
356.4121611166615
 30
0.0000000000000000
 11
358.0548612917789
 21
356.4121611166948
 31
0.0000000000000000
  0
LINE
  5
2F1
100
AcDbEntity
  8
MAIN0
  6
HIDDEN
 62
3
100
AcDbLine
 10
362.6548612917244
 20
348.2121611166642
 30
0.0000000000000000
 11
358.4548612917244
 21
348.2121611166921
 31
0.0000000000000000
  0
LINE
  5
2F2
100
AcDbEntity
  8
MAIN0
  6
HIDDEN
 62
3
100
AcDbLine
 10
363.4548612917191
 20
347.4121611166588
 30
0.0000000000000000
 11
362.6548612917244
 21
348.2121611166641
 31
0.0000000000000000
  0
LINE
  5
2F3
100
AcDbEntity
  8
MAIN0
  6
HIDDEN
 62
3
100
AcDbLine
 10
358.0548612917789
 20
356.4121611166948
 30
0.0000000000000000
 11
358.0548612917217
 21
347.8121611166948
 31
0.0000000000000000
  0
LINE
  5
2F4
100
AcDbEntity
  8
MAIN0
  6
HIDDEN
 62
3
100
AcDbLine
 10
358.4548612917244
 20
348.2121611166922
 30
0.0000000000000000
 11
357.6548612917191
 21
347.4121611166975
 31
0.0000000000000000
  0
LINE
  5
2F5
100
AcDbEntity
  8
MAIN0
  6
HIDDEN
 62
3
100
AcDbLine
 10
358.4548612917989
 20
359.4121611166921
 30
0.0000000000000000
 11
358.4548612917244
 21
348.2121611166921
 31
0.0000000000000000
  0
LINE
  5
2F6
100
AcDbEntity
  8
MAIN0
  6
HIDDEN
 62
3
100
AcDbLine
 10
362.6548612917989
 20
359.4121611166642
 30
0.0000000000000000
 11
358.4548612917989
 21
359.4121611166921
 31
0.0000000000000000
  0
LINE
  5
2F7
100
AcDbEntity
  8
MAIN0
  6
HIDDEN
 62
3
100
AcDbLine
 10
360.5548612918069
 20
360.6245966819764
 30
0.0000000000000000
 11
358.4548612917989
 21
359.4121611166921
 31
0.0000000000000000
  0
LINE
  5
2F8
100
AcDbEntity
  8
MAIN0
  6
HIDDEN
 62
3
100
AcDbLine
 10
362.6548612917989
 20
359.4121611166642
 30
0.0000000000000000
 11
360.5548612918069
 21
360.6245966819763
 31
0.0000000000000000
  0
LINE
  5
2F9
100
AcDbEntity
  8
MAIN0
  6
CONTINUOUS
 62
3
100
AcDbLine
 10
326.0548612917048
 20
101.7398393461108
 30
0.0000000000000000
 11
326.0548612918239
 21
59.73983934611076
 31
0.0000000000000000
  0
LINE
  5
2FA
100
AcDbEntity
  8
MAIN0
  6
CENTER
 62
3
100
AcDbLine
 10
397.3314009989826
 20
69.73983934700115
 30
0.0000000000000000
 11
417.9739099194326
 21
69.73983934695542
 31
0.0000000000000000
  0
CIRCLE
  5
2FB
100
AcDbEntity
  8
MAIN0
  6
CONTINUOUS
 62
3
100
AcDbCircle
 10
364.0548612918715
 20
67.73983934615291
 30
0.0000000000000000
 40
2.500000000000000
  0
CIRCLE
  5
2FC
100
AcDbEntity
  8
MAIN0
  6
CONTINUOUS
 62
3
100
AcDbCircle
 10
364.0548612918715
 20
67.73983934615291
 30
0.0000000000000000
 40
2.066987200000000
  0
LINE
  5
2FD
100
AcDbEntity
  8
MAIN0
  6
CONTINUOUS
 62
3
100
AcDbLine
 10
365.4982369648456
 20
67.73983934615291
 30
0.0000000000000000
 11
364.7765491283585
 21
68.98983934615291
 31
0.0000000000000000
  0
LINE
  5
2FE
100
AcDbEntity
  8
MAIN0
  6
CONTINUOUS
 62
3
100
AcDbLine
 10
364.7765491283586
 20
68.98983934615291
 30
0.0000000000000000
 11
363.3331734553845
 21
68.98983934615291
 31
0.0000000000000000
  0
LINE
  5
2FF
100
AcDbEntity
  8
MAIN0
  6
CONTINUOUS
 62
3
100
AcDbLine
 10
363.3331734553845
 20
68.98983934615296
 30
0.0000000000000000
 11
362.6114856188975
 21
67.73983934615296
 31
0.0000000000000000
  0
LINE
  5
300
100
AcDbEntity
  8
MAIN0
  6
CONTINUOUS
 62
3
100
AcDbLine
 10
362.6114856188974
 20
67.73983934615285
 30
0.0000000000000000
 11
363.3331734553844
 21
66.48983934615285
 31
0.0000000000000000
  0
LINE
  5
301
100
AcDbEntity
  8
MAIN0
  6
CONTINUOUS
 62
3
100
AcDbLine
 10
363.3331734553845
 20
66.48983934615291
 30
0.0000000000000000
 11
364.7765491283586
 21
66.48983934615291
 31
0.0000000000000000
  0
LINE
  5
302
100
AcDbEntity
  8
MAIN0
  6
CONTINUOUS
 62
3
100
AcDbLine
 10
364.7765491283585
 20
66.48983934615291
 30
0.0000000000000000
 11
365.4982369648456
 21
67.73983934615291
 31
0.0000000000000000
  0
LINE
  5
303
100
AcDbEntity
  8
MAIN0
  6
CONTINUOUS
 62
3
100
AcDbLine
 10
381.8048612921965
 20
77.53983934622104
 30
0.0000000000000000
 11
381.8048612921961
 21
77.43983934622102
 31
0.0000000000000000
  0
ARC
  5
304
100
AcDbEntity
  8
MAIN0
  6
CONTINUOUS
 62
3
100
AcDbCircle
 10
377.5548612921010
 20
77.83983934621102
 30
0.0000000000000000
 40
0.3000000000000000
100
AcDbArc
 50
180.0000000000000
 51
270.0000000000000
  0
LINE
  5
305
100
AcDbEntity
  8
MAIN0
  6
CONTINUOUS
 62
3
100
AcDbLine
 10
381.8048612921961
 20
77.43983934622105
 30
0.0000000000000000
 11
399.3048612918739
 21
77.43983934622105
 31
0.0000000000000000
  0
LINE
  5
306
100
AcDbEntity
  8
MAIN0
  6
CONTINUOUS
 62
3
100
AcDbLine
 10
381.8048612921965
 20
77.53983934620163
 30
0.0000000000000000
 11
377.5548612921003
 21
77.53983934621107
 31
0.0000000000000000
  0
LINE
  5
307
100
AcDbEntity
  8
MAIN0
  6
CONTINUOUS
 62
3
100
AcDbLine
 10
229.0548612919870
 20
169.7398393464787
 30
0.0000000000000000
 11
267.0548612924590
 21
169.7398393464999
 31
0.0000000000000000
  0
LINE
  5
308
100
AcDbEntity
  8
MAIN0
  6
CONTINUOUS
 62
3
100
AcDbLine
 10
228.0548612920329
 20
286.7398393464288
 30
0.0000000000000000
 11
263.0548612921148
 21
286.7398393463791
 31
0.0000000000000000
  0
LINE
  5
309
100
AcDbEntity
  8
MAIN0
  6
CONTINUOUS
 62
3
100
AcDbLine
 10
265.5548612920090
 20
218.7398393462686
 30
0.0000000000000000
 11
270.0548612920056
 21
218.7398393462734
 31
0.0000000000000000
  0
LINE
  5
30A
100
AcDbEntity
  8
MAIN0
  6
CONTINUOUS
 62
3
100
AcDbLine
 10
265.5548612920089
 20
240.7398393462515
 30
0.0000000000000000
 11
270.0548612920337
 21
240.7398393462371
 31
0.0000000000000000
  0
LINE
  5
30B
100
AcDbEntity
  8
MAIN0
  6
CONTINUOUS
 62
3
100
AcDbLine
 10
229.0548612920341
 20
289.7398393465542
 30
0.0000000000000000
 11
267.0548612920352
 21
289.7398393464824
 31
0.0000000000000000
  0
LINE
  5
30C
100
AcDbEntity
  8
MAIN0
  6
CENTER
 62
3
100
AcDbLine
 10
263.6664261266455
 20
224.7398393462663
 30
0.0000000000000000
 11
271.4603537625735
 21
224.7398393462772
 31
0.0000000000000000
  0
LINE
  5
30D
100
AcDbEntity
  8
MAIN0
  6
CONTINUOUS
 62
3
100
AcDbLine
 10
264.9548612920078
 20
227.4898393462733
 30
0.0000000000000000
 11
268.5548612920078
 21
227.4898393462733
 31
0.0000000000000000
  0
LINE
  5
30E
100
AcDbEntity
  8
MAIN0
  6
CONTINUOUS
 62
3
100
AcDbLine
 10
268.5548612920078
 20
226.3398393462733
 30
0.0000000000000000
 11
270.0548612920080
 21
226.3398393462733
 31
0.0000000000000000
  0
LINE
  5
30F
100
AcDbEntity
  8
MAIN0
  6
CONTINUOUS
 62
3
100
AcDbLine
 10
268.5548612920080
 20
223.1398393462733
 30
0.0000000000000000
 11
270.0548612920080
 21
223.1398393462733
 31
0.0000000000000000
  0
LINE
  5
310
100
AcDbEntity
  8
MAIN0
  6
CONTINUOUS
 62
3
100
AcDbLine
 10
264.9548612920078
 20
221.9898393462733
 30
0.0000000000000000
 11
268.5548612920078
 21
221.9898393462733
 31
0.0000000000000000
  0
LINE
  5
311
100
AcDbEntity
  8
MAIN0
  6
CONTINUOUS
 62
3
100
AcDbLine
 10
264.9548612920079
 20
221.9898393462734
 30
0.0000000000000000
 11
264.9548612920079
 21
227.4898393462734
 31
0.0000000000000000
  0
LINE
  5
312
100
AcDbEntity
  8
MAIN0
  6
CONTINUOUS
 62
3
100
AcDbLine
 10
268.5548612920080
 20
226.3398393462733
 30
0.0000000000000000
 11
268.5548612920080
 21
227.4898393462733
 31
0.0000000000000000
  0
LINE
  5
313
100
AcDbEntity
  8
MAIN0
  6
CONTINUOUS
 62
3
100
AcDbLine
 10
268.5548612920080
 20
221.9898393462733
 30
0.0000000000000000
 11
268.5548612920080
 21
223.1398393462733
 31
0.0000000000000000
  0
LINE
  5
314
100
AcDbEntity
  8
MAIN0
  6
CENTER
 62
3
100
AcDbLine
 10
263.6664261266603
 20
234.7398393462584
 30
0.0000000000000000
 11
271.4603537626493
 21
234.7398393462158
 31
0.0000000000000000
  0
LINE
  5
315
100
AcDbEntity
  8
MAIN0
  6
CONTINUOUS
 62
3
100
AcDbLine
 10
264.9548612920165
 20
231.9898393462483
 30
0.0000000000000000
 11
268.5548612920165
 21
231.9898393462403
 31
0.0000000000000000
  0
LINE
  5
316
100
AcDbEntity
  8
MAIN0
  6
CONTINUOUS
 62
3
100
AcDbLine
 10
268.5548612920190
 20
233.1398393462403
 30
0.0000000000000000
 11
270.0548612920192
 21
233.1398393462370
 31
0.0000000000000000
  0
LINE
  5
317
100
AcDbEntity
  8
MAIN0
  6
CONTINUOUS
 62
3
100
AcDbLine
 10
268.5548612920262
 20
236.3398393462404
 30
0.0000000000000000
 11
270.0548612920262
 21
236.3398393462371
 31
0.0000000000000000
  0
LINE
  5
318
100
AcDbEntity
  8
MAIN0
  6
CONTINUOUS
 62
3
100
AcDbLine
 10
264.9548612920287
 20
237.4898393462483
 30
0.0000000000000000
 11
268.5548612920287
 21
237.4898393462403
 31
0.0000000000000000
  0
LINE
  5
319
100
AcDbEntity
  8
MAIN0
  6
CONTINUOUS
 62
3
100
AcDbLine
 10
264.9548612920287
 20
237.4898393462485
 30
0.0000000000000000
 11
264.9548612920165
 21
231.9898393462485
 31
0.0000000000000000
  0
LINE
  5
31A
100
AcDbEntity
  8
MAIN0
  6
CONTINUOUS
 62
3
100
AcDbLine
 10
268.5548612920191
 20
233.1398393462403
 30
0.0000000000000000
 11
268.5548612920165
 21
231.9898393462403
 31
0.0000000000000000
  0
LINE
  5
31B
100
AcDbEntity
  8
MAIN0
  6
CONTINUOUS
 62
3
100
AcDbLine
 10
268.5548612920287
 20
237.4898393462403
 30
0.0000000000000000
 11
268.5548612920262
 21
236.3398393462404
 31
0.0000000000000000
  0
LINE
  5
31C
100
AcDbEntity
  8
MAIN0
  6
CENTER
 62
3
100
AcDbLine
 10
229.6324954644056
 20
178.7398393462802
 30
0.0000000000000000
 11
242.6912614992184
 21
178.7398393462802
 31
0.0000000000000000
  0
LINE
  5
31D
100
AcDbEntity
  8
MAIN0
  6
CENTER
 62
3
100
AcDbLine
 10
236.0548612920107
 20
185.2864196274596
 30
0.0000000000000000
 11
236.0548612920107
 21
171.6671936507082
 31
0.0000000000000000
  0
LINE
  5
31E
100
AcDbEntity
  8
MAIN0
  6
CONTINUOUS
 62
3
100
AcDbLine
 10
229.0548612919870
 20
169.7398393464798
 30
0.0000000000000000
 11
228.0548612919874
 21
170.7398393464793
 31
0.0000000000000000
  0
LINE
  5
31F
100
AcDbEntity
  8
MAIN0
  6
CENTER
 62
3
100
AcDbLine
 10
264.9062979867271
 20
178.7398393462802
 30
0.0000000000000000
 11
252.7011152145767
 21
178.7398393462802
 31
0.0000000000000000
  0
LINE
  5
320
100
AcDbEntity
  8
MAIN0
  6
CENTER
 62
3
100
AcDbLine
 10
259.0548612920106
 20
184.8223596554419
 30
0.0000000000000000
 11
259.0548612920106
 21
171.7680746982939
 31
0.0000000000000000
  0
LINE
  5
321
100
AcDbEntity
  8
MAIN0
  6
CENTER
 62
3
100
AcDbLine
 10
264.9543695707133
 20
280.7398393466202
 30
0.0000000000000000
 11
252.0819556023156
 21
280.7398393466202
 31
0.0000000000000000
  0
LINE
  5
322
100
AcDbEntity
  8
MAIN0
  6
CENTER
 62
3
100
AcDbLine
 10
259.0548612920106
 20
274.4874026832924
 30
0.0000000000000000
 11
259.0548612920106
 21
287.9384915994718
 31
0.0000000000000000
  0
LINE
  5
323
100
AcDbEntity
  8
MAIN0
  6
CENTER
 62
3
100
AcDbLine
 10
229.7195215619631
 20
280.7398393466202
 30
0.0000000000000000
 11
242.2178267236409
 21
280.7398393466202
 31
0.0000000000000000
  0
LINE
  5
324
100
AcDbEntity
  8
MAIN0
  6
CENTER
 62
3
100
AcDbLine
 10
236.0548612920107
 20
274.3753087790625
 30
0.0000000000000000
 11
236.0548612920107
 21
287.8263992987367
 31
0.0000000000000000
  0
LINE
  5
325
100
AcDbEntity
  8
MAIN0
  6
CONTINUOUS
 62
3
100
AcDbLine
 10
270.0548612920081
 20
223.1398393462733
 30
0.0000000000000000
 11
270.0548612920064
 21
218.7398393462733
 31
0.0000000000000000
  0
LINE
  5
326
100
AcDbEntity
  8
MAIN0
  6
CONTINUOUS
 62
3
100
AcDbLine
 10
270.0548612920151
 20
240.7398393462371
 30
0.0000000000000000
 11
270.0548612920134
 21
236.3398393462371
 31
0.0000000000000000
  0
LINE
  5
327
100
AcDbEntity
  8
MAIN0
  6
CONTINUOUS
 62
3
100
AcDbLine
 10
270.0548612920121
 20
233.1398393462370
 30
0.0000000000000000
 11
270.0548612920094
 21
226.3398393462733
 31
0.0000000000000000
  0
LINE
  5
328
100
AcDbEntity
  8
MAIN0
  6
CONTINUOUS
 62
3
100
AcDbLine
 10
267.0548612920186
 20
246.2398393462543
 30
0.0000000000000000
 11
267.0548612920165
 21
240.7398393462524
 31
0.0000000000000000
  0
LINE
  5
329
100
AcDbEntity
  8
MAIN0
  6
CONTINUOUS
 62
3
100
AcDbLine
 10
267.0548612920186
 20
246.2398393462543
 30
0.0000000000000000
 11
268.0548612920186
 21
246.2398393462543
 31
0.0000000000000000
  0
LINE
  5
32A
100
AcDbEntity
  8
MAIN0
  6
CONTINUOUS
 62
3
100
AcDbLine
 10
268.0548612919950
 20
170.7398393460364
 30
0.0000000000000000
 11
268.0548612920073
 21
213.2398393462624
 31
0.0000000000000000
  0
LINE
  5
32B
100
AcDbEntity
  8
MAIN0
  6
CONTINUOUS
 62
3
100
AcDbLine
 10
268.0548612919948
 20
170.7398393460363
 30
0.0000000000000000
 11
267.0548612919945
 21
169.7398393460354
 31
0.0000000000000000
  0
ARC
  5
32C
100
AcDbEntity
  8
MAIN0
  6
CONTINUOUS
 62
3
100
AcDbCircle
 10
271.8048612920619
 20
186.7398393473952
 30
0.0000000000000000
 40
4.750000000000000
100
AcDbArc
 50
142.1363536383368
 51
217.8636463617972
  0
LINE
  5
32D
100
AcDbEntity
  8
MAIN0
  6
CONTINUOUS
 62
3
100
AcDbLine
 10
267.0548612920074
 20
213.2398393462632
 30
0.0000000000000000
 11
268.0548612920074
 21
213.2398393462625
 31
0.0000000000000000
  0
LINE
  5
32E
100
AcDbEntity
  8
MAIN0
  6
CONTINUOUS
 62
3
100
AcDbLine
 10
267.0548612920074
 20
213.2398393462632
 30
0.0000000000000000
 11
267.0548612920090
 21
218.7398393462700
 31
0.0000000000000000
  0
LINE
  5
32F
100
AcDbEntity
  8
MAIN0
  6
CONTINUOUS
 62
3
100
AcDbLine
 10
267.0548612920128
 20
231.9898393462441
 30
0.0000000000000000
 11
267.0548612920144
 21
237.4898393462441
 31
0.0000000000000000
  0
LINE
  5
330
100
AcDbEntity
  8
MAIN0
  6
CONTINUOUS
 62
3
100
AcDbLine
 10
267.0548612920100
 20
221.9898393462733
 30
0.0000000000000000
 11
267.0548612920115
 21
227.4898393462733
 31
0.0000000000000000
  0
LINE
  5
331
100
AcDbEntity
  8
MAIN0
  6
CONTINUOUS
 62
3
100
AcDbLine
 10
228.0548612920337
 20
288.7398393465560
 30
0.0000000000000000
 11
229.0548612920341
 21
289.7398393465542
 31
0.0000000000000000
  0
LINE
  5
332
100
AcDbEntity
  8
MAIN0
  6
CONTINUOUS
 62
3
100
AcDbLine
 10
265.5548612919964
 20
175.2398393464991
 30
0.0000000000000000
 11
265.5548612920089
 21
218.7398393462686
 31
0.0000000000000000
  0
LINE
  5
333
100
AcDbEntity
  8
MAIN0
  6
CONTINUOUS
 62
3
100
AcDbLine
 10
265.5548612919963
 20
175.2398393464991
 30
0.0000000000000000
 11
260.0548612919948
 21
169.7398393464960
 31
0.0000000000000000
  0
LINE
  5
334
100
AcDbEntity
  8
MAIN0
  6
CONTINUOUS
 62
3
100
AcDbLine
 10
265.5548612919964
 20
284.2398393463756
 30
0.0000000000000000
 11
263.0548612919956
 21
286.7398393463791
 31
0.0000000000000000
  0
LINE
  5
335
100
AcDbEntity
  8
MAIN0
  6
CONTINUOUS
 62
3
100
AcDbLine
 10
266.0548612919948
 20
169.7398393464993
 30
0.0000000000000000
 11
266.0548612920089
 21
218.7398393462691
 31
0.0000000000000000
  0
LINE
  5
336
100
AcDbEntity
  8
MAIN0
  6
CONTINUOUS
 62
3
100
AcDbLine
 10
228.0548612920233
 20
262.2398393464924
 30
0.0000000000000000
 11
228.2548612920233
 21
262.2398393464924
 31
0.0000000000000000
  0
LINE
  5
337
100
AcDbEntity
  8
MAIN0
  6
CONTINUOUS
 62
3
100
AcDbLine
 10
228.0548612919979
 20
197.2398393464924
 30
0.0000000000000000
 11
228.2548612919979
 21
197.2398393464924
 31
0.0000000000000000
  0
LINE
  5
338
100
AcDbEntity
  8
MAIN0
  6
CONTINUOUS
 62
3
100
AcDbLine
 10
228.2548612920233
 20
262.2398393464924
 30
0.0000000000000000
 11
228.2548612919979
 21
197.2398393464924
 31
0.0000000000000000
  0
LINE
  5
339
100
AcDbEntity
  8
MAIN0
  6
CONTINUOUS
 62
3
100
AcDbLine
 10
228.0548612920337
 20
288.7398393465560
 30
0.0000000000000000
 11
228.0548612920233
 21
262.2398393464924
 31
0.0000000000000000
  0
LINE
  5
33A
100
AcDbEntity
  8
MAIN0
  6
CONTINUOUS
 62
3
100
AcDbLine
 10
228.0548612919979
 20
197.2398393464924
 30
0.0000000000000000
 11
228.0548612919875
 21
170.7398393464793
 31
0.0000000000000000
  0
LINE
  5
33B
100
AcDbEntity
  8
MAIN0
  6
CONTINUOUS
 62
3
100
AcDbLine
 10
265.5548612919963
 20
284.2398393464857
 30
0.0000000000000000
 11
265.5548612920089
 21
240.7398393467162
 31
0.0000000000000000
  0
LINE
  5
33C
100
AcDbEntity
  8
MAIN0
  6
CONTINUOUS
 62
3
100
AcDbLine
 10
266.0548612919947
 20
289.7398393464854
 30
0.0000000000000000
 11
266.0548612920089
 21
240.7398393467157
 31
0.0000000000000000
  0
LINE
  5
33D
100
AcDbEntity
  8
MAIN0
  6
CONTINUOUS
 62
3
100
AcDbLine
 10
263.0548612920107
 20
286.7398393461534
 30
0.0000000000000000
 11
230.5548612920107
 21
286.7398393461534
 31
0.0000000000000000
  0
LINE
  5
33E
100
AcDbEntity
  8
MAIN0
  6
CONTINUOUS
 62
3
100
AcDbLine
 10
263.0548612920105
 20
172.7398393460078
 30
0.0000000000000000
 11
230.5548612920104
 21
172.7398393460078
 31
0.0000000000000000
  0
LINE
  5
33F
100
AcDbEntity
  8
MAIN0
  6
CONTINUOUS
 62
3
100
AcDbLine
 10
264.5548612920105
 20
217.2398393462801
 30
0.0000000000000000
 11
265.5548612920086
 21
217.2398393462801
 31
0.0000000000000000
  0
LINE
  5
340
100
AcDbEntity
  8
MAIN0
  6
CONTINUOUS
 62
3
100
AcDbLine
 10
264.5548612920106
 20
242.2398393462801
 30
0.0000000000000000
 11
265.5548612920086
 21
242.2398393462801
 31
0.0000000000000000
  0
LINE
  5
341
100
AcDbEntity
  8
MAIN0
  6
CONTINUOUS
 62
3
100
AcDbLine
 10
264.5548612920105
 20
217.2398393462802
 30
0.0000000000000000
 11
264.5548612920106
 21
242.2398393462802
 31
0.0000000000000000
  0
CIRCLE
  5
342
100
AcDbEntity
  8
MAIN0
  6
CONTINUOUS
 62
3
100
AcDbCircle
 10
236.0548612920103
 20
178.7398393462802
 30
0.0000000000000000
 40
4.999999999999233
  0
CIRCLE
  5
343
100
AcDbEntity
  8
MAIN0
  6
CONTINUOUS
 62
3
100
AcDbCircle
 10
259.0548612920106
 20
178.7398393462802
 30
0.0000000000000000
 40
4.999999999999233
  0
CIRCLE
  5
344
100
AcDbEntity
  8
MAIN0
  6
CONTINUOUS
 62
3
100
AcDbCircle
 10
259.0548612920106
 20
280.7398393462802
 30
0.0000000000000000
 40
4.999999999999233
  0
CIRCLE
  5
345
100
AcDbEntity
  8
MAIN0
  6
CONTINUOUS
 62
3
100
AcDbCircle
 10
236.0548612920107
 20
280.7398393462804
 30
0.0000000000000000
 40
4.999999999999233
  0
LINE
  5
346
100
AcDbEntity
  8
MAIN0
  6
CONTINUOUS
 62
3
100
AcDbLine
 10
265.5548612919964
 20
175.2398393461589
 30
0.0000000000000000
 11
265.5548612920086
 21
217.2398393462801
 31
0.0000000000000000
  0
LINE
  5
347
100
AcDbEntity
  8
MAIN0
  6
CONTINUOUS
 62
3
100
AcDbLine
 10
265.5548612919964
 20
175.2398393461589
 30
0.0000000000000000
 11
263.0548612918460
 21
172.7398393460079
 31
0.0000000000000000
  0
LINE
  5
348
100
AcDbEntity
  8
MAIN0
  6
CONTINUOUS
 62
3
100
AcDbLine
 10
265.5548612919964
 20
284.2398393461456
 30
0.0000000000000000
 11
265.5548612920086
 21
242.2398393462801
 31
0.0000000000000000
  0
LINE
  5
349
100
AcDbEntity
  8
MAIN0
  6
CONTINUOUS
 62
3
100
AcDbLine
 10
265.5548612919964
 20
284.2398393460354
 30
0.0000000000000000
 11
263.0548612919957
 21
286.7398393460390
 31
0.0000000000000000
  0
LINE
  5
34A
100
AcDbEntity
  8
MAIN0
  6
CONTINUOUS
 62
3
100
AcDbLine
 10
228.5548612920104
 20
174.7398393460078
 30
0.0000000000000000
 11
228.5548612920106
 21
284.7398393461534
 31
0.0000000000000000
  0
LINE
  5
34B
100
AcDbEntity
  8
MAIN0
  6
CONTINUOUS
 62
3
100
AcDbLine
 10
230.5548612920107
 20
286.7398393461534
 30
0.0000000000000000
 11
228.5548612920107
 21
284.7398393461534
 31
0.0000000000000000
  0
LINE
  5
34C
100
AcDbEntity
  8
MAIN0
  6
CONTINUOUS
 62
3
100
AcDbLine
 10
230.5548612920104
 20
172.7398393460078
 30
0.0000000000000000
 11
228.5548612920104
 21
174.7398393460078
 31
0.0000000000000000
  0
LINE
  5
34D
100
AcDbEntity
  8
MAIN0
  6
CENTER
 62
3
100
AcDbLine
 10
243.6576032561921
 20
176.2398393462802
 30
0.0000000000000000
 11
251.5040823469772
 21
176.2398393462802
 31
0.0000000000000000
  0
CIRCLE
  5
34E
100
AcDbEntity
  8
MAIN0
  6
CONTINUOUS
 62
3
100
AcDbCircle
 10
247.5548612920104
 20
176.2398393462802
 30
0.0000000000000000
 40
1.500000000000000
  0
CIRCLE
  5
34F
100
AcDbEntity
  8
MAIN0
  6
CONTINUOUS
 62
3
100
AcDbCircle
 10
247.5548612920104
 20
176.2398393462802
 30
0.0000000000000000
 40
1.250000000000000
  0
LINE
  5
350
100
AcDbEntity
  8
MAIN0
  6
CENTER
 62
3
100
AcDbLine
 10
243.6576032561921
 20
283.2398393462801
 30
0.0000000000000000
 11
251.5040823469772
 21
283.2398393462801
 31
0.0000000000000000
  0
CIRCLE
  5
351
100
AcDbEntity
  8
MAIN0
  6
CONTINUOUS
 62
3
100
AcDbCircle
 10
247.5548612920104
 20
283.2398393462801
 30
0.0000000000000000
 40
1.500000000000000
  0
CIRCLE
  5
352
100
AcDbEntity
  8
MAIN0
  6
CONTINUOUS
 62
3
100
AcDbCircle
 10
247.5548612920104
 20
283.2398393462801
 30
0.0000000000000000
 40
1.250000000000000
  0
CIRCLE
  5
353
100
AcDbEntity
  8
MAIN0
  6
CONTINUOUS
 62
3
100
AcDbCircle
 10
259.0548612920106
 20
178.7398393462802
 30
0.0000000000000000
 40
4.750000000000000
  0
LINE
  5
354
100
AcDbEntity
  8
MAIN0
  6
CONTINUOUS
 62
3
100
AcDbLine
 10
260.7869120995795
 20
178.7398393462802
 30
0.0000000000000000
 11
259.9208866957950
 21
180.2398393462802
 31
0.0000000000000000
  0
LINE
  5
355
100
AcDbEntity
  8
MAIN0
  6
CONTINUOUS
 62
3
100
AcDbLine
 10
259.9208866957950
 20
180.2398393462802
 30
0.0000000000000000
 11
258.1888358882262
 21
180.2398393462802
 31
0.0000000000000000
  0
LINE
  5
356
100
AcDbEntity
  8
MAIN0
  6
CONTINUOUS
 62
3
100
AcDbLine
 10
258.1888358882262
 20
180.2398393462802
 30
0.0000000000000000
 11
257.3228104844417
 21
178.7398393462802
 31
0.0000000000000000
  0
LINE
  5
357
100
AcDbEntity
  8
MAIN0
  6
CONTINUOUS
 62
3
100
AcDbLine
 10
257.3228104844417
 20
178.7398393462802
 30
0.0000000000000000
 11
258.1888358882261
 21
177.2398393462802
 31
0.0000000000000000
  0
LINE
  5
358
100
AcDbEntity
  8
MAIN0
  6
CONTINUOUS
 62
3
100
AcDbLine
 10
258.1888358882262
 20
177.2398393462802
 30
0.0000000000000000
 11
259.9208866957950
 21
177.2398393462802
 31
0.0000000000000000
  0
LINE
  5
359
100
AcDbEntity
  8
MAIN0
  6
CONTINUOUS
 62
3
100
AcDbLine
 10
259.9208866957950
 20
177.2398393462802
 30
0.0000000000000000
 11
260.7869120995795
 21
178.7398393462802
 31
0.0000000000000000
  0
CIRCLE
  5
35A
100
AcDbEntity
  8
MAIN0
  6
CONTINUOUS
 62
3
100
AcDbCircle
 10
236.0548612920103
 20
178.7398393462802
 30
0.0000000000000000
 40
4.750000000000000
  0
LINE
  5
35B
100
AcDbEntity
  8
MAIN0
  6
CONTINUOUS
 62
3
100
AcDbLine
 10
237.7869120995792
 20
178.7398393462802
 30
0.0000000000000000
 11
236.9208866957947
 21
180.2398393462803
 31
0.0000000000000000
  0
LINE
  5
35C
100
AcDbEntity
  8
MAIN0
  6
CONTINUOUS
 62
3
100
AcDbLine
 10
236.9208866957947
 20
180.2398393462802
 30
0.0000000000000000
 11
235.1888358882258
 21
180.2398393462802
 31
0.0000000000000000
  0
LINE
  5
35D
100
AcDbEntity
  8
MAIN0
  6
CONTINUOUS
 62
3
100
AcDbLine
 10
235.1888358882258
 20
180.2398393462802
 30
0.0000000000000000
 11
234.3228104844414
 21
178.7398393462802
 31
0.0000000000000000
  0
LINE
  5
35E
100
AcDbEntity
  8
MAIN0
  6
CONTINUOUS
 62
3
100
AcDbLine
 10
234.3228104844414
 20
178.7398393462803
 30
0.0000000000000000
 11
235.1888358882258
 21
177.2398393462803
 31
0.0000000000000000
  0
LINE
  5
35F
100
AcDbEntity
  8
MAIN0
  6
CONTINUOUS
 62
3
100
AcDbLine
 10
235.1888358882258
 20
177.2398393462802
 30
0.0000000000000000
 11
236.9208866957947
 21
177.2398393462802
 31
0.0000000000000000
  0
LINE
  5
360
100
AcDbEntity
  8
MAIN0
  6
CONTINUOUS
 62
3
100
AcDbLine
 10
236.9208866957947
 20
177.2398393462802
 30
0.0000000000000000
 11
237.7869120995791
 21
178.7398393462802
 31
0.0000000000000000
  0
CIRCLE
  5
361
100
AcDbEntity
  8
MAIN0
  6
CONTINUOUS
 62
3
100
AcDbCircle
 10
236.0548612920107
 20
280.7398393462804
 30
0.0000000000000000
 40
4.750000000000000
  0
LINE
  5
362
100
AcDbEntity
  8
MAIN0
  6
CONTINUOUS
 62
3
100
AcDbLine
 10
237.7869120995796
 20
280.7398393462804
 30
0.0000000000000000
 11
236.9208866957952
 21
282.2398393462804
 31
0.0000000000000000
  0
LINE
  5
363
100
AcDbEntity
  8
MAIN0
  6
CONTINUOUS
 62
3
100
AcDbLine
 10
236.9208866957951
 20
282.2398393462804
 30
0.0000000000000000
 11
235.1888358882263
 21
282.2398393462804
 31
0.0000000000000000
  0
LINE
  5
364
100
AcDbEntity
  8
MAIN0
  6
CONTINUOUS
 62
3
100
AcDbLine
 10
235.1888358882263
 20
282.2398393462804
 30
0.0000000000000000
 11
234.3228104844418
 21
280.7398393462804
 31
0.0000000000000000
  0
LINE
  5
365
100
AcDbEntity
  8
MAIN0
  6
CONTINUOUS
 62
3
100
AcDbLine
 10
234.3228104844419
 20
280.7398393462804
 30
0.0000000000000000
 11
235.1888358882263
 21
279.2398393462804
 31
0.0000000000000000
  0
LINE
  5
366
100
AcDbEntity
  8
MAIN0
  6
CONTINUOUS
 62
3
100
AcDbLine
 10
235.1888358882263
 20
279.2398393462804
 30
0.0000000000000000
 11
236.9208866957951
 21
279.2398393462804
 31
0.0000000000000000
  0
LINE
  5
367
100
AcDbEntity
  8
MAIN0
  6
CONTINUOUS
 62
3
100
AcDbLine
 10
236.9208866957951
 20
279.2398393462804
 30
0.0000000000000000
 11
237.7869120995796
 21
280.7398393462804
 31
0.0000000000000000
  0
CIRCLE
  5
368
100
AcDbEntity
  8
MAIN0
  6
CONTINUOUS
 62
3
100
AcDbCircle
 10
259.0548612920106
 20
280.7398393462802
 30
0.0000000000000000
 40
4.750000000000000
  0
LINE
  5
369
100
AcDbEntity
  8
MAIN0
  6
CONTINUOUS
 62
3
100
AcDbLine
 10
260.7869120995795
 20
280.7398393462802
 30
0.0000000000000000
 11
259.9208866957950
 21
282.2398393462803
 31
0.0000000000000000
  0
LINE
  5
36A
100
AcDbEntity
  8
MAIN0
  6
CONTINUOUS
 62
3
100
AcDbLine
 10
259.9208866957950
 20
282.2398393462802
 30
0.0000000000000000
 11
258.1888358882262
 21
282.2398393462802
 31
0.0000000000000000
  0
LINE
  5
36B
100
AcDbEntity
  8
MAIN0
  6
CONTINUOUS
 62
3
100
AcDbLine
 10
258.1888358882261
 20
282.2398393462802
 30
0.0000000000000000
 11
257.3228104844417
 21
280.7398393462802
 31
0.0000000000000000
  0
LINE
  5
36C
100
AcDbEntity
  8
MAIN0
  6
CONTINUOUS
 62
3
100
AcDbLine
 10
257.3228104844417
 20
280.7398393462802
 30
0.0000000000000000
 11
258.1888358882262
 21
279.2398393462802
 31
0.0000000000000000
  0
LINE
  5
36D
100
AcDbEntity
  8
MAIN0
  6
CONTINUOUS
 62
3
100
AcDbLine
 10
258.1888358882262
 20
279.2398393462802
 30
0.0000000000000000
 11
259.9208866957950
 21
279.2398393462802
 31
0.0000000000000000
  0
LINE
  5
36E
100
AcDbEntity
  8
MAIN0
  6
CONTINUOUS
 62
3
100
AcDbLine
 10
259.9208866957950
 20
279.2398393462802
 30
0.0000000000000000
 11
260.7869120995795
 21
280.7398393462802
 31
0.0000000000000000
  0
LINE
  5
36F
100
AcDbEntity
  8
MAIN0
  6
CONTINUOUS
 62
3
100
AcDbLine
 10
245.8548612919947
 20
169.5675175758897
 30
0.0000000000000000
 11
269.0548612919947
 21
169.5675175758897
 31
0.0000000000000000
  0
LINE
  5
370
100
AcDbEntity
  8
MAIN0
  6
CONTINUOUS
 62
3
100
AcDbLine
 10
268.0548612920041
 20
202.0675175757733
 30
0.0000000000000000
 11
269.0548612920040
 21
202.0675175757733
 31
0.0000000000000000
  0
LINE
  5
371
100
AcDbEntity
  8
MAIN0
  6
CONTINUOUS
 62
3
100
AcDbLine
 10
269.0548612919947
 20
169.5675175758897
 30
0.0000000000000000
 11
269.0548612920041
 21
202.0675175757733
 31
0.0000000000000000
  0
LINE
  5
372
100
AcDbEntity
  8
MAIN0
  6
CONTINUOUS
 62
3
100
AcDbLine
 10
257.0548612919947
 20
169.5675175758932
 30
0.0000000000000000
 11
257.0548612919947
 21
169.7398393464943
 31
0.0000000000000000
  0
LINE
  5
373
100
AcDbEntity
  8
MAIN0
  6
CONTINUOUS
 62
3
100
AcDbLine
 10
245.8548612919947
 20
169.5675175758964
 30
0.0000000000000000
 11
245.8548612919947
 21
169.7398393464881
 31
0.0000000000000000
  0
LINE
  5
374
100
AcDbEntity
  8
MAIN0
  6
CONTINUOUS
 62
3
100
AcDbLine
 10
269.0548612920181
 20
181.0675175756843
 30
0.0000000000000000
 11
273.0548612920125
 21
181.0675175756854
 31
0.0000000000000000
  0
LINE
  5
375
100
AcDbEntity
  8
MAIN0
  6
CONTINUOUS
 62
3
100
AcDbLine
 10
269.0548612920181
 20
171.0675175756569
 30
0.0000000000000000
 11
273.0548612920096
 21
171.0675175756569
 31
0.0000000000000000
  0
LINE
  5
376
100
AcDbEntity
  8
MAIN0
  6
CONTINUOUS
 62
3
100
AcDbLine
 10
273.0548612920096
 20
171.0675175756569
 30
0.0000000000000000
 11
273.0548612920125
 21
181.0675175756854
 31
0.0000000000000000
  0
LINE
  5
377
100
AcDbEntity
  8
MAIN0
  6
CONTINUOUS
 62
3
100
AcDbLine
 10
269.0548612920182
 20
201.0675175756843
 30
0.0000000000000000
 11
273.0548612920350
 21
201.0675175756854
 31
0.0000000000000000
  0
LINE
  5
378
100
AcDbEntity
  8
MAIN0
  6
CONTINUOUS
 62
3
100
AcDbLine
 10
269.0548612920154
 20
191.0675175757733
 30
0.0000000000000000
 11
273.0548612920350
 21
191.0675175757733
 31
0.0000000000000000
  0
LINE
  5
379
100
AcDbEntity
  8
MAIN0
  6
CONTINUOUS
 62
3
100
AcDbLine
 10
273.0548612920350
 20
201.0675175756854
 30
0.0000000000000000
 11
273.0548612920350
 21
191.0675175757733
 31
0.0000000000000000
  0
LINE
  5
37A
100
AcDbEntity
  8
MAIN0
  6
CENTER
 62
3
100
AcDbLine
 10
274.2817995602416
 20
196.0675175757445
 30
0.0000000000000000
 11
267.0002857141919
 21
196.0675175757465
 31
0.0000000000000000
  0
LINE
  5
37B
100
AcDbEntity
  8
MAIN0
  6
CENTER
 62
3
100
AcDbLine
 10
267.0002857141864
 20
176.0675175756569
 30
0.0000000000000000
 11
274.2817995602360
 21
176.0675175756569
 31
0.0000000000000000
  0
LINE
  5
37C
100
AcDbEntity
  8
MAIN0
  6
CONTINUOUS
 62
3
100
AcDbLine
 10
245.8548612920447
 20
289.9121611165903
 30
0.0000000000000000
 11
269.0548612920447
 21
289.9121611165709
 31
0.0000000000000000
  0
LINE
  5
37D
100
AcDbEntity
  8
MAIN0
  6
CONTINUOUS
 62
3
100
AcDbLine
 10
268.0548612920271
 20
257.4121611166882
 30
0.0000000000000000
 11
269.0548612920271
 21
257.4121611166873
 31
0.0000000000000000
  0
LINE
  5
37E
100
AcDbEntity
  8
MAIN0
  6
CONTINUOUS
 62
3
100
AcDbLine
 10
269.0548612920447
 20
289.9121611165709
 30
0.0000000000000000
 11
269.0548612920271
 21
257.4121611166873
 31
0.0000000000000000
  0
LINE
  5
37F
100
AcDbEntity
  8
MAIN0
  6
CONTINUOUS
 62
3
100
AcDbLine
 10
257.0548612920447
 20
289.9121611165775
 30
0.0000000000000000
 11
257.0548612920446
 21
289.7398393459763
 31
0.0000000000000000
  0
LINE
  5
380
100
AcDbEntity
  8
MAIN0
  6
CONTINUOUS
 62
3
100
AcDbLine
 10
245.8548612920447
 20
289.9121611165836
 30
0.0000000000000000
 11
245.8548612920446
 21
289.7398393459919
 31
0.0000000000000000
  0
LINE
  5
381
100
AcDbEntity
  8
MAIN0
  6
CONTINUOUS
 62
3
100
AcDbLine
 10
269.0548612920586
 20
278.4121611167764
 30
0.0000000000000000
 11
273.0548612920529
 21
278.4121611167720
 31
0.0000000000000000
  0
LINE
  5
382
100
AcDbEntity
  8
MAIN0
  6
CONTINUOUS
 62
3
100
AcDbLine
 10
269.0548612920670
 20
288.4121611168038
 30
0.0000000000000000
 11
273.0548612920584
 21
288.4121611168005
 31
0.0000000000000000
  0
LINE
  5
383
100
AcDbEntity
  8
MAIN0
  6
CONTINUOUS
 62
3
100
AcDbLine
 10
273.0548612920584
 20
288.4121611168005
 30
0.0000000000000000
 11
273.0548612920530
 21
278.4121611167719
 31
0.0000000000000000
  0
LINE
  5
384
100
AcDbEntity
  8
MAIN0
  6
CONTINUOUS
 62
3
100
AcDbLine
 10
269.0548612920421
 20
258.4121611167764
 30
0.0000000000000000
 11
273.0548612920588
 21
258.4121611167720
 31
0.0000000000000000
  0
LINE
  5
385
100
AcDbEntity
  8
MAIN0
  6
CONTINUOUS
 62
3
100
AcDbLine
 10
269.0548612920476
 20
268.4121611166873
 30
0.0000000000000000
 11
273.0548612920671
 21
268.4121611166841
 31
0.0000000000000000
  0
LINE
  5
386
100
AcDbEntity
  8
MAIN0
  6
CONTINUOUS
 62
3
100
AcDbLine
 10
273.0548612920588
 20
258.4121611167720
 30
0.0000000000000000
 11
273.0548612920671
 21
268.4121611166841
 31
0.0000000000000000
  0
LINE
  5
387
100
AcDbEntity
  8
MAIN0
  6
CENTER
 62
3
100
AcDbLine
 10
274.2817995602695
 20
263.4121611167118
 30
0.0000000000000000
 11
267.0002857142199
 21
263.4121611167159
 31
0.0000000000000000
  0
LINE
  5
388
100
AcDbEntity
  8
MAIN0
  6
CENTER
 62
3
100
AcDbLine
 10
267.0002857142310
 20
283.4121611168055
 30
0.0000000000000000
 11
274.2817995602807
 21
283.4121611167994
 31
0.0000000000000000
  0
LINE
  5
389
100
AcDbEntity
  8
MAIN0
  6
CONTINUOUS
 62
3
100
AcDbLine
 10
320.2548612917686
 20
97.23983934611084
 30
0.0000000000000000
 11
325.8548612917686
 21
97.23983934611084
 31
0.0000000000000000
  0
LINE
  5
38A
100
AcDbEntity
  8
MAIN0
  6
CONTINUOUS
 62
3
100
AcDbLine
 10
320.0548612917686
 20
94.73983934611084
 30
0.0000000000000000
 11
326.0548612917686
 21
94.73983934611084
 31
0.0000000000000000
  0
LINE
  5
38B
100
AcDbEntity
  8
MAIN0
  6
CONTINUOUS
 62
3
100
AcDbLine
 10
320.2548612917686
 20
60.23983934611084
 30
0.0000000000000000
 11
325.8548612917686
 21
60.23983934611084
 31
0.0000000000000000
  0
LINE
  5
38C
100
AcDbEntity
  8
MAIN0
  6
CONTINUOUS
 62
3
100
AcDbLine
 10
320.0548612917686
 20
62.23983934611084
 30
0.0000000000000000
 11
326.0548612917686
 21
62.23983934611084
 31
0.0000000000000000
  0
LINE
  5
38D
100
AcDbEntity
  8
MAIN0
  6
CONTINUOUS
 62
3
100
AcDbLine
 10
320.0548612917686
 20
60.43983934611083
 30
0.0000000000000000
 11
320.0548612917686
 21
97.03983934611082
 31
0.0000000000000000
  0
LINE
  5
38E
100
AcDbEntity
  8
MAIN0
  6
CONTINUOUS
 62
3
100
AcDbLine
 10
326.0548612917686
 20
60.43983934611083
 30
0.0000000000000000
 11
326.0548612917686
 21
97.03983934611085
 31
0.0000000000000000
  0
LINE
  5
38F
100
AcDbEntity
  8
MAIN0
  6
CONTINUOUS
 62
3
100
AcDbLine
 10
320.0548612917686
 20
60.43983934611086
 30
0.0000000000000000
 11
320.2548612917686
 21
60.23983934611087
 31
0.0000000000000000
  0
LINE
  5
390
100
AcDbEntity
  8
MAIN0
  6
CONTINUOUS
 62
3
100
AcDbLine
 10
325.8548612917687
 20
60.23983934611087
 30
0.0000000000000000
 11
326.0548612917687
 21
60.43983934611086
 31
0.0000000000000000
  0
LINE
  5
391
100
AcDbEntity
  8
MAIN0
  6
CONTINUOUS
 62
3
100
AcDbLine
 10
326.0548612917686
 20
97.03983934611091
 30
0.0000000000000000
 11
325.8548612917686
 21
97.23983934611090
 31
0.0000000000000000
  0
LINE
  5
392
100
AcDbEntity
  8
MAIN0
  6
CONTINUOUS
 62
3
100
AcDbLine
 10
320.2548612917686
 20
97.23983934611087
 30
0.0000000000000000
 11
320.0548612917686
 21
97.03983934611085
 31
0.0000000000000000
  0
LINE
  5
393
100
AcDbEntity
  8
MAIN0
  6
CONTINUOUS
 62
3
100
AcDbLine
 10
320.2548612918948
 20
347.4121611167835
 30
0.0000000000000000
 11
325.8548612918949
 21
347.4121611167710
 31
0.0000000000000000
  0
LINE
  5
394
100
AcDbEntity
  8
MAIN0
  6
CONTINUOUS
 62
3
100
AcDbLine
 10
320.0548612919004
 20
349.9121611167839
 30
0.0000000000000000
 11
326.0548612919004
 21
349.9121611167706
 31
0.0000000000000000
  0
LINE
  5
395
100
AcDbEntity
  8
MAIN0
  6
CONTINUOUS
 62
3
100
AcDbLine
 10
320.2548612919769
 20
384.4121611167834
 30
0.0000000000000000
 11
325.8548612919769
 21
384.4121611167710
 31
0.0000000000000000
  0
LINE
  5
396
100
AcDbEntity
  8
MAIN0
  6
CONTINUOUS
 62
3
100
AcDbLine
 10
320.0548612919724
 20
382.4121611167839
 30
0.0000000000000000
 11
326.0548612919724
 21
382.4121611167706
 31
0.0000000000000000
  0
LINE
  5
397
100
AcDbEntity
  8
MAIN0
  6
CONTINUOUS
 62
3
100
AcDbLine
 10
320.0548612919765
 20
384.2121611167839
 30
0.0000000000000000
 11
320.0548612918953
 21
347.6121611167839
 31
0.0000000000000000
  0
LINE
  5
398
100
AcDbEntity
  8
MAIN0
  6
CONTINUOUS
 62
3
100
AcDbLine
 10
326.0548612919765
 20
384.2121611167706
 30
0.0000000000000000
 11
326.0548612918953
 21
347.6121611167706
 31
0.0000000000000000
  0
LINE
  5
399
100
AcDbEntity
  8
MAIN0
  6
CONTINUOUS
 62
3
100
AcDbLine
 10
320.0548612919765
 20
384.2121611167839
 30
0.0000000000000000
 11
320.2548612919769
 21
384.4121611167834
 31
0.0000000000000000
  0
LINE
  5
39A
100
AcDbEntity
  8
MAIN0
  6
CONTINUOUS
 62
3
100
AcDbLine
 10
325.8548612919769
 20
384.4121611167710
 30
0.0000000000000000
 11
326.0548612919765
 21
384.2121611167706
 31
0.0000000000000000
  0
LINE
  5
39B
100
AcDbEntity
  8
MAIN0
  6
CONTINUOUS
 62
3
100
AcDbLine
 10
326.0548612918954
 20
347.6121611167705
 30
0.0000000000000000
 11
325.8548612918949
 21
347.4121611167710
 31
0.0000000000000000
  0
LINE
  5
39C
100
AcDbEntity
  8
MAIN0
  6
CONTINUOUS
 62
3
100
AcDbLine
 10
320.2548612918949
 20
347.4121611167834
 30
0.0000000000000000
 11
320.0548612918954
 21
347.6121611167839
 31
0.0000000000000000
  0
LINE
  5
39D
100
AcDbEntity
  8
MAIN0
  6
CONTINUOUS
 62
3
100
AcDbLine
 10
326.0548612919901
 20
384.9121611167707
 30
0.0000000000000000
 11
414.5548612922584
 21
384.9121611166726
 31
0.0000000000000000
  0
LINE
  5
39E
100
AcDbEntity
  8
MAIN0
  6
CONTINUOUS
 62
3
100
AcDbLine
 10
415.5548612921585
 20
346.9121611166714
 30
0.0000000000000000
 11
415.5548612922558
 21
383.9121611166713
 31
0.0000000000000000
  0
LINE
  5
39F
100
AcDbEntity
  8
MAIN0
  6
CONTINUOUS
 62
3
100
AcDbLine
 10
326.0548612918710
 20
342.9121611167707
 30
0.0000000000000000
 11
326.0548612919901
 21
384.9121611167707
 31
0.0000000000000000
  0
LINE
  5
3A0
100
AcDbEntity
  8
MAIN0
  6
CONTINUOUS
 62
3
100
AcDbLine
 10
415.5548612922557
 20
383.9121611166714
 30
0.0000000000000000
 11
414.5548612922582
 21
384.9121611166726
 31
0.0000000000000000
  0
LINE
  5
3A1
100
AcDbEntity
  8
MAIN0
  6
CONTINUOUS
 62
3
100
AcDbLine
 10
381.3048612920804
 20
345.3121611167094
 30
0.0000000000000000
 11
381.3048612921008
 21
355.5121611167197
 31
0.0000000000000000
  0
LINE
  5
3A2
100
AcDbEntity
  8
MAIN0
  6
CONTINUOUS
 62
3
100
AcDbLine
 10
380.9048612921017
 20
355.9121611167206
 30
0.0000000000000000
 11
377.5548612921016
 21
355.9121611167280
 31
0.0000000000000000
  0
LINE
  5
3A3
100
AcDbEntity
  8
MAIN0
  6
CONTINUOUS
 62
3
100
AcDbLine
 10
377.2548612921022
 20
356.2121611167288
 30
0.0000000000000000
 11
377.2548612921349
 21
366.8121611167290
 31
0.0000000000000000
  0
LINE
  5
3A4
100
AcDbEntity
  8
MAIN0
  6
CONTINUOUS
 62
3
100
AcDbLine
 10
403.8548612921023
 20
356.2121611166696
 30
0.0000000000000000
 11
403.8548612921351
 21
366.8121611166698
 31
0.0000000000000000
  0
LINE
  5
3A5
100
AcDbEntity
  8
MAIN0
  6
CONTINUOUS
 62
3
100
AcDbLine
 10
400.2048612921017
 20
355.9121611166778
 30
0.0000000000000000
 11
403.5548612921017
 21
355.9121611166704
 31
0.0000000000000000
  0
LINE
  5
3A6
100
AcDbEntity
  8
MAIN0
  6
CONTINUOUS
 62
3
100
AcDbLine
 10
399.8048612920804
 20
345.3121611166890
 30
0.0000000000000000
 11
399.8048612921008
 21
355.5121611166788
 31
0.0000000000000000
  0
LINE
  5
3A7
100
AcDbEntity
  8
MAIN0
  6
CONTINUOUS
 62
3
100
AcDbLine
 10
367.5548612919463
 20
344.9121611167248
 30
0.0000000000000000
 11
380.9048612920795
 21
344.9121611167100
 31
0.0000000000000000
  0
LINE
  5
3A8
100
AcDbEntity
  8
MAIN0
  6
CONTINUOUS
 62
3
100
AcDbLine
 10
400.2048612920796
 20
344.9121611166885
 30
0.0000000000000000
 11
413.5548612921531
 21
344.9121611166736
 31
0.0000000000000000
  0
LINE
  5
3A9
100
AcDbEntity
  8
MAIN0
  6
CONTINUOUS
 62
3
100
AcDbLine
 10
380.9048612921019
 20
355.9121611167207
 30
0.0000000000000000
 11
381.3048612921010
 21
355.5121611167198
 31
0.0000000000000000
  0
LINE
  5
3AA
100
AcDbEntity
  8
MAIN0
  6
CONTINUOUS
 62
3
100
AcDbLine
 10
400.2048612920795
 20
344.9121611166884
 30
0.0000000000000000
 11
399.8048612920804
 21
345.3121611166888
 31
0.0000000000000000
  0
LINE
  5
3AB
100
AcDbEntity
  8
MAIN0
  6
CONTINUOUS
 62
3
100
AcDbLine
 10
381.3048612920804
 20
345.3121611167093
 30
0.0000000000000000
 11
380.9048612920795
 21
344.9121611167099
 31
0.0000000000000000
  0
LINE
  5
3AC
100
AcDbEntity
  8
MAIN0
  6
CONTINUOUS
 62
3
100
AcDbLine
 10
400.2048612921017
 20
355.9121611166778
 30
0.0000000000000000
 11
399.8048612921008
 21
355.5121611166787
 31
0.0000000000000000
  0
ARC
  5
3AD
100
AcDbEntity
  8
MAIN0
  6
CONTINUOUS
 62
3
100
AcDbCircle
 10
403.5548612921351
 20
366.8121611166705
 30
0.0000000000000000
 40
0.3000000000000000
100
AcDbArc
 50
0.0000000000000000
 51
90.00000000000000
  0
ARC
  5
3AE
100
AcDbEntity
  8
MAIN0
  6
CONTINUOUS
 62
3
100
AcDbCircle
 10
403.5548612921024
 20
356.2121611166704
 30
0.0000000000000000
 40
0.3000000000000000
100
AcDbArc
 50
270.0000000000000
 51
360.0000000000000
  0
ARC
  5
3AF
100
AcDbEntity
  8
MAIN0
  6
CONTINUOUS
 62
3
100
AcDbCircle
 10
377.5548612921351
 20
366.8121611167283
 30
0.0000000000000000
 40
0.3000000000000000
100
AcDbArc
 50
90.00000000000000
 51
180.0000000000000
  0
ARC
  5
3B0
100
AcDbEntity
  8
MAIN0
  6
CONTINUOUS
 62
3
100
AcDbCircle
 10
377.5548612921023
 20
356.2121611167280
 30
0.0000000000000000
 40
0.3000000000000000
100
AcDbArc
 50
180.0000000000000
 51
270.0000000000000
  0
LINE
  5
3B1
100
AcDbEntity
  8
MAIN0
  6
CONTINUOUS
 62
3
100
AcDbLine
 10
381.8048612920396
 20
367.1121611167382
 30
0.0000000000000000
 11
381.8048612920400
 21
367.2121611167381
 31
0.0000000000000000
  0
LINE
  5
3B2
100
AcDbEntity
  8
MAIN0
  6
CONTINUOUS
 62
3
100
AcDbLine
 10
399.3048612920396
 20
367.1121611166605
 30
0.0000000000000000
 11
399.3048612920400
 21
367.2121611166605
 31
0.0000000000000000
  0
LINE
  5
3B3
100
AcDbEntity
  8
MAIN0
  6
CONTINUOUS
 62
3
100
AcDbLine
 10
377.5548612921357
 20
367.1121611167281
 30
0.0000000000000000
 11
381.8048612920396
 21
367.1121611167187
 31
0.0000000000000000
  0
LINE
  5
3B4
100
AcDbEntity
  8
MAIN0
  6
CONTINUOUS
 62
3
100
AcDbLine
 10
399.3048612920396
 20
367.1121611166799
 30
0.0000000000000000
 11
403.5548612921357
 21
367.1121611166705
 31
0.0000000000000000
  0
LINE
  5
3B5
100
AcDbEntity
  8
MAIN0
  6
HIDDEN
 62
3
100
AcDbLine
 10
393.9548612920385
 20
384.9121611166992
 30
0.0000000000000000
 11
393.5548612920384
 21
384.5121611166992
 31
0.0000000000000000
  0
LINE
  5
3B6
100
AcDbEntity
  8
MAIN0
  6
HIDDEN
 62
3
100
AcDbLine
 10
393.5548612920385
 20
384.5121611166992
 30
0.0000000000000000
 11
393.5548612920385
 21
374.9121611166992
 31
0.0000000000000000
  0
LINE
  5
3B7
100
AcDbEntity
  8
MAIN0
  6
HIDDEN
 62
3
100
AcDbLine
 10
393.5548612920385
 20
374.9121611166992
 30
0.0000000000000000
 11
387.5548612920385
 21
374.9121611166992
 31
0.0000000000000000
  0
LINE
  5
3B8
100
AcDbEntity
  8
MAIN0
  6
HIDDEN
 62
3
100
AcDbLine
 10
387.5548612920385
 20
374.9121611166992
 30
0.0000000000000000
 11
387.5548612920385
 21
384.5121611166992
 31
0.0000000000000000
  0
LINE
  5
3B9
100
AcDbEntity
  8
MAIN0
  6
HIDDEN
 62
3
100
AcDbLine
 10
387.5548612920387
 20
384.5121611166992
 30
0.0000000000000000
 11
387.1548612920386
 21
384.9121611166992
 31
0.0000000000000000
  0
LINE
  5
3BA
100
AcDbEntity
  8
MAIN0
  6
HIDDEN
 62
3
100
AcDbLine
 10
393.5548612920386
 20
374.9121611166991
 30
0.0000000000000000
 11
390.5548612920386
 21
373.1801103091302
 31
0.0000000000000000
  0
LINE
  5
3BB
100
AcDbEntity
  8
MAIN0
  6
HIDDEN
 62
3
100
AcDbLine
 10
390.5548612920385
 20
373.1801103091302
 30
0.0000000000000000
 11
387.5548612920385
 21
374.9121611166990
 31
0.0000000000000000
  0
LINE
  5
3BC
100
AcDbEntity
  8
MAIN0
  6
CONTINUOUS
 62
3
100
AcDbLine
 10
413.5548612921532
 20
344.9121611166737
 30
0.0000000000000000
 11
415.5548612921585
 21
346.9121611166715
 31
0.0000000000000000
  0
LINE
  5
3BD
100
AcDbEntity
  8
MAIN0
  6
CENTER
 62
3
100
AcDbLine
 10
401.4052888393357
 20
374.9121611166871
 30
0.0000000000000000
 11
418.1753181867250
 21
374.9121611166686
 31
0.0000000000000000
  0
LINE
  5
3BE
100
AcDbEntity
  8
MAIN0
  6
HIDDEN
 62
3
100
AcDbLine
 10
415.5548612922321
 20
370.3121611166714
 30
0.0000000000000000
 11
414.9548612922321
 21
370.9121611166714
 31
0.0000000000000000
  0
LINE
  5
3BF
100
AcDbEntity
  8
MAIN0
  6
HIDDEN
 62
3
100
AcDbLine
 10
414.9548612922321
 20
370.9121611166714
 30
0.0000000000000000
 11
405.5548612922322
 21
370.9121611166714
 31
0.0000000000000000
  0
LINE
  5
3C0
100
AcDbEntity
  8
MAIN0
  6
HIDDEN
 62
3
100
AcDbLine
 10
405.5548612922322
 20
370.9121611166714
 30
0.0000000000000000
 11
405.5548612922322
 21
378.9121611166714
 31
0.0000000000000000
  0
LINE
  5
3C1
100
AcDbEntity
  8
MAIN0
  6
HIDDEN
 62
3
100
AcDbLine
 10
405.5548612922322
 20
378.9121611166714
 30
0.0000000000000000
 11
414.9548612922321
 21
378.9121611166714
 31
0.0000000000000000
  0
LINE
  5
3C2
100
AcDbEntity
  8
MAIN0
  6
HIDDEN
 62
3
100
AcDbLine
 10
414.9548612922322
 20
378.9121611166714
 30
0.0000000000000000
 11
415.5548612922322
 21
379.5121611166715
 31
0.0000000000000000
  0
LINE
  5
3C3
100
AcDbEntity
  8
MAIN0
  6
HIDDEN
 62
3
100
AcDbLine
 10
405.5548612922322
 20
370.9121611166714
 30
0.0000000000000000
 11
403.2454602154737
 21
374.9121611166714
 31
0.0000000000000000
  0
LINE
  5
3C4
100
AcDbEntity
  8
MAIN0
  6
HIDDEN
 62
3
100
AcDbLine
 10
403.2454602154737
 20
374.9121611166714
 30
0.0000000000000000
 11
405.5548612922322
 21
378.9121611166714
 31
0.0000000000000000
  0
LINE
  5
3C5
100
AcDbEntity
  8
MAIN0
  6
CONTINUOUS
 62
3
100
AcDbLine
 10
381.8048612920400
 20
367.2121611167381
 30
0.0000000000000000
 11
399.3048612920400
 21
367.2121611166605
 31
0.0000000000000000
  0
LINE
  5
3C6
100
AcDbEntity
  8
MAIN0
  6
CONTINUOUS
 62
3
100
AcDbLine
 10
326.0548612917868
 20
342.9121611167707
 30
0.0000000000000000
 11
359.5548612911270
 21
342.9121611166592
 31
0.0000000000000000
  0
LINE
  5
3C7
100
AcDbEntity
  8
MAIN0
  6
CONTINUOUS
 62
3
100
AcDbLine
 10
359.5548612911270
 20
342.9121611166592
 30
0.0000000000000000
 11
359.5548612911370
 21
347.4121611166593
 31
0.0000000000000000
  0
LINE
  5
3C8
100
AcDbEntity
  8
MAIN0
  6
CONTINUOUS
 62
3
100
AcDbLine
 10
326.0548612918005
 20
347.4121611167707
 30
0.0000000000000000
 11
365.5548612919519
 21
347.4121611166393
 31
0.0000000000000000
  0
LINE
  5
3C9
100
AcDbEntity
  8
MAIN0
  6
CONTINUOUS
 62
3
100
AcDbLine
 10
365.5548612919508
 20
346.9121611166393
 30
0.0000000000000000
 11
365.5548612920351
 21
384.9121611167268
 31
0.0000000000000000
  0
LINE
  5
3CA
100
AcDbEntity
  8
MAIN0
  6
CONTINUOUS
 62
3
100
AcDbLine
 10
365.5548612919508
 20
346.9121611166394
 30
0.0000000000000000
 11
367.5548612919463
 21
344.9121611166327
 31
0.0000000000000000
  0
LINE
  5
3CB
100
AcDbEntity
  8
MAIN0
  6
CONTINUOUS
 62
3
100
AcDbLine
 10
326.0548612918088
 20
349.9121611167707
 30
0.0000000000000000
 11
365.5548612919602
 21
349.9121611166393
 31
0.0000000000000000
  0
LINE
  5
3CC
100
AcDbEntity
  8
MAIN0
  6
CONTINUOUS
 62
3
100
AcDbLine
 10
399.8048612919723
 20
343.9121611166992
 30
0.0000000000000000
 11
381.3048612919724
 21
343.9121611166992
 31
0.0000000000000000
  0
LINE
  5
3CD
100
AcDbEntity
  8
MAIN0
  6
CONTINUOUS
 62
3
100
AcDbLine
 10
377.4048612919723
 20
356.2121611166992
 30
0.0000000000000000
 11
377.4048612919723
 21
366.8121611166991
 31
0.0000000000000000
  0
LINE
  5
3CE
100
AcDbEntity
  8
MAIN0
  6
CONTINUOUS
 62
3
100
AcDbLine
 10
381.3048612919722
 20
343.9121611166992
 30
0.0000000000000000
 11
381.3048612919722
 21
355.8121611166991
 31
0.0000000000000000
  0
LINE
  5
3CF
100
AcDbEntity
  8
MAIN0
  6
CONTINUOUS
 62
3
100
AcDbLine
 10
381.2548612919723
 20
355.9121611166992
 30
0.0000000000000000
 11
377.7048612919723
 21
355.9121611166992
 31
0.0000000000000000
  0
LINE
  5
3D0
100
AcDbEntity
  8
MAIN0
  6
CONTINUOUS
 62
3
100
AcDbLine
 10
403.7048612919722
 20
356.2121611166992
 30
0.0000000000000000
 11
403.7048612919722
 21
366.8121611166991
 31
0.0000000000000000
  0
LINE
  5
3D1
100
AcDbEntity
  8
MAIN0
  6
CONTINUOUS
 62
3
100
AcDbLine
 10
399.8048612919722
 20
343.9121611166992
 30
0.0000000000000000
 11
399.8048612919722
 21
355.8121611166991
 31
0.0000000000000000
  0
LINE
  5
3D2
100
AcDbEntity
  8
MAIN0
  6
HIDDEN
 62
3
100
AcDbLine
 10
395.5548612919722
 20
345.9121611166992
 30
0.0000000000000000
 11
385.5548612919722
 21
345.9121611166992
 31
0.0000000000000000
  0
LINE
  5
3D3
100
AcDbEntity
  8
MAIN0
  6
HIDDEN
 62
3
100
AcDbLine
 10
387.2548612919723
 20
345.9121611166993
 30
0.0000000000000000
 11
388.0548612919723
 21
346.7121611166993
 31
0.0000000000000000
  0
LINE
  5
3D4
100
AcDbEntity
  8
MAIN0
  6
HIDDEN
 62
3
100
AcDbLine
 10
388.0548612919722
 20
346.7121611166992
 30
0.0000000000000000
 11
393.0548612919722
 21
346.7121611166992
 31
0.0000000000000000
  0
LINE
  5
3D5
100
AcDbEntity
  8
MAIN0
  6
HIDDEN
 62
3
100
AcDbLine
 10
393.0548612919723
 20
346.7121611166992
 30
0.0000000000000000
 11
393.8548612919724
 21
345.9121611166989
 31
0.0000000000000000
  0
LINE
  5
3D6
100
AcDbEntity
  8
MAIN0
  6
HIDDEN
 62
3
100
AcDbLine
 10
387.5548612919722
 20
346.2121611166992
 30
0.0000000000000000
 11
387.5548612919722
 21
355.9121611167167
 31
0.0000000000000000
  0
LINE
  5
3D7
100
AcDbEntity
  8
MAIN0
  6
HIDDEN
 62
3
100
AcDbLine
 10
393.5548612919722
 20
355.9121611167167
 30
0.0000000000000000
 11
393.5548612919722
 21
346.2121611166992
 31
0.0000000000000000
  0
LINE
  5
3D8
100
AcDbEntity
  8
MAIN0
  6
HIDDEN
 62
3
100
AcDbLine
 10
388.0548612919722
 20
346.7121611166992
 30
0.0000000000000000
 11
388.0548612919722
 21
358.4121611166933
 31
0.0000000000000000
  0
LINE
  5
3D9
100
AcDbEntity
  8
MAIN0
  6
HIDDEN
 62
3
100
AcDbLine
 10
393.0548612919722
 20
358.4121611166935
 30
0.0000000000000000
 11
393.0548612919722
 21
346.7121611166992
 31
0.0000000000000000
  0
LINE
  5
3DA
100
AcDbEntity
  8
MAIN0
  6
HIDDEN
 62
3
100
AcDbLine
 10
385.5548612919722
 20
343.9121611166992
 30
0.0000000000000000
 11
385.5548612919722
 21
345.9121611166992
 31
0.0000000000000000
  0
LINE
  5
3DB
100
AcDbEntity
  8
MAIN0
  6
HIDDEN
 62
3
100
AcDbLine
 10
395.5548612919722
 20
343.9121611166992
 30
0.0000000000000000
 11
395.5548612919722
 21
345.9121611166992
 31
0.0000000000000000
  0
ARC
  5
3DC
100
AcDbEntity
  8
MAIN0
  6
CONTINUOUS
 62
3
100
AcDbCircle
 10
381.2048612919722
 20
355.8121611166991
 30
0.0000000000000000
 40
0.1000000000000000
100
AcDbArc
 50
0.0000000000000000
 51
90.00000000000000
  0
ARC
  5
3DD
100
AcDbEntity
  8
MAIN0
  6
CONTINUOUS
 62
3
100
AcDbCircle
 10
399.9048612919722
 20
355.8121611166991
 30
0.0000000000000000
 40
0.1000000000000000
100
AcDbArc
 50
90.00000000000000
 51
180.0000000000000
  0
LINE
  5
3DE
100
AcDbEntity
  8
MAIN0
  6
CONTINUOUS
 62
3
100
AcDbLine
 10
403.4048612919723
 20
367.1121611166992
 30
0.0000000000000000
 11
377.7048612919723
 21
367.1121611166992
 31
0.0000000000000000
  0
LINE
  5
3DF
100
AcDbEntity
  8
MAIN0
  6
CENTER
 62
3
100
AcDbLine
 10
386.5924938970465
 20
361.2121611166994
 30
0.0000000000000000
 11
394.2267628457500
 21
361.2121611166994
 31
0.0000000000000000
  0
LINE
  5
3E0
100
AcDbEntity
  8
MAIN0
  6
CONTINUOUS
 62
3
100
AcDbLine
 10
377.7048612919723
 20
367.1121611166992
 30
0.0000000000000000
 11
377.4048612919723
 21
366.8121611166991
 31
0.0000000000000000
  0
LINE
  5
3E1
100
AcDbEntity
  8
MAIN0
  6
CONTINUOUS
 62
3
100
AcDbLine
 10
377.7048612919724
 20
355.9121611166992
 30
0.0000000000000000
 11
377.4048612919723
 21
356.2121611166992
 31
0.0000000000000000
  0
LINE
  5
3E2
100
AcDbEntity
  8
MAIN0
  6
CONTINUOUS
 62
3
100
AcDbLine
 10
403.4048612919723
 20
367.1121611166992
 30
0.0000000000000000
 11
403.7048612919723
 21
366.8121611166992
 31
0.0000000000000000
  0
LINE
  5
3E3
100
AcDbEntity
  8
MAIN0
  6
CONTINUOUS
 62
3
100
AcDbLine
 10
403.7048612919723
 20
356.2121611166992
 30
0.0000000000000000
 11
403.4048612919723
 21
355.9121611166992
 31
0.0000000000000000
  0
LINE
  5
3E4
100
AcDbEntity
  8
MAIN0
  6
HIDDEN
 62
3
100
AcDbLine
 10
387.5548612919722
 20
355.9121611167167
 30
0.0000000000000000
 11
393.5548612919722
 21
355.9121611167167
 31
0.0000000000000000
  0
LINE
  5
3E5
100
AcDbEntity
  8
MAIN0
  6
CONTINUOUS
 62
3
100
AcDbLine
 10
399.9048612919722
 20
355.9121611166992
 30
0.0000000000000000
 11
403.4048612919723
 21
355.9121611166992
 31
0.0000000000000000
  0
LINE
  5
3E6
100
AcDbEntity
  8
MAIN0
  6
HIDDEN
 62
3
100
AcDbLine
 10
388.0548612919723
 20
358.4121611166933
 30
0.0000000000000000
 11
389.4778283305618
 21
358.4121611166933
 31
0.0000000000000000
  0
LINE
  5
3E7
100
AcDbEntity
  8
MAIN0
  6
HIDDEN
 62
3
100
AcDbLine
 10
391.6318942533830
 20
358.4121611166934
 30
0.0000000000000000
 11
393.0548612919723
 21
358.4121611166935
 31
0.0000000000000000
  0
LINE
  5
3E8
100
AcDbEntity
  8
MAIN0
  6
HIDDEN
 62
3
100
AcDbLine
 10
392.3579818063694
 20
358.8145046753796
 30
0.0000000000000000
 11
393.0548612920072
 21
358.4121611167536
 31
0.0000000000000000
  0
LINE
  5
3E9
100
AcDbEntity
  8
MAIN0
  6
HIDDEN
 62
3
100
AcDbLine
 10
388.7517407775751
 20
358.8145046753796
 30
0.0000000000000000
 11
388.0548612919373
 21
358.4121611167536
 31
0.0000000000000000
  0
CIRCLE
  5
3EA
100
AcDbEntity
  8
MAIN0
  6
CONTINUOUS
 62
3
100
AcDbCircle
 10
390.5548612919722
 20
361.2121611166995
 30
0.0000000000000000
 40
1.500000000000000
  0
CIRCLE
  5
3EB
100
AcDbEntity
  8
MAIN0
  6
CONTINUOUS
 62
3
100
AcDbCircle
 10
390.5548612919722
 20
361.2121611166995
 30
0.0000000000000000
 40
1.229367000000000
  0
LINE
  5
3EC
100
AcDbEntity
  8
MAIN0
  6
CONTINUOUS
 62
3
100
AcDbLine
 10
391.4208866957567
 20
361.2121611166995
 30
0.0000000000000000
 11
390.9878739938645
 21
361.9621611166995
 31
0.0000000000000000
  0
LINE
  5
3ED
100
AcDbEntity
  8
MAIN0
  6
CONTINUOUS
 62
3
100
AcDbLine
 10
390.9878739938645
 20
361.9621611166995
 30
0.0000000000000000
 11
390.1218485900800
 21
361.9621611166995
 31
0.0000000000000000
  0
LINE
  5
3EE
100
AcDbEntity
  8
MAIN0
  6
CONTINUOUS
 62
3
100
AcDbLine
 10
390.1218485900801
 20
361.9621611166995
 30
0.0000000000000000
 11
389.6888358881878
 21
361.2121611166995
 31
0.0000000000000000
  0
LINE
  5
3EF
100
AcDbEntity
  8
MAIN0
  6
CONTINUOUS
 62
3
100
AcDbLine
 10
389.6888358881878
 20
361.2121611166995
 30
0.0000000000000000
 11
390.1218485900800
 21
360.4621611166995
 31
0.0000000000000000
  0
LINE
  5
3F0
100
AcDbEntity
  8
MAIN0
  6
CONTINUOUS
 62
3
100
AcDbLine
 10
390.1218485900800
 20
360.4621611166995
 30
0.0000000000000000
 11
390.9878739938645
 21
360.4621611166995
 31
0.0000000000000000
  0
LINE
  5
3F1
100
AcDbEntity
  8
MAIN0
  6
CONTINUOUS
 62
3
100
AcDbLine
 10
390.9878739938645
 20
360.4621611166995
 30
0.0000000000000000
 11
391.4208866957567
 21
361.2121611166995
 31
0.0000000000000000
  0
LINE
  5
3F2
100
AcDbEntity
  8
MAIN0
  6
CONTINUOUS
 62
3
100
AcDbLine
 10
395.5548612919724
 20
339.9121611166992
 30
0.0000000000000000
 11
385.5548612919721
 21
339.9121611166992
 31
0.0000000000000000
  0
LINE
  5
3F3
100
AcDbEntity
  8
MAIN0
  6
CONTINUOUS
 62
3
100
AcDbLine
 10
395.5548612919722
 20
343.9121611166992
 30
0.0000000000000000
 11
395.5548612919724
 21
339.9121611167009
 31
0.0000000000000000
  0
LINE
  5
3F4
100
AcDbEntity
  8
MAIN0
  6
CONTINUOUS
 62
3
100
AcDbLine
 10
385.5548612919722
 20
343.9121611166992
 30
0.0000000000000000
 11
385.5548612919721
 21
339.9121611167009
 31
0.0000000000000000
  0
LINE
  5
3F5
100
AcDbEntity
  8
MAIN0
  6
HIDDEN
 62
3
100
AcDbLine
 10
394.0548612919721
 20
345.9121611166992
 30
0.0000000000000000
 11
394.0548612919724
 21
339.9121611167009
 31
0.0000000000000000
  0
LINE
  5
3F6
100
AcDbEntity
  8
MAIN0
  6
HIDDEN
 62
3
100
AcDbLine
 10
387.0548612919723
 20
345.9121611166992
 30
0.0000000000000000
 11
387.0548612919721
 21
339.9121611167009
 31
0.0000000000000000
  0
LINE
  5
3F7
100
AcDbEntity
  8
MAIN0
  6
CONTINUOUS
 62
3
100
AcDbLine
 10
516.5548612920352
 20
169.7398393462163
 30
0.0000000000000000
 11
478.5548612915632
 21
169.7398393462375
 31
0.0000000000000000
  0
LINE
  5
3F8
100
AcDbEntity
  8
MAIN0
  6
CONTINUOUS
 62
3
100
AcDbLine
 10
516.5548612919881
 20
289.7398393462917
 30
0.0000000000000000
 11
478.5548612919870
 21
289.7398393462200
 31
0.0000000000000000
  0
LINE
  5
3F9
100
AcDbEntity
  8
MAIN0
  6
CONTINUOUS
 62
3
100
AcDbLine
 10
516.5548612920352
 20
169.7398393462174
 30
0.0000000000000000
 11
517.5548612920348
 21
170.7398393462168
 31
0.0000000000000000
  0
LINE
  5
3FA
100
AcDbEntity
  8
MAIN0
  6
CONTINUOUS
 62
3
100
AcDbLine
 10
478.5548612920036
 20
246.2398393459919
 30
0.0000000000000000
 11
477.5548612920036
 21
246.2398393459919
 31
0.0000000000000000
  0
LINE
  5
3FB
100
AcDbEntity
  8
MAIN0
  6
CONTINUOUS
 62
3
100
AcDbLine
 10
477.5548612920272
 20
170.7398393457740
 30
0.0000000000000000
 11
477.5548612920149
 21
213.2398393460000
 31
0.0000000000000000
  0
LINE
  5
3FC
100
AcDbEntity
  8
MAIN0
  6
CONTINUOUS
 62
3
100
AcDbLine
 10
477.5548612920275
 20
170.7398393457739
 30
0.0000000000000000
 11
478.5548612920277
 21
169.7398393457730
 31
0.0000000000000000
  0
ARC
  5
3FD
100
AcDbEntity
  8
MAIN0
  6
CONTINUOUS
 62
3
100
AcDbCircle
 10
473.8048612919603
 20
186.7398393471327
 30
0.0000000000000000
 40
4.750000000000000
100
AcDbArc
 50
322.1363536382028
 51
397.8636463616631
  0
LINE
  5
3FE
100
AcDbEntity
  8
MAIN0
  6
CONTINUOUS
 62
3
100
AcDbLine
 10
478.5548612920148
 20
213.2398393460008
 30
0.0000000000000000
 11
477.5548612920148
 21
213.2398393460001
 31
0.0000000000000000
  0
LINE
  5
3FF
100
AcDbEntity
  8
MAIN0
  6
CONTINUOUS
 62
3
100
AcDbLine
 10
517.5548612919885
 20
288.7398393462936
 30
0.0000000000000000
 11
516.5548612919881
 21
289.7398393462917
 31
0.0000000000000000
  0
LINE
  5
400
100
AcDbEntity
  8
MAIN0
  6
CONTINUOUS
 62
3
100
AcDbLine
 10
477.5548612920271
 20
288.7398393466859
 30
0.0000000000000000
 11
477.5548612920148
 21
246.2398393464599
 31
0.0000000000000000
  0
ARC
  5
401
100
AcDbEntity
  8
MAIN0
  6
CONTINUOUS
 62
3
100
AcDbCircle
 10
473.8048612919603
 20
272.7398393453271
 30
0.0000000000000000
 40
4.750000000000000
100
AcDbArc
 50
322.1363536383368
 51
397.8636463617972
  0
LINE
  5
402
100
AcDbEntity
  8
MAIN0
  6
CONTINUOUS
 62
3
100
AcDbLine
 10
477.5548612920273
 20
288.7398393466859
 30
0.0000000000000000
 11
478.5548612920276
 21
289.7398393466868
 31
0.0000000000000000
  0
LINE
  5
403
100
AcDbEntity
  8
MAIN0
  6
CONTINUOUS
 62
3
100
AcDbLine
 10
517.5548612919989
 20
262.2398393462300
 30
0.0000000000000000
 11
517.3548612919989
 21
262.2398393462300
 31
0.0000000000000000
  0
LINE
  5
404
100
AcDbEntity
  8
MAIN0
  6
CONTINUOUS
 62
3
100
AcDbLine
 10
517.5548612920244
 20
197.2398393462300
 30
0.0000000000000000
 11
517.3548612920243
 21
197.2398393462300
 31
0.0000000000000000
  0
LINE
  5
405
100
AcDbEntity
  8
MAIN0
  6
CONTINUOUS
 62
3
100
AcDbLine
 10
517.3548612919989
 20
262.2398393462300
 30
0.0000000000000000
 11
517.3548612920243
 21
197.2398393462300
 31
0.0000000000000000
  0
LINE
  5
406
100
AcDbEntity
  8
MAIN0
  6
CONTINUOUS
 62
3
100
AcDbLine
 10
517.5548612919885
 20
288.7398393462937
 30
0.0000000000000000
 11
517.5548612919989
 21
262.2398393462300
 31
0.0000000000000000
  0
LINE
  5
407
100
AcDbEntity
  8
MAIN0
  6
CONTINUOUS
 62
3
100
AcDbLine
 10
517.5548612920243
 20
197.2398393462300
 30
0.0000000000000000
 11
517.5548612920347
 21
170.7398393462169
 31
0.0000000000000000
  0
LINE
  5
408
100
AcDbEntity
  8
MAIN0
  6
CONTINUOUS
 62
3
100
AcDbLine
 10
478.5548612920036
 20
246.2398393459919
 30
0.0000000000000000
 11
478.5548612920148
 21
213.2398393460008
 31
0.0000000000000000
  0
LINE
  5
409
100
AcDbEntity
  8
MAIN0
  6
HIDDEN
 62
3
100
AcDbLine
 10
485.5548612920204
 20
181.9898393460644
 30
0.0000000000000000
 11
485.5548612920415
 21
191.4898393460644
 31
0.0000000000000000
  0
LINE
  5
40A
100
AcDbEntity
  8
MAIN0
  6
HIDDEN
 62
3
100
AcDbLine
 10
516.7548612920311
 20
189.3398393459457
 30
0.0000000000000000
 11
485.5548612920204
 21
189.3398393459276
 31
0.0000000000000000
  0
LINE
  5
40B
100
AcDbEntity
  8
MAIN0
  6
HIDDEN
 62
3
100
AcDbLine
 10
516.7548612920313
 20
184.1398393459457
 30
0.0000000000000000
 11
485.5548612920251
 21
184.1398393459276
 31
0.0000000000000000
  0
LINE
  5
40C
100
AcDbEntity
  8
MAIN0
  6
HIDDEN
 62
3
100
AcDbLine
 10
477.9548612920205
 20
181.9898393460813
 30
0.0000000000000000
 11
485.5548612920204
 21
181.9898393460644
 31
0.0000000000000000
  0
LINE
  5
40D
100
AcDbEntity
  8
MAIN0
  6
HIDDEN
 62
3
100
AcDbLine
 10
477.5548612920198
 20
181.5898393460822
 30
0.0000000000000000
 11
477.9548612920207
 21
181.9898393460813
 31
0.0000000000000000
  0
LINE
  5
40E
100
AcDbEntity
  8
MAIN0
  6
HIDDEN
 62
3
100
AcDbLine
 10
505.5548612920312
 20
183.7398393459457
 30
0.0000000000000000
 11
505.5548612920312
 21
189.7398393459457
 31
0.0000000000000000
  0
LINE
  5
40F
100
AcDbEntity
  8
MAIN0
  6
HIDDEN
 62
3
100
AcDbLine
 10
505.5548612920312
 20
189.7398393459457
 30
0.0000000000000000
 11
517.1548612920312
 21
189.7398393459457
 31
0.0000000000000000
  0
LINE
  5
410
100
AcDbEntity
  8
MAIN0
  6
HIDDEN
 62
3
100
AcDbLine
 10
516.7548612920311
 20
184.1398393459457
 30
0.0000000000000000
 11
516.7548612920311
 21
189.3398393459457
 31
0.0000000000000000
  0
LINE
  5
411
100
AcDbEntity
  8
MAIN0
  6
HIDDEN
 62
3
100
AcDbLine
 10
516.7548612920313
 20
189.3398393459457
 30
0.0000000000000000
 11
517.5548612920311
 21
190.1398393459456
 31
0.0000000000000000
  0
LINE
  5
412
100
AcDbEntity
  8
MAIN0
  6
HIDDEN
 62
3
100
AcDbLine
 10
517.1548612920313
 20
183.7398393459457
 30
0.0000000000000000
 11
505.5548612920312
 21
183.7398393459457
 31
0.0000000000000000
  0
LINE
  5
413
100
AcDbEntity
  8
MAIN0
  6
HIDDEN
 62
3
100
AcDbLine
 10
517.5548612920311
 20
183.3398393459457
 30
0.0000000000000000
 11
516.7548612920311
 21
184.1398393459457
 31
0.0000000000000000
  0
LINE
  5
414
100
AcDbEntity
  8
MAIN0
  6
CENTER
 62
3
100
AcDbLine
 10
521.0703624730148
 20
186.7398393459431
 30
0.0000000000000000
 11
474.4108846637829
 21
186.7398393459495
 31
0.0000000000000000
  0
CIRCLE
  5
415
100
AcDbEntity
  8
MAIN0
  6
CONTINUOUS
 62
3
100
AcDbCircle
 10
507.5548612919010
 20
176.7398393464929
 30
0.0000000000000000
 40
3.400000000000000
  0
CIRCLE
  5
416
100
AcDbEntity
  8
MAIN0
  6
CONTINUOUS
 62
3
100
AcDbCircle
 10
507.5548612919010
 20
176.7398393464929
 30
0.0000000000000000
 40
4.000000000000000
  0
LINE
  5
417
100
AcDbEntity
  8
MAIN0
  6
CENTER
 62
3
100
AcDbLine
 10
502.0812333577163
 20
176.7398393465052
 30
0.0000000000000000
 11
513.4022533857636
 21
176.7398393464800
 31
0.0000000000000000
  0
LINE
  5
418
100
AcDbEntity
  8
MAIN0
  6
CENTER
 62
3
100
AcDbLine
 10
507.5548612919262
 20
218.6525159794138
 30
0.0000000000000000
 11
507.5548612918733
 21
170.9614601770888
 31
0.0000000000000000
  0
LINE
  5
419
100
AcDbEntity
  8
MAIN0
  6
CENTER
 62
3
100
AcDbLine
 10
501.0968473499224
 20
213.7398393462426
 30
0.0000000000000000
 11
513.7797118436406
 21
213.7398393462283
 31
0.0000000000000000
  0
CIRCLE
  5
41A
100
AcDbEntity
  8
MAIN0
  6
CONTINUOUS
 62
3
100
AcDbCircle
 10
507.5548612919208
 20
213.7398393462443
 30
0.0000000000000000
 40
4.000000000000000
  0
CIRCLE
  5
41B
100
AcDbEntity
  8
MAIN0
  6
CONTINUOUS
 62
3
100
AcDbCircle
 10
507.5548612919010
 20
282.7398393459670
 30
0.0000000000000000
 40
3.400000000000000
  0
CIRCLE
  5
41C
100
AcDbEntity
  8
MAIN0
  6
CONTINUOUS
 62
3
100
AcDbCircle
 10
507.5548612919010
 20
282.7398393459670
 30
0.0000000000000000
 40
4.000000000000000
  0
LINE
  5
41D
100
AcDbEntity
  8
MAIN0
  6
CENTER
 62
3
100
AcDbLine
 10
502.0812333577163
 20
282.7398393459548
 30
0.0000000000000000
 11
513.4022533857636
 21
282.7398393459798
 31
0.0000000000000000
  0
LINE
  5
41E
100
AcDbEntity
  8
MAIN0
  6
CENTER
 62
3
100
AcDbLine
 10
507.5548612919262
 20
240.8271627130461
 30
0.0000000000000000
 11
507.5548612918733
 21
288.5182185153712
 31
0.0000000000000000
  0
LINE
  5
41F
100
AcDbEntity
  8
MAIN0
  6
CENTER
 62
3
100
AcDbLine
 10
501.0968473499224
 20
245.7398393462173
 30
0.0000000000000000
 11
513.7797118436406
 21
245.7398393462316
 31
0.0000000000000000
  0
CIRCLE
  5
420
100
AcDbEntity
  8
MAIN0
  6
CONTINUOUS
 62
3
100
AcDbCircle
 10
507.5548612919208
 20
245.7398393462156
 30
0.0000000000000000
 40
4.000000000000000
  0
LINE
  5
421
100
AcDbEntity
  8
MAIN0
  6
CENTER
 62
3
100
AcDbLine
 10
471.0978246080332
 20
229.7398393462299
 30
0.0000000000000000
 11
519.4744154121772
 21
229.7398393462299
 31
0.0000000000000000
  0
LINE
  5
422
100
AcDbEntity
  8
MAIN0
  6
CONTINUOUS
 62
3
100
AcDbLine
 10
479.5548612920275
 20
169.7398393462369
 30
0.0000000000000000
 11
479.5548612920274
 21
289.7398393462230
 31
0.0000000000000000
  0
LINE
  5
423
100
AcDbEntity
  8
MAIN0
  6
CONTINUOUS
 62
3
100
AcDbLine
 10
478.5548612920036
 20
246.2398393459919
 30
0.0000000000000000
 11
478.5548612919907
 21
213.2398393455262
 31
0.0000000000000000
  0
LINE
  5
424
100
AcDbEntity
  8
MAIN0
  6
CONTINUOUS
 62
3
100
AcDbLine
 10
477.0548612920036
 20
246.2398393459919
 30
0.0000000000000000
 11
478.5548612920036
 21
246.2398393459919
 31
0.0000000000000000
  0
LINE
  5
425
100
AcDbEntity
  8
MAIN0
  6
CONTINUOUS
 62
3
100
AcDbLine
 10
477.0548612919906
 20
213.2398393455262
 30
0.0000000000000000
 11
478.5548612919906
 21
213.2398393455262
 31
0.0000000000000000
  0
LINE
  5
426
100
AcDbEntity
  8
MAIN0
  6
CONTINUOUS
 62
3
100
AcDbLine
 10
477.0548612920036
 20
246.2398393459919
 30
0.0000000000000000
 11
477.0548612919907
 21
213.2398393455262
 31
0.0000000000000000
  0
LINE
  5
427
100
AcDbEntity
  8
MAIN0
  6
CONTINUOUS
 62
3
100
AcDbLine
 10
478.5548612920092
 20
224.4898393462269
 30
0.0000000000000000
 11
478.5548612920092
 21
234.9898393462269
 31
0.0000000000000000
  0
LINE
  5
428
100
AcDbEntity
  8
MAIN0
  6
CONTINUOUS
 62
3
100
AcDbLine
 10
477.0548612920015
 20
240.7398393464505
 30
0.0000000000000000
 11
475.5548612920159
 21
240.7398393464490
 31
0.0000000000000000
  0
LINE
  5
429
100
AcDbEntity
  8
MAIN0
  6
CONTINUOUS
 62
3
100
AcDbLine
 10
475.5548612920132
 20
236.3398393464490
 30
0.0000000000000000
 11
475.5548612920150
 21
240.7398393464490
 31
0.0000000000000000
  0
LINE
  5
42A
100
AcDbEntity
  8
MAIN0
  6
CONTINUOUS
 62
3
100
AcDbLine
 10
477.0548612920134
 20
236.3398393464490
 30
0.0000000000000000
 11
475.5548612920134
 21
236.3398393464490
 31
0.0000000000000000
  0
LINE
  5
42B
100
AcDbEntity
  8
MAIN0
  6
CONTINUOUS
 62
3
100
AcDbLine
 10
477.0548612920135
 20
233.1398393464490
 30
0.0000000000000000
 11
475.5548612920134
 21
233.1398393464490
 31
0.0000000000000000
  0
LINE
  5
42C
100
AcDbEntity
  8
MAIN0
  6
CONTINUOUS
 62
3
100
AcDbLine
 10
475.5548612920093
 20
226.3398393464853
 30
0.0000000000000000
 11
475.5548612920120
 21
233.1398393464490
 31
0.0000000000000000
  0
LINE
  5
42D
100
AcDbEntity
  8
MAIN0
  6
CONTINUOUS
 62
3
100
AcDbLine
 10
477.0548612920024
 20
226.3398393464820
 30
0.0000000000000000
 11
475.5548612920023
 21
226.3398393464853
 31
0.0000000000000000
  0
LINE
  5
42E
100
AcDbEntity
  8
MAIN0
  6
CONTINUOUS
 62
3
100
AcDbLine
 10
477.0548612919952
 20
223.1398393464819
 30
0.0000000000000000
 11
475.5548612919952
 21
223.1398393464852
 31
0.0000000000000000
  0
LINE
  5
42F
100
AcDbEntity
  8
MAIN0
  6
CONTINUOUS
 62
3
100
AcDbLine
 10
475.5548612920063
 20
218.7398393464852
 30
0.0000000000000000
 11
475.5548612920080
 21
223.1398393464852
 31
0.0000000000000000
  0
LINE
  5
430
100
AcDbEntity
  8
MAIN0
  6
CONTINUOUS
 62
3
100
AcDbLine
 10
477.0548612919928
 20
218.7398393464804
 30
0.0000000000000000
 11
475.5548612919877
 21
218.7398393464852
 31
0.0000000000000000
  0
LINE
  5
431
100
AcDbEntity
  8
MAIN0
  6
CONTINUOUS
 62
3
100
AcDbLine
 10
499.7548612920239
 20
289.9121611165713
 30
0.0000000000000000
 11
476.5548612920239
 21
289.9121611165702
 31
0.0000000000000000
  0
LINE
  5
432
100
AcDbEntity
  8
MAIN0
  6
CONTINUOUS
 62
3
100
AcDbLine
 10
477.5548612920160
 20
257.4121611166867
 30
0.0000000000000000
 11
476.5548612920160
 21
257.4121611166866
 31
0.0000000000000000
  0
LINE
  5
433
100
AcDbEntity
  8
MAIN0
  6
CONTINUOUS
 62
3
100
AcDbLine
 10
476.5548612920239
 20
289.9121611165702
 30
0.0000000000000000
 11
476.5548612920160
 21
257.4121611166866
 31
0.0000000000000000
  0
LINE
  5
434
100
AcDbEntity
  8
MAIN0
  6
CONTINUOUS
 62
3
100
AcDbLine
 10
488.5548612920239
 20
289.9121611165672
 30
0.0000000000000000
 11
488.5548612920239
 21
289.7398393459661
 31
0.0000000000000000
  0
LINE
  5
435
100
AcDbEntity
  8
MAIN0
  6
CONTINUOUS
 62
3
100
AcDbLine
 10
499.7548612920239
 20
289.9121611165645
 30
0.0000000000000000
 11
499.7548612920239
 21
289.7398393459729
 31
0.0000000000000000
  0
LINE
  5
436
100
AcDbEntity
  8
MAIN0
  6
CONTINUOUS
 62
3
100
AcDbLine
 10
476.5548612920010
 20
278.4121611167756
 30
0.0000000000000000
 11
472.5548612920067
 21
278.4121611167743
 31
0.0000000000000000
  0
LINE
  5
437
100
AcDbEntity
  8
MAIN0
  6
CONTINUOUS
 62
3
100
AcDbLine
 10
476.5548612920005
 20
288.4121611168030
 30
0.0000000000000000
 11
472.5548612920091
 21
288.4121611168029
 31
0.0000000000000000
  0
LINE
  5
438
100
AcDbEntity
  8
MAIN0
  6
CONTINUOUS
 62
3
100
AcDbLine
 10
472.5548612920090
 20
288.4121611168029
 30
0.0000000000000000
 11
472.5548612920067
 21
278.4121611167743
 31
0.0000000000000000
  0
LINE
  5
439
100
AcDbEntity
  8
MAIN0
  6
CONTINUOUS
 62
3
100
AcDbLine
 10
476.5548612920018
 20
258.4121611167756
 30
0.0000000000000000
 11
472.5548612919851
 21
258.4121611167743
 31
0.0000000000000000
  0
LINE
  5
43A
100
AcDbEntity
  8
MAIN0
  6
CONTINUOUS
 62
3
100
AcDbLine
 10
476.5548612920042
 20
268.4121611166866
 30
0.0000000000000000
 11
472.5548612919846
 21
268.4121611166864
 31
0.0000000000000000
  0
LINE
  5
43B
100
AcDbEntity
  8
MAIN0
  6
CONTINUOUS
 62
3
100
AcDbLine
 10
472.5548612919851
 20
258.4121611167744
 30
0.0000000000000000
 11
472.5548612919846
 21
268.4121611166864
 31
0.0000000000000000
  0
LINE
  5
43C
100
AcDbEntity
  8
MAIN0
  6
CENTER
 62
3
100
AcDbLine
 10
471.3279230237782
 20
263.4121611167152
 30
0.0000000000000000
 11
478.6094368698279
 21
263.4121611167135
 31
0.0000000000000000
  0
LINE
  5
43D
100
AcDbEntity
  8
MAIN0
  6
CENTER
 62
3
100
AcDbLine
 10
478.6094368698325
 20
283.4121611168031
 30
0.0000000000000000
 11
471.3279230237829
 21
283.4121611168028
 31
0.0000000000000000
  0
LINE
  5
43E
100
AcDbEntity
  8
MAIN0
  6
CONTINUOUS
 62
3
100
AcDbLine
 10
499.7548612920239
 20
169.5675175758886
 30
0.0000000000000000
 11
476.5548612920239
 21
169.5675175758897
 31
0.0000000000000000
  0
LINE
  5
43F
100
AcDbEntity
  8
MAIN0
  6
CONTINUOUS
 62
3
100
AcDbLine
 10
477.5548612920160
 20
202.0675175757732
 30
0.0000000000000000
 11
476.5548612920160
 21
202.0675175757733
 31
0.0000000000000000
  0
LINE
  5
440
100
AcDbEntity
  8
MAIN0
  6
CONTINUOUS
 62
3
100
AcDbLine
 10
476.5548612920239
 20
169.5675175758897
 30
0.0000000000000000
 11
476.5548612920160
 21
202.0675175757733
 31
0.0000000000000000
  0
LINE
  5
441
100
AcDbEntity
  8
MAIN0
  6
CONTINUOUS
 62
3
100
AcDbLine
 10
488.5548612920239
 20
169.5675175758926
 30
0.0000000000000000
 11
488.5548612920239
 21
169.7398393464937
 31
0.0000000000000000
  0
LINE
  5
442
100
AcDbEntity
  8
MAIN0
  6
CONTINUOUS
 62
3
100
AcDbLine
 10
499.7548612920239
 20
169.5675175758954
 30
0.0000000000000000
 11
499.7548612920239
 21
169.7398393464870
 31
0.0000000000000000
  0
LINE
  5
443
100
AcDbEntity
  8
MAIN0
  6
CONTINUOUS
 62
3
100
AcDbLine
 10
476.5548612920010
 20
181.0675175756842
 30
0.0000000000000000
 11
472.5548612920067
 21
181.0675175756855
 31
0.0000000000000000
  0
LINE
  5
444
100
AcDbEntity
  8
MAIN0
  6
CONTINUOUS
 62
3
100
AcDbLine
 10
476.5548612920005
 20
171.0675175756569
 30
0.0000000000000000
 11
472.5548612920091
 21
171.0675175756570
 31
0.0000000000000000
  0
LINE
  5
445
100
AcDbEntity
  8
MAIN0
  6
CONTINUOUS
 62
3
100
AcDbLine
 10
472.5548612920090
 20
171.0675175756570
 30
0.0000000000000000
 11
472.5548612920067
 21
181.0675175756855
 31
0.0000000000000000
  0
LINE
  5
446
100
AcDbEntity
  8
MAIN0
  6
CONTINUOUS
 62
3
100
AcDbLine
 10
476.5548612920018
 20
201.0675175756842
 30
0.0000000000000000
 11
472.5548612919851
 21
201.0675175756855
 31
0.0000000000000000
  0
LINE
  5
447
100
AcDbEntity
  8
MAIN0
  6
CONTINUOUS
 62
3
100
AcDbLine
 10
476.5548612920042
 20
191.0675175757733
 30
0.0000000000000000
 11
472.5548612919846
 21
191.0675175757735
 31
0.0000000000000000
  0
LINE
  5
448
100
AcDbEntity
  8
MAIN0
  6
CONTINUOUS
 62
3
100
AcDbLine
 10
472.5548612919851
 20
201.0675175756855
 30
0.0000000000000000
 11
472.5548612919846
 21
191.0675175757735
 31
0.0000000000000000
  0
LINE
  5
449
100
AcDbEntity
  8
MAIN0
  6
CENTER
 62
3
100
AcDbLine
 10
471.3279230237782
 20
196.0675175757447
 30
0.0000000000000000
 11
478.6094368698279
 21
196.0675175757464
 31
0.0000000000000000
  0
LINE
  5
44A
100
AcDbEntity
  8
MAIN0
  6
CENTER
 62
3
100
AcDbLine
 10
478.6094368698326
 20
176.0675175756568
 30
0.0000000000000000
 11
471.3279230237829
 21
176.0675175756571
 31
0.0000000000000000
  0
LINE
  5
44B
100
AcDbEntity
  8
MAIN0
  6
CONTINUOUS
 62
3
100
AcDbLine
 10
93.75486129185691
 20
288.7398393461710
 30
0.0000000000000000
 11
93.75486129216421
 21
170.7398393461710
 31
0.0000000000000000
  0
LINE
  5
44C
100
AcDbEntity
  8
MAIN0
  6
CONTINUOUS
 62
3
100
AcDbLine
 10
94.75486129185447
 20
289.7398393461751
 30
0.0000000000000000
 11
93.75486129185708
 21
288.7398393461712
 31
0.0000000000000000
  0
LINE
  5
44D
100
AcDbEntity
  8
MAIN0
  6
CONTINUOUS
 62
3
100
AcDbLine
 10
93.75486129216432
 20
170.7398393461712
 30
0.0000000000000000
 11
94.75486129216688
 21
169.7398393461751
 31
0.0000000000000000
  0
LINE
  5
44E
100
AcDbEntity
  8
MAIN0
  6
CONTINUOUS
 62
3
100
AcDbLine
 10
183.2548612918632
 20
286.3398393465179
 30
0.0000000000000000
 11
183.2548612921658
 21
170.1398393465178
 31
0.0000000000000000
  0
LINE
  5
44F
100
AcDbEntity
  8
MAIN0
  6
CONTINUOUS
 62
3
100
AcDbLine
 10
182.8548612918622
 20
286.7398393465163
 30
0.0000000000000000
 11
143.7548612918622
 21
286.7398393463648
 31
0.0000000000000000
  0
LINE
  5
450
100
AcDbEntity
  8
MAIN0
  6
CONTINUOUS
 62
3
100
AcDbLine
 10
143.7548612918571
 20
288.7398393463647
 30
0.0000000000000000
 11
142.7548612918545
 21
289.7398393463608
 31
0.0000000000000000
  0
LINE
  5
451
100
AcDbEntity
  8
MAIN0
  6
CENTER
 62
3
100
AcDbLine
 10
99.75486129223106
 20
193.6444385845548
 30
0.0000000000000000
 11
99.75486129226016
 21
180.4736634300305
 31
0.0000000000000000
  0
LINE
  5
452
100
AcDbEntity
  8
MAIN0
  6
CENTER
 62
3
100
AcDbLine
 10
106.8327170301557
 20
186.7398393460734
 30
0.0000000000000000
 11
92.31684433119807
 21
186.7398393460412
 31
0.0000000000000000
  0
LINE
  5
453
100
AcDbEntity
  8
MAIN0
  6
CENTER
 62
3
100
AcDbLine
 10
137.7548612922311
 20
193.6444385846388
 30
0.0000000000000000
 11
137.7548612922602
 21
180.4736634301145
 31
0.0000000000000000
  0
LINE
  5
454
100
AcDbEntity
  8
MAIN0
  6
CENTER
 62
3
100
AcDbLine
 10
130.6770055543372
 20
186.7398393461261
 30
0.0000000000000000
 11
145.1928782532947
 21
186.7398393461582
 31
0.0000000000000000
  0
LINE
  5
455
100
AcDbEntity
  8
MAIN0
  6
CENTER
 62
3
100
AcDbLine
 10
130.6770055541470
 20
272.7398393461261
 30
0.0000000000000000
 11
145.1928782531045
 21
272.7398393461582
 31
0.0000000000000000
  0
LINE
  5
456
100
AcDbEntity
  8
MAIN0
  6
CENTER
 62
3
100
AcDbLine
 10
137.7548612920714
 20
265.8352401076446
 30
0.0000000000000000
 11
137.7548612920423
 21
279.0060152621688
 31
0.0000000000000000
  0
LINE
  5
457
100
AcDbEntity
  8
MAIN0
  6
CENTER
 62
3
100
AcDbLine
 10
99.75486129207133
 20
265.8352401075605
 30
0.0000000000000000
 11
99.75486129204222
 21
279.0060152620848
 31
0.0000000000000000
  0
LINE
  5
458
100
AcDbEntity
  8
MAIN0
  6
CENTER
 62
3
100
AcDbLine
 10
106.8327170299655
 20
272.7398393460734
 30
0.0000000000000000
 11
92.31684433100787
 21
272.7398393460413
 31
0.0000000000000000
  0
LINE
  5
459
100
AcDbEntity
  8
MAIN0
  6
CONTINUOUS
 62
3
100
AcDbLine
 10
183.2548612921657
 20
170.1398393465179
 30
0.0000000000000000
 11
182.8548612921668
 21
169.7398393465163
 31
0.0000000000000000
  0
LINE
  5
45A
100
AcDbEntity
  8
MAIN0
  6
CONTINUOUS
 62
3
100
AcDbLine
 10
183.2548612918631
 20
286.3398393465178
 30
0.0000000000000000
 11
182.8548612918621
 21
286.7398393465163
 31
0.0000000000000000
  0
LINE
  5
45B
100
AcDbEntity
  8
MAIN0
  6
CONTINUOUS
 62
3
100
AcDbLine
 10
142.7548612918543
 20
289.7398393463610
 30
0.0000000000000000
 11
94.75486129185435
 21
289.7398393461749
 31
0.0000000000000000
  0
LINE
  5
45C
100
AcDbEntity
  8
MAIN0
  6
CONTINUOUS
 62
3
100
AcDbLine
 10
94.75486129216694
 20
169.7398393461747
 30
0.0000000000000000
 11
182.8548612921669
 21
169.7398393464001
 31
0.0000000000000000
  0
CIRCLE
  5
45D
100
AcDbEntity
  8
MAIN0
  6
CONTINUOUS
 62
3
100
AcDbCircle
 10
99.75486129205615
 20
272.7398393460577
 30
0.0000000000000000
 40
3.000000000000000
  0
CIRCLE
  5
45E
100
AcDbEntity
  8
MAIN0
  6
CONTINUOUS
 62
3
100
AcDbCircle
 10
99.75486129205615
 20
272.7398393460577
 30
0.0000000000000000
 40
2.500000000000000
  0
CIRCLE
  5
45F
100
AcDbEntity
  8
MAIN0
  6
CONTINUOUS
 62
3
100
AcDbCircle
 10
137.7548612917261
 20
272.7398393461418
 30
0.0000000000000000
 40
3.000000000000000
  0
CIRCLE
  5
460
100
AcDbEntity
  8
MAIN0
  6
CONTINUOUS
 62
3
100
AcDbCircle
 10
137.7548612917261
 20
272.7398393461418
 30
0.0000000000000000
 40
2.500000000000000
  0
CIRCLE
  5
461
100
AcDbEntity
  8
MAIN0
  6
CONTINUOUS
 62
3
100
AcDbCircle
 10
137.7548612919164
 20
186.7398393464369
 30
0.0000000000000000
 40
3.000000000000000
  0
CIRCLE
  5
462
100
AcDbEntity
  8
MAIN0
  6
CONTINUOUS
 62
3
100
AcDbCircle
 10
137.7548612919164
 20
186.7398393464369
 30
0.0000000000000000
 40
2.500000000000000
  0
CIRCLE
  5
463
100
AcDbEntity
  8
MAIN0
  6
CONTINUOUS
 62
3
100
AcDbCircle
 10
99.75486129224635
 20
186.7398393463528
 30
0.0000000000000000
 40
3.000000000000000
  0
CIRCLE
  5
464
100
AcDbEntity
  8
MAIN0
  6
CONTINUOUS
 62
3
100
AcDbCircle
 10
99.75486129224635
 20
186.7398393463528
 30
0.0000000000000000
 40
2.500000000000000
  0
LINE
  5
465
100
AcDbEntity
  8
MAIN0
  6
CENTER
 62
3
100
AcDbLine
 10
114.1575556865849
 20
189.7398393465888
 30
0.0000000000000000
 11
124.0091405239710
 21
189.7398393465997
 31
0.0000000000000000
  0
CIRCLE
  5
466
100
AcDbEntity
  8
MAIN0
  6
CONTINUOUS
 62
3
100
AcDbCircle
 10
118.7548612919422
 20
189.7398393465939
 30
0.0000000000000000
 40
3.000000000000000
  0
LINE
  5
467
100
AcDbEntity
  8
MAIN0
  6
CENTER
 62
3
100
AcDbLine
 10
114.1575556864962
 20
269.7398393465888
 30
0.0000000000000000
 11
124.0091405238823
 21
269.7398393465997
 31
0.0000000000000000
  0
CIRCLE
  5
468
100
AcDbEntity
  8
MAIN0
  6
CONTINUOUS
 62
3
100
AcDbCircle
 10
118.7548612920050
 20
269.7398393465937
 30
0.0000000000000000
 40
3.000000000000000
  0
CIRCLE
  5
469
100
AcDbEntity
  8
MAIN0
  6
CONTINUOUS
 62
3
100
AcDbCircle
 10
145.2548612922206
 20
212.7398393463059
 30
0.0000000000000000
 40
2.500000000000000
  0
CIRCLE
  5
46A
100
AcDbEntity
  8
MAIN0
  6
CONTINUOUS
 62
3
100
AcDbCircle
 10
145.2548612922206
 20
212.7398393463059
 30
0.0000000000000000
 40
2.066987200000000
  0
LINE
  5
46B
100
AcDbEntity
  8
MAIN0
  6
CONTINUOUS
 62
3
100
AcDbLine
 10
143.8114856192465
 20
212.7398393463059
 30
0.0000000000000000
 11
144.5331734557335
 21
211.4898393463059
 31
0.0000000000000000
  0
LINE
  5
46C
100
AcDbEntity
  8
MAIN0
  6
CONTINUOUS
 62
3
100
AcDbLine
 10
144.5331734557336
 20
211.4898393463059
 30
0.0000000000000000
 11
145.9765491287077
 21
211.4898393463059
 31
0.0000000000000000
  0
LINE
  5
46D
100
AcDbEntity
  8
MAIN0
  6
CONTINUOUS
 62
3
100
AcDbLine
 10
145.9765491287079
 20
211.4898393463059
 30
0.0000000000000000
 11
146.6982369651948
 21
212.7398393463059
 31
0.0000000000000000
  0
LINE
  5
46E
100
AcDbEntity
  8
MAIN0
  6
CONTINUOUS
 62
3
100
AcDbLine
 10
146.6982369651946
 20
212.7398393463059
 30
0.0000000000000000
 11
145.9765491287076
 21
213.9898393463059
 31
0.0000000000000000
  0
LINE
  5
46F
100
AcDbEntity
  8
MAIN0
  6
CONTINUOUS
 62
3
100
AcDbLine
 10
145.9765491287077
 20
213.9898393463059
 30
0.0000000000000000
 11
144.5331734557336
 21
213.9898393463059
 31
0.0000000000000000
  0
LINE
  5
470
100
AcDbEntity
  8
MAIN0
  6
CONTINUOUS
 62
3
100
AcDbLine
 10
144.5331734557337
 20
213.9898393463059
 30
0.0000000000000000
 11
143.8114856192467
 21
212.7398393463059
 31
0.0000000000000000
  0
CIRCLE
  5
471
100
AcDbEntity
  8
MAIN0
  6
CONTINUOUS
 62
3
100
AcDbCircle
 10
129.2548612920505
 20
200.7398393462705
 30
0.0000000000000000
 40
1.500000000000000
  0
CIRCLE
  5
472
100
AcDbEntity
  8
MAIN0
  6
CONTINUOUS
 62
3
100
AcDbCircle
 10
129.2548612920505
 20
200.7398393462705
 30
0.0000000000000000
 40
1.229367000000000
  0
LINE
  5
473
100
AcDbEntity
  8
MAIN0
  6
CONTINUOUS
 62
3
100
AcDbLine
 10
128.3888358882659
 20
200.7398393462705
 30
0.0000000000000000
 11
128.8218485901581
 21
199.9898393462705
 31
0.0000000000000000
  0
LINE
  5
474
100
AcDbEntity
  8
MAIN0
  6
CONTINUOUS
 62
3
100
AcDbLine
 10
128.8218485901582
 20
199.9898393462705
 30
0.0000000000000000
 11
129.6878739939426
 21
199.9898393462705
 31
0.0000000000000000
  0
LINE
  5
475
100
AcDbEntity
  8
MAIN0
  6
CONTINUOUS
 62
3
100
AcDbLine
 10
129.6878739939428
 20
199.9898393462704
 30
0.0000000000000000
 11
130.1208866958350
 21
200.7398393462704
 31
0.0000000000000000
  0
LINE
  5
476
100
AcDbEntity
  8
MAIN0
  6
CONTINUOUS
 62
3
100
AcDbLine
 10
130.1208866958348
 20
200.7398393462705
 30
0.0000000000000000
 11
129.6878739939426
 21
201.4898393462704
 31
0.0000000000000000
  0
LINE
  5
477
100
AcDbEntity
  8
MAIN0
  6
CONTINUOUS
 62
3
100
AcDbLine
 10
129.6878739939426
 20
201.4898393462705
 30
0.0000000000000000
 11
128.8218485901582
 21
201.4898393462705
 31
0.0000000000000000
  0
LINE
  5
478
100
AcDbEntity
  8
MAIN0
  6
CONTINUOUS
 62
3
100
AcDbLine
 10
128.8218485901584
 20
201.4898393462704
 30
0.0000000000000000
 11
128.3888358882662
 21
200.7398393462704
 31
0.0000000000000000
  0
CIRCLE
  5
479
100
AcDbEntity
  8
MAIN0
  6
CONTINUOUS
 62
3
100
AcDbCircle
 10
129.2548612919221
 20
258.7398393462705
 30
0.0000000000000000
 40
1.500000000000000
  0
CIRCLE
  5
47A
100
AcDbEntity
  8
MAIN0
  6
CONTINUOUS
 62
3
100
AcDbCircle
 10
129.2548612919221
 20
258.7398393462705
 30
0.0000000000000000
 40
1.229367000000000
  0
LINE
  5
47B
100
AcDbEntity
  8
MAIN0
  6
CONTINUOUS
 62
3
100
AcDbLine
 10
128.3888358881376
 20
258.7398393462704
 30
0.0000000000000000
 11
128.8218485900298
 21
257.9898393462705
 31
0.0000000000000000
  0
LINE
  5
47C
100
AcDbEntity
  8
MAIN0
  6
CONTINUOUS
 62
3
100
AcDbLine
 10
128.8218485900298
 20
257.9898393462705
 30
0.0000000000000000
 11
129.6878739938143
 21
257.9898393462705
 31
0.0000000000000000
  0
LINE
  5
47D
100
AcDbEntity
  8
MAIN0
  6
CONTINUOUS
 62
3
100
AcDbLine
 10
129.6878739938145
 20
257.9898393462704
 30
0.0000000000000000
 11
130.1208866957066
 21
258.7398393462704
 31
0.0000000000000000
  0
LINE
  5
47E
100
AcDbEntity
  8
MAIN0
  6
CONTINUOUS
 62
3
100
AcDbLine
 10
130.1208866957065
 20
258.7398393462705
 30
0.0000000000000000
 11
129.6878739938143
 21
259.4898393462704
 31
0.0000000000000000
  0
LINE
  5
47F
100
AcDbEntity
  8
MAIN0
  6
CONTINUOUS
 62
3
100
AcDbLine
 10
129.6878739938143
 20
259.4898393462705
 30
0.0000000000000000
 11
128.8218485900298
 21
259.4898393462705
 31
0.0000000000000000
  0
LINE
  5
480
100
AcDbEntity
  8
MAIN0
  6
CONTINUOUS
 62
3
100
AcDbLine
 10
128.8218485900300
 20
259.4898393462704
 30
0.0000000000000000
 11
128.3888358881378
 21
258.7398393462704
 31
0.0000000000000000
  0
CIRCLE
  5
481
100
AcDbEntity
  8
MAIN0
  6
CONTINUOUS
 62
3
100
AcDbCircle
 10
151.2548612918544
 20
184.7398393463192
 30
0.0000000000000000
 40
1.500000000000000
  0
CIRCLE
  5
482
100
AcDbEntity
  8
MAIN0
  6
CONTINUOUS
 62
3
100
AcDbCircle
 10
151.2548612918544
 20
184.7398393463192
 30
0.0000000000000000
 40
1.229367000000000
  0
LINE
  5
483
100
AcDbEntity
  8
MAIN0
  6
CONTINUOUS
 62
3
100
AcDbLine
 10
150.3888358880699
 20
184.7398393463191
 30
0.0000000000000000
 11
150.8218485899621
 21
183.9898393463191
 31
0.0000000000000000
  0
LINE
  5
484
100
AcDbEntity
  8
MAIN0
  6
CONTINUOUS
 62
3
100
AcDbLine
 10
150.8218485899622
 20
183.9898393463192
 30
0.0000000000000000
 11
151.6878739937467
 21
183.9898393463192
 31
0.0000000000000000
  0
LINE
  5
485
100
AcDbEntity
  8
MAIN0
  6
CONTINUOUS
 62
3
100
AcDbLine
 10
151.6878739937468
 20
183.9898393463191
 30
0.0000000000000000
 11
152.1208866956390
 21
184.7398393463191
 31
0.0000000000000000
  0
LINE
  5
486
100
AcDbEntity
  8
MAIN0
  6
CONTINUOUS
 62
3
100
AcDbLine
 10
152.1208866956388
 20
184.7398393463191
 30
0.0000000000000000
 11
151.6878739937465
 21
185.4898393463192
 31
0.0000000000000000
  0
LINE
  5
487
100
AcDbEntity
  8
MAIN0
  6
CONTINUOUS
 62
3
100
AcDbLine
 10
151.6878739937467
 20
185.4898393463192
 30
0.0000000000000000
 11
150.8218485899622
 21
185.4898393463192
 31
0.0000000000000000
  0
LINE
  5
488
100
AcDbEntity
  8
MAIN0
  6
CONTINUOUS
 62
3
100
AcDbLine
 10
150.8218485899623
 20
185.4898393463191
 30
0.0000000000000000
 11
150.3888358880701
 21
184.7398393463191
 31
0.0000000000000000
  0
CIRCLE
  5
489
100
AcDbEntity
  8
MAIN0
  6
CONTINUOUS
 62
3
100
AcDbCircle
 10
177.0548612922247
 20
184.7398393463762
 30
0.0000000000000000
 40
1.500000000000000
  0
CIRCLE
  5
48A
100
AcDbEntity
  8
MAIN0
  6
CONTINUOUS
 62
3
100
AcDbCircle
 10
177.0548612922247
 20
184.7398393463762
 30
0.0000000000000000
 40
1.229367000000000
  0
LINE
  5
48B
100
AcDbEntity
  8
MAIN0
  6
CONTINUOUS
 62
3
100
AcDbLine
 10
176.1888358884402
 20
184.7398393463762
 30
0.0000000000000000
 11
176.6218485903324
 21
183.9898393463762
 31
0.0000000000000000
  0
LINE
  5
48C
100
AcDbEntity
  8
MAIN0
  6
CONTINUOUS
 62
3
100
AcDbLine
 10
176.6218485903325
 20
183.9898393463762
 30
0.0000000000000000
 11
177.4878739941169
 21
183.9898393463762
 31
0.0000000000000000
  0
LINE
  5
48D
100
AcDbEntity
  8
MAIN0
  6
CONTINUOUS
 62
3
100
AcDbLine
 10
177.4878739941170
 20
183.9898393463762
 30
0.0000000000000000
 11
177.9208866960092
 21
184.7398393463762
 31
0.0000000000000000
  0
LINE
  5
48E
100
AcDbEntity
  8
MAIN0
  6
CONTINUOUS
 62
3
100
AcDbLine
 10
177.9208866960091
 20
184.7398393463762
 30
0.0000000000000000
 11
177.4878739941169
 21
185.4898393463762
 31
0.0000000000000000
  0
LINE
  5
48F
100
AcDbEntity
  8
MAIN0
  6
CONTINUOUS
 62
3
100
AcDbLine
 10
177.4878739941169
 20
185.4898393463762
 30
0.0000000000000000
 11
176.6218485903325
 21
185.4898393463762
 31
0.0000000000000000
  0
LINE
  5
490
100
AcDbEntity
  8
MAIN0
  6
CONTINUOUS
 62
3
100
AcDbLine
 10
176.6218485903326
 20
185.4898393463762
 30
0.0000000000000000
 11
176.1888358884404
 21
184.7398393463762
 31
0.0000000000000000
  0
LINE
  5
491
100
AcDbEntity
  8
MAIN0
  6
CONTINUOUS
 62
3
100
AcDbLine
 10
189.0548612920106
 20
286.7398393457500
 30
0.0000000000000000
 11
183.4548612920107
 21
286.7398393457543
 31
0.0000000000000000
  0
LINE
  5
492
100
AcDbEntity
  8
MAIN0
  6
CONTINUOUS
 62
3
100
AcDbLine
 10
183.2548612920107
 20
286.5398393457547
 30
0.0000000000000000
 11
183.4548612920107
 21
286.7398393457545
 31
0.0000000000000000
  0
LINE
  5
493
100
AcDbEntity
  8
MAIN0
  6
CONTINUOUS
 62
3
100
AcDbLine
 10
189.2548612920103
 20
172.9398393467447
 30
0.0000000000000000
 11
189.2548612920106
 21
286.5398393457499
 31
0.0000000000000000
  0
LINE
  5
494
100
AcDbEntity
  8
MAIN0
  6
CONTINUOUS
 62
3
100
AcDbLine
 10
189.0548612920106
 20
286.7398393457501
 30
0.0000000000000000
 11
189.2548612920106
 21
286.5398393457500
 31
0.0000000000000000
  0
LINE
  5
495
100
AcDbEntity
  8
MAIN0
  6
CONTINUOUS
 62
3
100
AcDbLine
 10
183.2548612920106
 20
172.9398393467399
 30
0.0000000000000000
 11
183.2548612920106
 21
286.5398393457544
 31
0.0000000000000000
  0
LINE
  5
496
100
AcDbEntity
  8
MAIN0
  6
CONTINUOUS
 62
3
100
AcDbLine
 10
189.2548612920106
 20
284.7398393460784
 30
0.0000000000000000
 11
183.2548612920105
 21
284.7398393460831
 31
0.0000000000000000
  0
LINE
  5
497
100
AcDbEntity
  8
MAIN0
  6
CONTINUOUS
 62
3
100
AcDbLine
 10
189.0548612920106
 20
172.7398393467446
 30
0.0000000000000000
 11
183.4548612920107
 21
172.7398393467402
 31
0.0000000000000000
  0
LINE
  5
498
100
AcDbEntity
  8
MAIN0
  6
CONTINUOUS
 62
3
100
AcDbLine
 10
183.2548612920107
 20
172.9398393467399
 30
0.0000000000000000
 11
183.4548612920107
 21
172.7398393467401
 31
0.0000000000000000
  0
LINE
  5
499
100
AcDbEntity
  8
MAIN0
  6
CONTINUOUS
 62
3
100
AcDbLine
 10
189.0548612920106
 20
172.7398393467445
 30
0.0000000000000000
 11
189.2548612920106
 21
172.9398393467446
 31
0.0000000000000000
  0
LINE
  5
49A
100
AcDbEntity
  8
MAIN0
  6
CONTINUOUS
 62
3
100
AcDbLine
 10
189.2548612921539
 20
174.7398393460017
 30
0.0000000000000000
 11
183.2548612921538
 21
174.7398393459971
 31
0.0000000000000000
  0
CIRCLE
  5
49B
100
AcDbEntity
  8
MAIN0
  6
CONTINUOUS
 62
3
100
AcDbCircle
 10
118.7548612919863
 20
258.7398393462473
 30
0.0000000000000000
 40
2.000000000000000
  0
CIRCLE
  5
49C
100
AcDbEntity
  8
MAIN0
  6
CONTINUOUS
 62
3
100
AcDbCircle
 10
118.7548612919863
 20
258.7398393462473
 30
0.0000000000000000
 40
1.621113800000000
  0
LINE
  5
49D
100
AcDbEntity
  8
MAIN0
  6
CONTINUOUS
 62
3
100
AcDbLine
 10
119.9095618303655
 20
258.7398393462473
 30
0.0000000000000000
 11
119.3322115611759
 21
259.7398393462473
 31
0.0000000000000000
  0
LINE
  5
49E
100
AcDbEntity
  8
MAIN0
  6
CONTINUOUS
 62
3
100
AcDbLine
 10
119.3322115611759
 20
259.7398393462473
 30
0.0000000000000000
 11
118.1775110227967
 21
259.7398393462473
 31
0.0000000000000000
  0
LINE
  5
49F
100
AcDbEntity
  8
MAIN0
  6
CONTINUOUS
 62
3
100
AcDbLine
 10
118.1775110227967
 20
259.7398393462473
 30
0.0000000000000000
 11
117.6001607536070
 21
258.7398393462473
 31
0.0000000000000000
  0
LINE
  5
4A0
100
AcDbEntity
  8
MAIN0
  6
CONTINUOUS
 62
3
100
AcDbLine
 10
117.6001607536070
 20
258.7398393462473
 30
0.0000000000000000
 11
118.1775110227967
 21
257.7398393462473
 31
0.0000000000000000
  0
LINE
  5
4A1
100
AcDbEntity
  8
MAIN0
  6
CONTINUOUS
 62
3
100
AcDbLine
 10
118.1775110227967
 20
257.7398393462473
 30
0.0000000000000000
 11
119.3322115611759
 21
257.7398393462473
 31
0.0000000000000000
  0
LINE
  5
4A2
100
AcDbEntity
  8
MAIN0
  6
CONTINUOUS
 62
3
100
AcDbLine
 10
119.3322115611759
 20
257.7398393462473
 30
0.0000000000000000
 11
119.9095618303655
 21
258.7398393462473
 31
0.0000000000000000
  0
CIRCLE
  5
4A3
100
AcDbEntity
  8
MAIN0
  6
CONTINUOUS
 62
3
100
AcDbCircle
 10
118.7548612919862
 20
200.7398393462473
 30
0.0000000000000000
 40
2.000000000000000
  0
CIRCLE
  5
4A4
100
AcDbEntity
  8
MAIN0
  6
CONTINUOUS
 62
3
100
AcDbCircle
 10
118.7548612919862
 20
200.7398393462473
 30
0.0000000000000000
 40
1.621113800000000
  0
LINE
  5
4A5
100
AcDbEntity
  8
MAIN0
  6
CONTINUOUS
 62
3
100
AcDbLine
 10
119.9095618303655
 20
200.7398393462473
 30
0.0000000000000000
 11
119.3322115611758
 21
201.7398393462473
 31
0.0000000000000000
  0
LINE
  5
4A6
100
AcDbEntity
  8
MAIN0
  6
CONTINUOUS
 62
3
100
AcDbLine
 10
119.3322115611759
 20
201.7398393462473
 30
0.0000000000000000
 11
118.1775110227966
 21
201.7398393462473
 31
0.0000000000000000
  0
LINE
  5
4A7
100
AcDbEntity
  8
MAIN0
  6
CONTINUOUS
 62
3
100
AcDbLine
 10
118.1775110227966
 20
201.7398393462473
 30
0.0000000000000000
 11
117.6001607536070
 21
200.7398393462473
 31
0.0000000000000000
  0
LINE
  5
4A8
100
AcDbEntity
  8
MAIN0
  6
CONTINUOUS
 62
3
100
AcDbLine
 10
117.6001607536070
 20
200.7398393462473
 30
0.0000000000000000
 11
118.1775110227967
 21
199.7398393462473
 31
0.0000000000000000
  0
LINE
  5
4A9
100
AcDbEntity
  8
MAIN0
  6
CONTINUOUS
 62
3
100
AcDbLine
 10
118.1775110227966
 20
199.7398393462473
 30
0.0000000000000000
 11
119.3322115611759
 21
199.7398393462473
 31
0.0000000000000000
  0
LINE
  5
4AA
100
AcDbEntity
  8
MAIN0
  6
CONTINUOUS
 62
3
100
AcDbLine
 10
119.3322115611759
 20
199.7398393462473
 30
0.0000000000000000
 11
119.9095618303655
 21
200.7398393462473
 31
0.0000000000000000
  0
LINE
  5
4AB
100
AcDbEntity
  8
MAIN0
  6
CONTINUOUS
 62
3
100
AcDbLine
 10
131.6548612918696
 20
169.5675175757781
 30
0.0000000000000000
 11
105.8548612920374
 21
169.5675175757781
 31
0.0000000000000000
  0
LINE
  5
4AC
100
AcDbEntity
  8
MAIN0
  6
CONTINUOUS
 62
3
100
AcDbLine
 10
105.8548612920374
 20
169.5675175757780
 30
0.0000000000000000
 11
105.6825395216107
 21
169.7398393462048
 31
0.0000000000000000
  0
LINE
  5
4AD
100
AcDbEntity
  8
MAIN0
  6
CONTINUOUS
 62
3
100
AcDbLine
 10
131.6548612918696
 20
169.5675175757781
 30
0.0000000000000000
 11
131.8271830623399
 21
169.7398393462484
 31
0.0000000000000000
  0
LINE
  5
4AE
100
AcDbEntity
  8
MAIN0
  6
CONTINUOUS
 62
3
100
AcDbLine
 10
131.6548612918696
 20
289.9121611167165
 30
0.0000000000000000
 11
105.8548612920374
 21
289.9121611167166
 31
0.0000000000000000
  0
LINE
  5
4AF
100
AcDbEntity
  8
MAIN0
  6
CONTINUOUS
 62
3
100
AcDbLine
 10
105.8548612920374
 20
289.9121611167166
 30
0.0000000000000000
 11
105.6825395216107
 21
289.7398393462897
 31
0.0000000000000000
  0
LINE
  5
4B0
100
AcDbEntity
  8
MAIN0
  6
CONTINUOUS
 62
3
100
AcDbLine
 10
131.6548612918697
 20
289.9121611167165
 30
0.0000000000000000
 11
131.8271830623399
 21
289.7398393462462
 31
0.0000000000000000
  0
LINE
  5
4B1
100
AcDbEntity
  8
MAIN0
  6
CONTINUOUS
 62
3
100
AcDbLine
 10
381.3048612922598
 20
100.7398393462028
 30
0.0000000000000000
 11
399.8048612922597
 21
100.7398393462028
 31
0.0000000000000000
  0
LINE
  5
4B2
100
AcDbEntity
  8
MAIN0
  6
CONTINUOUS
 62
3
100
AcDbLine
 10
403.7048612922598
 20
88.43983934620275
 30
0.0000000000000000
 11
403.7048612922598
 21
77.83983934620278
 31
0.0000000000000000
  0
LINE
  5
4B3
100
AcDbEntity
  8
MAIN0
  6
CONTINUOUS
 62
3
100
AcDbLine
 10
399.8048612922599
 20
100.7398393462027
 30
0.0000000000000000
 11
399.8048612922599
 21
88.83983934620278
 31
0.0000000000000000
  0
LINE
  5
4B4
100
AcDbEntity
  8
MAIN0
  6
CONTINUOUS
 62
3
100
AcDbLine
 10
377.4048612922599
 20
88.43983934620275
 30
0.0000000000000000
 11
377.4048612922599
 21
77.83983934620278
 31
0.0000000000000000
  0
LINE
  5
4B5
100
AcDbEntity
  8
MAIN0
  6
CONTINUOUS
 62
3
100
AcDbLine
 10
381.3048612922599
 20
100.7398393462027
 30
0.0000000000000000
 11
381.3048612922599
 21
88.83983934620278
 31
0.0000000000000000
  0
LINE
  5
4B6
100
AcDbEntity
  8
MAIN0
  6
HIDDEN
 62
3
100
AcDbLine
 10
385.5548612922599
 20
98.73983934620273
 30
0.0000000000000000
 11
395.5548612922599
 21
98.73983934620273
 31
0.0000000000000000
  0
LINE
  5
4B7
100
AcDbEntity
  8
MAIN0
  6
HIDDEN
 62
3
100
AcDbLine
 10
393.8548612922598
 20
98.73983934620253
 30
0.0000000000000000
 11
393.0548612922598
 21
97.93983934620258
 31
0.0000000000000000
  0
LINE
  5
4B8
100
AcDbEntity
  8
MAIN0
  6
HIDDEN
 62
3
100
AcDbLine
 10
393.0548612922599
 20
97.93983934620266
 30
0.0000000000000000
 11
388.0548612922599
 21
97.93983934620266
 31
0.0000000000000000
  0
LINE
  5
4B9
100
AcDbEntity
  8
MAIN0
  6
HIDDEN
 62
3
100
AcDbLine
 10
388.0548612922598
 20
97.93983934620269
 30
0.0000000000000000
 11
387.2548612922597
 21
98.73983934620298
 31
0.0000000000000000
  0
LINE
  5
4BA
100
AcDbEntity
  8
MAIN0
  6
HIDDEN
 62
3
100
AcDbLine
 10
393.5548612922599
 20
98.43983934620266
 30
0.0000000000000000
 11
393.5548612922599
 21
88.73983934618531
 31
0.0000000000000000
  0
LINE
  5
4BB
100
AcDbEntity
  8
MAIN0
  6
HIDDEN
 62
3
100
AcDbLine
 10
387.5548612922599
 20
88.73983934618531
 30
0.0000000000000000
 11
387.5548612922599
 21
98.43983934620266
 31
0.0000000000000000
  0
LINE
  5
4BC
100
AcDbEntity
  8
MAIN0
  6
HIDDEN
 62
3
100
AcDbLine
 10
393.0548612922599
 20
97.93983934620266
 30
0.0000000000000000
 11
393.0548612922599
 21
86.23983934620867
 31
0.0000000000000000
  0
LINE
  5
4BD
100
AcDbEntity
  8
MAIN0
  6
HIDDEN
 62
3
100
AcDbLine
 10
388.0548612922599
 20
86.23983934620844
 30
0.0000000000000000
 11
388.0548612922599
 21
97.93983934620266
 31
0.0000000000000000
  0
LINE
  5
4BE
100
AcDbEntity
  8
MAIN0
  6
HIDDEN
 62
3
100
AcDbLine
 10
395.5548612922599
 20
100.7398393462027
 30
0.0000000000000000
 11
395.5548612922599
 21
98.73983934620273
 31
0.0000000000000000
  0
LINE
  5
4BF
100
AcDbEntity
  8
MAIN0
  6
HIDDEN
 62
3
100
AcDbLine
 10
385.5548612922599
 20
100.7398393462027
 30
0.0000000000000000
 11
385.5548612922599
 21
98.73983934620273
 31
0.0000000000000000
  0
ARC
  5
4C0
100
AcDbEntity
  8
MAIN0
  6
CONTINUOUS
 62
3
100
AcDbCircle
 10
399.9048612922599
 20
88.83983934620278
 30
0.0000000000000000
 40
0.1000000000000000
100
AcDbArc
 50
180.0000000000000
 51
270.0000000000000
  0
ARC
  5
4C1
100
AcDbEntity
  8
MAIN0
  6
CONTINUOUS
 62
3
100
AcDbCircle
 10
381.2048612922599
 20
88.83983934620278
 30
0.0000000000000000
 40
0.1000000000000000
100
AcDbArc
 50
270.0000000000000
 51
360.0000000000000
  0
LINE
  5
4C2
100
AcDbEntity
  8
MAIN0
  6
CONTINUOUS
 62
3
100
AcDbLine
 10
377.7048612922598
 20
77.53983934620277
 30
0.0000000000000000
 11
403.4048612922598
 21
77.53983934620277
 31
0.0000000000000000
  0
LINE
  5
4C3
100
AcDbEntity
  8
MAIN0
  6
CENTER
 62
3
100
AcDbLine
 10
401.0829095542057
 20
83.43983934620252
 30
0.0000000000000000
 11
379.8800946608287
 21
83.43983934620252
 31
0.0000000000000000
  0
LINE
  5
4C4
100
AcDbEntity
  8
MAIN0
  6
CONTINUOUS
 62
3
100
AcDbLine
 10
403.4048612922598
 20
77.53983934620277
 30
0.0000000000000000
 11
403.7048612922598
 21
77.83983934620281
 31
0.0000000000000000
  0
LINE
  5
4C5
100
AcDbEntity
  8
MAIN0
  6
CONTINUOUS
 62
3
100
AcDbLine
 10
403.4048612922597
 20
88.73983934620273
 30
0.0000000000000000
 11
403.7048612922598
 21
88.43983934620275
 31
0.0000000000000000
  0
LINE
  5
4C6
100
AcDbEntity
  8
MAIN0
  6
CONTINUOUS
 62
3
100
AcDbLine
 10
377.7048612922598
 20
77.53983934620274
 30
0.0000000000000000
 11
377.4048612922598
 21
77.83983934620272
 31
0.0000000000000000
  0
LINE
  5
4C7
100
AcDbEntity
  8
MAIN0
  6
CONTINUOUS
 62
3
100
AcDbLine
 10
377.4048612922599
 20
88.43983934620280
 30
0.0000000000000000
 11
377.7048612922598
 21
88.73983934620279
 31
0.0000000000000000
  0
LINE
  5
4C8
100
AcDbEntity
  8
MAIN0
  6
HIDDEN
 62
3
100
AcDbLine
 10
393.5548612922599
 20
88.73983934618531
 30
0.0000000000000000
 11
387.5548612922599
 21
88.73983934618531
 31
0.0000000000000000
  0
LINE
  5
4C9
100
AcDbEntity
  8
MAIN0
  6
CONTINUOUS
 62
3
100
AcDbLine
 10
381.2048612922599
 20
88.73983934620276
 30
0.0000000000000000
 11
377.7048612922598
 21
88.73983934620276
 31
0.0000000000000000
  0
LINE
  5
4CA
100
AcDbEntity
  8
MAIN0
  6
HIDDEN
 62
3
100
AcDbLine
 10
390.5548612921430
 20
84.79646367322084
 30
0.0000000000000000
 11
388.0548612922249
 21
86.23983934614827
 31
0.0000000000000000
  0
LINE
  5
4CB
100
AcDbEntity
  8
MAIN0
  6
HIDDEN
 62
3
100
AcDbLine
 10
390.5548612920261
 20
84.79646367301837
 30
0.0000000000000000
 11
393.0548612922948
 21
86.23983934614830
 31
0.0000000000000000
  0
CIRCLE
  5
4CC
100
AcDbEntity
  8
MAIN0
  6
CONTINUOUS
 62
3
100
AcDbCircle
 10
390.5548612922598
 20
83.43983934620252
 30
0.0000000000000000
 40
1.500000000000000
  0
CIRCLE
  5
4CD
100
AcDbEntity
  8
MAIN0
  6
CONTINUOUS
 62
3
100
AcDbCircle
 10
390.5548612922598
 20
83.43983934620252
 30
0.0000000000000000
 40
1.229367000000000
  0
LINE
  5
4CE
100
AcDbEntity
  8
MAIN0
  6
CONTINUOUS
 62
3
100
AcDbLine
 10
389.6888358884754
 20
83.43983934620246
 30
0.0000000000000000
 11
390.1218485903677
 21
82.68983934620243
 31
0.0000000000000000
  0
LINE
  5
4CF
100
AcDbEntity
  8
MAIN0
  6
CONTINUOUS
 62
3
100
AcDbLine
 10
390.1218485903676
 20
82.68983934620252
 30
0.0000000000000000
 11
390.9878739941521
 21
82.68983934620252
 31
0.0000000000000000
  0
LINE
  5
4D0
100
AcDbEntity
  8
MAIN0
  6
CONTINUOUS
 62
3
100
AcDbLine
 10
390.9878739941521
 20
82.68983934620249
 30
0.0000000000000000
 11
391.4208866960443
 21
83.43983934620252
 31
0.0000000000000000
  0
LINE
  5
4D1
100
AcDbEntity
  8
MAIN0
  6
CONTINUOUS
 62
3
100
AcDbLine
 10
391.4208866960443
 20
83.43983934620246
 30
0.0000000000000000
 11
390.9878739941521
 21
84.18983934620246
 31
0.0000000000000000
  0
LINE
  5
4D2
100
AcDbEntity
  8
MAIN0
  6
CONTINUOUS
 62
3
100
AcDbLine
 10
390.9878739941521
 20
84.18983934620252
 30
0.0000000000000000
 11
390.1218485903676
 21
84.18983934620252
 31
0.0000000000000000
  0
LINE
  5
4D3
100
AcDbEntity
  8
MAIN0
  6
CONTINUOUS
 62
3
100
AcDbLine
 10
390.1218485903676
 20
84.18983934620249
 30
0.0000000000000000
 11
389.6888358884754
 21
83.43983934620249
 31
0.0000000000000000
  0
LINE
  5
4D4
100
AcDbEntity
  8
MAIN0
  6
CONTINUOUS
 62
3
100
AcDbLine
 10
385.5548612922597
 20
104.7398393462028
 30
0.0000000000000000
 11
395.5548612922599
 21
104.7398393462028
 31
0.0000000000000000
  0
LINE
  5
4D5
100
AcDbEntity
  8
MAIN0
  6
CONTINUOUS
 62
3
100
AcDbLine
 10
385.5548612922599
 20
100.7398393462028
 30
0.0000000000000000
 11
385.5548612922597
 21
104.7398393462010
 31
0.0000000000000000
  0
LINE
  5
4D6
100
AcDbEntity
  8
MAIN0
  6
CONTINUOUS
 62
3
100
AcDbLine
 10
395.5548612922599
 20
100.7398393462027
 30
0.0000000000000000
 11
395.5548612922599
 21
104.7398393462010
 31
0.0000000000000000
  0
LINE
  5
4D7
100
AcDbEntity
  8
MAIN0
  6
HIDDEN
 62
3
100
AcDbLine
 10
387.0548612922599
 20
98.73983934620276
 30
0.0000000000000000
 11
387.0548612922597
 21
104.7398393462011
 31
0.0000000000000000
  0
LINE
  5
4D8
100
AcDbEntity
  8
MAIN0
  6
HIDDEN
 62
3
100
AcDbLine
 10
394.0548612922598
 20
98.73983934620273
 30
0.0000000000000000
 11
394.0548612922599
 21
104.7398393462010
 31
0.0000000000000000
  0
LINE
  5
4D9
100
AcDbEntity
  8
MAIN0
  6
CENTER
 62
3
100
AcDbLine
 10
390.5548612920395
 20
108.9790427900178
 30
0.0000000000000000
 11
390.5548612920209
 21
75.27805995252328
 31
0.0000000000000000
  0
LINE
  5
4DA
100
AcDbEntity
  8
MAIN0
  6
HIDDEN
 62
3
100
AcDbLine
 10
393.0548612922598
 20
86.23983934620867
 30
0.0000000000000000
 11
388.0548612922598
 21
86.23983934620844
 31
0.0000000000000000
  0
LINE
  5
4DB
100
AcDbEntity
  8
MAIN0
  6
CENTER
 62
3
100
AcDbLine
 10
382.0548612920254
 20
86.04641366892133
 30
0.0000000000000000
 11
382.0548612920254
 21
80.69601748273885
 31
0.0000000000000000
  0
LINE
  5
4DC
100
AcDbEntity
  8
MAIN0
  6
CENTER
 62
3
100
AcDbLine
 10
399.0548612920254
 20
86.04641366892136
 30
0.0000000000000000
 11
399.0548612920254
 21
80.69601748273888
 31
0.0000000000000000
  0
CIRCLE
  5
4DD
100
AcDbEntity
  8
MAIN0
  6
CONTINUOUS
 62
3
100
AcDbCircle
 10
390.5548612920254
 20
83.43983934620252
 30
0.0000000000000000
 40
3.000000000000172
  0
LINE
  5
4DE
100
AcDbEntity
  8
MAIN0
  6
CONTINUOUS
 62
3
100
AcDbLine
 10
51.31565631560937
 20
72.33587230760003
 30
0.0000000000000000
 11
110.0483337091535
 21
72.33587230759946
 31
0.0000000000000000
  0
MTEXT
  5
4DF
100
AcDbEntity
  8
MAIN0
  6
CONTINUOUS
 62
3
100
AcDbMText
 10
67.86365771458151
 20
75.90265215114900
 30
0.0000000000000000
 40
3.099999904632568
 41
0.0000000000000000
 71
     1
 72
     1
  1
{\H0.93x;{ベース配管詳細}}
 11
1.000000000000000
 21
0.0000000000000000
 31
0.0000000000000000
  7
KNJYOKO
  0
LINE
  5
4E0
100
AcDbEntity
  8
MAIN0
  6
CONTINUOUS
 62
3
100
AcDbLine
 10
70.35075044720685
 20
93.39804194365726
 30
0.0000000000000000
 11
70.35075044720719
 21
106.1047101187423
 31
0.0000000000000000
  0
LINE
  5
4E1
100
AcDbEntity
  8
MAIN0
  6
CENTER
 62
3
100
AcDbLine
 10
69.36659956744956
 20
99.75137603119282
 30
0.0000000000000000
 11
91.19694376664103
 21
99.75137603119174
 31
0.0000000000000000
  0
LINE
  5
4E2
100
AcDbEntity
  8
MAIN0
  6
CONTINUOUS
 62
3
100
AcDbLine
 10
70.35075044720702
 20
101.2513760311929
 30
0.0000000000000000
 11
79.35075044720702
 21
101.2513760311924
 31
0.0000000000000000
  0
LINE
  5
4E3
100
AcDbEntity
  8
MAIN0
  6
CONTINUOUS
 62
3
100
AcDbLine
 10
70.35075044720691
 20
98.25137603119282
 30
0.0000000000000000
 11
79.35075044720691
 21
98.25137603119239
 31
0.0000000000000000
  0
LINE
  5
4E4
100
AcDbEntity
  8
MAIN0
  6
CONTINUOUS
 62
3
100
AcDbLine
 10
80.35075044720685
 20
93.39804194365701
 30
0.0000000000000000
 11
80.35075044720713
 21
106.1047101187421
 31
0.0000000000000000
  0
LINE
  5
4E5
100
AcDbEntity
  8
MAIN0
  6
CONTINUOUS
 62
3
100
AcDbLine
 10
79.35075044720702
 20
103.0513760311924
 30
0.0000000000000000
 11
80.35075044720702
 21
103.0513760311923
 31
0.0000000000000000
  0
LINE
  5
4E6
100
AcDbEntity
  8
MAIN0
  6
CONTINUOUS
 62
3
100
AcDbLine
 10
79.35075044720685
 20
96.45137603119227
 30
0.0000000000000000
 11
80.35075044720685
 21
96.45137603119221
 31
0.0000000000000000
  0
LINE
  5
4E7
100
AcDbEntity
  8
MAIN0
  6
CONTINUOUS
 62
3
100
AcDbLine
 10
79.35075044720708
 20
103.0513760311922
 30
0.0000000000000000
 11
79.35075044720691
 21
96.45137603119233
 31
0.0000000000000000
  0
LINE
  5
4E8
100
AcDbEntity
  8
MAIN0
  6
CONTINUOUS
 62
3
100
AcDbLine
 10
70.35075044720702
 20
106.1047101187282
 30
0.0000000000000000
 11
90.35075044720713
 21
106.1047101187267
 31
0.0000000000000000
  0
LINE
  5
4E9
100
AcDbEntity
  8
MAIN0
  6
CONTINUOUS
 62
3
100
AcDbLine
 10
70.35075044720691
 20
93.39804194365723
 30
0.0000000000000000
 11
90.35075044720691
 21
93.39804194365675
 31
0.0000000000000000
  0
MTEXT
  5
4EA
100
AcDbEntity
  8
MAIN0
  6
CONTINUOUS
 62
3
100
AcDbMText
 10
47.08553734569404
 20
86.04157646573398
 30
0.0000000000000000
 40
3.099999904632568
 41
0.0000000000000000
 71
     1
 72
     1
  1
{\H0.71x;{(お客様にて手配)\P(Customer prepare)}}
 11
1.000000000000000
 21
0.0000000000000000
 31
0.0000000000000000
  7
KNJYOKO
  0
LINE
  5
4EB
100
AcDbEntity
  8
MAIN0
  6
CONTINUOUS
 62
3
100
AcDbLine
 10
90.35075044720691
 20
93.39804194365686
 30
0.0000000000000000
 11
90.35075044720719
 21
106.1047101187419
 31
0.0000000000000000
  0
MTEXT
  5
4EC
100
AcDbEntity
  8
MAIN0
  6
CONTINUOUS
 62
3
100
AcDbMText
 10
52.35824716299322
 20
71.75462600044395
 30
0.0000000000000000
 40
3.099999904632568
 41
0.0000000000000000
 71
     1
 72
     1
  1
{\H0.71x;{Detail of direct connecting}}
 11
1.000000000000000
 21
0.0000000000000000
 31
0.0000000000000000
  7
STANDARD
  0
ELLIPSE
  5
4ED
100
AcDbEntity
  8
MAIN0
  6
CONTINUOUS
 62
3
100
AcDbEllipse
 10
79.85075044720708
 20
102.3013760311922
 30
0.0000000000000000
 11
0.0000000000000000
 21
0.7500000000000000
 31
0.0000000000000000
210
0.0000000000000000
220
0.0000000000000000
230
1.000000000000000
 40
0.6666666666666666
 41
0.0000000000000000
 42
6.283185307179586
  0
ELLIPSE
  5
4EE
100
AcDbEntity
  8
MAIN0
  6
CONTINUOUS
 62
3
100
AcDbEllipse
 10
79.85075044720685
 20
97.20137603119233
 30
0.0000000000000000
 11
0.0000000000000000
 21
-0.7500000000000000
 31
0.0000000000000000
210
0.0000000000000000
220
0.0000000000000000
230
1.000000000000000
 40
0.6666666666666666
 41
0.0000000000000000
 42
6.283185307179586
  0
LEADER
  5
4EF
100
AcDbEntity
  8
MAIN0
  6
CONTINUOUS
 62
3
100
AcDbLeader
  3
MAIN001
 73
     0
 75
     1
 40
3.099999904632568
 41
14.59900000894069
 76
     3
 10
71.79911055464453
 20
95.05460260435027
 30
0.0000000000000000
 10
63.88584162228091
 20
90.58743536542596
 30
0.0000000000000000
 10
62.09884167494161
 20
90.58743536542596
 30
0.0000000000000000
340
4F0
213
0.0000000000000000
223
-0.5000000000000000
233
0.0000000000000000
1001
ACAD
1000
DSTYLE
1002
{
1070
   147
1040
0.0
1070
    77
1070
     1
1070
   173
1070
     1
1070
     6
1000
_DOT
1070
     7
1000
_DOT
1002
}
  0
MTEXT
  5
4F0
102
{ACAD_REACTORS
330
4EF
102
}
100
AcDbEntity
  8
MAIN0
  6
CONTINUOUS
 62
3
100
AcDbMText
 10
47.49984166600092
 20
94.18743527005853
 30
0.0000000000000000
 40
3.099999904632568
 41
0.0000000000000000
 71
     1
 72
     1
  1
{\H0.70x;{アダプタ\PAdaptor}}
 11
1.000000000000000
 21
0.0000000000000000
 31
0.0000000000000000
  7
KNJYOKO
  0
LEADER
  5
4F1
100
AcDbEntity
  8
MAIN0
  6
CONTINUOUS
 62
3
100
AcDbLeader
  3
MAIN001
 73
     0
 74
     0
 75
     1
 40
3.099999904632568
 41
14.60100000894069
 76
     3
 10
83.57826050926070
 20
95.89326795388544
 30
0.0000000000000000
 10
90.08687513553730
 20
85.39877855022988
 30
0.0000000000000000
 10
91.87187508287660
 20
85.39877855022988
 30
0.0000000000000000
340
4F2
213
0.0000000000000000
223
-0.5000000000000000
233
0.0000000000000000
1001
ACAD
1000
DSTYLE
1002
{
1070
   147
1040
0.0
1070
    77
1070
     1
1070
   173
1070
     1
1070
     6
1000
_DOT
1070
     7
1000
_DOT
1002
}
  0
MTEXT
  5
4F2
102
{ACAD_REACTORS
330
4F1
102
}
100
AcDbEntity
  8
MAIN0
  6
CONTINUOUS
 62
3
100
AcDbMText
 10
91.87287508287659
 20
88.99877845486245
 30
0.0000000000000000
 40
3.099999904632568
 41
0.0000000000000000
 71
     1
 72
     1
  1
{\H0.70x;{グリッパ\PGripper}}
 11
1.000000000000000
 21
0.0000000000000000
 31
0.0000000000000000
  7
KNJYOKO
  0
LEADER
  5
4F3
100
AcDbEntity
  8
MAIN0
  6
CONTINUOUS
 62
3
100
AcDbLeader
  3
MAIN001
 73
     0
 74
     0
 75
     1
 40
3.099999904632568
 41
17.10100000894069
 76
     3
 10
79.35075044720696
 20
103.0513760311924
 30
0.0000000000000000
 10
84.56244447968007
 20
119.8154603404525
 30
0.0000000000000000
 10
86.34744442701937
 20
119.8154603404525
 30
0.0000000000000000
340
4F4
213
0.0000000000000000
223
-0.5000000000000000
233
0.0000000000000000
1001
ACAD
1000
DSTYLE
1002
{
1070
   147
1040
0.0
1070
    77
1070
     1
1070
   173
1070
     1
1070
     6
1000
_OPEN
1070
     7
1000
_OPEN
1002
}
  0
MTEXT
  5
4F4
102
{ACAD_REACTORS
330
4F3
102
}
100
AcDbEntity
  8
MAIN0
  6
CONTINUOUS
 62
3
100
AcDbMText
 10
86.34844442701936
 20
123.4154602450850
 30
0.0000000000000000
 40
3.099999904632568
 41
0.0000000000000000
 71
     1
 72
     1
  1
{\H0.70x;{Ｏリング　S4\PO-ring\P}
 11
1.000000000000000
 21
0.0000000000000000
 31
0.0000000000000000
  7
KNJYOKO
  0
DIMENSION
  5
4FF
100
AcDbEntity
  8
MAIN0
  6
CONTINUOUS
 62
3
100
AcDbDimension
  2
*D43
 10
64.69585580420409
 20
101.2513760311927
 30
0.0000000000000000
 11
64.19585580420409
 21
106.2835435918549
 31
0.0000000000000000
 70
160
  1
\A1;\U+22053
  3
MAIN001
100
AcDbAlignedDimension
 13
70.35075044720696
 23
98.25137603119273
 33
0.0000000000000000
 14
70.35075044720696
 24
101.2513760311927
 34
0.0000000000000000
 50
90.00000000000000
100
AcDbRotatedDimension
1001
ACAD
1000
DSTYLE
1002
{
1070
   173
1070
     1
1070
     6
1000
_OPEN
1070
     7
1000
_OPEN
1070
    41
1040
2.000000
1070
   287
1070
     0
1002
}
  0
DIMENSION
  5
509
100
AcDbEntity
  8
MAIN0
  6
CONTINUOUS
 62
3
100
AcDbDimension
  2
*D44
 10
57.15654369236364
 20
103.0513760311924
 30
0.0000000000000000
 11
56.65654369236364
 21
107.7567400594312
 31
0.0000000000000000
 70
160
  1
\A1;\U+22056.6
  3
MAIN001
100
AcDbAlignedDimension
 13
79.35075044720685
 23
96.45137603119233
 33
0.0000000000000000
 14
79.35075044720708
 24
103.0513760311924
 34
0.0000000000000000
 50
90.00000000000000
100
AcDbRotatedDimension
1001
ACAD
1000
DSTYLE
1002
{
1070
   173
1070
     1
1070
     6
1000
_OPEN
1070
     7
1000
_OPEN
1070
    41
1040
2.000000
1002
}
  0
DIMENSION
  5
514
100
AcDbEntity
  8
MAIN0
  6
CONTINUOUS
 62
3
100
AcDbDimension
  2
*D45
 10
80.35075044720696
 20
90.05701391185104
 30
0.0000000000000000
 11
77.09191764550582
 21
90.39034724518442
 31
0.0000000000000000
 70
160
  3
MAIN001
100
AcDbAlignedDimension
 13
79.35075044720696
 23
96.45137603119233
 33
0.0000000000000000
 14
80.35075044720691
 24
93.39804194365706
 34
0.0000000000000000
100
AcDbRotatedDimension
1001
ACAD
1000
DSTYLE
1002
{
1070
   173
1070
     1
1070
     6
1000
_OPEN
1070
     7
1000
_OPEN
1070
    41
1040
2.000000
1070
   287
1070
     0
1002
}
  0
INSERT
  5
526
100
AcDbEntity
  8
MAIN0
  6
CONTINUOUS
 62
3
100
AcDbBlockReference
  2
*X0
 10
0.0000000000000000
 20
0.0000000000000000
 30
0.0000000000000000
 50
0.0000000000000000
  0
INSERT
  5
537
100
AcDbEntity
  8
MAIN0
  6
CONTINUOUS
 62
3
100
AcDbBlockReference
  2
*X1
 10
0.0000000000000000
 20
0.0000000000000000
 30
0.0000000000000000
 50
0.0000000000000000
  0
INSERT
  5
541
100
AcDbEntity
  8
MAIN0
  6
CONTINUOUS
 62
3
100
AcDbBlockReference
  2
*X2
 10
0.0000000000000000
 20
0.0000000000000000
 30
0.0000000000000000
 50
0.0000000000000000
  0
INSERT
  5
54B
100
AcDbEntity
  8
MAIN0
  6
CONTINUOUS
 62
3
100
AcDbBlockReference
  2
*X3
 10
0.0000000000000000
 20
0.0000000000000000
 30
0.0000000000000000
 50
0.0000000000000000
  0
ARC
  5
54C
100
AcDbEntity
  8
MAIN0
  6
PHANTOM
 62
12
100
AcDbCircle
 10
514.2974656239575
 20
293.0398393462669
 30
0.0000000000000000
 40
1.000000000000000
100
AcDbArc
 50
160.2282007512279
 51
269.9999999999999
  0
LINE
  5
54D
100
AcDbEntity
  8
MAIN0
  6
PHANTOM
 62
12
100
AcDbLine
 10
512.5755872341820
 20
292.0398393462669
 30
0.0000000000000000
 11
512.5755872341820
 21
289.7398393462669
 31
0.0000000000000000
  0
LINE
  5
54E
100
AcDbEntity
  8
MAIN0
  6
PHANTOM
 62
12
100
AcDbLine
 10
514.5963131763458
 20
292.0398393462669
 30
0.0000000000000000
 11
514.5963131763458
 21
289.7398393462669
 31
0.0000000000000000
  0
LINE
  5
54F
100
AcDbEntity
  8
MAIN0
  6
PHANTOM
 62
12
100
AcDbLine
 10
508.5341353498547
 20
292.0398393462669
 30
0.0000000000000000
 11
508.5341353498547
 21
289.7398393462669
 31
0.0000000000000000
  0
LINE
  5
550
100
AcDbEntity
  8
MAIN0
  6
PHANTOM
 62
12
100
AcDbLine
 10
506.5134094076911
 20
292.0398393462669
 30
0.0000000000000000
 11
506.5134094076911
 21
289.7398393462669
 31
0.0000000000000000
  0
LINE
  5
551
100
AcDbEntity
  8
MAIN0
  6
PHANTOM
 62
12
100
AcDbLine
 10
507.7533043404952
 20
293.3781141277863
 30
0.0000000000000000
 11
507.4494051363153
 21
294.2235320117902
 31
0.0000000000000000
  0
ARC
  5
552
100
AcDbEntity
  8
MAIN0
  6
PHANTOM
 62
12
100
AcDbCircle
 10
506.8122569600790
 20
293.0398393462669
 30
0.0000000000000000
 40
1.000000000000000
100
AcDbArc
 50
269.9999999999997
 51
379.7717992487710
  0
ARC
  5
553
100
AcDbEntity
  8
MAIN0
  6
PHANTOM
 62
12
100
AcDbCircle
 10
510.5548612920182
 20
295.3398393462669
 30
0.0000000000000000
 40
3.299999999999997
100
AcDbArc
 50
130.7490543774721
 51
199.7718095177823
  0
ARC
  5
554
100
AcDbEntity
  8
MAIN0
  6
PHANTOM
 62
12
100
AcDbCircle
 10
510.5548612920182
 20
295.3398393462669
 30
0.0000000000000000
 40
3.299999999999997
100
AcDbArc
 50
340.2282116100356
 51
409.2509456225276
  0
LINE
  5
555
100
AcDbEntity
  8
MAIN0
  6
PHANTOM
 62
12
100
AcDbLine
 10
513.6603181158879
 20
294.2235338705646
 30
0.0000000000000000
 11
513.3564182435413
 21
293.3781141277864
 31
0.0000000000000000
  0
LINE
  5
556
100
AcDbEntity
  8
MAIN0
  6
PHANTOM
 62
12
100
AcDbLine
 10
508.4007953691647
 20
297.8398393462669
 30
0.0000000000000000
 11
512.7089272148717
 21
297.8398393462669
 31
0.0000000000000000
  0
ARC
  5
557
100
AcDbEntity
  8
MAIN0
  6
PHANTOM
 62
12
100
AcDbCircle
 10
510.5548612920182
 20
297.7091880958582
 30
0.0000000000000000
 40
1.000000000000000
100
AcDbArc
 50
7.507227195575354
 51
172.4927728044245
  0
LINE
  5
558
100
AcDbEntity
  8
MAIN0
  6
PHANTOM
 62
3
100
AcDbLine
 10
514.5963131763458
 20
292.0398393462669
 30
0.0000000000000000
 11
506.5134094076911
 21
292.0398393462669
 31
0.0000000000000000
  0
LINE
  5
559
100
AcDbEntity
  8
MAIN0
  6
CENTER
 62
3
100
AcDbLine
 10
510.5548612920239
 20
300.1896697574433
 30
0.0000000000000000
 11
510.5548612920239
 21
288.0551206033301
 31
0.0000000000000000
  0
CIRCLE
  5
55A
100
AcDbEntity
  8
MAIN0
  6
CONTINUOUS
 62
3
100
AcDbCircle
 10
380.0548612921205
 20
377.9121611167133
 30
0.0000000000000000
 40
3.000000000000000
  0
CIRCLE
  5
55B
100
AcDbEntity
  8
MAIN0
  6
CONTINUOUS
 62
3
100
AcDbCircle
 10
380.0548612921205
 20
377.9121611167133
 30
0.0000000000000000
 40
2.458734000000000
  0
LINE
  5
55C
100
AcDbEntity
  8
MAIN0
  6
CONTINUOUS
 62
3
100
AcDbLine
 10
381.7869120996894
 20
377.9121611167133
 30
0.0000000000000000
 11
380.9208866959050
 21
379.4121611167133
 31
0.0000000000000000
  0
LINE
  5
55D
100
AcDbEntity
  8
MAIN0
  6
CONTINUOUS
 62
3
100
AcDbLine
 10
380.9208866959050
 20
379.4121611167133
 30
0.0000000000000000
 11
379.1888358883361
 21
379.4121611167133
 31
0.0000000000000000
  0
LINE
  5
55E
100
AcDbEntity
  8
MAIN0
  6
CONTINUOUS
 62
3
100
AcDbLine
 10
379.1888358883361
 20
379.4121611167133
 30
0.0000000000000000
 11
378.3228104845517
 21
377.9121611167132
 31
0.0000000000000000
  0
LINE
  5
55F
100
AcDbEntity
  8
MAIN0
  6
CONTINUOUS
 62
3
100
AcDbLine
 10
378.3228104845517
 20
377.9121611167133
 30
0.0000000000000000
 11
379.1888358883361
 21
376.4121611167133
 31
0.0000000000000000
  0
LINE
  5
560
100
AcDbEntity
  8
MAIN0
  6
CONTINUOUS
 62
3
100
AcDbLine
 10
379.1888358883361
 20
376.4121611167133
 30
0.0000000000000000
 11
380.9208866959050
 21
376.4121611167133
 31
0.0000000000000000
  0
LINE
  5
561
100
AcDbEntity
  8
MAIN0
  6
CONTINUOUS
 62
3
100
AcDbLine
 10
380.9208866959050
 20
376.4121611167132
 30
0.0000000000000000
 11
381.7869120996894
 21
377.9121611167133
 31
0.0000000000000000
  0
LINE
  5
562
100
AcDbEntity
  8
MAIN0
  6
CONTINUOUS
 62
3
100
AcDbLine
 10
368.5548612920267
 20
245.2398393464802
 30
0.0000000000000000
 11
369.5548612920267
 21
246.2398393464792
 31
0.0000000000000000
  0
CIRCLE
  5
563
100
AcDbEntity
  8
MAIN0
  6
CONTINUOUS
 62
3
100
AcDbCircle
 10
332.2548612920332
 20
79.23983934612460
 30
0.0000000000000000
 40
2.500000000000000
  0
CIRCLE
  5
564
100
AcDbEntity
  8
MAIN0
  6
CONTINUOUS
 62
3
100
AcDbCircle
 10
332.2548612920332
 20
79.23983934612460
 30
0.0000000000000000
 40
2.100000000000000
  0
LINE
  5
565
100
AcDbEntity
  8
MAIN0
  6
CONTINUOUS
 62
3
100
AcDbLine
 10
268.0548612919951
 20
288.7398393469483
 30
0.0000000000000000
 11
268.0548612920073
 21
246.2398393467223
 31
0.0000000000000000
  0
ARC
  5
566
100
AcDbEntity
  8
MAIN0
  6
CONTINUOUS
 62
3
100
AcDbCircle
 10
271.8048612920620
 20
272.7398393455896
 30
0.0000000000000000
 40
4.750000000000000
100
AcDbArc
 50
142.1363536382028
 51
217.8636463616632
  0
LINE
  5
567
100
AcDbEntity
  8
MAIN0
  6
CONTINUOUS
 62
3
100
AcDbLine
 10
268.0548612919948
 20
288.7398393469484
 30
0.0000000000000000
 11
267.0548612919946
 21
289.7398393469493
 31
0.0000000000000000
  0
LINE
  5
568
100
AcDbEntity
  8
MAIN0
  6
HIDDEN
 62
3
100
AcDbLine
 10
477.9548612920166
 20
191.4898393460839
 30
0.0000000000000000
 11
485.5548612920164
 21
191.4898393460966
 31
0.0000000000000000
  0
LINE
  5
569
100
AcDbEntity
  8
MAIN0
  6
HIDDEN
 62
3
100
AcDbLine
 10
477.5548612920155
 20
191.8898393460826
 30
0.0000000000000000
 11
477.9548612920167
 21
191.4898393460838
 31
0.0000000000000000
  0
LINE
  5
56A
100
AcDbEntity
  8
MAIN0
  6
CONTINUOUS
 62
3
100
AcDbLine
 10
399.9048612922598
 20
88.73983934618201
 30
0.0000000000000000
 11
403.4048612922597
 21
88.73983934617428
 31
0.0000000000000000
  0
CIRCLE
  5
56B
100
AcDbEntity
  8
MAIN0
  6
CONTINUOUS
 62
3
100
AcDbCircle
 10
382.0548612920254
 20
83.43983934620252
 30
0.0000000000000000
 40
1.250000000000000
  0
CIRCLE
  5
56C
100
AcDbEntity
  8
MAIN0
  6
CONTINUOUS
 62
3
100
AcDbCircle
 10
382.0548612920254
 20
83.43983934620252
 30
0.0000000000000000
 40
1.500000000000000
  0
CIRCLE
  5
56D
100
AcDbEntity
  8
MAIN0
  6
CONTINUOUS
 62
3
100
AcDbCircle
 10
399.0548612920254
 20
83.43983934620252
 30
0.0000000000000000
 40
1.250000000000000
  0
CIRCLE
  5
56E
100
AcDbEntity
  8
MAIN0
  6
CONTINUOUS
 62
3
100
AcDbCircle
 10
399.0548612920254
 20
83.43983934620252
 30
0.0000000000000000
 40
1.500000000000000
  0
MTEXT
  5
56F
100
AcDbEntity
  8
MAIN0
  6
CONTINUOUS
 62
3
100
AcDbMText
 10
85.96640412729431
 20
115.2574613507111
 30
0.0000000000000000
 40
3.099999904632568
 41
0.0000000000000000
 71
     1
 72
     1
  1
{\H0.71x;{(お客様にて手配)\P(Customer prepare)}}
 11
1.000000000000000
 21
0.0000000000000000
 31
0.0000000000000000
  7
KNJYOKO
  0
LINE
  5
570
100
AcDbEntity
  8
MAIN0
  6
CONTINUOUS
 62
3
100
AcDbLine
 10
80.35075044720719
 20
101.5013760311923
 30
0.0000000000000000
 11
80.85075044720719
 21
101.0013760311923
 31
0.0000000000000000
  0
LINE
  5
571
100
AcDbEntity
  8
MAIN0
  6
CONTINUOUS
 62
3
100
AcDbLine
 10
80.85075044720708
 20
101.0013760311923
 30
0.0000000000000000
 11
80.85075044720708
 21
98.50137603119228
 31
0.0000000000000000
  0
LINE
  5
572
100
AcDbEntity
  8
MAIN0
  6
CONTINUOUS
 62
3
100
AcDbLine
 10
80.85075044720725
 20
98.50137603119231
 30
0.0000000000000000
 11
80.35075044720713
 21
98.00137603119225
 31
0.0000000000000000
  0
LINE
  5
573
100
AcDbEntity
  8
MAIN0
  6
CONTINUOUS
 62
3
100
AcDbLine
 10
80.60075044720708
 20
101.2513760311923
 30
0.0000000000000000
 11
84.35075044720708
 21
101.2513760311923
 31
0.0000000000000000
  0
LINE
  5
574
100
AcDbEntity
  8
MAIN0
  6
CONTINUOUS
 62
3
100
AcDbLine
 10
84.35075044720708
 20
101.2513760311923
 30
0.0000000000000000
 11
84.35075044720708
 21
98.25137603119228
 31
0.0000000000000000
  0
LINE
  5
575
100
AcDbEntity
  8
MAIN0
  6
CONTINUOUS
 62
3
100
AcDbLine
 10
84.35075044720708
 20
98.25137603119228
 30
0.0000000000000000
 11
80.60075044720708
 21
98.25137603119228
 31
0.0000000000000000
  0
LINE
  5
576
100
AcDbEntity
  8
MAIN0
  6
CONTINUOUS
 62
3
100
AcDbLine
 10
80.85075044720708
 20
101.0013760311923
 30
0.0000000000000000
 11
90.35075044720708
 21
101.0013760311923
 31
0.0000000000000000
  0
LINE
  5
577
100
AcDbEntity
  8
MAIN0
  6
CONTINUOUS
 62
3
100
AcDbLine
 10
90.35075044720696
 20
98.50137603119228
 30
0.0000000000000000
 11
80.85075044720708
 21
98.50137603119228
 31
0.0000000000000000
  0
LINE
  5
578
100
AcDbEntity
  8
WAKU0
  6
CONTINUOUS
 62
3
100
AcDbLine
 10
412.0000000000000
 20
51.00000000000000
 30
0.0000000000000000
 11
582.0000000000000
 21
51.00000000000000
 31
0.0000000000000000
  0
LINE
  5
579
100
AcDbEntity
  8
WAKU0
  6
CONTINUOUS
 62
3
100
AcDbLine
 10
412.0000000000000
 20
51.00000000000000
 30
0.0000000000000000
 11
412.0000000000000
 21
12.00000000000000
 31
0.0000000000000000
  0
LINE
  5
57A
100
AcDbEntity
  8
WAKU0
  6
CONTINUOUS
 62
3
100
AcDbLine
 10
484.0000000000000
 20
51.00000000000000
 30
0.0000000000000000
 11
484.0000000000000
 21
12.00000000000000
 31
0.0000000000000000
  0
LINE
  5
57B
100
AcDbEntity
  8
WAKU0
  6
CONTINUOUS
 62
3
100
AcDbLine
 10
504.0000000000000
 20
51.00000000000000
 30
0.0000000000000000
 11
504.0000000000000
 21
12.00000000000000
 31
0.0000000000000000
  0
LINE
  5
57C
100
AcDbEntity
  8
WAKU0
  6
CONTINUOUS
 62
3
100
AcDbLine
 10
516.0000000000000
 20
51.00000000000000
 30
0.0000000000000000
 11
516.0000000000000
 21
12.00000000000000
 31
0.0000000000000000
  0
LINE
  5
57D
100
AcDbEntity
  8
WAKU0
  6
CONTINUOUS
 62
3
100
AcDbLine
 10
516.0000000000000
 20
37.00000000000000
 30
0.0000000000000000
 11
582.0000000000000
 21
37.00000000000000
 31
0.0000000000000000
  0
LINE
  5
57E
100
AcDbEntity
  8
WAKU0
  6
CONTINUOUS
 62
3
100
AcDbLine
 10
504.0000000000000
 20
23.00000000000000
 30
0.0000000000000000
 11
582.0000000000000
 21
23.00000000000000
 31
0.0000000000000000
  0
LINE
  5
57F
100
AcDbEntity
  8
WAKU0
  6
CONTINUOUS
 62
3
100
AcDbLine
 10
547.0000000000000
 20
51.00000000000000
 30
0.0000000000000000
 11
547.0000000000000
 21
44.00000000000000
 31
0.0000000000000000
  0
LINE
  5
580
100
AcDbEntity
  8
WAKU0
  6
CONTINUOUS
 62
3
100
AcDbLine
 10
559.0000000000000
 20
51.00000000000000
 30
0.0000000000000000
 11
559.0000000000000
 21
44.00000000000000
 31
0.0000000000000000
  0
LINE
  5
581
100
AcDbEntity
  8
WAKU0
  6
CONTINUOUS
 62
3
100
AcDbLine
 10
484.0000000000000
 20
31.50000000000000
 30
0.0000000000000000
 11
504.0000000000000
 21
31.50000000000000
 31
0.0000000000000000
  0
LINE
  5
582
100
AcDbEntity
  8
WAKU0
  6
CONTINUOUS
 62
3
100
AcDbLine
 10
504.0000000000000
 20
44.00000000000000
 30
0.0000000000000000
 11
582.0000000000000
 21
44.00000000000000
 31
0.0000000000000000
  0
LINE
  5
583
100
AcDbEntity
  8
WAKU0
  6
CONTINUOUS
 62
3
100
AcDbLine
 10
412.0000000000000
 20
37.00000000000000
 30
0.0000000000000000
 11
484.0000000000000
 21
37.00000000000000
 31
0.0000000000000000
  0
LINE
  5
584
100
AcDbEntity
  8
WAKU0
  6
CONTINUOUS
 62
3
100
AcDbLine
 10
412.0000000000000
 20
23.00000000000000
 30
0.0000000000000000
 11
484.0000000000000
 21
23.00000000000000
 31
0.0000000000000000
  0
LINE
  5
585
100
AcDbEntity
  8
WAKU0
  6
CONTINUOUS
 62
3
100
AcDbLine
 10
460.0000000000000
 20
37.00000000000000
 30
0.0000000000000000
 11
460.0000000000000
 21
12.00000000000000
 31
0.0000000000000000
  0
LINE
  5
586
100
AcDbEntity
  8
WAKU0
  6
CONTINUOUS
 62
3
100
AcDbLine
 10
436.0000000000000
 20
37.00000000000000
 30
0.0000000000000000
 11
436.0000000000000
 21
23.00000000000000
 31
0.0000000000000000
  0
LINE
  5
587
100
AcDbEntity
  8
WAKU0
  6
CONTINUOUS
 62
3
100
AcDbLine
 10
472.0000000000000
 20
26.00000000000000
 30
0.0000000000000000
 11
472.0000000000000
 21
23.00000000000000
 31
0.0000000000000000
  0
LINE
  5
588
100
AcDbEntity
  8
WAKU0
  6
CONTINUOUS
 62
3
100
AcDbLine
 10
448.0000000000000
 20
26.00000000000000
 30
0.0000000000000000
 11
448.0000000000000
 21
23.00000000000000
 31
0.0000000000000000
  0
LINE
  5
589
100
AcDbEntity
  8
WAKU0
  6
CONTINUOUS
 62
3
100
AcDbLine
 10
424.0000000000000
 20
26.00000000000000
 30
0.0000000000000000
 11
424.0000000000000
 21
23.00000000000000
 31
0.0000000000000000
  0
LINE
  5
58A
100
AcDbEntity
  8
WAKU0
  6
CONTINUOUS
 62
3
100
AcDbLine
 10
430.0000000000000
 20
51.00000000000000
 30
0.0000000000000000
 11
430.0000000000000
 21
37.00000000000000
 31
0.0000000000000000
  0
LINE
  5
58B
100
AcDbEntity
  8
WAKU0
  6
CONTINUOUS
 62
3
100
AcDbLine
 10
412.0000000000000
 20
45.00000000000000
 30
0.0000000000000000
 11
484.0000000000000
 21
45.00000000000000
 31
0.0000000000000000
  0
LINE
  5
58C
100
AcDbEntity
  8
WAKU0
  6
HIDDEN
 62
3
100
AcDbLine
 10
532.5000000000000
 20
23.00000000000000
 30
0.0000000000000000
 11
532.5000000000000
 21
12.00000000000000
 31
0.0000000000000000
  0
LINE
  5
58D
100
AcDbEntity
  8
WAKU0
  6
HIDDEN
 62
3
100
AcDbLine
 10
544.9000000000000
 20
23.00000000000000
 30
0.0000000000000000
 11
544.9000000000000
 21
12.00000000000000
 31
0.0000000000000000
  0
MTEXT
  5
58E
100
AcDbEntity
  8
WAKU0
  6
CONTINUOUS
 62
3
100
AcDbMText
 10
516.4820000243485
 20
49.04999995231628
 30
0.0000000000000000
 40
3.099999904632568
 41
0.0000000000000000
 71
     1
 72
     1
  1
{\H0.92x;{NPGT10}}
 11
1.000000000000000
 21
0.0000000000000000
 31
0.0000000000000000
  7
STANDARD
  0
MTEXT
  5
58F
100
AcDbEntity
  8
WAKU0
  6
CONTINUOUS
 62
3
100
AcDbMText
 10
537.3900001943111
 20
43.50000000000000
 30
0.0000000000000000
 40
3.000000000000000
 41
0.0000000000000000
 71
     1
 72
     1
  1
{\H0.93x;{グリッパ\PＧＲＩＰＰＥＲ}}
 11
1.000000000000000
 21
0.0000000000000000
 31
0.0000000000000000
  7
KNJYOKO
  0
MTEXT
  5
590
100
AcDbEntity
  8
WAKU0
  6
CONTINUOUS
 62
3
100
AcDbMText
 10
516.4800000262260
 20
34.83333333333333
 30
0.0000000000000000
 40
4.000000000000000
 41
0.0000000000000000
 71
     1
 72
     1
  1
{\H0.59x;{ＮＰＧＴ１０　ガイケイ\PＮＰＧＴ１０　ＯＵＴＳＩＤＥ　ＶＩＥＷ}}
 11
1.000000000000000
 21
0.0000000000000000
 31
0.0000000000000000
  7
KNJYOKO
  0
MTEXT
  5
591
100
AcDbEntity
  8
WAKU0
  6
CONTINUOUS
 62
3
100
AcDbMText
 10
490.0049998760223
 20
39.29999995231628
 30
0.0000000000000000
 40
3.099999904632568
 41
0.0000000000000000
 71
     1
 72
     1
  1
{\H0.90x;{1:1}}
 11
1.000000000000000
 21
0.0000000000000000
 31
0.0000000000000000
  7
STANDARD
  0
MTEXT
  5
592
100
AcDbEntity
  8
WAKU0
  6
CONTINUOUS
 62
3
100
AcDbMText
 10
546.4000001549721
 20
20.15000009536743
 30
0.0000000000000000
 40
5.300000190734863
 41
0.0000000000000000
 71
     1
 72
     1
  1
{\H0.90x;{7878}}
 11
1.000000000000000
 21
0.0000000000000000
 31
0.0000000000000000
  7
STANDARD
  0
MTEXT
  5
593
100
AcDbEntity
  8
WAKU0
  6
CONTINUOUS
 62
3
100
AcDbMText
 10
534.3000000834466
 20
20.15000009536743
 30
0.0000000000000000
 40
5.300000190734863
 41
0.0000000000000000
 71
     1
 72
     1
  1
{\H0.87x;{28}}
 11
1.000000000000000
 21
0.0000000000000000
 31
0.0000000000000000
  7
STANDARD
  0
MTEXT
  5
594
100
AcDbEntity
  8
WAKU0
  6
CONTINUOUS
 62
3
100
AcDbMText
 10
517.5000001192093
 20
20.15000009536743
 30
0.0000000000000000
 40
5.300000190734863
 41
0.0000000000000000
 71
     1
 72
     1
  1
{\H0.89x;{61G}}
 11
1.000000000000000
 21
0.0000000000000000
 31
0.0000000000000000
  7
STANDARD
  0
MTEXT
  5
595
100
AcDbEntity
  8
WAKU0
  6
CONTINUOUS
 62
3
100
AcDbMText
 10
572.0000000476837
 20
20.15000009536743
 30
0.0000000000000000
 40
5.300000190734863
 41
0.0000000000000000
 71
     1
 72
     1
  1
{\H0.81x;{4}}
 11
1.000000000000000
 21
0.0000000000000000
 31
0.0000000000000000
  7
STANDARD
  0
MTEXT
  5
596
100
AcDbEntity
  8
WAKU0
  6
CONTINUOUS
 62
3
100
AcDbMText
 10
572.0000000819564
 20
44.84999990463257
 30
0.0000000000000000
 40
5.300000190734863
 41
0.0000000000000000
 71
     7
 72
     1
  1
{\H0.81x;{ }}
 11
1.000000000000000
 21
0.0000000000000000
 31
0.0000000000000000
  7
STANDARD
  0
MTEXT
  5
597
100
AcDbEntity
  8
WAKU0
  6
CONTINUOUS
 62
3
100
AcDbMText
 10
461.3850002884865
 20
33.00000000000000
 30
0.0000000000000000
 40
3.000000000000000
 41
0.0000000000000000
 71
     7
 72
     1
  1
{\H0.93x;{DRAWN BY}}
 11
1.000000000000000
 21
0.0000000000000000
 31
0.0000000000000000
  7
STANDARD
  0
MTEXT
  5
598
100
AcDbEntity
  8
WAKU0
  6
CONTINUOUS
 62
3
100
AcDbMText
 10
441.2149997949600
 20
32.95000004768372
 30
0.0000000000000000
 40
3.099999904632568
 41
0.0000000000000000
 71
     7
 72
     1
  1
{\H0.92x;{CHIEF}}
 11
1.000000000000000
 21
0.0000000000000000
 31
0.0000000000000000
  7
STANDARD
  0
MTEXT
  5
599
100
AcDbEntity
  8
WAKU0
  6
CONTINUOUS
 62
3
100
AcDbMText
 10
414.4249997138977
 20
32.95000004768372
 30
0.0000000000000000
 40
3.099999904632568
 41
0.0000000000000000
 71
     7
 72
     1
  1
{\H0.92x;{MANAGER}}
 11
1.000000000000000
 21
0.0000000000000000
 31
0.0000000000000000
  7
STANDARD
  0
MTEXT
  5
59A
100
AcDbEntity
  8
WAKU0
  6
CONTINUOUS
 62
3
100
AcDbMText
 10
413.0850002169609
 20
46.50000000000000
 30
0.0000000000000000
 40
3.000000000000000
 41
0.0000000000000000
 71
     7
 72
     1
  1
{\H0.92x;{CAREER}}
 11
1.000000000000000
 21
0.0000000000000000
 31
0.0000000000000000
  7
STANDARD
  0
MTEXT
  5
59B
100
AcDbEntity
  8
WAKU0
  6
CONTINUOUS
 62
3
100
AcDbMText
 10
466.6099998354912
 20
18.95000004768372
 30
0.0000000000000000
 40
3.099999904632568
 41
0.0000000000000000
 71
     7
 72
     1
  1
{\H0.91x;{DATE}}
 11
1.000000000000000
 21
0.0000000000000000
 31
0.0000000000000000
  7
STANDARD
  0
MTEXT
  5
59C
100
AcDbEntity
  8
WAKU0
  6
CONTINUOUS
 62
3
100
AcDbMText
 10
485.9000002145767
 20
26.50000000000000
 30
0.0000000000000000
 40
3.000000000000000
 41
0.0000000000000000
 71
     7
 72
     1
  1
{\H0.63x;{3RD ANGLE}}
 11
1.000000000000000
 21
0.0000000000000000
 31
0.0000000000000000
  7
STANDARD
  0
MTEXT
  5
59D
100
AcDbEntity
  8
WAKU0
  6
CONTINUOUS
 62
3
100
AcDbMText
 10
487.2149997949600
 20
45.95000004768372
 30
0.0000000000000000
 40
3.099999904632568
 41
0.0000000000000000
 71
     7
 72
     1
  1
{\H0.92x;{SCALE}}
 11
1.000000000000000
 21
0.0000000000000000
 31
0.0000000000000000
  7
STANDARD
  0
MTEXT
  5
59E
100
AcDbEntity
  8
WAKU0
  6
CONTINUOUS
 62
3
100
AcDbMText
 10
577.7000000476837
 20
46.00000000000000
 30
0.0000000000000000
 40
3.000000000000000
 41
0.0000000000000000
 71
     7
 72
     1
  1
{\H0.63x;{kg}}
 11
1.000000000000000
 21
0.0000000000000000
 31
0.0000000000000000
  7
STANDARD
  0
MTEXT
  5
59F
100
AcDbEntity
  8
WAKU0
  6
CONTINUOUS
 62
3
100
AcDbMText
 10
547.6000001430512
 20
46.00000000000000
 30
0.0000000000000000
 40
3.000000000000000
 41
0.0000000000000000
 71
     7
 72
     1
  1
{\H0.63x;{WEIGHT}}
 11
1.000000000000000
 21
0.0000000000000000
 31
0.0000000000000000
  7
STANDARD
  0
MTEXT
  5
5A0
100
AcDbEntity
  8
WAKU0
  6
CONTINUOUS
 62
3
100
AcDbMText
 10
506.0049998760223
 20
18.13333336512248
 30
0.0000000000000000
 40
3.099999904632568
 41
0.0000000000000000
 71
     7
 72
     1
  1
{\H0.90x;{DRW\PNO.}}
 11
1.000000000000000
 21
0.0000000000000000
 31
0.0000000000000000
  7
STANDARD
  0
MTEXT
  5
5A1
100
AcDbEntity
  8
WAKU0
  6
CONTINUOUS
 62
3
100
AcDbMText
 10
504.6099998354912
 20
31.95000004768372
 30
0.0000000000000000
 40
3.099999904632568
 41
0.0000000000000000
 71
     7
 72
     1
  1
{\H0.91x;{NAME}}
 11
1.000000000000000
 21
0.0000000000000000
 31
0.0000000000000000
  7
STANDARD
  0
MTEXT
  5
5A2
100
AcDbEntity
  8
WAKU0
  6
CONTINUOUS
 62
3
100
AcDbMText
 10
504.6099998354912
 20
45.95000004768372
 30
0.0000000000000000
 40
3.099999904632568
 41
0.0000000000000000
 71
     7
 72
     1
  1
{\H0.91x;{TYPE}}
 11
1.000000000000000
 21
0.0000000000000000
 31
0.0000000000000000
  7
STANDARD
  0
LINE
  5
5A3
100
AcDbEntity
  8
WAKU0
  6
HIDDEN
 62
3
100
AcDbLine
 10
579.1599564743885
 20
13.84999990463257
 30
0.0000000000000000
 11
568.9400436209789
 21
13.84999990463257
 31
0.0000000000000000
  0
LINE
  5
5A4
100
AcDbEntity
  8
WAKU0
  6
HIDDEN
 62
3
100
AcDbLine
 10
579.1599564743885
 20
13.84999990463250
 30
0.0000000000000000
 11
574.0500000476851
 21
22.70070406014901
 31
0.0000000000000000
  0
LINE
  5
5A5
100
AcDbEntity
  8
WAKU0
  6
HIDDEN
 62
3
100
AcDbLine
 10
574.0500000476851
 20
22.70070406014902
 30
0.0000000000000000
 11
568.9400436209789
 21
13.84999990463248
 31
0.0000000000000000
  0
MTEXT
  5
5A6
100
AcDbEntity
  8
WAKU0
  6
CONTINUOUS
 62
3
100
AcDbMText
 10
419.0000009614873
 20
20.63471521698214
 30
0.0000000000000000
 40
3.140094041824341
 41
0.0000000000000000
 71
     1
 72
     1
  1
{\H0.83x;{Ｋｉｔａｇａｗａ\PＣｏｒｐｏｒａｔｉｏｎ}}
 11
1.000000000000000
 21
0.0000000000000000
 31
0.0000000000000000
  7
KNJYOKO
  0
LINE
  5
5A7
100
AcDbEntity
  8
WAKU0
  6
CONTINUOUS
 62
3
100
AcDbLine
 10
502.4713877753800
 20
15.78041421262812
 30
0.0000000000000000
 11
502.4713877753800
 21
21.78041421262815
 31
0.0000000000000000
  0
LINE
  5
5A8
100
AcDbEntity
  8
WAKU0
  6
CONTINUOUS
 62
3
100
AcDbLine
 10
495.9336941228225
 20
17.28041421262811
 30
0.0000000000000000
 11
495.9336941228225
 21
20.28041421262824
 31
0.0000000000000000
  0
LINE
  5
5A9
100
AcDbEntity
  8
WAKU0
  6
CENTER
 62
12
100
AcDbLine
 10
485.4321805514995
 20
18.78041421262813
 30
0.0000000000000000
 11
503.2765788964694
 21
18.78041421262813
 31
0.0000000000000000
  0
LINE
  5
5AA
100
AcDbEntity
  8
WAKU0
  6
CENTER
 62
12
100
AcDbLine
 10
489.4474565857986
 20
14.55921662918448
 30
0.0000000000000000
 11
489.4474565857986
 21
22.89865102149943
 31
0.0000000000000000
  0
LINE
  5
5AB
100
AcDbEntity
  8
WAKU0
  6
CONTINUOUS
 62
3
100
AcDbLine
 10
495.9336941228225
 20
20.28041421262797
 30
0.0000000000000000
 11
502.4713877753800
 21
21.78041421262795
 31
0.0000000000000000
  0
LINE
  5
5AC
100
AcDbEntity
  8
WAKU0
  6
CONTINUOUS
 62
3
100
AcDbLine
 10
495.9336941228225
 20
17.28041421262811
 30
0.0000000000000000
 11
502.4713877753799
 21
15.78041421262812
 31
0.0000000000000000
  0
CIRCLE
  5
5AD
100
AcDbEntity
  8
WAKU0
  6
CONTINUOUS
 62
3
100
AcDbCircle
 10
489.4474565857986
 20
18.78041421262813
 30
0.0000000000000000
 40
1.499999999999972
  0
CIRCLE
  5
5AE
100
AcDbEntity
  8
WAKU0
  6
CONTINUOUS
 62
3
100
AcDbCircle
 10
489.4474565857986
 20
18.78041421262813
 30
0.0000000000000000
 40
2.999999999999979
  0
ENDSEC
  0
SECTION
  2
OBJECTS
  0
DICTIONARY
  5
608
100
AcDbDictionary
  3
ACAD_GROUP
350
609
  3
ACAD_MLINESTYLE
350
60A
  0
DICTIONARY
  5
609
102
{ACAD_REACTORS
330
608
102
}
100
AcDbDictionary
  0
DICTIONARY
  5
60A
102
{ACAD_REACTORS
330
608
102
}
100
AcDbDictionary
  3
STANDARD
350
60B
  0
MLINESTYLE
  5
60B
102
{ACAD_REACTORS
330
60A
102
}
100
AcDbMlineStyle
  2
STANDARD
 70
     0
  3

 62
   256
 51
90.00
 52
90.00
 71
     2
 49
0.50
 62
   256
  6
BYLAYER
 49
-0.50
 62
   256
  6
BYLAYER
  0
ENDSEC
  0
EOF
