  0
SECTION
  2
HEADER
  9
$ACADVER
  1
AC1014
  9
$DWGCODEPAGE
  3
ANSI_932
  9
$LTSCALE
 40
20.0
  9
$FILLMODE
 70
     1
  9
$CLAYER
  8
0
  9
$PDMODE
 70
     0
  9
$SPLFRAME
 70
     0
  9
$SPLINETYPE
 70
     6
  9
$SPLINESEGS
 70
     8
  9
$DIMASZ
 40
2.000000
  9
$DIMEXE
 40
2.000000
  9
$DIMEXO
 40
0.800000
  9
$DIMTAD
 70
     1
  9
$DIMTIH
 70
     0
  9
$DIMTOH
 70
     0
  9
$DIMTVP
 40
0.500000
  9
$DIMTXT
 40
3.100000
  9
$EXTMIN
 10
0.000000
 20
0.000000
 30
0.000000
  9
$EXTMAX
 10
420.000000
 20
594.000000
 30
0.000000
  9
$MEASUREMENT
 70
  1
  9
$LIMMIN
 10
0.000000
 20
0.000000
  9
$LIMMAX
 10
420.000000
 20
594.000000
  9
$HANDLING
 70
     1
  9
$HANDSEED
  5
5D6
  9
$DIMBLK
  1
_OPEN
  9
$DIMDEC
 70
     3
  9
$DIMAUNIT
 70
     1
  9
$DIMZIN
 70
     8
  9
$DIMTOFL
 70
     1
  0
ENDSEC
  0
SECTION
  2
CLASSES
  0
ENDSEC
  0
SECTION
  2
TABLES
  0
TABLE
  2
VPORT
  5
579
100
AcDbSymbolTable
 70
     1
  0
VPORT
  5
57A
100
AcDbSymbolTableRecord
100
AcDbViewportTableRecord
  2
*ACTIVE
 70
     0
 12
297.000000
 22
210.000000
 40
420.000000
 41
1.414286
  0
ENDTAB
  0
TABLE
  2
LTYPE
  5
57B
100
AcDbSymbolTable
 70
     4
  0
LTYPE
  5
57C
100
AcDbSymbolTableRecord
100
AcDbLinetypeTableRecord
  2
BYBLOCK
 70
     0
  3

 72
    65
 73
     0
 40
0.0
  0
LTYPE
  5
57D
100
AcDbSymbolTableRecord
100
AcDbLinetypeTableRecord
  2
BYLAYER
 70
     0
  3

 72
    65
 73
     0
 40
0.0
  0
LTYPE
  5
57E
100
AcDbSymbolTableRecord
100
AcDbLinetypeTableRecord
  2
CONTINUOUS
 70
     0
  3
Solid line (NEC CAE2D for Win R14.2 : 2021.05.17)
 72
    65
 73
     0
 40
0.0
  0
LTYPE
  5
57F
100
AcDbSymbolTableRecord
100
AcDbLinetypeTableRecord
  2
HIDDEN
 70
     0
  3
__ __ __ __ __ __ __ __ __ __ __ __ __ __
 72
    65
 73
     2
 40
0.375
 49
0.25
 74
     0
 49
-0.125
 74
     0
  0
LTYPE
  5
580
100
AcDbSymbolTableRecord
100
AcDbLinetypeTableRecord
  2
CENTER
 70
     0
  3
____ _ ____ _ ____ _ ____ _ ____ _ ____
 72
    65
 73
     4
 40
2.0
 49
1.25
 74
     0
 49
-0.25
 74
     0
 49
0.25
 74
     0
 49
-0.25
 74
     0
  0
LTYPE
  5
581
100
AcDbSymbolTableRecord
100
AcDbLinetypeTableRecord
  2
PHANTOM
 70
     0
  3
______  __  __  ______  __  __  ______ 
 72
    65
 73
     6
 40
2.5
 49
1.25
 74
     0
 49
-0.25
 74
     0
 49
0.25
 74
     0
 49
-0.25
 74
     0
 49
0.25
 74
     0
 49
-0.25
 74
     0
  0
ENDTAB
  0
TABLE
  2
LAYER
  5
582
100
AcDbSymbolTable
 70
    10
  0
LAYER
  5
583
100
AcDbSymbolTableRecord
100
AcDbLayerTableRecord
  2
0
 70
     0
 62
     7
  6
CONTINUOUS
  0
LAYER
  5
584
100
AcDbSymbolTableRecord
100
AcDbLayerTableRecord
  2
MAIN0
 70
     0
 62
     7
  6
CONTINUOUS
  0
LAYER
  5
585
100
AcDbSymbolTableRecord
100
AcDbLayerTableRecord
  2
MAIN1
 70
     0
 62
     7
  6
CONTINUOUS
  0
LAYER
  5
586
100
AcDbSymbolTableRecord
100
AcDbLayerTableRecord
  2
MAIN2
 70
     0
 62
     7
  6
CONTINUOUS
  0
LAYER
  5
587
100
AcDbSymbolTableRecord
100
AcDbLayerTableRecord
  2
MAIN3
 70
     0
 62
     7
  6
CONTINUOUS
  0
LAYER
  5
588
100
AcDbSymbolTableRecord
100
AcDbLayerTableRecord
  2
MAIN4
 70
     0
 62
     7
  6
CONTINUOUS
  0
LAYER
  5
589
100
AcDbSymbolTableRecord
100
AcDbLayerTableRecord
  2
MAIN5
 70
     0
 62
     7
  6
CONTINUOUS
  0
LAYER
  5
58A
100
AcDbSymbolTableRecord
100
AcDbLayerTableRecord
  2
MAIN1023
 70
     0
 62
    16
  6
CONTINUOUS
  0
LAYER
  5
58B
100
AcDbSymbolTableRecord
100
AcDbLayerTableRecord
  2
WAKU0
 70
     0
 62
     7
  6
CONTINUOUS
  0
LAYER
  5
58C
100
AcDbSymbolTableRecord
100
AcDbLayerTableRecord
  2
WAKU1023
 70
     0
 62
    16
  6
CONTINUOUS
  0
ENDTAB
  0
TABLE
  2
STYLE
  5
58D
100
AcDbSymbolTable
 70
     4
  0
STYLE
  5
58E
100
AcDbSymbolTableRecord
100
AcDbTextStyleTableRecord
  2
STANDARD
 70
    64
 40
0.0
 41
1.0
 50
0.0
 71
     0
 42
3.140094041824341
  3
TXT
  4

  0
STYLE
  5
58F
100
AcDbSymbolTableRecord
100
AcDbTextStyleTableRecord
  2
ANKTATE
 70
    68
 40
0.0
 41
1.0
 50
0.0
 71
     0
 42
3.140094041824341
  3
TXT
  4

  0
STYLE
  5
590
100
AcDbSymbolTableRecord
100
AcDbTextStyleTableRecord
  2
KNJYOKO
 70
    64
 40
0.0
 41
1.0
 50
0.0
 71
     0
 42
3.140094041824341
  3
TXT
  4
BIGFONT
  0
STYLE
  5
591
100
AcDbSymbolTableRecord
100
AcDbTextStyleTableRecord
  2
KNJTATE
 70
    68
 40
0.0
 41
1.0
 50
0.0
 71
     0
 42
3.140094041824341
  3
TXT
  4
BIGFONT
  0
ENDTAB
  0
TABLE
  2
VIEW
  5
592
100
AcDbSymbolTable
 70
     0
  0
ENDTAB
  0
TABLE
  2
UCS
  5
593
100
AcDbSymbolTable
 70
     0
  0
ENDTAB
  0
TABLE
  2
APPID
  5
594
100
AcDbSymbolTable
 70
     1
  0
APPID
  5
595
100
AcDbSymbolTableRecord
100
AcDbRegAppTableRecord
  2
ACAD
 70
     0
  0
ENDTAB
  0
TABLE
  2
DIMSTYLE
  5
596
100
AcDbSymbolTable
 70
     1
  0
DIMSTYLE
105
597
100
AcDbSymbolTableRecord
100
AcDbDimStyleTableRecord
  2
STANDARD
 70
     0
 41
2.000000
 44
2.000000
 42
0.800000
145
0.661290
140
3.100000
144
1.000000
146
0.903226
340
58E
  0
DIMSTYLE
105
598
100
AcDbSymbolTableRecord
100
AcDbDimStyleTableRecord
  2
MAIN001
 70
     0
 41
2.000000
 44
2.000000
 42
0.800000
145
0.661290
140
3.100000
144
1.000000
146
0.903226
 77
     1
 73
     0
 74
     0
271
     3
275
     1
 78
     8
172
     1
340
58E
  0
DIMSTYLE
105
599
100
AcDbSymbolTableRecord
100
AcDbDimStyleTableRecord
  2
WAKU002
 70
     0
 41
2.000000
 44
2.000000
 42
0.800000
145
0.661290
140
3.100000
144
1.000000
146
0.903226
 77
     1
 73
     0
 74
     0
271
     3
275
     1
 78
     8
172
     1
340
58E
  0
ENDTAB
  0
TABLE
  2
BLOCK_RECORD
  5
59A
100
AcDbSymbolTable
 70
    61
  0
BLOCK_RECORD
  5
59B
100
AcDbSymbolTableRecord
100
AcDbBlockTableRecord
  2
*MODEL_SPACE
  0
BLOCK_RECORD
  5
59C
100
AcDbSymbolTableRecord
100
AcDbBlockTableRecord
  2
*PAPER_SPACE
  0
BLOCK_RECORD
  5
1
100
AcDbSymbolTableRecord
100
AcDbBlockTableRecord
  2
_NONE
  0
BLOCK_RECORD
  5
4
100
AcDbSymbolTableRecord
100
AcDbBlockTableRecord
  2
_CLOSED
  0
BLOCK_RECORD
  5
B
100
AcDbSymbolTableRecord
100
AcDbBlockTableRecord
  2
_DOT
  0
BLOCK_RECORD
  5
13
100
AcDbSymbolTableRecord
100
AcDbBlockTableRecord
  2
_OPEN
  0
BLOCK_RECORD
  5
19
100
AcDbSymbolTableRecord
100
AcDbBlockTableRecord
  2
_ORIGIN
  0
BLOCK_RECORD
  5
1E
100
AcDbSymbolTableRecord
100
AcDbBlockTableRecord
  2
_OPEN30
  0
BLOCK_RECORD
  5
24
100
AcDbSymbolTableRecord
100
AcDbBlockTableRecord
  2
_BOXFILLED
  0
BLOCK_RECORD
  5
29
100
AcDbSymbolTableRecord
100
AcDbBlockTableRecord
  2
_BOXBLANK
  0
BLOCK_RECORD
  5
31
100
AcDbSymbolTableRecord
100
AcDbBlockTableRecord
  2
_OBLIQUE
  0
BLOCK_RECORD
  5
35
100
AcDbSymbolTableRecord
100
AcDbBlockTableRecord
  2
_OPEN90
  0
BLOCK_RECORD
  5
3B
100
AcDbSymbolTableRecord
100
AcDbBlockTableRecord
  2
_CLOSEDBLANK
  0
BLOCK_RECORD
  5
41
100
AcDbSymbolTableRecord
100
AcDbBlockTableRecord
  2
_DOTBLANK
  0
BLOCK_RECORD
  5
59D
100
AcDbSymbolTableRecord
100
AcDbBlockTableRecord
  2
*D0
  0
BLOCK_RECORD
  5
59E
100
AcDbSymbolTableRecord
100
AcDbBlockTableRecord
  2
*D1
  0
BLOCK_RECORD
  5
59F
100
AcDbSymbolTableRecord
100
AcDbBlockTableRecord
  2
*D2
  0
BLOCK_RECORD
  5
5A0
100
AcDbSymbolTableRecord
100
AcDbBlockTableRecord
  2
*D3
  0
BLOCK_RECORD
  5
5A1
100
AcDbSymbolTableRecord
100
AcDbBlockTableRecord
  2
*D4
  0
BLOCK_RECORD
  5
5A2
100
AcDbSymbolTableRecord
100
AcDbBlockTableRecord
  2
*D5
  0
BLOCK_RECORD
  5
5A3
100
AcDbSymbolTableRecord
100
AcDbBlockTableRecord
  2
*D6
  0
BLOCK_RECORD
  5
5A4
100
AcDbSymbolTableRecord
100
AcDbBlockTableRecord
  2
*D7
  0
BLOCK_RECORD
  5
5A5
100
AcDbSymbolTableRecord
100
AcDbBlockTableRecord
  2
*D8
  0
BLOCK_RECORD
  5
5A6
100
AcDbSymbolTableRecord
100
AcDbBlockTableRecord
  2
*D9
  0
BLOCK_RECORD
  5
5A7
100
AcDbSymbolTableRecord
100
AcDbBlockTableRecord
  2
*D10
  0
BLOCK_RECORD
  5
5A8
100
AcDbSymbolTableRecord
100
AcDbBlockTableRecord
  2
*D11
  0
BLOCK_RECORD
  5
5A9
100
AcDbSymbolTableRecord
100
AcDbBlockTableRecord
  2
*D12
  0
BLOCK_RECORD
  5
5AA
100
AcDbSymbolTableRecord
100
AcDbBlockTableRecord
  2
*D13
  0
BLOCK_RECORD
  5
5AB
100
AcDbSymbolTableRecord
100
AcDbBlockTableRecord
  2
*D14
  0
BLOCK_RECORD
  5
5AC
100
AcDbSymbolTableRecord
100
AcDbBlockTableRecord
  2
*D15
  0
BLOCK_RECORD
  5
5AD
100
AcDbSymbolTableRecord
100
AcDbBlockTableRecord
  2
*D16
  0
BLOCK_RECORD
  5
5AE
100
AcDbSymbolTableRecord
100
AcDbBlockTableRecord
  2
*D17
  0
BLOCK_RECORD
  5
5AF
100
AcDbSymbolTableRecord
100
AcDbBlockTableRecord
  2
*D18
  0
BLOCK_RECORD
  5
5B0
100
AcDbSymbolTableRecord
100
AcDbBlockTableRecord
  2
*D19
  0
BLOCK_RECORD
  5
5B1
100
AcDbSymbolTableRecord
100
AcDbBlockTableRecord
  2
*D20
  0
BLOCK_RECORD
  5
5B2
100
AcDbSymbolTableRecord
100
AcDbBlockTableRecord
  2
*D21
  0
BLOCK_RECORD
  5
5B3
100
AcDbSymbolTableRecord
100
AcDbBlockTableRecord
  2
*D22
  0
BLOCK_RECORD
  5
5B4
100
AcDbSymbolTableRecord
100
AcDbBlockTableRecord
  2
*D23
  0
BLOCK_RECORD
  5
5B5
100
AcDbSymbolTableRecord
100
AcDbBlockTableRecord
  2
*D24
  0
BLOCK_RECORD
  5
5B6
100
AcDbSymbolTableRecord
100
AcDbBlockTableRecord
  2
*D25
  0
BLOCK_RECORD
  5
5B7
100
AcDbSymbolTableRecord
100
AcDbBlockTableRecord
  2
*D26
  0
BLOCK_RECORD
  5
5B8
100
AcDbSymbolTableRecord
100
AcDbBlockTableRecord
  2
*D27
  0
BLOCK_RECORD
  5
5B9
100
AcDbSymbolTableRecord
100
AcDbBlockTableRecord
  2
*D28
  0
BLOCK_RECORD
  5
5BA
100
AcDbSymbolTableRecord
100
AcDbBlockTableRecord
  2
*D29
  0
BLOCK_RECORD
  5
5BB
100
AcDbSymbolTableRecord
100
AcDbBlockTableRecord
  2
*D30
  0
BLOCK_RECORD
  5
5BC
100
AcDbSymbolTableRecord
100
AcDbBlockTableRecord
  2
*D31
  0
BLOCK_RECORD
  5
5BD
100
AcDbSymbolTableRecord
100
AcDbBlockTableRecord
  2
*D32
  0
BLOCK_RECORD
  5
5BE
100
AcDbSymbolTableRecord
100
AcDbBlockTableRecord
  2
*D33
  0
BLOCK_RECORD
  5
5BF
100
AcDbSymbolTableRecord
100
AcDbBlockTableRecord
  2
*D34
  0
BLOCK_RECORD
  5
5C0
100
AcDbSymbolTableRecord
100
AcDbBlockTableRecord
  2
*D35
  0
BLOCK_RECORD
  5
5C1
100
AcDbSymbolTableRecord
100
AcDbBlockTableRecord
  2
*D36
  0
BLOCK_RECORD
  5
5C2
100
AcDbSymbolTableRecord
100
AcDbBlockTableRecord
  2
*D37
  0
BLOCK_RECORD
  5
5C3
100
AcDbSymbolTableRecord
100
AcDbBlockTableRecord
  2
*D38
  0
BLOCK_RECORD
  5
5C4
100
AcDbSymbolTableRecord
100
AcDbBlockTableRecord
  2
*D39
  0
BLOCK_RECORD
  5
5C5
100
AcDbSymbolTableRecord
100
AcDbBlockTableRecord
  2
*D40
  0
BLOCK_RECORD
  5
5C6
100
AcDbSymbolTableRecord
100
AcDbBlockTableRecord
  2
*D41
  0
BLOCK_RECORD
  5
5C7
100
AcDbSymbolTableRecord
100
AcDbBlockTableRecord
  2
*D42
  0
BLOCK_RECORD
  5
5C8
100
AcDbSymbolTableRecord
100
AcDbBlockTableRecord
  2
*D43
  0
BLOCK_RECORD
  5
5C9
100
AcDbSymbolTableRecord
100
AcDbBlockTableRecord
  2
*D44
  0
BLOCK_RECORD
  5
5CA
100
AcDbSymbolTableRecord
100
AcDbBlockTableRecord
  2
*X0
  0
BLOCK_RECORD
  5
5CB
100
AcDbSymbolTableRecord
100
AcDbBlockTableRecord
  2
*X1
  0
BLOCK_RECORD
  5
5CC
100
AcDbSymbolTableRecord
100
AcDbBlockTableRecord
  2
*X2
  0
BLOCK_RECORD
  5
5CD
100
AcDbSymbolTableRecord
100
AcDbBlockTableRecord
  2
*X3
  0
ENDTAB
  0
ENDSEC
  0
SECTION
  2
BLOCKS
  0
BLOCK
  5
5CE
100
AcDbEntity
  8
0
100
AcDbBlockBegin
  2
*MODEL_SPACE
 70
     0
 10
0.0
 20
0.0
 30
0.0
  3
*MODEL_SPACE
  1

  0
ENDBLK
  5
5CF
100
AcDbEntity
  8
0
100
AcDbBlockEnd
  0
BLOCK
  5
5D0
100
AcDbEntity
  8
0
100
AcDbBlockBegin
  2
*PAPER_SPACE
 70
     0
 10
0.0
 20
0.0
 30
0.0
  3
*PAPER_SPACE
  1

  0
ENDBLK
  5
5D1
100
AcDbEntity
  8
0
100
AcDbBlockEnd
  0
BLOCK
  5
2
100
AcDbEntity
  8
0
100
AcDbBlockBegin
  2
_NONE
 70
     0
 10
0.0
 20
0.0
 30
0.0
  3
_NONE
  1

  0
ENDBLK
  5
3
100
AcDbEntity
  8
0
100
AcDbBlockEnd
  0
BLOCK
  5
5
100
AcDbEntity
  8
0
100
AcDbBlockBegin
  2
_CLOSED
 70
     0
 10
0.0
 20
0.0
 30
0.0
  3
_CLOSED
  1

  0
LINE
  5
6
100
AcDbEntity
  8
0
  6
BYBLOCK
 62
     0
100
AcDbLine
 10
-1.0
 20
0.166667
 30
0.0
 11
0.0
 21
0.0
 31
0.0
  0
LINE
  5
7
100
AcDbEntity
  8
0
  6
BYBLOCK
 62
     0
100
AcDbLine
 10
0.0
 20
0.0
 30
0.0
 11
-1.0
 21
-0.166667
 31
0.0
  0
LINE
  5
8
100
AcDbEntity
  8
0
  6
BYBLOCK
 62
     0
100
AcDbLine
 10
-1.0
 20
0.166667
 30
0.0
 11
-1.0
 21
-0.166667
 31
0.0
  0
LINE
  5
9
100
AcDbEntity
  8
0
  6
BYBLOCK
 62
     0
100
AcDbLine
 10
0.0
 20
0.0
 30
0.0
 11
-1.0
 21
0.0
 31
0.0
  0
ENDBLK
  5
A
100
AcDbEntity
  8
0
100
AcDbBlockEnd
  0
BLOCK
  5
C
100
AcDbEntity
  8
0
100
AcDbBlockBegin
  2
_DOT
 70
     0
 10
0.0
 20
0.0
 30
0.0
  3
_DOT
  1

  0
POLYLINE
  5
D
100
AcDbEntity
  8
0
  6
BYBLOCK
 62
     0
100
AcDb2dPolyline
 66
     1
 10
0.0
 20
0.0
 30
0.0
 70
     1
 40
0.5
 41
0.5
  0
VERTEX
  5
E
100
AcDbEntity
  8
0
  6
BYBLOCK
 62
     0
100
AcDbVertex
100
AcDb2dVertex
 10
-0.25
 20
0.0
 30
0.0
 42
1.0
  0
VERTEX
  5
F
100
AcDbEntity
  8
0
  6
BYBLOCK
 62
     0
100
AcDbVertex
100
AcDb2dVertex
 10
0.25
 20
0.0
 30
0.0
 42
1.0
  0
SEQEND
  5
10
100
AcDbEntity
  8
0
  6
BYBLOCK
 62
     0
  0
LINE
  5
11
100
AcDbEntity
  8
0
  6
BYBLOCK
 62
     0
100
AcDbLine
 10
-0.5
 20
0.0
 30
0.0
 11
-1.0
 21
0.0
 31
0.0
  0
ENDBLK
  5
12
100
AcDbEntity
  8
0
100
AcDbBlockEnd
  0
BLOCK
  5
14
100
AcDbEntity
  8
0
100
AcDbBlockBegin
  2
_OPEN
 70
     0
 10
0.0
 20
0.0
 30
0.0
  3
_OPEN
  1

  0
LINE
  5
15
100
AcDbEntity
  8
0
  6
BYBLOCK
 62
     0
100
AcDbLine
 10
-1.0
 20
0.166667
 30
0.0
 11
0.0
 21
0.0
 31
0.0
  0
LINE
  5
16
100
AcDbEntity
  8
0
  6
BYBLOCK
 62
     0
100
AcDbLine
 10
0.0
 20
0.0
 30
0.0
 11
-1.0
 21
-0.166667
 31
0.0
  0
LINE
  5
17
100
AcDbEntity
  8
0
  6
BYBLOCK
 62
     0
100
AcDbLine
 10
0.0
 20
0.0
 30
0.0
 11
-1.0
 21
0.0
 31
0.0
  0
ENDBLK
  5
18
100
AcDbEntity
  8
0
100
AcDbBlockEnd
  0
BLOCK
  5
1A
100
AcDbEntity
  8
0
100
AcDbBlockBegin
  2
_ORIGIN
 70
     0
 10
0.0
 20
0.0
 30
0.0
  3
_ORIGIN
  1

  0
CIRCLE
  5
1B
100
AcDbEntity
  8
0
  6
BYBLOCK
 62
     0
100
AcDbCircle
 10
0.0
 20
0.0
 30
0.0
 40
0.5
  0
LINE
  5
1C
100
AcDbEntity
  8
0
  6
BYBLOCK
 62
     0
100
AcDbLine
 10
0.0
 20
0.0
 30
0.0
 11
-1.0
 21
0.0
 31
0.0
  0
ENDBLK
  5
1D
100
AcDbEntity
  8
0
100
AcDbBlockEnd
  0
BLOCK
  5
1F
100
AcDbEntity
  8
0
100
AcDbBlockBegin
  2
_OPEN30
 70
     0
 10
0.0
 20
0.0
 30
0.0
  3
_OPEN30
  1

  0
LINE
  5
20
100
AcDbEntity
  8
0
  6
BYBLOCK
 62
     0
100
AcDbLine
 10
-1.0
 20
0.267949
 30
0.0
 11
0.0
 21
0.0
 31
0.0
  0
LINE
  5
21
100
AcDbEntity
  8
0
  6
BYBLOCK
 62
     0
100
AcDbLine
 10
0.0
 20
0.0
 30
0.0
 11
-1.0
 21
-0.267949
 31
0.0
  0
LINE
  5
22
100
AcDbEntity
  8
0
  6
BYBLOCK
 62
     0
100
AcDbLine
 10
0.0
 20
0.0
 30
0.0
 11
-1.0
 21
0.0
 31
0.0
  0
ENDBLK
  5
23
100
AcDbEntity
  8
0
100
AcDbBlockEnd
  0
BLOCK
  5
25
100
AcDbEntity
  8
0
100
AcDbBlockBegin
  2
_BOXFILLED
 70
     0
 10
0.0
 20
0.0
 30
0.0
  3
_BOXFILLED
  1

  0
SOLID
  5
26
100
AcDbEntity
  8
0
  6
BYBLOCK
 62
     0
100
AcDbTrace
 10
-0.5
 20
0.5
 30
0.0
 11
0.5
 21
0.5
 31
0.0
 12
-0.5
 22
-0.5
 32
0.0
 13
0.5
 23
-0.5
 33
0.0
  0
LINE
  5
27
100
AcDbEntity
  8
0
  6
BYBLOCK
 62
     0
100
AcDbLine
 10
-0.5
 20
0.0
 30
0.0
 11
-1.0
 21
0.0
 31
0.0
  0
ENDBLK
  5
28
100
AcDbEntity
  8
0
100
AcDbBlockEnd
  0
BLOCK
  5
2A
100
AcDbEntity
  8
0
100
AcDbBlockBegin
  2
_BOXBLANK
 70
     0
 10
0.0
 20
0.0
 30
0.0
  3
_BOXBLANK
  1

  0
LINE
  5
2B
100
AcDbEntity
  8
0
  6
BYBLOCK
 62
     0
100
AcDbLine
 10
-0.5
 20
-0.5
 30
0.0
 11
0.5
 21
-0.5
 31
0.0
  0
LINE
  5
2C
100
AcDbEntity
  8
0
  6
BYBLOCK
 62
     0
100
AcDbLine
 10
0.5
 20
-0.5
 30
0.0
 11
0.5
 21
0.5
 31
0.0
  0
LINE
  5
2D
100
AcDbEntity
  8
0
  6
BYBLOCK
 62
     0
100
AcDbLine
 10
0.5
 20
0.5
 30
0.0
 11
-0.5
 21
0.5
 31
0.0
  0
LINE
  5
2E
100
AcDbEntity
  8
0
  6
BYBLOCK
 62
     0
100
AcDbLine
 10
-0.5
 20
0.5
 30
0.0
 11
-0.5
 21
-0.5
 31
0.0
  0
LINE
  5
2F
100
AcDbEntity
  8
0
  6
BYBLOCK
 62
     0
100
AcDbLine
 10
-0.5
 20
0.0
 30
0.0
 11
-1.0
 21
0.0
 31
0.0
  0
ENDBLK
  5
30
100
AcDbEntity
  8
0
100
AcDbBlockEnd
  0
BLOCK
  5
32
100
AcDbEntity
  8
0
100
AcDbBlockBegin
  2
_OBLIQUE
 70
     0
 10
0.0
 20
0.0
 30
0.0
  3
_OBLIQUE
  1

  0
LINE
  5
33
100
AcDbEntity
  8
0
  6
BYBLOCK
 62
     0
100
AcDbLine
 10
-0.5
 20
-0.5
 30
0.0
 11
0.5
 21
0.5
 31
0.0
  0
ENDBLK
  5
34
100
AcDbEntity
  8
0
100
AcDbBlockEnd
  0
BLOCK
  5
36
100
AcDbEntity
  8
0
100
AcDbBlockBegin
  2
_OPEN90
 70
     0
 10
0.0
 20
0.0
 30
0.0
  3
_OPEN90
  1

  0
LINE
  5
37
100
AcDbEntity
  8
0
  6
BYBLOCK
 62
     0
100
AcDbLine
 10
-0.5
 20
0.5
 30
0.0
 11
0.0
 21
0.0
 31
0.0
  0
LINE
  5
38
100
AcDbEntity
  8
0
  6
BYBLOCK
 62
     0
100
AcDbLine
 10
0.0
 20
0.0
 30
0.0
 11
-0.5
 21
-0.5
 31
0.0
  0
LINE
  5
39
100
AcDbEntity
  8
0
  6
BYBLOCK
 62
     0
100
AcDbLine
 10
0.0
 20
0.0
 30
0.0
 11
-1.0
 21
0.0
 31
0.0
  0
ENDBLK
  5
3A
100
AcDbEntity
  8
0
100
AcDbBlockEnd
  0
BLOCK
  5
3C
100
AcDbEntity
  8
0
100
AcDbBlockBegin
  2
_CLOSEDBLANK
 70
     0
 10
0.0
 20
0.0
 30
0.0
  3
_CLOSEDBLANK
  1

  0
LINE
  5
3D
100
AcDbEntity
  8
0
  6
BYBLOCK
 62
     0
100
AcDbLine
 10
-1.0
 20
0.1666666666666666
 30
0.0
 11
0.0
 21
0.0
 31
0.0
  0
LINE
  5
3E
100
AcDbEntity
  8
0
  6
BYBLOCK
 62
     0
100
AcDbLine
 10
0.0
 20
0.0
 30
0.0
 11
-1.0
 21
-0.1666666666666666
 31
0.0
  0
LINE
  5
3F
100
AcDbEntity
  8
0
  6
BYBLOCK
 62
     0
100
AcDbLine
 10
-1.0
 20
0.1666666666666666
 30
0.0
 11
-1.0
 21
-0.1666666666666666
 31
0.0
  0
ENDBLK
  5
40
100
AcDbEntity
  8
0
100
AcDbBlockEnd
  0
BLOCK
  5
42
100
AcDbEntity
  8
0
100
AcDbBlockBegin
  2
_DOTBLANK
 70
     0
 10
0.0
 20
0.0
 30
0.0
  3
_DOTBLANK
  1

  0
CIRCLE
  5
43
100
AcDbEntity
  8
0
  6
BYBLOCK
 62
     0
100
AcDbCircle
 10
0.0
 20
0.0
 30
0.0
 40
0.5
  0
LINE
  5
44
100
AcDbEntity
  8
0
  6
BYBLOCK
 62
     0
100
AcDbLine
 10
-0.5
 20
0.0
 30
0.0
 11
-1.0
 21
0.0
 31
0.0
  0
ENDBLK
  5
45
100
AcDbEntity
  8
0
100
AcDbBlockEnd
  0
BLOCK
  5
57
100
AcDbEntity
  8
MAIN0
  6
CONTINUOUS
 62
3
100
AcDbBlockBegin
  2
*D0
 70
    65
 10
0.0
 20
0.0
 30
0.0
  0
LINE
  5
58
100
AcDbEntity
  8
MAIN0
  6
BYBLOCK
 62
0
100
AcDbLine
 10
137.6551893927478
 20
231.6110480762297
 30
0.0000000000000000
 11
137.6551893927478
 21
200.6110480762039
 31
0.0000000000000000
  0
INSERT
  5
59
100
AcDbEntity
  8
MAIN0
  6
BYBLOCK
 62
0
100
AcDbBlockReference
  2
_OPEN
 10
137.6551893927478
 20
233.6110480762297
 30
0.0000000000000000
 41
2.000000000000000
 42
2.000000000000000
 43
2.000000000000000
 50
90.00000000000000
  0
INSERT
  5
5A
100
AcDbEntity
  8
MAIN0
  6
BYBLOCK
 62
0
100
AcDbBlockReference
  2
_OPEN
 10
137.6551893927478
 20
198.6110480762039
 30
0.0000000000000000
 41
2.000000000000000
 42
2.000000000000000
 43
2.000000000000000
 50
270.0000000000000
  0
MTEXT
  5
5B
100
AcDbEntity
  8
MAIN0
  6
BYBLOCK
 62
0
100
AcDbMText
 10
135.6051894404315
 20
216.1110480762168
 30
0.0000000000000000
 40
3.099999904632568
 41
0.0000000000000000
 71
     5
 72
     1
  1
\A1;35
 11
6.123233995736766e-017
 21
1.000000000000000
 31
0.0000000000000000
  7
STANDARD
  0
ENDBLK
  5
5C
100
AcDbEntity
  8
MAIN0
  6
CONTINUOUS
 62
3
100
AcDbBlockEnd
  0
BLOCK
  5
5E
100
AcDbEntity
  8
MAIN0
  6
CONTINUOUS
 62
3
100
AcDbBlockBegin
  2
*D1
 70
    65
 10
0.0
 20
0.0
 30
0.0
  0
LINE
  5
5F
100
AcDbEntity
  8
MAIN0
  6
BYBLOCK
 62
0
100
AcDbLine
 10
99.18880150591096
 20
179.7934230880123
 30
0.0000000000000000
 11
99.18880150591099
 21
167.6251637879066
 31
0.0000000000000000
  0
LINE
  5
60
100
AcDbEntity
  8
MAIN0
  6
BYBLOCK
 62
0
100
AcDbLine
 10
101.1888015059110
 20
169.6251637879066
 30
0.0000000000000000
 11
124.6888015061740
 21
169.6251637879066
 31
0.0000000000000000
  0
INSERT
  5
61
100
AcDbEntity
  8
MAIN0
  6
BYBLOCK
 62
0
100
AcDbBlockReference
  2
_OPEN
 10
99.18880150591099
 20
169.6251637879066
 30
0.0000000000000000
 41
2.000000000000000
 42
2.000000000000000
 43
2.000000000000000
 50
180.0000000000000
  0
INSERT
  5
62
100
AcDbEntity
  8
MAIN0
  6
BYBLOCK
 62
0
100
AcDbBlockReference
  2
_OPEN
 10
126.6888015061740
 20
169.6251637879066
 30
0.0000000000000000
 41
2.000000000000000
 42
2.000000000000000
 43
2.000000000000000
 50
0.0000000000000000
  0
LINE
  5
63
100
AcDbEntity
  8
MAIN0
  6
BYBLOCK
 62
0
100
AcDbLine
 10
126.6888015061740
 20
193.8653231367174
 30
0.0000000000000000
 11
126.6888015061740
 21
167.6251637879066
 31
0.0000000000000000
  0
MTEXT
  5
64
100
AcDbEntity
  8
MAIN0
  6
BYBLOCK
 62
0
100
AcDbMText
 10
112.9388015060425
 20
171.6751637402229
 30
0.0000000000000000
 40
3.099999904632568
 41
0.0000000000000000
 71
     5
 72
     1
  1
\A1;27.5
 11
1.000000000000000
 21
0.0000000000000000
 31
0.0000000000000000
  7
STANDARD
  0
ENDBLK
  5
65
100
AcDbEntity
  8
MAIN0
  6
CONTINUOUS
 62
3
100
AcDbBlockEnd
  0
BLOCK
  5
67
100
AcDbEntity
  8
MAIN0
  6
CONTINUOUS
 62
3
100
AcDbBlockBegin
  2
*D2
 70
    65
 10
0.0
 20
0.0
 30
0.0
  0
LINE
  5
68
100
AcDbEntity
  8
MAIN0
  6
BYBLOCK
 62
0
100
AcDbLine
 10
126.6888015061740
 20
193.8653231367174
 30
0.0000000000000000
 11
126.6888015061740
 21
167.6251637879066
 31
0.0000000000000000
  0
LINE
  5
69
100
AcDbEntity
  8
MAIN0
  6
BYBLOCK
 62
0
100
AcDbLine
 10
128.6888015061741
 20
169.6251637879066
 30
0.0000000000000000
 11
147.4888015061702
 21
169.6251637879066
 31
0.0000000000000000
  0
INSERT
  5
6A
100
AcDbEntity
  8
MAIN0
  6
BYBLOCK
 62
0
100
AcDbBlockReference
  2
_OPEN
 10
126.6888015061740
 20
169.6251637879066
 30
0.0000000000000000
 41
2.000000000000000
 42
2.000000000000000
 43
2.000000000000000
 50
180.0000000000000
  0
INSERT
  5
6B
100
AcDbEntity
  8
MAIN0
  6
BYBLOCK
 62
0
100
AcDbBlockReference
  2
_OPEN
 10
149.4888015061702
 20
169.6251637879066
 30
0.0000000000000000
 41
2.000000000000000
 42
2.000000000000000
 43
2.000000000000000
 50
0.0000000000000000
  0
LINE
  5
6C
100
AcDbEntity
  8
MAIN0
  6
BYBLOCK
 62
0
100
AcDbLine
 10
149.4888015061702
 20
193.8653231367265
 30
0.0000000000000000
 11
149.4888015061702
 21
167.6251637879066
 31
0.0000000000000000
  0
MTEXT
  5
6D
100
AcDbEntity
  8
MAIN0
  6
BYBLOCK
 62
0
100
AcDbMText
 10
138.0888015061721
 20
171.6751637402229
 30
0.0000000000000000
 40
3.099999904632568
 41
0.0000000000000000
 71
     5
 72
     1
  1
\A1;22.8
 11
1.000000000000000
 21
0.0000000000000000
 31
0.0000000000000000
  7
STANDARD
  0
ENDBLK
  5
6E
100
AcDbEntity
  8
MAIN0
  6
CONTINUOUS
 62
3
100
AcDbBlockEnd
  0
BLOCK
  5
78
100
AcDbEntity
  8
MAIN0
  6
CONTINUOUS
 62
3
100
AcDbBlockBegin
  2
*D3
 70
    65
 10
0.0
 20
0.0
 30
0.0
  0
LINE
  5
79
100
AcDbEntity
  8
MAIN0
  6
BYBLOCK
 62
0
100
AcDbLine
 10
93.74218517840066
 20
266.1110480762303
 30
0.0000000000000000
 11
67.08454064604908
 21
266.1110480762303
 31
0.0000000000000000
  0
LINE
  5
7A
100
AcDbEntity
  8
MAIN0
  6
BYBLOCK
 62
0
100
AcDbLine
 10
69.08454064604908
 20
264.1110480762303
 30
0.0000000000000000
 11
69.08454064604908
 21
203.1110480762304
 31
0.0000000000000000
  0
INSERT
  5
7B
100
AcDbEntity
  8
MAIN0
  6
BYBLOCK
 62
0
100
AcDbBlockReference
  2
_OPEN
 10
69.08454064604908
 20
266.1110480762303
 30
0.0000000000000000
 41
2.000000000000000
 42
2.000000000000000
 43
2.000000000000000
 50
90.00000000000000
  0
INSERT
  5
7C
100
AcDbEntity
  8
MAIN0
  6
BYBLOCK
 62
0
100
AcDbBlockReference
  2
_OPEN
 10
69.08454064604908
 20
201.1110480762304
 30
0.0000000000000000
 41
2.000000000000000
 42
2.000000000000000
 43
2.000000000000000
 50
270.0000000000000
  0
LINE
  5
7D
100
AcDbEntity
  8
MAIN0
  6
BYBLOCK
 62
0
100
AcDbLine
 10
93.74218517840281
 20
201.1110480762304
 30
0.0000000000000000
 11
67.08454064604908
 21
201.1110480762304
 31
0.0000000000000000
  0
MTEXT
  5
7E
100
AcDbEntity
  8
MAIN0
  6
BYBLOCK
 62
0
100
AcDbMText
 10
67.03454069373279
 20
233.6110480929942
 30
0.0000000000000000
 40
3.099999904632568
 41
0.0000000000000000
 71
     5
 72
     1
  1
\A1;65\H0.903226x;\U+00B10.02
 11
6.123233995736766e-017
 21
1.000000000000000
 31
0.0000000000000000
  7
STANDARD
  0
ENDBLK
  5
7F
100
AcDbEntity
  8
MAIN0
  6
CONTINUOUS
 62
3
100
AcDbBlockEnd
  0
BLOCK
  5
81
100
AcDbEntity
  8
MAIN0
  6
CONTINUOUS
 62
3
100
AcDbBlockBegin
  2
*D4
 70
    65
 10
0.0
 20
0.0
 30
0.0
  0
LINE
  5
82
100
AcDbEntity
  8
MAIN0
  6
BYBLOCK
 62
0
100
AcDbLine
 10
378.9509622746119
 20
282.6110480762254
 30
0.0000000000000000
 11
312.7509622867375
 21
282.6110480762254
 31
0.0000000000000000
  0
LINE
  5
83
100
AcDbEntity
  8
MAIN0
  6
BYBLOCK
 62
0
100
AcDbLine
 10
314.7509622867375
 20
280.6110480762254
 30
0.0000000000000000
 11
314.7509622867375
 21
186.6110480762256
 31
0.0000000000000000
  0
INSERT
  5
84
100
AcDbEntity
  8
MAIN0
  6
BYBLOCK
 62
0
100
AcDbBlockReference
  2
_OPEN
 10
314.7509622867375
 20
282.6110480762254
 30
0.0000000000000000
 41
2.000000000000000
 42
2.000000000000000
 43
2.000000000000000
 50
90.00000000000000
  0
INSERT
  5
85
100
AcDbEntity
  8
MAIN0
  6
BYBLOCK
 62
0
100
AcDbBlockReference
  2
_OPEN
 10
314.7509622867375
 20
184.6110480762256
 30
0.0000000000000000
 41
2.000000000000000
 42
2.000000000000000
 43
2.000000000000000
 50
270.0000000000000
  0
LINE
  5
86
100
AcDbEntity
  8
MAIN0
  6
BYBLOCK
 62
0
100
AcDbLine
 10
343.4509622747981
 20
184.6110480762256
 30
0.0000000000000000
 11
312.7509622867375
 21
184.6110480762256
 31
0.0000000000000000
  0
MTEXT
  5
87
100
AcDbEntity
  8
MAIN0
  6
BYBLOCK
 62
0
100
AcDbMText
 10
312.7009623344212
 20
233.6110480762255
 30
0.0000000000000000
 40
3.099999904632568
 41
0.0000000000000000
 71
     5
 72
     1
  1
\A1;98
 11
6.123233995736766e-017
 21
1.000000000000000
 31
0.0000000000000000
  7
STANDARD
  0
ENDBLK
  5
88
100
AcDbEntity
  8
MAIN0
  6
CONTINUOUS
 62
3
100
AcDbBlockEnd
  0
BLOCK
  5
8A
100
AcDbEntity
  8
MAIN0
  6
CONTINUOUS
 62
3
100
AcDbBlockBegin
  2
*D5
 70
    65
 10
0.0
 20
0.0
 30
0.0
  0
LINE
  5
8B
100
AcDbEntity
  8
MAIN0
  6
BYBLOCK
 62
0
100
AcDbLine
 10
390.0509622744764
 20
283.1110480761943
 30
0.0000000000000000
 11
312.7509622867375
 21
283.1110480762100
 31
0.0000000000000000
  0
LINE
  5
8C
100
AcDbEntity
  8
MAIN0
  6
BYBLOCK
 62
0
100
AcDbLine
 10
314.7509622867375
 20
283.1110480762096
 30
0.0000000000000000
 11
314.7509622867375
 21
282.6110480762254
 31
0.0000000000000000
  0
INSERT
  5
8D
100
AcDbEntity
  8
MAIN0
  6
BYBLOCK
 62
0
100
AcDbBlockReference
  2
_OPEN
 10
314.7509622867375
 20
283.1110480762096
 30
0.0000000000000000
 41
2.000000000000000
 42
2.000000000000000
 43
2.000000000000000
 50
270.0000000000000
  0
INSERT
  5
8E
100
AcDbEntity
  8
MAIN0
  6
BYBLOCK
 62
0
100
AcDbBlockReference
  2
_OPEN
 10
314.7509622867375
 20
282.6110480762254
 30
0.0000000000000000
 41
2.000000000000000
 42
2.000000000000000
 43
2.000000000000000
 50
90.00000000000000
  0
LINE
  5
8F
100
AcDbEntity
  8
MAIN0
  6
BYBLOCK
 62
0
100
AcDbLine
 10
314.7509622867375
 20
285.1110480762096
 30
0.0000000000000000
 11
314.7509622867375
 21
289.9547456241222
 31
0.0000000000000000
  0
LINE
  5
90
100
AcDbEntity
  8
MAIN0
  6
BYBLOCK
 62
0
100
AcDbLine
 10
314.7509622867375
 20
280.6110480762254
 30
0.0000000000000000
 11
314.7509622867375
 21
279.6110480762254
 31
0.0000000000000000
  0
LINE
  5
91
100
AcDbEntity
  8
MAIN0
  6
BYBLOCK
 62
0
100
AcDbLine
 10
378.9509622746119
 20
282.6110480762254
 30
0.0000000000000000
 11
312.7509622867375
 21
282.6110480762254
 31
0.0000000000000000
  0
MTEXT
  5
92
100
AcDbEntity
  8
MAIN0
  6
BYBLOCK
 62
0
100
AcDbMText
 10
312.7009623344212
 20
287.3047457848572
 30
0.0000000000000000
 40
3.099999904632568
 41
0.0000000000000000
 71
     5
 72
     1
  1
\A1;0.5
 11
6.123233995736766e-017
 21
1.000000000000000
 31
0.0000000000000000
  7
STANDARD
  0
ENDBLK
  5
93
100
AcDbEntity
  8
MAIN0
  6
CONTINUOUS
 62
3
100
AcDbBlockEnd
  0
BLOCK
  5
95
100
AcDbEntity
  8
MAIN0
  6
CONTINUOUS
 62
3
100
AcDbBlockBegin
  2
*D6
 70
    65
 10
0.0
 20
0.0
 30
0.0
  0
LINE
  5
96
100
AcDbEntity
  8
MAIN0
  6
BYBLOCK
 62
0
100
AcDbLine
 10
343.4509622747981
 20
184.6110480762260
 30
0.0000000000000000
 11
312.7509622867375
 21
184.6110480762421
 31
0.0000000000000000
  0
LINE
  5
97
100
AcDbEntity
  8
MAIN0
  6
BYBLOCK
 62
0
100
AcDbLine
 10
314.7509622867375
 20
184.6110480762411
 30
0.0000000000000000
 11
314.7509622867375
 21
184.1110480763171
 31
0.0000000000000000
  0
INSERT
  5
98
100
AcDbEntity
  8
MAIN0
  6
BYBLOCK
 62
0
100
AcDbBlockReference
  2
_OPEN
 10
314.7509622867375
 20
184.6110480762411
 30
0.0000000000000000
 41
2.000000000000000
 42
2.000000000000000
 43
2.000000000000000
 50
270.0000000000000
  0
INSERT
  5
99
100
AcDbEntity
  8
MAIN0
  6
BYBLOCK
 62
0
100
AcDbBlockReference
  2
_OPEN
 10
314.7509622867375
 20
184.1110480763171
 30
0.0000000000000000
 41
2.000000000000000
 42
2.000000000000000
 43
2.000000000000000
 50
90.00000000000000
  0
LINE
  5
9A
100
AcDbEntity
  8
MAIN0
  6
BYBLOCK
 62
0
100
AcDbLine
 10
314.7509622867375
 20
186.6110480762411
 30
0.0000000000000000
 11
314.7509622867375
 21
187.6110480762411
 31
0.0000000000000000
  0
LINE
  5
9B
100
AcDbEntity
  8
MAIN0
  6
BYBLOCK
 62
0
100
AcDbLine
 10
314.7509622867375
 20
182.1110480763171
 30
0.0000000000000000
 11
314.7509622867375
 21
177.1416142918322
 31
0.0000000000000000
  0
LINE
  5
9C
100
AcDbEntity
  8
MAIN0
  6
BYBLOCK
 62
0
100
AcDbLine
 10
390.0509622744764
 20
184.1110480763171
 30
0.0000000000000000
 11
312.7509622867375
 21
184.1110480763171
 31
0.0000000000000000
  0
MTEXT
  5
9D
100
AcDbEntity
  8
MAIN0
  6
BYBLOCK
 62
0
100
AcDbMText
 10
312.7009623344212
 20
179.7916143113968
 30
0.0000000000000000
 40
3.099999904632568
 41
0.0000000000000000
 71
     5
 72
     1
  1
\A1;0.5
 11
6.123233995736766e-017
 21
1.000000000000000
 31
0.0000000000000000
  7
STANDARD
  0
ENDBLK
  5
9E
100
AcDbEntity
  8
MAIN0
  6
CONTINUOUS
 62
3
100
AcDbBlockEnd
  0
BLOCK
  5
A0
100
AcDbEntity
  8
MAIN0
  6
CONTINUOUS
 62
3
100
AcDbBlockBegin
  2
*D7
 70
    65
 10
0.0
 20
0.0
 30
0.0
  0
LINE
  5
A1
100
AcDbEntity
  8
MAIN0
  6
BYBLOCK
 62
0
100
AcDbLine
 10
390.0509622744764
 20
184.1110480763168
 30
0.0000000000000000
 11
304.7509622867375
 21
184.1110480762853
 31
0.0000000000000000
  0
LINE
  5
A2
100
AcDbEntity
  8
MAIN0
  6
BYBLOCK
 62
0
100
AcDbLine
 10
306.7509622867375
 20
186.1110480762860
 30
0.0000000000000000
 11
306.7509622867375
 21
281.1110480761941
 31
0.0000000000000000
  0
INSERT
  5
A3
100
AcDbEntity
  8
MAIN0
  6
BYBLOCK
 62
0
100
AcDbBlockReference
  2
_OPEN
 10
306.7509622867375
 20
184.1110480762860
 30
0.0000000000000000
 41
2.000000000000000
 42
2.000000000000000
 43
2.000000000000000
 50
270.0000000000000
  0
INSERT
  5
A4
100
AcDbEntity
  8
MAIN0
  6
BYBLOCK
 62
0
100
AcDbBlockReference
  2
_OPEN
 10
306.7509622867375
 20
283.1110480761941
 30
0.0000000000000000
 41
2.000000000000000
 42
2.000000000000000
 43
2.000000000000000
 50
90.00000000000000
  0
LINE
  5
A5
100
AcDbEntity
  8
MAIN0
  6
BYBLOCK
 62
0
100
AcDbLine
 10
390.0509622744764
 20
283.1110480761941
 30
0.0000000000000000
 11
304.7509622867375
 21
283.1110480761941
 31
0.0000000000000000
  0
MTEXT
  5
A6
100
AcDbEntity
  8
MAIN0
  6
BYBLOCK
 62
0
100
AcDbMText
 10
304.7009623344212
 20
233.6110480762401
 30
0.0000000000000000
 40
3.099999904632568
 41
0.0000000000000000
 71
     5
 72
     1
  1
\A1;(99)
 11
6.123233995736766e-017
 21
1.000000000000000
 31
0.0000000000000000
  7
STANDARD
  0
ENDBLK
  5
A7
100
AcDbEntity
  8
MAIN0
  6
CONTINUOUS
 62
3
100
AcDbBlockEnd
  0
BLOCK
  5
A9
100
AcDbEntity
  8
MAIN0
  6
CONTINUOUS
 62
3
100
AcDbBlockBegin
  2
*D8
 70
    65
 10
0.0
 20
0.0
 30
0.0
  0
LINE
  5
AA
100
AcDbEntity
  8
MAIN0
  6
BYBLOCK
 62
0
100
AcDbLine
 10
384.7509622867190
 20
276.0653067309467
 30
0.0000000000000000
 11
384.7509622867190
 21
293.0703063002578
 31
0.0000000000000000
  0
LINE
  5
AB
100
AcDbEntity
  8
MAIN0
  6
BYBLOCK
 62
0
100
AcDbLine
 10
386.7509622867190
 20
291.0703063002578
 30
0.0000000000000000
 11
414.7509622867191
 21
291.0703063002578
 31
0.0000000000000000
  0
INSERT
  5
AC
100
AcDbEntity
  8
MAIN0
  6
BYBLOCK
 62
0
100
AcDbBlockReference
  2
_OPEN
 10
384.7509622867190
 20
291.0703063002578
 30
0.0000000000000000
 41
2.000000000000000
 42
2.000000000000000
 43
2.000000000000000
 50
180.0000000000000
  0
INSERT
  5
AD
100
AcDbEntity
  8
MAIN0
  6
BYBLOCK
 62
0
100
AcDbBlockReference
  2
_OPEN
 10
416.7509622867191
 20
291.0703063002578
 30
0.0000000000000000
 41
2.000000000000000
 42
2.000000000000000
 43
2.000000000000000
 50
0.0000000000000000
  0
LINE
  5
AE
100
AcDbEntity
  8
MAIN0
  6
BYBLOCK
 62
0
100
AcDbLine
 10
416.7509622867191
 20
276.0653067309465
 30
0.0000000000000000
 11
416.7509622867191
 21
293.0703063002578
 31
0.0000000000000000
  0
MTEXT
  5
AF
100
AcDbEntity
  8
MAIN0
  6
BYBLOCK
 62
0
100
AcDbMText
 10
400.7509622867191
 20
293.1203062525741
 30
0.0000000000000000
 40
3.099999904632568
 41
0.0000000000000000
 71
     5
 72
     1
  1
\A1;32
 11
1.000000000000000
 21
0.0000000000000000
 31
0.0000000000000000
  7
STANDARD
  0
ENDBLK
  5
B0
100
AcDbEntity
  8
MAIN0
  6
CONTINUOUS
 62
3
100
AcDbBlockEnd
  0
BLOCK
  5
B2
100
AcDbEntity
  8
MAIN0
  6
CONTINUOUS
 62
3
100
AcDbBlockBegin
  2
*D9
 70
    65
 10
0.0
 20
0.0
 30
0.0
  0
LINE
  5
B3
100
AcDbEntity
  8
MAIN0
  6
BYBLOCK
 62
0
100
AcDbLine
 10
411.4509622988936
 20
283.1110480762096
 30
0.0000000000000000
 11
436.3227534065035
 21
283.1110480762096
 31
0.0000000000000000
  0
LINE
  5
B4
100
AcDbEntity
  8
MAIN0
  6
BYBLOCK
 62
0
100
AcDbLine
 10
434.3227534065035
 20
283.1110480762096
 30
0.0000000000000000
 11
434.3227534065035
 21
276.6110480762056
 31
0.0000000000000000
  0
INSERT
  5
B5
100
AcDbEntity
  8
MAIN0
  6
BYBLOCK
 62
0
100
AcDbBlockReference
  2
_OPEN
 10
434.3227534065035
 20
283.1110480762096
 30
0.0000000000000000
 41
2.000000000000000
 42
2.000000000000000
 43
2.000000000000000
 50
270.0000000000000
  0
INSERT
  5
B6
100
AcDbEntity
  8
MAIN0
  6
BYBLOCK
 62
0
100
AcDbBlockReference
  2
_OPEN
 10
434.3227534065035
 20
276.6110480762056
 30
0.0000000000000000
 41
2.000000000000000
 42
2.000000000000000
 43
2.000000000000000
 50
90.00000000000000
  0
LINE
  5
B7
100
AcDbEntity
  8
MAIN0
  6
BYBLOCK
 62
0
100
AcDbLine
 10
434.3227534065035
 20
285.1110480762096
 30
0.0000000000000000
 11
434.3227534065035
 21
286.1110480762096
 31
0.0000000000000000
  0
LINE
  5
B8
100
AcDbEntity
  8
MAIN0
  6
BYBLOCK
 62
0
100
AcDbLine
 10
434.3227534065035
 20
274.6110480762056
 30
0.0000000000000000
 11
434.3227534065035
 21
273.6110480762056
 31
0.0000000000000000
  0
LINE
  5
B9
100
AcDbEntity
  8
MAIN0
  6
BYBLOCK
 62
0
100
AcDbLine
 10
406.4725871153108
 20
276.6110480762056
 30
0.0000000000000000
 11
436.3227534065035
 21
276.6110480762056
 31
0.0000000000000000
  0
MTEXT
  5
BA
100
AcDbEntity
  8
MAIN0
  6
BYBLOCK
 62
0
100
AcDbMText
 10
432.2727534541872
 20
279.8610480762076
 30
0.0000000000000000
 40
3.099999904632568
 41
0.0000000000000000
 71
     5
 72
     1
  1
\A1;6.5
 11
6.123233995736766e-017
 21
1.000000000000000
 31
0.0000000000000000
  7
STANDARD
  0
ENDBLK
  5
BB
100
AcDbEntity
  8
MAIN0
  6
CONTINUOUS
 62
3
100
AcDbBlockEnd
  0
BLOCK
  5
BD
100
AcDbEntity
  8
MAIN0
  6
CONTINUOUS
 62
3
100
AcDbBlockBegin
  2
*D10
 70
    65
 10
0.0
 20
0.0
 30
0.0
  0
LINE
  5
BE
100
AcDbEntity
  8
MAIN0
  6
BYBLOCK
 62
0
100
AcDbLine
 10
406.4725871153108
 20
276.6110480762056
 30
0.0000000000000000
 11
436.3227534065035
 21
276.6110480762056
 31
0.0000000000000000
  0
LINE
  5
BF
100
AcDbEntity
  8
MAIN0
  6
BYBLOCK
 62
0
100
AcDbLine
 10
434.3227534065035
 20
274.6110480762056
 30
0.0000000000000000
 11
434.3227534065035
 21
262.6110480762056
 31
0.0000000000000000
  0
INSERT
  5
C0
100
AcDbEntity
  8
MAIN0
  6
BYBLOCK
 62
0
100
AcDbBlockReference
  2
_OPEN
 10
434.3227534065035
 20
276.6110480762056
 30
0.0000000000000000
 41
2.000000000000000
 42
2.000000000000000
 43
2.000000000000000
 50
90.00000000000000
  0
INSERT
  5
C1
100
AcDbEntity
  8
MAIN0
  6
BYBLOCK
 62
0
100
AcDbBlockReference
  2
_OPEN
 10
434.3227534065035
 20
260.6110480762056
 30
0.0000000000000000
 41
2.000000000000000
 42
2.000000000000000
 43
2.000000000000000
 50
270.0000000000000
  0
LINE
  5
C2
100
AcDbEntity
  8
MAIN0
  6
BYBLOCK
 62
0
100
AcDbLine
 10
406.4725871153233
 20
260.6110480762056
 30
0.0000000000000000
 11
436.3227534065035
 21
260.6110480762056
 31
0.0000000000000000
  0
MTEXT
  5
C3
100
AcDbEntity
  8
MAIN0
  6
BYBLOCK
 62
0
100
AcDbMText
 10
432.2727534541872
 20
268.6110480762056
 30
0.0000000000000000
 40
3.099999904632568
 41
0.0000000000000000
 71
     5
 72
     1
  1
\A1;16
 11
6.123233995736766e-017
 21
1.000000000000000
 31
0.0000000000000000
  7
STANDARD
  0
ENDBLK
  5
C4
100
AcDbEntity
  8
MAIN0
  6
CONTINUOUS
 62
3
100
AcDbBlockEnd
  0
BLOCK
  5
C6
100
AcDbEntity
  8
MAIN0
  6
CONTINUOUS
 62
3
100
AcDbBlockBegin
  2
*D11
 70
    65
 10
0.0
 20
0.0
 30
0.0
  0
LINE
  5
C7
100
AcDbEntity
  8
MAIN0
  6
BYBLOCK
 62
0
100
AcDbLine
 10
406.4725871153233
 20
260.6110480762056
 30
0.0000000000000000
 11
436.3227534065035
 21
260.6110480762056
 31
0.0000000000000000
  0
LINE
  5
C8
100
AcDbEntity
  8
MAIN0
  6
BYBLOCK
 62
0
100
AcDbLine
 10
434.3227534065035
 20
258.6110480762056
 30
0.0000000000000000
 11
434.3227534065035
 21
235.6110480762556
 31
0.0000000000000000
  0
INSERT
  5
C9
100
AcDbEntity
  8
MAIN0
  6
BYBLOCK
 62
0
100
AcDbBlockReference
  2
_OPEN
 10
434.3227534065035
 20
260.6110480762056
 30
0.0000000000000000
 41
2.000000000000000
 42
2.000000000000000
 43
2.000000000000000
 50
90.00000000000000
  0
INSERT
  5
CA
100
AcDbEntity
  8
MAIN0
  6
BYBLOCK
 62
0
100
AcDbBlockReference
  2
_OPEN
 10
434.3227534065035
 20
233.6110480762556
 30
0.0000000000000000
 41
2.000000000000000
 42
2.000000000000000
 43
2.000000000000000
 50
270.0000000000000
  0
LINE
  5
CB
100
AcDbEntity
  8
MAIN0
  6
BYBLOCK
 62
0
100
AcDbLine
 10
428.6904188277091
 20
233.6110480762556
 30
0.0000000000000000
 11
436.3227534065035
 21
233.6110480762556
 31
0.0000000000000000
  0
MTEXT
  5
CC
100
AcDbEntity
  8
MAIN0
  6
BYBLOCK
 62
0
100
AcDbMText
 10
432.2727534541872
 20
247.1110480762306
 30
0.0000000000000000
 40
3.099999904632568
 41
0.0000000000000000
 71
     5
 72
     1
  1
\A1;MAX 27
 11
6.123233995736766e-017
 21
1.000000000000000
 31
0.0000000000000000
  7
STANDARD
  0
ENDBLK
  5
CD
100
AcDbEntity
  8
MAIN0
  6
CONTINUOUS
 62
3
100
AcDbBlockEnd
  0
BLOCK
  5
CF
100
AcDbEntity
  8
MAIN0
  6
CONTINUOUS
 62
3
100
AcDbBlockBegin
  2
*D12
 70
    65
 10
0.0
 20
0.0
 30
0.0
  0
LINE
  5
D0
100
AcDbEntity
  8
MAIN0
  6
BYBLOCK
 62
0
100
AcDbLine
 10
377.8010568945943
 20
269.6110480762255
 30
0.0000000000000000
 11
368.5080778517878
 21
269.6110480762255
 31
0.0000000000000000
  0
LINE
  5
D1
100
AcDbEntity
  8
MAIN0
  6
BYBLOCK
 62
0
100
AcDbLine
 10
370.5080778517878
 20
267.6110480762255
 30
0.0000000000000000
 11
370.5080778517878
 21
199.6110480762254
 31
0.0000000000000000
  0
INSERT
  5
D2
100
AcDbEntity
  8
MAIN0
  6
BYBLOCK
 62
0
100
AcDbBlockReference
  2
_OPEN
 10
370.5080778517878
 20
269.6110480762255
 30
0.0000000000000000
 41
2.000000000000000
 42
2.000000000000000
 43
2.000000000000000
 50
90.00000000000000
  0
INSERT
  5
D3
100
AcDbEntity
  8
MAIN0
  6
BYBLOCK
 62
0
100
AcDbBlockReference
  2
_OPEN
 10
370.5080778517878
 20
197.6110480762254
 30
0.0000000000000000
 41
2.000000000000000
 42
2.000000000000000
 43
2.000000000000000
 50
270.0000000000000
  0
LINE
  5
D4
100
AcDbEntity
  8
MAIN0
  6
BYBLOCK
 62
0
100
AcDbLine
 10
377.8010568945942
 20
197.6110480762255
 30
0.0000000000000000
 11
368.5080778517878
 21
197.6110480762254
 31
0.0000000000000000
  0
MTEXT
  5
D5
100
AcDbEntity
  8
MAIN0
  6
BYBLOCK
 62
0
100
AcDbMText
 10
368.4580778994715
 20
216.1877560585557
 30
0.0000000000000000
 40
3.099999904632568
 41
0.0000000000000000
 71
     5
 72
     1
  1
\A1;72
 11
6.123233995736766e-017
 21
1.000000000000000
 31
0.0000000000000000
  7
STANDARD
  0
ENDBLK
  5
D6
100
AcDbEntity
  8
MAIN0
  6
CONTINUOUS
 62
3
100
AcDbBlockEnd
  0
BLOCK
  5
D8
100
AcDbEntity
  8
MAIN0
  6
CONTINUOUS
 62
3
100
AcDbBlockBegin
  2
*D13
 70
    65
 10
0.0
 20
0.0
 30
0.0
  0
LINE
  5
D9
100
AcDbEntity
  8
MAIN0
  6
BYBLOCK
 62
0
100
AcDbLine
 10
338.7509622867542
 20
186.0110480642794
 30
0.0000000000000000
 11
338.7509622867150
 21
167.2045759280852
 31
0.0000000000000000
  0
LINE
  5
DA
100
AcDbEntity
  8
MAIN0
  6
BYBLOCK
 62
0
100
AcDbLine
 10
340.7509622867192
 20
169.2045759280852
 30
0.0000000000000000
 11
398.7509622869635
 21
169.2045759280852
 31
0.0000000000000000
  0
INSERT
  5
DB
100
AcDbEntity
  8
MAIN0
  6
BYBLOCK
 62
0
100
AcDbBlockReference
  2
_OPEN
 10
338.7509622867192
 20
169.2045759280852
 30
0.0000000000000000
 41
2.000000000000000
 42
2.000000000000000
 43
2.000000000000000
 50
180.0000000000000
  0
INSERT
  5
DC
100
AcDbEntity
  8
MAIN0
  6
BYBLOCK
 62
0
100
AcDbBlockReference
  2
_OPEN
 10
400.7509622869635
 20
169.2045759280852
 30
0.0000000000000000
 41
2.000000000000000
 42
2.000000000000000
 43
2.000000000000000
 50
0.0000000000000000
  0
LINE
  5
DD
100
AcDbEntity
  8
MAIN0
  6
BYBLOCK
 62
0
100
AcDbLine
 10
400.7509622869635
 20
179.0573851503477
 30
0.0000000000000000
 11
400.7509622869635
 21
167.2045759280852
 31
0.0000000000000000
  0
MTEXT
  5
DE
100
AcDbEntity
  8
MAIN0
  6
BYBLOCK
 62
0
100
AcDbMText
 10
369.7509622868413
 20
171.2545758804015
 30
0.0000000000000000
 40
3.099999904632568
 41
0.0000000000000000
 71
     5
 72
     1
  1
\A1;62
 11
1.000000000000000
 21
0.0000000000000000
 31
0.0000000000000000
  7
STANDARD
  0
ENDBLK
  5
DF
100
AcDbEntity
  8
MAIN0
  6
CONTINUOUS
 62
3
100
AcDbBlockEnd
  0
BLOCK
  5
E1
100
AcDbEntity
  8
MAIN0
  6
CONTINUOUS
 62
3
100
AcDbBlockBegin
  2
*D14
 70
    65
 10
0.0
 20
0.0
 30
0.0
  0
LINE
  5
E2
100
AcDbEntity
  8
MAIN0
  6
BYBLOCK
 62
0
100
AcDbLine
 10
400.7509622869635
 20
179.0573851503477
 30
0.0000000000000000
 11
400.7509622869635
 21
167.2045759280852
 31
0.0000000000000000
  0
LINE
  5
E3
100
AcDbEntity
  8
MAIN0
  6
BYBLOCK
 62
0
100
AcDbLine
 10
402.7509622869635
 20
169.2045759280852
 30
0.0000000000000000
 11
419.7509622867192
 21
169.2045759280852
 31
0.0000000000000000
  0
INSERT
  5
E4
100
AcDbEntity
  8
MAIN0
  6
BYBLOCK
 62
0
100
AcDbBlockReference
  2
_OPEN
 10
400.7509622869635
 20
169.2045759280852
 30
0.0000000000000000
 41
2.000000000000000
 42
2.000000000000000
 43
2.000000000000000
 50
180.0000000000000
  0
INSERT
  5
E5
100
AcDbEntity
  8
MAIN0
  6
BYBLOCK
 62
0
100
AcDbBlockReference
  2
_OPEN
 10
421.7509622867192
 20
169.2045759280852
 30
0.0000000000000000
 41
2.000000000000000
 42
2.000000000000000
 43
2.000000000000000
 50
0.0000000000000000
  0
LINE
  5
E6
100
AcDbEntity
  8
MAIN0
  6
BYBLOCK
 62
0
100
AcDbLine
 10
421.7509622867192
 20
184.8110480643045
 30
0.0000000000000000
 11
421.7509622867192
 21
167.2045759280852
 31
0.0000000000000000
  0
MTEXT
  5
E7
100
AcDbEntity
  8
MAIN0
  6
BYBLOCK
 62
0
100
AcDbMText
 10
411.2509622868413
 20
171.2545758804015
 30
0.0000000000000000
 40
3.099999904632568
 41
0.0000000000000000
 71
     5
 72
     1
  1
\A1;21
 11
1.000000000000000
 21
0.0000000000000000
 31
0.0000000000000000
  7
STANDARD
  0
ENDBLK
  5
E8
100
AcDbEntity
  8
MAIN0
  6
CONTINUOUS
 62
3
100
AcDbBlockEnd
  0
BLOCK
  5
EA
100
AcDbEntity
  8
MAIN0
  6
CONTINUOUS
 62
3
100
AcDbBlockBegin
  2
*D15
 70
    65
 10
0.0
 20
0.0
 30
0.0
  0
LINE
  5
EB
100
AcDbEntity
  8
MAIN0
  6
BYBLOCK
 62
0
100
AcDbLine
 10
338.7509622867547
 20
186.0110480642794
 30
0.0000000000000000
 11
338.7509622867163
 21
159.3177525974700
 31
0.0000000000000000
  0
LINE
  5
EC
100
AcDbEntity
  8
MAIN0
  6
BYBLOCK
 62
0
100
AcDbLine
 10
340.7509622867192
 20
161.3177525974700
 30
0.0000000000000000
 11
419.7509622867192
 21
161.3177525974700
 31
0.0000000000000000
  0
INSERT
  5
ED
100
AcDbEntity
  8
MAIN0
  6
BYBLOCK
 62
0
100
AcDbBlockReference
  2
_OPEN
 10
338.7509622867192
 20
161.3177525974700
 30
0.0000000000000000
 41
2.000000000000000
 42
2.000000000000000
 43
2.000000000000000
 50
180.0000000000000
  0
INSERT
  5
EE
100
AcDbEntity
  8
MAIN0
  6
BYBLOCK
 62
0
100
AcDbBlockReference
  2
_OPEN
 10
421.7509622867192
 20
161.3177525974700
 30
0.0000000000000000
 41
2.000000000000000
 42
2.000000000000000
 43
2.000000000000000
 50
0.0000000000000000
  0
LINE
  5
EF
100
AcDbEntity
  8
MAIN0
  6
BYBLOCK
 62
0
100
AcDbLine
 10
421.7509622867192
 20
184.8110480643045
 30
0.0000000000000000
 11
421.7509622867192
 21
159.3177525974700
 31
0.0000000000000000
  0
MTEXT
  5
F0
100
AcDbEntity
  8
MAIN0
  6
BYBLOCK
 62
0
100
AcDbMText
 10
380.2509622867192
 20
163.3677525497863
 30
0.0000000000000000
 40
3.099999904632568
 41
0.0000000000000000
 71
     5
 72
     1
  1
\A1;(83)
 11
1.000000000000000
 21
0.0000000000000000
 31
0.0000000000000000
  7
STANDARD
  0
ENDBLK
  5
F1
100
AcDbEntity
  8
MAIN0
  6
CONTINUOUS
 62
3
100
AcDbBlockEnd
  0
BLOCK
  5
F3
100
AcDbEntity
  8
MAIN0
  6
CONTINUOUS
 62
3
100
AcDbBlockBegin
  2
*D16
 70
    65
 10
0.0
 20
0.0
 30
0.0
  0
LINE
  5
F4
100
AcDbEntity
  8
MAIN0
  6
BYBLOCK
 62
0
100
AcDbLine
 10
507.6015105194921
 20
244.6110480762472
 30
0.0000000000000000
 11
526.2247078502804
 21
244.6110480762469
 31
0.0000000000000000
  0
LINE
  5
F5
100
AcDbEntity
  8
MAIN0
  6
BYBLOCK
 62
0
100
AcDbLine
 10
524.2247078502804
 20
242.6110480762469
 30
0.0000000000000000
 11
524.2247078502804
 21
224.6110480762469
 31
0.0000000000000000
  0
INSERT
  5
F6
100
AcDbEntity
  8
MAIN0
  6
BYBLOCK
 62
0
100
AcDbBlockReference
  2
_OPEN
 10
524.2247078502804
 20
244.6110480762469
 30
0.0000000000000000
 41
2.000000000000000
 42
2.000000000000000
 43
2.000000000000000
 50
90.00000000000000
  0
INSERT
  5
F7
100
AcDbEntity
  8
MAIN0
  6
BYBLOCK
 62
0
100
AcDbBlockReference
  2
_OPEN
 10
524.2247078502804
 20
222.6110480762469
 30
0.0000000000000000
 41
2.000000000000000
 42
2.000000000000000
 43
2.000000000000000
 50
270.0000000000000
  0
LINE
  5
F8
100
AcDbEntity
  8
MAIN0
  6
BYBLOCK
 62
0
100
AcDbLine
 10
507.6015105194929
 20
222.6110480762472
 30
0.0000000000000000
 11
526.2247078502804
 21
222.6110480762469
 31
0.0000000000000000
  0
MTEXT
  5
F9
100
AcDbEntity
  8
MAIN0
  6
BYBLOCK
 62
0
100
AcDbMText
 10
522.1747078979641
 20
233.6110480930107
 30
0.0000000000000000
 40
3.099999904632568
 41
0.0000000000000000
 71
     5
 72
     1
  1
\A1;22\H0.903226x;\U+00B10.02
 11
6.123233995736766e-017
 21
1.000000000000000
 31
0.0000000000000000
  7
STANDARD
  0
ENDBLK
  5
FA
100
AcDbEntity
  8
MAIN0
  6
CONTINUOUS
 62
3
100
AcDbBlockEnd
  0
BLOCK
  5
100
100
AcDbEntity
  8
MAIN0
  6
CONTINUOUS
 62
3
100
AcDbBlockBegin
  2
*D17
 70
    65
 10
0.0
 20
0.0
 30
0.0
  0
LINE
  5
101
100
AcDbEntity
  8
MAIN0
  6
BYBLOCK
 62
0
100
AcDbLine
 10
507.4729783502764
 20
190.6110480762472
 30
0.0000000000000000
 11
533.6982061839128
 21
190.6110480762469
 31
0.0000000000000000
  0
LINE
  5
102
100
AcDbEntity
  8
MAIN0
  6
BYBLOCK
 62
0
100
AcDbLine
 10
531.6982061839128
 20
192.6110480762469
 30
0.0000000000000000
 11
531.6982061839128
 21
274.6110480762469
 31
0.0000000000000000
  0
INSERT
  5
103
100
AcDbEntity
  8
MAIN0
  6
BYBLOCK
 62
0
100
AcDbBlockReference
  2
_OPEN
 10
531.6982061839128
 20
190.6110480762469
 30
0.0000000000000000
 41
2.000000000000000
 42
2.000000000000000
 43
2.000000000000000
 50
270.0000000000000
  0
INSERT
  5
104
100
AcDbEntity
  8
MAIN0
  6
BYBLOCK
 62
0
100
AcDbBlockReference
  2
_OPEN
 10
531.6982061839128
 20
276.6110480762469
 30
0.0000000000000000
 41
2.000000000000000
 42
2.000000000000000
 43
2.000000000000000
 50
90.00000000000000
  0
LINE
  5
105
100
AcDbEntity
  8
MAIN0
  6
BYBLOCK
 62
0
100
AcDbLine
 10
507.4729783502734
 20
276.6110480762471
 30
0.0000000000000000
 11
533.6982061839128
 21
276.6110480762468
 31
0.0000000000000000
  0
MTEXT
  5
106
100
AcDbEntity
  8
MAIN0
  6
BYBLOCK
 62
0
100
AcDbMText
 10
529.6482062315965
 20
233.6110480762469
 30
0.0000000000000000
 40
3.099999904632568
 41
0.0000000000000000
 71
     5
 72
     1
  1
\A1;86
 11
6.123233995736766e-017
 21
1.000000000000000
 31
0.0000000000000000
  7
STANDARD
  0
ENDBLK
  5
107
100
AcDbEntity
  8
MAIN0
  6
CONTINUOUS
 62
3
100
AcDbBlockEnd
  0
BLOCK
  5
10B
100
AcDbEntity
  8
MAIN0
  6
CONTINUOUS
 62
3
100
AcDbBlockBegin
  2
*D18
 70
    65
 10
0.0
 20
0.0
 30
0.0
  0
LINE
  5
10C
100
AcDbEntity
  8
MAIN0
  6
BYBLOCK
 62
0
100
AcDbLine
 10
490.7346119735615
 20
195.5110480761012
 30
0.0000000000000000
 11
490.7346119735615
 21
199.7110480763162
 31
0.0000000000000000
  0
INSERT
  5
10D
100
AcDbEntity
  8
MAIN0
  6
BYBLOCK
 62
0
100
AcDbBlockReference
  2
_OPEN
 10
490.7346119735615
 20
195.5110480761012
 30
0.0000000000000000
 41
2.000000000000000
 42
2.000000000000000
 43
2.000000000000000
 50
90.00000000000000
  0
INSERT
  5
10E
100
AcDbEntity
  8
MAIN0
  6
BYBLOCK
 62
0
100
AcDbBlockReference
  2
_OPEN
 10
490.7346119735615
 20
199.7110480763162
 30
0.0000000000000000
 41
2.000000000000000
 42
2.000000000000000
 43
2.000000000000000
 50
270.0000000000000
  0
LINE
  5
10F
100
AcDbEntity
  8
MAIN0
  6
BYBLOCK
 62
0
100
AcDbLine
 10
490.7346119735615
 20
193.5110480761012
 30
0.0000000000000000
 11
490.7346119735615
 21
192.5110480761012
 31
0.0000000000000000
  0
LINE
  5
110
100
AcDbEntity
  8
MAIN0
  6
BYBLOCK
 62
0
100
AcDbLine
 10
490.7346119735615
 20
201.7110480763162
 30
0.0000000000000000
 11
490.7346119735615
 21
212.3745612599100
 31
0.0000000000000000
  0
MTEXT
  5
111
100
AcDbEntity
  8
MAIN0
  6
BYBLOCK
 62
0
100
AcDbMText
 10
488.6846120212452
 20
208.4245616775348
 30
0.0000000000000000
 40
3.099999904632568
 41
0.0000000000000000
 71
     5
 72
     1
  1
\A1;\U+22054.2
 11
6.123233995736766e-017
 21
1.000000000000000
 31
0.0000000000000000
  7
STANDARD
  0
ENDBLK
  5
112
100
AcDbEntity
  8
MAIN0
  6
CONTINUOUS
 62
3
100
AcDbBlockEnd
  0
BLOCK
  5
114
100
AcDbEntity
  8
MAIN0
  6
CONTINUOUS
 62
3
100
AcDbBlockBegin
  2
*D19
 70
    65
 10
0.0
 20
0.0
 30
0.0
  0
LINE
  5
115
100
AcDbEntity
  8
MAIN0
  6
BYBLOCK
 62
0
100
AcDbLine
 10
476.7642172466557
 20
201.6110480763690
 30
0.0000000000000000
 11
463.3977116951274
 21
201.6110480763724
 31
0.0000000000000000
  0
LINE
  5
116
100
AcDbEntity
  8
MAIN0
  6
BYBLOCK
 62
0
100
AcDbLine
 10
465.3977116951274
 20
201.6110480763719
 30
0.0000000000000000
 11
465.3977116951274
 21
193.6110480760331
 31
0.0000000000000000
  0
INSERT
  5
117
100
AcDbEntity
  8
MAIN0
  6
BYBLOCK
 62
0
100
AcDbBlockReference
  2
_OPEN
 10
465.3977116951274
 20
201.6110480763719
 30
0.0000000000000000
 41
2.000000000000000
 42
2.000000000000000
 43
2.000000000000000
 50
270.0000000000000
  0
INSERT
  5
118
100
AcDbEntity
  8
MAIN0
  6
BYBLOCK
 62
0
100
AcDbBlockReference
  2
_OPEN
 10
465.3977116951274
 20
193.6110480760331
 30
0.0000000000000000
 41
2.000000000000000
 42
2.000000000000000
 43
2.000000000000000
 50
90.00000000000000
  0
LINE
  5
119
100
AcDbEntity
  8
MAIN0
  6
BYBLOCK
 62
0
100
AcDbLine
 10
465.3977116951274
 20
203.6110480763719
 30
0.0000000000000000
 11
465.3977116951274
 21
204.6110480763719
 31
0.0000000000000000
  0
LINE
  5
11A
100
AcDbEntity
  8
MAIN0
  6
BYBLOCK
 62
0
100
AcDbLine
 10
465.3977116951274
 20
191.6110480760331
 30
0.0000000000000000
 11
465.3977116951274
 21
190.6110480760331
 31
0.0000000000000000
  0
LINE
  5
11B
100
AcDbEntity
  8
MAIN0
  6
BYBLOCK
 62
0
100
AcDbLine
 10
476.7642172466603
 20
193.6110480760228
 30
0.0000000000000000
 11
463.3977116951274
 21
193.6110480760349
 31
0.0000000000000000
  0
MTEXT
  5
11C
100
AcDbEntity
  8
MAIN0
  6
BYBLOCK
 62
0
100
AcDbMText
 10
463.3477117428112
 20
197.6110480762025
 30
0.0000000000000000
 40
3.099999904632568
 41
0.0000000000000000
 71
     5
 72
     1
  1
\A1;\U+22058
 11
6.123233995736766e-017
 21
1.000000000000000
 31
0.0000000000000000
  7
STANDARD
  0
ENDBLK
  5
11D
100
AcDbEntity
  8
MAIN0
  6
CONTINUOUS
 62
3
100
AcDbBlockEnd
  0
BLOCK
  5
11F
100
AcDbEntity
  8
MAIN0
  6
CONTINUOUS
 62
3
100
AcDbBlockBegin
  2
*D20
 70
    65
 10
0.0
 20
0.0
 30
0.0
  0
LINE
  5
120
100
AcDbEntity
  8
MAIN0
  6
BYBLOCK
 62
0
100
AcDbLine
 10
484.5642172585811
 20
192.8110480641122
 30
0.0000000000000000
 11
484.5642172585764
 21
171.6940833769447
 31
0.0000000000000000
  0
LINE
  5
121
100
AcDbEntity
  8
MAIN0
  6
BYBLOCK
 62
0
100
AcDbLine
 10
482.5642172585768
 20
173.6940833769447
 30
0.0000000000000000
 11
479.5642172585790
 21
173.6940833769447
 31
0.0000000000000000
  0
INSERT
  5
122
100
AcDbEntity
  8
MAIN0
  6
BYBLOCK
 62
0
100
AcDbBlockReference
  2
_OPEN
 10
484.5642172585768
 20
173.6940833769447
 30
0.0000000000000000
 41
2.000000000000000
 42
2.000000000000000
 43
2.000000000000000
 50
360.0000000000000
  0
INSERT
  5
123
100
AcDbEntity
  8
MAIN0
  6
BYBLOCK
 62
0
100
AcDbBlockReference
  2
_OPEN
 10
477.5642172585790
 20
173.6940833769447
 30
0.0000000000000000
 41
2.000000000000000
 42
2.000000000000000
 43
2.000000000000000
 50
180.0000000000000
  0
LINE
  5
124
100
AcDbEntity
  8
MAIN0
  6
BYBLOCK
 62
0
100
AcDbLine
 10
477.5642172585790
 20
184.8110480643185
 30
0.0000000000000000
 11
477.5642172585790
 21
171.6940833769447
 31
0.0000000000000000
  0
MTEXT
  5
125
100
AcDbEntity
  8
MAIN0
  6
BYBLOCK
 62
0
100
AcDbMText
 10
481.0642172585779
 20
175.7440833292610
 30
0.0000000000000000
 40
3.099999904632568
 41
0.0000000000000000
 71
     5
 72
     1
  1
\A1;7
 11
1.000000000000000
 21
0.0000000000000000
 31
0.0000000000000000
  7
STANDARD
  0
ENDBLK
  5
126
100
AcDbEntity
  8
MAIN0
  6
CONTINUOUS
 62
3
100
AcDbBlockEnd
  0
BLOCK
  5
128
100
AcDbEntity
  8
MAIN0
  6
CONTINUOUS
 62
3
100
AcDbBlockBegin
  2
*D21
 70
    65
 10
0.0
 20
0.0
 30
0.0
  0
LINE
  5
129
100
AcDbEntity
  8
MAIN0
  6
BYBLOCK
 62
0
100
AcDbLine
 10
512.5642172585790
 20
282.4110480881605
 30
0.0000000000000000
 11
512.5642172585790
 21
304.5860721147199
 31
0.0000000000000000
  0
LINE
  5
12A
100
AcDbEntity
  8
MAIN0
  6
BYBLOCK
 62
0
100
AcDbLine
 10
510.5642172585790
 20
302.5860721147199
 30
0.0000000000000000
 11
479.5642172585790
 21
302.5860721147199
 31
0.0000000000000000
  0
INSERT
  5
12B
100
AcDbEntity
  8
MAIN0
  6
BYBLOCK
 62
0
100
AcDbBlockReference
  2
_OPEN
 10
512.5642172585790
 20
302.5860721147199
 30
0.0000000000000000
 41
2.000000000000000
 42
2.000000000000000
 43
2.000000000000000
 50
360.0000000000000
  0
INSERT
  5
12C
100
AcDbEntity
  8
MAIN0
  6
BYBLOCK
 62
0
100
AcDbBlockReference
  2
_OPEN
 10
477.5642172585790
 20
302.5860721147199
 30
0.0000000000000000
 41
2.000000000000000
 42
2.000000000000000
 43
2.000000000000000
 50
180.0000000000000
  0
LINE
  5
12D
100
AcDbEntity
  8
MAIN0
  6
BYBLOCK
 62
0
100
AcDbLine
 10
477.5642172585790
 20
282.4110480881605
 30
0.0000000000000000
 11
477.5642172585790
 21
304.5860721147199
 31
0.0000000000000000
  0
MTEXT
  5
12E
100
AcDbEntity
  8
MAIN0
  6
BYBLOCK
 62
0
100
AcDbMText
 10
495.0642172585790
 20
304.6360720670361
 30
0.0000000000000000
 40
3.099999904632568
 41
0.0000000000000000
 71
     5
 72
     1
  1
\A1;35
 11
1.000000000000000
 21
0.0000000000000000
 31
0.0000000000000000
  7
STANDARD
  0
ENDBLK
  5
12F
100
AcDbEntity
  8
MAIN0
  6
CONTINUOUS
 62
3
100
AcDbBlockEnd
  0
BLOCK
  5
131
100
AcDbEntity
  8
MAIN0
  6
CONTINUOUS
 62
3
100
AcDbBlockBegin
  2
*D22
 70
    65
 10
0.0
 20
0.0
 30
0.0
  0
LINE
  5
132
100
AcDbEntity
  8
MAIN0
  6
BYBLOCK
 62
0
100
AcDbLine
 10
477.5642172585790
 20
282.4110480881605
 30
0.0000000000000000
 11
477.5642172585790
 21
304.5860721147199
 31
0.0000000000000000
  0
LINE
  5
133
100
AcDbEntity
  8
MAIN0
  6
BYBLOCK
 62
0
100
AcDbLine
 10
477.5642172585790
 20
302.5860721147199
 30
0.0000000000000000
 11
476.5642172585755
 21
302.5860721147199
 31
0.0000000000000000
  0
INSERT
  5
134
100
AcDbEntity
  8
MAIN0
  6
BYBLOCK
 62
0
100
AcDbBlockReference
  2
_OPEN
 10
477.5642172585790
 20
302.5860721147199
 30
0.0000000000000000
 41
2.000000000000000
 42
2.000000000000000
 43
2.000000000000000
 50
180.0000000000000
  0
INSERT
  5
135
100
AcDbEntity
  8
MAIN0
  6
BYBLOCK
 62
0
100
AcDbBlockReference
  2
_OPEN
 10
476.5642172585755
 20
302.5860721147199
 30
0.0000000000000000
 41
2.000000000000000
 42
2.000000000000000
 43
2.000000000000000
 50
360.0000000000000
  0
LINE
  5
136
100
AcDbEntity
  8
MAIN0
  6
BYBLOCK
 62
0
100
AcDbLine
 10
479.5642172585790
 20
302.5860721147199
 30
0.0000000000000000
 11
480.5642172585790
 21
302.5860721147199
 31
0.0000000000000000
  0
LINE
  5
137
100
AcDbEntity
  8
MAIN0
  6
BYBLOCK
 62
0
100
AcDbLine
 10
474.5642172585755
 20
302.5860721147199
 30
0.0000000000000000
 11
466.9035803567201
 21
302.5860721147199
 31
0.0000000000000000
  0
LINE
  5
138
100
AcDbEntity
  8
MAIN0
  6
BYBLOCK
 62
0
100
AcDbLine
 10
476.5642172585755
 20
283.5110480881743
 30
0.0000000000000000
 11
476.5642172585755
 21
304.5860721147199
 31
0.0000000000000000
  0
MTEXT
  5
139
100
AcDbEntity
  8
MAIN0
  6
BYBLOCK
 62
0
100
AcDbMText
 10
470.0535799271625
 20
304.6360720670361
 30
0.0000000000000000
 40
3.099999904632568
 41
0.0000000000000000
 71
     5
 72
     1
  1
\A1;(1)
 11
1.000000000000000
 21
0.0000000000000000
 31
0.0000000000000000
  7
STANDARD
  0
ENDBLK
  5
13A
100
AcDbEntity
  8
MAIN0
  6
CONTINUOUS
 62
3
100
AcDbBlockEnd
  0
BLOCK
  5
13D
100
AcDbEntity
  8
MAIN0
  6
CONTINUOUS
 62
3
100
AcDbBlockBegin
  2
*D23
 70
    65
 10
0.0
 20
0.0
 30
0.0
  0
LINE
  5
13E
100
AcDbEntity
  8
MAIN0
  6
BYBLOCK
 62
0
100
AcDbLine
 10
477.0642172585790
 20
245.4110480885187
 30
0.0000000000000000
 11
477.0642172585790
 21
249.6707184364876
 31
0.0000000000000000
  0
LINE
  5
13F
100
AcDbEntity
  8
MAIN0
  6
BYBLOCK
 62
0
100
AcDbLine
 10
477.0642172585790
 20
247.6707184364876
 30
0.0000000000000000
 11
477.5642172585790
 21
247.6707184364876
 31
0.0000000000000000
  0
INSERT
  5
140
100
AcDbEntity
  8
MAIN0
  6
BYBLOCK
 62
0
100
AcDbBlockReference
  2
_OPEN
 10
477.0642172585790
 20
247.6707184364876
 30
0.0000000000000000
 41
2.000000000000000
 42
2.000000000000000
 43
2.000000000000000
 50
0.0000000000000000
  0
INSERT
  5
141
100
AcDbEntity
  8
MAIN0
  6
BYBLOCK
 62
0
100
AcDbBlockReference
  2
_OPEN
 10
477.5642172585790
 20
247.6707184364876
 30
0.0000000000000000
 41
2.000000000000000
 42
2.000000000000000
 43
2.000000000000000
 50
180.0000000000000
  0
LINE
  5
142
100
AcDbEntity
  8
MAIN0
  6
BYBLOCK
 62
0
100
AcDbLine
 10
475.0642172585790
 20
247.6707184364876
 30
0.0000000000000000
 11
468.0268046151464
 21
247.6707184364876
 31
0.0000000000000000
  0
LINE
  5
143
100
AcDbEntity
  8
MAIN0
  6
BYBLOCK
 62
0
100
AcDbLine
 10
479.5642172585790
 20
247.6707184364876
 30
0.0000000000000000
 11
480.5642172585790
 21
247.6707184364876
 31
0.0000000000000000
  0
MTEXT
  5
144
100
AcDbEntity
  8
MAIN0
  6
BYBLOCK
 62
0
100
AcDbMText
 10
470.6768047588734
 20
249.7207183888039
 30
0.0000000000000000
 40
3.099999904632568
 41
0.0000000000000000
 71
     5
 72
     1
  1
\A1;0.5
 11
1.000000000000000
 21
0.0000000000000000
 31
0.0000000000000000
  7
STANDARD
  0
ENDBLK
  5
145
100
AcDbEntity
  8
MAIN0
  6
CONTINUOUS
 62
3
100
AcDbBlockEnd
  0
BLOCK
  5
147
100
AcDbEntity
  8
MAIN0
  6
CONTINUOUS
 62
3
100
AcDbBlockBegin
  2
*D24
 70
    65
 10
0.0
 20
0.0
 30
0.0
  0
LINE
  5
148
100
AcDbEntity
  8
MAIN0
  6
BYBLOCK
 62
0
100
AcDbLine
 10
512.5642172585790
 20
184.8110480643185
 30
0.0000000000000000
 11
512.5642172585790
 21
171.6940833769447
 31
0.0000000000000000
  0
LINE
  5
149
100
AcDbEntity
  8
MAIN0
  6
BYBLOCK
 62
0
100
AcDbLine
 10
510.5642172585790
 20
173.6940833769447
 30
0.0000000000000000
 11
504.5642172585756
 21
173.6940833769447
 31
0.0000000000000000
  0
INSERT
  5
14A
100
AcDbEntity
  8
MAIN0
  6
BYBLOCK
 62
0
100
AcDbBlockReference
  2
_OPEN
 10
512.5642172585790
 20
173.6940833769447
 30
0.0000000000000000
 41
2.000000000000000
 42
2.000000000000000
 43
2.000000000000000
 50
360.0000000000000
  0
INSERT
  5
14B
100
AcDbEntity
  8
MAIN0
  6
BYBLOCK
 62
0
100
AcDbBlockReference
  2
_OPEN
 10
502.5642172585756
 20
173.6940833769447
 30
0.0000000000000000
 41
2.000000000000000
 42
2.000000000000000
 43
2.000000000000000
 50
180.0000000000000
  0
LINE
  5
14C
100
AcDbEntity
  8
MAIN0
  6
BYBLOCK
 62
0
100
AcDbLine
 10
502.5642172585787
 20
184.2110480643185
 30
0.0000000000000000
 11
502.5642172585750
 21
171.6940833769447
 31
0.0000000000000000
  0
MTEXT
  5
14D
100
AcDbEntity
  8
MAIN0
  6
BYBLOCK
 62
0
100
AcDbMText
 10
507.5642172585773
 20
175.7440833292610
 30
0.0000000000000000
 40
3.099999904632568
 41
0.0000000000000000
 71
     5
 72
     1
  1
\A1;10
 11
1.000000000000000
 21
0.0000000000000000
 31
0.0000000000000000
  7
STANDARD
  0
ENDBLK
  5
14E
100
AcDbEntity
  8
MAIN0
  6
CONTINUOUS
 62
3
100
AcDbBlockEnd
  0
BLOCK
  5
150
100
AcDbEntity
  8
MAIN0
  6
CONTINUOUS
 62
3
100
AcDbBlockBegin
  2
*D25
 70
    65
 10
0.0
 20
0.0
 30
0.0
  0
LINE
  5
151
100
AcDbEntity
  8
MAIN0
  6
BYBLOCK
 62
0
100
AcDbLine
 10
344.2509622873024
 20
84.24716349950604
 30
0.0000000000000000
 11
344.2509622873158
 21
64.85055370836922
 31
0.0000000000000000
  0
LINE
  5
152
100
AcDbEntity
  8
MAIN0
  6
BYBLOCK
 62
0
100
AcDbLine
 10
344.2509622873144
 20
66.85055370836922
 30
0.0000000000000000
 11
350.4509622876660
 21
66.85055370836922
 31
0.0000000000000000
  0
INSERT
  5
153
100
AcDbEntity
  8
MAIN0
  6
BYBLOCK
 62
0
100
AcDbBlockReference
  2
_OPEN
 10
344.2509622873144
 20
66.85055370836922
 30
0.0000000000000000
 41
2.000000000000000
 42
2.000000000000000
 43
2.000000000000000
 50
0.0000000000000000
  0
INSERT
  5
154
100
AcDbEntity
  8
MAIN0
  6
BYBLOCK
 62
0
100
AcDbBlockReference
  2
_OPEN
 10
350.4509622876660
 20
66.85055370836922
 30
0.0000000000000000
 41
2.000000000000000
 42
2.000000000000000
 43
2.000000000000000
 50
180.0000000000000
  0
LINE
  5
155
100
AcDbEntity
  8
MAIN0
  6
BYBLOCK
 62
0
100
AcDbLine
 10
342.2509622873144
 20
66.85055370836922
 30
0.0000000000000000
 11
335.4885273279028
 21
66.85055370836922
 31
0.0000000000000000
  0
LINE
  5
156
100
AcDbEntity
  8
MAIN0
  6
BYBLOCK
 62
0
100
AcDbLine
 10
352.4509622876660
 20
66.85055370836922
 30
0.0000000000000000
 11
353.4509622876660
 21
66.85055370836922
 31
0.0000000000000000
  0
LINE
  5
157
100
AcDbEntity
  8
MAIN0
  6
BYBLOCK
 62
0
100
AcDbLine
 10
350.4509622876660
 20
97.02077919866824
 30
0.0000000000000000
 11
350.4509622876660
 21
64.85055370836922
 31
0.0000000000000000
  0
MTEXT
  5
158
100
AcDbEntity
  8
MAIN0
  6
BYBLOCK
 62
0
100
AcDbMText
 10
338.1385269044466
 20
68.90055366068550
 30
0.0000000000000000
 40
3.099999904632568
 41
0.0000000000000000
 71
     5
 72
     1
  1
\A1;6.2
 11
1.000000000000000
 21
0.0000000000000000
 31
0.0000000000000000
  7
STANDARD
  0
ENDBLK
  5
159
100
AcDbEntity
  8
MAIN0
  6
CONTINUOUS
 62
3
100
AcDbBlockEnd
  0
BLOCK
  5
15B
100
AcDbEntity
  8
MAIN0
  6
CONTINUOUS
 62
3
100
AcDbBlockBegin
  2
*D26
 70
    65
 10
0.0
 20
0.0
 30
0.0
  0
LINE
  5
15C
100
AcDbEntity
  8
MAIN0
  6
BYBLOCK
 62
0
100
AcDbLine
 10
350.4509622876660
 20
97.02077919866824
 30
0.0000000000000000
 11
350.4509622876660
 21
64.85055370836922
 31
0.0000000000000000
  0
LINE
  5
15D
100
AcDbEntity
  8
MAIN0
  6
BYBLOCK
 62
0
100
AcDbLine
 10
352.4509622876534
 20
66.85055370836922
 30
0.0000000000000000
 11
371.2509622868363
 21
66.85055370836922
 31
0.0000000000000000
  0
INSERT
  5
15E
100
AcDbEntity
  8
MAIN0
  6
BYBLOCK
 62
0
100
AcDbBlockReference
  2
_OPEN
 10
350.4509622876534
 20
66.85055370836922
 30
0.0000000000000000
 41
2.000000000000000
 42
2.000000000000000
 43
2.000000000000000
 50
180.0000000000000
  0
INSERT
  5
15F
100
AcDbEntity
  8
MAIN0
  6
BYBLOCK
 62
0
100
AcDbBlockReference
  2
_OPEN
 10
373.2509622868363
 20
66.85055370836922
 30
0.0000000000000000
 41
2.000000000000000
 42
2.000000000000000
 43
2.000000000000000
 50
0.0000000000000000
  0
LINE
  5
160
100
AcDbEntity
  8
MAIN0
  6
BYBLOCK
 62
0
100
AcDbLine
 10
373.2509622868363
 20
96.80655431163493
 30
0.0000000000000000
 11
373.2509622868363
 21
64.85055370836922
 31
0.0000000000000000
  0
MTEXT
  5
161
100
AcDbEntity
  8
MAIN0
  6
BYBLOCK
 62
0
100
AcDbMText
 10
361.8509622872448
 20
68.90055366068550
 30
0.0000000000000000
 40
3.099999904632568
 41
0.0000000000000000
 71
     5
 72
     1
  1
\A1;22.8
 11
1.000000000000000
 21
0.0000000000000000
 31
0.0000000000000000
  7
STANDARD
  0
ENDBLK
  5
162
100
AcDbEntity
  8
MAIN0
  6
CONTINUOUS
 62
3
100
AcDbBlockEnd
  0
BLOCK
  5
164
100
AcDbEntity
  8
MAIN0
  6
CONTINUOUS
 62
3
100
AcDbBlockBegin
  2
*D27
 70
    65
 10
0.0
 20
0.0
 30
0.0
  0
LINE
  5
165
100
AcDbEntity
  8
MAIN0
  6
BYBLOCK
 62
0
100
AcDbLine
 10
373.2509622868363
 20
96.80655431163493
 30
0.0000000000000000
 11
373.2509622868363
 21
64.85055370836922
 31
0.0000000000000000
  0
LINE
  5
166
100
AcDbEntity
  8
MAIN0
  6
BYBLOCK
 62
0
100
AcDbLine
 10
375.2509622868363
 20
66.85055370836922
 30
0.0000000000000000
 11
398.7509622870137
 21
66.85055370836922
 31
0.0000000000000000
  0
INSERT
  5
167
100
AcDbEntity
  8
MAIN0
  6
BYBLOCK
 62
0
100
AcDbBlockReference
  2
_OPEN
 10
373.2509622868363
 20
66.85055370836922
 30
0.0000000000000000
 41
2.000000000000000
 42
2.000000000000000
 43
2.000000000000000
 50
180.0000000000000
  0
INSERT
  5
168
100
AcDbEntity
  8
MAIN0
  6
BYBLOCK
 62
0
100
AcDbBlockReference
  2
_OPEN
 10
400.7509622870137
 20
66.85055370836922
 30
0.0000000000000000
 41
2.000000000000000
 42
2.000000000000000
 43
2.000000000000000
 50
0.0000000000000000
  0
LINE
  5
169
100
AcDbEntity
  8
MAIN0
  6
BYBLOCK
 62
0
100
AcDbLine
 10
400.7509622870137
 20
81.19940889938833
 30
0.0000000000000000
 11
400.7509622870137
 21
64.85055370836922
 31
0.0000000000000000
  0
MTEXT
  5
16A
100
AcDbEntity
  8
MAIN0
  6
BYBLOCK
 62
0
100
AcDbMText
 10
387.0009622869250
 20
68.90055366068550
 30
0.0000000000000000
 40
3.099999904632568
 41
0.0000000000000000
 71
     5
 72
     1
  1
\A1;27.5
 11
1.000000000000000
 21
0.0000000000000000
 31
0.0000000000000000
  7
STANDARD
  0
ENDBLK
  5
16B
100
AcDbEntity
  8
MAIN0
  6
CONTINUOUS
 62
3
100
AcDbBlockEnd
  0
BLOCK
  5
16D
100
AcDbEntity
  8
MAIN0
  6
CONTINUOUS
 62
3
100
AcDbBlockBegin
  2
*D28
 70
    65
 10
0.0
 20
0.0
 30
0.0
  0
LINE
  5
16E
100
AcDbEntity
  8
MAIN0
  6
BYBLOCK
 62
0
100
AcDbLine
 10
378.7509622873004
 20
86.98368770875479
 30
0.0000000000000000
 11
378.7509622872732
 21
72.91982041668922
 31
0.0000000000000000
  0
LINE
  5
16F
100
AcDbEntity
  8
MAIN0
  6
BYBLOCK
 62
0
100
AcDbLine
 10
380.7509622872771
 20
74.91982041668922
 30
0.0000000000000000
 11
398.7509622870137
 21
74.91982041668922
 31
0.0000000000000000
  0
INSERT
  5
170
100
AcDbEntity
  8
MAIN0
  6
BYBLOCK
 62
0
100
AcDbBlockReference
  2
_OPEN
 10
378.7509622872771
 20
74.91982041668922
 30
0.0000000000000000
 41
2.000000000000000
 42
2.000000000000000
 43
2.000000000000000
 50
180.0000000000000
  0
INSERT
  5
171
100
AcDbEntity
  8
MAIN0
  6
BYBLOCK
 62
0
100
AcDbBlockReference
  2
_OPEN
 10
400.7509622870137
 20
74.91982041668922
 30
0.0000000000000000
 41
2.000000000000000
 42
2.000000000000000
 43
2.000000000000000
 50
0.0000000000000000
  0
LINE
  5
172
100
AcDbEntity
  8
MAIN0
  6
BYBLOCK
 62
0
100
AcDbLine
 10
400.7509622870137
 20
81.19940889938833
 30
0.0000000000000000
 11
400.7509622870137
 21
72.91982041668922
 31
0.0000000000000000
  0
MTEXT
  5
173
100
AcDbEntity
  8
MAIN0
  6
BYBLOCK
 62
0
100
AcDbMText
 10
389.7509622871454
 20
76.96982036900550
 30
0.0000000000000000
 40
3.099999904632568
 41
0.0000000000000000
 71
     5
 72
     1
  1
\A1;22
 11
1.000000000000000
 21
0.0000000000000000
 31
0.0000000000000000
  7
STANDARD
  0
ENDBLK
  5
174
100
AcDbEntity
  8
MAIN0
  6
CONTINUOUS
 62
3
100
AcDbBlockEnd
  0
BLOCK
  5
176
100
AcDbEntity
  8
MAIN0
  6
CONTINUOUS
 62
3
100
AcDbBlockBegin
  2
*D29
 70
    65
 10
0.0
 20
0.0
 30
0.0
  0
LINE
  5
177
100
AcDbEntity
  8
MAIN0
  6
BYBLOCK
 62
0
100
AcDbLine
 10
367.4216591926590
 20
84.84716351142689
 30
0.0000000000000000
 11
367.4216591926590
 21
91.34716351140659
 31
0.0000000000000000
  0
INSERT
  5
178
100
AcDbEntity
  8
MAIN0
  6
BYBLOCK
 62
0
100
AcDbBlockReference
  2
_OPEN
 10
367.4216591926590
 20
84.84716351142689
 30
0.0000000000000000
 41
2.000000000000000
 42
2.000000000000000
 43
2.000000000000000
 50
90.00000000000000
  0
INSERT
  5
179
100
AcDbEntity
  8
MAIN0
  6
BYBLOCK
 62
0
100
AcDbBlockReference
  2
_OPEN
 10
367.4216591926590
 20
91.34716351140659
 30
0.0000000000000000
 41
2.000000000000000
 42
2.000000000000000
 43
2.000000000000000
 50
270.0000000000000
  0
LINE
  5
17A
100
AcDbEntity
  8
MAIN0
  6
BYBLOCK
 62
0
100
AcDbLine
 10
367.4216591926590
 20
82.84716351142689
 30
0.0000000000000000
 11
367.4216591926590
 21
81.84716351142689
 31
0.0000000000000000
  0
LINE
  5
17B
100
AcDbEntity
  8
MAIN0
  6
BYBLOCK
 62
0
100
AcDbLine
 10
367.4216591926590
 20
93.34716351140659
 30
0.0000000000000000
 11
367.4216591926590
 21
94.34716351140659
 31
0.0000000000000000
  0
LINE
  5
17C
100
AcDbEntity
  8
MAIN0
  6
BYBLOCK
 62
0
100
AcDbLine
 10
374.1548691024847
 20
91.34716351140659
 30
0.0000000000000000
 11
365.4216591926590
 21
91.34716351140659
 31
0.0000000000000000
  0
MTEXT
  5
17D
100
AcDbEntity
  8
MAIN0
  6
BYBLOCK
 62
0
100
AcDbMText
 10
365.3716592403428
 20
88.09716351141674
 30
0.0000000000000000
 40
3.099999904632568
 41
0.0000000000000000
 71
     5
 72
     1
  1
\A1;6.5
 11
6.123233995736766e-017
 21
1.000000000000000
 31
0.0000000000000000
  7
STANDARD
  0
ENDBLK
  5
17E
100
AcDbEntity
  8
MAIN0
  6
CONTINUOUS
 62
3
100
AcDbBlockEnd
  0
BLOCK
  5
180
100
AcDbEntity
  8
MAIN0
  6
CONTINUOUS
 62
3
100
AcDbBlockBegin
  2
*D30
 70
    65
 10
0.0
 20
0.0
 30
0.0
  0
LINE
  5
181
100
AcDbEntity
  8
MAIN0
  6
BYBLOCK
 62
0
100
AcDbLine
 10
343.6509622753810
 20
84.84716351142689
 30
0.0000000000000000
 11
329.8157072615605
 21
84.84716351142689
 31
0.0000000000000000
  0
LINE
  5
182
100
AcDbEntity
  8
MAIN0
  6
BYBLOCK
 62
0
100
AcDbLine
 10
331.8157072615605
 20
86.84716351142689
 30
0.0000000000000000
 11
331.8157072615605
 21
99.84716351142610
 31
0.0000000000000000
  0
INSERT
  5
183
100
AcDbEntity
  8
MAIN0
  6
BYBLOCK
 62
0
100
AcDbBlockReference
  2
_OPEN
 10
331.8157072615605
 20
84.84716351142689
 30
0.0000000000000000
 41
2.000000000000000
 42
2.000000000000000
 43
2.000000000000000
 50
270.0000000000000
  0
INSERT
  5
184
100
AcDbEntity
  8
MAIN0
  6
BYBLOCK
 62
0
100
AcDbBlockReference
  2
_OPEN
 10
331.8157072615605
 20
101.8471635114261
 30
0.0000000000000000
 41
2.000000000000000
 42
2.000000000000000
 43
2.000000000000000
 50
90.00000000000000
  0
LINE
  5
185
100
AcDbEntity
  8
MAIN0
  6
BYBLOCK
 62
0
100
AcDbLine
 10
344.8087197104960
 20
101.8471635114261
 30
0.0000000000000000
 11
329.8157072615605
 21
101.8471635114261
 31
0.0000000000000000
  0
MTEXT
  5
186
100
AcDbEntity
  8
MAIN0
  6
BYBLOCK
 62
0
100
AcDbMText
 10
329.7657073092442
 20
93.34716351142649
 30
0.0000000000000000
 40
3.099999904632568
 41
0.0000000000000000
 71
     5
 72
     1
  1
\A1;17
 11
6.123233995736766e-017
 21
1.000000000000000
 31
0.0000000000000000
  7
STANDARD
  0
ENDBLK
  5
187
100
AcDbEntity
  8
MAIN0
  6
CONTINUOUS
 62
3
100
AcDbBlockEnd
  0
BLOCK
  5
191
100
AcDbEntity
  8
MAIN0
  6
CONTINUOUS
 62
3
100
AcDbBlockBegin
  2
*D31
 70
    65
 10
0.0
 20
0.0
 30
0.0
  0
LINE
  5
192
100
AcDbEntity
  8
MAIN0
  6
BYBLOCK
 62
0
100
AcDbLine
 10
396.7509622870258
 20
328.8110480643336
 30
0.0000000000000000
 11
396.7509622870258
 21
320.1088558194265
 31
0.0000000000000000
  0
LINE
  5
193
100
AcDbEntity
  8
MAIN0
  6
BYBLOCK
 62
0
100
AcDbLine
 10
398.7509622870258
 20
322.1088558194265
 30
0.0000000000000000
 11
402.7509622870258
 21
322.1088558194265
 31
0.0000000000000000
  0
INSERT
  5
194
100
AcDbEntity
  8
MAIN0
  6
BYBLOCK
 62
0
100
AcDbBlockReference
  2
_OPEN
 10
396.7509622870258
 20
322.1088558194265
 30
0.0000000000000000
 41
2.000000000000000
 42
2.000000000000000
 43
2.000000000000000
 50
180.0000000000000
  0
INSERT
  5
195
100
AcDbEntity
  8
MAIN0
  6
BYBLOCK
 62
0
100
AcDbBlockReference
  2
_OPEN
 10
404.7509622870258
 20
322.1088558194265
 30
0.0000000000000000
 41
2.000000000000000
 42
2.000000000000000
 43
2.000000000000000
 50
0.0000000000000000
  0
LINE
  5
196
100
AcDbEntity
  8
MAIN0
  6
BYBLOCK
 62
0
100
AcDbLine
 10
404.7509622870258
 20
322.1088558194265
 30
0.0000000000000000
 11
422.8303633032612
 21
322.1088558194265
 31
0.0000000000000000
  0
LINE
  5
197
100
AcDbEntity
  8
MAIN0
  6
BYBLOCK
 62
0
100
AcDbLine
 10
404.7509622870258
 20
328.8110480643336
 30
0.0000000000000000
 11
404.7509622870258
 21
320.1088558194265
 31
0.0000000000000000
  0
MTEXT
  5
198
100
AcDbEntity
  8
MAIN0
  6
BYBLOCK
 62
0
100
AcDbMText
 10
416.2803625184994
 20
324.1588557717428
 30
0.0000000000000000
 40
3.099999904632568
 41
0.0000000000000000
 71
     5
 72
     1
  1
\A1;4-\U+22058h7
 11
1.000000000000000
 21
0.0000000000000000
 31
0.0000000000000000
  7
STANDARD
  0
ENDBLK
  5
199
100
AcDbEntity
  8
MAIN0
  6
CONTINUOUS
 62
3
100
AcDbBlockEnd
  0
BLOCK
  5
19B
100
AcDbEntity
  8
MAIN0
  6
CONTINUOUS
 62
3
100
AcDbBlockBegin
  2
*D32
 70
    65
 10
0.0
 20
0.0
 30
0.0
  0
LINE
  5
19C
100
AcDbEntity
  8
MAIN0
  6
BYBLOCK
 62
0
100
AcDbLine
 10
394.0009622868668
 20
332.0110480643365
 30
0.0000000000000000
 11
394.0009622868668
 21
312.0173579812429
 31
0.0000000000000000
  0
LINE
  5
19D
100
AcDbEntity
  8
MAIN0
  6
BYBLOCK
 62
0
100
AcDbLine
 10
396.0009622868668
 20
314.0173579812429
 30
0.0000000000000000
 11
405.5009622872043
 21
314.0173579812429
 31
0.0000000000000000
  0
INSERT
  5
19E
100
AcDbEntity
  8
MAIN0
  6
BYBLOCK
 62
0
100
AcDbBlockReference
  2
_OPEN
 10
394.0009622868668
 20
314.0173579812429
 30
0.0000000000000000
 41
2.000000000000000
 42
2.000000000000000
 43
2.000000000000000
 50
180.0000000000000
  0
INSERT
  5
19F
100
AcDbEntity
  8
MAIN0
  6
BYBLOCK
 62
0
100
AcDbBlockReference
  2
_OPEN
 10
407.5009622872043
 20
314.0173579812429
 30
0.0000000000000000
 41
2.000000000000000
 42
2.000000000000000
 43
2.000000000000000
 50
0.0000000000000000
  0
LINE
  5
1A0
100
AcDbEntity
  8
MAIN0
  6
BYBLOCK
 62
0
100
AcDbLine
 10
407.5009622872043
 20
332.8110480643309
 30
0.0000000000000000
 11
407.5009622872043
 21
312.0173579812429
 31
0.0000000000000000
  0
MTEXT
  5
1A1
100
AcDbEntity
  8
MAIN0
  6
BYBLOCK
 62
0
100
AcDbMText
 10
400.7509622870355
 20
316.0673579335592
 30
0.0000000000000000
 40
3.099999904632568
 41
0.0000000000000000
 71
     5
 72
     1
  1
\A1;13.5
 11
1.000000000000000
 21
0.0000000000000000
 31
0.0000000000000000
  7
STANDARD
  0
ENDBLK
  5
1A2
100
AcDbEntity
  8
MAIN0
  6
CONTINUOUS
 62
3
100
AcDbBlockEnd
  0
BLOCK
  5
1A4
100
AcDbEntity
  8
MAIN0
  6
CONTINUOUS
 62
3
100
AcDbBlockBegin
  2
*D33
 70
    65
 10
0.0
 20
0.0
 30
0.0
  0
LINE
  5
1A5
100
AcDbEntity
  8
MAIN0
  6
BYBLOCK
 62
0
100
AcDbLine
 10
421.5509622990978
 20
368.6110480762650
 30
0.0000000000000000
 11
444.0458186227435
 21
368.6110480762204
 31
0.0000000000000000
  0
LINE
  5
1A6
100
AcDbEntity
  8
MAIN0
  6
BYBLOCK
 62
0
100
AcDbLine
 10
442.0458186227435
 20
366.6110480762243
 30
0.0000000000000000
 11
442.0458186227435
 21
334.6110480762538
 31
0.0000000000000000
  0
INSERT
  5
1A7
100
AcDbEntity
  8
MAIN0
  6
BYBLOCK
 62
0
100
AcDbBlockReference
  2
_OPEN
 10
442.0458186227435
 20
368.6110480762243
 30
0.0000000000000000
 41
2.000000000000000
 42
2.000000000000000
 43
2.000000000000000
 50
90.00000000000000
  0
INSERT
  5
1A8
100
AcDbEntity
  8
MAIN0
  6
BYBLOCK
 62
0
100
AcDbBlockReference
  2
_OPEN
 10
442.0458186227435
 20
332.6110480762538
 30
0.0000000000000000
 41
2.000000000000000
 42
2.000000000000000
 43
2.000000000000000
 50
270.0000000000000
  0
LINE
  5
1A9
100
AcDbEntity
  8
MAIN0
  6
BYBLOCK
 62
0
100
AcDbLine
 10
408.1009622991522
 20
332.6110480762538
 30
0.0000000000000000
 11
444.0458186227435
 21
332.6110480762538
 31
0.0000000000000000
  0
MTEXT
  5
1AA
100
AcDbEntity
  8
MAIN0
  6
BYBLOCK
 62
0
100
AcDbMText
 10
439.9958186704272
 20
350.6110480762391
 30
0.0000000000000000
 40
3.099999904632568
 41
0.0000000000000000
 71
     5
 72
     1
  1
\A1;36
 11
6.123233995736766e-017
 21
1.000000000000000
 31
0.0000000000000000
  7
STANDARD
  0
ENDBLK
  5
1AB
100
AcDbEntity
  8
MAIN0
  6
CONTINUOUS
 62
3
100
AcDbBlockEnd
  0
BLOCK
  5
1AD
100
AcDbEntity
  8
MAIN0
  6
CONTINUOUS
 62
3
100
AcDbBlockBegin
  2
*D34
 70
    65
 10
0.0
 20
0.0
 30
0.0
  0
LINE
  5
1AE
100
AcDbEntity
  8
MAIN0
  6
BYBLOCK
 62
0
100
AcDbLine
 10
405.5509622989467
 20
329.6110480762546
 30
0.0000000000000000
 11
444.0458186227435
 21
329.6110480762546
 31
0.0000000000000000
  0
LINE
  5
1AF
100
AcDbEntity
  8
MAIN0
  6
BYBLOCK
 62
0
100
AcDbLine
 10
442.0458186227435
 20
329.6110480762546
 30
0.0000000000000000
 11
442.0458186227435
 21
332.6110480762538
 31
0.0000000000000000
  0
INSERT
  5
1B0
100
AcDbEntity
  8
MAIN0
  6
BYBLOCK
 62
0
100
AcDbBlockReference
  2
_OPEN
 10
442.0458186227435
 20
329.6110480762546
 30
0.0000000000000000
 41
2.000000000000000
 42
2.000000000000000
 43
2.000000000000000
 50
90.00000000000000
  0
INSERT
  5
1B1
100
AcDbEntity
  8
MAIN0
  6
BYBLOCK
 62
0
100
AcDbBlockReference
  2
_OPEN
 10
442.0458186227435
 20
332.6110480762538
 30
0.0000000000000000
 41
2.000000000000000
 42
2.000000000000000
 43
2.000000000000000
 50
270.0000000000000
  0
LINE
  5
1B2
100
AcDbEntity
  8
MAIN0
  6
BYBLOCK
 62
0
100
AcDbLine
 10
442.0458186227435
 20
327.6110480762546
 30
0.0000000000000000
 11
442.0458186227435
 21
323.7561028934543
 31
0.0000000000000000
  0
LINE
  5
1B3
100
AcDbEntity
  8
MAIN0
  6
BYBLOCK
 62
0
100
AcDbLine
 10
442.0458186227435
 20
334.6110480762538
 30
0.0000000000000000
 11
442.0458186227435
 21
335.6110480762538
 31
0.0000000000000000
  0
LINE
  5
1B4
100
AcDbEntity
  8
MAIN0
  6
BYBLOCK
 62
0
100
AcDbLine
 10
408.1009622991522
 20
332.6110480762538
 30
0.0000000000000000
 11
444.0458186227435
 21
332.6110480762538
 31
0.0000000000000000
  0
MTEXT
  5
1B5
100
AcDbEntity
  8
MAIN0
  6
BYBLOCK
 62
0
100
AcDbMText
 10
439.9958186704272
 20
324.8061026607991
 30
0.0000000000000000
 40
3.099999904632568
 41
0.0000000000000000
 71
     5
 72
     1
  1
\A1;3
 11
6.123233995736766e-017
 21
1.000000000000000
 31
0.0000000000000000
  7
STANDARD
  0
ENDBLK
  5
1B6
100
AcDbEntity
  8
MAIN0
  6
CONTINUOUS
 62
3
100
AcDbBlockEnd
  0
BLOCK
  5
1BD
100
AcDbEntity
  8
MAIN0
  6
CONTINUOUS
 62
3
100
AcDbBlockBegin
  2
*D35
 70
    65
 10
0.0
 20
0.0
 30
0.0
  0
LINE
  5
1BE
100
AcDbEntity
  8
MAIN0
  6
BYBLOCK
 62
0
100
AcDbLine
 10
503.7642172466547
 20
291.5803968258309
 30
0.0000000000000000
 11
496.7537011642594
 21
291.5803968258309
 31
0.0000000000000000
  0
LINE
  5
1BF
100
AcDbEntity
  8
MAIN0
  6
BYBLOCK
 62
0
100
AcDbLine
 10
498.7537011642594
 20
289.5803968258309
 30
0.0000000000000000
 11
498.7537011642594
 21
284.6110480762396
 31
0.0000000000000000
  0
INSERT
  5
1C0
100
AcDbEntity
  8
MAIN0
  6
BYBLOCK
 62
0
100
AcDbBlockReference
  2
_OPEN
 10
498.7537011642594
 20
291.5803968258309
 30
0.0000000000000000
 41
2.000000000000000
 42
2.000000000000000
 43
2.000000000000000
 50
90.00000000000000
  0
INSERT
  5
1C1
100
AcDbEntity
  8
MAIN0
  6
BYBLOCK
 62
0
100
AcDbBlockReference
  2
_OPEN
 10
498.7537011642594
 20
282.6110480762396
 30
0.0000000000000000
 41
2.000000000000000
 42
2.000000000000000
 43
2.000000000000000
 50
270.0000000000000
  0
MTEXT
  5
1C2
100
AcDbEntity
  8
MAIN0
  6
BYBLOCK
 62
0
100
AcDbMText
 10
496.7037012119431
 20
287.0957224510352
 30
0.0000000000000000
 40
3.099999904632568
 41
0.0000000000000000
 71
     5
 72
     1
  1
\A1;9
 11
6.123233995736766e-017
 21
1.000000000000000
 31
0.0000000000000000
  7
STANDARD
  0
ENDBLK
  5
1C3
100
AcDbEntity
  8
MAIN0
  6
CONTINUOUS
 62
3
100
AcDbBlockEnd
  0
BLOCK
  5
1C5
100
AcDbEntity
  8
MAIN0
  6
CONTINUOUS
 62
3
100
AcDbBlockBegin
  2
*D36
 70
    65
 10
0.0
 20
0.0
 30
0.0
  0
LINE
  5
1C6
100
AcDbEntity
  8
MAIN0
  6
BYBLOCK
 62
0
100
AcDbLine
 10
343.4509622747981
 20
244.6110480762254
 30
0.0000000000000000
 11
328.7509622867375
 21
244.6110480762254
 31
0.0000000000000000
  0
LINE
  5
1C7
100
AcDbEntity
  8
MAIN0
  6
BYBLOCK
 62
0
100
AcDbLine
 10
330.7509622867375
 20
242.6110480762254
 30
0.0000000000000000
 11
330.7509622867375
 21
224.6110480762254
 31
0.0000000000000000
  0
INSERT
  5
1C8
100
AcDbEntity
  8
MAIN0
  6
BYBLOCK
 62
0
100
AcDbBlockReference
  2
_OPEN
 10
330.7509622867375
 20
244.6110480762254
 30
0.0000000000000000
 41
2.000000000000000
 42
2.000000000000000
 43
2.000000000000000
 50
90.00000000000000
  0
INSERT
  5
1C9
100
AcDbEntity
  8
MAIN0
  6
BYBLOCK
 62
0
100
AcDbBlockReference
  2
_OPEN
 10
330.7509622867375
 20
222.6110480762254
 30
0.0000000000000000
 41
2.000000000000000
 42
2.000000000000000
 43
2.000000000000000
 50
270.0000000000000
  0
LINE
  5
1CA
100
AcDbEntity
  8
MAIN0
  6
BYBLOCK
 62
0
100
AcDbLine
 10
343.4509622747981
 20
222.6110480762254
 30
0.0000000000000000
 11
328.7509622867375
 21
222.6110480762254
 31
0.0000000000000000
  0
MTEXT
  5
1CB
100
AcDbEntity
  8
MAIN0
  6
BYBLOCK
 62
0
100
AcDbMText
 10
328.7009623344212
 20
233.6110480762254
 30
0.0000000000000000
 40
3.099999904632568
 41
0.0000000000000000
 71
     5
 72
     1
  1
\A1;22
 11
6.123233995736766e-017
 21
1.000000000000000
 31
0.0000000000000000
  7
STANDARD
  0
ENDBLK
  5
1CC
100
AcDbEntity
  8
MAIN0
  6
CONTINUOUS
 62
3
100
AcDbBlockEnd
  0
BLOCK
  5
1CE
100
AcDbEntity
  8
MAIN0
  6
CONTINUOUS
 62
3
100
AcDbBlockBegin
  2
*D37
 70
    65
 10
0.0
 20
0.0
 30
0.0
  0
LINE
  5
1CF
100
AcDbEntity
  8
MAIN0
  6
BYBLOCK
 62
0
100
AcDbLine
 10
343.6509622753774
 20
368.6110480762243
 30
0.0000000000000000
 11
320.2116914572821
 21
368.6110480762243
 31
0.0000000000000000
  0
LINE
  5
1D0
100
AcDbEntity
  8
MAIN0
  6
BYBLOCK
 62
0
100
AcDbLine
 10
322.2116914572821
 20
366.6110480762243
 30
0.0000000000000000
 11
322.2116914572821
 21
333.6110480762242
 31
0.0000000000000000
  0
INSERT
  5
1D1
100
AcDbEntity
  8
MAIN0
  6
BYBLOCK
 62
0
100
AcDbBlockReference
  2
_OPEN
 10
322.2116914572821
 20
368.6110480762243
 30
0.0000000000000000
 41
2.000000000000000
 42
2.000000000000000
 43
2.000000000000000
 50
90.00000000000000
  0
INSERT
  5
1D2
100
AcDbEntity
  8
MAIN0
  6
BYBLOCK
 62
0
100
AcDbBlockReference
  2
_OPEN
 10
322.2116914572821
 20
331.6110480762242
 30
0.0000000000000000
 41
2.000000000000000
 42
2.000000000000000
 43
2.000000000000000
 50
270.0000000000000
  0
LINE
  5
1D3
100
AcDbEntity
  8
MAIN0
  6
BYBLOCK
 62
0
100
AcDbLine
 10
343.4509622753775
 20
331.6110480762242
 30
0.0000000000000000
 11
320.2116914572821
 21
331.6110480762242
 31
0.0000000000000000
  0
MTEXT
  5
1D4
100
AcDbEntity
  8
MAIN0
  6
BYBLOCK
 62
0
100
AcDbMText
 10
320.1616915049658
 20
350.1110480762243
 30
0.0000000000000000
 40
3.099999904632568
 41
0.0000000000000000
 71
     5
 72
     1
  1
\A1;37
 11
6.123233995736766e-017
 21
1.000000000000000
 31
0.0000000000000000
  7
STANDARD
  0
ENDBLK
  5
1D5
100
AcDbEntity
  8
MAIN0
  6
CONTINUOUS
 62
3
100
AcDbBlockEnd
  0
BLOCK
  5
1D7
100
AcDbEntity
  8
MAIN0
  6
CONTINUOUS
 62
3
100
AcDbBlockBegin
  2
*D38
 70
    65
 10
0.0
 20
0.0
 30
0.0
  0
LINE
  5
1D8
100
AcDbEntity
  8
MAIN0
  6
BYBLOCK
 62
0
100
AcDbLine
 10
408.1009622991522
 20
332.6110480762538
 30
0.0000000000000000
 11
435.5596600770343
 21
332.6110480762538
 31
0.0000000000000000
  0
LINE
  5
1D9
100
AcDbEntity
  8
MAIN0
  6
BYBLOCK
 62
0
100
AcDbLine
 10
433.5596600770343
 20
334.6110480762538
 30
0.0000000000000000
 11
433.5596600770343
 21
340.6110480762742
 31
0.0000000000000000
  0
INSERT
  5
1DA
100
AcDbEntity
  8
MAIN0
  6
BYBLOCK
 62
0
100
AcDbBlockReference
  2
_OPEN
 10
433.5596600770343
 20
332.6110480762538
 30
0.0000000000000000
 41
2.000000000000000
 42
2.000000000000000
 43
2.000000000000000
 50
270.0000000000000
  0
INSERT
  5
1DB
100
AcDbEntity
  8
MAIN0
  6
BYBLOCK
 62
0
100
AcDbBlockReference
  2
_OPEN
 10
433.5596600770343
 20
342.6110480762742
 30
0.0000000000000000
 41
2.000000000000000
 42
2.000000000000000
 43
2.000000000000000
 50
90.00000000000000
  0
LINE
  5
1DC
100
AcDbEntity
  8
MAIN0
  6
BYBLOCK
 62
0
100
AcDbLine
 10
404.0509622989338
 20
342.6110480762742
 30
0.0000000000000000
 11
435.5596600770343
 21
342.6110480762742
 31
0.0000000000000000
  0
MTEXT
  5
1DD
100
AcDbEntity
  8
MAIN0
  6
BYBLOCK
 62
0
100
AcDbMText
 10
431.5096601247180
 20
337.6110480762640
 30
0.0000000000000000
 40
3.099999904632568
 41
0.0000000000000000
 71
     5
 72
     1
  1
\A1;10
 11
6.123233995736766e-017
 21
1.000000000000000
 31
0.0000000000000000
  7
STANDARD
  0
ENDBLK
  5
1DE
100
AcDbEntity
  8
MAIN0
  6
CONTINUOUS
 62
3
100
AcDbBlockEnd
  0
BLOCK
  5
1E4
100
AcDbEntity
  8
MAIN0
  6
CONTINUOUS
 62
3
100
AcDbBlockBegin
  2
*D39
 70
    65
 10
0.0
 20
0.0
 30
0.0
  0
LINE
  5
1E5
100
AcDbEntity
  8
MAIN0
  6
BYBLOCK
 62
0
100
AcDbLine
 10
371.8941217032079
 20
272.6110480762254
 30
0.0000000000000000
 11
320.7509622867375
 21
272.6110480762254
 31
0.0000000000000000
  0
LINE
  5
1E6
100
AcDbEntity
  8
MAIN0
  6
BYBLOCK
 62
0
100
AcDbLine
 10
322.7509622867375
 20
270.6110480762254
 30
0.0000000000000000
 11
322.7509622867375
 21
196.6110480762254
 31
0.0000000000000000
  0
INSERT
  5
1E7
100
AcDbEntity
  8
MAIN0
  6
BYBLOCK
 62
0
100
AcDbBlockReference
  2
_OPEN
 10
322.7509622867375
 20
272.6110480762254
 30
0.0000000000000000
 41
2.000000000000000
 42
2.000000000000000
 43
2.000000000000000
 50
90.00000000000000
  0
INSERT
  5
1E8
100
AcDbEntity
  8
MAIN0
  6
BYBLOCK
 62
0
100
AcDbBlockReference
  2
_OPEN
 10
322.7509622867375
 20
194.6110480762254
 30
0.0000000000000000
 41
2.000000000000000
 42
2.000000000000000
 43
2.000000000000000
 50
270.0000000000000
  0
LINE
  5
1E9
100
AcDbEntity
  8
MAIN0
  6
BYBLOCK
 62
0
100
AcDbLine
 10
371.8941217032079
 20
194.6110480762254
 30
0.0000000000000000
 11
320.7509622867375
 21
194.6110480762254
 31
0.0000000000000000
  0
MTEXT
  5
1EA
100
AcDbEntity
  8
MAIN0
  6
BYBLOCK
 62
0
100
AcDbMText
 10
320.7009623344212
 20
233.6110480762254
 30
0.0000000000000000
 40
3.099999904632568
 41
0.0000000000000000
 71
     5
 72
     1
  1
\A1;78
 11
6.123233995736766e-017
 21
1.000000000000000
 31
0.0000000000000000
  7
STANDARD
  0
ENDBLK
  5
1EB
100
AcDbEntity
  8
MAIN0
  6
CONTINUOUS
 62
3
100
AcDbBlockEnd
  0
BLOCK
  5
1ED
100
AcDbEntity
  8
MAIN0
  6
CONTINUOUS
 62
3
100
AcDbBlockBegin
  2
*D40
 70
    65
 10
0.0
 20
0.0
 30
0.0
  0
LINE
  5
1EE
100
AcDbEntity
  8
MAIN0
  6
BYBLOCK
 62
0
100
AcDbLine
 10
375.7509622867192
 20
190.6887238601464
 30
0.0000000000000000
 11
375.7509622867192
 21
174.0036550492121
 31
0.0000000000000000
  0
LINE
  5
1EF
100
AcDbEntity
  8
MAIN0
  6
BYBLOCK
 62
0
100
AcDbLine
 10
377.7509622867192
 20
176.0036550492121
 30
0.0000000000000000
 11
398.7509622869635
 21
176.0036550492121
 31
0.0000000000000000
  0
INSERT
  5
1F0
100
AcDbEntity
  8
MAIN0
  6
BYBLOCK
 62
0
100
AcDbBlockReference
  2
_OPEN
 10
375.7509622867192
 20
176.0036550492121
 30
0.0000000000000000
 41
2.000000000000000
 42
2.000000000000000
 43
2.000000000000000
 50
180.0000000000000
  0
INSERT
  5
1F1
100
AcDbEntity
  8
MAIN0
  6
BYBLOCK
 62
0
100
AcDbBlockReference
  2
_OPEN
 10
400.7509622869635
 20
176.0036550492121
 30
0.0000000000000000
 41
2.000000000000000
 42
2.000000000000000
 43
2.000000000000000
 50
0.0000000000000000
  0
LINE
  5
1F2
100
AcDbEntity
  8
MAIN0
  6
BYBLOCK
 62
0
100
AcDbLine
 10
400.7509622869635
 20
179.0573851503477
 30
0.0000000000000000
 11
400.7509622869635
 21
174.0036550492121
 31
0.0000000000000000
  0
MTEXT
  5
1F3
100
AcDbEntity
  8
MAIN0
  6
BYBLOCK
 62
0
100
AcDbMText
 10
388.2509622868413
 20
178.0536550015284
 30
0.0000000000000000
 40
3.099999904632568
 41
0.0000000000000000
 71
     5
 72
     1
  1
\A1;25
 11
1.000000000000000
 21
0.0000000000000000
 31
0.0000000000000000
  7
STANDARD
  0
ENDBLK
  5
1F4
100
AcDbEntity
  8
MAIN0
  6
CONTINUOUS
 62
3
100
AcDbBlockEnd
  0
BLOCK
  5
1F6
100
AcDbEntity
  8
MAIN0
  6
CONTINUOUS
 62
3
100
AcDbBlockBegin
  2
*D41
 70
    65
 10
0.0
 20
0.0
 30
0.0
  0
LINE
  5
1F7
100
AcDbEntity
  8
MAIN0
  6
BYBLOCK
 62
0
100
AcDbLine
 10
343.6509622753774
 20
368.6110480762243
 30
0.0000000000000000
 11
330.4316117834441
 21
368.6110480762243
 31
0.0000000000000000
  0
LINE
  5
1F8
100
AcDbEntity
  8
MAIN0
  6
BYBLOCK
 62
0
100
AcDbLine
 10
332.4316117834441
 20
366.6110480762243
 30
0.0000000000000000
 11
332.4316117834441
 21
338.1110480762242
 31
0.0000000000000000
  0
INSERT
  5
1F9
100
AcDbEntity
  8
MAIN0
  6
BYBLOCK
 62
0
100
AcDbBlockReference
  2
_OPEN
 10
332.4316117834441
 20
368.6110480762243
 30
0.0000000000000000
 41
2.000000000000000
 42
2.000000000000000
 43
2.000000000000000
 50
90.00000000000000
  0
INSERT
  5
1FA
100
AcDbEntity
  8
MAIN0
  6
BYBLOCK
 62
0
100
AcDbBlockReference
  2
_OPEN
 10
332.4316117834441
 20
336.1110480762242
 30
0.0000000000000000
 41
2.000000000000000
 42
2.000000000000000
 43
2.000000000000000
 50
270.0000000000000
  0
LINE
  5
1FB
100
AcDbEntity
  8
MAIN0
  6
BYBLOCK
 62
0
100
AcDbLine
 10
343.4509622753748
 20
336.1110480762242
 30
0.0000000000000000
 11
330.4316117834441
 21
336.1110480762242
 31
0.0000000000000000
  0
MTEXT
  5
1FC
100
AcDbEntity
  8
MAIN0
  6
BYBLOCK
 62
0
100
AcDbMText
 10
330.3816118311278
 20
352.3610480762243
 30
0.0000000000000000
 40
3.099999904632568
 41
0.0000000000000000
 71
     5
 72
     1
  1
\A1;32.5
 11
6.123233995736766e-017
 21
1.000000000000000
 31
0.0000000000000000
  7
STANDARD
  0
ENDBLK
  5
1FD
100
AcDbEntity
  8
MAIN0
  6
CONTINUOUS
 62
3
100
AcDbBlockEnd
  0
BLOCK
  5
4BC
100
AcDbEntity
  8
MAIN0
  6
CONTINUOUS
 62
3
100
AcDbBlockBegin
  2
*D42
 70
    65
 10
0.0
 20
0.0
 30
0.0
  0
LINE
  5
4BD
100
AcDbEntity
  8
MAIN0
  6
BYBLOCK
 62
0
100
AcDbLine
 10
81.72324221809464
 20
110.7446279901651
 30
0.0000000000000000
 11
74.86834758701269
 21
110.7446279901651
 31
0.0000000000000000
  0
LINE
  5
4BE
100
AcDbEntity
  8
MAIN0
  6
BYBLOCK
 62
0
100
AcDbLine
 10
76.86834758701269
 20
110.7446279901651
 30
0.0000000000000000
 11
76.86834758701269
 21
107.7446279901651
 31
0.0000000000000000
  0
INSERT
  5
4BF
100
AcDbEntity
  8
MAIN0
  6
BYBLOCK
 62
0
100
AcDbBlockReference
  2
_OPEN
 10
76.86834758701269
 20
110.7446279901651
 30
0.0000000000000000
 41
2.000000000000000
 42
2.000000000000000
 43
2.000000000000000
 50
270.0000000000000
  0
INSERT
  5
4C0
100
AcDbEntity
  8
MAIN0
  6
BYBLOCK
 62
0
100
AcDbBlockReference
  2
_OPEN
 10
76.86834758701269
 20
107.7446279901651
 30
0.0000000000000000
 41
2.000000000000000
 42
2.000000000000000
 43
2.000000000000000
 50
90.00000000000000
  0
LINE
  5
4C1
100
AcDbEntity
  8
MAIN0
  6
BYBLOCK
 62
0
100
AcDbLine
 10
76.86834758701269
 20
112.7446279901651
 30
0.0000000000000000
 11
76.86834758701269
 21
118.1267953294900
 31
0.0000000000000000
  0
LINE
  5
4C2
100
AcDbEntity
  8
MAIN0
  6
BYBLOCK
 62
0
100
AcDbLine
 10
76.86834758701269
 20
105.7446279901651
 30
0.0000000000000000
 11
76.86834758701269
 21
104.7446279901651
 31
0.0000000000000000
  0
LINE
  5
4C3
100
AcDbEntity
  8
MAIN0
  6
BYBLOCK
 62
0
100
AcDbLine
 10
81.72324221809464
 20
107.7446279901651
 30
0.0000000000000000
 11
74.86834758701269
 21
107.7446279901651
 31
0.0000000000000000
  0
MTEXT
  5
4C4
100
AcDbEntity
  8
MAIN0
  6
BYBLOCK
 62
0
100
AcDbMText
 10
74.81834763469641
 20
115.7767955508273
 30
0.0000000000000000
 40
3.099999904632568
 41
0.0000000000000000
 71
     5
 72
     1
  1
\A1;\U+22053
 11
6.123233995736766e-017
 21
1.000000000000000
 31
0.0000000000000000
  7
STANDARD
  0
ENDBLK
  5
4C5
100
AcDbEntity
  8
MAIN0
  6
CONTINUOUS
 62
3
100
AcDbBlockEnd
  0
BLOCK
  5
4C7
100
AcDbEntity
  8
MAIN0
  6
CONTINUOUS
 62
3
100
AcDbBlockBegin
  2
*D43
 70
    65
 10
0.0
 20
0.0
 30
0.0
  0
LINE
  5
4C8
100
AcDbEntity
  8
MAIN0
  6
BYBLOCK
 62
0
100
AcDbLine
 10
90.72324221809475
 20
112.5446279901647
 30
0.0000000000000000
 11
67.32903547517225
 21
112.5446279901647
 31
0.0000000000000000
  0
LINE
  5
4C9
100
AcDbEntity
  8
MAIN0
  6
BYBLOCK
 62
0
100
AcDbLine
 10
69.32903547517225
 20
110.5446279901647
 30
0.0000000000000000
 11
69.32903547517225
 21
107.9446279901647
 31
0.0000000000000000
  0
INSERT
  5
4CA
100
AcDbEntity
  8
MAIN0
  6
BYBLOCK
 62
0
100
AcDbBlockReference
  2
_OPEN
 10
69.32903547517225
 20
112.5446279901647
 30
0.0000000000000000
 41
2.000000000000000
 42
2.000000000000000
 43
2.000000000000000
 50
90.00000000000000
  0
INSERT
  5
4CB
100
AcDbEntity
  8
MAIN0
  6
BYBLOCK
 62
0
100
AcDbBlockReference
  2
_OPEN
 10
69.32903547517225
 20
105.9446279901647
 30
0.0000000000000000
 41
2.000000000000000
 42
2.000000000000000
 43
2.000000000000000
 50
270.0000000000000
  0
LINE
  5
4CC
100
AcDbEntity
  8
MAIN0
  6
BYBLOCK
 62
0
100
AcDbLine
 10
69.32903547517225
 20
112.5446279901647
 30
0.0000000000000000
 11
69.32903547517225
 21
121.1999920267247
 31
0.0000000000000000
  0
LINE
  5
4CD
100
AcDbEntity
  8
MAIN0
  6
BYBLOCK
 62
0
100
AcDbLine
 10
90.72324221809453
 20
105.9446279901647
 30
0.0000000000000000
 11
67.32903547517225
 21
105.9446279901647
 31
0.0000000000000000
  0
MTEXT
  5
4CE
100
AcDbEntity
  8
MAIN0
  6
BYBLOCK
 62
0
100
AcDbMText
 10
67.27903552285596
 20
117.2499920184035
 30
0.0000000000000000
 40
3.099999904632568
 41
0.0000000000000000
 71
     5
 72
     1
  1
\A1;\U+22056.6
 11
6.123233995736766e-017
 21
1.000000000000000
 31
0.0000000000000000
  7
STANDARD
  0
ENDBLK
  5
4CF
100
AcDbEntity
  8
MAIN0
  6
CONTINUOUS
 62
3
100
AcDbBlockEnd
  0
BLOCK
  5
4D1
100
AcDbEntity
  8
MAIN0
  6
CONTINUOUS
 62
3
100
AcDbBlockBegin
  2
*D44
 70
    65
 10
0.0
 20
0.0
 30
0.0
  0
LINE
  5
4D2
100
AcDbEntity
  8
MAIN0
  6
BYBLOCK
 62
0
100
AcDbLine
 10
92.52324223001551
 20
102.0912938907085
 30
0.0000000000000000
 11
92.52324223001564
 21
97.55026587082342
 31
0.0000000000000000
  0
LINE
  5
4D3
100
AcDbEntity
  8
MAIN0
  6
BYBLOCK
 62
0
100
AcDbLine
 10
92.52324223001557
 20
99.55026587082338
 30
0.0000000000000000
 11
91.52324223001557
 21
99.55026587082338
 31
0.0000000000000000
  0
INSERT
  5
4D4
100
AcDbEntity
  8
MAIN0
  6
BYBLOCK
 62
0
100
AcDbBlockReference
  2
_OPEN
 10
92.52324223001557
 20
99.55026587082338
 30
0.0000000000000000
 41
2.000000000000000
 42
2.000000000000000
 43
2.000000000000000
 50
180.0000000000000
  0
INSERT
  5
4D5
100
AcDbEntity
  8
MAIN0
  6
BYBLOCK
 62
0
100
AcDbBlockReference
  2
_OPEN
 10
91.52324223001557
 20
99.55026587082338
 30
0.0000000000000000
 41
2.000000000000000
 42
2.000000000000000
 43
2.000000000000000
 50
360.0000000000000
  0
LINE
  5
4D6
100
AcDbEntity
  8
MAIN0
  6
BYBLOCK
 62
0
100
AcDbLine
 10
94.52324223001557
 20
99.55026587082338
 30
0.0000000000000000
 11
95.52324223001557
 21
99.55026587082338
 31
0.0000000000000000
  0
LINE
  5
4D7
100
AcDbEntity
  8
MAIN0
  6
BYBLOCK
 62
0
100
AcDbLine
 10
89.52324223001557
 20
99.55026587082338
 30
0.0000000000000000
 11
88.21440934618073
 21
99.55026587082338
 31
0.0000000000000000
  0
LINE
  5
4D8
100
AcDbEntity
  8
MAIN0
  6
BYBLOCK
 62
0
100
AcDbLine
 10
91.52324223001557
 20
106.7616316575193
 30
0.0000000000000000
 11
91.52324223001557
 21
97.55026587082338
 31
0.0000000000000000
  0
MTEXT
  5
4D9
100
AcDbEntity
  8
MAIN0
  6
BYBLOCK
 62
0
100
AcDbMText
 10
89.26440942831442
 20
101.4335991564730
 30
0.0000000000000000
 40
3.099999904632568
 41
0.0000000000000000
 71
     5
 72
     1
  1
\A1;1
 11
1.000000000000000
 21
0.0000000000000000
 31
0.0000000000000000
  7
STANDARD
  0
ENDBLK
  5
4DA
100
AcDbEntity
  8
MAIN0
  6
CONTINUOUS
 62
3
100
AcDbBlockEnd
  0
BLOCK
  5
4DC
100
AcDbEntity
  8
MAIN0
  6
BYBLOCK
 62
3
100
AcDbBlockBegin
  2
*X0
 70
     1
 10
0.0
 20
0.0
 30
0.0
  0
LINE
  5
4DD
100
AcDbEntity
  8
MAIN0
  6
BYBLOCK
 62
0
100
AcDbLine
 10
94.02324223000889
 20
110.7446279901646
 30
0.0000000000000000
 11
98.87657631754307
 21
115.5979620776988
 31
0.0000000000000000
  0
LINE
  5
4DE
100
AcDbEntity
  8
MAIN0
  6
BYBLOCK
 62
0
100
AcDbLine
 10
93.08043316032847
 20
110.7446279901646
 30
0.0000000000000000
 11
97.93376724786232
 21
115.5979620776985
 31
0.0000000000000000
  0
LINE
  5
4DF
100
AcDbEntity
  8
MAIN0
  6
BYBLOCK
 62
0
100
AcDbLine
 10
92.52324223001577
 20
111.1302461295319
 30
0.0000000000000000
 11
96.99095817818224
 21
115.5979620776984
 31
0.0000000000000000
  0
LINE
  5
4E0
100
AcDbEntity
  8
MAIN0
  6
BYBLOCK
 62
0
100
AcDbLine
 10
92.55902862549253
 20
112.1088415946884
 30
0.0000000000000000
 11
96.04814910850259
 21
115.5979620776989
 31
0.0000000000000000
  0
LINE
  5
4E1
100
AcDbEntity
  8
MAIN0
  6
BYBLOCK
 62
0
100
AcDbLine
 10
92.52324223001605
 20
113.0158642688926
 30
0.0000000000000000
 11
95.10534003882059
 21
115.5979620776971
 31
0.0000000000000000
  0
LINE
  5
4E2
100
AcDbEntity
  8
MAIN0
  6
BYBLOCK
 62
0
100
AcDbLine
 10
92.52324223001654
 20
113.9586733385732
 30
0.0000000000000000
 11
94.16253096914183
 21
115.5979620776985
 31
0.0000000000000000
  0
LINE
  5
4E3
100
AcDbEntity
  8
MAIN0
  6
BYBLOCK
 62
0
100
AcDbLine
 10
92.52324223001648
 20
114.9014824082537
 30
0.0000000000000000
 11
93.21972189946162
 21
115.5979620776979
 31
0.0000000000000000
  0
LINE
  5
4E4
100
AcDbEntity
  8
MAIN0
  6
BYBLOCK
 62
0
100
AcDbLine
 10
94.96605129968962
 20
110.7446279901646
 30
0.0000000000000000
 11
99.81938538722162
 21
115.5979620776977
 31
0.0000000000000000
  0
LINE
  5
4E5
100
AcDbEntity
  8
MAIN0
  6
BYBLOCK
 62
0
100
AcDbLine
 10
95.90886036936850
 20
110.7446279901646
 30
0.0000000000000000
 11
100.7621944569005
 21
115.5979620776961
 31
0.0000000000000000
  0
LINE
  5
4E6
100
AcDbEntity
  8
MAIN0
  6
BYBLOCK
 62
0
100
AcDbLine
 10
96.60166943904925
 20
110.4946279901646
 30
0.0000000000000000
 11
101.7050035265821
 21
115.5979620776980
 31
0.0000000000000000
  0
LINE
  5
4E7
100
AcDbEntity
  8
MAIN0
  6
BYBLOCK
 62
0
100
AcDbLine
 10
97.54447850872988
 20
110.4946279901646
 30
0.0000000000000000
 11
102.5232422300133
 21
115.4733917114485
 31
0.0000000000000000
  0
LINE
  5
4E8
100
AcDbEntity
  8
MAIN0
  6
BYBLOCK
 62
0
100
AcDbLine
 10
98.48728757840956
 20
110.4946279901648
 30
0.0000000000000000
 11
102.5232422300156
 21
114.5305826417708
 31
0.0000000000000000
  0
LINE
  5
4E9
100
AcDbEntity
  8
MAIN0
  6
BYBLOCK
 62
0
100
AcDbLine
 10
99.43009664808949
 20
110.4946279901647
 30
0.0000000000000000
 11
102.5232422300155
 21
113.5877735720901
 31
0.0000000000000000
  0
LINE
  5
4EA
100
AcDbEntity
  8
MAIN0
  6
BYBLOCK
 62
0
100
AcDbLine
 10
100.3729057177702
 20
110.4946279901646
 30
0.0000000000000000
 11
102.5232422300151
 21
112.6449645024104
 31
0.0000000000000000
  0
LINE
  5
4EB
100
AcDbEntity
  8
MAIN0
  6
BYBLOCK
 62
0
100
AcDbLine
 10
101.3157147874500
 20
110.4946279901646
 30
0.0000000000000000
 11
102.5232422300151
 21
111.7021554327297
 31
0.0000000000000000
  0
ENDBLK
  5
4EC
100
AcDbEntity
  8
MAIN0
  6
BYBLOCK
 62
3
100
AcDbBlockEnd
  0
BLOCK
  5
4EE
100
AcDbEntity
  8
MAIN0
  6
BYBLOCK
 62
3
100
AcDbBlockBegin
  2
*X1
 70
     1
 10
0.0
 20
0.0
 30
0.0
  0
LINE
  5
4EF
100
AcDbEntity
  8
MAIN0
  6
BYBLOCK
 62
0
100
AcDbLine
 10
92.52324223001641
 20
104.0446279901653
 30
0.0000000000000000
 11
96.22324223001584
 21
107.7446279901647
 31
0.0000000000000000
  0
LINE
  5
4F0
100
AcDbEntity
  8
MAIN0
  6
BYBLOCK
 62
0
100
AcDbLine
 10
92.52324223001595
 20
104.9874370598445
 30
0.0000000000000000
 11
95.28043316033539
 21
107.7446279901646
 31
0.0000000000000000
  0
LINE
  5
4F1
100
AcDbEntity
  8
MAIN0
  6
BYBLOCK
 62
0
100
AcDbLine
 10
92.52324223001557
 20
105.9302461295246
 30
0.0000000000000000
 11
94.33762409065547
 21
107.7446279901645
 31
0.0000000000000000
  0
LINE
  5
4F2
100
AcDbEntity
  8
MAIN0
  6
BYBLOCK
 62
0
100
AcDbLine
 10
92.52324223001553
 20
103.1018189204837
 30
0.0000000000000000
 11
97.41605129969587
 21
107.9946279901647
 31
0.0000000000000000
  0
LINE
  5
4F3
100
AcDbEntity
  8
MAIN0
  6
BYBLOCK
 62
0
100
AcDbLine
 10
93.25552628184002
 20
102.8912939026285
 30
0.0000000000000000
 11
98.35886036937616
 21
107.9946279901647
 31
0.0000000000000000
  0
LINE
  5
4F4
100
AcDbEntity
  8
MAIN0
  6
BYBLOCK
 62
0
100
AcDbLine
 10
94.19833535152020
 20
102.8912939026290
 30
0.0000000000000000
 11
99.30166943905689
 21
107.9946279901646
 31
0.0000000000000000
  0
LINE
  5
4F5
100
AcDbEntity
  8
MAIN0
  6
BYBLOCK
 62
0
100
AcDbLine
 10
95.14114442120089
 20
102.8912939026286
 30
0.0000000000000000
 11
100.2444785087358
 21
107.9946279901646
 31
0.0000000000000000
  0
LINE
  5
4F6
100
AcDbEntity
  8
MAIN0
  6
BYBLOCK
 62
0
100
AcDbLine
 10
96.08395349088134
 20
102.8912939026294
 30
0.0000000000000000
 11
101.1872875784159
 21
107.9946279901645
 31
0.0000000000000000
  0
LINE
  5
4F7
100
AcDbEntity
  8
MAIN0
  6
BYBLOCK
 62
0
100
AcDbLine
 10
97.02676256056149
 20
102.8912939026295
 30
0.0000000000000000
 11
102.1300966480971
 21
107.9946279901645
 31
0.0000000000000000
  0
LINE
  5
4F8
100
AcDbEntity
  8
MAIN0
  6
BYBLOCK
 62
0
100
AcDbLine
 10
97.96957163024031
 20
102.8912939026280
 30
0.0000000000000000
 11
102.5232422300155
 21
107.4449645024032
 31
0.0000000000000000
  0
LINE
  5
4F9
100
AcDbEntity
  8
MAIN0
  6
BYBLOCK
 62
0
100
AcDbLine
 10
98.91238069992056
 20
102.8912939026281
 30
0.0000000000000000
 11
102.5232422300170
 21
106.5021554327245
 31
0.0000000000000000
  0
LINE
  5
4FA
100
AcDbEntity
  8
MAIN0
  6
BYBLOCK
 62
0
100
AcDbLine
 10
99.85518976960057
 20
102.8912939026285
 30
0.0000000000000000
 11
102.5232422300159
 21
105.5593463630428
 31
0.0000000000000000
  0
LINE
  5
4FB
100
AcDbEntity
  8
MAIN0
  6
BYBLOCK
 62
0
100
AcDbLine
 10
100.7979988392808
 20
102.8912939026280
 30
0.0000000000000000
 11
102.5232422300179
 21
104.6165372933651
 31
0.0000000000000000
  0
LINE
  5
4FC
100
AcDbEntity
  8
MAIN0
  6
BYBLOCK
 62
0
100
AcDbLine
 10
101.7408079089611
 20
102.8912939026282
 30
0.0000000000000000
 11
102.5232422300165
 21
103.6737282236836
 31
0.0000000000000000
  0
ENDBLK
  5
4FD
100
AcDbEntity
  8
MAIN0
  6
BYBLOCK
 62
3
100
AcDbBlockEnd
  0
BLOCK
  5
4FF
100
AcDbEntity
  8
MAIN0
  6
BYBLOCK
 62
3
100
AcDbBlockBegin
  2
*X2
 70
     1
 10
0.0
 20
0.0
 30
0.0
  0
LINE
  5
500
100
AcDbEntity
  8
MAIN0
  6
BYBLOCK
 62
0
100
AcDbLine
 10
87.66990814248062
 20
110.7446279901649
 30
0.0000000000000000
 11
92.52324223001786
 21
115.5979620777021
 31
0.0000000000000000
  0
LINE
  5
501
100
AcDbEntity
  8
MAIN0
  6
BYBLOCK
 62
0
100
AcDbLine
 10
85.78429000312103
 20
110.7446279901649
 30
0.0000000000000000
 11
90.63762409065700
 21
115.5979620777014
 31
0.0000000000000000
  0
LINE
  5
502
100
AcDbEntity
  8
MAIN0
  6
BYBLOCK
 62
0
100
AcDbLine
 10
83.89867186375966
 20
110.7446279901650
 30
0.0000000000000000
 11
88.75200595129765
 21
115.5979620777024
 31
0.0000000000000000
  0
LINE
  5
503
100
AcDbEntity
  8
MAIN0
  6
BYBLOCK
 62
0
100
AcDbLine
 10
82.52324223001578
 20
111.2548164957808
 30
0.0000000000000000
 11
86.86638781193608
 21
115.5979620777011
 31
0.0000000000000000
  0
LINE
  5
504
100
AcDbEntity
  8
MAIN0
  6
BYBLOCK
 62
0
100
AcDbLine
 10
82.52324223001605
 20
113.1404346351415
 30
0.0000000000000000
 11
84.98076967257708
 21
115.5979620777025
 31
0.0000000000000000
  0
LINE
  5
505
100
AcDbEntity
  8
MAIN0
  6
BYBLOCK
 62
0
100
AcDbLine
 10
82.52324223001632
 20
115.0260527745021
 30
0.0000000000000000
 11
83.09515153321664
 21
115.5979620777029
 31
0.0000000000000000
  0
LINE
  5
506
100
AcDbEntity
  8
MAIN0
  6
BYBLOCK
 62
0
100
AcDbLine
 10
89.55552628184140
 20
110.7446279901648
 30
0.0000000000000000
 11
92.52324223001575
 21
113.7123439383406
 31
0.0000000000000000
  0
ENDBLK
  5
507
100
AcDbEntity
  8
MAIN0
  6
BYBLOCK
 62
3
100
AcDbBlockEnd
  0
BLOCK
  5
509
100
AcDbEntity
  8
MAIN0
  6
BYBLOCK
 62
3
100
AcDbBlockBegin
  2
*X3
 70
     1
 10
0.0
 20
0.0
 30
0.0
  0
LINE
  5
50A
100
AcDbEntity
  8
MAIN0
  6
BYBLOCK
 62
0
100
AcDbLine
 10
83.16990814248413
 20
102.8912939026327
 30
0.0000000000000000
 11
88.02324223001629
 21
107.7446279901649
 31
0.0000000000000000
  0
LINE
  5
50B
100
AcDbEntity
  8
MAIN0
  6
BYBLOCK
 62
0
100
AcDbLine
 10
82.52324223001418
 20
104.1302461295235
 30
0.0000000000000000
 11
86.13762409065615
 21
107.7446279901648
 31
0.0000000000000000
  0
LINE
  5
50C
100
AcDbEntity
  8
MAIN0
  6
BYBLOCK
 62
0
100
AcDbLine
 10
82.52324223001732
 20
106.0158642688870
 30
0.0000000000000000
 11
84.25200595129755
 21
107.7446279901651
 31
0.0000000000000000
  0
LINE
  5
50D
100
AcDbEntity
  8
MAIN0
  6
BYBLOCK
 62
0
100
AcDbLine
 10
85.05552628184390
 20
102.8912939026317
 30
0.0000000000000000
 11
89.90886036937636
 21
107.7446279901647
 31
0.0000000000000000
  0
LINE
  5
50E
100
AcDbEntity
  8
MAIN0
  6
BYBLOCK
 62
0
100
AcDbLine
 10
86.94114442120286
 20
102.8912939026309
 30
0.0000000000000000
 11
91.52324223001564
 21
107.4733917114431
 31
0.0000000000000000
  0
LINE
  5
50F
100
AcDbEntity
  8
MAIN0
  6
BYBLOCK
 62
0
100
AcDbLine
 10
88.82676256056459
 20
102.8912939026322
 30
0.0000000000000000
 11
91.95166943905630
 21
106.0162007811239
 31
0.0000000000000000
  0
LINE
  5
510
100
AcDbEntity
  8
MAIN0
  6
BYBLOCK
 62
0
100
AcDbLine
 10
90.71238069992494
 20
102.8912939026328
 30
0.0000000000000000
 11
92.52324223001564
 21
104.7021554327221
 31
0.0000000000000000
  0
ENDBLK
  5
511
100
AcDbEntity
  8
MAIN0
  6
BYBLOCK
 62
3
100
AcDbBlockEnd
  0
ENDSEC
  0
SECTION
  2
ENTITIES
  0
LINE
  5
46
100
AcDbEntity
  8
MAIN0
  6
CENTER
 62
3
100
AcDbLine
 10
336.8571648312757
 20
233.6110480762556
 30
0.0000000000000000
 11
427.8904188157882
 21
233.6110480762556
 31
0.0000000000000000
  0
LINE
  5
47
100
AcDbEntity
  8
MAIN0
  6
CENTER
 62
3
100
AcDbLine
 10
400.7509622869635
 20
286.8166008359350
 30
0.0000000000000000
 11
400.7509622869635
 21
179.8573851622687
 31
0.0000000000000000
  0
LINE
  5
48
100
AcDbEntity
  8
MAIN0
  6
CONTINUOUS
 62
3
100
AcDbLine
 10
266.1443313627555
 20
240.2110480761812
 30
0.0000000000000000
 11
266.1443313627555
 21
237.0110480761811
 31
0.0000000000000000
  0
LINE
  5
49
100
AcDbEntity
  8
MAIN0
  6
CONTINUOUS
 62
3
100
AcDbLine
 10
266.1443313627606
 20
227.0110480763142
 30
0.0000000000000000
 11
266.1443313627581
 21
230.2110480763141
 31
0.0000000000000000
  0
LINE
  5
4A
100
AcDbEntity
  8
MAIN0
  6
CENTER
 62
3
100
AcDbLine
 10
400.7509622870385
 20
126.8015806034421
 30
0.0000000000000000
 11
400.7509622870137
 21
81.99940891130926
 31
0.0000000000000000
  0
LINE
  5
4B
100
AcDbEntity
  8
MAIN0
  6
CENTER
 62
3
100
AcDbLine
 10
406.5983852926624
 20
94.84716351139184
 30
0.0000000000000000
 11
423.9067555141079
 21
94.84716351138275
 31
0.0000000000000000
  0
CIRCLE
  5
4C
100
AcDbEntity
  8
MAIN0
  6
CONTINUOUS
 62
3
100
AcDbCircle
 10
400.7509622870269
 20
105.9471635113900
 30
0.0000000000000000
 40
3.000000000000000
  0
LINE
  5
4D
100
AcDbEntity
  8
MAIN0
  6
CENTER
 62
3
100
AcDbLine
 10
95.41668451640757
 20
211.6110480762098
 30
0.0000000000000000
 11
102.8147926003188
 21
211.6110480762109
 31
0.0000000000000000
  0
LINE
  5
4E
100
AcDbEntity
  8
MAIN0
  6
CENTER
 62
3
100
AcDbLine
 10
95.41668451637918
 20
255.6110480762482
 30
0.0000000000000000
 11
102.8147926002904
 21
255.6110480762530
 31
0.0000000000000000
  0
LINE
  5
4F
100
AcDbEntity
  8
MAIN0
  6
CONTINUOUS
 62
3
100
AcDbLine
 10
502.5642172585768
 20
247.6110480762470
 30
0.0000000000000000
 11
502.5642172585770
 21
241.6110480762470
 31
0.0000000000000000
  0
LINE
  5
50
100
AcDbEntity
  8
MAIN0
  6
CONTINUOUS
 62
3
100
AcDbLine
 10
499.5642172585770
 20
244.6110480762470
 30
0.0000000000000000
 11
505.5642172585770
 21
244.6110480762472
 31
0.0000000000000000
  0
LINE
  5
51
100
AcDbEntity
  8
MAIN0
  6
CONTINUOUS
 62
3
100
AcDbLine
 10
502.5642172585775
 20
225.6110480762471
 30
0.0000000000000000
 11
502.5642172585777
 21
219.6110480762469
 31
0.0000000000000000
  0
LINE
  5
52
100
AcDbEntity
  8
MAIN0
  6
CONTINUOUS
 62
3
100
AcDbLine
 10
499.5642172585777
 20
222.6110480762470
 30
0.0000000000000000
 11
505.5642172585777
 21
222.6110480762472
 31
0.0000000000000000
  0
LINE
  5
53
100
AcDbEntity
  8
MAIN0
  6
CONTINUOUS
 62
3
100
AcDbLine
 10
99.18880150591099
 20
268.6110480762305
 30
0.0000000000000000
 11
99.18880150591099
 21
263.6110480762305
 31
0.0000000000000000
  0
LINE
  5
54
100
AcDbEntity
  8
MAIN0
  6
CONTINUOUS
 62
3
100
AcDbLine
 10
96.68880150590866
 20
266.1110480762304
 30
0.0000000000000000
 11
101.6888015059087
 21
266.1110480762305
 31
0.0000000000000000
  0
LINE
  5
55
100
AcDbEntity
  8
MAIN0
  6
CONTINUOUS
 62
3
100
AcDbLine
 10
99.18880150591096
 20
203.6110480762305
 30
0.0000000000000000
 11
99.18880150591096
 21
198.6110480762307
 31
0.0000000000000000
  0
LINE
  5
56
100
AcDbEntity
  8
MAIN0
  6
CONTINUOUS
 62
3
100
AcDbLine
 10
96.68880150591093
 20
201.1110480762305
 30
0.0000000000000000
 11
101.6888015059109
 21
201.1110480762307
 31
0.0000000000000000
  0
DIMENSION
  5
5D
100
AcDbEntity
  8
MAIN0
  6
CONTINUOUS
 62
3
100
AcDbDimension
  2
*D0
 10
137.6551893927478
 20
233.6110480762297
 30
0.0000000000000000
 11
137.1551893927478
 21
216.1110480762168
 31
0.0000000000000000
 70
32
  3
MAIN001
100
AcDbAlignedDimension
 13
122.9082532769212
 23
198.6110480762039
 33
0.0000000000000000
 14
74.55191153144867
 24
233.6110480762297
 34
0.0000000000000000
 50
90.00000000000000
100
AcDbRotatedDimension
1001
ACAD
1000
DSTYLE
1002
{
1070
   173
1070
     1
1070
     6
1000
_OPEN
1070
     7
1000
_OPEN
1070
    41
1040
2.000000
1002
}
  0
DIMENSION
  5
66
100
AcDbEntity
  8
MAIN0
  6
CONTINUOUS
 62
3
100
AcDbDimension
  2
*D1
 10
99.18880150591099
 20
169.6251637879066
 30
0.0000000000000000
 11
112.9388015060425
 21
170.1251637879066
 31
0.0000000000000000
 70
32
  3
MAIN001
100
AcDbAlignedDimension
 13
126.6888015061740
 23
194.6653231486384
 33
0.0000000000000000
 14
99.18880150591096
 24
180.5934230999332
 34
0.0000000000000000
100
AcDbRotatedDimension
1001
ACAD
1000
DSTYLE
1002
{
1070
   173
1070
     1
1070
     6
1000
_OPEN
1070
     7
1000
_OPEN
1070
    41
1040
2.000000
1002
}
  0
DIMENSION
  5
6F
100
AcDbEntity
  8
MAIN0
  6
CONTINUOUS
 62
3
100
AcDbDimension
  2
*D2
 10
126.6888015061740
 20
169.6251637879066
 30
0.0000000000000000
 11
138.0888015061721
 21
170.1251637879066
 31
0.0000000000000000
 70
32
  3
MAIN001
100
AcDbAlignedDimension
 13
149.4888015061702
 23
194.6653231486474
 33
0.0000000000000000
 14
126.6888015061740
 24
194.6653231486384
 34
0.0000000000000000
100
AcDbRotatedDimension
1001
ACAD
1000
DSTYLE
1002
{
1070
   173
1070
     1
1070
     6
1000
_OPEN
1070
     7
1000
_OPEN
1070
    41
1040
2.000000
1002
}
  0
LEADER
  5
70
100
AcDbEntity
  8
MAIN0
  6
CONTINUOUS
 62
3
100
AcDbLeader
  3
MAIN001
 73
     0
 74
     0
 75
     1
 40
3.099999904632568
 41
41.90100002831224
 76
     3
 10
127.8002876057621
 20
197.6037751983686
 30
0.0000000000000000
 10
168.1012022187024
 20
161.0814846752408
 30
0.0000000000000000
 10
169.8862021660416
 20
161.0814846752408
 30
0.0000000000000000
340
71
213
-0.001000000000004775
223
-0.5000000000000000
233
0.0000000000000000
1001
ACAD
1000
DSTYLE
1002
{
1070
   147
1040
0.0
1070
    77
1070
     1
1070
   173
1070
     1
1070
     6
1000
_OPEN
1070
     7
1000
_OPEN
1002
}
  0
MTEXT
  5
71
102
{ACAD_REACTORS
330
70
102
}
100
AcDbEntity
  8
MAIN0
  6
CONTINUOUS
 62
3
100
AcDbMText
 10
169.8872021660417
 20
164.6814845798733
 30
0.0000000000000000
 40
3.099999904632568
 41
0.0000000000000000
 71
     1
 72
     1
  1
{\H0.71x;{開ポート　M3　(ベース配管用)\POpen Port\P(For Direct Connect)}}
 11
1.000000000000000
 21
0.0000000000000000
 31
0.0000000000000000
  7
KNJYOKO
  0
LEADER
  5
72
100
AcDbEntity
  8
MAIN0
  6
CONTINUOUS
 62
3
100
AcDbLeader
  3
MAIN001
 73
     0
 74
     0
 75
     1
 40
3.099999904632568
 41
41.90100002831221
 76
     3
 10
150.8644965771912
 20
199.2089302314519
 30
0.0000000000000000
 10
166.9573888922640
 20
206.2029606268342
 30
0.0000000000000000
 10
168.7423888396033
 20
206.2029606268342
 30
0.0000000000000000
340
73
213
-0.001000000000004775
223
-0.5000000000000000
233
0.0000000000000000
1001
ACAD
1000
DSTYLE
1002
{
1070
   147
1040
0.0
1070
    77
1070
     1
1070
   173
1070
     1
1070
     6
1000
_OPEN
1070
     7
1000
_OPEN
1002
}
  0
MTEXT
  5
73
102
{ACAD_REACTORS
330
72
102
}
100
AcDbEntity
  8
MAIN0
  6
CONTINUOUS
 62
3
100
AcDbMText
 10
168.7433888396033
 20
209.8029605314667
 30
0.0000000000000000
 40
3.099999904632568
 41
0.0000000000000000
 71
     1
 72
     1
  1
{\H0.71x;{閉ポート　M3　(ベース配管用)\PClose Port\P(For Direct Connect)}}
 11
1.000000000000000
 21
0.0000000000000000
 31
0.0000000000000000
  7
KNJYOKO
  0
LEADER
  5
74
100
AcDbEntity
  8
MAIN0
  6
CONTINUOUS
 62
3
100
AcDbLeader
  3
MAIN001
 73
     0
 75
     1
 40
3.099999904632568
 41
31.65900080108642
 76
     3
 10
97.40411425222258
 20
267.8617312019076
 30
0.0000000000000000
 10
86.33574984982683
 20
297.6606830651912
 30
0.0000000000000000
 10
84.40874990561677
 20
297.6606830651912
 30
0.0000000000000000
340
75
213
0.0000000000000000
223
-0.5000000000000000
233
0.0000000000000000
1001
ACAD
1000
DSTYLE
1002
{
1070
   147
1040
0.0
1070
    77
1070
     1
1070
   173
1070
     1
1070
     6
1000
_OPEN
1070
     7
1000
_OPEN
1002
}
  0
MTEXT
  5
75
102
{ACAD_REACTORS
330
74
102
}
100
AcDbEntity
  8
MAIN0
  6
CONTINUOUS
 62
3
100
AcDbMText
 10
52.74974910453035
 20
301.2606829698237
 30
0.0000000000000000
 40
3.099999904632568
 41
0.0000000000000000
 71
     1
 72
     1
  1
{\H0.93x;{2-\U+22055　　　　深8\PDepth 8\P}
 11
1.000000000000000
 21
0.0000000000000000
 31
0.0000000000000000
  7
KNJYOKO
  0
MTEXT
  5
76
100
AcDbEntity
  8
MAIN0
  6
CONTINUOUS
 62
3
100
AcDbMText
 10
67.24827992167805
 20
301.0432810709109
 30
0.0000000000000000
 40
2.799999952316284
 41
0.0000000000000000
 71
     1
 72
     1
  1
{\H0.63x;{0}}
 11
1.000000000000000
 21
0.0000000000000000
 31
0.0000000000000000
  7
STANDARD
  0
MTEXT
  5
77
100
AcDbEntity
  8
MAIN0
  6
CONTINUOUS
 62
3
100
AcDbMText
 10
65.52447542158907
 20
304.5357789809705
 30
0.0000000000000000
 40
2.799999952316284
 41
0.0000000000000000
 71
     1
 72
     1
  1
{\H0.61x;{+0.025}}
 11
1.000000000000000
 21
0.0000000000000000
 31
0.0000000000000000
  7
STANDARD
  0
DIMENSION
  5
80
100
AcDbEntity
  8
MAIN0
  6
CONTINUOUS
 62
3
100
AcDbDimension
  2
*D3
 10
69.08454064604908
 20
266.1110480762303
 30
0.0000000000000000
 11
68.58454064604908
 21
229.5360479652167
 31
0.0000000000000000
 70
32
  3
MAIN001
100
AcDbAlignedDimension
 13
94.54218519032374
 23
201.1110480762304
 33
0.0000000000000000
 14
94.54218519032159
 24
266.1110480762303
 34
0.0000000000000000
 50
90.00000000000000
100
AcDbRotatedDimension
1001
ACAD
1000
DSTYLE
1002
{
1070
   173
1070
     1
1070
     6
1000
_OPEN
1070
     7
1000
_OPEN
1070
    41
1040
2.000000
1070
   272
1070
     2
1070
    47
1040
0.020000
1070
    48
1040
0.020000
1070
    71
1070
     1
1002
}
  0
DIMENSION
  5
89
100
AcDbEntity
  8
MAIN0
  6
CONTINUOUS
 62
3
100
AcDbDimension
  2
*D4
 10
314.7509622867375
 20
282.6110480762254
 30
0.0000000000000000
 11
314.2509622867375
 21
233.6110480762255
 31
0.0000000000000000
 70
32
  3
MAIN001
100
AcDbAlignedDimension
 13
344.2509622867191
 23
184.6110480762256
 33
0.0000000000000000
 14
379.7509622865329
 24
282.6110480762254
 34
0.0000000000000000
 50
90.00000000000000
100
AcDbRotatedDimension
1001
ACAD
1000
DSTYLE
1002
{
1070
   173
1070
     1
1070
     6
1000
_OPEN
1070
     7
1000
_OPEN
1070
    41
1040
2.000000
1002
}
  0
DIMENSION
  5
94
100
AcDbEntity
  8
MAIN0
  6
CONTINUOUS
 62
3
100
AcDbDimension
  2
*D5
 10
314.7509622867375
 20
283.1110480762096
 30
0.0000000000000000
 11
314.2509622867375
 21
287.3047457848572
 31
0.0000000000000000
 70
160
  3
MAIN001
100
AcDbAlignedDimension
 13
379.7509622865329
 23
282.6110480762254
 33
0.0000000000000000
 14
390.8509622863974
 24
283.1110480761941
 34
0.0000000000000000
 50
90.00000000000000
100
AcDbRotatedDimension
1001
ACAD
1000
DSTYLE
1002
{
1070
   173
1070
     1
1070
     6
1000
_OPEN
1070
     7
1000
_OPEN
1070
    41
1040
2.000000
1070
   287
1070
     0
1002
}
  0
DIMENSION
  5
9F
100
AcDbEntity
  8
MAIN0
  6
CONTINUOUS
 62
3
100
AcDbDimension
  2
*D6
 10
314.7509622867375
 20
184.6110480762411
 30
0.0000000000000000
 11
314.2509622867375
 21
179.7916143113968
 31
0.0000000000000000
 70
160
  3
MAIN001
100
AcDbAlignedDimension
 13
390.8509622863974
 23
184.1110480763171
 33
0.0000000000000000
 14
344.2509622867191
 24
184.6110480762256
 34
0.0000000000000000
 50
90.00000000000000
100
AcDbRotatedDimension
1001
ACAD
1000
DSTYLE
1002
{
1070
   173
1070
     1
1070
     6
1000
_OPEN
1070
     7
1000
_OPEN
1070
    41
1040
2.000000
1070
   287
1070
     0
1002
}
  0
DIMENSION
  5
A8
100
AcDbEntity
  8
MAIN0
  6
CONTINUOUS
 62
3
100
AcDbDimension
  2
*D7
 10
306.7509622867375
 20
184.1110480762860
 30
0.0000000000000000
 11
306.2509622867375
 21
233.6110480762401
 31
0.0000000000000000
 70
32
  1
\A1;(99)
  3
MAIN001
100
AcDbAlignedDimension
 13
390.8509622863974
 23
283.1110480761941
 33
0.0000000000000000
 14
390.8509622863974
 24
184.1110480763171
 34
0.0000000000000000
 50
90.00000000000000
100
AcDbRotatedDimension
1001
ACAD
1000
DSTYLE
1002
{
1070
   173
1070
     1
1070
     6
1000
_OPEN
1070
     7
1000
_OPEN
1070
    41
1040
2.000000
1002
}
  0
DIMENSION
  5
B1
100
AcDbEntity
  8
MAIN0
  6
CONTINUOUS
 62
3
100
AcDbDimension
  2
*D8
 10
384.7509622867190
 20
291.0703063002578
 30
0.0000000000000000
 11
400.7509622867191
 21
291.5703063002578
 31
0.0000000000000000
 70
32
  3
MAIN001
100
AcDbAlignedDimension
 13
416.7509622867191
 23
275.2653067190256
 33
0.0000000000000000
 14
384.7509622867190
 24
275.2653067190258
 34
0.0000000000000000
100
AcDbRotatedDimension
1001
ACAD
1000
DSTYLE
1002
{
1070
   173
1070
     1
1070
     6
1000
_OPEN
1070
     7
1000
_OPEN
1070
    41
1040
2.000000
1002
}
  0
DIMENSION
  5
BC
100
AcDbEntity
  8
MAIN0
  6
CONTINUOUS
 62
3
100
AcDbDimension
  2
*D9
 10
434.3227534065035
 20
283.1110480762096
 30
0.0000000000000000
 11
433.8227534065035
 21
279.8610480762076
 31
0.0000000000000000
 70
32
  3
MAIN001
100
AcDbAlignedDimension
 13
405.6725871033899
 23
276.6110480762056
 33
0.0000000000000000
 14
410.6509622869727
 24
283.1110480762096
 34
0.0000000000000000
 50
90.00000000000000
100
AcDbRotatedDimension
1001
ACAD
1000
DSTYLE
1002
{
1070
   173
1070
     1
1070
     6
1000
_OPEN
1070
     7
1000
_OPEN
1070
    41
1040
2.000000
1070
   287
1070
     0
1002
}
  0
DIMENSION
  5
C5
100
AcDbEntity
  8
MAIN0
  6
CONTINUOUS
 62
3
100
AcDbDimension
  2
*D10
 10
434.3227534065035
 20
276.6110480762056
 30
0.0000000000000000
 11
433.8227534065035
 21
268.6110480762056
 31
0.0000000000000000
 70
32
  3
MAIN001
100
AcDbAlignedDimension
 13
405.6725871034024
 23
260.6110480762056
 33
0.0000000000000000
 14
405.6725871033899
 24
276.6110480762056
 34
0.0000000000000000
 50
90.00000000000000
100
AcDbRotatedDimension
1001
ACAD
1000
DSTYLE
1002
{
1070
   173
1070
     1
1070
     6
1000
_OPEN
1070
     7
1000
_OPEN
1070
    41
1040
2.000000
1002
}
  0
DIMENSION
  5
CE
100
AcDbEntity
  8
MAIN0
  6
CONTINUOUS
 62
3
100
AcDbDimension
  2
*D11
 10
434.3227534065035
 20
260.6110480762056
 30
0.0000000000000000
 11
433.8227534065035
 21
247.1110480762306
 31
0.0000000000000000
 70
32
  1
\A1;MAX 27
  3
MAIN001
100
AcDbAlignedDimension
 13
427.8904188157882
 23
233.6110480762556
 33
0.0000000000000000
 14
405.6725871034024
 24
260.6110480762056
 34
0.0000000000000000
 50
90.00000000000000
100
AcDbRotatedDimension
1001
ACAD
1000
DSTYLE
1002
{
1070
   173
1070
     1
1070
     6
1000
_OPEN
1070
     7
1000
_OPEN
1070
    41
1040
2.000000
1002
}
  0
DIMENSION
  5
D7
100
AcDbEntity
  8
MAIN0
  6
CONTINUOUS
 62
3
100
AcDbDimension
  2
*D12
 10
370.5080778517878
 20
269.6110480762255
 30
0.0000000000000000
 11
370.0080778517878
 21
216.1877560585557
 31
0.0000000000000000
 70
160
  3
MAIN001
100
AcDbAlignedDimension
 13
378.6010569065151
 23
197.6110480762255
 33
0.0000000000000000
 14
378.6010569065152
 24
269.6110480762255
 34
0.0000000000000000
 50
90.00000000000000
100
AcDbRotatedDimension
1001
ACAD
1000
DSTYLE
1002
{
1070
   173
1070
     1
1070
     6
1000
_OPEN
1070
     7
1000
_OPEN
1070
    41
1040
2.000000
1002
}
  0
DIMENSION
  5
E0
100
AcDbEntity
  8
MAIN0
  6
CONTINUOUS
 62
3
100
AcDbDimension
  2
*D13
 10
338.7509622867192
 20
169.2045759280852
 30
0.0000000000000000
 11
369.7509622868413
 21
169.7045759280852
 31
0.0000000000000000
 70
32
  3
MAIN001
100
AcDbAlignedDimension
 13
400.7509622869635
 23
179.8573851622687
 33
0.0000000000000000
 14
338.7509622867559
 24
186.8110480762004
 34
0.0000000000000000
100
AcDbRotatedDimension
1001
ACAD
1000
DSTYLE
1002
{
1070
   173
1070
     1
1070
     6
1000
_OPEN
1070
     7
1000
_OPEN
1070
    41
1040
2.000000
1002
}
  0
DIMENSION
  5
E9
100
AcDbEntity
  8
MAIN0
  6
CONTINUOUS
 62
3
100
AcDbDimension
  2
*D14
 10
400.7509622869635
 20
169.2045759280852
 30
0.0000000000000000
 11
411.2509622868413
 21
169.7045759280852
 31
0.0000000000000000
 70
32
  3
MAIN001
100
AcDbAlignedDimension
 13
421.7509622867192
 23
185.6110480762254
 33
0.0000000000000000
 14
400.7509622869635
 24
179.8573851622687
 34
0.0000000000000000
100
AcDbRotatedDimension
1001
ACAD
1000
DSTYLE
1002
{
1070
   173
1070
     1
1070
     6
1000
_OPEN
1070
     7
1000
_OPEN
1070
    41
1040
2.000000
1002
}
  0
DIMENSION
  5
F2
100
AcDbEntity
  8
MAIN0
  6
CONTINUOUS
 62
3
100
AcDbDimension
  2
*D15
 10
338.7509622867192
 20
161.3177525974700
 30
0.0000000000000000
 11
380.2509622867192
 21
161.8177525974700
 31
0.0000000000000000
 70
32
  1
\A1;(83)
  3
MAIN001
100
AcDbAlignedDimension
 13
421.7509622867192
 23
185.6110480762254
 33
0.0000000000000000
 14
338.7509622867559
 24
186.8110480762004
 34
0.0000000000000000
100
AcDbRotatedDimension
1001
ACAD
1000
DSTYLE
1002
{
1070
   173
1070
     1
1070
     6
1000
_OPEN
1070
     7
1000
_OPEN
1070
    41
1040
2.000000
1002
}
  0
DIMENSION
  5
FB
100
AcDbEntity
  8
MAIN0
  6
CONTINUOUS
 62
3
100
AcDbDimension
  2
*D16
 10
524.2247078502804
 20
244.6110480762469
 30
0.0000000000000000
 11
523.7247078502804
 21
229.5360479652333
 31
0.0000000000000000
 70
32
  3
MAIN001
100
AcDbAlignedDimension
 13
506.8015105075720
 23
222.6110480762472
 33
0.0000000000000000
 14
506.8015105075712
 24
244.6110480762472
 34
0.0000000000000000
 50
90.00000000000000
100
AcDbRotatedDimension
1001
ACAD
1000
DSTYLE
1002
{
1070
   173
1070
     1
1070
     6
1000
_OPEN
1070
     7
1000
_OPEN
1070
    41
1040
2.000000
1070
   272
1070
     2
1070
    47
1040
0.020000
1070
    48
1040
0.020000
1070
    71
1070
     1
1002
}
  0
LEADER
  5
FC
100
AcDbEntity
  8
MAIN0
  6
CONTINUOUS
 62
3
100
AcDbLeader
  3
MAIN001
 73
     0
 74
     0
 75
     1
 40
3.099999904632568
 41
31.66100080108640
 76
     3
 10
504.7438255719843
 20
220.5496632019140
 30
0.0000000000000000
 10
537.2955859417034
 20
201.9331117761730
 30
0.0000000000000000
 10
539.2205858859135
 20
201.9331117761730
 30
0.0000000000000000
340
FD
213
0.0000000000000000
223
-0.5000000000000000
233
0.0000000000000000
1001
ACAD
1000
DSTYLE
1002
{
1070
   147
1040
0.0
1070
    77
1070
     1
1070
   173
1070
     1
1070
     6
1000
_OPEN
1070
     7
1000
_OPEN
1002
}
  0
MTEXT
  5
FD
102
{ACAD_REACTORS
330
FC
102
}
100
AcDbEntity
  8
MAIN0
  6
CONTINUOUS
 62
3
100
AcDbMText
 10
539.2215858859134
 20
205.5331116808055
 30
0.0000000000000000
 40
3.099999904632568
 41
0.0000000000000000
 71
     1
 72
     1
  1
{\H0.93x;{2-\U+22056　　　　深8\PDepth 8\P}
 11
1.000000000000000
 21
0.0000000000000000
 31
0.0000000000000000
  7
KNJYOKO
  0
MTEXT
  5
FE
100
AcDbEntity
  8
MAIN0
  6
CONTINUOUS
 62
3
100
AcDbMText
 10
552.3363538158517
 20
209.5097737214838
 30
0.0000000000000000
 40
2.799999952316284
 41
0.0000000000000000
 71
     1
 72
     1
  1
{\H0.61x;{+0.025}}
 11
1.000000000000000
 21
0.0000000000000000
 31
0.0000000000000000
  7
STANDARD
  0
MTEXT
  5
FF
100
AcDbEntity
  8
MAIN0
  6
CONTINUOUS
 62
3
100
AcDbMText
 10
554.0680839765340
 20
205.7943230987296
 30
0.0000000000000000
 40
2.799999952316284
 41
0.0000000000000000
 71
     1
 72
     1
  1
{\H0.63x;{0}}
 11
1.000000000000000
 21
0.0000000000000000
 31
0.0000000000000000
  7
STANDARD
  0
DIMENSION
  5
108
100
AcDbEntity
  8
MAIN0
  6
CONTINUOUS
 62
3
100
AcDbDimension
  2
*D17
 10
531.6982061839128
 20
190.6110480762469
 30
0.0000000000000000
 11
531.1982061839128
 21
233.6110480762469
 31
0.0000000000000000
 70
32
  3
MAIN001
100
AcDbAlignedDimension
 13
506.6729783383525
 23
276.6110480762471
 33
0.0000000000000000
 14
506.6729783383555
 24
190.6110480762472
 34
0.0000000000000000
 50
90.00000000000000
100
AcDbRotatedDimension
1001
ACAD
1000
DSTYLE
1002
{
1070
   173
1070
     1
1070
     6
1000
_OPEN
1070
     7
1000
_OPEN
1070
    41
1040
2.000000
1002
}
  0
LEADER
  5
109
100
AcDbEntity
  8
MAIN0
  6
CONTINUOUS
 62
3
100
AcDbLeader
  3
MAIN001
 73
     0
 74
     0
 75
     1
 40
3.099999904632568
 41
29.59100080823896
 76
     3
 10
504.7300682713876
 20
278.6868827012360
 30
0.0000000000000000
 10
518.6162829848391
 20
293.4778326199895
 30
0.0000000000000000
 10
520.5412829290492
 20
293.4778326199895
 30
0.0000000000000000
340
10A
213
0.0000000000000000
223
-0.5000000000000000
233
0.0000000000000000
1001
ACAD
1000
DSTYLE
1002
{
1070
   147
1040
0.0
1070
    77
1070
     1
1070
   173
1070
     1
1070
     6
1000
_OPEN
1070
     7
1000
_OPEN
1002
}
  0
MTEXT
  5
10A
102
{ACAD_REACTORS
330
109
102
}
100
AcDbEntity
  8
MAIN0
  6
CONTINUOUS
 62
3
100
AcDbMText
 10
520.5422829290492
 20
297.0778325246221
 30
0.0000000000000000
 40
3.099999904632568
 41
0.0000000000000000
 71
     1
 72
     1
  1
{\H0.93x;{2-M6 ねじ深12\PDepth 12}}
 11
1.000000000000000
 21
0.0000000000000000
 31
0.0000000000000000
  7
KNJYOKO
  0
DIMENSION
  5
113
100
AcDbEntity
  8
MAIN0
  6
CONTINUOUS
 62
3
100
AcDbDimension
  2
*D18
 10
490.7346119735615
 20
195.5110480761012
 30
0.0000000000000000
 11
490.2346119735615
 21
208.4245616775348
 31
0.0000000000000000
 70
160
  1
\A1;\U+22054.2
  3
MAIN001
100
AcDbAlignedDimension
 13
511.7642172585789
 23
199.7110480763162
 33
0.0000000000000000
 14
511.7642172585789
 24
195.5110480761012
 34
0.0000000000000000
 50
90.00000000000000
100
AcDbRotatedDimension
1001
ACAD
1000
DSTYLE
1002
{
1070
   173
1070
     1
1070
     6
1000
_OPEN
1070
     7
1000
_OPEN
1070
    41
1040
2.000000
1070
   287
1070
     0
1002
}
  0
DIMENSION
  5
11E
100
AcDbEntity
  8
MAIN0
  6
CONTINUOUS
 62
3
100
AcDbDimension
  2
*D19
 10
465.3977116951274
 20
201.6110480763719
 30
0.0000000000000000
 11
464.8977116951274
 21
197.6110480762025
 31
0.0000000000000000
 70
32
  1
\A1;\U+22058
  3
MAIN001
100
AcDbAlignedDimension
 13
477.5642172585813
 23
193.6110480760221
 33
0.0000000000000000
 14
477.5642172585767
 24
201.6110480763688
 34
0.0000000000000000
 50
90.00000000000000
100
AcDbRotatedDimension
1001
ACAD
1000
DSTYLE
1002
{
1070
   173
1070
     1
1070
     6
1000
_OPEN
1070
     7
1000
_OPEN
1070
    41
1040
2.000000
1070
   287
1070
     0
1002
}
  0
DIMENSION
  5
127
100
AcDbEntity
  8
MAIN0
  6
CONTINUOUS
 62
3
100
AcDbDimension
  2
*D20
 10
484.5642172585768
 20
173.6940833769447
 30
0.0000000000000000
 11
481.0642172585779
 21
174.1940833769447
 31
0.0000000000000000
 70
32
  3
MAIN001
100
AcDbAlignedDimension
 13
477.5642172585790
 23
185.6110480762395
 33
0.0000000000000000
 14
484.5642172585813
 24
193.6110480760331
 34
0.0000000000000000
100
AcDbRotatedDimension
1001
ACAD
1000
DSTYLE
1002
{
1070
   173
1070
     1
1070
     6
1000
_OPEN
1070
     7
1000
_OPEN
1070
    41
1040
2.000000
1002
}
  0
DIMENSION
  5
130
100
AcDbEntity
  8
MAIN0
  6
CONTINUOUS
 62
3
100
AcDbDimension
  2
*D21
 10
512.5642172585790
 20
302.5860721147199
 30
0.0000000000000000
 11
495.0642172585790
 21
303.0860721147199
 31
0.0000000000000000
 70
32
  3
MAIN001
100
AcDbAlignedDimension
 13
477.5642172585790
 23
281.6110480762396
 33
0.0000000000000000
 14
512.5642172585790
 24
281.6110480762396
 34
0.0000000000000000
100
AcDbRotatedDimension
1001
ACAD
1000
DSTYLE
1002
{
1070
   173
1070
     1
1070
     6
1000
_OPEN
1070
     7
1000
_OPEN
1070
    41
1040
2.000000
1002
}
  0
DIMENSION
  5
13B
100
AcDbEntity
  8
MAIN0
  6
CONTINUOUS
 62
3
100
AcDbDimension
  2
*D22
 10
477.5642172585790
 20
302.5860721147199
 30
0.0000000000000000
 11
470.0535799271625
 21
303.0860721147199
 31
0.0000000000000000
 70
160
  1
\A1;(1)
  3
MAIN001
100
AcDbAlignedDimension
 13
476.5642172585755
 23
282.7110480762534
 33
0.0000000000000000
 14
477.5642172585790
 24
281.6110480762396
 34
0.0000000000000000
100
AcDbRotatedDimension
1001
ACAD
1000
DSTYLE
1002
{
1070
   173
1070
     1
1070
     6
1000
_OPEN
1070
     7
1000
_OPEN
1070
    41
1040
2.000000
1070
   287
1070
     0
1002
}
  0
MTEXT
  5
13C
100
AcDbEntity
  8
MAIN0
  6
CONTINUOUS
 62
3
100
AcDbMText
 10
435.2479716204514
 20
240.5623420299265
 30
0.0000000000000000
 40
3.099999904632568
 41
0.0000000000000000
 71
     1
 72
     1
  1
{\H0.66x;{MIN 18.7}}
 11
6.123233995736766e-017
 21
1.000000000000000
 31
0.0000000000000000
  7
STANDARD
  0
DIMENSION
  5
146
100
AcDbEntity
  8
MAIN0
  6
CONTINUOUS
 62
3
100
AcDbDimension
  2
*D23
 10
477.0642172585790
 20
247.6707184364876
 30
0.0000000000000000
 11
470.6768047588734
 21
248.1707184364876
 31
0.0000000000000000
 70
160
  3
MAIN001
100
AcDbAlignedDimension
 13
477.5642172585790
 23
281.6110480762396
 33
0.0000000000000000
 14
477.0642172585790
 24
244.6110480765978
 34
0.0000000000000000
100
AcDbRotatedDimension
1001
ACAD
1000
DSTYLE
1002
{
1070
   173
1070
     1
1070
     6
1000
_OPEN
1070
     7
1000
_OPEN
1070
    41
1040
2.000000
1070
   287
1070
     0
1002
}
  0
DIMENSION
  5
14F
100
AcDbEntity
  8
MAIN0
  6
CONTINUOUS
 62
3
100
AcDbDimension
  2
*D24
 10
512.5642172585790
 20
173.6940833769447
 30
0.0000000000000000
 11
507.5642172585773
 21
174.1940833769447
 31
0.0000000000000000
 70
32
  3
MAIN001
100
AcDbAlignedDimension
 13
502.5642172585789
 23
185.0110480762394
 33
0.0000000000000000
 14
512.5642172585790
 24
185.6110480762395
 34
0.0000000000000000
100
AcDbRotatedDimension
1001
ACAD
1000
DSTYLE
1002
{
1070
   173
1070
     1
1070
     6
1000
_OPEN
1070
     7
1000
_OPEN
1070
    41
1040
2.000000
1002
}
  0
DIMENSION
  5
15A
100
AcDbEntity
  8
MAIN0
  6
CONTINUOUS
 62
3
100
AcDbDimension
  2
*D25
 10
344.2509622873144
 20
66.85055370836922
 30
0.0000000000000000
 11
338.1385269044466
 21
67.35055370836922
 31
0.0000000000000000
 70
160
  3
MAIN001
100
AcDbAlignedDimension
 13
350.4509622876660
 23
97.82077921058917
 33
0.0000000000000000
 14
344.2509622873018
 24
85.04716351142697
 34
0.0000000000000000
100
AcDbRotatedDimension
1001
ACAD
1000
DSTYLE
1002
{
1070
   173
1070
     1
1070
     6
1000
_OPEN
1070
     7
1000
_OPEN
1070
    41
1040
2.000000
1070
   287
1070
     0
1002
}
  0
DIMENSION
  5
163
100
AcDbEntity
  8
MAIN0
  6
CONTINUOUS
 62
3
100
AcDbDimension
  2
*D26
 10
350.4509622876534
 20
66.85055370836922
 30
0.0000000000000000
 11
361.8509622872448
 21
67.35055370836922
 31
0.0000000000000000
 70
32
  3
MAIN001
100
AcDbAlignedDimension
 13
373.2509622868363
 23
97.60655432355586
 33
0.0000000000000000
 14
350.4509622876660
 24
97.82077921058917
 34
0.0000000000000000
100
AcDbRotatedDimension
1001
ACAD
1000
DSTYLE
1002
{
1070
   173
1070
     1
1070
     6
1000
_OPEN
1070
     7
1000
_OPEN
1070
    41
1040
2.000000
1002
}
  0
DIMENSION
  5
16C
100
AcDbEntity
  8
MAIN0
  6
CONTINUOUS
 62
3
100
AcDbDimension
  2
*D27
 10
373.2509622868363
 20
66.85055370836922
 30
0.0000000000000000
 11
387.0009622869250
 21
67.35055370836922
 31
0.0000000000000000
 70
32
  3
MAIN001
100
AcDbAlignedDimension
 13
400.7509622870137
 23
81.99940891130926
 33
0.0000000000000000
 14
373.2509622868363
 24
97.60655432355586
 34
0.0000000000000000
100
AcDbRotatedDimension
1001
ACAD
1000
DSTYLE
1002
{
1070
   173
1070
     1
1070
     6
1000
_OPEN
1070
     7
1000
_OPEN
1070
    41
1040
2.000000
1002
}
  0
DIMENSION
  5
175
100
AcDbEntity
  8
MAIN0
  6
CONTINUOUS
 62
3
100
AcDbDimension
  2
*D28
 10
378.7509622872771
 20
74.91982041668922
 30
0.0000000000000000
 11
389.7509622871454
 21
75.41982041668922
 31
0.0000000000000000
 70
32
  3
MAIN001
100
AcDbAlignedDimension
 13
400.7509622870137
 23
81.99940891130926
 33
0.0000000000000000
 14
378.7509622873020
 24
87.78368772067572
 34
0.0000000000000000
100
AcDbRotatedDimension
1001
ACAD
1000
DSTYLE
1002
{
1070
   173
1070
     1
1070
     6
1000
_OPEN
1070
     7
1000
_OPEN
1070
    41
1040
2.000000
1002
}
  0
DIMENSION
  5
17F
100
AcDbEntity
  8
MAIN0
  6
CONTINUOUS
 62
3
100
AcDbDimension
  2
*D29
 10
367.4216591926590
 20
84.84716351142689
 30
0.0000000000000000
 11
366.9216591926590
 21
88.09716351141674
 31
0.0000000000000000
 70
32
  3
MAIN001
100
AcDbAlignedDimension
 13
374.9548691144057
 23
91.34716351140659
 33
0.0000000000000000
 14
344.4509622873019
 24
84.84716351142689
 34
0.0000000000000000
 50
90.00000000000000
100
AcDbRotatedDimension
1001
ACAD
1000
DSTYLE
1002
{
1070
   173
1070
     1
1070
     6
1000
_OPEN
1070
     7
1000
_OPEN
1070
    41
1040
2.000000
1070
   287
1070
     0
1002
}
  0
DIMENSION
  5
188
100
AcDbEntity
  8
MAIN0
  6
CONTINUOUS
 62
3
100
AcDbDimension
  2
*D30
 10
331.8157072615605
 20
84.84716351142689
 30
0.0000000000000000
 11
331.3157072615605
 21
93.34716351142649
 31
0.0000000000000000
 70
32
  3
MAIN001
100
AcDbAlignedDimension
 13
345.6087197224169
 23
101.8471635114261
 33
0.0000000000000000
 14
344.4509622873019
 24
84.84716351142689
 34
0.0000000000000000
 50
90.00000000000000
100
AcDbRotatedDimension
1001
ACAD
1000
DSTYLE
1002
{
1070
   173
1070
     1
1070
     6
1000
_OPEN
1070
     7
1000
_OPEN
1070
    41
1040
2.000000
1002
}
  0
MTEXT
  5
189
100
AcDbEntity
  8
MAIN0
  6
CONTINUOUS
 62
3
100
AcDbMText
 10
298.9222964273783
 20
143.9679106847956
 30
0.0000000000000000
 40
3.099999904632568
 41
0.0000000000000000
 71
     1
 72
     1
  1
{\H0.84x;{★}}
 11
1.000000000000000
 21
0.0000000000000000
 31
0.0000000000000000
  7
KNJYOKO
  0
MTEXT
  5
18A
100
AcDbEntity
  8
MAIN0
  6
CONTINUOUS
 62
3
100
AcDbMText
 10
298.9573776226913
 20
124.9797571376982
 30
0.0000000000000000
 40
3.099999904632568
 41
0.0000000000000000
 71
     1
 72
     1
  1
{\H0.84x;{★}}
 11
1.000000000000000
 21
0.0000000000000000
 31
0.0000000000000000
  7
KNJYOKO
  0
LEADER
  5
18B
100
AcDbEntity
  8
MAIN0
  6
CONTINUOUS
 62
3
100
AcDbLeader
  3
MAIN001
 73
     0
 75
     1
 40
3.099999904632568
 41
24.72900073432925
 76
     3
 10
371.3909487165311
 20
103.5175974425436
 30
0.0000000000000000
 10
329.5804582604072
 20
141.0666041004648
 30
0.0000000000000000
 10
327.6534583161972
 20
141.0666041004648
 30
0.0000000000000000
340
18C
213
0.0000000000000000
223
-0.5000000000000000
233
0.0000000000000000
1001
ACAD
1000
DSTYLE
1002
{
1070
   147
1040
0.0
1070
    77
1070
     1
1070
   173
1070
     1
1070
     6
1000
_OPEN
1070
     7
1000
_OPEN
1002
}
  0
MTEXT
  5
18C
102
{ACAD_REACTORS
330
18B
102
}
100
AcDbEntity
  8
MAIN0
  6
CONTINUOUS
 62
3
100
AcDbMText
 10
302.9244575818680
 20
144.6666040050974
 30
0.0000000000000000
 40
3.099999904632568
 41
0.0000000000000000
 71
     1
 72
     1
  1
{\H0.93x;{開ポート　M5\POpen Port}}
 11
1.000000000000000
 21
0.0000000000000000
 31
0.0000000000000000
  7
KNJYOKO
  0
LEADER
  5
18D
100
AcDbEntity
  8
MAIN0
  6
CONTINUOUS
 62
3
100
AcDbLeader
  3
MAIN001
 73
     0
 75
     1
 40
3.099999904632568
 41
27.51900081539156
 76
     3
 10
348.7609123445496
 20
103.6893717487822
 30
0.0000000000000000
 10
331.7492145818277
 20
122.2326638436146
 30
0.0000000000000000
 10
329.8222146376177
 20
122.2326638436146
 30
0.0000000000000000
340
18E
213
0.0000000000000000
223
-0.5000000000000000
233
0.0000000000000000
1001
ACAD
1000
DSTYLE
1002
{
1070
   147
1040
0.0
1070
    77
1070
     1
1070
   173
1070
     1
1070
     6
1000
_OPEN
1070
     7
1000
_OPEN
1002
}
  0
MTEXT
  5
18E
102
{ACAD_REACTORS
330
18D
102
}
100
AcDbEntity
  8
MAIN0
  6
CONTINUOUS
 62
3
100
AcDbMText
 10
302.3032138222261
 20
125.8326637482471
 30
0.0000000000000000
 40
3.099999904632568
 41
0.0000000000000000
 71
     1
 72
     1
  1
{\H0.93x;{閉ポート　M5\PClose Port\P\P}
 11
1.000000000000000
 21
0.0000000000000000
 31
0.0000000000000000
  7
KNJYOKO
  0
LEADER
  5
18F
100
AcDbEntity
  8
MAIN0
  6
CONTINUOUS
 62
3
100
AcDbLeader
  3
MAIN001
 73
     0
 74
     0
 75
     1
 40
3.099999904632568
 41
52.40100003576276
 76
     3
 10
379.8407932111535
 20
93.59711207913134
 30
0.0000000000000000
 10
391.0151524025460
 20
137.5216877568510
 30
0.0000000000000000
 10
392.8001523498853
 20
137.5216877568510
 30
0.0000000000000000
340
190
213
0.0000000000000000
223
-0.5000000000000000
233
0.0000000000000000
1001
ACAD
1000
DSTYLE
1002
{
1070
   147
1040
0.0
1070
    77
1070
     1
1070
   173
1070
     1
1070
     6
1000
_OPEN
1070
     7
1000
_OPEN
1002
}
  0
MTEXT
  5
190
102
{ACAD_REACTORS
330
18F
102
}
100
AcDbEntity
  8
MAIN0
  6
CONTINUOUS
 62
3
100
AcDbMText
 10
392.8011523498853
 20
141.1216876614836
 30
0.0000000000000000
 40
3.099999904632568
 41
0.0000000000000000
 71
     1
 72
     1
  1
{\H0.71x;{M5 ねじ深5 (エアパージ用)\PM5 Depth5 (For Air Purge)}}
 11
1.000000000000000
 21
0.0000000000000000
 31
0.0000000000000000
  7
KNJYOKO
  0
DIMENSION
  5
19A
100
AcDbEntity
  8
MAIN0
  6
CONTINUOUS
 62
3
100
AcDbDimension
  2
*D31
 10
396.7509622870258
 20
322.1088558194265
 30
0.0000000000000000
 11
414.1803625877898
 21
322.6088558194265
 31
0.0000000000000000
 70
160
  1
\A1;4-\U+22058h7
  3
MAIN001
100
AcDbAlignedDimension
 13
404.7509622870258
 23
329.6110480762545
 33
0.0000000000000000
 14
396.7509622870258
 24
329.6110480762545
 34
0.0000000000000000
100
AcDbRotatedDimension
1001
ACAD
1000
DSTYLE
1002
{
1070
   173
1070
     1
1070
     6
1000
_OPEN
1070
     7
1000
_OPEN
1070
    41
1040
2.000000
1002
}
  0
DIMENSION
  5
1A3
100
AcDbEntity
  8
MAIN0
  6
CONTINUOUS
 62
3
100
AcDbDimension
  2
*D32
 10
394.0009622868668
 20
314.0173579812429
 30
0.0000000000000000
 11
400.7509622870355
 21
314.5173579812429
 31
0.0000000000000000
 70
32
  3
MAIN001
100
AcDbAlignedDimension
 13
407.5009622872043
 23
333.6110480762519
 33
0.0000000000000000
 14
394.0009622868668
 24
332.8110480762574
 34
0.0000000000000000
100
AcDbRotatedDimension
1001
ACAD
1000
DSTYLE
1002
{
1070
   173
1070
     1
1070
     6
1000
_OPEN
1070
     7
1000
_OPEN
1070
    41
1040
2.000000
1002
}
  0
DIMENSION
  5
1AC
100
AcDbEntity
  8
MAIN0
  6
CONTINUOUS
 62
3
100
AcDbDimension
  2
*D33
 10
442.0458186227435
 20
368.6110480762243
 30
0.0000000000000000
 11
441.5458186227435
 21
350.6110480762391
 31
0.0000000000000000
 70
32
  3
MAIN001
100
AcDbAlignedDimension
 13
407.3009622872313
 23
332.6110480762538
 33
0.0000000000000000
 14
420.7509622871769
 24
368.6110480762666
 34
0.0000000000000000
 50
90.00000000000000
100
AcDbRotatedDimension
1001
ACAD
1000
DSTYLE
1002
{
1070
   173
1070
     1
1070
     6
1000
_OPEN
1070
     7
1000
_OPEN
1070
    41
1040
2.000000
1002
}
  0
DIMENSION
  5
1B7
100
AcDbEntity
  8
MAIN0
  6
CONTINUOUS
 62
3
100
AcDbDimension
  2
*D34
 10
442.0458186227435
 20
329.6110480762546
 30
0.0000000000000000
 11
441.5458186227435
 21
324.8061026607991
 31
0.0000000000000000
 70
160
  3
MAIN001
100
AcDbAlignedDimension
 13
407.3009622872313
 23
332.6110480762538
 33
0.0000000000000000
 14
404.7509622870258
 24
329.6110480762546
 34
0.0000000000000000
 50
90.00000000000000
100
AcDbRotatedDimension
1001
ACAD
1000
DSTYLE
1002
{
1070
   173
1070
     1
1070
     6
1000
_OPEN
1070
     7
1000
_OPEN
1070
    41
1040
2.000000
1070
   287
1070
     0
1002
}
  0
LEADER
  5
1B8
100
AcDbEntity
  8
MAIN0
  6
CONTINUOUS
 62
3
100
AcDbLeader
  3
MAIN001
 73
     0
 75
     1
 40
3.099999904632568
 41
30.27900080585479
 76
     3
 10
81.50625855379387
 20
195.7619809564389
 30
0.0000000000000000
 10
69.38856464134263
 20
185.9427265327641
 30
0.0000000000000000
 10
67.46156469713257
 20
185.9427265327641
 30
0.0000000000000000
340
1B9
213
0.0000000000000000
223
-0.5000000000000000
233
0.0000000000000000
1001
ACAD
1000
DSTYLE
1002
{
1070
   147
1040
0.0
1070
    77
1070
     1
1070
   173
1070
     1
1070
     6
1000
_OPEN
1070
     7
1000
_OPEN
1002
}
  0
MTEXT
  5
1B9
102
{ACAD_REACTORS
330
1B8
102
}
100
AcDbEntity
  8
MAIN0
  6
CONTINUOUS
 62
3
100
AcDbMText
 10
37.18256389127778
 20
189.5427264373967
 30
0.0000000000000000
 40
3.099999904632568
 41
0.0000000000000000
 71
     1
 72
     1
  1
{\H0.93x;{4-M5　ねじ深10\PDepth 10 }}
 11
1.000000000000000
 21
0.0000000000000000
 31
0.0000000000000000
  7
KNJYOKO
  0
LEADER
  5
1BA
100
AcDbEntity
  8
MAIN0
  6
CONTINUOUS
 62
3
100
AcDbLeader
  3
MAIN001
 73
     0
 74
     0
 75
     1
 40
3.099999904632568
 41
51.82100118494043
 76
     3
 10
505.9712643969506
 20
290.7110480762395
 30
0.0000000000000000
 10
510.3497662651534
 20
317.8145243935032
 30
0.0000000000000000
 10
512.2747662093634
 20
317.8145243935032
 30
0.0000000000000000
340
1BB
213
-0.001000000000090040
223
-0.5000000000000000
233
0.0000000000000000
1001
ACAD
1000
DSTYLE
1002
{
1070
   147
1040
0.0
1070
    77
1070
     1
1070
   173
1070
     1
1070
     6
1000
_OPEN
1070
     7
1000
_OPEN
1002
}
  0
MTEXT
  5
1BB
102
{ACAD_REACTORS
330
1BA
102
}
100
AcDbEntity
  8
MAIN0
  6
CONTINUOUS
 62
3
100
AcDbMText
 10
512.2757662093635
 20
321.4145242981358
 30
0.0000000000000000
 40
3.099999904632568
 41
0.0000000000000000
 71
     1
 72
     1
  1
{\H0.94x;{グリースニップルを取付けた場合}}
 11
1.000000000000000
 21
0.0000000000000000
 31
0.0000000000000000
  7
KNJYOKO
  0
MTEXT
  5
1BC
100
AcDbEntity
  8
MAIN0
  6
CONTINUOUS
 62
3
100
AcDbMText
 10
512.5620282563065
 20
317.2505694934787
 30
0.0000000000000000
 40
3.099999904632568
 41
0.0000000000000000
 71
     1
 72
     1
  1
{\H0.70x;{When attaching a grease nipple.}}
 11
1.000000000000000
 21
0.0000000000000000
 31
0.0000000000000000
  7
STANDARD
  0
DIMENSION
  5
1C4
100
AcDbEntity
  8
MAIN0
  6
CONTINUOUS
 62
3
100
AcDbDimension
  2
*D35
 10
498.7537011642594
 20
291.5803968258309
 30
0.0000000000000000
 11
498.2537011642594
 21
287.0957224510352
 31
0.0000000000000000
 70
32
  3
MAIN001
100
AcDbAlignedDimension
 13
511.5642172585790
 23
282.6110480762396
 33
0.0000000000000000
 14
504.5642172585756
 24
291.5803968258309
 34
0.0000000000000000
 50
90.00000000000000
100
AcDbRotatedDimension
1001
ACAD
1000
DSTYLE
1002
{
1070
   173
1070
     1
1070
     6
1000
_OPEN
1070
     7
1000
_OPEN
1070
    41
1040
2.000000
1002
}
  0
DIMENSION
  5
1CD
100
AcDbEntity
  8
MAIN0
  6
CONTINUOUS
 62
3
100
AcDbDimension
  2
*D36
 10
330.7509622867375
 20
244.6110480762254
 30
0.0000000000000000
 11
330.2509622867375
 21
233.6110480762254
 31
0.0000000000000000
 70
32
  3
MAIN001
100
AcDbAlignedDimension
 13
344.2509622867191
 23
222.6110480762254
 33
0.0000000000000000
 14
344.2509622867191
 24
244.6110480762254
 34
0.0000000000000000
 50
90.00000000000000
100
AcDbRotatedDimension
1001
ACAD
1000
DSTYLE
1002
{
1070
   173
1070
     1
1070
     6
1000
_OPEN
1070
     7
1000
_OPEN
1070
    41
1040
2.000000
1002
}
  0
DIMENSION
  5
1D6
100
AcDbEntity
  8
MAIN0
  6
CONTINUOUS
 62
3
100
AcDbDimension
  2
*D37
 10
322.2116914572821
 20
368.6110480762243
 30
0.0000000000000000
 11
321.7116914572821
 21
350.1110480762243
 31
0.0000000000000000
 70
32
  3
MAIN001
100
AcDbAlignedDimension
 13
344.2509622872984
 23
331.6110480762242
 33
0.0000000000000000
 14
344.4509622872984
 24
368.6110480762243
 34
0.0000000000000000
 50
90.00000000000000
100
AcDbRotatedDimension
1001
ACAD
1000
DSTYLE
1002
{
1070
   173
1070
     1
1070
     6
1000
_OPEN
1070
     7
1000
_OPEN
1070
    41
1040
2.000000
1002
}
  0
DIMENSION
  5
1DF
100
AcDbEntity
  8
MAIN0
  6
CONTINUOUS
 62
3
100
AcDbDimension
  2
*D38
 10
433.5596600770343
 20
332.6110480762538
 30
0.0000000000000000
 11
433.0596600770343
 21
337.6110480762640
 31
0.0000000000000000
 70
32
  3
MAIN001
100
AcDbAlignedDimension
 13
403.2509622870128
 23
342.6110480762742
 33
0.0000000000000000
 14
407.3009622872313
 24
332.6110480762538
 34
0.0000000000000000
 50
90.00000000000000
100
AcDbRotatedDimension
1001
ACAD
1000
DSTYLE
1002
{
1070
   173
1070
     1
1070
     6
1000
_OPEN
1070
     7
1000
_OPEN
1070
    41
1040
2.000000
1002
}
  0
LEADER
  5
1E0
100
AcDbEntity
  8
MAIN0
  6
CONTINUOUS
 62
3
100
AcDbLeader
  3
MAIN001
 73
     0
 75
     1
 40
3.099999904632568
 41
17.04900048875811
 76
     3
 10
398.2509622870130
 20
340.3890119866879
 30
0.0000000000000000
 10
382.5213877459573
 20
321.7984755621559
 30
0.0000000000000000
 10
380.5943878017473
 20
321.7984755621559
 30
0.0000000000000000
340
1E1
213
0.0000000000000000
223
-0.5000000000000000
233
0.0000000000000000
1001
ACAD
1000
DSTYLE
1002
{
1070
   147
1040
0.0
1070
    77
1070
     1
1070
   173
1070
     1
1070
     6
1000
_OPEN
1070
     7
1000
_OPEN
1002
}
  0
MTEXT
  5
1E1
102
{ACAD_REACTORS
330
1E0
102
}
100
AcDbEntity
  8
MAIN0
  6
CONTINUOUS
 62
3
100
AcDbMText
 10
363.5453873129891
 20
325.3984754667885
 30
0.0000000000000000
 40
3.099999904632568
 41
0.0000000000000000
 71
     1
 72
     1
  1
{\H0.92x;{2×2-M5}}
 11
1.000000000000000
 21
0.0000000000000000
 31
0.0000000000000000
  7
KNJYOKO
  0
LEADER
  5
1E2
100
AcDbEntity
  8
MAIN0
  6
CONTINUOUS
 62
3
100
AcDbLeader
  3
MAIN001
 73
     0
 75
     1
 40
3.099999904632568
 41
26.79900072717669
 76
     3
 10
374.8455073337990
 20
274.3943459560628
 30
0.0000000000000000
 10
363.3324522769262
 20
297.0693632025427
 30
0.0000000000000000
 10
361.4054523327162
 20
297.0693632025427
 30
0.0000000000000000
340
1E3
213
0.0000000000000000
223
-0.5000000000000000
233
0.0000000000000000
1001
ACAD
1000
DSTYLE
1002
{
1070
   147
1040
0.0
1070
    77
1070
     1
1070
   173
1070
     1
1070
     6
1000
_OPEN
1070
     7
1000
_OPEN
1002
}
  0
MTEXT
  5
1E3
102
{ACAD_REACTORS
330
1E2
102
}
100
AcDbEntity
  8
MAIN0
  6
CONTINUOUS
 62
3
100
AcDbMText
 10
334.6064516055395
 20
300.6693631071753
 30
0.0000000000000000
 40
3.099999904632568
 41
0.0000000000000000
 71
     1
 72
     1
  1
{\H0.93x;{2-M4 ねじ深8\PDepth 8}}
 11
1.000000000000000
 21
0.0000000000000000
 31
0.0000000000000000
  7
KNJYOKO
  0
DIMENSION
  5
1EC
100
AcDbEntity
  8
MAIN0
  6
CONTINUOUS
 62
3
100
AcDbDimension
  2
*D39
 10
322.7509622867375
 20
272.6110480762254
 30
0.0000000000000000
 11
322.2509622867375
 21
233.6110480762254
 31
0.0000000000000000
 70
32
  3
MAIN001
100
AcDbAlignedDimension
 13
372.6941217151289
 23
194.6110480762254
 33
0.0000000000000000
 14
372.6941217151289
 24
272.6110480762254
 34
0.0000000000000000
 50
90.00000000000000
100
AcDbRotatedDimension
1001
ACAD
1000
DSTYLE
1002
{
1070
   173
1070
     1
1070
     6
1000
_OPEN
1070
     7
1000
_OPEN
1070
    41
1040
2.000000
1002
}
  0
DIMENSION
  5
1F5
100
AcDbEntity
  8
MAIN0
  6
CONTINUOUS
 62
3
100
AcDbDimension
  2
*D40
 10
375.7509622867192
 20
176.0036550492121
 30
0.0000000000000000
 11
388.2509622868413
 21
176.5036550492121
 31
0.0000000000000000
 70
32
  3
MAIN001
100
AcDbAlignedDimension
 13
400.7509622869635
 23
179.8573851622687
 33
0.0000000000000000
 14
375.7509622867192
 24
191.4887238720674
 34
0.0000000000000000
100
AcDbRotatedDimension
1001
ACAD
1000
DSTYLE
1002
{
1070
   173
1070
     1
1070
     6
1000
_OPEN
1070
     7
1000
_OPEN
1070
    41
1040
2.000000
1002
}
  0
DIMENSION
  5
1FE
100
AcDbEntity
  8
MAIN0
  6
CONTINUOUS
 62
3
100
AcDbDimension
  2
*D41
 10
332.4316117834441
 20
368.6110480762243
 30
0.0000000000000000
 11
331.9316117834441
 21
352.3610480762243
 31
0.0000000000000000
 70
32
  3
MAIN001
100
AcDbAlignedDimension
 13
344.2509622872957
 23
336.1110480762242
 33
0.0000000000000000
 14
344.4509622872984
 24
368.6110480762243
 34
0.0000000000000000
 50
90.00000000000000
100
AcDbRotatedDimension
1001
ACAD
1000
DSTYLE
1002
{
1070
   173
1070
     1
1070
     6
1000
_OPEN
1070
     7
1000
_OPEN
1070
    41
1040
2.000000
1002
}
  0
LEADER
  5
1FF
100
AcDbEntity
  8
MAIN0
  6
CONTINUOUS
 62
3
100
AcDbLeader
  3
MAIN001
 73
     0
 74
     0
 75
     1
 40
3.099999904632568
 41
83.32100243663786
 76
     3
 10
414.8622589376082
 20
224.3419477253423
 30
0.0000000000000000
 10
431.0498311285797
 20
164.2545486834574
 30
0.0000000000000000
 10
432.9748310727898
 20
164.2545486834574
 30
0.0000000000000000
340
200
213
0.0000000000000000
223
-0.5000000000000000
233
0.0000000000000000
1001
ACAD
1000
DSTYLE
1002
{
1070
   147
1040
0.0
1070
    77
1070
     1
1070
   173
1070
     1
1070
     6
1000
_OPEN
1070
     7
1000
_OPEN
1002
}
  0
MTEXT
  5
200
102
{ACAD_REACTORS
330
1FF
102
}
100
AcDbEntity
  8
MAIN0
  6
CONTINUOUS
 62
3
100
AcDbMText
 10
432.9758310727898
 20
167.8545485880900
 30
0.0000000000000000
 40
3.099999904632568
 41
0.0000000000000000
 71
     1
 72
     1
  1
{\H0.94x;{十字穴付皿小ねじ 4-M2.5×6\PCross Recessed Flat Head Screw}}
 11
1.000000000000000
 21
0.0000000000000000
 31
0.0000000000000000
  7
KNJYOKO
  0
HATCH
  5
201
100
AcDbEntity
  8
MAIN0
  6
CONTINUOUS
 62
3
100
AcDbHatch
 10
0.000000
 20
0.000000
 30
0.000000
210
0.000000
220
0.000000
230
1.000000
  2
SOLID
 70
1
 71
0
 91
1
 92
7
 72
1
 73
1
 93
3
 10
99.18880150591096
 20
203.6110480762306
 42
-0.4142135623730763
 10
101.6888015059109
 20
201.1110480762307
 42
0.0000000000000000
 10
99.18880150591096
 20
201.1110480762306
 42
0.0000000000000000
 97
0
 75
0
 76
1
 47
0.100000
 98
1
 10
0.000000
 20
0.000000
  0
HATCH
  5
202
100
AcDbEntity
  8
MAIN0
  6
CONTINUOUS
 62
3
100
AcDbHatch
 10
0.000000
 20
0.000000
 30
0.000000
210
0.000000
220
0.000000
230
1.000000
  2
SOLID
 70
1
 71
0
 91
1
 92
7
 72
1
 73
1
 93
3
 10
99.18880150591096
 20
201.1110480762306
 42
0.0000000000000000
 10
99.18880150591096
 20
198.6110480762306
 42
-0.4142135623730827
 10
96.68880150591093
 20
201.1110480762305
 42
0.0000000000000000
 97
0
 75
0
 76
1
 47
0.100000
 98
1
 10
0.000000
 20
0.000000
  0
HATCH
  5
203
100
AcDbEntity
  8
MAIN0
  6
CONTINUOUS
 62
3
100
AcDbHatch
 10
0.000000
 20
0.000000
 30
0.000000
210
0.000000
220
0.000000
230
1.000000
  2
SOLID
 70
1
 71
0
 91
1
 92
7
 72
1
 73
1
 93
3
 10
101.6888015059087
 20
266.1110480762305
 42
0.0000000000000000
 10
99.18880150591099
 20
266.1110480762304
 42
0.0000000000000000
 10
99.18880150591099
 20
268.6110480762305
 42
-0.4142135623728276
 97
0
 75
0
 76
1
 47
0.100000
 98
1
 10
0.000000
 20
0.000000
  0
HATCH
  5
204
100
AcDbEntity
  8
MAIN0
  6
CONTINUOUS
 62
3
100
AcDbHatch
 10
0.000000
 20
0.000000
 30
0.000000
210
0.000000
220
0.000000
230
1.000000
  2
SOLID
 70
1
 71
0
 91
1
 92
7
 72
1
 73
1
 93
3
 10
99.18880150591099
 20
266.1110480762304
 42
0.0000000000000000
 10
99.18880150591099
 20
263.6110480762305
 42
-0.4142135623733538
 10
96.68880150590866
 20
266.1110480762304
 42
0.0000000000000000
 97
0
 75
0
 76
1
 47
0.100000
 98
1
 10
0.000000
 20
0.000000
  0
HATCH
  5
205
100
AcDbEntity
  8
MAIN0
  6
CONTINUOUS
 62
3
100
AcDbHatch
 10
0.000000
 20
0.000000
 30
0.000000
210
0.000000
220
0.000000
230
1.000000
  2
SOLID
 70
1
 71
0
 91
1
 92
7
 72
1
 73
1
 93
3
 10
502.5642172585768
 20
247.6110480762470
 42
-0.4142135623730971
 10
505.5642172585770
 20
244.6110480762472
 42
0.0000000000000000
 10
502.5642172585769
 20
244.6110480762471
 42
0.0000000000000000
 97
0
 75
0
 76
1
 47
0.100000
 98
1
 10
0.000000
 20
0.000000
  0
HATCH
  5
206
100
AcDbEntity
  8
MAIN0
  6
CONTINUOUS
 62
3
100
AcDbHatch
 10
0.000000
 20
0.000000
 30
0.000000
210
0.000000
220
0.000000
230
1.000000
  2
SOLID
 70
1
 71
0
 91
1
 92
7
 72
1
 73
1
 93
3
 10
499.5642172585770
 20
244.6110480762470
 42
0.0000000000000000
 10
502.5642172585768
 20
244.6110480762471
 42
0.0000000000000000
 10
502.5642172585770
 20
241.6110480762470
 42
-0.4142135623730999
 97
0
 75
0
 76
1
 47
0.100000
 98
1
 10
0.000000
 20
0.000000
  0
HATCH
  5
207
100
AcDbEntity
  8
MAIN0
  6
CONTINUOUS
 62
3
100
AcDbHatch
 10
0.000000
 20
0.000000
 30
0.000000
210
0.000000
220
0.000000
230
1.000000
  2
SOLID
 70
1
 71
0
 91
1
 92
7
 72
1
 73
1
 93
3
 10
505.5642172585777
 20
222.6110480762472
 42
0.0000000000000000
 10
502.5642172585776
 20
222.6110480762471
 42
0.0000000000000000
 10
502.5642172585775
 20
225.6110480762470
 42
-0.4142135623731029
 97
0
 75
0
 76
1
 47
0.100000
 98
1
 10
0.000000
 20
0.000000
  0
HATCH
  5
208
100
AcDbEntity
  8
MAIN0
  6
CONTINUOUS
 62
3
100
AcDbHatch
 10
0.000000
 20
0.000000
 30
0.000000
210
0.000000
220
0.000000
230
1.000000
  2
SOLID
 70
1
 71
0
 91
1
 92
7
 72
1
 73
1
 93
3
 10
499.5642172585777
 20
222.6110480762470
 42
0.0000000000000000
 10
502.5642172585776
 20
222.6110480762471
 42
0.0000000000000000
 10
502.5642172585777
 20
219.6110480762470
 42
-0.4142135623730947
 97
0
 75
0
 76
1
 47
0.100000
 98
1
 10
0.000000
 20
0.000000
  0
LINE
  5
209
100
AcDbEntity
  8
MAIN0
  6
CONTINUOUS
 62
3
100
AcDbLine
 10
78.18880150617406
 20
281.6110480762038
 30
0.0000000000000000
 11
78.18880150617403
 21
185.6110480762038
 31
0.0000000000000000
  0
LINE
  5
20A
100
AcDbEntity
  8
MAIN0
  6
CONTINUOUS
 62
3
100
AcDbLine
 10
79.18880150617403
 20
282.6110480762039
 30
0.0000000000000000
 11
78.18880150617403
 21
281.6110480762039
 31
0.0000000000000000
  0
LINE
  5
20B
100
AcDbEntity
  8
MAIN0
  6
CONTINUOUS
 62
3
100
AcDbLine
 10
120.1888015063603
 20
282.6110480762038
 30
0.0000000000000000
 11
79.18880150617417
 21
282.6110480762038
 31
0.0000000000000000
  0
LINE
  5
20C
100
AcDbEntity
  8
MAIN0
  6
CONTINUOUS
 62
3
100
AcDbLine
 10
120.1888015063603
 20
282.6110480762038
 30
0.0000000000000000
 11
120.1888015063603
 21
280.6110480762038
 31
0.0000000000000000
  0
LINE
  5
20D
100
AcDbEntity
  8
MAIN0
  6
CONTINUOUS
 62
3
100
AcDbLine
 10
155.6888015061741
 20
280.6110480762038
 30
0.0000000000000000
 11
120.1888015063603
 21
280.6110480762038
 31
0.0000000000000000
  0
LINE
  5
20E
100
AcDbEntity
  8
MAIN0
  6
CONTINUOUS
 62
3
100
AcDbLine
 10
155.6888015061741
 20
280.6110480762038
 30
0.0000000000000000
 11
155.6888015061740
 21
184.6110480762038
 31
0.0000000000000000
  0
LINE
  5
20F
100
AcDbEntity
  8
MAIN0
  6
CONTINUOUS
 62
3
100
AcDbLine
 10
78.18880150617385
 20
258.6110480762298
 30
0.0000000000000000
 11
155.6888015061741
 21
258.6110480762325
 31
0.0000000000000000
  0
LINE
  5
210
100
AcDbEntity
  8
MAIN0
  6
CONTINUOUS
 62
3
100
AcDbLine
 10
78.18880150617397
 20
208.6110480762298
 30
0.0000000000000000
 11
155.6888015061740
 21
208.6110480762325
 31
0.0000000000000000
  0
LINE
  5
211
100
AcDbEntity
  8
MAIN0
  6
CONTINUOUS
 62
3
100
AcDbLine
 10
78.18880150617400
 20
185.6110480762037
 30
0.0000000000000000
 11
79.18880150617400
 21
184.6110480762037
 31
0.0000000000000000
  0
LINE
  5
212
100
AcDbEntity
  8
MAIN0
  6
CENTER
 62
3
100
AcDbLine
 10
99.18880150591099
 20
286.0873730804181
 30
0.0000000000000000
 11
99.18880150591096
 21
180.5934230999332
 31
0.0000000000000000
  0
CIRCLE
  5
213
100
AcDbEntity
  8
MAIN0
  6
CONTINUOUS
 62
3
100
AcDbCircle
 10
99.18880150591093
 20
201.1110480762306
 30
0.0000000000000000
 40
2.500000000000000
  0
LINE
  5
214
100
AcDbEntity
  8
MAIN0
  6
CENTER
 62
3
100
AcDbLine
 10
94.54218519032374
 20
201.1110480762304
 30
0.0000000000000000
 11
104.5252734510233
 21
201.1110480762308
 31
0.0000000000000000
  0
LINE
  5
215
100
AcDbEntity
  8
MAIN0
  6
CENTER
 62
3
100
AcDbLine
 10
94.54218519032159
 20
266.1110480762303
 30
0.0000000000000000
 11
104.5252734510210
 21
266.1110480762307
 31
0.0000000000000000
  0
CIRCLE
  5
216
100
AcDbEntity
  8
MAIN0
  6
CONTINUOUS
 62
3
100
AcDbCircle
 10
99.18880150590866
 20
266.1110480762305
 30
0.0000000000000000
 40
2.500000000000000
  0
LINE
  5
217
100
AcDbEntity
  8
MAIN0
  6
CENTER
 62
3
100
AcDbLine
 10
115.1888015061740
 20
264.3716302633188
 30
0.0000000000000000
 11
115.1888015061740
 21
275.2653067190041
 31
0.0000000000000000
  0
LINE
  5
218
100
AcDbEntity
  8
MAIN0
  6
CENTER
 62
3
100
AcDbLine
 10
110.2191622627267
 20
269.6110480762038
 30
0.0000000000000000
 11
121.3387068863780
 21
269.6110480762038
 31
0.0000000000000000
  0
CIRCLE
  5
219
100
AcDbEntity
  8
MAIN0
  6
CONTINUOUS
 62
3
100
AcDbCircle
 10
115.1888015061741
 20
269.6110480762037
 30
0.0000000000000000
 40
2.500000000000000
  0
CIRCLE
  5
21A
100
AcDbEntity
  8
MAIN0
  6
CONTINUOUS
 62
3
100
AcDbCircle
 10
115.1888015061741
 20
269.6110480762037
 30
0.0000000000000000
 40
2.100000000000000
  0
CIRCLE
  5
21B
100
AcDbEntity
  8
MAIN0
  6
CONTINUOUS
 62
3
100
AcDbCircle
 10
83.18880150617400
 20
269.6110480762038
 30
0.0000000000000000
 40
2.500000000000000
  0
CIRCLE
  5
21C
100
AcDbEntity
  8
MAIN0
  6
CONTINUOUS
 62
3
100
AcDbCircle
 10
83.18880150617400
 20
269.6110480762038
 30
0.0000000000000000
 40
2.100000000000000
  0
LINE
  5
21D
100
AcDbEntity
  8
MAIN0
  6
CENTER
 62
3
100
AcDbLine
 10
88.15844074962133
 20
269.6110480762037
 30
0.0000000000000000
 11
77.03889612597011
 21
269.6110480762037
 31
0.0000000000000000
  0
LINE
  5
21E
100
AcDbEntity
  8
MAIN0
  6
CENTER
 62
3
100
AcDbLine
 10
83.18880150617402
 20
264.3716302633187
 30
0.0000000000000000
 11
83.18880150617402
 21
275.2653067190040
 31
0.0000000000000000
  0
LINE
  5
21F
100
AcDbEntity
  8
MAIN0
  6
CENTER
 62
3
100
AcDbLine
 10
88.15844074962148
 20
197.6110480762038
 30
0.0000000000000000
 11
77.03889612597025
 21
197.6110480762038
 31
0.0000000000000000
  0
LINE
  5
220
100
AcDbEntity
  8
MAIN0
  6
CENTER
 62
3
100
AcDbLine
 10
83.18880150617416
 20
202.8504658890888
 30
0.0000000000000000
 11
83.18880150617414
 21
191.9567894334036
 31
0.0000000000000000
  0
LINE
  5
221
100
AcDbEntity
  8
MAIN0
  6
CENTER
 62
3
100
AcDbLine
 10
110.2191622627268
 20
197.6110480762039
 30
0.0000000000000000
 11
121.3387068863780
 21
197.6110480762039
 31
0.0000000000000000
  0
LINE
  5
222
100
AcDbEntity
  8
MAIN0
  6
CENTER
 62
3
100
AcDbLine
 10
115.1888015061741
 20
202.8504658890889
 30
0.0000000000000000
 11
115.1888015061741
 21
191.9567894334035
 31
0.0000000000000000
  0
CIRCLE
  5
223
100
AcDbEntity
  8
MAIN0
  6
CONTINUOUS
 62
3
100
AcDbCircle
 10
115.1888015061741
 20
197.6110480762039
 30
0.0000000000000000
 40
2.500000000000000
  0
CIRCLE
  5
224
100
AcDbEntity
  8
MAIN0
  6
CONTINUOUS
 62
3
100
AcDbCircle
 10
115.1888015061741
 20
197.6110480762039
 30
0.0000000000000000
 40
2.100000000000000
  0
LINE
  5
225
100
AcDbEntity
  8
MAIN0
  6
CENTER
 62
3
100
AcDbLine
 10
126.6888015061740
 20
202.6757276452658
 30
0.0000000000000000
 11
126.6888015061740
 21
194.6653231486384
 31
0.0000000000000000
  0
LINE
  5
226
100
AcDbEntity
  8
MAIN0
  6
CENTER
 62
3
100
AcDbLine
 10
122.9082532769212
 20
198.6110480762039
 30
0.0000000000000000
 11
152.5889364323085
 21
198.6110480762039
 31
0.0000000000000000
  0
LINE
  5
227
100
AcDbEntity
  8
MAIN0
  6
CENTER
 62
3
100
AcDbLine
 10
149.4888015061671
 20
202.6314670626995
 30
0.0000000000000000
 11
149.4888015061702
 21
194.6653231486474
 31
0.0000000000000000
  0
LINE
  5
228
100
AcDbEntity
  8
MAIN0
  6
CENTER
 62
3
100
AcDbLine
 10
74.55191153144867
 20
233.6110480762297
 30
0.0000000000000000
 11
164.2387017203484
 21
233.6110480762328
 31
0.0000000000000000
  0
CIRCLE
  5
229
100
AcDbEntity
  8
MAIN0
  6
CONTINUOUS
 62
3
100
AcDbCircle
 10
149.4888015061686
 20
198.6110480762039
 30
0.0000000000000000
 40
1.500000000000000
  0
CIRCLE
  5
22A
100
AcDbEntity
  8
MAIN0
  6
CONTINUOUS
 62
3
100
AcDbCircle
 10
149.4888015061686
 20
198.6110480762039
 30
0.0000000000000000
 40
1.229367000000000
  0
LINE
  5
22B
100
AcDbEntity
  8
MAIN0
  6
CONTINUOUS
 62
3
100
AcDbLine
 10
148.6227761023842
 20
198.6110480762038
 30
0.0000000000000000
 11
149.0557888042764
 21
197.8610480762039
 31
0.0000000000000000
  0
LINE
  5
22C
100
AcDbEntity
  8
MAIN0
  6
CONTINUOUS
 62
3
100
AcDbLine
 10
149.0557888042764
 20
197.8610480762037
 30
0.0000000000000000
 11
149.9218142080608
 21
197.8610480762037
 31
0.0000000000000000
  0
LINE
  5
22D
100
AcDbEntity
  8
MAIN0
  6
CONTINUOUS
 62
3
100
AcDbLine
 10
149.9218142080608
 20
197.8610480762038
 30
0.0000000000000000
 11
150.3548269099530
 21
198.6110480762037
 31
0.0000000000000000
  0
LINE
  5
22E
100
AcDbEntity
  8
MAIN0
  6
CONTINUOUS
 62
3
100
AcDbLine
 10
150.3548269099530
 20
198.6110480762039
 30
0.0000000000000000
 11
149.9218142080609
 21
199.3610480762038
 31
0.0000000000000000
  0
LINE
  5
22F
100
AcDbEntity
  8
MAIN0
  6
CONTINUOUS
 62
3
100
AcDbLine
 10
149.9218142080608
 20
199.3610480762037
 30
0.0000000000000000
 11
149.0557888042764
 21
199.3610480762037
 31
0.0000000000000000
  0
LINE
  5
230
100
AcDbEntity
  8
MAIN0
  6
CONTINUOUS
 62
3
100
AcDbLine
 10
149.0557888042763
 20
199.3610480762036
 30
0.0000000000000000
 11
148.6227761023841
 21
198.6110480762037
 31
0.0000000000000000
  0
CIRCLE
  5
231
100
AcDbEntity
  8
MAIN0
  6
CONTINUOUS
 62
3
100
AcDbCircle
 10
126.6888015061741
 20
198.6110480762039
 30
0.0000000000000000
 40
1.500000000000000
  0
CIRCLE
  5
232
100
AcDbEntity
  8
MAIN0
  6
CONTINUOUS
 62
3
100
AcDbCircle
 10
126.6888015061741
 20
198.6110480762039
 30
0.0000000000000000
 40
1.229367000000000
  0
LINE
  5
233
100
AcDbEntity
  8
MAIN0
  6
CONTINUOUS
 62
3
100
AcDbLine
 10
125.8227761023895
 20
198.6110480762040
 30
0.0000000000000000
 11
126.2557888042817
 21
197.8610480762039
 31
0.0000000000000000
  0
LINE
  5
234
100
AcDbEntity
  8
MAIN0
  6
CONTINUOUS
 62
3
100
AcDbLine
 10
126.2557888042819
 20
197.8610480762037
 30
0.0000000000000000
 11
127.1218142080663
 21
197.8610480762037
 31
0.0000000000000000
  0
LINE
  5
235
100
AcDbEntity
  8
MAIN0
  6
CONTINUOUS
 62
3
100
AcDbLine
 10
127.1218142080662
 20
197.8610480762037
 30
0.0000000000000000
 11
127.5548269099585
 21
198.6110480762038
 31
0.0000000000000000
  0
LINE
  5
236
100
AcDbEntity
  8
MAIN0
  6
CONTINUOUS
 62
3
100
AcDbLine
 10
127.5548269099584
 20
198.6110480762039
 30
0.0000000000000000
 11
127.1218142080661
 21
199.3610480762040
 31
0.0000000000000000
  0
LINE
  5
237
100
AcDbEntity
  8
MAIN0
  6
CONTINUOUS
 62
3
100
AcDbLine
 10
127.1218142080663
 20
199.3610480762037
 30
0.0000000000000000
 11
126.2557888042819
 21
199.3610480762037
 31
0.0000000000000000
  0
LINE
  5
238
100
AcDbEntity
  8
MAIN0
  6
CONTINUOUS
 62
3
100
AcDbLine
 10
126.2557888042818
 20
199.3610480762038
 30
0.0000000000000000
 11
125.8227761023895
 21
198.6110480762037
 31
0.0000000000000000
  0
LINE
  5
239
100
AcDbEntity
  8
MAIN0
  6
CONTINUOUS
 62
3
100
AcDbLine
 10
79.18880150617400
 20
184.6110480762037
 30
0.0000000000000000
 11
155.6888015061740
 21
184.6110480762037
 31
0.0000000000000000
  0
LINE
  5
23A
100
AcDbEntity
  8
MAIN0
  6
CONTINUOUS
 62
3
100
AcDbLine
 10
344.2509622867192
 20
280.6110480762254
 30
0.0000000000000000
 11
344.2509622867192
 21
184.6110480762254
 31
0.0000000000000000
  0
LINE
  5
23B
100
AcDbEntity
  8
MAIN0
  6
CONTINUOUS
 62
3
100
AcDbLine
 10
421.7509622867192
 20
281.6110480762254
 30
0.0000000000000000
 11
421.7509622867192
 21
185.6110480762254
 31
0.0000000000000000
  0
LINE
  5
23C
100
AcDbEntity
  8
MAIN0
  6
CONTINUOUS
 62
3
100
AcDbLine
 10
420.7509622867189
 20
282.6110480762255
 30
0.0000000000000000
 11
421.7509622867189
 21
281.6110480762255
 31
0.0000000000000000
  0
LINE
  5
23D
100
AcDbEntity
  8
MAIN0
  6
CONTINUOUS
 62
3
100
AcDbLine
 10
421.7509622867189
 20
185.6110480762254
 30
0.0000000000000000
 11
420.7509622867189
 21
184.6110480762254
 31
0.0000000000000000
  0
LINE
  5
23E
100
AcDbEntity
  8
MAIN0
  6
CENTER
 62
3
100
AcDbLine
 10
411.7813230432719
 20
197.6110480762254
 30
0.0000000000000000
 11
422.9008676669230
 21
197.6110480762254
 31
0.0000000000000000
  0
LINE
  5
23F
100
AcDbEntity
  8
MAIN0
  6
CENTER
 62
3
100
AcDbLine
 10
416.7509622867192
 20
202.8504658891104
 30
0.0000000000000000
 11
416.7509622867192
 21
191.9567894334253
 31
0.0000000000000000
  0
CIRCLE
  5
240
100
AcDbEntity
  8
MAIN0
  6
CONTINUOUS
 62
3
100
AcDbCircle
 10
416.7509622867191
 20
197.6110480762254
 30
0.0000000000000000
 40
2.100000000000000
  0
CIRCLE
  5
241
100
AcDbEntity
  8
MAIN0
  6
CONTINUOUS
 62
3
100
AcDbCircle
 10
416.7509622867191
 20
197.6110480762254
 30
0.0000000000000000
 40
4.000000000000000
  0
LINE
  5
242
100
AcDbEntity
  8
MAIN0
  6
CONTINUOUS
 62
3
100
AcDbLine
 10
419.7509622867959
 20
194.9652967652482
 30
0.0000000000000000
 11
419.7509622868040
 21
184.6110480762256
 31
0.0000000000000000
  0
LINE
  5
243
100
AcDbEntity
  8
MAIN0
  6
CENTER
 62
3
100
AcDbLine
 10
411.7813230432718
 20
269.6110480762253
 30
0.0000000000000000
 11
422.9008676669230
 21
269.6110480762253
 31
0.0000000000000000
  0
LINE
  5
244
100
AcDbEntity
  8
MAIN0
  6
CENTER
 62
3
100
AcDbLine
 10
416.7509622867191
 20
264.3716302633403
 30
0.0000000000000000
 11
416.7509622867191
 21
275.2653067190256
 31
0.0000000000000000
  0
CIRCLE
  5
245
100
AcDbEntity
  8
MAIN0
  6
CONTINUOUS
 62
3
100
AcDbCircle
 10
416.7509622867191
 20
269.6110480762255
 30
0.0000000000000000
 40
2.100000000000000
  0
CIRCLE
  5
246
100
AcDbEntity
  8
MAIN0
  6
CONTINUOUS
 62
3
100
AcDbCircle
 10
416.7509622867191
 20
269.6110480762255
 30
0.0000000000000000
 40
4.000000000000000
  0
LINE
  5
247
100
AcDbEntity
  8
MAIN0
  6
CENTER
 62
3
100
AcDbLine
 10
389.7206015301663
 20
269.6110480762255
 30
0.0000000000000000
 11
378.6010569065152
 21
269.6110480762255
 31
0.0000000000000000
  0
LINE
  5
248
100
AcDbEntity
  8
MAIN0
  6
CENTER
 62
3
100
AcDbLine
 10
384.7509622867190
 20
264.3716302633405
 30
0.0000000000000000
 11
384.7509622867190
 21
275.2653067190258
 31
0.0000000000000000
  0
CIRCLE
  5
249
100
AcDbEntity
  8
MAIN0
  6
CONTINUOUS
 62
3
100
AcDbCircle
 10
384.7509622867191
 20
269.6110480762255
 30
0.0000000000000000
 40
2.100000000000000
  0
CIRCLE
  5
24A
100
AcDbEntity
  8
MAIN0
  6
CONTINUOUS
 62
3
100
AcDbCircle
 10
384.7509622867191
 20
269.6110480762255
 30
0.0000000000000000
 40
4.000000000000000
  0
LINE
  5
24B
100
AcDbEntity
  8
MAIN0
  6
CENTER
 62
3
100
AcDbLine
 10
389.7206015301663
 20
197.6110480762254
 30
0.0000000000000000
 11
378.6010569065151
 21
197.6110480762255
 31
0.0000000000000000
  0
LINE
  5
24C
100
AcDbEntity
  8
MAIN0
  6
CENTER
 62
3
100
AcDbLine
 10
384.7509622867190
 20
202.8504658891105
 30
0.0000000000000000
 11
384.7509622867190
 21
191.9567894334252
 31
0.0000000000000000
  0
CIRCLE
  5
24D
100
AcDbEntity
  8
MAIN0
  6
CONTINUOUS
 62
3
100
AcDbCircle
 10
384.7509622867191
 20
197.6110480762254
 30
0.0000000000000000
 40
2.100000000000000
  0
CIRCLE
  5
24E
100
AcDbEntity
  8
MAIN0
  6
CONTINUOUS
 62
3
100
AcDbCircle
 10
384.7509622867191
 20
197.6110480762254
 30
0.0000000000000000
 40
4.000000000000000
  0
LINE
  5
24F
100
AcDbEntity
  8
MAIN0
  6
CONTINUOUS
 62
3
100
AcDbLine
 10
419.7509622867271
 20
282.6110480762255
 30
0.0000000000000000
 11
419.7509622867353
 21
272.2567993872718
 31
0.0000000000000000
  0
LINE
  5
250
100
AcDbEntity
  8
MAIN0
  6
CONTINUOUS
 62
3
100
AcDbLine
 10
420.7509622867569
 20
244.6110480762254
 30
0.0000000000000000
 11
420.7509622867742
 21
222.6110480762255
 31
0.0000000000000000
  0
LINE
  5
251
100
AcDbEntity
  8
MAIN0
  6
CONTINUOUS
 62
3
100
AcDbLine
 10
419.7509622867394
 20
266.9652967651840
 30
0.0000000000000000
 11
419.7509622867569
 21
244.6110480762256
 31
0.0000000000000000
  0
LINE
  5
252
100
AcDbEntity
  8
MAIN0
  6
CONTINUOUS
 62
3
100
AcDbLine
 10
419.7509622867743
 20
222.6110480762256
 30
0.0000000000000000
 11
419.7509622867918
 21
200.2567993872077
 31
0.0000000000000000
  0
LINE
  5
253
100
AcDbEntity
  8
MAIN0
  6
CONTINUOUS
 62
3
100
AcDbLine
 10
381.7509622870161
 20
244.6110480762255
 30
0.0000000000000000
 11
394.0009622867191
 21
244.6110480762255
 31
0.0000000000000000
  0
LINE
  5
254
100
AcDbEntity
  8
MAIN0
  6
CONTINUOUS
 62
3
100
AcDbLine
 10
407.5009622872403
 20
244.6110480762256
 30
0.0000000000000000
 11
420.7509622867569
 21
244.6110480762256
 31
0.0000000000000000
  0
LINE
  5
255
100
AcDbEntity
  8
MAIN0
  6
CONTINUOUS
 62
3
100
AcDbLine
 10
381.7509622870163
 20
222.6110480762254
 30
0.0000000000000000
 11
394.0009622867192
 21
222.6110480762254
 31
0.0000000000000000
  0
LINE
  5
256
100
AcDbEntity
  8
MAIN0
  6
CONTINUOUS
 62
3
100
AcDbLine
 10
407.5009622872224
 20
222.6110480762254
 30
0.0000000000000000
 11
420.7509622867742
 21
222.6110480762254
 31
0.0000000000000000
  0
LINE
  5
257
100
AcDbEntity
  8
MAIN0
  6
CONTINUOUS
 62
3
100
AcDbLine
 10
344.2509622867190
 20
230.2110480762647
 30
0.0000000000000000
 11
373.7509622865316
 21
230.2110480762320
 31
0.0000000000000000
  0
LINE
  5
258
100
AcDbEntity
  8
MAIN0
  6
CENTER
 62
3
100
AcDbLine
 10
342.2460163077676
 20
228.6110480762667
 30
0.0000000000000000
 11
374.4238801522420
 21
228.6110480762311
 31
0.0000000000000000
  0
LINE
  5
259
100
AcDbEntity
  8
MAIN0
  6
CONTINUOUS
 62
3
100
AcDbLine
 10
344.2509622867191
 20
227.0110480762646
 30
0.0000000000000000
 11
373.7509622865304
 21
227.0110480762319
 31
0.0000000000000000
  0
LINE
  5
25A
100
AcDbEntity
  8
MAIN0
  6
CONTINUOUS
 62
3
100
AcDbLine
 10
344.2509622867191
 20
237.0110480762641
 30
0.0000000000000000
 11
373.7509622865342
 21
237.0110480762314
 31
0.0000000000000000
  0
LINE
  5
25B
100
AcDbEntity
  8
MAIN0
  6
CENTER
 62
3
100
AcDbLine
 10
342.2460163077831
 20
238.6110480762668
 30
0.0000000000000000
 11
374.4238801522575
 21
238.6110480762311
 31
0.0000000000000000
  0
LINE
  5
25C
100
AcDbEntity
  8
MAIN0
  6
CONTINUOUS
 62
3
100
AcDbLine
 10
344.2509622867191
 20
240.2110480762645
 30
0.0000000000000000
 11
373.7509622865356
 21
240.2110480762318
 31
0.0000000000000000
  0
LINE
  5
25D
100
AcDbEntity
  8
MAIN0
  6
CONTINUOUS
 62
3
100
AcDbLine
 10
344.2509622867191
 20
244.6110480762254
 30
0.0000000000000000
 11
373.7509622865373
 21
244.6110480762254
 31
0.0000000000000000
  0
LINE
  5
25E
100
AcDbEntity
  8
MAIN0
  6
CONTINUOUS
 62
3
100
AcDbLine
 10
344.2509622867191
 20
222.6110480762254
 30
0.0000000000000000
 11
373.7509622865287
 21
222.6110480762254
 31
0.0000000000000000
  0
LINE
  5
25F
100
AcDbEntity
  8
MAIN0
  6
CONTINUOUS
 62
3
100
AcDbLine
 10
344.2509622867192
 20
190.1110480762254
 30
0.0000000000000000
 11
379.7509622865329
 21
190.1110480762254
 31
0.0000000000000000
  0
LINE
  5
260
100
AcDbEntity
  8
MAIN0
  6
CONTINUOUS
 62
3
100
AcDbLine
 10
344.2509622867191
 20
280.6110480762254
 30
0.0000000000000000
 11
379.7509622865329
 21
280.6110480762254
 31
0.0000000000000000
  0
LINE
  5
261
100
AcDbEntity
  8
MAIN0
  6
CONTINUOUS
 62
3
100
AcDbLine
 10
344.2509622867192
 20
277.1110480762254
 30
0.0000000000000000
 11
379.7509622865329
 21
277.1110480762254
 31
0.0000000000000000
  0
LINE
  5
262
100
AcDbEntity
  8
MAIN0
  6
CENTER
 62
3
100
AcDbLine
 10
375.7509622867192
 20
197.9092065595533
 30
0.0000000000000000
 11
375.7509622867192
 21
191.4887238720674
 31
0.0000000000000000
  0
LINE
  5
263
100
AcDbEntity
  8
MAIN0
  6
CENTER
 62
3
100
AcDbLine
 10
372.6941217151289
 20
194.6110480762254
 30
0.0000000000000000
 11
378.7821933354342
 21
194.6110480762254
 31
0.0000000000000000
  0
LINE
  5
264
100
AcDbEntity
  8
MAIN0
  6
CENTER
 62
3
100
AcDbLine
 10
375.7509622867192
 20
269.3128895928978
 30
0.0000000000000000
 11
375.7509622867192
 21
275.7333722803835
 31
0.0000000000000000
  0
LINE
  5
265
100
AcDbEntity
  8
MAIN0
  6
CENTER
 62
3
100
AcDbLine
 10
372.6941217151289
 20
272.6110480762254
 30
0.0000000000000000
 11
378.7821933354342
 21
272.6110480762254
 31
0.0000000000000000
  0
ARC
  5
266
100
AcDbEntity
  8
MAIN0
  6
CONTINUOUS
 62
3
100
AcDbCircle
 10
377.7509622867724
 20
244.6110480762836
 30
0.0000000000000000
 40
4.000000000243809
100
AcDbArc
 50
0.0000000000000000
 51
180.0000000000000
  0
LINE
  5
267
100
AcDbEntity
  8
MAIN0
  6
CONTINUOUS
 62
3
100
AcDbLine
 10
381.7509622870163
 20
244.6110480762837
 30
0.0000000000000000
 11
381.7509622870163
 21
222.6110480761550
 31
0.0000000000000000
  0
ARC
  5
268
100
AcDbEntity
  8
MAIN0
  6
CONTINUOUS
 62
3
100
AcDbCircle
 10
377.7509622867724
 20
222.6110480761549
 30
0.0000000000000000
 40
4.000000000243809
100
AcDbArc
 50
180.0000000000000
 51
360.0000000000000
  0
LINE
  5
269
100
AcDbEntity
  8
MAIN0
  6
CENTER
 62
3
100
AcDbLine
 10
378.7509622872617
 20
225.4110563939875
 30
0.0000000000000000
 11
378.7509622872635
 21
220.1112504910932
 31
0.0000000000000000
  0
LINE
  5
26A
100
AcDbEntity
  8
MAIN0
  6
CENTER
 62
3
100
AcDbLine
 10
375.6326118541070
 20
222.6110480761550
 30
0.0000000000000000
 11
382.7583326905678
 21
222.6110480761550
 31
0.0000000000000000
  0
LINE
  5
26B
100
AcDbEntity
  8
MAIN0
  6
CONTINUOUS
 62
3
100
AcDbLine
 10
379.7509622865329
 20
282.6110480762254
 30
0.0000000000000000
 11
379.7509622865329
 21
248.0751496918413
 31
0.0000000000000000
  0
LINE
  5
26C
100
AcDbEntity
  8
MAIN0
  6
CONTINUOUS
 62
3
100
AcDbLine
 10
379.7509622865329
 20
219.1469464605973
 30
0.0000000000000000
 11
379.7509622865329
 21
184.6110480762254
 31
0.0000000000000000
  0
CIRCLE
  5
26D
100
AcDbEntity
  8
MAIN0
  6
CONTINUOUS
 62
3
100
AcDbCircle
 10
375.7509622867191
 20
194.6110480762254
 30
0.0000000000000000
 40
2.000000000000000
  0
CIRCLE
  5
26E
100
AcDbEntity
  8
MAIN0
  6
CONTINUOUS
 62
3
100
AcDbCircle
 10
375.7509622867191
 20
194.6110480762254
 30
0.0000000000000000
 40
1.650000000000000
  0
CIRCLE
  5
26F
100
AcDbEntity
  8
MAIN0
  6
CONTINUOUS
 62
3
100
AcDbCircle
 10
375.7509622867191
 20
272.6110480762254
 30
0.0000000000000000
 40
1.650000000000000
  0
CIRCLE
  5
270
100
AcDbEntity
  8
MAIN0
  6
CONTINUOUS
 62
3
100
AcDbCircle
 10
375.7509622867191
 20
272.6110480762254
 30
0.0000000000000000
 40
2.000000000000000
  0
LINE
  5
271
100
AcDbEntity
  8
MAIN0
  6
CONTINUOUS
 62
3
100
AcDbLine
 10
373.7509622865372
 20
244.6110480762193
 30
0.0000000000000000
 11
373.7509622865286
 21
222.6110480762204
 31
0.0000000000000000
  0
LINE
  5
272
100
AcDbEntity
  8
MAIN0
  6
CENTER
 62
3
100
AcDbLine
 10
391.6343194980419
 20
240.6110480762436
 30
0.0000000000000000
 11
383.4739918213525
 21
240.6110480762383
 31
0.0000000000000000
  0
LINE
  5
273
100
AcDbEntity
  8
MAIN0
  6
CENTER
 62
3
100
AcDbLine
 10
387.2509622868014
 20
243.8994859371370
 30
0.0000000000000000
 11
387.2509622868112
 21
237.0394322334673
 31
0.0000000000000000
  0
LINE
  5
274
100
AcDbEntity
  8
MAIN0
  6
CENTER
 62
3
100
AcDbLine
 10
391.0514375752828
 20
226.6110480762605
 30
0.0000000000000000
 11
383.5636656672858
 21
226.6110480762594
 31
0.0000000000000000
  0
LINE
  5
275
100
AcDbEntity
  8
MAIN0
  6
CENTER
 62
3
100
AcDbLine
 10
387.2509622868094
 20
223.0502994399416
 30
0.0000000000000000
 11
387.2509622868140
 21
230.2242122457747
 31
0.0000000000000000
  0
LINE
  5
276
100
AcDbEntity
  8
MAIN0
  6
CENTER
 62
3
100
AcDbLine
 10
410.0492809829569
 20
226.6110480762707
 30
0.0000000000000000
 11
418.2992824841994
 21
226.6110480762787
 31
0.0000000000000000
  0
LINE
  5
277
100
AcDbEntity
  8
MAIN0
  6
CENTER
 62
3
100
AcDbLine
 10
414.2509622872647
 20
223.1396919649219
 30
0.0000000000000000
 11
414.2509622872518
 21
230.4929534140285
 31
0.0000000000000000
  0
LINE
  5
278
100
AcDbEntity
  8
MAIN0
  6
CENTER
 62
3
100
AcDbLine
 10
410.0492809829433
 20
240.6110480762478
 30
0.0000000000000000
 11
418.2992824841858
 21
240.6110480762462
 31
0.0000000000000000
  0
LINE
  5
279
100
AcDbEntity
  8
MAIN0
  6
CENTER
 62
3
100
AcDbLine
 10
414.2509622872565
 20
244.1233931756139
 30
0.0000000000000000
 11
414.2509622872495
 21
236.8777388086863
 31
0.0000000000000000
  0
LINE
  5
27A
100
AcDbEntity
  8
MAIN0
  6
CONTINUOUS
 62
3
100
AcDbLine
 10
381.7509622872810
 20
282.6110480762044
 30
0.0000000000000000
 11
381.7509622872843
 21
272.2567993872506
 31
0.0000000000000000
  0
LINE
  5
27B
100
AcDbEntity
  8
MAIN0
  6
CONTINUOUS
 62
3
100
AcDbLine
 10
381.7509622872860
 20
266.9652967651629
 30
0.0000000000000000
 11
381.7509622872933
 21
244.6110480762044
 31
0.0000000000000000
  0
LINE
  5
27C
100
AcDbEntity
  8
MAIN0
  6
CONTINUOUS
 62
3
100
AcDbLine
 10
381.7509622873004
 20
222.6110480762044
 30
0.0000000000000000
 11
381.7509622873076
 21
200.2567993871866
 31
0.0000000000000000
  0
LINE
  5
27D
100
AcDbEntity
  8
MAIN0
  6
CONTINUOUS
 62
3
100
AcDbLine
 10
381.7509622873093
 20
194.9652967652270
 30
0.0000000000000000
 11
381.7509622873127
 21
184.6110480762044
 31
0.0000000000000000
  0
LINE
  5
27E
100
AcDbEntity
  8
MAIN0
  6
CONTINUOUS
 62
3
100
AcDbLine
 10
344.2509622867191
 20
184.6110480762256
 30
0.0000000000000000
 11
394.0009622867192
 21
184.6110480762256
 31
0.0000000000000000
  0
LINE
  5
27F
100
AcDbEntity
  8
MAIN0
  6
CONTINUOUS
 62
3
100
AcDbLine
 10
407.5009622871930
 20
184.6110480762256
 30
0.0000000000000000
 11
420.7509622867191
 21
184.6110480762256
 31
0.0000000000000000
  0
CIRCLE
  5
280
100
AcDbEntity
  8
MAIN0
  6
CONTINUOUS
 62
3
100
AcDbCircle
 10
378.7509622872626
 20
222.6110480761549
 30
0.0000000000000000
 40
2.000000000000000
  0
CIRCLE
  5
281
100
AcDbEntity
  8
MAIN0
  6
CONTINUOUS
 62
3
100
AcDbCircle
 10
378.7509622872626
 20
222.6110480761549
 30
0.0000000000000000
 40
1.621113800000000
  0
LINE
  5
282
100
AcDbEntity
  8
MAIN0
  6
CONTINUOUS
 62
3
100
AcDbLine
 10
379.9056628256419
 20
222.6110480761549
 30
0.0000000000000000
 11
379.3283125564522
 21
223.6110480761550
 31
0.0000000000000000
  0
LINE
  5
283
100
AcDbEntity
  8
MAIN0
  6
CONTINUOUS
 62
3
100
AcDbLine
 10
379.3283125564524
 20
223.6110480761550
 30
0.0000000000000000
 11
378.1736120180731
 21
223.6110480761550
 31
0.0000000000000000
  0
LINE
  5
284
100
AcDbEntity
  8
MAIN0
  6
CONTINUOUS
 62
3
100
AcDbLine
 10
378.1736120180728
 20
223.6110480761548
 30
0.0000000000000000
 11
377.5962617488833
 21
222.6110480761550
 31
0.0000000000000000
  0
LINE
  5
285
100
AcDbEntity
  8
MAIN0
  6
CONTINUOUS
 62
3
100
AcDbLine
 10
377.5962617488834
 20
222.6110480761550
 30
0.0000000000000000
 11
378.1736120180730
 21
221.6110480761549
 31
0.0000000000000000
  0
LINE
  5
286
100
AcDbEntity
  8
MAIN0
  6
CONTINUOUS
 62
3
100
AcDbLine
 10
378.1736120180731
 20
221.6110480761550
 30
0.0000000000000000
 11
379.3283125564524
 21
221.6110480761550
 31
0.0000000000000000
  0
LINE
  5
287
100
AcDbEntity
  8
MAIN0
  6
CONTINUOUS
 62
3
100
AcDbLine
 10
379.3283125564522
 20
221.6110480761550
 30
0.0000000000000000
 11
379.9056628256417
 21
222.6110480761548
 31
0.0000000000000000
  0
LINE
  5
288
100
AcDbEntity
  8
MAIN0
  6
CONTINUOUS
 62
3
100
AcDbLine
 10
407.5009622872697
 20
282.6110480762254
 30
0.0000000000000000
 11
407.5009622872399
 21
244.6110480762254
 31
0.0000000000000000
  0
LINE
  5
289
100
AcDbEntity
  8
MAIN0
  6
CONTINUOUS
 62
3
100
AcDbLine
 10
407.5009622872227
 20
222.6110480762254
 30
0.0000000000000000
 11
407.5009622871929
 21
184.6110480762254
 31
0.0000000000000000
  0
LINE
  5
28A
100
AcDbEntity
  8
MAIN0
  6
CONTINUOUS
 62
3
100
AcDbLine
 10
379.7509622865329
 20
282.6110480762254
 30
0.0000000000000000
 11
394.0009622867192
 21
282.6110480762254
 31
0.0000000000000000
  0
LINE
  5
28B
100
AcDbEntity
  8
MAIN0
  6
CONTINUOUS
 62
3
100
AcDbLine
 10
407.5009622872698
 20
282.6110480762254
 30
0.0000000000000000
 11
420.7509622867192
 21
282.6110480762254
 31
0.0000000000000000
  0
LINE
  5
28C
100
AcDbEntity
  8
MAIN0
  6
CONTINUOUS
 62
3
100
AcDbLine
 10
394.0009622867192
 20
282.6110480762254
 30
0.0000000000000000
 11
394.0009622867192
 21
244.6110480762254
 31
0.0000000000000000
  0
LINE
  5
28D
100
AcDbEntity
  8
MAIN0
  6
CONTINUOUS
 62
3
100
AcDbLine
 10
394.0009622867192
 20
222.6110480762254
 30
0.0000000000000000
 11
394.0009622867192
 21
184.6110480762254
 31
0.0000000000000000
  0
LINE
  5
28E
100
AcDbEntity
  8
MAIN0
  6
CONTINUOUS
 62
3
100
AcDbLine
 10
418.7509622870577
 20
223.6110480762723
 30
0.0000000000000000
 11
418.7509622870498
 21
243.6110480762723
 31
0.0000000000000000
  0
LINE
  5
28F
100
AcDbEntity
  8
MAIN0
  6
CONTINUOUS
 62
3
100
AcDbLine
 10
418.7509622870579
 20
223.6110480762726
 30
0.0000000000000000
 11
417.7509622870582
 21
222.6110480762726
 31
0.0000000000000000
  0
LINE
  5
290
100
AcDbEntity
  8
MAIN0
  6
CONTINUOUS
 62
3
100
AcDbLine
 10
417.7509622870495
 20
244.6110480762725
 30
0.0000000000000000
 11
418.7509622870499
 21
243.6110480762725
 31
0.0000000000000000
  0
LINE
  5
291
100
AcDbEntity
  8
MAIN0
  6
CONTINUOUS
 62
3
100
AcDbLine
 10
417.7509622870495
 20
244.6110480762724
 30
0.0000000000000000
 11
383.7509622870495
 21
244.6110480762724
 31
0.0000000000000000
  0
LINE
  5
292
100
AcDbEntity
  8
MAIN0
  6
CONTINUOUS
 62
3
100
AcDbLine
 10
417.7509622870581
 20
222.6110480762724
 30
0.0000000000000000
 11
383.7509622870581
 21
222.6110480762724
 31
0.0000000000000000
  0
CIRCLE
  5
293
100
AcDbEntity
  8
MAIN0
  6
CONTINUOUS
 62
3
100
AcDbCircle
 10
414.2509622870695
 20
226.6110480764441
 30
0.0000000000000000
 40
2.750000000000000
  0
CIRCLE
  5
294
100
AcDbEntity
  8
MAIN0
  6
CONTINUOUS
 62
3
100
AcDbCircle
 10
414.2509622870684
 20
240.6110480760947
 30
0.0000000000000000
 40
2.750000000000000
  0
CIRCLE
  5
295
100
AcDbEntity
  8
MAIN0
  6
CONTINUOUS
 62
3
100
AcDbCircle
 10
387.2509622870438
 20
226.6110480764336
 30
0.0000000000000000
 40
2.750000000000000
  0
LINE
  5
296
100
AcDbEntity
  8
MAIN0
  6
CONTINUOUS
 62
3
100
AcDbLine
 10
382.7509622870577
 20
223.6110480762724
 30
0.0000000000000000
 11
382.7509622870498
 21
243.6110480762724
 31
0.0000000000000000
  0
LINE
  5
297
100
AcDbEntity
  8
MAIN0
  6
CONTINUOUS
 62
3
100
AcDbLine
 10
383.7509622870582
 20
222.6110480762726
 30
0.0000000000000000
 11
382.7509622870578
 21
223.6110480762726
 31
0.0000000000000000
  0
LINE
  5
298
100
AcDbEntity
  8
MAIN0
  6
CONTINUOUS
 62
3
100
AcDbLine
 10
382.7509622870499
 20
243.6110480762725
 30
0.0000000000000000
 11
383.7509622870494
 21
244.6110480762724
 31
0.0000000000000000
  0
CIRCLE
  5
299
100
AcDbEntity
  8
MAIN0
  6
CONTINUOUS
 62
3
100
AcDbCircle
 10
387.2509622870426
 20
240.6110480761016
 30
0.0000000000000000
 40
2.750000000000000
  0
LINE
  5
29A
100
AcDbEntity
  8
MAIN0
  6
CONTINUOUS
 62
3
100
AcDbLine
 10
388.3116224587824
 20
239.5503879043604
 30
0.0000000000000000
 11
386.1903021152284
 21
241.6717082479171
 31
0.0000000000000000
  0
LINE
  5
29B
100
AcDbEntity
  8
MAIN0
  6
CONTINUOUS
 62
3
100
AcDbLine
 10
388.3116224595181
 20
241.6717082480294
 30
0.0000000000000000
 11
386.1903021159969
 21
239.5503879045014
 31
0.0000000000000000
  0
CIRCLE
  5
29C
100
AcDbEntity
  8
MAIN0
  6
CONTINUOUS
 62
3
100
AcDbCircle
 10
387.2509622874446
 20
240.6110480765780
 30
0.0000000000000000
 40
2.350000000000165
  0
LINE
  5
29D
100
AcDbEntity
  8
MAIN0
  6
CONTINUOUS
 62
3
100
AcDbLine
 10
388.3116224587834
 20
225.5503879046925
 30
0.0000000000000000
 11
386.1903021152296
 21
227.6717082482490
 31
0.0000000000000000
  0
LINE
  5
29E
100
AcDbEntity
  8
MAIN0
  6
CONTINUOUS
 62
3
100
AcDbLine
 10
388.3116224595190
 20
227.6717082483615
 30
0.0000000000000000
 11
386.1903021159978
 21
225.5503879048335
 31
0.0000000000000000
  0
CIRCLE
  5
29F
100
AcDbEntity
  8
MAIN0
  6
CONTINUOUS
 62
3
100
AcDbCircle
 10
387.2509622874458
 20
226.6110480769100
 30
0.0000000000000000
 40
2.350000000000165
  0
LINE
  5
2A0
100
AcDbEntity
  8
MAIN0
  6
CONTINUOUS
 62
3
100
AcDbLine
 10
415.3116224588090
 20
225.5503879047029
 30
0.0000000000000000
 11
413.1903021152551
 21
227.6717082482596
 31
0.0000000000000000
  0
LINE
  5
2A1
100
AcDbEntity
  8
MAIN0
  6
CONTINUOUS
 62
3
100
AcDbLine
 10
415.3116224595448
 20
227.6717082483721
 30
0.0000000000000000
 11
413.1903021160236
 21
225.5503879048441
 31
0.0000000000000000
  0
CIRCLE
  5
2A2
100
AcDbEntity
  8
MAIN0
  6
CONTINUOUS
 62
3
100
AcDbCircle
 10
414.2509622874715
 20
226.6110480769206
 30
0.0000000000000000
 40
2.350000000000165
  0
LINE
  5
2A3
100
AcDbEntity
  8
MAIN0
  6
CONTINUOUS
 62
3
100
AcDbLine
 10
415.3116224588080
 20
239.5503879043535
 30
0.0000000000000000
 11
413.1903021152541
 21
241.6717082479102
 31
0.0000000000000000
  0
LINE
  5
2A4
100
AcDbEntity
  8
MAIN0
  6
CONTINUOUS
 62
3
100
AcDbLine
 10
415.3116224595439
 20
241.6717082480226
 30
0.0000000000000000
 11
413.1903021160226
 21
239.5503879044946
 31
0.0000000000000000
  0
CIRCLE
  5
2A5
100
AcDbEntity
  8
MAIN0
  6
CONTINUOUS
 62
3
100
AcDbCircle
 10
414.2509622874704
 20
240.6110480765712
 30
0.0000000000000000
 40
2.350000000000165
  0
LINE
  5
2A6
100
AcDbEntity
  8
MAIN0
  6
CONTINUOUS
 62
3
100
AcDbLine
 10
338.7509622867192
 20
280.4110480762004
 30
0.0000000000000000
 11
338.7509622867559
 21
186.8110480762004
 31
0.0000000000000000
  0
LINE
  5
2A7
100
AcDbEntity
  8
MAIN0
  6
CONTINUOUS
 62
3
100
AcDbLine
 10
338.9509622867561
 20
186.6110480762004
 30
0.0000000000000000
 11
344.0509622867191
 21
186.6110480762004
 31
0.0000000000000000
  0
LINE
  5
2A8
100
AcDbEntity
  8
MAIN0
  6
CONTINUOUS
 62
3
100
AcDbLine
 10
338.9509622867190
 20
280.6110480762005
 30
0.0000000000000000
 11
344.0509622867191
 21
280.6110480762025
 31
0.0000000000000000
  0
LINE
  5
2A9
100
AcDbEntity
  8
MAIN0
  6
CONTINUOUS
 62
3
100
AcDbLine
 10
338.7509622867191
 20
280.4110480762004
 30
0.0000000000000000
 11
338.9509622867190
 21
280.6110480762004
 31
0.0000000000000000
  0
LINE
  5
2AA
100
AcDbEntity
  8
MAIN0
  6
CONTINUOUS
 62
3
100
AcDbLine
 10
344.0509622867191
 20
280.6110480762025
 30
0.0000000000000000
 11
344.2509622867191
 21
280.4110480762026
 31
0.0000000000000000
  0
LINE
  5
2AB
100
AcDbEntity
  8
MAIN0
  6
CONTINUOUS
 62
3
100
AcDbLine
 10
338.7509622867557
 20
186.8110480762003
 30
0.0000000000000000
 11
338.9509622867557
 21
186.6110480762004
 31
0.0000000000000000
  0
LINE
  5
2AC
100
AcDbEntity
  8
MAIN0
  6
CONTINUOUS
 62
3
100
AcDbLine
 10
344.0509622867191
 20
186.6110480762005
 30
0.0000000000000000
 11
344.2509622867192
 21
186.8110480762004
 31
0.0000000000000000
  0
LINE
  5
2AD
100
AcDbEntity
  8
MAIN0
  6
CONTINUOUS
 62
3
100
AcDbLine
 10
344.2509622867191
 20
280.4110480762025
 30
0.0000000000000000
 11
344.2509622867191
 21
186.8110480762004
 31
0.0000000000000000
  0
LINE
  5
2AE
100
AcDbEntity
  8
MAIN0
  6
CONTINUOUS
 62
3
100
AcDbLine
 10
338.7509622867547
 20
190.1110480762004
 30
0.0000000000000000
 11
344.2509622867192
 21
190.1110480762004
 31
0.0000000000000000
  0
LINE
  5
2AF
100
AcDbEntity
  8
MAIN0
  6
CONTINUOUS
 62
3
100
AcDbLine
 10
338.7509622867204
 20
277.1110480762002
 30
0.0000000000000000
 11
344.2509622867192
 21
277.1110480762024
 31
0.0000000000000000
  0
LINE
  5
2B0
100
AcDbEntity
  8
MAIN0
  6
CONTINUOUS
 62
3
100
AcDbLine
 10
338.7509622867335
 20
244.1110480762557
 30
0.0000000000000000
 11
344.2509622867192
 21
244.1110480762557
 31
0.0000000000000000
  0
LINE
  5
2B1
100
AcDbEntity
  8
MAIN0
  6
CONTINUOUS
 62
3
100
AcDbLine
 10
338.7509622867417
 20
223.1110480762557
 30
0.0000000000000000
 11
344.2509622867192
 21
223.1110480762557
 31
0.0000000000000000
  0
LINE
  5
2B2
100
AcDbEntity
  8
MAIN0
  6
CENTER
 62
3
100
AcDbLine
 10
405.6725871033899
 20
276.6110480762056
 30
0.0000000000000000
 11
395.3644914244461
 21
276.6110480761975
 31
0.0000000000000000
  0
CIRCLE
  5
2B3
100
AcDbEntity
  8
MAIN0
  6
CONTINUOUS
 62
3
100
AcDbCircle
 10
400.7509622866902
 20
276.6110480762019
 30
0.0000000000000000
 40
4.000000000000000
  0
CIRCLE
  5
2B4
100
AcDbEntity
  8
MAIN0
  6
CONTINUOUS
 62
3
100
AcDbCircle
 10
400.7509622866903
 20
276.6110480762019
 30
0.0000000000000000
 40
2.500000000000000
  0
CIRCLE
  5
2B5
100
AcDbEntity
  8
MAIN0
  6
CONTINUOUS
 62
3
100
AcDbCircle
 10
400.7509622866903
 20
276.6110480762019
 30
0.0000000000000000
 40
2.100000000000000
  0
LINE
  5
2B6
100
AcDbEntity
  8
MAIN0
  6
CENTER
 62
3
100
AcDbLine
 10
405.6725871034024
 20
260.6110480762056
 30
0.0000000000000000
 11
395.3644914244586
 21
260.6110480761975
 31
0.0000000000000000
  0
CIRCLE
  5
2B7
100
AcDbEntity
  8
MAIN0
  6
CONTINUOUS
 62
3
100
AcDbCircle
 10
400.7509622867028
 20
260.6110480762019
 30
0.0000000000000000
 40
2.100000000000000
  0
CIRCLE
  5
2B8
100
AcDbEntity
  8
MAIN0
  6
CONTINUOUS
 62
3
100
AcDbCircle
 10
400.7509622867028
 20
260.6110480762019
 30
0.0000000000000000
 40
2.500000000000000
  0
CIRCLE
  5
2B9
100
AcDbEntity
  8
MAIN0
  6
CONTINUOUS
 62
3
100
AcDbCircle
 10
400.7509622867027
 20
260.6110480762019
 30
0.0000000000000000
 40
4.000000000000000
  0
LINE
  5
2BA
100
AcDbEntity
  8
MAIN0
  6
CONTINUOUS
 62
3
100
AcDbLine
 10
407.5009622872045
 20
254.1110480762071
 30
0.0000000000000000
 11
394.0009622862114
 21
254.1110480761965
 31
0.0000000000000000
  0
LINE
  5
2BB
100
AcDbEntity
  8
MAIN0
  6
CONTINUOUS
 62
3
100
AcDbLine
 10
390.4509622863974
 20
282.7110480761940
 30
0.0000000000000000
 11
390.8509622863973
 21
283.1110480761941
 31
0.0000000000000000
  0
LINE
  5
2BC
100
AcDbEntity
  8
MAIN0
  6
CONTINUOUS
 62
3
100
AcDbLine
 10
411.0509622869731
 20
282.7110480762102
 30
0.0000000000000000
 11
410.6509622869726
 21
283.1110480762099
 31
0.0000000000000000
  0
LINE
  5
2BD
100
AcDbEntity
  8
MAIN0
  6
CONTINUOUS
 62
3
100
AcDbLine
 10
410.6509622869727
 20
283.1110480762096
 30
0.0000000000000000
 11
390.8509622863974
 21
283.1110480761941
 31
0.0000000000000000
  0
LINE
  5
2BE
100
AcDbEntity
  8
MAIN0
  6
CONTINUOUS
 62
3
100
AcDbLine
 10
407.5009622871594
 20
282.7110480762073
 30
0.0000000000000000
 11
407.1009622871588
 21
283.1110480762069
 31
0.0000000000000000
  0
LINE
  5
2BF
100
AcDbEntity
  8
MAIN0
  6
CONTINUOUS
 62
3
100
AcDbLine
 10
394.0009622862111
 20
282.7110480761966
 30
0.0000000000000000
 11
394.4009622862110
 21
283.1110480761969
 31
0.0000000000000000
  0
CIRCLE
  5
2C0
100
AcDbEntity
  8
MAIN0
  6
CONTINUOUS
 62
3
100
AcDbCircle
 10
400.7509622866902
 20
276.6110480762019
 30
0.0000000000000000
 40
3.000000000000000
  0
CIRCLE
  5
2C1
100
AcDbEntity
  8
MAIN0
  6
CONTINUOUS
 62
3
100
AcDbCircle
 10
400.7509622867027
 20
260.6110480762019
 30
0.0000000000000000
 40
3.000000000000000
  0
LINE
  5
2C2
100
AcDbEntity
  8
MAIN0
  6
CONTINUOUS
 62
3
100
AcDbLine
 10
407.5009622871596
 20
282.7110480762073
 30
0.0000000000000000
 11
407.5009622872179
 21
244.6110480762255
 31
0.0000000000000000
  0
LINE
  5
2C3
100
AcDbEntity
  8
MAIN0
  6
CONTINUOUS
 62
3
100
AcDbLine
 10
394.0009622862114
 20
282.7110480761966
 30
0.0000000000000000
 11
394.0009622862107
 21
244.6110480762254
 31
0.0000000000000000
  0
LINE
  5
2C4
100
AcDbEntity
  8
MAIN0
  6
CONTINUOUS
 62
3
100
AcDbLine
 10
411.0509622869734
 20
282.7110480762102
 30
0.0000000000000000
 11
411.0509622869736
 21
282.6110480762255
 31
0.0000000000000000
  0
LINE
  5
2C5
100
AcDbEntity
  8
MAIN0
  6
CONTINUOUS
 62
3
100
AcDbLine
 10
390.4509622863977
 20
282.7110480761939
 30
0.0000000000000000
 11
390.4509622863977
 21
282.6110480762255
 31
0.0000000000000000
  0
LINE
  5
2C6
100
AcDbEntity
  8
MAIN0
  6
CENTER
 62
3
100
AcDbLine
 10
405.6725871033898
 20
190.6110480763055
 30
0.0000000000000000
 11
395.3644914244460
 21
190.6110480763136
 31
0.0000000000000000
  0
CIRCLE
  5
2C7
100
AcDbEntity
  8
MAIN0
  6
CONTINUOUS
 62
3
100
AcDbCircle
 10
400.7509622866902
 20
190.6110480763093
 30
0.0000000000000000
 40
4.000000000000000
  0
CIRCLE
  5
2C8
100
AcDbEntity
  8
MAIN0
  6
CONTINUOUS
 62
3
100
AcDbCircle
 10
400.7509622866902
 20
190.6110480763093
 30
0.0000000000000000
 40
2.500000000000000
  0
CIRCLE
  5
2C9
100
AcDbEntity
  8
MAIN0
  6
CONTINUOUS
 62
3
100
AcDbCircle
 10
400.7509622866902
 20
190.6110480763093
 30
0.0000000000000000
 40
2.100000000000000
  0
LINE
  5
2CA
100
AcDbEntity
  8
MAIN0
  6
CENTER
 62
3
100
AcDbLine
 10
405.6725871034024
 20
206.6110480763055
 30
0.0000000000000000
 11
395.3644914244586
 21
206.6110480763136
 31
0.0000000000000000
  0
CIRCLE
  5
2CB
100
AcDbEntity
  8
MAIN0
  6
CONTINUOUS
 62
3
100
AcDbCircle
 10
400.7509622867028
 20
206.6110480763093
 30
0.0000000000000000
 40
2.100000000000000
  0
CIRCLE
  5
2CC
100
AcDbEntity
  8
MAIN0
  6
CONTINUOUS
 62
3
100
AcDbCircle
 10
400.7509622867028
 20
206.6110480763093
 30
0.0000000000000000
 40
2.500000000000000
  0
CIRCLE
  5
2CD
100
AcDbEntity
  8
MAIN0
  6
CONTINUOUS
 62
3
100
AcDbCircle
 10
400.7509622867027
 20
206.6110480763093
 30
0.0000000000000000
 40
4.000000000000000
  0
LINE
  5
2CE
100
AcDbEntity
  8
MAIN0
  6
CONTINUOUS
 62
3
100
AcDbLine
 10
407.5009622872046
 20
213.1110480763041
 30
0.0000000000000000
 11
394.0009622862114
 21
213.1110480763147
 31
0.0000000000000000
  0
LINE
  5
2CF
100
AcDbEntity
  8
MAIN0
  6
CONTINUOUS
 62
3
100
AcDbLine
 10
390.4509622863973
 20
184.5110480763172
 30
0.0000000000000000
 11
390.8509622863973
 21
184.1110480763170
 31
0.0000000000000000
  0
LINE
  5
2D0
100
AcDbEntity
  8
MAIN0
  6
CONTINUOUS
 62
3
100
AcDbLine
 10
411.0509622869733
 20
184.5110480763011
 30
0.0000000000000000
 11
410.6509622869726
 21
184.1110480763012
 31
0.0000000000000000
  0
LINE
  5
2D1
100
AcDbEntity
  8
MAIN0
  6
CONTINUOUS
 62
3
100
AcDbLine
 10
410.6509622869727
 20
184.1110480763015
 30
0.0000000000000000
 11
390.8509622863974
 21
184.1110480763171
 31
0.0000000000000000
  0
LINE
  5
2D2
100
AcDbEntity
  8
MAIN0
  6
CONTINUOUS
 62
3
100
AcDbLine
 10
407.5009622871593
 20
184.5110480763040
 30
0.0000000000000000
 11
407.1009622871587
 21
184.1110480763043
 31
0.0000000000000000
  0
LINE
  5
2D3
100
AcDbEntity
  8
MAIN0
  6
CONTINUOUS
 62
3
100
AcDbLine
 10
394.0009622862112
 20
184.5110480763145
 30
0.0000000000000000
 11
394.4009622862112
 21
184.1110480763143
 31
0.0000000000000000
  0
CIRCLE
  5
2D4
100
AcDbEntity
  8
MAIN0
  6
CONTINUOUS
 62
3
100
AcDbCircle
 10
400.7509622866902
 20
190.6110480763093
 30
0.0000000000000000
 40
3.000000000000000
  0
CIRCLE
  5
2D5
100
AcDbEntity
  8
MAIN0
  6
CONTINUOUS
 62
3
100
AcDbCircle
 10
400.7509622867027
 20
206.6110480763093
 30
0.0000000000000000
 40
3.000000000000000
  0
LINE
  5
2D6
100
AcDbEntity
  8
MAIN0
  6
CONTINUOUS
 62
3
100
AcDbLine
 10
407.5009622871594
 20
184.5110480763042
 30
0.0000000000000000
 11
407.5009622872177
 21
222.6110480762858
 31
0.0000000000000000
  0
LINE
  5
2D7
100
AcDbEntity
  8
MAIN0
  6
CONTINUOUS
 62
3
100
AcDbLine
 10
394.0009622862114
 20
184.5110480763146
 30
0.0000000000000000
 11
394.0009622862107
 21
222.6110480762857
 31
0.0000000000000000
  0
LINE
  5
2D8
100
AcDbEntity
  8
MAIN0
  6
CONTINUOUS
 62
3
100
AcDbLine
 10
411.0509622869732
 20
184.5110480763011
 30
0.0000000000000000
 11
411.0509622869734
 21
184.6110480762858
 31
0.0000000000000000
  0
LINE
  5
2D9
100
AcDbEntity
  8
MAIN0
  6
CONTINUOUS
 62
3
100
AcDbLine
 10
390.4509622863976
 20
184.5110480763174
 30
0.0000000000000000
 11
390.4509622863976
 21
184.6110480762857
 31
0.0000000000000000
  0
LINE
  5
2DA
100
AcDbEntity
  8
MAIN0
  6
CONTINUOUS
 62
3
100
AcDbLine
 10
231.6443313627555
 20
184.6110480762276
 30
0.0000000000000000
 11
264.6443313627555
 21
184.6110480762277
 31
0.0000000000000000
  0
LINE
  5
2DB
100
AcDbEntity
  8
MAIN0
  6
CONTINUOUS
 62
3
100
AcDbLine
 10
231.6443313627554
 20
282.6110480762277
 30
0.0000000000000000
 11
264.6443313627555
 21
282.6110480762277
 31
0.0000000000000000
  0
LINE
  5
2DC
100
AcDbEntity
  8
MAIN0
  6
CONTINUOUS
 62
3
100
AcDbLine
 10
263.1443313627555
 20
222.6110480762277
 30
0.0000000000000000
 11
263.1443313627555
 21
190.1110480762277
 31
0.0000000000000000
  0
LINE
  5
2DD
100
AcDbEntity
  8
MAIN0
  6
CONTINUOUS
 62
3
100
AcDbLine
 10
263.1443313627555
 20
222.6110480762277
 30
0.0000000000000000
 11
267.6443313627555
 21
222.6110480762277
 31
0.0000000000000000
  0
LINE
  5
2DE
100
AcDbEntity
  8
MAIN0
  6
CONTINUOUS
 62
3
100
AcDbLine
 10
263.1443313627551
 20
190.1110480762276
 30
0.0000000000000000
 11
257.6443313627552
 21
184.6110480762276
 31
0.0000000000000000
  0
LINE
  5
2DF
100
AcDbEntity
  8
MAIN0
  6
CONTINUOUS
 62
3
100
AcDbLine
 10
263.1443313627555
 20
244.6110480762277
 30
0.0000000000000000
 11
267.6443313627555
 21
244.6110480762277
 31
0.0000000000000000
  0
LINE
  5
2E0
100
AcDbEntity
  8
MAIN0
  6
CONTINUOUS
 62
3
100
AcDbLine
 10
263.1443313627555
 20
277.1110480762277
 30
0.0000000000000000
 11
259.6443313627556
 21
280.6110480762276
 31
0.0000000000000000
  0
LINE
  5
2E1
100
AcDbEntity
  8
MAIN0
  6
CONTINUOUS
 62
3
100
AcDbLine
 10
230.6443313627554
 20
280.6110480762277
 30
0.0000000000000000
 11
259.6443313627555
 21
280.6110480762277
 31
0.0000000000000000
  0
LINE
  5
2E2
100
AcDbEntity
  8
MAIN0
  6
CONTINUOUS
 62
3
100
AcDbLine
 10
265.6443313627555
 20
281.6110480762277
 30
0.0000000000000000
 11
265.6443313627555
 21
244.6110480765899
 31
0.0000000000000000
  0
LINE
  5
2E3
100
AcDbEntity
  8
MAIN0
  6
CONTINUOUS
 62
3
100
AcDbLine
 10
265.6443313627555
 20
222.6110480761633
 30
0.0000000000000000
 11
265.6443313627555
 21
185.6110480762277
 31
0.0000000000000000
  0
LINE
  5
2E4
100
AcDbEntity
  8
MAIN0
  6
CONTINUOUS
 62
3
100
AcDbLine
 10
230.6443313627553
 20
281.6110480762279
 30
0.0000000000000000
 11
231.6443313627551
 21
282.6110480762277
 31
0.0000000000000000
  0
LINE
  5
2E5
100
AcDbEntity
  8
MAIN0
  6
CONTINUOUS
 62
3
100
AcDbLine
 10
231.6443313627553
 20
184.6110480762277
 30
0.0000000000000000
 11
230.6443313627553
 21
185.6110480762277
 31
0.0000000000000000
  0
LINE
  5
2E6
100
AcDbEntity
  8
MAIN0
  6
CONTINUOUS
 62
3
100
AcDbLine
 10
230.6443313627554
 20
258.6110480762277
 30
0.0000000000000000
 11
230.8443313627555
 21
258.6110480762277
 31
0.0000000000000000
  0
LINE
  5
2E7
100
AcDbEntity
  8
MAIN0
  6
CONTINUOUS
 62
3
100
AcDbLine
 10
230.6443313627555
 20
208.6110480762276
 30
0.0000000000000000
 11
230.8443313627555
 21
208.6110480762276
 31
0.0000000000000000
  0
LINE
  5
2E8
100
AcDbEntity
  8
MAIN0
  6
CONTINUOUS
 62
3
100
AcDbLine
 10
230.8443313627555
 20
258.6110480762277
 30
0.0000000000000000
 11
230.8443313627555
 21
208.6110480762276
 31
0.0000000000000000
  0
LINE
  5
2E9
100
AcDbEntity
  8
MAIN0
  6
CONTINUOUS
 62
3
100
AcDbLine
 10
230.6443313627554
 20
281.6110480762277
 30
0.0000000000000000
 11
230.6443313627554
 21
258.6110480762277
 31
0.0000000000000000
  0
LINE
  5
2EA
100
AcDbEntity
  8
MAIN0
  6
CONTINUOUS
 62
3
100
AcDbLine
 10
230.6443313627555
 20
208.6110480762276
 30
0.0000000000000000
 11
230.6443313627555
 21
185.6110480762279
 31
0.0000000000000000
  0
LINE
  5
2EB
100
AcDbEntity
  8
MAIN0
  6
CONTINUOUS
 62
3
100
AcDbLine
 10
264.6443313627555
 20
241.3610480761811
 30
0.0000000000000000
 11
264.6443313627555
 21
235.8610480761813
 31
0.0000000000000000
  0
LINE
  5
2EC
100
AcDbEntity
  8
MAIN0
  6
CONTINUOUS
 62
3
100
AcDbLine
 10
264.6443313627555
 20
231.3610480762743
 30
0.0000000000000000
 11
264.6443313627555
 21
225.8610480762743
 31
0.0000000000000000
  0
LINE
  5
2ED
100
AcDbEntity
  8
MAIN0
  6
CONTINUOUS
 62
3
100
AcDbLine
 10
267.6443313627555
 20
244.6110480765860
 30
0.0000000000000000
 11
267.6443313627555
 21
240.2110480761812
 31
0.0000000000000000
  0
LINE
  5
2EE
100
AcDbEntity
  8
MAIN0
  6
CONTINUOUS
 62
3
100
AcDbLine
 10
267.6443313627555
 20
237.0110480761811
 30
0.0000000000000000
 11
267.6443313627555
 21
230.2110480762744
 31
0.0000000000000000
  0
LINE
  5
2EF
100
AcDbEntity
  8
MAIN0
  6
CONTINUOUS
 62
3
100
AcDbLine
 10
267.6443313627555
 20
227.0110480762744
 30
0.0000000000000000
 11
267.6443313627555
 21
222.6110480761633
 31
0.0000000000000000
  0
LINE
  5
2F0
100
AcDbEntity
  8
MAIN0
  6
CONTINUOUS
 62
3
100
AcDbLine
 10
263.6443313627555
 20
222.6110480761633
 30
0.0000000000000000
 11
263.6443313627555
 21
184.6110480762277
 31
0.0000000000000000
  0
ARC
  5
2F1
100
AcDbEntity
  8
MAIN0
  6
CONTINUOUS
 62
3
100
AcDbCircle
 10
268.1443313650075
 20
269.6110480769663
 30
0.0000000000000000
 40
4.000000002252136
100
AcDbArc
 50
128.6821874689864
 51
231.3178125310137
  0
ARC
  5
2F2
100
AcDbEntity
  8
MAIN0
  6
CONTINUOUS
 62
3
100
AcDbCircle
 10
268.1443313650075
 20
197.6110480754886
 30
0.0000000000000000
 40
4.000000002252136
100
AcDbArc
 50
128.6821874689863
 51
231.3178125310137
  0
LINE
  5
2F3
100
AcDbEntity
  8
MAIN0
  6
CENTER
 62
3
100
AcDbLine
 10
227.3776046978486
 20
233.6110480762324
 30
0.0000000000000000
 11
272.6608406887985
 21
233.6110480762502
 31
0.0000000000000000
  0
LINE
  5
2F4
100
AcDbEntity
  8
MAIN0
  6
CENTER
 62
3
100
AcDbLine
 10
256.6443313627555
 20
266.1615012977320
 30
0.0000000000000000
 11
256.6443313627555
 21
281.7668166958621
 31
0.0000000000000000
  0
LINE
  5
2F5
100
AcDbEntity
  8
MAIN0
  6
CENTER
 62
3
100
AcDbLine
 10
238.6443313627554
 20
266.1615012977320
 30
0.0000000000000000
 11
238.6443313627554
 21
281.7668166958621
 31
0.0000000000000000
  0
LINE
  5
2F6
100
AcDbEntity
  8
MAIN0
  6
CENTER
 62
3
100
AcDbLine
 10
238.6443313627555
 20
201.5266908542222
 30
0.0000000000000000
 11
238.6443313627555
 21
185.8732099249100
 31
0.0000000000000000
  0
LINE
  5
2F7
100
AcDbEntity
  8
MAIN0
  6
CENTER
 62
3
100
AcDbLine
 10
256.6443313627555
 20
201.5266908542222
 30
0.0000000000000000
 11
256.6443313627555
 21
185.8732099249100
 31
0.0000000000000000
  0
LINE
  5
2F8
100
AcDbEntity
  8
MAIN0
  6
CONTINUOUS
 62
3
100
AcDbLine
 10
265.6443313627555
 20
185.6110480762277
 30
0.0000000000000000
 11
264.6443313627555
 21
184.6110480762277
 31
0.0000000000000000
  0
LINE
  5
2F9
100
AcDbEntity
  8
MAIN0
  6
CONTINUOUS
 62
3
100
AcDbLine
 10
264.6443313627552
 20
282.6110480762277
 30
0.0000000000000000
 11
265.6443313627552
 21
281.6110480762277
 31
0.0000000000000000
  0
LINE
  5
2FA
100
AcDbEntity
  8
MAIN0
  6
CONTINUOUS
 62
3
100
AcDbLine
 10
263.1443313627555
 20
277.1110480762278
 30
0.0000000000000000
 11
263.1443313627555
 21
244.6110480762278
 31
0.0000000000000000
  0
LINE
  5
2FB
100
AcDbEntity
  8
MAIN0
  6
CONTINUOUS
 62
3
100
AcDbLine
 10
263.6443313627555
 20
282.6110480762277
 30
0.0000000000000000
 11
263.6443313627555
 21
244.6110480765899
 31
0.0000000000000000
  0
LINE
  5
2FC
100
AcDbEntity
  8
MAIN0
  6
CENTER
 62
3
100
AcDbLine
 10
232.6629077326746
 20
274.6110480762278
 30
0.0000000000000000
 11
262.3823233299674
 21
274.6110480762278
 31
0.0000000000000000
  0
LINE
  5
2FD
100
AcDbEntity
  8
MAIN0
  6
CENTER
 62
3
100
AcDbLine
 10
232.2988271124833
 20
192.6110480762278
 30
0.0000000000000000
 11
262.3959038501574
 21
192.6110480762278
 31
0.0000000000000000
  0
LINE
  5
2FE
100
AcDbEntity
  8
MAIN0
  6
CENTER
 62
3
100
AcDbLine
 10
247.6443313626020
 20
181.8850040755449
 30
0.0000000000000000
 11
247.6443313626020
 21
286.5056751568779
 31
0.0000000000000000
  0
LINE
  5
2FF
100
AcDbEntity
  8
MAIN0
  6
CONTINUOUS
 62
3
100
AcDbLine
 10
233.1443313629137
 20
280.6110480762277
 30
0.0000000000000000
 11
259.6443313629137
 21
280.6110480762277
 31
0.0000000000000000
  0
LINE
  5
300
100
AcDbEntity
  8
MAIN0
  6
CONTINUOUS
 62
3
100
AcDbLine
 10
263.1443313629139
 20
277.1110480762279
 30
0.0000000000000000
 11
259.6443313629140
 21
280.6110480762278
 31
0.0000000000000000
  0
LINE
  5
301
100
AcDbEntity
  8
MAIN0
  6
CONTINUOUS
 62
3
100
AcDbLine
 10
263.1443313629138
 20
244.1110480762404
 30
0.0000000000000000
 11
263.1443313629138
 21
277.1110480762278
 31
0.0000000000000000
  0
LINE
  5
302
100
AcDbEntity
  8
MAIN0
  6
CONTINUOUS
 62
3
100
AcDbLine
 10
262.1443313627602
 20
244.1110480762404
 30
0.0000000000000000
 11
262.1443313627602
 21
223.1110480762404
 31
0.0000000000000000
  0
LINE
  5
303
100
AcDbEntity
  8
MAIN0
  6
CONTINUOUS
 62
3
100
AcDbLine
 10
262.1443313627602
 20
244.1110480762404
 30
0.0000000000000000
 11
263.1443313629138
 21
244.1110480762404
 31
0.0000000000000000
  0
LINE
  5
304
100
AcDbEntity
  8
MAIN0
  6
CONTINUOUS
 62
3
100
AcDbLine
 10
262.1443313627602
 20
223.1110480762404
 30
0.0000000000000000
 11
263.1443313629138
 21
223.1110480762404
 31
0.0000000000000000
  0
LINE
  5
305
100
AcDbEntity
  8
MAIN0
  6
CONTINUOUS
 62
3
100
AcDbLine
 10
231.1443313629136
 20
278.6110480762277
 30
0.0000000000000000
 11
233.1443313629136
 21
280.6110480762277
 31
0.0000000000000000
  0
CIRCLE
  5
306
100
AcDbEntity
  8
MAIN0
  6
CONTINUOUS
 62
3
100
AcDbCircle
 10
238.6443313629137
 20
274.6110480762277
 30
0.0000000000000000
 40
4.999999999987480
  0
CIRCLE
  5
307
100
AcDbEntity
  8
MAIN0
  6
CONTINUOUS
 62
3
100
AcDbCircle
 10
256.6443313629138
 20
274.6110480762276
 30
0.0000000000000000
 40
4.999999999987480
  0
LINE
  5
308
100
AcDbEntity
  8
MAIN0
  6
CONTINUOUS
 62
3
100
AcDbLine
 10
233.1443313629137
 20
186.6110480762529
 30
0.0000000000000000
 11
259.6443313629137
 21
186.6110480762529
 31
0.0000000000000000
  0
LINE
  5
309
100
AcDbEntity
  8
MAIN0
  6
CONTINUOUS
 62
3
100
AcDbLine
 10
263.1443313629136
 20
190.1110480762530
 30
0.0000000000000000
 11
259.6443313629137
 21
186.6110480762530
 31
0.0000000000000000
  0
LINE
  5
30A
100
AcDbEntity
  8
MAIN0
  6
CONTINUOUS
 62
3
100
AcDbLine
 10
231.1443313629137
 20
188.6110480762531
 30
0.0000000000000000
 11
233.1443313629137
 21
186.6110480762531
 31
0.0000000000000000
  0
CIRCLE
  5
30B
100
AcDbEntity
  8
MAIN0
  6
CONTINUOUS
 62
3
100
AcDbCircle
 10
238.6443313629136
 20
192.6110480762530
 30
0.0000000000000000
 40
4.999999999987480
  0
CIRCLE
  5
30C
100
AcDbEntity
  8
MAIN0
  6
CONTINUOUS
 62
3
100
AcDbCircle
 10
256.6443313629138
 20
192.6110480762531
 30
0.0000000000000000
 40
4.999999999987480
  0
LINE
  5
30D
100
AcDbEntity
  8
MAIN0
  6
CONTINUOUS
 62
3
100
AcDbLine
 10
263.1443313629138
 20
223.1110480762404
 30
0.0000000000000000
 11
263.1443313629138
 21
190.1110480762530
 31
0.0000000000000000
  0
LINE
  5
30E
100
AcDbEntity
  8
MAIN0
  6
CONTINUOUS
 62
3
100
AcDbLine
 10
231.1443313629137
 20
278.6110480762276
 30
0.0000000000000000
 11
231.1443313629137
 21
188.6110480762530
 31
0.0000000000000000
  0
LINE
  5
30F
100
AcDbEntity
  8
MAIN0
  6
CENTER
 62
3
100
AcDbLine
 10
244.6823982175398
 20
190.6110480762531
 30
0.0000000000000000
 11
250.6938678337050
 21
190.6110480762531
 31
0.0000000000000000
  0
LINE
  5
310
100
AcDbEntity
  8
MAIN0
  6
CENTER
 62
3
100
AcDbLine
 10
244.6823982175397
 20
276.6110480762276
 30
0.0000000000000000
 11
250.6938678337050
 21
276.6110480762276
 31
0.0000000000000000
  0
CIRCLE
  5
311
100
AcDbEntity
  8
MAIN0
  6
CONTINUOUS
 62
3
100
AcDbCircle
 10
247.6443313627433
 20
276.6110480762276
 30
0.0000000000000000
 40
1.500000000000000
  0
CIRCLE
  5
312
100
AcDbEntity
  8
MAIN0
  6
CONTINUOUS
 62
3
100
AcDbCircle
 10
247.6443313627433
 20
276.6110480762276
 30
0.0000000000000000
 40
1.250000000000000
  0
CIRCLE
  5
313
100
AcDbEntity
  8
MAIN0
  6
CONTINUOUS
 62
3
100
AcDbCircle
 10
247.6443313627772
 20
190.6110480762531
 30
0.0000000000000000
 40
1.500000000000000
  0
CIRCLE
  5
314
100
AcDbEntity
  8
MAIN0
  6
CONTINUOUS
 62
3
100
AcDbCircle
 10
247.6443313627772
 20
190.6110480762531
 30
0.0000000000000000
 40
1.250000000000000
  0
CIRCLE
  5
315
100
AcDbEntity
  8
MAIN0
  6
CONTINUOUS
 62
3
100
AcDbCircle
 10
256.6443313629138
 20
274.6110480762276
 30
0.0000000000000000
 40
4.750000000000000
  0
LINE
  5
316
100
AcDbEntity
  8
MAIN0
  6
CONTINUOUS
 62
3
100
AcDbLine
 10
258.3763821704827
 20
274.6110480762277
 30
0.0000000000000000
 11
257.5103567666983
 21
276.1110480762277
 31
0.0000000000000000
  0
LINE
  5
317
100
AcDbEntity
  8
MAIN0
  6
CONTINUOUS
 62
3
100
AcDbLine
 10
257.5103567666982
 20
276.1110480762277
 30
0.0000000000000000
 11
255.7783059591294
 21
276.1110480762277
 31
0.0000000000000000
  0
LINE
  5
318
100
AcDbEntity
  8
MAIN0
  6
CONTINUOUS
 62
3
100
AcDbLine
 10
255.7783059591292
 20
276.1110480762276
 30
0.0000000000000000
 11
254.9122805553448
 21
274.6110480762276
 31
0.0000000000000000
  0
LINE
  5
319
100
AcDbEntity
  8
MAIN0
  6
CONTINUOUS
 62
3
100
AcDbLine
 10
254.9122805553450
 20
274.6110480762277
 30
0.0000000000000000
 11
255.7783059591294
 21
273.1110480762277
 31
0.0000000000000000
  0
LINE
  5
31A
100
AcDbEntity
  8
MAIN0
  6
CONTINUOUS
 62
3
100
AcDbLine
 10
255.7783059591294
 20
273.1110480762277
 30
0.0000000000000000
 11
257.5103567666982
 21
273.1110480762277
 31
0.0000000000000000
  0
LINE
  5
31B
100
AcDbEntity
  8
MAIN0
  6
CONTINUOUS
 62
3
100
AcDbLine
 10
257.5103567666981
 20
273.1110480762276
 30
0.0000000000000000
 11
258.3763821704825
 21
274.6110480762276
 31
0.0000000000000000
  0
CIRCLE
  5
31C
100
AcDbEntity
  8
MAIN0
  6
CONTINUOUS
 62
3
100
AcDbCircle
 10
238.6443313629137
 20
274.6110480762277
 30
0.0000000000000000
 40
4.750000000000000
  0
LINE
  5
31D
100
AcDbEntity
  8
MAIN0
  6
CONTINUOUS
 62
3
100
AcDbLine
 10
240.3763821704826
 20
274.6110480762278
 30
0.0000000000000000
 11
239.5103567666982
 21
276.1110480762278
 31
0.0000000000000000
  0
LINE
  5
31E
100
AcDbEntity
  8
MAIN0
  6
CONTINUOUS
 62
3
100
AcDbLine
 10
239.5103567666982
 20
276.1110480762278
 30
0.0000000000000000
 11
237.7783059591293
 21
276.1110480762278
 31
0.0000000000000000
  0
LINE
  5
31F
100
AcDbEntity
  8
MAIN0
  6
CONTINUOUS
 62
3
100
AcDbLine
 10
237.7783059591292
 20
276.1110480762276
 30
0.0000000000000000
 11
236.9122805553448
 21
274.6110480762276
 31
0.0000000000000000
  0
LINE
  5
320
100
AcDbEntity
  8
MAIN0
  6
CONTINUOUS
 62
3
100
AcDbLine
 10
236.9122805553449
 20
274.6110480762278
 30
0.0000000000000000
 11
237.7783059591293
 21
273.1110480762279
 31
0.0000000000000000
  0
LINE
  5
321
100
AcDbEntity
  8
MAIN0
  6
CONTINUOUS
 62
3
100
AcDbLine
 10
237.7783059591293
 20
273.1110480762278
 30
0.0000000000000000
 11
239.5103567666982
 21
273.1110480762278
 31
0.0000000000000000
  0
LINE
  5
322
100
AcDbEntity
  8
MAIN0
  6
CONTINUOUS
 62
3
100
AcDbLine
 10
239.5103567666981
 20
273.1110480762276
 30
0.0000000000000000
 11
240.3763821704825
 21
274.6110480762276
 31
0.0000000000000000
  0
CIRCLE
  5
323
100
AcDbEntity
  8
MAIN0
  6
CONTINUOUS
 62
3
100
AcDbCircle
 10
238.6443313629136
 20
192.6110480762530
 30
0.0000000000000000
 40
4.750000000000000
  0
LINE
  5
324
100
AcDbEntity
  8
MAIN0
  6
CONTINUOUS
 62
3
100
AcDbLine
 10
240.3763821704827
 20
192.6110480762530
 30
0.0000000000000000
 11
239.5103567666982
 21
194.1110480762531
 31
0.0000000000000000
  0
LINE
  5
325
100
AcDbEntity
  8
MAIN0
  6
CONTINUOUS
 62
3
100
AcDbLine
 10
239.5103567666982
 20
194.1110480762530
 30
0.0000000000000000
 11
237.7783059591293
 21
194.1110480762530
 31
0.0000000000000000
  0
LINE
  5
326
100
AcDbEntity
  8
MAIN0
  6
CONTINUOUS
 62
3
100
AcDbLine
 10
237.7783059591293
 20
194.1110480762528
 30
0.0000000000000000
 11
236.9122805553449
 21
192.6110480762528
 31
0.0000000000000000
  0
LINE
  5
327
100
AcDbEntity
  8
MAIN0
  6
CONTINUOUS
 62
3
100
AcDbLine
 10
236.9122805553449
 20
192.6110480762529
 30
0.0000000000000000
 11
237.7783059591293
 21
191.1110480762530
 31
0.0000000000000000
  0
LINE
  5
328
100
AcDbEntity
  8
MAIN0
  6
CONTINUOUS
 62
3
100
AcDbLine
 10
237.7783059591293
 20
191.1110480762530
 30
0.0000000000000000
 11
239.5103567666982
 21
191.1110480762530
 31
0.0000000000000000
  0
LINE
  5
329
100
AcDbEntity
  8
MAIN0
  6
CONTINUOUS
 62
3
100
AcDbLine
 10
239.5103567666982
 20
191.1110480762528
 30
0.0000000000000000
 11
240.3763821704826
 21
192.6110480762528
 31
0.0000000000000000
  0
CIRCLE
  5
32A
100
AcDbEntity
  8
MAIN0
  6
CONTINUOUS
 62
3
100
AcDbCircle
 10
256.6443313629138
 20
192.6110480762531
 30
0.0000000000000000
 40
4.750000000000000
  0
LINE
  5
32B
100
AcDbEntity
  8
MAIN0
  6
CONTINUOUS
 62
3
100
AcDbLine
 10
258.3763821704827
 20
192.6110480762531
 30
0.0000000000000000
 11
257.5103567666984
 21
194.1110480762530
 31
0.0000000000000000
  0
LINE
  5
32C
100
AcDbEntity
  8
MAIN0
  6
CONTINUOUS
 62
3
100
AcDbLine
 10
257.5103567666982
 20
194.1110480762531
 30
0.0000000000000000
 11
255.7783059591294
 21
194.1110480762531
 31
0.0000000000000000
  0
LINE
  5
32D
100
AcDbEntity
  8
MAIN0
  6
CONTINUOUS
 62
3
100
AcDbLine
 10
255.7783059591292
 20
194.1110480762530
 30
0.0000000000000000
 11
254.9122805553448
 21
192.6110480762530
 31
0.0000000000000000
  0
LINE
  5
32E
100
AcDbEntity
  8
MAIN0
  6
CONTINUOUS
 62
3
100
AcDbLine
 10
254.9122805553450
 20
192.6110480762531
 30
0.0000000000000000
 11
255.7783059591294
 21
191.1110480762531
 31
0.0000000000000000
  0
LINE
  5
32F
100
AcDbEntity
  8
MAIN0
  6
CONTINUOUS
 62
3
100
AcDbLine
 10
255.7783059591294
 20
191.1110480762531
 30
0.0000000000000000
 11
257.5103567666982
 21
191.1110480762531
 31
0.0000000000000000
  0
LINE
  5
330
100
AcDbEntity
  8
MAIN0
  6
CONTINUOUS
 62
3
100
AcDbLine
 10
257.5103567666981
 20
191.1110480762529
 30
0.0000000000000000
 11
258.3763821704825
 21
192.6110480762530
 31
0.0000000000000000
  0
LINE
  5
331
100
AcDbEntity
  8
MAIN0
  6
CONTINUOUS
 62
3
100
AcDbLine
 10
161.1888015061741
 20
280.6110480762383
 30
0.0000000000000000
 11
161.1888015061741
 21
186.6110480762382
 31
0.0000000000000000
  0
LINE
  5
332
100
AcDbEntity
  8
MAIN0
  6
CONTINUOUS
 62
3
100
AcDbLine
 10
155.6888015061741
 20
280.6110480762383
 30
0.0000000000000000
 11
155.6888015061741
 21
186.6110480762382
 31
0.0000000000000000
  0
LINE
  5
333
100
AcDbEntity
  8
MAIN0
  6
CONTINUOUS
 62
3
100
AcDbLine
 10
155.6888015061741
 20
186.6110480762382
 30
0.0000000000000000
 11
161.1888015061741
 21
186.6110480762382
 31
0.0000000000000000
  0
LINE
  5
334
100
AcDbEntity
  8
MAIN0
  6
CONTINUOUS
 62
3
100
AcDbLine
 10
155.6888015061741
 20
188.6110480763203
 30
0.0000000000000000
 11
161.1888015061741
 21
188.6110480763188
 31
0.0000000000000000
  0
LINE
  5
335
100
AcDbEntity
  8
MAIN0
  6
CONTINUOUS
 62
3
100
AcDbLine
 10
155.6888015061741
 20
278.6110480762383
 30
0.0000000000000000
 11
161.1888015061741
 21
278.6110480762383
 31
0.0000000000000000
  0
LINE
  5
336
100
AcDbEntity
  8
MAIN0
  6
CONTINUOUS
 62
3
100
AcDbLine
 10
155.6888015061741
 20
280.6110480762383
 30
0.0000000000000000
 11
161.1888015061741
 21
280.6110480762383
 31
0.0000000000000000
  0
LINE
  5
337
100
AcDbEntity
  8
MAIN0
  6
CONTINUOUS
 62
3
100
AcDbLine
 10
344.2509622873019
 20
121.8471635114268
 30
0.0000000000000000
 11
373.7509622866712
 21
121.8471635114105
 31
0.0000000000000000
  0
LINE
  5
338
100
AcDbEntity
  8
MAIN0
  6
CONTINUOUS
 62
3
100
AcDbLine
 10
421.7509622871523
 20
117.8471635113841
 30
0.0000000000000000
 11
421.7509622871813
 21
85.84716351138410
 31
0.0000000000000000
  0
LINE
  5
339
100
AcDbEntity
  8
MAIN0
  6
CONTINUOUS
 62
3
100
AcDbLine
 10
344.4509622873019
 20
84.84716351142689
 30
0.0000000000000000
 11
420.7509622871804
 21
84.84716351138459
 31
0.0000000000000000
  0
LINE
  5
33A
100
AcDbEntity
  8
MAIN0
  6
CONTINUOUS
 62
3
100
AcDbLine
 10
390.4509622870226
 20
109.6471635114012
 30
0.0000000000000000
 11
390.4509622870226
 21
100.6471635114012
 31
0.0000000000000000
  0
LINE
  5
33B
100
AcDbEntity
  8
MAIN0
  6
CONTINUOUS
 62
3
100
AcDbLine
 10
394.0009622868350
 20
119.8471635113994
 30
0.0000000000000000
 11
394.0009622868362
 21
110.2471635113993
 31
0.0000000000000000
  0
LINE
  5
33C
100
AcDbEntity
  8
MAIN0
  6
CONTINUOUS
 62
3
100
AcDbLine
 10
390.6509622870226
 20
109.8471635114009
 30
0.0000000000000000
 11
393.6009622868362
 21
109.8471635113993
 31
0.0000000000000000
  0
LINE
  5
33D
100
AcDbEntity
  8
MAIN0
  6
CONTINUOUS
 62
3
100
AcDbLine
 10
390.6509622870223
 20
100.4471635114011
 30
0.0000000000000000
 11
394.5009622870225
 21
100.4471635113989
 31
0.0000000000000000
  0
LINE
  5
33E
100
AcDbEntity
  8
MAIN0
  6
CONTINUOUS
 62
3
100
AcDbLine
 10
394.0009622868362
 20
110.2471635113992
 30
0.0000000000000000
 11
393.6009622868363
 21
109.8471635113995
 31
0.0000000000000000
  0
ARC
  5
33F
100
AcDbEntity
  8
MAIN0
  6
CONTINUOUS
 62
3
100
AcDbCircle
 10
390.6509622870225
 20
109.6471635114012
 30
0.0000000000000000
 40
0.2000000000000000
100
AcDbArc
 50
90.00000000000000
 51
180.0000000000000
  0
ARC
  5
340
100
AcDbEntity
  8
MAIN0
  6
CONTINUOUS
 62
3
100
AcDbCircle
 10
390.6509622870225
 20
100.6471635114012
 30
0.0000000000000000
 40
0.2000000000000000
100
AcDbArc
 50
180.0000000000000
 51
270.0000000000000
  0
LINE
  5
341
100
AcDbEntity
  8
MAIN0
  6
CONTINUOUS
 62
3
100
AcDbLine
 10
394.5009622870225
 20
100.4471635113991
 30
0.0000000000000000
 11
394.5009622870225
 21
100.3471635113990
 31
0.0000000000000000
  0
LINE
  5
342
100
AcDbEntity
  8
MAIN0
  6
CONTINUOUS
 62
3
100
AcDbLine
 10
411.0509622870226
 20
109.6471635114012
 30
0.0000000000000000
 11
411.0509622870226
 21
100.6471635114012
 31
0.0000000000000000
  0
LINE
  5
343
100
AcDbEntity
  8
MAIN0
  6
CONTINUOUS
 62
3
100
AcDbLine
 10
407.5009622872075
 20
119.8471635113993
 30
0.0000000000000000
 11
407.5009622872087
 21
110.2471635113994
 31
0.0000000000000000
  0
LINE
  5
344
100
AcDbEntity
  8
MAIN0
  6
CONTINUOUS
 62
3
100
AcDbLine
 10
410.8509622870223
 20
109.8471635114013
 30
0.0000000000000000
 11
407.9009622872087
 21
109.8471635113997
 31
0.0000000000000000
  0
LINE
  5
345
100
AcDbEntity
  8
MAIN0
  6
CONTINUOUS
 62
3
100
AcDbLine
 10
410.8509622870228
 20
100.4471635114011
 30
0.0000000000000000
 11
407.0009622870227
 21
100.4471635113990
 31
0.0000000000000000
  0
LINE
  5
346
100
AcDbEntity
  8
MAIN0
  6
CONTINUOUS
 62
3
100
AcDbLine
 10
407.5009622872087
 20
110.2471635113992
 30
0.0000000000000000
 11
407.9009622872088
 21
109.8471635113994
 31
0.0000000000000000
  0
ARC
  5
347
100
AcDbEntity
  8
MAIN0
  6
CONTINUOUS
 62
3
100
AcDbCircle
 10
410.8509622870225
 20
109.6471635114012
 30
0.0000000000000000
 40
0.2000000000000000
100
AcDbArc
 50
0.0000000000000000
 51
90.00000000000000
  0
ARC
  5
348
100
AcDbEntity
  8
MAIN0
  6
CONTINUOUS
 62
3
100
AcDbCircle
 10
410.8509622870225
 20
100.6471635114012
 30
0.0000000000000000
 40
0.2000000000000000
100
AcDbArc
 50
270.0000000000000
 51
360.0000000000000
  0
LINE
  5
349
100
AcDbEntity
  8
MAIN0
  6
CONTINUOUS
 62
3
100
AcDbLine
 10
407.0009622870225
 20
100.4471635113991
 30
0.0000000000000000
 11
407.0009622870225
 21
100.3471635113990
 31
0.0000000000000000
  0
LINE
  5
34A
100
AcDbEntity
  8
MAIN0
  6
CENTER
 62
3
100
AcDbLine
 10
373.2509622868363
 20
106.0908877429428
 30
0.0000000000000000
 11
373.2509622868363
 21
97.60655432355586
 31
0.0000000000000000
  0
LINE
  5
34B
100
AcDbEntity
  8
MAIN0
  6
CONTINUOUS
 62
3
100
AcDbLine
 10
379.7509622868902
 20
117.8471635114072
 30
0.0000000000000000
 11
379.7509622868840
 21
111.8471635114074
 31
0.0000000000000000
  0
LINE
  5
34C
100
AcDbEntity
  8
MAIN0
  6
CONTINUOUS
 62
3
100
AcDbLine
 10
381.7509622868923
 20
119.8471635114061
 30
0.0000000000000000
 11
394.0009622868350
 21
119.8471635113993
 31
0.0000000000000000
  0
LINE
  5
34D
100
AcDbEntity
  8
MAIN0
  6
CONTINUOUS
 62
3
100
AcDbLine
 10
407.5009622872075
 20
119.8471635113918
 30
0.0000000000000000
 11
419.7509622871506
 21
119.8471635113850
 31
0.0000000000000000
  0
LINE
  5
34E
100
AcDbEntity
  8
MAIN0
  6
CENTER
 62
3
100
AcDbLine
 10
345.6087197224169
 20
101.8471635114261
 30
0.0000000000000000
 11
378.9038707568716
 21
101.8471635114076
 31
0.0000000000000000
  0
LINE
  5
34F
100
AcDbEntity
  8
MAIN0
  6
CENTER
 62
3
100
AcDbLine
 10
374.9548691144057
 20
91.34716351140659
 30
0.0000000000000000
 11
382.6257920455435
 21
91.34716351140233
 31
0.0000000000000000
  0
LINE
  5
350
100
AcDbEntity
  8
MAIN0
  6
CENTER
 62
3
100
AcDbLine
 10
378.7509622873020
 20
96.36383290262393
 30
0.0000000000000000
 11
378.7509622873020
 21
87.78368772067572
 31
0.0000000000000000
  0
LINE
  5
351
100
AcDbEntity
  8
MAIN0
  6
CONTINUOUS
 62
3
100
AcDbLine
 10
344.2509622872989
 20
117.3471635114269
 30
0.0000000000000000
 11
379.7509622868893
 21
117.3471635114072
 31
0.0000000000000000
  0
LINE
  5
352
100
AcDbEntity
  8
MAIN0
  6
CONTINUOUS
 62
3
100
AcDbLine
 10
344.2509622872963
 20
111.8471635114270
 30
0.0000000000000000
 11
379.7509622868866
 21
111.8471635114073
 31
0.0000000000000000
  0
LINE
  5
353
100
AcDbEntity
  8
MAIN0
  6
CONTINUOUS
 62
3
100
AcDbLine
 10
373.7509622866712
 20
121.8471635114104
 30
0.0000000000000000
 11
373.7509622866702
 21
117.3471635114104
 31
0.0000000000000000
  0
LINE
  5
354
100
AcDbEntity
  8
MAIN0
  6
CONTINUOUS
 62
3
100
AcDbLine
 10
379.7509622868898
 20
117.8471635114071
 30
0.0000000000000000
 11
381.7509622868919
 21
119.8471635114061
 31
0.0000000000000000
  0
LINE
  5
355
100
AcDbEntity
  8
MAIN0
  6
CONTINUOUS
 62
3
100
AcDbLine
 10
419.7509622871508
 20
119.8471635113852
 30
0.0000000000000000
 11
421.7509622871525
 21
117.8471635113843
 31
0.0000000000000000
  0
LINE
  5
356
100
AcDbEntity
  8
MAIN0
  6
CONTINUOUS
 62
3
100
AcDbLine
 10
344.2509622873018
 20
85.04716351142696
 30
0.0000000000000000
 11
344.4509622873018
 21
84.84716351142694
 31
0.0000000000000000
  0
LINE
  5
357
100
AcDbEntity
  8
MAIN0
  6
CONTINUOUS
 62
3
100
AcDbLine
 10
421.7509622871816
 20
85.84716351138394
 30
0.0000000000000000
 11
420.7509622871824
 21
84.84716351138442
 31
0.0000000000000000
  0
LINE
  5
358
100
AcDbEntity
  8
MAIN0
  6
CONTINUOUS
 62
3
100
AcDbLine
 10
344.2509622873018
 20
121.8471635114269
 30
0.0000000000000000
 11
344.2509622873018
 21
85.04716351142697
 31
0.0000000000000000
  0
LINE
  5
359
100
AcDbEntity
  8
MAIN0
  6
CONTINUOUS
 62
3
100
AcDbLine
 10
394.5009622870223
 20
100.3471635113992
 30
0.0000000000000000
 11
407.0009622870223
 21
100.3471635113923
 31
0.0000000000000000
  0
LINE
  5
35A
100
AcDbEntity
  8
MAIN0
  6
HIDDEN
 62
3
100
AcDbLine
 10
411.7509622871723
 20
97.84716351138397
 30
0.0000000000000000
 11
421.4509622871724
 21
97.84716351138397
 31
0.0000000000000000
  0
LINE
  5
35B
100
AcDbEntity
  8
MAIN0
  6
HIDDEN
 62
3
100
AcDbLine
 10
408.7509622871723
 20
97.34716351138397
 30
0.0000000000000000
 11
420.9509622871724
 21
97.34716351138397
 31
0.0000000000000000
  0
LINE
  5
35C
100
AcDbEntity
  8
MAIN0
  6
HIDDEN
 62
3
100
AcDbLine
 10
420.9509622871724
 20
97.34716351138388
 30
0.0000000000000000
 11
421.7509622871723
 21
98.14716351138384
 31
0.0000000000000000
  0
LINE
  5
35D
100
AcDbEntity
  8
MAIN0
  6
HIDDEN
 62
3
100
AcDbLine
 10
420.9509622871724
 20
92.34716351138397
 30
0.0000000000000000
 11
420.9509622871724
 21
97.34716351138397
 31
0.0000000000000000
  0
LINE
  5
35E
100
AcDbEntity
  8
MAIN0
  6
HIDDEN
 62
3
100
AcDbLine
 10
420.9509622871724
 20
92.34716351138397
 30
0.0000000000000000
 11
408.7509622871723
 21
92.34716351138397
 31
0.0000000000000000
  0
LINE
  5
35F
100
AcDbEntity
  8
MAIN0
  6
HIDDEN
 62
3
100
AcDbLine
 10
421.4509622871724
 20
91.84716351138397
 30
0.0000000000000000
 11
411.7509622871723
 21
91.84716351138397
 31
0.0000000000000000
  0
LINE
  5
360
100
AcDbEntity
  8
MAIN0
  6
HIDDEN
 62
3
100
AcDbLine
 10
421.7509622871720
 20
91.54716351138393
 30
0.0000000000000000
 11
420.9509622871721
 21
92.34716351138383
 31
0.0000000000000000
  0
LINE
  5
361
100
AcDbEntity
  8
MAIN0
  6
HIDDEN
 62
3
100
AcDbLine
 10
408.7509622871725
 20
92.34716351138377
 30
0.0000000000000000
 11
407.3075866141984
 21
94.84716351138377
 31
0.0000000000000000
  0
LINE
  5
362
100
AcDbEntity
  8
MAIN0
  6
HIDDEN
 62
3
100
AcDbLine
 10
408.7509622871723
 20
92.34716351138397
 30
0.0000000000000000
 11
408.7509622871723
 21
97.34716351138397
 31
0.0000000000000000
  0
LINE
  5
363
100
AcDbEntity
  8
MAIN0
  6
HIDDEN
 62
3
100
AcDbLine
 10
407.3075866141984
 20
94.84716351138408
 30
0.0000000000000000
 11
408.7509622871725
 21
97.34716351138408
 31
0.0000000000000000
  0
LINE
  5
364
100
AcDbEntity
  8
MAIN0
  6
HIDDEN
 62
3
100
AcDbLine
 10
411.7509622871723
 20
91.84716351138397
 30
0.0000000000000000
 11
411.7509622871723
 21
97.84716351138397
 31
0.0000000000000000
  0
LINE
  5
365
100
AcDbEntity
  8
MAIN0
  6
CONTINUOUS
 62
3
100
AcDbLine
 10
344.2509622872984
 20
331.6110480762242
 30
0.0000000000000000
 11
373.7509622866677
 21
331.6110480762405
 31
0.0000000000000000
  0
LINE
  5
366
100
AcDbEntity
  8
MAIN0
  6
CONTINUOUS
 62
3
100
AcDbLine
 10
421.7509622871490
 20
335.6110480762671
 30
0.0000000000000000
 11
421.7509622871780
 21
367.6110480762671
 31
0.0000000000000000
  0
LINE
  5
367
100
AcDbEntity
  8
MAIN0
  6
CONTINUOUS
 62
3
100
AcDbLine
 10
344.4509622872984
 20
368.6110480762243
 30
0.0000000000000000
 11
420.7509622871769
 21
368.6110480762666
 31
0.0000000000000000
  0
LINE
  5
368
100
AcDbEntity
  8
MAIN0
  6
CONTINUOUS
 62
3
100
AcDbLine
 10
390.4509622870190
 20
343.8110480762498
 30
0.0000000000000000
 11
390.4509622870190
 21
352.8110480762499
 31
0.0000000000000000
  0
LINE
  5
369
100
AcDbEntity
  8
MAIN0
  6
CONTINUOUS
 62
3
100
AcDbLine
 10
394.0009622868317
 20
333.6110480762518
 30
0.0000000000000000
 11
394.0009622868329
 21
343.2110480762518
 31
0.0000000000000000
  0
LINE
  5
36A
100
AcDbEntity
  8
MAIN0
  6
CONTINUOUS
 62
3
100
AcDbLine
 10
390.6509622870193
 20
343.6110480762501
 30
0.0000000000000000
 11
393.6009622868329
 21
343.6110480762517
 31
0.0000000000000000
  0
LINE
  5
36B
100
AcDbEntity
  8
MAIN0
  6
CONTINUOUS
 62
3
100
AcDbLine
 10
390.6509622870188
 20
353.0110480762500
 30
0.0000000000000000
 11
394.5009622870190
 21
353.0110480762521
 31
0.0000000000000000
  0
LINE
  5
36C
100
AcDbEntity
  8
MAIN0
  6
CONTINUOUS
 62
3
100
AcDbLine
 10
394.0009622868328
 20
343.2110480762520
 30
0.0000000000000000
 11
393.6009622868329
 21
343.6110480762517
 31
0.0000000000000000
  0
ARC
  5
36D
100
AcDbEntity
  8
MAIN0
  6
CONTINUOUS
 62
3
100
AcDbCircle
 10
390.6509622870191
 20
343.8110480762500
 30
0.0000000000000000
 40
0.2000000000000000
100
AcDbArc
 50
180.0000000000000
 51
270.0000000000000
  0
ARC
  5
36E
100
AcDbEntity
  8
MAIN0
  6
CONTINUOUS
 62
3
100
AcDbCircle
 10
390.6509622870191
 20
352.8110480762500
 30
0.0000000000000000
 40
0.2000000000000000
100
AcDbArc
 50
90.00000000000000
 51
180.0000000000000
  0
LINE
  5
36F
100
AcDbEntity
  8
MAIN0
  6
CONTINUOUS
 62
3
100
AcDbLine
 10
394.5009622870190
 20
353.0110480762520
 30
0.0000000000000000
 11
394.5009622870190
 21
353.1110480762520
 31
0.0000000000000000
  0
LINE
  5
370
100
AcDbEntity
  8
MAIN0
  6
CONTINUOUS
 62
3
100
AcDbLine
 10
411.0509622870191
 20
343.8110480762498
 30
0.0000000000000000
 11
411.0509622870191
 21
352.8110480762499
 31
0.0000000000000000
  0
LINE
  5
371
100
AcDbEntity
  8
MAIN0
  6
CONTINUOUS
 62
3
100
AcDbLine
 10
407.5009622872043
 20
333.6110480762519
 30
0.0000000000000000
 11
407.5009622872055
 21
343.2110480762519
 31
0.0000000000000000
  0
LINE
  5
372
100
AcDbEntity
  8
MAIN0
  6
CONTINUOUS
 62
3
100
AcDbLine
 10
410.8509622870191
 20
343.6110480762500
 30
0.0000000000000000
 11
407.9009622872055
 21
343.6110480762517
 31
0.0000000000000000
  0
LINE
  5
373
100
AcDbEntity
  8
MAIN0
  6
CONTINUOUS
 62
3
100
AcDbLine
 10
410.8509622870192
 20
353.0110480762502
 30
0.0000000000000000
 11
407.0009622870190
 21
353.0110480762523
 31
0.0000000000000000
  0
LINE
  5
374
100
AcDbEntity
  8
MAIN0
  6
CONTINUOUS
 62
3
100
AcDbLine
 10
407.5009622872057
 20
343.2110480762517
 30
0.0000000000000000
 11
407.9009622872056
 21
343.6110480762515
 31
0.0000000000000000
  0
ARC
  5
375
100
AcDbEntity
  8
MAIN0
  6
CONTINUOUS
 62
3
100
AcDbCircle
 10
410.8509622870191
 20
343.8110480762500
 30
0.0000000000000000
 40
0.2000000000000000
100
AcDbArc
 50
270.0000000000000
 51
360.0000000000000
  0
ARC
  5
376
100
AcDbEntity
  8
MAIN0
  6
CONTINUOUS
 62
3
100
AcDbCircle
 10
410.8509622870191
 20
352.8110480762500
 30
0.0000000000000000
 40
0.2000000000000000
100
AcDbArc
 50
0.0000000000000000
 51
89.99999999999997
  0
LINE
  5
377
100
AcDbEntity
  8
MAIN0
  6
CONTINUOUS
 62
3
100
AcDbLine
 10
407.0009622870190
 20
353.0110480762520
 30
0.0000000000000000
 11
407.0009622870190
 21
353.1110480762520
 31
0.0000000000000000
  0
LINE
  5
378
100
AcDbEntity
  8
MAIN0
  6
CONTINUOUS
 62
3
100
AcDbLine
 10
379.7509622868869
 20
335.6110480762440
 30
0.0000000000000000
 11
379.7509622868528
 21
368.6110480762440
 31
0.0000000000000000
  0
LINE
  5
379
100
AcDbEntity
  8
MAIN0
  6
CONTINUOUS
 62
3
100
AcDbLine
 10
381.7509622868888
 20
333.6110480762450
 30
0.0000000000000000
 11
394.0009622868315
 21
333.6110480762518
 31
0.0000000000000000
  0
LINE
  5
37A
100
AcDbEntity
  8
MAIN0
  6
CONTINUOUS
 62
3
100
AcDbLine
 10
407.5009622872042
 20
333.6110480762592
 30
0.0000000000000000
 11
419.7509622871472
 21
333.6110480762660
 31
0.0000000000000000
  0
LINE
  5
37B
100
AcDbEntity
  8
MAIN0
  6
CONTINUOUS
 62
3
100
AcDbLine
 10
344.2509622872957
 20
336.1110480762242
 30
0.0000000000000000
 11
379.7509622868860
 21
336.1110480762439
 31
0.0000000000000000
  0
LINE
  5
37C
100
AcDbEntity
  8
MAIN0
  6
CONTINUOUS
 62
3
100
AcDbLine
 10
344.2509622872930
 20
339.6110480762244
 30
0.0000000000000000
 11
379.7509622868832
 21
339.6110480762441
 31
0.0000000000000000
  0
LINE
  5
37D
100
AcDbEntity
  8
MAIN0
  6
CONTINUOUS
 62
3
100
AcDbLine
 10
373.7509622866678
 20
331.6110480762407
 30
0.0000000000000000
 11
373.7509622866670
 21
336.1110480762407
 31
0.0000000000000000
  0
LINE
  5
37E
100
AcDbEntity
  8
MAIN0
  6
CENTER
 62
3
100
AcDbLine
 10
400.7509622870342
 20
328.1190286148666
 30
0.0000000000000000
 11
400.7509622870102
 21
371.4588026763420
 31
0.0000000000000000
  0
LINE
  5
37F
100
AcDbEntity
  8
MAIN0
  6
CONTINUOUS
 62
3
100
AcDbLine
 10
394.5009622870190
 20
353.1110480762521
 30
0.0000000000000000
 11
407.0009622870190
 21
353.1110480762591
 31
0.0000000000000000
  0
LINE
  5
380
100
AcDbEntity
  8
MAIN0
  6
HIDDEN
 62
3
100
AcDbLine
 10
373.7509622869950
 20
336.3610480762464
 30
0.0000000000000000
 11
373.7509622869864
 21
344.1110480762464
 31
0.0000000000000000
  0
LINE
  5
381
100
AcDbEntity
  8
MAIN0
  6
HIDDEN
 62
3
100
AcDbLine
 10
374.1009622869947
 20
336.7110480762468
 30
0.0000000000000000
 11
374.1009622869831
 21
347.1110480762468
 31
0.0000000000000000
  0
LINE
  5
382
100
AcDbEntity
  8
MAIN0
  6
HIDDEN
 62
3
100
AcDbLine
 10
374.1009622869947
 20
336.7110480762468
 30
0.0000000000000000
 11
377.4009622869946
 21
336.7110480762505
 31
0.0000000000000000
  0
LINE
  5
383
100
AcDbEntity
  8
MAIN0
  6
HIDDEN
 62
3
100
AcDbLine
 10
373.5009622869955
 20
336.1110480762463
 30
0.0000000000000000
 11
374.1009622869948
 21
336.7110480762470
 31
0.0000000000000000
  0
LINE
  5
384
100
AcDbEntity
  8
MAIN0
  6
CENTER
 62
3
100
AcDbLine
 10
375.7509622869810
 20
349.0427013603703
 30
0.0000000000000000
 11
375.7509622869964
 21
335.1612560867626
 31
0.0000000000000000
  0
LINE
  5
385
100
AcDbEntity
  8
MAIN0
  6
HIDDEN
 62
3
100
AcDbLine
 10
377.4009622869831
 20
347.1110480762504
 30
0.0000000000000000
 11
377.4009622869946
 21
336.7110480762505
 31
0.0000000000000000
  0
LINE
  5
386
100
AcDbEntity
  8
MAIN0
  6
HIDDEN
 62
3
100
AcDbLine
 10
377.7509622869864
 20
344.1110480762508
 30
0.0000000000000000
 11
377.7509622869950
 21
336.3610480762508
 31
0.0000000000000000
  0
LINE
  5
387
100
AcDbEntity
  8
MAIN0
  6
HIDDEN
 62
3
100
AcDbLine
 10
377.4009622869946
 20
336.7110480762507
 30
0.0000000000000000
 11
378.0009622869953
 21
336.1110480762513
 31
0.0000000000000000
  0
LINE
  5
388
100
AcDbEntity
  8
MAIN0
  6
HIDDEN
 62
3
100
AcDbLine
 10
373.7509622869864
 20
344.1110480762464
 30
0.0000000000000000
 11
377.7509622869864
 21
344.1110480762508
 31
0.0000000000000000
  0
LINE
  5
389
100
AcDbEntity
  8
MAIN0
  6
HIDDEN
 62
3
100
AcDbLine
 10
375.7509622869820
 20
348.0636760204114
 30
0.0000000000000000
 11
377.4009622869830
 21
347.1110480762504
 31
0.0000000000000000
  0
LINE
  5
38A
100
AcDbEntity
  8
MAIN0
  6
HIDDEN
 62
3
100
AcDbLine
 10
374.1009622869831
 20
347.1110480762469
 30
0.0000000000000000
 11
375.7509622869821
 21
348.0636760204116
 31
0.0000000000000000
  0
LINE
  5
38B
100
AcDbEntity
  8
MAIN0
  6
HIDDEN
 62
3
100
AcDbLine
 10
374.1009622869831
 20
347.1110480762468
 30
0.0000000000000000
 11
377.4009622869831
 21
347.1110480762504
 31
0.0000000000000000
  0
LINE
  5
38C
100
AcDbEntity
  8
MAIN0
  6
CONTINUOUS
 62
3
100
AcDbLine
 10
379.7509622868867
 20
335.6110480762438
 30
0.0000000000000000
 11
381.7509622868888
 21
333.6110480762450
 31
0.0000000000000000
  0
LINE
  5
38D
100
AcDbEntity
  8
MAIN0
  6
CONTINUOUS
 62
3
100
AcDbLine
 10
419.7509622871473
 20
333.6110480762659
 30
0.0000000000000000
 11
421.7509622871491
 21
335.6110480762671
 31
0.0000000000000000
  0
LINE
  5
38E
100
AcDbEntity
  8
MAIN0
  6
CONTINUOUS
 62
3
100
AcDbLine
 10
344.2509622872983
 20
368.4110480762241
 30
0.0000000000000000
 11
344.4509622872982
 21
368.6110480762242
 31
0.0000000000000000
  0
LINE
  5
38F
100
AcDbEntity
  8
MAIN0
  6
CONTINUOUS
 62
3
100
AcDbLine
 10
421.7509622871779
 20
367.6110480762672
 30
0.0000000000000000
 11
420.7509622871787
 21
368.6110480762667
 31
0.0000000000000000
  0
LINE
  5
390
100
AcDbEntity
  8
MAIN0
  6
CONTINUOUS
 62
3
100
AcDbLine
 10
344.2509622872983
 20
331.6110480762241
 30
0.0000000000000000
 11
344.2509622872983
 21
368.4110480762241
 31
0.0000000000000000
  0
LINE
  5
391
100
AcDbEntity
  8
MAIN0
  6
CENTER
 62
3
100
AcDbLine
 10
394.2509622869791
 20
356.3977602180309
 30
0.0000000000000000
 11
394.2509622869856
 21
364.5988858140115
 31
0.0000000000000000
  0
LINE
  5
392
100
AcDbEntity
  8
MAIN0
  6
CENTER
 62
3
100
AcDbLine
 10
390.2350541093967
 20
360.6110480762698
 30
0.0000000000000000
 11
398.5928069676741
 21
360.6110480762605
 31
0.0000000000000000
  0
CIRCLE
  5
393
100
AcDbEntity
  8
MAIN0
  6
CONTINUOUS
 62
3
100
AcDbCircle
 10
394.2509622869825
 20
360.6110480762654
 30
0.0000000000000000
 40
3.000000000000000
  0
CIRCLE
  5
394
100
AcDbEntity
  8
MAIN0
  6
CONTINUOUS
 62
3
100
AcDbCircle
 10
394.2509622869825
 20
360.6110480762654
 30
0.0000000000000000
 40
2.458734000000000
  0
LINE
  5
395
100
AcDbEntity
  8
MAIN0
  6
CONTINUOUS
 62
3
100
AcDbLine
 10
395.9830130945513
 20
360.6110480762654
 30
0.0000000000000000
 11
395.1169876907669
 21
362.1110480762654
 31
0.0000000000000000
  0
LINE
  5
396
100
AcDbEntity
  8
MAIN0
  6
CONTINUOUS
 62
3
100
AcDbLine
 10
395.1169876907670
 20
362.1110480762654
 30
0.0000000000000000
 11
393.3849368831981
 21
362.1110480762654
 31
0.0000000000000000
  0
LINE
  5
397
100
AcDbEntity
  8
MAIN0
  6
CONTINUOUS
 62
3
100
AcDbLine
 10
393.3849368831980
 20
362.1110480762652
 30
0.0000000000000000
 11
392.5189114794135
 21
360.6110480762653
 31
0.0000000000000000
  0
LINE
  5
398
100
AcDbEntity
  8
MAIN0
  6
CONTINUOUS
 62
3
100
AcDbLine
 10
392.5189114794136
 20
360.6110480762654
 30
0.0000000000000000
 11
393.3849368831980
 21
359.1110480762654
 31
0.0000000000000000
  0
LINE
  5
399
100
AcDbEntity
  8
MAIN0
  6
CONTINUOUS
 62
3
100
AcDbLine
 10
393.3849368831981
 20
359.1110480762654
 30
0.0000000000000000
 11
395.1169876907670
 21
359.1110480762654
 31
0.0000000000000000
  0
LINE
  5
39A
100
AcDbEntity
  8
MAIN0
  6
CONTINUOUS
 62
3
100
AcDbLine
 10
395.1169876907668
 20
359.1110480762653
 30
0.0000000000000000
 11
395.9830130945512
 21
360.6110480762652
 31
0.0000000000000000
  0
LINE
  5
39B
100
AcDbEntity
  8
MAIN0
  6
HIDDEN
 62
3
100
AcDbLine
 10
403.6509622870120
 20
368.6110480762559
 30
0.0000000000000000
 11
403.2509622870120
 21
368.2110480762559
 31
0.0000000000000000
  0
LINE
  5
39C
100
AcDbEntity
  8
MAIN0
  6
HIDDEN
 62
3
100
AcDbLine
 10
403.2509622870120
 20
368.2110480762557
 30
0.0000000000000000
 11
403.2509622870120
 21
360.6110480762557
 31
0.0000000000000000
  0
LINE
  5
39D
100
AcDbEntity
  8
MAIN0
  6
HIDDEN
 62
3
100
AcDbLine
 10
403.2509622870120
 20
360.6110480762557
 30
0.0000000000000000
 11
398.2509622870120
 21
360.6110480762557
 31
0.0000000000000000
  0
LINE
  5
39E
100
AcDbEntity
  8
MAIN0
  6
HIDDEN
 62
3
100
AcDbLine
 10
403.2509622870118
 20
360.6110480762558
 30
0.0000000000000000
 11
400.7509622870118
 21
359.1676724032816
 31
0.0000000000000000
  0
LINE
  5
39F
100
AcDbEntity
  8
MAIN0
  6
HIDDEN
 62
3
100
AcDbLine
 10
400.7509622870118
 20
359.1676724032814
 30
0.0000000000000000
 11
398.2509622870118
 21
360.6110480762555
 31
0.0000000000000000
  0
LINE
  5
3A0
100
AcDbEntity
  8
MAIN0
  6
HIDDEN
 62
3
100
AcDbLine
 10
398.2509622870120
 20
360.6110480762557
 30
0.0000000000000000
 11
398.2509622870120
 21
368.2110480762557
 31
0.0000000000000000
  0
LINE
  5
3A1
100
AcDbEntity
  8
MAIN0
  6
HIDDEN
 62
3
100
AcDbLine
 10
398.2509622870120
 20
368.2110480762557
 30
0.0000000000000000
 11
397.8509622870121
 21
368.6110480762557
 31
0.0000000000000000
  0
LINE
  5
3A2
100
AcDbEntity
  8
MAIN0
  6
CENTER
 62
3
100
AcDbLine
 10
410.2954359017181
 20
358.6110480762608
 30
0.0000000000000000
 11
423.9292302879373
 21
358.6110480762684
 31
0.0000000000000000
  0
LINE
  5
3A3
100
AcDbEntity
  8
MAIN0
  6
HIDDEN
 62
3
100
AcDbLine
 10
421.7509622871697
 20
355.2110480762673
 30
0.0000000000000000
 11
421.3509622871698
 21
355.6110480762673
 31
0.0000000000000000
  0
LINE
  5
3A4
100
AcDbEntity
  8
MAIN0
  6
HIDDEN
 62
3
100
AcDbLine
 10
421.3509622871699
 20
355.6110480762673
 30
0.0000000000000000
 11
413.7509622871698
 21
355.6110480762673
 31
0.0000000000000000
  0
LINE
  5
3A5
100
AcDbEntity
  8
MAIN0
  6
HIDDEN
 62
3
100
AcDbLine
 10
413.7509622871698
 20
355.6110480762673
 30
0.0000000000000000
 11
413.7509622871698
 21
361.6110480762673
 31
0.0000000000000000
  0
LINE
  5
3A6
100
AcDbEntity
  8
MAIN0
  6
HIDDEN
 62
3
100
AcDbLine
 10
413.7509622871698
 20
361.6110480762673
 30
0.0000000000000000
 11
421.3509622871699
 21
361.6110480762673
 31
0.0000000000000000
  0
LINE
  5
3A7
100
AcDbEntity
  8
MAIN0
  6
HIDDEN
 62
3
100
AcDbLine
 10
421.3509622871700
 20
361.6110480762671
 30
0.0000000000000000
 11
421.7509622871699
 21
362.0110480762671
 31
0.0000000000000000
  0
LINE
  5
3A8
100
AcDbEntity
  8
MAIN0
  6
HIDDEN
 62
3
100
AcDbLine
 10
413.7509622871698
 20
355.6110480762673
 30
0.0000000000000000
 11
412.0189114796009
 21
358.6110480762673
 31
0.0000000000000000
  0
LINE
  5
3A9
100
AcDbEntity
  8
MAIN0
  6
HIDDEN
 62
3
100
AcDbLine
 10
412.0189114796009
 20
358.6110480762673
 30
0.0000000000000000
 11
413.7509622871698
 21
361.6110480762673
 31
0.0000000000000000
  0
LINE
  5
3AA
100
AcDbEntity
  8
MAIN0
  6
CONTINUOUS
 62
3
100
AcDbLine
 10
338.9509622872993
 20
368.1110480762243
 30
0.0000000000000000
 11
344.2509622872985
 21
368.1110480762243
 31
0.0000000000000000
  0
LINE
  5
3AB
100
AcDbEntity
  8
MAIN0
  6
CONTINUOUS
 62
3
100
AcDbLine
 10
338.9509622872993
 20
336.1110480762243
 30
0.0000000000000000
 11
344.2509622873173
 21
336.1110480762243
 31
0.0000000000000000
  0
LINE
  5
3AC
100
AcDbEntity
  8
MAIN0
  6
CONTINUOUS
 62
3
100
AcDbLine
 10
338.9509622872993
 20
368.1110480762243
 30
0.0000000000000000
 11
338.9509622872993
 21
336.1110480762243
 31
0.0000000000000000
  0
LINE
  5
3AD
100
AcDbEntity
  8
MAIN0
  6
CONTINUOUS
 62
3
100
AcDbLine
 10
344.2509622872984
 20
368.1110480762242
 30
0.0000000000000000
 11
344.2509622873172
 21
336.1110480762242
 31
0.0000000000000000
  0
LINE
  5
3AE
100
AcDbEntity
  8
MAIN0
  6
CONTINUOUS
 62
3
100
AcDbLine
 10
338.9509622872993
 20
339.6110480762243
 30
0.0000000000000000
 11
344.2509622873153
 21
339.6110480762243
 31
0.0000000000000000
  0
LINE
  5
3AF
100
AcDbEntity
  8
MAIN0
  6
CONTINUOUS
 62
3
100
AcDbLine
 10
338.9509622872993
 20
366.1110480762243
 30
0.0000000000000000
 11
344.2509622872997
 21
366.1110480762243
 31
0.0000000000000000
  0
LINE
  5
3B0
100
AcDbEntity
  8
MAIN0
  6
CONTINUOUS
 62
3
100
AcDbLine
 10
338.9509622873026
 20
85.34716351142684
 30
0.0000000000000000
 11
344.2509622873017
 21
85.34716351142684
 31
0.0000000000000000
  0
LINE
  5
3B1
100
AcDbEntity
  8
MAIN0
  6
CONTINUOUS
 62
3
100
AcDbLine
 10
338.9509622873026
 20
117.3471635114268
 30
0.0000000000000000
 11
344.2509622873206
 21
117.3471635114268
 31
0.0000000000000000
  0
LINE
  5
3B2
100
AcDbEntity
  8
MAIN0
  6
CONTINUOUS
 62
3
100
AcDbLine
 10
338.9509622873026
 20
85.34716351142684
 30
0.0000000000000000
 11
338.9509622873026
 21
117.3471635114268
 31
0.0000000000000000
  0
LINE
  5
3B3
100
AcDbEntity
  8
MAIN0
  6
CONTINUOUS
 62
3
100
AcDbLine
 10
344.2509622873019
 20
85.34716351142687
 30
0.0000000000000000
 11
344.2509622873207
 21
117.3471635114269
 31
0.0000000000000000
  0
LINE
  5
3B4
100
AcDbEntity
  8
MAIN0
  6
CONTINUOUS
 62
3
100
AcDbLine
 10
338.9509622873026
 20
113.8471635114268
 30
0.0000000000000000
 11
344.2509622873185
 21
113.8471635114268
 31
0.0000000000000000
  0
LINE
  5
3B5
100
AcDbEntity
  8
MAIN0
  6
CONTINUOUS
 62
3
100
AcDbLine
 10
338.9509622873026
 20
87.34716351142684
 30
0.0000000000000000
 11
344.2509622873030
 21
87.34716351142684
 31
0.0000000000000000
  0
LINE
  5
3B6
100
AcDbEntity
  8
MAIN0
  6
CONTINUOUS
 62
3
100
AcDbLine
 10
410.6509622876063
 20
353.0110480762614
 30
0.0000000000000000
 11
390.8509622864888
 21
353.0110480762614
 31
0.0000000000000000
  0
LINE
  5
3B7
100
AcDbEntity
  8
MAIN0
  6
CONTINUOUS
 62
3
100
AcDbLine
 10
390.5509622864889
 20
352.7110480762584
 30
0.0000000000000000
 11
390.8509622864889
 21
353.0110480762583
 31
0.0000000000000000
  0
LINE
  5
3B8
100
AcDbEntity
  8
MAIN0
  6
CONTINUOUS
 62
3
100
AcDbLine
 10
390.5509622870688
 20
343.9110480762586
 30
0.0000000000000000
 11
390.5509622870688
 21
352.7110480768383
 31
0.0000000000000000
  0
LINE
  5
3B9
100
AcDbEntity
  8
MAIN0
  6
CONTINUOUS
 62
3
100
AcDbLine
 10
390.8509622864886
 20
343.6110480762583
 30
0.0000000000000000
 11
390.5509622864885
 21
343.9110480762585
 31
0.0000000000000000
  0
LINE
  5
3BA
100
AcDbEntity
  8
MAIN0
  6
CONTINUOUS
 62
3
100
AcDbLine
 10
393.9009622868823
 20
343.6110480762578
 30
0.0000000000000000
 11
390.8509622864887
 21
343.6110480762586
 31
0.0000000000000000
  0
LINE
  5
3BB
100
AcDbEntity
  8
MAIN0
  6
CONTINUOUS
 62
3
100
AcDbLine
 10
394.0009622868668
 20
332.8110480762574
 30
0.0000000000000000
 11
394.0009622868824
 21
343.5110480762575
 31
0.0000000000000000
  0
LINE
  5
3BC
100
AcDbEntity
  8
MAIN0
  6
CONTINUOUS
 62
3
100
AcDbLine
 10
410.9509622876061
 20
352.7110480762584
 30
0.0000000000000000
 11
410.6509622876063
 21
353.0110480762581
 31
0.0000000000000000
  0
LINE
  5
3BD
100
AcDbEntity
  8
MAIN0
  6
CONTINUOUS
 62
3
100
AcDbLine
 10
410.9509622876063
 20
343.9110480762584
 30
0.0000000000000000
 11
410.9509622876063
 21
352.7110480762584
 31
0.0000000000000000
  0
LINE
  5
3BE
100
AcDbEntity
  8
MAIN0
  6
CONTINUOUS
 62
3
100
AcDbLine
 10
410.6509622876062
 20
343.6110480762584
 30
0.0000000000000000
 11
410.9509622876062
 21
343.9110480762586
 31
0.0000000000000000
  0
LINE
  5
3BF
100
AcDbEntity
  8
MAIN0
  6
CONTINUOUS
 62
3
100
AcDbLine
 10
407.6009622872128
 20
343.6110480762575
 30
0.0000000000000000
 11
410.6509622876063
 21
343.6110480762584
 31
0.0000000000000000
  0
LINE
  5
3C0
100
AcDbEntity
  8
MAIN0
  6
CONTINUOUS
 62
3
100
AcDbLine
 10
407.5009622872309
 20
332.8110480762537
 30
0.0000000000000000
 11
407.5009622872129
 21
343.5110480762573
 31
0.0000000000000000
  0
LINE
  5
3C1
100
AcDbEntity
  8
MAIN0
  6
CONTINUOUS
 62
3
100
AcDbLine
 10
407.3009622872313
 20
332.6110480762538
 30
0.0000000000000000
 11
394.2009622868665
 21
332.6110480762575
 31
0.0000000000000000
  0
LINE
  5
3C2
100
AcDbEntity
  8
MAIN0
  6
CONTINUOUS
 62
3
100
AcDbLine
 10
407.5009622872307
 20
332.8110480762537
 30
0.0000000000000000
 11
407.3009622872311
 21
332.6110480762538
 31
0.0000000000000000
  0
LINE
  5
3C3
100
AcDbEntity
  8
MAIN0
  6
CONTINUOUS
 62
3
100
AcDbLine
 10
394.2009622868661
 20
332.6110480762576
 30
0.0000000000000000
 11
394.0009622868666
 21
332.8110480762574
 31
0.0000000000000000
  0
ARC
  5
3C4
100
AcDbEntity
  8
MAIN0
  6
CONTINUOUS
 62
3
100
AcDbCircle
 10
407.6009622872128
 20
343.5110480762575
 30
0.0000000000000000
 40
0.1000000000000000
100
AcDbArc
 50
90.00000000000000
 51
180.0000000000000
  0
ARC
  5
3C5
100
AcDbEntity
  8
MAIN0
  6
CONTINUOUS
 62
3
100
AcDbCircle
 10
393.9009622868823
 20
343.5110480762576
 30
0.0000000000000000
 40
0.1000000000000000
100
AcDbArc
 50
0.0000000000000000
 51
90.00000000000000
  0
LINE
  5
3C6
100
AcDbEntity
  8
MAIN0
  6
CENTER
 62
3
100
AcDbLine
 10
404.8268693603645
 20
347.5110480762614
 30
0.0000000000000000
 11
396.5607804808201
 21
347.5110480762614
 31
0.0000000000000000
  0
LINE
  5
3C7
100
AcDbEntity
  8
MAIN0
  6
HIDDEN
 62
3
100
AcDbLine
 10
396.7509622870129
 20
334.1110480762575
 30
0.0000000000000000
 11
396.7509622870129
 21
332.8110480762556
 31
0.0000000000000000
  0
LINE
  5
3C8
100
AcDbEntity
  8
MAIN0
  6
HIDDEN
 62
3
100
AcDbLine
 10
396.7509622870130
 20
332.8110480762556
 30
0.0000000000000000
 11
396.5509622870130
 21
332.6110480762556
 31
0.0000000000000000
  0
LINE
  5
3C9
100
AcDbEntity
  8
MAIN0
  6
HIDDEN
 62
3
100
AcDbLine
 10
397.8509622870125
 20
334.1110480762609
 30
0.0000000000000000
 11
398.6509622870126
 21
334.9110480762609
 31
0.0000000000000000
  0
LINE
  5
3CA
100
AcDbEntity
  8
MAIN0
  6
HIDDEN
 62
3
100
AcDbLine
 10
404.7509622870130
 20
334.1110480762639
 30
0.0000000000000000
 11
396.7509622870130
 21
334.1110480762577
 31
0.0000000000000000
  0
LINE
  5
3CB
100
AcDbEntity
  8
MAIN0
  6
HIDDEN
 62
3
100
AcDbLine
 10
398.6509622870130
 20
334.9110480762608
 30
0.0000000000000000
 11
398.6509622870130
 21
344.6110480763028
 31
0.0000000000000000
  0
LINE
  5
3CC
100
AcDbEntity
  8
MAIN0
  6
HIDDEN
 62
3
100
AcDbLine
 10
398.2509622870130
 20
334.5110480762609
 30
0.0000000000000000
 11
398.2509622870130
 21
342.6110480762745
 31
0.0000000000000000
  0
LINE
  5
3CD
100
AcDbEntity
  8
MAIN0
  6
HIDDEN
 62
3
100
AcDbLine
 10
398.6509622870129
 20
334.9110480762608
 30
0.0000000000000000
 11
402.8509622870129
 21
334.9110480762608
 31
0.0000000000000000
  0
LINE
  5
3CE
100
AcDbEntity
  8
MAIN0
  6
HIDDEN
 62
3
100
AcDbLine
 10
398.2509622870128
 20
342.6110480762744
 30
0.0000000000000000
 11
403.2509622870128
 21
342.6110480762742
 31
0.0000000000000000
  0
LINE
  5
3CF
100
AcDbEntity
  8
MAIN0
  6
HIDDEN
 62
3
100
AcDbLine
 10
402.8509622870131
 20
344.6110480763030
 30
0.0000000000000000
 11
402.8509622870131
 21
334.9110480762608
 31
0.0000000000000000
  0
LINE
  5
3D0
100
AcDbEntity
  8
MAIN0
  6
HIDDEN
 62
3
100
AcDbLine
 10
403.2509622870130
 20
342.6110480762743
 30
0.0000000000000000
 11
403.2509622870130
 21
334.5110480762609
 31
0.0000000000000000
  0
LINE
  5
3D1
100
AcDbEntity
  8
MAIN0
  6
HIDDEN
 62
3
100
AcDbLine
 10
402.8509622870130
 20
334.9110480762606
 30
0.0000000000000000
 11
403.6509622870129
 21
334.1110480762607
 31
0.0000000000000000
  0
LINE
  5
3D2
100
AcDbEntity
  8
MAIN0
  6
HIDDEN
 62
3
100
AcDbLine
 10
404.7509622870129
 20
334.1110480762639
 30
0.0000000000000000
 11
404.7509622870129
 21
332.8110480762556
 31
0.0000000000000000
  0
LINE
  5
3D3
100
AcDbEntity
  8
MAIN0
  6
HIDDEN
 62
3
100
AcDbLine
 10
404.7509622870130
 20
332.8110480762555
 30
0.0000000000000000
 11
404.9509622870130
 21
332.6110480762555
 31
0.0000000000000000
  0
LINE
  5
3D4
100
AcDbEntity
  8
MAIN0
  6
HIDDEN
 62
3
100
AcDbLine
 10
400.7509622870131
 20
345.8234836416174
 30
0.0000000000000000
 11
402.8509622870129
 21
344.6110480763191
 31
0.0000000000000000
  0
LINE
  5
3D5
100
AcDbEntity
  8
MAIN0
  6
HIDDEN
 62
3
100
AcDbLine
 10
400.7509622870131
 20
345.8234836416174
 30
0.0000000000000000
 11
398.6509622870130
 21
344.6110480763190
 31
0.0000000000000000
  0
LINE
  5
3D6
100
AcDbEntity
  8
MAIN0
  6
CONTINUOUS
 62
3
100
AcDbLine
 10
404.7509622870258
 20
329.6110480762546
 30
0.0000000000000000
 11
396.7509622870258
 21
329.6110480762568
 31
0.0000000000000000
  0
LINE
  5
3D7
100
AcDbEntity
  8
MAIN0
  6
CONTINUOUS
 62
3
100
AcDbLine
 10
404.7509622870258
 20
332.6110480762545
 30
0.0000000000000000
 11
404.7509622870258
 21
329.6110480762545
 31
0.0000000000000000
  0
LINE
  5
3D8
100
AcDbEntity
  8
MAIN0
  6
CONTINUOUS
 62
3
100
AcDbLine
 10
396.7509622870258
 20
332.6110480762545
 30
0.0000000000000000
 11
396.7509622870258
 21
329.6110480762545
 31
0.0000000000000000
  0
LINE
  5
3D9
100
AcDbEntity
  8
MAIN0
  6
HIDDEN
 62
3
100
AcDbLine
 10
403.7509622870258
 20
329.6110480762549
 30
0.0000000000000000
 11
403.7509622870258
 21
334.1110480762632
 31
0.0000000000000000
  0
LINE
  5
3DA
100
AcDbEntity
  8
MAIN0
  6
HIDDEN
 62
3
100
AcDbLine
 10
397.7509622870258
 20
329.6110480762549
 30
0.0000000000000000
 11
397.7509622870258
 21
334.1110480762632
 31
0.0000000000000000
  0
LINE
  5
3DB
100
AcDbEntity
  8
MAIN0
  6
HIDDEN
 62
3
100
AcDbLine
 10
398.6509622870129
 20
344.6110480763028
 30
0.0000000000000000
 11
402.8509622870130
 21
344.6110480763030
 31
0.0000000000000000
  0
LINE
  5
3DC
100
AcDbEntity
  8
MAIN0
  6
CONTINUOUS
 62
3
100
AcDbLine
 10
410.9509622875883
 20
100.7471635113930
 30
0.0000000000000000
 11
410.6509622875882
 21
100.4471635113931
 31
0.0000000000000000
  0
LINE
  5
3DD
100
AcDbEntity
  8
MAIN0
  6
CONTINUOUS
 62
3
100
AcDbLine
 10
410.9509622870085
 20
109.5471635113928
 30
0.0000000000000000
 11
410.9509622870085
 21
100.7471635108130
 31
0.0000000000000000
  0
LINE
  5
3DE
100
AcDbEntity
  8
MAIN0
  6
CONTINUOUS
 62
3
100
AcDbLine
 10
410.6509622875886
 20
109.8471635113928
 30
0.0000000000000000
 11
410.9509622875885
 21
109.5471635113929
 31
0.0000000000000000
  0
LINE
  5
3DF
100
AcDbEntity
  8
MAIN0
  6
CONTINUOUS
 62
3
100
AcDbLine
 10
407.6009622871948
 20
109.8471635113937
 30
0.0000000000000000
 11
410.6509622875884
 21
109.8471635113928
 31
0.0000000000000000
  0
LINE
  5
3E0
100
AcDbEntity
  8
MAIN0
  6
CONTINUOUS
 62
3
100
AcDbLine
 10
407.5009622872104
 20
120.6471635113939
 30
0.0000000000000000
 11
407.5009622871947
 21
109.9471635113939
 31
0.0000000000000000
  0
LINE
  5
3E1
100
AcDbEntity
  8
MAIN0
  6
CONTINUOUS
 62
3
100
AcDbLine
 10
390.5509622864709
 20
100.7471635113928
 30
0.0000000000000000
 11
390.8509622864707
 21
100.4471635113931
 31
0.0000000000000000
  0
LINE
  5
3E2
100
AcDbEntity
  8
MAIN0
  6
CONTINUOUS
 62
3
100
AcDbLine
 10
390.5509622864709
 20
109.5471635113930
 30
0.0000000000000000
 11
390.5509622864709
 21
100.7471635113930
 31
0.0000000000000000
  0
LINE
  5
3E3
100
AcDbEntity
  8
MAIN0
  6
CONTINUOUS
 62
3
100
AcDbLine
 10
390.8509622864709
 20
109.8471635113930
 30
0.0000000000000000
 11
390.5509622864709
 21
109.5471635113928
 31
0.0000000000000000
  0
LINE
  5
3E4
100
AcDbEntity
  8
MAIN0
  6
CONTINUOUS
 62
3
100
AcDbLine
 10
393.9009622868643
 20
109.8471635113937
 30
0.0000000000000000
 11
390.8509622864709
 21
109.8471635113929
 31
0.0000000000000000
  0
LINE
  5
3E5
100
AcDbEntity
  8
MAIN0
  6
CONTINUOUS
 62
3
100
AcDbLine
 10
394.0009622868463
 20
120.6471635113977
 30
0.0000000000000000
 11
394.0009622868643
 21
109.9471635113940
 31
0.0000000000000000
  0
LINE
  5
3E6
100
AcDbEntity
  8
MAIN0
  6
CONTINUOUS
 62
3
100
AcDbLine
 10
394.2009622868460
 20
120.8471635113974
 30
0.0000000000000000
 11
407.3009622872108
 21
120.8471635113937
 31
0.0000000000000000
  0
LINE
  5
3E7
100
AcDbEntity
  8
MAIN0
  6
CONTINUOUS
 62
3
100
AcDbLine
 10
394.0009622868462
 20
120.6471635113976
 30
0.0000000000000000
 11
394.2009622868459
 21
120.8471635113975
 31
0.0000000000000000
  0
LINE
  5
3E8
100
AcDbEntity
  8
MAIN0
  6
CONTINUOUS
 62
3
100
AcDbLine
 10
407.3009622872108
 20
120.8471635113939
 30
0.0000000000000000
 11
407.5009622872104
 21
120.6471635113939
 31
0.0000000000000000
  0
LINE
  5
3E9
100
AcDbEntity
  8
MAIN0
  6
CENTER
 62
3
100
AcDbLine
 10
394.9166330983193
 20
105.9471635113900
 30
0.0000000000000000
 11
406.8380737321353
 21
105.9471635113900
 31
0.0000000000000000
  0
ARC
  5
3EA
100
AcDbEntity
  8
MAIN0
  6
CONTINUOUS
 62
3
100
AcDbCircle
 10
393.9009622868642
 20
109.9471635113938
 30
0.0000000000000000
 40
0.1000000000000000
100
AcDbArc
 50
270.0000000000000
 51
360.0000000000000
  0
ARC
  5
3EB
100
AcDbEntity
  8
MAIN0
  6
CONTINUOUS
 62
3
100
AcDbCircle
 10
407.6009622871949
 20
109.9471635113936
 30
0.0000000000000000
 40
0.1000000000000000
100
AcDbArc
 50
180.0000000000000
 51
270.0000000000000
  0
LINE
  5
3EC
100
AcDbEntity
  8
MAIN0
  6
CONTINUOUS
 62
3
100
AcDbLine
 10
404.7509622870413
 20
120.8471635113966
 30
0.0000000000000000
 11
404.7509622870413
 21
123.8471635113966
 31
0.0000000000000000
  0
LINE
  5
3ED
100
AcDbEntity
  8
MAIN0
  6
CONTINUOUS
 62
3
100
AcDbLine
 10
396.7509622870412
 20
123.8471635113969
 30
0.0000000000000000
 11
404.7509622870412
 21
123.8471635113946
 31
0.0000000000000000
  0
LINE
  5
3EE
100
AcDbEntity
  8
MAIN0
  6
CONTINUOUS
 62
3
100
AcDbLine
 10
396.7509622870413
 20
120.8471635113966
 30
0.0000000000000000
 11
396.7509622870413
 21
123.8471635113966
 31
0.0000000000000000
  0
LINE
  5
3EF
100
AcDbEntity
  8
MAIN0
  6
CONTINUOUS
 62
3
100
AcDbLine
 10
390.8509622864708
 20
100.4471635113900
 30
0.0000000000000000
 11
410.6509622875883
 21
100.4471635113900
 31
0.0000000000000000
  0
CIRCLE
  5
3F0
100
AcDbEntity
  8
MAIN0
  6
CONTINUOUS
 62
3
100
AcDbCircle
 10
400.7509622870269
 20
105.9471635113900
 30
0.0000000000000000
 40
1.750000000000000
  0
CIRCLE
  5
3F1
100
AcDbEntity
  8
MAIN0
  6
CONTINUOUS
 62
3
100
AcDbCircle
 10
393.2509622870172
 20
104.1471635113816
 30
0.0000000000000000
 40
1.250000000000000
  0
CIRCLE
  5
3F2
100
AcDbEntity
  8
MAIN0
  6
CONTINUOUS
 62
3
100
AcDbCircle
 10
393.2509622870172
 20
104.1471635113816
 30
0.0000000000000000
 40
1.006000000000000
  0
LINE
  5
3F3
100
AcDbEntity
  8
MAIN0
  6
CENTER
 62
3
100
AcDbLine
 10
393.2509622870198
 20
101.8013306611725
 30
0.0000000000000000
 11
393.2509622870143
 21
106.7363130258583
 31
0.0000000000000000
  0
LINE
  5
3F4
100
AcDbEntity
  8
MAIN0
  6
CENTER
 62
3
100
AcDbLine
 10
390.6713107249599
 20
104.1471635113789
 30
0.0000000000000000
 11
395.4975256149602
 21
104.1471635113843
 31
0.0000000000000000
  0
CIRCLE
  5
3F5
100
AcDbEntity
  8
MAIN0
  6
CONTINUOUS
 62
3
100
AcDbCircle
 10
400.7509622870269
 20
115.6471635113900
 30
0.0000000000000000
 40
1.006000000000000
  0
CIRCLE
  5
3F6
100
AcDbEntity
  8
MAIN0
  6
CONTINUOUS
 62
3
100
AcDbCircle
 10
400.7509622870269
 20
115.6471635113900
 30
0.0000000000000000
 40
1.250000000000000
  0
LINE
  5
3F7
100
AcDbEntity
  8
MAIN0
  6
CENTER
 62
3
100
AcDbLine
 10
403.0967951372469
 20
115.6471635113899
 30
0.0000000000000000
 11
398.1618127725611
 21
115.6471635113899
 31
0.0000000000000000
  0
LINE
  5
3F8
100
AcDbEntity
  8
MAIN0
  6
CONTINUOUS
 62
3
100
AcDbLine
 10
511.5642172585790
 20
184.6110480762395
 30
0.0000000000000000
 11
478.5642172585790
 21
184.6110480762395
 31
0.0000000000000000
  0
LINE
  5
3F9
100
AcDbEntity
  8
MAIN0
  6
CONTINUOUS
 62
3
100
AcDbLine
 10
511.5642172585790
 20
282.6110480762396
 30
0.0000000000000000
 11
478.5642172585790
 21
282.6110480762396
 31
0.0000000000000000
  0
LINE
  5
3FA
100
AcDbEntity
  8
MAIN0
  6
CONTINUOUS
 62
3
100
AcDbLine
 10
478.5642172585790
 20
244.6110480765977
 30
0.0000000000000000
 11
477.5642172585790
 21
244.6110480766016
 31
0.0000000000000000
  0
LINE
  5
3FB
100
AcDbEntity
  8
MAIN0
  6
CONTINUOUS
 62
3
100
AcDbLine
 10
478.5642172585790
 20
222.6110480761751
 30
0.0000000000000000
 11
477.5642172585790
 21
222.6110480761751
 31
0.0000000000000000
  0
LINE
  5
3FC
100
AcDbEntity
  8
MAIN0
  6
CONTINUOUS
 62
3
100
AcDbLine
 10
478.5642172585790
 20
244.6110480765978
 30
0.0000000000000000
 11
478.5642172585790
 21
222.6110480761751
 31
0.0000000000000000
  0
LINE
  5
3FD
100
AcDbEntity
  8
MAIN0
  6
CONTINUOUS
 62
3
100
AcDbLine
 10
477.5642172585790
 20
281.6110480762396
 30
0.0000000000000000
 11
477.5642172585790
 21
244.6110480766017
 31
0.0000000000000000
  0
LINE
  5
3FE
100
AcDbEntity
  8
MAIN0
  6
HIDDEN
 62
3
100
AcDbLine
 10
484.5642172585767
 20
201.6110480763719
 30
0.0000000000000000
 11
477.5642172585767
 21
201.6110480763688
 31
0.0000000000000000
  0
LINE
  5
3FF
100
AcDbEntity
  8
MAIN0
  6
HIDDEN
 62
3
100
AcDbLine
 10
484.5642172585768
 20
201.6110480763177
 30
0.0000000000000000
 11
484.5642172585813
 21
193.6110480760331
 31
0.0000000000000000
  0
LINE
  5
400
100
AcDbEntity
  8
MAIN0
  6
HIDDEN
 62
3
100
AcDbLine
 10
511.7642172585789
 20
199.7110480763162
 30
0.0000000000000000
 11
484.5642172585779
 21
199.7110480762957
 31
0.0000000000000000
  0
LINE
  5
401
100
AcDbEntity
  8
MAIN0
  6
CENTER
 62
3
100
AcDbLine
 10
514.2827313564234
 20
197.6110480762249
 30
0.0000000000000000
 11
475.7403889018019
 21
197.6110480761939
 31
0.0000000000000000
  0
LINE
  5
402
100
AcDbEntity
  8
MAIN0
  6
HIDDEN
 62
3
100
AcDbLine
 10
511.7642172585789
 20
195.5110480761012
 30
0.0000000000000000
 11
484.5642172585801
 21
195.5110480761516
 31
0.0000000000000000
  0
LINE
  5
403
100
AcDbEntity
  8
MAIN0
  6
HIDDEN
 62
3
100
AcDbLine
 10
484.5642172585813
 20
193.6110480760331
 30
0.0000000000000000
 11
477.5642172585813
 21
193.6110480760221
 31
0.0000000000000000
  0
LINE
  5
404
100
AcDbEntity
  8
MAIN0
  6
HIDDEN
 62
3
100
AcDbLine
 10
502.5642172585790
 20
200.1110480762237
 30
0.0000000000000000
 11
512.1642172585789
 21
200.1110480762237
 31
0.0000000000000000
  0
LINE
  5
405
100
AcDbEntity
  8
MAIN0
  6
HIDDEN
 62
3
100
AcDbLine
 10
502.5642172585790
 20
195.1110480762237
 30
0.0000000000000000
 11
502.5642172585790
 21
200.1110480762237
 31
0.0000000000000000
  0
LINE
  5
406
100
AcDbEntity
  8
MAIN0
  6
HIDDEN
 62
3
100
AcDbLine
 10
511.7642172585790
 20
195.5110480762236
 30
0.0000000000000000
 11
511.7642172585790
 21
199.7110480762237
 31
0.0000000000000000
  0
LINE
  5
407
100
AcDbEntity
  8
MAIN0
  6
HIDDEN
 62
3
100
AcDbLine
 10
511.7642172585789
 20
199.7110480762237
 30
0.0000000000000000
 11
512.5642172585788
 21
200.5110480762236
 31
0.0000000000000000
  0
LINE
  5
408
100
AcDbEntity
  8
MAIN0
  6
HIDDEN
 62
3
100
AcDbLine
 10
512.1642172585789
 20
195.1110480762237
 30
0.0000000000000000
 11
502.5642172585790
 21
195.1110480762237
 31
0.0000000000000000
  0
LINE
  5
409
100
AcDbEntity
  8
MAIN0
  6
HIDDEN
 62
3
100
AcDbLine
 10
512.5642172585789
 20
194.7110480762237
 30
0.0000000000000000
 11
511.7642172585790
 21
195.5110480762235
 31
0.0000000000000000
  0
ARC
  5
40A
100
AcDbEntity
  8
MAIN0
  6
CONTINUOUS
 62
3
100
AcDbCircle
 10
475.0642172585790
 20
269.6110480762984
 30
0.0000000000000000
 40
4.000000000000000
100
AcDbArc
 50
308.6821874534895
 51
411.3178125465106
  0
ARC
  5
40B
100
AcDbEntity
  8
MAIN0
  6
CONTINUOUS
 62
3
100
AcDbCircle
 10
475.0642172585815
 20
197.6110480761938
 30
0.0000000000000000
 40
4.000000000000000
100
AcDbArc
 50
308.6821874534435
 51
411.3178125465565
  0
LINE
  5
40C
100
AcDbEntity
  8
MAIN0
  6
CENTER
 62
3
100
AcDbLine
 10
498.3782367436160
 20
190.6110480762469
 30
0.0000000000000000
 11
506.6729783383555
 21
190.6110480762472
 31
0.0000000000000000
  0
CIRCLE
  5
40D
100
AcDbEntity
  8
MAIN0
  6
CONTINUOUS
 62
3
100
AcDbCircle
 10
502.5642172585790
 20
190.6110480762469
 30
0.0000000000000000
 40
3.000000000000000
  0
CIRCLE
  5
40E
100
AcDbEntity
  8
MAIN0
  6
CONTINUOUS
 62
3
100
AcDbCircle
 10
502.5642172585790
 20
190.6110480762469
 30
0.0000000000000000
 40
2.500000000000000
  0
LINE
  5
40F
100
AcDbEntity
  8
MAIN0
  6
CENTER
 62
3
100
AcDbLine
 10
498.3782367436131
 20
276.6110480762469
 30
0.0000000000000000
 11
506.6729783383525
 21
276.6110480762471
 31
0.0000000000000000
  0
CIRCLE
  5
410
100
AcDbEntity
  8
MAIN0
  6
CONTINUOUS
 62
3
100
AcDbCircle
 10
502.5642172585760
 20
276.6110480762470
 30
0.0000000000000000
 40
3.000000000000000
  0
CIRCLE
  5
411
100
AcDbEntity
  8
MAIN0
  6
CONTINUOUS
 62
3
100
AcDbCircle
 10
502.5642172585760
 20
276.6110480762470
 30
0.0000000000000000
 40
2.500000000000000
  0
LINE
  5
412
100
AcDbEntity
  8
MAIN0
  6
CENTER
 62
3
100
AcDbLine
 10
498.1319655555124
 20
244.6110480762469
 30
0.0000000000000000
 11
506.8015105075712
 21
244.6110480762472
 31
0.0000000000000000
  0
LINE
  5
413
100
AcDbEntity
  8
MAIN0
  6
CENTER
 62
3
100
AcDbLine
 10
498.1319655555132
 20
222.6110480762469
 30
0.0000000000000000
 11
506.8015105075720
 21
222.6110480762472
 31
0.0000000000000000
  0
CIRCLE
  5
414
100
AcDbEntity
  8
MAIN0
  6
CONTINUOUS
 62
3
100
AcDbCircle
 10
502.5642172585777
 20
222.6110480762470
 30
0.0000000000000000
 40
3.000000000000000
  0
CIRCLE
  5
415
100
AcDbEntity
  8
MAIN0
  6
CONTINUOUS
 62
3
100
AcDbCircle
 10
502.5642172585770
 20
244.6110480762470
 30
0.0000000000000000
 40
3.000000000000000
  0
LINE
  5
416
100
AcDbEntity
  8
MAIN0
  6
CONTINUOUS
 62
3
100
AcDbLine
 10
511.5642172585788
 20
282.6110480762395
 30
0.0000000000000000
 11
512.5642172585790
 21
281.6110480762393
 31
0.0000000000000000
  0
LINE
  5
417
100
AcDbEntity
  8
MAIN0
  6
CONTINUOUS
 62
3
100
AcDbLine
 10
512.5642172585788
 20
185.6110480762395
 30
0.0000000000000000
 11
511.5642172585788
 21
184.6110480762395
 31
0.0000000000000000
  0
LINE
  5
418
100
AcDbEntity
  8
MAIN0
  6
CENTER
 62
3
100
AcDbLine
 10
473.3541190963162
 20
233.6110480762461
 30
0.0000000000000000
 11
516.4414648188096
 21
233.6110480762477
 31
0.0000000000000000
  0
LINE
  5
419
100
AcDbEntity
  8
MAIN0
  6
CONTINUOUS
 62
3
100
AcDbLine
 10
477.5642172585790
 20
222.6110480762758
 30
0.0000000000000000
 11
475.5642172585747
 21
222.6110480762758
 31
0.0000000000000000
  0
LINE
  5
41A
100
AcDbEntity
  8
MAIN0
  6
CONTINUOUS
 62
3
100
AcDbLine
 10
475.5642172585747
 20
222.6110480759174
 30
0.0000000000000000
 11
475.5642172585747
 21
227.0110480763222
 31
0.0000000000000000
  0
LINE
  5
41B
100
AcDbEntity
  8
MAIN0
  6
CONTINUOUS
 62
3
100
AcDbLine
 10
477.0642172585774
 20
227.0110480763222
 30
0.0000000000000000
 11
475.5642172585774
 21
227.0110480763222
 31
0.0000000000000000
  0
LINE
  5
41C
100
AcDbEntity
  8
MAIN0
  6
CONTINUOUS
 62
3
100
AcDbLine
 10
477.0642172585774
 20
230.2110480763222
 30
0.0000000000000000
 11
475.5642172585774
 21
230.2110480763222
 31
0.0000000000000000
  0
LINE
  5
41D
100
AcDbEntity
  8
MAIN0
  6
CONTINUOUS
 62
3
100
AcDbLine
 10
475.5642172585747
 20
230.2110480763222
 30
0.0000000000000000
 11
475.5642172585747
 21
237.0110480762290
 31
0.0000000000000000
  0
LINE
  5
41E
100
AcDbEntity
  8
MAIN0
  6
CONTINUOUS
 62
3
100
AcDbLine
 10
477.0642172585774
 20
237.0110480762290
 30
0.0000000000000000
 11
475.5642172585774
 21
237.0110480762290
 31
0.0000000000000000
  0
LINE
  5
41F
100
AcDbEntity
  8
MAIN0
  6
CONTINUOUS
 62
3
100
AcDbLine
 10
477.0642172585774
 20
240.2110480762290
 30
0.0000000000000000
 11
475.5642172585774
 21
240.2110480762290
 31
0.0000000000000000
  0
LINE
  5
420
100
AcDbEntity
  8
MAIN0
  6
CONTINUOUS
 62
3
100
AcDbLine
 10
475.5642172585747
 20
240.2110480762290
 30
0.0000000000000000
 11
475.5642172585747
 21
244.6110480763401
 31
0.0000000000000000
  0
LINE
  5
421
100
AcDbEntity
  8
MAIN0
  6
CONTINUOUS
 62
3
100
AcDbLine
 10
477.5642172585790
 20
244.6110480762758
 30
0.0000000000000000
 11
475.5642172585747
 21
244.6110480762758
 31
0.0000000000000000
  0
LINE
  5
422
100
AcDbEntity
  8
MAIN0
  6
CONTINUOUS
 62
3
100
AcDbLine
 10
512.3642172585790
 20
208.6110480762542
 30
0.0000000000000000
 11
512.3642172585790
 21
258.6110480762544
 31
0.0000000000000000
  0
LINE
  5
423
100
AcDbEntity
  8
MAIN0
  6
CONTINUOUS
 62
3
100
AcDbLine
 10
512.5642172585790
 20
208.6110480762542
 30
0.0000000000000000
 11
512.3642172585790
 21
208.6110480762542
 31
0.0000000000000000
  0
LINE
  5
424
100
AcDbEntity
  8
MAIN0
  6
CONTINUOUS
 62
3
100
AcDbLine
 10
512.5642172585790
 20
258.6110480762544
 30
0.0000000000000000
 11
512.3642172585790
 21
258.6110480762544
 31
0.0000000000000000
  0
LINE
  5
425
100
AcDbEntity
  8
MAIN0
  6
CONTINUOUS
 62
3
100
AcDbLine
 10
512.5642172585790
 20
281.6110480762396
 30
0.0000000000000000
 11
512.5642172585790
 21
258.6110480762544
 31
0.0000000000000000
  0
LINE
  5
426
100
AcDbEntity
  8
MAIN0
  6
CONTINUOUS
 62
3
100
AcDbLine
 10
512.5642172585790
 20
208.6110480762542
 30
0.0000000000000000
 11
512.5642172585790
 21
185.6110480762395
 31
0.0000000000000000
  0
LINE
  5
427
100
AcDbEntity
  8
MAIN0
  6
CONTINUOUS
 62
3
100
AcDbLine
 10
479.5642172585790
 20
282.6110480762396
 30
0.0000000000000000
 11
479.5642172585790
 21
184.6110480762395
 31
0.0000000000000000
  0
LINE
  5
428
100
AcDbEntity
  8
MAIN0
  6
CONTINUOUS
 62
3
100
AcDbLine
 10
477.5642172585788
 20
281.6110480762395
 30
0.0000000000000000
 11
478.5642172585788
 21
282.6110480762395
 31
0.0000000000000000
  0
LINE
  5
429
100
AcDbEntity
  8
MAIN0
  6
CONTINUOUS
 62
3
100
AcDbLine
 10
477.5642172585789
 20
185.6110480762394
 30
0.0000000000000000
 11
478.5642172585789
 21
184.6110480762394
 31
0.0000000000000000
  0
LINE
  5
42A
100
AcDbEntity
  8
MAIN0
  6
CONTINUOUS
 62
3
100
AcDbLine
 10
477.5642172585790
 20
222.6110480761751
 30
0.0000000000000000
 11
477.5642172585790
 21
185.6110480762395
 31
0.0000000000000000
  0
LINE
  5
42B
100
AcDbEntity
  8
MAIN0
  6
CENTER
 62
3
100
AcDbLine
 10
502.5642172585775
 20
226.9031323823092
 30
0.0000000000000000
 11
502.5642172585789
 21
185.0110480762394
 31
0.0000000000000000
  0
LINE
  5
42C
100
AcDbEntity
  8
MAIN0
  6
CENTER
 62
3
100
AcDbLine
 10
502.5642172585756
 20
282.2110480762548
 30
0.0000000000000000
 11
502.5642172585771
 21
239.8098218438203
 31
0.0000000000000000
  0
LINE
  5
42D
100
AcDbEntity
  8
MAIN0
  6
CONTINUOUS
 62
3
100
AcDbLine
 10
478.5642172585790
 20
244.6110480765977
 30
0.0000000000000000
 11
478.5642172585790
 21
222.6110480761558
 31
0.0000000000000000
  0
LINE
  5
42E
100
AcDbEntity
  8
MAIN0
  6
CONTINUOUS
 62
3
100
AcDbLine
 10
477.0642172585790
 20
244.6110480765976
 30
0.0000000000000000
 11
478.5642172585790
 21
244.6110480765976
 31
0.0000000000000000
  0
LINE
  5
42F
100
AcDbEntity
  8
MAIN0
  6
CONTINUOUS
 62
3
100
AcDbLine
 10
477.0642172585789
 20
222.6110480761556
 30
0.0000000000000000
 11
478.5642172585789
 21
222.6110480761557
 31
0.0000000000000000
  0
LINE
  5
430
100
AcDbEntity
  8
MAIN0
  6
CONTINUOUS
 62
3
100
AcDbLine
 10
477.0642172585790
 20
244.6110480765978
 30
0.0000000000000000
 11
477.0642172585790
 21
222.6110480761557
 31
0.0000000000000000
  0
LINE
  5
431
100
AcDbEntity
  8
MAIN0
  6
CONTINUOUS
 62
3
100
AcDbLine
 10
418.7509622871336
 20
120.3471635113907
 30
0.0000000000000000
 11
418.7509622871336
 21
119.8471635113907
 31
0.0000000000000000
  0
LINE
  5
432
100
AcDbEntity
  8
MAIN0
  6
CONTINUOUS
 62
3
100
AcDbLine
 10
417.7509622871025
 20
120.3471635113910
 30
0.0000000000000000
 11
417.7509622871025
 21
119.8471635113910
 31
0.0000000000000000
  0
LINE
  5
433
100
AcDbEntity
  8
MAIN0
  6
CONTINUOUS
 62
3
100
AcDbLine
 10
383.7509622871025
 20
120.3471635114003
 30
0.0000000000000000
 11
383.7509622871025
 21
119.8471635114003
 31
0.0000000000000000
  0
LINE
  5
434
100
AcDbEntity
  8
MAIN0
  6
CONTINUOUS
 62
3
100
AcDbLine
 10
382.7509622871567
 20
120.3471635114005
 30
0.0000000000000000
 11
382.7509622871568
 21
119.8471635114005
 31
0.0000000000000000
  0
LINE
  5
435
100
AcDbEntity
  8
MAIN0
  6
CONTINUOUS
 62
3
100
AcDbLine
 10
382.7509622871567
 20
120.3471635114005
 30
0.0000000000000000
 11
394.0009622868469
 21
120.3471635113974
 31
0.0000000000000000
  0
LINE
  5
436
100
AcDbEntity
  8
MAIN0
  6
CONTINUOUS
 62
3
100
AcDbLine
 10
407.5009622872101
 20
120.3471635113936
 30
0.0000000000000000
 11
418.7509622871336
 21
120.3471635113905
 31
0.0000000000000000
  0
LINE
  5
437
100
AcDbEntity
  8
MAIN0
  6
CONTINUOUS
 62
3
100
AcDbLine
 10
382.7509622869324
 20
333.1110480762605
 30
0.0000000000000000
 11
382.7509622869324
 21
333.6110480762605
 31
0.0000000000000000
  0
LINE
  5
438
100
AcDbEntity
  8
MAIN0
  6
CONTINUOUS
 62
3
100
AcDbLine
 10
383.7509622869634
 20
333.1110480762602
 30
0.0000000000000000
 11
383.7509622869634
 21
333.6110480762603
 31
0.0000000000000000
  0
LINE
  5
439
100
AcDbEntity
  8
MAIN0
  6
CONTINUOUS
 62
3
100
AcDbLine
 10
417.7509622869634
 20
333.1110480762509
 30
0.0000000000000000
 11
417.7509622869634
 21
333.6110480762508
 31
0.0000000000000000
  0
LINE
  5
43A
100
AcDbEntity
  8
MAIN0
  6
CONTINUOUS
 62
3
100
AcDbLine
 10
418.7509622869093
 20
333.1110480762506
 30
0.0000000000000000
 11
418.7509622869092
 21
333.6110480762506
 31
0.0000000000000000
  0
LINE
  5
43B
100
AcDbEntity
  8
MAIN0
  6
CONTINUOUS
 62
3
100
AcDbLine
 10
418.7509622869092
 20
333.1110480762507
 30
0.0000000000000000
 11
407.5009622872190
 21
333.1110480762538
 31
0.0000000000000000
  0
LINE
  5
43C
100
AcDbEntity
  8
MAIN0
  6
CONTINUOUS
 62
3
100
AcDbLine
 10
394.0009622868559
 20
333.1110480762575
 30
0.0000000000000000
 11
382.7509622869323
 21
333.1110480762607
 31
0.0000000000000000
  0
LINE
  5
43D
100
AcDbEntity
  8
MAIN0
  6
CONTINUOUS
 62
3
100
AcDbLine
 10
476.9642172585789
 20
184.1110480762388
 30
0.0000000000000000
 11
495.5642172585789
 21
184.1110480762285
 31
0.0000000000000000
  0
LINE
  5
43E
100
AcDbEntity
  8
MAIN0
  6
CONTINUOUS
 62
3
100
AcDbLine
 10
476.5642172585790
 20
213.1110480762705
 30
0.0000000000000000
 11
476.5642172585790
 21
184.5110480762391
 31
0.0000000000000000
  0
LINE
  5
43F
100
AcDbEntity
  8
MAIN0
  6
CONTINUOUS
 62
3
100
AcDbLine
 10
486.5642172585790
 20
184.6110480762395
 30
0.0000000000000000
 11
486.5642172585790
 21
184.5110480762336
 31
0.0000000000000000
  0
LINE
  5
440
100
AcDbEntity
  8
MAIN0
  6
CONTINUOUS
 62
3
100
AcDbLine
 10
495.9642172585791
 20
184.6110480762395
 30
0.0000000000000000
 11
495.9642172585791
 21
184.5110480762284
 31
0.0000000000000000
  0
LINE
  5
441
100
AcDbEntity
  8
MAIN0
  6
CONTINUOUS
 62
3
100
AcDbLine
 10
495.9642172585791
 20
184.5110480762285
 30
0.0000000000000000
 11
495.5642172585790
 21
184.1110480762287
 31
0.0000000000000000
  0
LINE
  5
442
100
AcDbEntity
  8
MAIN0
  6
CONTINUOUS
 62
3
100
AcDbLine
 10
486.5642172585790
 20
184.5110480762335
 30
0.0000000000000000
 11
486.9642172585790
 21
184.1110480762333
 31
0.0000000000000000
  0
LINE
  5
443
100
AcDbEntity
  8
MAIN0
  6
CONTINUOUS
 62
3
100
AcDbLine
 10
476.9642172585789
 20
184.1110480762389
 30
0.0000000000000000
 11
476.5642172585789
 21
184.5110480762391
 31
0.0000000000000000
  0
LINE
  5
444
100
AcDbEntity
  8
MAIN0
  6
CONTINUOUS
 62
3
100
AcDbLine
 10
476.5642172585790
 20
213.1110480762705
 30
0.0000000000000000
 11
477.5642172585790
 21
213.1110480762704
 31
0.0000000000000000
  0
LINE
  5
445
100
AcDbEntity
  8
MAIN0
  6
CONTINUOUS
 62
3
100
AcDbLine
 10
473.5642172585789
 20
194.6110480762521
 30
0.0000000000000000
 11
476.5642172585789
 21
194.6110480762526
 31
0.0000000000000000
  0
LINE
  5
446
100
AcDbEntity
  8
MAIN0
  6
CONTINUOUS
 62
3
100
AcDbLine
 10
473.5642172585789
 20
186.6110480762408
 30
0.0000000000000000
 11
476.5642172585789
 21
186.6110480762391
 31
0.0000000000000000
  0
LINE
  5
447
100
AcDbEntity
  8
MAIN0
  6
CONTINUOUS
 62
3
100
AcDbLine
 10
473.5642172585789
 20
202.6110480762709
 30
0.0000000000000000
 11
476.5642172585789
 21
202.6110480762705
 31
0.0000000000000000
  0
LINE
  5
448
100
AcDbEntity
  8
MAIN0
  6
CONTINUOUS
 62
3
100
AcDbLine
 10
473.5642172585790
 20
210.6110480762521
 30
0.0000000000000000
 11
476.5642172585790
 21
210.6110480762525
 31
0.0000000000000000
  0
LINE
  5
449
100
AcDbEntity
  8
MAIN0
  6
CONTINUOUS
 62
3
100
AcDbLine
 10
473.5642172585790
 20
210.6110480762522
 30
0.0000000000000000
 11
473.5642172585790
 21
202.6110480762710
 31
0.0000000000000000
  0
LINE
  5
44A
100
AcDbEntity
  8
MAIN0
  6
CONTINUOUS
 62
3
100
AcDbLine
 10
473.5642172585790
 20
194.6110480762522
 30
0.0000000000000000
 11
473.5642172585790
 21
186.6110480762408
 31
0.0000000000000000
  0
LINE
  5
44B
100
AcDbEntity
  8
MAIN0
  6
CENTER
 62
3
100
AcDbLine
 10
472.1930666085598
 20
190.6110480762520
 30
0.0000000000000000
 11
478.7929531542651
 21
190.6110480762529
 31
0.0000000000000000
  0
LINE
  5
44C
100
AcDbEntity
  8
MAIN0
  6
CENTER
 62
3
100
AcDbLine
 10
472.1930666085576
 20
206.6110480762519
 30
0.0000000000000000
 11
478.7929531542628
 21
206.6110480762528
 31
0.0000000000000000
  0
LINE
  5
44D
100
AcDbEntity
  8
MAIN0
  6
CONTINUOUS
 62
3
100
AcDbLine
 10
476.9642172585756
 20
283.1110480762536
 30
0.0000000000000000
 11
495.5642172585755
 21
283.1110480762653
 31
0.0000000000000000
  0
LINE
  5
44E
100
AcDbEntity
  8
MAIN0
  6
CONTINUOUS
 62
3
100
AcDbLine
 10
476.5642172585776
 20
254.1110480762219
 30
0.0000000000000000
 11
476.5642172585755
 21
282.7110480762534
 31
0.0000000000000000
  0
LINE
  5
44F
100
AcDbEntity
  8
MAIN0
  6
CONTINUOUS
 62
3
100
AcDbLine
 10
486.5642172585755
 20
282.6110480762396
 30
0.0000000000000000
 11
486.5642172585755
 21
282.7110480762597
 31
0.0000000000000000
  0
LINE
  5
450
100
AcDbEntity
  8
MAIN0
  6
CONTINUOUS
 62
3
100
AcDbLine
 10
495.9642172585756
 20
282.6110480762395
 30
0.0000000000000000
 11
495.9642172585756
 21
282.7110480762656
 31
0.0000000000000000
  0
LINE
  5
451
100
AcDbEntity
  8
MAIN0
  6
CONTINUOUS
 62
3
100
AcDbLine
 10
495.9642172585755
 20
282.7110480762653
 30
0.0000000000000000
 11
495.5642172585755
 21
283.1110480762651
 31
0.0000000000000000
  0
LINE
  5
452
100
AcDbEntity
  8
MAIN0
  6
CONTINUOUS
 62
3
100
AcDbLine
 10
486.5642172585754
 20
282.7110480762597
 30
0.0000000000000000
 11
486.9642172585754
 21
283.1110480762599
 31
0.0000000000000000
  0
LINE
  5
453
100
AcDbEntity
  8
MAIN0
  6
CONTINUOUS
 62
3
100
AcDbLine
 10
476.9642172585753
 20
283.1110480762536
 30
0.0000000000000000
 11
476.5642172585753
 21
282.7110480762533
 31
0.0000000000000000
  0
LINE
  5
454
100
AcDbEntity
  8
MAIN0
  6
CONTINUOUS
 62
3
100
AcDbLine
 10
476.5642172585775
 20
254.1110480762219
 30
0.0000000000000000
 11
477.5642172585775
 21
254.1110480762221
 31
0.0000000000000000
  0
LINE
  5
455
100
AcDbEntity
  8
MAIN0
  6
CONTINUOUS
 62
3
100
AcDbLine
 10
473.5642172585762
 20
272.6110480762400
 30
0.0000000000000000
 11
476.5642172585762
 21
272.6110480762398
 31
0.0000000000000000
  0
LINE
  5
456
100
AcDbEntity
  8
MAIN0
  6
CONTINUOUS
 62
3
100
AcDbLine
 10
473.5642172585757
 20
280.6110480762516
 30
0.0000000000000000
 11
476.5642172585757
 21
280.6110480762534
 31
0.0000000000000000
  0
LINE
  5
457
100
AcDbEntity
  8
MAIN0
  6
CONTINUOUS
 62
3
100
AcDbLine
 10
473.5642172585768
 20
264.6110480762213
 30
0.0000000000000000
 11
476.5642172585768
 21
264.6110480762220
 31
0.0000000000000000
  0
LINE
  5
458
100
AcDbEntity
  8
MAIN0
  6
CONTINUOUS
 62
3
100
AcDbLine
 10
473.5642172585773
 20
256.6110480762401
 30
0.0000000000000000
 11
476.5642172585773
 21
256.6110480762399
 31
0.0000000000000000
  0
LINE
  5
459
100
AcDbEntity
  8
MAIN0
  6
CONTINUOUS
 62
3
100
AcDbLine
 10
473.5642172585774
 20
256.6110480762400
 30
0.0000000000000000
 11
473.5642172585768
 21
264.6110480762213
 31
0.0000000000000000
  0
LINE
  5
45A
100
AcDbEntity
  8
MAIN0
  6
CONTINUOUS
 62
3
100
AcDbLine
 10
473.5642172585763
 20
272.6110480762400
 30
0.0000000000000000
 11
473.5642172585757
 21
280.6110480762514
 31
0.0000000000000000
  0
LINE
  5
45B
100
AcDbEntity
  8
MAIN0
  6
CENTER
 62
3
100
AcDbLine
 10
472.1930666085568
 20
276.6110480762401
 30
0.0000000000000000
 11
478.7929531542620
 21
276.6110480762396
 31
0.0000000000000000
  0
LINE
  5
45C
100
AcDbEntity
  8
MAIN0
  6
CENTER
 62
3
100
AcDbLine
 10
472.1930666085556
 20
260.6110480762402
 30
0.0000000000000000
 11
478.7929531542609
 21
260.6110480762397
 31
0.0000000000000000
  0
LINE
  5
45D
100
AcDbEntity
  8
MAIN0
  6
CONTINUOUS
 62
3
100
AcDbLine
 10
266.2443313627544
 20
283.1110480761291
 30
0.0000000000000000
 11
247.6443313627545
 21
283.1110480761407
 31
0.0000000000000000
  0
LINE
  5
45E
100
AcDbEntity
  8
MAIN0
  6
CONTINUOUS
 62
3
100
AcDbLine
 10
266.6443313627524
 20
254.1110480760976
 30
0.0000000000000000
 11
266.6443313627544
 21
282.7110480761289
 31
0.0000000000000000
  0
LINE
  5
45F
100
AcDbEntity
  8
MAIN0
  6
CONTINUOUS
 62
3
100
AcDbLine
 10
256.6443313627545
 20
282.6110480762278
 30
0.0000000000000000
 11
256.6443313627545
 21
282.7110480761351
 31
0.0000000000000000
  0
LINE
  5
460
100
AcDbEntity
  8
MAIN0
  6
CONTINUOUS
 62
3
100
AcDbLine
 10
247.2443313627546
 20
282.6110480762277
 30
0.0000000000000000
 11
247.2443313627546
 21
282.7110480761410
 31
0.0000000000000000
  0
LINE
  5
461
100
AcDbEntity
  8
MAIN0
  6
CONTINUOUS
 62
3
100
AcDbLine
 10
247.2443313627545
 20
282.7110480761410
 30
0.0000000000000000
 11
247.6443313627545
 21
283.1110480761408
 31
0.0000000000000000
  0
LINE
  5
462
100
AcDbEntity
  8
MAIN0
  6
CONTINUOUS
 62
3
100
AcDbLine
 10
256.6443313627545
 20
282.7110480761352
 30
0.0000000000000000
 11
256.2443313627545
 21
283.1110480761354
 31
0.0000000000000000
  0
LINE
  5
463
100
AcDbEntity
  8
MAIN0
  6
CONTINUOUS
 62
3
100
AcDbLine
 10
266.2443313627546
 20
283.1110480761291
 30
0.0000000000000000
 11
266.6443313627545
 21
282.7110480761289
 31
0.0000000000000000
  0
LINE
  5
464
100
AcDbEntity
  8
MAIN0
  6
CONTINUOUS
 62
3
100
AcDbLine
 10
266.6443313627526
 20
254.1110480760975
 30
0.0000000000000000
 11
265.6443313627526
 21
254.1110480760977
 31
0.0000000000000000
  0
LINE
  5
465
100
AcDbEntity
  8
MAIN0
  6
CONTINUOUS
 62
3
100
AcDbLine
 10
269.6443313627538
 20
272.6110480761156
 30
0.0000000000000000
 11
266.6443313627538
 21
272.6110480761154
 31
0.0000000000000000
  0
LINE
  5
466
100
AcDbEntity
  8
MAIN0
  6
CONTINUOUS
 62
3
100
AcDbLine
 10
269.6443313627544
 20
280.6110480761271
 30
0.0000000000000000
 11
266.6443313627544
 21
280.6110480761290
 31
0.0000000000000000
  0
LINE
  5
467
100
AcDbEntity
  8
MAIN0
  6
CONTINUOUS
 62
3
100
AcDbLine
 10
269.6443313627532
 20
264.6110480760970
 30
0.0000000000000000
 11
266.6443313627532
 21
264.6110480760976
 31
0.0000000000000000
  0
LINE
  5
468
100
AcDbEntity
  8
MAIN0
  6
CONTINUOUS
 62
3
100
AcDbLine
 10
269.6443313627527
 20
256.6110480761156
 30
0.0000000000000000
 11
266.6443313627527
 21
256.6110480761154
 31
0.0000000000000000
  0
LINE
  5
469
100
AcDbEntity
  8
MAIN0
  6
CONTINUOUS
 62
3
100
AcDbLine
 10
269.6443313627526
 20
256.6110480761157
 30
0.0000000000000000
 11
269.6443313627532
 21
264.6110480760969
 31
0.0000000000000000
  0
LINE
  5
46A
100
AcDbEntity
  8
MAIN0
  6
CONTINUOUS
 62
3
100
AcDbLine
 10
269.6443313627538
 20
272.6110480761157
 30
0.0000000000000000
 11
269.6443313627543
 21
280.6110480761270
 31
0.0000000000000000
  0
LINE
  5
46B
100
AcDbEntity
  8
MAIN0
  6
CENTER
 62
3
100
AcDbLine
 10
271.0154820127734
 20
276.6110480761157
 30
0.0000000000000000
 11
264.4155954670682
 21
276.6110480761153
 31
0.0000000000000000
  0
LINE
  5
46C
100
AcDbEntity
  8
MAIN0
  6
CENTER
 62
3
100
AcDbLine
 10
271.0154820127743
 20
260.6110480761158
 30
0.0000000000000000
 11
264.4155954670691
 21
260.6110480761153
 31
0.0000000000000000
  0
LINE
  5
46D
100
AcDbEntity
  8
MAIN0
  6
CONTINUOUS
 62
3
100
AcDbLine
 10
266.2443313627933
 20
184.1110480763526
 30
0.0000000000000000
 11
247.6443313627933
 21
184.1110480763264
 31
0.0000000000000000
  0
LINE
  5
46E
100
AcDbEntity
  8
MAIN0
  6
CONTINUOUS
 62
3
100
AcDbLine
 10
266.6443313627685
 20
213.1110480763847
 30
0.0000000000000000
 11
266.6443313627930
 21
184.5110480763534
 31
0.0000000000000000
  0
LINE
  5
46F
100
AcDbEntity
  8
MAIN0
  6
CONTINUOUS
 62
3
100
AcDbLine
 10
256.6443313627930
 20
184.6110480762277
 30
0.0000000000000000
 11
256.6443313627931
 21
184.5110480763392
 31
0.0000000000000000
  0
LINE
  5
470
100
AcDbEntity
  8
MAIN0
  6
CONTINUOUS
 62
3
100
AcDbLine
 10
247.2443313627929
 20
184.6110480762277
 30
0.0000000000000000
 11
247.2443313627930
 21
184.5110480763260
 31
0.0000000000000000
  0
LINE
  5
471
100
AcDbEntity
  8
MAIN0
  6
CONTINUOUS
 62
3
100
AcDbLine
 10
247.2443313627930
 20
184.5110480763259
 30
0.0000000000000000
 11
247.6443313627934
 21
184.1110480763265
 31
0.0000000000000000
  0
LINE
  5
472
100
AcDbEntity
  8
MAIN0
  6
CONTINUOUS
 62
3
100
AcDbLine
 10
256.6443313627931
 20
184.5110480763391
 30
0.0000000000000000
 11
256.2443313627935
 21
184.1110480763386
 31
0.0000000000000000
  0
LINE
  5
473
100
AcDbEntity
  8
MAIN0
  6
CONTINUOUS
 62
3
100
AcDbLine
 10
266.2443313627933
 20
184.1110480763526
 30
0.0000000000000000
 11
266.6443313627930
 21
184.5110480763532
 31
0.0000000000000000
  0
LINE
  5
474
100
AcDbEntity
  8
MAIN0
  6
CONTINUOUS
 62
3
100
AcDbLine
 10
266.6443313627686
 20
213.1110480763846
 30
0.0000000000000000
 11
265.6443313627686
 21
213.1110480763836
 31
0.0000000000000000
  0
LINE
  5
475
100
AcDbEntity
  8
MAIN0
  6
CONTINUOUS
 62
3
100
AcDbLine
 10
269.6443313627843
 20
194.6110480763688
 30
0.0000000000000000
 11
266.6443313627843
 21
194.6110480763667
 31
0.0000000000000000
  0
LINE
  5
476
100
AcDbEntity
  8
MAIN0
  6
CONTINUOUS
 62
3
100
AcDbLine
 10
269.6443313627913
 20
186.6110480763576
 30
0.0000000000000000
 11
266.6443313627913
 21
186.6110480763533
 31
0.0000000000000000
  0
LINE
  5
477
100
AcDbEntity
  8
MAIN0
  6
CONTINUOUS
 62
3
100
AcDbLine
 10
269.6443313627776
 20
202.6110480763876
 30
0.0000000000000000
 11
266.6443313627776
 21
202.6110480763846
 31
0.0000000000000000
  0
LINE
  5
478
100
AcDbEntity
  8
MAIN0
  6
CONTINUOUS
 62
3
100
AcDbLine
 10
269.6443313627707
 20
210.6110480763690
 30
0.0000000000000000
 11
266.6443313627707
 21
210.6110480763668
 31
0.0000000000000000
  0
LINE
  5
479
100
AcDbEntity
  8
MAIN0
  6
CONTINUOUS
 62
3
100
AcDbLine
 10
269.6443313627706
 20
210.6110480763690
 30
0.0000000000000000
 11
269.6443313627775
 21
202.6110480763877
 31
0.0000000000000000
  0
LINE
  5
47A
100
AcDbEntity
  8
MAIN0
  6
CONTINUOUS
 62
3
100
AcDbLine
 10
269.6443313627843
 20
194.6110480763689
 30
0.0000000000000000
 11
269.6443313627912
 21
186.6110480763576
 31
0.0000000000000000
  0
LINE
  5
47B
100
AcDbEntity
  8
MAIN0
  6
CENTER
 62
3
100
AcDbLine
 10
271.0154820128071
 20
190.6110480763699
 30
0.0000000000000000
 11
264.4155954671019
 21
190.6110480763652
 31
0.0000000000000000
  0
LINE
  5
47C
100
AcDbEntity
  8
MAIN0
  6
CENTER
 62
3
100
AcDbLine
 10
271.0154820127956
 20
206.6110480763698
 30
0.0000000000000000
 11
264.4155954670903
 21
206.6110480763651
 31
0.0000000000000000
  0
CIRCLE
  5
47D
100
AcDbEntity
  8
MAIN0
  6
CONTINUOUS
 62
3
100
AcDbCircle
 10
378.7509622873018
 20
91.34716351140438
 30
0.0000000000000000
 40
2.500000000000000
  0
CIRCLE
  5
47E
100
AcDbEntity
  8
MAIN0
  6
CONTINUOUS
 62
3
100
AcDbCircle
 10
378.7509622873018
 20
91.34716351140438
 30
0.0000000000000000
 40
2.066987200000000
  0
LINE
  5
47F
100
AcDbEntity
  8
MAIN0
  6
CONTINUOUS
 62
3
100
AcDbLine
 10
380.1943379602758
 20
91.34716351140449
 30
0.0000000000000000
 11
379.4726501237888
 21
92.59716351140449
 31
0.0000000000000000
  0
LINE
  5
480
100
AcDbEntity
  8
MAIN0
  6
CONTINUOUS
 62
3
100
AcDbLine
 10
379.4726501237890
 20
92.59716351140443
 30
0.0000000000000000
 11
378.0292744508149
 21
92.59716351140443
 31
0.0000000000000000
  0
LINE
  5
481
100
AcDbEntity
  8
MAIN0
  6
CONTINUOUS
 62
3
100
AcDbLine
 10
378.0292744508148
 20
92.59716351140452
 30
0.0000000000000000
 11
377.3075866143278
 21
91.34716351140452
 31
0.0000000000000000
  0
LINE
  5
482
100
AcDbEntity
  8
MAIN0
  6
CONTINUOUS
 62
3
100
AcDbLine
 10
377.3075866143277
 20
91.34716351140449
 30
0.0000000000000000
 11
378.0292744508147
 21
90.09716351140449
 31
0.0000000000000000
  0
LINE
  5
483
100
AcDbEntity
  8
MAIN0
  6
CONTINUOUS
 62
3
100
AcDbLine
 10
378.0292744508149
 20
90.09716351140443
 30
0.0000000000000000
 11
379.4726501237890
 21
90.09716351140443
 31
0.0000000000000000
  0
LINE
  5
484
100
AcDbEntity
  8
MAIN0
  6
CONTINUOUS
 62
3
100
AcDbLine
 10
379.4726501237888
 20
90.09716351140452
 30
0.0000000000000000
 11
380.1943379602759
 21
91.34716351140452
 31
0.0000000000000000
  0
CIRCLE
  5
485
100
AcDbEntity
  8
MAIN0
  6
CONTINUOUS
 62
3
100
AcDbCircle
 10
400.7509622870269
 20
105.9471635113900
 30
0.0000000000000000
 40
1.500000000000000
  0
CIRCLE
  5
486
100
AcDbEntity
  8
MAIN0
  6
CONTINUOUS
 62
3
100
AcDbCircle
 10
400.7509622870269
 20
105.9471635113900
 30
0.0000000000000000
 40
1.229367000000000
  0
LINE
  5
487
100
AcDbEntity
  8
MAIN0
  6
CONTINUOUS
 62
3
100
AcDbLine
 10
401.6169876908114
 20
105.9471635113901
 30
0.0000000000000000
 11
401.1839749889192
 21
106.6971635113900
 31
0.0000000000000000
  0
LINE
  5
488
100
AcDbEntity
  8
MAIN0
  6
CONTINUOUS
 62
3
100
AcDbLine
 10
401.1839749889192
 20
106.6971635113900
 30
0.0000000000000000
 11
400.3179495851348
 21
106.6971635113900
 31
0.0000000000000000
  0
LINE
  5
489
100
AcDbEntity
  8
MAIN0
  6
CONTINUOUS
 62
3
100
AcDbLine
 10
400.3179495851349
 20
106.6971635113900
 30
0.0000000000000000
 11
399.8849368832426
 21
105.9471635113900
 31
0.0000000000000000
  0
LINE
  5
48A
100
AcDbEntity
  8
MAIN0
  6
CONTINUOUS
 62
3
100
AcDbLine
 10
399.8849368832426
 20
105.9471635113900
 30
0.0000000000000000
 11
400.3179495851347
 21
105.1971635113901
 31
0.0000000000000000
  0
LINE
  5
48B
100
AcDbEntity
  8
MAIN0
  6
CONTINUOUS
 62
3
100
AcDbLine
 10
400.3179495851348
 20
105.1971635113900
 30
0.0000000000000000
 11
401.1839749889192
 21
105.1971635113900
 31
0.0000000000000000
  0
LINE
  5
48C
100
AcDbEntity
  8
MAIN0
  6
CONTINUOUS
 62
3
100
AcDbLine
 10
401.1839749889193
 20
105.1971635113900
 30
0.0000000000000000
 11
401.6169876908115
 21
105.9471635113900
 31
0.0000000000000000
  0
CIRCLE
  5
48D
100
AcDbEntity
  8
MAIN0
  6
CONTINUOUS
 62
3
100
AcDbCircle
 10
400.7509622870235
 20
347.5110480762614
 30
0.0000000000000000
 40
1.500000000000000
  0
CIRCLE
  5
48E
100
AcDbEntity
  8
MAIN0
  6
CONTINUOUS
 62
3
100
AcDbCircle
 10
400.7509622870235
 20
347.5110480762614
 30
0.0000000000000000
 40
1.229367000000000
  0
LINE
  5
48F
100
AcDbEntity
  8
MAIN0
  6
CONTINUOUS
 62
3
100
AcDbLine
 10
401.6169876908080
 20
347.5110480762614
 30
0.0000000000000000
 11
401.1839749889157
 21
348.2610480762616
 31
0.0000000000000000
  0
LINE
  5
490
100
AcDbEntity
  8
MAIN0
  6
CONTINUOUS
 62
3
100
AcDbLine
 10
401.1839749889159
 20
348.2610480762614
 30
0.0000000000000000
 11
400.3179495851314
 21
348.2610480762614
 31
0.0000000000000000
  0
LINE
  5
491
100
AcDbEntity
  8
MAIN0
  6
CONTINUOUS
 62
3
100
AcDbLine
 10
400.3179495851315
 20
348.2610480762614
 30
0.0000000000000000
 11
399.8849368832393
 21
347.5110480762613
 31
0.0000000000000000
  0
LINE
  5
492
100
AcDbEntity
  8
MAIN0
  6
CONTINUOUS
 62
3
100
AcDbLine
 10
399.8849368832391
 20
347.5110480762616
 30
0.0000000000000000
 11
400.3179495851314
 21
346.7610480762614
 31
0.0000000000000000
  0
LINE
  5
493
100
AcDbEntity
  8
MAIN0
  6
CONTINUOUS
 62
3
100
AcDbLine
 10
400.3179495851314
 20
346.7610480762614
 30
0.0000000000000000
 11
401.1839749889159
 21
346.7610480762614
 31
0.0000000000000000
  0
LINE
  5
494
100
AcDbEntity
  8
MAIN0
  6
CONTINUOUS
 62
3
100
AcDbLine
 10
401.1839749889159
 20
346.7610480762613
 30
0.0000000000000000
 11
401.6169876908082
 21
347.5110480762614
 31
0.0000000000000000
  0
CIRCLE
  5
495
100
AcDbEntity
  8
MAIN0
  6
CONTINUOUS
 62
3
100
AcDbCircle
 10
99.18880150591093
 20
211.6110480762105
 30
0.0000000000000000
 40
2.000000000000000
  0
CIRCLE
  5
496
100
AcDbEntity
  8
MAIN0
  6
CONTINUOUS
 62
3
100
AcDbCircle
 10
99.18880150591093
 20
211.6110480762105
 30
0.0000000000000000
 40
1.621113800000000
  0
LINE
  5
497
100
AcDbEntity
  8
MAIN0
  6
CONTINUOUS
 62
3
100
AcDbLine
 10
100.3435020442901
 20
211.6110480762105
 30
0.0000000000000000
 11
99.76615177510058
 21
212.6110480762104
 31
0.0000000000000000
  0
LINE
  5
498
100
AcDbEntity
  8
MAIN0
  6
CONTINUOUS
 62
3
100
AcDbLine
 10
99.76615177510068
 20
212.6110480762105
 30
0.0000000000000000
 11
98.61145123672149
 21
212.6110480762105
 31
0.0000000000000000
  0
LINE
  5
499
100
AcDbEntity
  8
MAIN0
  6
CONTINUOUS
 62
3
100
AcDbLine
 10
98.61145123672137
 20
212.6110480762105
 30
0.0000000000000000
 11
98.03410096753171
 21
211.6110480762104
 31
0.0000000000000000
  0
LINE
  5
49A
100
AcDbEntity
  8
MAIN0
  6
CONTINUOUS
 62
3
100
AcDbLine
 10
98.03410096753180
 20
211.6110480762104
 30
0.0000000000000000
 11
98.61145123672134
 21
210.6110480762106
 31
0.0000000000000000
  0
LINE
  5
49B
100
AcDbEntity
  8
MAIN0
  6
CONTINUOUS
 62
3
100
AcDbLine
 10
98.61145123672149
 20
210.6110480762105
 30
0.0000000000000000
 11
99.76615177510068
 21
210.6110480762105
 31
0.0000000000000000
  0
LINE
  5
49C
100
AcDbEntity
  8
MAIN0
  6
CONTINUOUS
 62
3
100
AcDbLine
 10
99.76615177510060
 20
210.6110480762104
 30
0.0000000000000000
 11
100.3435020442903
 21
211.6110480762105
 31
0.0000000000000000
  0
CIRCLE
  5
49D
100
AcDbEntity
  8
MAIN0
  6
CONTINUOUS
 62
3
100
AcDbCircle
 10
99.18880150591093
 20
255.6110480762507
 30
0.0000000000000000
 40
2.000000000000000
  0
CIRCLE
  5
49E
100
AcDbEntity
  8
MAIN0
  6
CONTINUOUS
 62
3
100
AcDbCircle
 10
99.18880150591093
 20
255.6110480762507
 30
0.0000000000000000
 40
1.621113800000000
  0
LINE
  5
49F
100
AcDbEntity
  8
MAIN0
  6
CONTINUOUS
 62
3
100
AcDbLine
 10
100.3435020442901
 20
255.6110480762507
 30
0.0000000000000000
 11
99.76615177510050
 21
256.6110480762508
 31
0.0000000000000000
  0
LINE
  5
4A0
100
AcDbEntity
  8
MAIN0
  6
CONTINUOUS
 62
3
100
AcDbLine
 10
99.76615177510068
 20
256.6110480762508
 30
0.0000000000000000
 11
98.61145123672138
 21
256.6110480762508
 31
0.0000000000000000
  0
LINE
  5
4A1
100
AcDbEntity
  8
MAIN0
  6
CONTINUOUS
 62
3
100
AcDbLine
 10
98.61145123672137
 20
256.6110480762507
 30
0.0000000000000000
 11
98.03410096753183
 21
255.6110480762508
 31
0.0000000000000000
  0
LINE
  5
4A2
100
AcDbEntity
  8
MAIN0
  6
CONTINUOUS
 62
3
100
AcDbLine
 10
98.03410096753180
 20
255.6110480762509
 30
0.0000000000000000
 11
98.61145123672144
 21
254.6110480762508
 31
0.0000000000000000
  0
LINE
  5
4A3
100
AcDbEntity
  8
MAIN0
  6
CONTINUOUS
 62
3
100
AcDbLine
 10
98.61145123672138
 20
254.6110480762507
 30
0.0000000000000000
 11
99.76615177510068
 21
254.6110480762507
 31
0.0000000000000000
  0
LINE
  5
4A4
100
AcDbEntity
  8
MAIN0
  6
CONTINUOUS
 62
3
100
AcDbLine
 10
99.76615177510072
 20
254.6110480762508
 30
0.0000000000000000
 11
100.3435020442903
 21
255.6110480762507
 31
0.0000000000000000
  0
LINE
  5
4A5
100
AcDbEntity
  8
MAIN0
  6
CONTINUOUS
 62
3
100
AcDbLine
 10
63.48814809841797
 20
81.82912426657236
 30
0.0000000000000000
 11
122.2208254919621
 21
81.82912426657181
 31
0.0000000000000000
  0
MTEXT
  5
4A6
100
AcDbEntity
  8
MAIN0
  6
CONTINUOUS
 62
3
100
AcDbMText
 10
80.03614949739011
 20
85.39590411012134
 30
0.0000000000000000
 40
3.099999904632568
 41
0.0000000000000000
 71
     1
 72
     1
  1
{\H0.93x;{ベース配管詳細}}
 11
1.000000000000000
 21
0.0000000000000000
 31
0.0000000000000000
  7
KNJYOKO
  0
LINE
  5
4A7
100
AcDbEntity
  8
MAIN0
  6
CONTINUOUS
 62
3
100
AcDbLine
 10
82.52324223001548
 20
102.8912939026296
 30
0.0000000000000000
 11
82.52324223001577
 21
115.5979620777146
 31
0.0000000000000000
  0
LINE
  5
4A8
100
AcDbEntity
  8
MAIN0
  6
CENTER
 62
3
100
AcDbLine
 10
81.53909135025818
 20
109.2446279901652
 30
0.0000000000000000
 11
103.3694355494497
 21
109.2446279901641
 31
0.0000000000000000
  0
LINE
  5
4A9
100
AcDbEntity
  8
MAIN0
  6
CONTINUOUS
 62
3
100
AcDbLine
 10
82.52324223001563
 20
110.7446279901652
 30
0.0000000000000000
 11
91.52324223001563
 21
110.7446279901647
 31
0.0000000000000000
  0
LINE
  5
4AA
100
AcDbEntity
  8
MAIN0
  6
CONTINUOUS
 62
3
100
AcDbLine
 10
82.52324223001548
 20
107.7446279901651
 30
0.0000000000000000
 11
91.52324223001548
 21
107.7446279901647
 31
0.0000000000000000
  0
LINE
  5
4AB
100
AcDbEntity
  8
MAIN0
  6
CONTINUOUS
 62
3
100
AcDbLine
 10
92.52324223001544
 20
102.8912939026294
 30
0.0000000000000000
 11
92.52324223001573
 21
115.5979620777144
 31
0.0000000000000000
  0
LINE
  5
4AC
100
AcDbEntity
  8
MAIN0
  6
CONTINUOUS
 62
3
100
AcDbLine
 10
91.52324223001564
 20
112.5446279901647
 30
0.0000000000000000
 11
92.52324223001564
 21
112.5446279901647
 31
0.0000000000000000
  0
LINE
  5
4AD
100
AcDbEntity
  8
MAIN0
  6
CONTINUOUS
 62
3
100
AcDbLine
 10
91.52324223001548
 20
105.9446279901646
 30
0.0000000000000000
 11
92.52324223001548
 21
105.9446279901646
 31
0.0000000000000000
  0
LINE
  5
4AE
100
AcDbEntity
  8
MAIN0
  6
CONTINUOUS
 62
3
100
AcDbLine
 10
91.52324223001565
 20
112.5446279901646
 30
0.0000000000000000
 11
91.52324223001551
 21
105.9446279901646
 31
0.0000000000000000
  0
LINE
  5
4AF
100
AcDbEntity
  8
MAIN0
  6
CONTINUOUS
 62
3
100
AcDbLine
 10
82.52324223001563
 20
115.5979620777005
 30
0.0000000000000000
 11
102.5232422300157
 21
115.5979620776990
 31
0.0000000000000000
  0
LINE
  5
4B0
100
AcDbEntity
  8
MAIN0
  6
CONTINUOUS
 62
3
100
AcDbLine
 10
82.52324223001551
 20
102.8912939026296
 30
0.0000000000000000
 11
102.5232422300155
 21
102.8912939026291
 31
0.0000000000000000
  0
MTEXT
  5
4B1
100
AcDbEntity
  8
MAIN0
  6
CONTINUOUS
 62
3
100
AcDbMText
 10
59.25802912850264
 20
95.53482842470632
 30
0.0000000000000000
 40
3.099999904632568
 41
0.0000000000000000
 71
     1
 72
     1
  1
{\H0.71x;{(お客様にて手配)\P(Customer prepare)}}
 11
1.000000000000000
 21
0.0000000000000000
 31
0.0000000000000000
  7
KNJYOKO
  0
LINE
  5
4B2
100
AcDbEntity
  8
MAIN0
  6
CONTINUOUS
 62
3
100
AcDbLine
 10
102.5232422300155
 20
102.8912939026292
 30
0.0000000000000000
 11
102.5232422300158
 21
115.5979620777143
 31
0.0000000000000000
  0
MTEXT
  5
4B3
100
AcDbEntity
  8
MAIN0
  6
CONTINUOUS
 62
3
100
AcDbMText
 10
64.53073894580183
 20
81.24787795941629
 30
0.0000000000000000
 40
3.099999904632568
 41
0.0000000000000000
 71
     1
 72
     1
  1
{\H0.71x;{Detail of direct connecting}}
 11
1.000000000000000
 21
0.0000000000000000
 31
0.0000000000000000
  7
STANDARD
  0
ELLIPSE
  5
4B4
100
AcDbEntity
  8
MAIN0
  6
CONTINUOUS
 62
3
100
AcDbEllipse
 10
92.02324223001568
 20
111.7946279901646
 30
0.0000000000000000
 11
0.0000000000000000
 21
0.7500000000000000
 31
0.0000000000000000
210
0.0000000000000000
220
0.0000000000000000
230
1.000000000000000
 40
0.6666666666666666
 41
0.0000000000000000
 42
6.283185307179586
  0
ELLIPSE
  5
4B5
100
AcDbEntity
  8
MAIN0
  6
CONTINUOUS
 62
3
100
AcDbEllipse
 10
92.02324223001546
 20
106.6946279901647
 30
0.0000000000000000
 11
0.0000000000000000
 21
-0.7500000000000000
 31
0.0000000000000000
210
0.0000000000000000
220
0.0000000000000000
230
1.000000000000000
 40
0.6666666666666666
 41
0.0000000000000000
 42
6.283185307179586
  0
LEADER
  5
4B6
100
AcDbEntity
  8
MAIN0
  6
CONTINUOUS
 62
3
100
AcDbLeader
  3
MAIN001
 73
     0
 75
     1
 40
3.099999904632568
 41
14.59900000894069
 76
     3
 10
83.97160233745314
 20
104.5478545633226
 30
0.0000000000000000
 10
76.05833340508951
 20
100.0806873243983
 30
0.0000000000000000
 10
74.27133345775022
 20
100.0806873243983
 30
0.0000000000000000
340
4B7
213
0.0000000000000000
223
-0.5000000000000000
233
0.0000000000000000
1001
ACAD
1000
DSTYLE
1002
{
1070
   147
1040
0.0
1070
    77
1070
     1
1070
   173
1070
     1
1070
     6
1000
_DOT
1070
     7
1000
_DOT
1002
}
  0
MTEXT
  5
4B7
102
{ACAD_REACTORS
330
4B6
102
}
100
AcDbEntity
  8
MAIN0
  6
CONTINUOUS
 62
3
100
AcDbMText
 10
59.67233344880953
 20
103.6806872290309
 30
0.0000000000000000
 40
3.099999904632568
 41
0.0000000000000000
 71
     1
 72
     1
  1
{\H0.70x;{アダプタ\PAdaptor}}
 11
1.000000000000000
 21
0.0000000000000000
 31
0.0000000000000000
  7
KNJYOKO
  0
LEADER
  5
4B8
100
AcDbEntity
  8
MAIN0
  6
CONTINUOUS
 62
3
100
AcDbLeader
  3
MAIN001
 73
     0
 74
     0
 75
     1
 40
3.099999904632568
 41
14.60100000894069
 76
     3
 10
95.75075229206931
 20
105.3865199128578
 30
0.0000000000000000
 10
102.2593669183459
 20
94.89203050920222
 30
0.0000000000000000
 10
104.0443668656852
 20
94.89203050920222
 30
0.0000000000000000
340
4B9
213
0.0000000000000000
223
-0.5000000000000000
233
0.0000000000000000
1001
ACAD
1000
DSTYLE
1002
{
1070
   147
1040
0.0
1070
    77
1070
     1
1070
   173
1070
     1
1070
     6
1000
_DOT
1070
     7
1000
_DOT
1002
}
  0
MTEXT
  5
4B9
102
{ACAD_REACTORS
330
4B8
102
}
100
AcDbEntity
  8
MAIN0
  6
CONTINUOUS
 62
3
100
AcDbMText
 10
104.0453668656852
 20
98.49203041383478
 30
0.0000000000000000
 40
3.099999904632568
 41
0.0000000000000000
 71
     1
 72
     1
  1
{\H0.70x;{グリッパ\PGripper}}
 11
1.000000000000000
 21
0.0000000000000000
 31
0.0000000000000000
  7
KNJYOKO
  0
LEADER
  5
4BA
100
AcDbEntity
  8
MAIN0
  6
CONTINUOUS
 62
3
100
AcDbLeader
  3
MAIN001
 73
     0
 74
     0
 75
     1
 40
3.099999904632568
 41
17.10100000894069
 76
     3
 10
91.52324223001557
 20
112.5446279901647
 30
0.0000000000000000
 10
96.73493626248867
 20
129.3087122994248
 30
0.0000000000000000
 10
98.51993620982798
 20
129.3087122994248
 30
0.0000000000000000
340
4BB
213
0.0000000000000000
223
-0.5000000000000000
233
0.0000000000000000
1001
ACAD
1000
DSTYLE
1002
{
1070
   147
1040
0.0
1070
    77
1070
     1
1070
   173
1070
     1
1070
     6
1000
_OPEN
1070
     7
1000
_OPEN
1002
}
  0
MTEXT
  5
4BB
102
{ACAD_REACTORS
330
4BA
102
}
100
AcDbEntity
  8
MAIN0
  6
CONTINUOUS
 62
3
100
AcDbMText
 10
98.52093620982797
 20
132.9087122040574
 30
0.0000000000000000
 40
3.099999904632568
 41
0.0000000000000000
 71
     1
 72
     1
  1
{\H0.70x;{Ｏリング　S4\PO-ring\P}
 11
1.000000000000000
 21
0.0000000000000000
 31
0.0000000000000000
  7
KNJYOKO
  0
DIMENSION
  5
4C6
100
AcDbEntity
  8
MAIN0
  6
CONTINUOUS
 62
3
100
AcDbDimension
  2
*D42
 10
76.86834758701269
 20
110.7446279901651
 30
0.0000000000000000
 11
76.36834758701269
 21
115.7767955508273
 31
0.0000000000000000
 70
160
  1
\A1;\U+22053
  3
MAIN001
100
AcDbAlignedDimension
 13
82.52324223001557
 23
107.7446279901651
 33
0.0000000000000000
 14
82.52324223001557
 24
110.7446279901651
 34
0.0000000000000000
 50
90.00000000000000
100
AcDbRotatedDimension
1001
ACAD
1000
DSTYLE
1002
{
1070
   173
1070
     1
1070
     6
1000
_OPEN
1070
     7
1000
_OPEN
1070
    41
1040
2.000000
1070
   287
1070
     0
1002
}
  0
DIMENSION
  5
4D0
100
AcDbEntity
  8
MAIN0
  6
CONTINUOUS
 62
3
100
AcDbDimension
  2
*D43
 10
69.32903547517225
 20
112.5446279901647
 30
0.0000000000000000
 11
68.82903547517225
 21
117.2499920184035
 31
0.0000000000000000
 70
160
  1
\A1;\U+22056.6
  3
MAIN001
100
AcDbAlignedDimension
 13
91.52324223001546
 23
105.9446279901647
 33
0.0000000000000000
 14
91.52324223001568
 24
112.5446279901647
 34
0.0000000000000000
 50
90.00000000000000
100
AcDbRotatedDimension
1001
ACAD
1000
DSTYLE
1002
{
1070
   173
1070
     1
1070
     6
1000
_OPEN
1070
     7
1000
_OPEN
1070
    41
1040
2.000000
1002
}
  0
DIMENSION
  5
4DB
100
AcDbEntity
  8
MAIN0
  6
CONTINUOUS
 62
3
100
AcDbDimension
  2
*D44
 10
92.52324223001557
 20
99.55026587082338
 30
0.0000000000000000
 11
89.26440942831442
 21
99.88359920415675
 31
0.0000000000000000
 70
160
  3
MAIN001
100
AcDbAlignedDimension
 13
91.52324223001557
 23
105.9446279901647
 33
0.0000000000000000
 14
92.52324223001548
 24
102.8912939026294
 34
0.0000000000000000
100
AcDbRotatedDimension
1001
ACAD
1000
DSTYLE
1002
{
1070
   173
1070
     1
1070
     6
1000
_OPEN
1070
     7
1000
_OPEN
1070
    41
1040
2.000000
1070
   287
1070
     0
1002
}
  0
INSERT
  5
4ED
100
AcDbEntity
  8
MAIN0
  6
CONTINUOUS
 62
3
100
AcDbBlockReference
  2
*X0
 10
0.0000000000000000
 20
0.0000000000000000
 30
0.0000000000000000
 50
0.0000000000000000
  0
INSERT
  5
4FE
100
AcDbEntity
  8
MAIN0
  6
CONTINUOUS
 62
3
100
AcDbBlockReference
  2
*X1
 10
0.0000000000000000
 20
0.0000000000000000
 30
0.0000000000000000
 50
0.0000000000000000
  0
INSERT
  5
508
100
AcDbEntity
  8
MAIN0
  6
CONTINUOUS
 62
3
100
AcDbBlockReference
  2
*X2
 10
0.0000000000000000
 20
0.0000000000000000
 30
0.0000000000000000
 50
0.0000000000000000
  0
INSERT
  5
512
100
AcDbEntity
  8
MAIN0
  6
CONTINUOUS
 62
3
100
AcDbBlockReference
  2
*X3
 10
0.0000000000000000
 20
0.0000000000000000
 30
0.0000000000000000
 50
0.0000000000000000
  0
LINE
  5
513
100
AcDbEntity
  8
MAIN0
  6
CENTER
 62
3
100
AcDbLine
 10
504.5642172585756
 20
293.6814353911116
 30
0.0000000000000000
 11
504.5642172585756
 21
280.8044031011675
 31
0.0000000000000000
  0
ARC
  5
514
100
AcDbEntity
  8
MAIN0
  6
PHANTOM
 62
12
100
AcDbCircle
 10
508.3068215905147
 20
285.9110480762395
 30
0.0000000000000000
 40
1.000000000000000
100
AcDbArc
 50
160.2282007512279
 51
269.9999999999999
  0
LINE
  5
515
100
AcDbEntity
  8
MAIN0
  6
PHANTOM
 62
12
100
AcDbLine
 10
506.5849432007391
 20
284.9110480762396
 30
0.0000000000000000
 11
506.5849432007391
 21
282.6110480762395
 31
0.0000000000000000
  0
LINE
  5
516
100
AcDbEntity
  8
MAIN0
  6
PHANTOM
 62
12
100
AcDbLine
 10
508.6056691429029
 20
284.9110480762395
 30
0.0000000000000000
 11
508.6056691429029
 21
282.6110480762395
 31
0.0000000000000000
  0
LINE
  5
517
100
AcDbEntity
  8
MAIN0
  6
PHANTOM
 62
12
100
AcDbLine
 10
500.5227653742481
 20
282.6110480762395
 30
0.0000000000000000
 11
508.6056691429029
 21
282.6110480762395
 31
0.0000000000000000
  0
LINE
  5
518
100
AcDbEntity
  8
MAIN0
  6
PHANTOM
 62
12
100
AcDbLine
 10
502.5434913164118
 20
284.9110480762395
 30
0.0000000000000000
 11
502.5434913164118
 21
282.6110480762395
 31
0.0000000000000000
  0
LINE
  5
519
100
AcDbEntity
  8
MAIN0
  6
PHANTOM
 62
12
100
AcDbLine
 10
500.5227653742481
 20
284.9110480762395
 30
0.0000000000000000
 11
500.5227653742481
 21
282.6110480762395
 31
0.0000000000000000
  0
LINE
  5
51A
100
AcDbEntity
  8
MAIN0
  6
PHANTOM
 62
12
100
AcDbLine
 10
501.7626603070520
 20
286.2493228577589
 30
0.0000000000000000
 11
501.4587611028721
 21
287.0947407417629
 31
0.0000000000000000
  0
ARC
  5
51B
100
AcDbEntity
  8
MAIN0
  6
PHANTOM
 62
12
100
AcDbCircle
 10
500.8216129266361
 20
285.9110480762395
 30
0.0000000000000000
 40
1.000000000000000
100
AcDbArc
 50
269.9999999999997
 51
379.7717992487710
  0
ARC
  5
51C
100
AcDbEntity
  8
MAIN0
  6
PHANTOM
 62
12
100
AcDbCircle
 10
504.5642172585753
 20
288.2110480762395
 30
0.0000000000000000
 40
3.299999999999997
100
AcDbArc
 50
130.7490543774721
 51
199.7718095177823
  0
ARC
  5
51D
100
AcDbEntity
  8
MAIN0
  6
PHANTOM
 62
12
100
AcDbCircle
 10
504.5642172585753
 20
288.2110480762395
 30
0.0000000000000000
 40
3.299999999999997
100
AcDbArc
 50
340.2282116100356
 51
409.2509456225276
  0
LINE
  5
51E
100
AcDbEntity
  8
MAIN0
  6
PHANTOM
 62
12
100
AcDbLine
 10
507.6696740824449
 20
287.0947426005374
 30
0.0000000000000000
 11
507.3657742100983
 21
286.2493228577590
 31
0.0000000000000000
  0
LINE
  5
51F
100
AcDbEntity
  8
MAIN0
  6
PHANTOM
 62
12
100
AcDbLine
 10
502.4101513357217
 20
290.7110480762395
 30
0.0000000000000000
 11
506.7182831814288
 21
290.7110480762395
 31
0.0000000000000000
  0
ARC
  5
520
100
AcDbEntity
  8
MAIN0
  6
PHANTOM
 62
12
100
AcDbCircle
 10
504.5642172585753
 20
290.5803968258309
 30
0.0000000000000000
 40
1.000000000000000
100
AcDbArc
 50
7.507227195575354
 51
172.4927728044245
  0
LINE
  5
521
100
AcDbEntity
  8
MAIN0
  6
PHANTOM
 62
3
100
AcDbLine
 10
508.6056691429029
 20
284.9110480762395
 30
0.0000000000000000
 11
500.5227653742481
 21
284.9110480762395
 31
0.0000000000000000
  0
CIRCLE
  5
522
100
AcDbEntity
  8
MAIN0
  6
CONTINUOUS
 62
3
100
AcDbCircle
 10
83.18880150617400
 20
197.6110480762039
 30
0.0000000000000000
 40
2.100000000000000
  0
CIRCLE
  5
523
100
AcDbEntity
  8
MAIN0
  6
CONTINUOUS
 62
3
100
AcDbCircle
 10
83.18880150617400
 20
197.6110480762039
 30
0.0000000000000000
 40
2.500000000000000
  0
LINE
  5
524
100
AcDbEntity
  8
MAIN0
  6
CONTINUOUS
 62
3
100
AcDbLine
 10
266.1443313627526
 20
230.2110480762744
 30
0.0000000000000000
 11
267.6443313627527
 21
230.2110480762744
 31
0.0000000000000000
  0
LINE
  5
525
100
AcDbEntity
  8
MAIN0
  6
CENTER
 62
3
100
AcDbLine
 10
261.5558961973902
 20
228.6110480762672
 30
0.0000000000000000
 11
269.0498238333182
 21
228.6110480762781
 31
0.0000000000000000
  0
LINE
  5
526
100
AcDbEntity
  8
MAIN0
  6
CONTINUOUS
 62
3
100
AcDbLine
 10
266.1443313627527
 20
227.0110480762744
 30
0.0000000000000000
 11
267.6443313627527
 21
227.0110480762744
 31
0.0000000000000000
  0
LINE
  5
527
100
AcDbEntity
  8
MAIN0
  6
CONTINUOUS
 62
3
100
AcDbLine
 10
266.1443313627527
 20
225.8610480762743
 30
0.0000000000000000
 11
266.1443313627527
 21
227.0110480762744
 31
0.0000000000000000
  0
LINE
  5
528
100
AcDbEntity
  8
MAIN0
  6
CONTINUOUS
 62
3
100
AcDbLine
 10
262.5443313627526
 20
225.8610480762743
 30
0.0000000000000000
 11
266.1443313627526
 21
225.8610480762742
 31
0.0000000000000000
  0
LINE
  5
529
100
AcDbEntity
  8
MAIN0
  6
CONTINUOUS
 62
3
100
AcDbLine
 10
262.5443313627527
 20
225.8610480762745
 30
0.0000000000000000
 11
262.5443313627527
 21
231.3610480762745
 31
0.0000000000000000
  0
LINE
  5
52A
100
AcDbEntity
  8
MAIN0
  6
CONTINUOUS
 62
3
100
AcDbLine
 10
262.5443313627525
 20
231.3610480762743
 30
0.0000000000000000
 11
266.1443313627526
 21
231.3610480762742
 31
0.0000000000000000
  0
LINE
  5
52B
100
AcDbEntity
  8
MAIN0
  6
CONTINUOUS
 62
3
100
AcDbLine
 10
266.1443313627527
 20
230.2110480762744
 30
0.0000000000000000
 11
266.1443313627527
 21
231.3610480762743
 31
0.0000000000000000
  0
LINE
  5
52C
100
AcDbEntity
  8
MAIN0
  6
CONTINUOUS
 62
3
100
AcDbLine
 10
266.1443313627526
 20
237.0110480761811
 30
0.0000000000000000
 11
267.6443313627527
 21
237.0110480761811
 31
0.0000000000000000
  0
LINE
  5
52D
100
AcDbEntity
  8
MAIN0
  6
CENTER
 62
3
100
AcDbLine
 10
261.5558961973903
 20
238.6110480761882
 30
0.0000000000000000
 11
269.0498238333183
 21
238.6110480761773
 31
0.0000000000000000
  0
LINE
  5
52E
100
AcDbEntity
  8
MAIN0
  6
CONTINUOUS
 62
3
100
AcDbLine
 10
266.1443313627527
 20
240.2110480761812
 30
0.0000000000000000
 11
267.6443313627527
 21
240.2110480761812
 31
0.0000000000000000
  0
LINE
  5
52F
100
AcDbEntity
  8
MAIN0
  6
CONTINUOUS
 62
3
100
AcDbLine
 10
266.1443313627527
 20
241.3610480761811
 30
0.0000000000000000
 11
266.1443313627527
 21
240.2110480761812
 31
0.0000000000000000
  0
LINE
  5
530
100
AcDbEntity
  8
MAIN0
  6
CONTINUOUS
 62
3
100
AcDbLine
 10
262.5443313627526
 20
241.3610480761809
 30
0.0000000000000000
 11
266.1443313627526
 21
241.3610480761810
 31
0.0000000000000000
  0
LINE
  5
531
100
AcDbEntity
  8
MAIN0
  6
CONTINUOUS
 62
3
100
AcDbLine
 10
262.5443313627527
 20
241.3610480761811
 30
0.0000000000000000
 11
262.5443313627527
 21
235.8610480761811
 31
0.0000000000000000
  0
LINE
  5
532
100
AcDbEntity
  8
MAIN0
  6
CONTINUOUS
 62
3
100
AcDbLine
 10
262.5443313627526
 20
235.8610480761810
 30
0.0000000000000000
 11
266.1443313627527
 21
235.8610480761810
 31
0.0000000000000000
  0
LINE
  5
533
100
AcDbEntity
  8
MAIN0
  6
CONTINUOUS
 62
3
100
AcDbLine
 10
266.1443313627527
 20
237.0110480761811
 30
0.0000000000000000
 11
266.1443313627527
 21
235.8610480761811
 31
0.0000000000000000
  0
LINE
  5
534
100
AcDbEntity
  8
MAIN0
  6
CENTER
 62
3
100
AcDbLine
 10
350.4509622876534
 20
105.8073619329387
 30
0.0000000000000000
 11
350.4509622876660
 21
97.82077921058917
 31
0.0000000000000000
  0
CIRCLE
  5
535
100
AcDbEntity
  8
MAIN0
  6
CONTINUOUS
 62
3
100
AcDbCircle
 10
373.2509622868362
 20
101.8471635114105
 30
0.0000000000000000
 40
2.500000000000000
  0
CIRCLE
  5
536
100
AcDbEntity
  8
MAIN0
  6
CONTINUOUS
 62
3
100
AcDbCircle
 10
373.2509622868362
 20
101.8471635114105
 30
0.0000000000000000
 40
2.100000000000000
  0
CIRCLE
  5
537
100
AcDbEntity
  8
MAIN0
  6
CONTINUOUS
 62
3
100
AcDbCircle
 10
350.4509622876598
 20
101.8471635114233
 30
0.0000000000000000
 40
2.500000000000000
  0
CIRCLE
  5
538
100
AcDbEntity
  8
MAIN0
  6
CONTINUOUS
 62
3
100
AcDbCircle
 10
350.4509622876598
 20
101.8471635114233
 30
0.0000000000000000
 40
2.100000000000000
  0
MTEXT
  5
539
100
AcDbEntity
  8
MAIN0
  6
CONTINUOUS
 62
3
100
AcDbMText
 10
98.13889591010292
 20
124.7507133096834
 30
0.0000000000000000
 40
3.099999904632568
 41
0.0000000000000000
 71
     1
 72
     1
  1
{\H0.71x;{(お客様にて手配)\P(Customer prepare)}}
 11
1.000000000000000
 21
0.0000000000000000
 31
0.0000000000000000
  7
KNJYOKO
  0
LINE
  5
53A
100
AcDbEntity
  8
MAIN0
  6
CONTINUOUS
 62
3
100
AcDbLine
 10
92.52324223001568
 20
110.9946279901646
 30
0.0000000000000000
 11
93.02324223001570
 21
110.4946279901646
 31
0.0000000000000000
  0
LINE
  5
53B
100
AcDbEntity
  8
MAIN0
  6
CONTINUOUS
 62
3
100
AcDbLine
 10
93.02324223001568
 20
110.4946279901646
 30
0.0000000000000000
 11
93.02324223001568
 21
107.9946279901646
 31
0.0000000000000000
  0
LINE
  5
53C
100
AcDbEntity
  8
MAIN0
  6
CONTINUOUS
 62
3
100
AcDbLine
 10
93.02324223001574
 20
107.9946279901646
 30
0.0000000000000000
 11
92.52324223001565
 21
107.4946279901645
 31
0.0000000000000000
  0
LINE
  5
53D
100
AcDbEntity
  8
MAIN0
  6
CONTINUOUS
 62
3
100
AcDbLine
 10
92.77324223001568
 20
110.7446279901646
 30
0.0000000000000000
 11
96.52324223001568
 21
110.7446279901646
 31
0.0000000000000000
  0
LINE
  5
53E
100
AcDbEntity
  8
MAIN0
  6
CONTINUOUS
 62
3
100
AcDbLine
 10
96.52324223001568
 20
110.7446279901646
 30
0.0000000000000000
 11
96.52324223001568
 21
107.7446279901646
 31
0.0000000000000000
  0
LINE
  5
53F
100
AcDbEntity
  8
MAIN0
  6
CONTINUOUS
 62
3
100
AcDbLine
 10
96.52324223001568
 20
107.7446279901646
 30
0.0000000000000000
 11
92.77324223001568
 21
107.7446279901646
 31
0.0000000000000000
  0
LINE
  5
540
100
AcDbEntity
  8
MAIN0
  6
CONTINUOUS
 62
3
100
AcDbLine
 10
93.02324223001568
 20
110.4946279901646
 30
0.0000000000000000
 11
102.5232422300157
 21
110.4946279901646
 31
0.0000000000000000
  0
LINE
  5
541
100
AcDbEntity
  8
MAIN0
  6
CONTINUOUS
 62
3
100
AcDbLine
 10
102.5232422300156
 20
107.9946279901646
 30
0.0000000000000000
 11
93.02324223001568
 21
107.9946279901646
 31
0.0000000000000000
  0
LINE
  5
542
100
AcDbEntity
  8
WAKU0
  6
CONTINUOUS
 62
3
100
AcDbLine
 10
412.0000000000000
 20
51.00000000000000
 30
0.0000000000000000
 11
582.0000000000000
 21
51.00000000000000
 31
0.0000000000000000
  0
LINE
  5
543
100
AcDbEntity
  8
WAKU0
  6
CONTINUOUS
 62
3
100
AcDbLine
 10
412.0000000000000
 20
51.00000000000000
 30
0.0000000000000000
 11
412.0000000000000
 21
12.00000000000000
 31
0.0000000000000000
  0
LINE
  5
544
100
AcDbEntity
  8
WAKU0
  6
CONTINUOUS
 62
3
100
AcDbLine
 10
484.0000000000000
 20
51.00000000000000
 30
0.0000000000000000
 11
484.0000000000000
 21
12.00000000000000
 31
0.0000000000000000
  0
LINE
  5
545
100
AcDbEntity
  8
WAKU0
  6
CONTINUOUS
 62
3
100
AcDbLine
 10
504.0000000000000
 20
51.00000000000000
 30
0.0000000000000000
 11
504.0000000000000
 21
12.00000000000000
 31
0.0000000000000000
  0
LINE
  5
546
100
AcDbEntity
  8
WAKU0
  6
CONTINUOUS
 62
3
100
AcDbLine
 10
516.0000000000000
 20
51.00000000000000
 30
0.0000000000000000
 11
516.0000000000000
 21
12.00000000000000
 31
0.0000000000000000
  0
LINE
  5
547
100
AcDbEntity
  8
WAKU0
  6
CONTINUOUS
 62
3
100
AcDbLine
 10
516.0000000000000
 20
37.00000000000000
 30
0.0000000000000000
 11
582.0000000000000
 21
37.00000000000000
 31
0.0000000000000000
  0
LINE
  5
548
100
AcDbEntity
  8
WAKU0
  6
CONTINUOUS
 62
3
100
AcDbLine
 10
504.0000000000000
 20
23.00000000000000
 30
0.0000000000000000
 11
582.0000000000000
 21
23.00000000000000
 31
0.0000000000000000
  0
LINE
  5
549
100
AcDbEntity
  8
WAKU0
  6
CONTINUOUS
 62
3
100
AcDbLine
 10
547.0000000000000
 20
51.00000000000000
 30
0.0000000000000000
 11
547.0000000000000
 21
44.00000000000000
 31
0.0000000000000000
  0
LINE
  5
54A
100
AcDbEntity
  8
WAKU0
  6
CONTINUOUS
 62
3
100
AcDbLine
 10
559.0000000000000
 20
51.00000000000000
 30
0.0000000000000000
 11
559.0000000000000
 21
44.00000000000000
 31
0.0000000000000000
  0
LINE
  5
54B
100
AcDbEntity
  8
WAKU0
  6
CONTINUOUS
 62
3
100
AcDbLine
 10
484.0000000000000
 20
31.50000000000000
 30
0.0000000000000000
 11
504.0000000000000
 21
31.50000000000000
 31
0.0000000000000000
  0
LINE
  5
54C
100
AcDbEntity
  8
WAKU0
  6
CONTINUOUS
 62
3
100
AcDbLine
 10
504.0000000000000
 20
44.00000000000000
 30
0.0000000000000000
 11
582.0000000000000
 21
44.00000000000000
 31
0.0000000000000000
  0
LINE
  5
54D
100
AcDbEntity
  8
WAKU0
  6
CONTINUOUS
 62
3
100
AcDbLine
 10
412.0000000000000
 20
37.00000000000000
 30
0.0000000000000000
 11
484.0000000000000
 21
37.00000000000000
 31
0.0000000000000000
  0
LINE
  5
54E
100
AcDbEntity
  8
WAKU0
  6
CONTINUOUS
 62
3
100
AcDbLine
 10
412.0000000000000
 20
23.00000000000000
 30
0.0000000000000000
 11
484.0000000000000
 21
23.00000000000000
 31
0.0000000000000000
  0
LINE
  5
54F
100
AcDbEntity
  8
WAKU0
  6
CONTINUOUS
 62
3
100
AcDbLine
 10
460.0000000000000
 20
37.00000000000000
 30
0.0000000000000000
 11
460.0000000000000
 21
12.00000000000000
 31
0.0000000000000000
  0
LINE
  5
550
100
AcDbEntity
  8
WAKU0
  6
CONTINUOUS
 62
3
100
AcDbLine
 10
436.0000000000000
 20
37.00000000000000
 30
0.0000000000000000
 11
436.0000000000000
 21
23.00000000000000
 31
0.0000000000000000
  0
LINE
  5
551
100
AcDbEntity
  8
WAKU0
  6
CONTINUOUS
 62
3
100
AcDbLine
 10
472.0000000000000
 20
26.00000000000000
 30
0.0000000000000000
 11
472.0000000000000
 21
23.00000000000000
 31
0.0000000000000000
  0
LINE
  5
552
100
AcDbEntity
  8
WAKU0
  6
CONTINUOUS
 62
3
100
AcDbLine
 10
448.0000000000000
 20
26.00000000000000
 30
0.0000000000000000
 11
448.0000000000000
 21
23.00000000000000
 31
0.0000000000000000
  0
LINE
  5
553
100
AcDbEntity
  8
WAKU0
  6
CONTINUOUS
 62
3
100
AcDbLine
 10
424.0000000000000
 20
26.00000000000000
 30
0.0000000000000000
 11
424.0000000000000
 21
23.00000000000000
 31
0.0000000000000000
  0
LINE
  5
554
100
AcDbEntity
  8
WAKU0
  6
CONTINUOUS
 62
3
100
AcDbLine
 10
430.0000000000000
 20
51.00000000000000
 30
0.0000000000000000
 11
430.0000000000000
 21
37.00000000000000
 31
0.0000000000000000
  0
LINE
  5
555
100
AcDbEntity
  8
WAKU0
  6
CONTINUOUS
 62
3
100
AcDbLine
 10
412.0000000000000
 20
45.00000000000000
 30
0.0000000000000000
 11
484.0000000000000
 21
45.00000000000000
 31
0.0000000000000000
  0
LINE
  5
556
100
AcDbEntity
  8
WAKU0
  6
HIDDEN
 62
3
100
AcDbLine
 10
532.5000000000000
 20
23.00000000000000
 30
0.0000000000000000
 11
532.5000000000000
 21
12.00000000000000
 31
0.0000000000000000
  0
LINE
  5
557
100
AcDbEntity
  8
WAKU0
  6
HIDDEN
 62
3
100
AcDbLine
 10
544.9000000000000
 20
23.00000000000000
 30
0.0000000000000000
 11
544.9000000000000
 21
12.00000000000000
 31
0.0000000000000000
  0
MTEXT
  5
558
100
AcDbEntity
  8
WAKU0
  6
CONTINUOUS
 62
3
100
AcDbMText
 10
516.4820000243485
 20
49.04999995231628
 30
0.0000000000000000
 40
3.099999904632568
 41
0.0000000000000000
 71
     1
 72
     1
  1
{\H0.92x;{NPGT08}}
 11
1.000000000000000
 21
0.0000000000000000
 31
0.0000000000000000
  7
STANDARD
  0
MTEXT
  5
559
100
AcDbEntity
  8
WAKU0
  6
CONTINUOUS
 62
3
100
AcDbMText
 10
537.3900001943111
 20
43.50000000000000
 30
0.0000000000000000
 40
3.000000000000000
 41
0.0000000000000000
 71
     1
 72
     1
  1
{\H0.93x;{グリッパ\PＧＲＩＰＰＥＲ}}
 11
1.000000000000000
 21
0.0000000000000000
 31
0.0000000000000000
  7
KNJYOKO
  0
MTEXT
  5
55A
100
AcDbEntity
  8
WAKU0
  6
CONTINUOUS
 62
3
100
AcDbMText
 10
516.4800000262260
 20
34.83333333333333
 30
0.0000000000000000
 40
4.000000000000000
 41
0.0000000000000000
 71
     1
 72
     1
  1
{\H0.59x;{ＮＰＧＴ０８　ガイケイ\PＮＰＧＴ０８　ＯＵＴＳＩＤＥ　ＶＩＥＷ}}
 11
1.000000000000000
 21
0.0000000000000000
 31
0.0000000000000000
  7
KNJYOKO
  0
MTEXT
  5
55B
100
AcDbEntity
  8
WAKU0
  6
CONTINUOUS
 62
3
100
AcDbMText
 10
490.0049998760223
 20
39.29999995231628
 30
0.0000000000000000
 40
3.099999904632568
 41
0.0000000000000000
 71
     1
 72
     1
  1
{\H0.90x;{1:1}}
 11
1.000000000000000
 21
0.0000000000000000
 31
0.0000000000000000
  7
STANDARD
  0
MTEXT
  5
55C
100
AcDbEntity
  8
WAKU0
  6
CONTINUOUS
 62
3
100
AcDbMText
 10
546.4000001549721
 20
20.15000009536743
 30
0.0000000000000000
 40
5.300000190734863
 41
0.0000000000000000
 71
     1
 72
     1
  1
{\H0.90x;{7887}}
 11
1.000000000000000
 21
0.0000000000000000
 31
0.0000000000000000
  7
STANDARD
  0
MTEXT
  5
55D
100
AcDbEntity
  8
WAKU0
  6
CONTINUOUS
 62
3
100
AcDbMText
 10
534.3000000834466
 20
20.15000009536743
 30
0.0000000000000000
 40
5.300000190734863
 41
0.0000000000000000
 71
     1
 72
     1
  1
{\H0.87x;{28}}
 11
1.000000000000000
 21
0.0000000000000000
 31
0.0000000000000000
  7
STANDARD
  0
MTEXT
  5
55E
100
AcDbEntity
  8
WAKU0
  6
CONTINUOUS
 62
3
100
AcDbMText
 10
517.5000001192093
 20
20.15000009536743
 30
0.0000000000000000
 40
5.300000190734863
 41
0.0000000000000000
 71
     1
 72
     1
  1
{\H0.89x;{61G}}
 11
1.000000000000000
 21
0.0000000000000000
 31
0.0000000000000000
  7
STANDARD
  0
MTEXT
  5
55F
100
AcDbEntity
  8
WAKU0
  6
CONTINUOUS
 62
3
100
AcDbMText
 10
572.0000000476837
 20
20.15000009536743
 30
0.0000000000000000
 40
5.300000190734863
 41
0.0000000000000000
 71
     1
 72
     1
  1
{\H0.81x;{4}}
 11
1.000000000000000
 21
0.0000000000000000
 31
0.0000000000000000
  7
STANDARD
  0
MTEXT
  5
560
100
AcDbEntity
  8
WAKU0
  6
CONTINUOUS
 62
3
100
AcDbMText
 10
572.0000000819564
 20
44.84999990463257
 30
0.0000000000000000
 40
5.300000190734863
 41
0.0000000000000000
 71
     7
 72
     1
  1
{\H0.81x;{ }}
 11
1.000000000000000
 21
0.0000000000000000
 31
0.0000000000000000
  7
STANDARD
  0
MTEXT
  5
561
100
AcDbEntity
  8
WAKU0
  6
CONTINUOUS
 62
3
100
AcDbMText
 10
461.3850002884865
 20
33.00000000000000
 30
0.0000000000000000
 40
3.000000000000000
 41
0.0000000000000000
 71
     7
 72
     1
  1
{\H0.93x;{DRAWN BY}}
 11
1.000000000000000
 21
0.0000000000000000
 31
0.0000000000000000
  7
STANDARD
  0
MTEXT
  5
562
100
AcDbEntity
  8
WAKU0
  6
CONTINUOUS
 62
3
100
AcDbMText
 10
441.2149997949600
 20
32.95000004768372
 30
0.0000000000000000
 40
3.099999904632568
 41
0.0000000000000000
 71
     7
 72
     1
  1
{\H0.92x;{CHIEF}}
 11
1.000000000000000
 21
0.0000000000000000
 31
0.0000000000000000
  7
STANDARD
  0
MTEXT
  5
563
100
AcDbEntity
  8
WAKU0
  6
CONTINUOUS
 62
3
100
AcDbMText
 10
414.4249997138977
 20
32.95000004768372
 30
0.0000000000000000
 40
3.099999904632568
 41
0.0000000000000000
 71
     7
 72
     1
  1
{\H0.92x;{MANAGER}}
 11
1.000000000000000
 21
0.0000000000000000
 31
0.0000000000000000
  7
STANDARD
  0
MTEXT
  5
564
100
AcDbEntity
  8
WAKU0
  6
CONTINUOUS
 62
3
100
AcDbMText
 10
413.0850002169609
 20
46.50000000000000
 30
0.0000000000000000
 40
3.000000000000000
 41
0.0000000000000000
 71
     7
 72
     1
  1
{\H0.92x;{CAREER}}
 11
1.000000000000000
 21
0.0000000000000000
 31
0.0000000000000000
  7
STANDARD
  0
MTEXT
  5
565
100
AcDbEntity
  8
WAKU0
  6
CONTINUOUS
 62
3
100
AcDbMText
 10
466.6099998354912
 20
18.95000004768372
 30
0.0000000000000000
 40
3.099999904632568
 41
0.0000000000000000
 71
     7
 72
     1
  1
{\H0.91x;{DATE}}
 11
1.000000000000000
 21
0.0000000000000000
 31
0.0000000000000000
  7
STANDARD
  0
MTEXT
  5
566
100
AcDbEntity
  8
WAKU0
  6
CONTINUOUS
 62
3
100
AcDbMText
 10
485.9000002145767
 20
26.50000000000000
 30
0.0000000000000000
 40
3.000000000000000
 41
0.0000000000000000
 71
     7
 72
     1
  1
{\H0.63x;{3RD ANGLE}}
 11
1.000000000000000
 21
0.0000000000000000
 31
0.0000000000000000
  7
STANDARD
  0
MTEXT
  5
567
100
AcDbEntity
  8
WAKU0
  6
CONTINUOUS
 62
3
100
AcDbMText
 10
487.2149997949600
 20
45.95000004768372
 30
0.0000000000000000
 40
3.099999904632568
 41
0.0000000000000000
 71
     7
 72
     1
  1
{\H0.92x;{SCALE}}
 11
1.000000000000000
 21
0.0000000000000000
 31
0.0000000000000000
  7
STANDARD
  0
MTEXT
  5
568
100
AcDbEntity
  8
WAKU0
  6
CONTINUOUS
 62
3
100
AcDbMText
 10
577.7000000476837
 20
46.00000000000000
 30
0.0000000000000000
 40
3.000000000000000
 41
0.0000000000000000
 71
     7
 72
     1
  1
{\H0.63x;{kg}}
 11
1.000000000000000
 21
0.0000000000000000
 31
0.0000000000000000
  7
STANDARD
  0
MTEXT
  5
569
100
AcDbEntity
  8
WAKU0
  6
CONTINUOUS
 62
3
100
AcDbMText
 10
547.6000001430512
 20
46.00000000000000
 30
0.0000000000000000
 40
3.000000000000000
 41
0.0000000000000000
 71
     7
 72
     1
  1
{\H0.63x;{WEIGHT}}
 11
1.000000000000000
 21
0.0000000000000000
 31
0.0000000000000000
  7
STANDARD
  0
MTEXT
  5
56A
100
AcDbEntity
  8
WAKU0
  6
CONTINUOUS
 62
3
100
AcDbMText
 10
506.0049998760223
 20
18.13333336512248
 30
0.0000000000000000
 40
3.099999904632568
 41
0.0000000000000000
 71
     7
 72
     1
  1
{\H0.90x;{DRW\PNO.}}
 11
1.000000000000000
 21
0.0000000000000000
 31
0.0000000000000000
  7
STANDARD
  0
MTEXT
  5
56B
100
AcDbEntity
  8
WAKU0
  6
CONTINUOUS
 62
3
100
AcDbMText
 10
504.6099998354912
 20
31.95000004768372
 30
0.0000000000000000
 40
3.099999904632568
 41
0.0000000000000000
 71
     7
 72
     1
  1
{\H0.91x;{NAME}}
 11
1.000000000000000
 21
0.0000000000000000
 31
0.0000000000000000
  7
STANDARD
  0
MTEXT
  5
56C
100
AcDbEntity
  8
WAKU0
  6
CONTINUOUS
 62
3
100
AcDbMText
 10
504.6099998354912
 20
45.95000004768372
 30
0.0000000000000000
 40
3.099999904632568
 41
0.0000000000000000
 71
     7
 72
     1
  1
{\H0.91x;{TYPE}}
 11
1.000000000000000
 21
0.0000000000000000
 31
0.0000000000000000
  7
STANDARD
  0
LINE
  5
56D
100
AcDbEntity
  8
WAKU0
  6
HIDDEN
 62
3
100
AcDbLine
 10
579.1599564743885
 20
13.84999990463257
 30
0.0000000000000000
 11
568.9400436209789
 21
13.84999990463257
 31
0.0000000000000000
  0
LINE
  5
56E
100
AcDbEntity
  8
WAKU0
  6
HIDDEN
 62
3
100
AcDbLine
 10
579.1599564743885
 20
13.84999990463250
 30
0.0000000000000000
 11
574.0500000476851
 21
22.70070406014901
 31
0.0000000000000000
  0
LINE
  5
56F
100
AcDbEntity
  8
WAKU0
  6
HIDDEN
 62
3
100
AcDbLine
 10
574.0500000476851
 20
22.70070406014902
 30
0.0000000000000000
 11
568.9400436209789
 21
13.84999990463248
 31
0.0000000000000000
  0
MTEXT
  5
570
100
AcDbEntity
  8
WAKU0
  6
CONTINUOUS
 62
3
100
AcDbMText
 10
419.0000009614873
 20
20.63471521698214
 30
0.0000000000000000
 40
3.140094041824341
 41
0.0000000000000000
 71
     1
 72
     1
  1
{\H0.83x;{Ｋｉｔａｇａｗａ\PＣｏｒｐｏｒａｔｉｏｎ}}
 11
1.000000000000000
 21
0.0000000000000000
 31
0.0000000000000000
  7
KNJYOKO
  0
LINE
  5
571
100
AcDbEntity
  8
WAKU0
  6
CONTINUOUS
 62
3
100
AcDbLine
 10
502.4713877753800
 20
15.78041421262812
 30
0.0000000000000000
 11
502.4713877753800
 21
21.78041421262815
 31
0.0000000000000000
  0
LINE
  5
572
100
AcDbEntity
  8
WAKU0
  6
CONTINUOUS
 62
3
100
AcDbLine
 10
495.9336941228225
 20
17.28041421262811
 30
0.0000000000000000
 11
495.9336941228225
 21
20.28041421262824
 31
0.0000000000000000
  0
LINE
  5
573
100
AcDbEntity
  8
WAKU0
  6
CENTER
 62
12
100
AcDbLine
 10
485.4321805514995
 20
18.78041421262813
 30
0.0000000000000000
 11
503.2765788964694
 21
18.78041421262813
 31
0.0000000000000000
  0
LINE
  5
574
100
AcDbEntity
  8
WAKU0
  6
CENTER
 62
12
100
AcDbLine
 10
489.4474565857986
 20
14.55921662918448
 30
0.0000000000000000
 11
489.4474565857986
 21
22.89865102149943
 31
0.0000000000000000
  0
LINE
  5
575
100
AcDbEntity
  8
WAKU0
  6
CONTINUOUS
 62
3
100
AcDbLine
 10
495.9336941228225
 20
20.28041421262797
 30
0.0000000000000000
 11
502.4713877753800
 21
21.78041421262795
 31
0.0000000000000000
  0
LINE
  5
576
100
AcDbEntity
  8
WAKU0
  6
CONTINUOUS
 62
3
100
AcDbLine
 10
495.9336941228225
 20
17.28041421262811
 30
0.0000000000000000
 11
502.4713877753799
 21
15.78041421262812
 31
0.0000000000000000
  0
CIRCLE
  5
577
100
AcDbEntity
  8
WAKU0
  6
CONTINUOUS
 62
3
100
AcDbCircle
 10
489.4474565857986
 20
18.78041421262813
 30
0.0000000000000000
 40
1.499999999999972
  0
CIRCLE
  5
578
100
AcDbEntity
  8
WAKU0
  6
CONTINUOUS
 62
3
100
AcDbCircle
 10
489.4474565857986
 20
18.78041421262813
 30
0.0000000000000000
 40
2.999999999999979
  0
ENDSEC
  0
SECTION
  2
OBJECTS
  0
DICTIONARY
  5
5D2
100
AcDbDictionary
  3
ACAD_GROUP
350
5D3
  3
ACAD_MLINESTYLE
350
5D4
  0
DICTIONARY
  5
5D3
102
{ACAD_REACTORS
330
5D2
102
}
100
AcDbDictionary
  0
DICTIONARY
  5
5D4
102
{ACAD_REACTORS
330
5D2
102
}
100
AcDbDictionary
  3
STANDARD
350
5D5
  0
MLINESTYLE
  5
5D5
102
{ACAD_REACTORS
330
5D4
102
}
100
AcDbMlineStyle
  2
STANDARD
 70
     0
  3

 62
   256
 51
90.00
 52
90.00
 71
     2
 49
0.50
 62
   256
  6
BYLAYER
 49
-0.50
 62
   256
  6
BYLAYER
  0
ENDSEC
  0
EOF
