  0
SECTION
  2
HEADER
  9
$ACADVER
  1
AC1014
  9
$DWGCODEPAGE
  3
ANSI_932
  9
$LTSCALE
 40
20.0
  9
$FILLMODE
 70
     1
  9
$CLAYER
  8
0
  9
$PDMODE
 70
     0
  9
$SPLFRAME
 70
     0
  9
$SPLINETYPE
 70
     6
  9
$SPLINESEGS
 70
     8
  9
$DIMASZ
 40
2.000000
  9
$DIMEXE
 40
2.000000
  9
$DIMEXO
 40
0.800000
  9
$DIMTAD
 70
     1
  9
$DIMTIH
 70
     0
  9
$DIMTOH
 70
     0
  9
$DIMTVP
 40
0.500000
  9
$DIMTXT
 40
3.100000
  9
$EXTMIN
 10
0.000000
 20
0.000000
 30
0.000000
  9
$EXTMAX
 10
297.000000
 20
420.000000
 30
0.000000
  9
$MEASUREMENT
 70
  1
  9
$LIMMIN
 10
0.000000
 20
0.000000
  9
$LIMMAX
 10
297.000000
 20
420.000000
  9
$HANDLING
 70
     1
  9
$HANDSEED
  5
3D9
  9
$DIMBLK
  1
_OPEN
  9
$DIMDEC
 70
     3
  9
$DIMAUNIT
 70
     1
  9
$DIMZIN
 70
     8
  9
$DIMTOFL
 70
     1
  0
ENDSEC
  0
SECTION
  2
CLASSES
  0
ENDSEC
  0
SECTION
  2
TABLES
  0
TABLE
  2
VPORT
  5
396
100
AcDbSymbolTable
 70
     1
  0
VPORT
  5
397
100
AcDbSymbolTableRecord
100
AcDbViewportTableRecord
  2
*ACTIVE
 70
     0
 12
210.120582
 22
148.500000
 40
297.000000
 41
1.414953
  0
ENDTAB
  0
TABLE
  2
LTYPE
  5
398
100
AcDbSymbolTable
 70
     3
  0
LTYPE
  5
399
100
AcDbSymbolTableRecord
100
AcDbLinetypeTableRecord
  2
BYBLOCK
 70
     0
  3

 72
    65
 73
     0
 40
0.0
  0
LTYPE
  5
39A
100
AcDbSymbolTableRecord
100
AcDbLinetypeTableRecord
  2
BYLAYER
 70
     0
  3

 72
    65
 73
     0
 40
0.0
  0
LTYPE
  5
39B
100
AcDbSymbolTableRecord
100
AcDbLinetypeTableRecord
  2
CONTINUOUS
 70
     0
  3
Solid line (NEC CAE2D for Win R14.2 : 2021.05.17)
 72
    65
 73
     0
 40
0.0
  0
LTYPE
  5
39C
100
AcDbSymbolTableRecord
100
AcDbLinetypeTableRecord
  2
HIDDEN
 70
     0
  3
__ __ __ __ __ __ __ __ __ __ __ __ __ __
 72
    65
 73
     2
 40
0.375
 49
0.25
 74
     0
 49
-0.125
 74
     0
  0
LTYPE
  5
39D
100
AcDbSymbolTableRecord
100
AcDbLinetypeTableRecord
  2
CENTER
 70
     0
  3
____ _ ____ _ ____ _ ____ _ ____ _ ____
 72
    65
 73
     4
 40
2.0
 49
1.25
 74
     0
 49
-0.25
 74
     0
 49
0.25
 74
     0
 49
-0.25
 74
     0
  0
ENDTAB
  0
TABLE
  2
LAYER
  5
39E
100
AcDbSymbolTable
 70
     9
  0
LAYER
  5
39F
100
AcDbSymbolTableRecord
100
AcDbLayerTableRecord
  2
0
 70
     0
 62
     7
  6
CONTINUOUS
  0
LAYER
  5
3A0
100
AcDbSymbolTableRecord
100
AcDbLayerTableRecord
  2
MAIN0
 70
     0
 62
     7
  6
CONTINUOUS
  0
LAYER
  5
3A1
100
AcDbSymbolTableRecord
100
AcDbLayerTableRecord
  2
MAIN1
 70
     0
 62
     7
  6
CONTINUOUS
  0
LAYER
  5
3A2
100
AcDbSymbolTableRecord
100
AcDbLayerTableRecord
  2
MAIN2
 70
     0
 62
     7
  6
CONTINUOUS
  0
LAYER
  5
3A3
100
AcDbSymbolTableRecord
100
AcDbLayerTableRecord
  2
MAIN3
 70
     0
 62
     7
  6
CONTINUOUS
  0
LAYER
  5
3A4
100
AcDbSymbolTableRecord
100
AcDbLayerTableRecord
  2
MAIN10
 70
     0
 62
     7
  6
CONTINUOUS
  0
LAYER
  5
3A5
100
AcDbSymbolTableRecord
100
AcDbLayerTableRecord
  2
MAIN1023
 70
     0
 62
    16
  6
CONTINUOUS
  0
LAYER
  5
3A6
100
AcDbSymbolTableRecord
100
AcDbLayerTableRecord
  2
WAKU0
 70
     0
 62
     7
  6
CONTINUOUS
  0
LAYER
  5
3A7
100
AcDbSymbolTableRecord
100
AcDbLayerTableRecord
  2
WAKU1023
 70
     0
 62
    16
  6
CONTINUOUS
  0
ENDTAB
  0
TABLE
  2
STYLE
  5
3A8
100
AcDbSymbolTable
 70
     4
  0
STYLE
  5
3A9
100
AcDbSymbolTableRecord
100
AcDbTextStyleTableRecord
  2
STANDARD
 70
    64
 40
0.0
 41
1.0
 50
0.0
 71
     0
 42
3.099999904632568
  3
TXT
  4

  0
STYLE
  5
3AA
100
AcDbSymbolTableRecord
100
AcDbTextStyleTableRecord
  2
ANKTATE
 70
    68
 40
0.0
 41
1.0
 50
0.0
 71
     0
 42
3.099999904632568
  3
TXT
  4

  0
STYLE
  5
9A
100
AcDbSymbolTableRecord
100
AcDbTextStyleTableRecord
  2
KNJYOKO
 70
    64
 40
0.0
 41
1.0
 50
0.0
 71
     0
 42
3.099999904632568
  3
TXT
  4
BIGFONT
  0
STYLE
  5
3AB
100
AcDbSymbolTableRecord
100
AcDbTextStyleTableRecord
  2
KNJTATE
 70
    68
 40
0.0
 41
1.0
 50
0.0
 71
     0
 42
3.099999904632568
  3
TXT
  4
BIGFONT
  0
ENDTAB
  0
TABLE
  2
VIEW
  5
3AC
100
AcDbSymbolTable
 70
     0
  0
ENDTAB
  0
TABLE
  2
UCS
  5
3AD
100
AcDbSymbolTable
 70
     0
  0
ENDTAB
  0
TABLE
  2
APPID
  5
3AE
100
AcDbSymbolTable
 70
     1
  0
APPID
  5
3AF
100
AcDbSymbolTableRecord
100
AcDbRegAppTableRecord
  2
ACAD
 70
     0
  0
ENDTAB
  0
TABLE
  2
DIMSTYLE
  5
3B0
100
AcDbSymbolTable
 70
     1
  0
DIMSTYLE
105
3B1
100
AcDbSymbolTableRecord
100
AcDbDimStyleTableRecord
  2
STANDARD
 70
     0
 41
2.000000
 44
2.000000
 42
0.800000
145
0.661290
140
3.100000
144
1.000000
146
0.903226
340
3A9
  0
DIMSTYLE
105
3B2
100
AcDbSymbolTableRecord
100
AcDbDimStyleTableRecord
  2
MAIN001
 70
     0
 41
2.000000
 44
2.000000
 42
0.800000
145
0.661290
140
3.100000
144
1.000000
146
0.903226
 77
     1
 73
     0
 74
     0
271
     3
275
     1
 78
     8
172
     1
340
3A9
  0
DIMSTYLE
105
3B3
100
AcDbSymbolTableRecord
100
AcDbDimStyleTableRecord
  2
WAKU002
 70
     0
 41
2.000000
 44
2.000000
 42
0.800000
145
0.661290
140
3.100000
144
1.000000
146
0.903226
 77
     1
 73
     0
 74
     0
271
     3
275
     1
 78
     8
172
     1
340
3A9
  0
ENDTAB
  0
TABLE
  2
BLOCK_RECORD
  5
3B4
100
AcDbSymbolTable
 70
    38
  0
BLOCK_RECORD
  5
3B5
100
AcDbSymbolTableRecord
100
AcDbBlockTableRecord
  2
*MODEL_SPACE
  0
BLOCK_RECORD
  5
3B6
100
AcDbSymbolTableRecord
100
AcDbBlockTableRecord
  2
*PAPER_SPACE
  0
BLOCK_RECORD
  5
1
100
AcDbSymbolTableRecord
100
AcDbBlockTableRecord
  2
_NONE
  0
BLOCK_RECORD
  5
4
100
AcDbSymbolTableRecord
100
AcDbBlockTableRecord
  2
_CLOSED
  0
BLOCK_RECORD
  5
B
100
AcDbSymbolTableRecord
100
AcDbBlockTableRecord
  2
_DOT
  0
BLOCK_RECORD
  5
13
100
AcDbSymbolTableRecord
100
AcDbBlockTableRecord
  2
_OPEN
  0
BLOCK_RECORD
  5
19
100
AcDbSymbolTableRecord
100
AcDbBlockTableRecord
  2
_ORIGIN
  0
BLOCK_RECORD
  5
1E
100
AcDbSymbolTableRecord
100
AcDbBlockTableRecord
  2
_OPEN30
  0
BLOCK_RECORD
  5
24
100
AcDbSymbolTableRecord
100
AcDbBlockTableRecord
  2
_BOXFILLED
  0
BLOCK_RECORD
  5
29
100
AcDbSymbolTableRecord
100
AcDbBlockTableRecord
  2
_BOXBLANK
  0
BLOCK_RECORD
  5
31
100
AcDbSymbolTableRecord
100
AcDbBlockTableRecord
  2
_OBLIQUE
  0
BLOCK_RECORD
  5
35
100
AcDbSymbolTableRecord
100
AcDbBlockTableRecord
  2
_OPEN90
  0
BLOCK_RECORD
  5
3B
100
AcDbSymbolTableRecord
100
AcDbBlockTableRecord
  2
_CLOSEDBLANK
  0
BLOCK_RECORD
  5
41
100
AcDbSymbolTableRecord
100
AcDbBlockTableRecord
  2
_DOTBLANK
  0
BLOCK_RECORD
  5
3B7
100
AcDbSymbolTableRecord
100
AcDbBlockTableRecord
  2
*D0
  0
BLOCK_RECORD
  5
3B8
100
AcDbSymbolTableRecord
100
AcDbBlockTableRecord
  2
*D1
  0
BLOCK_RECORD
  5
3B9
100
AcDbSymbolTableRecord
100
AcDbBlockTableRecord
  2
*D2
  0
BLOCK_RECORD
  5
3BA
100
AcDbSymbolTableRecord
100
AcDbBlockTableRecord
  2
*D3
  0
BLOCK_RECORD
  5
3BB
100
AcDbSymbolTableRecord
100
AcDbBlockTableRecord
  2
*D4
  0
BLOCK_RECORD
  5
3BC
100
AcDbSymbolTableRecord
100
AcDbBlockTableRecord
  2
*D5
  0
BLOCK_RECORD
  5
3BD
100
AcDbSymbolTableRecord
100
AcDbBlockTableRecord
  2
*D6
  0
BLOCK_RECORD
  5
3BE
100
AcDbSymbolTableRecord
100
AcDbBlockTableRecord
  2
*D7
  0
BLOCK_RECORD
  5
3BF
100
AcDbSymbolTableRecord
100
AcDbBlockTableRecord
  2
*D8
  0
BLOCK_RECORD
  5
3C0
100
AcDbSymbolTableRecord
100
AcDbBlockTableRecord
  2
*D9
  0
BLOCK_RECORD
  5
3C1
100
AcDbSymbolTableRecord
100
AcDbBlockTableRecord
  2
*D10
  0
BLOCK_RECORD
  5
3C2
100
AcDbSymbolTableRecord
100
AcDbBlockTableRecord
  2
*D11
  0
BLOCK_RECORD
  5
3C3
100
AcDbSymbolTableRecord
100
AcDbBlockTableRecord
  2
*D12
  0
BLOCK_RECORD
  5
3C4
100
AcDbSymbolTableRecord
100
AcDbBlockTableRecord
  2
*D13
  0
BLOCK_RECORD
  5
3C5
100
AcDbSymbolTableRecord
100
AcDbBlockTableRecord
  2
*D14
  0
BLOCK_RECORD
  5
3C6
100
AcDbSymbolTableRecord
100
AcDbBlockTableRecord
  2
*D15
  0
BLOCK_RECORD
  5
3C7
100
AcDbSymbolTableRecord
100
AcDbBlockTableRecord
  2
*D16
  0
BLOCK_RECORD
  5
3C8
100
AcDbSymbolTableRecord
100
AcDbBlockTableRecord
  2
*D17
  0
BLOCK_RECORD
  5
3C9
100
AcDbSymbolTableRecord
100
AcDbBlockTableRecord
  2
*D18
  0
BLOCK_RECORD
  5
3CA
100
AcDbSymbolTableRecord
100
AcDbBlockTableRecord
  2
*D19
  0
BLOCK_RECORD
  5
3CB
100
AcDbSymbolTableRecord
100
AcDbBlockTableRecord
  2
D20
  0
BLOCK_RECORD
  5
3CC
100
AcDbSymbolTableRecord
100
AcDbBlockTableRecord
  2
D21
  0
BLOCK_RECORD
  5
3CD
100
AcDbSymbolTableRecord
100
AcDbBlockTableRecord
  2
*D22
  0
BLOCK_RECORD
  5
3CE
100
AcDbSymbolTableRecord
100
AcDbBlockTableRecord
  2
*D23
  0
BLOCK_RECORD
  5
3CF
100
AcDbSymbolTableRecord
100
AcDbBlockTableRecord
  2
*D24
  0
BLOCK_RECORD
  5
3D0
100
AcDbSymbolTableRecord
100
AcDbBlockTableRecord
  2
*D25
  0
ENDTAB
  0
ENDSEC
  0
SECTION
  2
BLOCKS
  0
BLOCK
  5
3D1
100
AcDbEntity
  8
0
100
AcDbBlockBegin
  2
*MODEL_SPACE
 70
     0
 10
0.0
 20
0.0
 30
0.0
  3
*MODEL_SPACE
  1

  0
ENDBLK
  5
3D2
100
AcDbEntity
  8
0
100
AcDbBlockEnd
  0
BLOCK
  5
3D3
100
AcDbEntity
  8
0
100
AcDbBlockBegin
  2
*PAPER_SPACE
 70
     0
 10
0.0
 20
0.0
 30
0.0
  3
*PAPER_SPACE
  1

  0
ENDBLK
  5
3D4
100
AcDbEntity
  8
0
100
AcDbBlockEnd
  0
BLOCK
  5
2
100
AcDbEntity
  8
0
100
AcDbBlockBegin
  2
_NONE
 70
     0
 10
0.0
 20
0.0
 30
0.0
  3
_NONE
  1

  0
ENDBLK
  5
3
100
AcDbEntity
  8
0
100
AcDbBlockEnd
  0
BLOCK
  5
5
100
AcDbEntity
  8
0
100
AcDbBlockBegin
  2
_CLOSED
 70
     0
 10
0.0
 20
0.0
 30
0.0
  3
_CLOSED
  1

  0
LINE
  5
6
100
AcDbEntity
  8
0
  6
BYBLOCK
 62
     0
100
AcDbLine
 10
-1.0
 20
0.166667
 30
0.0
 11
0.0
 21
0.0
 31
0.0
  0
LINE
  5
7
100
AcDbEntity
  8
0
  6
BYBLOCK
 62
     0
100
AcDbLine
 10
0.0
 20
0.0
 30
0.0
 11
-1.0
 21
-0.166667
 31
0.0
  0
LINE
  5
8
100
AcDbEntity
  8
0
  6
BYBLOCK
 62
     0
100
AcDbLine
 10
-1.0
 20
0.166667
 30
0.0
 11
-1.0
 21
-0.166667
 31
0.0
  0
LINE
  5
9
100
AcDbEntity
  8
0
  6
BYBLOCK
 62
     0
100
AcDbLine
 10
0.0
 20
0.0
 30
0.0
 11
-1.0
 21
0.0
 31
0.0
  0
ENDBLK
  5
A
100
AcDbEntity
  8
0
100
AcDbBlockEnd
  0
BLOCK
  5
C
100
AcDbEntity
  8
0
100
AcDbBlockBegin
  2
_DOT
 70
     0
 10
0.0
 20
0.0
 30
0.0
  3
_DOT
  1

  0
POLYLINE
  5
D
100
AcDbEntity
  8
0
  6
BYBLOCK
 62
     0
100
AcDb2dPolyline
 66
     1
 10
0.0
 20
0.0
 30
0.0
 70
     1
 40
0.5
 41
0.5
  0
VERTEX
  5
E
100
AcDbEntity
  8
0
  6
BYBLOCK
 62
     0
100
AcDbVertex
100
AcDb2dVertex
 10
-0.25
 20
0.0
 30
0.0
 42
1.0
  0
VERTEX
  5
F
100
AcDbEntity
  8
0
  6
BYBLOCK
 62
     0
100
AcDbVertex
100
AcDb2dVertex
 10
0.25
 20
0.0
 30
0.0
 42
1.0
  0
SEQEND
  5
10
100
AcDbEntity
  8
0
  6
BYBLOCK
 62
     0
  0
LINE
  5
11
100
AcDbEntity
  8
0
  6
BYBLOCK
 62
     0
100
AcDbLine
 10
-0.5
 20
0.0
 30
0.0
 11
-1.0
 21
0.0
 31
0.0
  0
ENDBLK
  5
12
100
AcDbEntity
  8
0
100
AcDbBlockEnd
  0
BLOCK
  5
14
100
AcDbEntity
  8
0
100
AcDbBlockBegin
  2
_OPEN
 70
     0
 10
0.0
 20
0.0
 30
0.0
  3
_OPEN
  1

  0
LINE
  5
15
100
AcDbEntity
  8
0
  6
BYBLOCK
 62
     0
100
AcDbLine
 10
-1.0
 20
0.166667
 30
0.0
 11
0.0
 21
0.0
 31
0.0
  0
LINE
  5
16
100
AcDbEntity
  8
0
  6
BYBLOCK
 62
     0
100
AcDbLine
 10
0.0
 20
0.0
 30
0.0
 11
-1.0
 21
-0.166667
 31
0.0
  0
LINE
  5
17
100
AcDbEntity
  8
0
  6
BYBLOCK
 62
     0
100
AcDbLine
 10
0.0
 20
0.0
 30
0.0
 11
-1.0
 21
0.0
 31
0.0
  0
ENDBLK
  5
18
100
AcDbEntity
  8
0
100
AcDbBlockEnd
  0
BLOCK
  5
1A
100
AcDbEntity
  8
0
100
AcDbBlockBegin
  2
_ORIGIN
 70
     0
 10
0.0
 20
0.0
 30
0.0
  3
_ORIGIN
  1

  0
CIRCLE
  5
1B
100
AcDbEntity
  8
0
  6
BYBLOCK
 62
     0
100
AcDbCircle
 10
0.0
 20
0.0
 30
0.0
 40
0.5
  0
LINE
  5
1C
100
AcDbEntity
  8
0
  6
BYBLOCK
 62
     0
100
AcDbLine
 10
0.0
 20
0.0
 30
0.0
 11
-1.0
 21
0.0
 31
0.0
  0
ENDBLK
  5
1D
100
AcDbEntity
  8
0
100
AcDbBlockEnd
  0
BLOCK
  5
1F
100
AcDbEntity
  8
0
100
AcDbBlockBegin
  2
_OPEN30
 70
     0
 10
0.0
 20
0.0
 30
0.0
  3
_OPEN30
  1

  0
LINE
  5
20
100
AcDbEntity
  8
0
  6
BYBLOCK
 62
     0
100
AcDbLine
 10
-1.0
 20
0.267949
 30
0.0
 11
0.0
 21
0.0
 31
0.0
  0
LINE
  5
21
100
AcDbEntity
  8
0
  6
BYBLOCK
 62
     0
100
AcDbLine
 10
0.0
 20
0.0
 30
0.0
 11
-1.0
 21
-0.267949
 31
0.0
  0
LINE
  5
22
100
AcDbEntity
  8
0
  6
BYBLOCK
 62
     0
100
AcDbLine
 10
0.0
 20
0.0
 30
0.0
 11
-1.0
 21
0.0
 31
0.0
  0
ENDBLK
  5
23
100
AcDbEntity
  8
0
100
AcDbBlockEnd
  0
BLOCK
  5
25
100
AcDbEntity
  8
0
100
AcDbBlockBegin
  2
_BOXFILLED
 70
     0
 10
0.0
 20
0.0
 30
0.0
  3
_BOXFILLED
  1

  0
SOLID
  5
26
100
AcDbEntity
  8
0
  6
BYBLOCK
 62
     0
100
AcDbTrace
 10
-0.5
 20
0.5
 30
0.0
 11
0.5
 21
0.5
 31
0.0
 12
-0.5
 22
-0.5
 32
0.0
 13
0.5
 23
-0.5
 33
0.0
  0
LINE
  5
27
100
AcDbEntity
  8
0
  6
BYBLOCK
 62
     0
100
AcDbLine
 10
-0.5
 20
0.0
 30
0.0
 11
-1.0
 21
0.0
 31
0.0
  0
ENDBLK
  5
28
100
AcDbEntity
  8
0
100
AcDbBlockEnd
  0
BLOCK
  5
2A
100
AcDbEntity
  8
0
100
AcDbBlockBegin
  2
_BOXBLANK
 70
     0
 10
0.0
 20
0.0
 30
0.0
  3
_BOXBLANK
  1

  0
LINE
  5
2B
100
AcDbEntity
  8
0
  6
BYBLOCK
 62
     0
100
AcDbLine
 10
-0.5
 20
-0.5
 30
0.0
 11
0.5
 21
-0.5
 31
0.0
  0
LINE
  5
2C
100
AcDbEntity
  8
0
  6
BYBLOCK
 62
     0
100
AcDbLine
 10
0.5
 20
-0.5
 30
0.0
 11
0.5
 21
0.5
 31
0.0
  0
LINE
  5
2D
100
AcDbEntity
  8
0
  6
BYBLOCK
 62
     0
100
AcDbLine
 10
0.5
 20
0.5
 30
0.0
 11
-0.5
 21
0.5
 31
0.0
  0
LINE
  5
2E
100
AcDbEntity
  8
0
  6
BYBLOCK
 62
     0
100
AcDbLine
 10
-0.5
 20
0.5
 30
0.0
 11
-0.5
 21
-0.5
 31
0.0
  0
LINE
  5
2F
100
AcDbEntity
  8
0
  6
BYBLOCK
 62
     0
100
AcDbLine
 10
-0.5
 20
0.0
 30
0.0
 11
-1.0
 21
0.0
 31
0.0
  0
ENDBLK
  5
30
100
AcDbEntity
  8
0
100
AcDbBlockEnd
  0
BLOCK
  5
32
100
AcDbEntity
  8
0
100
AcDbBlockBegin
  2
_OBLIQUE
 70
     0
 10
0.0
 20
0.0
 30
0.0
  3
_OBLIQUE
  1

  0
LINE
  5
33
100
AcDbEntity
  8
0
  6
BYBLOCK
 62
     0
100
AcDbLine
 10
-0.5
 20
-0.5
 30
0.0
 11
0.5
 21
0.5
 31
0.0
  0
ENDBLK
  5
34
100
AcDbEntity
  8
0
100
AcDbBlockEnd
  0
BLOCK
  5
36
100
AcDbEntity
  8
0
100
AcDbBlockBegin
  2
_OPEN90
 70
     0
 10
0.0
 20
0.0
 30
0.0
  3
_OPEN90
  1

  0
LINE
  5
37
100
AcDbEntity
  8
0
  6
BYBLOCK
 62
     0
100
AcDbLine
 10
-0.5
 20
0.5
 30
0.0
 11
0.0
 21
0.0
 31
0.0
  0
LINE
  5
38
100
AcDbEntity
  8
0
  6
BYBLOCK
 62
     0
100
AcDbLine
 10
0.0
 20
0.0
 30
0.0
 11
-0.5
 21
-0.5
 31
0.0
  0
LINE
  5
39
100
AcDbEntity
  8
0
  6
BYBLOCK
 62
     0
100
AcDbLine
 10
0.0
 20
0.0
 30
0.0
 11
-1.0
 21
0.0
 31
0.0
  0
ENDBLK
  5
3A
100
AcDbEntity
  8
0
100
AcDbBlockEnd
  0
BLOCK
  5
3C
100
AcDbEntity
  8
0
100
AcDbBlockBegin
  2
_CLOSEDBLANK
 70
     0
 10
0.0
 20
0.0
 30
0.0
  3
_CLOSEDBLANK
  1

  0
LINE
  5
3D
100
AcDbEntity
  8
0
  6
BYBLOCK
 62
     0
100
AcDbLine
 10
-1.0
 20
0.1666666666666666
 30
0.0
 11
0.0
 21
0.0
 31
0.0
  0
LINE
  5
3E
100
AcDbEntity
  8
0
  6
BYBLOCK
 62
     0
100
AcDbLine
 10
0.0
 20
0.0
 30
0.0
 11
-1.0
 21
-0.1666666666666666
 31
0.0
  0
LINE
  5
3F
100
AcDbEntity
  8
0
  6
BYBLOCK
 62
     0
100
AcDbLine
 10
-1.0
 20
0.1666666666666666
 30
0.0
 11
-1.0
 21
-0.1666666666666666
 31
0.0
  0
ENDBLK
  5
40
100
AcDbEntity
  8
0
100
AcDbBlockEnd
  0
BLOCK
  5
42
100
AcDbEntity
  8
0
100
AcDbBlockBegin
  2
_DOTBLANK
 70
     0
 10
0.0
 20
0.0
 30
0.0
  3
_DOTBLANK
  1

  0
CIRCLE
  5
43
100
AcDbEntity
  8
0
  6
BYBLOCK
 62
     0
100
AcDbCircle
 10
0.0
 20
0.0
 30
0.0
 40
0.5
  0
LINE
  5
44
100
AcDbEntity
  8
0
  6
BYBLOCK
 62
     0
100
AcDbLine
 10
-0.5
 20
0.0
 30
0.0
 11
-1.0
 21
0.0
 31
0.0
  0
ENDBLK
  5
45
100
AcDbEntity
  8
0
100
AcDbBlockEnd
  0
BLOCK
  5
65
100
AcDbEntity
  8
MAIN0
  6
CONTINUOUS
 62
3
100
AcDbBlockBegin
  2
*D0
 70
    65
 10
0.0
 20
0.0
 30
0.0
  0
LINE
  5
66
100
AcDbEntity
  8
MAIN0
  6
BYBLOCK
 62
0
100
AcDbLine
 10
314.9752129934813
 20
246.0197465108906
 30
0.0000000000000000
 11
314.9752129934813
 21
253.0288085152976
 31
0.0000000000000000
  0
LINE
  5
67
100
AcDbEntity
  8
MAIN0
  6
BYBLOCK
 62
0
100
AcDbLine
 10
316.9752129934813
 20
251.0288085152976
 30
0.0000000000000000
 11
326.4752129934813
 21
251.0288085152976
 31
0.0000000000000000
  0
INSERT
  5
68
100
AcDbEntity
  8
MAIN0
  6
BYBLOCK
 62
0
100
AcDbBlockReference
  2
_OPEN
 10
314.9752129934813
 20
251.0288085152976
 30
0.0000000000000000
 41
2.000000000000000
 42
2.000000000000000
 43
2.000000000000000
 50
180.0000000000000
  0
INSERT
  5
69
100
AcDbEntity
  8
MAIN0
  6
BYBLOCK
 62
0
100
AcDbBlockReference
  2
_OPEN
 10
328.4752129934813
 20
251.0288085152976
 30
0.0000000000000000
 41
2.000000000000000
 42
2.000000000000000
 43
2.000000000000000
 50
0.0000000000000000
  0
LINE
  5
6A
100
AcDbEntity
  8
MAIN0
  6
BYBLOCK
 62
0
100
AcDbLine
 10
314.9752129934813
 20
251.0288085152976
 30
0.0000000000000000
 11
304.8429107092405
 21
251.0288085152976
 31
0.0000000000000000
  0
LINE
  5
6B
100
AcDbEntity
  8
MAIN0
  6
BYBLOCK
 62
0
100
AcDbLine
 10
328.4752129934813
 20
246.0197465108880
 30
0.0000000000000000
 11
328.4752129934813
 21
253.0288085152976
 31
0.0000000000000000
  0
MTEXT
  5
6C
100
AcDbEntity
  8
MAIN0
  6
BYBLOCK
 62
0
100
AcDbMText
 10
308.5429109555112
 20
253.0788084676139
 30
0.0000000000000000
 40
3.099999904632568
 41
0.0000000000000000
 71
     5
 72
     1
  1
\A1;13.5
 11
1.000000000000000
 21
0.0000000000000000
 31
0.0000000000000000
  7
STANDARD
  0
ENDBLK
  5
6D
100
AcDbEntity
  8
MAIN0
  6
CONTINUOUS
 62
3
100
AcDbBlockEnd
  0
BLOCK
  5
6F
100
AcDbEntity
  8
MAIN0
  6
CONTINUOUS
 62
3
100
AcDbBlockBegin
  2
*D1
 70
    65
 10
0.0
 20
0.0
 30
0.0
  0
LINE
  5
70
100
AcDbEntity
  8
MAIN0
  6
BYBLOCK
 62
0
100
AcDbLine
 10
321.7252129934813
 20
142.6769026360807
 30
0.0000000000000000
 11
321.7252129934813
 21
131.7304352431726
 31
0.0000000000000000
  0
LINE
  5
71
100
AcDbEntity
  8
MAIN0
  6
BYBLOCK
 62
0
100
AcDbLine
 10
367.7765317980466
 20
169.5320051911510
 30
0.0000000000000000
 11
377.4879922736192
 21
163.9250908713724
 31
0.0000000000000000
  0
ARC
  5
72
100
AcDbEntity
  8
MAIN0
  6
BYBLOCK
 62
0
100
AcDbCircle
 10
321.7252129934813
 20
196.1197464994206
 30
0.0000000000000000
 40
62.38931125624796
100
AcDbArc
 50
271.8367178082077
 51
328.1632821918703
  0
INSERT
  5
73
100
AcDbEntity
  8
MAIN0
  6
BYBLOCK
 62
0
100
AcDbBlockReference
  2
_OPEN
 10
321.7252129934813
 20
133.7304352431726
 30
0.0000000000000000
 41
2.000000000000000
 42
2.000000000000000
 43
2.000000000000000
 50
180.0000000000000
  0
INSERT
  5
74
100
AcDbEntity
  8
MAIN0
  6
BYBLOCK
 62
0
100
AcDbBlockReference
  2
_OPEN
 10
375.7559414660489
 20
164.9250908713701
 30
0.0000000000000000
 41
2.000000000000000
 42
2.000000000000000
 43
2.000000000000000
 50
60.00000000007799
  0
MTEXT
  5
75
100
AcDbEntity
  8
MAIN0
  6
BYBLOCK
 62
0
100
AcDbMText
 10
351.8948686454826
 20
143.8643700633787
 30
0.0000000000000000
 40
3.099999904632568
 41
0.0000000000000000
 71
     5
 72
     1
  1
\A1;60\U+00B0
 11
0.8660254037840988
 21
0.5000000000005886
 31
0.0000000000000000
  7
STANDARD
  0
ENDBLK
  5
76
100
AcDbEntity
  8
MAIN0
  6
CONTINUOUS
 62
3
100
AcDbBlockEnd
  0
BLOCK
  5
78
100
AcDbEntity
  8
MAIN0
  6
CONTINUOUS
 62
3
100
AcDbBlockBegin
  2
*D2
 70
    65
 10
0.0
 20
0.0
 30
0.0
  0
LINE
  5
79
100
AcDbEntity
  8
MAIN0
  6
BYBLOCK
 62
0
100
AcDbLine
 10
367.7765317980466
 20
169.5320051911510
 30
0.0000000000000000
 11
377.4879922736192
 21
163.9250908713724
 31
0.0000000000000000
  0
LINE
  5
7A
100
AcDbEntity
  8
MAIN0
  6
BYBLOCK
 62
0
100
AcDbLine
 10
376.4255562992638
 20
196.1197464994206
 30
0.0000000000000000
 11
386.1145242497292
 21
196.1197464994206
 31
0.0000000000000000
  0
ARC
  5
7B
100
AcDbEntity
  8
MAIN0
  6
BYBLOCK
 62
0
100
AcDbCircle
 10
321.7252129934813
 20
196.1197464994206
 30
0.0000000000000000
 40
62.38931125624796
100
AcDbArc
 50
331.8367178082856
 51
358.1632821917923
  0
INSERT
  5
7C
100
AcDbEntity
  8
MAIN0
  6
BYBLOCK
 62
0
100
AcDbBlockReference
  2
_OPEN
 10
375.7559414660489
 20
164.9250908713701
 30
0.0000000000000000
 41
2.000000000000000
 42
2.000000000000000
 43
2.000000000000000
 50
240.0000000000780
  0
INSERT
  5
7D
100
AcDbEntity
  8
MAIN0
  6
BYBLOCK
 62
0
100
AcDbBlockReference
  2
_OPEN
 10
384.1145242497292
 20
196.1197464994205
 30
0.0000000000000000
 41
2.000000000000000
 42
2.000000000000000
 43
2.000000000000000
 50
90.00000000000000
  0
MTEXT
  5
7E
100
AcDbEntity
  8
MAIN0
  6
BYBLOCK
 62
0
100
AcDbMText
 10
380.0085121224553
 20
180.5027835656329
 30
0.0000000000000000
 40
3.099999904632568
 41
0.0000000000000000
 71
     5
 72
     1
  1
\A1;30\U+00B0
 11
0.2588190451018634
 21
0.9659258262892444
 31
0.0000000000000000
  7
STANDARD
  0
ENDBLK
  5
7F
100
AcDbEntity
  8
MAIN0
  6
CONTINUOUS
 62
3
100
AcDbBlockEnd
  0
BLOCK
  5
81
100
AcDbEntity
  8
MAIN0
  6
CONTINUOUS
 62
3
100
AcDbBlockBegin
  2
*D3
 70
    65
 10
0.0
 20
0.0
 30
0.0
  0
LINE
  5
82
100
AcDbEntity
  8
MAIN0
  6
BYBLOCK
 62
0
100
AcDbLine
 10
376.4255562992638
 20
196.1197464994206
 30
0.0000000000000000
 11
386.1145242497292
 21
196.1197464994206
 31
0.0000000000000000
  0
LINE
  5
83
100
AcDbEntity
  8
MAIN0
  6
BYBLOCK
 62
0
100
AcDbLine
 10
368.0278482363547
 20
222.8525854209987
 30
0.0000000000000000
 11
377.4879922736191
 21
228.3144021274687
 31
0.0000000000000000
  0
ARC
  5
84
100
AcDbEntity
  8
MAIN0
  6
BYBLOCK
 62
0
100
AcDbCircle
 10
321.7252129934813
 20
196.1197464994206
 30
0.0000000000000000
 40
62.38931125624796
100
AcDbArc
 50
1.836717808207715
 51
28.16328219171435
  0
INSERT
  5
85
100
AcDbEntity
  8
MAIN0
  6
BYBLOCK
 62
0
100
AcDbBlockReference
  2
_OPEN
 10
384.1145242497292
 20
196.1197464994206
 30
0.0000000000000000
 41
2.000000000000000
 42
2.000000000000000
 43
2.000000000000000
 50
270.0000000000000
  0
INSERT
  5
86
100
AcDbEntity
  8
MAIN0
  6
BYBLOCK
 62
0
100
AcDbBlockReference
  2
_OPEN
 10
375.7559414660489
 20
227.3144021274711
 30
0.0000000000000000
 41
2.000000000000000
 42
2.000000000000000
 43
2.000000000000000
 50
119.9999999999221
  0
MTEXT
  5
87
100
AcDbEntity
  8
MAIN0
  6
BYBLOCK
 62
0
100
AcDbMText
 10
380.0085121224555
 20
211.7367094332083
 30
0.0000000000000000
 40
3.099999904632568
 41
0.0000000000000000
 71
     5
 72
     1
  1
\A1;30\U+00B0
 11
-0.2588190451018637
 21
0.9659258262892444
 31
0.0000000000000000
  7
STANDARD
  0
ENDBLK
  5
88
100
AcDbEntity
  8
MAIN0
  6
CONTINUOUS
 62
3
100
AcDbBlockEnd
  0
BLOCK
  5
8A
100
AcDbEntity
  8
MAIN0
  6
CONTINUOUS
 62
3
100
AcDbBlockBegin
  2
*D4
 70
    65
 10
0.0
 20
0.0
 30
0.0
  0
LINE
  5
8B
100
AcDbEntity
  8
MAIN0
  6
BYBLOCK
 62
0
100
AcDbLine
 10
368.0278482363547
 20
222.8525854209987
 30
0.0000000000000000
 11
377.4879922736191
 21
228.3144021274687
 31
0.0000000000000000
  0
LINE
  5
8C
100
AcDbEntity
  8
MAIN0
  6
BYBLOCK
 62
0
100
AcDbLine
 10
321.7252129934813
 20
249.5028456634323
 30
0.0000000000000000
 11
321.7252129934813
 21
260.5090577556686
 31
0.0000000000000000
  0
ARC
  5
8D
100
AcDbEntity
  8
MAIN0
  6
BYBLOCK
 62
0
100
AcDbCircle
 10
321.7252129934813
 20
196.1197464994206
 30
0.0000000000000000
 40
62.38931125624796
100
AcDbArc
 50
31.83671780812979
 51
88.16328219179228
  0
INSERT
  5
8E
100
AcDbEntity
  8
MAIN0
  6
BYBLOCK
 62
0
100
AcDbBlockReference
  2
_OPEN
 10
375.7559414660489
 20
227.3144021274711
 30
0.0000000000000000
 41
2.000000000000000
 42
2.000000000000000
 43
2.000000000000000
 50
299.9999999999221
  0
INSERT
  5
8F
100
AcDbEntity
  8
MAIN0
  6
BYBLOCK
 62
0
100
AcDbBlockReference
  2
_OPEN
 10
321.7252129934813
 20
258.5090577556685
 30
0.0000000000000000
 41
2.000000000000000
 42
2.000000000000000
 43
2.000000000000000
 50
180.0000000000000
  0
MTEXT
  5
90
100
AcDbEntity
  8
MAIN0
  6
BYBLOCK
 62
0
100
AcDbMText
 10
353.9448685978014
 20
251.9258270083866
 30
0.0000000000000000
 40
3.099999904632568
 41
0.0000000000000000
 71
     5
 72
     1
  1
\A1;60\U+00B0
 11
0.8660254037840987
 21
-0.5000000000005889
 31
0.0000000000000000
  7
STANDARD
  0
ENDBLK
  5
91
100
AcDbEntity
  8
MAIN0
  6
CONTINUOUS
 62
3
100
AcDbBlockEnd
  0
BLOCK
  5
93
100
AcDbEntity
  8
MAIN0
  6
CONTINUOUS
 62
3
100
AcDbBlockBegin
  2
*D5
 70
    65
 10
0.0
 20
0.0
 30
0.0
  0
LINE
  5
94
100
AcDbEntity
  8
MAIN0
  6
BYBLOCK
 62
0
100
AcDbLine
 10
321.7252129934813
 20
196.1197464994029
 30
0.0000000000000000
 11
338.4338520555144
 21
174.9107535790444
 31
0.0000000000000000
  0
INSERT
  5
95
100
AcDbEntity
  8
MAIN0
  6
BYBLOCK
 62
0
100
AcDbBlockReference
  2
_OPEN
 10
339.6715290230715
 20
173.3397170664264
 30
0.0000000000000000
 41
2.000000000000000
 42
2.000000000000000
 43
2.000000000000000
 50
308.2313639307993
  0
MTEXT
  5
96
100
AcDbEntity
  8
MAIN0
  6
BYBLOCK
 62
0
100
AcDbMText
 10
332.3086833962533
 20
185.9983506451521
 30
0.0000000000000000
 40
3.099999904632568
 41
0.0000000000000000
 71
     5
 72
     1
  1
\A1;Ｒ29
 11
0.6188384837785307
 21
-0.7855182563089729
 31
0.0000000000000000
  7
KNJYOKO
  0
ARC
  5
97
100
AcDbEntity
  8
MAIN0
  6
BYBLOCK
 62
0
100
AcDbCircle
 10
321.7252129934813
 20
196.1197464994029
 30
0.0000000000000000
 40
29.00000000002069
100
AcDbArc
 50
306.4070889515048
 51
312.1827970006642
  0
ENDBLK
  5
98
100
AcDbEntity
  8
MAIN0
  6
CONTINUOUS
 62
3
100
AcDbBlockEnd
  0
BLOCK
  5
9B
100
AcDbEntity
  8
MAIN0
  6
CONTINUOUS
 62
3
100
AcDbBlockBegin
  2
*D6
 70
    65
 10
0.0
 20
0.0
 30
0.0
  0
LINE
  5
9C
100
AcDbEntity
  8
MAIN0
  6
BYBLOCK
 62
0
100
AcDbLine
 10
321.7252129934813
 20
142.6769026360807
 30
0.0000000000000000
 11
321.7252129934813
 21
137.2257745888621
 31
0.0000000000000000
  0
LINE
  5
9D
100
AcDbEntity
  8
MAIN0
  6
BYBLOCK
 62
0
100
AcDbLine
 10
336.3748215504710
 20
164.7035595665761
 30
0.0000000000000000
 11
346.6148810295379
 21
142.7436811474466
 31
0.0000000000000000
  0
ARC
  5
9E
100
AcDbEntity
  8
MAIN0
  6
BYBLOCK
 62
0
100
AcDbCircle
 10
321.7252129934813
 20
196.1197464995691
 30
0.0000000000000000
 40
56.89397191070700
100
AcDbArc
 50
272.0141247864714
 51
292.9858752136875
  0
INSERT
  5
9F
100
AcDbEntity
  8
MAIN0
  6
BYBLOCK
 62
0
100
AcDbBlockReference
  2
_OPEN
 10
321.7252129934813
 20
139.2257745888621
 30
0.0000000000000000
 41
2.000000000000000
 42
2.000000000000000
 43
2.000000000000000
 50
180.0000000000000
  0
INSERT
  5
A0
100
AcDbEntity
  8
MAIN0
  6
BYBLOCK
 62
0
100
AcDbBlockReference
  2
_OPEN
 10
345.7696445060515
 20
144.5562967215176
 30
0.0000000000000000
 41
2.000000000000000
 42
2.000000000000000
 43
2.000000000000000
 50
25.00000000015899
  0
MTEXT
  5
A1
100
AcDbEntity
  8
MAIN0
  6
BYBLOCK
 62
0
100
AcDbMText
 10
333.5956211110618
 20
142.5757956620111
 30
0.0000000000000000
 40
3.099999904632568
 41
0.0000000000000000
 71
     5
 72
     1
  1
\A1;25\U+00B0
 11
0.9762960071196332
 21
0.2164396139394571
 31
0.0000000000000000
  7
STANDARD
  0
ENDBLK
  5
A2
100
AcDbEntity
  8
MAIN0
  6
CONTINUOUS
 62
3
100
AcDbBlockEnd
  0
BLOCK
  5
A6
100
AcDbEntity
  8
MAIN0
  6
CONTINUOUS
 62
3
100
AcDbBlockBegin
  2
*D7
 70
    65
 10
0.0
 20
0.0
 30
0.0
  0
LINE
  5
A7
100
AcDbEntity
  8
MAIN0
  6
BYBLOCK
 62
0
100
AcDbLine
 10
337.7987767074741
 20
168.6428065631984
 30
0.0000000000000000
 11
330.1635084607393
 21
171.0308347875717
 31
0.0000000000000000
  0
INSERT
  5
A8
100
AcDbEntity
  8
MAIN0
  6
BYBLOCK
 62
0
100
AcDbBlockReference
  2
_OPEN
 10
337.7987767074741
 20
168.6428065631984
 30
0.0000000000000000
 41
2.000000000000000
 42
2.000000000000000
 43
2.000000000000000
 50
162.6322562955666
  0
INSERT
  5
A9
100
AcDbEntity
  8
MAIN0
  6
BYBLOCK
 62
0
100
AcDbBlockReference
  2
_OPEN
 10
330.1635084607393
 20
171.0308347875717
 30
0.0000000000000000
 41
2.000000000000000
 42
2.000000000000000
 43
2.000000000000000
 50
342.6322562955666
  0
LINE
  5
AA
100
AcDbEntity
  8
MAIN0
  6
BYBLOCK
 62
0
100
AcDbLine
 10
339.7075937691578
 20
168.0457995071050
 30
0.0000000000000000
 11
345.3588719571517
 21
166.2782896593029
 31
0.0000000000000000
  0
LINE
  5
AB
100
AcDbEntity
  8
MAIN0
  6
BYBLOCK
 62
0
100
AcDbLine
 10
328.2546913990556
 20
171.6278418436650
 30
0.0000000000000000
 11
327.3002828682138
 21
171.9263453717117
 31
0.0000000000000000
  0
MTEXT
  5
AC
100
AcDbEntity
  8
MAIN0
  6
BYBLOCK
 62
0
100
AcDbMText
 10
343.7279441066236
 20
168.9363103995941
 30
0.0000000000000000
 40
3.099999904632568
 41
0.0000000000000000
 71
     5
 72
     1
  1
\A1;\U+22058
 11
0.9544085308418471
 21
-0.2985035280466664
 31
0.0000000000000000
  7
STANDARD
  0
ENDBLK
  5
AD
100
AcDbEntity
  8
MAIN0
  6
CONTINUOUS
 62
3
100
AcDbBlockEnd
  0
BLOCK
  5
106
100
AcDbEntity
  8
MAIN0
  6
CONTINUOUS
 62
3
100
AcDbBlockBegin
  2
*D8
 70
    65
 10
0.0
 20
0.0
 30
0.0
  0
LINE
  5
107
100
AcDbEntity
  8
MAIN0
  6
BYBLOCK
 62
0
100
AcDbLine
 10
326.8488917876680
 20
110.7057678721223
 30
0.0000000000000000
 11
326.8488917876680
 21
99.70576787211768
 31
0.0000000000000000
  0
INSERT
  5
108
100
AcDbEntity
  8
MAIN0
  6
BYBLOCK
 62
0
100
AcDbBlockReference
  2
_OPEN
 10
326.8488917876680
 20
112.7057678721223
 30
0.0000000000000000
 41
2.000000000000000
 42
2.000000000000000
 43
2.000000000000000
 50
90.00000000000000
  0
INSERT
  5
109
100
AcDbEntity
  8
MAIN0
  6
BYBLOCK
 62
0
100
AcDbBlockReference
  2
_OPEN
 10
326.8488917876680
 20
97.70576787211768
 30
0.0000000000000000
 41
2.000000000000000
 42
2.000000000000000
 43
2.000000000000000
 50
270.0000000000000
  0
LINE
  5
10A
100
AcDbEntity
  8
MAIN0
  6
BYBLOCK
 62
0
100
AcDbLine
 10
329.1811425722289
 20
97.70576787211768
 30
0.0000000000000000
 11
324.8488917876680
 21
97.70576787211768
 31
0.0000000000000000
  0
MTEXT
  5
10B
100
AcDbEntity
  8
MAIN0
  6
BYBLOCK
 62
0
100
AcDbMText
 10
324.7988918353518
 20
105.2057678721200
 30
0.0000000000000000
 40
3.099999904632568
 41
0.0000000000000000
 71
     5
 72
     1
  1
\A1;15
 11
6.123233995736766e-017
 21
1.000000000000000
 31
0.0000000000000000
  7
STANDARD
  0
ENDBLK
  5
10C
100
AcDbEntity
  8
MAIN0
  6
CONTINUOUS
 62
3
100
AcDbBlockEnd
  0
BLOCK
  5
137
100
AcDbEntity
  8
MAIN0
  6
CONTINUOUS
 62
3
100
AcDbBlockBegin
  2
*D9
 70
    65
 10
0.0
 20
0.0
 30
0.0
  0
LINE
  5
138
100
AcDbEntity
  8
MAIN0
  6
BYBLOCK
 62
0
100
AcDbLine
 10
190.3108536275549
 20
213.1197464994543
 30
0.0000000000000000
 11
175.2227493637554
 21
213.1197464994543
 31
0.0000000000000000
  0
LINE
  5
139
100
AcDbEntity
  8
MAIN0
  6
BYBLOCK
 62
0
100
AcDbLine
 10
177.2227493637554
 20
211.1197464994543
 30
0.0000000000000000
 11
177.2227493637554
 21
181.1197464994543
 31
0.0000000000000000
  0
INSERT
  5
13A
100
AcDbEntity
  8
MAIN0
  6
BYBLOCK
 62
0
100
AcDbBlockReference
  2
_OPEN
 10
177.2227493637554
 20
213.1197464994543
 30
0.0000000000000000
 41
2.000000000000000
 42
2.000000000000000
 43
2.000000000000000
 50
90.00000000000000
  0
INSERT
  5
13B
100
AcDbEntity
  8
MAIN0
  6
BYBLOCK
 62
0
100
AcDbBlockReference
  2
_OPEN
 10
177.2227493637554
 20
179.1197464994543
 30
0.0000000000000000
 41
2.000000000000000
 42
2.000000000000000
 43
2.000000000000000
 50
270.0000000000000
  0
LINE
  5
13C
100
AcDbEntity
  8
MAIN0
  6
BYBLOCK
 62
0
100
AcDbLine
 10
190.3108536275549
 20
179.1197464994543
 30
0.0000000000000000
 11
175.2227493637554
 21
179.1197464994543
 31
0.0000000000000000
  0
MTEXT
  5
13D
100
AcDbEntity
  8
MAIN0
  6
BYBLOCK
 62
0
100
AcDbMText
 10
175.1727494114392
 20
196.1197465758228
 30
0.0000000000000000
 40
3.099999904632568
 41
0.0000000000000000
 71
     5
 72
     1
  1
\A1;\U+220534h7\H0.903226x;\S　0^ －0.025;
 11
6.123233995736766e-017
 21
1.000000000000000
 31
0.0000000000000000
  7
KNJYOKO
  0
ENDBLK
  5
13E
100
AcDbEntity
  8
MAIN0
  6
CONTINUOUS
 62
3
100
AcDbBlockEnd
  0
BLOCK
  5
140
100
AcDbEntity
  8
MAIN0
  6
CONTINUOUS
 62
3
100
AcDbBlockBegin
  2
*D10
 70
    65
 10
0.0
 20
0.0
 30
0.0
  0
LINE
  5
141
100
AcDbEntity
  8
MAIN0
  6
BYBLOCK
 62
0
100
AcDbLine
 10
206.3252129815082
 20
245.1197464994543
 30
0.0000000000000000
 11
150.3979120331053
 21
245.1197464994543
 31
0.0000000000000000
  0
LINE
  5
142
100
AcDbEntity
  8
MAIN0
  6
BYBLOCK
 62
0
100
AcDbLine
 10
152.3979120331053
 20
243.1197464994543
 30
0.0000000000000000
 11
152.3979120331053
 21
149.1197464994543
 31
0.0000000000000000
  0
INSERT
  5
143
100
AcDbEntity
  8
MAIN0
  6
BYBLOCK
 62
0
100
AcDbBlockReference
  2
_OPEN
 10
152.3979120331053
 20
245.1197464994543
 30
0.0000000000000000
 41
2.000000000000000
 42
2.000000000000000
 43
2.000000000000000
 50
90.00000000000000
  0
INSERT
  5
144
100
AcDbEntity
  8
MAIN0
  6
BYBLOCK
 62
0
100
AcDbBlockReference
  2
_OPEN
 10
152.3979120331053
 20
147.1197464994543
 30
0.0000000000000000
 41
2.000000000000000
 42
2.000000000000000
 43
2.000000000000000
 50
270.0000000000000
  0
LINE
  5
145
100
AcDbEntity
  8
MAIN0
  6
BYBLOCK
 62
0
100
AcDbLine
 10
206.3252129815082
 20
147.1197464994543
 30
0.0000000000000000
 11
150.3979120331053
 21
147.1197464994543
 31
0.0000000000000000
  0
MTEXT
  5
146
100
AcDbEntity
  8
MAIN0
  6
BYBLOCK
 62
0
100
AcDbMText
 10
150.3479120807890
 20
196.1197464994543
 30
0.0000000000000000
 40
3.099999904632568
 41
0.0000000000000000
 71
     5
 72
     1
  1
\A1;\U+220598
 11
6.123233995736766e-017
 21
1.000000000000000
 31
0.0000000000000000
  7
STANDARD
  0
ENDBLK
  5
147
100
AcDbEntity
  8
MAIN0
  6
CONTINUOUS
 62
3
100
AcDbBlockEnd
  0
BLOCK
  5
149
100
AcDbEntity
  8
MAIN0
  6
CONTINUOUS
 62
3
100
AcDbBlockBegin
  2
*D11
 70
    65
 10
0.0
 20
0.0
 30
0.0
  0
LINE
  5
14A
100
AcDbEntity
  8
MAIN0
  6
BYBLOCK
 62
0
100
AcDbLine
 10
194.7252129934183
 20
229.0197465113753
 30
0.0000000000000000
 11
194.7252129934183
 21
269.2930899728450
 31
0.0000000000000000
  0
LINE
  5
14B
100
AcDbEntity
  8
MAIN0
  6
BYBLOCK
 62
0
100
AcDbLine
 10
196.7252129934183
 20
267.2930899728450
 30
0.0000000000000000
 11
230.2252129934226
 21
267.2930899728450
 31
0.0000000000000000
  0
INSERT
  5
14C
100
AcDbEntity
  8
MAIN0
  6
BYBLOCK
 62
0
100
AcDbBlockReference
  2
_OPEN
 10
194.7252129934183
 20
267.2930899728450
 30
0.0000000000000000
 41
2.000000000000000
 42
2.000000000000000
 43
2.000000000000000
 50
180.0000000000000
  0
INSERT
  5
14D
100
AcDbEntity
  8
MAIN0
  6
BYBLOCK
 62
0
100
AcDbBlockReference
  2
_OPEN
 10
232.2252129934226
 20
267.2930899728450
 30
0.0000000000000000
 41
2.000000000000000
 42
2.000000000000000
 43
2.000000000000000
 50
0.0000000000000000
  0
LINE
  5
14E
100
AcDbEntity
  8
MAIN0
  6
BYBLOCK
 62
0
100
AcDbLine
 10
232.2252129934226
 20
246.2197465109255
 30
0.0000000000000000
 11
232.2252129934226
 21
269.2930899728450
 31
0.0000000000000000
  0
MTEXT
  5
14F
100
AcDbEntity
  8
MAIN0
  6
BYBLOCK
 62
0
100
AcDbMText
 10
213.4752129934205
 20
269.3430899251613
 30
0.0000000000000000
 40
3.099999904632568
 41
0.0000000000000000
 71
     5
 72
     1
  1
\A1;37.5
 11
1.000000000000000
 21
0.0000000000000000
 31
0.0000000000000000
  7
STANDARD
  0
ENDBLK
  5
150
100
AcDbEntity
  8
MAIN0
  6
CONTINUOUS
 62
3
100
AcDbBlockEnd
  0
BLOCK
  5
152
100
AcDbEntity
  8
MAIN0
  6
CONTINUOUS
 62
3
100
AcDbBlockBegin
  2
*D12
 70
    65
 10
0.0
 20
0.0
 30
0.0
  0
LINE
  5
153
100
AcDbEntity
  8
MAIN0
  6
BYBLOCK
 62
0
100
AcDbLine
 10
232.2252129934226
 20
246.2197465109255
 30
0.0000000000000000
 11
232.2252129934226
 21
260.9290452156200
 31
0.0000000000000000
  0
LINE
  5
154
100
AcDbEntity
  8
MAIN0
  6
BYBLOCK
 62
0
100
AcDbLine
 10
232.2252129934226
 20
258.9290452156200
 30
0.0000000000000000
 11
228.7252129934225
 21
258.9290452156200
 31
0.0000000000000000
  0
INSERT
  5
155
100
AcDbEntity
  8
MAIN0
  6
BYBLOCK
 62
0
100
AcDbBlockReference
  2
_OPEN
 10
232.2252129934226
 20
258.9290452156200
 30
0.0000000000000000
 41
2.000000000000000
 42
2.000000000000000
 43
2.000000000000000
 50
180.0000000000000
  0
INSERT
  5
156
100
AcDbEntity
  8
MAIN0
  6
BYBLOCK
 62
0
100
AcDbBlockReference
  2
_OPEN
 10
228.7252129934225
 20
258.9290452156200
 30
0.0000000000000000
 41
2.000000000000000
 42
2.000000000000000
 43
2.000000000000000
 50
360.0000000000000
  0
LINE
  5
157
100
AcDbEntity
  8
MAIN0
  6
BYBLOCK
 62
0
100
AcDbLine
 10
234.2252129934226
 20
258.9290452156200
 30
0.0000000000000000
 11
241.5315093419944
 21
258.9290452156200
 31
0.0000000000000000
  0
LINE
  5
158
100
AcDbEntity
  8
MAIN0
  6
BYBLOCK
 62
0
100
AcDbLine
 10
226.7252129934225
 20
258.9290452156200
 30
0.0000000000000000
 11
225.7252129934225
 21
258.9290452156200
 31
0.0000000000000000
  0
LINE
  5
159
100
AcDbEntity
  8
MAIN0
  6
BYBLOCK
 62
0
100
AcDbLine
 10
228.7252129934225
 20
237.9197465109254
 30
0.0000000000000000
 11
228.7252129934225
 21
260.9290452156200
 31
0.0000000000000000
  0
MTEXT
  5
15A
100
AcDbEntity
  8
MAIN0
  6
BYBLOCK
 62
0
100
AcDbMText
 10
238.8815093316711
 20
260.9790451679363
 30
0.0000000000000000
 40
3.099999904632568
 41
0.0000000000000000
 71
     5
 72
     1
  1
\A1;3.5
 11
1.000000000000000
 21
0.0000000000000000
 31
0.0000000000000000
  7
STANDARD
  0
ENDBLK
  5
15B
100
AcDbEntity
  8
MAIN0
  6
CONTINUOUS
 62
3
100
AcDbBlockEnd
  0
BLOCK
  5
15D
100
AcDbEntity
  8
MAIN0
  6
CONTINUOUS
 62
3
100
AcDbBlockBegin
  2
*D13
 70
    65
 10
0.0
 20
0.0
 30
0.0
  0
LINE
  5
15E
100
AcDbEntity
  8
MAIN0
  6
BYBLOCK
 62
0
100
AcDbLine
 10
216.7252129934226
 20
246.0197465109257
 30
0.0000000000000000
 11
216.7252129934226
 21
253.6512354096527
 31
0.0000000000000000
  0
LINE
  5
15F
100
AcDbEntity
  8
MAIN0
  6
BYBLOCK
 62
0
100
AcDbLine
 10
216.7252129934226
 20
251.6512354096527
 30
0.0000000000000000
 11
220.7252129934226
 21
251.6512354096527
 31
0.0000000000000000
  0
INSERT
  5
160
100
AcDbEntity
  8
MAIN0
  6
BYBLOCK
 62
0
100
AcDbBlockReference
  2
_OPEN
 10
216.7252129934226
 20
251.6512354096527
 30
0.0000000000000000
 41
2.000000000000000
 42
2.000000000000000
 43
2.000000000000000
 50
0.0000000000000000
  0
INSERT
  5
161
100
AcDbEntity
  8
MAIN0
  6
BYBLOCK
 62
0
100
AcDbBlockReference
  2
_OPEN
 10
220.7252129934226
 20
251.6512354096527
 30
0.0000000000000000
 41
2.000000000000000
 42
2.000000000000000
 43
2.000000000000000
 50
180.0000000000000
  0
LINE
  5
162
100
AcDbEntity
  8
MAIN0
  6
BYBLOCK
 62
0
100
AcDbLine
 10
214.7252129934226
 20
251.6512354096527
 30
0.0000000000000000
 11
209.6927213094626
 21
251.6512354096527
 31
0.0000000000000000
  0
LINE
  5
163
100
AcDbEntity
  8
MAIN0
  6
BYBLOCK
 62
0
100
AcDbLine
 10
222.7252129934226
 20
251.6512354096527
 30
0.0000000000000000
 11
223.7252129934226
 21
251.6512354096527
 31
0.0000000000000000
  0
LINE
  5
164
100
AcDbEntity
  8
MAIN0
  6
BYBLOCK
 62
0
100
AcDbLine
 10
220.7252129934226
 20
246.0197465109257
 30
0.0000000000000000
 11
220.7252129934226
 21
253.6512354096527
 31
0.0000000000000000
  0
MTEXT
  5
165
100
AcDbEntity
  8
MAIN0
  6
BYBLOCK
 62
0
100
AcDbMText
 10
212.0427212262646
 20
253.7012353619690
 30
0.0000000000000000
 40
3.099999904632568
 41
0.0000000000000000
 71
     5
 72
     1
  1
\A1;\U+22054
 11
1.000000000000000
 21
0.0000000000000000
 31
0.0000000000000000
  7
STANDARD
  0
ENDBLK
  5
166
100
AcDbEntity
  8
MAIN0
  6
CONTINUOUS
 62
3
100
AcDbBlockEnd
  0
BLOCK
  5
168
100
AcDbEntity
  8
MAIN0
  6
CONTINUOUS
 62
3
100
AcDbBlockBegin
  2
*D14
 70
    65
 10
0.0
 20
0.0
 30
0.0
  0
LINE
  5
169
100
AcDbEntity
  8
MAIN0
  6
BYBLOCK
 62
0
100
AcDbLine
 10
213.6252129815016
 20
245.6197464990050
 30
0.0000000000000000
 11
200.6557056366156
 21
245.6197464990050
 31
0.0000000000000000
  0
LINE
  5
16A
100
AcDbEntity
  8
MAIN0
  6
BYBLOCK
 62
0
100
AcDbLine
 10
202.6557056366156
 20
245.6197464990050
 30
0.0000000000000000
 11
202.6557056366156
 21
238.1197464990049
 31
0.0000000000000000
  0
INSERT
  5
16B
100
AcDbEntity
  8
MAIN0
  6
BYBLOCK
 62
0
100
AcDbBlockReference
  2
_OPEN
 10
202.6557056366156
 20
245.6197464990050
 30
0.0000000000000000
 41
2.000000000000000
 42
2.000000000000000
 43
2.000000000000000
 50
270.0000000000000
  0
INSERT
  5
16C
100
AcDbEntity
  8
MAIN0
  6
BYBLOCK
 62
0
100
AcDbBlockReference
  2
_OPEN
 10
202.6557056366156
 20
238.1197464990049
 30
0.0000000000000000
 41
2.000000000000000
 42
2.000000000000000
 43
2.000000000000000
 50
90.00000000000000
  0
LINE
  5
16D
100
AcDbEntity
  8
MAIN0
  6
BYBLOCK
 62
0
100
AcDbLine
 10
202.6557056366156
 20
247.6197464990050
 30
0.0000000000000000
 11
202.6557056366156
 21
248.6197464990050
 31
0.0000000000000000
  0
LINE
  5
16E
100
AcDbEntity
  8
MAIN0
  6
BYBLOCK
 62
0
100
AcDbLine
 10
202.6557056366156
 20
236.1197464990049
 30
0.0000000000000000
 11
202.6557056366156
 21
235.1197464990049
 31
0.0000000000000000
  0
LINE
  5
16F
100
AcDbEntity
  8
MAIN0
  6
BYBLOCK
 62
0
100
AcDbLine
 10
215.9252129815017
 20
238.1197464990049
 30
0.0000000000000000
 11
200.6557056366156
 21
238.1197464990049
 31
0.0000000000000000
  0
MTEXT
  5
170
100
AcDbEntity
  8
MAIN0
  6
BYBLOCK
 62
0
100
AcDbMText
 10
200.6057056842993
 20
241.8697464990049
 30
0.0000000000000000
 40
3.099999904632568
 41
0.0000000000000000
 71
     5
 72
     1
  1
\A1;7.5
 11
6.123233995736766e-017
 21
1.000000000000000
 31
0.0000000000000000
  7
STANDARD
  0
ENDBLK
  5
171
100
AcDbEntity
  8
MAIN0
  6
CONTINUOUS
 62
3
100
AcDbBlockEnd
  0
BLOCK
  5
173
100
AcDbEntity
  8
MAIN0
  6
CONTINUOUS
 62
3
100
AcDbBlockBegin
  2
*D15
 70
    65
 10
0.0
 20
0.0
 30
0.0
  0
LINE
  5
174
100
AcDbEntity
  8
MAIN0
  6
BYBLOCK
 62
0
100
AcDbLine
 10
194.7252129934183
 20
229.0197465113753
 30
0.0000000000000000
 11
194.7252129934183
 21
233.5753681737688
 31
0.0000000000000000
  0
LINE
  5
175
100
AcDbEntity
  8
MAIN0
  6
BYBLOCK
 62
0
100
AcDbLine
 10
194.7252129934183
 20
231.5753681737688
 30
0.0000000000000000
 11
199.7252129934247
 21
231.5753681737688
 31
0.0000000000000000
  0
INSERT
  5
176
100
AcDbEntity
  8
MAIN0
  6
BYBLOCK
 62
0
100
AcDbBlockReference
  2
_OPEN
 10
194.7252129934183
 20
231.5753681737688
 30
0.0000000000000000
 41
2.000000000000000
 42
2.000000000000000
 43
2.000000000000000
 50
0.0000000000000000
  0
INSERT
  5
177
100
AcDbEntity
  8
MAIN0
  6
BYBLOCK
 62
0
100
AcDbBlockReference
  2
_OPEN
 10
199.7252129934247
 20
231.5753681737688
 30
0.0000000000000000
 41
2.000000000000000
 42
2.000000000000000
 43
2.000000000000000
 50
180.0000000000000
  0
LINE
  5
178
100
AcDbEntity
  8
MAIN0
  6
BYBLOCK
 62
0
100
AcDbLine
 10
192.7252129934183
 20
231.5753681737688
 30
0.0000000000000000
 11
191.7252129934183
 21
231.5753681737688
 31
0.0000000000000000
  0
LINE
  5
179
100
AcDbEntity
  8
MAIN0
  6
BYBLOCK
 62
0
100
AcDbLine
 10
201.7252129934247
 20
231.5753681737688
 30
0.0000000000000000
 11
202.7252129934247
 21
231.5753681737688
 31
0.0000000000000000
  0
LINE
  5
17A
100
AcDbEntity
  8
MAIN0
  6
BYBLOCK
 62
0
100
AcDbLine
 10
199.7252129934252
 20
229.0197465113756
 30
0.0000000000000000
 11
199.7252129934243
 21
233.5753681737688
 31
0.0000000000000000
  0
MTEXT
  5
17B
100
AcDbEntity
  8
MAIN0
  6
BYBLOCK
 62
0
100
AcDbMText
 10
197.2252129934215
 20
233.6253681260851
 30
0.0000000000000000
 40
3.099999904632568
 41
0.0000000000000000
 71
     5
 72
     1
  1
\A1;5
 11
1.000000000000000
 21
0.0000000000000000
 31
0.0000000000000000
  7
STANDARD
  0
ENDBLK
  5
17C
100
AcDbEntity
  8
MAIN0
  6
CONTINUOUS
 62
3
100
AcDbBlockEnd
  0
BLOCK
  5
17E
100
AcDbEntity
  8
MAIN0
  6
CONTINUOUS
 62
3
100
AcDbBlockBegin
  2
*D16
 70
    65
 10
0.0
 20
0.0
 30
0.0
  0
LINE
  5
17F
100
AcDbEntity
  8
MAIN0
  6
BYBLOCK
 62
0
100
AcDbLine
 10
232.8252130053434
 20
245.6197464990045
 30
0.0000000000000000
 11
251.7832876341101
 21
245.6197464990045
 31
0.0000000000000000
  0
LINE
  5
180
100
AcDbEntity
  8
MAIN0
  6
BYBLOCK
 62
0
100
AcDbLine
 10
249.7832876341101
 20
245.6197464990045
 30
0.0000000000000000
 11
249.7832876341101
 21
242.1197464990065
 31
0.0000000000000000
  0
INSERT
  5
181
100
AcDbEntity
  8
MAIN0
  6
BYBLOCK
 62
0
100
AcDbBlockReference
  2
_OPEN
 10
249.7832876341101
 20
245.6197464990045
 30
0.0000000000000000
 41
2.000000000000000
 42
2.000000000000000
 43
2.000000000000000
 50
270.0000000000000
  0
INSERT
  5
182
100
AcDbEntity
  8
MAIN0
  6
BYBLOCK
 62
0
100
AcDbBlockReference
  2
_OPEN
 10
249.7832876341101
 20
242.1197464990065
 30
0.0000000000000000
 41
2.000000000000000
 42
2.000000000000000
 43
2.000000000000000
 50
90.00000000000000
  0
LINE
  5
183
100
AcDbEntity
  8
MAIN0
  6
BYBLOCK
 62
0
100
AcDbLine
 10
249.7832876341101
 20
247.6197464990045
 30
0.0000000000000000
 11
249.7832876341101
 21
253.9569056558038
 31
0.0000000000000000
  0
LINE
  5
184
100
AcDbEntity
  8
MAIN0
  6
BYBLOCK
 62
0
100
AcDbLine
 10
249.7832876341101
 20
240.1197464990065
 30
0.0000000000000000
 11
249.7832876341101
 21
239.1197464990065
 31
0.0000000000000000
  0
LINE
  5
185
100
AcDbEntity
  8
MAIN0
  6
BYBLOCK
 62
0
100
AcDbLine
 10
234.8350236316293
 20
242.1197464990065
 30
0.0000000000000000
 11
251.7832876341101
 21
242.1197464990065
 31
0.0000000000000000
  0
MTEXT
  5
186
100
AcDbEntity
  8
MAIN0
  6
BYBLOCK
 62
0
100
AcDbMText
 10
247.7332876817938
 20
251.3069053479478
 30
0.0000000000000000
 40
3.099999904632568
 41
0.0000000000000000
 71
     5
 72
     1
  1
\A1;3.5
 11
6.123233995736766e-017
 21
1.000000000000000
 31
0.0000000000000000
  7
STANDARD
  0
ENDBLK
  5
187
100
AcDbEntity
  8
MAIN0
  6
CONTINUOUS
 62
3
100
AcDbBlockEnd
  0
BLOCK
  5
189
100
AcDbEntity
  8
MAIN0
  6
CONTINUOUS
 62
3
100
AcDbBlockBegin
  2
*D17
 70
    65
 10
0.0
 20
0.0
 30
0.0
  0
LINE
  5
18A
100
AcDbEntity
  8
MAIN0
  6
BYBLOCK
 62
0
100
AcDbLine
 10
234.8350236316293
 20
242.1197464990065
 30
0.0000000000000000
 11
251.7832876341101
 21
242.1197464990065
 31
0.0000000000000000
  0
LINE
  5
18B
100
AcDbEntity
  8
MAIN0
  6
BYBLOCK
 62
0
100
AcDbLine
 10
249.7832876341101
 20
240.1197464990065
 30
0.0000000000000000
 11
249.7832876341101
 21
228.1197464990923
 31
0.0000000000000000
  0
INSERT
  5
18C
100
AcDbEntity
  8
MAIN0
  6
BYBLOCK
 62
0
100
AcDbBlockReference
  2
_OPEN
 10
249.7832876341101
 20
242.1197464990065
 30
0.0000000000000000
 41
2.000000000000000
 42
2.000000000000000
 43
2.000000000000000
 50
90.00000000000000
  0
INSERT
  5
18D
100
AcDbEntity
  8
MAIN0
  6
BYBLOCK
 62
0
100
AcDbBlockReference
  2
_OPEN
 10
249.7832876341101
 20
226.1197464990923
 30
0.0000000000000000
 41
2.000000000000000
 42
2.000000000000000
 43
2.000000000000000
 50
270.0000000000000
  0
LINE
  5
18E
100
AcDbEntity
  8
MAIN0
  6
BYBLOCK
 62
0
100
AcDbLine
 10
234.8350236316315
 20
226.1197464990923
 30
0.0000000000000000
 11
251.7832876341101
 21
226.1197464990923
 31
0.0000000000000000
  0
MTEXT
  5
18F
100
AcDbEntity
  8
MAIN0
  6
BYBLOCK
 62
0
100
AcDbMText
 10
247.7332876817938
 20
237.4633776800243
 30
0.0000000000000000
 40
3.099999904632568
 41
0.0000000000000000
 71
     5
 72
     1
  1
\A1;16
 11
6.123233995736766e-017
 21
1.000000000000000
 31
0.0000000000000000
  7
STANDARD
  0
ENDBLK
  5
190
100
AcDbEntity
  8
MAIN0
  6
CONTINUOUS
 62
3
100
AcDbBlockEnd
  0
BLOCK
  5
192
100
AcDbEntity
  8
MAIN0
  6
CONTINUOUS
 62
3
100
AcDbBlockBegin
  2
*D18
 70
    65
 10
0.0
 20
0.0
 30
0.0
  0
LINE
  5
193
100
AcDbEntity
  8
MAIN0
  6
BYBLOCK
 62
0
100
AcDbLine
 10
232.8252130053435
 20
237.1197464990045
 30
0.0000000000000000
 11
242.9615632258300
 21
237.1197464990045
 31
0.0000000000000000
  0
LINE
  5
194
100
AcDbEntity
  8
MAIN0
  6
BYBLOCK
 62
0
100
AcDbLine
 10
240.9615632258300
 20
237.1197464990045
 30
0.0000000000000000
 11
240.9615632258300
 21
231.1197464990045
 31
0.0000000000000000
  0
INSERT
  5
195
100
AcDbEntity
  8
MAIN0
  6
BYBLOCK
 62
0
100
AcDbBlockReference
  2
_OPEN
 10
240.9615632258300
 20
237.1197464990045
 30
0.0000000000000000
 41
2.000000000000000
 42
2.000000000000000
 43
2.000000000000000
 50
270.0000000000000
  0
INSERT
  5
196
100
AcDbEntity
  8
MAIN0
  6
BYBLOCK
 62
0
100
AcDbBlockReference
  2
_OPEN
 10
240.9615632258300
 20
231.1197464990045
 30
0.0000000000000000
 41
2.000000000000000
 42
2.000000000000000
 43
2.000000000000000
 50
90.00000000000000
  0
LINE
  5
197
100
AcDbEntity
  8
MAIN0
  6
BYBLOCK
 62
0
100
AcDbLine
 10
240.9615632258300
 20
239.1197464990045
 30
0.0000000000000000
 11
240.9615632258300
 21
254.5608132409478
 31
0.0000000000000000
  0
LINE
  5
198
100
AcDbEntity
  8
MAIN0
  6
BYBLOCK
 62
0
100
AcDbLine
 10
240.9615632258300
 20
229.1197464990045
 30
0.0000000000000000
 11
240.9615632258300
 21
228.1197464990045
 31
0.0000000000000000
  0
LINE
  5
199
100
AcDbEntity
  8
MAIN0
  6
BYBLOCK
 62
0
100
AcDbLine
 10
232.8252130053435
 20
231.1197464990045
 30
0.0000000000000000
 11
242.9615632258300
 21
231.1197464990045
 31
0.0000000000000000
  0
MTEXT
  5
19A
100
AcDbEntity
  8
MAIN0
  6
BYBLOCK
 62
0
100
AcDbMText
 10
238.9115632735137
 20
251.4108132504583
 30
0.0000000000000000
 40
3.099999904632568
 41
0.0000000000000000
 71
     5
 72
     1
  1
\A1;6H8
 11
6.123233995736766e-017
 21
1.000000000000000
 31
0.0000000000000000
  7
STANDARD
  0
ENDBLK
  5
19B
100
AcDbEntity
  8
MAIN0
  6
CONTINUOUS
 62
3
100
AcDbBlockEnd
  0
BLOCK
  5
19D
100
AcDbEntity
  8
MAIN0
  6
CONTINUOUS
 62
3
100
AcDbBlockBegin
  2
*D19
 70
    65
 10
0.0
 20
0.0
 30
0.0
  0
LINE
  5
19E
100
AcDbEntity
  8
MAIN0
  6
BYBLOCK
 62
0
100
AcDbLine
 10
236.5658572228966
 20
196.1197464994543
 30
0.0000000000000000
 11
260.2624355532474
 21
196.1197464994543
 31
0.0000000000000000
  0
LINE
  5
19F
100
AcDbEntity
  8
MAIN0
  6
BYBLOCK
 62
0
100
AcDbLine
 10
258.2624355532474
 20
198.1197464994543
 30
0.0000000000000000
 11
258.2624355532474
 21
232.1197464990449
 31
0.0000000000000000
  0
INSERT
  5
1A0
100
AcDbEntity
  8
MAIN0
  6
BYBLOCK
 62
0
100
AcDbBlockReference
  2
_OPEN
 10
258.2624355532474
 20
196.1197464994543
 30
0.0000000000000000
 41
2.000000000000000
 42
2.000000000000000
 43
2.000000000000000
 50
270.0000000000000
  0
INSERT
  5
1A1
100
AcDbEntity
  8
MAIN0
  6
BYBLOCK
 62
0
100
AcDbBlockReference
  2
_OPEN
 10
258.2624355532474
 20
234.1197464990449
 30
0.0000000000000000
 41
2.000000000000000
 42
2.000000000000000
 43
2.000000000000000
 50
90.00000000000000
  0
LINE
  5
1A2
100
AcDbEntity
  8
MAIN0
  6
BYBLOCK
 62
0
100
AcDbLine
 10
233.5971319880344
 20
234.1197464990449
 30
0.0000000000000000
 11
260.2624355532474
 21
234.1197464990449
 31
0.0000000000000000
  0
MTEXT
  5
1A3
100
AcDbEntity
  8
MAIN0
  6
BYBLOCK
 62
0
100
AcDbMText
 10
256.2124356009311
 20
215.1197464992496
 30
0.0000000000000000
 40
3.099999904632568
 41
0.0000000000000000
 71
     5
 72
     1
  1
\A1;MAX 38
 11
6.123233995736766e-017
 21
1.000000000000000
 31
0.0000000000000000
  7
STANDARD
  0
ENDBLK
  5
1A4
100
AcDbEntity
  8
MAIN0
  6
CONTINUOUS
 62
3
100
AcDbBlockEnd
  0
BLOCK
  5
1A7
100
AcDbEntity
  8
MAIN0
  6
CONTINUOUS
 62
3
100
AcDbBlockBegin
  2
D20
 70
    64
 10
0.0
 20
0.0
 30
0.0
  0
LINE
  5
1A8
100
AcDbEntity
  8
MAIN0
  6
BYBLOCK
 62
0
100
AcDbLine
 10
-24.77450441218780
 20
-5.782357721871165
 30
0.0000000000000000
 11
-24.77450441218780
 21
32.50000000000000
 31
0.0000000000000000
  0
LINE
  5
1A9
100
AcDbEntity
  8
MAIN0
  6
BYBLOCK
 62
0
100
AcDbLine
 10
-25.37450443602965
 20
30.50000000000000
 30
0.0000000000000000
 11
-24.77450441218780
 21
32.50000000000000
 31
0.0000000000000000
  0
LINE
  5
1AA
100
AcDbEntity
  8
MAIN0
  6
BYBLOCK
 62
0
100
AcDbLine
 10
-24.77450441218780
 20
32.50000000000000
 30
0.0000000000000000
 11
-24.17450438834594
 21
30.50000000000000
 31
0.0000000000000000
  0
LINE
  5
1AB
100
AcDbEntity
  8
MAIN0
  6
BYBLOCK
 62
0
100
AcDbLine
 10
9.089851542905976
 20
32.50000000000000
 30
0.0000000000000000
 11
-26.77450441218780
 21
32.50000000000000
 31
0.0000000000000000
  0
MTEXT
  5
1AC
100
AcDbEntity
  8
MAIN0
  6
BYBLOCK
 62
0
100
AcDbMText
 10
-26.82450436450408
 20
-0.3823577196359906
 30
0.0000000000000000
 40
3.099999904632568
 41
0.0000000000000000
 71
     5
 72
     1
  1
\A1;\U+220565
 11
6.123233995736766e-017
 21
1.000000000000000
 31
0.0000000000000000
  7
STANDARD
  0
ENDBLK
  5
1AD
100
AcDbEntity
  8
MAIN0
  6
CONTINUOUS
 62
3
100
AcDbBlockEnd
  0
BLOCK
  5
1AF
100
AcDbEntity
  8
MAIN0
  6
CONTINUOUS
 62
3
100
AcDbBlockBegin
  2
D21
 70
    64
 10
0.0
 20
0.0
 30
0.0
  0
LINE
  5
1B0
100
AcDbEntity
  8
MAIN0
  6
BYBLOCK
 62
0
100
AcDbLine
 10
-17.14649337411304
 20
4.655972970822859
 30
0.0000000000000000
 11
-17.14649337411304
 21
-29.50000000000000
 31
0.0000000000000000
  0
LINE
  5
1B1
100
AcDbEntity
  8
MAIN0
  6
BYBLOCK
 62
0
100
AcDbLine
 10
-16.54649335027118
 20
-27.50000000000000
 30
0.0000000000000000
 11
-17.14649337411304
 21
-29.50000000000000
 31
0.0000000000000000
  0
LINE
  5
1B2
100
AcDbEntity
  8
MAIN0
  6
BYBLOCK
 62
0
100
AcDbLine
 10
-17.14649337411304
 20
-29.50000000000000
 30
0.0000000000000000
 11
-17.74649339795489
 21
-27.50000000000000
 31
0.0000000000000000
  0
LINE
  5
1B3
100
AcDbEntity
  8
MAIN0
  6
BYBLOCK
 62
0
100
AcDbLine
 10
9.089851542912825
 20
-29.50000000000000
 30
0.0000000000000000
 11
-19.14649337411304
 21
-29.50000000000000
 31
0.0000000000000000
  0
MTEXT
  5
1B4
100
AcDbEntity
  8
MAIN0
  6
BYBLOCK
 62
0
100
AcDbMText
 10
-19.19649332642932
 20
-0.7440270314123154
 30
0.0000000000000000
 40
3.099999904632568
 41
0.0000000000000000
 71
     5
 72
     1
  1
\A1;\U+220559
 11
6.123233995736766e-017
 21
1.000000000000000
 31
0.0000000000000000
  7
STANDARD
  0
ENDBLK
  5
1B5
100
AcDbEntity
  8
MAIN0
  6
CONTINUOUS
 62
3
100
AcDbBlockEnd
  0
BLOCK
  5
1B7
100
AcDbEntity
  8
MAIN0
  6
CONTINUOUS
 62
3
100
AcDbBlockBegin
  2
*D22
 70
    65
 10
0.0
 20
0.0
 30
0.0
  0
LINE
  5
1B8
100
AcDbEntity
  8
MAIN0
  6
BYBLOCK
 62
0
100
AcDbLine
 10
189.7252129934239
 20
179.1197464875316
 30
0.0000000000000000
 11
189.7252129934239
 21
125.7605872126740
 31
0.0000000000000000
  0
LINE
  5
1B9
100
AcDbEntity
  8
MAIN0
  6
BYBLOCK
 62
0
100
AcDbLine
 10
189.7252129934239
 20
127.7605872126740
 30
0.0000000000000000
 11
194.7252129934251
 21
127.7605872126740
 31
0.0000000000000000
  0
INSERT
  5
1BA
100
AcDbEntity
  8
MAIN0
  6
BYBLOCK
 62
0
100
AcDbBlockReference
  2
_OPEN
 10
189.7252129934239
 20
127.7605872126740
 30
0.0000000000000000
 41
2.000000000000000
 42
2.000000000000000
 43
2.000000000000000
 50
0.0000000000000000
  0
INSERT
  5
1BB
100
AcDbEntity
  8
MAIN0
  6
BYBLOCK
 62
0
100
AcDbBlockReference
  2
_OPEN
 10
194.7252129934251
 20
127.7605872126740
 30
0.0000000000000000
 41
2.000000000000000
 42
2.000000000000000
 43
2.000000000000000
 50
180.0000000000000
  0
LINE
  5
1BC
100
AcDbEntity
  8
MAIN0
  6
BYBLOCK
 62
0
100
AcDbLine
 10
187.7252129934239
 20
127.7605872126740
 30
0.0000000000000000
 11
186.7252129934239
 21
127.7605872126740
 31
0.0000000000000000
  0
LINE
  5
1BD
100
AcDbEntity
  8
MAIN0
  6
BYBLOCK
 62
0
100
AcDbLine
 10
196.7252129934251
 20
127.7605872126740
 30
0.0000000000000000
 11
197.7252129934251
 21
127.7605872126740
 31
0.0000000000000000
  0
LINE
  5
1BE
100
AcDbEntity
  8
MAIN0
  6
BYBLOCK
 62
0
100
AcDbLine
 10
194.7252129934251
 20
166.2197464875333
 30
0.0000000000000000
 11
194.7252129934251
 21
125.7605872126740
 31
0.0000000000000000
  0
MTEXT
  5
1BF
100
AcDbEntity
  8
MAIN0
  6
BYBLOCK
 62
0
100
AcDbMText
 10
192.2252129934245
 20
129.8105871649903
 30
0.0000000000000000
 40
3.099999904632568
 41
0.0000000000000000
 71
     5
 72
     1
  1
\A1;5
 11
1.000000000000000
 21
0.0000000000000000
 31
0.0000000000000000
  7
STANDARD
  0
ENDBLK
  5
1C0
100
AcDbEntity
  8
MAIN0
  6
CONTINUOUS
 62
3
100
AcDbBlockEnd
  0
BLOCK
  5
1C2
100
AcDbEntity
  8
MAIN0
  6
CONTINUOUS
 62
3
100
AcDbBlockBegin
  2
*D23
 70
    65
 10
0.0
 20
0.0
 30
0.0
  0
LINE
  5
1C3
100
AcDbEntity
  8
MAIN0
  6
BYBLOCK
 62
0
100
AcDbLine
 10
194.7252129934251
 20
166.2197464875333
 30
0.0000000000000000
 11
194.7252129934251
 21
125.7605872126740
 31
0.0000000000000000
  0
LINE
  5
1C4
100
AcDbEntity
  8
MAIN0
  6
BYBLOCK
 62
0
100
AcDbLine
 10
196.7252129934251
 20
127.7605872126740
 30
0.0000000000000000
 11
229.2252129934194
 21
127.7605872126740
 31
0.0000000000000000
  0
INSERT
  5
1C5
100
AcDbEntity
  8
MAIN0
  6
BYBLOCK
 62
0
100
AcDbBlockReference
  2
_OPEN
 10
194.7252129934251
 20
127.7605872126740
 30
0.0000000000000000
 41
2.000000000000000
 42
2.000000000000000
 43
2.000000000000000
 50
180.0000000000000
  0
INSERT
  5
1C6
100
AcDbEntity
  8
MAIN0
  6
BYBLOCK
 62
0
100
AcDbBlockReference
  2
_OPEN
 10
231.2252129934194
 20
127.7605872126740
 30
0.0000000000000000
 41
2.000000000000000
 42
2.000000000000000
 43
2.000000000000000
 50
0.0000000000000000
  0
LINE
  5
1C7
100
AcDbEntity
  8
MAIN0
  6
BYBLOCK
 62
0
100
AcDbLine
 10
231.2252129934194
 20
162.8197464875278
 30
0.0000000000000000
 11
231.2252129934194
 21
125.7605872126740
 31
0.0000000000000000
  0
MTEXT
  5
1C8
100
AcDbEntity
  8
MAIN0
  6
BYBLOCK
 62
0
100
AcDbMText
 10
212.9752129934223
 20
129.8105871649903
 30
0.0000000000000000
 40
3.099999904632568
 41
0.0000000000000000
 71
     5
 72
     1
  1
\A1;36.5
 11
1.000000000000000
 21
0.0000000000000000
 31
0.0000000000000000
  7
STANDARD
  0
ENDBLK
  5
1C9
100
AcDbEntity
  8
MAIN0
  6
CONTINUOUS
 62
3
100
AcDbBlockEnd
  0
BLOCK
  5
1CB
100
AcDbEntity
  8
MAIN0
  6
CONTINUOUS
 62
3
100
AcDbBlockBegin
  2
*D24
 70
    65
 10
0.0
 20
0.0
 30
0.0
  0
LINE
  5
1CC
100
AcDbEntity
  8
MAIN0
  6
BYBLOCK
 62
0
100
AcDbLine
 10
231.2252129934194
 20
162.8197464875278
 30
0.0000000000000000
 11
231.2252129934194
 21
125.7605872126740
 31
0.0000000000000000
  0
LINE
  5
1CD
100
AcDbEntity
  8
MAIN0
  6
BYBLOCK
 62
0
100
AcDbLine
 10
231.2252129934194
 20
127.7605872126740
 30
0.0000000000000000
 11
231.7252129934205
 21
127.7605872126740
 31
0.0000000000000000
  0
INSERT
  5
1CE
100
AcDbEntity
  8
MAIN0
  6
BYBLOCK
 62
0
100
AcDbBlockReference
  2
_OPEN
 10
231.2252129934194
 20
127.7605872126740
 30
0.0000000000000000
 41
2.000000000000000
 42
2.000000000000000
 43
2.000000000000000
 50
0.0000000000000000
  0
INSERT
  5
1CF
100
AcDbEntity
  8
MAIN0
  6
BYBLOCK
 62
0
100
AcDbBlockReference
  2
_OPEN
 10
231.7252129934205
 20
127.7605872126740
 30
0.0000000000000000
 41
2.000000000000000
 42
2.000000000000000
 43
2.000000000000000
 50
180.0000000000000
  0
LINE
  5
1D0
100
AcDbEntity
  8
MAIN0
  6
BYBLOCK
 62
0
100
AcDbLine
 10
229.2252129934194
 20
127.7605872126740
 30
0.0000000000000000
 11
228.2252129934194
 21
127.7605872126740
 31
0.0000000000000000
  0
LINE
  5
1D1
100
AcDbEntity
  8
MAIN0
  6
BYBLOCK
 62
0
100
AcDbLine
 10
233.7252129934205
 20
127.7605872126740
 30
0.0000000000000000
 11
240.3720006368531
 21
127.7605872126740
 31
0.0000000000000000
  0
LINE
  5
1D2
100
AcDbEntity
  8
MAIN0
  6
BYBLOCK
 62
0
100
AcDbLine
 10
231.7252129934205
 20
187.8154179631745
 30
0.0000000000000000
 11
231.7252129934205
 21
125.7605872126740
 31
0.0000000000000000
  0
MTEXT
  5
1D3
100
AcDbEntity
  8
MAIN0
  6
BYBLOCK
 62
0
100
AcDbMText
 10
237.7220001883386
 20
129.8105871649903
 30
0.0000000000000000
 40
3.099999904632568
 41
0.0000000000000000
 71
     5
 72
     1
  1
\A1;0.5
 11
1.000000000000000
 21
0.0000000000000000
 31
0.0000000000000000
  7
STANDARD
  0
ENDBLK
  5
1D4
100
AcDbEntity
  8
MAIN0
  6
CONTINUOUS
 62
3
100
AcDbBlockEnd
  0
BLOCK
  5
1D6
100
AcDbEntity
  8
MAIN0
  6
CONTINUOUS
 62
3
100
AcDbBlockBegin
  2
*D25
 70
    65
 10
0.0
 20
0.0
 30
0.0
  0
LINE
  5
1D7
100
AcDbEntity
  8
MAIN0
  6
BYBLOCK
 62
0
100
AcDbLine
 10
194.7252129934251
 20
166.2197464875333
 30
0.0000000000000000
 11
194.7252129934251
 21
135.3857914008663
 31
0.0000000000000000
  0
LINE
  5
1D8
100
AcDbEntity
  8
MAIN0
  6
BYBLOCK
 62
0
100
AcDbLine
 10
196.7252129934251
 20
137.3857914008663
 30
0.0000000000000000
 11
206.7252129934290
 21
137.3857914008663
 31
0.0000000000000000
  0
INSERT
  5
1D9
100
AcDbEntity
  8
MAIN0
  6
BYBLOCK
 62
0
100
AcDbBlockReference
  2
_OPEN
 10
194.7252129934251
 20
137.3857914008663
 30
0.0000000000000000
 41
2.000000000000000
 42
2.000000000000000
 43
2.000000000000000
 50
180.0000000000000
  0
INSERT
  5
1DA
100
AcDbEntity
  8
MAIN0
  6
BYBLOCK
 62
0
100
AcDbBlockReference
  2
_OPEN
 10
208.7252129934290
 20
137.3857914008663
 30
0.0000000000000000
 41
2.000000000000000
 42
2.000000000000000
 43
2.000000000000000
 50
0.0000000000000000
  0
LINE
  5
1DB
100
AcDbEntity
  8
MAIN0
  6
BYBLOCK
 62
0
100
AcDbLine
 10
208.7252129934290
 20
150.2197464875333
 30
0.0000000000000000
 11
208.7252129934290
 21
135.3857914008663
 31
0.0000000000000000
  0
MTEXT
  5
1DC
100
AcDbEntity
  8
MAIN0
  6
BYBLOCK
 62
0
100
AcDbMText
 10
201.7252129934271
 20
139.4357913531825
 30
0.0000000000000000
 40
3.099999904632568
 41
0.0000000000000000
 71
     5
 72
     1
  1
\A1;14
 11
1.000000000000000
 21
0.0000000000000000
 31
0.0000000000000000
  7
STANDARD
  0
ENDBLK
  5
1DD
100
AcDbEntity
  8
MAIN0
  6
CONTINUOUS
 62
3
100
AcDbBlockEnd
  0
ENDSEC
  0
SECTION
  2
ENTITIES
  0
LINE
  5
46
100
AcDbEntity
  8
MAIN0
  6
CENTER
 62
3
100
AcDbLine
 10
321.7252129934813
 20
143.4769026480016
 30
0.0000000000000000
 11
321.7252129934813
 21
248.7028456515114
 31
0.0000000000000000
  0
LINE
  5
47
100
AcDbEntity
  8
MAIN0
  6
CONTINUOUS
 62
3
100
AcDbLine
 10
287.9502222458880
 20
160.6197464994029
 30
0.0000000000000000
 11
355.5002037410745
 21
160.6197464994029
 31
0.0000000000000000
  0
LINE
  5
48
100
AcDbEntity
  8
MAIN0
  6
CONTINUOUS
 62
3
100
AcDbLine
 10
369.3566102016255
 20
184.6197464994027
 30
0.0000000000000000
 11
335.5816194540323
 21
243.1197464994030
 31
0.0000000000000000
  0
LINE
  5
49
100
AcDbEntity
  8
MAIN0
  6
CONTINUOUS
 62
3
100
AcDbLine
 10
307.8688065329304
 20
243.1197464994030
 30
0.0000000000000000
 11
274.0938157853371
 21
184.6197464994027
 31
0.0000000000000000
  0
LINE
  5
4A
100
AcDbEntity
  8
MAIN0
  6
CENTER
 62
3
100
AcDbLine
 10
276.1153980839598
 20
222.4525854150391
 30
0.0000000000000000
 11
367.0837114646946
 21
169.9320051971106
 31
0.0000000000000000
  0
LINE
  5
4B
100
AcDbEntity
  8
MAIN0
  6
CENTER
 62
3
100
AcDbLine
 10
367.3350279030028
 20
222.4525854150391
 30
0.0000000000000000
 11
276.3667145222679
 21
169.9320051971106
 31
0.0000000000000000
  0
ARC
  5
4C
100
AcDbEntity
  8
MAIN0
  6
CENTER
 62
3
100
AcDbCircle
 10
321.7252129934813
 20
196.1197464994029
 30
0.0000000000000000
 40
29.00000000002069
100
AcDbArc
 50
284.7954973746844
 51
304.8265157000064
  0
LINE
  5
4D
100
AcDbEntity
  8
MAIN0
  6
CENTER
 62
3
100
AcDbLine
 10
331.9288314395345
 20
174.2380161279273
 30
0.0000000000000000
 11
336.0367269360384
 21
165.4286058070085
 31
0.0000000000000000
  0
CIRCLE
  5
4E
100
AcDbEntity
  8
MAIN0
  6
CONTINUOUS
 62
3
100
AcDbCircle
 10
333.9811425841067
 20
169.8368206753850
 30
0.0000000000000000
 40
4.000000000000000
  0
LINE
  5
4F
100
AcDbEntity
  8
MAIN0
  6
CONTINUOUS
 62
3
100
AcDbLine
 10
285.0543798968631
 20
163.6197464994029
 30
0.0000000000000000
 11
358.3960460900995
 21
163.6197464994029
 31
0.0000000000000000
  0
LINE
  5
50
100
AcDbEntity
  8
MAIN0
  6
CENTER
 62
3
100
AcDbLine
 10
333.9752129934813
 20
159.8769932214571
 30
0.0000000000000000
 11
333.9752129934813
 21
166.8678923640115
 31
0.0000000000000000
  0
LINE
  5
51
100
AcDbEntity
  8
MAIN0
  6
CENTER
 62
3
100
AcDbLine
 10
335.5735381509601
 20
215.8972044699196
 30
0.0000000000000000
 11
341.1487635329846
 21
223.8594514864431
 31
0.0000000000000000
  0
ARC
  5
52
100
AcDbEntity
  8
MAIN0
  6
CENTER
 62
3
100
AcDbCircle
 10
321.7252129935274
 20
196.1197464993762
 30
0.0000000000000000
 40
29.00000000002069
100
AcDbArc
 50
44.79549737468444
 51
64.82651570000637
  0
CIRCLE
  5
53
100
AcDbEntity
  8
MAIN0
  6
CONTINUOUS
 62
3
100
AcDbCircle
 10
338.3589296475961
 20
219.8751557838601
 30
0.0000000000000000
 40
4.000000000000000
  0
LINE
  5
54
100
AcDbEntity
  8
MAIN0
  6
CENTER
 62
3
100
AcDbLine
 10
346.9873580353201
 20
224.8499343347085
 30
0.0000000000000000
 11
340.9330617825731
 21
221.3544847634313
 31
0.0000000000000000
  0
LINE
  5
55
100
AcDbEntity
  8
MAIN0
  6
CENTER
 62
3
100
AcDbLine
 10
297.6732693900415
 20
198.2240189003616
 30
0.0000000000000000
 11
287.9901485115130
 21
199.0711822047570
 31
0.0000000000000000
  0
ARC
  5
56
100
AcDbEntity
  8
MAIN0
  6
CENTER
 62
3
100
AcDbCircle
 10
321.7252129935274
 20
196.1197464994295
 30
0.0000000000000000
 40
29.00000000002069
100
AcDbArc
 50
164.7954973746844
 51
184.8265157000063
  0
CIRCLE
  5
57
100
AcDbEntity
  8
MAIN0
  6
CONTINUOUS
 62
3
100
AcDbCircle
 10
292.8355667488331
 20
198.6472630389633
 30
0.0000000000000000
 40
4.000000000000000
  0
LINE
  5
58
100
AcDbEntity
  8
MAIN0
  6
CENTER
 62
3
100
AcDbLine
 10
284.2130679517347
 20
203.6323119420430
 30
0.0000000000000000
 11
290.2673642044816
 21
200.1368623707658
 31
0.0000000000000000
  0
LINE
  5
59
100
AcDbEntity
  8
MAIN0
  6
CONTINUOUS
 62
3
100
AcDbLine
 10
368.2064551648306
 20
180.6118734597658
 30
0.0000000000000000
 11
331.5356220682124
 21
244.1276195389869
 31
0.0000000000000000
  0
LINE
  5
5A
100
AcDbEntity
  8
MAIN0
  6
CONTINUOUS
 62
3
100
AcDbLine
 10
311.9148039188422
 20
244.1276195390400
 30
0.0000000000000000
 11
275.2439708222239
 21
180.6118734598189
 31
0.0000000000000000
  0
ARC
  5
5B
100
AcDbEntity
  8
MAIN0
  6
CONTINUOUS
 62
3
100
AcDbCircle
 10
321.7252129934813
 20
196.1197464994029
 30
0.0000000000000000
 40
49.00000000000000
100
AcDbArc
 50
97.91796442774705
 51
202.0820355723163
  0
ARC
  5
5C
100
AcDbEntity
  8
MAIN0
  6
CONTINUOUS
 62
3
100
AcDbCircle
 10
321.7252129934813
 20
196.1197464994029
 30
0.0000000000000000
 40
49.00000000000000
100
AcDbArc
 50
217.9179644278104
 51
322.0820355723166
  0
ARC
  5
5D
100
AcDbEntity
  8
MAIN0
  6
CONTINUOUS
 62
3
100
AcDbCircle
 10
321.7252129934813
 20
196.1197464994029
 30
0.0000000000000000
 40
49.00000000000000
100
AcDbArc
 50
337.9179644277651
 51
442.0820355723165
  0
LINE
  5
5E
100
AcDbEntity
  8
MAIN0
  6
CENTER
 62
3
100
AcDbLine
 10
267.4074045254833
 20
196.1197464994206
 30
0.0000000000000000
 11
375.6255562873429
 21
196.1197464994206
 31
0.0000000000000000
  0
LINE
  5
5F
100
AcDbEntity
  8
MAIN0
  6
CENTER
 62
3
100
AcDbLine
 10
86.72521299349151
 20
143.4769026480018
 30
0.0000000000000000
 11
86.72521299349168
 21
248.7028456515116
 31
0.0000000000000000
  0
LINE
  5
60
100
AcDbEntity
  8
MAIN0
  6
CENTER
 62
3
100
AcDbLine
 10
141.0430214614896
 20
196.1197464994207
 30
0.0000000000000000
 11
32.82486969962997
 21
196.1197464994209
 31
0.0000000000000000
  0
CIRCLE
  5
61
100
AcDbEntity
  8
MAIN0
  6
CONTINUOUS
 62
3
100
AcDbCircle
 10
86.72521299349160
 20
196.1197464994210
 30
0.0000000000000000
 40
45.09999999999960
  0
CIRCLE
  5
62
100
AcDbEntity
  8
MAIN0
  6
CONTINUOUS
 62
3
100
AcDbCircle
 10
86.72521299349160
 20
196.1197464994210
 30
0.0000000000000000
 40
48.99999999999957
  0
LINE
  5
63
100
AcDbEntity
  8
MAIN0
  6
CENTER
 62
3
100
AcDbLine
 10
40.17757075972847
 20
169.2454527259071
 30
0.0000000000000000
 11
111.4658344622451
 21
210.4037509645272
 31
0.0000000000000000
  0
LINE
  5
64
100
AcDbEntity
  8
MAIN0
  6
CENTER
 62
3
100
AcDbLine
 10
133.2728552272545
 20
169.2454527259070
 30
0.0000000000000000
 11
61.81729983381683
 21
210.5003368673136
 31
0.0000000000000000
  0
DIMENSION
  5
6E
100
AcDbEntity
  8
MAIN0
  6
CONTINUOUS
 62
3
100
AcDbDimension
  2
*D0
 10
314.9752129934813
 20
251.0288085152976
 30
0.0000000000000000
 11
308.5429109555112
 21
251.5288085152976
 31
0.0000000000000000
 70
160
  3
MAIN001
100
AcDbAlignedDimension
 13
328.4752129934813
 23
245.2197464989671
 33
0.0000000000000000
 14
314.9752129934813
 24
245.2197464989697
 34
0.0000000000000000
100
AcDbRotatedDimension
1001
ACAD
1000
DSTYLE
1002
{
1070
   173
1070
     1
1070
     6
1000
_OPEN
1070
     7
1000
_OPEN
1070
    41
1040
2.000000
1002
}
  0
DIMENSION
  5
77
100
AcDbEntity
  8
MAIN0
  6
CONTINUOUS
 62
3
100
AcDbDimension
  2
*D1
 10
367.0837114646947
 20
169.9320051971106
 30
0.0000000000000000
 11
352.6698686216416
 21
142.5220307288087
 31
0.0000000000000000
 70
162
  3
MAIN001
100
AcDb2LineAngularDimension
 13
321.7252129934813
 23
143.4769026480016
 33
0.0000000000000000
 14
321.7252129934813
 24
144.4769026480016
 34
0.0000000000000000
 15
366.2176860609096
 25
170.4320051971094
 35
0.0000000000000000
 16
352.9198686216420
 26
142.0890180269166
 36
0.0000000000000000
1001
ACAD
1000
DSTYLE
1002
{
1070
   173
1070
     1
1070
     6
1000
_OPEN
1070
     7
1000
_OPEN
1070
    41
1040
2.000000
1002
}
  0
DIMENSION
  5
80
100
AcDbEntity
  8
MAIN0
  6
CONTINUOUS
 62
3
100
AcDbDimension
  2
*D2
 10
375.6255562873429
 20
196.1197464994206
 30
0.0000000000000000
 11
381.5056971071447
 21
180.1016140580665
 31
0.0000000000000000
 70
162
  3
MAIN001
100
AcDb2LineAngularDimension
 13
367.0837114646947
 23
169.9320051971106
 33
0.0000000000000000
 14
366.2176860609096
 24
170.4320051971094
 34
0.0000000000000000
 15
374.6255562873429
 25
196.1197464994206
 35
0.0000000000000000
 16
381.9886600202894
 26
179.9722045355155
 36
0.0000000000000000
1001
ACAD
1000
DSTYLE
1002
{
1070
   173
1070
     1
1070
     6
1000
_OPEN
1070
     7
1000
_OPEN
1070
    41
1040
2.000000
1002
}
  0
DIMENSION
  5
89
100
AcDbEntity
  8
MAIN0
  6
CONTINUOUS
 62
3
100
AcDbDimension
  2
*D3
 10
367.3350279030028
 20
222.4525854150391
 30
0.0000000000000000
 11
381.5056971071449
 21
212.1378789407747
 31
0.0000000000000000
 70
162
  3
MAIN001
100
AcDb2LineAngularDimension
 13
375.6255562873429
 23
196.1197464994206
 33
0.0000000000000000
 14
374.6255562873429
 24
196.1197464994206
 34
0.0000000000000000
 15
366.4690024992177
 25
221.9525854150403
 35
0.0000000000000000
 16
381.9886600202894
 26
212.2672884633256
 36
0.0000000000000000
1001
ACAD
1000
DSTYLE
1002
{
1070
   173
1070
     1
1070
     6
1000
_OPEN
1070
     7
1000
_OPEN
1070
    41
1040
2.000000
1002
}
  0
DIMENSION
  5
92
100
AcDbEntity
  8
MAIN0
  6
CONTINUOUS
 62
3
100
AcDbDimension
  2
*D4
 10
321.7252129934813
 20
248.7028456515114
 30
0.0000000000000000
 11
353.1698686216423
 21
250.5834876738166
 31
0.0000000000000000
 70
162
  3
MAIN001
100
AcDb2LineAngularDimension
 13
367.3350279030028
 23
222.4525854150391
 33
0.0000000000000000
 14
366.4690024992177
 24
221.9525854150403
 34
0.0000000000000000
 15
321.7252129934813
 25
247.7028456515114
 35
0.0000000000000000
 16
352.9198686216420
 26
250.1504749719245
 36
0.0000000000000000
1001
ACAD
1000
DSTYLE
1002
{
1070
   173
1070
     1
1070
     6
1000
_OPEN
1070
     7
1000
_OPEN
1070
    41
1040
2.000000
1002
}
  0
DIMENSION
  5
99
100
AcDbEntity
  8
MAIN0
  6
CONTINUOUS
 62
3
100
AcDbDimension
  2
*D5
 10
321.7252129934813
 20
196.1197464994029
 30
0.0000000000000000
 11
331.0911301364308
 21
185.0391510248039
 31
0.0000000000000000
 70
164
  3
MAIN001
100
AcDbRadialDimension
 15
339.6715290230715
 25
173.3397170664264
 35
0.0000000000000000
1001
ACAD
1000
DSTYLE
1002
{
1070
   173
1070
     1
1070
     6
1000
_OPEN
1070
     7
1000
_OPEN
1070
    41
1040
2.000000
1070
   340
1005
9A
1002
}
  0
DIMENSION
  5
A3
100
AcDbEntity
  8
MAIN0
  6
CONTINUOUS
 62
3
100
AcDbDimension
  2
*D6
 10
336.0367269360384
 20
165.4286058070085
 30
0.0000000000000000
 11
333.9311025023472
 21
141.0625368975290
 31
0.0000000000000000
 70
162
  3
MAIN001
100
AcDb2LineAngularDimension
 13
321.7252129934813
 23
143.4769026480016
 33
0.0000000000000000
 14
321.7252129934813
 24
144.4769026480016
 34
0.0000000000000000
 15
335.6141086742952
 25
166.3349135940439
 35
0.0000000000000000
 16
334.0393223093170
 26
140.5743888939693
 36
0.0000000000000000
1001
ACAD
1000
DSTYLE
1002
{
1070
   173
1070
     1
1070
     6
1000
_OPEN
1070
     7
1000
_OPEN
1070
    41
1040
2.000000
1002
}
  0
CIRCLE
  5
A4
100
AcDbEntity
  8
MAIN0
  6
CONTINUOUS
 62
3
100
AcDbCircle
 10
106.6437972806455
 20
184.6197464996147
 30
0.0000000000000000
 40
2.750000000000000
  0
CIRCLE
  5
A5
100
AcDbEntity
  8
MAIN0
  6
CONTINUOUS
 62
3
100
AcDbCircle
 10
66.80662870633751
 20
184.6197464996148
 30
0.0000000000000000
 40
2.750000000000000
  0
DIMENSION
  5
AE
100
AcDbEntity
  8
MAIN0
  6
CONTINUOUS
 62
3
100
AcDbDimension
  2
*D7
 10
337.7987767074741
 20
168.6428065631984
 30
0.0000000000000000
 11
343.2652636523850
 21
167.4569772222990
 31
0.0000000000000000
 70
163
  3
MAIN001
100
AcDbDiametricDimension
 15
330.1635084607393
 25
171.0308347875717
 35
0.0000000000000000
1001
ACAD
1000
DSTYLE
1002
{
1070
   287
1070
     2
1070
   173
1070
     1
1070
     6
1000
_OPEN
1070
     7
1000
_OPEN
1070
    41
1040
2.000000
1002
}
  0
ARC
  5
AF
100
AcDbEntity
  8
MAIN0
  6
CONTINUOUS
 62
3
100
AcDbCircle
 10
86.72521299349165
 20
196.1197464994209
 30
0.0000000000000000
 40
20.49999999999996
100
AcDbArc
 50
60.00000000205538
 51
121.0000000006037
  0
ARC
  5
B0
100
AcDbEntity
  8
MAIN0
  6
CONTINUOUS
 62
3
100
AcDbCircle
 10
86.72521299349165
 20
196.1197464994209
 30
0.0000000000000000
 40
25.49999999999995
100
AcDbArc
 50
60.00000000160604
 51
121.0000000006037
  0
CIRCLE
  5
B1
100
AcDbEntity
  8
MAIN0
  6
CONTINUOUS
 62
3
100
AcDbCircle
 10
86.72521299349160
 20
196.1197464994208
 30
0.0000000000000000
 40
14.00000000000000
  0
ARC
  5
B2
100
AcDbEntity
  8
MAIN0
  6
CONTINUOUS
 62
3
100
AcDbCircle
 10
98.84956864637906
 20
203.1197464995848
 30
0.0000000000000000
 40
2.500000000000000
100
AcDbArc
 50
125.1225161005553
 51
294.8774839009942
  0
ARC
  5
B3
100
AcDbEntity
  8
MAIN0
  6
CONTINUOUS
 62
3
100
AcDbCircle
 10
74.60085734102205
 20
203.1197464989062
 30
0.0000000000000000
 40
2.500000000000000
100
AcDbArc
 50
245.1225161005553
 51
414.8774839009942
  0
ARC
  5
B4
100
AcDbEntity
  8
MAIN0
  6
CONTINUOUS
 62
3
100
AcDbCircle
 10
86.72521299388336
 20
182.1197465004726
 30
0.0000000000000000
 40
2.500000000000000
100
AcDbArc
 50
5.122516100555258
 51
174.8774839009941
  0
ARC
  5
B5
100
AcDbEntity
  8
MAIN0
  6
CONTINUOUS
 62
3
100
AcDbCircle
 10
351.6252129934898
 20
81.60576787211480
 30
0.0000000000000000
 40
0.4000000000000000
100
AcDbArc
 50
180.0000000000000
 51
270.0000000000000
  0
LINE
  5
B6
100
AcDbEntity
  8
MAIN0
  6
CONTINUOUS
 62
3
100
AcDbLine
 10
338.7252129934899
 20
72.59140851816554
 30
0.0000000000000000
 11
338.7252129934899
 21
76.20576787211044
 31
0.0000000000000000
  0
LINE
  5
B7
100
AcDbEntity
  8
MAIN0
  6
CONTINUOUS
 62
3
100
AcDbLine
 10
304.7252129934899
 20
72.59140851816551
 30
0.0000000000000000
 11
304.7252129934899
 21
76.20576787211044
 31
0.0000000000000000
  0
LINE
  5
B8
100
AcDbEntity
  8
MAIN0
  6
CONTINUOUS
 62
3
100
AcDbLine
 10
337.9252129934899
 20
71.20576787211044
 30
0.0000000000000000
 11
338.7252129934898
 21
72.59140851816551
 31
0.0000000000000000
  0
LINE
  5
B9
100
AcDbEntity
  8
MAIN0
  6
CONTINUOUS
 62
3
100
AcDbLine
 10
305.5252129934898
 20
71.20576787211040
 30
0.0000000000000000
 11
304.7252129934898
 21
72.59140851816542
 31
0.0000000000000000
  0
LINE
  5
BA
100
AcDbEntity
  8
MAIN0
  6
CENTER
 62
3
100
AcDbLine
 10
321.7252129934899
 20
66.71591631728103
 30
0.0000000000000000
 11
321.7252129934898
 21
117.2464120896653
 31
0.0000000000000000
  0
LINE
  5
BB
100
AcDbEntity
  8
MAIN0
  6
CONTINUOUS
 62
3
100
AcDbLine
 10
355.5002037411305
 20
97.20576787214306
 30
0.0000000000000000
 11
287.9502222458492
 21
97.20576787211756
 31
0.0000000000000000
  0
LINE
  5
BC
100
AcDbEntity
  8
MAIN0
  6
CONTINUOUS
 62
3
100
AcDbLine
 10
287.9502222458507
 20
109.7057678721088
 30
0.0000000000000000
 11
355.5002037411289
 21
109.7057678721230
 31
0.0000000000000000
  0
LINE
  5
BD
100
AcDbEntity
  8
MAIN0
  6
CONTINUOUS
 62
3
100
AcDbLine
 10
307.0711879217680
 20
81.20576787213642
 30
0.0000000000000000
 11
289.9295608195837
 21
81.20576787214580
 31
0.0000000000000000
  0
LINE
  5
BE
100
AcDbEntity
  8
MAIN0
  6
CONTINUOUS
 62
3
100
AcDbLine
 10
285.3537899548426
 20
95.70576787205239
 30
0.0000000000000000
 11
274.1319555065063
 21
95.70576787204412
 31
0.0000000000000000
  0
LINE
  5
BF
100
AcDbEntity
  8
MAIN0
  6
CONTINUOUS
 62
3
100
AcDbLine
 10
275.6819555065065
 20
102.7057678721253
 30
0.0000000000000000
 11
274.1319555065069
 21
102.7057678721255
 31
0.0000000000000000
  0
LINE
  5
C0
100
AcDbEntity
  8
MAIN0
  6
CONTINUOUS
 62
3
100
AcDbLine
 10
285.3537899548429
 20
102.7057678721245
 30
0.0000000000000000
 11
282.0319555065141
 21
102.7057678721249
 31
0.0000000000000000
  0
LINE
  5
C1
100
AcDbEntity
  8
MAIN0
  6
CONTINUOUS
 62
3
100
AcDbLine
 10
275.8819555065074
 20
113.7057678721233
 30
0.0000000000000000
 11
289.3931714387335
 21
113.7057678721219
 31
0.0000000000000000
  0
LINE
  5
C2
100
AcDbEntity
  8
MAIN0
  6
CONTINUOUS
 62
3
100
AcDbLine
 10
294.9893238613923
 20
113.7057678721212
 30
0.0000000000000000
 11
301.7773347128642
 21
113.7057678721205
 31
0.0000000000000000
  0
LINE
  5
C3
100
AcDbEntity
  8
MAIN0
  6
CONTINUOUS
 62
3
100
AcDbLine
 10
289.5295608195836
 20
76.60576787211488
 30
0.0000000000000000
 11
289.5295608195838
 21
80.80576787214602
 31
0.0000000000000000
  0
LINE
  5
C4
100
AcDbEntity
  8
MAIN0
  6
CONTINUOUS
 62
3
100
AcDbLine
 10
289.5295608195837
 20
80.80576787214598
 30
0.0000000000000000
 11
289.9295608195837
 21
81.20576787214576
 31
0.0000000000000000
  0
LINE
  5
C5
100
AcDbEntity
  8
MAIN0
  6
CONTINUOUS
 62
3
100
AcDbLine
 10
302.2354665889267
 20
76.20576787211361
 30
0.0000000000000000
 11
302.2354665889299
 21
81.20576787213908
 31
0.0000000000000000
  0
LINE
  5
C6
100
AcDbEntity
  8
MAIN0
  6
CONTINUOUS
 62
3
100
AcDbLine
 10
341.6658877406198
 20
76.20576787210931
 30
0.0000000000000000
 11
341.6658877406231
 21
81.20576787211385
 31
0.0000000000000000
  0
ARC
  5
C7
100
AcDbEntity
  8
MAIN0
  6
CONTINUOUS
 62
3
100
AcDbCircle
 10
291.8252129934899
 20
81.60576787214475
 30
0.0000000000000000
 40
0.4000000000000000
100
AcDbArc
 50
270.0000000000000
 51
360.0000000000000
  0
LINE
  5
C8
100
AcDbEntity
  8
MAIN0
  6
CONTINUOUS
 62
3
100
AcDbLine
 10
274.0938157853008
 20
102.6676281509194
 30
0.0000000000000000
 11
274.0938157853011
 21
109.7057678724694
 31
0.0000000000000000
  0
LINE
  5
C9
100
AcDbEntity
  8
MAIN0
  6
CONTINUOUS
 62
3
100
AcDbLine
 10
275.2439708222173
 20
112.7057678721062
 30
0.0000000000000000
 11
274.0938157853011
 21
109.7057678724693
 31
0.0000000000000000
  0
LINE
  5
CA
100
AcDbEntity
  8
MAIN0
  6
CONTINUOUS
 62
3
100
AcDbLine
 10
285.3537899548426
 20
95.70576787205241
 30
0.0000000000000000
 11
285.3537899548429
 21
102.7057678721244
 31
0.0000000000000000
  0
LINE
  5
CB
100
AcDbEntity
  8
MAIN0
  6
CONTINUOUS
 62
3
100
AcDbLine
 10
283.0695322352600
 20
102.7057678721248
 30
0.0000000000000000
 11
283.0695322352539
 21
112.5057678721079
 31
0.0000000000000000
  0
LINE
  5
CC
100
AcDbEntity
  8
MAIN0
  6
CONTINUOUS
 62
3
100
AcDbLine
 10
275.6819555065065
 20
102.7057678721254
 30
0.0000000000000000
 11
275.6819555065075
 21
113.5057678721234
 31
0.0000000000000000
  0
LINE
  5
CD
100
AcDbEntity
  8
MAIN0
  6
CONTINUOUS
 62
3
100
AcDbLine
 10
282.0319555065141
 20
102.7057678721247
 30
0.0000000000000000
 11
282.0319555065129
 21
113.5057678721227
 31
0.0000000000000000
  0
LINE
  5
CE
100
AcDbEntity
  8
MAIN0
  6
CONTINUOUS
 62
3
100
AcDbLine
 10
289.5931714387343
 20
112.7057678721092
 30
0.0000000000000000
 11
289.5931714387337
 21
113.5057678721218
 31
0.0000000000000000
  0
LINE
  5
CF
100
AcDbEntity
  8
MAIN0
  6
CONTINUOUS
 62
3
100
AcDbLine
 10
283.7819555065141
 20
95.90576787205124
 30
0.0000000000000000
 11
283.7819555065133
 21
102.5057678721247
 31
0.0000000000000000
  0
LINE
  5
D0
100
AcDbEntity
  8
MAIN0
  6
CONTINUOUS
 62
3
100
AcDbLine
 10
273.9319555065063
 20
95.90576787204400
 30
0.0000000000000000
 11
273.9319555065068
 21
102.5057678721255
 31
0.0000000000000000
  0
LINE
  5
D1
100
AcDbEntity
  8
MAIN0
  6
CONTINUOUS
 62
3
100
AcDbLine
 10
294.7893238613918
 20
112.7057678721064
 30
0.0000000000000000
 11
294.7893238613922
 21
113.5057678721212
 31
0.0000000000000000
  0
LINE
  5
D2
100
AcDbEntity
  8
MAIN0
  6
CONTINUOUS
 62
3
100
AcDbLine
 10
301.9773347128646
 20
112.7057678721116
 30
0.0000000000000000
 11
301.9773347128643
 21
113.5057678721205
 31
0.0000000000000000
  0
LINE
  5
D3
100
AcDbEntity
  8
MAIN0
  6
CONTINUOUS
 62
3
100
AcDbLine
 10
287.9502222458492
 20
97.20576787211753
 30
0.0000000000000000
 11
287.9502222458507
 21
109.7057678721088
 31
0.0000000000000000
  0
LINE
  5
D4
100
AcDbEntity
  8
MAIN0
  6
CONTINUOUS
 62
3
100
AcDbLine
 10
287.9502222458507
 20
109.7057678721088
 30
0.0000000000000000
 11
285.0543798968169
 21
112.7057678721083
 31
0.0000000000000000
  0
LINE
  5
D5
100
AcDbEntity
  8
MAIN0
  6
CONTINUOUS
 62
3
100
AcDbLine
 10
301.9773347128643
 20
113.5057678721205
 30
0.0000000000000000
 11
301.7773347128642
 21
113.7057678721205
 31
0.0000000000000000
  0
LINE
  5
D6
100
AcDbEntity
  8
MAIN0
  6
CONTINUOUS
 62
3
100
AcDbLine
 10
294.7893238613923
 20
113.5057678721212
 30
0.0000000000000000
 11
294.9893238613924
 21
113.7057678721212
 31
0.0000000000000000
  0
LINE
  5
D7
100
AcDbEntity
  8
MAIN0
  6
CONTINUOUS
 62
3
100
AcDbLine
 10
289.5931714387337
 20
113.5057678721218
 30
0.0000000000000000
 11
289.3931714387335
 21
113.7057678721219
 31
0.0000000000000000
  0
LINE
  5
D8
100
AcDbEntity
  8
MAIN0
  6
CONTINUOUS
 62
3
100
AcDbLine
 10
275.6819555065075
 20
113.5057678721234
 30
0.0000000000000000
 11
275.8819555065075
 21
113.7057678721234
 31
0.0000000000000000
  0
LINE
  5
D9
100
AcDbEntity
  8
MAIN0
  6
CONTINUOUS
 62
3
100
AcDbLine
 10
283.0695322352539
 20
112.5057678721079
 30
0.0000000000000000
 11
283.2695322352537
 21
112.7057678721079
 31
0.0000000000000000
  0
LINE
  5
DA
100
AcDbEntity
  8
MAIN0
  6
CONTINUOUS
 62
3
100
AcDbLine
 10
274.1319555065069
 20
102.7057678721255
 30
0.0000000000000000
 11
273.9319555065069
 21
102.5057678721256
 31
0.0000000000000000
  0
LINE
  5
DB
100
AcDbEntity
  8
MAIN0
  6
CONTINUOUS
 62
3
100
AcDbLine
 10
274.1319555065063
 20
95.70576787204411
 30
0.0000000000000000
 11
273.9319555065063
 21
95.90576787204392
 31
0.0000000000000000
  0
LINE
  5
DC
100
AcDbEntity
  8
MAIN0
  6
CONTINUOUS
 62
3
100
AcDbLine
 10
283.7819555065141
 20
95.90576787205119
 30
0.0000000000000000
 11
283.5819555065141
 21
95.70576787205107
 31
0.0000000000000000
  0
LINE
  5
DD
100
AcDbEntity
  8
MAIN0
  6
CONTINUOUS
 62
3
100
AcDbLine
 10
283.7819555065133
 20
102.5057678721247
 30
0.0000000000000000
 11
283.5819555065133
 21
102.7057678721247
 31
0.0000000000000000
  0
LINE
  5
DE
100
AcDbEntity
  8
MAIN0
  6
CONTINUOUS
 62
3
100
AcDbLine
 10
282.0319555065129
 20
113.5057678721227
 30
0.0000000000000000
 11
281.8319555065128
 21
113.7057678721227
 31
0.0000000000000000
  0
LINE
  5
DF
100
AcDbEntity
  8
MAIN0
  6
CONTINUOUS
 62
3
100
AcDbLine
 10
355.5002037411305
 20
97.20576787211755
 30
0.0000000000000000
 11
355.5002037411289
 21
109.7057678721089
 31
0.0000000000000000
  0
LINE
  5
E0
100
AcDbEntity
  8
MAIN0
  6
CONTINUOUS
 62
3
100
AcDbLine
 10
355.5002037411289
 20
109.7057678721088
 30
0.0000000000000000
 11
358.3960460901627
 21
112.7057678721083
 31
0.0000000000000000
  0
LINE
  5
E1
100
AcDbEntity
  8
MAIN0
  6
CONTINUOUS
 62
3
100
AcDbLine
 10
368.2064551647624
 20
112.7057678721062
 30
0.0000000000000000
 11
369.3566102016786
 21
109.7057678724693
 31
0.0000000000000000
  0
LINE
  5
E2
100
AcDbEntity
  8
MAIN0
  6
CONTINUOUS
 62
3
100
AcDbLine
 10
369.3566102016789
 20
102.6676281509194
 30
0.0000000000000000
 11
369.3566102016785
 21
109.7057678724694
 31
0.0000000000000000
  0
LINE
  5
E3
100
AcDbEntity
  8
MAIN0
  6
CONTINUOUS
 62
3
100
AcDbLine
 10
360.3808937517196
 20
102.7057678721248
 30
0.0000000000000000
 11
360.3808937517257
 21
112.5057678721079
 31
0.0000000000000000
  0
LINE
  5
E4
100
AcDbEntity
  8
MAIN0
  6
CONTINUOUS
 62
3
100
AcDbLine
 10
360.3808937517257
 20
112.5057678721079
 30
0.0000000000000000
 11
360.1808937517259
 21
112.7057678721079
 31
0.0000000000000000
  0
LINE
  5
E5
100
AcDbEntity
  8
MAIN0
  6
CONTINUOUS
 62
3
100
AcDbLine
 10
358.0966360321370
 20
95.70576787205238
 30
0.0000000000000000
 11
358.0966360321367
 21
102.7057678721244
 31
0.0000000000000000
  0
LINE
  5
E6
100
AcDbEntity
  8
MAIN0
  6
CONTINUOUS
 62
3
100
AcDbLine
 10
358.0966360321367
 20
102.7057678721245
 30
0.0000000000000000
 11
361.4184704804655
 21
102.7057678721248
 31
0.0000000000000000
  0
LINE
  5
E7
100
AcDbEntity
  8
MAIN0
  6
CONTINUOUS
 62
3
100
AcDbLine
 10
358.0966360321370
 20
95.70576787205241
 30
0.0000000000000000
 11
369.3184704804733
 21
95.70576787204413
 31
0.0000000000000000
  0
LINE
  5
E8
100
AcDbEntity
  8
MAIN0
  6
CONTINUOUS
 62
3
100
AcDbLine
 10
348.6611021255878
 20
112.7057678721064
 30
0.0000000000000000
 11
348.6611021255874
 21
113.5057678721213
 31
0.0000000000000000
  0
LINE
  5
E9
100
AcDbEntity
  8
MAIN0
  6
CONTINUOUS
 62
3
100
AcDbLine
 10
348.6611021255873
 20
113.5057678721212
 30
0.0000000000000000
 11
348.4611021255872
 21
113.7057678721212
 31
0.0000000000000000
  0
LINE
  5
EA
100
AcDbEntity
  8
MAIN0
  6
CONTINUOUS
 62
3
100
AcDbLine
 10
348.4611021255873
 20
113.7057678721212
 30
0.0000000000000000
 11
341.6730912741154
 21
113.7057678721205
 31
0.0000000000000000
  0
LINE
  5
EB
100
AcDbEntity
  8
MAIN0
  6
CONTINUOUS
 62
3
100
AcDbLine
 10
341.4730912741154
 20
113.5057678721205
 30
0.0000000000000000
 11
341.6730912741155
 21
113.7057678721205
 31
0.0000000000000000
  0
LINE
  5
EC
100
AcDbEntity
  8
MAIN0
  6
CONTINUOUS
 62
3
100
AcDbLine
 10
341.4730912741151
 20
112.7057678721116
 30
0.0000000000000000
 11
341.4730912741153
 21
113.5057678721205
 31
0.0000000000000000
  0
LINE
  5
ED
100
AcDbEntity
  8
MAIN0
  6
CONTINUOUS
 62
3
100
AcDbLine
 10
353.8572545482459
 20
113.5057678721219
 30
0.0000000000000000
 11
354.0572545482461
 21
113.7057678721219
 31
0.0000000000000000
  0
LINE
  5
EE
100
AcDbEntity
  8
MAIN0
  6
CONTINUOUS
 62
3
100
AcDbLine
 10
353.8572545482454
 20
112.7057678721092
 30
0.0000000000000000
 11
353.8572545482459
 21
113.5057678721219
 31
0.0000000000000000
  0
LINE
  5
EF
100
AcDbEntity
  8
MAIN0
  6
CONTINUOUS
 62
3
100
AcDbLine
 10
367.5684704804722
 20
113.7057678721234
 30
0.0000000000000000
 11
354.0572545482461
 21
113.7057678721219
 31
0.0000000000000000
  0
LINE
  5
F0
100
AcDbEntity
  8
MAIN0
  6
CONTINUOUS
 62
3
100
AcDbLine
 10
361.4184704804667
 20
113.5057678721226
 30
0.0000000000000000
 11
361.6184704804667
 21
113.7057678721226
 31
0.0000000000000000
  0
LINE
  5
F1
100
AcDbEntity
  8
MAIN0
  6
CONTINUOUS
 62
3
100
AcDbLine
 10
361.4184704804654
 20
102.7057678721247
 30
0.0000000000000000
 11
361.4184704804667
 21
113.5057678721227
 31
0.0000000000000000
  0
LINE
  5
F2
100
AcDbEntity
  8
MAIN0
  6
CONTINUOUS
 62
3
100
AcDbLine
 10
367.7684704804722
 20
113.5057678721234
 30
0.0000000000000000
 11
367.5684704804721
 21
113.7057678721234
 31
0.0000000000000000
  0
LINE
  5
F3
100
AcDbEntity
  8
MAIN0
  6
CONTINUOUS
 62
3
100
AcDbLine
 10
367.7684704804731
 20
102.7057678721253
 30
0.0000000000000000
 11
367.7684704804722
 21
113.5057678721234
 31
0.0000000000000000
  0
LINE
  5
F4
100
AcDbEntity
  8
MAIN0
  6
CONTINUOUS
 62
3
100
AcDbLine
 10
367.7684704804731
 20
102.7057678721253
 30
0.0000000000000000
 11
369.3184704804727
 21
102.7057678721255
 31
0.0000000000000000
  0
LINE
  5
F5
100
AcDbEntity
  8
MAIN0
  6
CONTINUOUS
 62
3
100
AcDbLine
 10
369.5184704804733
 20
95.90576787204395
 30
0.0000000000000000
 11
369.5184704804727
 21
102.5057678721255
 31
0.0000000000000000
  0
LINE
  5
F6
100
AcDbEntity
  8
MAIN0
  6
CONTINUOUS
 62
3
100
AcDbLine
 10
369.3184704804727
 20
102.7057678721255
 30
0.0000000000000000
 11
369.5184704804727
 21
102.5057678721255
 31
0.0000000000000000
  0
LINE
  5
F7
100
AcDbEntity
  8
MAIN0
  6
CONTINUOUS
 62
3
100
AcDbLine
 10
369.3184704804734
 20
95.70576787204412
 30
0.0000000000000000
 11
369.5184704804733
 21
95.90576787204394
 31
0.0000000000000000
  0
LINE
  5
F8
100
AcDbEntity
  8
MAIN0
  6
CONTINUOUS
 62
3
100
AcDbLine
 10
359.6684704804655
 20
95.90576787205121
 30
0.0000000000000000
 11
359.6684704804663
 21
102.5057678721247
 31
0.0000000000000000
  0
LINE
  5
F9
100
AcDbEntity
  8
MAIN0
  6
CONTINUOUS
 62
3
100
AcDbLine
 10
359.6684704804663
 20
102.5057678721247
 30
0.0000000000000000
 11
359.8684704804664
 21
102.7057678721247
 31
0.0000000000000000
  0
LINE
  5
FA
100
AcDbEntity
  8
MAIN0
  6
CONTINUOUS
 62
3
100
AcDbLine
 10
359.6684704804656
 20
95.90576787205119
 30
0.0000000000000000
 11
359.8684704804656
 21
95.70576787205106
 31
0.0000000000000000
  0
LINE
  5
FB
100
AcDbEntity
  8
MAIN0
  6
CENTER
 62
3
100
AcDbLine
 10
333.9752129934989
 20
96.36372219609176
 30
0.0000000000000000
 11
333.9752129934798
 21
114.6318558148262
 31
0.0000000000000000
  0
LINE
  5
FC
100
AcDbEntity
  8
MAIN0
  6
CENTER
 62
3
100
AcDbLine
 10
336.1156759842834
 20
106.7057678721190
 30
0.0000000000000000
 11
332.1397001789731
 21
106.7057678721181
 31
0.0000000000000000
  0
LINE
  5
FD
100
AcDbEntity
  8
MAIN0
  6
CENTER
 62
3
100
AcDbLine
 10
366.1578877537509
 20
100.2057678721232
 30
0.0000000000000000
 11
362.7336368252332
 21
100.2057678721229
 31
0.0000000000000000
  0
ELLIPSE
  5
FE
100
AcDbEntity
  8
MAIN0
  6
CONTINUOUS
 62
3
100
AcDbEllipse
 10
364.5934704804531
 20
100.2057678721231
 30
0.0000000000000000
 11
0.0000000000000000
 21
2.000000000000000
 31
0.0000000000000000
210
0.0000000000000000
220
0.0000000000000000
230
1.000000000000000
 40
0.5000000000000000
 41
0.0000000000000000
 42
6.283185307179586
  0
LINE
  5
FF
100
AcDbEntity
  8
MAIN0
  6
CENTER
 62
3
100
AcDbLine
 10
364.5934704805975
 20
97.54449179498907
 30
0.0000000000000000
 11
364.5934704805933
 21
102.9471983801234
 31
0.0000000000000000
  0
LINE
  5
100
100
AcDbEntity
  8
MAIN0
  6
CENTER
 62
3
100
AcDbLine
 10
277.2925382332288
 20
100.2057678721232
 30
0.0000000000000000
 11
280.7167891617465
 21
100.2057678721228
 31
0.0000000000000000
  0
ELLIPSE
  5
101
100
AcDbEntity
  8
MAIN0
  6
CONTINUOUS
 62
3
100
AcDbEllipse
 10
278.8569555065267
 20
100.2057678721230
 30
0.0000000000000000
 11
0.0000000000000000
 21
2.000000000000000
 31
0.0000000000000000
210
0.0000000000000000
220
0.0000000000000000
230
1.000000000000000
 40
0.5000000000000000
 41
0.0000000000000000
 42
6.283185307179586
  0
LINE
  5
102
100
AcDbEntity
  8
MAIN0
  6
CENTER
 62
3
100
AcDbLine
 10
278.8569555063822
 20
97.54449179498904
 30
0.0000000000000000
 11
278.8569555063865
 21
102.9471983801234
 31
0.0000000000000000
  0
LINE
  5
103
100
AcDbEntity
  8
MAIN0
  6
HIDDEN
 62
3
100
AcDbLine
 10
329.9811425841498
 20
97.70576787211768
 30
0.0000000000000000
 11
329.9811425841498
 21
112.7057678721177
 31
0.0000000000000000
  0
LINE
  5
104
100
AcDbEntity
  8
MAIN0
  6
HIDDEN
 62
3
100
AcDbLine
 10
337.9811425841498
 20
97.70576787211935
 30
0.0000000000000000
 11
337.9811425841498
 21
112.7057678721193
 31
0.0000000000000000
  0
LINE
  5
105
100
AcDbEntity
  8
MAIN0
  6
HIDDEN
 62
3
100
AcDbLine
 10
337.9811425841498
 20
97.70576787211935
 30
0.0000000000000000
 11
329.9811425841498
 21
97.70576787211768
 31
0.0000000000000000
  0
DIMENSION
  5
10D
100
AcDbEntity
  8
MAIN0
  6
CONTINUOUS
 62
3
100
AcDbDimension
  2
*D8
 10
326.8488917876680
 20
112.7057678721223
 30
0.0000000000000000
 11
326.3488917876680
 21
105.2057678721200
 31
0.0000000000000000
 70
32
  3
MAIN001
100
AcDbAlignedDimension
 13
329.9811425841498
 23
97.70576787211768
 33
0.0000000000000000
 14
283.2695322352537
 24
112.7057678721079
 34
0.0000000000000000
 50
90.00000000000000
100
AcDbRotatedDimension
1001
ACAD
1000
DSTYLE
1002
{
1070
   173
1070
     1
1070
     6
1000
_OPEN
1070
     7
1000
_OPEN
1070
    41
1040
2.000000
1002
}
  0
ARC
  5
10E
100
AcDbEntity
  8
MAIN0
  6
CONTINUOUS
 62
3
100
AcDbCircle
 10
200.1252129934251
 20
226.0197464994543
 30
0.0000000000000000
 40
0.4000000000000000
100
AcDbArc
 50
180.0000000000000
 51
270.0000000000000
  0
LINE
  5
10F
100
AcDbEntity
  8
MAIN0
  6
CONTINUOUS
 62
3
100
AcDbLine
 10
191.1108536394759
 20
213.1197464994543
 30
0.0000000000000000
 11
194.7252129934208
 21
213.1197464994543
 31
0.0000000000000000
  0
LINE
  5
110
100
AcDbEntity
  8
MAIN0
  6
CONTINUOUS
 62
3
100
AcDbLine
 10
191.1108536394759
 20
179.1197464994543
 30
0.0000000000000000
 11
194.7252129934208
 21
179.1197464994543
 31
0.0000000000000000
  0
LINE
  5
111
100
AcDbEntity
  8
MAIN0
  6
CONTINUOUS
 62
3
100
AcDbLine
 10
189.7252129934208
 20
212.3197464994544
 30
0.0000000000000000
 11
191.1108536394759
 21
213.1197464994544
 31
0.0000000000000000
  0
LINE
  5
112
100
AcDbEntity
  8
MAIN0
  6
CONTINUOUS
 62
3
100
AcDbLine
 10
189.7252129934208
 20
179.9197464994543
 30
0.0000000000000000
 11
191.1108536394759
 21
179.1197464994544
 31
0.0000000000000000
  0
LINE
  5
113
100
AcDbEntity
  8
MAIN0
  6
CENTER
 62
3
100
AcDbLine
 10
185.2353614385914
 20
196.1197464994543
 30
0.0000000000000000
 11
235.7658572109757
 21
196.1197464994543
 31
0.0000000000000000
  0
LINE
  5
114
100
AcDbEntity
  8
MAIN0
  6
CONTINUOUS
 62
3
100
AcDbLine
 10
215.7252129934363
 20
184.6197464988261
 30
0.0000000000000000
 11
228.2252129934238
 21
184.6197464988677
 31
0.0000000000000000
  0
LINE
  5
115
100
AcDbEntity
  8
MAIN0
  6
CONTINUOUS
 62
3
100
AcDbLine
 10
215.7252129934569
 20
239.2857931375742
 30
0.0000000000000000
 11
215.7252129934363
 21
184.6197464988260
 31
0.0000000000000000
  0
LINE
  5
116
100
AcDbEntity
  8
MAIN0
  6
CONTINUOUS
 62
3
100
AcDbLine
 10
228.2252129934238
 20
184.6197464988676
 30
0.0000000000000000
 11
228.2252129934319
 21
223.2137322291109
 31
0.0000000000000000
  0
LINE
  5
117
100
AcDbEntity
  8
MAIN0
  6
CONTINUOUS
 62
3
100
AcDbLine
 10
228.2252129934238
 20
184.6197464988676
 30
0.0000000000000000
 11
231.2252129934230
 21
180.6118734600977
 31
0.0000000000000000
  0
LINE
  5
118
100
AcDbEntity
  8
MAIN0
  6
CONTINUOUS
 62
3
100
AcDbLine
 10
194.7252129934248
 20
170.1120594606231
 30
0.0000000000000000
 11
199.7252129934529
 21
170.1120594606176
 31
0.0000000000000000
  0
LINE
  5
119
100
AcDbEntity
  8
MAIN0
  6
CONTINUOUS
 62
3
100
AcDbLine
 10
194.7252129934224
 20
191.6824070823914
 30
0.0000000000000000
 11
199.7252129934411
 21
191.6824070823914
 31
0.0000000000000000
  0
LINE
  5
11A
100
AcDbEntity
  8
MAIN0
  6
CONTINUOUS
 62
3
100
AcDbLine
 10
199.7252129934387
 20
196.1197464994544
 30
0.0000000000000000
 11
199.7252129934529
 21
170.1120594606176
 31
0.0000000000000000
  0
LINE
  5
11B
100
AcDbEntity
  8
MAIN0
  6
CONTINUOUS
 62
3
100
AcDbLine
 10
214.2252129933785
 20
181.0385358765325
 30
0.0000000000000000
 11
221.2252129934325
 21
181.0385358765325
 31
0.0000000000000000
  0
LINE
  5
11C
100
AcDbEntity
  8
MAIN0
  6
CONTINUOUS
 62
3
100
AcDbLine
 10
221.2252129934328
 20
177.6989931246271
 30
0.0000000000000000
 11
231.2252129934223
 21
177.6989931246382
 31
0.0000000000000000
  0
LINE
  5
11D
100
AcDbEntity
  8
MAIN0
  6
CONTINUOUS
 62
3
100
AcDbLine
 10
214.2252129933785
 20
181.0385358765325
 30
0.0000000000000000
 11
214.2252129933650
 21
162.6929861105584
 31
0.0000000000000000
  0
LINE
  5
11E
100
AcDbEntity
  8
MAIN0
  6
CONTINUOUS
 62
3
100
AcDbLine
 10
221.2252129934340
 20
165.7240750243491
 30
0.0000000000000000
 11
221.2252129934344
 21
162.6929861105584
 31
0.0000000000000000
  0
LINE
  5
11F
100
AcDbEntity
  8
MAIN0
  6
CONTINUOUS
 62
3
100
AcDbLine
 10
221.2252129934325
 20
181.0385358765325
 30
0.0000000000000000
 11
221.2252129934329
 21
177.4154179751477
 31
0.0000000000000000
  0
LINE
  5
120
100
AcDbEntity
  8
MAIN0
  6
CENTER
 62
3
100
AcDbLine
 10
222.7107353310505
 20
203.2609353036319
 30
0.0000000000000000
 11
227.4837612560355
 21
203.2609353036213
 31
0.0000000000000000
  0
LINE
  5
121
100
AcDbEntity
  8
MAIN0
  6
CENTER
 62
3
100
AcDbLine
 10
225.2252129934282
 20
205.2782237772838
 30
0.0000000000000000
 11
225.2252129934273
 21
201.2174285509800
 31
0.0000000000000000
  0
ELLIPSE
  5
122
100
AcDbEntity
  8
MAIN0
  6
CONTINUOUS
 62
3
100
AcDbEllipse
 10
225.2252129934277
 20
203.0109353031567
 30
0.0000000000000000
 11
-1.250000000000000
 21
0.0000000000000000
 31
0.0000000000000000
210
0.0000000000000000
220
0.0000000000000000
230
1.000000000000000
 40
0.8660254038799998
 41
0.0000000000000000
 42
6.283185307179586
  0
ELLIPSE
  5
123
100
AcDbEntity
  8
MAIN0
  6
CONTINUOUS
 62
3
100
AcDbEllipse
 10
225.2252129934277
 20
203.1359353030421
 30
0.0000000000000000
 11
1.500000000000000
 21
0.0000000000000000
 31
0.0000000000000000
210
0.0000000000000000
220
0.0000000000000000
230
1.000000000000000
 40
0.8660254037666668
 41
0.0000000000000000
 42
6.283185307179586
  0
LINE
  5
124
100
AcDbEntity
  8
MAIN0
  6
CONTINUOUS
 62
3
100
AcDbLine
 10
214.2252129933781
 20
180.4465068887199
 30
0.0000000000000000
 11
221.2252129934325
 21
180.4465068887122
 31
0.0000000000000000
  0
LINE
  5
125
100
AcDbEntity
  8
MAIN0
  6
CONTINUOUS
 62
3
100
AcDbLine
 10
221.2252129934329
 20
177.4154179751477
 30
0.0000000000000000
 11
232.2252129934307
 21
177.4154179751477
 31
0.0000000000000000
  0
LINE
  5
126
100
AcDbEntity
  8
MAIN0
  6
CONTINUOUS
 62
3
100
AcDbLine
 10
231.2252129934232
 20
181.4654179749614
 30
0.0000000000000000
 11
232.2252129934303
 21
181.4654179749614
 31
0.0000000000000000
  0
LINE
  5
127
100
AcDbEntity
  8
MAIN0
  6
CONTINUOUS
 62
3
100
AcDbLine
 10
231.2252129934238
 20
184.4654179751989
 30
0.0000000000000000
 11
232.2252129934300
 21
184.4654179752000
 31
0.0000000000000000
  0
LINE
  5
128
100
AcDbEntity
  8
MAIN0
  6
CONTINUOUS
 62
3
100
AcDbLine
 10
231.2252129934247
 20
188.6154179750965
 30
0.0000000000000000
 11
232.2252129934295
 21
188.6154179750954
 31
0.0000000000000000
  0
LINE
  5
129
100
AcDbEntity
  8
MAIN0
  6
CONTINUOUS
 62
3
100
AcDbLine
 10
232.2252129934319
 20
166.1240750243491
 30
0.0000000000000000
 11
232.2252129934303
 21
181.4654179749613
 31
0.0000000000000000
  0
LINE
  5
12A
100
AcDbEntity
  8
MAIN0
  6
CONTINUOUS
 62
3
100
AcDbLine
 10
232.2252129934303
 20
181.4654179749616
 30
0.0000000000000000
 11
232.2252129934295
 21
188.6154179750953
 31
0.0000000000000000
  0
LINE
  5
12B
100
AcDbEntity
  8
MAIN0
  6
CONTINUOUS
 62
3
100
AcDbLine
 10
214.2252129933650
 20
162.6929861105583
 30
0.0000000000000000
 11
221.2252129934344
 21
162.6929861105583
 31
0.0000000000000000
  0
LINE
  5
12C
100
AcDbEntity
  8
MAIN0
  6
CONTINUOUS
 62
3
100
AcDbLine
 10
214.2252129933650
 20
162.8393962721876
 30
0.0000000000000000
 11
221.2252129934344
 21
162.8393962721876
 31
0.0000000000000000
  0
LINE
  5
12D
100
AcDbEntity
  8
MAIN0
  6
CONTINUOUS
 62
3
100
AcDbLine
 10
221.2252129934341
 20
165.7240750243491
 30
0.0000000000000000
 11
231.8252129934320
 21
165.7240750243491
 31
0.0000000000000000
  0
LINE
  5
12E
100
AcDbEntity
  8
MAIN0
  6
CONTINUOUS
 62
3
100
AcDbLine
 10
232.2252129934319
 20
166.1240750243491
 30
0.0000000000000000
 11
231.8252129934320
 21
165.7240750243491
 31
0.0000000000000000
  0
SPLINE
  5
12F
100
AcDbEntity
  8
MAIN0
  6
CONTINUOUS
 62
3
100
AcDbSpline
210
0.0000000000000000
220
0.0000000000000000
230
1.000000000000000
 70
     8
 71
     3
 72
    13
 73
     9
 74
     0
 42
1.000000000000000e-007
 43
1.000000000000000e-007
 12
-0.9934546629268368
 22
-0.01588320913757002
 32
0.0000000000000000
 13
-0.01413781046279894
 23
0.9999807665136586
 33
0.0000000000000000
 40
0.0000000000000000
 40
0.0000000000000000
 40
0.0000000000000000
 40
0.0000000000000000
 40
4.958076964268385
 40
9.293792932837187
 40
14.83730258872300
 40
18.85055028152586
 40
27.75562437979059
 40
34.09253572828287
 40
34.09253572828287
 40
34.09253572828287
 40
34.09253572828287
 10
232.2252129934226
 20
223.3096907957218
 30
0.0000000000000000
 10
230.5833381003218
 20
223.2834407379406
 30
0.0000000000000000
 10
227.5056841251872
 20
223.2342356523296
 30
0.0000000000000000
 10
222.4212956476434
 20
222.8136062230941
 30
0.0000000000000000
 10
218.4069586191391
 20
226.1317416048228
 30
0.0000000000000000
 10
216.4845323849023
 20
232.0293712431578
 30
0.0000000000000000
 10
215.6332557349180
 20
238.4269192463940
 30
0.0000000000000000
 10
215.5614263011438
 20
243.5074833431402
 30
0.0000000000000000
 10
215.5315629506223
 20
245.6197464990050
 30
0.0000000000000000
  0
LINE
  5
130
100
AcDbEntity
  8
MAIN0
  6
CENTER
 62
3
100
AcDbLine
 10
218.7252129934316
 20
169.1426143080222
 30
0.0000000000000000
 11
218.7252129934311
 21
173.8536221762063
 31
0.0000000000000000
  0
LINE
  5
131
100
AcDbEntity
  8
MAIN0
  6
CENTER
 62
3
100
AcDbLine
 10
216.0821634186467
 20
171.3697464992974
 30
0.0000000000000000
 11
221.3754324899561
 21
171.3697464993032
 31
0.0000000000000000
  0
ELLIPSE
  5
132
100
AcDbEntity
  8
MAIN0
  6
CONTINUOUS
 62
3
100
AcDbEllipse
 10
218.7252129934313
 20
171.3697464995234
 30
0.0000000000000000
 11
2.000000000000000
 21
0.0000000000000000
 31
0.0000000000000000
210
0.0000000000000000
220
0.0000000000000000
230
1.000000000000000
 40
0.8660254038499999
 41
0.0000000000000000
 42
6.283185307179586
  0
LINE
  5
133
100
AcDbEntity
  8
MAIN0
  6
HIDDEN
 62
3
100
AcDbLine
 10
208.7252129934290
 20
151.0197464994542
 30
0.0000000000000000
 11
206.7252129934290
 21
151.0197464994542
 31
0.0000000000000000
  0
LINE
  5
134
100
AcDbEntity
  8
MAIN0
  6
HIDDEN
 62
3
100
AcDbLine
 10
208.7252129934290
 20
241.2197464994544
 30
0.0000000000000000
 11
206.7252129934290
 21
241.2197464994544
 31
0.0000000000000000
  0
LINE
  5
135
100
AcDbEntity
  8
MAIN0
  6
HIDDEN
 62
3
100
AcDbLine
 10
208.7252129934290
 20
166.6197464994540
 30
0.0000000000000000
 11
208.7252129934290
 21
151.0197464994542
 31
0.0000000000000000
  0
LINE
  5
136
100
AcDbEntity
  8
MAIN0
  6
HIDDEN
 62
3
100
AcDbLine
 10
208.7252129934290
 20
241.2197464994543
 30
0.0000000000000000
 11
208.7252129934290
 21
225.6197464994547
 31
0.0000000000000000
  0
DIMENSION
  5
13F
100
AcDbEntity
  8
MAIN0
  6
CONTINUOUS
 62
3
100
AcDbDimension
  2
*D9
 10
177.2227493637554
 20
213.1197464994543
 30
0.0000000000000000
 11
176.7227493637554
 21
189.0447463623636
 31
0.0000000000000000
 70
32
  1
\A1;\U+220534h7\H0.903226x;\S　0^ －0.025;
  3
MAIN001
100
AcDbAlignedDimension
 13
191.1108536394759
 23
179.1197464994543
 33
0.0000000000000000
 14
191.1108536394759
 24
213.1197464994543
 34
0.0000000000000000
 50
90.00000000000000
100
AcDbRotatedDimension
1001
ACAD
1000
DSTYLE
1002
{
1070
   173
1070
     1
1070
     6
1000
_OPEN
1070
     7
1000
_OPEN
1070
    41
1040
2.000000
1070
   272
1070
     3
1070
    47
1040
0.000000
1070
    48
1040
0.025000
1070
    71
1070
     1
1070
   340
1005
9A
1002
}
  0
DIMENSION
  5
148
100
AcDbEntity
  8
MAIN0
  6
CONTINUOUS
 62
3
100
AcDbDimension
  2
*D10
 10
152.3979120331053
 20
245.1197464994543
 30
0.0000000000000000
 11
151.8979120331053
 21
196.1197464994543
 31
0.0000000000000000
 70
32
  1
\A1;\U+220598
  3
MAIN001
100
AcDbAlignedDimension
 13
207.1252129934291
 23
147.1197464994543
 33
0.0000000000000000
 14
207.1252129934291
 24
245.1197464994543
 34
0.0000000000000000
 50
90.00000000000000
100
AcDbRotatedDimension
1001
ACAD
1000
DSTYLE
1002
{
1070
   173
1070
     1
1070
     6
1000
_OPEN
1070
     7
1000
_OPEN
1070
    41
1040
2.000000
1002
}
  0
DIMENSION
  5
151
100
AcDbEntity
  8
MAIN0
  6
CONTINUOUS
 62
3
100
AcDbDimension
  2
*D11
 10
194.7252129934183
 20
267.2930899728450
 30
0.0000000000000000
 11
213.4752129934205
 21
267.7930899728450
 31
0.0000000000000000
 70
32
  3
MAIN001
100
AcDbAlignedDimension
 13
232.2252129934226
 23
245.4197464990045
 33
0.0000000000000000
 14
194.7252129934183
 24
228.2197464994544
 34
0.0000000000000000
100
AcDbRotatedDimension
1001
ACAD
1000
DSTYLE
1002
{
1070
   173
1070
     1
1070
     6
1000
_OPEN
1070
     7
1000
_OPEN
1070
    41
1040
2.000000
1002
}
  0
DIMENSION
  5
15C
100
AcDbEntity
  8
MAIN0
  6
CONTINUOUS
 62
3
100
AcDbDimension
  2
*D12
 10
232.2252129934226
 20
258.9290452156200
 30
0.0000000000000000
 11
238.8815093316711
 21
259.4290452156200
 31
0.0000000000000000
 70
160
  3
MAIN001
100
AcDbAlignedDimension
 13
228.7252129934225
 23
237.1197464990045
 33
0.0000000000000000
 14
232.2252129934226
 24
245.4197464990045
 34
0.0000000000000000
100
AcDbRotatedDimension
1001
ACAD
1000
DSTYLE
1002
{
1070
   173
1070
     1
1070
     6
1000
_OPEN
1070
     7
1000
_OPEN
1070
    41
1040
2.000000
1070
   287
1070
     0
1002
}
  0
DIMENSION
  5
167
100
AcDbEntity
  8
MAIN0
  6
CONTINUOUS
 62
3
100
AcDbDimension
  2
*D13
 10
216.7252129934226
 20
251.6512354096527
 30
0.0000000000000000
 11
212.0427212262646
 21
252.1512354096527
 31
0.0000000000000000
 70
160
  1
\A1;\U+22054
  3
MAIN001
100
AcDbAlignedDimension
 13
220.7252129934226
 23
245.2197464990048
 33
0.0000000000000000
 14
216.7252129934226
 24
245.2197464990048
 34
0.0000000000000000
100
AcDbRotatedDimension
1001
ACAD
1000
DSTYLE
1002
{
1070
   173
1070
     1
1070
     6
1000
_OPEN
1070
     7
1000
_OPEN
1070
    41
1040
2.000000
1070
   287
1070
     0
1002
}
  0
DIMENSION
  5
172
100
AcDbEntity
  8
MAIN0
  6
CONTINUOUS
 62
3
100
AcDbDimension
  2
*D14
 10
202.6557056366156
 20
245.6197464990050
 30
0.0000000000000000
 11
202.1557056366156
 21
241.8697464990049
 31
0.0000000000000000
 70
32
  3
MAIN001
100
AcDbAlignedDimension
 13
216.7252129934226
 23
238.1197464990049
 33
0.0000000000000000
 14
214.4252129934226
 24
245.6197464990050
 34
0.0000000000000000
 50
90.00000000000000
100
AcDbRotatedDimension
1001
ACAD
1000
DSTYLE
1002
{
1070
   173
1070
     1
1070
     6
1000
_OPEN
1070
     7
1000
_OPEN
1070
    41
1040
2.000000
1070
   287
1070
     0
1002
}
  0
DIMENSION
  5
17D
100
AcDbEntity
  8
MAIN0
  6
CONTINUOUS
 62
3
100
AcDbDimension
  2
*D15
 10
194.7252129934183
 20
231.5753681737688
 30
0.0000000000000000
 11
197.2252129934215
 21
232.0753681737688
 31
0.0000000000000000
 70
32
  3
MAIN001
100
AcDbAlignedDimension
 13
199.7252129934253
 23
228.2197464994547
 33
0.0000000000000000
 14
194.7252129934183
 24
228.2197464994544
 34
0.0000000000000000
100
AcDbRotatedDimension
1001
ACAD
1000
DSTYLE
1002
{
1070
   173
1070
     1
1070
     6
1000
_OPEN
1070
     7
1000
_OPEN
1070
    41
1040
2.000000
1070
   287
1070
     0
1002
}
  0
DIMENSION
  5
188
100
AcDbEntity
  8
MAIN0
  6
CONTINUOUS
 62
3
100
AcDbDimension
  2
*D16
 10
249.7832876341101
 20
245.6197464990045
 30
0.0000000000000000
 11
249.2832876341101
 21
251.3069053479478
 31
0.0000000000000000
 70
160
  3
MAIN001
100
AcDbAlignedDimension
 13
234.0350236197084
 23
242.1197464990065
 33
0.0000000000000000
 14
232.0252129934225
 24
245.6197464990045
 34
0.0000000000000000
 50
90.00000000000000
100
AcDbRotatedDimension
1001
ACAD
1000
DSTYLE
1002
{
1070
   173
1070
     1
1070
     6
1000
_OPEN
1070
     7
1000
_OPEN
1070
    41
1040
2.000000
1070
   287
1070
     0
1002
}
  0
DIMENSION
  5
191
100
AcDbEntity
  8
MAIN0
  6
CONTINUOUS
 62
3
100
AcDbDimension
  2
*D17
 10
249.7832876341101
 20
242.1197464990065
 30
0.0000000000000000
 11
249.2832876341101
 21
237.4633776800243
 31
0.0000000000000000
 70
160
  3
MAIN001
100
AcDbAlignedDimension
 13
234.0350236197106
 23
226.1197464990923
 33
0.0000000000000000
 14
234.0350236197084
 24
242.1197464990065
 34
0.0000000000000000
 50
90.00000000000000
100
AcDbRotatedDimension
1001
ACAD
1000
DSTYLE
1002
{
1070
   173
1070
     1
1070
     6
1000
_OPEN
1070
     7
1000
_OPEN
1070
    41
1040
2.000000
1002
}
  0
DIMENSION
  5
19C
100
AcDbEntity
  8
MAIN0
  6
CONTINUOUS
 62
3
100
AcDbDimension
  2
*D18
 10
240.9615632258300
 20
237.1197464990045
 30
0.0000000000000000
 11
240.4615632258300
 21
251.4108132504583
 31
0.0000000000000000
 70
160
  1
\A1;6H8
  3
MAIN001
100
AcDbAlignedDimension
 13
232.0252129934226
 23
231.1197464990045
 33
0.0000000000000000
 14
232.0252129934226
 24
237.1197464990045
 34
0.0000000000000000
 50
90.00000000000000
100
AcDbRotatedDimension
1001
ACAD
1000
DSTYLE
1002
{
1070
   173
1070
     1
1070
     6
1000
_OPEN
1070
     7
1000
_OPEN
1070
    41
1040
2.000000
1070
   287
1070
     0
1002
}
  0
DIMENSION
  5
1A5
100
AcDbEntity
  8
MAIN0
  6
CONTINUOUS
 62
3
100
AcDbDimension
  2
*D19
 10
258.2624355532474
 20
196.1197464994543
 30
0.0000000000000000
 11
257.7624355532474
 21
215.1197464992496
 31
0.0000000000000000
 70
32
  1
\A1;MAX 38
  3
MAIN001
100
AcDbAlignedDimension
 13
232.7971319761134
 23
234.1197464990449
 33
0.0000000000000000
 14
235.7658572109757
 24
196.1197464994543
 34
0.0000000000000000
 50
90.00000000000000
100
AcDbRotatedDimension
1001
ACAD
1000
DSTYLE
1002
{
1070
   173
1070
     1
1070
     6
1000
_OPEN
1070
     7
1000
_OPEN
1070
    41
1040
2.000000
1002
}
  0
MTEXT
  5
1A6
100
AcDbEntity
  8
MAIN0
  6
CONTINUOUS
 62
3
100
AcDbMText
 10
258.7218523459927
 20
209.0519762080681
 30
0.0000000000000000
 40
3.099999904632568
 41
0.0000000000000000
 71
     1
 72
     1
  1
{\H0.66x;{MIN 30.2}}
 11
6.123233995736766e-017
 21
1.000000000000000
 31
0.0000000000000000
  7
STANDARD
  0
INSERT
  5
1AE
100
AcDbEntity
  8
MAIN0
  6
CONTINUOUS
 62
3
100
AcDbBlockReference
  2
D20
 10
185.2353614385914
 20
196.1197464994543
 30
0.0000000000000000
 50
0.0000000000000000
  0
INSERT
  5
1B6
100
AcDbEntity
  8
MAIN0
  6
CONTINUOUS
 62
3
100
AcDbBlockReference
  2
D21
 10
185.2353614385914
 20
196.1197464994543
 30
0.0000000000000000
 50
0.0000000000000000
  0
DIMENSION
  5
1C1
100
AcDbEntity
  8
MAIN0
  6
CONTINUOUS
 62
3
100
AcDbDimension
  2
*D22
 10
189.7252129934239
 20
127.7605872126740
 30
0.0000000000000000
 11
192.2252129934245
 21
128.2605872126740
 31
0.0000000000000000
 70
32
  3
MAIN001
100
AcDbAlignedDimension
 13
194.7252129934251
 23
167.0197464994542
 33
0.0000000000000000
 14
189.7252129934239
 24
179.9197464994525
 34
0.0000000000000000
100
AcDbRotatedDimension
1001
ACAD
1000
DSTYLE
1002
{
1070
   173
1070
     1
1070
     6
1000
_OPEN
1070
     7
1000
_OPEN
1070
    41
1040
2.000000
1070
   287
1070
     0
1002
}
  0
DIMENSION
  5
1CA
100
AcDbEntity
  8
MAIN0
  6
CONTINUOUS
 62
3
100
AcDbDimension
  2
*D23
 10
194.7252129934251
 20
127.7605872126740
 30
0.0000000000000000
 11
212.9752129934223
 21
128.2605872126740
 31
0.0000000000000000
 70
32
  3
MAIN001
100
AcDbAlignedDimension
 13
231.2252129934194
 23
163.6197464994487
 33
0.0000000000000000
 14
194.7252129934251
 24
167.0197464994542
 34
0.0000000000000000
100
AcDbRotatedDimension
1001
ACAD
1000
DSTYLE
1002
{
1070
   173
1070
     1
1070
     6
1000
_OPEN
1070
     7
1000
_OPEN
1070
    41
1040
2.000000
1002
}
  0
DIMENSION
  5
1D5
100
AcDbEntity
  8
MAIN0
  6
CONTINUOUS
 62
3
100
AcDbDimension
  2
*D24
 10
231.2252129934194
 20
127.7605872126740
 30
0.0000000000000000
 11
237.7220001883386
 21
128.2605872126740
 31
0.0000000000000000
 70
160
  3
MAIN001
100
AcDbAlignedDimension
 13
231.7252129934205
 23
188.6154179750954
 33
0.0000000000000000
 14
231.2252129934194
 24
163.6197464994487
 34
0.0000000000000000
100
AcDbRotatedDimension
1001
ACAD
1000
DSTYLE
1002
{
1070
   173
1070
     1
1070
     6
1000
_OPEN
1070
     7
1000
_OPEN
1070
    41
1040
2.000000
1070
   287
1070
     0
1002
}
  0
DIMENSION
  5
1DE
100
AcDbEntity
  8
MAIN0
  6
CONTINUOUS
 62
3
100
AcDbDimension
  2
*D25
 10
194.7252129934251
 20
137.3857914008663
 30
0.0000000000000000
 11
201.7252129934271
 21
137.8857914008663
 31
0.0000000000000000
 70
32
  3
MAIN001
100
AcDbAlignedDimension
 13
208.7252129934290
 23
151.0197464994542
 33
0.0000000000000000
 14
194.7252129934251
 24
167.0197464994542
 34
0.0000000000000000
100
AcDbRotatedDimension
1001
ACAD
1000
DSTYLE
1002
{
1070
   173
1070
     1
1070
     6
1000
_OPEN
1070
     7
1000
_OPEN
1070
    41
1040
2.000000
1002
}
  0
ARC
  5
1DF
100
AcDbEntity
  8
MAIN0
  6
CONTINUOUS
 62
3
100
AcDbCircle
 10
299.7859027642601
 20
204.1197464994292
 30
0.0000000000000000
 40
3.000000000000000
100
AcDbArc
 50
150.0000000000001
 51
209.9999999999999
  0
ARC
  5
1E0
100
AcDbEntity
  8
MAIN0
  6
CONTINUOUS
 62
3
100
AcDbCircle
 10
303.8273546485723
 20
211.1197464994029
 30
0.0000000000000000
 40
3.000000000000000
100
AcDbArc
 50
90.00000000000000
 51
150.0000000000002
  0
ARC
  5
1E1
100
AcDbEntity
  8
MAIN0
  6
CONTINUOUS
 62
3
100
AcDbCircle
 10
339.6230713383900
 20
211.1197464994031
 30
0.0000000000000000
 40
3.000000000000000
100
AcDbArc
 50
30.00000000000049
 51
90.00000000000000
  0
ARC
  5
1E2
100
AcDbEntity
  8
MAIN0
  6
CONTINUOUS
 62
3
100
AcDbCircle
 10
343.6645232227023
 20
204.1197464994293
 30
0.0000000000000000
 40
3.000000000000000
100
AcDbArc
 50
330.0000000000001
 51
390.0000000000005
  0
CIRCLE
  5
1E3
100
AcDbEntity
  8
MAIN0
  6
CONTINUOUS
 62
3
100
AcDbCircle
 10
71.13845983242464
 20
214.3694896744538
 30
0.0000000000000000
 40
2.000000000000000
  0
CIRCLE
  5
1E4
100
AcDbEntity
  8
MAIN0
  6
CONTINUOUS
 62
3
100
AcDbCircle
 10
101.9910902793482
 20
214.6387365009579
 30
0.0000000000000000
 40
2.000000000000000
  0
CIRCLE
  5
1E5
100
AcDbEntity
  8
MAIN0
  6
CONTINUOUS
 62
3
100
AcDbCircle
 10
109.7252129930867
 20
196.1197464998883
 30
0.0000000000000000
 40
4.000000000000000
  0
CIRCLE
  5
1E6
100
AcDbEntity
  8
MAIN0
  6
CONTINUOUS
 62
3
100
AcDbCircle
 10
75.22521299247933
 20
176.2011622124955
 30
0.0000000000000000
 40
4.000000000000000
  0
ARC
  5
1E7
100
AcDbEntity
  8
MAIN0
  6
CONTINUOUS
 62
3
100
AcDbCircle
 10
103.9752129928847
 20
225.9976229293126
 30
0.0000000000000000
 40
6.000000000000000
100
AcDbArc
 50
174.2442920984852
 51
270.6942636807924
  0
ARC
  5
1E8
100
AcDbEntity
  8
MAIN0
  6
CONTINUOUS
 62
3
100
AcDbCircle
 10
52.22521299308608
 20
196.1197464998011
 30
0.0000000000000000
 40
6.000000000000000
100
AcDbArc
 50
294.2442920984851
 51
390.6942636807924
  0
ARC
  5
1E9
100
AcDbEntity
  8
MAIN0
  6
CONTINUOUS
 62
3
100
AcDbCircle
 10
103.9752129920746
 20
166.2418700688865
 30
0.0000000000000000
 40
6.000000000000000
100
AcDbArc
 50
54.24429209848510
 51
150.6942636807924
  0
LEADER
  5
1EA
100
AcDbEntity
  8
MAIN0
  6
CONTINUOUS
 62
3
100
AcDbLeader
  3
MAIN001
 73
     0
 75
     1
 40
2.799999952316284
 41
53.89900147372481
 76
     3
 10
320.2952495380392
 20
171.4824743262419
 30
0.0000000000000000
 10
300.2643798110343
 20
134.5396733460640
 30
0.0000000000000000
 10
298.6453798369921
 20
134.5396733460640
 30
0.0000000000000000
340
1EB
213
0.0000000000000000
223
-0.5000000000000000
233
0.0000000000000000
1001
ACAD
1000
DSTYLE
1002
{
1070
   147
1040
0.0
1070
    77
1070
     1
1070
   173
1070
     1
1070
     6
1000
_OPEN
1070
     7
1000
_OPEN
1002
}
  0
MTEXT
  5
1EB
102
{ACAD_REACTORS
330
1EA
102
}
100
AcDbEntity
  8
MAIN0
  6
CONTINUOUS
 62
3
100
AcDbMText
 10
244.7463783632672
 20
137.8396732983803
 30
0.0000000000000000
 40
2.799999952316284
 41
0.0000000000000000
 71
     1
 72
     1
  1
{\H0.67x;{十字穴付皿小ねじ 3-M3×6\PCross Recessed Flat Head Screw}}
 11
1.000000000000000
 21
0.0000000000000000
 31
0.0000000000000000
  7
KNJYOKO
  0
LINE
  5
1EC
100
AcDbEntity
  8
MAIN0
  6
CONTINUOUS
 62
3
100
AcDbLine
 10
303.8273546485723
 20
214.1197464994029
 30
0.0000000000000000
 11
314.9752129934624
 21
214.1197464994029
 31
0.0000000000000000
  0
LINE
  5
1ED
100
AcDbEntity
  8
MAIN0
  6
CONTINUOUS
 62
3
100
AcDbLine
 10
302.7617557253699
 20
192.9654179749327
 30
0.0000000000000000
 11
297.1878265529068
 21
202.6197464994292
 31
0.0000000000000000
  0
LINE
  5
1EE
100
AcDbEntity
  8
MAIN0
  6
CONTINUOUS
 62
3
100
AcDbLine
 10
314.9752129934602
 20
215.1197464994029
 30
0.0000000000000000
 11
314.9752129934275
 21
244.6525961993924
 31
0.0000000000000000
  0
LINE
  5
1EF
100
AcDbEntity
  8
MAIN0
  6
CONTINUOUS
 62
3
100
AcDbLine
 10
328.4752129934602
 20
215.1197464994031
 30
0.0000000000000000
 11
328.4752129934275
 21
244.6525961994074
 31
0.0000000000000000
  0
LINE
  5
1F0
100
AcDbEntity
  8
MAIN0
  6
CONTINUOUS
 62
3
100
AcDbLine
 10
315.0856848978005
 20
171.6197464994030
 30
0.0000000000000000
 11
309.5117557253701
 21
181.2740750238428
 31
0.0000000000000000
  0
LINE
  5
1F1
100
AcDbEntity
  8
MAIN0
  6
CONTINUOUS
 62
3
100
AcDbLine
 10
317.6837611091538
 20
170.1197464994030
 30
0.0000000000000000
 11
325.7666648778088
 21
170.1197464994030
 31
0.0000000000000000
  0
LINE
  5
1F2
100
AcDbEntity
  8
MAIN0
  6
CONTINUOUS
 62
3
100
AcDbLine
 10
333.9386702616113
 20
181.2740750238751
 30
0.0000000000000000
 11
328.3647410891621
 21
171.6197464994030
 31
0.0000000000000000
  0
LINE
  5
1F3
100
AcDbEntity
  8
MAIN0
  6
CONTINUOUS
 62
3
100
AcDbLine
 10
309.5117557253714
 20
181.2740750238407
 30
0.0000000000000000
 11
283.0695322352652
 21
166.0076501738166
 31
0.0000000000000000
  0
LINE
  5
1F4
100
AcDbEntity
  8
MAIN0
  6
CONTINUOUS
 62
3
100
AcDbLine
 10
302.7617557253712
 20
192.9654179749305
 30
0.0000000000000000
 11
276.3195322352746
 21
177.6989931249120
 31
0.0000000000000000
  0
ARC
  5
1F5
100
AcDbEntity
  8
MAIN0
  6
CONTINUOUS
 62
3
100
AcDbCircle
 10
325.7666648778088
 20
173.1197464994030
 30
0.0000000000000000
 40
3.000000000000000
100
AcDbArc
 50
270.0000000000000
 51
329.9999999999998
  0
ARC
  5
1F6
100
AcDbEntity
  8
MAIN0
  6
CONTINUOUS
 62
3
100
AcDbCircle
 10
317.6837611091538
 20
173.1197464994030
 30
0.0000000000000000
 40
3.000000000000000
100
AcDbArc
 50
209.9999999999999
 51
270.0000000000000
  0
LINE
  5
1F7
100
AcDbEntity
  8
MAIN0
  6
CONTINUOUS
 62
3
100
AcDbLine
 10
346.2625994340556
 20
202.6197464994293
 30
0.0000000000000000
 11
340.6886702616113
 21
192.9654179749653
 31
0.0000000000000000
  0
LINE
  5
1F8
100
AcDbEntity
  8
MAIN0
  6
CONTINUOUS
 62
3
100
AcDbLine
 10
328.4752129934626
 20
214.1197464994031
 30
0.0000000000000000
 11
339.6230713383900
 21
214.1197464994031
 31
0.0000000000000000
  0
LINE
  5
1F9
100
AcDbEntity
  8
MAIN0
  6
CONTINUOUS
 62
3
100
AcDbLine
 10
340.6886702616112
 20
192.9654179749651
 30
0.0000000000000000
 11
367.1308937517512
 21
177.6989931249996
 31
0.0000000000000000
  0
LINE
  5
1FA
100
AcDbEntity
  8
MAIN0
  6
CONTINUOUS
 62
3
100
AcDbLine
 10
333.9386702616113
 20
181.2740750238752
 30
0.0000000000000000
 11
360.3808937517641
 21
166.0076501739023
 31
0.0000000000000000
  0
LINE
  5
1FB
100
AcDbEntity
  8
MAIN0
  6
CONTINUOUS
 62
3
100
AcDbLine
 10
346.2625994340556
 20
205.6197464994293
 30
0.0000000000000000
 11
342.2211475497433
 21
212.6197464994031
 31
0.0000000000000000
  0
LINE
  5
1FC
100
AcDbEntity
  8
MAIN0
  6
CONTINUOUS
 62
3
100
AcDbLine
 10
301.2292784372190
 20
212.6197464994029
 30
0.0000000000000000
 11
297.1878265529068
 21
205.6197464994292
 31
0.0000000000000000
  0
LINE
  5
1FD
100
AcDbEntity
  8
MAIN0
  6
HIDDEN
 62
3
100
AcDbLine
 10
332.2252129934812
 20
160.6197464994029
 30
0.0000000000000000
 11
332.7252129934813
 21
161.1197464994029
 31
0.0000000000000000
  0
LINE
  5
1FE
100
AcDbEntity
  8
MAIN0
  6
HIDDEN
 62
3
100
AcDbLine
 10
332.7252129934813
 20
161.1197464994029
 30
0.0000000000000000
 11
335.2252129934813
 21
161.1197464994029
 31
0.0000000000000000
  0
LINE
  5
1FF
100
AcDbEntity
  8
MAIN0
  6
HIDDEN
 62
3
100
AcDbLine
 10
335.2252129934813
 20
161.1197464994029
 30
0.0000000000000000
 11
335.7252129934812
 21
160.6197464994029
 31
0.0000000000000000
  0
LINE
  5
200
100
AcDbEntity
  8
MAIN0
  6
HIDDEN
 62
3
100
AcDbLine
 10
332.4752129934813
 20
160.8697464994029
 30
0.0000000000000000
 11
332.4752129934813
 21
166.1311255896988
 31
0.0000000000000000
  0
LINE
  5
201
100
AcDbEntity
  8
MAIN0
  6
HIDDEN
 62
3
100
AcDbLine
 10
335.4752129934813
 20
166.1263283075406
 30
0.0000000000000000
 11
335.4752129934813
 21
160.8697464994029
 31
0.0000000000000000
  0
LINE
  5
202
100
AcDbEntity
  8
MAIN0
  6
HIDDEN
 62
3
100
AcDbLine
 10
332.7252129934813
 20
161.1197464994029
 30
0.0000000000000000
 11
332.7252129934813
 21
166.0391054591805
 31
0.0000000000000000
  0
LINE
  5
203
100
AcDbEntity
  8
MAIN0
  6
HIDDEN
 62
3
100
AcDbLine
 10
335.2252129934813
 20
166.0352040697133
 30
0.0000000000000000
 11
335.2252129934813
 21
161.1197464994029
 31
0.0000000000000000
  0
LINE
  5
204
100
AcDbEntity
  8
MAIN0
  6
HIDDEN
 62
3
100
AcDbLine
 10
346.5361021259827
 20
223.1460259410050
 30
0.0000000000000000
 11
342.2758122964807
 21
220.6863464611162
 31
0.0000000000000000
  0
LINE
  5
205
100
AcDbEntity
  8
MAIN0
  6
HIDDEN
 62
3
100
AcDbLine
 10
346.8776084769288
 20
223.0545195900589
 30
0.0000000000000000
 11
342.3211205257923
 21
220.4238300449109
 31
0.0000000000000000
  0
LINE
  5
206
100
AcDbEntity
  8
MAIN0
  6
HIDDEN
 62
3
100
AcDbLine
 10
340.8252750940104
 20
223.0243048973434
 30
0.0000000000000000
 11
345.3776084769288
 21
225.6525958014123
 31
0.0000000000000000
  0
LINE
  5
207
100
AcDbEntity
  8
MAIN0
  6
HIDDEN
 62
3
100
AcDbLine
 10
341.0291909988692
 20
222.8533606653109
 30
0.0000000000000000
 11
345.2861021259827
 21
225.3110894504661
 31
0.0000000000000000
  0
LINE
  5
208
100
AcDbEntity
  8
MAIN0
  6
HIDDEN
 62
3
100
AcDbLine
 10
346.5361021259827
 20
223.1460259410050
 30
0.0000000000000000
 11
345.2861021259827
 21
225.3110894504661
 31
0.0000000000000000
  0
LINE
  5
209
100
AcDbEntity
  8
MAIN0
  6
HIDDEN
 62
3
100
AcDbLine
 10
345.2861021259826
 20
225.3110894504662
 30
0.0000000000000000
 11
345.4691148278748
 21
225.9941021523584
 31
0.0000000000000000
  0
LINE
  5
20A
100
AcDbEntity
  8
MAIN0
  6
HIDDEN
 62
3
100
AcDbLine
 10
347.2191148278748
 20
222.9630132391128
 30
0.0000000000000000
 11
346.5361021259826
 21
223.1460259410051
 31
0.0000000000000000
  0
LINE
  5
20B
100
AcDbEntity
  8
MAIN0
  6
HIDDEN
 62
3
100
AcDbLine
 10
285.9143238610720
 20
204.0934670578006
 30
0.0000000000000000
 11
290.1746136905741
 21
201.6337875779119
 31
0.0000000000000000
  0
LINE
  5
20C
100
AcDbEntity
  8
MAIN0
  6
HIDDEN
 62
3
100
AcDbLine
 10
285.8228175101260
 20
204.4349734087467
 30
0.0000000000000000
 11
290.3793054612625
 21
201.8042838635988
 31
0.0000000000000000
  0
LINE
  5
20D
100
AcDbEntity
  8
MAIN0
  6
HIDDEN
 62
3
100
AcDbLine
 10
288.8751508930444
 20
199.2086062933246
 30
0.0000000000000000
 11
284.3228175101260
 21
201.8368971973934
 31
0.0000000000000000
  0
LINE
  5
20E
100
AcDbEntity
  8
MAIN0
  6
HIDDEN
 62
3
100
AcDbLine
 10
288.9212349881855
 20
199.4706747631843
 30
0.0000000000000000
 11
284.6643238610720
 21
201.9284035483395
 31
0.0000000000000000
  0
LINE
  5
20F
100
AcDbEntity
  8
MAIN0
  6
HIDDEN
 62
3
100
AcDbLine
 10
285.9143238610720
 20
204.0934670578006
 30
0.0000000000000000
 11
284.6643238610720
 21
201.9284035483395
 31
0.0000000000000000
  0
LINE
  5
210
100
AcDbEntity
  8
MAIN0
  6
HIDDEN
 62
3
100
AcDbLine
 10
284.6643238610720
 20
201.9284035483395
 30
0.0000000000000000
 11
283.9813111591798
 21
201.7453908464473
 31
0.0000000000000000
  0
LINE
  5
211
100
AcDbEntity
  8
MAIN0
  6
HIDDEN
 62
3
100
AcDbLine
 10
285.7313111591798
 20
204.7764797596929
 30
0.0000000000000000
 11
285.9143238610720
 21
204.0934670578007
 31
0.0000000000000000
  0
LINE
  5
212
100
AcDbEntity
  8
MAIN0
  6
CONTINUOUS
 62
3
100
AcDbLine
 10
283.7819555065414
 20
162.8393962723690
 30
0.0000000000000000
 11
273.9319555065448
 21
179.9000967269243
 31
0.0000000000000000
  0
LINE
  5
213
100
AcDbEntity
  8
MAIN0
  6
CONTINUOUS
 62
3
100
AcDbLine
 10
289.5931714387403
 20
169.7740750241187
 30
0.0000000000000000
 11
282.8431714387403
 21
181.4654179752086
 31
0.0000000000000000
  0
LINE
  5
214
100
AcDbEntity
  8
MAIN0
  6
CONTINUOUS
 62
3
100
AcDbLine
 10
294.7893238614470
 20
172.7740750241187
 30
0.0000000000000000
 11
288.0393238614470
 21
184.4654179752086
 31
0.0000000000000000
  0
LINE
  5
215
100
AcDbEntity
  8
MAIN0
  6
CONTINUOUS
 62
3
100
AcDbLine
 10
301.9773347128827
 20
176.9240750241332
 30
0.0000000000000000
 11
295.2273347128839
 21
188.6154179752238
 31
0.0000000000000000
  0
LINE
  5
216
100
AcDbEntity
  8
MAIN0
  6
CONTINUOUS
 62
3
100
AcDbLine
 10
308.6457303215693
 20
180.7740750238712
 30
0.0000000000000000
 11
282.5783656680558
 21
165.7240750241010
 31
0.0000000000000000
  0
LINE
  5
217
100
AcDbEntity
  8
MAIN0
  6
CONTINUOUS
 62
3
100
AcDbLine
 10
285.3537899548779
 20
163.2850150988858
 30
0.0000000000000000
 11
284.3283656680551
 21
162.6929861108551
 31
0.0000000000000000
  0
LINE
  5
218
100
AcDbEntity
  8
MAIN0
  6
CENTER
 62
3
100
AcDbLine
 10
283.6552482005140
 20
170.0588597641706
 30
0.0000000000000000
 11
280.2163000281589
 21
176.0152927232858
 31
0.0000000000000000
  0
LINE
  5
219
100
AcDbEntity
  8
MAIN0
  6
CENTER
 62
3
100
AcDbLine
 10
297.5116546609202
 20
178.0588597640943
 30
0.0000000000000000
 11
294.0727064885627
 21
184.0152927232082
 31
0.0000000000000000
  0
LINE
  5
21A
100
AcDbEntity
  8
MAIN0
  6
CENTER
 62
3
100
AcDbLine
 10
290.8120446642099
 20
173.6629246696200
 30
0.0000000000000000
 11
287.1142514536619
 21
180.0676903861724
 31
0.0000000000000000
  0
CIRCLE
  5
21B
100
AcDbEntity
  8
MAIN0
  6
CONTINUOUS
 62
3
100
AcDbCircle
 10
288.8162476500937
 20
177.1197464996636
 30
0.0000000000000000
 40
2.500000000015270
  0
LINE
  5
21C
100
AcDbEntity
  8
MAIN0
  6
CONTINUOUS
 62
3
100
AcDbLine
 10
301.8957303215692
 20
192.4654179749610
 30
0.0000000000000000
 11
275.8283656680580
 21
177.4154179751922
 31
0.0000000000000000
  0
LINE
  5
21D
100
AcDbEntity
  8
MAIN0
  6
CONTINUOUS
 62
3
100
AcDbLine
 10
275.1037899548779
 20
181.0385358764668
 30
0.0000000000000000
 11
274.0783656680586
 21
180.4465068884381
 31
0.0000000000000000
  0
LINE
  5
21E
100
AcDbEntity
  8
MAIN0
  6
CONTINUOUS
 62
3
100
AcDbLine
 10
284.3283656680551
 20
162.6929861108551
 30
0.0000000000000000
 11
283.7819555065415
 21
162.8393962723690
 31
0.0000000000000000
  0
LINE
  5
21F
100
AcDbEntity
  8
MAIN0
  6
CONTINUOUS
 62
3
100
AcDbLine
 10
273.9319555065448
 20
179.9000967269243
 30
0.0000000000000000
 11
274.0783656680586
 21
180.4465068884381
 31
0.0000000000000000
  0
LINE
  5
220
100
AcDbEntity
  8
MAIN0
  6
CONTINUOUS
 62
3
100
AcDbLine
 10
282.5783656680558
 20
165.7240750241010
 30
0.0000000000000000
 11
282.0319555065420
 21
165.8704851856148
 31
0.0000000000000000
  0
LINE
  5
221
100
AcDbEntity
  8
MAIN0
  6
CONTINUOUS
 62
3
100
AcDbLine
 10
275.8283656680580
 20
177.4154179751923
 30
0.0000000000000000
 11
275.6819555065442
 21
176.8690078136784
 31
0.0000000000000000
  0
LINE
  5
222
100
AcDbEntity
  8
MAIN0
  6
CONTINUOUS
 62
3
100
AcDbLine
 10
369.5184704804211
 20
179.9000967269223
 30
0.0000000000000000
 11
359.6684704804177
 21
162.8393962723708
 31
0.0000000000000000
  0
LINE
  5
223
100
AcDbEntity
  8
MAIN0
  6
CONTINUOUS
 62
3
100
AcDbLine
 10
360.6072545482222
 20
181.4654179752086
 30
0.0000000000000000
 11
353.8572545482222
 21
169.7740750241187
 31
0.0000000000000000
  0
LINE
  5
224
100
AcDbEntity
  8
MAIN0
  6
CONTINUOUS
 62
3
100
AcDbLine
 10
355.4111021255155
 20
184.4654179752086
 30
0.0000000000000000
 11
348.6611021255155
 21
172.7740750241187
 31
0.0000000000000000
  0
LINE
  5
225
100
AcDbEntity
  8
MAIN0
  6
CONTINUOUS
 62
3
100
AcDbLine
 10
348.2230912740797
 20
188.6154179752229
 30
0.0000000000000000
 11
341.4730912740786
 21
176.9240750241337
 31
0.0000000000000000
  0
LINE
  5
226
100
AcDbEntity
  8
MAIN0
  6
CONTINUOUS
 62
3
100
AcDbLine
 10
341.5546956653933
 20
192.4654179749610
 30
0.0000000000000000
 11
367.6220603189067
 21
177.4154179751909
 31
0.0000000000000000
  0
LINE
  5
227
100
AcDbEntity
  8
MAIN0
  6
CONTINUOUS
 62
3
100
AcDbLine
 10
368.3466360320846
 20
181.0385358764668
 30
0.0000000000000000
 11
369.3720603189073
 21
180.4465068884361
 31
0.0000000000000000
  0
LINE
  5
228
100
AcDbEntity
  8
MAIN0
  6
CENTER
 62
3
100
AcDbLine
 10
363.3295853478402
 20
176.1806332351567
 30
0.0000000000000000
 11
359.8906371754852
 21
170.2242002760415
 31
0.0000000000000000
  0
LINE
  5
229
100
AcDbEntity
  8
MAIN0
  6
CENTER
 62
3
100
AcDbLine
 10
349.4731788874277
 20
184.1806332350694
 30
0.0000000000000000
 11
346.0342307150750
 21
178.2242002759529
 31
0.0000000000000000
  0
LINE
  5
22A
100
AcDbEntity
  8
MAIN0
  6
CENTER
 62
3
100
AcDbLine
 10
356.6299753509851
 20
180.5765683297072
 30
0.0000000000000000
 11
352.9321821404371
 21
174.1718026131549
 31
0.0000000000000000
  0
CIRCLE
  5
22B
100
AcDbEntity
  8
MAIN0
  6
CONTINUOUS
 62
3
100
AcDbCircle
 10
354.6341783368688
 20
177.1197464996636
 30
0.0000000000000000
 40
2.500000000015270
  0
LINE
  5
22C
100
AcDbEntity
  8
MAIN0
  6
CONTINUOUS
 62
3
100
AcDbLine
 10
334.8046956653934
 20
180.7740750238711
 30
0.0000000000000000
 11
360.8720603189045
 21
165.7240750241023
 31
0.0000000000000000
  0
LINE
  5
22D
100
AcDbEntity
  8
MAIN0
  6
CONTINUOUS
 62
3
100
AcDbLine
 10
358.0966360320846
 20
163.2850150988858
 30
0.0000000000000000
 11
359.1220603189039
 21
162.6929861108571
 31
0.0000000000000000
  0
LINE
  5
22E
100
AcDbEntity
  8
MAIN0
  6
CONTINUOUS
 62
3
100
AcDbLine
 10
369.3720603189073
 20
180.4465068884361
 30
0.0000000000000000
 11
369.5184704804210
 21
179.9000967269224
 31
0.0000000000000000
  0
LINE
  5
22F
100
AcDbEntity
  8
MAIN0
  6
CONTINUOUS
 62
3
100
AcDbLine
 10
359.6684704804177
 20
162.8393962723708
 30
0.0000000000000000
 11
359.1220603189038
 21
162.6929861108571
 31
0.0000000000000000
  0
LINE
  5
230
100
AcDbEntity
  8
MAIN0
  6
CONTINUOUS
 62
3
100
AcDbLine
 10
367.6220603189067
 20
177.4154179751909
 30
0.0000000000000000
 11
367.7684704804204
 21
176.8690078136772
 31
0.0000000000000000
  0
LINE
  5
231
100
AcDbEntity
  8
MAIN0
  6
CONTINUOUS
 62
3
100
AcDbLine
 10
360.8720603189045
 20
165.7240750241023
 30
0.0000000000000000
 11
361.4184704804183
 21
165.8704851856161
 31
0.0000000000000000
  0
CIRCLE
  5
232
100
AcDbEntity
  8
MAIN0
  6
CONTINUOUS
 62
3
100
AcDbCircle
 10
86.72521299349160
 20
196.1197464994208
 30
0.0000000000000000
 40
16.99999999999979
  0
CIRCLE
  5
233
100
AcDbEntity
  8
MAIN0
  6
CONTINUOUS
 62
3
100
AcDbCircle
 10
86.72521299349160
 20
196.1197464994208
 30
0.0000000000000000
 40
16.20000000001143
  0
CIRCLE
  5
234
100
AcDbEntity
  8
MAIN0
  6
CONTINUOUS
 62
3
100
AcDbCircle
 10
106.6437972805337
 20
207.6197464994209
 30
0.0000000000000000
 40
4.749999999999996
  0
ARC
  5
235
100
AcDbEntity
  8
MAIN0
  6
CONTINUOUS
 62
3
100
AcDbCircle
 10
86.72521299349160
 20
196.1197464994210
 30
0.0000000000000000
 40
32.50000000000000
100
AcDbArc
 50
67.84730530352731
 51
112.1526946964725
  0
ARC
  5
236
100
AcDbEntity
  8
MAIN0
  6
CONTINUOUS
 62
3
100
AcDbCircle
 10
103.9752129938212
 20
225.9976229297946
 30
0.0000000000000000
 40
5.000000000000000
100
AcDbArc
 50
177.4432332015418
 51
239.9999999993683
  0
ARC
  5
237
100
AcDbEntity
  8
MAIN0
  6
CONTINUOUS
 62
3
100
AcDbCircle
 10
86.72521299349160
 20
196.1197464994210
 30
0.0000000000000000
 40
32.50000000000000
100
AcDbArc
 50
307.8473053042837
 51
352.1526946957134
  0
CIRCLE
  5
238
100
AcDbEntity
  8
MAIN0
  6
CONTINUOUS
 62
3
100
AcDbCircle
 10
86.72521299349162
 20
173.1197464994209
 30
0.0000000000000000
 40
4.749999999999996
  0
ARC
  5
239
100
AcDbEntity
  8
MAIN0
  6
CONTINUOUS
 62
3
100
AcDbCircle
 10
52.22521299349091
 20
196.1197464998012
 30
0.0000000000000000
 40
5.000000000000000
100
AcDbArc
 50
297.4432332015418
 51
359.9999999993684
  0
ARC
  5
23A
100
AcDbEntity
  8
MAIN0
  6
CONTINUOUS
 62
3
100
AcDbCircle
 10
86.72521299349160
 20
196.1197464994210
 30
0.0000000000000000
 40
32.50000000000000
100
AcDbArc
 50
187.8473053035274
 51
232.1526946952479
  0
CIRCLE
  5
23B
100
AcDbEntity
  8
MAIN0
  6
CONTINUOUS
 62
3
100
AcDbCircle
 10
66.80662870644952
 20
207.6197464994209
 30
0.0000000000000000
 40
4.749999999999996
  0
CIRCLE
  5
23C
100
AcDbEntity
  8
MAIN0
  6
CENTER
 62
3
100
AcDbCircle
 10
86.72521299349154
 20
196.1197464994209
 30
0.0000000000000000
 40
23.00000000000000
  0
ARC
  5
23D
100
AcDbEntity
  8
MAIN0
  6
CONTINUOUS
 62
3
100
AcDbCircle
 10
86.72521299349160
 20
196.1197464994210
 30
0.0000000000000000
 40
29.50000000000000
100
AcDbArc
 50
0.0000000000000000
 51
59.99999999936861
  0
ARC
  5
23E
100
AcDbEntity
  8
MAIN0
  6
HIDDEN
 62
3
100
AcDbCircle
 10
86.72521299349160
 20
196.1197464994210
 30
0.0000000000000000
 40
29.50000000000000
100
AcDbArc
 50
59.99999999936861
 51
120.0000000006313
  0
ARC
  5
23F
100
AcDbEntity
  8
MAIN0
  6
CONTINUOUS
 62
3
100
AcDbCircle
 10
86.72521299349137
 20
196.1197464994209
 30
0.0000000000000000
 40
29.50000000000000
100
AcDbArc
 50
120.0000000006309
 51
179.9999999993686
  0
ARC
  5
240
100
AcDbEntity
  8
MAIN0
  6
HIDDEN
 62
3
100
AcDbCircle
 10
86.72521299349137
 20
196.1197464994209
 30
0.0000000000000000
 40
29.50000000000000
100
AcDbArc
 50
179.9999999993686
 51
239.9999999994670
  0
ARC
  5
241
100
AcDbEntity
  8
MAIN0
  6
CONTINUOUS
 62
3
100
AcDbCircle
 10
86.72521299349160
 20
196.1197464994208
 30
0.0000000000000000
 40
29.50000000000000
100
AcDbArc
 50
239.9999999992690
 51
299.9999999993686
  0
ARC
  5
242
100
AcDbEntity
  8
MAIN0
  6
HIDDEN
 62
3
100
AcDbCircle
 10
86.72521299349160
 20
196.1197464994208
 30
0.0000000000000000
 40
29.50000000000000
100
AcDbArc
 50
299.9999999999506
 51
360.0000000000000
  0
CIRCLE
  5
243
100
AcDbEntity
  8
MAIN0
  6
CONTINUOUS
 62
3
100
AcDbCircle
 10
106.6437972805336
 20
207.6197464994209
 30
0.0000000000000000
 40
4.250000000000000
  0
LINE
  5
244
100
AcDbEntity
  8
MAIN0
  6
CONTINUOUS
 62
3
100
AcDbLine
 10
108.6437972805336
 20
208.7744470378002
 30
0.0000000000000000
 11
106.6437972805336
 21
209.9291475761794
 31
0.0000000000000000
  0
LINE
  5
245
100
AcDbEntity
  8
MAIN0
  6
CONTINUOUS
 62
3
100
AcDbLine
 10
106.6437972805336
 20
209.9291475761794
 30
0.0000000000000000
 11
104.6437972805336
 21
208.7744470378002
 31
0.0000000000000000
  0
LINE
  5
246
100
AcDbEntity
  8
MAIN0
  6
CONTINUOUS
 62
3
100
AcDbLine
 10
104.6437972805336
 20
208.7744470378001
 30
0.0000000000000000
 11
104.6437972805336
 21
206.4650459610417
 31
0.0000000000000000
  0
LINE
  5
247
100
AcDbEntity
  8
MAIN0
  6
CONTINUOUS
 62
3
100
AcDbLine
 10
104.6437972805336
 20
206.4650459610417
 30
0.0000000000000000
 11
106.6437972805336
 21
205.3103454226624
 31
0.0000000000000000
  0
LINE
  5
248
100
AcDbEntity
  8
MAIN0
  6
CONTINUOUS
 62
3
100
AcDbLine
 10
106.6437972805336
 20
205.3103454226624
 30
0.0000000000000000
 11
108.6437972805336
 21
206.4650459610417
 31
0.0000000000000000
  0
LINE
  5
249
100
AcDbEntity
  8
MAIN0
  6
CONTINUOUS
 62
3
100
AcDbLine
 10
108.6437972805336
 20
206.4650459610416
 30
0.0000000000000000
 11
108.6437972805336
 21
208.7744470378001
 31
0.0000000000000000
  0
ARC
  5
24A
100
AcDbEntity
  8
MAIN0
  6
CONTINUOUS
 62
3
100
AcDbCircle
 10
69.47521299316207
 20
225.9976229297946
 30
0.0000000000000000
 40
5.000000000000000
100
AcDbArc
 50
300.0000000006315
 51
362.5567667984580
  0
ARC
  5
24B
100
AcDbEntity
  8
MAIN0
  6
CONTINUOUS
 62
3
100
AcDbCircle
 10
69.47521299321295
 20
166.2418700690176
 30
0.0000000000000000
 40
5.000000000000000
100
AcDbArc
 50
60.00000000063146
 51
122.5567667984579
  0
ARC
  5
24C
100
AcDbEntity
  8
MAIN0
  6
CONTINUOUS
 62
3
100
AcDbCircle
 10
121.2252129928851
 20
196.1197464994501
 30
0.0000000000000000
 40
5.000000000000000
100
AcDbArc
 50
180.0000000006315
 51
242.5567667984579
  0
LINE
  5
24D
100
AcDbEntity
  8
MAIN0
  6
CONTINUOUS
 62
3
100
AcDbLine
 10
96.52521299349169
 20
245.6197464989750
 30
0.0000000000000000
 11
76.92521299349164
 21
245.6197464989750
 31
0.0000000000000000
  0
LINE
  5
24E
100
AcDbEntity
  8
MAIN0
  6
CONTINUOUS
 62
3
100
AcDbLine
 10
96.92521299349167
 20
244.0463570618210
 30
0.0000000000000000
 11
96.92521299349167
 21
245.2197464989751
 31
0.0000000000000000
  0
LINE
  5
24F
100
AcDbEntity
  8
MAIN0
  6
CONTINUOUS
 62
3
100
AcDbLine
 10
96.92521299349164
 20
245.2197464989754
 30
0.0000000000000000
 11
96.52521299349172
 21
245.6197464989754
 31
0.0000000000000000
  0
LINE
  5
250
100
AcDbEntity
  8
MAIN0
  6
CONTINUOUS
 62
3
100
AcDbLine
 10
92.72521299349171
 20
208.4197464987888
 30
0.0000000000000000
 11
93.05218001003351
 21
208.6085209938053
 31
0.0000000000000000
  0
LINE
  5
251
100
AcDbEntity
  8
MAIN0
  6
CONTINUOUS
 62
3
100
AcDbLine
 10
80.72521299349191
 20
208.4197464987888
 30
0.0000000000000000
 11
80.39824597694994
 21
208.6085209938055
 31
0.0000000000000000
  0
LINE
  5
252
100
AcDbEntity
  8
MAIN0
  6
CONTINUOUS
 62
3
100
AcDbLine
 10
76.52521299349166
 20
244.0463570618211
 30
0.0000000000000000
 11
76.52521299349166
 21
245.2197464989751
 31
0.0000000000000000
  0
LINE
  5
253
100
AcDbEntity
  8
MAIN0
  6
CONTINUOUS
 62
3
100
AcDbLine
 10
76.52521299349181
 20
245.2197464989749
 30
0.0000000000000000
 11
76.92521299349176
 21
245.6197464989749
 31
0.0000000000000000
  0
LINE
  5
254
100
AcDbEntity
  8
MAIN0
  6
CONTINUOUS
 62
3
100
AcDbLine
 10
92.72521299349165
 20
208.4197464987887
 30
0.0000000000000000
 11
89.35021299349162
 21
208.4197464987887
 31
0.0000000000000000
  0
LINE
  5
255
100
AcDbEntity
  8
MAIN0
  6
CONTINUOUS
 62
3
100
AcDbLine
 10
84.10021299349160
 20
208.4197464987887
 30
0.0000000000000000
 11
80.72521299349182
 21
208.4197464987887
 31
0.0000000000000000
  0
LINE
  5
256
100
AcDbEntity
  8
MAIN0
  6
CONTINUOUS
 62
3
100
AcDbLine
 10
84.10021299349160
 20
208.4197464987885
 30
0.0000000000000000
 11
84.10021299349160
 21
209.8714509392348
 31
0.0000000000000000
  0
LINE
  5
257
100
AcDbEntity
  8
MAIN0
  6
CONTINUOUS
 62
3
100
AcDbLine
 10
89.35021299349162
 20
208.4197464987885
 30
0.0000000000000000
 11
89.35021299349162
 21
209.8714509392348
 31
0.0000000000000000
  0
LINE
  5
258
100
AcDbEntity
  8
MAIN0
  6
CONTINUOUS
 62
3
100
AcDbLine
 10
38.95695550594058
 20
179.8567954570819
 30
0.0000000000000000
 11
48.75695550594060
 21
162.8826975429068
 31
0.0000000000000000
  0
LINE
  5
259
100
AcDbEntity
  8
MAIN0
  6
CONTINUOUS
 62
3
100
AcDbLine
 10
40.11955072856199
 20
180.9899003371726
 30
0.0000000000000000
 11
39.10336566745426
 21
180.4032056185956
 31
0.0000000000000000
  0
LINE
  5
25A
100
AcDbEntity
  8
MAIN0
  6
CONTINUOUS
 62
3
100
AcDbLine
 10
39.10336566745400
 20
180.4032056185955
 30
0.0000000000000000
 11
38.95695550594022
 21
179.8567954570817
 31
0.0000000000000000
  0
LINE
  5
25B
100
AcDbEntity
  8
MAIN0
  6
CONTINUOUS
 62
3
100
AcDbLine
 10
73.07310052688291
 20
195.1658989227942
 30
0.0000000000000000
 11
72.74613351034111
 21
195.3546734178107
 31
0.0000000000000000
  0
LINE
  5
25C
100
AcDbEntity
  8
MAIN0
  6
CONTINUOUS
 62
3
100
AcDbLine
 10
79.07310052688280
 20
184.7735940773810
 30
0.0000000000000000
 11
79.07310052688280
 21
184.3960450873477
 31
0.0000000000000000
  0
LINE
  5
25D
100
AcDbEntity
  8
MAIN0
  6
CONTINUOUS
 62
3
100
AcDbLine
 10
50.31955072856198
 20
163.3229820999700
 30
0.0000000000000000
 11
49.30336566745427
 21
162.7362873813930
 31
0.0000000000000000
  0
LINE
  5
25E
100
AcDbEntity
  8
MAIN0
  6
CONTINUOUS
 62
3
100
AcDbLine
 10
49.30336566745436
 20
162.7362873813933
 30
0.0000000000000000
 11
48.75695550594065
 21
162.8826975429070
 31
0.0000000000000000
  0
LINE
  5
25F
100
AcDbEntity
  8
MAIN0
  6
CONTINUOUS
 62
3
100
AcDbLine
 10
73.07310052688302
 20
195.1658989227941
 30
0.0000000000000000
 11
74.76060052688305
 21
192.2430631850216
 31
0.0000000000000000
  0
LINE
  5
260
100
AcDbEntity
  8
MAIN0
  6
CONTINUOUS
 62
3
100
AcDbLine
 10
77.38560052688308
 20
187.6964298151533
 30
0.0000000000000000
 11
79.07310052688297
 21
184.7735940773810
 31
0.0000000000000000
  0
LINE
  5
261
100
AcDbEntity
  8
MAIN0
  6
CONTINUOUS
 62
3
100
AcDbLine
 10
77.38560052688325
 20
187.6964298151534
 30
0.0000000000000000
 11
76.12838760267010
 21
186.9705775949303
 31
0.0000000000000000
  0
LINE
  5
262
100
AcDbEntity
  8
MAIN0
  6
CONTINUOUS
 62
3
100
AcDbLine
 10
74.76060052688322
 20
192.2430631850217
 30
0.0000000000000000
 11
73.50338760267010
 21
191.5172109647986
 31
0.0000000000000000
  0
LINE
  5
263
100
AcDbEntity
  8
MAIN0
  6
CONTINUOUS
 62
3
100
AcDbLine
 10
124.6934704798278
 20
162.8826975422054
 30
0.0000000000000000
 11
134.4934704798278
 21
179.8567954563805
 31
0.0000000000000000
  0
LINE
  5
264
100
AcDbEntity
  8
MAIN0
  6
CONTINUOUS
 62
3
100
AcDbLine
 10
123.1308752572064
 20
163.3229820992686
 30
0.0000000000000000
 11
124.1470603183142
 21
162.7362873806916
 31
0.0000000000000000
  0
LINE
  5
265
100
AcDbEntity
  8
MAIN0
  6
CONTINUOUS
 62
3
100
AcDbLine
 10
124.1470603183144
 20
162.7362873806915
 30
0.0000000000000000
 11
124.6934704798281
 21
162.8826975422052
 31
0.0000000000000000
  0
LINE
  5
266
100
AcDbEntity
  8
MAIN0
  6
CONTINUOUS
 62
3
100
AcDbLine
 10
94.37732545888548
 20
184.7735940766794
 30
0.0000000000000000
 11
94.37732545888551
 21
184.3960450866463
 31
0.0000000000000000
  0
LINE
  5
267
100
AcDbEntity
  8
MAIN0
  6
CONTINUOUS
 62
3
100
AcDbLine
 10
100.3773254588854
 20
195.1658989220925
 30
0.0000000000000000
 11
100.7042924754274
 21
195.3546734171091
 31
0.0000000000000000
  0
LINE
  5
268
100
AcDbEntity
  8
MAIN0
  6
CONTINUOUS
 62
3
100
AcDbLine
 10
133.3308752572065
 20
180.9899003364712
 30
0.0000000000000000
 11
134.3470603183142
 21
180.4032056178941
 31
0.0000000000000000
  0
LINE
  5
269
100
AcDbEntity
  8
MAIN0
  6
CONTINUOUS
 62
3
100
AcDbLine
 10
134.3470603183139
 20
180.4032056178941
 30
0.0000000000000000
 11
134.4934704798277
 21
179.8567954563804
 31
0.0000000000000000
  0
LINE
  5
26A
100
AcDbEntity
  8
MAIN0
  6
CONTINUOUS
 62
3
100
AcDbLine
 10
94.37732545888542
 20
184.7735940766794
 30
0.0000000000000000
 11
96.06482545888545
 21
187.6964298144520
 31
0.0000000000000000
  0
LINE
  5
26B
100
AcDbEntity
  8
MAIN0
  6
CONTINUOUS
 62
3
100
AcDbLine
 10
98.68982545888548
 20
192.2430631843203
 30
0.0000000000000000
 11
100.3773254588854
 21
195.1658989220926
 31
0.0000000000000000
  0
LINE
  5
26C
100
AcDbEntity
  8
MAIN0
  6
CONTINUOUS
 62
3
100
AcDbLine
 10
98.68982545888528
 20
192.2430631843204
 30
0.0000000000000000
 11
99.94703838309840
 21
191.5172109640973
 31
0.0000000000000000
  0
LINE
  5
26D
100
AcDbEntity
  8
MAIN0
  6
CONTINUOUS
 62
3
100
AcDbLine
 10
96.06482545888525
 20
187.6964298144521
 30
0.0000000000000000
 11
97.32203838309840
 21
186.9705775942290
 31
0.0000000000000000
  0
LINE
  5
26E
100
AcDbEntity
  8
MAIN0
  6
CONTINUOUS
 62
3
100
AcDbLine
 10
91.47521299347687
 20
209.2893136904920
 30
0.0000000000000000
 11
91.47521299347707
 21
209.1197464996645
 31
0.0000000000000000
  0
LINE
  5
26F
100
AcDbEntity
  8
MAIN0
  6
CONTINUOUS
 62
3
100
AcDbLine
 10
81.97521299347702
 20
209.2893136904814
 30
0.0000000000000000
 11
81.97521299347721
 21
209.1197464996546
 31
0.0000000000000000
  0
LINE
  5
270
100
AcDbEntity
  8
MAIN0
  6
CONTINUOUS
 62
3
100
AcDbLine
 10
83.47521299349680
 20
191.3566067788367
 30
0.0000000000000000
 11
83.47521299349975
 21
188.7003462543481
 31
0.0000000000000000
  0
LINE
  5
271
100
AcDbEntity
  8
MAIN0
  6
CONTINUOUS
 62
3
100
AcDbLine
 10
89.97521299349680
 20
191.3566067788437
 30
0.0000000000000000
 11
89.97521299349975
 21
188.7003462543553
 31
0.0000000000000000
  0
LINE
  5
272
100
AcDbEntity
  8
MAIN0
  6
CONTINUOUS
 62
3
100
AcDbLine
 10
92.47521299349199
 20
195.6867337977687
 30
0.0000000000000000
 11
94.77560208676732
 21
197.0148640600154
 31
0.0000000000000000
  0
LINE
  5
273
100
AcDbEntity
  8
MAIN0
  6
CONTINUOUS
 62
3
100
AcDbLine
 10
89.22521299348585
 20
201.3158989223640
 30
0.0000000000000000
 11
91.52560208676107
 21
202.6440291846107
 31
0.0000000000000000
  0
LINE
  5
274
100
AcDbEntity
  8
MAIN0
  6
CONTINUOUS
 62
3
100
AcDbLine
 10
84.22521299348594
 20
201.3158989223584
 30
0.0000000000000000
 11
81.92482390020763
 21
202.6440291846001
 31
0.0000000000000000
  0
LINE
  5
275
100
AcDbEntity
  8
MAIN0
  6
CONTINUOUS
 62
3
100
AcDbLine
 10
80.97521299349202
 20
195.6867337977561
 30
0.0000000000000000
 11
78.67482390021382
 21
197.0148640599977
 31
0.0000000000000000
  0
ARC
  5
276
100
AcDbEntity
  8
MAIN0
  6
CONTINUOUS
 62
3
100
AcDbCircle
 10
94.97521299349685
 20
191.3566067788493
 30
0.0000000000000000
 40
5.000000000000000
100
AcDbArc
 50
120.0000000000635
 51
180.0000000000000
  0
ARC
  5
277
100
AcDbEntity
  8
MAIN0
  6
CONTINUOUS
 62
3
100
AcDbCircle
 10
78.47521299349685
 20
191.3566067788311
 30
0.0000000000000000
 40
5.000000000000000
100
AcDbArc
 50
0.0000000000000000
 51
60.00000000006369
  0
ARC
  5
278
100
AcDbEntity
  8
MAIN0
  6
CONTINUOUS
 62
3
100
AcDbCircle
 10
86.72521299349157
 20
196.1197464996545
 30
0.0000000000000000
 40
8.100000000000023
100
AcDbArc
 50
246.3446200079511
 51
293.6553799921762
  0
ARC
  5
279
100
AcDbEntity
  8
MAIN0
  6
CONTINUOUS
 62
3
100
AcDbCircle
 10
86.72521299349157
 20
196.1197464996545
 30
0.0000000000000000
 40
8.100000000000023
100
AcDbArc
 50
6.344620007950876
 51
53.65537999217597
  0
ARC
  5
27A
100
AcDbEntity
  8
MAIN0
  6
CONTINUOUS
 62
3
100
AcDbCircle
 10
86.72521299349157
 20
196.1197464996545
 30
0.0000000000000000
 40
8.100000000000023
100
AcDbArc
 50
126.3446200079503
 51
173.6553799921758
  0
ARC
  5
27B
100
AcDbEntity
  8
MAIN0
  6
CONTINUOUS
 62
3
100
AcDbCircle
 10
86.72521299349157
 20
196.1197464996545
 30
0.0000000000000000
 40
6.000000000000000
100
AcDbArc
 50
62.79716829588679
 51
117.2028317042390
  0
ARC
  5
27C
100
AcDbEntity
  8
MAIN0
  6
CONTINUOUS
 62
3
100
AcDbCircle
 10
86.72521299349157
 20
196.1197464996545
 30
0.0000000000000000
 40
6.000000000000000
100
AcDbArc
 50
182.7971682958868
 51
237.2028317042390
  0
ARC
  5
27D
100
AcDbEntity
  8
MAIN0
  6
CONTINUOUS
 62
3
100
AcDbCircle
 10
86.72521299349157
 20
196.1197464996545
 30
0.0000000000000000
 40
6.000000000000000
100
AcDbArc
 50
302.7971682958868
 51
357.2028317042389
  0
ARC
  5
27E
100
AcDbEntity
  8
MAIN0
  6
CONTINUOUS
 62
3
100
AcDbCircle
 10
86.72521299348105
 20
205.6460259412834
 30
0.0000000000000000
 40
5.000000000000000
100
AcDbArc
 50
240.0000000000638
 51
300.0000000000641
  0
LINE
  5
27F
100
AcDbEntity
  8
MAIN0
  6
CONTINUOUS
 62
3
100
AcDbLine
 10
81.52906057136977
 20
209.1197464996545
 30
0.0000000000000000
 11
84.02521299347654
 21
209.1197464996545
 31
0.0000000000000000
  0
LINE
  5
280
100
AcDbEntity
  8
MAIN0
  6
CONTINUOUS
 62
3
100
AcDbLine
 10
84.02521299347626
 20
209.8569223372674
 30
0.0000000000000000
 11
84.02521299347708
 21
209.1197464996545
 31
0.0000000000000000
  0
LINE
  5
281
100
AcDbEntity
  8
MAIN0
  6
CONTINUOUS
 62
3
100
AcDbLine
 10
89.42521299347627
 20
209.8569223372734
 30
0.0000000000000000
 11
89.42521299347709
 21
209.1197464996606
 31
0.0000000000000000
  0
LINE
  5
282
100
AcDbEntity
  8
MAIN0
  6
CONTINUOUS
 62
3
100
AcDbLine
 10
91.92136541558449
 20
209.1197464996661
 30
0.0000000000000000
 11
89.42521299347763
 21
209.1197464996606
 31
0.0000000000000000
  0
LINE
  5
283
100
AcDbEntity
  8
MAIN0
  6
CONTINUOUS
 62
3
100
AcDbLine
 10
78.06495895535474
 20
185.1197465001610
 30
0.0000000000000000
 11
76.81688274430135
 21
187.2814779094236
 31
0.0000000000000000
  0
LINE
  5
284
100
AcDbEntity
  8
MAIN0
  6
CONTINUOUS
 62
3
100
AcDbLine
 10
77.69503324939672
 20
185.4213422362524
 30
0.0000000000000000
 11
77.84188274430107
 21
185.5061258316660
 31
0.0000000000000000
  0
LINE
  5
285
100
AcDbEntity
  8
MAIN0
  6
CONTINUOUS
 62
3
100
AcDbLine
 10
76.17846974187273
 20
186.9128899906169
 30
0.0000000000000000
 11
76.81688274430113
 21
187.2814779094240
 31
0.0000000000000000
  0
LINE
  5
286
100
AcDbEntity
  8
MAIN0
  6
CONTINUOUS
 62
3
100
AcDbLine
 10
73.47846974186749
 20
191.5894271710498
 30
0.0000000000000000
 11
74.11688274429588
 21
191.9580150898570
 31
0.0000000000000000
  0
LINE
  5
287
100
AcDbEntity
  8
MAIN0
  6
CONTINUOUS
 62
3
100
AcDbLine
 10
72.86880653323743
 20
194.1197464991172
 30
0.0000000000000000
 11
74.11688274429565
 21
191.9580150898574
 31
0.0000000000000000
  0
LINE
  5
288
100
AcDbEntity
  8
MAIN0
  6
CONTINUOUS
 62
3
100
AcDbLine
 10
72.94503324938762
 20
193.6485835721992
 30
0.0000000000000000
 11
73.09188274429249
 21
193.7333671676131
 31
0.0000000000000000
  0
LINE
  5
289
100
AcDbEntity
  8
MAIN0
  6
CONTINUOUS
 62
3
100
AcDbLine
 10
100.5816194537501
 20
194.1197464991481
 30
0.0000000000000000
 11
99.33354324269675
 21
191.9580150898856
 31
0.0000000000000000
  0
LINE
  5
28A
100
AcDbEntity
  8
MAIN0
  6
CONTINUOUS
 62
3
100
AcDbLine
 10
100.5053927376010
 20
193.6485835722297
 30
0.0000000000000000
 11
100.3585432426965
 21
193.7333671676430
 31
0.0000000000000000
  0
LINE
  5
28B
100
AcDbEntity
  8
MAIN0
  6
CONTINUOUS
 62
3
100
AcDbLine
 10
99.97195624512574
 20
191.5894271710794
 30
0.0000000000000000
 11
99.33354324269652
 21
191.9580150898851
 31
0.0000000000000000
  0
LINE
  5
28C
100
AcDbEntity
  8
MAIN0
  6
CONTINUOUS
 62
3
100
AcDbLine
 10
97.27195624513095
 20
186.9128899906404
 30
0.0000000000000000
 11
96.63354324270171
 21
187.2814779094461
 31
0.0000000000000000
  0
LINE
  5
28D
100
AcDbEntity
  8
MAIN0
  6
CONTINUOUS
 62
3
100
AcDbLine
 10
95.38546703165284
 20
185.1197465001802
 30
0.0000000000000000
 11
96.63354324270145
 21
187.2814779094456
 31
0.0000000000000000
  0
LINE
  5
28E
100
AcDbEntity
  8
MAIN0
  6
CONTINUOUS
 62
3
100
AcDbLine
 10
95.75539273761021
 20
185.4213422362724
 30
0.0000000000000000
 11
95.60854324270520
 21
185.5061258316860
 31
0.0000000000000000
  0
LINE
  5
28F
100
AcDbEntity
  8
MAIN0
  6
CONTINUOUS
 62
3
100
AcDbLine
 10
317.6837611094775
 20
170.1197464996076
 30
0.0000000000000000
 11
325.7666648774850
 21
170.1197464996076
 31
0.0000000000000000
  0
LINE
  5
290
100
AcDbEntity
  8
MAIN0
  6
CONTINUOUS
 62
3
100
AcDbLine
 10
346.2625994338245
 20
205.6197464997943
 30
0.0000000000000000
 11
342.2211475496050
 21
212.6197464996075
 31
0.0000000000000000
  0
LINE
  5
291
100
AcDbEntity
  8
MAIN0
  6
CONTINUOUS
 62
3
100
AcDbLine
 10
303.8273546484952
 20
214.1197464996075
 30
0.0000000000000000
 11
339.6230713382516
 21
214.1197464996075
 31
0.0000000000000000
  0
CIRCLE
  5
292
100
AcDbEntity
  8
MAIN0
  6
CONTINUOUS
 62
3
100
AcDbCircle
 10
321.7252129933734
 20
174.1197464996075
 30
0.0000000000000000
 40
3.250000000000000
  0
ARC
  5
293
100
AcDbEntity
  8
MAIN0
  6
CENTER
 62
3
100
AcDbCircle
 10
321.7252129934813
 20
196.1197464994206
 30
0.0000000000000000
 40
22.00000000000000
100
AcDbArc
 50
17.34003380539262
 51
41.51952016129096
  0
CIRCLE
  5
294
100
AcDbEntity
  8
MAIN0
  6
CONTINUOUS
 62
3
100
AcDbCircle
 10
340.7777718766310
 20
207.1197464996075
 30
0.0000000000000000
 40
3.250000000000000
  0
ARC
  5
295
100
AcDbEntity
  8
MAIN0
  6
CENTER
 62
3
100
AcDbCircle
 10
321.7252129934813
 20
196.1197464997944
 30
0.0000000000000000
 40
22.00000000000000
100
AcDbArc
 50
137.3400338053926
 51
161.5195201612909
  0
CIRCLE
  5
296
100
AcDbEntity
  8
MAIN0
  6
CONTINUOUS
 62
3
100
AcDbCircle
 10
302.6726541101158
 20
207.1197464996075
 30
0.0000000000000000
 40
3.250000000000000
  0
CIRCLE
  5
297
100
AcDbEntity
  8
MAIN0
  6
CONTINUOUS
 62
3
100
AcDbCircle
 10
321.7252129933734
 20
174.1197464996075
 30
0.0000000000000000
 40
3.000000000000000
  0
LINE
  5
298
100
AcDbEntity
  8
MAIN0
  6
CONTINUOUS
 62
3
100
AcDbLine
 10
322.9626498604499
 20
175.3571833666840
 30
0.0000000000000000
 11
320.4877761262969
 21
172.8823096325311
 31
0.0000000000000000
  0
LINE
  5
299
100
AcDbEntity
  8
MAIN0
  6
CONTINUOUS
 62
3
100
AcDbLine
 10
322.9626498604499
 20
172.8823096325311
 30
0.0000000000000000
 11
320.4877761262969
 21
175.3571833666840
 31
0.0000000000000000
  0
CIRCLE
  5
29A
100
AcDbEntity
  8
MAIN0
  6
CONTINUOUS
 62
3
100
AcDbCircle
 10
340.7777718763074
 20
207.1197464997944
 30
0.0000000000000000
 40
3.000000000000000
  0
LINE
  5
29B
100
AcDbEntity
  8
MAIN0
  6
CONTINUOUS
 62
3
100
AcDbLine
 10
339.0874016803014
 20
207.5726798287238
 30
0.0000000000000000
 11
342.4681420723131
 21
206.6668131708650
 31
0.0000000000000000
  0
LINE
  5
29C
100
AcDbEntity
  8
MAIN0
  6
CONTINUOUS
 62
3
100
AcDbLine
 10
341.2307052052368
 20
208.8101166958003
 30
0.0000000000000000
 11
340.3248385473779
 21
205.4293763037886
 31
0.0000000000000000
  0
CIRCLE
  5
29D
100
AcDbEntity
  8
MAIN0
  6
CONTINUOUS
 62
3
100
AcDbCircle
 10
302.6726541097922
 20
207.1197464994207
 30
0.0000000000000000
 40
3.000000000000000
  0
LINE
  5
29E
100
AcDbEntity
  8
MAIN0
  6
CONTINUOUS
 62
3
100
AcDbLine
 10
303.1255874387216
 20
205.4293763034148
 30
0.0000000000000000
 11
302.2197207808628
 21
208.8101166954265
 31
0.0000000000000000
  0
LINE
  5
29F
100
AcDbEntity
  8
MAIN0
  6
CONTINUOUS
 62
3
100
AcDbLine
 10
300.9822839137862
 20
206.6668131704912
 30
0.0000000000000000
 11
304.3630243057980
 21
207.5726798283501
 31
0.0000000000000000
  0
LINE
  5
2A0
100
AcDbEntity
  8
MAIN0
  6
CONTINUOUS
 62
3
100
AcDbLine
 10
315.0856848981242
 20
171.6197464996075
 30
0.0000000000000000
 11
297.1878265530302
 21
202.6197464999812
 31
0.0000000000000000
  0
LINE
  5
2A1
100
AcDbEntity
  8
MAIN0
  6
CONTINUOUS
 62
3
100
AcDbLine
 10
346.2625994338245
 20
202.6197464997943
 30
0.0000000000000000
 11
328.3647410888382
 21
171.6197464996076
 31
0.0000000000000000
  0
ARC
  5
2A2
100
AcDbEntity
  8
MAIN0
  6
CONTINUOUS
 62
3
100
AcDbCircle
 10
339.6230713382516
 20
211.1197464996075
 30
0.0000000000000000
 40
3.000000000000000
100
AcDbArc
 50
29.99999999999986
 51
90.00000000000000
  0
ARC
  5
2A3
100
AcDbEntity
  8
MAIN0
  6
CONTINUOUS
 62
3
100
AcDbCircle
 10
343.6645232224712
 20
204.1197464997943
 30
0.0000000000000000
 40
3.000000000000000
100
AcDbArc
 50
329.9999999999999
 51
390.0000000000001
  0
ARC
  5
2A4
100
AcDbEntity
  8
MAIN0
  6
CONTINUOUS
 62
3
100
AcDbCircle
 10
325.7666648774850
 20
173.1197464996076
 30
0.0000000000000000
 40
3.000000000000000
100
AcDbArc
 50
270.0000000000000
 51
329.9999999999999
  0
ARC
  5
2A5
100
AcDbEntity
  8
MAIN0
  6
CONTINUOUS
 62
3
100
AcDbCircle
 10
317.6837611094775
 20
173.1197464996076
 30
0.0000000000000000
 40
3.000000000000000
100
AcDbArc
 50
209.9999999999997
 51
270.0000000000000
  0
ARC
  5
2A6
100
AcDbEntity
  8
MAIN0
  6
CONTINUOUS
 62
3
100
AcDbCircle
 10
299.7859027643834
 20
204.1197464999812
 30
0.0000000000000000
 40
3.000000000000000
100
AcDbArc
 50
149.9999999999995
 51
210.0000000000000
  0
ARC
  5
2A7
100
AcDbEntity
  8
MAIN0
  6
CONTINUOUS
 62
3
100
AcDbCircle
 10
303.8273546484952
 20
211.1197464996075
 30
0.0000000000000000
 40
3.000000000000000
100
AcDbArc
 50
90.00000000000000
 51
149.9999999999994
  0
LINE
  5
2A8
100
AcDbEntity
  8
MAIN0
  6
CONTINUOUS
 62
3
100
AcDbLine
 10
350.8252129934898
 20
85.20576787211473
 30
0.0000000000000000
 11
340.7252129934898
 21
85.20576787211380
 31
0.0000000000000000
  0
LINE
  5
2A9
100
AcDbEntity
  8
MAIN0
  6
CONTINUOUS
 62
3
100
AcDbLine
 10
292.6252129934898
 20
85.20576787211471
 30
0.0000000000000000
 11
296.2252129934897
 21
85.20576787211434
 31
0.0000000000000000
  0
LINE
  5
2AA
100
AcDbEntity
  8
MAIN0
  6
CONTINUOUS
 62
3
100
AcDbLine
 10
292.2252129934898
 20
81.60576787214475
 30
0.0000000000000000
 11
292.2252129934898
 21
84.80576787211479
 31
0.0000000000000000
  0
LINE
  5
2AB
100
AcDbEntity
  8
MAIN0
  6
CONTINUOUS
 62
3
100
AcDbLine
 10
353.9208651673963
 20
76.60576787210799
 30
0.0000000000000000
 11
353.9208651673962
 21
80.80576787211508
 31
0.0000000000000000
  0
LINE
  5
2AC
100
AcDbEntity
  8
MAIN0
  6
CONTINUOUS
 62
3
100
AcDbLine
 10
353.5208651673963
 20
76.20576787210803
 30
0.0000000000000000
 11
353.9208651673963
 21
76.60576787210795
 31
0.0000000000000000
  0
LINE
  5
2AD
100
AcDbEntity
  8
MAIN0
  6
CONTINUOUS
 62
3
100
AcDbLine
 10
289.9295608195836
 20
76.20576787211489
 30
0.0000000000000000
 11
289.5295608195836
 21
76.60576787211494
 31
0.0000000000000000
  0
LINE
  5
2AE
100
AcDbEntity
  8
MAIN0
  6
CONTINUOUS
 62
3
100
AcDbLine
 10
292.2252129934898
 20
84.80576787211473
 30
0.0000000000000000
 11
292.6252129934899
 21
85.20576787211472
 31
0.0000000000000000
  0
LINE
  5
2AF
100
AcDbEntity
  8
MAIN0
  6
CONTINUOUS
 62
3
100
AcDbLine
 10
353.5208651673963
 20
81.20576787211500
 30
0.0000000000000000
 11
336.4533001596561
 21
81.20576787211336
 31
0.0000000000000000
  0
LINE
  5
2B0
100
AcDbEntity
  8
MAIN0
  6
CONTINUOUS
 62
3
100
AcDbLine
 10
353.9208651673962
 20
80.80576787211507
 30
0.0000000000000000
 11
353.5208651673963
 21
81.20576787211499
 31
0.0000000000000000
  0
LINE
  5
2B1
100
AcDbEntity
  8
MAIN0
  6
CONTINUOUS
 62
3
100
AcDbLine
 10
351.2252129934899
 20
84.80576787211474
 30
0.0000000000000000
 11
350.8252129934899
 21
85.20576787211468
 31
0.0000000000000000
  0
LINE
  5
2B2
100
AcDbEntity
  8
MAIN0
  6
CONTINUOUS
 62
3
100
AcDbLine
 10
305.5252129934880
 20
71.20576787211354
 30
0.0000000000000000
 11
337.9252129934898
 21
71.20576787211043
 31
0.0000000000000000
  0
LINE
  5
2B3
100
AcDbEntity
  8
MAIN0
  6
CONTINUOUS
 62
3
100
AcDbLine
 10
289.9295608195836
 20
76.20576787211502
 30
0.0000000000000000
 11
353.5208651673963
 21
76.20576787210800
 31
0.0000000000000000
  0
LINE
  5
2B4
100
AcDbEntity
  8
MAIN0
  6
CONTINUOUS
 62
3
100
AcDbLine
 10
351.2252129934902
 20
85.60576787211612
 30
0.0000000000000000
 11
351.2252129934902
 21
88.20576787211614
 31
0.0000000000000000
  0
LINE
  5
2B5
100
AcDbEntity
  8
MAIN0
  6
CONTINUOUS
 62
3
100
AcDbLine
 10
350.8252129934902
 20
85.20576787211607
 30
0.0000000000000000
 11
351.2252129934901
 21
85.60576787211609
 31
0.0000000000000000
  0
LINE
  5
2B6
100
AcDbEntity
  8
MAIN0
  6
CONTINUOUS
 62
3
100
AcDbLine
 10
292.2252129934895
 20
85.60576787211610
 30
0.0000000000000000
 11
292.2252129934895
 21
88.20576787211613
 31
0.0000000000000000
  0
LINE
  5
2B7
100
AcDbEntity
  8
MAIN0
  6
CONTINUOUS
 62
3
100
AcDbLine
 10
292.6252129934895
 20
85.20576787211613
 30
0.0000000000000000
 11
292.2252129934896
 21
85.60576787211613
 31
0.0000000000000000
  0
LINE
  5
2B8
100
AcDbEntity
  8
MAIN0
  6
CONTINUOUS
 62
3
100
AcDbLine
 10
272.7252129934898
 20
88.60576787211878
 30
0.0000000000000000
 11
272.7252129934898
 21
96.80576787211871
 31
0.0000000000000000
  0
LINE
  5
2B9
100
AcDbEntity
  8
MAIN0
  6
CONTINUOUS
 62
3
100
AcDbLine
 10
273.9319555065064
 20
97.20576787211853
 30
0.0000000000000000
 11
273.1252129934906
 21
97.20576787211864
 31
0.0000000000000000
  0
LINE
  5
2BA
100
AcDbEntity
  8
MAIN0
  6
CONTINUOUS
 62
3
100
AcDbLine
 10
272.7252129934898
 20
96.80576787211878
 30
0.0000000000000000
 11
273.1252129934898
 21
97.20576787211871
 31
0.0000000000000000
  0
LINE
  5
2BB
100
AcDbEntity
  8
MAIN0
  6
CONTINUOUS
 62
3
100
AcDbLine
 10
273.1252129934898
 20
88.20576787211877
 30
0.0000000000000000
 11
272.7252129934898
 21
88.60576787211883
 31
0.0000000000000000
  0
LINE
  5
2BC
100
AcDbEntity
  8
MAIN0
  6
CONTINUOUS
 62
3
100
AcDbLine
 10
292.6252129934895
 20
85.20576787211599
 30
0.0000000000000000
 11
350.8252129934902
 21
85.20576787211601
 31
0.0000000000000000
  0
LINE
  5
2BD
100
AcDbEntity
  8
MAIN0
  6
CONTINUOUS
 62
3
100
AcDbLine
 10
273.1252129934897
 20
88.20576787211869
 30
0.0000000000000000
 11
370.3252129934900
 21
88.20576787211870
 31
0.0000000000000000
  0
LINE
  5
2BE
100
AcDbEntity
  8
MAIN0
  6
CONTINUOUS
 62
3
100
AcDbLine
 10
275.2439708222173
 20
112.7057678721063
 30
0.0000000000000000
 11
275.6819555065074
 21
112.7057678721064
 31
0.0000000000000000
  0
LINE
  5
2BF
100
AcDbEntity
  8
MAIN0
  6
CONTINUOUS
 62
3
100
AcDbLine
 10
283.2695322352537
 20
112.7057678721079
 30
0.0000000000000000
 11
360.1808937517099
 21
112.7057678721240
 31
0.0000000000000000
  0
LINE
  5
2C0
100
AcDbEntity
  8
MAIN0
  6
CONTINUOUS
 62
3
100
AcDbLine
 10
301.9773347128644
 20
113.2057678721102
 30
0.0000000000000000
 11
341.4730912741152
 21
113.2057678721102
 31
0.0000000000000000
  0
LINE
  5
2C1
100
AcDbEntity
  8
MAIN0
  6
CONTINUOUS
 62
3
100
AcDbLine
 10
368.2064551647624
 20
112.7057678721062
 30
0.0000000000000000
 11
367.7684704804723
 21
112.7057678721063
 31
0.0000000000000000
  0
LINE
  5
2C2
100
AcDbEntity
  8
MAIN0
  6
CONTINUOUS
 62
3
100
AcDbLine
 10
369.5184704804732
 20
97.20576787211851
 30
0.0000000000000000
 11
370.3252129934890
 21
97.20576787211863
 31
0.0000000000000000
  0
LINE
  5
2C3
100
AcDbEntity
  8
MAIN0
  6
CONTINUOUS
 62
3
100
AcDbLine
 10
370.7252129934899
 20
96.80576787211879
 30
0.0000000000000000
 11
370.3252129934899
 21
97.20576787211874
 31
0.0000000000000000
  0
LINE
  5
2C4
100
AcDbEntity
  8
MAIN0
  6
CONTINUOUS
 62
3
100
AcDbLine
 10
370.7252129934898
 20
88.60576787211876
 30
0.0000000000000000
 11
370.7252129934898
 21
96.80576787211869
 31
0.0000000000000000
  0
LINE
  5
2C5
100
AcDbEntity
  8
MAIN0
  6
CONTINUOUS
 62
3
100
AcDbLine
 10
370.3252129934899
 20
88.20576787211876
 30
0.0000000000000000
 11
370.7252129934899
 21
88.60576787211883
 31
0.0000000000000000
  0
CIRCLE
  5
2C6
100
AcDbEntity
  8
MAIN0
  6
CONTINUOUS
 62
3
100
AcDbCircle
 10
333.9752129934881
 20
106.7057678721185
 30
0.0000000000000000
 40
1.500000000000000
  0
CIRCLE
  5
2C7
100
AcDbEntity
  8
MAIN0
  6
CONTINUOUS
 62
3
100
AcDbCircle
 10
333.9752129934881
 20
106.7057678721185
 30
0.0000000000000000
 40
1.250000000000000
  0
LEADER
  5
2C8
100
AcDbEntity
  8
MAIN0
  6
CONTINUOUS
 62
3
100
AcDbLeader
  3
MAIN001
 73
     0
 74
     0
 75
     1
 40
3.099999904632568
 41
26.11100072956083
 76
     3
 10
324.0565922530702
 20
235.0223376289787
 30
0.0000000000000000
 10
371.8666677948517
 20
253.5319601767787
 30
0.0000000000000000
 10
373.7916677390618
 20
253.5319601767787
 30
0.0000000000000000
340
2C9
213
0.0000000000000000
223
-0.5000000000000000
233
0.0000000000000000
1001
ACAD
1000
DSTYLE
1002
{
1070
   147
1040
0.0
1070
    77
1070
     1
1070
   173
1070
     1
1070
     6
1000
_OPEN
1070
     7
1000
_OPEN
1002
}
  0
MTEXT
  5
2C9
102
{ACAD_REACTORS
330
2C8
102
}
100
AcDbEntity
  8
MAIN0
  6
CONTINUOUS
 62
3
100
AcDbMText
 10
373.7926677390618
 20
257.1319600814113
 30
0.0000000000000000
 40
3.099999904632568
 41
0.0000000000000000
 71
     1
 72
     1
  1
{\H0.93x;{3-\U+22055H8 深6\PDepth 6}}
 11
1.000000000000000
 21
0.0000000000000000
 31
0.0000000000000000
  7
KNJYOKO
  0
LINE
  5
2CA
100
AcDbEntity
  8
MAIN0
  6
CONTINUOUS
 62
3
100
AcDbLine
 10
215.7252129934272
 20
160.6197464994543
 30
0.0000000000000000
 11
228.2252129934254
 21
160.6197464994543
 31
0.0000000000000000
  0
LINE
  5
2CB
100
AcDbEntity
  8
MAIN0
  6
CONTINUOUS
 62
3
100
AcDbLine
 10
228.2252129934254
 20
160.6197464994542
 30
0.0000000000000000
 11
231.2252129934250
 21
163.6197464994542
 31
0.0000000000000000
  0
LINE
  5
2CC
100
AcDbEntity
  8
MAIN0
  6
CONTINUOUS
 62
3
100
AcDbLine
 10
203.7252129934265
 20
225.2197464994546
 30
0.0000000000000000
 11
204.1252129934265
 21
225.6197464994546
 31
0.0000000000000000
  0
LINE
  5
2CD
100
AcDbEntity
  8
MAIN0
  6
CONTINUOUS
 62
3
100
AcDbLine
 10
207.1252129934291
 20
245.1197464994543
 30
0.0000000000000000
 11
215.5386831313708
 21
245.1197464994543
 31
0.0000000000000000
  0
LINE
  5
2CE
100
AcDbEntity
  8
MAIN0
  6
CONTINUOUS
 62
3
100
AcDbLine
 10
203.7252129934264
 20
167.0197464994540
 30
0.0000000000000000
 11
204.1252129934265
 21
166.6197464994540
 31
0.0000000000000000
  0
LINE
  5
2CF
100
AcDbEntity
  8
MAIN0
  6
CONTINUOUS
 62
3
100
AcDbLine
 10
207.1252129934291
 20
147.1197464994543
 30
0.0000000000000000
 11
215.3252129934291
 21
147.1197464994543
 31
0.0000000000000000
  0
LINE
  5
2D0
100
AcDbEntity
  8
MAIN0
  6
CONTINUOUS
 62
3
100
AcDbLine
 10
215.7252129934273
 20
160.6197464994543
 30
0.0000000000000000
 11
215.7252129934290
 21
147.5197464994550
 31
0.0000000000000000
  0
LINE
  5
2D1
100
AcDbEntity
  8
MAIN0
  6
CONTINUOUS
 62
3
100
AcDbLine
 10
215.3252129934292
 20
147.1197464994542
 30
0.0000000000000000
 11
215.7252129934291
 21
147.5197464994542
 31
0.0000000000000000
  0
LINE
  5
2D2
100
AcDbEntity
  8
MAIN0
  6
CONTINUOUS
 62
3
100
AcDbLine
 10
206.7252129934291
 20
244.7197464994542
 30
0.0000000000000000
 11
207.1252129934292
 21
245.1197464994543
 31
0.0000000000000000
  0
LINE
  5
2D3
100
AcDbEntity
  8
MAIN0
  6
CONTINUOUS
 62
3
100
AcDbLine
 10
206.7252129934292
 20
147.5197464994542
 30
0.0000000000000000
 11
207.1252129934293
 21
147.1197464994542
 31
0.0000000000000000
  0
LINE
  5
2D4
100
AcDbEntity
  8
MAIN0
  6
CONTINUOUS
 62
3
100
AcDbLine
 10
231.2252129934334
 20
231.1197464990045
 30
0.0000000000000000
 11
231.2252129934347
 21
237.1197464990045
 31
0.0000000000000000
  0
LINE
  5
2D5
100
AcDbEntity
  8
MAIN0
  6
CONTINUOUS
 62
3
100
AcDbLine
 10
203.7252129934263
 20
167.0197464994540
 30
0.0000000000000000
 11
203.7252129934264
 21
225.2197464994546
 31
0.0000000000000000
  0
LINE
  5
2D6
100
AcDbEntity
  8
MAIN0
  6
CONTINUOUS
 62
3
100
AcDbLine
 10
206.7252129934290
 20
147.5197464994542
 30
0.0000000000000000
 11
206.7252129934290
 21
244.7197464994545
 31
0.0000000000000000
  0
LINE
  5
2D7
100
AcDbEntity
  8
MAIN0
  6
CONTINUOUS
 62
3
100
AcDbLine
 10
231.2252129934194
 20
163.6197464994487
 30
0.0000000000000000
 11
231.2252129934199
 21
165.7240750243491
 31
0.0000000000000000
  0
LINE
  5
2D8
100
AcDbEntity
  8
MAIN0
  6
CONTINUOUS
 62
3
100
AcDbLine
 10
231.2252129934224
 20
177.6989931246382
 30
0.0000000000000000
 11
231.2252129934319
 21
223.2931971174239
 31
0.0000000000000000
  0
LINE
  5
2D9
100
AcDbEntity
  8
MAIN0
  6
CONTINUOUS
 62
3
100
AcDbLine
 10
204.1252129934264
 20
225.6197464994547
 30
0.0000000000000000
 11
206.7252129934290
 21
225.6197464994547
 31
0.0000000000000000
  0
LINE
  5
2DA
100
AcDbEntity
  8
MAIN0
  6
HIDDEN
 62
3
100
AcDbLine
 10
206.7252129934290
 20
225.6197464994547
 30
0.0000000000000000
 11
208.7252129934290
 21
225.6197464994547
 31
0.0000000000000000
  0
LINE
  5
2DB
100
AcDbEntity
  8
MAIN0
  6
CONTINUOUS
 62
3
100
AcDbLine
 10
204.1252129934264
 20
166.6197464994540
 30
0.0000000000000000
 11
206.7252129934290
 21
166.6197464994540
 31
0.0000000000000000
  0
LINE
  5
2DC
100
AcDbEntity
  8
MAIN0
  6
HIDDEN
 62
3
100
AcDbLine
 10
206.7252129934290
 20
166.6197464994540
 30
0.0000000000000000
 11
208.7252129934290
 21
166.6197464994540
 31
0.0000000000000000
  0
LINE
  5
2DD
100
AcDbEntity
  8
MAIN0
  6
CONTINUOUS
 62
3
100
AcDbLine
 10
203.7252129934251
 20
225.2197464994544
 30
0.0000000000000000
 11
203.7252129934241
 21
215.1197464994544
 31
0.0000000000000000
  0
LINE
  5
2DE
100
AcDbEntity
  8
MAIN0
  6
CONTINUOUS
 62
3
100
AcDbLine
 10
203.7252129934250
 20
167.0197464994543
 30
0.0000000000000000
 11
203.7252129934247
 21
170.6197464994542
 31
0.0000000000000000
  0
LINE
  5
2DF
100
AcDbEntity
  8
MAIN0
  6
CONTINUOUS
 62
3
100
AcDbLine
 10
195.1252129934251
 20
166.6197464994543
 30
0.0000000000000000
 11
203.3252129934251
 21
166.6197464994543
 31
0.0000000000000000
  0
LINE
  5
2E0
100
AcDbEntity
  8
MAIN0
  6
CONTINUOUS
 62
3
100
AcDbLine
 10
195.1252129934183
 20
228.6197464994543
 30
0.0000000000000000
 11
199.3252129934253
 21
228.6197464994543
 31
0.0000000000000000
  0
LINE
  5
2E1
100
AcDbEntity
  8
MAIN0
  6
CONTINUOUS
 62
3
100
AcDbLine
 10
194.7252129934184
 20
228.2197464994544
 30
0.0000000000000000
 11
195.1252129934183
 21
228.6197464994544
 31
0.0000000000000000
  0
LINE
  5
2E2
100
AcDbEntity
  8
MAIN0
  6
CONTINUOUS
 62
3
100
AcDbLine
 10
194.7252129934251
 20
167.0197464994543
 30
0.0000000000000000
 11
195.1252129934251
 21
166.6197464994543
 31
0.0000000000000000
  0
LINE
  5
2E3
100
AcDbEntity
  8
MAIN0
  6
CONTINUOUS
 62
3
100
AcDbLine
 10
203.3252129934251
 20
166.6197464994543
 30
0.0000000000000000
 11
203.7252129934251
 21
167.0197464994543
 31
0.0000000000000000
  0
LINE
  5
2E4
100
AcDbEntity
  8
MAIN0
  6
CONTINUOUS
 62
3
100
AcDbLine
 10
199.7252129934253
 20
228.2197464994547
 30
0.0000000000000000
 11
199.7252129934247
 21
221.6674959108164
 31
0.0000000000000000
  0
LINE
  5
2E5
100
AcDbEntity
  8
MAIN0
  6
CONTINUOUS
 62
3
100
AcDbLine
 10
199.3252129934254
 20
228.6197464994543
 30
0.0000000000000000
 11
199.7252129934253
 21
228.2197464994544
 31
0.0000000000000000
  0
LINE
  5
2E6
100
AcDbEntity
  8
MAIN0
  6
CONTINUOUS
 62
3
100
AcDbLine
 10
203.3252129934251
 20
225.6197464994544
 30
0.0000000000000000
 11
203.7252129934250
 21
225.2197464994544
 31
0.0000000000000000
  0
LINE
  5
2E7
100
AcDbEntity
  8
MAIN0
  6
CONTINUOUS
 62
3
100
AcDbLine
 10
189.7252129934239
 20
179.9197464994525
 30
0.0000000000000000
 11
189.7252129934208
 21
212.3197464994543
 31
0.0000000000000000
  0
LINE
  5
2E8
100
AcDbEntity
  8
MAIN0
  6
CONTINUOUS
 62
3
100
AcDbLine
 10
194.7252129934251
 20
167.0197464994542
 30
0.0000000000000000
 11
194.7252129934183
 21
228.2197464994544
 31
0.0000000000000000
  0
LINE
  5
2E9
100
AcDbEntity
  8
MAIN0
  6
CONTINUOUS
 62
3
100
AcDbLine
 10
231.7252129934205
 20
188.6154179750954
 30
0.0000000000000000
 11
231.7252129934205
 21
214.1197464994543
 31
0.0000000000000000
  0
LINE
  5
2EA
100
AcDbEntity
  8
MAIN0
  6
CONTINUOUS
 62
3
100
AcDbLine
 10
231.2252129934298
 20
214.1197464994543
 30
0.0000000000000000
 11
231.7252129934205
 21
214.1197464994543
 31
0.0000000000000000
  0
LINE
  5
2EB
100
AcDbEntity
  8
MAIN0
  6
CONTINUOUS
 62
3
100
AcDbLine
 10
232.0252129934226
 20
222.6197464990045
 30
0.0000000000000000
 11
231.2252129934318
 21
222.6197464990045
 31
0.0000000000000000
  0
LINE
  5
2EC
100
AcDbEntity
  8
MAIN1
  6
CONTINUOUS
 62
7
100
AcDbLine
 10
232.0252129934226
 20
237.1197464990045
 30
0.0000000000000000
 11
228.7252129934225
 21
237.1197464990045
 31
0.0000000000000000
  0
LINE
  5
2ED
100
AcDbEntity
  8
MAIN0
  6
CONTINUOUS
 62
3
100
AcDbLine
 10
228.7252129934225
 20
237.1197464990045
 30
0.0000000000000000
 11
228.7252129934225
 21
231.1197464990045
 31
0.0000000000000000
  0
LINE
  5
2EE
100
AcDbEntity
  8
MAIN0
  6
CONTINUOUS
 62
3
100
AcDbLine
 10
222.7252129934225
 20
236.6197464990146
 30
0.0000000000000000
 11
228.5252129934226
 21
236.6197464990146
 31
0.0000000000000000
  0
LINE
  5
2EF
100
AcDbEntity
  8
MAIN0
  6
CENTER
 62
3
100
AcDbLine
 10
232.7971319761134
 20
234.1197464990449
 30
0.0000000000000000
 11
220.7958063153539
 21
234.1197464990387
 31
0.0000000000000000
  0
LINE
  5
2F0
100
AcDbEntity
  8
MAIN0
  6
CONTINUOUS
 62
3
100
AcDbLine
 10
228.5252129934226
 20
231.6197464990146
 30
0.0000000000000000
 11
222.7252129934226
 21
231.6197464990146
 31
0.0000000000000000
  0
LINE
  5
2F1
100
AcDbEntity
  8
MAIN1
  6
CONTINUOUS
 62
7
100
AcDbLine
 10
228.7252129934225
 20
231.1197464990045
 30
0.0000000000000000
 11
232.0252129934226
 21
231.1197464990045
 31
0.0000000000000000
  0
LINE
  5
2F2
100
AcDbEntity
  8
MAIN0
  6
CONTINUOUS
 62
3
100
AcDbLine
 10
231.6252129934295
 20
227.7697464990837
 30
0.0000000000000000
 11
223.2252129934296
 21
227.7697464990744
 31
0.0000000000000000
  0
LINE
  5
2F3
100
AcDbEntity
  8
MAIN0
  6
CONTINUOUS
 62
3
100
AcDbLine
 10
231.9752129934293
 20
228.1197464990839
 30
0.0000000000000000
 11
225.2252129934292
 21
228.1197464990764
 31
0.0000000000000000
  0
LINE
  5
2F4
100
AcDbEntity
  8
MAIN0
  6
CONTINUOUS
 62
3
100
AcDbLine
 10
231.6252129934297
 20
227.7697464990836
 30
0.0000000000000000
 11
231.6252129934333
 21
224.4697464990836
 31
0.0000000000000000
  0
LINE
  5
2F5
100
AcDbEntity
  8
MAIN0
  6
CONTINUOUS
 62
3
100
AcDbLine
 10
232.2252129934290
 20
228.3697464990842
 30
0.0000000000000000
 11
231.6252129934296
 21
227.7697464990835
 31
0.0000000000000000
  0
LINE
  5
2F6
100
AcDbEntity
  8
MAIN0
  6
CONTINUOUS
 62
3
100
AcDbLine
 10
223.2252129934332
 20
224.4697464990743
 30
0.0000000000000000
 11
231.6252129934332
 21
224.4697464990836
 31
0.0000000000000000
  0
LINE
  5
2F7
100
AcDbEntity
  8
MAIN0
  6
CONTINUOUS
 62
3
100
AcDbLine
 10
225.2252129934337
 20
224.1197464990764
 30
0.0000000000000000
 11
231.9752129934337
 21
224.1197464990839
 31
0.0000000000000000
  0
LINE
  5
2F8
100
AcDbEntity
  8
MAIN0
  6
CONTINUOUS
 62
3
100
AcDbLine
 10
231.6252129934333
 20
224.4697464990839
 30
0.0000000000000000
 11
232.2252129934341
 21
223.8697464990845
 31
0.0000000000000000
  0
LINE
  5
2F9
100
AcDbEntity
  8
MAIN0
  6
CONTINUOUS
 62
3
100
AcDbLine
 10
225.2252129934292
 20
228.1197464990764
 30
0.0000000000000000
 11
225.2252129934337
 21
224.1197464990764
 31
0.0000000000000000
  0
LINE
  5
2FA
100
AcDbEntity
  8
MAIN0
  6
CONTINUOUS
 62
3
100
AcDbLine
 10
222.2725850492683
 20
226.1197464990732
 30
0.0000000000000000
 11
223.2252129934329
 21
224.4697464990742
 31
0.0000000000000000
  0
LINE
  5
2FB
100
AcDbEntity
  8
MAIN0
  6
CONTINUOUS
 62
3
100
AcDbLine
 10
223.2252129934297
 20
227.7697464990742
 30
0.0000000000000000
 11
223.2252129934333
 21
224.4697464990743
 31
0.0000000000000000
  0
LINE
  5
2FC
100
AcDbEntity
  8
MAIN0
  6
CONTINUOUS
 62
3
100
AcDbLine
 10
223.2252129934292
 20
227.7697464990740
 30
0.0000000000000000
 11
222.2725850492682
 21
226.1197464990729
 31
0.0000000000000000
  0
LINE
  5
2FD
100
AcDbEntity
  8
MAIN0
  6
CENTER
 62
3
100
AcDbLine
 10
221.7496782386295
 20
226.1197464990753
 30
0.0000000000000000
 11
234.0350236197106
 21
226.1197464990923
 31
0.0000000000000000
  0
LINE
  5
2FE
100
AcDbEntity
  8
MAIN0
  6
CENTER
 62
3
100
AcDbLine
 10
220.7252129934225
 20
242.1197464990049
 30
0.0000000000000000
 11
234.0350236197084
 21
242.1197464990065
 31
0.0000000000000000
  0
LINE
  5
2FF
100
AcDbEntity
  8
MAIN0
  6
CONTINUOUS
 62
3
100
AcDbLine
 10
225.2252129934226
 20
240.1197464990045
 30
0.0000000000000000
 11
225.2252129934226
 21
244.1197464990045
 31
0.0000000000000000
  0
LINE
  5
300
100
AcDbEntity
  8
MAIN0
  6
CONTINUOUS
 62
3
100
AcDbLine
 10
231.6252129934226
 20
240.4697464990044
 30
0.0000000000000000
 11
223.2252129934211
 21
240.4697464990044
 31
0.0000000000000000
  0
LINE
  5
301
100
AcDbEntity
  8
MAIN0
  6
CONTINUOUS
 62
3
100
AcDbLine
 10
231.9752129934226
 20
240.1197464990045
 30
0.0000000000000000
 11
225.2252129934226
 21
240.1197464990045
 31
0.0000000000000000
  0
LINE
  5
302
100
AcDbEntity
  8
MAIN0
  6
CONTINUOUS
 62
3
100
AcDbLine
 10
223.2252129934234
 20
243.7697464990044
 30
0.0000000000000000
 11
231.6252129934226
 21
243.7697464990044
 31
0.0000000000000000
  0
LINE
  5
303
100
AcDbEntity
  8
MAIN0
  6
CONTINUOUS
 62
3
100
AcDbLine
 10
225.2252129934226
 20
244.1197464990045
 30
0.0000000000000000
 11
231.9752129934226
 21
244.1197464990045
 31
0.0000000000000000
  0
LINE
  5
304
100
AcDbEntity
  8
MAIN0
  6
CONTINUOUS
 62
3
100
AcDbLine
 10
231.6252129934226
 20
240.4697464990044
 30
0.0000000000000000
 11
231.6252129934226
 21
243.7697464990044
 31
0.0000000000000000
  0
LINE
  5
305
100
AcDbEntity
  8
MAIN0
  6
CONTINUOUS
 62
3
100
AcDbLine
 10
231.6252129934227
 20
243.7697464990045
 30
0.0000000000000000
 11
232.2252129934226
 21
244.3697464990045
 31
0.0000000000000000
  0
LINE
  5
306
100
AcDbEntity
  8
MAIN0
  6
CONTINUOUS
 62
3
100
AcDbLine
 10
232.2252129934226
 20
239.8697464990046
 30
0.0000000000000000
 11
231.6252129934225
 21
240.4697464990046
 31
0.0000000000000000
  0
LINE
  5
307
100
AcDbEntity
  8
MAIN0
  6
CONTINUOUS
 62
3
100
AcDbLine
 10
232.2252129934226
 20
222.8197464990043
 30
0.0000000000000000
 11
232.2252129934226
 21
230.9197464990044
 31
0.0000000000000000
  0
LINE
  5
308
100
AcDbEntity
  8
MAIN0
  6
CONTINUOUS
 62
3
100
AcDbLine
 10
232.2252129934226
 20
237.3197464990045
 30
0.0000000000000000
 11
232.2252129934226
 21
245.4197464990045
 31
0.0000000000000000
  0
LINE
  5
309
100
AcDbEntity
  8
MAIN0
  6
CONTINUOUS
 62
3
100
AcDbLine
 10
232.0252129934225
 20
245.6197464990045
 30
0.0000000000000000
 11
232.2252129934226
 21
245.4197464990044
 31
0.0000000000000000
  0
LINE
  5
30A
100
AcDbEntity
  8
MAIN0
  6
CONTINUOUS
 62
3
100
AcDbLine
 10
232.2252129934225
 20
237.3197464990044
 30
0.0000000000000000
 11
232.0252129934225
 21
237.1197464990043
 31
0.0000000000000000
  0
LINE
  5
30B
100
AcDbEntity
  8
MAIN0
  6
CONTINUOUS
 62
3
100
AcDbLine
 10
232.0252129934225
 20
231.1197464990044
 30
0.0000000000000000
 11
232.2252129934225
 21
230.9197464990044
 31
0.0000000000000000
  0
LINE
  5
30C
100
AcDbEntity
  8
MAIN0
  6
CONTINUOUS
 62
3
100
AcDbLine
 10
232.2252129934225
 20
222.8197464990045
 30
0.0000000000000000
 11
232.0252129934225
 21
222.6197464990045
 31
0.0000000000000000
  0
LINE
  5
30D
100
AcDbEntity
  8
MAIN1
  6
CONTINUOUS
 62
7
100
AcDbLine
 10
214.2252129934225
 20
245.4197464990050
 30
0.0000000000000000
 11
214.4252129934225
 21
245.6197464990050
 31
0.0000000000000000
  0
LINE
  5
30E
100
AcDbEntity
  8
MAIN0
  6
CONTINUOUS
 62
3
100
AcDbLine
 10
228.5252129934223
 20
236.6197464990146
 30
0.0000000000000000
 11
228.7252129934224
 21
236.8197464990146
 31
0.0000000000000000
  0
LINE
  5
30F
100
AcDbEntity
  8
MAIN0
  6
CONTINUOUS
 62
3
100
AcDbLine
 10
228.5252129934225
 20
231.6197464990146
 30
0.0000000000000000
 11
228.7252129934225
 21
231.4197464990145
 31
0.0000000000000000
  0
LINE
  5
310
100
AcDbEntity
  8
MAIN0
  6
CONTINUOUS
 62
3
100
AcDbLine
 10
222.7252129934224
 20
236.6197464990146
 30
0.0000000000000000
 11
222.7252129934226
 21
231.6197464990149
 31
0.0000000000000000
  0
LINE
  5
311
100
AcDbEntity
  8
MAIN0
  6
CONTINUOUS
 62
3
100
AcDbLine
 10
221.2818373195315
 20
234.1197464990390
 30
0.0000000000000000
 11
222.7252129925266
 21
231.6197464990148
 31
0.0000000000000000
  0
LINE
  5
312
100
AcDbEntity
  8
MAIN0
  6
CONTINUOUS
 62
3
100
AcDbLine
 10
221.2818373195318
 20
234.1197464990391
 30
0.0000000000000000
 11
222.7252129934225
 21
236.6197465006206
 31
0.0000000000000000
  0
LINE
  5
313
100
AcDbEntity
  8
MAIN0
  6
CONTINUOUS
 62
3
100
AcDbLine
 10
223.2252129934209
 20
243.7697464989996
 30
0.0000000000000000
 11
223.2252129934245
 21
240.4697464989996
 31
0.0000000000000000
  0
LINE
  5
314
100
AcDbEntity
  8
MAIN0
  6
CONTINUOUS
 62
3
100
AcDbLine
 10
221.1252129934226
 20
245.6197464990050
 30
0.0000000000000000
 11
220.7252129934225
 21
245.2197464990048
 31
0.0000000000000000
  0
LINE
  5
315
100
AcDbEntity
  8
MAIN0
  6
CONTINUOUS
 62
3
100
AcDbLine
 10
220.7252129934226
 20
245.2197464990048
 30
0.0000000000000000
 11
220.7252129934226
 21
238.1197464990049
 31
0.0000000000000000
  0
LINE
  5
316
100
AcDbEntity
  8
MAIN0
  6
CONTINUOUS
 62
3
100
AcDbLine
 10
220.7252129934226
 20
238.1197464990049
 30
0.0000000000000000
 11
216.7252129934226
 21
238.1197464990049
 31
0.0000000000000000
  0
LINE
  5
317
100
AcDbEntity
  8
MAIN0
  6
CONTINUOUS
 62
3
100
AcDbLine
 10
216.7252129934226
 20
238.1197464990049
 30
0.0000000000000000
 11
216.7252129934226
 21
245.2197464990048
 31
0.0000000000000000
  0
LINE
  5
318
100
AcDbEntity
  8
MAIN0
  6
CONTINUOUS
 62
3
100
AcDbLine
 10
216.7252129934226
 20
245.2197464990049
 30
0.0000000000000000
 11
216.3252129934226
 21
245.6197464990050
 31
0.0000000000000000
  0
LINE
  5
319
100
AcDbEntity
  8
MAIN0
  6
CONTINUOUS
 62
3
100
AcDbLine
 10
220.7252129934226
 20
238.1197464990049
 30
0.0000000000000000
 11
218.7252129934226
 21
236.9650459606257
 31
0.0000000000000000
  0
LINE
  5
31A
100
AcDbEntity
  8
MAIN0
  6
CONTINUOUS
 62
3
100
AcDbLine
 10
218.7252129934225
 20
236.9650459606255
 30
0.0000000000000000
 11
216.7252129934225
 21
238.1197464990048
 31
0.0000000000000000
  0
LINE
  5
31B
100
AcDbEntity
  8
MAIN0
  6
CONTINUOUS
 62
3
100
AcDbLine
 10
223.2252129934228
 20
240.4697464990044
 30
0.0000000000000000
 11
222.8252129934220
 21
240.8697464990052
 31
0.0000000000000000
  0
LINE
  5
31C
100
AcDbEntity
  8
MAIN0
  6
CONTINUOUS
 62
3
100
AcDbLine
 10
222.8252129934221
 20
240.8697464990052
 30
0.0000000000000000
 11
222.8252129934221
 21
243.3697464990052
 31
0.0000000000000000
  0
LINE
  5
31D
100
AcDbEntity
  8
MAIN0
  6
CONTINUOUS
 62
3
100
AcDbLine
 10
222.8252129934219
 20
243.3697464990053
 30
0.0000000000000000
 11
223.2252129934211
 21
243.7697464990045
 31
0.0000000000000000
  0
LINE
  5
31E
100
AcDbEntity
  8
MAIN0
  6
CONTINUOUS
 62
3
100
AcDbLine
 10
223.0752129934221
 20
240.6197464990052
 30
0.0000000000000000
 11
220.7252129934227
 21
240.6197464990052
 31
0.0000000000000000
  0
LINE
  5
31F
100
AcDbEntity
  8
MAIN0
  6
CONTINUOUS
 62
3
100
AcDbLine
 10
223.0752129934221
 20
243.6197464990052
 30
0.0000000000000000
 11
220.7252129934227
 21
243.6197464990052
 31
0.0000000000000000
  0
LINE
  5
320
100
AcDbEntity
  8
MAIN0
  6
CONTINUOUS
 62
3
100
AcDbLine
 10
222.8252129934221
 20
240.8697464990052
 30
0.0000000000000000
 11
220.7252129934227
 21
240.8697464990052
 31
0.0000000000000000
  0
LINE
  5
321
100
AcDbEntity
  8
MAIN0
  6
CONTINUOUS
 62
3
100
AcDbLine
 10
220.7252129934227
 20
243.3697464990052
 30
0.0000000000000000
 11
222.8252129934221
 21
243.3697464990052
 31
0.0000000000000000
  0
LINE
  5
322
100
AcDbEntity
  8
MAIN1
  6
CONTINUOUS
 62
7
100
AcDbLine
 10
214.4252129934226
 20
245.6197464990050
 30
0.0000000000000000
 11
232.0252129934225
 21
245.6197464990045
 31
0.0000000000000000
  0
LINE
  5
323
100
AcDbEntity
  8
MAIN0
  6
CENTER
 62
3
100
AcDbLine
 10
218.7252129934202
 20
235.8292671960115
 30
0.0000000000000000
 11
218.7252129934249
 21
246.9405284951592
 31
0.0000000000000000
  0
LINE
  5
324
100
AcDbEntity
  8
MAIN1
  6
CONTINUOUS
 62
7
100
AcDbLine
 10
214.2252129934225
 20
245.4197464990051
 30
0.0000000000000000
 11
214.2252129934225
 21
245.1197464994543
 31
0.0000000000000000
  0
CIRCLE
  5
325
100
AcDbEntity
  8
MAIN0
  6
HIDDEN
 62
3
100
AcDbCircle
 10
63.72521299308676
 20
196.1197464996549
 30
0.0000000000000000
 40
2.000000000000000
  0
ARC
  5
326
100
AcDbEntity
  8
MAIN0
  6
CONTINUOUS
 62
3
100
AcDbCircle
 10
74.87933727003139
 20
215.8345944159794
 30
0.0000000000000000
 40
2.500000000000000
100
AcDbArc
 50
225.1082228076507
 51
300.9999999991815
  0
ARC
  5
327
100
AcDbEntity
  8
MAIN0
  6
CONTINUOUS
 62
3
100
AcDbCircle
 10
74.87933727003139
 20
215.8345944159794
 30
0.0000000000000000
 40
2.500000000000000
100
AcDbArc
 50
120.9999999991814
 51
177.6671038782297
  0
ARC
  5
328
100
AcDbEntity
  8
MAIN0
  6
CONTINUOUS
 62
3
100
AcDbCircle
 10
98.22521299276394
 20
216.0383307866527
 30
0.0000000000000000
 40
2.500000000000000
100
AcDbArc
 50
239.9999999997635
 51
315.8917771720974
  0
ARC
  5
329
100
AcDbEntity
  8
MAIN0
  6
CONTINUOUS
 62
3
100
AcDbCircle
 10
98.22521299276394
 20
216.0383307866527
 30
0.0000000000000000
 40
2.500000000000000
100
AcDbArc
 50
3.332896130044380
 51
59.99999999976360
  0
ARC
  5
32A
100
AcDbEntity
  8
MAIN0
  6
CONTINUOUS
 62
3
100
AcDbCircle
 10
103.9752129933649
 20
166.2418700690175
 30
0.0000000000000000
 40
5.000000000000000
100
AcDbArc
 50
57.44323319968537
 51
119.9999999999504
  0
LINE
  5
32B
100
AcDbEntity
  8
MAIN0
  6
CONTINUOUS
 62
3
100
AcDbLine
 10
311.8752129934812
 20
245.6197464989703
 30
0.0000000000000000
 11
331.5752129934813
 21
245.6197464989664
 31
0.0000000000000000
  0
LINE
  5
32C
100
AcDbEntity
  8
MAIN0
  6
CONTINUOUS
 62
3
100
AcDbLine
 10
314.9752129934813
 20
237.1197464989344
 30
0.0000000000000000
 11
328.4752129934813
 21
237.1197464989344
 31
0.0000000000000000
  0
LINE
  5
32D
100
AcDbEntity
  8
MAIN0
  6
CONTINUOUS
 62
3
100
AcDbLine
 10
314.9752129934813
 20
231.1197464989344
 30
0.0000000000000000
 11
328.4752129934813
 21
231.1197464989344
 31
0.0000000000000000
  0
LINE
  5
32E
100
AcDbEntity
  8
MAIN0
  6
CONTINUOUS
 62
3
100
AcDbLine
 10
314.9752129934814
 20
222.8197464989055
 30
0.0000000000000000
 11
328.4752129934814
 21
222.8197464989042
 31
0.0000000000000000
  0
LINE
  5
32F
100
AcDbEntity
  8
MAIN0
  6
CONTINUOUS
 62
3
100
AcDbLine
 10
314.9752129934813
 20
214.1197464994029
 30
0.0000000000000000
 11
314.9752129934813
 21
245.2197464989697
 31
0.0000000000000000
  0
LINE
  5
330
100
AcDbEntity
  8
MAIN0
  6
CONTINUOUS
 62
3
100
AcDbLine
 10
311.4752129934813
 20
244.0356885229090
 30
0.0000000000000000
 11
311.4752129934813
 21
245.2197464989704
 31
0.0000000000000000
  0
LINE
  5
331
100
AcDbEntity
  8
MAIN0
  6
CENTER
 62
3
100
AcDbLine
 10
318.1908054320895
 20
242.1197464989344
 30
0.0000000000000000
 11
325.0687017767997
 21
242.1197464989344
 31
0.0000000000000000
  0
LINE
  5
332
100
AcDbEntity
  8
MAIN0
  6
CENTER
 62
3
100
AcDbLine
 10
318.1908054320958
 20
226.1197464990979
 30
0.0000000000000000
 11
325.0687017768061
 21
226.1197464991006
 31
0.0000000000000000
  0
LINE
  5
333
100
AcDbEntity
  8
MAIN0
  6
CENTER
 62
3
100
AcDbLine
 10
317.7336189652488
 20
234.1197464989344
 30
0.0000000000000000
 11
325.1292053863447
 21
234.1197464989344
 31
0.0000000000000000
  0
CIRCLE
  5
334
100
AcDbEntity
  8
MAIN0
  6
CONTINUOUS
 62
3
100
AcDbCircle
 10
321.7252129934813
 20
234.1197464989344
 30
0.0000000000000000
 40
2.500000000015270
  0
LINE
  5
335
100
AcDbEntity
  8
MAIN0
  6
CONTINUOUS
 62
3
100
AcDbLine
 10
328.4752129934813
 20
214.1197464994031
 30
0.0000000000000000
 11
328.4752129934813
 21
245.2197464989671
 31
0.0000000000000000
  0
LINE
  5
336
100
AcDbEntity
  8
MAIN0
  6
CONTINUOUS
 62
3
100
AcDbLine
 10
331.9752129934813
 20
244.0356885229090
 30
0.0000000000000000
 11
331.9752129934813
 21
245.2197464989664
 31
0.0000000000000000
  0
LINE
  5
337
100
AcDbEntity
  8
MAIN0
  6
CONTINUOUS
 62
3
100
AcDbLine
 10
311.4752129934813
 20
245.2197464989704
 30
0.0000000000000000
 11
311.8752129934813
 21
245.6197464989703
 31
0.0000000000000000
  0
LINE
  5
338
100
AcDbEntity
  8
MAIN0
  6
CONTINUOUS
 62
3
100
AcDbLine
 10
331.5752129934812
 20
245.6197464989664
 30
0.0000000000000000
 11
331.9752129934813
 21
245.2197464989663
 31
0.0000000000000000
  0
LINE
  5
339
100
AcDbEntity
  8
MAIN0
  6
CONTINUOUS
 62
3
100
AcDbLine
 10
314.9752129934813
 20
245.2197464989697
 30
0.0000000000000000
 11
315.3752129934812
 21
245.6197464989696
 31
0.0000000000000000
  0
LINE
  5
33A
100
AcDbEntity
  8
MAIN0
  6
CONTINUOUS
 62
3
100
AcDbLine
 10
328.4752129934813
 20
245.2197464989671
 30
0.0000000000000000
 11
328.0752129934812
 21
245.6197464989671
 31
0.0000000000000000
  0
CIRCLE
  5
33B
100
AcDbEntity
  8
MAIN0
  6
CONTINUOUS
 62
3
100
AcDbCircle
 10
281.8880444198181
 20
173.1197464996637
 30
0.0000000000000000
 40
2.000000000000000
  0
CIRCLE
  5
33C
100
AcDbEntity
  8
MAIN0
  6
CONTINUOUS
 62
3
100
AcDbCircle
 10
281.8880444198181
 20
173.1197464996637
 30
0.0000000000000000
 40
1.650000000000000
  0
CIRCLE
  5
33D
100
AcDbEntity
  8
MAIN0
  6
CONTINUOUS
 62
3
100
AcDbCircle
 10
295.7444508802263
 20
181.1197464995811
 30
0.0000000000000000
 40
1.650000000000000
  0
CIRCLE
  5
33E
100
AcDbEntity
  8
MAIN0
  6
CONTINUOUS
 62
3
100
AcDbCircle
 10
295.7444508802263
 20
181.1197464995811
 30
0.0000000000000000
 40
2.000000000000000
  0
CIRCLE
  5
33F
100
AcDbEntity
  8
MAIN0
  6
CONTINUOUS
 62
3
100
AcDbCircle
 10
361.5623815671444
 20
173.1197464996636
 30
0.0000000000000000
 40
2.000000000000000
  0
CIRCLE
  5
340
100
AcDbEntity
  8
MAIN0
  6
CONTINUOUS
 62
3
100
AcDbCircle
 10
361.5623815671444
 20
173.1197464996636
 30
0.0000000000000000
 40
1.650000000000000
  0
CIRCLE
  5
341
100
AcDbEntity
  8
MAIN0
  6
CONTINUOUS
 62
3
100
AcDbCircle
 10
347.7059751067362
 20
181.1197464995811
 30
0.0000000000000000
 40
1.650000000000000
  0
CIRCLE
  5
342
100
AcDbEntity
  8
MAIN0
  6
CONTINUOUS
 62
3
100
AcDbCircle
 10
347.7059751067362
 20
181.1197464995811
 30
0.0000000000000000
 40
2.000000000000000
  0
CIRCLE
  5
343
100
AcDbEntity
  8
MAIN0
  6
CONTINUOUS
 62
3
100
AcDbCircle
 10
66.80662870644943
 20
184.6197464994212
 30
0.0000000000000000
 40
4.749999999999996
  0
CIRCLE
  5
344
100
AcDbEntity
  8
MAIN0
  6
CONTINUOUS
 62
3
100
AcDbCircle
 10
106.6437972805336
 20
184.6197464994210
 30
0.0000000000000000
 40
4.749999999999996
  0
CIRCLE
  5
345
100
AcDbEntity
  8
MAIN0
  6
CONTINUOUS
 62
3
100
AcDbCircle
 10
66.80662870644943
 20
207.6197464994208
 30
0.0000000000000000
 40
4.250000000000000
  0
LINE
  5
346
100
AcDbEntity
  8
MAIN0
  6
CONTINUOUS
 62
3
100
AcDbLine
 10
64.80662870644946
 20
208.7744470378001
 30
0.0000000000000000
 11
64.80662870644946
 21
206.4650459610415
 31
0.0000000000000000
  0
LINE
  5
347
100
AcDbEntity
  8
MAIN0
  6
CONTINUOUS
 62
3
100
AcDbLine
 10
64.80662870644943
 20
206.4650459610415
 30
0.0000000000000000
 11
66.80662870644943
 21
205.3103454226623
 31
0.0000000000000000
  0
LINE
  5
348
100
AcDbEntity
  8
MAIN0
  6
CONTINUOUS
 62
3
100
AcDbLine
 10
66.80662870644943
 20
205.3103454226623
 30
0.0000000000000000
 11
68.80662870644943
 21
206.4650459610415
 31
0.0000000000000000
  0
LINE
  5
349
100
AcDbEntity
  8
MAIN0
  6
CONTINUOUS
 62
3
100
AcDbLine
 10
68.80662870644940
 20
206.4650459610415
 30
0.0000000000000000
 11
68.80662870644940
 21
208.7744470378001
 31
0.0000000000000000
  0
LINE
  5
34A
100
AcDbEntity
  8
MAIN0
  6
CONTINUOUS
 62
3
100
AcDbLine
 10
68.80662870644943
 20
208.7744470378001
 30
0.0000000000000000
 11
66.80662870644943
 21
209.9291475761793
 31
0.0000000000000000
  0
LINE
  5
34B
100
AcDbEntity
  8
MAIN0
  6
CONTINUOUS
 62
3
100
AcDbLine
 10
66.80662870644946
 20
209.9291475761793
 30
0.0000000000000000
 11
64.80662870644943
 21
208.7744470378000
 31
0.0000000000000000
  0
CIRCLE
  5
34C
100
AcDbEntity
  8
MAIN0
  6
CONTINUOUS
 62
3
100
AcDbCircle
 10
86.72521299349160
 20
173.1197464994209
 30
0.0000000000000000
 40
4.250000000000000
  0
LINE
  5
34D
100
AcDbEntity
  8
MAIN0
  6
CONTINUOUS
 62
3
100
AcDbLine
 10
86.72521299349157
 20
170.8103454226624
 30
0.0000000000000000
 11
88.72521299349154
 21
171.9650459610417
 31
0.0000000000000000
  0
LINE
  5
34E
100
AcDbEntity
  8
MAIN0
  6
CONTINUOUS
 62
3
100
AcDbLine
 10
88.72521299349157
 20
171.9650459610416
 30
0.0000000000000000
 11
88.72521299349157
 21
174.2744470378001
 31
0.0000000000000000
  0
LINE
  5
34F
100
AcDbEntity
  8
MAIN0
  6
CONTINUOUS
 62
3
100
AcDbLine
 10
88.72521299349162
 20
174.2744470378001
 30
0.0000000000000000
 11
86.72521299349165
 21
175.4291475761794
 31
0.0000000000000000
  0
LINE
  5
350
100
AcDbEntity
  8
MAIN0
  6
CONTINUOUS
 62
3
100
AcDbLine
 10
86.72521299349154
 20
175.4291475761794
 30
0.0000000000000000
 11
84.72521299349151
 21
174.2744470378001
 31
0.0000000000000000
  0
LINE
  5
351
100
AcDbEntity
  8
MAIN0
  6
CONTINUOUS
 62
3
100
AcDbLine
 10
84.72521299349157
 20
174.2744470378001
 30
0.0000000000000000
 11
84.72521299349157
 21
171.9650459610416
 31
0.0000000000000000
  0
LINE
  5
352
100
AcDbEntity
  8
MAIN0
  6
CONTINUOUS
 62
3
100
AcDbLine
 10
84.72521299349162
 20
171.9650459610416
 30
0.0000000000000000
 11
86.72521299349165
 21
170.8103454226624
 31
0.0000000000000000
  0
LINE
  5
353
100
AcDbEntity
  8
MAIN0
  6
CONTINUOUS
 62
3
100
AcDbLine
 10
301.2292784371419
 20
212.6197464996075
 30
0.0000000000000000
 11
297.1878265530301
 21
205.6197464999811
 31
0.0000000000000000
  0
ARC
  5
354
100
AcDbEntity
  8
MAIN0
  6
CENTER
 62
3
100
AcDbCircle
 10
321.7252129931576
 20
196.1197464996075
 30
0.0000000000000000
 40
22.00000000000000
100
AcDbArc
 50
257.3400338053926
 51
281.5195201612909
  0
LINE
  5
355
100
AcDbEntity
  8
MAIN0
  6
CONTINUOUS
 62
3
100
AcDbLine
 10
351.2252129934899
 20
81.60576787211478
 30
0.0000000000000000
 11
351.2252129934899
 21
84.80576787211474
 31
0.0000000000000000
  0
LEADER
  5
356
100
AcDbEntity
  8
MAIN0
  6
CONTINUOUS
 62
3
100
AcDbLeader
  3
MAIN001
 73
     0
 74
     0
 75
     1
 40
3.099999904632568
 41
32.38100088930128
 76
     3
 10
323.6381891550549
 20
226.7032893040853
 30
0.0000000000000000
 10
372.2304803769255
 20
241.5260991696205
 30
0.0000000000000000
 10
374.1554803211355
 20
241.5260991696205
 30
0.0000000000000000
340
357
213
0.0000000000000000
223
-0.5000000000000000
233
0.0000000000000000
1001
ACAD
1000
DSTYLE
1002
{
1070
   147
1040
0.0
1070
    77
1070
     1
1070
   173
1070
     1
1070
     6
1000
_OPEN
1070
     7
1000
_OPEN
1002
}
  0
MTEXT
  5
357
102
{ACAD_REACTORS
330
356
102
}
100
AcDbEntity
  8
MAIN0
  6
CONTINUOUS
 62
3
100
AcDbMText
 10
374.1564803211355
 20
245.1260990742530
 30
0.0000000000000000
 40
3.099999904632568
 41
0.0000000000000000
 71
     1
 72
     1
  1
{\H0.93x;{3X2-M4 ねじ深7\PDepth 7}}
 11
1.000000000000000
 21
0.0000000000000000
 31
0.0000000000000000
  7
KNJYOKO
  0
LINE
  5
358
100
AcDbEntity
  8
MAIN0
  6
CONTINUOUS
 62
3
100
AcDbLine
 10
200.1252129934251
 20
225.6197464994543
 30
0.0000000000000000
 11
203.3252129934251
 21
225.6197464994543
 31
0.0000000000000000
  0
LEADER
  5
359
100
AcDbEntity
  8
MAIN0
  6
CONTINUOUS
 62
3
100
AcDbLeader
  3
MAIN001
 73
     0
 74
     0
 75
     1
 40
3.099999904632568
 41
10.78100032901762
 76
     3
 10
334.5744515289057
 20
108.0808726600058
 30
0.0000000000000000
 10
340.0502166493535
 20
120.6464043964212
 30
0.0000000000000000
 10
341.9752165935636
 20
120.6464043964212
 30
0.0000000000000000
340
35A
213
0.0000000000000000
223
-0.5000000000000000
233
0.0000000000000000
1001
ACAD
1000
DSTYLE
1002
{
1070
   147
1040
0.0
1070
    77
1070
     1
1070
   173
1070
     1
1070
     6
1000
_OPEN
1070
     7
1000
_OPEN
1002
}
  0
MTEXT
  5
35A
102
{ACAD_REACTORS
330
359
102
}
100
AcDbEntity
  8
MAIN0
  6
CONTINUOUS
 62
3
100
AcDbMText
 10
341.9762165935636
 20
124.2464043010538
 30
0.0000000000000000
 40
3.099999904632568
 41
0.0000000000000000
 71
     1
 72
     1
  1
{\H0.91x;{3-M3}}
 11
1.000000000000000
 21
0.0000000000000000
 31
0.0000000000000000
  7
STANDARD
  0
CIRCLE
  5
35B
100
AcDbEntity
  8
MAIN0
  6
CONTINUOUS
 62
3
100
AcDbCircle
 10
321.7252129934813
 20
242.1197464989344
 30
0.0000000000000000
 40
2.000000000000000
  0
CIRCLE
  5
35C
100
AcDbEntity
  8
MAIN0
  6
CONTINUOUS
 62
3
100
AcDbCircle
 10
321.7252129934813
 20
242.1197464989344
 30
0.0000000000000000
 40
1.650000000000000
  0
CIRCLE
  5
35D
100
AcDbEntity
  8
MAIN0
  6
CONTINUOUS
 62
3
100
AcDbCircle
 10
321.7252129934813
 20
226.1197464990993
 30
0.0000000000000000
 40
1.650000000000000
  0
CIRCLE
  5
35E
100
AcDbEntity
  8
MAIN0
  6
CONTINUOUS
 62
3
100
AcDbCircle
 10
321.7252129934813
 20
226.1197464990993
 30
0.0000000000000000
 40
2.000000000000000
  0
LINE
  5
35F
100
AcDbEntity
  8
WAKU0
  6
CONTINUOUS
 62
3
100
AcDbLine
 10
240.0000000000000
 20
51.00000000000000
 30
0.0000000000000000
 11
410.0000000000000
 21
51.00000000000000
 31
0.0000000000000000
  0
LINE
  5
360
100
AcDbEntity
  8
WAKU0
  6
CONTINUOUS
 62
3
100
AcDbLine
 10
240.0000000000000
 20
51.00000000000000
 30
0.0000000000000000
 11
240.0000000000000
 21
12.00000000000000
 31
0.0000000000000000
  0
LINE
  5
361
100
AcDbEntity
  8
WAKU0
  6
CONTINUOUS
 62
3
100
AcDbLine
 10
312.0000000000000
 20
51.00000000000000
 30
0.0000000000000000
 11
312.0000000000000
 21
12.00000000000000
 31
0.0000000000000000
  0
LINE
  5
362
100
AcDbEntity
  8
WAKU0
  6
CONTINUOUS
 62
3
100
AcDbLine
 10
332.0000000000000
 20
51.00000000000000
 30
0.0000000000000000
 11
332.0000000000000
 21
12.00000000000000
 31
0.0000000000000000
  0
LINE
  5
363
100
AcDbEntity
  8
WAKU0
  6
CONTINUOUS
 62
3
100
AcDbLine
 10
344.0000000000000
 20
51.00000000000000
 30
0.0000000000000000
 11
344.0000000000000
 21
12.00000000000000
 31
0.0000000000000000
  0
LINE
  5
364
100
AcDbEntity
  8
WAKU0
  6
CONTINUOUS
 62
3
100
AcDbLine
 10
344.0000000000000
 20
37.00000000000000
 30
0.0000000000000000
 11
410.0000000000000
 21
37.00000000000000
 31
0.0000000000000000
  0
LINE
  5
365
100
AcDbEntity
  8
WAKU0
  6
CONTINUOUS
 62
3
100
AcDbLine
 10
332.0000000000000
 20
23.00000000000000
 30
0.0000000000000000
 11
410.0000000000000
 21
23.00000000000000
 31
0.0000000000000000
  0
LINE
  5
366
100
AcDbEntity
  8
WAKU0
  6
CONTINUOUS
 62
3
100
AcDbLine
 10
375.0000000000000
 20
51.00000000000000
 30
0.0000000000000000
 11
375.0000000000000
 21
44.00000000000000
 31
0.0000000000000000
  0
LINE
  5
367
100
AcDbEntity
  8
WAKU0
  6
CONTINUOUS
 62
3
100
AcDbLine
 10
387.0000000000000
 20
51.00000000000000
 30
0.0000000000000000
 11
387.0000000000000
 21
44.00000000000000
 31
0.0000000000000000
  0
LINE
  5
368
100
AcDbEntity
  8
WAKU0
  6
CONTINUOUS
 62
3
100
AcDbLine
 10
312.0000000000000
 20
31.50000000000000
 30
0.0000000000000000
 11
332.0000000000000
 21
31.50000000000000
 31
0.0000000000000000
  0
LINE
  5
369
100
AcDbEntity
  8
WAKU0
  6
CONTINUOUS
 62
3
100
AcDbLine
 10
332.0000000000000
 20
44.00000000000000
 30
0.0000000000000000
 11
410.0000000000000
 21
44.00000000000000
 31
0.0000000000000000
  0
LINE
  5
36A
100
AcDbEntity
  8
WAKU0
  6
CONTINUOUS
 62
3
100
AcDbLine
 10
240.0000000000000
 20
37.00000000000000
 30
0.0000000000000000
 11
312.0000000000000
 21
37.00000000000000
 31
0.0000000000000000
  0
LINE
  5
36B
100
AcDbEntity
  8
WAKU0
  6
CONTINUOUS
 62
3
100
AcDbLine
 10
240.0000000000000
 20
23.00000000000000
 30
0.0000000000000000
 11
312.0000000000000
 21
23.00000000000000
 31
0.0000000000000000
  0
LINE
  5
36C
100
AcDbEntity
  8
WAKU0
  6
CONTINUOUS
 62
3
100
AcDbLine
 10
288.0000000000000
 20
37.00000000000000
 30
0.0000000000000000
 11
288.0000000000000
 21
12.00000000000000
 31
0.0000000000000000
  0
LINE
  5
36D
100
AcDbEntity
  8
WAKU0
  6
CONTINUOUS
 62
3
100
AcDbLine
 10
264.0000000000000
 20
37.00000000000000
 30
0.0000000000000000
 11
264.0000000000000
 21
23.00000000000000
 31
0.0000000000000000
  0
LINE
  5
36E
100
AcDbEntity
  8
WAKU0
  6
CONTINUOUS
 62
3
100
AcDbLine
 10
300.0000000000000
 20
26.00000000000000
 30
0.0000000000000000
 11
300.0000000000000
 21
23.00000000000000
 31
0.0000000000000000
  0
LINE
  5
36F
100
AcDbEntity
  8
WAKU0
  6
CONTINUOUS
 62
3
100
AcDbLine
 10
276.0000000000000
 20
26.00000000000000
 30
0.0000000000000000
 11
276.0000000000000
 21
23.00000000000000
 31
0.0000000000000000
  0
LINE
  5
370
100
AcDbEntity
  8
WAKU0
  6
CONTINUOUS
 62
3
100
AcDbLine
 10
252.0000000000000
 20
26.00000000000000
 30
0.0000000000000000
 11
252.0000000000000
 21
23.00000000000000
 31
0.0000000000000000
  0
LINE
  5
371
100
AcDbEntity
  8
WAKU0
  6
CONTINUOUS
 62
3
100
AcDbLine
 10
258.0000000000000
 20
51.00000000000000
 30
0.0000000000000000
 11
258.0000000000000
 21
37.00000000000000
 31
0.0000000000000000
  0
LINE
  5
372
100
AcDbEntity
  8
WAKU0
  6
CONTINUOUS
 62
3
100
AcDbLine
 10
240.0000000000000
 20
45.00000000000000
 30
0.0000000000000000
 11
312.0000000000000
 21
45.00000000000000
 31
0.0000000000000000
  0
LINE
  5
373
100
AcDbEntity
  8
WAKU0
  6
HIDDEN
 62
3
100
AcDbLine
 10
360.5000000000000
 20
23.00000000000000
 30
0.0000000000000000
 11
360.5000000000000
 21
12.00000000000000
 31
0.0000000000000000
  0
LINE
  5
374
100
AcDbEntity
  8
WAKU0
  6
HIDDEN
 62
3
100
AcDbLine
 10
372.9000000000000
 20
23.00000000000000
 30
0.0000000000000000
 11
372.9000000000000
 21
12.00000000000000
 31
0.0000000000000000
  0
MTEXT
  5
375
100
AcDbEntity
  8
WAKU0
  6
CONTINUOUS
 62
3
100
AcDbMText
 10
344.4820000243485
 20
49.04999995231628
 30
0.0000000000000000
 40
3.099999904632568
 41
0.0000000000000000
 71
     1
 72
     1
  1
{\H0.92x;{QG30810}}
 11
1.000000000000000
 21
0.0000000000000000
 31
0.0000000000000000
  7
STANDARD
  0
MTEXT
  5
376
100
AcDbEntity
  8
WAKU0
  6
CONTINUOUS
 62
3
100
AcDbMText
 10
365.3900001943111
 20
43.50000000000000
 30
0.0000000000000000
 40
3.000000000000000
 41
0.0000000000000000
 71
     1
 72
     1
  1
{\H0.93x;{グリッパ\PＧＲＩＰＰＥＲ}}
 11
1.000000000000000
 21
0.0000000000000000
 31
0.0000000000000000
  7
KNJYOKO
  0
MTEXT
  5
377
100
AcDbEntity
  8
WAKU0
  6
CONTINUOUS
 62
3
100
AcDbMText
 10
351.0499999858439
 20
34.23333326975504
 30
0.0000000000000000
 40
3.099999904632568
 41
0.0000000000000000
 71
     1
 72
     1
  1
{\H0.70x;{ＱＧ３０８１０　ガイケイ\PＱＧ３０８１０　ＯＵＴＳＩＤＥ　ＶＩＥＷ}}
 11
1.000000000000000
 21
0.0000000000000000
 31
0.0000000000000000
  7
KNJYOKO
  0
MTEXT
  5
378
100
AcDbEntity
  8
WAKU0
  6
CONTINUOUS
 62
3
100
AcDbMText
 10
318.0049998760223
 20
39.29999995231628
 30
0.0000000000000000
 40
3.099999904632568
 41
0.0000000000000000
 71
     1
 72
     1
  1
{\H0.90x;{1:1}}
 11
1.000000000000000
 21
0.0000000000000000
 31
0.0000000000000000
  7
STANDARD
  0
MTEXT
  5
379
100
AcDbEntity
  8
WAKU0
  6
CONTINUOUS
 62
3
100
AcDbMText
 10
374.4000001549721
 20
20.15000009536743
 30
0.0000000000000000
 40
5.300000190734863
 41
0.0000000000000000
 71
     1
 72
     1
  1
{\H0.90x;{1489}}
 11
1.000000000000000
 21
0.0000000000000000
 31
0.0000000000000000
  7
STANDARD
  0
MTEXT
  5
37A
100
AcDbEntity
  8
WAKU0
  6
CONTINUOUS
 62
3
100
AcDbMText
 10
362.3000000834465
 20
20.15000009536743
 30
0.0000000000000000
 40
5.300000190734863
 41
0.0000000000000000
 71
     1
 72
     1
  1
{\H0.87x;{84}}
 11
1.000000000000000
 21
0.0000000000000000
 31
0.0000000000000000
  7
STANDARD
  0
MTEXT
  5
37B
100
AcDbEntity
  8
WAKU0
  6
CONTINUOUS
 62
3
100
AcDbMText
 10
345.5000001192093
 20
20.15000009536743
 30
0.0000000000000000
 40
5.300000190734863
 41
0.0000000000000000
 71
     1
 72
     1
  1
{\H0.89x;{61G}}
 11
1.000000000000000
 21
0.0000000000000000
 31
0.0000000000000000
  7
STANDARD
  0
MTEXT
  5
37C
100
AcDbEntity
  8
WAKU0
  6
CONTINUOUS
 62
3
100
AcDbMText
 10
400.0000000476837
 20
20.15000009536743
 30
0.0000000000000000
 40
5.300000190734863
 41
0.0000000000000000
 71
     1
 72
     1
  1
{\H0.81x;{3}}
 11
1.000000000000000
 21
0.0000000000000000
 31
0.0000000000000000
  7
STANDARD
  0
MTEXT
  5
37D
100
AcDbEntity
  8
WAKU0
  6
CONTINUOUS
 62
3
100
AcDbMText
 10
400.0000000819564
 20
44.84999990463257
 30
0.0000000000000000
 40
5.300000190734863
 41
0.0000000000000000
 71
     7
 72
     1
  1
{\H0.81x;{ }}
 11
1.000000000000000
 21
0.0000000000000000
 31
0.0000000000000000
  7
STANDARD
  0
MTEXT
  5
37E
100
AcDbEntity
  8
WAKU0
  6
CONTINUOUS
 62
3
100
AcDbMText
 10
289.3850002884865
 20
33.00000000000000
 30
0.0000000000000000
 40
3.000000000000000
 41
0.0000000000000000
 71
     7
 72
     1
  1
{\H0.93x;{DRAWN BY}}
 11
1.000000000000000
 21
0.0000000000000000
 31
0.0000000000000000
  7
STANDARD
  0
MTEXT
  5
37F
100
AcDbEntity
  8
WAKU0
  6
CONTINUOUS
 62
3
100
AcDbMText
 10
269.2149997949600
 20
32.95000004768372
 30
0.0000000000000000
 40
3.099999904632568
 41
0.0000000000000000
 71
     7
 72
     1
  1
{\H0.92x;{CHIEF}}
 11
1.000000000000000
 21
0.0000000000000000
 31
0.0000000000000000
  7
STANDARD
  0
MTEXT
  5
380
100
AcDbEntity
  8
WAKU0
  6
CONTINUOUS
 62
3
100
AcDbMText
 10
242.4249997138977
 20
32.95000004768372
 30
0.0000000000000000
 40
3.099999904632568
 41
0.0000000000000000
 71
     7
 72
     1
  1
{\H0.92x;{MANAGER}}
 11
1.000000000000000
 21
0.0000000000000000
 31
0.0000000000000000
  7
STANDARD
  0
MTEXT
  5
381
100
AcDbEntity
  8
WAKU0
  6
CONTINUOUS
 62
3
100
AcDbMText
 10
244.6599994301796
 20
18.13333336512248
 30
0.0000000000000000
 40
3.099999904632568
 41
0.0000000000000000
 71
     7
 72
     1
  1
{\H0.93x;{KITAGAWA IRON\PWORKS CO.,LTD.}}
 11
1.000000000000000
 21
0.0000000000000000
 31
0.0000000000000000
  7
STANDARD
  0
MTEXT
  5
382
100
AcDbEntity
  8
WAKU0
  6
CONTINUOUS
 62
3
100
AcDbMText
 10
241.0850002169609
 20
46.50000000000000
 30
0.0000000000000000
 40
3.000000000000000
 41
0.0000000000000000
 71
     7
 72
     1
  1
{\H0.92x;{CAREER}}
 11
1.000000000000000
 21
0.0000000000000000
 31
0.0000000000000000
  7
STANDARD
  0
MTEXT
  5
383
100
AcDbEntity
  8
WAKU0
  6
CONTINUOUS
 62
3
100
AcDbMText
 10
294.6099998354912
 20
18.95000004768372
 30
0.0000000000000000
 40
3.099999904632568
 41
0.0000000000000000
 71
     7
 72
     1
  1
{\H0.91x;{DATE}}
 11
1.000000000000000
 21
0.0000000000000000
 31
0.0000000000000000
  7
STANDARD
  0
MTEXT
  5
384
100
AcDbEntity
  8
WAKU0
  6
CONTINUOUS
 62
3
100
AcDbMText
 10
313.9000002145767
 20
26.50000000000000
 30
0.0000000000000000
 40
3.000000000000000
 41
0.0000000000000000
 71
     7
 72
     1
  1
{\H0.63x;{3RD ANGLE}}
 11
1.000000000000000
 21
0.0000000000000000
 31
0.0000000000000000
  7
STANDARD
  0
MTEXT
  5
385
100
AcDbEntity
  8
WAKU0
  6
CONTINUOUS
 62
3
100
AcDbMText
 10
315.2149997949600
 20
45.95000004768372
 30
0.0000000000000000
 40
3.099999904632568
 41
0.0000000000000000
 71
     7
 72
     1
  1
{\H0.92x;{SCALE}}
 11
1.000000000000000
 21
0.0000000000000000
 31
0.0000000000000000
  7
STANDARD
  0
MTEXT
  5
386
100
AcDbEntity
  8
WAKU0
  6
CONTINUOUS
 62
3
100
AcDbMText
 10
405.7000000476837
 20
46.00000000000000
 30
0.0000000000000000
 40
3.000000000000000
 41
0.0000000000000000
 71
     7
 72
     1
  1
{\H0.63x;{kg}}
 11
1.000000000000000
 21
0.0000000000000000
 31
0.0000000000000000
  7
STANDARD
  0
MTEXT
  5
387
100
AcDbEntity
  8
WAKU0
  6
CONTINUOUS
 62
3
100
AcDbMText
 10
375.6000001430512
 20
46.00000000000000
 30
0.0000000000000000
 40
3.000000000000000
 41
0.0000000000000000
 71
     7
 72
     1
  1
{\H0.63x;{WEIGHT}}
 11
1.000000000000000
 21
0.0000000000000000
 31
0.0000000000000000
  7
STANDARD
  0
MTEXT
  5
388
100
AcDbEntity
  8
WAKU0
  6
CONTINUOUS
 62
3
100
AcDbMText
 10
334.0049998760223
 20
18.13333336512248
 30
0.0000000000000000
 40
3.099999904632568
 41
0.0000000000000000
 71
     7
 72
     1
  1
{\H0.90x;{DRW\PNO.}}
 11
1.000000000000000
 21
0.0000000000000000
 31
0.0000000000000000
  7
STANDARD
  0
MTEXT
  5
389
100
AcDbEntity
  8
WAKU0
  6
CONTINUOUS
 62
3
100
AcDbMText
 10
332.6099998354912
 20
31.95000004768372
 30
0.0000000000000000
 40
3.099999904632568
 41
0.0000000000000000
 71
     7
 72
     1
  1
{\H0.91x;{NAME}}
 11
1.000000000000000
 21
0.0000000000000000
 31
0.0000000000000000
  7
STANDARD
  0
MTEXT
  5
38A
100
AcDbEntity
  8
WAKU0
  6
CONTINUOUS
 62
3
100
AcDbMText
 10
332.6099998354912
 20
45.95000004768372
 30
0.0000000000000000
 40
3.099999904632568
 41
0.0000000000000000
 71
     7
 72
     1
  1
{\H0.91x;{TYPE}}
 11
1.000000000000000
 21
0.0000000000000000
 31
0.0000000000000000
  7
STANDARD
  0
LINE
  5
38B
100
AcDbEntity
  8
WAKU0
  6
HIDDEN
 62
3
100
AcDbLine
 10
407.1599564743885
 20
13.84999990463257
 30
0.0000000000000000
 11
396.9400436209789
 21
13.84999990463257
 31
0.0000000000000000
  0
LINE
  5
38C
100
AcDbEntity
  8
WAKU0
  6
HIDDEN
 62
3
100
AcDbLine
 10
407.1599564743885
 20
13.84999990463250
 30
0.0000000000000000
 11
402.0500000476852
 21
22.70070406014901
 31
0.0000000000000000
  0
LINE
  5
38D
100
AcDbEntity
  8
WAKU0
  6
HIDDEN
 62
3
100
AcDbLine
 10
402.0500000476852
 20
22.70070406014902
 30
0.0000000000000000
 11
396.9400436209789
 21
13.84999990463248
 31
0.0000000000000000
  0
LINE
  5
38E
100
AcDbEntity
  8
WAKU0
  6
CONTINUOUS
 62
3
100
AcDbLine
 10
330.4713877753800
 20
15.78041421262812
 30
0.0000000000000000
 11
330.4713877753800
 21
21.78041421262815
 31
0.0000000000000000
  0
LINE
  5
38F
100
AcDbEntity
  8
WAKU0
  6
CONTINUOUS
 62
3
100
AcDbLine
 10
323.9336941228225
 20
17.28041421262811
 30
0.0000000000000000
 11
323.9336941228225
 21
20.28041421262824
 31
0.0000000000000000
  0
LINE
  5
390
100
AcDbEntity
  8
WAKU0
  6
CENTER
 62
12
100
AcDbLine
 10
313.4321805514995
 20
18.78041421262813
 30
0.0000000000000000
 11
331.2765788964694
 21
18.78041421262813
 31
0.0000000000000000
  0
LINE
  5
391
100
AcDbEntity
  8
WAKU0
  6
CENTER
 62
12
100
AcDbLine
 10
317.4474565857986
 20
14.55921662918448
 30
0.0000000000000000
 11
317.4474565857986
 21
22.89865102149943
 31
0.0000000000000000
  0
LINE
  5
392
100
AcDbEntity
  8
WAKU0
  6
CONTINUOUS
 62
3
100
AcDbLine
 10
323.9336941228225
 20
20.28041421262797
 30
0.0000000000000000
 11
330.4713877753800
 21
21.78041421262795
 31
0.0000000000000000
  0
LINE
  5
393
100
AcDbEntity
  8
WAKU0
  6
CONTINUOUS
 62
3
100
AcDbLine
 10
323.9336941228225
 20
17.28041421262811
 30
0.0000000000000000
 11
330.4713877753799
 21
15.78041421262812
 31
0.0000000000000000
  0
CIRCLE
  5
394
100
AcDbEntity
  8
WAKU0
  6
CONTINUOUS
 62
3
100
AcDbCircle
 10
317.4474565857986
 20
18.78041421262813
 30
0.0000000000000000
 40
1.499999999999972
  0
CIRCLE
  5
395
100
AcDbEntity
  8
WAKU0
  6
CONTINUOUS
 62
3
100
AcDbCircle
 10
317.4474565857986
 20
18.78041421262813
 30
0.0000000000000000
 40
2.999999999999979
  0
ENDSEC
  0
SECTION
  2
OBJECTS
  0
DICTIONARY
  5
3D5
100
AcDbDictionary
  3
ACAD_GROUP
350
3D6
  3
ACAD_MLINESTYLE
350
3D7
  0
DICTIONARY
  5
3D6
102
{ACAD_REACTORS
330
3D5
102
}
100
AcDbDictionary
  0
DICTIONARY
  5
3D7
102
{ACAD_REACTORS
330
3D5
102
}
100
AcDbDictionary
  3
STANDARD
350
3D8
  0
MLINESTYLE
  5
3D8
102
{ACAD_REACTORS
330
3D7
102
}
100
AcDbMlineStyle
  2
STANDARD
 70
     0
  3

 62
   256
 51
90.00
 52
90.00
 71
     2
 49
0.50
 62
   256
  6
BYLAYER
 49
-0.50
 62
   256
  6
BYLAYER
  0
ENDSEC
  0
EOF
